  0
SECTION
  2
HEADER
  9
$ACADVER
  1
AC1015
  9
$ACADMAINTVER
 70
     6
  9
$DWGCODEPAGE
  3
ANSI_1252
  9
$INSBASE
 10
0.0
 20
0.0
 30
0.0
  9
$EXTMIN
 10
0.0
 20
0.0
 30
0.0
  9
$EXTMAX
 10
279.4
 20
215.9
 30
0.0
  9
$LIMMIN
 10
0.0
 20
0.0
  9
$LIMMAX
 10
279.4
 20
215.9
  9
$ORTHOMODE
 70
     0
  9
$REGENMODE
 70
     1
  9
$FILLMODE
 70
     1
  9
$QTEXTMODE
 70
     0
  9
$MIRRTEXT
 70
     1
  9
$LTSCALE
 40
1.0
  9
$ATTMODE
 70
     1
  9
$TEXTSIZE
 40
2.8222222222
  9
$TRACEWID
 40
1.0
  9
$TEXTSTYLE
  7
Standard
  9
$CLAYER
  8
0
  9
$CELTYPE
  6
ByLayer
  9
$CECOLOR
 62
   256
  9
$CELTSCALE
 40
1.0
  9
$DISPSILH
 70
     0
  9
$DIMSCALE
 40
1.0
  9
$DIMASZ
 40
3.175
  9
$DIMEXO
 40
1.27
  9
$DIMDLI
 40
3.75
  9
$DIMRND
 40
0.0
  9
$DIMDLE
 40
0.0
  9
$DIMEXE
 40
1.778
  9
$DIMTP
 40
0.0
  9
$DIMTM
 40
0.0
  9
$DIMTXT
 40
2.8222222222
  9
$DIMCEN
 40
2.5
  9
$DIMTSZ
 40
0.0
  9
$DIMTOL
 70
     0
  9
$DIMLIM
 70
     0
  9
$DIMTIH
 70
     1
  9
$DIMTOH
 70
     1
  9
$DIMSE1
 70
     0
  9
$DIMSE2
 70
     0
  9
$DIMTAD
 70
     0
  9
$DIMZIN
 70
     1
  9
$DIMBLK
  1

  9
$DIMASO
 70
     1
  9
$DIMSHO
 70
     1
  9
$DIMPOST
  1

  9
$DIMAPOST
  1

  9
$DIMALT
 70
     0
  9
$DIMALTD
 70
     3
  9
$DIMALTF
 40
0.0393700787
  9
$DIMLFAC
 40
1.0
  9
$DIMTOFL
 70
     1
  9
$DIMTVP
 40
0.0
  9
$DIMTIX
 70
     0
  9
$DIMSOXD
 70
     0
  9
$DIMSAH
 70
     0
  9
$DIMBLK1
  1

  9
$DIMBLK2
  1

  9
$DIMSTYLE
  2
ISO-25
  9
$DIMCLRD
 70
     0
  9
$DIMCLRE
 70
     0
  9
$DIMCLRT
 70
     0
  9
$DIMTFAC
 40
1.0
  9
$DIMGAP
 40
2.54
  9
$DIMJUST
 70
     0
  9
$DIMSD1
 70
     0
  9
$DIMSD2
 70
     0
  9
$DIMTOLJ
 70
     0
  9
$DIMTZIN
 70
     1
  9
$DIMALTZ
 70
     0
  9
$DIMALTTZ
 70
     0
  9
$DIMUPT
 70
     0
  9
$DIMDEC
 70
     1
  9
$DIMTDEC
 70
     1
  9
$DIMALTU
 70
     2
  9
$DIMALTTD
 70
     3
  9
$DIMTXSTY
  7
Standard
  9
$DIMAUNIT
 70
     0
  9
$DIMADEC
 70
     0
  9
$DIMALTRND
 40
0.0
  9
$DIMAZIN
 70
     0
  9
$DIMDSEP
 70
    44
  9
$DIMATFIT
 70
     3
  9
$DIMFRAC
 70
     0
  9
$DIMLDRBLK
  1

  9
$DIMLUNIT
 70
     2
  9
$DIMLWD
 70
    -2
  9
$DIMLWE
 70
    -2
  9
$DIMTMOVE
 70
     0
  9
$LUNITS
 70
     2
  9
$LUPREC
 70
     1
  9
$SKETCHINC
 40
1.0
  9
$FILLETRAD
 40
10.0
  9
$AUNITS
 70
     0
  9
$AUPREC
 70
     0
  9
$MENU
  1
.
  9
$ELEVATION
 40
0.0
  9
$PELEVATION
 40
0.0
  9
$THICKNESS
 40
0.0
  9
$LIMCHECK
 70
     0
  9
$CHAMFERA
 40
0.0
  9
$CHAMFERB
 40
0.0
  9
$CHAMFERC
 40
0.0
  9
$CHAMFERD
 40
0.0
  9
$SKPOLY
 70
     0
  9
$TDCREATE
 40
2457581.54868331
  9
$TDUCREATE
 40
2457581.215349977
  9
$TDUPDATE
 40
2457581.548686563
  9
$TDUUPDATE
 40
2457581.215353229
  9
$TDINDWG
 40
0.0000000116
  9
$TDUSRTIMER
 40
0.0000000116
  9
$USRTIMER
 70
     1
  9
$ANGBASE
 50
0.0
  9
$ANGDIR
 70
     0
  9
$PDMODE
 70
     0
  9
$PDSIZE
 40
-1.0
  9
$PLINEWID
 40
0.0
  9
$SPLFRAME
 70
     0
  9
$SPLINETYPE
 70
     6
  9
$SPLINESEGS
 70
     8
  9
$HANDSEED
  5
39D
  9
$SURFTAB1
 70
     6
  9
$SURFTAB2
 70
     6
  9
$SURFTYPE
 70
     6
  9
$SURFU
 70
     6
  9
$SURFV
 70
     6
  9
$UCSBASE
  2

  9
$UCSNAME
  2

  9
$UCSORG
 10
0.0
 20
0.0
 30
0.0
  9
$UCSXDIR
 10
1.0
 20
0.0
 30
0.0
  9
$UCSYDIR
 10
0.0
 20
1.0
 30
0.0
  9
$UCSORTHOREF
  2

  9
$UCSORTHOVIEW
 70
     0
  9
$UCSORGTOP
 10
0.0
 20
0.0
 30
0.0
  9
$UCSORGBOTTOM
 10
0.0
 20
0.0
 30
0.0
  9
$UCSORGLEFT
 10
0.0
 20
0.0
 30
0.0
  9
$UCSORGRIGHT
 10
0.0
 20
0.0
 30
0.0
  9
$UCSORGFRONT
 10
0.0
 20
0.0
 30
0.0
  9
$UCSORGBACK
 10
0.0
 20
0.0
 30
0.0
  9
$PUCSBASE
  2

  9
$PUCSNAME
  2

  9
$PUCSORG
 10
0.0
 20
0.0
 30
0.0
  9
$PUCSXDIR
 10
1.0
 20
0.0
 30
0.0
  9
$PUCSYDIR
 10
0.0
 20
1.0
 30
0.0
  9
$PUCSORTHOREF
  2

  9
$PUCSORTHOVIEW
 70
     0
  9
$PUCSORGTOP
 10
0.0
 20
0.0
 30
0.0
  9
$PUCSORGBOTTOM
 10
0.0
 20
0.0
 30
0.0
  9
$PUCSORGLEFT
 10
0.0
 20
0.0
 30
0.0
  9
$PUCSORGRIGHT
 10
0.0
 20
0.0
 30
0.0
  9
$PUCSORGFRONT
 10
0.0
 20
0.0
 30
0.0
  9
$PUCSORGBACK
 10
0.0
 20
0.0
 30
0.0
  9
$USERI1
 70
     0
  9
$USERI2
 70
     0
  9
$USERI3
 70
     0
  9
$USERI4
 70
     0
  9
$USERI5
 70
     0
  9
$USERR1
 40
0.0
  9
$USERR2
 40
0.0
  9
$USERR3
 40
0.0
  9
$USERR4
 40
0.0
  9
$USERR5
 40
0.0
  9
$WORLDVIEW
 70
     1
  9
$SHADEDGE
 70
     3
  9
$SHADEDIF
 70
    70
  9
$TILEMODE
 70
     1
  9
$MAXACTVP
 70
    64
  9
$PINSBASE
 10
0.0
 20
0.0
 30
0.0
  9
$PLIMCHECK
 70
     0
  9
$PEXTMIN
 10
1.0000000000E+20
 20
1.0000000000E+20
 30
1.0000000000E+20
  9
$PEXTMAX
 10
-1.0000000000E+20
 20
-1.0000000000E+20
 30
-1.0000000000E+20
  9
$PLIMMIN
 10
0.0
 20
0.0
  9
$PLIMMAX
 10
420.0
 20
297.0
  9
$UNITMODE
 70
     0
  9
$VISRETAIN
 70
     1
  9
$PLINEGEN
 70
     0
  9
$PSLTSCALE
 70
     1
  9
$TREEDEPTH
 70
  3020
  9
$CMLSTYLE
  2
Standard
  9
$CMLJUST
 70
     0
  9
$CMLSCALE
 40
20.0
  9
$PROXYGRAPHICS
 70
     1
  9
$MEASUREMENT
 70
     1
  9
$CELWEIGHT
370
    -1
  9
$ENDCAPS
280
     0
  9
$JOINSTYLE
280
     0
  9
$LWDISPLAY
290
     1
  9
$INSUNITS
 70
     4
  9
$HYPERLINKBASE
  1

  9
$STYLESHEET
  1

  9
$XEDIT
290
     1
  9
$CEPSNTYPE
380
     0
  9
$PSTYLEMODE
290
     1
  9
$FINGERPRINTGUID
  2
{90D285EC-0FF5-49F6-8A71-D0D4867DEC56}
  9
$VERSIONGUID
  2
{FAEB1C32-E019-11D5-929B-00C0DF256EC4}
  9
$EXTNAMES
290
     1
  9
$PSVPSCALE
 40
0.0
  9
$OLESTARTUP
290
     0
  0
ENDSEC
  0
SECTION
  2
CLASSES
  0
CLASS
  1
ACDBDICTIONARYWDFLT
  2
AcDbDictionaryWithDefault
  3
ObjectDBX Classes
 90
        0
280
     0
281
     0
  0
CLASS
  1
VISUALSTYLE
  2
AcDbVisualStyle
  3
ObjectDBX Classes
 90
     4095
280
     0
281
     0
  0
CLASS
  1
MATERIAL
  2
AcDbMaterial
  3
ObjectDBX Classes
 90
     1153
280
     0
281
     0
  0
CLASS
  1
SCALE
  2
AcDbScale
  3
ObjectDBX Classes
 90
     1153
280
     0
281
     0
  0
CLASS
  1
TABLESTYLE
  2
AcDbTableStyle
  3
ObjectDBX Classes
 90
     4095
280
     0
281
     0
  0
CLASS
  1
MLEADERSTYLE
  2
AcDbMLeaderStyle
  3
ACDB_MLEADERSTYLE_CLASS
 90
     4095
280
     0
281
     0
  0
CLASS
  1
SUN
  2
AcDbSun
  3
SCENEOE
 90
     1153
280
     0
281
     0
  0
CLASS
  1
ACDBPLACEHOLDER
  2
AcDbPlaceHolder
  3
ObjectDBX Classes
 90
        0
280
     0
281
     0
  0
CLASS
  1
LAYOUT
  2
AcDbLayout
  3
ObjectDBX Classes
 90
        0
280
     0
281
     0
  0
ENDSEC
  0
SECTION
  2
TABLES
  0
TABLE
  2
VPORT
  5
8
330
0
100
AcDbSymbolTable
 70
     1
  0
VPORT
  5
29
330
8
100
AcDbSymbolTableRecord
100
AcDbViewportTableRecord
  2
*Active
 70
     0
 10
0.0
 20
0.0
 11
1.0
 21
1.0
 12
139.7
 22
107.95
 13
0.0
 23
0.0
 14
10.0
 24
10.0
 15
10.0
 25
10.0
 16
0.0
 26
0.0
 36
1.0
 17
0.0
 27
0.0
 37
0.0
 40
215.9
 41
1.2941176471
 42
50.0
 43
0.0
 44
0.0
 50
0.0
 51
0.0
 71
     0
 72
  2000
 73
     1
 74
     3
 75
     0
 76
     0
 77
     0
 78
     0
281
     0
 65
     1
110
0.0
120
0.0
130
0.0
111
1.0
121
0.0
131
0.0
112
0.0
122
1.0
132
0.0
 79
     0
146
0.0
  0
ENDTAB
  0
TABLE
  2
LTYPE
  5
5
330
0
100
AcDbSymbolTable
 70
     6
  0
LTYPE
  5
14
330
5
100
AcDbSymbolTableRecord
100
AcDbLinetypeTableRecord
  2
ByBlock
 70
     0
  3

 72
    65
 73
     0
 40
0.0
  0
LTYPE
  5
15
330
5
100
AcDbSymbolTableRecord
100
AcDbLinetypeTableRecord
  2
ByLayer
 70
     0
  3

 72
    65
 73
     0
 40
0.0
  0
LTYPE
  5
16
330
5
100
AcDbSymbolTableRecord
100
AcDbLinetypeTableRecord
  2
Continuous
 70
     0
  3
Solid line
 72
    65
 73
     0
 40
0.0
  0
LTYPE
  5
6E
330
5
100
AcDbSymbolTableRecord
100
AcDbLinetypeTableRecord
  2
HIDDEN
 70
     0
  3
Hidden __ __ __ __ __ __ __ __ __ __ __ __ __ __
 72
    65
 73
     2
 40
1.905
 49
1.27
 74
     0
 49
-0.635
 74
     0
  0
LTYPE
  5
6F
330
5
100
AcDbSymbolTableRecord
100
AcDbLinetypeTableRecord
  2
PHANTOM
 70
     0
  3
Phantom ______  __  __  ______  __  __  ______
 72
    65
 73
     6
 40
12.7
 49
6.35
 74
     0
 49
-1.27
 74
     0
 49
1.27
 74
     0
 49
-1.27
 74
     0
 49
1.27
 74
     0
 49
-1.27
 74
     0
  0
LTYPE
  5
70
330
5
100
AcDbSymbolTableRecord
100
AcDbLinetypeTableRecord
  2
CENTER
 70
     0
  3
Center ____ _ ____ _ ____ _ ____ _ ____ _ ____
 72
    65
 73
     4
 40
10.16
 49
6.35
 74
     0
 49
-1.27
 74
     0
 49
1.27
 74
     0
 49
-1.27
 74
     0
  0
LTYPE
  5
71
330
5
100
AcDbSymbolTableRecord
100
AcDbLinetypeTableRecord
  2
CENTERX2
 70
     0
  3
Center (2x) ________  __  ________  __  _____
 72
    65
 73
     4
 40
20.32
 49
12.7
 74
     0
 49
-2.54
 74
     0
 49
2.54
 74
     0
 49
-2.54
 74
     0
  0
LTYPE
  5
72
330
5
100
AcDbSymbolTableRecord
100
AcDbLinetypeTableRecord
  2
DOT2
 70
     0
  3
Dot (.5x) ........................................
 72
    65
 73
     2
 40
0.635
 49
0.0
 74
     0
 49
-0.635
 74
     0
  0
ENDTAB
  0
TABLE
  2
LAYER
  5
2
330
0
100
AcDbSymbolTable
 70
     2
  0
LAYER
  5
10
330
2
100
AcDbSymbolTableRecord
100
AcDbLayerTableRecord
  2
0
 70
     0
 62
     7
  6
Continuous
370
    -3
390
F
  0
LAYER
  5
73
330
2
100
AcDbSymbolTableRecord
100
AcDbLayerTableRecord
  2
FORMAT
 70
     0
 62
     7
  6
Continuous
370
    -3
390
F
  0
ENDTAB
  0
TABLE
  2
STYLE
  5
3
330
0
100
AcDbSymbolTable
 70
     4
  0
STYLE
  5
11
330
3
100
AcDbSymbolTableRecord
100
AcDbTextStyleTableRecord
  2
Standard
 70
     0
 40
0.0
 41
1.0
 50
0.0
 71
     0
 42
2.8222222222
  3
txt
  4

  0
STYLE
  5
9A
330
3
100
AcDbSymbolTableRecord
100
AcDbTextStyleTableRecord
  2
SLDTEXTSTYLE0
 70
     0
 40
0.0
 41
0.75
 50
0.0
 71
     0
 42
2.8222222222
  3
TXT
  4

  0
STYLE
  5
A6
330
3
100
AcDbSymbolTableRecord
100
AcDbTextStyleTableRecord
  2
SLDTEXTSTYLE1
 70
     0
 40
0.0
 41
0.6
 50
0.0
 71
     0
 42
2.8222222222
  3
TXT
  4

  0
STYLE
  5
AB
330
3
100
AcDbSymbolTableRecord
100
AcDbTextStyleTableRecord
  2
SLDTEXTSTYLE2
 70
     0
 40
0.0
 41
0.7
 50
0.0
 71
     0
 42
2.8222222222
  3
TXT
  4

  0
ENDTAB
  0
TABLE
  2
VIEW
  5
6
330
0
100
AcDbSymbolTable
 70
     0
  0
ENDTAB
  0
TABLE
  2
UCS
  5
7
330
0
100
AcDbSymbolTable
 70
     0
  0
ENDTAB
  0
TABLE
  2
APPID
  5
9
330
0
100
AcDbSymbolTable
 70
     1
  0
APPID
  5
12
330
9
100
AcDbSymbolTableRecord
100
AcDbRegAppTableRecord
  2
ACAD
 70
     0
  0
ENDTAB
  0
TABLE
  2
DIMSTYLE
  5
A
330
0
100
AcDbSymbolTable
 70
     5
100
AcDbDimStyleTable
  0
DIMSTYLE
105
27
330
A
100
AcDbSymbolTableRecord
100
AcDbDimStyleTableRecord
  2
ISO-25
 70
     0
 41
2.5
 42
0.625
 43
3.75
 44
1.25
 73
     0
 74
     0
 77
     1
 78
     8
140
2.5
141
2.5
143
0.0393700787
147
0.625
171
     3
172
     1
178
     0
271
     2
272
     2
274
     3
278
    44
283
     0
284
     8
340
11
  0
DIMSTYLE
105
158
330
A
100
AcDbSymbolTableRecord
100
AcDbDimStyleTableRecord
  2
SLDDIMSTYLE0
 70
     0
 41
3.175
 44
0.0
 45
0.000000001
146
3.175
147
0.0
173
     1
178
     0
271
     0
272
     0
276
     2
340
11
  0
DIMSTYLE
105
191
102
{ACAD_REACTORS
330
190
330
1D4
330
2CF
330
2E2
102
}
330
A
100
AcDbSymbolTableRecord
100
AcDbDimStyleTableRecord
  2
SLDDIMSTYLE1
 70
     0
 41
3.175
 44
0.0
 45
0.000000001
 78
     4
 79
     1
140
2.1166666667
143
0.0393700787
147
0.5291666667
148
0.000000001
170
     1
172
     1
173
     1
178
     0
271
     1
272
     1
276
     2
284
    12
289
     0
340
9A
  0
DIMSTYLE
105
246
102
{ACAD_REACTORS
330
245
102
}
330
A
100
AcDbSymbolTableRecord
100
AcDbDimStyleTableRecord
  2
SLDDIMSTYLE2
 70
     0
 41
3.175
 44
0.0
 45
0.000000001
 78
    12
 79
     3
140
2.1166666667
141
0.0
143
0.0393700787
147
0.5291666667
148
0.000000001
170
     1
173
     1
178
     0
271
     1
272
     1
276
     2
284
    12
340
9A
  0
DIMSTYLE
105
2BB
102
{ACAD_REACTORS
330
2BA
102
}
330
A
100
AcDbSymbolTableRecord
100
AcDbDimStyleTableRecord
  2
SLDDIMSTYLE3
 70
     0
 41
3.175
 44
0.0
 45
0.000000001
 78
    12
 79
     3
140
2.1166666667
143
0.0393700787
147
0.5291666667
148
0.000000001
170
     1
172
     1
173
     1
178
     0
271
     1
272
     1
276
     2
284
    12
289
     0
340
9A
  0
ENDTAB
  0
TABLE
  2
BLOCK_RECORD
  5
1
330
0
100
AcDbSymbolTable
 70
    11
  0
BLOCK_RECORD
  5
1F
330
1
100
AcDbSymbolTableRecord
100
AcDbBlockTableRecord
  2
*Model_Space
340
22
  0
BLOCK_RECORD
  5
1B
330
1
100
AcDbSymbolTableRecord
100
AcDbBlockTableRecord
  2
*Paper_Space
340
1E
  0
BLOCK_RECORD
  5
23
330
1
100
AcDbSymbolTableRecord
100
AcDbBlockTableRecord
  2
*Paper_Space0
340
26
  0
BLOCK_RECORD
  5
74
330
1
100
AcDbSymbolTableRecord
100
AcDbBlockTableRecord
  2
Third Angle Projection Block
340
0
102
{BLKREFS
331
99
102
}
  0
BLOCK_RECORD
  5
AD
330
1
100
AcDbSymbolTableRecord
100
AcDbBlockTableRecord
  2
SW_NOTE_0
340
0
102
{BLKREFS
331
B2
102
}
  0
BLOCK_RECORD
  5
B3
330
1
100
AcDbSymbolTableRecord
100
AcDbBlockTableRecord
  2
SW_NOTE_1
340
0
102
{BLKREFS
331
B8
102
}
  0
BLOCK_RECORD
  5
BA
330
1
100
AcDbSymbolTableRecord
100
AcDbBlockTableRecord
  2
SW_NOTE_2
340
0
102
{BLKREFS
331
BF
102
}
  0
BLOCK_RECORD
  5
192
330
1
100
AcDbSymbolTableRecord
100
AcDbBlockTableRecord
  2
_D
340
0
  0
BLOCK_RECORD
  5
1D5
330
1
100
AcDbSymbolTableRecord
100
AcDbBlockTableRecord
  2
_D_1
340
0
  0
BLOCK_RECORD
  5
247
330
1
100
AcDbSymbolTableRecord
100
AcDbBlockTableRecord
  2
_D_2
340
0
  0
BLOCK_RECORD
  5
2BC
330
1
100
AcDbSymbolTableRecord
100
AcDbBlockTableRecord
  2
_D_3
340
0
  0
BLOCK_RECORD
  5
2D0
330
1
100
AcDbSymbolTableRecord
100
AcDbBlockTableRecord
  2
_D_4
340
0
  0
BLOCK_RECORD
  5
2E3
330
1
100
AcDbSymbolTableRecord
100
AcDbBlockTableRecord
  2
_D_5
340
0
  0
ENDTAB
  0
ENDSEC
  0
SECTION
  2
BLOCKS
  0
BLOCK
  5
20
330
1F
100
AcDbEntity
  8
0
100
AcDbBlockBegin
  2
*Model_Space
 70
     0
 10
0.0
 20
0.0
 30
0.0
  3
*Model_Space
  1

  0
ENDBLK
  5
21
330
1F
100
AcDbEntity
  8
0
100
AcDbBlockEnd
  0
BLOCK
  5
1C
330
1B
100
AcDbEntity
 67
     1
  8
0
100
AcDbBlockBegin
  2
*Paper_Space
 70
     0
 10
0.0
 20
0.0
 30
0.0
  3
*Paper_Space
  1

  0
ENDBLK
  5
1D
330
1B
100
AcDbEntity
 67
     1
  8
0
100
AcDbBlockEnd
  0
BLOCK
  5
24
330
23
100
AcDbEntity
  8
0
100
AcDbBlockBegin
  2
*Paper_Space0
 70
     0
 10
0.0
 20
0.0
 30
0.0
  3
*Paper_Space0
  1

  0
ENDBLK
  5
25
330
23
100
AcDbEntity
  8
0
100
AcDbBlockEnd
  0
BLOCK
  5
75
330
74
100
AcDbEntity
  8
0
100
AcDbBlockBegin
  2
Third Angle Projection Block
 70
     0
 10
0.0
 20
0.0
 30
0.0
  3
Third Angle Projection Block
  1

  0
CIRCLE
  5
77
330
74
100
AcDbEntity
  8
0
  6
Continuous
 62
     7
370
    30
100
AcDbCircle
 10
101.4766388944
 20
18.9404083667
 30
0.0
 40
1.768227153674871
  0
CIRCLE
  5
78
330
74
100
AcDbEntity
  8
0
  6
Continuous
 62
     7
370
    30
100
AcDbCircle
 10
101.4766388944
 20
18.9404083667
 30
0.0
 40
3.901228248531818
  0
LINE
  5
79
330
74
100
AcDbEntity
  8
0
  6
CENTERX2
 62
     7
370
     0
100
AcDbLine
 10
110.1367822585
 20
18.9404083667
 30
0.0
 11
119.4527334874
 21
18.9404083667
 31
0.0
  0
LINE
  5
7A
330
74
100
AcDbEntity
  8
0
  6
Continuous
 62
     7
370
    30
100
AcDbLine
 10
111.0016388944
 20
20.7086355204
 30
0.0
 11
111.0016388944
 21
17.172181213
 31
0.0
  0
LINE
  5
7B
330
74
100
AcDbEntity
  8
0
  6
Continuous
 62
     7
370
    30
100
AcDbLine
 10
111.0016388944
 20
17.172181213
 30
0.0
 11
118.6216388944
 21
15.1304083667
 31
0.0
  0
LINE
  5
7C
330
74
100
AcDbEntity
  8
0
  6
Continuous
 62
     7
370
    30
100
AcDbLine
 10
118.6216388944
 20
15.1304083667
 30
0.0
 11
118.6216388944
 21
22.7504083667
 31
0.0
  0
LINE
  5
7D
330
74
100
AcDbEntity
  8
0
  6
Continuous
 62
     7
370
    30
100
AcDbLine
 10
118.6216388944
 20
22.7504083667
 30
0.0
 11
111.0016388944
 21
20.7086355204
 31
0.0
  0
LINE
  5
7E
330
74
100
AcDbEntity
  8
0
  6
CENTERX2
 62
     7
370
     0
100
AcDbLine
 10
96.6025854619
 20
18.9404083667
 30
0.0
 11
106.3506923269
 21
18.9404083667
 31
0.0
  0
LINE
  5
7F
330
74
100
AcDbEntity
  8
0
  6
CENTERX2
 62
     7
370
     0
100
AcDbLine
 10
101.4766388944
 20
23.8144617992
 30
0.0
 11
101.4766388944
 21
14.0663549342
 31
0.0
  0
POINT
  5
80
330
74
100
AcDbEntity
  8
0
  6
Continuous
 62
     7
370
     0
100
AcDbPoint
 10
101.4766388944
 20
18.9404083667
 30
0.0
  0
ENDBLK
  5
76
330
74
100
AcDbEntity
  8
0
100
AcDbBlockEnd
  0
BLOCK
  5
AE
330
AD
100
AcDbEntity
  8
0
100
AcDbBlockBegin
  2
SW_NOTE_0
 70
     0
 10
0.0
 20
0.0
 30
0.0
  3
SW_NOTE_0
  1

  0
MTEXT
  5
B0
330
AD
100
AcDbEntity
  8
0
  6
Continuous
 62
     0
370
     0
100
AcDbMText
 10
19.90725
 20
1.9645392354
 30
0.0
 40
1.524
 41
0.0
 71
     2
 72
     1
  1
VALUES IN PARENTHESIS ARE CALCULATED
  7
SLDTEXTSTYLE0
 73
     1
 44
1.0
  0
MTEXT
  5
B1
330
AD
100
AcDbEntity
  8
0
  6
Continuous
 62
     0
370
     0
100
AcDbMText
 10
19.8778795174
 20
-0.5594606586
 30
0.0
 40
1.524
 41
0.0
 71
     2
 72
     1
  1
AND MAY CONTAIN ROUNDOFF ERRORS
  7
SLDTEXTSTYLE0
 73
     1
 44
1.0
  0
ENDBLK
  5
AF
330
AD
100
AcDbEntity
  8
0
100
AcDbBlockEnd
  0
BLOCK
  5
B4
330
B3
100
AcDbEntity
  8
0
100
AcDbBlockBegin
  2
SW_NOTE_1
 70
     0
 10
0.0
 20
0.0
 30
0.0
  3
SW_NOTE_1
  1

  0
MTEXT
  5
B6
330
B3
100
AcDbEntity
  8
0
  6
Continuous
 62
     0
370
     0
100
AcDbMText
 10
0.0
 20
2.7285267159
 30
0.0
 40
2.1166666667
 41
0.0
 71
     1
 72
     1
  1
DRAWING
  7
SLDTEXTSTYLE0
 73
     1
 44
1.0
  0
MTEXT
  5
B7
330
B3
100
AcDbEntity
  8
0
  6
Continuous
 62
     0
370
     0
100
AcDbMText
 10
0.0
 20
-0.0936954723
 30
0.0
 40
2.1166666667
 41
0.0
 71
     1
 72
     1
  1
PROJECTION
  7
SLDTEXTSTYLE0
 73
     1
 44
1.0
  0
ENDBLK
  5
B5
330
B3
100
AcDbEntity
  8
0
100
AcDbBlockEnd
  0
BLOCK
  5
BB
330
BA
100
AcDbEntity
  8
0
100
AcDbBlockBegin
  2
SW_NOTE_2
 70
     0
 10
0.0
 20
0.0
 30
0.0
  3
SW_NOTE_2
  1

  0
MTEXT
  5
BD
330
BA
100
AcDbEntity
  8
0
  6
Continuous
 62
     0
370
     0
100
AcDbMText
 10
25.052734375
 20
4.0927900738
 30
0.0
 40
3.175
 41
0.0
 71
     2
 72
     1
  1
FOR INFORMATION ONLY
  7
SLDTEXTSTYLE0
 73
     1
 44
1.0
  0
MTEXT
  5
BE
330
BA
100
AcDbEntity
  8
0
  6
Continuous
 62
     0
370
     0
100
AcDbMText
 10
25.3768468589
 20
-0.1405432084
 30
0.0
 40
3.175
 41
0.0
 71
     2
 72
     1
  1
NOT FOR MANUFACTURING PURPOSES
  7
SLDTEXTSTYLE0
 73
     1
 44
1.0
  0
ENDBLK
  5
BC
330
BA
100
AcDbEntity
  8
0
100
AcDbBlockEnd
  0
BLOCK
  5
193
330
192
100
AcDbEntity
  8
0
100
AcDbBlockBegin
  2
_D
 70
     0
 10
0.0
 20
0.0
 30
0.0
  3
_D
  1

  0
SOLID
  5
195
330
192
100
AcDbEntity
  8
0
  6
Continuous
 62
     7
370
     0
100
AcDbTrace
 10
203.3032112663
 20
122.8536118613
 30
0.0
 11
200.1282112663
 21
123.3616118613
 31
0.0
 12
200.1282112663
 22
122.3456118613
 32
0.0
 13
200.1282112663
 23
122.3456118613
 33
0.0
  0
SOLID
  5
196
330
192
100
AcDbEntity
  8
0
  6
Continuous
 62
     7
370
     0
100
AcDbTrace
 10
210.3032112663
 20
122.8536118613
 30
0.0
 11
213.4782112663
 21
122.3456118613
 31
0.0
 12
213.4782112663
 22
123.3616118613
 32
0.0
 13
213.4782112663
 23
123.3616118613
 33
0.0
  0
LINE
  5
197
330
192
100
AcDbEntity
  8
0
  6
Continuous
 62
     7
370
     0
100
AcDbLine
 10
219.0423046285
 20
122.8536116285
 30
0.0
 11
218.3984851744
 21
122.8536116285
 31
0.0
  0
LINE
  5
198
330
192
100
AcDbEntity
  8
0
  6
Continuous
 62
     7
370
     0
100
AcDbLine
 10
218.3984851744
 20
122.8536116285
 30
0.0
 11
218.3984851744
 21
119.490463552
 31
0.0
  0
LINE
  5
199
330
192
100
AcDbEntity
  8
0
  6
Continuous
 62
     7
370
     0
100
AcDbLine
 10
218.3984851744
 20
119.490463552
 30
0.0
 11
219.0423046285
 21
119.490463552
 31
0.0
  0
LINE
  5
19A
330
192
100
AcDbEntity
  8
0
  6
Continuous
 62
     7
370
     0
100
AcDbLine
 10
226.7994961748
 20
122.8536116285
 30
0.0
 11
227.4433156289
 21
122.8536116285
 31
0.0
  0
LINE
  5
19B
330
192
100
AcDbEntity
  8
0
  6
Continuous
 62
     7
370
     0
100
AcDbLine
 10
227.4433156289
 20
122.8536116285
 30
0.0
 11
227.4433156289
 21
119.490463552
 31
0.0
  0
LINE
  5
19C
330
192
100
AcDbEntity
  8
0
  6
Continuous
 62
     7
370
     0
100
AcDbLine
 10
227.4433156289
 20
119.490463552
 30
0.0
 11
226.7994961748
 21
119.490463552
 31
0.0
  0
LINE
  5
19D
330
192
100
AcDbEntity
  8
0
  6
Continuous
 62
     7
370
     0
100
AcDbLine
 10
203.3032112663
 20
135.8726328888
 30
0.0
 11
203.3032112663
 21
121.0756118613
 31
0.0
  0
LINE
  5
19E
330
192
100
AcDbEntity
  8
0
  6
Continuous
 62
     7
370
     0
100
AcDbLine
 10
210.3032112663
 20
135.8726328888
 30
0.0
 11
210.3032112663
 21
121.0756118613
 31
0.0
  0
LINE
  5
19F
330
192
100
AcDbEntity
  8
0
  6
Continuous
 62
     7
370
     0
100
AcDbLine
 10
203.3032112663
 20
122.8536118613
 30
0.0
 11
196.9532112663
 21
122.8536118613
 31
0.0
  0
LINE
  5
1A0
330
192
100
AcDbEntity
  8
0
  6
Continuous
 62
     7
370
     0
100
AcDbLine
 10
210.3032112663
 20
122.8536118613
 30
0.0
 11
215.7652286265
 21
122.8536118613
 31
0.0
  0
MTEXT
  5
1A1
330
192
100
AcDbEntity
  8
0
  6
Continuous
 62
     7
370
     0
100
AcDbMText
 10
217.7821040159
 20
126.0113512749
 30
0.0
 40
2.1166666667
 41
0.0
 71
     1
 72
     1
  1

  7
SLDTEXTSTYLE0
 73
     1
 44
1.0
  0
MTEXT
  5
1A2
330
192
100
AcDbEntity
  8
0
  6
Continuous
 62
     7
370
     0
100
AcDbMText
 10
218.3210700331
 20
126.0113512749
 30
0.0
 40
2.1166666667
 41
0.0
 71
     1
 72
     1
  1
7.0mm
  7
SLDTEXTSTYLE0
 73
     1
 44
1.0
  0
MTEXT
  5
1A3
330
192
100
AcDbEntity
  8
0
  6
Continuous
 62
     7
370
     0
100
AcDbMText
 10
219.0423046285
 20
122.2189901514
 30
0.0
 40
2.1166666667
 41
0.0
 71
     1
 72
     1
  1
0.28in
  7
SLDTEXTSTYLE0
 73
     1
 44
1.0
  0
MTEXT
  5
1A4
330
192
100
AcDbEntity
  8
0
  6
Continuous
 62
     7
370
     0
100
AcDbMText
 10
229.674635083
 20
126.0113512749
 30
0.0
 40
2.1166666667
 41
0.0
 71
     1
 72
     1
  1

  7
SLDTEXTSTYLE0
 73
     1
 44
1.0
  0
ENDBLK
  5
194
330
192
100
AcDbEntity
  8
0
100
AcDbBlockEnd
  0
BLOCK
  5
1D6
330
1D5
100
AcDbEntity
  8
0
100
AcDbBlockBegin
  2
_D_1
 70
     0
 10
0.0
 20
0.0
 30
0.0
  3
_D_1
  1

  0
SOLID
  5
1D8
330
1D5
100
AcDbEntity
  8
0
  6
Continuous
 62
     7
370
     0
100
AcDbTrace
 10
40.8471857091
 20
144.1426328888
 30
0.0
 11
41.3551857091
 21
147.3176328888
 31
0.0
 12
40.3391857091
 22
147.3176328888
 32
0.0
 13
40.3391857091
 23
147.3176328888
 33
0.0
  0
SOLID
  5
1D9
330
1D5
100
AcDbEntity
  8
0
  6
Continuous
 62
     7
370
     0
100
AcDbTrace
 10
40.8471857091
 20
137.1426328888
 30
0.0
 11
40.3391857091
 21
133.9676328888
 31
0.0
 12
41.3551857091
 22
133.9676328888
 32
0.0
 13
41.3551857091
 23
133.9676328888
 33
0.0
  0
LINE
  5
1DA
330
1D5
100
AcDbEntity
  8
0
  6
Continuous
 62
     7
370
     0
100
AcDbLine
 10
48.7930124899
 20
154.7624927613
 30
0.0
 11
48.1491930357
 21
154.7624927613
 31
0.0
  0
LINE
  5
1DB
330
1D5
100
AcDbEntity
  8
0
  6
Continuous
 62
     7
370
     0
100
AcDbLine
 10
48.1491930357
 20
154.7624927613
 30
0.0
 11
48.1491930357
 21
151.3993446849
 31
0.0
  0
LINE
  5
1DC
330
1D5
100
AcDbEntity
  8
0
  6
Continuous
 62
     7
370
     0
100
AcDbLine
 10
48.1491930357
 20
151.3993446849
 30
0.0
 11
48.7930124899
 21
151.3993446849
 31
0.0
  0
LINE
  5
1DD
330
1D5
100
AcDbEntity
  8
0
  6
Continuous
 62
     7
370
     0
100
AcDbLine
 10
56.5502040361
 20
154.7624927613
 30
0.0
 11
57.1940234902
 21
154.7624927613
 31
0.0
  0
LINE
  5
1DE
330
1D5
100
AcDbEntity
  8
0
  6
Continuous
 62
     7
370
     0
100
AcDbLine
 10
57.1940234902
 20
154.7624927613
 30
0.0
 11
57.1940234902
 21
151.3993446849
 31
0.0
  0
LINE
  5
1DF
330
1D5
100
AcDbEntity
  8
0
  6
Continuous
 62
     7
370
     0
100
AcDbLine
 10
57.1940234902
 20
151.3993446849
 30
0.0
 11
56.5502040361
 21
151.3993446849
 31
0.0
  0
LINE
  5
1E0
330
1D5
100
AcDbEntity
  8
0
  6
Continuous
 62
     7
370
     0
100
AcDbLine
 10
23.8802082824
 20
144.1426328888
 30
0.0
 11
42.6251857091
 21
144.1426328888
 31
0.0
  0
LINE
  5
1E1
330
1D5
100
AcDbEntity
  8
0
  6
Continuous
 62
     7
370
     0
100
AcDbLine
 10
23.8802082824
 20
137.1426328888
 30
0.0
 11
42.6251857091
 21
137.1426328888
 31
0.0
  0
LINE
  5
1E2
330
1D5
100
AcDbEntity
  8
0
  6
Continuous
 62
     7
370
     0
100
AcDbLine
 10
44.6571857091
 20
154.7624929942
 30
0.0
 11
40.8471857091
 21
154.7624929942
 31
0.0
  0
LINE
  5
1E3
330
1D5
100
AcDbEntity
  8
0
  6
Continuous
 62
     7
370
     0
100
AcDbLine
 10
40.8471857091
 20
154.7624929942
 30
0.0
 11
40.8471857091
 21
144.1426328888
 31
0.0
  0
LINE
  5
1E4
330
1D5
100
AcDbEntity
  8
0
  6
Continuous
 62
     7
370
     0
100
AcDbLine
 10
40.8471857091
 20
137.1426328888
 30
0.0
 11
40.8471857091
 21
130.7926328888
 31
0.0
  0
MTEXT
  5
1E5
330
1D5
100
AcDbEntity
  8
0
  6
Continuous
 62
     7
370
     0
100
AcDbMText
 10
47.5328118772
 20
157.9202324078
 30
0.0
 40
2.1166666667
 41
0.0
 71
     1
 72
     1
  1

  7
SLDTEXTSTYLE0
 73
     1
 44
1.0
  0
MTEXT
  5
1E6
330
1D5
100
AcDbEntity
  8
0
  6
Continuous
 62
     7
370
     0
100
AcDbMText
 10
48.0717778945
 20
157.9202324078
 30
0.0
 40
2.1166666667
 41
0.0
 71
     1
 72
     1
  1
7.0mm
  7
SLDTEXTSTYLE0
 73
     1
 44
1.0
  0
MTEXT
  5
1E7
330
1D5
100
AcDbEntity
  8
0
  6
Continuous
 62
     7
370
     0
100
AcDbMText
 10
48.7930124899
 20
154.1278712843
 30
0.0
 40
2.1166666667
 41
0.0
 71
     1
 72
     1
  1
0.28in
  7
SLDTEXTSTYLE0
 73
     1
 44
1.0
  0
MTEXT
  5
1E8
330
1D5
100
AcDbEntity
  8
0
  6
Continuous
 62
     7
370
     0
100
AcDbMText
 10
59.4253429444
 20
157.9202324078
 30
0.0
 40
2.1166666667
 41
0.0
 71
     1
 72
     1
  1

  7
SLDTEXTSTYLE0
 73
     1
 44
1.0
  0
ENDBLK
  5
1D7
330
1D5
100
AcDbEntity
  8
0
100
AcDbBlockEnd
  0
BLOCK
  5
248
330
247
100
AcDbEntity
  8
0
100
AcDbBlockBegin
  2
_D_2
 70
     0
 10
0.0
 20
0.0
 30
0.0
  3
_D_2
  1

  0
SOLID
  5
24A
330
247
100
AcDbEntity
  8
0
  6
Continuous
 62
     7
370
     0
100
AcDbTrace
 10
64.0246479637
 20
186.3728863171
 30
0.0
 11
61.6360147252
 21
188.5253547261
 31
0.0
 12
61.0836630588
 22
187.6726158232
 32
0.0
 13
61.0836630588
 23
187.6726158232
 33
0.0
  0
LINE
  5
24B
330
247
100
AcDbEntity
  8
0
  6
Continuous
 62
     7
370
     0
100
AcDbLine
 10
46.8690772369
 20
187.2128981308
 30
0.0
 11
46.2252577828
 21
187.2128981308
 31
0.0
  0
LINE
  5
24C
330
247
100
AcDbEntity
  8
0
  6
Continuous
 62
     7
370
     0
100
AcDbLine
 10
46.2252577828
 20
187.2128981308
 30
0.0
 11
46.2252577828
 21
183.8497500544
 31
0.0
  0
LINE
  5
24D
330
247
100
AcDbEntity
  8
0
  6
Continuous
 62
     7
370
     0
100
AcDbLine
 10
46.2252577828
 20
183.8497500544
 30
0.0
 11
46.8690772369
 21
183.8497500544
 31
0.0
  0
LINE
  5
24E
330
247
100
AcDbEntity
  8
0
  6
Continuous
 62
     7
370
     0
100
AcDbLine
 10
54.6262687832
 20
187.2128981308
 30
0.0
 11
55.2700882373
 21
187.2128981308
 31
0.0
  0
LINE
  5
24F
330
247
100
AcDbEntity
  8
0
  6
Continuous
 62
     7
370
     0
100
AcDbLine
 10
55.2700882373
 20
187.2128981308
 30
0.0
 11
55.2700882373
 21
183.8497500544
 31
0.0
  0
LINE
  5
250
330
247
100
AcDbEntity
  8
0
  6
Continuous
 62
     7
370
     0
100
AcDbLine
 10
55.2700882373
 20
183.8497500544
 30
0.0
 11
54.6262687832
 21
183.8497500544
 31
0.0
  0
LINE
  5
251
330
247
100
AcDbEntity
  8
0
  6
Continuous
 62
     7
370
     0
100
AcDbLine
 10
64.0246479637
 20
186.3728863171
 30
0.0
 11
60.3040317828
 21
188.7828720003
 31
0.0
  0
LINE
  5
252
330
247
100
AcDbEntity
  8
0
  6
Continuous
 62
     7
370
     0
100
AcDbLine
 10
60.3040317828
 20
188.7828720003
 30
0.0
 11
56.4940317828
 21
188.7828720003
 31
0.0
  0
MTEXT
  5
253
330
247
100
AcDbEntity
  8
0
  6
Continuous
 62
     7
370
     0
100
AcDbMText
 10
45.5814383287
 20
190.3706377773
 30
0.0
 40
2.1166666667
 41
0.0
 71
     1
 72
     1
  1
R3.5mm
  7
SLDTEXTSTYLE0
 73
     1
 44
1.0
  0
MTEXT
  5
254
330
247
100
AcDbEntity
  8
0
  6
Continuous
 62
     7
370
     0
100
AcDbMText
 10
46.8690772369
 20
186.5782766538
 30
0.0
 40
2.1166666667
 41
0.0
 71
     1
 72
     1
  1
0.14in
  7
SLDTEXTSTYLE0
 73
     1
 44
1.0
  0
ENDBLK
  5
249
330
247
100
AcDbEntity
  8
0
100
AcDbBlockEnd
  0
BLOCK
  5
2BD
330
2BC
100
AcDbEntity
  8
0
100
AcDbBlockBegin
  2
_D_3
 70
     0
 10
0.0
 20
0.0
 30
0.0
  3
_D_3
  1

  0
SOLID
  5
2BF
330
2BC
100
AcDbEntity
  8
0
  6
Continuous
 62
     7
370
     0
100
AcDbTrace
 10
63.8854762179
 20
99.8597606899
 30
0.0
 11
60.7104762179
 21
100.3677606899
 31
0.0
 12
60.7104762179
 22
99.3517606899
 32
0.0
 13
60.7104762179
 23
99.3517606899
 33
0.0
  0
SOLID
  5
2C0
330
2BC
100
AcDbEntity
  8
0
  6
Continuous
 62
     7
370
     0
100
AcDbTrace
 10
85.0194762179
 20
99.8597606899
 30
0.0
 11
88.1944762179
 21
99.3517606899
 31
0.0
 12
88.1944762179
 22
100.3677606899
 32
0.0
 13
88.1944762179
 23
100.3677606899
 33
0.0
  0
LINE
  5
2C1
330
2BC
100
AcDbEntity
  8
0
  6
Continuous
 62
     7
370
     0
100
AcDbLine
 10
72.0232665341
 20
99.859760457
 30
0.0
 11
71.37944708
 21
99.859760457
 31
0.0
  0
LINE
  5
2C2
330
2BC
100
AcDbEntity
  8
0
  6
Continuous
 62
     7
370
     0
100
AcDbLine
 10
71.37944708
 20
99.859760457
 30
0.0
 11
71.37944708
 21
96.4966123806
 31
0.0
  0
LINE
  5
2C3
330
2BC
100
AcDbEntity
  8
0
  6
Continuous
 62
     7
370
     0
100
AcDbLine
 10
71.37944708
 20
96.4966123806
 30
0.0
 11
72.0232665341
 21
96.4966123806
 31
0.0
  0
LINE
  5
2C4
330
2BC
100
AcDbEntity
  8
0
  6
Continuous
 62
     7
370
     0
100
AcDbLine
 10
79.7804580804
 20
99.859760457
 30
0.0
 11
80.4242775345
 21
99.859760457
 31
0.0
  0
LINE
  5
2C5
330
2BC
100
AcDbEntity
  8
0
  6
Continuous
 62
     7
370
     0
100
AcDbLine
 10
80.4242775345
 20
99.859760457
 30
0.0
 11
80.4242775345
 21
96.4966123806
 31
0.0
  0
LINE
  5
2C6
330
2BC
100
AcDbEntity
  8
0
  6
Continuous
 62
     7
370
     0
100
AcDbLine
 10
80.4242775345
 20
96.4966123806
 30
0.0
 11
79.7804580804
 21
96.4966123806
 31
0.0
  0
LINE
  5
2C7
330
2BC
100
AcDbEntity
  8
0
  6
Continuous
 62
     7
370
     0
100
AcDbLine
 10
63.8854762179
 20
90.1969401279
 30
0.0
 11
63.8854762179
 21
101.6377606899
 31
0.0
  0
LINE
  5
2C8
330
2BC
100
AcDbEntity
  8
0
  6
Continuous
 62
     7
370
     0
100
AcDbLine
 10
85.0194762179
 20
93.6969401279
 30
0.0
 11
85.0194762179
 21
101.6377606899
 31
0.0
  0
LINE
  5
2C9
330
2BC
100
AcDbEntity
  8
0
  6
Continuous
 62
     7
370
     0
100
AcDbLine
 10
63.8854762179
 20
99.8597606899
 30
0.0
 11
57.5354762179
 21
99.8597606899
 31
0.0
  0
LINE
  5
2CA
330
2BC
100
AcDbEntity
  8
0
  6
Continuous
 62
     7
370
     0
100
AcDbLine
 10
85.0194762179
 20
99.8597606899
 30
0.0
 11
91.3694762179
 21
99.8597606899
 31
0.0
  0
MTEXT
  5
2CB
330
2BC
100
AcDbEntity
  8
0
  6
Continuous
 62
     7
370
     0
100
AcDbMText
 10
70.5474791809
 20
103.0175001035
 30
0.0
 40
2.1166666667
 41
0.0
 71
     1
 72
     1
  1

  7
SLDTEXTSTYLE0
 73
     1
 44
1.0
  0
MTEXT
  5
2CC
330
2BC
100
AcDbEntity
  8
0
  6
Continuous
 62
     7
370
     0
100
AcDbMText
 10
70.5200408853
 20
103.0175001035
 30
0.0
 40
2.1166666667
 41
0.0
 71
     1
 72
     1
  1
21.1mm
  7
SLDTEXTSTYLE0
 73
     1
 44
1.0
  0
MTEXT
  5
2CD
330
2BC
100
AcDbEntity
  8
0
  6
Continuous
 62
     7
370
     0
100
AcDbMText
 10
72.0232665341
 20
99.22513898
 30
0.0
 40
2.1166666667
 41
0.0
 71
     1
 72
     1
  1
0.83in
  7
SLDTEXTSTYLE0
 73
     1
 44
1.0
  0
MTEXT
  5
2CE
330
2BC
100
AcDbEntity
  8
0
  6
Continuous
 62
     7
370
     0
100
AcDbMText
 10
82.8711827978
 20
103.0175001035
 30
0.0
 40
2.1166666667
 41
0.0
 71
     1
 72
     1
  1

  7
SLDTEXTSTYLE0
 73
     1
 44
1.0
  0
ENDBLK
  5
2BE
330
2BC
100
AcDbEntity
  8
0
100
AcDbBlockEnd
  0
BLOCK
  5
2D1
330
2D0
100
AcDbEntity
  8
0
100
AcDbBlockBegin
  2
_D_4
 70
     0
 10
0.0
 20
0.0
 30
0.0
  3
_D_4
  1

  0
SOLID
  5
2D3
330
2D0
100
AcDbEntity
  8
0
  6
Continuous
 62
     7
370
     0
100
AcDbTrace
 10
81.4174762179
 20
73.4385157487
 30
0.0
 11
78.2424762179
 21
73.9465157487
 31
0.0
 12
78.2424762179
 22
72.9305157487
 32
0.0
 13
78.2424762179
 23
72.9305157487
 33
0.0
  0
SOLID
  5
2D4
330
2D0
100
AcDbEntity
  8
0
  6
Continuous
 62
     7
370
     0
100
AcDbTrace
 10
84.4184762179
 20
73.4385157487
 30
0.0
 11
87.5934762179
 21
72.9305157487
 31
0.0
 12
87.5934762179
 22
73.9465157487
 32
0.0
 13
87.5934762179
 23
73.9465157487
 33
0.0
  0
LINE
  5
2D5
330
2D0
100
AcDbEntity
  8
0
  6
Continuous
 62
     7
370
     0
100
AcDbLine
 10
92.8561240685
 20
73.4385155158
 30
0.0
 11
92.2123046144
 21
73.4385155158
 31
0.0
  0
LINE
  5
2D6
330
2D0
100
AcDbEntity
  8
0
  6
Continuous
 62
     7
370
     0
100
AcDbLine
 10
92.2123046144
 20
73.4385155158
 30
0.0
 11
92.2123046144
 21
70.0753674394
 31
0.0
  0
LINE
  5
2D7
330
2D0
100
AcDbEntity
  8
0
  6
Continuous
 62
     7
370
     0
100
AcDbLine
 10
92.2123046144
 20
70.0753674394
 30
0.0
 11
92.8561240685
 21
70.0753674394
 31
0.0
  0
LINE
  5
2D8
330
2D0
100
AcDbEntity
  8
0
  6
Continuous
 62
     7
370
     0
100
AcDbLine
 10
100.6133156148
 20
73.4385155158
 30
0.0
 11
101.2571350689
 21
73.4385155158
 31
0.0
  0
LINE
  5
2D9
330
2D0
100
AcDbEntity
  8
0
  6
Continuous
 62
     7
370
     0
100
AcDbLine
 10
101.2571350689
 20
73.4385155158
 30
0.0
 11
101.2571350689
 21
70.0753674394
 31
0.0
  0
LINE
  5
2DA
330
2D0
100
AcDbEntity
  8
0
  6
Continuous
 62
     7
370
     0
100
AcDbLine
 10
101.2571350689
 20
70.0753674394
 30
0.0
 11
100.6133156148
 21
70.0753674394
 31
0.0
  0
LINE
  5
2DB
330
2D0
100
AcDbEntity
  8
0
  6
Continuous
 62
     7
370
     0
100
AcDbLine
 10
81.4174762179
 20
84.1569401279
 30
0.0
 11
81.4174762179
 21
71.6605157487
 31
0.0
  0
LINE
  5
2DC
330
2D0
100
AcDbEntity
  8
0
  6
Continuous
 62
     7
370
     0
100
AcDbLine
 10
84.4184762179
 20
84.1569401279
 30
0.0
 11
84.4184762179
 21
71.6605157487
 31
0.0
  0
LINE
  5
2DD
330
2D0
100
AcDbEntity
  8
0
  6
Continuous
 62
     7
370
     0
100
AcDbLine
 10
81.4174762179
 20
73.4385157487
 30
0.0
 11
75.0674762179
 21
73.4385157487
 31
0.0
  0
LINE
  5
2DE
330
2D0
100
AcDbEntity
  8
0
  6
Continuous
 62
     7
370
     0
100
AcDbLine
 10
84.4184762179
 20
73.4385157487
 30
0.0
 11
91.1391097709
 21
73.4385157487
 31
0.0
  0
MTEXT
  5
2DF
330
2D0
100
AcDbEntity
  8
0
  6
Continuous
 62
     7
370
     0
100
AcDbMText
 10
92.1348894731
 20
76.5962551623
 30
0.0
 40
2.1166666667
 41
0.0
 71
     1
 72
     1
  1
3.0mm
  7
SLDTEXTSTYLE0
 73
     1
 44
1.0
  0
MTEXT
  5
2E0
330
2D0
100
AcDbEntity
  8
0
  6
Continuous
 62
     7
370
     0
100
AcDbMText
 10
92.8561240685
 20
72.8038940388
 30
0.0
 40
2.1166666667
 41
0.0
 71
     1
 72
     1
  1
0.12in
  7
SLDTEXTSTYLE0
 73
     1
 44
1.0
  0
MTEXT
  5
2E1
330
2D0
100
AcDbEntity
  8
0
  6
Continuous
 62
     7
370
     0
100
AcDbMText
 10
101.9009540574
 20
76.5962551623
 30
0.0
 40
2.1166666667
 41
0.0
 71
     1
 72
     1
  1
X5
  7
SLDTEXTSTYLE0
 73
     1
 44
1.0
  0
ENDBLK
  5
2D2
330
2D0
100
AcDbEntity
  8
0
100
AcDbBlockEnd
  0
BLOCK
  5
2E4
330
2E3
100
AcDbEntity
  8
0
100
AcDbBlockBegin
  2
_D_5
 70
     0
 10
0.0
 20
0.0
 30
0.0
  3
_D_5
  1

  0
SOLID
  5
2E6
330
2E3
100
AcDbEntity
  8
0
  6
Continuous
 62
     7
370
     0
100
AcDbTrace
 10
67.3864762179
 20
73.4385157487
 30
0.0
 11
64.2114762179
 21
73.9465157487
 31
0.0
 12
64.2114762179
 22
72.9305157487
 32
0.0
 13
64.2114762179
 23
72.9305157487
 33
0.0
  0
SOLID
  5
2E7
330
2E3
100
AcDbEntity
  8
0
  6
Continuous
 62
     7
370
     0
100
AcDbTrace
 10
69.3874762179
 20
73.4385157487
 30
0.0
 11
72.5624762179
 21
72.9305157487
 31
0.0
 12
72.5624762179
 22
73.9465157487
 32
0.0
 13
72.5624762179
 23
73.9465157487
 33
0.0
  0
LINE
  5
2E8
330
2E3
100
AcDbEntity
  8
0
  6
Continuous
 62
     7
370
     0
100
AcDbLine
 10
50.0068802119
 20
73.4385155158
 30
0.0
 11
49.3630607578
 21
73.4385155158
 31
0.0
  0
LINE
  5
2E9
330
2E3
100
AcDbEntity
  8
0
  6
Continuous
 62
     7
370
     0
100
AcDbLine
 10
49.3630607578
 20
73.4385155158
 30
0.0
 11
49.3630607578
 21
70.0753674394
 31
0.0
  0
LINE
  5
2EA
330
2E3
100
AcDbEntity
  8
0
  6
Continuous
 62
     7
370
     0
100
AcDbLine
 10
49.3630607578
 20
70.0753674394
 30
0.0
 11
50.0068802119
 21
70.0753674394
 31
0.0
  0
LINE
  5
2EB
330
2E3
100
AcDbEntity
  8
0
  6
Continuous
 62
     7
370
     0
100
AcDbLine
 10
57.7640717582
 20
73.4385155158
 30
0.0
 11
58.4078912123
 21
73.4385155158
 31
0.0
  0
LINE
  5
2EC
330
2E3
100
AcDbEntity
  8
0
  6
Continuous
 62
     7
370
     0
100
AcDbLine
 10
58.4078912123
 20
73.4385155158
 30
0.0
 11
58.4078912123
 21
70.0753674394
 31
0.0
  0
LINE
  5
2ED
330
2E3
100
AcDbEntity
  8
0
  6
Continuous
 62
     7
370
     0
100
AcDbLine
 10
58.4078912123
 20
70.0753674394
 30
0.0
 11
57.7640717582
 21
70.0753674394
 31
0.0
  0
LINE
  5
2EE
330
2E3
100
AcDbEntity
  8
0
  6
Continuous
 62
     7
370
     0
100
AcDbLine
 10
67.3864762179
 20
84.1569401279
 30
0.0
 11
67.3864762179
 21
71.6605157487
 31
0.0
  0
LINE
  5
2EF
330
2E3
100
AcDbEntity
  8
0
  6
Continuous
 62
     7
370
     0
100
AcDbLine
 10
69.3874762179
 20
84.1569401279
 30
0.0
 11
69.3874762179
 21
71.6605157487
 31
0.0
  0
LINE
  5
2F0
330
2E3
100
AcDbEntity
  8
0
  6
Continuous
 62
     7
370
     0
100
AcDbLine
 10
67.3864762179
 20
73.4385157487
 30
0.0
 11
61.0411482259
 21
73.4385157487
 31
0.0
  0
LINE
  5
2F1
330
2E3
100
AcDbEntity
  8
0
  6
Continuous
 62
     7
370
     0
100
AcDbLine
 10
69.3874762179
 20
73.4385157487
 30
0.0
 11
75.7374762179
 21
73.4385157487
 31
0.0
  0
MTEXT
  5
2F2
330
2E3
100
AcDbEntity
  8
0
  6
Continuous
 62
     7
370
     0
100
AcDbMText
 10
48.7466795993
 20
76.5962551623
 30
0.0
 40
2.1166666667
 41
0.0
 71
     1
 72
     1
  1

  7
SLDTEXTSTYLE0
 73
     1
 44
1.0
  0
MTEXT
  5
2F3
330
2E3
100
AcDbEntity
  8
0
  6
Continuous
 62
     7
370
     0
100
AcDbMText
 10
49.2856456165
 20
76.5962551623
 30
0.0
 40
2.1166666667
 41
0.0
 71
     1
 72
     1
  1
2.0mm
  7
SLDTEXTSTYLE0
 73
     1
 44
1.0
  0
MTEXT
  5
2F4
330
2E3
100
AcDbEntity
  8
0
  6
Continuous
 62
     7
370
     0
100
AcDbMText
 10
50.0068802119
 20
72.8038940388
 30
0.0
 40
2.1166666667
 41
0.0
 71
     1
 72
     1
  1
0.08in
  7
SLDTEXTSTYLE0
 73
     1
 44
1.0
  0
MTEXT
  5
2F5
330
2E3
100
AcDbEntity
  8
0
  6
Continuous
 62
     7
370
     0
100
AcDbMText
 10
60.6392106664
 20
76.5962551623
 30
0.0
 40
2.1166666667
 41
0.0
 71
     1
 72
     1
  1

  7
SLDTEXTSTYLE0
 73
     1
 44
1.0
  0
ENDBLK
  5
2E5
330
2E3
100
AcDbEntity
  8
0
100
AcDbBlockEnd
  0
ENDSEC
  0
SECTION
  2
ENTITIES
  0
LINE
  5
81
330
1F
100
AcDbEntity
  8
0
  6
Continuous
 62
     7
370
     0
100
AcDbLine
 10
1.5793501011
 20
214.6453799966
 30
0.0
 11
277.9892068491
 21
214.6453799966
 31
0.0
  0
LINE
  5
82
330
1F
100
AcDbEntity
  8
0
  6
Continuous
 62
     7
370
     0
100
AcDbLine
 10
1.5793501011
 20
214.6453799966
 30
0.0
 11
1.5793501011
 21
0.9031642596
 31
0.0
  0
LINE
  5
83
330
1F
100
AcDbEntity
  8
0
  6
Continuous
 62
     7
370
     0
100
AcDbLine
 10
277.9892068491
 20
0.9031642596
 30
0.0
 11
1.5793501011
 21
0.9031642596
 31
0.0
  0
LINE
  5
84
330
1F
100
AcDbEntity
  8
0
  6
Continuous
 62
     7
370
     0
100
AcDbLine
 10
277.9892068491
 20
0.9031642596
 30
0.0
 11
277.9892068491
 21
214.6453799966
 31
0.0
  0
LINE
  5
85
330
1F
100
AcDbEntity
  8
0
  6
Continuous
 62
     7
370
     0
100
AcDbLine
 10
215.7427640041
 20
12.2958890132
 30
0.0
 11
171.6327596684
 21
12.2958890132
 31
0.0
  0
LINE
  5
86
330
1F
100
AcDbEntity
  8
0
  6
Continuous
 62
     7
370
     0
100
AcDbLine
 10
171.6327596684
 20
12.2958890132
 30
0.0
 11
171.6327596684
 21
26.1661402506
 31
0.0
  0
LINE
  5
87
330
1F
100
AcDbEntity
  8
0
  6
Continuous
 62
     7
370
     0
100
AcDbLine
 10
171.6327596684
 20
0.9031642596
 30
0.0
 11
171.6327596684
 21
26.1661402506
 31
0.0
  0
LINE
  5
88
330
1F
100
AcDbEntity
  8
0
  6
Continuous
 62
     7
370
     0
100
AcDbLine
 10
215.7427640041
 20
17.1604579552
 30
0.0
 11
277.9892068491
 21
17.1604579552
 31
0.0
  0
LINE
  5
89
330
1F
100
AcDbEntity
  8
0
  6
Continuous
 62
     7
370
     0
100
AcDbLine
 10
215.7427640041
 20
35.2394508358
 30
0.0
 11
215.7427640041
 21
0.9031642596
 31
0.0
  0
LINE
  5
8A
330
1F
100
AcDbEntity
  8
0
  6
Continuous
 62
     7
370
     0
100
AcDbLine
 10
215.7427640041
 20
26.1661402506
 30
0.0
 11
171.6327596684
 21
26.1661402506
 31
0.0
  0
LINE
  5
8B
330
1F
100
AcDbEntity
  8
0
  6
Continuous
 62
     7
370
     0
100
AcDbLine
 10
215.7427640041
 20
9.1409200612
 30
0.0
 11
277.9892068491
 21
9.1409200612
 31
0.0
  0
LINE
  5
8C
330
1F
100
AcDbEntity
  8
0
  6
Continuous
 62
     7
370
     0
100
AcDbLine
 10
215.7427640041
 20
16.9216824031
 30
0.0
 11
171.6327596684
 21
16.9216824031
 31
0.0
  0
LINE
  5
8D
330
1F
100
AcDbEntity
  8
0
  6
Continuous
 62
     7
370
     0
100
AcDbLine
 10
215.7427640041
 20
21.4874005542
 30
0.0
 11
171.6327596684
 21
21.4874005542
 31
0.0
  0
LINE
  5
8E
330
1F
100
AcDbEntity
  8
0
  6
Continuous
 62
     7
370
     0
100
AcDbLine
 10
186.1338100705
 20
26.1661402506
 30
0.0
 11
186.1338100705
 21
12.2958890132
 31
0.0
  0
LINE
  5
8F
330
1F
100
AcDbEntity
  8
0
  6
Continuous
 62
     7
370
     0
100
AcDbLine
 10
198.2145906188
 20
26.1661402506
 30
0.0
 11
198.2145906188
 21
12.2958890132
 31
0.0
  0
LINE
  5
90
330
1F
100
AcDbEntity
  8
0
  6
Continuous
 62
     7
370
     0
100
AcDbLine
 10
253.7490408369
 20
9.1409200612
 30
0.0
 11
253.7490408369
 21
0.9031642596
 31
0.0
  0
LINE
  5
91
330
1F
100
AcDbEntity
  8
0
  6
Continuous
 62
     7
370
     0
100
AcDbLine
 10
171.6327596684
 20
12.2958890132
 30
0.0
 11
171.6327596684
 21
7.5627342528
 31
0.0
  0
LINE
  5
92
330
1F
100
AcDbEntity
  8
0
  6
Continuous
 62
     7
370
     0
100
AcDbLine
 10
171.6327596684
 20
7.5627342528
 30
0.0
 11
215.7427640041
 21
7.5627342528
 31
0.0
  0
LINE
  5
93
330
1F
100
AcDbEntity
  8
0
  6
Continuous
 62
     7
370
     0
100
AcDbLine
 10
171.6327596684
 20
7.5627342528
 30
0.0
 11
171.6327596684
 21
35.2394508358
 31
0.0
  0
LINE
  5
94
330
1F
100
AcDbEntity
  8
0
  6
Continuous
 62
     7
370
     0
100
AcDbLine
 10
171.6327596684
 20
35.2394508358
 30
0.0
 11
215.7427640041
 21
35.2394508358
 31
0.0
  0
LINE
  5
95
330
1F
100
AcDbEntity
  8
0
  6
Continuous
 62
     7
370
     0
100
AcDbLine
 10
270.1683598194
 20
17.1604579552
 30
0.0
 11
270.1683598194
 21
9.1409200612
 31
0.0
  0
LINE
  5
96
330
1F
100
AcDbEntity
  8
0
  6
Continuous
 62
     7
370
     0
100
AcDbLine
 10
215.7427640041
 20
35.2394508358
 30
0.0
 11
277.9892068491
 21
35.2394508358
 31
0.0
  0
LINE
  5
97
330
1F
100
AcDbEntity
  8
0
  6
Continuous
 62
     7
370
     0
100
AcDbLine
 10
277.9892068491
 20
35.2394508358
 30
0.0
 11
277.9892068491
 21
50.0331356147
 31
0.0
  0
LINE
  5
98
330
1F
100
AcDbEntity
  8
0
  6
Continuous
 62
     7
370
     0
100
AcDbLine
 10
215.7427640041
 20
24.8927335446
 30
0.0
 11
277.9892068491
 21
24.8927335446
 31
0.0
  0
INSERT
  5
99
330
1F
100
AcDbEntity
  8
0
  6
Continuous
 62
     7
100
AcDbBlockReference
  2
Third Angle Projection Block
 10
117.7262204235
 20
15.5162339489
 30
0.0
 41
0.8
 42
0.8
 43
0.8
  0
MTEXT
  5
9B
330
1F
100
AcDbEntity
  8
0
  6
Continuous
 62
     7
370
     0
100
AcDbMText
 10
274.1458225539
 20
13.2559386876
 30
0.0
 40
3.175
 41
0.0
 71
     2
 72
     1
  1
A
  7
SLDTEXTSTYLE0
 73
     1
 44
1.0
  0
MTEXT
  5
9C
330
1F
100
AcDbEntity
  8
0
  6
Continuous
 62
     7
370
     0
100
AcDbMText
 10
234.8119081787
 20
5.1306563898
 30
0.0
 40
3.175
 41
0.0
 71
     2
 72
     1
  1
PK4GQP1
  7
SLDTEXTSTYLE0
 73
     1
 44
1.0
  0
MTEXT
  5
9D
330
1F
100
AcDbEntity
  8
0
  6
Continuous
 62
     7
370
     0
100
AcDbMText
 10
216.4199766059
 20
16.8243178599
 30
0.0
 40
2.1166666667
 41
0.0
 71
     1
 72
     1
  1
MATERIAL
  7
SLDTEXTSTYLE0
 73
     1
 44
1.0
  0
MTEXT
  5
9E
330
1F
100
AcDbEntity
  8
0
  6
Continuous
 62
     7
370
     0
100
AcDbMText
 10
174.230946566
 20
20.054553926
 30
0.0
 40
1.8520833333
 41
0.0
 71
     1
 72
     1
  1
DRAWN
  7
SLDTEXTSTYLE0
 73
     1
 44
1.0
  0
MTEXT
  5
9F
330
1F
100
AcDbEntity
  8
0
  6
Continuous
 62
     7
370
     0
100
AcDbMText
 10
172.3960124543
 20
15.5787169747
 30
0.0
 40
1.8520833333
 41
0.0
 71
     1
 72
     1
  1
APPROVAL
  7
SLDTEXTSTYLE0
 73
     1
 44
1.0
  0
MTEXT
  5
A0
330
1F
100
AcDbEntity
  8
0
  6
Continuous
 62
     7
370
     0
100
AcDbMText
 10
271.7160653675
 20
16.1671746307
 30
0.0
 40
2.1166666667
 41
0.0
 71
     1
 72
     1
  1
REV
  7
SLDTEXTSTYLE0
 73
     1
 44
1.0
  0
MTEXT
  5
A1
330
1F
100
AcDbEntity
  8
0
  6
Continuous
 62
     7
370
     0
100
AcDbMText
 10
190.2958696448
 20
20.3177146903
 30
0.0
 40
2.1166666667
 41
0.0
 71
     1
 72
     1
  1
MK
  7
SLDTEXTSTYLE0
 73
     1
 44
1.0
  0
MTEXT
  5
A2
330
1F
100
AcDbEntity
  8
0
  6
Continuous
 62
     7
370
     0
100
AcDbMText
 10
190.2958696448
 20
15.841877739
 30
0.0
 40
2.1166666667
 41
0.0
 71
     1
 72
     1
  1
SS
  7
SLDTEXTSTYLE0
 73
     1
 44
1.0
  0
MTEXT
  5
A3
330
1F
100
AcDbEntity
  8
0
  6
Continuous
 62
     7
370
     0
100
AcDbMText
 10
199.8662436873
 20
20.3177146903
 30
0.0
 40
2.1166666667
 41
0.0
 71
     1
 72
     1
  1
JUL/8/16
  7
SLDTEXTSTYLE0
 73
     1
 44
1.0
  0
MTEXT
  5
A4
330
1F
100
AcDbEntity
  8
0
  6
Continuous
 62
     7
370
     0
100
AcDbMText
 10
203.6145073853
 20
24.8221395769
 30
0.0
 40
2.1166666667
 41
0.0
 71
     1
 72
     1
  1
DATE
  7
SLDTEXTSTYLE0
 73
     1
 44
1.0
  0
MTEXT
  5
A5
330
1F
100
AcDbEntity
  8
0
  6
Continuous
 62
     7
370
     0
100
AcDbMText
 10
199.8662436873
 20
15.841877739
 30
0.0
 40
2.1166666667
 41
0.0
 71
     1
 72
     1
  1
JUL/8/16
  7
SLDTEXTSTYLE0
 73
     1
 44
1.0
  0
MTEXT
  5
A7
330
1F
100
AcDbEntity
  8
0
  6
Continuous
 62
     7
370
     0
100
AcDbMText
 10
229.402906477
 20
27.7957480569
 30
0.0
 40
2.1166666667
 41
0.0
 71
     1
 72
     1
  1
w w w . t h o r  l a b s . c o m
  7
SLDTEXTSTYLE1
 73
     1
 44
1.0
  0
MTEXT
  5
A8
330
1F
100
AcDbEntity
  8
0
  6
Continuous
 62
     7
370
     0
100
AcDbMText
 10
216.7004035316
 20
8.3494791871
 30
0.0
 40
2.1166666667
 41
0.0
 71
     1
 72
     1
  1
ITEM #
  7
SLDTEXTSTYLE0
 73
     1
 44
1.0
  0
MTEXT
  5
A9
330
1F
100
AcDbEntity
  8
0
  6
Continuous
 62
     7
370
     0
100
AcDbMText
 10
254.5318000914
 20
8.3494791871
 30
0.0
 40
2.1166666667
 41
0.0
 71
     1
 72
     1
  1
APPROX WEIGHT
  7
SLDTEXTSTYLE0
 73
     1
 44
1.0
  0
MTEXT
  5
AA
330
1F
100
AcDbEntity
  8
0
  6
Continuous
 62
     7
370
     0
100
AcDbMText
 10
243.4273448343
 20
13.8247651814
 30
0.0
 40
3.175
 41
0.0
 71
     2
 72
     1
  1
N/A
  7
SLDTEXTSTYLE0
 73
     1
 44
1.0
  0
MTEXT
  5
AC
330
1F
100
AcDbEntity
  8
0
  6
Continuous
 62
     7
370
     0
100
AcDbMText
 10
266.21929522
 20
5.1306563898
 30
0.0
 40
3.175
 41
0.0
 71
     2
 72
     1
  1
7.3 g
  7
SLDTEXTSTYLE2
 73
     1
 44
1.0
  0
INSERT
  5
B2
330
1F
100
AcDbEntity
  8
0
  6
Continuous
 62
     7
370
     0
100
AcDbBlockReference
  2
SW_NOTE_0
 10
174.8430140051
 20
4.4558554801
 30
0.0
  0
INSERT
  5
B8
330
1F
100
AcDbEntity
  8
0
  6
Continuous
 62
     7
370
     0
100
AcDbBlockReference
  2
SW_NOTE_1
 10
174.5483650337
 20
30.4835322715
 30
0.0
  0
MTEXT
  5
B9
330
1F
100
AcDbEntity
  8
0
  6
Continuous
 62
     7
370
     0
100
AcDbMText
 10
187.9273588276
 20
24.8221395769
 30
0.0
 40
2.1166666667
 41
0.0
 71
     1
 72
     1
  1
NAME
  7
SLDTEXTSTYLE0
 73
     1
 44
1.0
  0
INSERT
  5
BF
330
1F
100
AcDbEntity
  8
0
  6
Continuous
 62
     7
370
     0
100
AcDbBlockReference
  2
SW_NOTE_2
 10
58.6204667508
 20
8.1776609732
 30
0.0
  0
MTEXT
  5
C0
330
1F
100
AcDbEntity
  8
0
  6
Continuous
 62
     7
370
     0
100
AcDbMText
 10
247.9526769634
 20
22.4581719825
 30
0.0
 40
3.175
 41
0.0
 71
     2
 72
     1
  1
PIEZO ACTUATOR STACK
  7
SLDTEXTSTYLE0
 73
     1
 44
1.0
  0
MTEXT
  5
C1
330
1F
100
AcDbEntity
  8
0
  6
Continuous
 62
     7
370
     0
100
AcDbMText
 10
177.6925831922
 20
10.7142101515
 30
0.0
 40
1.5875
 41
0.0
 71
     1
 72
     1
  1
COPYRIGHT © 2016 BY THORLABS
  7
SLDTEXTSTYLE0
 73
     1
 44
1.0
  0
ARC
  5
C2
330
1F
100
AcDbEntity
  8
0
  6
Continuous
 62
     7
370
     0
100
AcDbCircle
 10
79.3904255345
 20
138.6921884443
 30
0.0
 40
1.725555555555555
100
AcDbArc
 50
287.3125785557
 51
288.5866171988
  0
ARC
  5
C3
330
1F
100
AcDbEntity
  8
0
  6
Continuous
 62
     7
370
     0
100
AcDbCircle
 10
79.3904255345
 20
138.6921884443
 30
0.0
 40
1.725555555555555
100
AcDbArc
 50
251.4133828012
 51
256.3707285503
  0
LINE
  5
C4
330
1F
100
AcDbEntity
  8
0
  6
Continuous
 62
     7
370
     0
100
AcDbLine
 10
78.8404255245
 20
137.1416327731
 30
0.0
 11
78.8404255245
 21
137.0566328244
 31
0.0
  0
LINE
  5
C5
330
1F
100
AcDbEntity
  8
0
  6
Continuous
 62
     7
370
     0
100
AcDbLine
 10
79.9404255185
 20
137.0566328244
 30
0.0
 11
79.9404255185
 21
137.1416327731
 31
0.0
  0
ARC
  5
C6
330
1F
100
AcDbEntity
  8
0
  6
Continuous
 62
     7
370
     0
100
AcDbCircle
 10
73.3704255345
 20
138.6921884443
 30
0.0
 40
1.725555555555555
100
AcDbArc
 50
251.4133828012
 51
288.5866171988
  0
LINE
  5
C7
330
1F
100
AcDbEntity
  8
0
  6
Continuous
 62
     7
370
     0
100
AcDbLine
 10
72.8204250872
 20
137.1416327731
 30
0.0
 11
72.8204250872
 21
137.0566328244
 31
0.0
  0
LINE
  5
C8
330
1F
100
AcDbEntity
  8
0
  6
Continuous
 62
     7
370
     0
100
AcDbLine
 10
73.9204255469
 20
137.0566328244
 30
0.0
 11
73.9204255469
 21
137.1416327731
 31
0.0
  0
LINE
  5
C9
330
1F
100
AcDbEntity
  8
0
  6
Continuous
 62
     7
370
     0
100
AcDbLine
 10
67.3094252661
 20
137.1416327731
 30
0.0
 11
67.3094252661
 21
137.0566328244
 31
0.0
  0
LINE
  5
CA
330
1F
100
AcDbEntity
  8
0
  6
Continuous
 62
     7
370
     0
100
AcDbLine
 10
68.4094252601
 20
137.0566328244
 30
0.0
 11
68.4094252601
 21
137.1416327731
 31
0.0
  0
ARC
  5
CB
330
1F
100
AcDbEntity
  8
0
  6
Continuous
 62
     7
370
     0
100
AcDbCircle
 10
67.8594255345
 20
138.6921884443
 30
0.0
 40
1.725555555555559
100
AcDbArc
 50
251.4133828012
 51
288.5866171988
  0
LINE
  5
CC
330
1F
100
AcDbEntity
  8
0
  6
Continuous
 62
     7
370
     0
100
AcDbLine
 10
84.1083417717
 20
133.3130450641
 30
0.0
 11
144.1083411291
 21
133.3130450641
 31
0.0
  0
LINE
  5
CD
330
1F
100
AcDbEntity
  8
0
  6
Continuous
 62
     7
370
     0
100
AcDbLine
 10
144.5126841381
 20
134.1616373231
 30
0.0
 11
84.5126824524
 21
134.1616373231
 31
0.0
  0
SPLINE
  5
CE
330
1F
100
AcDbEntity
  8
0
  6
Continuous
 62
     7
370
     0
100
AcDbSpline
210
0.0
220
0.0
230
1.0
 70
     8
 71
     3
 72
    23
 73
    19
 74
     0
 42
0.000000001
 43
0.00000001
 40
0.0
 40
0.0
 40
0.0
 40
0.0
 40
0.0807304203062373
 40
0.1606107233011101
 40
0.2305020639900764
 40
0.2912875177898382
 40
0.3436572343841969
 40
0.3881264551161416
 40
0.4250599501060399
 40
0.4575350447132279
 40
0.4966388357477957
 40
0.5434265181430191
 40
0.5978956321436661
 40
0.6602167245044416
 40
0.7307688989648893
 40
0.8102023009868285
 40
0.8994955506810336
 40
1.0
 40
1.0
 40
1.0
 40
1.0
 10
78.98107234630858
 20
137.0152022411578
 30
0.0
 10
79.05907767584117
 20
136.8533422647318
 30
0.0
 10
79.21426691367799
 20
136.5313267495312
 30
0.0
 10
79.47434988740045
 20
136.0886853504587
 30
0.0
 10
79.73525412618565
 20
135.6993161148482
 30
0.0
 10
79.98312127582908
 20
135.375838645603
 30
0.0
 10
80.21227264150369
 20
135.1101362165891
 30
0.0
 10
80.418401775465
 20
134.8952738093859
 30
0.0
 10
80.60216733773396
 20
134.7207396327515
 30
0.0
 10
80.7839340334213
 20
134.5617589879033
 30
0.0
 10
80.98953740236367
 20
134.3970374941661
 30
0.0
 10
81.24352708861937
 20
134.2150349221868
 30
0.0
 10
81.55283944854537
 20
134.0226818505413
 30
0.0
 10
81.92276462917977
 20
133.8296862414736
 30
0.0
 10
82.35916944855629
 20
133.6471526253297
 30
0.0
 10
82.86823106259591
 20
133.4891608324927
 30
0.0
 10
83.45595952859148
 20
133.3655774008984
 30
0.0
 10
83.87743791059069
 20
133.3336929332504
 30
0.0
 10
84.100625298546
 20
133.3168090043121
 30
0.0
  0
SPLINE
  5
CF
330
1F
100
AcDbEntity
  8
0
  6
Continuous
 62
     7
370
     0
100
AcDbSpline
210
0.0
220
0.0
230
1.0
 70
     8
 71
     3
 72
    21
 73
    17
 74
     0
 42
0.000000001
 43
0.00000001
 40
0.0
 40
0.0
 40
0.0
 40
0.0
 40
0.0885891337076392
 40
0.1652826253611932
 40
0.2316487821466205
 40
0.2888249240161481
 40
0.3520327818903635
 40
0.4012488490829827
 40
0.4437764062620854
 40
0.4978552134538538
 40
0.5651595063521406
 40
0.6470208209758447
 40
0.7192210566595569
 40
0.8020573794893163
 40
0.8971868323792908
 40
1.0
 40
1.0
 40
1.0
 40
1.0
 10
84.52039892561858
 20
134.1578738485925
 30
0.0
 10
84.3498590572912
 20
134.159137910206
 30
0.0
 10
84.03167920851963
 20
134.1614962967636
 30
0.0
 10
83.58794433636999
 20
134.2102448672279
 30
0.0
 10
83.20890614522939
 20
134.2809121475932
 30
0.0
 10
82.86140993586916
 20
134.3735034355335
 30
0.0
 10
82.55310045039748
 20
134.4815474834915
 30
0.0
 10
82.27966423456047
 20
134.6008693859066
 30
0.0
 10
82.02972921325926
 20
134.728643271737
 30
0.0
 10
81.75835449411215
 20
134.8898256633705
 30
0.0
 10
81.4387975148064
 20
135.1160815083951
 30
0.0
 10
81.11564417312518
 20
135.3946557601341
 30
0.0
 10
80.79831004409688
 20
135.7225457472091
 30
0.0
 10
80.49387705218481
 20
136.0959649373627
 30
0.0
 10
80.18632146503742
 20
136.5412715466675
 30
0.0
 10
80.00421614262312
 20
136.8760127137362
 30
0.0
 10
79.90962900929277
 20
137.0498802700542
 30
0.0
  0
LINE
  5
D0
330
1F
100
AcDbEntity
  8
0
  6
Continuous
 62
     7
370
     0
100
AcDbLine
 10
79.9108198216
 20
137.0526327939
 30
0.0
 11
82.1060503904
 21
137.0526327939
 31
0.0
  0
LINE
  5
D1
330
1F
100
AcDbEntity
  8
0
  6
Continuous
 62
     7
370
     0
100
AcDbLine
 10
76.666415257
 20
137.0526327939
 30
0.0
 11
78.8711256418
 21
137.0526327939
 31
0.0
  0
LINE
  5
D2
330
1F
100
AcDbEntity
  8
0
  6
Continuous
 62
     7
370
     0
100
AcDbLine
 10
73.8756019227
 20
137.0526327939
 30
0.0
 11
76.0944360472
 21
137.0526327939
 31
0.0
  0
LINE
  5
D3
330
1F
100
AcDbEntity
  8
0
  6
Continuous
 62
     7
370
     0
100
AcDbLine
 10
70.6464155182
 20
137.0526327939
 30
0.0
 11
72.8511261359
 21
137.0526327939
 31
0.0
  0
LINE
  5
D4
330
1F
100
AcDbEntity
  8
0
  6
Continuous
 62
     7
370
     0
100
AcDbLine
 10
68.3646016359
 20
137.0526327939
 30
0.0
 11
70.1116808295
 21
137.0526327939
 31
0.0
  0
ARC
  5
D5
330
1F
100
AcDbEntity
  8
0
  6
Continuous
 62
     7
370
     0
100
AcDbCircle
 10
70.3604255345
 20
138.6921884443
 30
0.0
 40
1.725555555555559
100
AcDbArc
 50
251.4133828012
 51
287.145924302
  0
LINE
  5
D6
330
1F
100
AcDbEntity
  8
0
  6
Continuous
 62
     7
370
     0
100
AcDbLine
 10
82.9414255522
 20
137.0566328244
 30
0.0
 11
82.9414255522
 21
137.1416327731
 31
0.0
  0
ARC
  5
D7
330
1F
100
AcDbEntity
  8
0
  6
Continuous
 62
     7
370
     0
100
AcDbCircle
 10
82.3914255345
 20
138.6921884443
 30
0.0
 40
1.725555555555555
100
AcDbArc
 50
251.4133828012
 51
288.5866171988
  0
ARC
  5
D8
330
1F
100
AcDbEntity
  8
0
  6
Continuous
 62
     7
370
     0
100
AcDbCircle
 10
76.3804255345
 20
138.6921884443
 30
0.0
 40
1.725555555555559
100
AcDbArc
 50
251.4133828012
 51
287.145924302
  0
LINE
  5
D9
330
1F
100
AcDbEntity
  8
0
  6
Continuous
 62
     7
370
     0
100
AcDbLine
 10
69.8104259163
 20
137.1416327731
 30
0.0
 11
69.8104259163
 21
137.0566328244
 31
0.0
  0
LINE
  5
DA
330
1F
100
AcDbEntity
  8
0
  6
Continuous
 62
     7
370
     0
100
AcDbLine
 10
75.8304256551
 20
137.1416327731
 30
0.0
 11
75.8304256551
 21
137.0566328244
 31
0.0
  0
LINE
  5
DB
330
1F
100
AcDbEntity
  8
0
  6
Continuous
 62
     7
370
     0
100
AcDbLine
 10
76.9304256491
 20
137.0566328244
 30
0.0
 11
76.9304256491
 21
137.1416327731
 31
0.0
  0
ARC
  5
DC
330
1F
100
AcDbEntity
  8
0
  6
Continuous
 62
     7
370
     0
100
AcDbCircle
 10
66.8584255345
 20
140.6426328888
 30
0.0
 40
3.5
100
AcDbArc
 50
90.0
 51
270.0
  0
ARC
  5
DD
330
1F
100
AcDbEntity
  8
0
  6
Continuous
 62
     7
370
     0
100
AcDbCircle
 10
67.8594255345
 20
142.5930773332
 30
0.0
 40
1.725555555555559
100
AcDbArc
 50
71.4133828012
 51
90.0
  0
ARC
  5
DE
330
1F
100
AcDbEntity
  8
0
  6
Continuous
 62
     7
370
     0
100
AcDbCircle
 10
67.8594255345
 20
142.5930773332
 30
0.0
 40
1.725555555555559
100
AcDbArc
 50
90.0
 51
108.5866171988
  0
ARC
  5
DF
330
1F
100
AcDbEntity
  8
0
  6
Continuous
 62
     7
370
     0
100
AcDbCircle
 10
73.3704255345
 20
142.5930773332
 30
0.0
 40
1.725555555555559
100
AcDbArc
 50
71.4133828012
 51
90.0
  0
ARC
  5
E0
330
1F
100
AcDbEntity
  8
0
  6
Continuous
 62
     7
370
     0
100
AcDbCircle
 10
73.3704255345
 20
142.5930773332
 30
0.0
 40
1.725555555555559
100
AcDbArc
 50
90.0
 51
108.5866171988
  0
ARC
  5
E1
330
1F
100
AcDbEntity
  8
0
  6
Continuous
 62
     7
370
     0
100
AcDbCircle
 10
79.3904255345
 20
142.5930773332
 30
0.0
 40
1.725555555555555
100
AcDbArc
 50
71.4133828012
 51
72.6780203484
  0
ARC
  5
E2
330
1F
100
AcDbEntity
  8
0
  6
Continuous
 62
     7
370
     0
100
AcDbCircle
 10
79.3904255345
 20
142.5930773332
 30
0.0
 40
1.725555555555555
100
AcDbArc
 50
103.6262414425
 51
108.5866171988
  0
LINE
  5
E3
330
1F
100
AcDbEntity
  8
0
  6
Continuous
 62
     7
370
     0
100
AcDbLine
 10
79.9404255185
 20
144.1436330044
 30
0.0
 11
79.9404255185
 21
144.2286329532
 31
0.0
  0
LINE
  5
E4
330
1F
100
AcDbEntity
  8
0
  6
Continuous
 62
     7
370
     0
100
AcDbLine
 10
78.8404255245
 20
144.2286329532
 30
0.0
 11
78.8404255245
 21
144.1436330044
 31
0.0
  0
LINE
  5
E5
330
1F
100
AcDbEntity
  8
0
  6
Continuous
 62
     7
370
     0
100
AcDbLine
 10
68.4094252601
 20
144.1436330044
 30
0.0
 11
68.4094252601
 21
144.2286329532
 31
0.0
  0
LINE
  5
E6
330
1F
100
AcDbEntity
  8
0
  6
Continuous
 62
     7
370
     0
100
AcDbLine
 10
67.3094252661
 20
144.2286329532
 30
0.0
 11
67.3094252661
 21
144.1436330044
 31
0.0
  0
LINE
  5
E7
330
1F
100
AcDbEntity
  8
0
  6
Continuous
 62
     7
370
     0
100
AcDbLine
 10
73.9204255469
 20
144.1436330044
 30
0.0
 11
73.9204255469
 21
144.2286329532
 31
0.0
  0
LINE
  5
E8
330
1F
100
AcDbEntity
  8
0
  6
Continuous
 62
     7
370
     0
100
AcDbLine
 10
72.8204250872
 20
144.2286329532
 30
0.0
 11
72.8204250872
 21
144.1436330044
 31
0.0
  0
LINE
  5
E9
330
1F
100
AcDbEntity
  8
0
  6
Continuous
 62
     7
370
     0
100
AcDbLine
 10
84.5126824524
 20
147.1236284544
 30
0.0
 11
144.5126841381
 21
147.1236284544
 31
0.0
  0
LINE
  5
EA
330
1F
100
AcDbEntity
  8
0
  6
Continuous
 62
     7
370
     0
100
AcDbLine
 10
144.1083411291
 20
147.9722207134
 30
0.0
 11
84.1083417717
 21
147.9722207134
 31
0.0
  0
SPLINE
  5
EB
330
1F
100
AcDbEntity
  8
0
  6
Continuous
 62
     7
370
     0
100
AcDbSpline
210
0.0
220
0.0
230
1.0
 70
     8
 71
     3
 72
    22
 73
    18
 74
     0
 42
0.000000001
 43
0.00000001
 40
0.0
 40
0.0
 40
0.0
 40
0.0
 40
0.0873773266188211
 40
0.1689699972915718
 40
0.2396370975424661
 40
0.30061436196527
 40
0.3528588815581425
 40
0.3970876808765439
 40
0.4338195812915291
 40
0.4655084385837928
 40
0.517399471538563
 40
0.5825819245241078
 40
0.6614279532173657
 40
0.7302699563666564
 40
0.8085226250266836
 40
0.8977294170822244
 40
1.0
 40
1.0
 40
1.0
 40
1.0
 10
79.90944577157622
 20
144.235536148911
 30
0.0
 10
79.98935907645455
 20
144.3835236426719
 30
0.0
 10
80.14389517216
 20
144.6697013890917
 30
0.0
 10
80.39869631810437
 20
145.0546616088098
 30
0.0
 10
80.64698599166249
 20
145.3815844428714
 30
0.0
 10
80.87992533065892
 20
145.6482443489232
 30
0.0
 10
81.09315900615563
 20
145.8636672068696
 30
0.0
 10
81.28359708604194
 20
146.0353626969211
 30
0.0
 10
81.45166068151653
 20
146.1723421655282
 30
0.0
 10
81.63731466263667
 20
146.3106976597876
 30
0.0
 10
81.87602596110546
 20
146.4690278066605
 30
0.0
 10
82.20557529621249
 20
146.6529632031283
 30
0.0
 10
82.58138212320496
 20
146.8177329889861
 30
0.0
 10
82.99510388152082
 20
146.9530764999873
 30
0.0
 10
83.43912914737767
 20
147.0533845084102
 30
0.0
 10
83.95480971127577
 20
147.1213173994965
 30
0.0
 10
84.32348474429756
 20
147.1252770353748
 30
0.0
 10
84.52039892561858
 20
147.1273919289463
 30
0.0
  0
SPLINE
  5
EC
330
1F
100
AcDbEntity
  8
0
  6
Continuous
 62
     7
370
     0
100
AcDbSpline
210
0.0
220
0.0
230
1.0
 70
     8
 71
     3
 72
    23
 73
    19
 74
     0
 42
0.000000001
 43
0.00000001
 40
0.0
 40
0.0
 40
0.0
 40
0.0
 40
0.087048189676407
 40
0.1636535548089844
 40
0.2308236253466656
 40
0.2892823904525176
 40
0.3395146709444078
 40
0.3818152916103776
 40
0.4163389165390629
 40
0.4494357003560894
 40
0.4897839644164861
 40
0.5375762902538331
 40
0.5930587764340407
 40
0.656697239037373
 40
0.7291762295837682
 40
0.8114249134471692
 40
0.9046287469728799
 40
1.0
 40
1.0
 40
1.0
 40
1.0
 10
84.100625298546
 20
147.9684567732268
 30
0.0
 10
83.90731023817807
 20
147.9545871633944
 30
0.0
 10
83.54387135513028
 20
147.9285118255692
 30
0.0
 10
83.03804281128501
 20
147.8342676618475
 30
0.0
 10
82.60311626331516
 20
147.717525999564
 30
0.0
 10
82.23393398937719
 20
147.5867776932219
 30
0.0
 10
81.92542165815283
 20
147.453270456153
 30
0.0
 10
81.67296586259057
 20
147.3257604190961
 30
0.0
 10
81.4603231521683
 20
147.2047939885154
 30
0.0
 10
81.25684545475231
 20
147.0769805976561
 30
0.0
 10
81.0353817381301
 20
146.9227733058187
 30
0.0
 10
80.78362011083138
 20
146.7256806973945
 30
0.0
 10
80.50585320506329
 20
146.4787801888526
 30
0.0
 10
80.20741644714519
 20
146.1738772400242
 30
0.0
 10
79.89383757117852
 20
145.802116322576
 30
0.0
 10
79.57234026824365
 20
145.3533222398021
 30
0.0
 10
79.25741194367147
 20
144.8385255758939
 30
0.0
 10
79.07411364776051
 20
144.4608981613428
 30
0.0
 10
78.9814111148951
 20
144.2699142919384
 30
0.0
  0
LINE
  5
ED
330
1F
100
AcDbEntity
  8
0
  6
Continuous
 62
     7
370
     0
100
AcDbLine
 10
82.1060503904
 20
144.2326329836
 30
0.0
 11
79.9179276755
 21
144.2326329836
 31
0.0
  0
LINE
  5
EE
330
1F
100
AcDbEntity
  8
0
  6
Continuous
 62
     7
370
     0
100
AcDbLine
 10
78.878598807
 20
144.2326329836
 30
0.0
 11
76.666415257
 21
144.2326329836
 31
0.0
  0
LINE
  5
EF
330
1F
100
AcDbEntity
  8
0
  6
Continuous
 62
     7
370
     0
100
AcDbLine
 10
72.8585990682
 20
144.2326329836
 30
0.0
 11
70.6464155182
 21
144.2326329836
 31
0.0
  0
LINE
  5
F0
330
1F
100
AcDbEntity
  8
0
  6
Continuous
 62
     7
370
     0
100
AcDbLine
 10
76.0944360472
 20
144.2326329836
 30
0.0
 11
73.8979275875
 21
144.2326329836
 31
0.0
  0
LINE
  5
F1
330
1F
100
AcDbEntity
  8
0
  6
Continuous
 62
     7
370
     0
100
AcDbLine
 10
70.1116808295
 20
144.2326329836
 30
0.0
 11
68.3869273007
 21
144.2326329836
 31
0.0
  0
ARC
  5
F2
330
1F
100
AcDbEntity
  8
0
  6
Continuous
 62
     7
370
     0
100
AcDbCircle
 10
70.3604255345
 20
142.5930773332
 30
0.0
 40
1.725555555555559
100
AcDbArc
 50
71.4133828012
 51
90.0
  0
ARC
  5
F3
330
1F
100
AcDbEntity
  8
0
  6
Continuous
 62
     7
370
     0
100
AcDbCircle
 10
70.3604255345
 20
142.5930773332
 30
0.0
 40
1.725555555555559
100
AcDbArc
 50
90.0
 51
108.5866171988
  0
ARC
  5
F4
330
1F
100
AcDbEntity
  8
0
  6
Continuous
 62
     7
370
     0
100
AcDbCircle
 10
76.3804255345
 20
142.5930773332
 30
0.0
 40
1.725555555555559
100
AcDbArc
 50
71.4133828012
 51
90.0
  0
ARC
  5
F5
330
1F
100
AcDbEntity
  8
0
  6
Continuous
 62
     7
370
     0
100
AcDbCircle
 10
76.3804255345
 20
142.5930773332
 30
0.0
 40
1.725555555555559
100
AcDbArc
 50
90.0
 51
108.5866171988
  0
ARC
  5
F6
330
1F
100
AcDbEntity
  8
0
  6
Continuous
 62
     7
370
     0
100
AcDbCircle
 10
82.3914255345
 20
142.5930773332
 30
0.0
 40
1.725555555555559
100
AcDbArc
 50
71.4133828012
 51
90.0
  0
ARC
  5
F7
330
1F
100
AcDbEntity
  8
0
  6
Continuous
 62
     7
370
     0
100
AcDbCircle
 10
82.3914255345
 20
142.5930773332
 30
0.0
 40
1.725555555555559
100
AcDbArc
 50
90.0
 51
108.5866171988
  0
LINE
  5
F8
330
1F
100
AcDbEntity
  8
0
  6
Continuous
 62
     7
370
     0
100
AcDbLine
 10
82.9414255522
 20
144.1436330044
 30
0.0
 11
82.9414255522
 21
144.2286329532
 31
0.0
  0
LINE
  5
F9
330
1F
100
AcDbEntity
  8
0
  6
Continuous
 62
     7
370
     0
100
AcDbLine
 10
81.8414255582
 20
144.2286329532
 30
0.0
 11
81.8414255582
 21
144.1436330044
 31
0.0
  0
LINE
  5
FA
330
1F
100
AcDbEntity
  8
0
  6
Continuous
 62
     7
370
     0
100
AcDbLine
 10
70.9104259104
 20
144.1436330044
 30
0.0
 11
70.9104259104
 21
144.2286329532
 31
0.0
  0
LINE
  5
FB
330
1F
100
AcDbEntity
  8
0
  6
Continuous
 62
     7
370
     0
100
AcDbLine
 10
69.8104259163
 20
144.2286329532
 30
0.0
 11
69.8104259163
 21
144.1436330044
 31
0.0
  0
LINE
  5
FC
330
1F
100
AcDbEntity
  8
0
  6
Continuous
 62
     7
370
     0
100
AcDbLine
 10
76.9304256491
 20
144.1436330044
 30
0.0
 11
76.9304256491
 21
144.2286329532
 31
0.0
  0
LINE
  5
FD
330
1F
100
AcDbEntity
  8
0
  6
Continuous
 62
     7
370
     0
100
AcDbLine
 10
83.8914255682
 20
144.1426329968
 30
0.0
 11
80.8914255345
 21
144.1426329968
 31
0.0
  0
LINE
  5
FE
330
1F
100
AcDbEntity
  8
0
  6
Continuous
 62
     7
370
     0
100
AcDbLine
 10
83.8914255682
 20
137.1426327807
 30
0.0
 11
83.8914255682
 21
144.1426329968
 31
0.0
  0
LINE
  5
FF
330
1F
100
AcDbEntity
  8
0
  6
Continuous
 62
     7
370
     0
100
AcDbLine
 10
83.8914255682
 20
137.1426327807
 30
0.0
 11
80.8914255345
 21
137.1426327807
 31
0.0
  0
LINE
  5
100
330
1F
100
AcDbEntity
  8
0
  6
Continuous
 62
     7
370
     0
100
AcDbLine
 10
80.8914255345
 20
137.1426327807
 30
0.0
 11
80.8914255345
 21
144.1426329968
 31
0.0
  0
LINE
  5
101
330
1F
100
AcDbEntity
  8
0
  6
Continuous
 62
     7
370
     0
100
AcDbLine
 10
77.8904255085
 20
137.1426327807
 30
0.0
 11
80.8904255345
 21
137.1426327807
 31
0.0
  0
LINE
  5
102
330
1F
100
AcDbEntity
  8
0
  6
Continuous
 62
     7
370
     0
100
AcDbLine
 10
77.8904255085
 20
144.1426329968
 30
0.0
 11
77.8904255085
 21
137.1426327807
 31
0.0
  0
LINE
  5
103
330
1F
100
AcDbEntity
  8
0
  6
Continuous
 62
     7
370
     0
100
AcDbLine
 10
77.8904255085
 20
144.1426329968
 30
0.0
 11
80.8904255345
 21
144.1426329968
 31
0.0
  0
LINE
  5
104
330
1F
100
AcDbEntity
  8
0
  6
Continuous
 62
     7
370
     0
100
AcDbLine
 10
80.8904255345
 20
144.1426329968
 30
0.0
 11
80.8904255345
 21
137.1426327807
 31
0.0
  0
LINE
  5
105
330
1F
100
AcDbEntity
  8
0
  6
Continuous
 62
     7
370
     0
100
AcDbLine
 10
68.8604256675
 20
137.1426327807
 30
0.0
 11
71.8604252279
 21
137.1426327807
 31
0.0
  0
LINE
  5
106
330
1F
100
AcDbEntity
  8
0
  6
Continuous
 62
     7
370
     0
100
AcDbLine
 10
68.8604256675
 20
144.1426329968
 30
0.0
 11
68.8604256675
 21
137.1426327807
 31
0.0
  0
LINE
  5
107
330
1F
100
AcDbEntity
  8
0
  6
Continuous
 62
     7
370
     0
100
AcDbLine
 10
68.8604256675
 20
144.1426329968
 30
0.0
 11
71.8604252279
 21
144.1426329968
 31
0.0
  0
LINE
  5
108
330
1F
100
AcDbEntity
  8
0
  6
Continuous
 62
     7
370
     0
100
AcDbLine
 10
71.8604252279
 20
144.1426329968
 30
0.0
 11
71.8604252279
 21
137.1426327807
 31
0.0
  0
LINE
  5
109
330
1F
100
AcDbEntity
  8
0
  6
Continuous
 62
     7
370
     0
100
AcDbLine
 10
71.8704257697
 20
137.1426327807
 30
0.0
 11
74.8704253301
 21
137.1426327807
 31
0.0
  0
LINE
  5
10A
330
1F
100
AcDbEntity
  8
0
  6
Continuous
 62
     7
370
     0
100
AcDbLine
 10
71.8704257697
 20
144.1426329968
 30
0.0
 11
74.8704253301
 21
144.1426329968
 31
0.0
  0
LINE
  5
10B
330
1F
100
AcDbEntity
  8
0
  6
Continuous
 62
     7
370
     0
100
AcDbLine
 10
74.8704253301
 20
144.1426329968
 30
0.0
 11
74.8704253301
 21
137.1426327807
 31
0.0
  0
LINE
  5
10C
330
1F
100
AcDbEntity
  8
0
  6
Continuous
 62
     7
370
     0
100
AcDbLine
 10
71.8704257697
 20
144.1426329968
 30
0.0
 11
71.8704257697
 21
137.1426327807
 31
0.0
  0
LINE
  5
10D
330
1F
100
AcDbEntity
  8
0
  6
Continuous
 62
     7
370
     0
100
AcDbLine
 10
74.8804254062
 20
137.1426327807
 30
0.0
 11
77.8804254323
 21
137.1426327807
 31
0.0
  0
LINE
  5
10E
330
1F
100
AcDbEntity
  8
0
  6
Continuous
 62
     7
370
     0
100
AcDbLine
 10
74.8804254062
 20
144.1426329968
 30
0.0
 11
77.8804254323
 21
144.1426329968
 31
0.0
  0
LINE
  5
10F
330
1F
100
AcDbEntity
  8
0
  6
Continuous
 62
     7
370
     0
100
AcDbLine
 10
77.8804254323
 20
144.1426329968
 30
0.0
 11
77.8804254323
 21
137.1426327807
 31
0.0
  0
LINE
  5
110
330
1F
100
AcDbEntity
  8
0
  6
Continuous
 62
     7
370
     0
100
AcDbLine
 10
74.8804254062
 20
144.1426329968
 30
0.0
 11
74.8804254062
 21
137.1426327807
 31
0.0
  0
LINE
  5
111
330
1F
100
AcDbEntity
  8
0
  6
Continuous
 62
     7
370
     0
100
AcDbLine
 10
68.859425427
 20
144.1426329968
 30
0.0
 11
68.859425427
 21
137.1426327807
 31
0.0
  0
LINE
  5
112
330
1F
100
AcDbEntity
  8
0
  6
Continuous
 62
     7
370
     0
100
AcDbLine
 10
66.8594250992
 20
137.1426327807
 30
0.0
 11
68.859425427
 21
137.1426327807
 31
0.0
  0
LINE
  5
113
330
1F
100
AcDbEntity
  8
0
  6
Continuous
 62
     7
370
     0
100
AcDbLine
 10
66.8594250992
 20
144.1426329968
 30
0.0
 11
66.8594250992
 21
137.1426327807
 31
0.0
  0
LINE
  5
114
330
1F
100
AcDbEntity
  8
0
  6
Continuous
 62
     7
370
     0
100
AcDbLine
 10
66.8594250992
 20
144.1426329968
 30
0.0
 11
68.859425427
 21
144.1426329968
 31
0.0
  0
LINE
  5
115
330
1F
100
AcDbEntity
  8
0
  6
Continuous
 62
     7
370
     0
100
AcDbLine
 10
78.8404255245
 20
137.0566328244
 30
0.0
 11
79.9404255185
 21
137.0566328244
 31
0.0
  0
SPLINE
  5
116
330
1F
100
AcDbEntity
  8
0
  6
Continuous
 62
     7
370
     0
100
AcDbSpline
210
0.0
220
0.0
230
1.0
 70
     8
 71
     3
 72
    17
 73
    13
 74
     0
 42
0.000000001
 43
0.00000001
 40
0.0
 40
0.0
 40
0.0
 40
0.0
 40
0.071836311873156
 40
0.1807898198715095
 40
0.2892720967222672
 40
0.3967916606443023
 40
0.5033641166713593
 40
0.6094439638512841
 40
0.7156468803419138
 40
0.8224688039940042
 40
0.9301181913400529
 40
1.0
 40
1.0
 40
1.0
 40
1.0
 10
78.9842843614531
 20
137.016798993712
 30
0.0
 10
78.98420354580725
 20
137.0167962588155
 30
0.0
 10
78.98400015777582
 20
137.0167893759253
 30
0.0
 10
79.04438123928745
 20
137.0190441124314
 30
0.0
 10
79.15053587254617
 20
137.0228845387271
 30
0.0
 10
79.2916925203225
 20
137.0277733258791
 30
0.0
 10
79.44864455451464
 20
137.0329321172013
 30
0.0
 10
79.6043451098117
 20
137.0377856790141
 30
0.0
 10
79.74257113395691
 20
137.0418874652707
 30
0.0
 10
79.84581780515191
 20
137.0448347945249
 30
0.0
 10
79.90438010398108
 20
137.0464612883298
 30
0.0
 10
79.90378273308718
 20
137.0464443167139
 30
0.0
 10
79.90354758929585
 20
137.0464376361572
 30
0.0
  0
LINE
  5
117
330
1F
100
AcDbEntity
  8
0
  6
Continuous
 62
     7
370
     0
100
AcDbLine
 10
78.8404255245
 20
137.1416327731
 30
0.0
 11
79.9404255185
 21
137.1416327731
 31
0.0
  0
LINE
  5
118
330
1F
100
AcDbEntity
  8
0
  6
Continuous
 62
     7
370
     0
100
AcDbLine
 10
72.8204250872
 20
137.0566328244
 30
0.0
 11
73.9204255469
 21
137.0566328244
 31
0.0
  0
LINE
  5
119
330
1F
100
AcDbEntity
  8
0
  6
Continuous
 62
     7
370
     0
100
AcDbLine
 10
72.8204250872
 20
137.1416327731
 30
0.0
 11
73.9204255469
 21
137.1416327731
 31
0.0
  0
LINE
  5
11A
330
1F
100
AcDbEntity
  8
0
  6
Continuous
 62
     7
370
     0
100
AcDbLine
 10
67.3094252661
 20
137.1416327731
 30
0.0
 11
68.4094252601
 21
137.1416327731
 31
0.0
  0
LINE
  5
11B
330
1F
100
AcDbEntity
  8
0
  6
Continuous
 62
     7
370
     0
100
AcDbLine
 10
67.3094252661
 20
137.0566328244
 30
0.0
 11
68.4094252601
 21
137.0566328244
 31
0.0
  0
LWPOLYLINE
  5
11C
330
1F
100
AcDbEntity
  8
0
  6
Continuous
 62
     7
370
     0
100
AcDbPolyline
 90
       14
 70
   128
 43
0.0
 10
84.1006252985
 20
133.3168090043
 10
84.1070833221
 20
133.3297483345
 10
84.1253179196
 20
133.3662831878
 10
84.1523781955
 20
133.4205019941
 10
84.1845800705
 20
133.4850216938
 10
84.251743795
 20
133.6195922179
 10
84.3105121121
 20
133.7373411936
 10
84.3692804292
 20
133.8550901694
 10
84.4364443865
 20
133.9896606935
 10
84.4686460286
 20
134.0541808588
 10
84.4957065374
 20
134.1083991995
 10
84.5139409021
 20
134.1449340527
 10
84.5203989256
 20
134.1578738486
 10
84.5203986928
 20
134.1578733829
  0
LWPOLYLINE
  5
11D
330
1F
100
AcDbEntity
  8
0
  6
Continuous
 62
     7
370
     0
100
AcDbPolyline
 90
       14
 70
   128
 43
0.0
 10
144.1083411291
 20
133.3130455298
 10
144.1119248584
 20
133.3205608373
 10
144.1275859788
 20
133.3534267453
 10
144.1547358945
 20
133.410415305
 10
144.1916758731
 20
133.4879465123
 10
144.236088784
 20
133.5811476876
 10
144.285173209
 20
133.6841626746
 10
144.3358520582
 20
133.7905197126
 10
144.3849364832
 20
133.8935351653
 10
144.4293419436
 20
133.9867363406
 10
144.4662893727
 20
134.0642670823
 10
144.4934392884
 20
134.1212556419
 10
144.5091004089
 20
134.1541220156
 10
144.5126841381
 20
134.1616373231
  0
LINE
  5
11E
330
1F
100
AcDbEntity
  8
0
  6
Continuous
 62
     7
370
     0
100
AcDbLine
 10
78.920425668
 20
137.1425328964
 30
0.0
 11
79.8604254914
 21
137.1425328964
 31
0.0
  0
ARC
  5
11F
330
1F
100
AcDbEntity
  8
0
  6
Continuous
 62
     7
370
     0
100
AcDbCircle
 10
82.3914255345
 20
137.1426328888
 30
0.0
 40
0.0899999999999945
100
AcDbArc
 50
359.3633671277
 51
0.0
  0
SPLINE
  5
120
330
1F
100
AcDbEntity
  8
0
  6
Continuous
 62
     7
370
     0
100
AcDbSpline
210
0.0
220
0.0
230
1.0
 70
     8
 71
     3
 72
    17
 73
    13
 74
     0
 42
0.000000001
 43
0.00000001
 40
0.0000000000000294
 40
0.0000000000000294
 40
0.0000000000000294
 40
0.0000000000000294
 40
0.0000249091250881
 40
0.0000249091250881
 40
0.0000249091250881
 40
0.000049647094448
 40
0.000049647094448
 40
0.000049647094448
 40
0.0000776809553864
 40
0.0000776809553864
 40
0.0000776809553864
 40
0.0001063965838135
 40
0.0001063965838135
 40
0.0001063965838135
 40
0.0001063965838135
 10
82.11917662427692
 20
137.0566328887626
 30
0.0
 10
82.1259569075935
 20
137.0594698337296
 30
0.0
 10
82.13244247665045
 20
137.0638091831003
 30
0.0
 10
82.13811344044186
 20
137.0691122195157
 30
0.0
 10
82.14376087594482
 20
137.0743932541383
 30
0.0
 10
82.14875525071018
 20
137.0807477943445
 30
0.0
 10
82.15285135708653
 20
137.0876545269688
 30
0.0
 10
82.15748966020925
 20
137.0954754956047
 30
0.0
 10
82.16108931813763
 20
137.1041815562272
 30
0.0
 10
82.16351131634522
 20
137.1131584911589
 30
0.0
 10
82.16599362185751
 20
137.1223589501001
 30
0.0
 10
82.16729575303779
 20
137.1320370866206
 30
0.0
 10
82.16737912869733
 20
137.1416328887693
 30
0.0
  0
SPLINE
  5
121
330
1F
100
AcDbEntity
  8
0
  6
Continuous
 62
     7
370
     0
100
AcDbSpline
210
0.0
220
0.0
230
1.0
 70
     8
 71
     3
 72
    10
 73
     6
 74
     0
 42
0.000000001
 43
0.00000001
 40
0.0
 40
0.0
 40
0.0
 40
0.0
 40
0.5215570487018787
 40
0.8250626153253869
 40
1.0
 40
1.0
 40
1.0
 40
1.0
 10
82.11917656716084
 20
137.0566328243815
 30
0.0
 10
82.11798589002314
 20
137.0555881455912
 30
0.0
 10
82.1161023315597
 20
137.0539355451383
 30
0.0
 10
82.11101988377223
 20
137.0527012952999
 30
0.0
 10
82.10738025071419
 20
137.052740472478
 30
0.0
 10
82.10604945905631
 20
137.0527547971808
 30
0.0
  0
SPLINE
  5
122
330
1F
100
AcDbEntity
  8
0
  6
Continuous
 62
     7
370
     0
100
AcDbSpline
210
0.0
220
0.0
230
1.0
 70
     8
 71
     3
 72
    17
 73
    13
 74
     0
 42
0.000000001
 43
0.00000001
 40
0.0
 40
0.0
 40
0.0
 40
0.0
 40
0.0000249091250945
 40
0.0000249091250945
 40
0.0000249091250945
 40
0.0000496470944607
 40
0.0000496470944607
 40
0.0000496470944607
 40
0.0000776809554077
 40
0.0000776809554077
 40
0.0000776809554077
 40
0.0001063965837809
 40
0.0001063965837809
 40
0.0001063965837809
 40
0.0001063965837809
 10
76.10753318658826
 20
137.0566328887689
 30
0.0
 10
76.11430826106344
 20
137.059469833741
 30
0.0
 10
76.12078911448694
 20
137.0638091831225
 30
0.0
 10
76.12645610976567
 20
137.0691122195427
 30
0.0
 10
76.13209959322064
 20
137.0743932541698
 30
0.0
 10
76.13709064084546
 20
137.0807477943803
 30
0.0
 10
76.1411840874327
 20
137.0876545270084
 30
0.0
 10
76.14581937869345
 20
137.0954754956491
 30
0.0
 10
76.1494168023572
 20
137.1041815562759
 30
0.0
 10
76.15183731298515
 20
137.1131584912114
 30
0.0
 10
76.15431809387204
 20
137.1223589501367
 30
0.0
 10
76.15561944846034
 20
137.1320370866387
 30
0.0
 10
76.15570277395311
 20
137.1416328887693
 30
0.0
  0
SPLINE
  5
123
330
1F
100
AcDbEntity
  8
0
  6
Continuous
 62
     7
370
     0
100
AcDbSpline
210
0.0
220
0.0
230
1.0
 70
     8
 71
     3
 72
    23
 73
    19
 74
     0
 42
0.000000001
 43
0.00000001
 40
0.0000000000000578
 40
0.0000000000000578
 40
0.0000000000000578
 40
0.0000000000000578
 40
0.0000136991387907
 40
0.0000136991387907
 40
0.0000136991387907
 40
0.0000216340655809
 40
0.0000216340655809
 40
0.0000216340655809
 40
0.0000296647623608
 40
0.0000296647623608
 40
0.0000296647623608
 40
0.0000367560773714
 40
0.0000367560773714
 40
0.0000367560773714
 40
0.0000484502326729
 40
0.0000484502326729
 40
0.0000484502326729
 40
0.0000524173646957
 40
0.0000524173646957
 40
0.0000524173646957
 40
0.0000524173646957
 10
76.10753318652338
 20
137.0566328887562
 30
0.0
 10
76.1066329077058
 20
137.0555172808622
 30
0.0
 10
76.10525760570826
 20
137.0544946829479
 30
0.0
 10
76.10305510307755
 20
137.0537522459316
 30
0.0
 10
76.10177342283193
 20
137.0533202070118
 30
0.0
 10
76.10017440699487
 20
137.0529804843787
 30
0.0
 10
76.09826232764664
 20
137.0527959709808
 30
0.0
 10
76.09633610343536
 20
137.0526100926203
 30
0.0
 10
76.09402896800398
 20
137.0525837515963
 30
0.0
 10
76.09157284487846
 20
137.0527241494474
 30
0.0
 10
76.08938999252962
 20
137.0528489264897
 30
0.0
 10
76.08704638620756
 20
137.0531031305247
 30
0.0
 10
76.08471023236457
 20
137.0534434561039
 30
0.0
 10
76.08087587731002
 20
137.0540020362285
 30
0.0
 10
76.07696488404888
 20
137.0547979503564
 30
0.0
 10
76.07322160171468
 20
137.0556857028337
 30
0.0
 10
76.07194024756245
 20
137.0559895872916
 30
0.0
 10
76.07066984672659
 20
137.0563063329186
 30
0.0
 10
76.06941267798842
 20
137.0566328887693
 30
0.0
  0
SPLINE
  5
124
330
1F
100
AcDbEntity
  8
0
  6
Continuous
 62
     7
370
     0
100
AcDbSpline
210
0.0
220
0.0
230
1.0
 70
     8
 71
     3
 72
    17
 73
    13
 74
     0
 42
0.000000001
 43
0.00000001
 40
0.0
 40
0.0
 40
0.0
 40
0.0
 40
0.0000327613862941
 40
0.0000327613862941
 40
0.0000327613862941
 40
0.0000676569624332
 40
0.0000676569624332
 40
0.0000676569624332
 40
0.0000935083918259
 40
0.0000935083918259
 40
0.0000935083918259
 40
0.0001064525923193
 40
0.0001064525923193
 40
0.0001064525923193
 40
0.0001064525923193
 10
76.02640589067391
 20
137.1416328887694
 30
0.0
 10
76.02648539910395
 20
137.1307129208684
 30
0.0
 10
76.0278860476554
 20
137.1196672824424
 30
0.0
 10
76.03060275746535
 20
137.1093298905074
 30
0.0
 10
76.03348501627049
 20
137.0983625656875
 30
0.0
 10
76.03796135833842
 20
137.0878462494653
 30
0.0
 10
76.04390137480482
 20
137.0790237794231
 30
0.0
 10
76.04832742347334
 20
137.0724499454945
 30
0.0
 10
76.05368864312403
 20
137.0666493229901
 30
0.0
 10
76.0597220370129
 20
137.0622478079637
 30
0.0
 10
76.0627742272719
 20
137.0600211571705
 30
0.0
 10
76.06602749334165
 20
137.0581250745017
 30
0.0
 10
76.06941267804295
 20
137.0566328887447
 30
0.0
  0
SPLINE
  5
125
330
1F
100
AcDbEntity
  8
0
  6
Continuous
 62
     7
370
     0
100
AcDbSpline
210
0.0
220
0.0
230
1.0
 70
     8
 71
     3
 72
    11
 73
     7
 74
     0
 42
0.000000001
 43
0.00000001
 40
0.0
 40
0.0
 40
0.0
 40
0.0
 40
0.1306654403507154
 40
0.4020645091396141
 40
0.8475205349719699
 40
1.0
 40
1.0
 40
1.0
 40
1.0
 10
70.6464145869029
 20
137.0527547971808
 30
0.0
 10
70.64539453669397
 20
137.0527257099243
 30
0.0
 10
70.64225578795173
 20
137.0526362068892
 30
0.0
 10
70.63768069351747
 20
137.0535757492255
 30
0.0
 10
70.63472972027692
 20
137.0550531739626
 30
0.0
 10
70.63360511446537
 20
137.0563118496342
 30
0.0
 10
70.63331832885866
 20
137.0566328243815
 30
0.0
  0
SPLINE
  5
126
330
1F
100
AcDbEntity
  8
0
  6
Continuous
 62
     7
370
     0
100
AcDbSpline
210
0.0
220
0.0
230
1.0
 70
     8
 71
     3
 72
    17
 73
    13
 74
     0
 42
0.000000001
 43
0.00000001
 40
0.0
 40
0.0
 40
0.0
 40
0.0
 40
0.0000327613862941
 40
0.0000327613862941
 40
0.0000327613862941
 40
0.0000676569624332
 40
0.0000676569624332
 40
0.0000676569624332
 40
0.0000935083918259
 40
0.0000935083918259
 40
0.0000935083918259
 40
0.0001064525923902
 40
0.0001064525923902
 40
0.0001064525923902
 40
0.0001064525923902
 10
70.58514829514203
 20
137.1416328887694
 30
0.0
 10
70.58524311907587
 20
137.1307129208684
 30
0.0
 10
70.58692279755657
 20
137.1196672824424
 30
0.0
 10
70.59012170148632
 20
137.1093298905074
 30
0.0
 10
70.59351553802514
 20
137.0983625656875
 30
0.0
 10
70.59875027906395
 20
137.0878462494653
 30
0.0
 10
70.60547354682147
 20
137.0790237794231
 30
0.0
 10
70.6104832148038
 20
137.0724499454945
 30
0.0
 10
70.61645173782141
 20
137.0666493229901
 30
0.0
 10
70.62297752716582
 20
137.0622478079637
 30
0.0
 10
70.62627881182252
 20
137.0600211571701
 30
0.0
 10
70.62975430633553
 20
137.058125074501
 30
0.0
 10
70.63331788256559
 20
137.0566328887438
 30
0.0
  0
ARC
  5
127
330
1F
100
AcDbEntity
  8
0
  6
Continuous
 62
     7
370
     0
100
AcDbCircle
 10
67.9488676148
 20
137.1431339216
 30
0.0
 40
0.1791666693582169
100
AcDbArc
 50
180.1602602296
 51
180.4800584649
  0
ARC
  5
128
330
1F
100
AcDbEntity
  8
0
  6
Continuous
 62
     7
370
     0
100
AcDbCircle
 10
67.9234264664
 20
137.1421327769
 30
0.0
 40
0.0257272727467683
100
AcDbArc
 50
358.8863991946
 51
1.1136008054
  0
SPLINE
  5
129
330
1F
100
AcDbEntity
  8
0
  6
Continuous
 62
     7
370
     0
100
AcDbSpline
210
0.0
220
0.0
230
1.0
 70
     8
 71
     3
 72
    17
 73
    13
 74
     0
 42
0.000000001
 43
0.00000001
 40
0.0
 40
0.0
 40
0.0
 40
0.0
 40
0.0000249091250945
 40
0.0000249091250945
 40
0.0000249091250945
 40
0.0000496470944607
 40
0.0000496470944607
 40
0.0000496470944607
 40
0.0000776809554077
 40
0.0000776809554077
 40
0.0000776809554077
 40
0.0001063965837808
 40
0.0001063965837808
 40
0.0001063965837808
 40
0.0001063965837808
 10
70.12644632352688
 20
137.0566328887689
 30
0.0
 10
70.1335083347292
 20
137.0594698337409
 30
0.0
 10
70.14024787020435
 20
137.0638091831225
 30
0.0
 10
70.14613189790397
 20
137.0691122195427
 30
0.0
 10
70.15199151333299
 20
137.0743932541698
 30
0.0
 10
70.15716376773788
 20
137.0807477943803
 30
0.0
 10
70.1614017515036
 20
137.0876545270084
 30
0.0
 10
70.16620071215783
 20
137.0954754956491
 30
0.0
 10
70.16991905275957
 20
137.1041815562759
 30
0.0
 10
70.17241999094244
 20
137.1131584912114
 30
0.0
 10
70.17498320201521
 20
137.1223589501367
 30
0.0
 10
70.17632642579312
 20
137.1320370866387
 30
0.0
 10
70.17641245830006
 20
137.1416328887693
 30
0.0
  0
SPLINE
  5
12A
330
1F
100
AcDbEntity
  8
0
  6
Continuous
 62
     7
370
     0
100
AcDbSpline
210
0.0
220
0.0
230
1.0
 70
     8
 71
     3
 72
    23
 73
    19
 74
     0
 42
0.000000001
 43
0.00000001
 40
0.0000000000000021
 40
0.0000000000000021
 40
0.0000000000000021
 40
0.0000000000000021
 40
0.0000136991388042
 40
0.0000136991388042
 40
0.0000136991388042
 40
0.0000216340656101
 40
0.0000216340656101
 40
0.0000216340656101
 40
0.0000296647624066
 40
0.0000296647624066
 40
0.0000296647624066
 40
0.0000367560774241
 40
0.0000367560774241
 40
0.0000367560774241
 40
0.0000484502327164
 40
0.0000484502327164
 40
0.0000484502327164
 40
0.00005241736476
 40
0.00005241736476
 40
0.00005241736476
 40
0.00005241736476
 10
70.12644632352938
 20
137.0566328887694
 30
0.0
 10
70.12520348435991
 20
137.0555172808725
 30
0.0
 10
70.12348550915456
 20
137.0544946829582
 30
0.0
 10
70.12097684716485
 20
137.0537522459393
 30
0.0
 10
70.11951700667655
 20
137.0533202070178
 30
0.0
 10
70.11774981322675
 20
137.0529804843829
 30
0.0
 10
70.11569753152669
 20
137.0527959709834
 30
0.0
 10
70.11363006779777
 20
137.0526100926212
 30
0.0
 10
70.11120773423521
 20
137.0525837515957
 30
0.0
 10
70.10867533977769
 20
137.052724149446
 30
0.0
 10
70.10642470212586
 20
137.0528489264873
 30
0.0
 10
70.10404138127994
 20
137.0531031305216
 30
0.0
 10
70.10168920505069
 20
137.0534434561002
 30
0.0
 10
70.09782855228366
 20
137.054002036223
 30
0.0
 10
70.09395191167575
 20
137.0547979503486
 30
0.0
 10
70.09027381866004
 20
137.0556857028237
 30
0.0
 10
70.08901477930229
 20
137.0559895872827
 30
0.0
 10
70.08777048183707
 20
137.0563063329109
 30
0.0
 10
70.08654244404447
 20
137.0566328887629
 30
0.0
  0
SPLINE
  5
12B
330
1F
100
AcDbEntity
  8
0
  6
Continuous
 62
     7
370
     0
100
AcDbSpline
210
0.0
220
0.0
230
1.0
 70
     8
 71
     3
 72
    17
 73
    13
 74
     0
 42
0.000000001
 43
0.00000001
 40
0.0
 40
0.0
 40
0.0
 40
0.0
 40
0.0000327613862941
 40
0.0000327613862941
 40
0.0000327613862941
 40
0.0000676569624332
 40
0.0000676569624332
 40
0.0000676569624332
 40
0.0000935083918259
 40
0.0000935083918259
 40
0.0000935083918259
 40
0.0001064525923537
 40
0.0001064525923537
 40
0.0001064525923537
 40
0.0001064525923537
 10
70.04106674964052
 20
137.1416328887694
 30
0.0
 10
70.04115133319964
 20
137.1307129208684
 30
0.0
 10
70.04264220363413
 20
137.1196672824424
 30
0.0
 10
70.04552868535866
 20
137.1093298905074
 30
0.0
 10
70.04859106152263
 20
137.0983625656875
 30
0.0
 10
70.05334394148741
 20
137.0878462494653
 30
0.0
 10
70.05963116973443
 20
137.0790237794231
 30
0.0
 10
70.06431593422438
 20
137.0724499454945
 30
0.0
 10
70.06998171549411
 20
137.0666493229901
 30
0.0
 10
70.07634094680482
 20
137.0622478079637
 30
0.0
 10
70.07955797261464
 20
137.0600211571705
 30
0.0
 10
70.0829831032293
 20
137.0581250745017
 30
0.0
 10
70.08654244407796
 20
137.0566328887447
 30
0.0
  0
LINE
  5
12C
330
1F
100
AcDbEntity
  8
0
  6
Continuous
 62
     7
370
     0
100
AcDbLine
 10
70.1264460176
 20
137.0566328244
 30
0.0
 11
70.6333183289
 21
137.0566328244
 31
0.0
  0
LINE
  5
12D
330
1F
100
AcDbEntity
  8
0
  6
Continuous
 62
     7
370
     0
100
AcDbLine
 10
70.1764124051
 20
137.1416327731
 30
0.0
 11
70.5851484627
 21
137.1416327731
 31
0.0
  0
LINE
  5
12E
330
1F
100
AcDbEntity
  8
0
  6
Continuous
 62
     7
370
     0
100
AcDbLine
 10
82.1191765672
 20
137.0566328244
 30
0.0
 11
82.9414255522
 21
137.0566328244
 31
0.0
  0
LINE
  5
12F
330
1F
100
AcDbEntity
  8
0
  6
Continuous
 62
     7
370
     0
100
AcDbLine
 10
82.1673791461
 20
137.1416327731
 30
0.0
 11
82.9414255522
 21
137.1416327731
 31
0.0
  0
LINE
  5
130
330
1F
100
AcDbEntity
  8
0
  6
Continuous
 62
     7
370
     0
100
AcDbLine
 10
76.1075332366
 20
137.0566328244
 30
0.0
 11
76.6533180676
 21
137.0566328244
 31
0.0
  0
LINE
  5
131
330
1F
100
AcDbEntity
  8
0
  6
Continuous
 62
     7
370
     0
100
AcDbLine
 10
76.1557026371
 20
137.1416327731
 30
0.0
 11
76.6051482014
 21
137.1416327731
 31
0.0
  0
LINE
  5
132
330
1F
100
AcDbEntity
  8
0
  6
Continuous
 62
     7
370
     0
100
AcDbLine
 10
69.8104259163
 20
137.1416327731
 30
0.0
 11
70.0410670206
 21
137.1416327731
 31
0.0
  0
LINE
  5
133
330
1F
100
AcDbEntity
  8
0
  6
Continuous
 62
     7
370
     0
100
AcDbLine
 10
76.7344451115
 20
137.1416327731
 30
0.0
 11
76.9304256491
 21
137.1416327731
 31
0.0
  0
LINE
  5
134
330
1F
100
AcDbEntity
  8
0
  6
Continuous
 62
     7
370
     0
100
AcDbLine
 10
75.8304256551
 20
137.1416327731
 30
0.0
 11
76.0264057271
 21
137.1416327731
 31
0.0
  0
LINE
  5
135
330
1F
100
AcDbEntity
  8
0
  6
Continuous
 62
     7
370
     0
100
AcDbLine
 10
66.8584257901
 20
144.1426329968
 30
0.0
 11
66.8584257901
 21
137.1426327807
 31
0.0
  0
LINE
  5
136
330
1F
100
AcDbEntity
  8
0
  6
Continuous
 62
     7
370
     0
100
AcDbLine
 10
84.4924254879
 20
137.1426327807
 30
0.0
 11
83.8924255759
 21
137.1426327807
 31
0.0
  0
LINE
  5
137
330
1F
100
AcDbEntity
  8
0
  6
Continuous
 62
     7
370
     0
100
AcDbLine
 10
83.8924255759
 20
144.1426329968
 30
0.0
 11
83.8924255759
 21
137.1426327807
 31
0.0
  0
LINE
  5
138
330
1F
100
AcDbEntity
  8
0
  6
Continuous
 62
     7
370
     0
100
AcDbLine
 10
84.4924254879
 20
144.1426329968
 30
0.0
 11
83.8924255759
 21
144.1426329968
 31
0.0
  0
LINE
  5
139
330
1F
100
AcDbEntity
  8
0
  6
Continuous
 62
     7
370
     0
100
AcDbLine
 10
84.4924254879
 20
144.1426329968
 30
0.0
 11
84.4924254879
 21
137.1426327807
 31
0.0
  0
LINE
  5
13A
330
1F
100
AcDbEntity
  8
0
  6
Continuous
 62
     7
370
     0
100
AcDbLine
 10
67.3094252661
 20
144.2286329532
 30
0.0
 11
68.4094252601
 21
144.2286329532
 31
0.0
  0
LINE
  5
13B
330
1F
100
AcDbEntity
  8
0
  6
Continuous
 62
     7
370
     0
100
AcDbLine
 10
72.8204250872
 20
144.2286329532
 30
0.0
 11
73.9204255469
 21
144.2286329532
 31
0.0
  0
LINE
  5
13C
330
1F
100
AcDbEntity
  8
0
  6
Continuous
 62
     7
370
     0
100
AcDbLine
 10
78.8404255245
 20
144.2286329532
 30
0.0
 11
79.9404255185
 21
144.2286329532
 31
0.0
  0
SPLINE
  5
13D
330
1F
100
AcDbEntity
  8
0
  6
Continuous
 62
     7
370
     0
100
AcDbSpline
210
0.0
220
0.0
230
1.0
 70
     8
 71
     3
 72
    17
 73
    13
 74
     0
 42
0.000000001
 43
0.00000001
 40
0.0
 40
0.0
 40
0.0
 40
0.0
 40
0.0718502117857634
 40
0.1807899844169373
 40
0.2892585853068892
 40
0.3967645946337892
 40
0.5033236154641125
 40
0.6093900895486855
 40
0.7155796174290691
 40
0.8223880744349619
 40
0.9300238908195148
 40
1.0
 40
1.0
 40
1.0
 40
1.0
 10
78.98428249880796
 20
144.2684667838269
 30
0.0
 10
78.98420130536765
 20
144.2684695610263
 30
0.0
 10
78.98399700588904
 20
144.2684765490341
 30
0.0
 10
79.04438072895445
 20
144.2662216749088
 30
0.0
 10
79.15053600474428
 20
144.262381236303
 30
0.0
 10
79.2916924963742
 20
144.2574924520002
 30
0.0
 10
79.44864452029965
 20
144.2523336614376
 30
0.0
 10
79.60434526972979
 20
144.247480093807
 30
0.0
 10
79.74257052593606
 20
144.2433783301145
 30
0.0
 10
79.84582009886853
 20
144.2404309157139
 30
0.0
 10
79.90439398669407
 20
144.2388041151564
 30
0.0
 10
79.90379215244195
 20
144.2388211837948
 30
0.0
 10
79.90355503987645
 20
144.238827908551
 30
0.0
  0
LINE
  5
13E
330
1F
100
AcDbEntity
  8
0
  6
Continuous
 62
     7
370
     0
100
AcDbLine
 10
78.8404255245
 20
144.1436330044
 30
0.0
 11
79.9404255185
 21
144.1436330044
 31
0.0
  0
LINE
  5
13F
330
1F
100
AcDbEntity
  8
0
  6
Continuous
 62
     7
370
     0
100
AcDbLine
 10
67.3094252661
 20
144.1436330044
 30
0.0
 11
68.4094252601
 21
144.1436330044
 31
0.0
  0
LINE
  5
140
330
1F
100
AcDbEntity
  8
0
  6
Continuous
 62
     7
370
     0
100
AcDbLine
 10
72.8204250872
 20
144.1436330044
 30
0.0
 11
73.9204255469
 21
144.1436330044
 31
0.0
  0
LWPOLYLINE
  5
141
330
1F
100
AcDbEntity
  8
0
  6
Continuous
 62
     7
370
     0
100
AcDbPolyline
 90
       14
 70
   128
 43
0.0
 10
84.1083417717
 20
147.9722207134
 10
84.1145625409
 20
147.9591654336
 10
84.1321265861
 20
147.9223032204
 10
84.1581919767
 20
147.8675996607
 10
84.1892099079
 20
147.8025020753
 10
84.2539044634
 20
147.6667273512
 10
84.3105121121
 20
147.5479245839
 10
84.3671197608
 20
147.429121351
 10
84.4318143163
 20
147.2933466268
 10
84.4628322475
 20
147.2282495072
 10
84.488897638
 20
147.1735454818
 10
84.5064619161
 20
147.1366837343
 10
84.5126824524
 20
147.1236284544
 10
84.5126824524
 20
147.1236284544
  0
LWPOLYLINE
  5
142
330
1F
100
AcDbEntity
  8
0
  6
Continuous
 62
     7
370
     0
100
AcDbPolyline
 90
       14
 70
   128
 43
0.0
 10
144.1083411291
 20
147.9722202478
 10
144.1119248584
 20
147.9647049402
 10
144.1275859788
 20
147.9318390322
 10
144.1547358945
 20
147.8748504726
 10
144.1916758731
 20
147.7973192652
 10
144.236088784
 20
147.7041180899
 10
144.285173209
 20
147.6011031029
 10
144.3358520582
 20
147.4947460649
 10
144.3849364832
 20
147.3917306123
 10
144.4293419436
 20
147.298529437
 10
144.4662893727
 20
147.2209986953
 10
144.4934392884
 20
147.1640101356
 10
144.5091004089
 20
147.1311437619
 10
144.5126841381
 20
147.1236284544
  0
LINE
  5
143
330
1F
100
AcDbEntity
  8
0
  6
Continuous
 62
     7
370
     0
100
AcDbLine
 10
78.920425668
 20
144.1427328811
 30
0.0
 11
79.8603536632
 21
144.1427328811
 31
0.0
  0
SPLINE
  5
144
330
1F
100
AcDbEntity
  8
0
  6
Continuous
 62
     7
370
     0
100
AcDbSpline
210
0.0
220
0.0
230
1.0
 70
     8
 71
     3
 72
    17
 73
    13
 74
     0
 42
0.000000001
 43
0.00000001
 40
0.0
 40
0.0
 40
0.0
 40
0.0
 40
0.0000327613862941
 40
0.0000327613862941
 40
0.0000327613862941
 40
0.0000676569624332
 40
0.0000676569624332
 40
0.0000676569624332
 40
0.0000935083918259
 40
0.0000935083918259
 40
0.0000935083918259
 40
0.000106452592316
 40
0.000106452592316
 40
0.000106452592316
 40
0.000106452592316
 10
76.60514829514203
 20
144.1436328887694
 30
0.0
 10
76.60524311907587
 20
144.1545528566704
 30
0.0
 10
76.60692279755656
 20
144.1655984950964
 30
0.0
 10
76.61012170148634
 20
144.1759358870314
 30
0.0
 10
76.61351553802514
 20
144.1869032118513
 30
0.0
 10
76.61875027906395
 20
144.1974195280735
 30
0.0
 10
76.62547354682147
 20
144.2062419981157
 30
0.0
 10
76.6304832148038
 20
144.2128158320443
 30
0.0
 10
76.6364517378214
 20
144.2186164545488
 30
0.0
 10
76.64297752716581
 20
144.2230179695751
 30
0.0
 10
76.64627881180375
 20
144.2252446203561
 30
0.0
 10
76.6497543062959
 20
144.2271407030163
 30
0.0
 10
76.65331788250454
 20
144.2286328887694
 30
0.0
  0
SPLINE
  5
145
330
1F
100
AcDbEntity
  8
0
  6
Continuous
 62
     7
370
     0
100
AcDbSpline
210
0.0
220
0.0
230
1.0
 70
     8
 71
     3
 72
    23
 73
    19
 74
     0
 42
0.000000001
 43
0.00000001
 40
0.0
 40
0.0
 40
0.0
 40
0.0
 40
0.0000136991387911
 40
0.0000136991387911
 40
0.0000136991387911
 40
0.0000216340655816
 40
0.0000216340655816
 40
0.0000216340655816
 40
0.0000296647623619
 40
0.0000296647623619
 40
0.0000296647623619
 40
0.0000367560773728
 40
0.0000367560773728
 40
0.0000367560773728
 40
0.000048450232674
 40
0.000048450232674
 40
0.000048450232674
 40
0.0000524173646982
 40
0.0000524173646982
 40
0.0000524173646982
 40
0.0000524173646982
 10
76.69143839104613
 20
144.2286328887823
 30
0.0
 10
76.68714354418091
 20
144.2297484966764
 30
0.0
 10
76.68262348430352
 20
144.2307710945907
 30
0.0
 10
76.67812601249454
 20
144.2315135316071
 30
0.0
 10
76.6755088438735
 20
144.2319455705269
 30
0.0
 10
76.6728548639312
 20
144.23228529316
 30
0.0
 10
76.67036937708544
 20
144.232469806558
 30
0.0
 10
76.66786550351785
 20
144.2326556849185
 30
0.0
 10
76.6654762878764
 20
144.2326820259426
 30
0.0
 10
76.66345665142288
 20
144.2325416280915
 30
0.0
 10
76.66166172179153
 20
144.2324168510492
 30
0.0
 10
76.6601081672438
 20
144.2321626470142
 30
0.0
 10
76.65882581252761
 20
144.231822321435
 30
0.0
 10
76.6567210695963
 20
144.2312637413104
 30
0.0
 10
76.65526545788076
 20
144.2304678271826
 30
0.0
 10
76.6542373188246
 20
144.2295800747054
 30
0.0
 10
76.65388537896769
 20
144.2292761902474
 30
0.0
 10
76.6535814081688
 20
144.2289594446203
 30
0.0
 10
76.65331788250379
 20
144.2286328887696
 30
0.0
  0
SPLINE
  5
146
330
1F
100
AcDbEntity
  8
0
  6
Continuous
 62
     7
370
     0
100
AcDbSpline
210
0.0
220
0.0
230
1.0
 70
     8
 71
     3
 72
    17
 73
    13
 74
     0
 42
0.000000001
 43
0.00000001
 40
0.0000000000000373
 40
0.0000000000000373
 40
0.0000000000000373
 40
0.0000000000000373
 40
0.0000249091250888
 40
0.0000249091250888
 40
0.0000249091250888
 40
0.0000496470944493
 40
0.0000496470944493
 40
0.0000496470944493
 40
0.0000776809553885
 40
0.0000776809553885
 40
0.0000776809553885
 40
0.0001063965838103
 40
0.0001063965838103
 40
0.0001063965838103
 40
0.0001063965838103
 10
76.69143839107846
 20
144.2286328887756
 30
0.0
 10
76.69787430741195
 20
144.225795943808
 30
0.0
 10
76.70385228356277
 20
144.2214565944363
 30
0.0
 10
76.7089760053338
 20
144.2161535580204
 30
0.0
 10
76.71407846927133
 20
144.2108725233975
 30
0.0
 10
76.71847875392085
 20
144.2045179831908
 30
0.0
 10
76.72204157261339
 20
144.1976112505662
 30
0.0
 10
76.72607599739368
 20
144.1897902819298
 30
0.0
 10
76.72913810346404
 20
144.1810842213069
 30
0.0
 10
76.73118791051053
 20
144.1721072863748
 30
0.0
 10
76.73328875737063
 20
144.1629068274352
 30
0.0
 10
76.73437531125964
 20
144.1532286909164
 30
0.0
 10
76.7344451784214
 20
144.1436328887695
 30
0.0
  0
SPLINE
  5
147
330
1F
100
AcDbEntity
  8
0
  6
Continuous
 62
     7
370
     0
100
AcDbSpline
210
0.0
220
0.0
230
1.0
 70
     8
 71
     3
 72
    17
 73
    13
 74
     0
 42
0.000000001
 43
0.00000001
 40
0.0
 40
0.0
 40
0.0
 40
0.0
 40
0.0000327613862941
 40
0.0000327613862941
 40
0.0000327613862941
 40
0.0000676569624332
 40
0.0000676569624332
 40
0.0000676569624332
 40
0.0000935083918259
 40
0.0000935083918259
 40
0.0000935083918259
 40
0.0001064525923902
 40
0.0001064525923902
 40
0.0001064525923902
 40
0.0001064525923902
 10
70.58514829514203
 20
144.1436328887694
 30
0.0
 10
70.58524311907587
 20
144.1545528566704
 30
0.0
 10
70.58692279755657
 20
144.1655984950964
 30
0.0
 10
70.59012170148632
 20
144.1759358870314
 30
0.0
 10
70.59351553802514
 20
144.1869032118513
 30
0.0
 10
70.59875027906395
 20
144.1974195280735
 30
0.0
 10
70.60547354682147
 20
144.2062419981157
 30
0.0
 10
70.6104832148038
 20
144.2128158320443
 30
0.0
 10
70.61645173782141
 20
144.2186164545488
 30
0.0
 10
70.62297752716582
 20
144.2230179695751
 30
0.0
 10
70.62627881182252
 20
144.2252446203687
 30
0.0
 10
70.62975430633553
 20
144.2271407030379
 30
0.0
 10
70.63331788256559
 20
144.228632888795
 30
0.0
  0
SPLINE
  5
148
330
1F
100
AcDbEntity
  8
0
  6
Continuous
 62
     7
370
     0
100
AcDbSpline
210
0.0
220
0.0
230
1.0
 70
     8
 71
     3
 72
    23
 73
    19
 74
     0
 42
0.000000001
 43
0.00000001
 40
0.0
 40
0.0
 40
0.0
 40
0.0
 40
0.0000136991388042
 40
0.0000136991388042
 40
0.0000136991388042
 40
0.0000216340656101
 40
0.0000216340656101
 40
0.0000216340656101
 40
0.0000296647624066
 40
0.0000296647624066
 40
0.0000296647624066
 40
0.0000367560774241
 40
0.0000367560774241
 40
0.0000367560774241
 40
0.0000484502327164
 40
0.0000484502327164
 40
0.0000484502327164
 40
0.0000524173647333
 40
0.0000524173647333
 40
0.0000524173647333
 40
0.0000524173647333
 10
70.67143839110824
 20
144.2286328887694
 30
0.0
 10
70.66714354424117
 20
144.2297484966663
 30
0.0
 10
70.66262348435323
 20
144.2307710945806
 30
0.0
 10
70.65812601253987
 20
144.2315135315996
 30
0.0
 10
70.6555088439157
 20
144.231945570521
 30
0.0
 10
70.65285486396972
 20
144.2322852931559
 30
0.0
 10
70.65036937711965
 20
144.2324698065555
 30
0.0
 10
70.64786550354762
 20
144.2326556849176
 30
0.0
 10
70.64547628790096
 20
144.2326820259431
 30
0.0
 10
70.64345665144289
 20
144.2325416280929
 30
0.0
 10
70.64166172180937
 20
144.2324168510515
 30
0.0
 10
70.64010816725933
 20
144.2321626470172
 30
0.0
 10
70.63882581254116
 20
144.2318223214386
 30
0.0
 10
70.63672106961016
 20
144.2312637413159
 30
0.0
 10
70.63526545789348
 20
144.2304678271902
 30
0.0
 10
70.63423731883584
 20
144.2295800747151
 30
0.0
 10
70.63388537897644
 20
144.2292761902561
 30
0.0
 10
70.63358140817556
 20
144.2289594446279
 30
0.0
 10
70.63331788250893
 20
144.2286328887759
 30
0.0
  0
SPLINE
  5
149
330
1F
100
AcDbEntity
  8
0
  6
Continuous
 62
     7
370
     0
100
AcDbSpline
210
0.0
220
0.0
230
1.0
 70
     8
 71
     3
 72
    17
 73
    13
 74
     0
 42
0.000000001
 43
0.00000001
 40
0.0000000000000026
 40
0.0000000000000026
 40
0.0000000000000026
 40
0.0000000000000026
 40
0.0000249091250946
 40
0.0000249091250946
 40
0.0000249091250946
 40
0.0000496470944607
 40
0.0000496470944607
 40
0.0000496470944607
 40
0.0000776809554077
 40
0.0000776809554077
 40
0.0000776809554077
 40
0.0001063965837808
 40
0.0001063965837808
 40
0.0001063965837808
 40
0.0001063965837808
 10
70.67143839110597
 20
144.2286328887699
 30
0.0
 10
70.67787430743957
 20
144.2257959437979
 30
0.0
 10
70.68385228358737
 20
144.2214565944163
 30
0.0
 10
70.68897600535732
 20
144.2161535579961
 30
0.0
 10
70.69407846929356
 20
144.210872523369
 30
0.0
 10
70.6984787539413
 20
144.2045179831585
 30
0.0
 10
70.70204157263184
 20
144.1976112505304
 30
0.0
 10
70.70607599741003
 20
144.1897902818897
 30
0.0
 10
70.70913810347781
 20
144.1810842212629
 30
0.0
 10
70.71118791052136
 20
144.1721072863274
 30
0.0
 10
70.71328875737437
 20
144.1629068274021
 30
0.0
 10
70.71437531125976
 20
144.1532286909001
 30
0.0
 10
70.7144451784214
 20
144.1436328887695
 30
0.0
  0
SPLINE
  5
14A
330
1F
100
AcDbEntity
  8
0
  6
Continuous
 62
     7
370
     0
100
AcDbSpline
210
0.0
220
0.0
230
1.0
 70
     8
 71
     3
 72
    10
 73
     6
 74
     0
 42
0.000000001
 43
0.00000001
 40
0.0
 40
0.0
 40
0.0
 40
0.0
 40
0.5215633806982243
 40
0.8250658590011839
 40
0.9999999999999999
 40
0.9999999999999999
 40
0.9999999999999999
 40
0.9999999999999999
 10
76.10753323659425
 20
144.2286329531573
 30
0.0
 10
76.10634823977588
 20
144.2296776271478
 30
0.0
 10
76.10447368252352
 20
144.2313302064415
 30
0.0
 10
76.0994013697626
 20
144.2325644820774
 30
0.0
 10
76.095764785681
 20
144.2325253049619
 30
0.0
 10
76.09443511590486
 20
144.232510980358
 30
0.0
  0
SPLINE
  5
14B
330
1F
100
AcDbEntity
  8
0
  6
Continuous
 62
     7
370
     0
100
AcDbSpline
210
0.0
220
0.0
230
1.0
 70
     8
 71
     3
 72
    17
 73
    13
 74
     0
 42
0.000000001
 43
0.00000001
 40
0.0
 40
0.0
 40
0.0
 40
0.0
 40
0.0000249091250945
 40
0.0000249091250945
 40
0.0000249091250945
 40
0.0000496470944607
 40
0.0000496470944607
 40
0.0000496470944607
 40
0.0000776809554077
 40
0.0000776809554077
 40
0.0000776809554077
 40
0.0001063965837809
 40
0.0001063965837809
 40
0.0001063965837809
 40
0.0001063965837809
 10
76.10753318658826
 20
144.2286328887699
 30
0.0
 10
76.11430826106344
 20
144.2257959437979
 30
0.0
 10
76.12078911448694
 20
144.2214565944163
 30
0.0
 10
76.12645610976567
 20
144.2161535579961
 30
0.0
 10
76.13209959322064
 20
144.2108725233691
 30
0.0
 10
76.13709064084546
 20
144.2045179831585
 30
0.0
 10
76.1411840874327
 20
144.1976112505305
 30
0.0
 10
76.14581937869345
 20
144.1897902818898
 30
0.0
 10
76.1494168023572
 20
144.1810842212629
 30
0.0
 10
76.15183731298515
 20
144.1721072863274
 30
0.0
 10
76.15431809387204
 20
144.1629068274021
 30
0.0
 10
76.15561944846034
 20
144.1532286909002
 30
0.0
 10
76.15570277395311
 20
144.1436328887695
 30
0.0
  0
ARC
  5
14C
330
1F
100
AcDbEntity
  8
0
  6
Continuous
 62
     7
370
     0
100
AcDbCircle
 10
67.9234264664
 20
144.1431330006
 30
0.0
 40
0.0257272727467683
100
AcDbArc
 50
358.8863991946
 51
1.1136008054
  0
ARC
  5
14D
330
1F
100
AcDbEntity
  8
0
  6
Continuous
 62
     7
370
     0
100
AcDbCircle
 10
67.9488676148
 20
144.142131856
 30
0.0
 40
0.1791666693582169
100
AcDbArc
 50
179.5199415351
 51
179.8397397704
  0
LINE
  5
14E
330
1F
100
AcDbEntity
  8
0
  6
Continuous
 62
     7
370
     0
100
AcDbLine
 10
70.1264460176
 20
144.2286329532
 30
0.0
 11
70.6333183289
 21
144.2286329532
 31
0.0
  0
LINE
  5
14F
330
1F
100
AcDbEntity
  8
0
  6
Continuous
 62
     7
370
     0
100
AcDbLine
 10
69.9385814905
 20
144.2286329532
 30
0.0
 11
70.0865425706
 21
144.2286329532
 31
0.0
  0
LINE
  5
150
330
1F
100
AcDbEntity
  8
0
  6
Continuous
 62
     7
370
     0
100
AcDbLine
 10
70.1764124051
 20
144.1436330044
 30
0.0
 11
70.5851484627
 21
144.1436330044
 31
0.0
  0
LINE
  5
151
330
1F
100
AcDbEntity
  8
0
  6
Continuous
 62
     7
370
     0
100
AcDbLine
 10
76.1075332366
 20
144.2286329532
 30
0.0
 11
76.6533180676
 21
144.2286329532
 31
0.0
  0
LINE
  5
152
330
1F
100
AcDbEntity
  8
0
  6
Continuous
 62
     7
370
     0
100
AcDbLine
 10
76.1557026371
 20
144.1436330044
 30
0.0
 11
76.6051482014
 21
144.1436330044
 31
0.0
  0
LINE
  5
153
330
1F
100
AcDbEntity
  8
0
  6
Continuous
 62
     7
370
     0
100
AcDbLine
 10
82.1191765672
 20
144.2286329532
 30
0.0
 11
82.9414255522
 21
144.2286329532
 31
0.0
  0
LINE
  5
154
330
1F
100
AcDbEntity
  8
0
  6
Continuous
 62
     7
370
     0
100
AcDbLine
 10
82.1673791461
 20
144.1436330044
 30
0.0
 11
82.9414255522
 21
144.1436330044
 31
0.0
  0
LINE
  5
155
330
1F
100
AcDbEntity
  8
0
  6
Continuous
 62
     7
370
     0
100
AcDbLine
 10
81.8414255582
 20
144.1436330044
 30
0.0
 11
82.0379731549
 21
144.1436330044
 31
0.0
  0
LINE
  5
156
330
1F
100
AcDbEntity
  8
0
  6
Continuous
 62
     7
370
     0
100
AcDbLine
 10
69.8104259163
 20
144.1436330044
 30
0.0
 11
70.0410670206
 21
144.1436330044
 31
0.0
  0
MTEXT
  5
157
330
1F
100
AcDbEntity
  8
0
  6
Continuous
 62
     7
370
     0
100
AcDbMText
 10
143.0520229189
 20
158.2884260219
 30
0.0
 40
2.1166666667
 41
0.0
 71
     1
 72
     1
  1
NEGATIVE WIRE(~75mm LONG)
  7
SLDTEXTSTYLE0
 73
     1
 44
1.0
  0
LEADER
  5
159
330
1F
100
AcDbEntity
  8
0
  6
Continuous
 62
     7
370
     0
100
AcDbLeader
  3
SLDDIMSTYLE0
 76
     3
 10
122.9582493392
 20
147.972220577
 30
0.0
 10
136.1522573363
 20
157.3363431151
 30
0.0
 10
142.5022573363
 20
157.3363431151
 30
0.0
  0
MTEXT
  5
15A
330
1F
100
AcDbEntity
  8
0
  6
Continuous
 62
     7
370
     0
100
AcDbMText
 10
80.3818620931
 20
155.5616967165
 30
0.0
 40
2.1166666667
 41
0.0
 71
     1
 72
     1
  1
SCREEN-PRINTED ELECTRODE
  7
SLDTEXTSTYLE0
 73
     1
 44
1.0
  0
LEADER
  5
15B
330
1F
100
AcDbEntity
  8
0
  6
Continuous
 62
     7
370
     0
100
AcDbLeader
  3
SLDDIMSTYLE0
 76
     3
 10
67.9733955609
 20
144.1426328888
 30
0.0
 10
73.5111738149
 20
154.6275395034
 30
0.0
 10
79.8611738149
 20
154.6275395034
 30
0.0
  0
MTEXT
  5
15C
330
1F
100
AcDbEntity
  8
0
  6
Continuous
 62
     7
370
     0
100
AcDbMText
 10
80.3818620931
 20
125.0442356106
 30
0.0
 40
2.1166666667
 41
0.0
 71
     1
 72
     1
  1
SCREEN-PRINTED ELECTRODE
  7
SLDTEXTSTYLE0
 73
     1
 44
1.0
  0
LEADER
  5
15D
330
1F
100
AcDbEntity
  8
0
  6
Continuous
 62
     7
370
     0
100
AcDbLeader
  3
SLDDIMSTYLE0
 76
     3
 10
67.8888265854
 20
137.1426328888
 30
0.0
 10
73.5111738149
 20
124.0406320542
 30
0.0
 10
79.8611738149
 20
124.0406320542
 30
0.0
  0
MTEXT
  5
15E
330
1F
100
AcDbEntity
  8
0
  6
Continuous
 62
     7
370
     0
100
AcDbMText
 10
143.0520229189
 20
122.5587051366
 30
0.0
 40
2.1166666667
 41
0.0
 71
     1
 72
     1
  1
POSITIVE WIRE(~75mm LONG)
  7
SLDTEXTSTYLE0
 73
     1
 44
1.0
  0
LEADER
  5
15F
330
1F
100
AcDbEntity
  8
0
  6
Continuous
 62
     7
370
     0
100
AcDbLeader
  3
SLDDIMSTYLE0
 76
     3
 10
122.7023420665
 20
133.3130452005
 30
0.0
 10
136.1522573363
 20
121.5575620767
 30
0.0
 10
142.5022573363
 20
121.5575620767
 30
0.0
  0
SPLINE
  5
160
330
1F
100
AcDbEntity
  8
0
  6
Continuous
 62
     7
370
     0
100
AcDbSpline
210
0.0
220
0.0
230
1.0
 70
    24
 71
     3
 72
    22
 73
    18
 74
     0
 42
0.000000001
 43
0.00000001
 40
0.0
 40
0.0
 40
0.0
 40
0.0
 40
0.0838648377039335
 40
0.1645540964641155
 40
0.2348106736726062
 40
0.2956853479087503
 40
0.34799542095396
 40
0.3923524930819668
 40
0.4291946800366866
 40
0.461288439428239
 40
0.5142087449977567
 40
0.58060889646946
 40
0.6607693493308125
 40
0.7305218395503408
 40
0.8094049520609887
 40
0.8986618040301676
 40
1.0
 40
1.0
 40
1.0
 40
1.0
 10
203.9332112987845
 20
137.0327399765604
 30
0.0
 10
203.9332112987845
 20
136.8777505876984
 30
0.0
 10
203.9332112987845
 20
136.5736405513118
 30
0.0
 10
203.9332112987845
 20
136.1598043995458
 30
0.0
 10
203.9332112987845
 20
135.801719650873
 30
0.0
 10
203.9332112987845
 20
135.5066934815938
 30
0.0
 10
203.9332112987845
 20
135.2661446644529
 30
0.0
 10
203.9332112987845
 20
135.0728443653369
 30
0.0
 10
203.9332112987845
 20
134.9170791247473
 30
0.0
 10
203.9332112987845
 20
134.757652986784
 30
0.0
 10
203.9332112987845
 20
134.572662692255
 30
0.0
 10
203.9332112987845
 20
134.3552134480891
 30
0.0
 10
203.9332112987845
 20
134.1570804845596
 30
0.0
 10
203.9332112987845
 20
133.9899091255928
 30
0.0
 10
203.9332112987845
 20
133.860643828412
 30
0.0
 10
203.9332112987845
 20
133.7647499278596
 30
0.0
 10
203.9332112987845
 20
133.7468555320516
 30
0.0
 10
203.9332112987845
 20
133.7373411936217
 30
0.0
  0
SPLINE
  5
161
330
1F
100
AcDbEntity
  8
0
  6
Continuous
 62
     7
370
     0
100
AcDbSpline
210
0.0
220
0.0
230
1.0
 70
    24
 71
     3
 72
    22
 73
    18
 74
     0
 42
0.000000001
 43
0.00000001
 40
0.0
 40
0.0
 40
0.0
 40
0.0
 40
0.1007559670447894
 40
0.1895000022968618
 40
0.2679298994195549
 40
0.3372816333693377
 40
0.4169815320057628
 40
0.4830001877497784
 40
0.5356164447586343
 40
0.5675258125212229
 40
0.604156326209988
 40
0.6482585490171047
 40
0.7002680795343311
 40
0.7607930041444466
 40
0.8306459288995477
 40
0.9108715952310226
 40
1.0
 40
1.0
 40
1.0
 40
1.0
 10
204.8732112386583
 20
133.7373411936217
 30
0.0
 10
204.8732112386583
 20
133.7468555320497
 30
0.0
 10
204.8732112386583
 20
133.7647499278543
 30
0.0
 10
204.8732112386583
 20
133.8606438284291
 30
0.0
 10
204.8732112386583
 20
133.9899091255392
 30
0.0
 10
204.8732112386583
 20
134.157080484746
 30
0.0
 10
204.8732112386583
 20
134.3552134473332
 30
0.0
 10
204.8732112386583
 20
134.5726626943423
 30
0.0
 10
204.8732112386583
 20
134.757652981689
 30
0.0
 10
204.8732112386583
 20
134.9170791363732
 30
0.0
 10
204.8732112386583
 20
135.0728443092965
 30
0.0
 10
204.8732112386583
 20
135.2661449404072
 30
0.0
 10
204.8732112386583
 20
135.5066921664514
 30
0.0
 10
204.8732112386583
 20
135.8017258057359
 30
0.0
 10
204.8732112386583
 20
136.1597759098711
 30
0.0
 10
204.8732112386583
 20
136.5839541236754
 30
0.0
 10
204.8732112386583
 20
136.8988178943139
 30
0.0
 10
204.8732112386583
 20
137.0645257832014
 30
0.0
  0
ARC
  5
162
330
1F
100
AcDbEntity
  8
0
  6
Continuous
 62
     7
370
     0
100
AcDbCircle
 10
209.2032112663
 20
138.6921884443
 30
0.0
 40
1.72555555555555
100
AcDbArc
 50
251.4133828012
 51
270.0
  0
ARC
  5
163
330
1F
100
AcDbEntity
  8
0
  6
Continuous
 62
     7
370
     0
100
AcDbCircle
 10
209.2032112663
 20
138.6921884443
 30
0.0
 40
1.725555555555568
100
AcDbArc
 50
270.0
 51
288.5866171988
  0
LINE
  5
164
330
1F
100
AcDbEntity
  8
0
  6
Continuous
 62
     7
370
     0
100
AcDbLine
 10
208.6532112669
 20
137.1416327731
 30
0.0
 11
208.6532112669
 21
137.0566328244
 31
0.0
  0
LINE
  5
165
330
1F
100
AcDbEntity
  8
0
  6
Continuous
 62
     7
370
     0
100
AcDbLine
 10
209.7532113773
 20
137.0566328244
 30
0.0
 11
209.7532113773
 21
137.1416327731
 31
0.0
  0
LINE
  5
166
330
1F
100
AcDbEntity
  8
0
  6
Continuous
 62
     7
370
     0
100
AcDbLine
 10
204.859659331
 20
137.0526327939
 30
0.0
 11
208.6757091099
 21
137.0526327939
 31
0.0
  0
ARC
  5
167
330
1F
100
AcDbEntity
  8
0
  6
Continuous
 62
     7
370
     0
100
AcDbCircle
 10
204.4032112663
 20
138.6921884443
 30
0.0
 40
1.725555555555559
100
AcDbArc
 50
251.4133828012
 51
254.501264682
  0
ARC
  5
168
330
1F
100
AcDbEntity
  8
0
  6
Continuous
 62
     7
370
     0
100
AcDbCircle
 10
204.4032112663
 20
138.6921884443
 30
0.0
 40
1.725555555555559
100
AcDbArc
 50
285.713474961
 51
288.5866171988
  0
LINE
  5
169
330
1F
100
AcDbEntity
  8
0
  6
Continuous
 62
     7
370
     0
100
AcDbLine
 10
203.8532111553
 20
137.1416327731
 30
0.0
 11
203.8532111553
 21
137.0566328244
 31
0.0
  0
SPLINE
  5
16A
330
1F
100
AcDbEntity
  8
0
  6
Continuous
 62
     7
370
     0
100
AcDbSpline
210
0.0
220
0.0
230
1.0
 70
    24
 71
     3
 72
    22
 73
    18
 74
     0
 42
0.000000001
 43
0.00000001
 40
0.0
 40
0.0
 40
0.0
 40
0.0
 40
0.0838682129537688
 40
0.1645571744364109
 40
0.2348134928037279
 40
0.2956879427637578
 40
0.3479978230867877
 40
0.392354731793275
 40
0.4291967830130174
 40
0.4612904241638772
 40
0.5142105347629801
 40
0.5806104416014573
 40
0.6607705991335107
 40
0.7305228323690361
 40
0.8094056542563968
 40
0.8986621773830781
 40
0.9999999999999999
 40
0.9999999999999999
 40
0.9999999999999999
 40
0.9999999999999999
 10
204.8732112386583
 20
144.2525055447124
 30
0.0
 10
204.8732112386583
 20
144.4075017626573
 30
0.0
 10
204.8732112386583
 20
144.7116186476491
 30
0.0
 10
204.8732112386583
 20
145.1254613973861
 30
0.0
 10
204.8732112386583
 20
145.4835461224761
 30
0.0
 10
204.8732112386583
 20
145.7785722968403
 30
0.0
 10
204.8732112386583
 20
146.0191211128981
 30
0.0
 10
204.8732112386583
 20
146.2124214122401
 30
0.0
 10
204.8732112386583
 20
146.3681866527836
 30
0.0
 10
204.8732112386583
 20
146.5276127907583
 30
0.0
 10
204.8732112386583
 20
146.7126030852824
 30
0.0
 10
204.8732112386583
 20
146.9300523294502
 30
0.0
 10
204.8732112386583
 20
147.1281852929791
 30
0.0
 10
204.8732112386583
 20
147.295356651946
 30
0.0
 10
204.8732112386583
 20
147.4246219491269
 30
0.0
 10
204.8732112386583
 20
147.5205158496792
 30
0.0
 10
204.8732112386583
 20
147.5384102454873
 30
0.0
 10
204.8732112386583
 20
147.5479245839172
 30
0.0
  0
SPLINE
  5
16B
330
1F
100
AcDbEntity
  8
0
  6
Continuous
 62
     7
370
     0
100
AcDbSpline
210
0.0
220
0.0
230
1.0
 70
    24
 71
     3
 72
    22
 73
    18
 74
     0
 42
0.000000001
 43
0.00000001
 40
0.0
 40
0.0
 40
0.0
 40
0.0
 40
0.1013381959698325
 40
0.1905950479390114
 40
0.2694781604496594
 40
0.3392306506691876
 40
0.41939110353054
 40
0.4857912550022433
 40
0.5387115605717611
 40
0.5708053199633135
 40
0.6076475069180333
 40
0.65200457904604
 40
0.7043146520912498
 40
0.7651893263273938
 40
0.8354459035358845
 40
0.9161351622960666
 40
1.0
 40
1.0
 40
1.0
 40
1.0
 10
203.9332112987845
 20
147.5479245839172
 30
0.0
 10
203.9332112987845
 20
147.5384102454873
 30
0.0
 10
203.9332112987845
 20
147.5205158496792
 30
0.0
 10
203.9332112987845
 20
147.4246219491269
 30
0.0
 10
203.9332112987845
 20
147.295356651946
 30
0.0
 10
203.9332112987845
 20
147.1281852929792
 30
0.0
 10
203.9332112987845
 20
146.9300523294497
 30
0.0
 10
203.9332112987845
 20
146.7126030852839
 30
0.0
 10
203.9332112987845
 20
146.5276127907548
 30
0.0
 10
203.9332112987845
 20
146.3681866527916
 30
0.0
 10
203.9332112987845
 20
146.212421412202
 30
0.0
 10
203.9332112987845
 20
146.0191211130859
 30
0.0
 10
203.9332112987845
 20
145.778572295945
 30
0.0
 10
203.9332112987845
 20
145.4835461266658
 30
0.0
 10
203.9332112987845
 20
145.125461377993
 30
0.0
 10
203.9332112987845
 20
144.7116252262271
 30
0.0
 10
203.9332112987845
 20
144.4075151898404
 30
0.0
 10
203.9332112987845
 20
144.2525258009784
 30
0.0
  0
LINE
  5
16C
330
1F
100
AcDbEntity
  8
0
  6
Continuous
 62
     7
370
     0
100
AcDbLine
 10
209.7532113773
 20
144.1436330044
 30
0.0
 11
209.7532113773
 21
144.2286329532
 31
0.0
  0
LINE
  5
16D
330
1F
100
AcDbEntity
  8
0
  6
Continuous
 62
     7
370
     0
100
AcDbLine
 10
208.6532112669
 20
144.2286329532
 30
0.0
 11
208.6532112669
 21
144.1436330044
 31
0.0
  0
ARC
  5
16E
330
1F
100
AcDbEntity
  8
0
  6
Continuous
 62
     7
370
     0
100
AcDbCircle
 10
209.2032112663
 20
142.5930773332
 30
0.0
 40
1.725555555555568
100
AcDbArc
 50
71.4133828012
 51
108.5866171988
  0
LINE
  5
16F
330
1F
100
AcDbEntity
  8
0
  6
Continuous
 62
     7
370
     0
100
AcDbLine
 10
208.6980348911
 20
144.2326329836
 30
0.0
 11
204.859659331
 21
144.2326329836
 31
0.0
  0
LINE
  5
170
330
1F
100
AcDbEntity
  8
0
  6
Continuous
 62
     7
370
     0
100
AcDbLine
 10
203.8532111553
 20
144.2286329532
 30
0.0
 11
203.8532111553
 21
144.1436330044
 31
0.0
  0
ARC
  5
171
330
1F
100
AcDbEntity
  8
0
  6
Continuous
 62
     7
370
     0
100
AcDbCircle
 10
204.4032112663
 20
142.5930773332
 30
0.0
 40
1.725555555555559
100
AcDbArc
 50
105.4970642999
 51
108.5866171988
  0
ARC
  5
172
330
1F
100
AcDbEntity
  8
0
  6
Continuous
 62
     7
370
     0
100
AcDbCircle
 10
204.4032112663
 20
142.5930773332
 30
0.0
 40
1.725555555555559
100
AcDbArc
 50
71.4133828012
 51
74.3006953185
  0
LINE
  5
173
330
1F
100
AcDbEntity
  8
0
  6
Continuous
 62
     7
370
     0
100
AcDbLine
 10
204.9532112657
 20
144.1436330044
 30
0.0
 11
204.9532112657
 21
144.2286329532
 31
0.0
  0
LWPOLYLINE
  5
174
330
1F
100
AcDbEntity
  8
0
  6
Continuous
 62
     7
370
     0
100
AcDbPolyline
 90
       26
 70
   128
 43
0.0
 10
204.8732112387
 20
133.7373411936
 10
204.8584453521
 20
133.6318232772
 10
204.8150752896
 20
133.5329349806
 10
204.7458265667
 20
133.4468905536
 10
204.6550498569
 20
133.3790963238
 10
204.548449278
 20
133.3338116949
 10
204.4327229021
 20
133.3138823231
 10
204.31514203
 20
133.3205608373
 10
204.2030950767
 20
133.3534267453
 10
204.1036219095
 20
133.410415305
 10
204.0229733327
 20
133.4879465123
 10
203.9662162067
 20
133.5811476876
 10
203.9369172641
 20
133.6841626746
 10
203.9369172641
 20
133.7905197126
 10
203.9662162067
 20
133.8935351653
 10
204.0229733327
 20
133.9867363406
 10
204.1036219095
 20
134.0642670823
 10
204.2030950767
 20
134.1212556419
 10
204.31514203
 20
134.1541220156
 10
204.4327229021
 20
134.1608000641
 10
204.548449278
 20
134.1408706923
 10
204.6550498569
 20
134.0955865291
 10
204.7458265667
 20
134.0277918336
 10
204.8150752896
 20
133.9417474066
 10
204.8584453521
 20
133.8428595757
 10
204.8732112387
 20
133.7373411936
  0
LWPOLYLINE
  5
175
330
1F
100
AcDbEntity
  8
0
  6
Continuous
 62
     7
370
     0
100
AcDbPolyline
 90
       13
 70
   128
 43
0.0
 10
203.9337603134
 20
137.0327856114
 10
203.933239937
 20
137.0328924806
 10
203.960969601
 20
137.0376582911
 10
204.0375971926
 20
137.0416855627
 10
204.15506747
 20
137.0446425119
 10
204.3009838314
 20
137.0462977049
 10
204.4592737445
 20
137.0465147031
 10
204.6117189099
 20
137.0452588146
 10
204.7403415424
 20
137.0426112974
 10
204.8301112597
 20
137.0387837944
 10
204.8711289178
 20
137.0341225249
 10
204.8701313549
 20
137.0310058539
 10
204.8701313549
 20
137.0310058539
  0
LINE
  5
176
330
1F
100
AcDbEntity
  8
0
  6
Continuous
 62
     7
370
     0
100
AcDbLine
 10
208.6532112669
 20
137.0566328244
 30
0.0
 11
209.7532113773
 21
137.0566328244
 31
0.0
  0
LINE
  5
177
330
1F
100
AcDbEntity
  8
0
  6
Continuous
 62
     7
370
     0
100
AcDbLine
 10
208.6532112669
 20
137.1416327731
 30
0.0
 11
209.7532113773
 21
137.1416327731
 31
0.0
  0
SPLINE
  5
178
330
1F
100
AcDbEntity
  8
0
  6
Continuous
 62
     7
370
     0
100
AcDbSpline
210
0.0
220
0.0
230
1.0
 70
     8
 71
     3
 72
    11
 73
     7
 74
     0
 42
0.000000001
 43
0.00000001
 40
0.0
 40
0.0
 40
0.0
 40
0.0
 40
0.1306580440407275
 40
0.4020597934487654
 40
0.8475201172068121
 40
1.0
 40
1.0
 40
1.0
 40
1.0
 10
204.8596587489678
 20
137.0527547971808
 30
0.0
 10
204.8589766557427
 20
137.0527257118465
 30
0.0
 10
204.8568777244199
 20
137.0526362107096
 30
0.0
 10
204.8554308900647
 20
137.0535757537683
 30
0.0
 10
204.8557971167972
 20
137.0550531659389
 30
0.0
 10
204.8569545060966
 20
137.0563118493202
 30
0.0
 10
204.8572496502979
 20
137.0566328243815
 30
0.0
  0
SPLINE
  5
179
330
1F
100
AcDbEntity
  8
0
  6
Continuous
 62
     7
370
     0
100
AcDbSpline
210
0.0
220
0.0
230
1.0
 70
     8
 71
     3
 72
    17
 73
    13
 74
     0
 42
0.000000001
 43
0.00000001
 40
0.0
 40
0.0
 40
0.0
 40
0.0
 40
0.0000327613862941
 40
0.0000327613862941
 40
0.0000327613862941
 40
0.0000676569624332
 40
0.0000676569624332
 40
0.0000676569624332
 40
0.0000935083918259
 40
0.0000935083918259
 40
0.0000935083918259
 40
0.000106452592388
 40
0.000106452592388
 40
0.000106452592388
 40
0.000106452592388
 10
204.8246035001386
 20
137.1416328887694
 30
0.0
 10
204.8246702651433
 20
137.1307129208684
 30
0.0
 10
204.825856670703
 20
137.1196672824424
 30
0.0
 10
204.8280922745737
 20
137.1093298905074
 30
0.0
 10
204.8304641101364
 20
137.0983625656875
 30
0.0
 10
204.8341076102066
 20
137.0878462494653
 30
0.0
 10
204.8386945918207
 20
137.0790237794231
 30
0.0
 10
204.8421124617846
 20
137.0724499454945
 30
0.0
 10
204.8461418119559
 20
137.0666493229901
 30
0.0
 10
204.8504641164097
 20
137.0622478079637
 30
0.0
 10
204.8526506959358
 20
137.0600211571705
 30
0.0
 10
204.854933250875
 20
137.0581250745016
 30
0.0
 10
204.857249654353
 20
137.0566328887446
 30
0.0
  0
LINE
  5
17A
330
1F
100
AcDbEntity
  8
0
  6
Continuous
 62
     7
370
     0
100
AcDbLine
 10
209.2032113803
 20
137.1416327731
 30
0.0
 11
209.2032113803
 21
137.1426327807
 31
0.0
  0
LINE
  5
17B
330
1F
100
AcDbEntity
  8
0
  6
Continuous
 62
     7
370
     0
100
AcDbLine
 10
203.9332599604
 20
137.1425328964
 30
0.0
 11
204.7559896243
 21
137.1425328964
 31
0.0
  0
LINE
  5
17C
330
1F
100
AcDbEntity
  8
0
  6
Continuous
 62
     7
370
     0
100
AcDbLine
 10
203.8532111553
 20
137.0566328244
 30
0.0
 11
204.8572496503
 21
137.0566328244
 31
0.0
  0
LINE
  5
17D
330
1F
100
AcDbEntity
  8
0
  6
Continuous
 62
     7
370
     0
100
AcDbLine
 10
203.8532111553
 20
137.1416327731
 30
0.0
 11
204.824603418
 21
137.1416327731
 31
0.0
  0
LWPOLYLINE
  5
17E
330
1F
100
AcDbEntity
  8
0
  6
Continuous
 62
     7
370
     0
100
AcDbPolyline
 90
        9
 70
   128
 43
0.0
 10
204.4102610314
 20
137.1416327731
 10
204.4102610314
 20
137.1417578032
 10
204.4102610314
 20
137.1418828332
 10
204.4102612642
 20
137.1420078633
 10
204.4102612642
 20
137.1421328933
 10
204.4102612642
 20
137.1422579234
 10
204.4102612642
 20
137.1423829535
 10
204.410261497
 20
137.1425079835
 10
204.4102610314
 20
137.1426327807
  0
LWPOLYLINE
  5
17F
330
1F
100
AcDbEntity
  8
0
  6
Continuous
 62
     7
370
     0
100
AcDbPolyline
 90
        9
 70
   128
 43
0.0
 10
204.3961615061
 20
137.1426327807
 10
204.3961615061
 20
137.1425079835
 10
204.3961615061
 20
137.1423829535
 10
204.3961617389
 20
137.1422579234
 10
204.3961617389
 20
137.1421328933
 10
204.3961617389
 20
137.1420078633
 10
204.3961617389
 20
137.1418828332
 10
204.3961619717
 20
137.1417578032
 10
204.3961619717
 20
137.1416327731
  0
LINE
  5
180
330
1F
100
AcDbEntity
  8
0
  6
Continuous
 62
     7
370
     0
100
AcDbLine
 10
210.3032113743
 20
144.1426329968
 30
0.0
 11
203.3032111583
 21
144.1426329968
 31
0.0
  0
LINE
  5
181
330
1F
100
AcDbEntity
  8
0
  6
Continuous
 62
     7
370
     0
100
AcDbLine
 10
210.3032113743
 20
137.1426327807
 30
0.0
 11
210.3032113743
 21
144.1426329968
 31
0.0
  0
LINE
  5
182
330
1F
100
AcDbEntity
  8
0
  6
Continuous
 62
     7
370
     0
100
AcDbLine
 10
203.3032111583
 20
137.1426327807
 30
0.0
 11
210.3032113743
 21
137.1426327807
 31
0.0
  0
LINE
  5
183
330
1F
100
AcDbEntity
  8
0
  6
Continuous
 62
     7
370
     0
100
AcDbLine
 10
203.3032111583
 20
144.1426329968
 30
0.0
 11
203.3032111583
 21
137.1426327807
 31
0.0
  0
LWPOLYLINE
  5
184
330
1F
100
AcDbEntity
  8
0
  6
Continuous
 62
     7
370
     0
100
AcDbPolyline
 90
       26
 70
   128
 43
0.0
 10
204.8732112387
 20
147.5479245839
 10
204.8584453521
 20
147.6534425003
 10
204.8150752896
 20
147.7523307969
 10
204.7458265667
 20
147.8383752239
 10
204.6550498569
 20
147.9061694538
 10
204.548449278
 20
147.9514540826
 10
204.4327229021
 20
147.9713834544
 10
204.31514203
 20
147.9647049402
 10
204.2030950767
 20
147.9318390322
 10
204.1036219095
 20
147.8748504726
 10
204.0229733327
 20
147.7973192652
 10
203.9662162067
 20
147.7041180899
 10
203.9369172641
 20
147.6011031029
 10
203.9369172641
 20
147.4947460649
 10
203.9662162067
 20
147.3917306123
 10
204.0229733327
 20
147.298529437
 10
204.1036219095
 20
147.2209986953
 10
204.2030950767
 20
147.1640101356
 10
204.31514203
 20
147.1311437619
 10
204.4327229021
 20
147.1244657134
 10
204.548449278
 20
147.1443950852
 10
204.6550498569
 20
147.1896792484
 10
204.7458265667
 20
147.2574739439
 10
204.8150752896
 20
147.3435183709
 10
204.8584453521
 20
147.4424062019
 10
204.8732112387
 20
147.5479245839
  0
SPLINE
  5
185
330
1F
100
AcDbEntity
  8
0
  6
Continuous
 62
     7
370
     0
100
AcDbSpline
210
0.0
220
0.0
230
1.0
 70
     8
 71
     3
 72
    18
 73
    14
 74
     0
 42
0.000000001
 43
0.00000001
 40
0.0
 40
0.0
 40
0.0
 40
0.0
 40
0.0022602520497803
 40
0.1085191928426256
 40
0.2149014107229409
 40
0.3219036808287128
 40
0.4297348116276511
 40
0.5382770224382597
 40
0.6471533072922527
 40
0.7558645313383131
 40
0.8639642731928371
 40
0.9712280022539755
 40
1.0
 40
1.0
 40
1.0
 40
1.0
 10
203.9337603134422
 20
144.2524801661723
 30
0.0
 10
203.9335833248912
 20
144.2524445330749
 30
0.0
 10
203.9250857528189
 20
144.2507337172517
 30
0.0
 10
203.9565965105759
 20
144.2474828450122
 30
0.0
 10
204.0298994236782
 20
144.2433866024441
 30
0.0
 10
204.1510455896605
 20
144.2403946998599
 30
0.0
 10
204.2993066844473
 20
144.238722699634
 30
0.0
 10
204.4605510467367
 20
144.2385038684611
 30
0.0
 10
204.6155410358252
 20
144.2397709059159
 30
0.0
 10
204.7470024855748
 20
144.242443579252
 30
0.0
 10
204.8367439487927
 20
144.2463270661927
 30
0.0
 10
204.873464277118
 20
144.2499045726394
 30
0.0
 10
204.8711802190605
 20
144.2520403225063
 30
0.0
 10
204.8706971333681
 20
144.2524920405351
 30
0.0
  0
LINE
  5
186
330
1F
100
AcDbEntity
  8
0
  6
Continuous
 62
     7
370
     0
100
AcDbLine
 10
208.6532112669
 20
144.1436330044
 30
0.0
 11
209.7532113773
 21
144.1436330044
 31
0.0
  0
LINE
  5
187
330
1F
100
AcDbEntity
  8
0
  6
Continuous
 62
     7
370
     0
100
AcDbLine
 10
208.6532112669
 20
144.2286329532
 30
0.0
 11
209.7532113773
 21
144.2286329532
 31
0.0
  0
SPLINE
  5
188
330
1F
100
AcDbEntity
  8
0
  6
Continuous
 62
     7
370
     0
100
AcDbSpline
210
0.0
220
0.0
230
1.0
 70
     8
 71
     3
 72
    17
 73
    13
 74
     0
 42
0.000000001
 43
0.00000001
 40
0.0
 40
0.0
 40
0.0
 40
0.0
 40
0.0000327613862941
 40
0.0000327613862941
 40
0.0000327613862941
 40
0.0000676569624332
 40
0.0000676569624332
 40
0.0000676569624332
 40
0.0000935083918259
 40
0.0000935083918259
 40
0.0000935083918259
 40
0.000106452592388
 40
0.000106452592388
 40
0.000106452592388
 40
0.000106452592388
 10
204.8246035001386
 20
144.1436328887694
 30
0.0
 10
204.8246702651433
 20
144.1545528566704
 30
0.0
 10
204.825856670703
 20
144.1655984950964
 30
0.0
 10
204.8280922745737
 20
144.1759358870314
 30
0.0
 10
204.8304641101364
 20
144.1869032118513
 30
0.0
 10
204.8341076102066
 20
144.1974195280735
 30
0.0
 10
204.8386945918207
 20
144.2062419981157
 30
0.0
 10
204.8421124617846
 20
144.2128158320443
 30
0.0
 10
204.8461418119559
 20
144.2186164545488
 30
0.0
 10
204.8504641164097
 20
144.2230179695751
 30
0.0
 10
204.8526506959358
 20
144.2252446203683
 30
0.0
 10
204.854933250875
 20
144.2271407030372
 30
0.0
 10
204.857249654353
 20
144.2286328887942
 30
0.0
  0
SPLINE
  5
189
330
1F
100
AcDbEntity
  8
0
  6
Continuous
 62
     7
370
     0
100
AcDbSpline
210
0.0
220
0.0
230
1.0
 70
     8
 71
     3
 72
    23
 73
    19
 74
     0
 42
0.000000001
 43
0.00000001
 40
0.0
 40
0.0
 40
0.0
 40
0.0
 40
0.0000136991388042
 40
0.0000136991388042
 40
0.0000136991388042
 40
0.00002163406561
 40
0.00002163406561
 40
0.00002163406561
 40
0.0000296647624064
 40
0.0000296647624064
 40
0.0000296647624064
 40
0.000036756077424
 40
0.000036756077424
 40
0.000036756077424
 40
0.0000484502327163
 40
0.0000484502327163
 40
0.0000484502327163
 40
0.0000524173647347
 40
0.0000524173647347
 40
0.0000524173647347
 40
0.0000524173647347
 10
204.8811030227419
 20
144.2286328887695
 30
0.0
 10
204.8767687185825
 20
144.2297484966663
 30
0.0
 10
204.872414685247
 20
144.2307710945806
 30
0.0
 10
204.868487058504
 20
144.2315135315996
 30
0.0
 10
204.8662014941011
 20
144.231945570521
 30
0.0
 10
204.8640289910465
 20
144.2322852931559
 30
0.0
 10
204.8621955459105
 20
144.2324698065555
 30
0.0
 10
204.8603485376185
 20
144.2326556849176
 30
0.0
 10
204.8588136987909
 20
144.2326820259431
 30
0.0
 10
204.8577617000814
 20
144.2325416280929
 30
0.0
 10
204.8568267478278
 20
144.2324168510515
 30
0.0
 10
204.8562379243255
 20
144.2321626470172
 30
0.0
 10
204.8559467565179
 20
144.2318223214386
 30
0.0
 10
204.8554688595866
 20
144.2312637413159
 30
0.0
 10
204.8557492521871
 20
144.2304678271902
 30
0.0
 10
204.8564231523791
 20
144.2295800747151
 30
0.0
 10
204.8566538335666
 20
144.2292761902562
 30
0.0
 10
204.8569324887899
 20
144.2289594446281
 30
0.0
 10
204.8572496543065
 20
144.2286328887763
 30
0.0
  0
SPLINE
  5
18A
330
1F
100
AcDbEntity
  8
0
  6
Continuous
 62
     7
370
     0
100
AcDbSpline
210
0.0
220
0.0
230
1.0
 70
     8
 71
     3
 72
    17
 73
    13
 74
     0
 42
0.000000001
 43
0.00000001
 40
0.0000000000000024
 40
0.0000000000000024
 40
0.0000000000000024
 40
0.0000000000000024
 40
0.0000249091250946
 40
0.0000249091250946
 40
0.0000249091250946
 40
0.0000496470944607
 40
0.0000496470944607
 40
0.0000496470944607
 40
0.0000776809554077
 40
0.0000776809554077
 40
0.0000776809554077
 40
0.0001063965837808
 40
0.0001063965837808
 40
0.0001063965837808
 40
0.0001063965837808
 10
204.8811030227406
 20
144.2286328887699
 30
0.0
 10
204.8849656646869
 20
144.2257959437979
 30
0.0
 10
204.8884623291981
 20
144.2214565944163
 30
0.0
 10
204.8914048580178
 20
144.2161535579961
 30
0.0
 10
204.8943351785656
 20
144.2108725233691
 30
0.0
 10
204.8968019874771
 20
144.2045179831585
 30
0.0
 10
204.89877393828
 20
144.1976112505304
 30
0.0
 10
204.9010069138736
 20
144.1897902818898
 30
0.0
 10
204.9026632756498
 20
144.1810842212629
 30
0.0
 10
204.9037660676431
 20
144.1721072863274
 30
0.0
 10
204.9048963189493
 20
144.1629068274021
 30
0.0
 10
204.9054720047368
 20
144.1532286909002
 30
0.0
 10
204.9055091938546
 20
144.1436328887695
 30
0.0
  0
SPLINE
  5
18B
330
1F
100
AcDbEntity
  8
0
  6
Continuous
 62
     7
370
     0
100
AcDbSpline
210
0.0
220
0.0
230
1.0
 70
     8
 71
     3
 72
     8
 73
     4
 74
     0
 42
0.000000001
 43
0.00000001
 40
0.000000000000007
 40
0.000000000000007
 40
0.000000000000007
 40
0.000000000000007
 40
0.0000009063950673
 40
0.0000009063950673
 40
0.0000009063950673
 40
0.0000009063950673
 10
204.8369002354145
 20
144.1427328887764
 30
0.0
 10
204.8369485267597
 20
144.143032922953
 30
0.0
 10
204.8369962783928
 20
144.1433329284233
 30
0.0
 10
204.8370434906546
 20
144.1436328887694
 30
0.0
  0
LINE
  5
18C
330
1F
100
AcDbEntity
  8
0
  6
Continuous
 62
     7
370
     0
100
AcDbLine
 10
204.8369001356
 20
144.1427328811
 30
0.0
 11
204.7559896243
 21
144.1427328811
 31
0.0
  0
LINE
  5
18D
330
1F
100
AcDbEntity
  8
0
  6
Continuous
 62
     7
370
     0
100
AcDbLine
 10
203.9332115316
 20
144.1427328811
 30
0.0
 11
204.7559896243
 21
144.1427328811
 31
0.0
  0
LINE
  5
18E
330
1F
100
AcDbEntity
  8
0
  6
Continuous
 62
     7
370
     0
100
AcDbLine
 10
203.8532111553
 20
144.1436330044
 30
0.0
 11
204.824603418
 21
144.1436330044
 31
0.0
  0
LINE
  5
18F
330
1F
100
AcDbEntity
  8
0
  6
Continuous
 62
     7
370
     0
100
AcDbLine
 10
203.8532111553
 20
144.2286329532
 30
0.0
 11
204.8572496503
 21
144.2286329532
 31
0.0
  0
DIMENSION
  5
190
330
1F
100
AcDbEntity
  8
0
  6
Continuous
 62
     7
370
     0
100
AcDbDimension
  2
_D
 10
210.3032112663
 20
122.8536118613
 30
0.0
 11
222.9209006345
 21
122.8536118613
 31
0.0
 70
   160
  1
<>
 71
     2
 42
-1.0
  3
SLDDIMSTYLE1
100
AcDbAlignedDimension
 13
203.3032112663
 23
137.1426328888
 33
0.0
 14
210.3032112663
 24
137.1426328888
 34
0.0
100
AcDbRotatedDimension
  0
ARC
  5
1A5
330
1F
100
AcDbEntity
  8
0
  6
Continuous
 62
     7
370
     0
100
AcDbCircle
 10
21.5102082824
 20
138.6921884443
 30
0.0
 40
1.725555555555557
100
AcDbArc
 50
251.4133828012
 51
288.5866171988
  0
LINE
  5
1A6
330
1F
100
AcDbEntity
  8
0
  6
Continuous
 62
     7
370
     0
100
AcDbLine
 10
20.960208283
 20
137.1416327731
 30
0.0
 11
20.960208283
 21
137.0566328244
 31
0.0
  0
LINE
  5
1A7
330
1F
100
AcDbEntity
  8
0
  6
Continuous
 62
     7
370
     0
100
AcDbLine
 10
22.0602083934
 20
137.0566328244
 30
0.0
 11
22.0602083934
 21
137.1416327731
 31
0.0
  0
LINE
  5
1A8
330
1F
100
AcDbEntity
  8
0
  6
Continuous
 62
     7
370
     0
100
AcDbLine
 10
17.1876072634
 20
137.0526327939
 30
0.0
 11
20.9909084003
 21
137.0526327939
 31
0.0
  0
ARC
  5
1A9
330
1F
100
AcDbEntity
  8
0
  6
Continuous
 62
     7
370
     0
100
AcDbCircle
 10
16.7102082824
 20
138.6921884443
 30
0.0
 40
1.725555555555556
100
AcDbArc
 50
251.4133828012
 51
288.5866171988
  0
LINE
  5
1AA
330
1F
100
AcDbEntity
  8
0
  6
Continuous
 62
     7
370
     0
100
AcDbLine
 10
16.1602081714
 20
137.1416327731
 30
0.0
 11
16.1602081714
 21
137.0566328244
 31
0.0
  0
LINE
  5
1AB
330
1F
100
AcDbEntity
  8
0
  6
Continuous
 62
     7
370
     0
100
AcDbLine
 10
17.2602082819
 20
137.0566328244
 30
0.0
 11
17.2602082819
 21
137.1416327731
 31
0.0
  0
SPLINE
  5
1AC
330
1F
100
AcDbEntity
  8
0
  6
Continuous
 62
     7
370
     0
100
AcDbSpline
210
0.0
220
0.0
230
1.0
 70
    24
 71
     3
 72
    22
 73
    18
 74
     0
 42
0.000000001
 43
0.00000001
 40
0.0
 40
0.0
 40
0.0
 40
0.0
 40
0.0838682129537688
 40
0.1645571744364109
 40
0.2348134928037279
 40
0.2956879427637578
 40
0.3479978230867877
 40
0.392354731793275
 40
0.4291967830130174
 40
0.4612904241638772
 40
0.5142105347629801
 40
0.5806104416014573
 40
0.6607705991335107
 40
0.7305228323690361
 40
0.8094056542563968
 40
0.8986621773830781
 40
0.9999999999999999
 40
0.9999999999999999
 40
0.9999999999999999
 40
0.9999999999999999
 10
21.0402083100675
 20
137.0327602328264
 30
0.0
 10
21.0402083100675
 20
136.8777640148816
 30
0.0
 10
21.0402083100675
 20
136.5736471298897
 30
0.0
 10
21.0402083100675
 20
136.1598043801528
 30
0.0
 10
21.0402083100675
 20
135.8017196550627
 30
0.0
 10
21.0402083100675
 20
135.5066934806986
 30
0.0
 10
21.0402083100675
 20
135.2661446646407
 30
0.0
 10
21.0402083100675
 20
135.0728443652987
 30
0.0
 10
21.0402083100675
 20
134.9170791247552
 30
0.0
 10
21.0402083100675
 20
134.7576529867806
 30
0.0
 10
21.0402083100675
 20
134.5726626922564
 30
0.0
 10
21.0402083100675
 20
134.3552134480886
 30
0.0
 10
21.0402083100675
 20
134.1570804845597
 30
0.0
 10
21.0402083100675
 20
133.9899091255928
 30
0.0
 10
21.0402083100675
 20
133.860643828412
 30
0.0
 10
21.0402083100675
 20
133.7647499278596
 30
0.0
 10
21.0402083100675
 20
133.7468555320516
 30
0.0
 10
21.0402083100675
 20
133.7373411936217
 30
0.0
  0
SPLINE
  5
1AD
330
1F
100
AcDbEntity
  8
0
  6
Continuous
 62
     7
370
     0
100
AcDbSpline
210
0.0
220
0.0
230
1.0
 70
    24
 71
     3
 72
    22
 73
    18
 74
     0
 42
0.000000001
 43
0.00000001
 40
0.0
 40
0.0
 40
0.0
 40
0.0
 40
0.1013381959698325
 40
0.1905950479390114
 40
0.2694781604496594
 40
0.3392306506691876
 40
0.41939110353054
 40
0.4857912550022433
 40
0.5387115605717611
 40
0.5708053199633135
 40
0.6076475069180333
 40
0.65200457904604
 40
0.7043146520912498
 40
0.7651893263273938
 40
0.8354459035358845
 40
0.9161351622960666
 40
1.0
 40
1.0
 40
1.0
 40
1.0
 10
21.98020824994132
 20
133.7373411936217
 30
0.0
 10
21.98020824994132
 20
133.7468555320516
 30
0.0
 10
21.98020824994131
 20
133.7647499278596
 30
0.0
 10
21.98020824994132
 20
133.860643828412
 30
0.0
 10
21.98020824994131
 20
133.9899091255928
 30
0.0
 10
21.98020824994132
 20
134.1570804845596
 30
0.0
 10
21.98020824994132
 20
134.3552134480891
 30
0.0
 10
21.98020824994132
 20
134.572662692255
 30
0.0
 10
21.98020824994132
 20
134.757652986784
 30
0.0
 10
21.98020824994132
 20
134.9170791247473
 30
0.0
 10
21.98020824994132
 20
135.0728443653369
 30
0.0
 10
21.98020824994132
 20
135.2661446644529
 30
0.0
 10
21.98020824994132
 20
135.5066934815938
 30
0.0
 10
21.98020824994132
 20
135.801719650873
 30
0.0
 10
21.98020824994132
 20
136.1598043995458
 30
0.0
 10
21.98020824994132
 20
136.5736405513118
 30
0.0
 10
21.98020824994132
 20
136.8777505876984
 30
0.0
 10
21.98020824994132
 20
137.0327399765604
 30
0.0
  0
LINE
  5
1AE
330
1F
100
AcDbEntity
  8
0
  6
Continuous
 62
     7
370
     0
100
AcDbLine
 10
22.0602083934
 20
144.1436330044
 30
0.0
 11
22.0602083934
 21
144.2286329532
 31
0.0
  0
LINE
  5
1AF
330
1F
100
AcDbEntity
  8
0
  6
Continuous
 62
     7
370
     0
100
AcDbLine
 10
20.960208283
 20
144.2286329532
 30
0.0
 11
20.960208283
 21
144.1436330044
 31
0.0
  0
ARC
  5
1B0
330
1F
100
AcDbEntity
  8
0
  6
Continuous
 62
     7
370
     0
100
AcDbCircle
 10
21.5102082824
 20
142.5930773332
 30
0.0
 40
1.725555555555559
100
AcDbArc
 50
71.4133828012
 51
90.0
  0
ARC
  5
1B1
330
1F
100
AcDbEntity
  8
0
  6
Continuous
 62
     7
370
     0
100
AcDbCircle
 10
21.5102082824
 20
142.5930773332
 30
0.0
 40
1.725555555555559
100
AcDbArc
 50
90.0
 51
108.5866171988
  0
LINE
  5
1B2
330
1F
100
AcDbEntity
  8
0
  6
Continuous
 62
     7
370
     0
100
AcDbLine
 10
20.9983816819
 20
144.2326329836
 30
0.0
 11
17.1876072634
 21
144.2326329836
 31
0.0
  0
LINE
  5
1B3
330
1F
100
AcDbEntity
  8
0
  6
Continuous
 62
     7
370
     0
100
AcDbLine
 10
16.1602081714
 20
144.2286329532
 30
0.0
 11
16.1602081714
 21
144.1436330044
 31
0.0
  0
ARC
  5
1B4
330
1F
100
AcDbEntity
  8
0
  6
Continuous
 62
     7
370
     0
100
AcDbCircle
 10
16.7102082824
 20
142.5930773332
 30
0.0
 40
1.725555555555559
100
AcDbArc
 50
71.4133828012
 51
90.0
  0
ARC
  5
1B5
330
1F
100
AcDbEntity
  8
0
  6
Continuous
 62
     7
370
     0
100
AcDbCircle
 10
16.7102082824
 20
142.5930773332
 30
0.0
 40
1.725555555555559
100
AcDbArc
 50
90.0
 51
108.5866171988
  0
LINE
  5
1B6
330
1F
100
AcDbEntity
  8
0
  6
Continuous
 62
     7
370
     0
100
AcDbLine
 10
17.2602082819
 20
144.1436330044
 30
0.0
 11
17.2602082819
 21
144.2286329532
 31
0.0
  0
SPLINE
  5
1B7
330
1F
100
AcDbEntity
  8
0
  6
Continuous
 62
     7
370
     0
100
AcDbSpline
210
0.0
220
0.0
230
1.0
 70
    24
 71
     3
 72
    22
 73
    18
 74
     0
 42
0.000000001
 43
0.00000001
 40
0.0
 40
0.0
 40
0.0
 40
0.0
 40
0.0838648377039335
 40
0.1645540964641155
 40
0.2348106736726062
 40
0.2956853479087503
 40
0.34799542095396
 40
0.3923524930819668
 40
0.4291946800366866
 40
0.461288439428239
 40
0.5142087449977567
 40
0.58060889646946
 40
0.6607693493308125
 40
0.7305218395503408
 40
0.8094049520609887
 40
0.8986618040301676
 40
1.0
 40
1.0
 40
1.0
 40
1.0
 10
21.98020824994132
 20
144.2525258009784
 30
0.0
 10
21.98020824994132
 20
144.4075151898404
 30
0.0
 10
21.98020824994132
 20
144.7116252262271
 30
0.0
 10
21.98020824994132
 20
145.125461377993
 30
0.0
 10
21.98020824994132
 20
145.4835461266658
 30
0.0
 10
21.98020824994131
 20
145.778572295945
 30
0.0
 10
21.98020824994132
 20
146.0191211130859
 30
0.0
 10
21.98020824994131
 20
146.212421412202
 30
0.0
 10
21.98020824994132
 20
146.3681866527916
 30
0.0
 10
21.98020824994132
 20
146.5276127907548
 30
0.0
 10
21.98020824994132
 20
146.7126030852839
 30
0.0
 10
21.98020824994131
 20
146.9300523294497
 30
0.0
 10
21.98020824994132
 20
147.1281852929792
 30
0.0
 10
21.98020824994132
 20
147.295356651946
 30
0.0
 10
21.98020824994132
 20
147.4246219491269
 30
0.0
 10
21.98020824994132
 20
147.5205158496792
 30
0.0
 10
21.98020824994132
 20
147.5384102454873
 30
0.0
 10
21.98020824994132
 20
147.5479245839172
 30
0.0
  0
SPLINE
  5
1B8
330
1F
100
AcDbEntity
  8
0
  6
Continuous
 62
     7
370
     0
100
AcDbSpline
210
0.0
220
0.0
230
1.0
 70
    24
 71
     3
 72
    22
 73
    18
 74
     0
 42
0.000000001
 43
0.00000001
 40
0.0
 40
0.0
 40
0.0
 40
0.0
 40
0.1007559670447894
 40
0.1895000022968618
 40
0.2679298994195549
 40
0.3372816333693377
 40
0.4169815320057628
 40
0.4830001877497784
 40
0.5356164447586343
 40
0.5675258125212229
 40
0.604156326209988
 40
0.6482585490171047
 40
0.7002680795343311
 40
0.7607930041444466
 40
0.8306459288995477
 40
0.9108715952310226
 40
1.0
 40
1.0
 40
1.0
 40
1.0
 10
21.0402083100675
 20
147.5479245839172
 30
0.0
 10
21.0402083100675
 20
147.5384102454891
 30
0.0
 10
21.0402083100675
 20
147.5205158496845
 30
0.0
 10
21.0402083100675
 20
147.4246219491097
 30
0.0
 10
21.0402083100675
 20
147.2953566519997
 30
0.0
 10
21.0402083100675
 20
147.1281852927929
 30
0.0
 10
21.0402083100675
 20
146.9300523302057
 30
0.0
 10
21.0402083100675
 20
146.7126030831966
 30
0.0
 10
21.0402083100675
 20
146.5276127958498
 30
0.0
 10
21.0402083100675
 20
146.3681866411656
 30
0.0
 10
21.0402083100675
 20
146.2124214682424
 30
0.0
 10
21.0402083100675
 20
146.0191208371316
 30
0.0
 10
21.0402083100675
 20
145.7785736110875
 30
0.0
 10
21.0402083100675
 20
145.4835399718029
 30
0.0
 10
21.0402083100675
 20
145.1254898676677
 30
0.0
 10
21.0402083100675
 20
144.7013116538634
 30
0.0
 10
21.0402083100675
 20
144.3864478832249
 30
0.0
 10
21.0402083100675
 20
144.2207399943375
 30
0.0
  0
LINE
  5
1B9
330
1F
100
AcDbEntity
  8
0
  6
Continuous
 62
     7
370
     0
100
AcDbLine
 10
22.6102083905
 20
144.1426329968
 30
0.0
 11
22.6102083905
 21
137.1426327807
 31
0.0
  0
LINE
  5
1BA
330
1F
100
AcDbEntity
  8
0
  6
Continuous
 62
     7
370
     0
100
AcDbLine
 10
22.6102083905
 20
137.1426327807
 30
0.0
 11
15.6102081744
 21
137.1426327807
 31
0.0
  0
LINE
  5
1BB
330
1F
100
AcDbEntity
  8
0
  6
Continuous
 62
     7
370
     0
100
AcDbLine
 10
15.6102081744
 20
144.1426329968
 30
0.0
 11
22.6102083905
 21
144.1426329968
 31
0.0
  0
LINE
  5
1BC
330
1F
100
AcDbEntity
  8
0
  6
Continuous
 62
     7
370
     0
100
AcDbLine
 10
15.6102081744
 20
137.1426327807
 30
0.0
 11
15.6102081744
 21
144.1426329968
 31
0.0
  0
LINE
  5
1BD
330
1F
100
AcDbEntity
  8
0
  6
Continuous
 62
     7
370
     0
100
AcDbLine
 10
20.960208283
 20
137.0566328244
 30
0.0
 11
22.0602083934
 21
137.0566328244
 31
0.0
  0
LINE
  5
1BE
330
1F
100
AcDbEntity
  8
0
  6
Continuous
 62
     7
370
     0
100
AcDbLine
 10
20.960208283
 20
137.1416327731
 30
0.0
 11
22.0602083934
 21
137.1416327731
 31
0.0
  0
LWPOLYLINE
  5
1BF
330
1F
100
AcDbEntity
  8
0
  6
Continuous
 62
     7
370
     0
100
AcDbPolyline
 90
        9
 70
   128
 43
0.0
 10
21.5031585174
 20
137.1416327731
 10
21.5031585174
 20
137.1417578032
 10
21.5031585174
 20
137.1418828332
 10
21.5031582845
 20
137.1420078633
 10
21.5031582845
 20
137.1421328933
 10
21.5031582845
 20
137.1422579234
 10
21.5031582845
 20
137.1423829535
 10
21.5031580517
 20
137.1425079835
 10
21.5031585174
 20
137.1426327807
  0
LWPOLYLINE
  5
1C0
330
1F
100
AcDbEntity
  8
0
  6
Continuous
 62
     7
370
     0
100
AcDbPolyline
 90
        9
 70
   128
 43
0.0
 10
21.5172580426
 20
137.1426327807
 10
21.5172580426
 20
137.1425079835
 10
21.5172580426
 20
137.1423829535
 10
21.5172578098
 20
137.1422579234
 10
21.5172578098
 20
137.1421328933
 10
21.5172578098
 20
137.1420078633
 10
21.5172578098
 20
137.1418828332
 10
21.517257577
 20
137.1417578032
 10
21.517257577
 20
137.1416327731
  0
LINE
  5
1C1
330
1F
100
AcDbEntity
  8
0
  6
Continuous
 62
     7
370
     0
100
AcDbLine
 10
16.1602081714
 20
137.0566328244
 30
0.0
 11
17.1871653508
 21
137.0566328244
 31
0.0
  0
LINE
  5
1C2
330
1F
100
AcDbEntity
  8
0
  6
Continuous
 62
     7
370
     0
100
AcDbLine
 10
16.1602081714
 20
137.1416327731
 30
0.0
 11
17.1579916712
 21
137.1416327731
 31
0.0
  0
LINE
  5
1C3
330
1F
100
AcDbEntity
  8
0
  6
Continuous
 62
     7
370
     0
100
AcDbLine
 10
17.2285124643
 20
137.1416327731
 30
0.0
 11
17.2602082819
 21
137.1416327731
 31
0.0
  0
LINE
  5
1C4
330
1F
100
AcDbEntity
  8
0
  6
Continuous
 62
     7
370
     0
100
AcDbLine
 10
17.2122039583
 20
137.1416327731
 30
0.0
 11
17.2285124643
 21
137.1416327731
 31
0.0
  0
LINE
  5
1C5
330
1F
100
AcDbEntity
  8
0
  6
Continuous
 62
     7
370
     0
100
AcDbLine
 10
21.1578485539
 20
137.1425328964
 30
0.0
 11
21.0767636524
 21
137.1425328964
 31
0.0
  0
LINE
  5
1C6
330
1F
100
AcDbEntity
  8
0
  6
Continuous
 62
     7
370
     0
100
AcDbLine
 10
21.1578485539
 20
137.1425328964
 30
0.0
 11
21.5031585174
 21
137.1425328964
 31
0.0
  0
LINE
  5
1C7
330
1F
100
AcDbEntity
  8
0
  6
Continuous
 62
     7
370
     0
100
AcDbLine
 10
21.5172580426
 20
137.1425328964
 30
0.0
 11
21.9802080171
 21
137.1425328964
 31
0.0
  0
ARC
  5
1C8
330
1F
100
AcDbEntity
  8
0
  6
Continuous
 62
     7
370
     0
100
AcDbCircle
 10
21.51020828
 20
133.7811085578
 30
0.0
 40
0.4720334245650105
100
AcDbArc
 50
185.3201579655
 51
354.6798420345
  0
LINE
  5
1C9
330
1F
100
AcDbEntity
  8
0
  6
Continuous
 62
     7
370
     0
100
AcDbLine
 10
21.0402083101
 20
137.1425328964
 30
0.0
 11
21.0767636524
 21
137.1425328964
 31
0.0
  0
CIRCLE
  5
1CA
330
1F
100
AcDbEntity
  8
0
  6
Continuous
 62
     7
370
     0
100
AcDbCircle
 10
19.1102082824
 20
140.6426328888
 30
0.0
 40
3.5
  0
LINE
  5
1CB
330
1F
100
AcDbEntity
  8
0
  6
Continuous
 62
     7
370
     0
100
AcDbLine
 10
20.960208283
 20
144.1436330044
 30
0.0
 11
22.0602083934
 21
144.1436330044
 31
0.0
  0
LINE
  5
1CC
330
1F
100
AcDbEntity
  8
0
  6
Continuous
 62
     7
370
     0
100
AcDbLine
 10
20.960208283
 20
144.2286329532
 30
0.0
 11
22.0602083934
 21
144.2286329532
 31
0.0
  0
SPLINE
  5
1CD
330
1F
100
AcDbEntity
  8
0
  6
Continuous
 62
     7
370
     0
100
AcDbSpline
210
0.0
220
0.0
230
1.0
 70
     8
 71
     3
 72
    17
 73
    13
 74
     0
 42
0.000000001
 43
0.00000001
 40
0.0
 40
0.0
 40
0.0
 40
0.0
 40
0.0000327613862941
 40
0.0000327613862941
 40
0.0000327613862941
 40
0.0000676569624332
 40
0.0000676569624332
 40
0.0000676569624332
 40
0.0000935083918259
 40
0.0000935083918259
 40
0.0000935083918259
 40
0.0001064525923537
 40
0.0001064525923537
 40
0.0001064525923537
 40
0.0001064525923537
 10
17.15799167481848
 20
144.1436328887694
 30
0.0
 10
17.1580519997504
 20
144.1545528566704
 30
0.0
 10
17.15912492214188
 20
144.1655984950964
 30
0.0
 10
17.16114062144231
 20
144.1759358870314
 30
0.0
 10
17.16327915204131
 20
144.1869032118513
 30
0.0
 10
17.16656044129063
 20
144.1974195280735
 30
0.0
 10
17.17066756411819
 20
144.2062419981157
 30
0.0
 10
17.17372787979664
 20
144.2128158320443
 30
0.0
 10
17.17732448047723
 20
144.2186164545488
 30
0.0
 10
17.18116045304087
 20
144.2230179695751
 30
0.0
 10
17.18310100562341
 20
144.2252446203683
 30
0.0
 10
17.18512147834588
 20
144.2271407030371
 30
0.0
 10
17.18716535885389
 20
144.2286328887941
 30
0.0
  0
SPLINE
  5
1CE
330
1F
100
AcDbEntity
  8
0
  6
Continuous
 62
     7
370
     0
100
AcDbSpline
210
0.0
220
0.0
230
1.0
 70
     8
 71
     3
 72
    23
 73
    19
 74
     0
 42
0.000000001
 43
0.00000001
 40
0.0000000000000021
 40
0.0000000000000021
 40
0.0000000000000021
 40
0.0000000000000021
 40
0.0000136991388042
 40
0.0000136991388042
 40
0.0000136991388042
 40
0.0000216340656101
 40
0.0000216340656101
 40
0.0000216340656101
 40
0.0000296647624066
 40
0.0000296647624066
 40
0.0000296647624066
 40
0.0000367560774241
 40
0.0000367560774241
 40
0.0000367560774241
 40
0.0000484502327164
 40
0.0000484502327164
 40
0.0000484502327164
 40
0.00005241736476
 40
0.00005241736476
 40
0.00005241736476
 40
0.00005241736476
 10
17.2079569427066
 20
144.2286328887694
 30
0.0
 10
17.20370693182623
 20
144.2297484966663
 30
0.0
 10
17.19947446302531
 20
144.2307710945806
 30
0.0
 10
17.19573184028742
 20
144.2315135315996
 30
0.0
 10
17.1935539334081
 20
144.231945570521
 30
0.0
 10
17.19151358545389
 20
144.2322852931559
 30
0.0
 10
17.18983574014372
 20
144.2324698065555
 30
0.0
 10
17.1881454827481
 20
144.2326556849176
 30
0.0
 10
17.18679623950299
 20
144.2326820259431
 30
0.0
 10
17.18593997210639
 20
144.2325416280929
 30
0.0
 10
17.18517897389891
 20
144.2324168510515
 30
0.0
 10
17.18477559629547
 20
144.2321626470172
 30
0.0
 10
17.18466834468125
 20
144.2318223214386
 30
0.0
 10
17.18449231142486
 20
144.2312637413159
 30
0.0
 10
17.185078160916
 20
144.2304678271902
 30
0.0
 10
17.18604313063537
 20
144.2295800747151
 30
0.0
 10
17.18637344714736
 20
144.2292761902561
 30
0.0
 10
17.18675072726018
 20
144.2289594446279
 30
0.0
 10
17.18716535881034
 20
144.228632888776
 30
0.0
  0
SPLINE
  5
1CF
330
1F
100
AcDbEntity
  8
0
  6
Continuous
 62
     7
370
     0
100
AcDbSpline
210
0.0
220
0.0
230
1.0
 70
     8
 71
     3
 72
    17
 73
    13
 74
     0
 42
0.000000001
 43
0.00000001
 40
0.0
 40
0.0
 40
0.0
 40
0.0
 40
0.0000249091250945
 40
0.0000249091250945
 40
0.0000249091250945
 40
0.0000496470944607
 40
0.0000496470944607
 40
0.0000496470944607
 40
0.0000776809554077
 40
0.0000776809554077
 40
0.0000776809554077
 40
0.0001063965837808
 40
0.0001063965837808
 40
0.0001063965837808
 40
0.0001063965837808
 10
17.20795694270542
 20
144.2286328887699
 30
0.0
 10
17.21127661775671
 20
144.2257959437979
 30
0.0
 10
17.21425452477917
 20
144.2214565944163
 30
0.0
 10
17.21674380664309
 20
144.2161535579961
 30
0.0
 10
17.2192227607136
 20
144.2108725233691
 30
0.0
 10
17.22129078147152
 20
144.2045179831585
 30
0.0
 10
17.22293582584715
 20
144.1976112505305
 30
0.0
 10
17.22479862279718
 20
144.1897902818898
 30
0.0
 10
17.22616793455207
 20
144.1810842212629
 30
0.0
 10
17.22707762333679
 20
144.1721072863274
 30
0.0
 10
17.22800996320098
 20
144.1629068274021
 30
0.0
 10
17.22848188438768
 20
144.1532286909002
 30
0.0
 10
17.2285124284348
 20
144.1436328887695
 30
0.0
  0
LINE
  5
1D0
330
1F
100
AcDbEntity
  8
0
  6
Continuous
 62
     7
370
     0
100
AcDbLine
 10
16.1602081714
 20
144.1436330044
 30
0.0
 11
17.1579916712
 21
144.1436330044
 31
0.0
  0
LINE
  5
1D1
330
1F
100
AcDbEntity
  8
0
  6
Continuous
 62
     7
370
     0
100
AcDbLine
 10
16.1602081714
 20
144.2286329532
 30
0.0
 11
17.1871653508
 21
144.2286329532
 31
0.0
  0
LINE
  5
1D2
330
1F
100
AcDbEntity
  8
0
  6
Continuous
 62
     7
370
     0
100
AcDbLine
 10
21.1578485539
 20
144.1427328811
 30
0.0
 11
21.9801595883
 21
144.1427328811
 31
0.0
  0
ARC
  5
1D3
330
1F
100
AcDbEntity
  8
0
  6
Continuous
 62
     7
370
     0
100
AcDbCircle
 10
21.51020828
 20
147.5106339506
 30
0.0
 40
0.4714770016359128
100
AcDbArc
 50
4.5364457937
 51
175.4635542063
  0
DIMENSION
  5
1D4
330
1F
100
AcDbEntity
  8
0
  6
Continuous
 62
     7
370
     0
100
AcDbDimension
  2
_D_1
 10
40.8471857091
 20
137.1426328888
 30
0.0
 11
40.8471857091
 21
154.7624929942
 31
0.0
 70
   160
  1
<>
 71
     2
 42
-1.0
  3
SLDDIMSTYLE1
100
AcDbAlignedDimension
 13
22.6102082824
 23
144.1426328888
 33
0.0
 14
22.6102082824
 24
137.1426328888
 34
0.0
 50
90.0
100
AcDbRotatedDimension
  0
ARC
  5
1E9
330
1F
100
AcDbEntity
  8
0
  6
Continuous
 62
     7
370
     0
100
AcDbCircle
 10
66.9622327672
 20
184.4701000647
 30
0.0
 40
3.5
100
AcDbArc
 50
90.0
 51
270.0
  0
LINE
  5
1EA
330
1F
100
AcDbEntity
  8
0
  6
Continuous
 62
     7
370
     0
100
AcDbLine
 10
84.4143193448
 20
181.6001000972
 30
0.0
 11
144.4143198663
 21
181.6001000972
 31
0.0
  0
LINE
  5
1EB
330
1F
100
AcDbEntity
  8
0
  6
Continuous
 62
     7
370
     0
100
AcDbLine
 10
144.4143198663
 20
182.5401000371
 30
0.0
 11
84.4143193448
 21
182.5401000371
 31
0.0
  0
SPLINE
  5
1EC
330
1F
100
AcDbEntity
  8
0
  6
Continuous
 62
     7
370
     0
100
AcDbSpline
210
0.0
220
0.0
230
1.0
 70
    24
 71
     3
 72
    22
 73
    18
 74
     0
 42
0.000000001
 43
0.00000001
 40
0.0
 40
0.0
 40
0.0
 40
0.0
 40
0.0838648377039335
 40
0.1645540964641155
 40
0.2348106736726062
 40
0.2956853479087503
 40
0.34799542095396
 40
0.3923524930819668
 40
0.4291946800366866
 40
0.461288439428239
 40
0.5142087449977567
 40
0.58060889646946
 40
0.6607693493308125
 40
0.7305218395503408
 40
0.8094049520609887
 40
0.8986618040301676
 40
1.0
 40
1.0
 40
1.0
 40
1.0
 10
79.54924830698111
 20
181.6001000972004
 30
0.0
 10
79.628170769026
 20
181.6001000972004
 30
0.0
 10
79.78302725939884
 20
181.6001000972004
 30
0.0
 10
80.0404273775151
 20
181.6001000972004
 30
0.0
 10
80.29502597022086
 20
181.6001000972004
 30
0.0
 10
80.53541518171505
 20
181.6001000972004
 30
0.0
 10
80.7565886420565
 20
181.6001000972004
 30
0.0
 10
80.95485439601151
 20
181.6001000972004
 30
0.0
 10
81.13074298353139
 20
181.6001000972004
 30
0.0
 10
81.32677811156755
 20
181.6001000972004
 30
0.0
 10
81.58067264136902
 20
181.6001000972004
 30
0.0
 10
81.93302954344722
 20
181.6001000972004
 30
0.0
 10
82.33627412817908
 20
181.6001000972004
 30
0.0
 10
82.78084951365875
 20
181.6001000972004
 30
0.0
 10
83.2574252395274
 20
181.6001000972004
 30
0.0
 10
83.80919114148918
 20
181.6001000972004
 30
0.0
 10
84.20426241658068
 20
181.6001000972004
 30
0.0
 10
84.41431934476533
 20
181.6001000972004
 30
0.0
  0
SPLINE
  5
1ED
330
1F
100
AcDbEntity
  8
0
  6
Continuous
 62
     7
370
     0
100
AcDbSpline
210
0.0
220
0.0
230
1.0
 70
    24
 71
     3
 72
    22
 73
    18
 74
     0
 42
0.000000001
 43
0.00000001
 40
0.0
 40
0.0
 40
0.0
 40
0.0
 40
0.0872695969591064
 40
0.1634770045677589
 40
0.2298862260551301
 40
0.2874099273998911
 40
0.3366602621190987
 40
0.3780091442867982
 40
0.4116510747265952
 40
0.4442094609779082
 40
0.4986954682037234
 40
0.5663936816921571
 40
0.6483765140942764
 40
0.7203043752531189
 40
0.8023529798805754
 40
0.895922829392182
 40
1.0
 40
1.0
 40
1.0
 40
1.0
 10
84.41431934476533
 20
182.5401000370742
 30
0.0
 10
84.23238599072894
 20
182.5401000370742
 30
0.0
 10
83.89158093621754
 20
182.5401000370742
 30
0.0
 10
83.4167487478101
 20
182.5401000370742
 30
0.0
 10
83.00974313820836
 20
182.5401000370742
 30
0.0
 10
82.66483915491573
 20
182.5401000370742
 30
0.0
 10
82.37687660785743
 20
182.5401000370742
 30
0.0
 10
82.14136796362514
 20
182.5401000370742
 30
0.0
 10
81.94240147273483
 20
182.5401000370742
 30
0.0
 10
81.72441738450789
 20
182.5401000370742
 30
0.0
 10
81.45441674656665
 20
182.5401000370742
 30
0.0
 10
81.11749506106074
 20
182.5401000370742
 30
0.0
 10
80.77926727390381
 20
182.5401000370742
 30
0.0
 10
80.44996708666704
 20
182.5401000370742
 30
0.0
 10
80.13693099919155
 20
182.5401000370742
 30
0.0
 10
79.81953329535453
 20
182.5401000370742
 30
0.0
 10
79.6315011970109
 20
182.5401000370742
 30
0.0
 10
79.53248706177511
 20
182.5401000370742
 30
0.0
  0
LINE
  5
1EE
330
1F
100
AcDbEntity
  8
0
  6
Continuous
 62
     7
370
     0
100
AcDbLine
 10
83.9952328009
 20
187.9701001727
 30
0.0
 11
80.9952327672
 21
187.9701001727
 31
0.0
  0
LINE
  5
1EF
330
1F
100
AcDbEntity
  8
0
  6
Continuous
 62
     7
370
     0
100
AcDbLine
 10
83.9952328009
 20
180.9700999567
 30
0.0
 11
80.9952327672
 21
180.9700999567
 31
0.0
  0
LINE
  5
1F0
330
1F
100
AcDbEntity
  8
0
  6
Continuous
 62
     7
370
     0
100
AcDbLine
 10
80.9952327672
 20
180.9700999567
 30
0.0
 11
80.9952327672
 21
181.6001000972
 31
0.0
  0
LINE
  5
1F1
330
1F
100
AcDbEntity
  8
0
  6
Continuous
 62
     7
370
     0
100
AcDbLine
 10
80.9952327672
 20
182.5401000371
 30
0.0
 11
80.9952327672
 21
184.3269477814
 31
0.0
  0
LINE
  5
1F2
330
1F
100
AcDbEntity
  8
0
  6
Continuous
 62
     7
370
     0
100
AcDbLine
 10
80.9952327672
 20
184.6148518072
 30
0.0
 11
80.9952327672
 21
187.9701001727
 31
0.0
  0
LINE
  5
1F3
330
1F
100
AcDbEntity
  8
0
  6
Continuous
 62
     7
370
     0
100
AcDbLine
 10
83.9952328009
 20
180.9700999567
 30
0.0
 11
83.9952328009
 21
181.6001000972
 31
0.0
  0
LINE
  5
1F4
330
1F
100
AcDbEntity
  8
0
  6
Continuous
 62
     7
370
     0
100
AcDbLine
 10
83.9952328009
 20
182.5401000371
 30
0.0
 11
83.9952328009
 21
187.9701001727
 31
0.0
  0
LINE
  5
1F5
330
1F
100
AcDbEntity
  8
0
  6
Continuous
 62
     7
370
     0
100
AcDbLine
 10
77.9942327412
 20
180.9700999567
 30
0.0
 11
80.9942327672
 21
180.9700999567
 31
0.0
  0
LINE
  5
1F6
330
1F
100
AcDbEntity
  8
0
  6
Continuous
 62
     7
370
     0
100
AcDbLine
 10
77.9942327412
 20
187.9701001727
 30
0.0
 11
77.9942327412
 21
184.6057693312
 31
0.0
  0
LINE
  5
1F7
330
1F
100
AcDbEntity
  8
0
  6
Continuous
 62
     7
370
     0
100
AcDbLine
 10
77.9942327412
 20
184.318483951
 30
0.0
 11
77.9942327412
 21
180.9700999567
 31
0.0
  0
LINE
  5
1F8
330
1F
100
AcDbEntity
  8
0
  6
Continuous
 62
     7
370
     0
100
AcDbLine
 10
77.9942327412
 20
187.9701001727
 30
0.0
 11
80.9942327672
 21
187.9701001727
 31
0.0
  0
LINE
  5
1F9
330
1F
100
AcDbEntity
  8
0
  6
Continuous
 62
     7
370
     0
100
AcDbLine
 10
80.9942327672
 20
187.9701001727
 30
0.0
 11
80.9942327672
 21
184.613252348
 31
0.0
  0
LINE
  5
1FA
330
1F
100
AcDbEntity
  8
0
  6
Continuous
 62
     7
370
     0
100
AcDbLine
 10
80.9942327672
 20
184.3253483222
 30
0.0
 11
80.9942327672
 21
182.5401000371
 31
0.0
  0
LINE
  5
1FB
330
1F
100
AcDbEntity
  8
0
  6
Continuous
 62
     7
370
     0
100
AcDbLine
 10
80.9942327672
 20
181.6001000972
 30
0.0
 11
80.9942327672
 21
180.9700999567
 31
0.0
  0
LINE
  5
1FC
330
1F
100
AcDbEntity
  8
0
  6
Continuous
 62
     7
370
     0
100
AcDbLine
 10
74.9842326389
 20
180.9700999567
 30
0.0
 11
77.984232665
 21
180.9700999567
 31
0.0
  0
LINE
  5
1FD
330
1F
100
AcDbEntity
  8
0
  6
Continuous
 62
     7
370
     0
100
AcDbLine
 10
74.9842326389
 20
187.9701001727
 30
0.0
 11
74.9842326389
 21
184.6217161784
 31
0.0
  0
LINE
  5
1FE
330
1F
100
AcDbEntity
  8
0
  6
Continuous
 62
     7
370
     0
100
AcDbLine
 10
74.9842326389
 20
184.3344307983
 30
0.0
 11
74.9842326389
 21
180.9700999567
 31
0.0
  0
LINE
  5
1FF
330
1F
100
AcDbEntity
  8
0
  6
Continuous
 62
     7
370
     0
100
AcDbLine
 10
74.9842326389
 20
187.9701001727
 30
0.0
 11
77.984232665
 21
187.9701001727
 31
0.0
  0
LINE
  5
200
330
1F
100
AcDbEntity
  8
0
  6
Continuous
 62
     7
370
     0
100
AcDbLine
 10
77.984232665
 20
187.9701001727
 30
0.0
 11
77.984232665
 21
184.6217161784
 31
0.0
  0
LINE
  5
201
330
1F
100
AcDbEntity
  8
0
  6
Continuous
 62
     7
370
     0
100
AcDbLine
 10
77.984232665
 20
184.3344307983
 30
0.0
 11
77.984232665
 21
180.9700999567
 31
0.0
  0
LINE
  5
202
330
1F
100
AcDbEntity
  8
0
  6
Continuous
 62
     7
370
     0
100
AcDbLine
 10
71.9742330024
 20
180.9700999567
 30
0.0
 11
74.9742325628
 21
180.9700999567
 31
0.0
  0
LINE
  5
203
330
1F
100
AcDbEntity
  8
0
  6
Continuous
 62
     7
370
     0
100
AcDbLine
 10
71.9742330024
 20
187.9701001727
 30
0.0
 11
71.9742330024
 21
184.6057693312
 31
0.0
  0
LINE
  5
204
330
1F
100
AcDbEntity
  8
0
  6
Continuous
 62
     7
370
     0
100
AcDbLine
 10
71.9742330024
 20
184.318483951
 30
0.0
 11
71.9742330024
 21
180.9700999567
 31
0.0
  0
LINE
  5
205
330
1F
100
AcDbEntity
  8
0
  6
Continuous
 62
     7
370
     0
100
AcDbLine
 10
71.9742330024
 20
187.9701001727
 30
0.0
 11
74.9742325628
 21
187.9701001727
 31
0.0
  0
LINE
  5
206
330
1F
100
AcDbEntity
  8
0
  6
Continuous
 62
     7
370
     0
100
AcDbLine
 10
74.9742325628
 20
187.9701001727
 30
0.0
 11
74.9742325628
 21
184.6057693312
 31
0.0
  0
LINE
  5
207
330
1F
100
AcDbEntity
  8
0
  6
Continuous
 62
     7
370
     0
100
AcDbLine
 10
74.9742325628
 20
184.318483951
 30
0.0
 11
74.9742325628
 21
180.9700999567
 31
0.0
  0
LINE
  5
208
330
1F
100
AcDbEntity
  8
0
  6
Continuous
 62
     7
370
     0
100
AcDbLine
 10
68.9642329001
 20
180.9700999567
 30
0.0
 11
71.9642324606
 21
180.9700999567
 31
0.0
  0
LINE
  5
209
330
1F
100
AcDbEntity
  8
0
  6
Continuous
 62
     7
370
     0
100
AcDbLine
 10
68.9642329001
 20
187.9701001727
 30
0.0
 11
68.9642329001
 21
184.1564020998
 31
0.0
  0
LINE
  5
20A
330
1F
100
AcDbEntity
  8
0
  6
Continuous
 62
     7
370
     0
100
AcDbLine
 10
68.9642329001
 20
183.8261010982
 30
0.0
 11
68.9642329001
 21
180.9700999567
 31
0.0
  0
LINE
  5
20B
330
1F
100
AcDbEntity
  8
0
  6
Continuous
 62
     7
370
     0
100
AcDbLine
 10
68.9642329001
 20
187.9701001727
 30
0.0
 11
71.9642324606
 21
187.9701001727
 31
0.0
  0
LINE
  5
20C
330
1F
100
AcDbEntity
  8
0
  6
Continuous
 62
     7
370
     0
100
AcDbLine
 10
71.9642324606
 20
187.9701001727
 30
0.0
 11
71.9642324606
 21
184.6217161784
 31
0.0
  0
LINE
  5
20D
330
1F
100
AcDbEntity
  8
0
  6
Continuous
 62
     7
370
     0
100
AcDbLine
 10
71.9642324606
 20
184.3344307983
 30
0.0
 11
71.9642324606
 21
180.9700999567
 31
0.0
  0
LINE
  5
20E
330
1F
100
AcDbEntity
  8
0
  6
Continuous
 62
     7
370
     0
100
AcDbLine
 10
66.9632323319
 20
180.9700999567
 30
0.0
 11
68.9632326597
 21
180.9700999567
 31
0.0
  0
LINE
  5
20F
330
1F
100
AcDbEntity
  8
0
  6
Continuous
 62
     7
370
     0
100
AcDbLine
 10
66.9632323319
 20
187.9701001727
 30
0.0
 11
66.9632323319
 21
180.9700999567
 31
0.0
  0
LINE
  5
210
330
1F
100
AcDbEntity
  8
0
  6
Continuous
 62
     7
370
     0
100
AcDbLine
 10
66.9632323319
 20
187.9701001727
 30
0.0
 11
68.9632326597
 21
187.9701001727
 31
0.0
  0
LINE
  5
211
330
1F
100
AcDbEntity
  8
0
  6
Continuous
 62
     7
370
     0
100
AcDbLine
 10
68.9632326597
 20
187.9701001727
 30
0.0
 11
68.9632326597
 21
184.1544828768
 31
0.0
  0
LINE
  5
212
330
1F
100
AcDbEntity
  8
0
  6
Continuous
 62
     7
370
     0
100
AcDbLine
 10
68.9632326597
 20
183.8241818752
 30
0.0
 11
68.9632326597
 21
180.9700999567
 31
0.0
  0
LINE
  5
213
330
1F
100
AcDbEntity
  8
0
  6
Continuous
 62
     7
370
     0
100
AcDbLine
 10
66.9622330228
 20
187.9701001727
 30
0.0
 11
66.9622330228
 21
180.9700999567
 31
0.0
  0
LINE
  5
214
330
1F
100
AcDbEntity
  8
0
  6
Continuous
 62
     7
370
     0
100
AcDbLine
 10
84.5962327206
 20
180.9700999567
 30
0.0
 11
83.9962328085
 21
180.9700999567
 31
0.0
  0
LINE
  5
215
330
1F
100
AcDbEntity
  8
0
  6
Continuous
 62
     7
370
     0
100
AcDbLine
 10
83.9962328085
 20
187.9701001727
 30
0.0
 11
83.9962328085
 21
182.5401000371
 31
0.0
  0
LINE
  5
216
330
1F
100
AcDbEntity
  8
0
  6
Continuous
 62
     7
370
     0
100
AcDbLine
 10
83.9962328085
 20
181.6001000972
 30
0.0
 11
83.9962328085
 21
180.9700999567
 31
0.0
  0
LINE
  5
217
330
1F
100
AcDbEntity
  8
0
  6
Continuous
 62
     7
370
     0
100
AcDbLine
 10
84.5962327206
 20
187.9701001727
 30
0.0
 11
84.5962327206
 21
182.5401000371
 31
0.0
  0
LINE
  5
218
330
1F
100
AcDbEntity
  8
0
  6
Continuous
 62
     7
370
     0
100
AcDbLine
 10
84.5962327206
 20
181.6001000972
 30
0.0
 11
84.5962327206
 21
180.9700999567
 31
0.0
  0
LINE
  5
219
330
1F
100
AcDbEntity
  8
0
  6
Continuous
 62
     7
370
     0
100
AcDbLine
 10
84.5962327206
 20
187.9701001727
 30
0.0
 11
83.9962328085
 21
187.9701001727
 31
0.0
  0
LWPOLYLINE
  5
21A
330
1F
100
AcDbEntity
  8
0
  6
Continuous
 62
     7
370
     0
100
AcDbPolyline
 90
       14
 70
   128
 43
0.0
 10
84.4143193448
 20
182.5401000371
 10
84.357711696
 20
182.5213000103
 10
84.2930171406
 20
182.4461000198
 10
84.2619992094
 20
182.3791411863
 10
84.2359338188
 20
182.2912764893
 10
84.2183697736
 20
182.1857923334
 10
84.2121490044
 20
182.0700999507
 10
84.2183697736
 20
181.9544078009
 10
84.2359338188
 20
181.8489236449
 10
84.2619992094
 20
181.761058948
 10
84.2930171406
 20
181.6941001145
 10
84.357711696
 20
181.6189000075
 10
84.4143193448
 20
181.6001000972
 10
84.4143193448
 20
181.6001000972
  0
LWPOLYLINE
  5
21B
330
1F
100
AcDbEntity
  8
0
  6
Continuous
 62
     7
370
     0
100
AcDbPolyline
 90
       26
 70
   128
 43
0.0
 10
144.4143198663
 20
182.5401000371
 10
144.3640433484
 20
182.5253341505
 10
144.3169258767
 20
182.481964088
 10
144.2759253317
 20
182.4127153651
 10
144.2436196142
 20
182.3219386553
 10
144.2220427328
 20
182.2153380764
 10
144.2125506932
 20
182.0996117005
 10
144.2157320911
 20
181.9820308284
 10
144.2313932115
 20
181.8699838751
 10
144.2585431272
 20
181.7705107079
 10
144.2954831058
 20
181.6898621311
 10
144.3398960167
 20
181.6331050051
 10
144.3889804417
 20
181.6038060626
 10
144.4396592909
 20
181.6038060626
 10
144.4887437159
 20
181.6331050051
 10
144.5331491762
 20
181.6898621311
 10
144.5700966054
 20
181.7705107079
 10
144.5972465211
 20
181.8699838751
 10
144.6129076415
 20
181.9820308284
 10
144.6160890395
 20
182.0996117005
 10
144.6065969998
 20
182.2153380764
 10
144.5850201184
 20
182.3219386553
 10
144.5527144009
 20
182.4127153651
 10
144.5117138559
 20
182.481964088
 10
144.4645963842
 20
182.5253341505
 10
144.4143198663
 20
182.5401000371
  0
SPLINE
  5
21C
330
1F
100
AcDbEntity
  8
0
  6
Continuous
 62
     7
370
     0
100
AcDbSpline
210
0.0
220
0.0
230
1.0
 70
     8
 71
     3
 72
    16
 73
    12
 74
     0
 42
0.000000001
 43
0.00000001
 40
0.0
 40
0.0
 40
0.0
 40
0.0
 40
0.1100996676014561
 40
0.2201812322729745
 40
0.3308730449610787
 40
0.4425919926335387
 40
0.5552011926912899
 40
0.668095726703375
 40
0.7805019843689966
 40
0.8919107062097306
 40
1.0
 40
1.0
 40
1.0
 40
1.0
 10
79.49423275419214
 20
182.53702015332
 30
0.0
 10
79.44315440881796
 20
182.5259228840085
 30
0.0
 10
79.34100611653014
 20
182.5037301700329
 30
0.0
 10
79.21247867012428
 20
182.4083569932285
 30
0.0
 10
79.12057337383743
 20
182.2789407094211
 30
0.0
 10
79.07620084442512
 20
182.124379045032
 30
0.0
 10
79.08502502837798
 20
181.9630604728915
 30
0.0
 10
79.14687801704531
 20
181.8130337246521
 30
0.0
 10
79.2546899647906
 20
181.6937098358451
 30
0.0
 10
79.39442473240784
 20
181.6143535137479
 30
0.0
 10
79.4982211895249
 20
181.6051709571173
 30
0.0
 10
79.54933457073459
 20
181.6006491118582
 30
0.0
  0
ARC
  5
21D
330
1F
100
AcDbEntity
  8
0
  6
Continuous
 62
     7
370
     0
100
AcDbCircle
 10
82.4952327672
 20
186.8701000647
 30
0.0
 40
0.550000000000015
100
AcDbArc
 50
240.3303803094
 51
235.6416875992
  0
SPLINE
  5
21E
330
1F
100
AcDbEntity
  8
0
  6
Continuous
 62
     7
370
     0
100
AcDbSpline
210
0.0
220
0.0
230
1.0
 70
     8
 71
     3
 72
    23
 73
    19
 74
     0
 42
0.000000001
 43
0.00000001
 40
0.0000000000000027
 40
0.0000000000000027
 40
0.0000000000000027
 40
0.0000000000000027
 40
0.0000136991387907
 40
0.0000136991387907
 40
0.0000136991387907
 40
0.0000216340655808
 40
0.0000216340655808
 40
0.0000216340655808
 40
0.0000296647623606
 40
0.0000296647623606
 40
0.0000296647623606
 40
0.0000367560773712
 40
0.0000367560773712
 40
0.0000367560773712
 40
0.0000484502326727
 40
0.0000484502326727
 40
0.0000484502326727
 40
0.0000524173646955
 40
0.0000524173646955
 40
0.0000524173646955
 40
0.0000524173646955
 10
82.22298385692697
 20
186.3922083083121
 30
0.0
 10
82.22207773930191
 20
186.3965426124661
 30
0.0
 10
82.22069657149231
 20
186.4008966458163
 30
0.0
 10
82.21848877663757
 20
186.4048242725525
 30
0.0
 10
82.21720401674115
 20
186.4071098369509
 30
0.0
 10
82.2156020732508
 20
186.4092823400005
 30
0.0
 10
82.21368752265154
 20
186.4111157851312
 30
0.0
 10
82.21175880890783
 20
186.4129627934179
 30
0.0
 10
82.20944960406794
 20
186.41449763224
 30
0.0
 10
82.2069920617491
 20
186.4155496309451
 30
0.0
 10
82.20480794810786
 20
186.4164845831959
 30
0.0
 10
82.20246354655768
 20
186.4170734066956
 30
0.0
 10
82.2001269984138
 20
186.4173645745011
 30
0.0
 10
82.19629199618883
 20
186.4178424714297
 30
0.0
 10
82.19238137704832
 20
186.4175620788252
 30
0.0
 10
82.18863899901287
 20
186.4168881786291
 30
0.0
 10
82.18735795440907
 20
186.4166574974415
 30
0.0
 10
82.18608792774906
 20
186.4163788422186
 30
0.0
 10
82.18483118506934
 20
186.4160616767029
 30
0.0
  0
ARC
  5
21F
330
1F
100
AcDbEntity
  8
0
  6
Continuous
 62
     7
370
     0
100
AcDbCircle
 10
76.4842327672
 20
186.8701000647
 30
0.0
 40
0.5500000000001766
100
AcDbArc
 50
304.4354855733
 51
235.5645144191
  0
SPLINE
  5
220
330
1F
100
AcDbEntity
  8
0
  6
Continuous
 62
     7
370
     0
100
AcDbSpline
210
0.0
220
0.0
230
1.0
 70
     8
 71
     3
 72
    23
 73
    19
 74
     0
 42
0.000000001
 43
0.00000001
 40
0.0
 40
0.0
 40
0.0
 40
0.0
 40
0.0000136991387911
 40
0.0000136991387911
 40
0.0000136991387911
 40
0.0000216340655816
 40
0.0000216340655816
 40
0.0000216340655816
 40
0.0000296647623619
 40
0.0000296647623619
 40
0.0000296647623619
 40
0.0000367560773728
 40
0.0000367560773728
 40
0.0000367560773728
 40
0.000048450232674
 40
0.000048450232674
 40
0.000048450232674
 40
0.0000524173646982
 40
0.0000524173646982
 40
0.0000524173646982
 40
0.0000524173646982
 10
76.79524562372917
 20
186.4164801763812
 30
0.0
 10
76.79095077686397
 20
186.4175579203466
 30
0.0
 10
76.78643071698654
 20
186.4182169269005
 30
0.0
 10
76.78193324517757
 20
186.4179460815049
 30
0.0
 10
76.77931607655653
 20
186.4177884711628
 30
0.0
 10
76.77666209661425
 20
186.4172961471708
 30
0.0
 10
76.77417660976846
 20
186.4163745289285
 30
0.0
 10
76.77167273620087
 20
186.4154460928917
 30
0.0
 10
76.76928352055945
 20
186.4140390371638
 30
0.0
 10
76.76726388410592
 20
186.4122876708056
 30
0.0
 10
76.76546895447457
 20
186.4107311632637
 30
0.0
 10
76.76391539992684
 20
186.4088792993353
 30
0.0
 10
76.76263304521066
 20
186.4069045076243
 30
0.0
 10
76.76052830227934
 20
186.4036632602207
 30
0.0
 10
76.75907269056381
 20
186.4000228266466
 30
0.0
 10
76.75804455150764
 20
186.3963618889369
 30
0.0
 10
76.75769261165073
 20
186.3951087219786
 30
0.0
 10
76.75738864085186
 20
186.3938445154271
 30
0.0
 10
76.75712511518682
 20
186.3925754408224
 30
0.0
  0
ARC
  5
221
330
1F
100
AcDbEntity
  8
0
  6
Continuous
 62
     7
370
     0
100
AcDbCircle
 10
76.4842327672
 20
186.8701000647
 30
0.0
 40
0.5500000000000098
100
AcDbArc
 50
240.2532071371
 51
299.7467928626
  0
SPLINE
  5
222
330
1F
100
AcDbEntity
  8
0
  6
Continuous
 62
     7
370
     0
100
AcDbSpline
210
0.0
220
0.0
230
1.0
 70
     8
 71
     3
 72
    23
 73
    19
 74
     0
 42
0.000000001
 43
0.00000001
 40
0.0000000000000578
 40
0.0000000000000578
 40
0.0000000000000578
 40
0.0000000000000578
 40
0.0000136991387907
 40
0.0000136991387907
 40
0.0000136991387907
 40
0.0000216340655809
 40
0.0000216340655809
 40
0.0000216340655809
 40
0.0000296647623608
 40
0.0000296647623608
 40
0.0000296647623608
 40
0.0000367560773714
 40
0.0000367560773714
 40
0.0000367560773714
 40
0.0000484502326729
 40
0.0000484502326729
 40
0.0000484502326729
 40
0.0000524173646957
 40
0.0000524173646957
 40
0.0000524173646957
 40
0.0000524173646957
 10
76.21134041920641
 20
186.3925754408586
 30
0.0
 10
76.21044014038884
 20
186.3969109615541
 30
0.0
 10
76.2090648383913
 20
186.401266851285
 30
0.0
 10
76.20686233576058
 20
186.4051974481941
 30
0.0
 10
76.20558065551494
 20
186.4074847409953
 30
0.0
 10
76.20398163967789
 20
186.4096593997731
 30
0.0
 10
76.20206956032968
 20
186.4114954219981
 30
0.0
 10
76.20014333611839
 20
186.4133450264434
 30
0.0
 10
76.19783620068701
 20
186.4148829742005
 30
0.0
 10
76.1953800775615
 20
186.4159382820783
 30
0.0
 10
76.19319722521267
 20
186.4168761753198
 30
0.0
 10
76.19085361889061
 20
186.41746815602
 30
0.0
 10
76.1885174650476
 20
186.417762470718
 30
0.0
 10
76.18468310999305
 20
186.4182455326762
 30
0.0
 10
76.18077211673192
 20
186.4179704076394
 30
0.0
 10
76.17702883439773
 20
186.4173015487597
 30
0.0
 10
76.1757474802455
 20
186.4170725932532
 30
0.0
 10
76.17447707940961
 20
186.4167956489146
 30
0.0
 10
76.17321991067146
 20
186.4164801764255
 30
0.0
  0
ARC
  5
223
330
1F
100
AcDbEntity
  8
0
  6
Continuous
 62
     7
370
     0
100
AcDbCircle
 10
70.4642327672
 20
186.8701000647
 30
0.0
 40
0.5500000000002098
100
AcDbArc
 50
244.8229549927
 51
299.7467928707
  0
SPLINE
  5
224
330
1F
100
AcDbEntity
  8
0
  6
Continuous
 62
     7
370
     0
100
AcDbSpline
210
0.0
220
0.0
230
1.0
 70
     8
 71
     3
 72
    23
 73
    19
 74
     0
 42
0.000000001
 43
0.00000001
 40
0.0000000000000021
 40
0.0000000000000021
 40
0.0000000000000021
 40
0.0000000000000021
 40
0.0000136991388042
 40
0.0000136991388042
 40
0.0000136991388042
 40
0.0000216340656101
 40
0.0000216340656101
 40
0.0000216340656101
 40
0.0000296647624066
 40
0.0000296647624066
 40
0.0000296647624066
 40
0.0000367560774241
 40
0.0000367560774241
 40
0.0000367560774241
 40
0.0000484502327164
 40
0.0000484502327164
 40
0.0000484502327164
 40
0.00005241736476
 40
0.00005241736476
 40
0.00005241736476
 40
0.00005241736476
 10
70.23025355621243
 20
186.3723514044351
 30
0.0
 10
70.22901071704295
 20
186.3766014153155
 30
0.0
 10
70.2272927418376
 20
186.3808338841164
 30
0.0
 10
70.2247840798479
 20
186.3845765068543
 30
0.0
 10
70.22332423935958
 20
186.3867544137337
 30
0.0
 10
70.22155704590979
 20
186.3887947616878
 30
0.0
 10
70.21950476420972
 20
186.390472606998
 30
0.0
 10
70.21743730048082
 20
186.3921628643936
 30
0.0
 10
70.21501496691823
 20
186.3935121076387
 30
0.0
 10
70.21248257246071
 20
186.3943683750353
 30
0.0
 10
70.21023193480889
 20
186.3951293732428
 30
0.0
 10
70.20784861396298
 20
186.3955327508463
 30
0.0
 10
70.20549643773374
 20
186.3956400024605
 30
0.0
 10
70.20163578496668
 20
186.3958160357169
 30
0.0
 10
70.19775914435877
 20
186.3952301862257
 30
0.0
 10
70.19408105134309
 20
186.3942652165064
 30
0.0
 10
70.19282201198534
 20
186.3939348999944
 30
0.0
 10
70.19157771452011
 20
186.3935576198816
 30
0.0
 10
70.19034967672752
 20
186.3931429883314
 30
0.0
  0
ARC
  5
225
330
1F
100
AcDbEntity
  8
0
  6
Continuous
 62
     7
370
     0
100
AcDbCircle
 10
70.4642327672
 20
186.8701000647
 30
0.0
 40
0.5500000000000911
100
AcDbArc
 50
304.4354855812
 51
240.1342622784
  0
SPLINE
  5
226
330
1F
100
AcDbEntity
  8
0
  6
Continuous
 62
     7
370
     0
100
AcDbSpline
210
0.0
220
0.0
230
1.0
 70
     8
 71
     3
 72
    23
 73
    19
 74
     0
 42
0.000000001
 43
0.00000001
 40
0.0
 40
0.0
 40
0.0
 40
0.0
 40
0.0000136991388042
 40
0.0000136991388042
 40
0.0000136991388042
 40
0.0000216340656101
 40
0.0000216340656101
 40
0.0000216340656101
 40
0.0000296647624066
 40
0.0000296647624066
 40
0.0000296647624066
 40
0.0000367560774241
 40
0.0000367560774241
 40
0.0000367560774241
 40
0.0000484502327164
 40
0.0000484502327164
 40
0.0000484502327164
 40
0.0000524173647333
 40
0.0000524173647333
 40
0.0000524173647333
 40
0.0000524173647333
 10
70.77524562379126
 20
186.416480176424
 30
0.0
 10
70.77095077692421
 20
186.4175579203977
 30
0.0
 10
70.76643071703627
 20
186.4182169268971
 30
0.0
 10
70.7619332452229
 20
186.4179460815077
 30
0.0
 10
70.75931607659872
 20
186.4177884711691
 30
0.0
 10
70.75666209665273
 20
186.4172961471807
 30
0.0
 10
70.75417660980268
 20
186.4163745289411
 30
0.0
 10
70.75167273623065
 20
186.4154460929072
 30
0.0
 10
70.74928352058402
 20
186.414039037181
 30
0.0
 10
70.74726388412593
 20
186.4122876708229
 30
0.0
 10
70.74546895449241
 20
186.4107311632828
 30
0.0
 10
70.74391539994235
 20
186.4088792993554
 30
0.0
 10
70.7426330452242
 20
186.4069045076452
 30
0.0
 10
70.74052830229319
 20
186.403663260248
 30
0.0
 10
70.7390726905765
 20
186.4000228266805
 30
0.0
 10
70.73804455151888
 20
186.3963618889769
 30
0.0
 10
70.73769261165948
 20
186.3951087220136
 30
0.0
 10
70.7373886408586
 20
186.393844515457
 30
0.0
 10
70.73712511519196
 20
186.3925754408471
 30
0.0
  0
ARC
  5
227
330
1F
100
AcDbEntity
  8
0
  6
Continuous
 62
     7
370
     0
100
AcDbCircle
 10
73.4742327672
 20
182.0701000647
 30
0.0
 40
0.5500000000000815
100
AcDbArc
 50
60.2532071374
 51
119.7467928667
  0
SPLINE
  5
228
330
1F
100
AcDbEntity
  8
0
  6
Continuous
 62
     7
370
     0
100
AcDbSpline
210
0.0
220
0.0
230
1.0
 70
     8
 71
     3
 72
    23
 73
    19
 74
     0
 42
0.000000001
 43
0.00000001
 40
0.0
 40
0.0
 40
0.0
 40
0.0
 40
0.0000136991388042
 40
0.0000136991388042
 40
0.0000136991388042
 40
0.00002163406561
 40
0.00002163406561
 40
0.00002163406561
 40
0.0000296647624064
 40
0.0000296647624064
 40
0.0000296647624064
 40
0.000036756077424
 40
0.000036756077424
 40
0.000036756077424
 40
0.0000484502327163
 40
0.0000484502327163
 40
0.0000484502327163
 40
0.0000524173647346
 40
0.0000524173647346
 40
0.0000524173647346
 40
0.0000524173647346
 10
73.74712511518777
 20
182.5476246886113
 30
0.0
 10
73.7480253939985
 20
182.5432891679105
 30
0.0
 10
73.74940069605098
 20
182.5389332781941
 30
0.0
 10
73.751603198678
 20
182.5350026812783
 30
0.0
 10
73.75288487892178
 20
182.5327153884726
 30
0.0
 10
73.75448389475714
 20
182.5305407296898
 30
0.0
 10
73.75639597410469
 20
182.5287047074596
 30
0.0
 10
73.7583221983154
 20
182.526855103009
 30
0.0
 10
73.7606293337475
 20
182.5253171552463
 30
0.0
 10
73.7630854568749
 20
182.5242618473642
 30
0.0
 10
73.76526830922309
 20
182.52332395412
 30
0.0
 10
73.76761191554517
 20
182.5227319734171
 30
0.0
 10
73.76994806938846
 20
182.522437658717
 30
0.0
 10
73.77378242443686
 20
182.5219545967562
 30
0.0
 10
73.7776934176925
 20
182.522229721789
 30
0.0
 10
73.78143670002169
 20
182.5228985806646
 30
0.0
 10
73.78271805417947
 20
182.523127536171
 30
0.0
 10
73.78398845502082
 20
182.52340448051
 30
0.0
 10
73.78524562376433
 20
182.5237199529999
 30
0.0
  0
ARC
  5
229
330
1F
100
AcDbEntity
  8
0
  6
Continuous
 62
     7
370
     0
100
AcDbCircle
 10
73.4742327672
 20
182.0701000647
 30
0.0
 40
0.5500000000001766
100
AcDbArc
 50
124.4354855809
 51
55.5645144267
  0
SPLINE
  5
22A
330
1F
100
AcDbEntity
  8
0
  6
Continuous
 62
     7
370
     0
100
AcDbSpline
210
0.0
220
0.0
230
1.0
 70
     8
 71
     3
 72
    23
 73
    19
 74
     0
 42
0.000000001
 43
0.00000001
 40
0.0000000000000021
 40
0.0000000000000021
 40
0.0000000000000021
 40
0.0000000000000021
 40
0.0000136991388042
 40
0.0000136991388042
 40
0.0000136991388042
 40
0.0000216340656101
 40
0.0000216340656101
 40
0.0000216340656101
 40
0.0000296647624065
 40
0.0000296647624065
 40
0.0000296647624065
 40
0.0000367560774241
 40
0.0000367560774241
 40
0.0000367560774241
 40
0.0000484502327164
 40
0.0000484502327164
 40
0.0000484502327164
 40
0.0000524173647594
 40
0.0000524173647594
 40
0.0000524173647594
 40
0.0000524173647594
 10
73.16321991067007
 20
182.5237199530079
 30
0.0
 10
73.16751475753713
 20
182.5226422090341
 30
0.0
 10
73.17203481742506
 20
182.5219832025347
 30
0.0
 10
73.1765322892384
 20
182.5222540479241
 30
0.0
 10
73.1791494578626
 20
182.5224116582627
 30
0.0
 10
73.18180343780857
 20
182.5229039822512
 30
0.0
 10
73.18428892465865
 20
182.5238256004907
 30
0.0
 10
73.18679279823067
 20
182.5247540365246
 30
0.0
 10
73.18918201387731
 20
182.5261610922508
 30
0.0
 10
73.19120165033539
 20
182.5279124586089
 30
0.0
 10
73.1929965799689
 20
182.529468966149
 30
0.0
 10
73.19455013451896
 20
182.5313208300763
 30
0.0
 10
73.1958324892371
 20
182.5332956217866
 30
0.0
 10
73.19793723216813
 20
182.5365368691837
 30
0.0
 10
73.1993928438848
 20
182.5401773027513
 30
0.0
 10
73.20042098294243
 20
182.5438382404549
 30
0.0
 10
73.20077292280178
 20
182.5450914074179
 30
0.0
 10
73.20107689360262
 20
182.5463556139744
 30
0.0
 10
73.20134041926921
 20
182.5476246885841
 30
0.0
  0
ARC
  5
22B
330
1F
100
AcDbEntity
  8
0
  6
Continuous
 62
     7
370
     0
100
AcDbCircle
 10
67.9632327672
 20
182.0701000647
 30
0.0
 40
0.5500000000001766
100
AcDbArc
 50
64.8229549851
 51
60.1342622822
  0
SPLINE
  5
22C
330
1F
100
AcDbEntity
  8
0
  6
Continuous
 62
     7
370
     0
100
AcDbSpline
210
0.0
220
0.0
230
1.0
 70
     8
 71
     3
 72
    23
 73
    19
 74
     0
 42
0.000000001
 43
0.00000001
 40
0.0
 40
0.0
 40
0.0
 40
0.0
 40
0.000013699138791
 40
0.000013699138791
 40
0.000013699138791
 40
0.0000216340655815
 40
0.0000216340655815
 40
0.0000216340655815
 40
0.0000296647623617
 40
0.0000296647623617
 40
0.0000296647623617
 40
0.0000367560773725
 40
0.0000367560773725
 40
0.0000367560773725
 40
0.0000484502326738
 40
0.0000484502326738
 40
0.0000484502326738
 40
0.0000524173646473
 40
0.0000524173646473
 40
0.0000524173646473
 40
0.0000524173646473
 10
68.19721197831754
 20
182.5678487249646
 30
0.0
 10
68.19845481749329
 20
182.56359871409
 30
0.0
 10
68.20017279264603
 20
182.5593662452706
 30
0.0
 10
68.20268145463882
 20
182.5556236225395
 30
0.0
 10
68.2041412951286
 20
182.5534457156648
 30
0.0
 10
68.20590848857965
 20
182.5514053677156
 30
0.0
 10
68.20796077027998
 20
182.5497275224106
 30
0.0
 10
68.21002823400903
 20
182.5480372650202
 30
0.0
 10
68.21245056757047
 20
182.5466880217805
 30
0.0
 10
68.2149829620258
 20
182.5458317543879
 30
0.0
 10
68.21723359967802
 20
182.5450707561832
 30
0.0
 10
68.21961692052372
 20
182.5446673785823
 30
0.0
 10
68.22196909675252
 20
182.5445601269701
 30
0.0
 10
68.22582974952537
 20
182.5443840937168
 30
0.0
 10
68.22970639013836
 20
182.5449699432123
 30
0.0
 10
68.23338448315863
 20
182.545934912936
 30
0.0
 10
68.2346435225108
 20
182.5462652294476
 30
0.0
 10
68.23588781997056
 20
182.5466425095596
 30
0.0
 10
68.23711585775783
 20
182.5470571411085
 30
0.0
  0
ARC
  5
22D
330
1F
100
AcDbEntity
  8
0
  6
Continuous
 62
     7
370
     0
100
AcDbCircle
 10
79.4942327672
 20
182.0701000647
 30
0.0
 40
0.5500000000000814
100
AcDbArc
 50
60.3303803175
 51
119.7467928663
  0
ARC
  5
22E
330
1F
100
AcDbEntity
  8
0
  6
Continuous
 62
     7
370
     0
100
AcDbCircle
 10
79.4942327672
 20
182.0701000647
 30
0.0
 40
0.5500000000000199
100
AcDbArc
 50
124.4354855809
 51
299.3978395794
  0
SPLINE
  5
22F
330
1F
100
AcDbEntity
  8
0
  6
Continuous
 62
     7
370
     0
100
AcDbSpline
210
0.0
220
0.0
230
1.0
 70
     8
 71
     3
 72
    23
 73
    19
 74
     0
 42
0.000000001
 43
0.00000001
 40
0.0000000000000022
 40
0.0000000000000022
 40
0.0000000000000022
 40
0.0000000000000022
 40
0.0000136991388042
 40
0.0000136991388042
 40
0.0000136991388042
 40
0.0000216340656101
 40
0.0000216340656101
 40
0.0000216340656101
 40
0.0000296647624066
 40
0.0000296647624066
 40
0.0000296647624066
 40
0.0000367560774241
 40
0.0000367560774241
 40
0.0000367560774241
 40
0.0000484502327164
 40
0.0000484502327164
 40
0.0000484502327164
 40
0.0000524173647619
 40
0.0000524173647619
 40
0.0000524173647619
 40
0.0000524173647619
 10
79.18321991067
 20
182.5237199530078
 30
0.0
 10
79.18751475753707
 20
182.5226422090341
 30
0.0
 10
79.19203481742501
 20
182.5219832025347
 30
0.0
 10
79.19653228923836
 20
182.5222540479241
 30
0.0
 10
79.19914945786256
 20
182.5224116582627
 30
0.0
 10
79.20180343780855
 20
182.5229039822511
 30
0.0
 10
79.20428892465861
 20
182.5238256004907
 30
0.0
 10
79.20679279823065
 20
182.5247540365246
 30
0.0
 10
79.20918201387728
 20
182.5261610922508
 30
0.0
 10
79.21120165033538
 20
182.5279124586089
 30
0.0
 10
79.21299657996889
 20
182.5294689661489
 30
0.0
 10
79.21455013451894
 20
182.5313208300763
 30
0.0
 10
79.21583248923712
 20
182.5332956217866
 30
0.0
 10
79.21793723216811
 20
182.5365368691837
 30
0.0
 10
79.21939284388479
 20
182.5401773027512
 30
0.0
 10
79.22042098294243
 20
182.5438382404548
 30
0.0
 10
79.220772922802
 20
182.5450914074187
 30
0.0
 10
79.22107689360297
 20
182.5463556139759
 30
0.0
 10
79.22134041926971
 20
182.5476246885864
 30
0.0
  0
LINE
  5
230
330
1F
100
AcDbEntity
  8
0
  6
Continuous
 62
     7
370
     0
100
AcDbLine
 10
80.9942327672
 20
184.613252348
 30
0.0
 11
79.7182752052
 21
182.5724005159
 31
0.0
  0
LINE
  5
231
330
1F
100
AcDbEntity
  8
0
  6
Continuous
 62
     7
370
     0
100
AcDbLine
 10
79.8780807294
 20
182.5401000371
 30
0.0
 11
80.9942327672
 21
184.3253483222
 31
0.0
  0
LINE
  5
232
330
1F
100
AcDbEntity
  8
0
  6
Continuous
 62
     7
370
     0
100
AcDbLine
 10
82.2711903369
 20
186.3677996136
 30
0.0
 11
80.9952327672
 21
184.3269477814
 31
0.0
  0
LINE
  5
233
330
1F
100
AcDbEntity
  8
0
  6
Continuous
 62
     7
370
     0
100
AcDbLine
 10
80.9952327672
 20
184.6148518072
 30
0.0
 11
82.1417767787
 21
186.4487109398
 31
0.0
  0
LINE
  5
234
330
1F
100
AcDbEntity
  8
0
  6
Continuous
 62
     7
370
     0
100
AcDbLine
 10
77.9942327412
 20
184.318483951
 30
0.0
 11
79.1402094531
 21
182.4910128181
 31
0.0
  0
LINE
  5
235
330
1F
100
AcDbEntity
  8
0
  6
Continuous
 62
     7
370
     0
100
AcDbLine
 10
79.2695143958
 20
182.5720977196
 30
0.0
 11
77.9942327412
 21
184.6057693312
 31
0.0
  0
LINE
  5
236
330
1F
100
AcDbEntity
  8
0
  6
Continuous
 62
     7
370
     0
100
AcDbLine
 10
76.8382565351
 20
186.4491868456
 30
0.0
 11
77.984232665
 21
184.6217161784
 31
0.0
  0
LINE
  5
237
330
1F
100
AcDbEntity
  8
0
  6
Continuous
 62
     7
370
     0
100
AcDbLine
 10
77.984232665
 20
184.3344307983
 30
0.0
 11
76.7089517088
 21
186.3681018278
 31
0.0
  0
LINE
  5
238
330
1F
100
AcDbEntity
  8
0
  6
Continuous
 62
     7
370
     0
100
AcDbLine
 10
76.2595140608
 20
186.3681018278
 30
0.0
 11
74.9842326389
 21
184.3344307983
 31
0.0
  0
LINE
  5
239
330
1F
100
AcDbEntity
  8
0
  6
Continuous
 62
     7
370
     0
100
AcDbLine
 10
74.9842326389
 20
184.6217161784
 30
0.0
 11
76.1302092345
 21
186.4491868456
 31
0.0
  0
LINE
  5
23A
330
1F
100
AcDbEntity
  8
0
  6
Continuous
 62
     7
370
     0
100
AcDbLine
 10
73.6989516066
 20
182.5720983017
 30
0.0
 11
74.9742325628
 21
184.6057693312
 31
0.0
  0
LINE
  5
23B
330
1F
100
AcDbEntity
  8
0
  6
Continuous
 62
     7
370
     0
100
AcDbLine
 10
74.9742325628
 20
184.318483951
 30
0.0
 11
73.8282564329
 21
182.4910132838
 31
0.0
  0
LINE
  5
23C
330
1F
100
AcDbEntity
  8
0
  6
Continuous
 62
     7
370
     0
100
AcDbLine
 10
73.120209598
 20
182.4910132838
 30
0.0
 11
71.9742330024
 21
184.318483951
 31
0.0
  0
LINE
  5
23D
330
1F
100
AcDbEntity
  8
0
  6
Continuous
 62
     7
370
     0
100
AcDbLine
 10
71.9742330024
 20
184.6057693312
 30
0.0
 11
73.2495139585
 21
182.5720983017
 31
0.0
  0
LINE
  5
23E
330
1F
100
AcDbEntity
  8
0
  6
Continuous
 62
     7
370
     0
100
AcDbLine
 10
70.8182567963
 20
186.4491868456
 30
0.0
 11
71.9642324606
 21
184.6217161784
 31
0.0
  0
LINE
  5
23F
330
1F
100
AcDbEntity
  8
0
  6
Continuous
 62
     7
370
     0
100
AcDbLine
 10
71.9642324606
 20
184.3344307983
 30
0.0
 11
70.68895197
 21
186.3681018278
 31
0.0
  0
LINE
  5
240
330
1F
100
AcDbEntity
  8
0
  6
Continuous
 62
     7
370
     0
100
AcDbLine
 10
68.1472413474
 20
182.588406342
 30
0.0
 11
68.9632326597
 21
184.1544828768
 31
0.0
  0
LINE
  5
241
330
1F
100
AcDbEntity
  8
0
  6
Continuous
 62
     7
370
     0
100
AcDbLine
 10
68.9632326597
 20
183.8241818752
 30
0.0
 11
68.2825951138
 21
182.5178806595
 31
0.0
  0
LINE
  5
242
330
1F
100
AcDbEntity
  8
0
  6
Continuous
 62
     7
370
     0
100
AcDbLine
 10
70.2802242944
 20
186.3517937874
 30
0.0
 11
68.9642329001
 21
183.8261010982
 31
0.0
  0
LINE
  5
243
330
1F
100
AcDbEntity
  8
0
  6
Continuous
 62
     7
370
     0
100
AcDbLine
 10
68.9642329001
 20
184.1564020998
 30
0.0
 11
70.1448695967
 21
186.4223188879
 31
0.0
  0
LINE
  5
244
330
1F
100
AcDbEntity
  8
0
  6
CENTERX2
 62
     7
370
     0
100
AcDbLine
 10
69.2153663249
 20
184.4701000647
 30
0.0
 11
69.4939329101
 21
184.4701000647
 31
0.0
  0
DIMENSION
  5
245
330
1F
100
AcDbEntity
  8
0
  6
Continuous
 62
     7
370
     0
100
AcDbDimension
  2
_D_2
 10
66.9622327672
 20
184.4701000647
 30
0.0
 11
51.0377350558
 21
188.7828720003
 31
0.0
 70
   164
  1
<>
 71
     1
 42
-1.0
  3
SLDDIMSTYLE2
100
AcDbRadialDimension
 15
64.0246479637
 25
186.3728863171
 35
0.0
 40
0.0
  0
LINE
  5
255
330
1F
100
AcDbEntity
  8
0
  6
Continuous
 62
     7
370
     0
100
AcDbLine
 10
84.8375627954
 20
90.8569401555
 30
0.0
 11
144.837563317
 21
90.8569401555
 31
0.0
  0
LINE
  5
256
330
1F
100
AcDbEntity
  8
0
  6
Continuous
 62
     7
370
     0
100
AcDbLine
 10
144.837563317
 20
91.7969400954
 30
0.0
 11
84.8375627954
 21
91.7969400954
 31
0.0
  0
SPLINE
  5
257
330
1F
100
AcDbEntity
  8
0
  6
Continuous
 62
     7
370
     0
100
AcDbSpline
210
0.0
220
0.0
230
1.0
 70
    24
 71
     3
 72
    22
 73
    18
 74
     0
 42
0.000000001
 43
0.00000001
 40
0.0
 40
0.0
 40
0.0
 40
0.0
 40
0.0838682129537688
 40
0.1645571744364109
 40
0.2348134928037279
 40
0.2956879427637578
 40
0.3479978230867877
 40
0.392354731793275
 40
0.4291967830130174
 40
0.4612904241638772
 40
0.5142105347629801
 40
0.5806104416014573
 40
0.6607705991335107
 40
0.7305228323690361
 40
0.8094056542563968
 40
0.8986621773830781
 40
0.9999999999999999
 40
0.9999999999999999
 40
0.9999999999999999
 40
0.9999999999999999
 10
79.97248104742683
 20
90.85694015554176
 30
0.0
 10
80.05140694017285
 20
90.85694015554176
 30
0.0
 10
80.20626682620993
 20
90.85694015554176
 30
0.0
 10
80.46367079300293
 20
90.85694015554176
 30
0.0
 10
80.7182694284737
 20
90.85694015554176
 30
0.0
 10
80.95865863074698
 20
90.85694015554176
 30
0.0
 10
81.17983209305247
 20
90.85694015554176
 30
0.0
 10
81.37809784659767
 20
90.85694015554176
 30
0.0
 10
81.55398643420106
 20
90.85694015554176
 30
0.0
 10
81.75002156221659
 20
90.85694015554176
 30
0.0
 10
82.00391609202693
 20
90.85694015554176
 30
0.0
 10
82.35627299410162
 20
90.85694015554176
 30
0.0
 10
82.75951757883463
 20
90.85694015554176
 30
0.0
 10
83.204092964314
 20
90.85694015554176
 30
0.0
 10
83.68066869018273
 20
90.85694015554176
 30
0.0
 10
84.23243459214449
 20
90.85694015554176
 30
0.0
 10
84.627505867236
 20
90.85694015554176
 30
0.0
 10
84.83756279542065
 20
90.85694015554176
 30
0.0
  0
SPLINE
  5
258
330
1F
100
AcDbEntity
  8
0
  6
Continuous
 62
     7
370
     0
100
AcDbSpline
210
0.0
220
0.0
230
1.0
 70
    24
 71
     3
 72
    22
 73
    18
 74
     0
 42
0.000000001
 43
0.00000001
 40
0.0
 40
0.0
 40
0.0
 40
0.0
 40
0.0877782302211329
 40
0.1644297973500905
 40
0.231226071604184
 40
0.2890850382518493
 40
0.3386224186235751
 40
0.3802122944196508
 40
0.4140503000725428
 40
0.4467984463179702
 40
0.5016020142585788
 40
0.5696947931438955
 40
0.6521554459660449
 40
0.7245025241709906
 40
0.8070293325586403
 40
0.9011445350848452
 40
1.0
 40
1.0
 40
1.0
 40
1.0
 10
84.83756279542065
 20
91.79694009541558
 30
0.0
 10
84.65562944138674
 20
91.79694009541558
 30
0.0
 10
84.31482438687999
 20
91.79694009541558
 30
0.0
 10
83.83999219844236
 20
91.79694009541558
 30
0.0
 10
83.43298658893403
 20
91.79694009541558
 30
0.0
 10
83.08808260535969
 20
91.79694009541558
 30
0.0
 10
82.80012005913497
 20
91.79694009541558
 30
0.0
 10
82.56461141250811
 20
91.79694009541558
 30
0.0
 10
82.36564492860629
 20
91.79694009541558
 30
0.0
 10
82.14766081090266
 20
91.79694009541558
 30
0.0
 10
81.87766037538141
 20
91.79694009541558
 30
0.0
 10
81.5407376051142
 20
91.79694009541558
 30
0.0
 10
81.20251465291403
 20
91.79694009541558
 30
0.0
 10
80.87319720224733
 20
91.79694009541558
 30
0.0
 10
80.5602357936459
 20
91.79694009541558
 30
0.0
 10
80.24908284323676
 20
91.79694009541558
 30
0.0
 10
80.06640893259001
 20
91.79694009541558
 30
0.0
 10
79.97282831433184
 20
91.79694009541558
 30
0.0
  0
LINE
  5
259
330
1F
100
AcDbEntity
  8
0
  6
Continuous
 62
     7
370
     0
100
AcDbLine
 10
72.3974606205
 20
89.0785308194
 30
0.0
 11
72.3874917437
 21
89.0626348166
 31
0.0
  0
LINE
  5
25A
330
1F
100
AcDbEntity
  8
0
  6
Continuous
 62
     7
370
     0
100
AcDbLine
 10
72.3874917437
 20
88.7753494364
 30
0.0
 11
72.3974606205
 21
88.7912454392
 31
0.0
  0
LWPOLYLINE
  5
25B
330
1F
100
AcDbEntity
  8
0
  6
Continuous
 62
     7
370
     0
100
AcDbPolyline
 90
        3
 70
   128
 43
0.0
 10
78.4174603593
 20
89.0785308194
 10
78.4125040934
 20
89.0706274123
 10
78.407492181
 20
89.0626348166
  0
LINE
  5
25C
330
1F
100
AcDbEntity
  8
0
  6
Continuous
 62
     7
370
     0
100
AcDbLine
 10
78.407492181
 20
88.7753494364
 30
0.0
 11
78.4174603593
 21
88.7912454392
 31
0.0
  0
ARC
  5
25D
330
1F
100
AcDbEntity
  8
0
  6
Continuous
 62
     7
370
     0
100
AcDbCircle
 10
67.3854762179
 20
88.9269401279
 30
0.0
 40
3.500000000000014
100
AcDbArc
 50
90.0
 51
270.0
  0
LWPOLYLINE
  5
25E
330
1F
100
AcDbEntity
  8
0
  6
Continuous
 62
     7
370
     0
100
AcDbPolyline
 90
       13
 70
   128
 43
0.0
 10
84.8375627954
 20
90.8569401555
 10
84.7787944783
 20
90.8757401823
 10
84.7116307539
 20
90.9509401728
 10
84.6794288789
 20
91.0178990063
 10
84.652368603
 20
91.1057637033
 10
84.6341340054
 20
91.2112478592
 10
84.6276759819
 20
91.3269402419
 10
84.6341340054
 20
91.4426323917
 10
84.652368603
 20
91.5481165477
 10
84.6794288789
 20
91.6359812447
 10
84.7116307539
 20
91.7029400781
 10
84.7787944783
 20
91.7781401851
 10
84.8375627954
 20
91.7969400954
  0
LWPOLYLINE
  5
25F
330
1F
100
AcDbEntity
  8
0
  6
Continuous
 62
     7
370
     0
100
AcDbPolyline
 90
       26
 70
   128
 43
0.0
 10
144.837563317
 20
90.8569401555
 10
144.7872867991
 20
90.8717060421
 10
144.7401693274
 20
90.9150761046
 10
144.6991687824
 20
90.9843248275
 10
144.6668630649
 20
91.0751015373
 10
144.6452861835
 20
91.1817021162
 10
144.6357941438
 20
91.2974284921
 10
144.6389755417
 20
91.4150093642
 10
144.6546366621
 20
91.5270563175
 10
144.6817865778
 20
91.6265294847
 10
144.7187265564
 20
91.7071780615
 10
144.7631394674
 20
91.7639351875
 10
144.8122238924
 20
91.7932341301
 10
144.8629027416
 20
91.7932341301
 10
144.9119871665
 20
91.7639351875
 10
144.9563926269
 20
91.7071780615
 10
144.9933400561
 20
91.6265294847
 10
145.0204899718
 20
91.5270563175
 10
145.0361510922
 20
91.4150093642
 10
145.0393324901
 20
91.2974284921
 10
145.0298404504
 20
91.1817021162
 10
145.008263569
 20
91.0751015373
 10
144.9759578515
 20
90.9843248275
 10
144.9349573065
 20
90.9150761046
 10
144.8878398348
 20
90.8717060421
 10
144.837563317
 20
90.8569401555
  0
SPLINE
  5
260
330
1F
100
AcDbEntity
  8
0
  6
Continuous
 62
     7
370
     0
100
AcDbSpline
210
0.0
220
0.0
230
1.0
 70
     8
 71
     3
 72
    17
 73
    13
 74
     0
 42
0.000000001
 43
0.00000001
 40
0.0
 40
0.0
 40
0.0
 40
0.0
 40
0.0375356034923516
 40
0.1434776489501642
 40
0.2494022750872089
 40
0.3559141048418676
 40
0.4634142825504714
 40
0.5717710946225216
 40
0.6804024657683571
 40
0.7885639990298469
 40
0.8957656657630508
 40
1.0
 40
1.0
 40
1.0
 40
1.0
 10
79.97250642596698
 20
90.85945426083194
 30
0.0
 10
79.95412728120424
 20
90.85909947117416
 30
0.0
 10
79.88387407531641
 20
90.85774330845844
 30
0.0
 10
79.76447832723615
 20
90.8967882635123
 30
0.0
 10
79.63566047183127
 20
90.98774582046383
 30
0.0
 10
79.54383354416628
 20
91.1183537892998
 30
0.0
 10
79.49943977426938
 20
91.27259207703433
 30
0.0
 10
79.50826963678246
 20
91.43399857712826
 30
0.0
 10
79.57012138746424
 20
91.58400056419944
 30
0.0
 10
79.67793258984709
 20
91.70333513273368
 30
0.0
 10
79.81777070112217
 20
91.78273004573727
 30
0.0
 10
79.9216805388232
 20
91.7919152961901
 30
0.0
 10
79.97290631259746
 20
91.79644346765267
 30
0.0
  0
ARC
  5
261
330
1F
100
AcDbEntity
  8
0
  6
Continuous
 62
     7
370
     0
100
AcDbCircle
 10
70.8874762179
 20
86.5269401279
 30
0.0
 40
0.5500000000000911
100
AcDbArc
 50
119.8657377216
 51
55.5645144188
  0
SPLINE
  5
262
330
1F
100
AcDbEntity
  8
0
  6
Continuous
 62
     7
370
     0
100
AcDbSpline
210
0.0
220
0.0
230
1.0
 70
     8
 71
     3
 72
    23
 73
    19
 74
     0
 42
0.000000001
 43
0.00000001
 40
0.0000000000000021
 40
0.0000000000000021
 40
0.0000000000000021
 40
0.0000000000000021
 40
0.0000136991388042
 40
0.0000136991388042
 40
0.0000136991388042
 40
0.0000216340656101
 40
0.0000216340656101
 40
0.0000216340656101
 40
0.0000296647624066
 40
0.0000296647624066
 40
0.0000296647624066
 40
0.0000367560774241
 40
0.0000367560774241
 40
0.0000367560774241
 40
0.0000484502327164
 40
0.0000484502327164
 40
0.0000484502327164
 40
0.00005241736476
 40
0.00005241736476
 40
0.00005241736476
 40
0.00005241736476
 10
70.65349700686774
 20
87.02468878818085
 30
0.0
 10
70.65225416769827
 20
87.02043877730048
 30
0.0
 10
70.65053619249292
 20
87.01620630849958
 30
0.0
 10
70.64802753050321
 20
87.01246368576167
 30
0.0
 10
70.6465676900149
 20
87.01028577888236
 30
0.0
 10
70.64480049656511
 20
87.00824543092814
 30
0.0
 10
70.64274821486505
 20
87.00656758561797
 30
0.0
 10
70.64068075113613
 20
87.00487732822236
 30
0.0
 10
70.63825841757357
 20
87.00352808497725
 30
0.0
 10
70.63572602311605
 20
87.00267181758065
 30
0.0
 10
70.63347538546422
 20
87.00191081937317
 30
0.0
 10
70.6310920646183
 20
87.00150744176972
 30
0.0
 10
70.62873988838905
 20
87.00140019015551
 30
0.0
 10
70.62487923562202
 20
87.00122415689913
 30
0.0
 10
70.6210025950141
 20
87.00181000639026
 30
0.0
 10
70.6173245019984
 20
87.00277497610963
 30
0.0
 10
70.61606546264065
 20
87.00310529262161
 30
0.0
 10
70.61482116517543
 20
87.00348257273444
 30
0.0
 10
70.61359312738283
 20
87.00389720428458
 30
0.0
  0
ARC
  5
263
330
1F
100
AcDbEntity
  8
0
  6
Continuous
 62
     7
370
     0
100
AcDbCircle
 10
70.8874762179
 20
86.5269401279
 30
0.0
 40
0.550000000000185
100
AcDbArc
 50
60.2532071293
 51
115.1770450073
  0
SPLINE
  5
264
330
1F
100
AcDbEntity
  8
0
  6
Continuous
 62
     7
370
     0
100
AcDbSpline
210
0.0
220
0.0
230
1.0
 70
     8
 71
     3
 72
    23
 73
    19
 74
     0
 42
0.000000001
 43
0.00000001
 40
0.0
 40
0.0
 40
0.0
 40
0.0
 40
0.0000136991388042
 40
0.0000136991388042
 40
0.0000136991388042
 40
0.0000216340656101
 40
0.0000216340656101
 40
0.0000216340656101
 40
0.0000296647624066
 40
0.0000296647624066
 40
0.0000296647624066
 40
0.0000367560774241
 40
0.0000367560774241
 40
0.0000367560774241
 40
0.0000484502327164
 40
0.0000484502327164
 40
0.0000484502327164
 40
0.0000524173647333
 40
0.0000524173647333
 40
0.0000524173647333
 40
0.0000524173647333
 10
71.1984890744466
 20
86.98056001619206
 30
0.0
 10
71.19419422757953
 20
86.97948227221833
 30
0.0
 10
71.18967416769159
 20
86.97882326571887
 30
0.0
 10
71.18517669587823
 20
86.97909411110834
 30
0.0
 10
71.18255952725406
 20
86.97925172144693
 30
0.0
 10
71.17990554730808
 20
86.97974404543535
 30
0.0
 10
71.177420060458
 20
86.98066566367488
 30
0.0
 10
71.17491618688598
 20
86.98159409970879
 30
0.0
 10
71.17252697123932
 20
86.98300115543503
 30
0.0
 10
71.17050733478125
 20
86.98475252179308
 30
0.0
 10
71.16871240514773
 20
86.98630902933316
 30
0.0
 10
71.16715885059769
 20
86.98816089326053
 30
0.0
 10
71.16587649587952
 20
86.99013568497082
 30
0.0
 10
71.16377175294852
 20
86.99337693236795
 30
0.0
 10
71.16231614123184
 20
86.99701736593546
 30
0.0
 10
71.1612880021742
 20
87.00067830363906
 30
0.0
 10
71.1609360623148
 20
87.00193147060237
 30
0.0
 10
71.16063209151392
 20
87.003195677159
 30
0.0
 10
71.16036856584729
 20
87.00446475176892
 30
0.0
  0
ARC
  5
265
330
1F
100
AcDbEntity
  8
0
  6
Continuous
 62
     7
370
     0
100
AcDbCircle
 10
68.3864762179
 20
91.3269401279
 30
0.0
 40
0.5500000000001954
100
AcDbArc
 50
299.8657377178
 51
295.1770450149
  0
SPLINE
  5
266
330
1F
100
AcDbEntity
  8
0
  6
Continuous
 62
     7
370
     0
100
AcDbSpline
210
0.0
220
0.0
230
1.0
 70
     8
 71
     3
 72
    23
 73
    19
 74
     0
 42
0.000000001
 43
0.00000001
 40
0.0
 40
0.0
 40
0.0
 40
0.0
 40
0.000013699138791
 40
0.000013699138791
 40
0.000013699138791
 40
0.0000216340655815
 40
0.0000216340655815
 40
0.0000216340655815
 40
0.0000296647623617
 40
0.0000296647623617
 40
0.0000296647623617
 40
0.0000367560773725
 40
0.0000367560773725
 40
0.0000367560773725
 40
0.0000484502326738
 40
0.0000484502326738
 40
0.0000484502326738
 40
0.0000524173646473
 40
0.0000524173646473
 40
0.0000524173646473
 40
0.0000524173646473
 10
68.62045542897287
 20
90.82919146765141
 30
0.0
 10
68.6216982681486
 20
90.83344147852597
 30
0.0
 10
68.62341624330135
 20
90.83767394734545
 30
0.0
 10
68.62592490529416
 20
90.84141657007643
 30
0.0
 10
68.62738474578391
 20
90.84359447695122
 30
0.0
 10
68.62915193923499
 20
90.8456348249004
 30
0.0
 10
68.6312042209353
 20
90.84731267020543
 30
0.0
 10
68.63327168466435
 20
90.8490029275958
 30
0.0
 10
68.63569401822579
 20
90.85035217083549
 30
0.0
 10
68.63822641268112
 20
90.85120843822808
 30
0.0
 10
68.64047705033336
 20
90.85196943643278
 30
0.0
 10
68.64286037117903
 20
90.85237281403364
 30
0.0
 10
68.64521254740784
 20
90.85248006564584
 30
0.0
 10
68.6490732001807
 20
90.85265609889919
 30
0.0
 10
68.6529498407937
 20
90.85207024940372
 30
0.0
 10
68.65662793381397
 20
90.85110527967997
 30
0.0
 10
68.65788697316613
 20
90.85077496316836
 30
0.0
 10
68.65913127062588
 20
90.85039768305641
 30
0.0
 10
68.66035930841316
 20
90.84998305150751
 30
0.0
  0
ARC
  5
267
330
1F
100
AcDbEntity
  8
0
  6
Continuous
 62
     7
370
     0
100
AcDbCircle
 10
76.9074762179
 20
86.5269401279
 30
0.0
 40
0.5500000000000098
100
AcDbArc
 50
60.2532071374
 51
119.7467928629
  0
SPLINE
  5
268
330
1F
100
AcDbEntity
  8
0
  6
Continuous
 62
     7
370
     0
100
AcDbSpline
210
0.0
220
0.0
230
1.0
 70
     8
 71
     3
 72
    23
 73
    19
 74
     0
 42
0.000000001
 43
0.00000001
 40
0.0
 40
0.0
 40
0.0
 40
0.0
 40
0.0000136991387911
 40
0.0000136991387911
 40
0.0000136991387911
 40
0.0000216340655816
 40
0.0000216340655816
 40
0.0000216340655816
 40
0.0000296647623619
 40
0.0000296647623619
 40
0.0000296647623619
 40
0.0000367560773728
 40
0.0000367560773728
 40
0.0000367560773728
 40
0.000048450232674
 40
0.000048450232674
 40
0.000048450232674
 40
0.0000524173646982
 40
0.0000524173646982
 40
0.0000524173646982
 40
0.0000524173646982
 10
77.2184890743845
 20
86.98056001623486
 30
0.0
 10
77.21419422751927
 20
86.97948227226944
 30
0.0
 10
77.20967416764188
 20
86.97882326571548
 30
0.0
 10
77.2051766958329
 20
86.97909411111105
 30
0.0
 10
77.20255952721186
 20
86.97925172145318
 30
0.0
 10
77.19990554726957
 20
86.97974404544523
 30
0.0
 10
77.1974200604238
 20
86.98066566368756
 30
0.0
 10
77.1949161868562
 20
86.98159409972426
 30
0.0
 10
77.19252697121476
 20
86.98300115545224
 30
0.0
 10
77.19050733476124
 20
86.98475252181044
 30
0.0
 10
77.18871240512989
 20
86.98630902935227
 30
0.0
 10
77.18715885058216
 20
86.98816089328074
 30
0.0
 10
77.18587649586597
 20
86.99013568499167
 30
0.0
 10
77.18377175293466
 20
86.99337693239531
 30
0.0
 10
77.18231614121912
 20
86.99701736596936
 30
0.0
 10
77.18128800216296
 20
87.0006783036791
 30
0.0
 10
77.18093606230605
 20
87.0019314706374
 30
0.0
 10
77.18063209150716
 20
87.00319567718891
 30
0.0
 10
77.18036856584214
 20
87.00446475179363
 30
0.0
  0
ARC
  5
269
330
1F
100
AcDbEntity
  8
0
  6
Continuous
 62
     7
370
     0
100
AcDbCircle
 10
76.9074762179
 20
86.5269401279
 30
0.0
 40
0.5500000000001883
100
AcDbArc
 50
124.4354855809
 51
55.5645144267
  0
SPLINE
  5
26A
330
1F
100
AcDbEntity
  8
0
  6
Continuous
 62
     7
370
     0
100
AcDbSpline
210
0.0
220
0.0
230
1.0
 70
     8
 71
     3
 72
    23
 73
    19
 74
     0
 42
0.000000001
 43
0.00000001
 40
0.0000000000000578
 40
0.0000000000000578
 40
0.0000000000000578
 40
0.0000000000000578
 40
0.0000136991387907
 40
0.0000136991387907
 40
0.0000136991387907
 40
0.0000216340655809
 40
0.0000216340655809
 40
0.0000216340655809
 40
0.0000296647623608
 40
0.0000296647623608
 40
0.0000296647623608
 40
0.0000367560773714
 40
0.0000367560773714
 40
0.0000367560773714
 40
0.0000484502326729
 40
0.0000484502326729
 40
0.0000484502326729
 40
0.0000524173646957
 40
0.0000524173646957
 40
0.0000524173646957
 40
0.0000524173646957
 10
76.63458386986174
 20
87.00446475175738
 30
0.0
 10
76.63368359104416
 20
87.00012923106195
 30
0.0
 10
76.63230828904662
 20
86.99577334133097
 30
0.0
 10
76.63010578641591
 20
86.99184274442192
 30
0.0
 10
76.62882410617028
 20
86.98955545162069
 30
0.0
 10
76.62722509033323
 20
86.98738079284293
 30
0.0
 10
76.625313010985
 20
86.98554477061792
 30
0.0
 10
76.62338678677372
 20
86.98369516617261
 30
0.0
 10
76.62107965134234
 20
86.98215721841547
 30
0.0
 10
76.61862352821682
 20
86.98110191053772
 30
0.0
 10
76.61644067586798
 20
86.98016401729623
 30
0.0
 10
76.61409706954592
 20
86.97957203659601
 30
0.0
 10
76.61176091570293
 20
86.979277721898
 30
0.0
 10
76.60792656064838
 20
86.97879465993985
 30
0.0
 10
76.60401556738724
 20
86.97906978497662
 30
0.0
 10
76.60027228505304
 20
86.97973864385634
 30
0.0
 10
76.59899093090081
 20
86.97996759936282
 30
0.0
 10
76.59772053006495
 20
86.9802445437014
 30
0.0
 10
76.59646336132678
 20
86.98056001619051
 30
0.0
  0
ARC
  5
26B
330
1F
100
AcDbEntity
  8
0
  6
Continuous
 62
     7
370
     0
100
AcDbCircle
 10
73.8974762179
 20
91.3269401279
 30
0.0
 40
0.5500000000001883
100
AcDbArc
 50
304.4354855733
 51
235.5645144191
  0
SPLINE
  5
26C
330
1F
100
AcDbEntity
  8
0
  6
Continuous
 62
     7
370
     0
100
AcDbSpline
210
0.0
220
0.0
230
1.0
 70
     8
 71
     3
 72
    23
 73
    19
 74
     0
 42
0.000000001
 43
0.00000001
 40
0.0
 40
0.0
 40
0.0
 40
0.0
 40
0.0000136991388042
 40
0.0000136991388042
 40
0.0000136991388042
 40
0.00002163406561
 40
0.00002163406561
 40
0.00002163406561
 40
0.0000296647624064
 40
0.0000296647624064
 40
0.0000296647624064
 40
0.000036756077424
 40
0.000036756077424
 40
0.000036756077424
 40
0.0000484502327163
 40
0.0000484502327163
 40
0.0000484502327163
 40
0.0000524173647346
 40
0.0000524173647346
 40
0.0000524173647346
 40
0.0000524173647346
 10
74.17036856584309
 20
90.84941550400468
 30
0.0
 10
74.17126884465384
 20
90.85375102470552
 30
0.0
 10
74.17264414670629
 20
90.8581069144219
 30
0.0
 10
74.17484664933333
 20
90.86203751133773
 30
0.0
 10
74.1761283295771
 20
90.86432480414342
 30
0.0
 10
74.17772734541245
 20
90.86649946292619
 30
0.0
 10
74.17963942476003
 20
90.86833548515641
 30
0.0
 10
74.18156564897072
 20
90.87018508960705
 30
0.0
 10
74.18387278440281
 20
90.87172303736976
 30
0.0
 10
74.18632890753024
 20
90.87277834525177
 30
0.0
 10
74.18851175987841
 20
90.87371623849604
 30
0.0
 10
74.1908553662005
 20
90.87430821919891
 30
0.0
 10
74.19319152004378
 20
90.87460253389902
 30
0.0
 10
74.1970258750922
 20
90.87508559585979
 30
0.0
 10
74.20093686834782
 20
90.87481047082699
 30
0.0
 10
74.20468015067702
 20
90.87414161195136
 30
0.0
 10
74.20596150483479
 20
90.87391265644497
 30
0.0
 10
74.20723190567612
 20
90.87363571210598
 30
0.0
 10
74.20848907441966
 20
90.87332023961609
 30
0.0
  0
ARC
  5
26D
330
1F
100
AcDbEntity
  8
0
  6
Continuous
 62
     7
370
     0
100
AcDbCircle
 10
73.8974762179
 20
91.3269401279
 30
0.0
 40
0.5500000000001062
100
AcDbArc
 50
240.2532071333
 51
299.7467928626
  0
SPLINE
  5
26E
330
1F
100
AcDbEntity
  8
0
  6
Continuous
 62
     7
370
     0
100
AcDbSpline
210
0.0
220
0.0
230
1.0
 70
     8
 71
     3
 72
    23
 73
    19
 74
     0
 42
0.000000001
 43
0.00000001
 40
0.0000000000000021
 40
0.0000000000000021
 40
0.0000000000000021
 40
0.0000000000000021
 40
0.0000136991388042
 40
0.0000136991388042
 40
0.0000136991388042
 40
0.0000216340656101
 40
0.0000216340656101
 40
0.0000216340656101
 40
0.0000296647624065
 40
0.0000296647624065
 40
0.0000296647624065
 40
0.0000367560774241
 40
0.0000367560774241
 40
0.0000367560774241
 40
0.0000484502327164
 40
0.0000484502327164
 40
0.0000484502327164
 40
0.0000524173647594
 40
0.0000524173647594
 40
0.0000524173647594
 40
0.0000524173647594
 10
73.58646336132537
 20
90.87332023960813
 30
0.0
 10
73.59075820819244
 20
90.87439798358186
 30
0.0
 10
73.59527826808038
 20
90.87505699008133
 30
0.0
 10
73.59977573989373
 20
90.87478614469187
 30
0.0
 10
73.60239290851791
 20
90.87462853435328
 30
0.0
 10
73.60504688846389
 20
90.87413621036485
 30
0.0
 10
73.60753237531395
 20
90.87321459212532
 30
0.0
 10
73.61003624888599
 20
90.8722861560914
 30
0.0
 10
73.61242546453262
 20
90.87087910036517
 30
0.0
 10
73.61444510099072
 20
90.86912773400711
 30
0.0
 10
73.61624003062423
 20
90.86757122646704
 30
0.0
 10
73.61779358517428
 20
90.86571936253966
 30
0.0
 10
73.61907593989245
 20
90.86374457082938
 30
0.0
 10
73.62118068282345
 20
90.86050332343225
 30
0.0
 10
73.62263629454013
 20
90.85686288986473
 30
0.0
 10
73.62366443359775
 20
90.85320195216114
 30
0.0
 10
73.62401637345711
 20
90.85194878519805
 30
0.0
 10
73.62432034425794
 20
90.85068457864162
 30
0.0
 10
73.62458386992455
 20
90.8494155040319
 30
0.0
  0
ARC
  5
26F
330
1F
100
AcDbEntity
  8
0
  6
Continuous
 62
     7
370
     0
100
AcDbCircle
 10
82.9184762179
 20
86.5269401279
 30
0.0
 40
0.5499999999999942
100
AcDbArc
 50
124.3583124008
 51
119.6696196906
  0
SPLINE
  5
270
330
1F
100
AcDbEntity
  8
0
  6
Continuous
 62
     7
370
     0
100
AcDbSpline
210
0.0
220
0.0
230
1.0
 70
     8
 71
     3
 72
    23
 73
    19
 74
     0
 42
0.000000001
 43
0.00000001
 40
0.0000000000000027
 40
0.0000000000000027
 40
0.0000000000000027
 40
0.0000000000000027
 40
0.0000136991387907
 40
0.0000136991387907
 40
0.0000136991387907
 40
0.0000216340655808
 40
0.0000216340655808
 40
0.0000216340655808
 40
0.0000296647623606
 40
0.0000296647623606
 40
0.0000296647623606
 40
0.0000367560773712
 40
0.0000367560773712
 40
0.0000367560773712
 40
0.0000484502326727
 40
0.0000484502326727
 40
0.0000484502326727
 40
0.0000524173646955
 40
0.0000524173646955
 40
0.0000524173646955
 40
0.0000524173646955
 10
82.6462273075823
 20
87.00483188430385
 30
0.0
 10
82.64532118995724
 20
87.00049758014988
 30
0.0
 10
82.64394002214765
 20
86.99614354679969
 30
0.0
 10
82.6417322272929
 20
86.99221592006346
 30
0.0
 10
82.64044746739646
 20
86.98993035566511
 30
0.0
 10
82.63884552390613
 20
86.98775785261552
 30
0.0
 10
82.63693097330686
 20
86.98592440748476
 30
0.0
 10
82.63500225956314
 20
86.9840773991981
 30
0.0
 10
82.63269305472326
 20
86.98254256037603
 30
0.0
 10
82.63023551240443
 20
86.98149056167088
 30
0.0
 10
82.62805139876318
 20
86.98055560942005
 30
0.0
 10
82.625706997213
 20
86.97996678592037
 30
0.0
 10
82.62337044906911
 20
86.97967561811494
 30
0.0
 10
82.61953544684415
 20
86.97919772118628
 30
0.0
 10
82.61562482770364
 20
86.97947811379076
 30
0.0
 10
82.61188244966819
 20
86.98015201398687
 30
0.0
 10
82.61060140506437
 20
86.98038269517448
 30
0.0
 10
82.60933137840439
 20
86.98066135039736
 30
0.0
 10
82.60807463572468
 20
86.98097851591314
 30
0.0
  0
ARC
  5
271
330
1F
100
AcDbEntity
  8
0
  6
Continuous
 62
     7
370
     0
100
AcDbCircle
 10
79.9174762179
 20
91.3269401279
 30
0.0
 40
0.5500000000000064
100
AcDbArc
 50
60.6021604206
 51
235.5645144191
  0
ARC
  5
272
330
1F
100
AcDbEntity
  8
0
  6
Continuous
 62
     7
370
     0
100
AcDbCircle
 10
79.9174762179
 20
91.3269401279
 30
0.0
 40
0.5500000000000884
100
AcDbArc
 50
240.2532071337
 51
299.6696196825
  0
SPLINE
  5
273
330
1F
100
AcDbEntity
  8
0
  6
Continuous
 62
     7
370
     0
100
AcDbSpline
210
0.0
220
0.0
230
1.0
 70
     8
 71
     3
 72
    23
 73
    19
 74
     0
 42
0.000000001
 43
0.00000001
 40
0.0000000000000022
 40
0.0000000000000022
 40
0.0000000000000022
 40
0.0000000000000022
 40
0.0000136991388042
 40
0.0000136991388042
 40
0.0000136991388042
 40
0.0000216340656101
 40
0.0000216340656101
 40
0.0000216340656101
 40
0.0000296647624066
 40
0.0000296647624066
 40
0.0000296647624066
 40
0.0000367560774241
 40
0.0000367560774241
 40
0.0000367560774241
 40
0.0000484502327164
 40
0.0000484502327164
 40
0.0000484502327164
 40
0.0000524173647619
 40
0.0000524173647619
 40
0.0000524173647619
 40
0.0000524173647619
 10
79.60646336132535
 20
90.87332023960816
 30
0.0
 10
79.61075820819241
 20
90.87439798358189
 30
0.0
 10
79.61527826808035
 20
90.87505699008133
 30
0.0
 10
79.61977573989371
 20
90.87478614469187
 30
0.0
 10
79.62239290851788
 20
90.87462853435328
 30
0.0
 10
79.62504688846386
 20
90.87413621036485
 30
0.0
 10
79.62753237531393
 20
90.87321459212534
 30
0.0
 10
79.63003624888596
 20
90.87228615609142
 30
0.0
 10
79.63242546453262
 20
90.87087910036517
 30
0.0
 10
79.63444510099069
 20
90.86912773400712
 30
0.0
 10
79.63624003062422
 20
90.86757122646705
 30
0.0
 10
79.63779358517428
 20
90.86571936253968
 30
0.0
 10
79.63907593989244
 20
90.8637445708294
 30
0.0
 10
79.64118068282345
 20
90.86050332343227
 30
0.0
 10
79.6426362945401
 20
90.85686288986476
 30
0.0
 10
79.64366443359775
 20
90.85320195216116
 30
0.0
 10
79.6440163734573
 20
90.85194878519731
 30
0.0
 10
79.64432034425829
 20
90.85068457864011
 30
0.0
 10
79.64458386992501
 20
90.84941550402961
 30
0.0
  0
LINE
  5
274
330
1F
100
AcDbEntity
  8
0
  6
Continuous
 62
     7
370
     0
100
AcDbLine
 10
69.3864761104
 20
89.5728583174
 30
0.0
 11
68.7058385645
 21
90.8791595331
 31
0.0
  0
LINE
  5
275
330
1F
100
AcDbEntity
  8
0
  6
Continuous
 62
     7
370
     0
100
AcDbLine
 10
68.5704847981
 20
90.8086338506
 30
0.0
 11
69.3864761104
 21
89.2425573158
 31
0.0
  0
LINE
  5
276
330
1F
100
AcDbEntity
  8
0
  6
Continuous
 62
     7
370
     0
100
AcDbLine
 10
69.3874763508
 20
89.2406380928
 30
0.0
 11
70.5681130473
 21
86.9747213048
 31
0.0
  0
LINE
  5
277
330
1F
100
AcDbEntity
  8
0
  6
Continuous
 62
     7
370
     0
100
AcDbLine
 10
70.703467745
 20
87.0452464052
 30
0.0
 11
69.3874763508
 21
89.5709390945
 31
0.0
  0
LINE
  5
278
330
1F
100
AcDbEntity
  8
0
  6
Continuous
 62
     7
370
     0
100
AcDbLine
 10
72.397476453
 20
88.7912708614
 30
0.0
 11
73.6727574092
 21
90.8249418909
 31
0.0
  0
LINE
  5
279
330
1F
100
AcDbEntity
  8
0
  6
Continuous
 62
     7
370
     0
100
AcDbLine
 10
73.5434530486
 20
90.9060269088
 30
0.0
 11
72.397476453
 21
89.0785562416
 31
0.0
  0
LINE
  5
27A
330
1F
100
AcDbEntity
  8
0
  6
Continuous
 62
     7
370
     0
100
AcDbLine
 10
72.3874759112
 20
89.0626093944
 30
0.0
 11
71.1121954207
 21
87.0289383649
 31
0.0
  0
LINE
  5
27B
330
1F
100
AcDbEntity
  8
0
  6
Continuous
 62
     7
370
     0
100
AcDbLine
 10
71.241500247
 20
86.947853347
 30
0.0
 11
72.3874759112
 21
88.7753240142
 31
0.0
  0
LINE
  5
27C
330
1F
100
AcDbEntity
  8
0
  6
Continuous
 62
     7
370
     0
100
AcDbLine
 10
75.4074760896
 20
88.7753240142
 30
0.0
 11
76.5534526852
 21
86.947853347
 31
0.0
  0
LINE
  5
27D
330
1F
100
AcDbEntity
  8
0
  6
Continuous
 62
     7
370
     0
100
AcDbLine
 10
76.6827575114
 20
87.0289383649
 30
0.0
 11
75.4074760896
 21
89.0626093944
 31
0.0
  0
LINE
  5
27E
330
1F
100
AcDbEntity
  8
0
  6
Continuous
 62
     7
370
     0
100
AcDbLine
 10
75.3974760134
 20
89.0785562416
 30
0.0
 11
74.2514998835
 21
90.9060269088
 31
0.0
  0
LINE
  5
27F
330
1F
100
AcDbEntity
  8
0
  6
Continuous
 62
     7
370
     0
100
AcDbLine
 10
74.1221950573
 20
90.8249418909
 30
0.0
 11
75.3974760134
 21
88.7912708614
 31
0.0
  0
LINE
  5
280
330
1F
100
AcDbEntity
  8
0
  6
Continuous
 62
     7
370
     0
100
AcDbLine
 10
79.6927574972
 20
90.8249418909
 30
0.0
 11
78.4174761918
 21
88.7912708614
 31
0.0
  0
LINE
  5
281
330
1F
100
AcDbEntity
  8
0
  6
Continuous
 62
     7
370
     0
100
AcDbLine
 10
78.4174761918
 20
89.0785562416
 30
0.0
 11
79.5634525546
 21
90.9060269088
 31
0.0
  0
LINE
  5
282
330
1F
100
AcDbEntity
  8
0
  6
Continuous
 62
     7
370
     0
100
AcDbLine
 10
78.4074761157
 20
89.0626093944
 30
0.0
 11
77.1321951595
 21
87.0289383649
 31
0.0
  0
LINE
  5
283
330
1F
100
AcDbEntity
  8
0
  6
Continuous
 62
     7
370
     0
100
AcDbLine
 10
77.2614999857
 20
86.947853347
 30
0.0
 11
78.4074761157
 21
88.7753240142
 31
0.0
  0
LINE
  5
284
330
1F
100
AcDbEntity
  8
0
  6
Continuous
 62
     7
370
     0
100
AcDbLine
 10
80.30132418
 20
90.8569401555
 30
0.0
 11
81.4174762179
 21
89.0716918704
 31
0.0
  0
LINE
  5
285
330
1F
100
AcDbEntity
  8
0
  6
Continuous
 62
     7
370
     0
100
AcDbLine
 10
81.4174762179
 20
88.7837878446
 30
0.0
 11
80.1415186559
 21
90.8246396768
 31
0.0
  0
LINE
  5
286
330
1F
100
AcDbEntity
  8
0
  6
Continuous
 62
     7
370
     0
100
AcDbLine
 10
81.4184762179
 20
88.7821883854
 30
0.0
 11
82.5650202294
 21
86.9483292528
 31
0.0
  0
LINE
  5
287
330
1F
100
AcDbEntity
  8
0
  6
Continuous
 62
     7
370
     0
100
AcDbLine
 10
82.6944337875
 20
87.029240579
 30
0.0
 11
81.4184762179
 21
89.0700924112
 31
0.0
  0
LINE
  5
288
330
1F
100
AcDbEntity
  8
0
  6
Continuous
 62
     7
370
     0
100
AcDbLine
 10
67.3864757825
 20
85.4269400199
 30
0.0
 11
69.3864761104
 21
85.4269400199
 31
0.0
  0
LINE
  5
289
330
1F
100
AcDbEntity
  8
0
  6
Continuous
 62
     7
370
     0
100
AcDbLine
 10
67.3864757825
 20
92.4269402359
 30
0.0
 11
67.3864757825
 21
85.4269400199
 31
0.0
  0
LINE
  5
28A
330
1F
100
AcDbEntity
  8
0
  6
Continuous
 62
     7
370
     0
100
AcDbLine
 10
67.3864757825
 20
92.4269402359
 30
0.0
 11
69.3864761104
 21
92.4269402359
 31
0.0
  0
LINE
  5
28B
330
1F
100
AcDbEntity
  8
0
  6
Continuous
 62
     7
370
     0
100
AcDbLine
 10
69.3864761104
 20
92.4269402359
 30
0.0
 11
69.3864761104
 21
89.5728583174
 31
0.0
  0
LINE
  5
28C
330
1F
100
AcDbEntity
  8
0
  6
Continuous
 62
     7
370
     0
100
AcDbLine
 10
69.3864761104
 20
89.2425573158
 30
0.0
 11
69.3864761104
 21
85.4269400199
 31
0.0
  0
LINE
  5
28D
330
1F
100
AcDbEntity
  8
0
  6
Continuous
 62
     7
370
     0
100
AcDbLine
 10
69.3874763508
 20
85.4269400199
 30
0.0
 11
72.3874759112
 21
85.4269400199
 31
0.0
  0
LINE
  5
28E
330
1F
100
AcDbEntity
  8
0
  6
Continuous
 62
     7
370
     0
100
AcDbLine
 10
72.3874759112
 20
88.7753240142
 30
0.0
 11
72.3874759112
 21
85.4269400199
 31
0.0
  0
LINE
  5
28F
330
1F
100
AcDbEntity
  8
0
  6
Continuous
 62
     7
370
     0
100
AcDbLine
 10
69.3874763508
 20
89.2406380928
 30
0.0
 11
69.3874763508
 21
85.4269400199
 31
0.0
  0
LINE
  5
290
330
1F
100
AcDbEntity
  8
0
  6
Continuous
 62
     7
370
     0
100
AcDbLine
 10
69.3874763508
 20
92.4269402359
 30
0.0
 11
72.3874759112
 21
92.4269402359
 31
0.0
  0
LINE
  5
291
330
1F
100
AcDbEntity
  8
0
  6
Continuous
 62
     7
370
     0
100
AcDbLine
 10
72.3874759112
 20
92.4269402359
 30
0.0
 11
72.3874759112
 21
89.0626093944
 31
0.0
  0
LINE
  5
292
330
1F
100
AcDbEntity
  8
0
  6
Continuous
 62
     7
370
     0
100
AcDbLine
 10
69.3874763508
 20
92.4269402359
 30
0.0
 11
69.3874763508
 21
89.5709390945
 31
0.0
  0
LINE
  5
293
330
1F
100
AcDbEntity
  8
0
  6
Continuous
 62
     7
370
     0
100
AcDbLine
 10
72.397476453
 20
85.4269400199
 30
0.0
 11
75.3974760134
 21
85.4269400199
 31
0.0
  0
LINE
  5
294
330
1F
100
AcDbEntity
  8
0
  6
Continuous
 62
     7
370
     0
100
AcDbLine
 10
75.3974760134
 20
88.7912708614
 30
0.0
 11
75.3974760134
 21
85.4269400199
 31
0.0
  0
LINE
  5
295
330
1F
100
AcDbEntity
  8
0
  6
Continuous
 62
     7
370
     0
100
AcDbLine
 10
72.397476453
 20
88.7912708614
 30
0.0
 11
72.397476453
 21
85.4269400199
 31
0.0
  0
LINE
  5
296
330
1F
100
AcDbEntity
  8
0
  6
Continuous
 62
     7
370
     0
100
AcDbLine
 10
75.4074760896
 20
85.4269400199
 30
0.0
 11
78.4074761157
 21
85.4269400199
 31
0.0
  0
LINE
  5
297
330
1F
100
AcDbEntity
  8
0
  6
Continuous
 62
     7
370
     0
100
AcDbLine
 10
75.4074760896
 20
88.7753240142
 30
0.0
 11
75.4074760896
 21
85.4269400199
 31
0.0
  0
LINE
  5
298
330
1F
100
AcDbEntity
  8
0
  6
Continuous
 62
     7
370
     0
100
AcDbLine
 10
78.4074761157
 20
88.7753240142
 30
0.0
 11
78.4074761157
 21
85.4269400199
 31
0.0
  0
LINE
  5
299
330
1F
100
AcDbEntity
  8
0
  6
Continuous
 62
     7
370
     0
100
AcDbLine
 10
72.397476453
 20
92.4269402359
 30
0.0
 11
75.3974760134
 21
92.4269402359
 31
0.0
  0
LINE
  5
29A
330
1F
100
AcDbEntity
  8
0
  6
Continuous
 62
     7
370
     0
100
AcDbLine
 10
75.3974760134
 20
92.4269402359
 30
0.0
 11
75.3974760134
 21
89.0785562416
 31
0.0
  0
LINE
  5
29B
330
1F
100
AcDbEntity
  8
0
  6
Continuous
 62
     7
370
     0
100
AcDbLine
 10
72.397476453
 20
92.4269402359
 30
0.0
 11
72.397476453
 21
89.0785562416
 31
0.0
  0
LINE
  5
29C
330
1F
100
AcDbEntity
  8
0
  6
Continuous
 62
     7
370
     0
100
AcDbLine
 10
75.4074760896
 20
92.4269402359
 30
0.0
 11
78.4074761157
 21
92.4269402359
 31
0.0
  0
LINE
  5
29D
330
1F
100
AcDbEntity
  8
0
  6
Continuous
 62
     7
370
     0
100
AcDbLine
 10
75.4074760896
 20
92.4269402359
 30
0.0
 11
75.4074760896
 21
89.0626093944
 31
0.0
  0
LINE
  5
29E
330
1F
100
AcDbEntity
  8
0
  6
Continuous
 62
     7
370
     0
100
AcDbLine
 10
78.4074761157
 20
92.4269402359
 30
0.0
 11
78.4074761157
 21
89.0626093944
 31
0.0
  0
LINE
  5
29F
330
1F
100
AcDbEntity
  8
0
  6
Continuous
 62
     7
370
     0
100
AcDbLine
 10
78.4174761918
 20
85.4269400199
 30
0.0
 11
81.4174762179
 21
85.4269400199
 31
0.0
  0
LINE
  5
2A0
330
1F
100
AcDbEntity
  8
0
  6
Continuous
 62
     7
370
     0
100
AcDbLine
 10
78.4174761918
 20
88.7912708614
 30
0.0
 11
78.4174761918
 21
85.4269400199
 31
0.0
  0
LINE
  5
2A1
330
1F
100
AcDbEntity
  8
0
  6
Continuous
 62
     7
370
     0
100
AcDbLine
 10
81.4174762179
 20
88.7837878446
 30
0.0
 11
81.4174762179
 21
85.4269400199
 31
0.0
  0
LINE
  5
2A2
330
1F
100
AcDbEntity
  8
0
  6
Continuous
 62
     7
370
     0
100
AcDbLine
 10
84.4184762516
 20
92.4269402359
 30
0.0
 11
81.4184762179
 21
92.4269402359
 31
0.0
  0
LINE
  5
2A3
330
1F
100
AcDbEntity
  8
0
  6
Continuous
 62
     7
370
     0
100
AcDbLine
 10
84.4184762516
 20
85.4269400199
 30
0.0
 11
84.4184762516
 21
90.8569401555
 31
0.0
  0
LINE
  5
2A4
330
1F
100
AcDbEntity
  8
0
  6
Continuous
 62
     7
370
     0
100
AcDbLine
 10
84.4184762516
 20
91.7969400954
 30
0.0
 11
84.4184762516
 21
92.4269402359
 31
0.0
  0
LINE
  5
2A5
330
1F
100
AcDbEntity
  8
0
  6
Continuous
 62
     7
370
     0
100
AcDbLine
 10
84.4184762516
 20
85.4269400199
 30
0.0
 11
81.4184762179
 21
85.4269400199
 31
0.0
  0
LINE
  5
2A6
330
1F
100
AcDbEntity
  8
0
  6
Continuous
 62
     7
370
     0
100
AcDbLine
 10
81.4184762179
 20
85.4269400199
 30
0.0
 11
81.4184762179
 21
88.7821883854
 31
0.0
  0
LINE
  5
2A7
330
1F
100
AcDbEntity
  8
0
  6
Continuous
 62
     7
370
     0
100
AcDbLine
 10
81.4184762179
 20
89.0700924112
 30
0.0
 11
81.4184762179
 21
90.8569401555
 31
0.0
  0
LINE
  5
2A8
330
1F
100
AcDbEntity
  8
0
  6
Continuous
 62
     7
370
     0
100
AcDbLine
 10
81.4184762179
 20
91.7969400954
 30
0.0
 11
81.4184762179
 21
92.4269402359
 31
0.0
  0
LINE
  5
2A9
330
1F
100
AcDbEntity
  8
0
  6
Continuous
 62
     7
370
     0
100
AcDbLine
 10
78.4174761918
 20
92.4269402359
 30
0.0
 11
81.4174762179
 21
92.4269402359
 31
0.0
  0
LINE
  5
2AA
330
1F
100
AcDbEntity
  8
0
  6
Continuous
 62
     7
370
     0
100
AcDbLine
 10
78.4174761918
 20
92.4269402359
 30
0.0
 11
78.4174761918
 21
89.0785562416
 31
0.0
  0
LINE
  5
2AB
330
1F
100
AcDbEntity
  8
0
  6
Continuous
 62
     7
370
     0
100
AcDbLine
 10
81.4174762179
 20
92.4269402359
 30
0.0
 11
81.4174762179
 21
91.7969400954
 31
0.0
  0
LINE
  5
2AC
330
1F
100
AcDbEntity
  8
0
  6
Continuous
 62
     7
370
     0
100
AcDbLine
 10
81.4174762179
 20
90.8569401555
 30
0.0
 11
81.4174762179
 21
89.0716918704
 31
0.0
  0
LINE
  5
2AD
330
1F
100
AcDbEntity
  8
0
  6
Continuous
 62
     7
370
     0
100
AcDbLine
 10
67.3854764734
 20
88.9269401279
 30
0.0
 11
67.3854764734
 21
85.4269400199
 31
0.0
  0
LINE
  5
2AE
330
1F
100
AcDbEntity
  8
0
  6
Continuous
 62
     7
370
     0
100
AcDbLine
 10
67.3854764734
 20
92.4269402359
 30
0.0
 11
67.3854764734
 21
88.9269401279
 31
0.0
  0
LINE
  5
2AF
330
1F
100
AcDbEntity
  8
0
  6
Continuous
 62
     7
370
     0
100
AcDbLine
 10
85.0194761713
 20
92.4269402359
 30
0.0
 11
84.4194762592
 21
92.4269402359
 31
0.0
  0
LINE
  5
2B0
330
1F
100
AcDbEntity
  8
0
  6
Continuous
 62
     7
370
     0
100
AcDbLine
 10
85.0194761713
 20
92.4269402359
 30
0.0
 11
85.0194761713
 21
91.7969400954
 31
0.0
  0
LINE
  5
2B1
330
1F
100
AcDbEntity
  8
0
  6
Continuous
 62
     7
370
     0
100
AcDbLine
 10
85.0194761713
 20
90.8569401555
 30
0.0
 11
85.0194761713
 21
85.4269400199
 31
0.0
  0
LINE
  5
2B2
330
1F
100
AcDbEntity
  8
0
  6
Continuous
 62
     7
370
     0
100
AcDbLine
 10
84.4194762592
 20
92.4269402359
 30
0.0
 11
84.4194762592
 21
91.7969400954
 31
0.0
  0
LINE
  5
2B3
330
1F
100
AcDbEntity
  8
0
  6
Continuous
 62
     7
370
     0
100
AcDbLine
 10
84.4194762592
 20
90.8569401555
 30
0.0
 11
84.4194762592
 21
85.4269400199
 31
0.0
  0
LINE
  5
2B4
330
1F
100
AcDbEntity
  8
0
  6
Continuous
 62
     7
370
     0
100
AcDbLine
 10
85.0194761713
 20
85.4269400199
 30
0.0
 11
84.4194762592
 21
85.4269400199
 31
0.0
  0
LINE
  5
2B5
330
1F
100
AcDbEntity
  8
0
  6
Continuous
 62
     7
370
     0
100
AcDbLine
 10
72.3874759112
 20
85.4269400199
 30
0.0
 11
72.3874759112
 21
88.7753522594
 31
0.0
  0
LINE
  5
2B6
330
1F
100
AcDbEntity
  8
0
  6
Continuous
 62
     7
370
     0
100
AcDbLine
 10
72.397476453
 20
89.0785279964
 30
0.0
 11
72.397476453
 21
92.4269402359
 31
0.0
  0
LINE
  5
2B7
330
1F
100
AcDbEntity
  8
0
  6
Continuous
 62
     7
370
     0
100
AcDbLine
 10
78.4074761157
 20
85.4269400199
 30
0.0
 11
78.4074761157
 21
88.7753522594
 31
0.0
  0
LINE
  5
2B8
330
1F
100
AcDbEntity
  8
0
  6
Continuous
 62
     7
370
     0
100
AcDbLine
 10
78.4174761918
 20
89.0785279964
 30
0.0
 11
78.4174761918
 21
92.4269402359
 31
0.0
  0
LINE
  5
2B9
330
1F
100
AcDbEntity
  8
0
  6
Continuous
 62
     7
370
     0
100
AcDbLine
 10
63.8854762179
 20
88.9269401279
 30
0.0
 11
63.8854762179
 21
91.8628010041
 31
0.0
  0
DIMENSION
  5
2BA
330
1F
100
AcDbEntity
  8
0
  6
Continuous
 62
     7
370
     0
100
AcDbDimension
  2
_D_3
 10
85.0194762179
 20
99.8597606899
 30
0.0
 11
75.9018620744
 21
99.8597606899
 31
0.0
 70
   160
  1
<>
 71
     2
 42
-1.0
  3
SLDDIMSTYLE3
100
AcDbAlignedDimension
 13
63.8854762179
 23
88.9269401279
 33
0.0
 14
85.0194762179
 24
92.4269401279
 34
0.0
100
AcDbRotatedDimension
  0
DIMENSION
  5
2CF
330
1F
100
AcDbEntity
  8
0
  6
Continuous
 62
     7
370
     0
100
AcDbDimension
  2
_D_4
 10
84.4184762179
 20
73.4385157487
 30
0.0
 11
98.3751362906
 21
73.4385157487
 31
0.0
 70
   160
  1
<>X5
 71
     2
 42
-1.0
  3
SLDDIMSTYLE1
100
AcDbAlignedDimension
 13
81.4174762179
 23
85.4269401279
 33
0.0
 14
84.4184762179
 24
85.4269401279
 34
0.0
100
AcDbRotatedDimension
  0
DIMENSION
  5
2E2
330
1F
100
AcDbEntity
  8
0
  6
Continuous
 62
     7
370
     0
100
AcDbDimension
  2
_D_5
 10
69.3874762179
 20
73.4385157487
 30
0.0
 11
53.8854762179
 21
73.4385157487
 31
0.0
 70
   160
  1
<>
 71
     2
 42
-1.0
  3
SLDDIMSTYLE1
100
AcDbAlignedDimension
 13
67.3864762179
 23
85.4269401279
 33
0.0
 14
69.3874762179
 24
85.4269401279
 34
0.0
100
AcDbRotatedDimension
  0
SPLINE
  5
2F6
330
1F
100
AcDbEntity
  8
0
  6
Continuous
 62
     7
370
     0
100
AcDbSpline
210
0.0
220
0.0
230
1.0
 70
     8
 71
     3
 72
     9
 73
     5
 74
     0
 42
0.000000001
 43
0.00000001
 40
0.0
 40
0.0
 40
0.0
 40
0.0
 40
0.5139066606917709
 40
1.0
 40
1.0
 40
1.0
 40
1.0
 10
258.4089631368046
 20
167.4870699660591
 30
0.0
 10
259.0228569466862
 20
167.0873342048137
 30
0.0
 10
260.2174198057377
 20
166.3094969206904
 30
0.0
 10
261.4120486629952
 20
165.5316149497199
 30
0.0
 10
261.9927497934534
 20
165.1534917048632
 30
0.0
  0
LINE
  5
2F7
330
1F
100
AcDbEntity
  8
0
  6
Continuous
 62
     7
370
     0
100
AcDbLine
 10
262.1263786195
 20
165.3362208011
 30
0.0
 11
262.0963265813
 21
165.3097173946
 31
0.0
  0
LINE
  5
2F8
330
1F
100
AcDbEntity
  8
0
  6
Continuous
 62
     7
370
     0
100
AcDbLine
 10
262.8239081918
 20
164.4847173946
 30
0.0
 11
262.85396023
 21
164.5112208011
 31
0.0
  0
LINE
  5
2F9
330
1F
100
AcDbEntity
  8
0
  6
Continuous
 62
     7
370
     0
100
AcDbLine
 10
260.3828135493
 20
163.7716603092
 30
0.0
 11
262.066446483
 21
164.623665659
 31
0.0
  0
LINE
  5
2FA
330
1F
100
AcDbEntity
  8
0
  6
Continuous
 62
     7
370
     0
100
AcDbLine
 10
260.3678874426
 20
163.7641069272
 30
0.0
 11
260.3828135493
 21
163.7716603092
 31
0.0
  0
SPLINE
  5
2FB
330
1F
100
AcDbEntity
  8
0
  6
Continuous
 62
     7
370
     0
100
AcDbSpline
210
0.0
220
0.0
230
1.0
 70
     8
 71
     3
 72
     9
 73
     5
 74
     0
 42
0.000000001
 43
0.00000001
 40
0.0
 40
0.0
 40
0.0
 40
0.0
 40
0.9366708892915108
 40
1.0
 40
1.0
 40
1.0
 40
1.0
 10
258.4654446998736
 20
162.8013698886108
 30
0.0
 10
259.0593740166711
 20
163.1019301199371
 30
0.0
 10
259.693459396699
 20
163.4228114826041
 30
0.0
 10
260.3277202658472
 20
163.743780259938
 30
0.0
 10
260.3678874426475
 20
163.7641069271718
 30
0.0
  0
LINE
  5
2FC
330
1F
100
AcDbEntity
  8
0
  6
Continuous
 62
     7
370
     0
100
AcDbLine
 10
257.6363897552
 20
168.2598716388
 30
0.0
 11
257.606337717
 21
168.2333682323
 31
0.0
  0
LINE
  5
2FD
330
1F
100
AcDbEntity
  8
0
  6
Continuous
 62
     7
370
     0
100
AcDbLine
 10
258.3339193276
 20
167.4083682323
 30
0.0
 11
258.3639713658
 21
167.4348716388
 31
0.0
  0
SPLINE
  5
2FE
330
1F
100
AcDbEntity
  8
0
  6
Continuous
 62
     7
370
     0
100
AcDbSpline
210
0.0
220
0.0
230
1.0
 70
     8
 71
     3
 72
     9
 73
     5
 74
     0
 42
0.000000001
 43
0.00000001
 40
0.0
 40
0.0
 40
0.0
 40
0.0
 40
0.4880941198901147
 40
1.0
 40
1.0
 40
1.0
 40
1.0
 10
258.3844477323959
 20
162.2611701916057
 30
0.0
 10
258.9740884599677
 20
161.8142061138566
 30
0.0
 10
260.182135645016
 20
160.898472734709
 30
0.0
 10
261.3902330209391
 20
159.982699104405
 30
0.0
 10
262.0086651714196
 20
159.5139091982028
 30
0.0
  0
SPLINE
  5
2FF
330
1F
100
AcDbEntity
  8
0
  6
Continuous
 62
     7
370
     0
100
AcDbSpline
210
0.0
220
0.0
230
1.0
 70
     8
 71
     3
 72
    22
 73
    18
 74
     0
 42
0.000000001
 43
0.00000001
 40
0.0
 40
0.0
 40
0.0
 40
0.0
 40
0.0832138928013719
 40
0.164040736074226
 40
0.2345007528893453
 40
0.2955939828992671
 40
0.3481043677370146
 40
0.3926214637807074
 40
0.4295689428215384
 40
0.4618059773023904
 40
0.5149692608550184
 40
0.5815742513442077
 40
0.6618730074612892
 40
0.7316453347946914
 40
0.8104146815882032
 40
0.899336694060273
 40
1.0
 40
1.0
 40
1.0
 40
1.0
 10
257.5567755749087
 20
157.1147660006697
 30
0.0
 10
257.5001085405097
 20
156.9895348056136
 30
0.0
 10
257.3884000057805
 20
156.7426647611429
 30
0.0
 10
257.2360547285639
 20
156.3612574856309
 30
0.0
 10
257.1036514237337
 20
155.9991726223075
 30
0.0
 10
256.9944316654551
 20
155.6710164385024
 30
0.0
 10
256.9053059167586
 20
155.3790379564924
 30
0.0
 10
256.8336589908811
 20
155.1246081145958
 30
0.0
 10
256.7758806473155
 20
154.9039835576592
 30
0.0
 10
256.716699573545
 20
154.6626640919052
 30
0.0
 10
256.6479998896272
 20
154.3573136998699
 30
0.0
 10
256.5671577738219
 20
153.9463483689277
 30
0.0
 10
256.4932740325803
 20
153.4924585429413
 30
0.0
 10
256.4305708301838
 20
153.008636865789
 30
0.0
 10
256.3816215618488
 20
152.506385884755
 30
0.0
 10
256.3445876006478
 20
151.9427219092171
 30
0.0
 10
256.3366770950582
 20
151.5552778262342
 30
0.0
 10
256.332476887727
 20
151.3495582980208
 30
0.0
  0
SPLINE
  5
300
330
1F
100
AcDbEntity
  8
0
  6
Continuous
 62
     7
370
     0
100
AcDbSpline
210
0.0
220
0.0
230
1.0
 70
     8
 71
     3
 72
    22
 73
    18
 74
     0
 42
0.000000001
 43
0.00000001
 40
0.0
 40
0.0
 40
0.0
 40
0.0
 40
0.0884505188206015
 40
0.1654966176900198
 40
0.2324965010482366
 40
0.290430230668332
 40
0.3399540322948411
 40
0.3814656700105157
 40
0.4151725923357935
 40
0.4478394673131701
 40
0.5024096302166968
 40
0.5701529346045058
 40
0.652198380418584
 40
0.7242286572631441
 40
0.806483481579401
 40
0.9004430436900249
 40
1.0
 40
1.0
 40
1.0
 40
1.0
 10
257.2606866990917
 20
151.2017961078108
 30
0.0
 10
257.2626553110086
 20
151.3716949682318
 30
0.0
 10
257.2663387107009
 20
151.6895866790321
 30
0.0
 10
257.2891381142751
 20
152.1484340512305
 30
0.0
 10
257.3197788639377
 20
152.551242593939
 30
0.0
 10
257.3555549510539
 20
152.9010952246911
 30
0.0
 10
257.3929270649698
 20
153.199673693343
 30
0.0
 10
257.4290851636701
 20
153.4486304845697
 30
0.0
 10
257.4637665848356
 20
153.6625565061249
 30
0.0
 10
257.5059259203152
 20
153.900440185782
 30
0.0
 10
257.5653097729802
 20
154.2013679172166
 30
0.0
 10
257.6529394453282
 20
154.5887556141972
 30
0.0
 10
257.7592099915237
 20
154.9938791694024
 30
0.0
 10
257.8826423592097
 20
155.4062218092581
 30
0.0
 10
258.0214978765976
 20
155.8175255322917
 30
0.0
 10
258.1844553019896
 20
156.2495541837395
 30
0.0
 10
258.3056722982545
 20
156.5260190895236
 30
0.0
 10
258.3680338749286
 20
156.6682498653303
 30
0.0
  0
LINE
  5
301
330
1F
100
AcDbEntity
  8
0
  6
Continuous
 62
     7
370
     0
100
AcDbLine
 10
262.1263786195
 20
159.6605103706
 30
0.0
 11
262.0963265813
 21
159.6340069641
 31
0.0
  0
LINE
  5
302
330
1F
100
AcDbEntity
  8
0
  6
Continuous
 62
     7
370
     0
100
AcDbLine
 10
262.8239081918
 20
158.8090069641
 30
0.0
 11
262.85396023
 21
158.8355103706
 31
0.0
  0
LINE
  5
303
330
1F
100
AcDbEntity
  8
0
  6
Continuous
 62
     7
370
     0
100
AcDbLine
 10
260.3828081924
 20
158.095947174
 30
0.0
 11
262.066446485
 21
158.9479552263
 31
0.0
  0
LINE
  5
304
330
1F
100
AcDbEntity
  8
0
  6
Continuous
 62
     7
370
     0
100
AcDbLine
 10
260.3685165824
 20
158.0887148802
 30
0.0
 11
260.3828081924
 21
158.095947174
 31
0.0
  0
SPLINE
  5
305
330
1F
100
AcDbEntity
  8
0
  6
Continuous
 62
     7
370
     0
100
AcDbSpline
210
0.0
220
0.0
230
1.0
 70
     8
 71
     3
 72
     9
 73
     5
 74
     0
 42
0.000000001
 43
0.00000001
 40
0.0
 40
0.0
 40
0.0
 40
0.0
 40
0.9414884179072254
 40
1.0
 40
1.0
 40
1.0
 40
1.0
 10
258.4654468813759
 20
157.1256605439929
 30
0.0
 10
259.0626274644127
 20
157.4278661001334
 30
0.0
 10
259.6969216008867
 20
157.7488531143043
 30
0.0
 10
260.3313926760172
 20
158.0699282651853
 30
0.0
 10
260.3685165824152
 20
158.0887148802341
 30
0.0
  0
LINE
  5
306
330
1F
100
AcDbEntity
  8
0
  6
Continuous
 62
     7
370
     0
100
AcDbLine
 10
257.6363897552
 20
163.0640510105
 30
0.0
 11
257.606337717
 21
163.037547604
 31
0.0
  0
LINE
  5
307
330
1F
100
AcDbEntity
  8
0
  6
Continuous
 62
     7
370
     0
100
AcDbLine
 10
258.3339193276
 20
162.212547604
 30
0.0
 11
258.3639713658
 21
162.2390510105
 31
0.0
  0
LINE
  5
308
330
1F
100
AcDbEntity
  8
0
  6
Continuous
 62
     7
370
     0
100
AcDbLine
 10
256.3320487443
 20
151.3469097521
 30
0.0
 11
256.3320487443
 21
94.7783672555
 31
0.0
  0
LINE
  5
309
330
1F
100
AcDbEntity
  8
0
  6
Continuous
 62
     7
370
     0
100
AcDbLine
 10
257.2611147042
 20
94.635875802
 30
0.0
 11
257.2611147042
 21
151.2044182986
 31
0.0
  0
SPLINE
  5
30A
330
1F
100
AcDbEntity
  8
0
  6
Continuous
 62
     7
370
     0
100
AcDbSpline
210
0.0
220
0.0
230
1.0
 70
     8
 71
     3
 72
     9
 73
     5
 74
     0
 42
0.000000001
 43
0.00000001
 40
0.0
 40
0.0
 40
0.0
 40
0.0
 40
0.4664146509344108
 40
1.0
 40
1.0
 40
1.0
 40
1.0
 10
258.3848826767446
 20
156.5859489003733
 30
0.0
 10
258.9482199910922
 20
156.1599881578212
 30
0.0
 10
260.1560236336647
 20
155.246721943523
 30
0.0
 10
261.3638795180147
 20
154.3334139535508
 30
0.0
 10
262.0083737216865
 20
153.846086190917
 30
0.0
  0
LINE
  5
30B
330
1F
100
AcDbEntity
  8
0
  6
Continuous
 62
     7
370
     0
100
AcDbLine
 10
262.1263786195
 20
153.9932852214
 30
0.0
 11
262.0963265813
 21
153.966781815
 31
0.0
  0
LINE
  5
30C
330
1F
100
AcDbEntity
  8
0
  6
Continuous
 62
     7
370
     0
100
AcDbLine
 10
262.8239081918
 20
153.141781815
 30
0.0
 11
262.85396023
 21
153.1682852215
 31
0.0
  0
LINE
  5
30D
330
1F
100
AcDbEntity
  8
0
  6
Continuous
 62
     7
370
     0
100
AcDbLine
 10
257.6363897552
 20
157.38834058
 30
0.0
 11
257.606337717
 21
157.3618371735
 31
0.0
  0
LINE
  5
30E
330
1F
100
AcDbEntity
  8
0
  6
Continuous
 62
     7
370
     0
100
AcDbLine
 10
258.3339193276
 20
156.5368371735
 30
0.0
 11
258.3639713658
 21
156.56334058
 31
0.0
  0
ARC
  5
30F
330
1F
100
AcDbEntity
  8
0
  6
Continuous
 62
     7
370
     0
100
AcDbCircle
 10
261.4829654128
 20
169.5999093195
 30
0.0
 40
3.5
100
AcDbArc
 50
0.0
 51
180.0
  0
LINE
  5
310
330
1F
100
AcDbEntity
  8
0
  6
Continuous
 62
     7
370
     0
100
AcDbLine
 10
261.2148272571
 20
151.7609777834
 30
0.0
 11
261.2148272571
 21
98.9615333293
 31
0.0
  0
LINE
  5
311
330
1F
100
AcDbEntity
  8
0
  6
Continuous
 62
     7
370
     0
100
AcDbLine
 10
262.143893217
 20
99.0651214963
 30
0.0
 11
262.143893217
 21
151.6439264748
 31
0.0
  0
LINE
  5
312
330
1F
100
AcDbEntity
  8
0
  6
Continuous
 62
     7
370
     0
100
AcDbLine
 10
263.5194787595
 20
168.0951708174
 30
0.0
 11
263.5194787595
 21
166.2095527341
 31
0.0
  0
LINE
  5
313
330
1F
100
AcDbEntity
  8
0
  6
Continuous
 62
     7
370
     0
100
AcDbLine
 10
263.5194787595
 20
168.0951708174
 30
0.0
 11
265.9943524931
 21
170.2778042925
 31
0.0
  0
LINE
  5
314
330
1F
100
AcDbEntity
  8
0
  6
Continuous
 62
     7
370
     0
100
AcDbLine
 10
265.9943524931
 20
170.2778042925
 30
0.0
 11
265.9943524931
 21
168.3921862093
 31
0.0
  0
LINE
  5
315
330
1F
100
AcDbEntity
  8
0
  6
Continuous
 62
     7
370
     0
100
AcDbLine
 10
263.5194787595
 20
166.2095527341
 30
0.0
 11
265.9943524931
 21
168.3921862093
 31
0.0
  0
LINE
  5
316
330
1F
100
AcDbEntity
  8
0
  6
Continuous
 62
     7
370
     0
100
AcDbLine
 10
256.9715783325
 20
167.0345106451
 30
0.0
 11
259.6155527663
 21
166.7014011775
 31
0.0
  0
LINE
  5
317
330
1F
100
AcDbEntity
  8
0
  6
Continuous
 62
     7
370
     0
100
AcDbLine
 10
256.9715783325
 20
168.9201287284
 30
0.0
 11
256.9715783325
 21
167.0345106451
 31
0.0
  0
LINE
  5
318
330
1F
100
AcDbEntity
  8
0
  6
Continuous
 62
     7
370
     0
100
AcDbLine
 10
256.9715783325
 20
168.9201287284
 30
0.0
 11
263.5194787595
 21
168.0951708174
 31
0.0
  0
LINE
  5
319
330
1F
100
AcDbEntity
  8
0
  6
Continuous
 62
     7
370
     0
100
AcDbLine
 10
259.9502956956
 20
166.6592275325
 30
0.0
 11
263.5194787595
 21
166.2095527341
 31
0.0
  0
LINE
  5
31A
330
1F
100
AcDbEntity
  8
0
  6
Continuous
 62
     7
370
     0
100
AcDbLine
 10
257.989772534
 20
169.8180916096
 30
0.0
 11
256.9715783325
 21
168.9201287284
 31
0.0
  0
LINE
  5
31B
330
1F
100
AcDbEntity
  8
0
  6
Continuous
 62
     7
370
     0
100
AcDbLine
 10
265.9943524931
 20
170.2778042925
 30
0.0
 11
264.8861504994
 21
170.41742462
 31
0.0
  0
SPLINE
  5
31C
330
1F
100
AcDbEntity
  8
0
  6
Continuous
 62
     7
370
     0
100
AcDbSpline
210
0.0
220
0.0
230
1.0
 70
     8
 71
     3
 72
    23
 73
    19
 74
     0
 42
0.000000001
 43
0.00000001
 40
0.0000000000000021
 40
0.0000000000000021
 40
0.0000000000000021
 40
0.0000000000000021
 40
0.0000136991388042
 40
0.0000136991388042
 40
0.0000136991388042
 40
0.0000216340656101
 40
0.0000216340656101
 40
0.0000216340656101
 40
0.0000296647624066
 40
0.0000296647624066
 40
0.0000296647624066
 40
0.0000367560774241
 40
0.0000367560774241
 40
0.0000367560774241
 40
0.0000484502327164
 40
0.0000484502327164
 40
0.0000484502327164
 40
0.00005241736476
 40
0.00005241736476
 40
0.00005241736476
 40
0.00005241736476
 10
261.9945161486743
 20
165.1764753524113
 30
0.0
 10
261.9980972428712
 20
165.1767983919549
 30
0.0
 10
262.0016948119498
 20
165.1776004623604
 30
0.0
 10
262.0049332238279
 20
165.1792930838343
 30
0.0
 10
262.0068177203432
 20
165.1802780540571
 30
0.0
 10
262.0086061810024
 20
165.1815977955654
 30
0.0
 10
262.0101104262392
 20
165.1832774371818
 30
0.0
 10
262.0116257993315
 20
165.1849695041721
 30
0.0
 10
262.0128785878614
 20
165.1870860790577
 30
0.0
 10
262.0137291908047
 20
165.1894165080899
 30
0.0
 10
262.0144851547919
 20
165.1914876511968
 30
0.0
 10
262.0149523546875
 20
165.1937663911665
 30
0.0
 10
262.0151730026483
 20
165.1960775196019
 30
0.0
 10
262.0155351545781
 20
165.1998708001724
 30
0.0
 10
262.0152685406968
 20
165.2038429448438
 30
0.0
 10
262.0146797620746
 20
165.207701212434
 30
0.0
 10
262.0144782186512
 20
165.2090219269261
 30
0.0
 10
262.0142372919117
 20
165.210338287516
 30
0.0
 10
262.0139648945397
 20
165.2116467791233
 30
0.0
  0
LINE
  5
31D
330
1F
100
AcDbEntity
  8
0
  6
Continuous
 62
     7
370
     0
100
AcDbLine
 10
259.9520909731
 20
166.6580585398
 30
0.0
 11
262.0668174585
 21
165.2810569374
 31
0.0
  0
LINE
  5
31E
330
1F
100
AcDbEntity
  8
0
  6
Continuous
 62
     7
370
     0
100
AcDbLine
 10
256.9715783325
 20
167.0335678361
 30
0.0
 11
259.6173480454
 21
166.7002321845
 31
0.0
  0
LINE
  5
31F
330
1F
100
AcDbEntity
  8
0
  6
Continuous
 62
     7
370
     0
100
AcDbLine
 10
256.9725137468
 20
167.034392794
 30
0.0
 11
256.9715783325
 21
167.0335678361
 31
0.0
  0
LINE
  5
320
330
1F
100
AcDbEntity
  8
0
  6
Continuous
 62
     7
370
     0
100
AcDbLine
 10
265.9943524931
 20
168.3912434003
 30
0.0
 11
265.9934170788
 21
168.3913612514
 31
0.0
  0
LINE
  5
321
330
1F
100
AcDbEntity
  8
0
  6
Continuous
 62
     7
370
     0
100
AcDbLine
 10
263.5194787595
 20
166.2086099251
 30
0.0
 11
265.9943524931
 21
168.3912434003
 31
0.0
  0
LINE
  5
322
330
1F
100
AcDbEntity
  8
0
  6
Continuous
 62
     7
370
     0
100
AcDbLine
 10
259.9520909731
 20
166.6580585398
 30
0.0
 11
263.5194787595
 21
166.2086099251
 31
0.0
  0
LINE
  5
323
330
1F
100
AcDbEntity
  8
0
  6
Continuous
 62
     7
370
     0
100
AcDbLine
 10
263.5194787595
 20
166.2086099251
 30
0.0
 11
263.5194787595
 21
163.3801828003
 31
0.0
  0
LINE
  5
324
330
1F
100
AcDbEntity
  8
0
  6
Continuous
 62
     7
370
     0
100
AcDbLine
 10
265.9943524931
 20
168.3912434003
 30
0.0
 11
265.9943524931
 21
165.5628162754
 31
0.0
  0
LINE
  5
325
330
1F
100
AcDbEntity
  8
0
  6
Continuous
 62
     7
370
     0
100
AcDbLine
 10
263.5194787595
 20
163.3801828003
 30
0.0
 11
265.9943524931
 21
165.5628162754
 31
0.0
  0
LINE
  5
326
330
1F
100
AcDbEntity
  8
0
  6
Continuous
 62
     7
370
     0
100
AcDbLine
 10
260.3886757774
 20
163.7746268998
 30
0.0
 11
263.5194787595
 21
163.3801828003
 31
0.0
  0
ARC
  5
327
330
1F
100
AcDbEntity
  8
0
  6
Continuous
 62
     7
370
     0
100
AcDbCircle
 10
262.4747961153
 20
164.9548878887
 30
0.0
 40
0.5289327466114484
100
AcDbArc
 50
155.2327486629
 51
209.2787176619
  0
LWPOLYLINE
  5
328
330
1F
100
AcDbEntity
  8
0
  6
Continuous
 62
     7
370
     0
100
AcDbPolyline
 90
       23
 70
   128
 43
0.0
 10
262.0357948351
 20
164.6574512778
 10
262.1150401035
 20
164.5560888006
 10
262.2131884374
 20
164.4734130829
 10
262.3248633475
 20
164.4139530363
 10
262.4439473688
 20
164.380965836
 10
262.5639171712
 20
164.3762584952
 10
262.6782009019
 20
164.4000888785
 10
262.780538187
 20
164.4511515758
 10
262.8653230695
 20
164.5266494124
 10
262.9279110992
 20
164.6224466753
 10
262.9648737526
 20
164.7332956648
 10
262.9741862442
 20
164.8531241594
 10
262.955338443
 20
164.9753680472
 10
262.9093628167
 20
165.0933309029
 10
262.8387778747
 20
165.200550813
 10
262.7474502051
 20
165.2911543538
 10
262.6403826668
 20
165.360178334
 10
262.5234403364
 20
165.4038416733
 10
262.4030292241
 20
165.419752528
 10
262.2857453569
 20
165.4070393139
 10
262.1780134541
 20
165.3663984508
 10
262.0857349857
 20
165.3000562138
 10
262.0139648945
 20
165.2116467791
  0
SPLINE
  5
329
330
1F
100
AcDbEntity
  8
0
  6
Continuous
 62
     7
370
     0
100
AcDbSpline
210
0.0
220
0.0
230
1.0
 70
     8
 71
     3
 72
    23
 73
    19
 74
     0
 42
0.000000001
 43
0.00000001
 40
0.0
 40
0.0
 40
0.0
 40
0.0
 40
0.0000136991388042
 40
0.0000136991388042
 40
0.0000136991388042
 40
0.0000216340656101
 40
0.0000216340656101
 40
0.0000216340656101
 40
0.0000296647624066
 40
0.0000296647624066
 40
0.0000296647624066
 40
0.0000367560774241
 40
0.0000367560774241
 40
0.0000367560774241
 40
0.0000484502327164
 40
0.0000484502327164
 40
0.0000484502327164
 40
0.0000524173647333
 40
0.0000524173647333
 40
0.0000524173647333
 40
0.0000524173647333
 10
262.035794835096
 20
164.6574512778415
 30
0.0
 10
262.0364085453167
 20
164.6610256330775
 30
0.0
 10
262.0366634464911
 20
164.6648906708278
 30
0.0
 10
262.0361476027028
 20
164.6689313519401
 30
0.0
 10
262.0358474229054
 20
164.6712827049372
 30
0.0
 10
262.035266785894
 20
164.6737369950228
 30
0.0
 10
262.0343394556325
 20
164.6761314160885
 30
0.0
 10
262.0334052653212
 20
164.6785435502049
 30
0.0
 10
262.0320797722493
 20
164.6809537341688
 30
0.0
 10
262.0304911571677
 20
164.6831080429079
 30
0.0
 10
262.0290792930299
 20
164.6850226610463
 30
0.0
 10
262.0274369076423
 20
164.6867848726129
 30
0.0
 10
262.0257099824068
 20
164.6883327348136
 30
0.0
 10
262.0228755609865
 20
164.6908732581015
 30
0.0
 10
262.0197516453368
 20
164.6929228210298
 30
0.0
 10
262.016641019584
 20
164.6946004109422
 30
0.0
 10
262.0155762286085
 20
164.6951746627942
 30
0.0
 10
262.014505658149
 20
164.6957090001867
 30
0.0
 10
262.0134340024804
 20
164.6962088381212
 30
0.0
  0
LINE
  5
32A
330
1F
100
AcDbEntity
  8
0
  6
Continuous
 62
     7
370
     0
100
AcDbLine
 10
256.9715783325
 20
167.0335678361
 30
0.0
 11
256.9715783325
 21
164.2051407113
 31
0.0
  0
LINE
  5
32B
330
1F
100
AcDbEntity
  8
0
  6
Continuous
 62
     7
370
     0
100
AcDbLine
 10
260.1186215683
 20
163.8086505321
 30
0.0
 11
261.9866567917
 21
164.7539743025
 31
0.0
  0
LINE
  5
32C
330
1F
100
AcDbEntity
  8
0
  6
Continuous
 62
     7
370
     0
100
AcDbLine
 10
256.9715783325
 20
164.2051407113
 30
0.0
 11
260.1186215683
 21
163.8086505321
 31
0.0
  0
LWPOLYLINE
  5
32D
330
1F
100
AcDbEntity
  8
0
  6
Continuous
 62
     7
370
     0
100
AcDbPolyline
 90
       15
 70
   128
 43
0.0
 10
262.85396023
 20
164.5112208011
 10
262.9284736053
 20
164.5969688925
 10
262.9793778796
 20
164.7015710076
 10
263.0030701849
 20
164.8185300909
 10
262.9982326489
 20
164.9413403534
 10
262.9651343569
 20
165.0631705374
 10
262.9056163844
 20
165.1772439014
 10
262.8229893882
 20
165.2772151732
 10
262.7218494525
 20
165.357523502
 10
262.6078224342
 20
165.4137017784
 10
262.4872510276
 20
165.4426251146
 10
262.3668419554
 20
165.4426846648
 10
262.2532929104
 20
165.4138771166
 10
262.1529199998
 20
165.357804875
 10
262.1263786195
 20
165.3362208011
  0
SPLINE
  5
32E
330
1F
100
AcDbEntity
  8
0
  6
Continuous
 62
     7
370
     0
100
AcDbSpline
210
0.0
220
0.0
230
1.0
 70
     8
 71
     3
 72
    17
 73
    13
 74
     0
 42
0.000000001
 43
0.00000001
 40
0.0
 40
0.0
 40
0.0
 40
0.0
 40
0.0000327613862941
 40
0.0000327613862941
 40
0.0000327613862941
 40
0.0000676569624332
 40
0.0000676569624332
 40
0.0000676569624332
 40
0.0000935083918259
 40
0.0000935083918259
 40
0.0000935083918259
 40
0.0001064525923545
 40
0.0001064525923545
 40
0.0001064525923545
 40
0.0001064525923545
 10
258.4697545384405
 20
162.804260900697
 30
0.0
 10
258.4658540395834
 20
162.8009504059811
 30
0.0
 10
258.4612534964907
 20
162.7991775412644
 30
0.0
 10
258.456223320276
 20
162.7991435271718
 30
0.0
 10
258.4508866186404
 20
162.7991074403517
 30
0.0
 10
258.4448860108117
 20
162.8010513354143
 30
0.0
 10
258.4386369489099
 20
162.8050335284416
 30
0.0
 10
258.4339806230788
 20
162.8080007559309
 30
0.0
 10
258.4290598319168
 20
162.8121808527108
 30
0.0
 10
258.4241874121071
 20
162.8173788206074
 30
0.0
 10
258.421722538678
 20
162.8200083832177
 30
0.0
 10
258.4192444328349
 20
162.8229216569798
 30
0.0
 10
258.4168119063521
 20
162.8260561605084
 30
0.0
  0
SPLINE
  5
32F
330
1F
100
AcDbEntity
  8
0
  6
Continuous
 62
     7
370
     0
100
AcDbSpline
210
0.0
220
0.0
230
1.0
 70
     8
 71
     3
 72
    23
 73
    19
 74
     0
 42
0.000000001
 43
0.00000001
 40
0.0000000000000021
 40
0.0000000000000021
 40
0.0000000000000021
 40
0.0000000000000021
 40
0.0000136991388042
 40
0.0000136991388042
 40
0.0000136991388042
 40
0.0000216340656101
 40
0.0000216340656101
 40
0.0000216340656101
 40
0.0000296647624065
 40
0.0000296647624065
 40
0.0000296647624065
 40
0.0000367560774241
 40
0.0000367560774241
 40
0.0000367560774241
 40
0.0000484502327164
 40
0.0000484502327164
 40
0.0000484502327164
 40
0.0000524173647594
 40
0.0000524173647594
 40
0.0000524173647594
 40
0.0000524173647594
 10
258.3944510737555
 20
162.8648137207438
 30
0.0
 10
258.3930485096259
 20
162.8605436617532
 30
0.0
 10
258.392070522532
 20
162.8560409221631
 30
0.0
 10
258.3920613840698
 20
162.8515372502249
 30
0.0
 10
258.3920560662162
 20
162.8489164736243
 30
0.0
 10
258.3923964830488
 20
162.8462503292543
 30
0.0
 10
258.3931933426342
 20
162.8437408438679
 30
0.0
 10
258.3939960970952
 20
162.841212794227
 30
0.0
 10
258.3953029642494
 20
162.8387861837478
 30
0.0
 10
258.396990855603
 20
162.8367194284509
 30
0.0
 10
258.3984909504327
 20
162.8348826224689
 30
0.0
 10
258.4003130852169
 20
162.8332789349692
 30
0.0
 10
258.4022806569766
 20
162.8319433030545
 30
0.0
 10
258.4055100541894
 20
162.8297511156735
 30
0.0
 10
258.4091967661145
 20
162.8281978924064
 30
0.0
 10
258.4129351276624
 20
162.8270739134282
 30
0.0
 10
258.4142147973993
 20
162.8266891668314
 30
0.0
 10
258.4155093408402
 20
162.8263523550421
 30
0.0
 10
258.4168119063658
 20
162.8260561604602
 30
0.0
  0
SPLINE
  5
330
330
1F
100
AcDbEntity
  8
0
  6
Continuous
 62
     7
370
     0
100
AcDbSpline
210
0.0
220
0.0
230
1.0
 70
     8
 71
     3
 72
    17
 73
    13
 74
     0
 42
0.000000001
 43
0.00000001
 40
0.0
 40
0.0
 40
0.0
 40
0.0
 40
0.0000249091250946
 40
0.0000249091250946
 40
0.0000249091250946
 40
0.0000496470944607
 40
0.0000496470944607
 40
0.0000496470944607
 40
0.0000776809554077
 40
0.0000776809554077
 40
0.0000776809554077
 40
0.0001063965837808
 40
0.0001063965837808
 40
0.0001063965837808
 40
0.0001063965837808
 10
258.3944510737568
 20
162.8648137207414
 30
0.0
 10
258.3913264561187
 20
162.8722861662528
 30
0.0
 10
258.3888315119048
 20
162.879782909513
 30
0.0
 10
258.3871363961816
 20
162.8867168933635
 30
0.0
 10
258.3854483133322
 20
162.8936221087754
 30
0.0
 10
258.3844999680241
 20
162.9001546469491
 30
0.0
 10
258.3843005838677
 20
162.9060000272523
 30
0.0
 10
258.3840748074668
 20
162.9126191536187
 30
0.0
 10
258.384800417972
 20
162.9185171066747
 30
0.0
 10
258.38638665061
 20
162.9234487524663
 30
0.0
 10
258.3880123801421
 20
162.9285031953097
 30
0.0
 10
258.3905735570603
 20
162.9326537178827
 30
0.0
 10
258.3939112175209
 20
162.9357185315741
 30
0.0
  0
LINE
  5
331
330
1F
100
AcDbEntity
  8
0
  6
Continuous
 62
     7
370
     0
100
AcDbLine
 10
258.3938357414
 20
162.9358184673
 30
0.0
 11
260.1037046618
 21
163.8011017952
 31
0.0
  0
LINE
  5
332
330
1F
100
AcDbEntity
  8
0
  6
Continuous
 62
     7
370
     0
100
AcDbLine
 10
256.9715783325
 20
164.1957126209
 30
0.0
 11
260.1037046618
 21
163.8011017952
 31
0.0
  0
LINE
  5
333
330
1F
100
AcDbEntity
  8
0
  6
Continuous
 62
     7
370
     0
100
AcDbLine
 10
256.9809324759
 20
164.2039622
 30
0.0
 11
256.9715783325
 21
164.1957126209
 31
0.0
  0
LINE
  5
334
330
1F
100
AcDbEntity
  8
0
  6
Continuous
 62
     7
370
     0
100
AcDbLine
 10
265.9943524931
 20
165.553388185
 30
0.0
 11
265.9849983497
 21
165.5545666963
 31
0.0
  0
LINE
  5
335
330
1F
100
AcDbEntity
  8
0
  6
Continuous
 62
     7
370
     0
100
AcDbLine
 10
263.5194787595
 20
163.3707547099
 30
0.0
 11
265.9943524931
 21
165.553388185
 31
0.0
  0
LINE
  5
336
330
1F
100
AcDbEntity
  8
0
  6
Continuous
 62
     7
370
     0
100
AcDbLine
 10
260.3737588541
 20
163.7670781651
 30
0.0
 11
263.5194787595
 21
163.3707547099
 31
0.0
  0
LINE
  5
337
330
1F
100
AcDbEntity
  8
0
  6
Continuous
 62
     7
370
     0
100
AcDbLine
 10
263.5194787595
 20
163.3707547099
 30
0.0
 11
263.5194787595
 21
160.542327585
 31
0.0
  0
LINE
  5
338
330
1F
100
AcDbEntity
  8
0
  6
Continuous
 62
     7
370
     0
100
AcDbLine
 10
260.3724355237
 20
160.9388177642
 30
0.0
 11
263.5194787595
 21
160.542327585
 31
0.0
  0
LINE
  5
339
330
1F
100
AcDbEntity
  8
0
  6
Continuous
 62
     7
370
     0
100
AcDbLine
 10
258.4699572264
 20
162.3809510072
 30
0.0
 11
260.3724355237
 21
160.9388177642
 31
0.0
  0
LINE
  5
33A
330
1F
100
AcDbEntity
  8
0
  6
Continuous
 62
     7
370
     0
100
AcDbLine
 10
265.9943524931
 20
165.553388185
 30
0.0
 11
265.9943524931
 21
162.7249610602
 31
0.0
  0
LINE
  5
33B
330
1F
100
AcDbEntity
  8
0
  6
Continuous
 62
     7
370
     0
100
AcDbLine
 10
263.5194787595
 20
160.542327585
 30
0.0
 11
265.9943524931
 21
162.7249610602
 31
0.0
  0
LWPOLYLINE
  5
33C
330
1F
100
AcDbEntity
  8
0
  6
Continuous
 62
     7
370
     0
100
AcDbPolyline
 90
       27
 70
   128
 43
0.0
 10
258.4357297601
 20
167.5416102744
 10
258.4742580119
 20
167.6538730937
 10
258.4842426896
 20
167.7755910991
 10
258.4651184657
 20
167.8998726743
 10
258.4179681445
 20
168.0196810553
 10
258.3454613551
 20
168.128232748
 10
258.2517033976
 20
168.2193816068
 10
258.1420028035
 20
168.2879668262
 10
258.0225707687
 20
168.3301051435
 10
257.9001694785
 20
168.343410707
 10
257.7817292365
 20
168.3271301619
 10
257.6739560731
 20
168.2821853051
 10
257.5829520542
 20
168.2111208932
 10
257.5138697844
 20
168.1179605596
 10
257.4706206691
 20
168.0079789986
 10
257.455653453
 20
167.8874033142
 10
257.4698155727
 20
167.7630604448
 10
257.5123051757
 20
167.6419906251
 10
257.5807165207
 20
167.5310487712
 10
257.6711761896
 20
167.4365163585
 10
257.7785623986
 20
167.3637457677
 10
257.8967949913
 20
167.3168572352
 10
258.0191796938
 20
167.2985055678
 10
258.1387871422
 20
167.3097298281
 10
258.248845219
 20
167.3498945039
 10
258.3431224879
 20
167.4167254901
 10
258.4162810143
 20
167.5064388478
  0
ARC
  5
33D
330
1F
100
AcDbEntity
  8
0
  6
Continuous
 62
     7
370
     0
100
AcDbCircle
 10
257.9557038943
 20
167.7986360616
 30
0.0
 40
0.5609810844505819
100
AcDbArc
 50
340.6541073553
 51
124.6949184848
  0
LINE
  5
33E
330
1F
100
AcDbEntity
  8
0
  6
Continuous
 62
     7
370
     0
100
AcDbLine
 10
258.3639713658
 20
167.4348716388
 30
0.0
 11
258.41904357
 21
167.49350551
 31
0.0
  0
SPLINE
  5
33F
330
1F
100
AcDbEntity
  8
0
  6
Continuous
 62
     7
370
     0
100
AcDbSpline
210
0.0
220
0.0
230
1.0
 70
     8
 71
     3
 72
    23
 73
    19
 74
     0
 42
0.000000001
 43
0.00000001
 40
0.0000000000000578
 40
0.0000000000000578
 40
0.0000000000000578
 40
0.0000000000000578
 40
0.0000136991387907
 40
0.0000136991387907
 40
0.0000136991387907
 40
0.0000216340655809
 40
0.0000216340655809
 40
0.0000216340655809
 40
0.0000296647623608
 40
0.0000296647623608
 40
0.0000296647623608
 40
0.0000367560773714
 40
0.0000367560773714
 40
0.0000367560773714
 40
0.0000484502326729
 40
0.0000484502326729
 40
0.0000484502326729
 40
0.0000524173646957
 40
0.0000524173646957
 40
0.0000524173646957
 40
0.0000524173646957
 10
262.0134340024889
 20
159.5350691537725
 30
0.0
 10
262.0170950837945
 20
159.5350591468916
 30
0.0
 10
262.0208081025818
 20
159.5355235966023
 30
0.0
 10
262.0242223481974
 20
159.5369054152967
 30
0.0
 10
262.0262091658739
 20
159.5377095231779
 30
0.0
 10
262.0281232628051
 20
159.5388548766305
 30
0.0
 10
262.0297754689978
 20
159.5403836928743
 30
0.0
 10
262.0314398976072
 20
159.5419238187409
 30
0.0
 10
262.0328692030454
 20
159.5439095447473
 30
0.0
 10
262.0339059913107
 20
159.5461446073327
 30
0.0
 10
262.0348274254508
 20
159.5481309945637
 30
0.0
 10
262.0354710473893
 20
159.5503500642334
 30
0.0
 10
262.0358666768427
 20
159.5526240410224
 30
0.0
 10
262.0365160278257
 20
159.556356344193
 30
0.0
 10
262.0365400700575
 20
159.560324257629
 30
0.0
 10
262.0362282777638
 20
159.5642090893017
 30
0.0
 10
262.0361215488787
 20
159.5655388968743
 30
0.0
 10
262.0359744776615
 20
159.5668680432734
 30
0.0
 10
262.0357948350974
 20
159.5681923137918
 30
0.0
  0
SPLINE
  5
340
330
1F
100
AcDbEntity
  8
0
  6
Continuous
 62
     7
370
     0
100
AcDbSpline
210
0.0
220
0.0
230
1.0
 70
     8
 71
     3
 72
     9
 73
     5
 74
     0
 42
0.000000001
 43
0.00000001
 40
0.0
 40
0.0
 40
0.0
 40
0.0
 40
0.7513368871490406
 40
0.9999999999999999
 40
0.9999999999999999
 40
0.9999999999999999
 40
0.9999999999999999
 10
260.3873524302489
 20
160.9275103202247
 30
0.0
 10
260.389436873418
 20
160.9297783322347
 30
0.0
 10
260.3922111857203
 20
160.9327969674819
 30
0.0
 10
260.3904899192538
 20
160.9358402876072
 30
0.0
 10
260.3900619037761
 20
160.936597049063
 30
0.0
  0
LINE
  5
341
330
1F
100
AcDbEntity
  8
0
  6
Continuous
 62
     7
370
     0
100
AcDbLine
 10
260.3873524302
 20
160.9275103202
 30
0.0
 11
262.0951410093
 21
159.6329574808
 31
0.0
  0
SPLINE
  5
342
330
1F
100
AcDbEntity
  8
0
  6
Continuous
 62
     7
370
     0
100
AcDbSpline
210
0.0
220
0.0
230
1.0
 70
     8
 71
     3
 72
    10
 73
     6
 74
     0
 42
0.000000001
 43
0.00000001
 40
0.0
 40
0.0
 40
0.0
 40
0.0
 40
0.3844784806809585
 40
0.7670225162113476
 40
0.9999999999999999
 40
0.9999999999999999
 40
0.9999999999999999
 40
0.9999999999999999
 10
260.3724355237231
 20
160.9388177642111
 30
0.0
 10
260.3741131064571
 20
160.9410691289058
 30
0.0
 10
260.3774598314221
 20
160.945560530895
 30
0.0
 10
260.3749884323312
 20
160.9517476048137
 30
0.0
 10
260.3696038024598
 20
160.9549949208341
 30
0.0
 10
260.3675656974071
 20
160.9562240436053
 30
0.0
  0
SPLINE
  5
343
330
1F
100
AcDbEntity
  8
0
  6
Continuous
 62
     7
370
     0
100
AcDbSpline
210
0.0
220
0.0
230
1.0
 70
     8
 71
     3
 72
     8
 73
     4
 74
     0
 42
0.000000001
 43
0.00000001
 40
0.0
 40
0.0
 40
0.0
 40
0.0
 40
0.0000327613862941
 40
0.0000327613862941
 40
0.0000327613862941
 40
0.0000327613862941
 10
258.3939112175208
 20
162.2681726892707
 30
0.0
 10
258.3901129790205
 20
162.2648348713655
 30
0.0
 10
258.3873193026187
 20
162.2625712909032
 30
0.0
 10
258.3857591233593
 20
162.2616454813113
 30
0.0
  0
SPLINE
  5
344
330
1F
100
AcDbEntity
  8
0
  6
Continuous
 62
     7
370
     0
100
AcDbSpline
210
0.0
220
0.0
230
1.0
 70
     8
 71
     3
 72
    10
 73
     6
 74
     0
 42
0.000000001
 43
0.00000001
 40
0.0
 40
0.0
 40
0.0
 40
0.0
 40
0.3349379954803398
 40
0.7765805985788167
 40
0.9999999999999999
 40
0.9999999999999999
 40
0.9999999999999999
 40
0.9999999999999999
 10
258.3854196786813
 20
162.2624443392662
 30
0.0
 10
258.3850016795649
 20
162.26246770228
 30
0.0
 10
258.3840325150975
 20
162.2625218713009
 30
0.0
 10
258.3884120189302
 20
162.2692919150453
 30
0.0
 10
258.3929324803589
 20
162.2760814077602
 30
0.0
 10
258.3944510737828
 20
162.27836225434
 30
0.0
  0
SPLINE
  5
345
330
1F
100
AcDbEntity
  8
0
  6
Continuous
 62
     7
370
     0
100
AcDbSpline
210
0.0
220
0.0
230
1.0
 70
     8
 71
     3
 72
    23
 73
    19
 74
     0
 42
0.000000001
 43
0.00000001
 40
0.0
 40
0.0
 40
0.0
 40
0.0
 40
0.0000136991388042
 40
0.0000136991388042
 40
0.0000136991388042
 40
0.00002163406561
 40
0.00002163406561
 40
0.00002163406561
 40
0.0000296647624064
 40
0.0000296647624064
 40
0.0000296647624064
 40
0.000036756077424
 40
0.000036756077424
 40
0.000036756077424
 40
0.0000484502327163
 40
0.0000484502327163
 40
0.0000484502327163
 40
0.0000524173647346
 40
0.0000524173647346
 40
0.0000524173647346
 40
0.0000524173647346
 10
258.4168119063936
 20
162.3114854143747
 30
0.0
 10
258.4123619711751
 20
162.310799717509
 30
0.0
 10
258.4079258664819
 20
162.3096975659049
 30
0.0
 10
258.4039866386104
 20
162.3078527563897
 30
0.0
 10
258.4016943232792
 20
162.3067792249078
 30
0.0
 10
258.3995400061652
 20
162.3054220171736
 30
0.0
 10
258.3977573292922
 20
162.3037781366108
 30
0.0
 10
258.3959614648281
 20
162.3021220952214
 30
0.0
 10
258.3945135334675
 20
162.3001199427001
 30
0.0
 10
258.3935760214704
 20
162.2979724335559
 30
0.0
 10
258.3927428180201
 20
162.2960638584825
 30
0.0
 10
258.3922789454758
 20
162.2940033128805
 30
0.0
 10
258.3921239625451
 20
162.2919415663773
 30
0.0
 10
258.3918695873529
 20
162.2885575991205
 30
0.0
 10
258.3924083413934
 20
162.2850860253519
 30
0.0
 10
258.3933478694791
 20
162.2817548046194
 30
0.0
 10
258.3936694771253
 20
162.2806145022963
 30
0.0
 10
258.394040521324
 20
162.2794828814948
 30
0.0
 10
258.3944510737456
 20
162.2783622543234
 30
0.0
  0
SPLINE
  5
346
330
1F
100
AcDbEntity
  8
0
  6
Continuous
 62
     7
370
     0
100
AcDbSpline
210
0.0
220
0.0
230
1.0
 70
     8
 71
     3
 72
    17
 73
    13
 74
     0
 42
0.000000001
 43
0.00000001
 40
0.0000000000000024
 40
0.0000000000000024
 40
0.0000000000000024
 40
0.0000000000000024
 40
0.0000249091250946
 40
0.0000249091250946
 40
0.0000249091250946
 40
0.0000496470944607
 40
0.0000496470944607
 40
0.0000496470944607
 40
0.0000776809554077
 40
0.0000776809554077
 40
0.0000776809554077
 40
0.0001063965837808
 40
0.0001063965837808
 40
0.0001063965837808
 40
0.0001063965837808
 10
258.4168119063922
 20
162.3114854143726
 30
0.0
 10
258.4214366280279
 20
162.3183012962687
 30
0.0
 10
258.4262498182832
 20
162.3253514183739
 30
0.0
 10
258.4308843510042
 20
162.3320001446548
 30
0.0
 10
258.4354996554903
 20
162.3386212860035
 30
0.0
 10
258.4400601036608
 20
162.3450167581124
 30
0.0
 10
258.4443517526197
 20
162.3507966022065
 30
0.0
 10
258.4492114820651
 20
162.3573415174134
 30
0.0
 10
258.4538434578112
 20
162.3632520169793
 30
0.0
 10
258.4580519016671
 20
162.3682027979019
 30
0.0
 10
258.4623651349827
 20
162.3732768523373
 30
0.0
 10
258.466327017812
 20
162.3774534185982
 30
0.0
 10
258.4697545384406
 20
162.3805195996089
 30
0.0
  0
ARC
  5
347
330
1F
100
AcDbEntity
  8
0
  6
Continuous
 62
     7
370
     0
100
AcDbCircle
 10
256.4751625671
 20
149.1303504658
 30
0.0
 40
2.224184932616483
100
AcDbArc
 50
69.9904638744
 51
93.6776101031
  0
LWPOLYLINE
  5
348
330
1F
100
AcDbEntity
  8
0
  6
Continuous
 62
     7
370
     0
100
AcDbPolyline
 90
        3
 70
   128
 43
0.0
 10
257.2606863947
 20
151.2018594397
 10
257.2593895956
 20
151.2054118337
 10
257.2362264672
 20
151.2202739942
  0
SPLINE
  5
349
330
1F
100
AcDbEntity
  8
0
  6
Continuous
 62
     7
370
     0
100
AcDbSpline
210
0.0
220
0.0
230
1.0
 70
     8
 71
     3
 72
    23
 73
    19
 74
     0
 42
0.000000001
 43
0.00000001
 40
0.0
 40
0.0
 40
0.0
 40
0.0
 40
0.0627821797137003
 40
0.1273889277805308
 40
0.1901690611538951
 40
0.2547510092688685
 40
0.3178842155449055
 40
0.3828157966732835
 40
0.4465333742869153
 40
0.5120700190160895
 40
0.5762885968946992
 40
0.6423595810589735
 40
0.7067317295252092
 40
0.7729857506459383
 40
0.8370731853021144
 40
0.9030514203654768
 40
0.966569926445712
 40
1.0
 40
1.0
 40
1.0
 40
1.0
 10
258.3978317137735
 20
156.8863194816112
 30
0.0
 10
258.3936199699034
 20
156.9104280450247
 30
0.0
 10
258.3850740809561
 20
156.959345812098
 30
0.0
 10
258.3572792477095
 20
157.0304634957717
 30
0.0
 10
258.319029777203
 20
157.0982152707447
 30
0.0
 10
258.2709407429633
 20
157.159628217594
 30
0.0
 10
258.2137794319344
 20
157.2140829358479
 30
0.0
 10
258.1498754294878
 20
157.2592248597219
 30
0.0
 10
258.0799542826317
 20
157.2944541747895
 30
0.0
 10
258.0069835032515
 20
157.3181501364251
 30
0.0
 10
257.9318907510176
 20
157.3298881068616
 30
0.0
 10
257.8580677712024
 20
157.3290134596151
 30
0.0
 10
257.7864583011973
 20
157.3154537427246
 30
0.0
 10
257.7205607163139
 20
157.2897624613351
 30
0.0
 10
257.6609133131463
 20
157.2523395825826
 30
0.0
 10
257.6112227845452
 20
157.2046419826355
 30
0.0
 10
257.5759455985539
 20
157.1579419593869
 30
0.0
 10
257.5623293221493
 20
157.1255496592398
 30
0.0
 10
257.5576341205954
 20
157.1143800579874
 30
0.0
  0
SPLINE
  5
34A
330
1F
100
AcDbEntity
  8
0
  6
Continuous
 62
     7
370
     0
100
AcDbSpline
210
0.0
220
0.0
230
1.0
 70
     8
 71
     3
 72
    10
 73
     6
 74
     0
 42
0.000000001
 43
0.00000001
 40
0.0
 40
0.0
 40
0.0
 40
0.0
 40
0.272933141455005
 40
0.6008092149130034
 40
1.0
 40
1.0
 40
1.0
 40
1.0
 10
258.3666008119077
 20
156.6688143165426
 30
0.0
 10
258.3741038773896
 20
156.6870164162677
 30
0.0
 10
258.3906204164127
 20
156.7270847978035
 30
0.0
 10
258.4033980053345
 20
156.8005454630445
 30
0.0
 10
258.3998046302823
 20
156.8559177364996
 30
0.0
 10
258.3978317137735
 20
156.8863194816112
 30
0.0
  0
LINE
  5
34B
330
1F
100
AcDbEntity
  8
0
  6
Continuous
 62
     7
370
     0
100
AcDbLine
 10
256.9715783325
 20
161.3578574056
 30
0.0
 11
260.0952851178
 21
160.9643073428
 31
0.0
  0
LINE
  5
34C
330
1F
100
AcDbEntity
  8
0
  6
Continuous
 62
     7
370
     0
100
AcDbLine
 10
256.9809324759
 20
161.3661069847
 30
0.0
 11
256.9715783325
 21
161.3578574056
 31
0.0
  0
LINE
  5
34D
330
1F
100
AcDbEntity
  8
0
  6
Continuous
 62
     7
370
     0
100
AcDbLine
 10
265.9943524931
 20
162.7155329698
 30
0.0
 11
265.9849983497
 21
162.7167114811
 31
0.0
  0
LINE
  5
34E
330
1F
100
AcDbEntity
  8
0
  6
Continuous
 62
     7
370
     0
100
AcDbLine
 10
263.5194787595
 20
160.5328994946
 30
0.0
 11
265.9943524931
 21
162.7155329698
 31
0.0
  0
LINE
  5
34F
330
1F
100
AcDbEntity
  8
0
  6
Continuous
 62
     7
370
     0
100
AcDbLine
 10
260.3873524302
 20
160.9275103202
 30
0.0
 11
263.5194787595
 21
160.5328994946
 31
0.0
  0
LINE
  5
350
330
1F
100
AcDbEntity
  8
0
  6
Continuous
 62
     7
370
     0
100
AcDbLine
 10
263.5194787595
 20
160.5328994946
 30
0.0
 11
263.5194787595
 21
157.7044723698
 31
0.0
  0
LINE
  5
351
330
1F
100
AcDbEntity
  8
0
  6
Continuous
 62
     7
370
     0
100
AcDbLine
 10
265.9943524931
 20
162.7155329698
 30
0.0
 11
265.9943524931
 21
159.8871058449
 31
0.0
  0
LINE
  5
352
330
1F
100
AcDbEntity
  8
0
  6
Continuous
 62
     7
370
     0
100
AcDbLine
 10
263.5194787595
 20
157.7044723698
 30
0.0
 11
265.9943524931
 21
159.8871058449
 31
0.0
  0
LINE
  5
353
330
1F
100
AcDbEntity
  8
0
  6
Continuous
 62
     7
370
     0
100
AcDbLine
 10
260.3886757676
 20
158.0989164706
 30
0.0
 11
263.5194787595
 21
157.7044723698
 31
0.0
  0
LINE
  5
354
330
1F
100
AcDbEntity
  8
0
  6
Continuous
 62
     7
370
     0
100
AcDbLine
 10
256.9715783325
 20
164.1957126209
 30
0.0
 11
256.9715783325
 21
161.367285496
 31
0.0
  0
LINE
  5
355
330
1F
100
AcDbEntity
  8
0
  6
Continuous
 62
     7
370
     0
100
AcDbLine
 10
256.9715783325
 20
161.367285496
 30
0.0
 11
260.0803681964
 21
160.9756147887
 31
0.0
  0
LWPOLYLINE
  5
356
330
1F
100
AcDbEntity
  8
0
  6
Continuous
 62
     7
370
     0
100
AcDbPolyline
 90
       23
 70
   128
 43
0.0
 10
262.0357948351
 20
158.9817408474
 10
262.1136589948
 20
158.881815805
 10
262.209922402
 20
158.7999306251
 10
262.3194728289
 20
158.7404339558
 10
262.4364924183
 20
158.7064854666
 10
262.5547666508
 20
158.6998880482
 10
262.6680143771
 20
158.7209920675
 10
262.770221389
 20
158.7686767606
 10
262.8559598134
 20
158.8404097527
 10
262.9206763692
 20
158.9323815443
 10
262.9609341764
 20
159.0397078209
 10
262.9745952773
 20
159.1566888425
 10
262.9609341764
 20
159.2771121379
 10
262.9206763693
 20
159.3945824284
 10
262.8559598135
 20
159.5028612593
 10
262.770221389
 20
159.5961983037
 10
262.6680143772
 20
159.669636743
 10
262.5547666508
 20
159.7192765071
 10
262.4364924183
 20
159.742481394
 10
262.3194728289
 20
159.7380190698
 10
262.2099224021
 20
159.7061265134
 10
262.1136589948
 20
159.6484974321
 10
262.0357948351
 20
159.5681923138
  0
SPLINE
  5
357
330
1F
100
AcDbEntity
  8
0
  6
Continuous
 62
     7
370
     0
100
AcDbSpline
210
0.0
220
0.0
230
1.0
 70
     8
 71
     3
 72
    23
 73
    19
 74
     0
 42
0.000000001
 43
0.00000001
 40
0.0
 40
0.0
 40
0.0
 40
0.0
 40
0.0000136991387911
 40
0.0000136991387911
 40
0.0000136991387911
 40
0.0000216340655816
 40
0.0000216340655816
 40
0.0000216340655816
 40
0.0000296647623619
 40
0.0000296647623619
 40
0.0000296647623619
 40
0.0000367560773728
 40
0.0000367560773728
 40
0.0000367560773728
 40
0.000048450232674
 40
0.000048450232674
 40
0.000048450232674
 40
0.0000524173646982
 40
0.0000524173646982
 40
0.0000524173646982
 40
0.0000524173646982
 10
262.0357948350514
 20
158.9817408474083
 30
0.0
 10
262.0364085452653
 20
158.9853152026444
 30
0.0
 10
262.0366634464908
 20
158.9891802403783
 30
0.0
 10
262.0361476026976
 20
158.993220921488
 30
0.0
 10
262.0358474228974
 20
158.995572274483
 30
0.0
 10
262.0352667858832
 20
158.9980265645661
 30
0.0
 10
262.0343394556197
 20
159.0004209856287
 30
0.0
 10
262.0334052653064
 20
159.0028331197417
 30
0.0
 10
262.0320797722334
 20
159.0052433037013
 30
0.0
 10
262.0304911571519
 20
159.0073976124364
 30
0.0
 10
262.0290792930128
 20
159.0093122305732
 30
0.0
 10
262.0274369076244
 20
159.0110744421381
 30
0.0
 10
262.0257099823886
 20
159.0126223043371
 30
0.0
 10
262.0228755609629
 20
159.0151628276267
 30
0.0
 10
262.0197516453078
 20
159.0172123905553
 30
0.0
 10
262.01664101955
 20
159.0188899804677
 30
0.0
 10
262.0155762285788
 20
159.0194642323164
 30
0.0
 10
262.0145056581237
 20
159.0199985697061
 30
0.0
 10
262.0134340024596
 20
159.0204984076381
 30
0.0
  0
ARC
  5
358
330
1F
100
AcDbEntity
  8
0
  6
Continuous
 62
     7
370
     0
100
AcDbCircle
 10
262.467207599
 20
159.2777837807
 30
0.0
 40
0.5216380355236122
100
AcDbArc
 50
150.4471700164
 51
209.5528299834
  0
LINE
  5
359
330
1F
100
AcDbEntity
  8
0
  6
Continuous
 62
     7
370
     0
100
AcDbLine
 10
256.9715783325
 20
161.3578574056
 30
0.0
 11
256.9715783325
 21
158.5294302808
 31
0.0
  0
LINE
  5
35A
330
1F
100
AcDbEntity
  8
0
  6
Continuous
 62
     7
370
     0
100
AcDbLine
 10
260.1186215683
 20
158.1329401016
 30
0.0
 11
261.9866567917
 21
159.078263872
 31
0.0
  0
LINE
  5
35B
330
1F
100
AcDbEntity
  8
0
  6
Continuous
 62
     7
370
     0
100
AcDbLine
 10
256.9715783325
 20
158.5294302808
 30
0.0
 11
260.1186215683
 21
158.1329401016
 31
0.0
  0
ARC
  5
35C
330
1F
100
AcDbEntity
  8
0
  6
Continuous
 62
     7
370
     0
100
AcDbCircle
 10
262.4521598885
 20
159.2144891104
 30
0.0
 40
0.5523299735902039
100
AcDbArc
 50
316.6742370549
 51
126.145007165
  0
LINE
  5
35D
330
1F
100
AcDbEntity
  8
0
  6
Continuous
 62
     7
370
     0
100
AcDbLine
 10
260.1037046618
 20
158.1253913647
 30
0.0
 11
258.3938357414
 21
157.2601080369
 31
0.0
  0
SPLINE
  5
35E
330
1F
100
AcDbEntity
  8
0
  6
Continuous
 62
     7
370
     0
100
AcDbSpline
210
0.0
220
0.0
230
1.0
 70
     8
 71
     3
 72
     9
 73
     5
 74
     0
 42
0.000000001
 43
0.00000001
 40
0.0
 40
0.0
 40
0.0
 40
0.0
 40
0.751336887150246
 40
1.0
 40
1.0
 40
1.0
 40
1.0
 10
260.1037046617707
 20
158.1253913647381
 30
0.0
 10
260.1066417762058
 20
158.1275519502663
 30
0.0
 10
260.1105509606014
 20
158.1304276050693
 30
0.0
 10
260.1178808116102
 20
158.1323305915796
 30
0.0
 10
260.1197034751788
 20
158.132803794129
 30
0.0
  0
SPLINE
  5
35F
330
1F
100
AcDbEntity
  8
0
  6
Continuous
 62
     7
370
     0
100
AcDbSpline
210
0.0
220
0.0
230
1.0
 70
     8
 71
     3
 72
    11
 73
     7
 74
     0
 42
0.000000001
 43
0.00000001
 40
0.0
 40
0.0
 40
0.0
 40
0.0
 40
0.2223854362560823
 40
0.5888270663292249
 40
0.861871509564678
 40
1.0
 40
1.0
 40
1.0
 40
1.0
 10
258.4649355266807
 20
157.126727967389
 30
0.0
 10
258.4621451918496
 20
157.1252626075158
 30
0.0
 10
258.454757007172
 20
157.1213826611948
 30
0.0
 10
258.4404415564757
 20
157.1270037796174
 30
0.0
 10
258.4265875299695
 20
157.1384086503608
 30
0.0
 10
258.41927010521
 20
157.1473440068804
 30
0.0
 10
258.4168119063521
 20
157.1503457300156
 30
0.0
  0
SPLINE
  5
360
330
1F
100
AcDbEntity
  8
0
  6
Continuous
 62
     7
370
     0
100
AcDbSpline
210
0.0
220
0.0
230
1.0
 70
     8
 71
     3
 72
    23
 73
    19
 74
     0
 42
0.000000001
 43
0.00000001
 40
0.0000000000000022
 40
0.0000000000000022
 40
0.0000000000000022
 40
0.0000000000000022
 40
0.0000136991388042
 40
0.0000136991388042
 40
0.0000136991388042
 40
0.0000216340656101
 40
0.0000216340656101
 40
0.0000216340656101
 40
0.0000296647624066
 40
0.0000296647624066
 40
0.0000296647624066
 40
0.0000367560774241
 40
0.0000367560774241
 40
0.0000367560774241
 40
0.0000484502327164
 40
0.0000484502327164
 40
0.0000484502327164
 40
0.0000524173647619
 40
0.0000524173647619
 40
0.0000524173647619
 40
0.0000524173647619
 10
258.3944510737555
 20
157.189103290251
 30
0.0
 10
258.3930485096259
 20
157.1848332312605
 30
0.0
 10
258.392070522532
 20
157.1803304916703
 30
0.0
 10
258.3920613840698
 20
157.1758268197321
 30
0.0
 10
258.3920560662162
 20
157.1732060431314
 30
0.0
 10
258.3923964830488
 20
157.1705398987615
 30
0.0
 10
258.3931933426342
 20
157.168030413375
 30
0.0
 10
258.3939960970952
 20
157.1655023637342
 30
0.0
 10
258.3953029642493
 20
157.163075753255
 30
0.0
 10
258.396990855603
 20
157.161008997958
 30
0.0
 10
258.3984909504327
 20
157.159172191976
 30
0.0
 10
258.4003130852169
 20
157.1575685044764
 30
0.0
 10
258.4022806569766
 20
157.1562328725616
 30
0.0
 10
258.4055100541894
 20
157.1540406851807
 30
0.0
 10
258.4091967661145
 20
157.1524874619136
 30
0.0
 10
258.4129351276624
 20
157.1513634829354
 30
0.0
 10
258.4142147974001
 20
157.1509787363383
 30
0.0
 10
258.4155093408417
 20
157.1506419245489
 30
0.0
 10
258.4168119063682
 20
157.1503457299669
 30
0.0
  0
SPLINE
  5
361
330
1F
100
AcDbEntity
  8
0
  6
Continuous
 62
     7
370
     0
100
AcDbSpline
210
0.0
220
0.0
230
1.0
 70
     8
 71
     3
 72
    17
 73
    13
 74
     0
 42
0.000000001
 43
0.00000001
 40
0.0
 40
0.0
 40
0.0
 40
0.0
 40
0.0000249091250946
 40
0.0000249091250946
 40
0.0000249091250946
 40
0.0000496470944607
 40
0.0000496470944607
 40
0.0000496470944607
 40
0.0000776809554077
 40
0.0000776809554077
 40
0.0000776809554077
 40
0.0001063965837808
 40
0.0001063965837808
 40
0.0001063965837808
 40
0.0001063965837808
 10
258.3944510737568
 20
157.1891032902485
 30
0.0
 10
258.3913264561187
 20
157.19657573576
 30
0.0
 10
258.3888315119048
 20
157.2040724790202
 30
0.0
 10
258.3871363961816
 20
157.2110064628707
 30
0.0
 10
258.3854483133322
 20
157.2179116782826
 30
0.0
 10
258.3844999680241
 20
157.2244442164562
 30
0.0
 10
258.3843005838677
 20
157.2302895967595
 30
0.0
 10
258.3840748074668
 20
157.2369087231259
 30
0.0
 10
258.384800417972
 20
157.2428066761819
 30
0.0
 10
258.38638665061
 20
157.2477383219735
 30
0.0
 10
258.3880123801421
 20
157.2527927648169
 30
0.0
 10
258.3905735570603
 20
157.2569432873899
 30
0.0
 10
258.3939112175209
 20
157.2600081010814
 30
0.0
  0
ARC
  5
362
330
1F
100
AcDbEntity
  8
0
  6
Continuous
 62
     7
370
     0
100
AcDbCircle
 10
257.9630383099
 20
162.5687707874
 30
0.0
 40
0.5216380355170873
100
AcDbArc
 50
330.4471700165
 51
29.5528299881
  0
LWPOLYLINE
  5
363
330
1F
100
AcDbEntity
  8
0
  6
Continuous
 62
     7
370
     0
100
AcDbPolyline
 90
       23
 70
   128
 43
0.0
 10
258.3944510738
 20
162.8648137207
 10
258.316586914
 20
162.9647387631
 10
258.2203235068
 20
163.0466239431
 10
258.1107730799
 20
163.1061206123
 10
257.9937534905
 20
163.1400691015
 10
257.875479258
 20
163.1466665199
 10
257.7622315317
 20
163.1255625005
 10
257.6600245198
 20
163.0778778075
 10
257.5742860954
 20
163.0061448154
 10
257.5095695396
 20
162.9141730237
 10
257.4693117324
 20
162.8068467472
 10
257.4556506316
 20
162.6898657256
 10
257.4693117325
 20
162.5694424301
 10
257.5095695396
 20
162.4519721396
 10
257.5742860954
 20
162.3436933087
 10
257.6600245199
 20
162.2503562644
 10
257.7622315317
 20
162.1769178251
 10
257.8754792581
 20
162.127278061
 10
257.9937534906
 20
162.1040731741
 10
258.11077308
 20
162.1085354983
 10
258.2203235069
 20
162.1404280547
 10
258.3165869141
 20
162.198057136
 10
258.3944510738
 20
162.2783622543
  0
LINE
  5
364
330
1F
100
AcDbEntity
  8
0
  6
Continuous
 62
     7
370
     0
100
AcDbLine
 10
256.9809324759
 20
158.5282517695
 30
0.0
 11
256.9715783325
 21
158.5200021904
 31
0.0
  0
LINE
  5
365
330
1F
100
AcDbEntity
  8
0
  6
Continuous
 62
     7
370
     0
100
AcDbLine
 10
265.9943524931
 20
159.8776777545
 30
0.0
 11
265.9849983497
 21
159.8788562658
 31
0.0
  0
LINE
  5
366
330
1F
100
AcDbEntity
  8
0
  6
Continuous
 62
     7
370
     0
100
AcDbLine
 10
263.5194787595
 20
157.6950442794
 30
0.0
 11
265.9943524931
 21
159.8776777545
 31
0.0
  0
LINE
  5
367
330
1F
100
AcDbEntity
  8
0
  6
Continuous
 62
     7
370
     0
100
AcDbLine
 10
260.3737588442
 20
158.0913677358
 30
0.0
 11
263.5194787595
 21
157.6950442794
 31
0.0
  0
LINE
  5
368
330
1F
100
AcDbEntity
  8
0
  6
Continuous
 62
     7
370
     0
100
AcDbLine
 10
256.9715783325
 20
158.5200021904
 30
0.0
 11
260.1037046618
 21
158.1253913647
 31
0.0
  0
LINE
  5
369
330
1F
100
AcDbEntity
  8
0
  6
Continuous
 62
     7
370
     0
100
AcDbLine
 10
263.5194787595
 20
157.6950442794
 30
0.0
 11
263.5194787595
 21
154.8666171545
 31
0.0
  0
LINE
  5
36A
330
1F
100
AcDbEntity
  8
0
  6
Continuous
 62
     7
370
     0
100
AcDbLine
 10
260.3794352449
 20
155.2622254517
 30
0.0
 11
263.5194787595
 21
154.8666171545
 31
0.0
  0
LINE
  5
36B
330
1F
100
AcDbEntity
  8
0
  6
Continuous
 62
     7
370
     0
100
AcDbLine
 10
260.3794352449
 20
155.2622254517
 30
0.0
 11
258.4702392634
 21
156.7058428511
 31
0.0
  0
LINE
  5
36C
330
1F
100
AcDbEntity
  8
0
  6
Continuous
 62
     7
370
     0
100
AcDbLine
 10
265.9943524931
 20
159.8776777545
 30
0.0
 11
265.9943524931
 21
157.0492506297
 31
0.0
  0
LINE
  5
36D
330
1F
100
AcDbEntity
  8
0
  6
Continuous
 62
     7
370
     0
100
AcDbLine
 10
263.5194787595
 20
154.8666171545
 30
0.0
 11
265.9943524931
 21
157.0492506297
 31
0.0
  0
ARC
  5
36E
330
1F
100
AcDbEntity
  8
0
  6
Continuous
 62
     7
370
     0
100
AcDbCircle
 10
257.9559808245
 20
162.650617858
 30
0.0
 40
0.5225566219811325
100
AcDbArc
 50
33.0648613684
 51
127.7046514657
  0
LINE
  5
36F
330
1F
100
AcDbEntity
  8
0
  6
Continuous
 62
     7
370
     0
100
AcDbLine
 10
258.3639713658
 20
162.2390510105
 30
0.0
 11
258.3939112175
 21
162.2681726893
 31
0.0
  0
ARC
  5
370
330
1F
100
AcDbEntity
  8
0
  6
Continuous
 62
     7
370
     0
100
AcDbCircle
 10
257.9927270053
 20
162.5923902502
 30
0.0
 40
0.5219621058622377
100
AcDbArc
 50
336.0517134305
 51
23.9482865695
  0
LWPOLYLINE
  5
371
330
1F
100
AcDbEntity
  8
0
  6
Continuous
 62
     7
370
     0
100
AcDbPolyline
 90
       26
 70
   128
 43
0.0
 10
257.2362264672
 20
94.6517314976
 10
257.1851079205
 20
94.6679728909
 10
257.1095768439
 20
94.6866741372
 10
257.0143791329
 20
94.7066601682
 10
256.9054964097
 20
94.7266751883
 10
256.7897701762
 20
94.74546158
 10
256.6744719373
 20
94.7618389252
 10
256.5668463055
 20
94.7747781753
 10
256.4736557949
 20
94.7834663093
 10
256.4007559081
 20
94.7873574201
 10
256.3527272131
 20
94.7862070147
 10
256.3325875294
 20
94.7800873774
 10
256.3416023074
 20
94.7693830274
 10
256.3792051155
 20
94.7547665585
 10
256.4430332309
 20
94.7371563772
 10
256.5290760984
 20
94.7176589958
 10
256.6319273282
 20
94.6974995067
 10
256.7451243992
 20
94.6779446046
 10
256.8615547233
 20
94.6602229959
 10
256.9739025548
 20
94.6454481946
 10
257.0751086665
 20
94.6345485556
 10
257.158813906
 20
94.6282089435
 10
257.2197587653
 20
94.6268276993
 10
257.2541138548
 20
94.6304916117
 10
257.2597205179
 20
94.6389704636
 10
257.2362264672
 20
94.6517314976
  0
SPLINE
  5
372
330
1F
100
AcDbEntity
  8
0
  6
Continuous
 62
     7
370
     0
100
AcDbSpline
210
0.0
220
0.0
230
1.0
 70
     8
 71
     3
 72
     8
 73
     4
 74
     0
 42
0.000000001
 43
0.00000001
 40
0.0
 40
0.0
 40
0.0
 40
0.0
 40
1.0
 40
1.0
 40
1.0
 40
1.0
 10
260.3827860360722
 20
155.266916736405
 30
0.0
 10
260.3822593719239
 20
155.2653061300917
 30
0.0
 10
260.38115420802
 20
155.2637414347247
 30
0.0
 10
260.3794352448946
 20
155.2622254517439
 30
0.0
  0
SPLINE
  5
373
330
1F
100
AcDbEntity
  8
0
  6
Continuous
 62
     7
370
     0
100
AcDbSpline
210
0.0
220
0.0
230
1.0
 70
     8
 71
     3
 72
     8
 73
     4
 74
     0
 42
0.000000001
 43
0.00000001
 40
0.0
 40
0.0
 40
0.0
 40
0.0
 40
0.0000327613862941
 40
0.0000327613862941
 40
0.0000327613862941
 40
0.0000327613862941
 10
258.3943569016121
 20
156.5929409289255
 30
0.0
 10
258.3905585628797
 20
156.5896032085009
 30
0.0
 10
258.3877631207454
 20
156.5873413583082
 30
0.0
 10
258.3861995167119
 20
156.5864188215025
 30
0.0
  0
SPLINE
  5
374
330
1F
100
AcDbEntity
  8
0
  6
Continuous
 62
     7
370
     0
100
AcDbSpline
210
0.0
220
0.0
230
1.0
 70
     8
 71
     3
 72
    10
 73
     6
 74
     0
 42
0.000000001
 43
0.00000001
 40
0.0
 40
0.0
 40
0.0
 40
0.0
 40
0.3350380518418872
 40
0.7766142112843252
 40
1.0
 40
1.0
 40
1.0
 40
1.0
 10
258.3858529835298
 20
156.5872239881741
 30
0.0
 10
258.3854319384094
 20
156.5872499227131
 30
0.0
 10
258.3844559608381
 20
156.5873100386652
 30
0.0
 10
258.3888199072798
 20
156.594094846186
 30
0.0
 10
258.3933280794341
 20
156.6008945435163
 30
0.0
 10
258.3948425444274
 20
156.6031788182111
 30
0.0
  0
SPLINE
  5
375
330
1F
100
AcDbEntity
  8
0
  6
Continuous
 62
     7
370
     0
100
AcDbSpline
210
0.0
220
0.0
230
1.0
 70
     8
 71
     3
 72
    23
 73
    19
 74
     0
 42
0.000000001
 43
0.00000001
 40
0.0
 40
0.0
 40
0.0
 40
0.0
 40
0.0000136991388042
 40
0.0000136991388042
 40
0.0000136991388042
 40
0.00002163406561
 40
0.00002163406561
 40
0.00002163406561
 40
0.0000296647624064
 40
0.0000296647624064
 40
0.0000296647624064
 40
0.000036756077424
 40
0.000036756077424
 40
0.000036756077424
 40
0.0000484502327163
 40
0.0000484502327163
 40
0.0000484502327163
 40
0.0000524173647347
 40
0.0000524173647347
 40
0.0000524173647347
 40
0.0000524173647347
 10
258.4171553274447
 20
156.6363383557973
 30
0.0
 10
258.4127065301965
 20
156.6356470106803
 30
0.0
 10
258.4082721619887
 20
156.6345391099589
 30
0.0
 10
258.4043357124594
 20
156.6326889608488
 30
0.0
 10
258.4020450139011
 20
156.6316123221499
 30
0.0
 10
258.3998927132861
 20
156.6302521001428
 30
0.0
 10
258.398112447064
 20
156.6286055859488
 30
0.0
 10
258.396319011084
 20
156.6269468914455
 30
0.0
 10
258.3948739878658
 20
156.6249424214755
 30
0.0
 10
258.3939395713163
 20
156.6227931843133
 30
0.0
 10
258.3931091189107
 20
156.6208830734829
 30
0.0
 10
258.3926481996572
 20
156.618821406053
 30
0.0
 10
258.3924961603749
 20
156.6167589169346
 30
0.0
 10
258.3922466166254
 20
156.6133737308151
 30
0.0
 10
258.3927902980242
 20
156.609901888982
 30
0.0
 10
258.3937345418297
 20
156.6065709267057
 30
0.0
 10
258.3940577637027
 20
156.6054307128542
 30
0.0
 10
258.3944304082871
 20
156.6042992431995
 30
0.0
 10
258.3948425443901
 20
156.6031788181948
 30
0.0
  0
SPLINE
  5
376
330
1F
100
AcDbEntity
  8
0
  6
Continuous
 62
     7
370
     0
100
AcDbSpline
210
0.0
220
0.0
230
1.0
 70
     8
 71
     3
 72
    17
 73
    13
 74
     0
 42
0.000000001
 43
0.00000001
 40
0.0000000000000024
 40
0.0000000000000024
 40
0.0000000000000024
 40
0.0000000000000024
 40
0.0000249091250946
 40
0.0000249091250946
 40
0.0000249091250946
 40
0.0000496470944607
 40
0.0000496470944607
 40
0.0000496470944607
 40
0.0000776809554077
 40
0.0000776809554077
 40
0.0000776809554077
 40
0.0001063965837808
 40
0.0001063965837808
 40
0.0001063965837808
 40
0.0001063965837808
 10
258.4171553274434
 20
156.6363383557951
 30
0.0
 10
258.4217715096498
 20
156.6431602245017
 30
0.0
 10
258.4265765314857
 20
156.6502158216699
 30
0.0
 10
258.4312039216657
 20
156.6568691893752
 30
0.0
 10
258.4358121132444
 20
156.6634949528914
 30
0.0
 10
258.4403662709274
 20
156.6698943543837
 30
0.0
 10
258.4446527607375
 20
156.6756773561404
 30
0.0
 10
258.4495066481236
 20
156.6822258469861
 30
0.0
 10
258.4541340899452
 20
156.6881390242547
 30
0.0
 10
258.4583394831799
 20
156.6930915920194
 30
0.0
 10
258.4626495899145
 20
156.698167477789
 30
0.0
 10
258.4666098326334
 20
156.7023449828577
 30
0.0
 10
258.4700372482457
 20
156.7054112243967
 30
0.0
  0
SPLINE
  5
377
330
1F
100
AcDbEntity
  8
0
  6
Continuous
 62
     7
370
     0
100
AcDbSpline
210
0.0
220
0.0
230
1.0
 70
     8
 71
     3
 72
    23
 73
    19
 74
     0
 42
0.000000001
 43
0.00000001
 40
0.0000000000000027
 40
0.0000000000000027
 40
0.0000000000000027
 40
0.0000000000000027
 40
0.0000136991387907
 40
0.0000136991387907
 40
0.0000136991387907
 40
0.0000216340655808
 40
0.0000216340655808
 40
0.0000216340655808
 40
0.0000296647623606
 40
0.0000296647623606
 40
0.0000296647623606
 40
0.0000367560773712
 40
0.0000367560773712
 40
0.0000367560773712
 40
0.0000484502326727
 40
0.0000484502326727
 40
0.0000484502326727
 40
0.0000524173646955
 40
0.0000524173646955
 40
0.0000524173646955
 40
0.0000524173646955
 10
262.0130905814377
 20
153.867280632739
 30
0.0
 10
262.016750524773
 20
153.8672762741094
 30
0.0
 10
262.0204618070752
 20
153.8677464729373
 30
0.0
 10
262.0238732743484
 20
153.8691336312266
 30
0.0
 10
262.0258584752521
 20
153.8699408463246
 30
0.0
 10
262.0277705556842
 20
153.8710892140502
 30
0.0
 10
262.0294203512261
 20
153.8726206639253
 30
0.0
 10
262.0310823513513
 20
153.8741634429059
 30
0.0
 10
262.0325087486471
 20
153.8761514863608
 30
0.0
 10
262.0335424414649
 20
153.8783882769643
 30
0.0
 10
262.0344611245602
 20
153.8803761999522
 30
0.0
 10
262.035101793208
 20
153.8825963914498
 30
0.0
 10
262.0354944790128
 20
153.8848711108541
 30
0.0
 10
262.0361389985531
 20
153.8886046328874
 30
0.0
 10
262.0361581134266
 20
153.8925728143879
 30
0.0
 10
262.0358416054132
 20
153.8964573876044
 30
0.0
 10
262.0357332623012
 20
153.8977871067054
 30
0.0
 10
262.0355845906983
 20
153.8991161019577
 30
0.0
 10
262.0354033644527
 20
153.9004401703095
 30
0.0
  0
SPLINE
  5
378
330
1F
100
AcDbEntity
  8
0
  6
Continuous
 62
     7
370
     0
100
AcDbSpline
210
0.0
220
0.0
230
1.0
 70
     8
 71
     3
 72
     8
 73
     4
 74
     0
 42
0.000000001
 43
0.00000001
 40
0.0
 40
0.0
 40
0.0
 40
0.0
 40
1.0
 40
1.0
 40
1.0
 40
1.0
 10
260.3842822003055
 20
155.2657854283881
 30
0.0
 10
260.3837555361572
 20
155.2641748220749
 30
0.0
 10
260.3826503722534
 20
155.2626101267081
 30
0.0
 10
260.380931409128
 20
155.2610941437272
 30
0.0
  0
LINE
  5
379
330
1F
100
AcDbEntity
  8
0
  6
Continuous
 62
     7
370
     0
100
AcDbLine
 10
260.3809314091
 20
155.2610941437
 30
0.0
 11
262.0946435799
 21
153.9652896631
 31
0.0
  0
LINE
  5
37A
330
1F
100
AcDbEntity
  8
0
  6
Continuous
 62
     7
370
     0
100
AcDbLine
 10
256.9715783325
 20
155.6906322565
 30
0.0
 11
256.9725137468
 21
155.6914572144
 31
0.0
  0
LINE
  5
37B
330
1F
100
AcDbEntity
  8
0
  6
Continuous
 62
     7
370
     0
100
AcDbLine
 10
265.9934170788
 20
157.0484256718
 30
0.0
 11
265.9943524931
 21
157.0483078207
 31
0.0
  0
LINE
  5
37C
330
1F
100
AcDbEntity
  8
0
  6
Continuous
 62
     7
370
     0
100
AcDbLine
 10
265.9943524931
 20
157.0483078207
 30
0.0
 11
263.5194787595
 21
154.8656743455
 31
0.0
  0
LINE
  5
37D
330
1F
100
AcDbEntity
  8
0
  6
Continuous
 62
     7
370
     0
100
AcDbLine
 10
263.5194787595
 20
154.8656743455
 30
0.0
 11
260.3809314091
 21
155.2610941437
 31
0.0
  0
LINE
  5
37E
330
1F
100
AcDbEntity
  8
0
  6
Continuous
 62
     7
370
     0
100
AcDbLine
 10
260.0882485907
 20
155.2979687128
 30
0.0
 11
257.9401452779
 21
155.5686042915
 31
0.0
  0
LINE
  5
37F
330
1F
100
AcDbEntity
  8
0
  6
Continuous
 62
     7
370
     0
100
AcDbLine
 10
257.0013755379
 20
155.6868781615
 30
0.0
 11
256.9715783325
 21
155.6906322565
 31
0.0
  0
LINE
  5
380
330
1F
100
AcDbEntity
  8
0
  6
Continuous
 62
     7
370
     0
100
AcDbLine
 10
265.9943524931
 20
154.2198806958
 30
0.0
 11
265.9943524931
 21
157.0483078207
 31
0.0
  0
LINE
  5
381
330
1F
100
AcDbEntity
  8
0
  6
Continuous
 62
     7
370
     0
100
AcDbLine
 10
265.9943524931
 20
154.2198806958
 30
0.0
 11
263.5194787595
 21
152.0372472207
 31
0.0
  0
LINE
  5
382
330
1F
100
AcDbEntity
  8
0
  6
Continuous
 62
     7
370
     0
100
AcDbLine
 10
263.5194787595
 20
152.0372472207
 30
0.0
 11
263.5194787595
 21
154.8656743455
 31
0.0
  0
LINE
  5
383
330
1F
100
AcDbEntity
  8
0
  6
Continuous
 62
     7
370
     0
100
AcDbLine
 10
263.5194787595
 20
152.0372472207
 30
0.0
 11
257.3481513117
 21
152.8147613958
 31
0.0
  0
LINE
  5
384
330
1F
100
AcDbEntity
  8
0
  6
Continuous
 62
     7
370
     0
100
AcDbLine
 10
256.9715783325
 20
155.592181021
 30
0.0
 11
256.9715783325
 21
155.6906322565
 31
0.0
  0
LINE
  5
385
330
1F
100
AcDbEntity
  8
0
  6
Continuous
 62
     7
370
     0
100
AcDbLine
 10
256.9715783325
 20
158.5200021904
 30
0.0
 11
256.9715783325
 21
155.6915750655
 31
0.0
  0
LINE
  5
386
330
1F
100
AcDbEntity
  8
0
  6
Continuous
 62
     7
370
     0
100
AcDbLine
 10
256.9715783325
 20
155.6915750655
 30
0.0
 11
257.0016764777
 21
155.6877830557
 31
0.0
  0
LINE
  5
387
330
1F
100
AcDbEntity
  8
0
  6
Continuous
 62
     7
370
     0
100
AcDbLine
 10
257.9404494269
 20
155.5695087814
 30
0.0
 11
260.0867524279
 21
155.2991000206
 31
0.0
  0
LWPOLYLINE
  5
388
330
1F
100
AcDbEntity
  8
0
  6
Continuous
 62
     7
370
     0
100
AcDbPolyline
 90
       27
 70
   128
 43
0.0
 10
262.0130905814
 20
153.8672806327
 10
261.9655789035
 20
153.7595512327
 10
261.9460677613
 20
153.640199575
 10
261.9556618665
 20
153.5159832943
 10
261.9938180054
 20
153.3939354577
 10
262.0583757953
 20
153.2809663563
 10
262.1456800047
 20
153.1834722473
 10
262.2507875104
 20
153.1069732011
 10
262.367747175
 20
153.0558005577
 10
262.4899367975
 20
153.0328516881
 10
262.6104380589
 20
153.0394259464
 10
262.7224282347
 20
153.0751511012
 10
262.8195664941
 20
153.1380044111
 10
262.8963529144
 20
153.2244271513
 10
262.9484398848
 20
153.3295261071
 10
262.9728782657
 20
153.447350625
 10
262.9682843673
 20
153.5712295365
 10
262.9349182942
 20
153.694148876
 10
262.8746692175
 20
153.8091490084
 10
262.7909484116
 20
153.9097186805
 10
262.6884961091
 20
153.9901636849
 10
262.573113111
 20
154.0459292634
 10
262.4513323482
 20
154.0738579951
 10
262.3300489902
 20
154.0723685685
 10
262.2161300435
 20
154.0415453143
 10
262.1160255451
 20
153.9831334304
 10
262.0354033644
 20
153.9004401703
  0
ARC
  5
389
330
1F
100
AcDbEntity
  8
0
  6
Continuous
 62
     7
370
     0
100
AcDbCircle
 10
262.4519947154
 20
153.5471182923
 30
0.0
 40
0.5523502245422256
100
AcDbArc
 50
316.6969854253
 51
126.1222587946
  0
ARC
  5
38A
330
1F
100
AcDbEntity
  8
0
  6
Continuous
 62
     7
370
     0
100
AcDbCircle
 10
257.9629113275
 20
156.8930386659
 30
0.0
 40
0.5217591980353736
100
AcDbArc
 50
330.5285370831
 51
29.548024367
  0
LWPOLYLINE
  5
38B
330
1F
100
AcDbEntity
  8
0
  6
Continuous
 62
     7
370
     0
100
AcDbPolyline
 90
       13
 70
   128
 43
0.0
 10
258.3944510738
 20
157.1891032902
 10
258.3165636278
 20
157.2890526449
 10
258.2202684592
 20
157.3709513225
 10
258.110682182
 20
157.4304476621
 10
257.9936276293
 20
157.4643803439
 10
257.8753244588
 20
157.4709463653
 10
257.7620586731
 20
157.4497968429
 10
257.6598486147
 20
157.4020555499
 10
257.5741251838
 20
157.3302592052
 10
257.5094432684
 20
157.2382226857
 10
257.4692397222
 20
157.1308363233
 10
257.4556507483
 20
157.0138060595
 10
257.4638964731
 20
156.9206490746
  0
LWPOLYLINE
  5
38C
330
1F
100
AcDbEntity
  8
0
  6
Continuous
 62
     7
370
     0
100
AcDbPolyline
 90
        3
 70
   128
 43
0.0
 10
258.3006549314
 20
156.5103195078
 10
258.3170756241
 20
156.5227344142
 10
258.3948425444
 20
156.6031788182
  0
ARC
  5
38D
330
1F
100
AcDbEntity
  8
0
  6
Continuous
 62
     7
370
     0
100
AcDbCircle
 10
257.9559834326
 20
156.9749228227
 30
0.0
 40
0.5225460369570062
100
AcDbArc
 50
33.0636027253
 51
127.7059101088
  0
LINE
  5
38E
330
1F
100
AcDbEntity
  8
0
  6
Continuous
 62
     7
370
     0
100
AcDbLine
 10
258.3639713658
 20
156.56334058
 30
0.0
 11
258.3943569016
 21
156.5929409289
 31
0.0
  0
ARC
  5
38F
330
1F
100
AcDbEntity
  8
0
  6
Continuous
 62
     7
370
     0
100
AcDbCircle
 10
257.9925978795
 20
156.9166619527
 30
0.0
 40
0.5220873691859182
100
AcDbArc
 50
336.1322349612
 51
23.9443264848
  0
LINE
  5
390
330
1F
100
AcDbEntity
  8
0
  6
Continuous
 62
     7
370
     0
100
AcDbLine
 10
265.9934170788
 20
154.2190557379
 30
0.0
 11
265.9943524931
 21
154.2189378868
 31
0.0
  0
LINE
  5
391
330
1F
100
AcDbEntity
  8
0
  6
Continuous
 62
     7
370
     0
100
AcDbLine
 10
265.9943524931
 20
154.2189378868
 30
0.0
 11
263.5194787595
 21
152.0363044116
 31
0.0
  0
LINE
  5
392
330
1F
100
AcDbEntity
  8
0
  6
Continuous
 62
     7
370
     0
100
AcDbLine
 10
263.5194787595
 20
152.0363044116
 30
0.0
 11
257.348056045
 21
152.8138305892
 31
0.0
  0
LINE
  5
393
330
1F
100
AcDbEntity
  8
0
  6
Continuous
 62
     7
370
     0
100
AcDbLine
 10
263.5194787595
 20
151.4706189866
 30
0.0
 11
263.5194787595
 21
152.0363044116
 31
0.0
  0
LINE
  5
394
330
1F
100
AcDbEntity
  8
0
  6
Continuous
 62
     7
370
     0
100
AcDbLine
 10
263.5194787595
 20
151.4706189866
 30
0.0
 11
257.2988730423
 21
152.2543416402
 31
0.0
  0
LINE
  5
395
330
1F
100
AcDbEntity
  8
0
  6
Continuous
 62
     7
370
     0
100
AcDbLine
 10
265.9943524931
 20
153.6532524618
 30
0.0
 11
265.9943524931
 21
154.2189378868
 31
0.0
  0
LINE
  5
396
330
1F
100
AcDbEntity
  8
0
  6
Continuous
 62
     7
370
     0
100
AcDbLine
 10
265.9943524931
 20
153.6532524618
 30
0.0
 11
263.5194787595
 21
151.4706189866
 31
0.0
  0
LWPOLYLINE
  5
397
330
1F
100
AcDbEntity
  8
0
  6
Continuous
 62
     7
370
     0
100
AcDbPolyline
 90
       36
 70
   128
 43
0.0
 10
264.9829654128
 20
169.5999093195
 10
264.9705753556
 20
169.5018294843
 10
264.92854883
 20
169.3949825264
 10
264.8571258015
 20
169.2898839315
 10
264.7569156263
 20
169.187430364
 10
264.6287732623
 20
169.0884959215
 10
264.4737919748
 20
168.9939246777
 10
264.2932940097
 20
168.9045234813
 10
264.0888193118
 20
168.8210550716
 10
263.8621123873
 20
168.7442315718
 10
263.6151074197
 20
168.6747084128
 10
263.3499117682
 20
168.6130787418
 10
263.0687879887
 20
168.5598683613
 10
262.7741345301
 20
168.5155312435
 10
262.4684652719
 20
168.4804456571
 10
262.1543880763
 20
168.45491094
 10
261.8345825394
 20
168.4391449453
 10
261.511777129
 20
168.4332821831
 10
261.1887259073
 20
168.4373726721
 10
260.8681850333
 20
168.451381514
 10
260.5528892487
 20
168.4751891902
 10
260.245528546
 20
168.5085925819
 10
259.9487252184
 20
168.5513067032
 10
259.6650114871
 20
168.6029671324
 10
259.3968078977
 20
168.6631331208
 10
259.1464026687
 20
168.7312913534
 10
258.9159321692
 20
168.8068603282
 10
258.7073626922
 20
168.8891953174
 10
258.522473679
 20
168.9775938678
 10
258.3628425374
 20
169.0713017943
 10
258.229831184
 20
169.1695196138
 10
258.1245744249
 20
169.2714093665
 10
258.0479702735
 20
169.376101765
 10
258.0006722895
 20
169.4827036107
 10
257.9830840027
 20
169.5903054141
 10
257.9829654128
 20
169.5999093195
  0
LINE
  5
398
330
1F
100
AcDbEntity
  8
0
  6
Continuous
 62
     7
370
     0
100
AcDbLine
 10
263.5194787595
 20
163.3801828003
 30
0.0
 11
260.3873524302
 21
163.7747936259
 31
0.0
  0
LINE
  5
399
330
1F
100
AcDbEntity
  8
0
  6
Continuous
 62
     7
370
     0
100
AcDbLine
 10
263.5194787595
 20
163.3707547099
 30
0.0
 11
260.3724355237
 21
163.767244889
 31
0.0
  0
LWPOLYLINE
  5
39A
330
1F
100
AcDbEntity
  8
0
  6
Continuous
 62
     7
370
     0
100
AcDbPolyline
 90
        3
 70
   128
 43
0.0
 10
262.11900498
 20
98.9579373816
 10
262.1424990307
 20
99.0399809008
 10
262.1438897493
 20
99.0664316275
  0
LWPOLYLINE
  5
39B
330
1F
100
AcDbEntity
  8
0
  6
Continuous
 62
     7
370
     0
100
AcDbPolyline
 90
       13
 70
   128
 43
0.0
 10
261.2148274019
 20
98.9617363785
 10
261.2153660422
 20
98.9459583081
 10
261.2355057259
 20
98.8683397817
 10
261.2835344209
 20
98.7998313615
 10
261.3564343077
 20
98.7447376834
 10
261.4496248183
 20
98.7065204857
 10
261.5572504501
 20
98.6875810957
 10
261.672548689
 20
98.6891095447
 10
261.7882749224
 20
98.7110097948
 10
261.8971576457
 20
98.7519057727
 10
261.9923553567
 20
98.8092278337
 10
262.0678864333
 20
98.8793742218
 10
262.11900498
 20
98.9579373816
  0
OLE2FRAME
  5
39C
330
1F
100
AcDbEntity
  8
0
100
AcDbOle2Frame
 70
     2
  3
Paintbrush Picture
 10
229.0524259344
 20
33.6996298005
 30
0.0
 11
265.1686468101
 21
28.5554797105
 31
0.0
 71
     2
 72
     0
 73
     1
 90
     7296
310
8055E6312779ADA16C40BC4424788DD940400000000000000000235EFFC6B292
310
7040BC4424788DD940400000000000000000235EFFC6B29270406E0516EB338E
310
3C400000000000000000E6312779ADA16C406E0516EB338E3C40000000000000
310
00000000000001000000000100000100000001000000000001000000001C0000
310
D0CF11E0A1B11AE1000000000000000000000000000000003E000300FEFF0900
310
0600000000000000000000000100000001000000000000000010000002000000
310
01000000FEFFFFFF0000000000000000FFFFFFFFFFFFFFFFFFFFFFFFFFFFFFFF
310
FFFFFFFFFFFFFFFFFFFFFFFFFFFFFFFFFFFFFFFFFFFFFFFFFFFFFFFFFFFFFFFF
310
FFFFFFFFFFFFFFFFFFFFFFFFFFFFFFFFFFFFFFFFFFFFFFFFFFFFFFFFFFFFFFFF
310
FFFFFFFFFFFFFFFFFFFFFFFFFFFFFFFFFFFFFFFFFFFFFFFFFFFFFFFFFFFFFFFF
310
FFFFFFFFFFFFFFFFFFFFFFFFFFFFFFFFFFFFFFFFFFFFFFFFFFFFFFFFFFFFFFFF
310
FFFFFFFFFFFFFFFFFFFFFFFFFFFFFFFFFFFFFFFFFFFFFFFFFFFFFFFFFFFFFFFF
310
FFFFFFFFFFFFFFFFFFFFFFFFFFFFFFFFFFFFFFFFFFFFFFFFFFFFFFFFFFFFFFFF
310
FFFFFFFFFFFFFFFFFFFFFFFFFFFFFFFFFFFFFFFFFFFFFFFFFFFFFFFFFFFFFFFF
310
FFFFFFFFFFFFFFFFFFFFFFFFFFFFFFFFFFFFFFFFFFFFFFFFFFFFFFFFFFFFFFFF
310
FFFFFFFFFFFFFFFFFFFFFFFFFFFFFFFFFFFFFFFFFFFFFFFFFFFFFFFFFFFFFFFF
310
FFFFFFFFFFFFFFFFFFFFFFFFFFFFFFFFFFFFFFFFFFFFFFFFFFFFFFFFFFFFFFFF
310
FFFFFFFFFFFFFFFFFFFFFFFFFFFFFFFFFFFFFFFFFFFFFFFFFFFFFFFFFFFFFFFF
310
FFFFFFFFFFFFFFFFFFFFFFFFFFFFFFFFFFFFFFFFFFFFFFFFFFFFFFFFFFFFFFFF
310
FFFFFFFFFFFFFFFFFFFFFFFFFFFFFFFFFFFFFFFFFFFFFFFFFFFFFFFFFFFFFFFF
310
FDFFFFFFFEFFFFFFFEFFFFFFFEFFFFFF05000000060000000700000008000000
310
090000000A0000000B0000000C000000FEFFFFFFFFFFFFFFFFFFFFFFFFFFFFFF
310
FFFFFFFFFFFFFFFFFFFFFFFFFFFFFFFFFFFFFFFFFFFFFFFFFFFFFFFFFFFFFFFF
310
FFFFFFFFFFFFFFFFFFFFFFFFFFFFFFFFFFFFFFFFFFFFFFFFFFFFFFFFFFFFFFFF
310
FFFFFFFFFFFFFFFFFFFFFFFFFFFFFFFFFFFFFFFFFFFFFFFFFFFFFFFFFFFFFFFF
310
FFFFFFFFFFFFFFFFFFFFFFFFFFFFFFFFFFFFFFFFFFFFFFFFFFFFFFFFFFFFFFFF
310
FFFFFFFFFFFFFFFFFFFFFFFFFFFFFFFFFFFFFFFFFFFFFFFFFFFFFFFFFFFFFFFF
310
FFFFFFFFFFFFFFFFFFFFFFFFFFFFFFFFFFFFFFFFFFFFFFFFFFFFFFFFFFFFFFFF
310
FFFFFFFFFFFFFFFFFFFFFFFFFFFFFFFFFFFFFFFFFFFFFFFFFFFFFFFFFFFFFFFF
310
FFFFFFFFFFFFFFFFFFFFFFFFFFFFFFFFFFFFFFFFFFFFFFFFFFFFFFFFFFFFFFFF
310
FFFFFFFFFFFFFFFFFFFFFFFFFFFFFFFFFFFFFFFFFFFFFFFFFFFFFFFFFFFFFFFF
310
FFFFFFFFFFFFFFFFFFFFFFFFFFFFFFFFFFFFFFFFFFFFFFFFFFFFFFFFFFFFFFFF
310
FFFFFFFFFFFFFFFFFFFFFFFFFFFFFFFFFFFFFFFFFFFFFFFFFFFFFFFFFFFFFFFF
310
FFFFFFFFFFFFFFFFFFFFFFFFFFFFFFFFFFFFFFFFFFFFFFFFFFFFFFFFFFFFFFFF
310
FFFFFFFFFFFFFFFFFFFFFFFFFFFFFFFFFFFFFFFFFFFFFFFFFFFFFFFFFFFFFFFF
310
FFFFFFFFFFFFFFFFFFFFFFFFFFFFFFFFFFFFFFFFFFFFFFFFFFFFFFFFFFFFFFFF
310
52006F006F007400200045006E00740072007900000000000000000000000000
310
0000000000000000000000000000000000000000000000000000000000000000
310
16000500FFFFFFFFFFFFFFFF020000000A00030000000000C000000000000046
310
00000000000000000000000070BC297D32DBD10103000000C000000000000000
310
01004F006C006500000000000000000000000000000000000000000000000000
310
0000000000000000000000000000000000000000000000000000000000000000
310
0A000200FFFFFFFFFFFFFFFFFFFFFFFF00000000000000000000000000000000
310
0000000000000000000000000000000000000000000000001400000000000000
310
010043006F006D0070004F0062006A0000000000000000000000000000000000
310
0000000000000000000000000000000000000000000000000000000000000000
310
120002010100000003000000FFFFFFFF00000000000000000000000000000000
310
0000000000000000000000000000000000000000010000004D00000000000000
310
01004F006C006500310030004E00610074006900760065000000000000000000
310
0000000000000000000000000000000000000000000000000000000000000000
310
1A000200FFFFFFFFFFFFFFFFFFFFFFFF00000000000000000000000000000000
310
000000000000000000000000000000000000000004000000E411000000000000
310
FEFFFFFF02000000FEFFFFFFFFFFFFFFFFFFFFFFFFFFFFFFFFFFFFFFFFFFFFFF
310
FFFFFFFFFFFFFFFFFFFFFFFFFFFFFFFFFFFFFFFFFFFFFFFFFFFFFFFFFFFFFFFF
310
FFFFFFFFFFFFFFFFFFFFFFFFFFFFFFFFFFFFFFFFFFFFFFFFFFFFFFFFFFFFFFFF
310
FFFFFFFFFFFFFFFFFFFFFFFFFFFFFFFFFFFFFFFFFFFFFFFFFFFFFFFFFFFFFFFF
310
FFFFFFFFFFFFFFFFFFFFFFFFFFFFFFFFFFFFFFFFFFFFFFFFFFFFFFFFFFFFFFFF
310
FFFFFFFFFFFFFFFFFFFFFFFFFFFFFFFFFFFFFFFFFFFFFFFFFFFFFFFFFFFFFFFF
310
FFFFFFFFFFFFFFFFFFFFFFFFFFFFFFFFFFFFFFFFFFFFFFFFFFFFFFFFFFFFFFFF
310
FFFFFFFFFFFFFFFFFFFFFFFFFFFFFFFFFFFFFFFFFFFFFFFFFFFFFFFFFFFFFFFF
310
FFFFFFFFFFFFFFFFFFFFFFFFFFFFFFFFFFFFFFFFFFFFFFFFFFFFFFFFFFFFFFFF
310
FFFFFFFFFFFFFFFFFFFFFFFFFFFFFFFFFFFFFFFFFFFFFFFFFFFFFFFFFFFFFFFF
310
FFFFFFFFFFFFFFFFFFFFFFFFFFFFFFFFFFFFFFFFFFFFFFFFFFFFFFFFFFFFFFFF
310
FFFFFFFFFFFFFFFFFFFFFFFFFFFFFFFFFFFFFFFFFFFFFFFFFFFFFFFFFFFFFFFF
310
FFFFFFFFFFFFFFFFFFFFFFFFFFFFFFFFFFFFFFFFFFFFFFFFFFFFFFFFFFFFFFFF
310
FFFFFFFFFFFFFFFFFFFFFFFFFFFFFFFFFFFFFFFFFFFFFFFFFFFFFFFFFFFFFFFF
310
FFFFFFFFFFFFFFFFFFFFFFFFFFFFFFFFFFFFFFFFFFFFFFFFFFFFFFFFFFFFFFFF
310
FFFFFFFFFFFFFFFFFFFFFFFFFFFFFFFFFFFFFFFFFFFFFFFFFFFFFFFFFFFFFFFF
310
0100000200000000000000000000000000000000000000000000000000000000
310
0000000000000000000000000000000000000000000000000000000000000000
310
0100FEFF030A0000FFFFFFFF0A00030000000000C00000000000004607000000
310
5042727573680007000000504272757368000700000050427275736800F439B2
310
7100000000000000000000000000000000000000000000000000000000000000
310
0000000000000000000000000000000000000000000000000000000000000000
310
0000000000000000000000000000000000000000000000000000000000000000
310
0000000000000000000000000000000000000000000000000000000000000000
310
0000000000000000000000000000000000000000000000000000000000000000
310
0000000000000000000000000000000000000000000000000000000000000000
310
0000000000000000000000000000000000000000000000000000000000000000
310
0000000000000000000000000000000000000000000000000000000000000000
310
0000000000000000000000000000000000000000000000000000000000000000
310
0000000000000000000000000000000000000000000000000000000000000000
310
0000000000000000000000000000000000000000000000000000000000000000
310
0000000000000000000000000000000000000000000000000000000000000000
310
E0110000424DDE11000000000000360400002800000096000000170000000100
310
08000000000000000000E7240000E72400000001000000010000000000FF0101
310
01FF020202FF030303FF040404FF050505FF060606FF070707FF080808FF0909
310
09FF0A0A0AFF0B0B0BFF0C0C0CFF0D0D0DFF0E0E0EFF0F0F0FFF101010FF1111
310
11FF121212FF131313FF141414FF151515FF161616FF171717FF181818FF1919
310
19FF1A1A1AFF1B1B1BFF1C1C1CFF1D1D1DFF1E1E1EFF1F1F1FFF202020FF2121
310
21FF222222FF232323FF242424FF252525FF262626FF272727FF282828FF2929
310
29FF2A2A2AFF2B2B2BFF2C2C2CFF2D2D2DFF2E2E2EFF2F2F2FFF303030FF3131
310
31FF323232FF333333FF343434FF353535FF363636FF373737FF383838FF3939
310
39FF3A3A3AFF3B3B3BFF3C3C3CFF3D3D3DFF3E3E3EFF3F3F3FFF404040FF4141
310
41FF424242FF434343FF444444FF454545FF464646FF474747FF484848FF4949
310
49FF4A4A4AFF4B4B4BFF4C4C4CFF4D4D4DFF4E4E4EFF4F4F4FFF505050FF5151
310
51FF525252FF535353FF545454FF555555FF565656FF575757FF585858FF5959
310
59FF5A5A5AFF5B5B5BFF5C5C5CFF5D5D5DFF5E5E5EFF5F5F5FFF606060FF6161
310
61FF626262FF636363FF646464FF656565FF666666FF676767FF686868FF6969
310
69FF6A6A6AFF6B6B6BFF6C6C6CFF6D6D6DFF6E6E6EFF6F6F6FFF707070FF7171
310
71FF727272FF737373FF747474FF757575FF767676FF777777FF787878FF7979
310
79FF7A7A7AFF7B7B7BFF7C7C7CFF7D7D7DFF7E7E7EFF7F7F7FFF808080FF8181
310
81FF828282FF838383FF848484FF858585FF868686FF878787FF888888FF8989
310
89FF8A8A8AFF8B8B8BFF8C8C8CFF8D8D8DFF8E8E8EFF8F8F8FFF909090FF9191
310
91FF929292FF939393FF949494FF959595FF969696FF979797FF989898FF9999
310
99FF9A9A9AFF9B9B9BFF9C9C9CFF9D9D9DFF9E9E9EFF9F9F9FFFA0A0A0FFA1A1
310
A1FFA2A2A2FFA3A3A3FFA4A4A4FFA5A5A5FFA6A6A6FFA7A7A7FFA8A8A8FFA9A9
310
A9FFAAAAAAFFABABABFFACACACFFADADADFFAEAEAEFFAFAFAFFFB0B0B0FFB1B1
310
B1FFB2B2B2FFB3B3B3FFB4B4B4FFB5B5B5FFB6B6B6FFB7B7B7FFB8B8B8FFB9B9
310
B9FFBABABAFFBBBBBBFFBCBCBCFFBDBDBDFFBEBEBEFFBFBFBFFFC0C0C0FFC1C1
310
C1FFC2C2C2FFC3C3C3FFC4C4C4FFC5C5C5FFC6C6C6FFC7C7C7FFC8C8C8FFC9C9
310
C9FFCACACAFFCBCBCBFFCCCCCCFFCDCDCDFFCECECEFFCFCFCFFFD0D0D0FFD1D1
310
D1FFD2D2D2FFD3D3D3FFD4D4D4FFD5D5D5FFD6D6D6FFD7D7D7FFD8D8D8FFD9D9
310
D9FFDADADAFFDBDBDBFFDCDCDCFFDDDDDDFFDEDEDEFFDFDFDFFFE0E0E0FFE1E1
310
E1FFE2E2E2FFE3E3E3FFE4E4E4FFE5E5E5FFE6E6E6FFE7E7E7FFE8E8E8FFE9E9
310
E9FFEAEAEAFFEBEBEBFFECECECFFEDEDEDFFEEEEEEFFEFEFEFFFF0F0F0FFF1F1
310
F1FFF2F2F2FFF3F3F3FFF4F4F4FFF5F5F5FFF6F6F6FFF7F7F7FFF8F8F8FFF9F9
310
F9FFFAFAFAFFFBFBFBFFFCFCFCFFFDFDFDFFFEFEFEFFFFFFFFFFFFFFFFFFFFFF
310
C94E4E4E4F4E4EFFFFFFFFFFC94E4E4E4E4E72FFFFFFFFFFFFFF734E4D4E4E4E
310
C9FFFFFFFFFFAA683516171616265B9BE9FFFFFFFFFF4E4E4E4D4E4EFFFFFFFF
310
FFFFFFFF4E4E4F4E4D4E4E4E4F4E4E4F4D4E4E4E4E4E4D4E4F4E4D4E4E4EAAFF
310
FFFFFFFFFFEA4E4F4F4E4E4E4E4E4D4D4F4F4E4E4E4E4E5B7FAAFFFFFFFFFFFF
310
C9744E1716171616164D8DEAFFFFFFFF0000FFFFFFFFFFFFBA161617161716FF
310
FFFFFFFFB917171616174FFFFFFFFFFFFFFF4E1716161616B9FFFFFFB9341717
310
1716171617171616268CFFFFFFFF161617161617FFFFFFFFFFFFFFB917161717
310
1617167F807F7F7F7F7F7F807F7F807F7F807F7F7F414EFFFFFFFFFFFF8C167F
310
7F807F7F7F7E7F7F807F807F7F807F4E3417258EFFFFEA4E162674AABAEAEBBA
310
AA74341680FFFFFF0000FFFFFFFFFFFFB9171717171617FFFFFFFFFFBB161616
310
16164EFFFFFFFFFFFFFF4E1717171717B9FFFF9C171617171716161616171616
310
171766FFFFFF161717161617FFFFFFFFFFFFFF8E16171717161616FFFFFFFFFF
310
FFFFFFFFFFFFFFFFFFFFFFFFFFAA16D9FFFFFFFFFF3467FFFFFFFFEAFFFFFFFF
310
FFFFFFFFFFFFFFFFFFCA671667EB26278DFFFFFFFFFFFFFFFFFFFF8C2541EAFF
310
0000FFFFFFFFFFFFB9171717171716FFFFFFFFFFBA16171617174EFFFFFFFFFF
310
FFFF4E1717161616BAFF9B1617161616171716171617161616161667FFFF1616
310
16161716FFFFFFFFFFFFFF7F16161617174017FFFFFFFFFFFFFFFFFFFFFFFFFF
310
FFFFFFFFFFFF344E7F7F7F7E7417DAFFFFFFFF80FFFFFFFFFFFFFFFFFFFFFFFF
310
FFFFFF9B163425CAFFFFFFFFFFFFFFFFFFFFFFFFCA2667FF0000FFFFFFFFFFFF
310
BA171717171617FFFFFFFFFFB916171716164EFFFFFFFFFFFFFF4F1716161717
310
B9C91716171616161716161617171616161617168DFF161716161717FFFFFFFF
310
FFFFFF7F17171716164F16FFFFFFFFFFFFFFFFFFFFFFFFFFFFFFFFFFFFFF9B16
310
17161617174EFFFFFFFFFF34FFFFFFFFD9BABABABABADAFFFFFFFFFF7F16AAFF
310
FFFFFFFFFFFFFFFFFFFFFFFFFF9C16BA0000FFFFFFFFFFFFB9161717161717FF
310
FFFFFFFFB917161716174DFFFFFFFFFFFFFF4E1616161616BA4E161617171716
310
419BEAEAAA4E16161617161726E9171717161616FFFFFFFFFFFFFF4F16161717
310
164E16FFFFFFFFFFBAB9B9B9B9B9BABABACAFFFFFFFFFFFFFFFFFFFFFFFFFFFF
310
FFFFBA16FFFFFFFF7F1617161617174DEAFFFFFFEA41FFFFFFFFFFAA4D16174E
310
9BFFFFFFFFFF34730000FFFFFFFFFFFFB9161617171617FFFFFFFFFFBA161616
310
16164EFFFFFFFFFFFFFF4F16161717169B1617161716175BFFFFFFFFFFFF7417
310
16171616168D171717161617FFFFFFFFFFFFEA2616171717167416FFFFFFFFFF
310
16171616171717171717EAFFFFFFFFFFFFFFFFFFFFFFFFFFFFFF6716FFFFFFFF
310
7F4EFFFFFFFFBA2573FFFFFFFFBAFFFFFFFFAA167FB9BB9B269BFFFFFFFF664F
310
0000FFFFFFFFFFFFB9171616161616FFFFFFFFFFBA16161717164EFFFFFFFFFF
310
FFFF4E16161616174E161617171626EAFFFFFFFFFFFFFF4E16161616164E1716
310
16161617FFFFFFFFFFFF671616161716347F16FFFFFFFFFF16B9FFFFFFFFFFFF
310
D9168DFFFFFFFFFFFFFFFFFFFFFFFFFFFFEA1716FFFFFFFF7F4EFFFFFFFFFF7F
310
4EFFFFFFFFFFFFFFFFFF5B66FFFFFFEA347FFFFFFFFF7F4D0000FFFFFFFFFFFF
310
B9171616171617FFFFFFFFFFBA17161716174EFFFFFFFFFFFFFF4D1716161617
310
17161716161673FFFFFFFFFFFFFFFF9B1617161717161616171616174F4E4E4E
310
4E341616171616167E7F16FFFFFFFFFF16BAFFFFFFFFFFFFFF5B41FFFFFFFF34
310
1616171616BAFFFFFF9B1716FFFFFFFF7F4EFFFFFFFFFF4E4EFFFFFFFF734E4E
310
4E4E267EDA9B67164EEAFFFFFFFF744D0000FFFFFFFFFFFFBA171717161617FF
310
FFFFFFFFBA1616171616347F7F7F7F80807F331616161717161717161716B9FF
310
FFFFFFFFFFFFFFE9161616161616171716161716171616161616171616171734
310
EA7F16FFFFFFFFFF16BAFFFFFFFFFFFFFFAA17C9FFFFFF7326BABA5B25FFFFFF
310
FF401716FFFFFFFF7F264F4E4E4E4217AAFFFFFFEA16677F73261616164173CA
310
FFFFFFFFFFFF417F0000FFFFFFFFFFFFBA171616171617FFFFFFFFFFBA161616
310
17171616161616161616161717161616161616161617EAFFFFFFFFFFFFFFFFFF
310
261717161716161617161616161617161617161616174EEAFF8016FFFFFFFFFF
310
17BAFFFFFFFFFFFFFFFF3467FFFFFFC916C9FF3467FFFFFFDA166716FFFFFFFF
310
9C4D4E4E4E4E67AAFFFFFFFF6834FF7F262567AAEAFFFFFFFFFFFFFFFF9B17D9
310
0000FFFFFFFFFFFFB9161616161616FFFFFFFFFFBA1617161717171616161616
310
1716171716161716161617171716FFFFFFFFFFFFFFFFFFFF4E17161716171616
310
1617171616161716171717161616169BFF7F17FFFFFFFFFF17B9FFFFFFFFFFFF
310
FFFF7326FFFFFFFF3473DA16AAFFFFFF7317AA16FFFFFFFFFFFFFFFFFFFFFFFF
310
FFFFEA6725BA4E167FEAFFFFFFFFFFFFFFFFFFFF9C167FFF0000FFFFFFFFFFFF
310
B9161717171716FFFFFFFFFFBA16161716171616171717161617161716161616
310
171617171617EAFFFFFFFFFFFFFFFFFF26161717161616161616161617171616
310
1616161616171616AA8016FFFFFFFFFF16BAFFFFFFFFFFFFFFFFDA179BFFFFFF
310
74348D26FFFFFFFF2566B917FFFFFFFFD8BAB9BAB9BADAFFFFEA41169B7425C9
310
FFFFFFFFFFFFFFFFFFFFAB4F1680FFFF0000FFFFFFFFFFFFBA161717171617FF
310
FFFFFFFFBA17161717161617171617161616161617171616171716171617BBFF
310
FFFFFFFFFFFFFFE9171616161617161617161716FFFFFFFFFFD9671616161617
310
348017FFFFFFFFFF16BAFFFFFFFFFFFFFFFFFF4E5AFFFFFFC916265AFFFFFFAA
310
16AABA16FFFFFFFF7F1617161616179BFFFFEB4127168DFFFFFFFFFFFFFFD99B
310
6734175AC9FFFFFF0000FFFFFFFFFFFFB9161617171617FFFFFFFFFFBB161616
310
1616347F807F7F7F7F8033171716171617171616161672FFFFFFFFFFFFFFFF9C
310
171617171617161716161617FFFFFFFFFFFFFF4117161616174E17FFFFFFFFFF
310
16BAFFFFFFFFFFFFFFFFFF9B16DAFFFFFF34169BFFFFFF5A26FFB917FFFFFFFF
310
7F4EFFFFFFEA5B26FFFFFFEA2616EAFFFFFFFFDA743416331617414E4E4E4ECA
310
0000FFFFFFFFFFFFBA161716161616FFFFFFFFFFBA17171616164EFFFFFFFFFF
310
FFFF4E16161717174E161717171626EBFFFFFFFFFFFFFF4E16161617165B1616
310
16171617FFFFFFFFFFFFFF6716161616161617FFFFFFFFFF16BAFFFFFFFFFFFF
310
FFFFFFEA268CFFFFFF7316EAFFFFEB1774FFB916FFFFFFFF7F4EFFFFFFFF7316
310
FFFFFFFF6826FFFFFFFFEB264D9CEABA257F807F7F6616BA0000FFFFFFFFFFFF
310
BA161716161616FFFFFFFFFFBA16171616164DFFFFFFFFFFFFFF4E1617161617
310
9B1617171717165BEBFFFFFFFFFF671616161617179B171616161616FFFFFFFF
310
FFFFFF3417161617171617FFFFFFFFFF17BAFFFFFFFFFFFFFFFFFFFF6734FFFF
310
FFEBCAFFFFFF8D17C9FFBA17FFFFFFFF7F357F808066174FFFFFFFFF7F16FFFF
310
FFFFD91673B99B415BFFFFFFFFBA16DA00009B7F7F7F807F671617161616167F
310
80807F7E6617161616164EFFFFFFFFFFFFFF4E1616161617B94E171716161616
310
349BC9D9AA4E16171616161634FF161617161717B9B9BAB9BA9B411716171716
310
163416FFFFFFFFFF16B9FFFFFFFFFFFFFFFFFFFFC917CAFFFFFFFFFFFFFF3342
310
FFFFBA17FFFFFFFF9B4E4E4F4E4E66EAFFFFFFFF5B16C9FFFFFFFFAA4E164E73
310
EAFFFFFFFF8D26FF00004E161716161616171617171616171717171617161616
310
17174EFFFFFFFFFFFFFF4E1717171616B9D92616171716171716171717171716
310
16171716AAFF161717171617161617171616161617161716166717FFFFFFFFFF
310
17B9FFFFFFFFFFFFFFFFFFFFFF3467FFFFFFFFFFFFCA168CFFFFBB17FFFFFFFF
310
FFFFFFFFFFFFFFFFFFFFFFEA26265BFFFFFFFFFFFFFFFFFFFFFFFFFFEA3467FF
310
00004D16161616161617161717161617161616171617171616164EFFFFFFFFFF
310
FFFF4D1617161616BAFF9B1616161616161716161616171717161766FFFF1616
310
16171617161617161716171616171717667F16FFFFFFFFFF17BAFFFFFFFFFFFF
310
FFFFFFFFFF8C26EAFFFFFFFFFF6617EAFFFFBA17FFFFFFFFFFFFFFFFFFFFFFFF
310
FFFFEA5A25BA269BFFFFFFFFFFFFFFFFFFFFFFFF6616DAFF00004E1616171616
310
1616161616161716161617171616171616174EFFFFFFFFFFFFFF4D1717171716
310
B9FFFF9C161616161616161716161717171667FFFFFF17161717171716161617
310
1716161616161641E97E16FFFFFFFFFF16B9FFFFFFFFFFFFFFFFFFFFFFEA169B
310
FFFFFFFFEA265BFFFFFFB916FFFFFFFFFFFFFFFFFFFFFFFFFF9B3416AAFF9B17
310
67EAFFFFFFFFFFFFFFFFEA5B169BFFFF00004D17161716161616161717171616
310
161717161716171716174EFFFFFFFFFFFFFF4D1616161616BAFFFFFFBB411616
310
161716161616171634ABFFFFFFFF161716161617171716171617171617267FFF
310
FF7F164E4E4E4E4F17BAFFFFFFFFFFFFFFFFFFFFFFFF66344D4E4E4F4117AAFF
310
FFFFBA174E4E4E4D4E4D4D4E4E4E4E4116174EBBFFFFFFCA342666ABEAFFFFEA
310
AA6725269CFFFFFF0000724F4E4D4D4D4E4D4D4E4E4E4D4E4E4E4E4E4E4E4E4D
310
4E4E74FFFFFFFFFFFFFF734E4E4E4D4ECAFFFFFFFFFFAA663416171717265B9B
310
FFFFFFFFFFFF7F8080807F80807F7F7F7F7F807FBAFFFFFFFF9B4E4E4F4D4D4E
310
4DC9FFFFFFFFFFFFFFFFFFFFFFFFBA4E4E4E4E4D4E4EFFFFFFFFC94E4E4E4F4E
310
4E4E4D4E4E5A807F9CD9FFFFFFFFFFFFFF9B5B2617171716174E8DEAFFFFFFFF
310
0000000000000000000000000000000000000000000000000000000000000000
  1
OLE
  0
ENDSEC
  0
SECTION
  2
OBJECTS
  0
DICTIONARY
  5
C
330
0
100
AcDbDictionary
281
     1
  3
ACAD_GROUP
350
D
  3
ACAD_LAYOUT
350
1A
  3
ACAD_MLINESTYLE
350
17
  3
ACAD_PLOTSETTINGS
350
19
  3
ACAD_PLOTSTYLENAME
350
E
  3
ACAD_SCALELIST
350
47
  0
DICTIONARY
  5
D
102
{ACAD_REACTORS
330
C
102
}
330
C
100
AcDbDictionary
281
     1
  0
DICTIONARY
  5
1A
102
{ACAD_REACTORS
330
C
102
}
330
C
100
AcDbDictionary
281
     1
  3
Layout1
350
1E
  3
Layout2
350
26
  3
Model
350
22
  0
DICTIONARY
  5
17
102
{ACAD_REACTORS
330
C
102
}
330
C
100
AcDbDictionary
281
     1
  3
Standard
350
18
  0
DICTIONARY
  5
19
102
{ACAD_REACTORS
330
C
102
}
330
C
100
AcDbDictionary
281
     1
  0
ACDBDICTIONARYWDFLT
  5
E
102
{ACAD_REACTORS
330
C
102
}
330
C
100
AcDbDictionary
281
     1
  3
Normal
350
F
100
AcDbDictionaryWithDefault
340
F
  0
DICTIONARY
  5
47
102
{ACAD_REACTORS
330
C
102
}
330
C
100
AcDbDictionary
281
     1
  3
A0
350
48
  3
A1
350
49
  3
A2
350
4A
  3
A3
350
4B
  3
A4
350
4C
  3
A5
350
4D
  3
A6
350
4E
  3
A7
350
4F
  3
A8
350
50
  3
A9
350
51
  3
B0
350
52
  3
B1
350
53
  3
B2
350
54
  3
B3
350
55
  3
B4
350
56
  3
B5
350
57
  3
B6
350
58
  3
B7
350
59
  3
B8
350
5A
  3
B9
350
5B
  3
C0
350
5C
  3
C1
350
5D
  3
C2
350
5E
  3
C3
350
5F
  3
C4
350
60
  3
C5
350
61
  3
C6
350
62
  3
C7
350
63
  3
C8
350
64
  3
C9
350
65
  3
D0
350
66
  3
D1
350
67
  3
D2
350
68
  0
LAYOUT
  5
1E
102
{ACAD_REACTORS
330
1A
102
}
330
1A
100
AcDbPlotSettings
  1

  2
none_device
  4

  6

 40
0.0
 41
0.0
 42
0.0
 43
0.0
 44
0.0
 45
0.0
 46
0.0
 47
0.0
 48
0.0
 49
0.0
140
0.0
141
0.0
142
1.0
143
1.0
 70
   688
 72
     1
 73
     0
 74
     5
  7

 75
    16
147
1.0
148
0.0
149
0.0
100
AcDbLayout
  1
Layout1
 70
     1
 71
     1
 10
0.0
 20
0.0
 11
420.0
 21
297.0
 12
0.0
 22
0.0
 32
0.0
 14
1.0000000000E+20
 24
1.0000000000E+20
 34
1.0000000000E+20
 15
-1.0000000000E+20
 25
-1.0000000000E+20
 35
-1.0000000000E+20
146
0.0
 13
0.0
 23
0.0
 33
0.0
 16
1.0
 26
0.0
 36
0.0
 17
0.0
 27
1.0
 37
0.0
 76
     0
330
1B
  0
LAYOUT
  5
26
102
{ACAD_REACTORS
330
1A
102
}
330
1A
100
AcDbPlotSettings
  1

  2
none_device
  4

  6

 40
0.0
 41
0.0
 42
0.0
 43
0.0
 44
0.0
 45
0.0
 46
0.0
 47
0.0
 48
0.0
 49
0.0
140
0.0
141
0.0
142
1.0
143
1.0
 70
   688
 72
     1
 73
     0
 74
     5
  7

 75
    16
147
1.0
148
0.0
149
0.0
100
AcDbLayout
  1
Layout2
 70
     1
 71
     2
 10
0.0
 20
0.0
 11
0.0
 21
0.0
 12
0.0
 22
0.0
 32
0.0
 14
0.0
 24
0.0
 34
0.0
 15
0.0
 25
0.0
 35
0.0
146
0.0
 13
0.0
 23
0.0
 33
0.0
 16
1.0
 26
0.0
 36
0.0
 17
0.0
 27
1.0
 37
0.0
 76
     0
330
23
  0
LAYOUT
  5
22
102
{ACAD_REACTORS
330
1A
102
}
330
1A
100
AcDbPlotSettings
  1

  2
none_device
  4
Letter_(8.50_x_11.00_Inches)
  6

 40
6.35
 41
6.35
 42
6.35000508
 43
6.35000508
 44
215.9
 45
279.4
 46
0.0
 47
0.0
 48
0.0
 49
0.0
140
0.0
141
0.0
142
1.0
143
1.0
 70
  1712
 72
     1
 73
     0
 74
     0
  7

 75
     0
147
1.0
148
0.0
149
0.0
100
AcDbLayout
  1
Model
 70
     1
 71
     0
 10
0.0
 20
0.0
 11
279.4
 21
215.9
 12
0.0
 22
0.0
 32
0.0
 14
0.0
 24
0.0
 34
0.0
 15
279.4
 25
215.9
 35
0.0
146
0.0
 13
0.0
 23
0.0
 33
0.0
 16
1.0
 26
0.0
 36
0.0
 17
0.0
 27
1.0
 37
0.0
 76
     0
330
1F
331
29
  0
MLINESTYLE
  5
18
102
{ACAD_REACTORS
330
17
102
}
330
17
100
AcDbMlineStyle
  2
Standard
 70
     0
  3

 62
   256
 51
90.0
 52
90.0
 71
     2
 49
0.5
 62
   256
  6
BYLAYER
 49
-0.5
 62
   256
  6
BYLAYER
  0
ACDBPLACEHOLDER
  5
F
102
{ACAD_REACTORS
330
E
102
}
330
E
  0
SCALE
  5
48
102
{ACAD_REACTORS
330
47
102
}
330
47
100
AcDbScale
 70
     0
300
1:1
140
1.0
141
1.0
290
     1
  0
SCALE
  5
49
102
{ACAD_REACTORS
330
47
102
}
330
47
100
AcDbScale
 70
     0
300
1:2
140
1.0
141
2.0
290
     0
  0
SCALE
  5
4A
102
{ACAD_REACTORS
330
47
102
}
330
47
100
AcDbScale
 70
     0
300
1:4
140
1.0
141
4.0
290
     0
  0
SCALE
  5
4B
102
{ACAD_REACTORS
330
47
102
}
330
47
100
AcDbScale
 70
     0
300
1:5
140
1.0
141
5.0
290
     0
  0
SCALE
  5
4C
102
{ACAD_REACTORS
330
47
102
}
330
47
100
AcDbScale
 70
     0
300
1:8
140
1.0
141
8.0
290
     0
  0
SCALE
  5
4D
102
{ACAD_REACTORS
330
47
102
}
330
47
100
AcDbScale
 70
     0
300
1:10
140
1.0
141
10.0
290
     0
  0
SCALE
  5
4E
102
{ACAD_REACTORS
330
47
102
}
330
47
100
AcDbScale
 70
     0
300
1:16
140
1.0
141
16.0
290
     0
  0
SCALE
  5
4F
102
{ACAD_REACTORS
330
47
102
}
330
47
100
AcDbScale
 70
     0
300
1:20
140
1.0
141
20.0
290
     0
  0
SCALE
  5
50
102
{ACAD_REACTORS
330
47
102
}
330
47
100
AcDbScale
 70
     0
300
1:30
140
1.0
141
30.0
290
     0
  0
SCALE
  5
51
102
{ACAD_REACTORS
330
47
102
}
330
47
100
AcDbScale
 70
     0
300
1:40
140
1.0
141
40.0
290
     0
  0
SCALE
  5
52
102
{ACAD_REACTORS
330
47
102
}
330
47
100
AcDbScale
 70
     0
300
1:50
140
1.0
141
50.0
290
     0
  0
SCALE
  5
53
102
{ACAD_REACTORS
330
47
102
}
330
47
100
AcDbScale
 70
     0
300
1:100
140
1.0
141
100.0
290
     0
  0
SCALE
  5
54
102
{ACAD_REACTORS
330
47
102
}
330
47
100
AcDbScale
 70
     0
300
2:1
140
2.0
141
1.0
290
     0
  0
SCALE
  5
55
102
{ACAD_REACTORS
330
47
102
}
330
47
100
AcDbScale
 70
     0
300
4:1
140
4.0
141
1.0
290
     0
  0
SCALE
  5
56
102
{ACAD_REACTORS
330
47
102
}
330
47
100
AcDbScale
 70
     0
300
8:1
140
8.0
141
1.0
290
     0
  0
SCALE
  5
57
102
{ACAD_REACTORS
330
47
102
}
330
47
100
AcDbScale
 70
     0
300
10:1
140
10.0
141
1.0
290
     0
  0
SCALE
  5
58
102
{ACAD_REACTORS
330
47
102
}
330
47
100
AcDbScale
 70
     0
300
100:1
140
100.0
141
1.0
290
     0
  0
SCALE
  5
59
102
{ACAD_REACTORS
330
47
102
}
330
47
100
AcDbScale
 70
     0
300
1/128" = 1'-0"
140
0.0078125
141
12.0
290
     0
  0
SCALE
  5
5A
102
{ACAD_REACTORS
330
47
102
}
330
47
100
AcDbScale
 70
     0
300
1/64" = 1'-0"
140
0.015625
141
12.0
290
     0
  0
SCALE
  5
5B
102
{ACAD_REACTORS
330
47
102
}
330
47
100
AcDbScale
 70
     0
300
1/32" = 1'-0"
140
0.03125
141
12.0
290
     0
  0
SCALE
  5
5C
102
{ACAD_REACTORS
330
47
102
}
330
47
100
AcDbScale
 70
     0
300
1/16" = 1'-0"
140
0.0625
141
12.0
290
     0
  0
SCALE
  5
5D
102
{ACAD_REACTORS
330
47
102
}
330
47
100
AcDbScale
 70
     0
300
3/32" = 1'-0"
140
0.09375
141
12.0
290
     0
  0
SCALE
  5
5E
102
{ACAD_REACTORS
330
47
102
}
330
47
100
AcDbScale
 70
     0
300
1/8" = 1'-0"
140
0.125
141
12.0
290
     0
  0
SCALE
  5
5F
102
{ACAD_REACTORS
330
47
102
}
330
47
100
AcDbScale
 70
     0
300
3/16" = 1'-0"
140
0.1875
141
12.0
290
     0
  0
SCALE
  5
60
102
{ACAD_REACTORS
330
47
102
}
330
47
100
AcDbScale
 70
     0
300
1/4" = 1'-0"
140
0.25
141
12.0
290
     0
  0
SCALE
  5
61
102
{ACAD_REACTORS
330
47
102
}
330
47
100
AcDbScale
 70
     0
300
3/8" = 1'-0"
140
0.375
141
12.0
290
     0
  0
SCALE
  5
62
102
{ACAD_REACTORS
330
47
102
}
330
47
100
AcDbScale
 70
     0
300
1/2" = 1'-0"
140
0.5
141
12.0
290
     0
  0
SCALE
  5
63
102
{ACAD_REACTORS
330
47
102
}
330
47
100
AcDbScale
 70
     0
300
3/4" = 1'-0"
140
0.75
141
12.0
290
     0
  0
SCALE
  5
64
102
{ACAD_REACTORS
330
47
102
}
330
47
100
AcDbScale
 70
     0
300
1" = 1'-0"
140
1.0
141
12.0
290
     0
  0
SCALE
  5
65
102
{ACAD_REACTORS
330
47
102
}
330
47
100
AcDbScale
 70
     0
300
1-1/2" = 1'-0"
140
1.5
141
12.0
290
     0
  0
SCALE
  5
66
102
{ACAD_REACTORS
330
47
102
}
330
47
100
AcDbScale
 70
     0
300
3" = 1'-0"
140
3.0
141
12.0
290
     0
  0
SCALE
  5
67
102
{ACAD_REACTORS
330
47
102
}
330
47
100
AcDbScale
 70
     0
300
6" = 1'-0"
140
6.0
141
12.0
290
     0
  0
SCALE
  5
68
102
{ACAD_REACTORS
330
47
102
}
330
47
100
AcDbScale
 70
     0
300
1'-0" = 1'-0"
140
12.0
141
12.0
290
     0
  0
ENDSEC
  0
EOF
