  0
SECTION
  2
HEADER
  9
$ACADVER
  1
AC1012
  9
$DWGCODEPAGE
  3
ansi_1252
  9
$INSBASE
 10
0.0
 20
0.0
 30
0.0
  9
$EXTMIN
 10
0.0
 20
0.0
 30
0.0
  9
$EXTMAX
 10
279.4
 20
215.9
 30
0.0
  9
$LIMMIN
 10
0.0
 20
0.0
  9
$LIMMAX
 10
279.4
 20
215.9
  9
$ORTHOMODE
 70
     0
  9
$REGENMODE
 70
     1
  9
$FILLMODE
 70
     1
  9
$QTEXTMODE
 70
     0
  9
$MIRRTEXT
 70
     1
  9
$DRAGMODE
 70
     2
  9
$LTSCALE
 40
1.0
  9
$OSMODE
 70
    37
  9
$ATTMODE
 70
     1
  9
$TEXTSIZE
 40
2.8222222222
  9
$TRACEWID
 40
1.0
  9
$TEXTSTYLE
  7
STANDARD
  9
$CLAYER
  8
0
  9
$CELTYPE
  6
BYLAYER
  9
$CECOLOR
 62
   256
  9
$CELTSCALE
 40
1.0
  9
$DELOBJ
 70
     1
  9
$DISPSILH
 70
     0
  9
$DIMSCALE
 40
1.0
  9
$DIMASZ
 40
3.175
  9
$DIMEXO
 40
1.27
  9
$DIMDLI
 40
3.75
  9
$DIMRND
 40
0.0
  9
$DIMDLE
 40
0.0
  9
$DIMEXE
 40
1.778
  9
$DIMTP
 40
0.0
  9
$DIMTM
 40
0.0
  9
$DIMTXT
 40
2.8222222222
  9
$DIMCEN
 40
2.5
  9
$DIMTSZ
 40
0.0
  9
$DIMTOL
 70
     0
  9
$DIMLIM
 70
     0
  9
$DIMTIH
 70
     1
  9
$DIMTOH
 70
     1
  9
$DIMSE1
 70
     0
  9
$DIMSE2
 70
     0
  9
$DIMTAD
 70
     0
  9
$DIMZIN
 70
     1
  9
$DIMBLK
  1

  9
$DIMASO
 70
     1
  9
$DIMSHO
 70
     1
  9
$DIMPOST
  1

  9
$DIMAPOST
  1

  9
$DIMALT
 70
     0
  9
$DIMALTD
 70
     3
  9
$DIMALTF
 40
0.0393700787
  9
$DIMLFAC
 40
1.0
  9
$DIMTOFL
 70
     1
  9
$DIMTVP
 40
0.0
  9
$DIMTIX
 70
     0
  9
$DIMSOXD
 70
     0
  9
$DIMSAH
 70
     0
  9
$DIMBLK1
  1

  9
$DIMBLK2
  1

  9
$DIMSTYLE
  2
ISO-25
  9
$DIMCLRD
 70
     0
  9
$DIMCLRE
 70
     0
  9
$DIMCLRT
 70
     0
  9
$DIMTFAC
 40
1.0
  9
$DIMGAP
 40
2.54
  9
$DIMJUST
 70
     0
  9
$DIMSD1
 70
     0
  9
$DIMSD2
 70
     0
  9
$DIMTOLJ
 70
     0
  9
$DIMTZIN
 70
     1
  9
$DIMALTZ
 70
     0
  9
$DIMALTTZ
 70
     0
  9
$DIMFIT
 70
     3
  9
$DIMUPT
 70
     0
  9
$DIMUNIT
 70
     2
  9
$DIMDEC
 70
     1
  9
$DIMTDEC
 70
     1
  9
$DIMALTU
 70
     2
  9
$DIMALTTD
 70
     3
  9
$DIMTXSTY
  7
STANDARD
  9
$DIMAUNIT
 70
     0
  9
$LUNITS
 70
     2
  9
$LUPREC
 70
     1
  9
$SKETCHINC
 40
1.0
  9
$FILLETRAD
 40
10.0
  9
$AUNITS
 70
     0
  9
$AUPREC
 70
     0
  9
$MENU
  1
.
  9
$ELEVATION
 40
0.0
  9
$PELEVATION
 40
0.0
  9
$THICKNESS
 40
0.0
  9
$LIMCHECK
 70
     0
  9
$CHAMFERA
 40
0.0
  9
$CHAMFERB
 40
0.0
  9
$CHAMFERC
 40
0.0
  9
$CHAMFERD
 40
0.0
  9
$SKPOLY
 70
     0
  9
$TDCREATE
 40
2459523.58902368
  9
$TDUPDATE
 40
2459523.589027581
  9
$TDINDWG
 40
0.0000000116
  9
$TDUSRTIMER
 40
0.0000000116
  9
$USRTIMER
 70
     1
  9
$ANGBASE
 50
0.0
  9
$ANGDIR
 70
     0
  9
$PDMODE
 70
     0
  9
$PDSIZE
 40
-1.0
  9
$PLINEWID
 40
0.0
  9
$COORDS
 70
     1
  9
$SPLFRAME
 70
     0
  9
$SPLINETYPE
 70
     6
  9
$SPLINESEGS
 70
     8
  9
$ATTDIA
 70
     0
  9
$ATTREQ
 70
     1
  9
$HANDLING
 70
     1
  9
$HANDSEED
  5
378
  9
$SURFTAB1
 70
     6
  9
$SURFTAB2
 70
     6
  9
$SURFTYPE
 70
     6
  9
$SURFU
 70
     6
  9
$SURFV
 70
     6
  9
$UCSNAME
  2

  9
$UCSORG
 10
0.0
 20
0.0
 30
0.0
  9
$UCSXDIR
 10
1.0
 20
0.0
 30
0.0
  9
$UCSYDIR
 10
0.0
 20
1.0
 30
0.0
  9
$PUCSNAME
  2

  9
$PUCSORG
 10
0.0
 20
0.0
 30
0.0
  9
$PUCSXDIR
 10
1.0
 20
0.0
 30
0.0
  9
$PUCSYDIR
 10
0.0
 20
1.0
 30
0.0
  9
$USERI1
 70
     0
  9
$USERI2
 70
     0
  9
$USERI3
 70
     0
  9
$USERI4
 70
     0
  9
$USERI5
 70
     0
  9
$USERR1
 40
0.0
  9
$USERR2
 40
0.0
  9
$USERR3
 40
0.0
  9
$USERR4
 40
0.0
  9
$USERR5
 40
0.0
  9
$WORLDVIEW
 70
     1
  9
$SHADEDGE
 70
     3
  9
$SHADEDIF
 70
    70
  9
$TILEMODE
 70
     1
  9
$MAXACTVP
 70
    64
  9
$PINSBASE
 10
0.0
 20
0.0
 30
0.0
  9
$PLIMCHECK
 70
     0
  9
$PEXTMIN
 10
1.0000000000E+20
 20
1.0000000000E+20
 30
1.0000000000E+20
  9
$PEXTMAX
 10
-1.0000000000E+20
 20
-1.0000000000E+20
 30
-1.0000000000E+20
  9
$PLIMMIN
 10
0.0
 20
0.0
  9
$PLIMMAX
 10
420.0
 20
297.0
  9
$UNITMODE
 70
     0
  9
$VISRETAIN
 70
     1
  9
$PLINEGEN
 70
     0
  9
$PSLTSCALE
 70
     1
  9
$TREEDEPTH
 70
  3020
  9
$PICKSTYLE
 70
     1
  9
$CMLSTYLE
  2
STANDARD
  9
$CMLJUST
 70
     0
  9
$CMLSCALE
 40
20.0
  9
$SAVEIMAGES
 70
     1
  0
ENDSEC
  0
SECTION
  2
CLASSES
  0
CLASS
  1
ACDBDICTIONARYWDFLT
  2
AcDbDictionaryWithDefault
  3
ObjectDBX Classes
 90
    32768
280
     0
281
     0
  0
CLASS
  1
VISUALSTYLE
  2
AcDbVisualStyle
  3
ObjectDBX Classes
 90
     4095
280
     0
281
     0
  0
CLASS
  1
MATERIAL
  2
AcDbMaterial
  3
ObjectDBX Classes
 90
     1153
280
     0
281
     0
  0
CLASS
  1
SCALE
  2
AcDbScale
  3
ObjectDBX Classes
 90
     1153
280
     0
281
     0
  0
CLASS
  1
TABLESTYLE
  2
AcDbTableStyle
  3
ObjectDBX Classes
 90
     4095
280
     0
281
     0
  0
CLASS
  1
MLEADERSTYLE
  2
AcDbMLeaderStyle
  3
ACDB_MLEADERSTYLE_CLASS
 90
     4095
280
     0
281
     0
  0
CLASS
  1
SUN
  2
AcDbSun
  3
SCENEOE
 90
     1153
280
     0
281
     0
  0
CLASS
  1
XRECORD
  2
AcDbXrecord
  3
ObjectDBX Classes
 90
    32768
280
     0
281
     0
  0
ENDSEC
  0
SECTION
  2
TABLES
  0
TABLE
  2
VPORT
  5
8
330
0
100
AcDbSymbolTable
 70
     1
  0
VPORT
  5
29
330
8
100
AcDbSymbolTableRecord
100
AcDbViewportTableRecord
  2
*ACTIVE
 70
     0
 10
0.0
 20
0.0
 11
1.0
 21
1.0
 12
139.7
 22
107.95
 13
0.0
 23
0.0
 14
10.0
 24
10.0
 15
10.0
 25
10.0
 16
0.0
 26
0.0
 36
1.0
 17
0.0
 27
0.0
 37
0.0
 40
215.9
 41
1.2941176471
 42
50.0
 43
0.0
 44
0.0
 50
0.0
 51
0.0
 71
     0
 72
  2000
 73
     1
 74
     3
 75
     0
 76
     0
 77
     0
 78
     0
  0
ENDTAB
  0
TABLE
  2
LTYPE
  5
5
330
0
100
AcDbSymbolTable
 70
     8
  0
LTYPE
  5
14
330
5
100
AcDbSymbolTableRecord
100
AcDbLinetypeTableRecord
  2
BYBLOCK
 70
     0
  3

 72
    65
 73
     0
 40
0.0
  0
LTYPE
  5
15
330
5
100
AcDbSymbolTableRecord
100
AcDbLinetypeTableRecord
  2
BYLAYER
 70
     0
  3

 72
    65
 73
     0
 40
0.0
  0
LTYPE
  5
16
330
5
100
AcDbSymbolTableRecord
100
AcDbLinetypeTableRecord
  2
CONTINUOUS
 70
     0
  3
Solid line
 72
    65
 73
     0
 40
0.0
  0
LTYPE
  5
6E
330
5
100
AcDbSymbolTableRecord
100
AcDbLinetypeTableRecord
  2
SLD-SOLID
 70
     0
  3
SolidWorks Line Style
 72
    65
 73
     0
 40
0.0
  0
LTYPE
  5
6F
330
5
100
AcDbSymbolTableRecord
100
AcDbLinetypeTableRecord
  2
SLD-DASHED
 70
     0
  3
SolidWorks Line Style
 72
    65
 73
     2
 40
1.905
 49
1.27
 74
     0
 49
-0.635
 74
     0
  0
LTYPE
  5
70
330
5
100
AcDbSymbolTableRecord
100
AcDbLinetypeTableRecord
  2
SLD-PHANTOM
 70
     0
  3
SolidWorks Line Style
 72
    65
 73
     6
 40
12.7
 49
6.35
 74
     0
 49
-1.27
 74
     0
 49
1.27
 74
     0
 49
-1.27
 74
     0
 49
1.27
 74
     0
 49
-1.27
 74
     0
  0
LTYPE
  5
71
330
5
100
AcDbSymbolTableRecord
100
AcDbLinetypeTableRecord
  2
SLD-CHAIN
 70
     0
  3
SolidWorks Line Style
 72
    65
 73
     4
 40
10.16
 49
6.35
 74
     0
 49
-1.27
 74
     0
 49
1.27
 74
     0
 49
-1.27
 74
     0
  0
LTYPE
  5
72
330
5
100
AcDbSymbolTableRecord
100
AcDbLinetypeTableRecord
  2
SLD-CENTER
 70
     0
  3
SolidWorks Line Style
 72
    65
 73
     4
 40
19.05
 49
15.24
 74
     0
 49
-1.27
 74
     0
 49
1.27
 74
     0
 49
-1.27
 74
     0
  0
LTYPE
  5
73
330
5
100
AcDbSymbolTableRecord
100
AcDbLinetypeTableRecord
  2
SLD-STITCH
 70
     0
  3
SolidWorks Line Style
 72
    65
 73
     2
 40
0.635
 49
0.0
 74
     0
 49
-0.635
 74
     0
  0
LTYPE
  5
74
330
5
100
AcDbSymbolTableRecord
100
AcDbLinetypeTableRecord
  2
SLD-THIN-THICK-CHAIN
 70
     0
  3
SolidWorks Line Style
 72
    65
 73
     4
 40
10.16
 49
6.35
 74
     0
 49
-1.27
 74
     0
 49
1.27
 74
     0
 49
-1.27
 74
     0
  0
ENDTAB
  0
TABLE
  2
LAYER
  5
2
330
0
100
AcDbSymbolTable
 70
     2
  0
LAYER
  5
10
330
2
100
AcDbSymbolTableRecord
100
AcDbLayerTableRecord
  2
0
 70
     0
 62
     7
  6
CONTINUOUS
  0
LAYER
  5
75
330
2
100
AcDbSymbolTableRecord
100
AcDbLayerTableRecord
  2
FORMAT
 70
     0
 62
     7
  6
SLD-SOLID
  0
ENDTAB
  0
TABLE
  2
STYLE
  5
3
330
0
100
AcDbSymbolTable
 70
     6
  0
STYLE
  5
11
330
3
100
AcDbSymbolTableRecord
100
AcDbTextStyleTableRecord
  2
STANDARD
 70
     0
 40
0.0
 41
1.0
 50
0.0
 71
     0
 42
2.8222222222
  3
txt
  4

  0
STYLE
  5
9F
330
3
100
AcDbSymbolTableRecord
100
AcDbTextStyleTableRecord
  2
SLDTEXTSTYLE0
 70
     0
 40
0.0
 41
0.75
 50
0.0
 71
     0
 42
2.8222222222
  3
TXT
  4

  0
STYLE
  5
A7
330
3
100
AcDbSymbolTableRecord
100
AcDbTextStyleTableRecord
  2
SLDTEXTSTYLE1
 70
     0
 40
0.0
 41
0.75
 50
0.0
 71
     0
 42
2.8222222222
  3
TXT
  4
bigfont
  0
STYLE
  5
C1
330
3
100
AcDbSymbolTableRecord
100
AcDbTextStyleTableRecord
  2
SLDTEXTSTYLE2
 70
     0
 40
0.0
 41
0.7
 50
0.0
 71
     0
 42
2.8222222222
  3
TXT
  4

  0
STYLE
  5
C6
330
3
100
AcDbSymbolTableRecord
100
AcDbTextStyleTableRecord
  2
SLDTEXTSTYLE3
 70
     0
 40
0.0
 41
0.6875
 50
0.0
 71
     0
 42
2.8222222222
  3
TXT
  4

  0
STYLE
  5
D5
330
3
100
AcDbSymbolTableRecord
100
AcDbTextStyleTableRecord
  2
SLDTEXTSTYLE4
 70
     0
 40
0.0
 41
0.5525
 50
0.0
 71
     0
 42
2.8222222222
  3
TXT
  4

  0
ENDTAB
  0
TABLE
  2
VIEW
  5
6
330
0
100
AcDbSymbolTable
 70
     0
  0
ENDTAB
  0
TABLE
  2
UCS
  5
7
330
0
100
AcDbSymbolTable
 70
     0
  0
ENDTAB
  0
TABLE
  2
APPID
  5
9
330
0
100
AcDbSymbolTable
 70
     1
  0
APPID
  5
12
330
9
100
AcDbSymbolTableRecord
100
AcDbRegAppTableRecord
  2
ACAD
 70
     0
  0
ENDTAB
  0
TABLE
  2
DIMSTYLE
  5
A
330
0
100
AcDbSymbolTable
 70
     4
  0
DIMSTYLE
105
27
330
A
100
AcDbSymbolTableRecord
100
AcDbDimStyleTableRecord
  2
ISO-25
 70
     0
  3

  4

  5

  6

  7

 40
1.0
 41
2.5
 42
0.625
 43
3.75
 44
1.25
 45
0.0
 46
0.0
 47
0.0
 48
0.0
140
2.5
141
2.5
142
0.0
143
0.0393700787
144
1.0
145
0.0
146
1.0
147
0.625
 71
     0
 72
     0
 73
     0
 74
     0
 75
     0
 76
     0
 77
     1
 78
     8
170
     0
171
     3
172
     1
173
     0
174
     0
175
     0
176
     0
177
     0
178
     0
270
     2
271
     2
272
     2
273
     2
274
     3
340
11
275
     0
280
     0
281
     0
282
     0
283
     0
284
     8
285
     0
286
     0
287
     3
288
     0
  0
DIMSTYLE
105
F9
102
{ACAD_REACTORS
330
F8
102
}
330
A
100
AcDbSymbolTableRecord
100
AcDbDimStyleTableRecord
  2
SLDDIMSTYLE0
 70
     0
  3

  4

  5

  6

  7

 40
1.0
 41
3.175
 42
0.0625
 43
0.38
 44
0.0
 45
0.000000001
 46
0.0
 47
0.0
 48
0.0
140
2.1166666667
141
0.0
142
0.0
143
0.0393700787
144
1.0
145
0.0
146
1.0
147
0.5291666667
 71
     0
 72
     0
 73
     1
 74
     1
 75
     0
 76
     0
 77
     0
 78
    12
170
     1
171
     2
172
     0
173
     1
174
     0
175
     0
176
     0
177
     0
178
     0
270
     2
271
     1
272
     1
273
     2
274
     2
340
9F
275
     0
280
     0
281
     0
282
     0
283
     1
284
    12
285
     0
286
     0
287
     3
288
     0
  0
DIMSTYLE
105
118
102
{ACAD_REACTORS
330
117
102
}
330
A
100
AcDbSymbolTableRecord
100
AcDbDimStyleTableRecord
  2
SLDDIMSTYLE1
 70
     0
  3

  4

  5

  6

  7

 40
1.0
 41
3.175
 42
0.0625
 43
0.38
 44
0.0
 45
0.000000001
 46
0.0
 47
0.0
 48
0.0
140
2.1166666667
141
0.09
142
0.0
143
0.0393700787
144
1.0
145
0.0
146
1.0
147
0.5291666667
 71
     0
 72
     0
 73
     1
 74
     1
 75
     0
 76
     0
 77
     0
 78
     4
170
     1
171
     2
172
     1
173
     1
174
     0
175
     0
176
     0
177
     0
178
     0
270
     2
271
     1
272
     1
273
     2
274
     2
340
9F
275
     0
280
     0
281
     0
282
     0
283
     1
284
    12
285
     0
286
     0
288
     0
  0
DIMSTYLE
105
12D
330
A
100
AcDbSymbolTableRecord
100
AcDbDimStyleTableRecord
  2
SLDDIMSTYLE2
 70
     0
  3

  4

  5

  6

  7

 40
1.0
 41
3.175
 42
0.0625
 43
0.38
 44
0.0
 45
0.000000001
 46
0.0
 47
0.0
 48
0.0
140
0.18
141
0.09
142
0.0
143
25.4
144
1.0
145
0.0
146
3.175
147
0.0
 71
     0
 72
     0
 73
     1
 74
     1
 75
     0
 76
     0
 77
     0
 78
     0
170
     0
171
     2
172
     0
173
     1
174
     0
175
     0
176
     0
177
     0
178
     0
270
     2
271
     0
272
     0
273
     2
274
     2
340
11
275
     0
280
     0
281
     0
282
     0
283
     1
284
     0
285
     0
286
     0
287
     3
288
     0
  0
ENDTAB
  0
TABLE
  2
BLOCK_RECORD
  5
1
330
0
100
AcDbSymbolTable
 70
     9
  0
BLOCK_RECORD
  5
1F
330
1
100
AcDbSymbolTableRecord
100
AcDbBlockTableRecord
  2
*MODEL_SPACE
  0
BLOCK_RECORD
  5
1B
330
1
100
AcDbSymbolTableRecord
100
AcDbBlockTableRecord
  2
*PAPER_SPACE
  0
BLOCK_RECORD
  5
23
330
1
100
AcDbSymbolTableRecord
100
AcDbBlockTableRecord
  2
*PAPER_SPACE0
  0
BLOCK_RECORD
  5
76
330
1
100
AcDbSymbolTableRecord
100
AcDbBlockTableRecord
  2
THIRD_ANGLE_PROJECTION_BLO
  0
BLOCK_RECORD
  5
9C
330
1
100
AcDbSymbolTableRecord
100
AcDbBlockTableRecord
  2
SW_NOTE_0
  0
BLOCK_RECORD
  5
DA
330
1
100
AcDbSymbolTableRecord
100
AcDbBlockTableRecord
  2
SW_NOTE_1
  0
BLOCK_RECORD
  5
E0
330
1
100
AcDbSymbolTableRecord
100
AcDbBlockTableRecord
  2
SW_NOTE_2
  0
BLOCK_RECORD
  5
E7
330
1
100
AcDbSymbolTableRecord
100
AcDbBlockTableRecord
  2
SW_NOTE_3
  0
BLOCK_RECORD
  5
ED
330
1
100
AcDbSymbolTableRecord
100
AcDbBlockTableRecord
  2
SW_NOTE_4
  0
BLOCK_RECORD
  5
FA
330
1
100
AcDbSymbolTableRecord
100
AcDbBlockTableRecord
  2
_D
  0
BLOCK_RECORD
  5
119
330
1
100
AcDbSymbolTableRecord
100
AcDbBlockTableRecord
  2
_D_1
  0
ENDTAB
  0
ENDSEC
  0
SECTION
  2
BLOCKS
  0
BLOCK
  5
20
330
1F
100
AcDbEntity
  8
0
100
AcDbBlockBegin
  2
*MODEL_SPACE
 70
     0
 10
0.0
 20
0.0
 30
0.0
  3
*MODEL_SPACE
  1

  0
ENDBLK
  5
21
330
1F
100
AcDbEntity
  8
0
100
AcDbBlockEnd
  0
BLOCK
  5
1C
330
1B
100
AcDbEntity
 67
     1
  8
0
100
AcDbBlockBegin
  2
*PAPER_SPACE
 70
     0
 10
0.0
 20
0.0
 30
0.0
  3
*PAPER_SPACE
  1

  0
ENDBLK
  5
1D
330
1B
100
AcDbEntity
 67
     1
  8
0
100
AcDbBlockEnd
  0
BLOCK
  5
24
330
23
100
AcDbEntity
  8
0
100
AcDbBlockBegin
  2
*PAPER_SPACE0
 70
     0
 10
0.0
 20
0.0
 30
0.0
  3
*PAPER_SPACE0
  1

  0
ENDBLK
  5
25
330
23
100
AcDbEntity
  8
0
100
AcDbBlockEnd
  0
BLOCK
  5
77
330
76
100
AcDbEntity
  8
0
100
AcDbBlockBegin
  2
THIRD_ANGLE_PROJECTION_BLO
 70
     0
 10
0.0
 20
0.0
 30
0.0
  3
THIRD_ANGLE_PROJECTION_BLO
  1

  0
CIRCLE
  5
79
330
76
100
AcDbEntity
  8
0
  6
SLD-SOLID
 62
     7
100
AcDbCircle
 10
101.4766388944
 20
18.9404083667
 30
0.0
 40
1.768227153674871
  0
CIRCLE
  5
7A
330
76
100
AcDbEntity
  8
0
  6
SLD-SOLID
 62
     7
100
AcDbCircle
 10
101.4766388944
 20
18.9404083667
 30
0.0
 40
3.901228248531818
  0
LINE
  5
7B
330
76
100
AcDbEntity
  8
0
  6
SLD-CENTER
 62
     7
100
AcDbLine
 10
110.1367822585
 20
18.9404083667
 30
0.0
 11
119.4527334874
 21
18.9404083667
 31
0.0
  0
LINE
  5
7C
330
76
100
AcDbEntity
  8
0
  6
SLD-SOLID
 62
     7
100
AcDbLine
 10
111.0016388944
 20
20.7086355204
 30
0.0
 11
111.0016388944
 21
17.172181213
 31
0.0
  0
LINE
  5
7D
330
76
100
AcDbEntity
  8
0
  6
SLD-SOLID
 62
     7
100
AcDbLine
 10
111.0016388944
 20
17.172181213
 30
0.0
 11
118.6216388944
 21
15.1304083667
 31
0.0
  0
LINE
  5
7E
330
76
100
AcDbEntity
  8
0
  6
SLD-SOLID
 62
     7
100
AcDbLine
 10
118.6216388944
 20
15.1304083667
 30
0.0
 11
118.6216388944
 21
22.7504083667
 31
0.0
  0
LINE
  5
7F
330
76
100
AcDbEntity
  8
0
  6
SLD-SOLID
 62
     7
100
AcDbLine
 10
118.6216388944
 20
22.7504083667
 30
0.0
 11
111.0016388944
 21
20.7086355204
 31
0.0
  0
LINE
  5
80
330
76
100
AcDbEntity
  8
0
  6
SLD-CENTER
 62
     7
100
AcDbLine
 10
96.6025854619
 20
18.9404083667
 30
0.0
 11
106.3506923269
 21
18.9404083667
 31
0.0
  0
LINE
  5
81
330
76
100
AcDbEntity
  8
0
  6
SLD-CENTER
 62
     7
100
AcDbLine
 10
101.4766388944
 20
23.8144617992
 30
0.0
 11
101.4766388944
 21
14.0663549342
 31
0.0
  0
POINT
  5
82
330
76
100
AcDbEntity
  8
0
  6
CONTINUOUS
 62
     7
100
AcDbPoint
 10
101.4766388944
 20
18.9404083667
 30
0.0
  0
ENDBLK
  5
78
330
76
100
AcDbEntity
  8
0
100
AcDbBlockEnd
  0
BLOCK
  5
9D
330
9C
100
AcDbEntity
  8
0
100
AcDbBlockBegin
  2
SW_NOTE_0
 70
     0
 10
0.0
 20
0.0
 30
0.0
  3
SW_NOTE_0
  1

  0
MTEXT
  5
A0
330
9C
100
AcDbEntity
  8
0
  6
CONTINUOUS
 62
     0
100
AcDbMText
 10
0.0
 20
3.0695925553
 30
0.0
 40
2.38125
 41
0.0
 71
     1
 72
     1
  1
NOTES/SPECIFICATIONS:
  7
SLDTEXTSTYLE0
  0
MTEXT
  5
A1
330
9C
100
AcDbEntity
  8
0
  6
CONTINUOUS
 62
     0
100
AcDbMText
 10
9.9999997765
 20
-3.2804073679
 30
0.0
 40
2.38125
 41
0.0
 71
     1
 72
     1
  1
CLEAR APERTURE: >
  7
SLDTEXTSTYLE0
  0
MTEXT
  5
A2
330
9C
100
AcDbEntity
  8
0
  6
CONTINUOUS
 62
     0
100
AcDbMText
 10
39.5010411739
 20
-3.2804073679
 30
0.0
 40
2.38125
 41
0.0
 71
     1
 72
     1
  1
%%c
  7
SLDTEXTSTYLE0
  0
MTEXT
  5
A3
330
9C
100
AcDbEntity
  8
0
  6
CONTINUOUS
 62
     0
100
AcDbMText
 10
43.0954080075
 20
-3.2804073679
 30
0.0
 40
2.38125
 41
0.0
 71
     1
 72
     1
  1
43.2 mm
  7
SLDTEXTSTYLE0
  0
MTEXT
  5
A4
330
9C
100
AcDbEntity
  8
0
  6
CONTINUOUS
 62
     0
100
AcDbMText
 10
0.0
 20
-3.2804073679
 30
0.0
 40
2.38125
 41
0.0
 71
     1
 72
     1
  1
1.
  7
SLDTEXTSTYLE0
  0
MTEXT
  5
A5
330
9C
100
AcDbEntity
  8
0
  6
CONTINUOUS
 62
     0
100
AcDbMText
 10
9.9999997765
 20
-6.4554073296
 30
0.0
 40
2.38125
 41
0.0
 71
     1
 72
     1
  1
SURFACE QUALITY (S1): 10-5 SCRATCH-DIG
  7
SLDTEXTSTYLE0
  0
MTEXT
  5
A6
330
9C
100
AcDbEntity
  8
0
  6
CONTINUOUS
 62
     0
100
AcDbMText
 10
0.0
 20
-6.4554073296
 30
0.0
 40
2.38125
 41
0.0
 71
     1
 72
     1
  1
2.
  7
SLDTEXTSTYLE0
  0
MTEXT
  5
A8
330
9C
100
AcDbEntity
  8
0
  6
CONTINUOUS
 62
     0
100
AcDbMText
 10
9.9999997765
 20
-9.6304072912
 30
0.0
 40
2.38125
 41
0.0
 71
     1
 72
     1
  1
SURFACE FLATNESS (S1): \M+183C9/10 AT 633 nm
  7
SLDTEXTSTYLE1
  0
MTEXT
  5
A9
330
9C
100
AcDbEntity
  8
0
  6
CONTINUOUS
 62
     0
100
AcDbMText
 10
0.0
 20
-9.6304072912
 30
0.0
 40
2.38125
 41
0.0
 71
     1
 72
     1
  1
3.
  7
SLDTEXTSTYLE0
  0
MTEXT
  5
AA
330
9C
100
AcDbEntity
  8
0
  6
CONTINUOUS
 62
     0
100
AcDbMText
 10
40.0
 20
-12.8054072528
 30
0.0
 40
2.38125
 41
0.0
 71
     1
 72
     1
  1
(S2): FINE GRIND
  7
SLDTEXTSTYLE0
  0
MTEXT
  5
AB
330
9C
100
AcDbEntity
  8
0
  6
CONTINUOUS
 62
     0
100
AcDbMText
 10
9.9999997765
 20
-15.9804072144
 30
0.0
 40
2.38125
 41
0.0
 71
     1
 72
     1
  1
PARALLELISM: \U+2264 3 arcmin
  7
SLDTEXTSTYLE1
  0
MTEXT
  5
AC
330
9C
100
AcDbEntity
  8
0
  6
CONTINUOUS
 62
     0
100
AcDbMText
 10
0.0
 20
-15.9804072144
 30
0.0
 40
2.38125
 41
0.0
 71
     1
 72
     1
  1
4.
  7
SLDTEXTSTYLE0
  0
MTEXT
  5
AD
330
9C
100
AcDbEntity
  8
0
  6
CONTINUOUS
 62
     0
100
AcDbMText
 10
9.9999997765
 20
-19.1554071761
 30
0.0
 40
2.38125
 41
0.0
 71
     1
 72
     1
  1
THICKNESS TOLERANCE:
  7
SLDTEXTSTYLE0
  0
MTEXT
  5
AE
330
9C
100
AcDbEntity
  8
0
  6
CONTINUOUS
 62
     0
100
AcDbMText
 10
46.741804108
 20
-19.1554071761
 30
0.0
 40
2.38125
 41
0.0
 71
     1
 72
     1
  1
%%p
  7
SLDTEXTSTYLE0
  0
MTEXT
  5
AF
330
9C
100
AcDbEntity
  8
0
  6
CONTINUOUS
 62
     0
100
AcDbMText
 10
49.0119289607
 20
-19.1554071761
 30
0.0
 40
2.38125
 41
0.0
 71
     1
 72
     1
  1
0.2 mm
  7
SLDTEXTSTYLE0
  0
MTEXT
  5
B0
330
9C
100
AcDbEntity
  8
0
  6
CONTINUOUS
 62
     0
100
AcDbMText
 10
0.0
 20
-19.1554071761
 30
0.0
 40
2.38125
 41
0.0
 71
     1
 72
     1
  1
5.
  7
SLDTEXTSTYLE0
  0
MTEXT
  5
B1
330
9C
100
AcDbEntity
  8
0
  6
CONTINUOUS
 62
     0
100
AcDbMText
 10
9.9999997765
 20
-22.3304071377
 30
0.0
 40
2.38125
 41
0.0
 71
     1
 72
     1
  1
DIAMETER TOLERANCE: + 0.0/-0.1 mm
  7
SLDTEXTSTYLE0
  0
MTEXT
  5
B2
330
9C
100
AcDbEntity
  8
0
  6
CONTINUOUS
 62
     0
100
AcDbMText
 10
0.0
 20
-22.3304071377
 30
0.0
 40
2.38125
 41
0.0
 71
     1
 72
     1
  1
6.
  7
SLDTEXTSTYLE0
  0
MTEXT
  5
B3
330
9C
100
AcDbEntity
  8
0
  6
CONTINUOUS
 62
     0
100
AcDbMText
 10
9.9999997765
 20
-25.5054070993
 30
0.0
 40
2.38125
 41
0.0
 71
     1
 72
     1
  1
DESIGN WAVELENGTH RANGE: 350-400 nm
  7
SLDTEXTSTYLE0
  0
MTEXT
  5
B4
330
9C
100
AcDbEntity
  8
0
  6
CONTINUOUS
 62
     0
100
AcDbMText
 10
0.0
 20
-25.5054070993
 30
0.0
 40
2.38125
 41
0.0
 71
     1
 72
     1
  1
7.
  7
SLDTEXTSTYLE0
  0
MTEXT
  5
B5
330
9C
100
AcDbEntity
  8
0
  6
CONTINUOUS
 62
     0
100
AcDbMText
 10
9.9999997765
 20
-28.680407061
 30
0.0
 40
2.38125
 41
0.0
 71
     1
 72
     1
  1
COATING: BROADBAND HR, DIELECTRIC
  7
SLDTEXTSTYLE0
  0
MTEXT
  5
B6
330
9C
100
AcDbEntity
  8
0
  6
CONTINUOUS
 62
     0
100
AcDbMText
 10
0.0
 20
-28.680407061
 30
0.0
 40
2.38125
 41
0.0
 71
     1
 72
     1
  1
8.
  7
SLDTEXTSTYLE0
  0
MTEXT
  5
B7
330
9C
100
AcDbEntity
  8
0
  6
CONTINUOUS
 62
     0
100
AcDbMText
 10
10.0
 20
-31.8554070226
 30
0.0
 40
2.38125
 41
0.0
 71
     1
 72
     1
  1
R
  7
SLDTEXTSTYLE0
  0
MTEXT
  5
B8
330
9C
100
AcDbEntity
  8
0
  6
CONTINUOUS
 62
     0
100
AcDbMText
 10
11.9270486664
 20
-32.6448892574
 30
0.0
 40
1.5875
 41
0.0
 71
     1
 72
     1
  1
s
  7
SLDTEXTSTYLE0
  0
MTEXT
  5
B9
330
9C
100
AcDbEntity
  8
0
  6
CONTINUOUS
 62
     0
100
AcDbMText
 10
13.6247917451
 20
-32.6448892574
 30
0.0
 40
1.5875
 41
0.0
 71
     1
 72
     1
  1
avg
  7
SLDTEXTSTYLE0
  0
MTEXT
  5
BA
330
9C
100
AcDbEntity
  8
0
  6
CONTINUOUS
 62
     0
100
AcDbMText
 10
17.6670371927
 20
-31.8554070226
 30
0.0
 40
2.38125
 41
0.0
 71
     1
 72
     1
  1
: >99% FROM 350-400 nm
  7
SLDTEXTSTYLE0
  0
MTEXT
  5
BB
330
9C
100
AcDbEntity
  8
0
  6
CONTINUOUS
 62
     0
100
AcDbMText
 10
10.0
 20
-35.0304069842
 30
0.0
 40
2.38125
 41
0.0
 71
     1
 72
     1
  1
R
  7
SLDTEXTSTYLE0
  0
MTEXT
  5
BC
330
9C
100
AcDbEntity
  8
0
  6
CONTINUOUS
 62
     0
100
AcDbMText
 10
11.9270486664
 20
-35.819889219
 30
0.0
 40
1.5875
 41
0.0
 71
     1
 72
     1
  1
p
  7
SLDTEXTSTYLE0
  0
MTEXT
  5
BD
330
9C
100
AcDbEntity
  8
0
  6
CONTINUOUS
 62
     0
100
AcDbMText
 10
14.2480323464
 20
-35.819889219
 30
0.0
 40
1.5875
 41
0.0
 71
     1
 72
     1
  1
avg
  7
SLDTEXTSTYLE0
  0
MTEXT
  5
BE
330
9C
100
AcDbEntity
  8
0
  6
CONTINUOUS
 62
     0
100
AcDbMText
 10
18.290277794
 20
-35.0304069842
 30
0.0
 40
2.38125
 41
0.0
 71
     1
 72
     1
  1
: >99% FROM 350-400 nm
  7
SLDTEXTSTYLE0
  0
MTEXT
  5
BF
330
9C
100
AcDbEntity
  8
0
  6
CONTINUOUS
 62
     0
100
AcDbMText
 10
10.0
 20
-38.2054069459
 30
0.0
 40
2.38125
 41
0.0
 71
     1
 72
     1
  1
AOI: 0
  7
SLDTEXTSTYLE0
  0
MTEXT
  5
C0
330
9C
100
AcDbEntity
  8
0
  6
CONTINUOUS
 62
     0
100
AcDbMText
 10
19.344201535
 20
-38.2054069459
 30
0.0
 40
2.38125
 41
0.0
 71
     1
 72
     1
  1
%%d
  7
SLDTEXTSTYLE0
  0
MTEXT
  5
C2
330
9C
100
AcDbEntity
  8
0
  6
CONTINUOUS
 62
     0
100
AcDbMText
 10
21.7505871639
 20
-38.2054069459
 30
0.0
 40
2.38125
 41
0.0
 71
     1
 72
     1
  1
TO 45
  7
SLDTEXTSTYLE2
  0
MTEXT
  5
C3
330
9C
100
AcDbEntity
  8
0
  6
CONTINUOUS
 62
     0
100
AcDbMText
 10
30.2459171414
 20
-38.2054069459
 30
0.0
 40
2.38125
 41
0.0
 71
     1
 72
     1
  1
%%d
  7
SLDTEXTSTYLE0
  0
MTEXT
  5
C4
330
9C
100
AcDbEntity
  8
0
  6
CONTINUOUS
 62
     0
100
AcDbMText
 10
9.9999997765
 20
-41.3804069075
 30
0.0
 40
2.38125
 41
0.0
 71
     1
 72
     1
  1
DAMAGE THRESHOLD: 1 J/cm
  7
SLDTEXTSTYLE0
  0
MTEXT
  5
C5
330
9C
100
AcDbEntity
  8
0
  6
CONTINUOUS
 62
     0
100
AcDbMText
 10
55.1731940359
 20
-41.333559084
 30
0.0
 40
1.3229166667
 41
0.0
 71
     1
 72
     1
  1
2
  7
SLDTEXTSTYLE0
  0
MTEXT
  5
C7
330
9C
100
AcDbEntity
  8
0
  6
CONTINUOUS
 62
     0
100
AcDbMText
 10
57.0436528832
 20
-41.3804069075
 30
0.0
 40
2.38125
 41
0.0
 71
     1
 72
     1
  1
10 ns PULSE, 10 Hz AT 355 nm
  7
SLDTEXTSTYLE3
  0
MTEXT
  5
C8
330
9C
100
AcDbEntity
  8
0
  6
CONTINUOUS
 62
     0
100
AcDbMText
 10
0.0
 20
-41.3804069075
 30
0.0
 40
2.38125
 41
0.0
 71
     1
 72
     1
  1
9.
  7
SLDTEXTSTYLE0
  0
ENDBLK
  5
9E
330
9C
100
AcDbEntity
  8
0
100
AcDbBlockEnd
  0
BLOCK
  5
DB
330
DA
100
AcDbEntity
  8
0
100
AcDbBlockBegin
  2
SW_NOTE_1
 70
     0
 10
0.0
 20
0.0
 30
0.0
  3
SW_NOTE_1
  1

  0
MTEXT
  5
DD
330
DA
100
AcDbEntity
  8
0
  6
CONTINUOUS
 62
     0
100
AcDbMText
 10
19.90725
 20
1.9645392354
 30
0.0
 40
1.524
 41
0.0
 71
     2
 72
     1
  1
VALUES IN PARENTHESIS ARE CALCULATED
  7
SLDTEXTSTYLE0
  0
MTEXT
  5
DE
330
DA
100
AcDbEntity
  8
0
  6
CONTINUOUS
 62
     0
100
AcDbMText
 10
19.8778795174
 20
-0.5594606586
 30
0.0
 40
1.524
 41
0.0
 71
     2
 72
     1
  1
AND MAY CONTAIN ROUNDOFF ERRORS
  7
SLDTEXTSTYLE0
  0
ENDBLK
  5
DC
330
DA
100
AcDbEntity
  8
0
100
AcDbBlockEnd
  0
BLOCK
  5
E1
330
E0
100
AcDbEntity
  8
0
100
AcDbBlockBegin
  2
SW_NOTE_2
 70
     0
 10
0.0
 20
0.0
 30
0.0
  3
SW_NOTE_2
  1

  0
MTEXT
  5
E3
330
E0
100
AcDbEntity
  8
0
  6
CONTINUOUS
 62
     0
100
AcDbMText
 10
0.0
 20
2.7285267159
 30
0.0
 40
2.1166666667
 41
0.0
 71
     1
 72
     1
  1
DRAWING
  7
SLDTEXTSTYLE0
  0
MTEXT
  5
E4
330
E0
100
AcDbEntity
  8
0
  6
CONTINUOUS
 62
     0
100
AcDbMText
 10
0.0
 20
-0.0936954723
 30
0.0
 40
2.1166666667
 41
0.0
 71
     1
 72
     1
  1
PROJECTION
  7
SLDTEXTSTYLE0
  0
ENDBLK
  5
E2
330
E0
100
AcDbEntity
  8
0
100
AcDbBlockEnd
  0
BLOCK
  5
E8
330
E7
100
AcDbEntity
  8
0
100
AcDbBlockBegin
  2
SW_NOTE_3
 70
     0
 10
0.0
 20
0.0
 30
0.0
  3
SW_NOTE_3
  1

  0
MTEXT
  5
EA
330
E7
100
AcDbEntity
  8
0
  6
CONTINUOUS
 62
     0
100
AcDbMText
 10
25.052734375
 20
4.0927900738
 30
0.0
 40
3.175
 41
0.0
 71
     2
 72
     1
  1
FOR INFORMATION ONLY
  7
SLDTEXTSTYLE0
  0
MTEXT
  5
EB
330
E7
100
AcDbEntity
  8
0
  6
CONTINUOUS
 62
     0
100
AcDbMText
 10
25.3768468589
 20
-0.1405432084
 30
0.0
 40
3.175
 41
0.0
 71
     2
 72
     1
  1
NOT FOR MANUFACTURING PURPOSES
  7
SLDTEXTSTYLE0
  0
ENDBLK
  5
E9
330
E7
100
AcDbEntity
  8
0
100
AcDbBlockEnd
  0
BLOCK
  5
EE
330
ED
100
AcDbEntity
  8
0
100
AcDbBlockBegin
  2
SW_NOTE_4
 70
     0
 10
0.0
 20
0.0
 30
0.0
  3
SW_NOTE_4
  1

  0
MTEXT
  5
F0
330
ED
100
AcDbEntity
  8
0
  6
CONTINUOUS
 62
     0
100
AcDbMText
 10
1.6430625
 20
2.9468088531
 30
0.0
 40
2.286
 41
0.0
 71
     2
 72
     1
  1
%%c
  7
SLDTEXTSTYLE0
  0
MTEXT
  5
F1
330
ED
100
AcDbEntity
  8
0
  6
CONTINUOUS
 62
     0
100
AcDbMText
 10
25.4146051148
 20
2.9468088531
 30
0.0
 40
2.286
 41
0.0
 71
     2
 72
     1
  1
50.8 mm BROADBAND MIRROR
  7
SLDTEXTSTYLE0
  0
MTEXT
  5
F2
330
ED
100
AcDbEntity
  8
0
  6
CONTINUOUS
 62
     0
100
AcDbMText
 10
24.5448927513
 20
-0.3391912552
 30
0.0
 40
2.286
 41
0.0
 71
     2
 72
     1
  1
350-400 nm
  7
SLDTEXTSTYLE0
  0
ENDBLK
  5
EF
330
ED
100
AcDbEntity
  8
0
100
AcDbBlockEnd
  0
BLOCK
  5
FB
330
FA
100
AcDbEntity
  8
0
100
AcDbBlockBegin
  2
_D
 70
     0
 10
0.0
 20
0.0
 30
0.0
  3
_D
  1

  0
SOLID
  5
FD
330
FA
100
AcDbEntity
  8
0
  6
SLD-SOLID
 62
     7
100
AcDbTrace
 10
73.0506256914
 20
138.9474747307
 30
0.0
 11
75.6548999665
 21
140.8333285161
 31
0.0
 12
74.9364794768
 22
141.5517490058
 32
0.0
 13
74.9364794768
 23
141.5517490058
 33
0.0
  0
LINE
  5
FE
330
FA
100
AcDbEntity
  8
0
  6
SLD-SOLID
 62
     7
100
AcDbLine
 10
88.1699139248
 20
147.3916318226
 30
0.0
 11
87.5260944707
 21
147.3916318226
 31
0.0
  0
LINE
  5
FF
330
FA
100
AcDbEntity
  8
0
  6
SLD-SOLID
 62
     7
100
AcDbLine
 10
87.5260944707
 20
147.3916318226
 30
0.0
 11
87.5260944707
 21
144.0284837461
 31
0.0
  0
LINE
  5
100
330
FA
100
AcDbEntity
  8
0
  6
SLD-SOLID
 62
     7
100
AcDbLine
 10
87.5260944707
 20
144.0284837461
 30
0.0
 11
88.1699139248
 21
144.0284837461
 31
0.0
  0
LINE
  5
101
330
FA
100
AcDbEntity
  8
0
  6
SLD-SOLID
 62
     7
100
AcDbLine
 10
95.9271054711
 20
147.3916318226
 30
0.0
 11
96.5709249252
 21
147.3916318226
 31
0.0
  0
LINE
  5
102
330
FA
100
AcDbEntity
  8
0
  6
SLD-SOLID
 62
     7
100
AcDbLine
 10
96.5709249252
 20
147.3916318226
 30
0.0
 11
96.5709249252
 21
144.0284837461
 31
0.0
  0
LINE
  5
103
330
FA
100
AcDbEntity
  8
0
  6
SLD-SOLID
 62
     7
100
AcDbLine
 10
96.5709249252
 20
144.0284837461
 30
0.0
 11
95.9271054711
 21
144.0284837461
 31
0.0
  0
LINE
  5
104
330
FA
100
AcDbEntity
  8
0
  6
SLD-SOLID
 62
     7
100
AcDbLine
 10
73.0506256914
 20
138.9474747307
 30
0.0
 11
83.0722750165
 21
148.9691240559
 31
0.0
  0
LINE
  5
105
330
FA
100
AcDbEntity
  8
0
  6
SLD-SOLID
 62
     7
100
AcDbLine
 10
83.0722750165
 20
148.9691240559
 30
0.0
 11
86.8822750165
 21
148.9691240559
 31
0.0
  0
MTEXT
  5
106
330
FA
100
AcDbEntity
  8
0
  6
SLD-SOLID
 62
     7
100
AcDbMText
 10
86.8822750165
 20
150.5493714691
 30
0.0
 40
2.1166666667
 41
0.0
 71
     1
 72
     1
  1
%%c
  7
SLDTEXTSTYLE0
  0
MTEXT
  5
107
330
FA
100
AcDbEntity
  8
0
  6
SLD-SOLID
 62
     7
100
AcDbMText
 10
90.0772658172
 20
150.5493714691
 30
0.0
 40
2.1166666667
 41
0.0
 71
     1
 72
     1
  1
50.8mm
  7
SLDTEXTSTYLE0
  0
MTEXT
  5
108
330
FA
100
AcDbEntity
  8
0
  6
SLD-SOLID
 62
     7
100
AcDbMText
 10
88.1699139248
 20
146.7570103456
 30
0.0
 40
2.1166666667
 41
0.0
 71
     1
 72
     1
  1
2.00in
  7
SLDTEXTSTYLE0
  0
ENDBLK
  5
FC
330
FA
100
AcDbEntity
  8
0
100
AcDbBlockEnd
  0
BLOCK
  5
11A
330
119
100
AcDbEntity
  8
0
100
AcDbBlockBegin
  2
_D_1
 70
     0
 10
0.0
 20
0.0
 30
0.0
  3
_D_1
  1

  0
SOLID
  5
11C
330
119
100
AcDbEntity
  8
0
  6
SLD-SOLID
 62
     7
100
AcDbTrace
 10
134.0911088747
 20
152.2804155953
 30
0.0
 11
130.9161088747
 21
152.7884155953
 31
0.0
 12
130.9161088747
 22
151.7724155953
 32
0.0
 13
130.9161088747
 23
151.7724155953
 33
0.0
  0
SOLID
  5
11D
330
119
100
AcDbEntity
  8
0
  6
SLD-SOLID
 62
     7
100
AcDbTrace
 10
146.0911088747
 20
152.2804155953
 30
0.0
 11
149.2661088747
 21
151.7724155953
 31
0.0
 12
149.2661088747
 22
152.7884155953
 32
0.0
 13
149.2661088747
 23
152.7884155953
 33
0.0
  0
LINE
  5
11E
330
119
100
AcDbEntity
  8
0
  6
SLD-SOLID
 62
     7
100
AcDbLine
 10
136.2125133344
 20
152.2804153624
 30
0.0
 11
135.5686938802
 21
152.2804153624
 31
0.0
  0
LINE
  5
11F
330
119
100
AcDbEntity
  8
0
  6
SLD-SOLID
 62
     7
100
AcDbLine
 10
135.5686938802
 20
152.2804153624
 30
0.0
 11
135.5686938802
 21
148.917267286
 31
0.0
  0
LINE
  5
120
330
119
100
AcDbEntity
  8
0
  6
SLD-SOLID
 62
     7
100
AcDbLine
 10
135.5686938802
 20
148.917267286
 30
0.0
 11
136.2125133344
 21
148.917267286
 31
0.0
  0
LINE
  5
121
330
119
100
AcDbEntity
  8
0
  6
SLD-SOLID
 62
     7
100
AcDbLine
 10
143.9697048806
 20
152.2804153624
 30
0.0
 11
144.6135243347
 21
152.2804153624
 31
0.0
  0
LINE
  5
122
330
119
100
AcDbEntity
  8
0
  6
SLD-SOLID
 62
     7
100
AcDbLine
 10
144.6135243347
 20
152.2804153624
 30
0.0
 11
144.6135243347
 21
148.917267286
 31
0.0
  0
LINE
  5
123
330
119
100
AcDbEntity
  8
0
  6
SLD-SOLID
 62
     7
100
AcDbLine
 10
144.6135243347
 20
148.917267286
 30
0.0
 11
143.9697048806
 21
148.917267286
 31
0.0
  0
LINE
  5
124
330
119
100
AcDbEntity
  8
0
  6
SLD-SOLID
 62
     7
100
AcDbLine
 10
134.0911088747
 20
147.4069624886
 30
0.0
 11
134.0911088747
 21
154.0584155953
 31
0.0
  0
LINE
  5
125
330
119
100
AcDbEntity
  8
0
  6
SLD-SOLID
 62
     7
100
AcDbLine
 10
146.0911088747
 20
147.4069624886
 30
0.0
 11
146.0911088747
 21
154.0584155953
 31
0.0
  0
LINE
  5
126
330
119
100
AcDbEntity
  8
0
  6
SLD-SOLID
 62
     7
100
AcDbLine
 10
134.0911088747
 20
152.2804155953
 30
0.0
 11
127.7411088747
 21
152.2804155953
 31
0.0
  0
LINE
  5
127
330
119
100
AcDbEntity
  8
0
  6
SLD-SOLID
 62
     7
100
AcDbLine
 10
146.0911088747
 20
152.2804155953
 30
0.0
 11
152.4411088747
 21
152.2804155953
 31
0.0
  0
MTEXT
  5
128
330
119
100
AcDbEntity
  8
0
  6
SLD-SOLID
 62
     7
100
AcDbMText
 10
134.7367259812
 20
155.4381550089
 30
0.0
 40
2.1166666667
 41
0.0
 71
     1
 72
     1
  1

  7
SLDTEXTSTYLE0
  0
MTEXT
  5
129
330
119
100
AcDbEntity
  8
0
  6
SLD-SOLID
 62
     7
100
AcDbMText
 10
134.7092876856
 20
155.4381550089
 30
0.0
 40
2.1166666667
 41
0.0
 71
     1
 72
     1
  1
12.0mm
  7
SLDTEXTSTYLE0
  0
MTEXT
  5
12A
330
119
100
AcDbEntity
  8
0
  6
SLD-SOLID
 62
     7
100
AcDbMText
 10
136.2125133344
 20
151.6457938854
 30
0.0
 40
2.1166666667
 41
0.0
 71
     1
 72
     1
  1
0.47in
  7
SLDTEXTSTYLE0
  0
MTEXT
  5
12B
330
119
100
AcDbEntity
  8
0
  6
SLD-SOLID
 62
     7
100
AcDbMText
 10
147.0604295981
 20
155.4381550089
 30
0.0
 40
2.1166666667
 41
0.0
 71
     1
 72
     1
  1

  7
SLDTEXTSTYLE0
  0
ENDBLK
  5
11B
330
119
100
AcDbEntity
  8
0
100
AcDbBlockEnd
  0
ENDSEC
  0
SECTION
  2
ENTITIES
  0
LINE
  5
83
330
1F
100
AcDbEntity
  8
0
  6
SLD-SOLID
 62
     7
100
AcDbLine
 10
1.5793501011
 20
214.6453799966
 30
0.0
 11
277.9892068491
 21
214.6453799966
 31
0.0
  0
LINE
  5
84
330
1F
100
AcDbEntity
  8
0
  6
SLD-SOLID
 62
     7
100
AcDbLine
 10
1.5793501011
 20
214.6453799966
 30
0.0
 11
1.5793501011
 21
0.9031642596
 31
0.0
  0
LINE
  5
85
330
1F
100
AcDbEntity
  8
0
  6
SLD-SOLID
 62
     7
100
AcDbLine
 10
277.9892068491
 20
0.9031642596
 30
0.0
 11
1.5793501011
 21
0.9031642596
 31
0.0
  0
LINE
  5
86
330
1F
100
AcDbEntity
  8
0
  6
SLD-SOLID
 62
     7
100
AcDbLine
 10
277.9892068491
 20
0.9031642596
 30
0.0
 11
277.9892068491
 21
214.6453799966
 31
0.0
  0
LINE
  5
87
330
1F
100
AcDbEntity
  8
0
  6
SLD-SOLID
 62
     7
100
AcDbLine
 10
215.7427640041
 20
12.2958890132
 30
0.0
 11
171.6327596684
 21
12.2958890132
 31
0.0
  0
LINE
  5
88
330
1F
100
AcDbEntity
  8
0
  6
SLD-SOLID
 62
     7
100
AcDbLine
 10
171.6327596684
 20
12.2958890132
 30
0.0
 11
171.6327596684
 21
26.1661402506
 31
0.0
  0
LINE
  5
89
330
1F
100
AcDbEntity
  8
0
  6
SLD-SOLID
 62
     7
100
AcDbLine
 10
171.6327596684
 20
0.9031642596
 30
0.0
 11
171.6327596684
 21
26.1661402506
 31
0.0
  0
LINE
  5
8A
330
1F
100
AcDbEntity
  8
0
  6
SLD-SOLID
 62
     7
100
AcDbLine
 10
215.7427640041
 20
17.1604579552
 30
0.0
 11
277.9892068491
 21
17.1604579552
 31
0.0
  0
LINE
  5
8B
330
1F
100
AcDbEntity
  8
0
  6
SLD-SOLID
 62
     7
100
AcDbLine
 10
215.7427640041
 20
35.2394508358
 30
0.0
 11
215.7427640041
 21
0.9031642596
 31
0.0
  0
LINE
  5
8C
330
1F
100
AcDbEntity
  8
0
  6
SLD-SOLID
 62
     7
100
AcDbLine
 10
215.7427640041
 20
26.1661402506
 30
0.0
 11
171.6327596684
 21
26.1661402506
 31
0.0
  0
LINE
  5
8D
330
1F
100
AcDbEntity
  8
0
  6
SLD-SOLID
 62
     7
100
AcDbLine
 10
215.7427640041
 20
9.1409200612
 30
0.0
 11
277.9892068491
 21
9.1409200612
 31
0.0
  0
LINE
  5
8E
330
1F
100
AcDbEntity
  8
0
  6
SLD-SOLID
 62
     7
100
AcDbLine
 10
215.7427640041
 20
16.9216824031
 30
0.0
 11
171.6327596684
 21
16.9216824031
 31
0.0
  0
LINE
  5
8F
330
1F
100
AcDbEntity
  8
0
  6
SLD-SOLID
 62
     7
100
AcDbLine
 10
215.7427640041
 20
21.4874005542
 30
0.0
 11
171.6327596684
 21
21.4874005542
 31
0.0
  0
LINE
  5
90
330
1F
100
AcDbEntity
  8
0
  6
SLD-SOLID
 62
     7
100
AcDbLine
 10
186.1338100705
 20
26.1661402506
 30
0.0
 11
186.1338100705
 21
12.2958890132
 31
0.0
  0
LINE
  5
91
330
1F
100
AcDbEntity
  8
0
  6
SLD-SOLID
 62
     7
100
AcDbLine
 10
198.2145906188
 20
26.1661402506
 30
0.0
 11
198.2145906188
 21
12.2958890132
 31
0.0
  0
LINE
  5
92
330
1F
100
AcDbEntity
  8
0
  6
SLD-SOLID
 62
     7
100
AcDbLine
 10
253.7490408369
 20
9.1409200612
 30
0.0
 11
253.7490408369
 21
0.9031642596
 31
0.0
  0
LINE
  5
93
330
1F
100
AcDbEntity
  8
0
  6
SLD-SOLID
 62
     7
100
AcDbLine
 10
171.6327596684
 20
12.2958890132
 30
0.0
 11
171.6327596684
 21
7.5627342528
 31
0.0
  0
LINE
  5
94
330
1F
100
AcDbEntity
  8
0
  6
SLD-SOLID
 62
     7
100
AcDbLine
 10
171.6327596684
 20
7.5627342528
 30
0.0
 11
215.7427640041
 21
7.5627342528
 31
0.0
  0
LINE
  5
95
330
1F
100
AcDbEntity
  8
0
  6
SLD-SOLID
 62
     7
100
AcDbLine
 10
171.6327596684
 20
7.5627342528
 30
0.0
 11
171.6327596684
 21
35.2394508358
 31
0.0
  0
LINE
  5
96
330
1F
100
AcDbEntity
  8
0
  6
SLD-SOLID
 62
     7
100
AcDbLine
 10
171.6327596684
 20
35.2394508358
 30
0.0
 11
215.7427640041
 21
35.2394508358
 31
0.0
  0
LINE
  5
97
330
1F
100
AcDbEntity
  8
0
  6
SLD-SOLID
 62
     7
100
AcDbLine
 10
270.1683598194
 20
17.1604579552
 30
0.0
 11
270.1683598194
 21
9.1409200612
 31
0.0
  0
LINE
  5
98
330
1F
100
AcDbEntity
  8
0
  6
SLD-SOLID
 62
     7
100
AcDbLine
 10
215.7427640041
 20
35.2394508358
 30
0.0
 11
277.9892068491
 21
35.2394508358
 31
0.0
  0
LINE
  5
99
330
1F
100
AcDbEntity
  8
0
  6
SLD-SOLID
 62
     7
100
AcDbLine
 10
277.9892068491
 20
35.2394508358
 30
0.0
 11
277.9892068491
 21
50.0331356147
 31
0.0
  0
LINE
  5
9A
330
1F
100
AcDbEntity
  8
0
  6
SLD-SOLID
 62
     7
100
AcDbLine
 10
215.7427640041
 20
24.8927335446
 30
0.0
 11
277.9892068491
 21
24.8927335446
 31
0.0
  0
INSERT
  5
9B
330
1F
100
AcDbEntity
  8
0
  6
CONTINUOUS
 62
     7
100
AcDbBlockReference
  2
THIRD_ANGLE_PROJECTION_BLO
 10
117.7262204235
 20
15.5162339489
 30
0.0
 41
0.8
 42
0.8
 43
0.8
  0
INSERT
  5
C9
330
1F
100
AcDbEntity
  8
0
  6
CONTINUOUS
 62
     7
100
AcDbBlockReference
  2
SW_NOTE_0
 10
7.8874986113
 20
64.6571794542
 30
0.0
  0
MTEXT
  5
CA
330
1F
100
AcDbEntity
  8
0
  6
CONTINUOUS
 62
     7
100
AcDbMText
 10
274.2601077748
 20
13.2559386876
 30
0.0
 40
3.175
 41
0.0
 71
     2
 72
     1
  1
D
  7
SLDTEXTSTYLE0
  0
MTEXT
  5
CB
330
1F
100
AcDbEntity
  8
0
  6
CONTINUOUS
 62
     7
100
AcDbMText
 10
234.7667082137
 20
5.1306563898
 30
0.0
 40
3.175
 41
0.0
 71
     2
 72
     1
  1
BB2-E01
  7
SLDTEXTSTYLE0
  0
MTEXT
  5
CC
330
1F
100
AcDbEntity
  8
0
  6
CONTINUOUS
 62
     7
100
AcDbMText
 10
216.4199766059
 20
16.8243178599
 30
0.0
 40
2.1166666667
 41
0.0
 71
     1
 72
     1
  1
MATERIAL
  7
SLDTEXTSTYLE0
  0
MTEXT
  5
CD
330
1F
100
AcDbEntity
  8
0
  6
CONTINUOUS
 62
     7
100
AcDbMText
 10
174.230946566
 20
20.054553926
 30
0.0
 40
1.8520833333
 41
0.0
 71
     1
 72
     1
  1
DRAWN
  7
SLDTEXTSTYLE0
  0
MTEXT
  5
CE
330
1F
100
AcDbEntity
  8
0
  6
CONTINUOUS
 62
     7
100
AcDbMText
 10
172.3960124543
 20
15.5787169747
 30
0.0
 40
1.8520833333
 41
0.0
 71
     1
 72
     1
  1
APPROVAL
  7
SLDTEXTSTYLE0
  0
MTEXT
  5
CF
330
1F
100
AcDbEntity
  8
0
  6
CONTINUOUS
 62
     7
100
AcDbMText
 10
271.7160653675
 20
16.1671746307
 30
0.0
 40
2.1166666667
 41
0.0
 71
     1
 72
     1
  1
REV
  7
SLDTEXTSTYLE0
  0
MTEXT
  5
D0
330
1F
100
AcDbEntity
  8
0
  6
CONTINUOUS
 62
     7
100
AcDbMText
 10
189.5653256653
 20
20.3177146903
 30
0.0
 40
2.1166666667
 41
0.0
 71
     1
 72
     1
  1
GG
  7
SLDTEXTSTYLE0
  0
MTEXT
  5
D1
330
1F
100
AcDbEntity
  8
0
  6
CONTINUOUS
 62
     7
100
AcDbMText
 10
189.8676366983
 20
15.841877739
 30
0.0
 40
2.1166666667
 41
0.0
 71
     1
 72
     1
  1
BW
  7
SLDTEXTSTYLE0
  0
MTEXT
  5
D2
330
1F
100
AcDbEntity
  8
0
  6
CONTINUOUS
 62
     7
100
AcDbMText
 10
200.1523855634
 20
20.3177146903
 30
0.0
 40
2.1166666667
 41
0.0
 71
     1
 72
     1
  1
29/APR/11
  7
SLDTEXTSTYLE0
  0
MTEXT
  5
D3
330
1F
100
AcDbEntity
  8
0
  6
CONTINUOUS
 62
     7
100
AcDbMText
 10
203.6145073853
 20
24.8221395769
 30
0.0
 40
2.1166666667
 41
0.0
 71
     1
 72
     1
  1
DATE
  7
SLDTEXTSTYLE0
  0
MTEXT
  5
D4
330
1F
100
AcDbEntity
  8
0
  6
CONTINUOUS
 62
     7
100
AcDbMText
 10
199.5631973751
 20
15.841877739
 30
0.0
 40
2.1166666667
 41
0.0
 71
     1
 72
     1
  1
04/NOV/21
  7
SLDTEXTSTYLE0
  0
MTEXT
  5
D6
330
1F
100
AcDbEntity
  8
0
  6
CONTINUOUS
 62
     7
100
AcDbMText
 10
229.402906477
 20
27.7957480569
 30
0.0
 40
2.1166666667
 41
0.0
 71
     1
 72
     1
  1
w w w . t h o r  l a b s . c o m
  7
SLDTEXTSTYLE4
  0
MTEXT
  5
D7
330
1F
100
AcDbEntity
  8
0
  6
CONTINUOUS
 62
     7
100
AcDbMText
 10
216.7004035316
 20
8.3494791871
 30
0.0
 40
2.1166666667
 41
0.0
 71
     1
 72
     1
  1
ITEM #
  7
SLDTEXTSTYLE0
  0
MTEXT
  5
D8
330
1F
100
AcDbEntity
  8
0
  6
CONTINUOUS
 62
     7
100
AcDbMText
 10
243.4751168075
 20
13.8247651814
 30
0.0
 40
3.175
 41
0.0
 71
     2
 72
     1
  1
FUSED SILICA
  7
SLDTEXTSTYLE0
  0
MTEXT
  5
D9
330
1F
100
AcDbEntity
  8
0
  6
CONTINUOUS
 62
     7
100
AcDbMText
 10
266.2586154088
 20
5.1306563898
 30
0.0
 40
3.175
 41
0.0
 71
     2
 72
     1
  1
54 g
  7
SLDTEXTSTYLE3
  0
INSERT
  5
DF
330
1F
100
AcDbEntity
  8
0
  6
CONTINUOUS
 62
     7
100
AcDbBlockReference
  2
SW_NOTE_1
 10
174.8430140051
 20
4.4558554801
 30
0.0
  0
INSERT
  5
E5
330
1F
100
AcDbEntity
  8
0
  6
CONTINUOUS
 62
     7
100
AcDbBlockReference
  2
SW_NOTE_2
 10
174.5483650337
 20
30.4835322715
 30
0.0
  0
MTEXT
  5
E6
330
1F
100
AcDbEntity
  8
0
  6
CONTINUOUS
 62
     7
100
AcDbMText
 10
187.9273588276
 20
24.8221395769
 30
0.0
 40
2.1166666667
 41
0.0
 71
     1
 72
     1
  1
NAME
  7
SLDTEXTSTYLE0
  0
INSERT
  5
EC
330
1F
100
AcDbEntity
  8
0
  6
CONTINUOUS
 62
     7
100
AcDbBlockReference
  2
SW_NOTE_3
 10
58.6204667508
 20
8.1776609732
 30
0.0
  0
INSERT
  5
F3
330
1F
100
AcDbEntity
  8
0
  6
CONTINUOUS
 62
     7
100
AcDbBlockReference
  2
SW_NOTE_4
 10
223.610584337
 20
20.8285037925
 30
0.0
  0
MTEXT
  5
F4
330
1F
100
AcDbEntity
  8
0
  6
CONTINUOUS
 62
     7
100
AcDbMText
 10
177.6925831922
 20
10.7142101515
 30
0.0
 40
1.5875
 41
0.0
 71
     1
 72
     1
  1
COPYRIGHT © 2021 BY THORLABS
  7
SLDTEXTSTYLE0
  0
MTEXT
  5
F5
330
1F
100
AcDbEntity
  8
0
  6
CONTINUOUS
 62
     7
100
AcDbMText
 10
254.5318000914
 20
8.3494791871
 30
0.0
 40
2.1166666667
 41
0.0
 71
     1
 72
     1
  1
APPROX WEIGHT
  7
SLDTEXTSTYLE0
  0
CIRCLE
  5
F6
330
1F
100
AcDbEntity
  8
0
  6
SLD-SOLID
 62
     7
100
AcDbCircle
 10
55.0901134492
 20
120.9869624886
 30
0.0
 40
25.15
  0
CIRCLE
  5
F7
330
1F
100
AcDbEntity
  8
0
  6
SLD-SOLID
 62
     7
100
AcDbCircle
 10
55.0901134492
 20
120.9869624886
 30
0.0
 40
25.4
  0
DIMENSION
  5
F8
330
1F
100
AcDbEntity
  8
0
  6
SLD-SOLID
 62
     7
100
AcDbDimension
  2
_D
 10
37.1296012071
 20
103.0264502464
 30
0.0
 11
93.8615914896
 21
148.9691240559
 31
0.0
 70
   163
  1
<>
  3
SLDDIMSTYLE0
100
AcDbDiametricDimension
 15
73.0506256914
 25
138.9474747307
 35
0.0
 40
0.0
  0
LINE
  5
109
330
1F
100
AcDbEntity
  8
0
  6
SLD-SOLID
 62
     7
100
AcDbLine
 10
145.8411088858
 20
146.3869621816
 30
0.0
 11
134.3411088635
 21
146.3869621816
 31
0.0
  0
LINE
  5
10A
330
1F
100
AcDbEntity
  8
0
  6
SLD-SOLID
 62
     7
100
AcDbLine
 10
134.3411088635
 20
95.5869627955
 30
0.0
 11
145.8411088858
 21
95.5869627955
 31
0.0
  0
LINE
  5
10B
330
1F
100
AcDbEntity
  8
0
  6
SLD-SOLID
 62
     7
100
AcDbLine
 10
145.8411088858
 20
95.5869627955
 30
0.0
 11
146.0911089268
 21
95.8369633022
 31
0.0
  0
LINE
  5
10C
330
1F
100
AcDbEntity
  8
0
  6
SLD-SOLID
 62
     7
100
AcDbLine
 10
146.0911089268
 20
146.136961675
 30
0.0
 11
145.8411088858
 21
146.3869621816
 31
0.0
  0
LINE
  5
10D
330
1F
100
AcDbEntity
  8
0
  6
SLD-SOLID
 62
     7
100
AcDbLine
 10
134.3411088635
 20
146.3869621816
 30
0.0
 11
134.0911088225
 21
146.136961675
 31
0.0
  0
LINE
  5
10E
330
1F
100
AcDbEntity
  8
0
  6
SLD-SOLID
 62
     7
100
AcDbLine
 10
134.0911088225
 20
95.8369633022
 30
0.0
 11
134.3411088635
 21
95.5869627955
 31
0.0
  0
LINE
  5
10F
330
1F
100
AcDbEntity
  8
0
  6
SLD-SOLID
 62
     7
100
AcDbLine
 10
145.8411088858
 20
120.9869624886
 30
0.0
 11
145.8411088858
 21
146.3869621816
 31
0.0
  0
LINE
  5
110
330
1F
100
AcDbEntity
  8
0
  6
SLD-SOLID
 62
     7
100
AcDbLine
 10
145.8411088858
 20
95.5869627955
 30
0.0
 11
145.8411088858
 21
120.9869624886
 31
0.0
  0
LINE
  5
111
330
1F
100
AcDbEntity
  8
0
  6
SLD-SOLID
 62
     7
100
AcDbLine
 10
134.3411088635
 20
120.9869624886
 30
0.0
 11
134.3411088635
 21
95.5869627955
 31
0.0
  0
LINE
  5
112
330
1F
100
AcDbEntity
  8
0
  6
SLD-SOLID
 62
     7
100
AcDbLine
 10
134.3411088635
 20
146.3869621816
 30
0.0
 11
134.3411088635
 21
120.9869624886
 31
0.0
  0
LINE
  5
113
330
1F
100
AcDbEntity
  8
0
  6
SLD-SOLID
 62
     7
100
AcDbLine
 10
146.0911089268
 20
120.9869624886
 30
0.0
 11
146.0911089268
 21
95.8369633022
 31
0.0
  0
LINE
  5
114
330
1F
100
AcDbEntity
  8
0
  6
SLD-SOLID
 62
     7
100
AcDbLine
 10
146.0911089268
 20
146.136961675
 30
0.0
 11
146.0911089268
 21
120.9869624886
 31
0.0
  0
LINE
  5
115
330
1F
100
AcDbEntity
  8
0
  6
SLD-SOLID
 62
     7
100
AcDbLine
 10
134.0911088225
 20
120.9869624886
 30
0.0
 11
134.0911088225
 21
146.136961675
 31
0.0
  0
LINE
  5
116
330
1F
100
AcDbEntity
  8
0
  6
SLD-SOLID
 62
     7
100
AcDbLine
 10
134.0911088225
 20
95.8369633022
 30
0.0
 11
134.0911088225
 21
120.9869624886
 31
0.0
  0
DIMENSION
  5
117
330
1F
100
AcDbEntity
  8
0
  6
SLD-SOLID
 62
     7
100
AcDbDimension
  2
_D_1
 10
146.0911088747
 20
152.2804155953
 30
0.0
 11
140.0911088747
 21
152.2804155953
 31
0.0
 70
   160
  1
<>
  3
SLDDIMSTYLE1
100
AcDbAlignedDimension
 13
134.0911088747
 23
146.1369624886
 33
0.0
 14
146.0911088747
 24
146.1369624886
 34
0.0
100
AcDbRotatedDimension
  0
MTEXT
  5
12C
330
1F
100
AcDbEntity
  8
0
  6
CONTINUOUS
 62
     7
100
AcDbMText
 10
118.4970409309
 20
116.7711242098
 30
0.0
 40
2.1166666667
 41
0.0
 71
     1
 72
     1
  1
S1
  7
SLDTEXTSTYLE0
  0
LEADER
  5
12E
330
1F
100
AcDbEntity
  8
0
  6
CONTINUOUS
 62
     7
100
AcDbLeader
  3
SLDDIMSTYLE2
 76
     3
 10
134.0911088747
 20
122.6117147187
 30
0.0
 10
127.0086727984
 20
118.713009241
 30
0.0
 10
120.6586727984
 20
118.713009241
 30
0.0
1001
ACAD
1000
DSTYLE
1002
{
1070
     6
1000

1002
}
  0
MTEXT
  5
12F
330
1F
100
AcDbEntity
  8
0
  6
CONTINUOUS
 62
     7
100
AcDbMText
 10
159.6521260798
 20
130.6637772797
 30
0.0
 40
2.1166666667
 41
0.0
 71
     1
 72
     1
  1
S2
  7
SLDTEXTSTYLE0
  0
LEADER
  5
130
330
1F
100
AcDbEntity
  8
0
  6
CONTINUOUS
 62
     7
100
AcDbLeader
  3
SLDDIMSTYLE2
 76
     3
 10
146.0911088747
 20
124.5696712681
 30
0.0
 10
150.9625
 20
131.213009241
 30
0.0
 10
157.3125
 20
131.213009241
 30
0.0
1001
ACAD
1000
DSTYLE
1002
{
1070
     6
1000

1002
}
  0
LINE
  5
131
330
1F
100
AcDbEntity
  8
0
  6
SLD-SOLID
 62
     7
100
AcDbLine
 10
195.3509058114
 20
119.3242571621
 30
0.0
 11
194.8981573116
 21
119.3242571621
 31
0.0
  0
SPLINE
  5
132
330
1F
100
AcDbEntity
  8
0
  6
SLD-SOLID
 62
     7
100
AcDbSpline
210
0.0
220
0.0
230
1.0
 70
     8
 71
     3
 72
    19
 73
    15
 74
     0
 42
0.000000001
 43
0.00000001
 40
0.0
 40
0.0
 40
0.0
 40
0.0
 40
0.0801399024652512
 40
0.1562809906190945
 40
0.2294060490129022
 40
0.3017986969723055
 40
0.3727428627695782
 40
0.4426676099026296
 40
0.5133209646126974
 40
0.5865476923632088
 40
0.6683225082295048
 40
0.763676625525905
 40
0.8740807567185482
 40
1.0
 40
1.0
 40
1.0
 40
1.0
 10
195.8464595058102
 20
118.9686438036678
 30
0.0
 10
195.8458925555695
 20
118.9873523234404
 30
0.0
 10
195.844786944725
 20
119.0238358467931
 30
0.0
 10
195.8342777344986
 20
119.0765563865289
 30
0.0
 10
195.8169182390514
 20
119.1254553426253
 30
0.0
 10
195.7924811277393
 20
119.1698555136763
 30
0.0
 10
195.7625077351038
 20
119.2097896448296
 30
0.0
 10
195.7262429566123
 20
119.2436646812343
 30
0.0
 10
195.6839579577191
 20
119.2705461979002
 30
0.0
 10
195.6355227793288
 20
119.2916429859384
 30
0.0
 10
195.5789117579054
 20
119.3066529872783
 30
0.0
 10
195.5125619755938
 20
119.3168363640056
 30
0.0
 10
195.43541214686
 20
119.3234074529142
 30
0.0
 10
195.3802810116701
 20
119.3239617931408
 30
0.0
 10
195.3509057082758
 20
119.324257160038
 30
0.0
  0
SPLINE
  5
133
330
1F
100
AcDbEntity
  8
0
  6
SLD-SOLID
 62
     7
100
AcDbSpline
210
0.0
220
0.0
230
1.0
 70
     8
 71
     3
 72
    19
 73
    15
 74
     0
 42
0.000000001
 43
0.00000001
 40
0.0
 40
0.0
 40
0.0
 40
0.0
 40
0.0889709576989539
 40
0.1722707767733142
 40
0.2503120304637097
 40
0.3246551996215506
 40
0.3978444501802953
 40
0.4733008807185329
 40
0.5518258887444478
 40
0.6347494834982534
 40
0.7217660118923851
 40
0.810392665561119
 40
0.9031752367994188
 40
1.0
 40
1.0
 40
1.0
 40
1.0
 10
195.5599931909564
 20
118.6229085960856
 30
0.0
 10
195.5743351284157
 20
118.6259231260148
 30
0.0
 10
195.6021048273202
 20
118.6317600353383
 30
0.0
 10
195.64125343983
 20
118.6447874080064
 30
0.0
 10
195.6771477682359
 20
118.6597109577168
 30
0.0
 10
195.7091613312706
 20
118.6786771314695
 30
0.0
 10
195.7388051225591
 20
118.7005343474935
 30
0.0
 10
195.7645677834511
 20
118.7278350562994
 30
0.0
 10
195.7882964170323
 20
118.7588532840379
 30
0.0
 10
195.808855188946
 20
118.7943501173004
 30
0.0
 10
195.8254799412539
 20
118.8336190724241
 30
0.0
 10
195.8381859550079
 20
118.8760534163848
 30
0.0
 10
195.8449541034122
 20
118.9215043654126
 30
0.0
 10
195.845950623489
 20
118.952708910253
 30
0.0
 10
195.8464595058102
 20
118.9686438036678
 30
0.0
  0
SPLINE
  5
134
330
1F
100
AcDbEntity
  8
0
  6
SLD-SOLID
 62
     7
100
AcDbSpline
210
0.0
220
0.0
230
1.0
 70
     8
 71
     3
 72
    11
 73
     7
 74
     0
 42
0.000000001
 43
0.00000001
 40
0.0
 40
0.0
 40
0.0
 40
0.0
 40
0.3293954641291815
 40
0.6051903468528028
 40
0.8278865786947358
 40
1.0
 40
1.0
 40
1.0
 40
1.0
 10
195.3842444604355
 20
118.6130304472976
 30
0.0
 10
195.4035896111617
 20
118.6132526956953
 30
0.0
 10
195.4391319903165
 20
118.6136610273196
 30
0.0
 10
195.4877470210505
 20
118.6149419834978
 30
0.0
 10
195.5270429961012
 20
118.6180708802728
 30
0.0
 10
195.5499897689319
 20
118.6214399033169
 30
0.0
 10
195.5599931909564
 20
118.6229085960856
 30
0.0
  0
LINE
  5
135
330
1F
100
AcDbEntity
  8
0
  6
SLD-SOLID
 62
     7
100
AcDbLine
 10
194.8981573116
 20
118.6130305591
 30
0.0
 11
195.3842443656
 21
118.6130305591
 31
0.0
  0
LINE
  5
136
330
1F
100
AcDbEntity
  8
0
  6
SLD-SOLID
 62
     7
100
AcDbLine
 10
194.8981573116
 20
119.3242571621
 30
0.0
 11
194.8981573116
 21
118.6130305591
 31
0.0
  0
LINE
  5
137
330
1F
100
AcDbEntity
  8
0
  6
SLD-SOLID
 62
     7
100
AcDbLine
 10
195.2895786855
 20
120.1935342701
 30
0.0
 11
194.8981573116
 21
120.1935342701
 31
0.0
  0
SPLINE
  5
138
330
1F
100
AcDbEntity
  8
0
  6
SLD-SOLID
 62
     7
100
AcDbSpline
210
0.0
220
0.0
230
1.0
 70
     8
 71
     3
 72
    23
 73
    19
 74
     0
 42
0.000000001
 43
0.00000001
 40
0.0
 40
0.0
 40
0.0
 40
0.0
 40
0.076010519206233
 40
0.1481357362434485
 40
0.2177881778331538
 40
0.2867678984972342
 40
0.3540434632439184
 40
0.4186108400234793
 40
0.4836364388553449
 40
0.5502295626461514
 40
0.5869278113138151
 40
0.6291578250269663
 40
0.67723822428767
 40
0.7300426397437295
 40
0.7888625661169238
 40
0.853750451461094
 40
0.9241097665384562
 40
1.0
 40
1.0
 40
1.0
 40
1.0
 10
195.7674343155057
 20
119.8724944177753
 30
0.0
 10
195.7669024010987
 20
119.889405039938
 30
0.0
 10
195.765865761261
 20
119.9223618923654
 30
0.0
 10
195.7571640966826
 20
119.9702209561453
 30
0.0
 10
195.7421061875883
 20
120.0147450267195
 30
0.0
 10
195.7217136551892
 20
120.0559243370954
 30
0.0
 10
195.695891290809
 20
120.092559248113
 30
0.0
 10
195.6650713981633
 20
120.1240566962178
 30
0.0
 10
195.6281513421893
 20
120.14786738022
 30
0.0
 10
195.5936421487737
 20
120.1627205339646
 30
0.0
 10
195.5626038642693
 20
120.1720125830306
 30
0.0
 10
195.534872247152
 20
120.1775103059746
 30
0.0
 10
195.5034163220369
 20
120.1823543466384
 30
0.0
 10
195.4681325760774
 20
120.186472588941
 30
0.0
 10
195.4290076624344
 20
120.1896687244022
 30
0.0
 10
195.3859210304273
 20
120.1922078422185
 30
0.0
 10
195.3389752449368
 20
120.19328589
 30
0.0
 10
195.3064542899845
 20
120.1934494043104
 30
0.0
 10
195.2895788678833
 20
120.1935342533873
 30
0.0
  0
SPLINE
  5
139
330
1F
100
AcDbEntity
  8
0
  6
SLD-SOLID
 62
     7
100
AcDbSpline
210
0.0
220
0.0
230
1.0
 70
     8
 71
     3
 72
    15
 73
    11
 74
     0
 42
0.000000001
 43
0.00000001
 40
0.0
 40
0.0
 40
0.0
 40
0.0
 40
0.1323768784386553
 40
0.2551949197670693
 40
0.3737221416536681
 40
0.4900113154474174
 40
0.6078124214239342
 40
0.7311098159015433
 40
0.8599973777575843
 40
1.0
 40
1.0
 40
1.0
 40
1.0
 10
195.568636571146
 20
119.5856165133887
 30
0.0
 10
195.584370814575
 20
119.5911282200945
 30
0.0
 10
195.6147031432779
 20
119.6017536372153
 30
0.0
 10
195.6553513010016
 20
119.6258850277139
 30
0.0
 10
195.6899717163831
 20
119.6548425785397
 30
0.0
 10
195.7184716143013
 20
119.6891376087872
 30
0.0
 10
195.7403723736578
 20
119.7285865857435
 30
0.0
 10
195.7566111545426
 20
119.7723714334346
 30
0.0
 10
195.7655022473881
 20
119.8211042234991
 30
0.0
 10
195.7667727861302
 20
119.854898701136
 30
0.0
 10
195.7674343155057
 20
119.8724944177753
 30
0.0
  0
SPLINE
  5
13A
330
1F
100
AcDbEntity
  8
0
  6
SLD-SOLID
 62
     7
100
AcDbSpline
210
0.0
220
0.0
230
1.0
 70
     8
 71
     3
 72
    15
 73
    11
 74
     0
 42
0.000000001
 43
0.00000001
 40
0.0
 40
0.0
 40
0.0
 40
0.0
 40
0.1669801744060311
 40
0.3208066328848162
 40
0.4631345048703153
 40
0.5942480539785214
 40
0.712367152539741
 40
0.8194549510427487
 40
0.9157522665813509
 40
1.0
 40
1.0
 40
1.0
 40
1.0
 10
195.3216828514445
 20
119.5613327309514
 30
0.0
 10
195.3355416645677
 20
119.5613875616524
 30
0.0
 10
195.3621675750367
 20
119.5614929038142
 30
0.0
 10
195.4005748165324
 20
119.5629616878997
 30
0.0
 10
195.4360228594488
 20
119.5642147710232
 30
0.0
 10
195.4683745860182
 20
119.5673599128368
 30
0.0
 10
195.4977902693083
 20
119.5704404395292
 30
0.0
 10
195.524152191324
 20
119.5745873086536
 30
0.0
 10
195.5475894742078
 20
119.5792598895988
 30
0.0
 10
195.5619401264915
 20
119.5835940596735
 30
0.0
 10
195.568636571146
 20
119.5856165133887
 30
0.0
  0
LINE
  5
13B
330
1F
100
AcDbEntity
  8
0
  6
SLD-SOLID
 62
     7
100
AcDbLine
 10
194.8981573116
 20
119.5613327741
 30
0.0
 11
195.3216827716
 21
119.5613327741
 31
0.0
  0
LINE
  5
13C
330
1F
100
AcDbEntity
  8
0
  6
SLD-SOLID
 62
     7
100
AcDbLine
 10
194.8981573116
 20
120.1935342701
 30
0.0
 11
194.8981573116
 21
119.5613327741
 31
0.0
  0
LINE
  5
13D
330
1F
100
AcDbEntity
  8
0
  6
SLD-SOLID
 62
     7
100
AcDbLine
 10
205.0545405838
 20
120.4306098238
 30
0.0
 11
205.2241153325
 21
120.4306098238
 31
0.0
  0
SPLINE
  5
13E
330
1F
100
AcDbEntity
  8
0
  6
SLD-SOLID
 62
     7
100
AcDbSpline
210
0.0
220
0.0
230
1.0
 70
     8
 71
     3
 72
    15
 73
    11
 74
     0
 42
0.000000001
 43
0.00000001
 40
0.0
 40
0.0
 40
0.0
 40
0.0
 40
0.1426572507006142
 40
0.2811689939054434
 40
0.4169771923679737
 40
0.5508524927475577
 40
0.6783641702618117
 40
0.7950324430070942
 40
0.9019981783473516
 40
1.0
 40
1.0
 40
1.0
 40
1.0
 10
204.4865469791008
 20
119.9169460873216
 30
0.0
 10
204.51946337502
 20
119.9338980971201
 30
0.0
 10
204.5843396422839
 20
119.9673095046462
 30
0.0
 10
204.6759957791455
 20
120.0250155985137
 30
0.0
 10
204.7615666424751
 20
120.0875713797809
 30
0.0
 10
204.839635695707
 20
120.1549629985809
 30
0.0
 10
204.9096196272667
 20
120.2238493306042
 30
0.0
 10
204.9685961026821
 20
120.2933583454347
 30
0.0
 10
205.0179438644018
 20
120.3609421428487
 30
0.0
 10
205.042702571305
 20
120.4080743465468
 30
0.0
 10
205.0545405344143
 20
120.4306098243008
 30
0.0
  0
LINE
  5
13F
330
1F
100
AcDbEntity
  8
0
  6
SLD-SOLID
 62
     7
100
AcDbLine
 10
204.486546969
 20
119.6741082544
 30
0.0
 11
204.486546969
 21
119.9169460756
 31
0.0
  0
SPLINE
  5
140
330
1F
100
AcDbEntity
  8
0
  6
SLD-SOLID
 62
     7
100
AcDbSpline
210
0.0
220
0.0
230
1.0
 70
     8
 71
     3
 72
    15
 73
    11
 74
     0
 42
0.000000001
 43
0.00000001
 40
0.0
 40
0.0
 40
0.0
 40
0.0
 40
0.1116703001015867
 40
0.2320944808560184
 40
0.3627434591045531
 40
0.5025575097108858
 40
0.6415251033312818
 40
0.7710984952996679
 40
0.8901617573732526
 40
1.0
 40
1.0
 40
1.0
 40
1.0
 10
204.9606981209277
 20
119.9770381591157
 30
0.0
 10
204.9455305294295
 20
119.9624108832157
 30
0.0
 10
204.9140063527109
 20
119.9320096932551
 30
0.0
 10
204.8607180622278
 20
119.8889844179965
 30
0.0
 10
204.8012415198747
 20
119.8453764777473
 30
0.0
 10
204.7363490663992
 20
119.8034425680486
 30
0.0
 10
204.6702021878014
 20
119.7639663142723
 30
0.0
 10
204.6062797458135
 20
119.7284634931225
 30
0.0
 10
204.5456489528296
 20
119.6984194924382
 30
0.0
 10
204.5057111220198
 20
119.6819913140056
 30
0.0
 10
204.4865469791008
 20
119.6741082629484
 30
0.0
  0
LINE
  5
141
330
1F
100
AcDbEntity
  8
0
  6
SLD-SOLID
 62
     7
100
AcDbLine
 10
204.9606981929
 20
118.3759549471
 30
0.0
 11
204.9606981929
 21
119.9770381513
 31
0.0
  0
LINE
  5
142
330
1F
100
AcDbEntity
  8
0
  6
SLD-SOLID
 62
     7
100
AcDbLine
 10
205.2241153325
 20
118.3759549471
 30
0.0
 11
204.9606981929
 21
118.3759549471
 31
0.0
  0
LINE
  5
143
330
1F
100
AcDbEntity
  8
0
  6
SLD-SOLID
 62
     7
100
AcDbLine
 10
205.2241153325
 20
120.4306098238
 30
0.0
 11
205.2241153325
 21
118.3759549471
 31
0.0
  0
LINE
  5
144
330
1F
100
AcDbEntity
  8
0
  6
SLD-SOLID
 62
     7
100
AcDbLine
 10
202.4318919759
 20
118.6130305591
 30
0.0
 11
202.4318919759
 21
118.3759549471
 31
0.0
  0
LINE
  5
145
330
1F
100
AcDbEntity
  8
0
  6
SLD-SOLID
 62
     7
100
AcDbLine
 10
201.2201723884
 20
118.6130305591
 30
0.0
 11
202.4318919759
 21
118.6130305591
 31
0.0
  0
LINE
  5
146
330
1F
100
AcDbEntity
  8
0
  6
SLD-SOLID
 62
     7
100
AcDbLine
 10
201.2201723884
 20
119.3242571621
 30
0.0
 11
201.2201723884
 21
118.6130305591
 31
0.0
  0
LINE
  5
147
330
1F
100
AcDbEntity
  8
0
  6
SLD-SOLID
 62
     7
100
AcDbLine
 10
202.3001834061
 20
119.3242571621
 30
0.0
 11
201.2201723884
 21
119.3242571621
 31
0.0
  0
LINE
  5
148
330
1F
100
AcDbEntity
  8
0
  6
SLD-SOLID
 62
     7
100
AcDbLine
 10
202.3001834061
 20
119.5613327741
 30
0.0
 11
202.3001834061
 21
119.3242571621
 31
0.0
  0
LINE
  5
149
330
1F
100
AcDbEntity
  8
0
  6
SLD-SOLID
 62
     7
100
AcDbLine
 10
201.2201723884
 20
119.5613327741
 30
0.0
 11
202.3001834061
 21
119.5613327741
 31
0.0
  0
LINE
  5
14A
330
1F
100
AcDbEntity
  8
0
  6
SLD-SOLID
 62
     7
100
AcDbLine
 10
201.2201723884
 20
120.1935342701
 30
0.0
 11
201.2201723884
 21
119.5613327741
 31
0.0
  0
LINE
  5
14B
330
1F
100
AcDbEntity
  8
0
  6
SLD-SOLID
 62
     7
100
AcDbLine
 10
202.3792084548
 20
120.1935342701
 30
0.0
 11
201.2201723884
 21
120.1935342701
 31
0.0
  0
LINE
  5
14C
330
1F
100
AcDbEntity
  8
0
  6
SLD-SOLID
 62
     7
100
AcDbLine
 10
202.3792084548
 20
120.4306098238
 30
0.0
 11
202.3792084548
 21
120.1935342701
 31
0.0
  0
LINE
  5
14D
330
1F
100
AcDbEntity
  8
0
  6
SLD-SOLID
 62
     7
100
AcDbLine
 10
200.93041343
 20
120.4306098238
 30
0.0
 11
202.3792084548
 21
120.4306098238
 31
0.0
  0
LINE
  5
14E
330
1F
100
AcDbEntity
  8
0
  6
SLD-SOLID
 62
     7
100
AcDbLine
 10
200.93041343
 20
118.3759549471
 30
0.0
 11
200.93041343
 21
120.4306098238
 31
0.0
  0
LINE
  5
14F
330
1F
100
AcDbEntity
  8
0
  6
SLD-SOLID
 62
     7
100
AcDbLine
 10
202.4318919759
 20
118.3759549471
 30
0.0
 11
200.93041343
 21
118.3759549471
 31
0.0
  0
SPLINE
  5
150
330
1F
100
AcDbEntity
  8
0
  6
SLD-SOLID
 62
     7
100
AcDbSpline
210
0.0
220
0.0
230
1.0
 70
     8
 71
     3
 72
    17
 73
    13
 74
     0
 42
0.000000001
 43
0.00000001
 40
0.0
 40
0.0
 40
0.0
 40
0.0
 40
0.1241996726524869
 40
0.2368296581100271
 40
0.3394949853062826
 40
0.4312535100312251
 40
0.5114548721194183
 40
0.5812230366234585
 40
0.6404953748643706
 40
0.6883082049320187
 40
0.8503329734146889
 40
1.0
 40
1.0
 40
1.0
 40
1.0
 10
198.9905919471434
 20
119.0205040848051
 30
0.0
 10
198.9725954919581
 20
119.0058530518527
 30
0.0
 10
198.9382790220536
 20
118.9779157871967
 30
0.0
 10
198.8894571955787
 20
118.9374143862041
 30
0.0
 10
198.8457276885754
 20
118.9002756986839
 30
0.0
 10
198.806067893408
 20
118.8677111185548
 30
0.0
 10
198.7719221937822
 20
118.8381455376711
 30
0.0
 10
198.7420878556421
 20
118.8128737993989
 30
0.0
 10
198.7176487766578
 20
118.790625250084
 30
0.0
 10
198.6804323860193
 20
118.7568292547506
 30
0.0
 10
198.6332946519622
 20
118.7086564792174
 30
0.0
 10
198.5985615533446
 20
118.6618483390232
 30
0.0
 10
198.5818835410374
 20
118.6393721773991
 30
0.0
  0
SPLINE
  5
151
330
1F
100
AcDbEntity
  8
0
  6
SLD-SOLID
 62
     7
100
AcDbSpline
210
0.0
220
0.0
230
1.0
 70
     8
 71
     3
 72
    23
 73
    19
 74
     0
 42
0.000000001
 43
0.00000001
 40
0.0
 40
0.0
 40
0.0
 40
0.0
 40
0.0579448754623256
 40
0.1160176254256826
 40
0.1748257843638405
 40
0.2346830900793709
 40
0.2968270303289144
 40
0.3640613359637881
 40
0.4361924240497391
 40
0.5142601195414407
 40
0.5569758971654885
 40
0.6048559283836539
 40
0.6576752010734876
 40
0.7157505846619324
 40
0.7788397991664557
 40
0.8475011894738631
 40
0.9212282309463236
 40
1.0
 40
1.0
 40
1.0
 40
1.0
 10
199.5606434501211
 20
119.8634394480529
 30
0.0
 10
199.5600771366221
 20
119.8431069930995
 30
0.0
 10
199.5589432598664
 20
119.8023972129169
 30
0.0
 10
199.55009320076
 20
119.741548097486
 30
0.0
 10
199.5349506508167
 20
119.6813593303191
 30
0.0
 10
199.5148756711074
 20
119.6210983781199
 30
0.0
 10
199.4874490705985
 20
119.5605260676913
 30
0.0
 10
199.452800218099
 20
119.498806802436
 30
0.0
 10
199.4098145305414
 20
119.435712596662
 30
0.0
 10
199.3684743511075
 20
119.3820755119768
 30
0.0
 10
199.3299933535646
 20
119.3371141092487
 30
0.0
 10
199.2958835859185
 20
119.3001082478502
 30
0.0
 10
199.2564205588396
 20
119.2607919947397
 30
0.0
 10
199.2130846782418
 20
119.2178037371732
 30
0.0
 10
199.1641084985191
 20
119.172669218288
 30
0.0
 10
199.1108992192478
 20
119.1240368587742
 30
0.0
 10
199.0522920641081
 20
119.0731864773768
 30
0.0
 10
199.0116072763433
 20
119.0384479377084
 30
0.0
 10
198.9905919471434
 20
119.0205040848051
 30
0.0
  0
SPLINE
  5
152
330
1F
100
AcDbEntity
  8
0
  6
SLD-SOLID
 62
     7
100
AcDbSpline
210
0.0
220
0.0
230
1.0
 70
     8
 71
     3
 72
    23
 73
    19
 74
     0
 42
0.000000001
 43
0.00000001
 40
0.0
 40
0.0
 40
0.0
 40
0.0
 40
0.0747118903045012
 40
0.1455392023749087
 40
0.2133390572509725
 40
0.2786150735384709
 40
0.3420941969414983
 40
0.4038900759591959
 40
0.4650633525655206
 40
0.5265767363834861
 40
0.5873283340287676
 40
0.6463804557031434
 40
0.7043453083753259
 40
0.7616719489990784
 40
0.8194178590468651
 40
0.8780393997816818
 40
0.9377955090070548
 40
1.0
 40
1.0
 40
1.0
 40
1.0
 10
198.9284419276852
 20
120.4306098243008
 30
0.0
 10
198.9522010317134
 20
120.4302029765892
 30
0.0
 10
198.9984839063042
 20
120.4294104348507
 30
0.0
 10
199.0659254937998
 20
120.4213011415837
 30
0.0
 10
199.129558495527
 20
120.4086709912151
 30
0.0
 10
199.1896161883306
 20
120.3910684284806
 30
0.0
 10
199.2457437430122
 20
120.3679862196544
 30
0.0
 10
199.297984334593
 20
120.3397849724858
 30
0.0
 10
199.346578833585
 20
120.3067397821447
 30
0.0
 10
199.3907153255412
 20
120.2684539625269
 30
0.0
 10
199.4305143541483
 20
120.2266585770392
 30
0.0
 10
199.4653923341874
 20
120.1820538907817
 30
0.0
 10
199.494552004438
 20
120.1348304558083
 30
0.0
 10
199.5193796532963
 20
120.0856319602726
 30
0.0
 10
199.5377952367589
 20
120.0334188719369
 30
0.0
 10
199.5507454143691
 20
119.9789010377414
 30
0.0
 10
199.5595454356613
 20
119.9220318705811
 30
0.0
 10
199.5602725794521
 20
119.8832299077727
 30
0.0
 10
199.5606434501211
 20
119.8634394480529
 30
0.0
  0
SPLINE
  5
153
330
1F
100
AcDbEntity
  8
0
  6
SLD-SOLID
 62
     7
100
AcDbSpline
210
0.0
220
0.0
230
1.0
 70
     8
 71
     3
 72
    23
 73
    19
 74
     0
 42
0.000000001
 43
0.00000001
 40
0.0
 40
0.0
 40
0.0
 40
0.0
 40
0.0706752902033302
 40
0.137492693844125
 40
0.2014728253723049
 40
0.2628693217722904
 40
0.322550086526156
 40
0.3807372513385548
 40
0.4382197368560124
 40
0.4954874370602861
 40
0.5534836796953478
 40
0.6113462062294291
 40
0.6706437388141557
 40
0.7315869484227133
 40
0.7941831937999383
 40
0.8594451119347497
 40
0.9282076353998099
 40
1.0
 40
1.0
 40
1.0
 40
1.0
 10
198.2698986751478
 20
119.8510917620679
 30
0.0
 10
198.2725938083511
 20
119.8740492234994
 30
0.0
 10
198.2778369580195
 20
119.9187109886928
 30
0.0
 10
198.2908969285428
 20
119.9833960328422
 30
0.0
 10
198.3092319452738
 20
120.0435716656678
 30
0.0
 10
198.3311713402286
 20
120.1000768619449
 30
0.0
 10
198.3586744389376
 20
120.1519497330689
 30
0.0
 10
198.3897643246537
 20
120.2002632111626
 30
0.0
 10
198.4264334105208
 20
120.2434849952777
 30
0.0
 10
198.4669430215998
 20
120.2829774980056
 30
0.0
 10
198.5117369851151
 20
120.3177807844694
 30
0.0
 10
198.5603945310754
 20
120.3481862871124
 30
0.0
 10
198.6128934019666
 20
120.3736186127831
 30
0.0
 10
198.6689411975011
 20
120.3946755181191
 30
0.0
 10
198.7286665897253
 20
120.410651922153
 30
0.0
 10
198.7919850868017
 20
120.4221085113101
 30
0.0
 10
198.8589985162186
 20
120.4291704838515
 30
0.0
 10
198.9049638433092
 20
120.4301231984885
 30
0.0
 10
198.9284419276852
 20
120.4306098243008
 30
0.0
  0
LINE
  5
154
330
1F
100
AcDbEntity
  8
0
  6
SLD-SOLID
 62
     7
100
AcDbLine
 10
198.5333159575
 20
119.8247500301
 30
0.0
 11
198.2698987014
 21
119.8510917907
 31
0.0
  0
SPLINE
  5
155
330
1F
100
AcDbEntity
  8
0
  6
SLD-SOLID
 62
     7
100
AcDbSpline
210
0.0
220
0.0
230
1.0
 70
     8
 71
     3
 72
    23
 73
    19
 74
     0
 42
0.000000001
 43
0.00000001
 40
0.0
 40
0.0
 40
0.0
 40
0.0
 40
0.0706964833433767
 40
0.1383582132030687
 40
0.2033698682591703
 40
0.26570021334023
 40
0.3272558681973768
 40
0.3865123433292944
 40
0.4458582974819499
 40
0.5051731438069392
 40
0.5637797628070206
 40
0.6223430642934398
 40
0.6808235796100197
 40
0.7397951568104401
 40
0.8008011629883836
 40
0.864239461576908
 40
0.9306310981734531
 40
0.9999999999999999
 40
0.9999999999999999
 40
0.9999999999999999
 40
0.9999999999999999
 10
198.9226796742255
 20
120.1935342533873
 30
0.0
 10
198.9083977543675
 20
120.1932062581559
 30
0.0
 10
198.8804469876644
 20
120.1925643473846
 30
0.0
 10
198.8395904519411
 20
120.1878917662661
 30
0.0
 10
198.8008042533434
 20
120.1807526938916
 30
0.0
 10
198.7641809683927
 20
120.1698376631697
 30
0.0
 10
198.729765172316
 20
120.1560874048346
 30
0.0
 10
198.6976970330497
 20
120.1387794916232
 30
0.0
 10
198.6674630062105
 20
120.1192419880855
 30
0.0
 10
198.6400152775915
 20
120.0961110577253
 30
0.0
 10
198.6151946565878
 20
120.0704635743096
 30
0.0
 10
198.593159723428
 20
120.0425412229257
 30
0.0
 10
198.575105406489
 20
120.0118051605736
 30
0.0
 10
198.5601954074003
 20
119.978931204078
 30
0.0
 10
198.5482065198653
 20
119.9438160102504
 30
0.0
 10
198.5395029952246
 20
119.9061911304894
 30
0.0
 10
198.5347577752639
 20
119.8661652012873
 30
0.0
 10
198.5338035513259
 20
119.8387554561086
 30
0.0
 10
198.5333159761628
 20
119.8247500319664
 30
0.0
  0
SPLINE
  5
156
330
1F
100
AcDbEntity
  8
0
  6
SLD-SOLID
 62
     7
100
AcDbSpline
210
0.0
220
0.0
230
1.0
 70
     8
 71
     3
 72
    23
 73
    19
 74
     0
 42
0.000000001
 43
0.00000001
 40
0.0
 40
0.0
 40
0.0
 40
0.0
 40
0.061762156768071
 40
0.1211739926536296
 40
0.1794214068253156
 40
0.2368434346502754
 40
0.2943217954133985
 40
0.3531909627945248
 40
0.412720706416325
 40
0.4745221507037176
 40
0.537056744142137
 40
0.599591337580556
 40
0.6623669793543066
 40
0.7252456446794925
 40
0.7903164461250805
 40
0.8577243009540928
 40
0.9272319523784931
 40
1.0
 40
1.0
 40
1.0
 40
1.0
 10
199.2972261491061
 20
119.8609699108559
 30
0.0
 10
199.2969401410672
 20
119.8725172054983
 30
0.0
 10
199.2963790088493
 20
119.8951723695889
 30
0.0
 10
199.2910550141336
 20
119.9283280605991
 30
0.0
 10
199.2836435865516
 20
119.9602577831911
 30
0.0
 10
199.2716615638784
 20
119.9903867326018
 30
0.0
 10
199.2573993497924
 20
120.0196071438742
 30
0.0
 10
199.2391046178027
 20
120.0469956893925
 30
0.0
 10
199.2179413737595
 20
120.0732349615446
 30
0.0
 10
199.1937112504701
 20
120.0976331544655
 30
0.0
 10
199.1672462815681
 20
120.1205225546318
 30
0.0
 10
199.1376754502724
 20
120.1395492065931
 30
0.0
 10
199.1069409606646
 20
120.1566788625317
 30
0.0
 10
199.0739824986866
 20
120.1704520884697
 30
0.0
 10
199.0388536201244
 20
120.180566013983
 30
0.0
 10
199.0018100467288
 20
120.1879061192327
 30
0.0
 10
198.9628576566031
 20
120.1925601393178
 30
0.0
 10
198.9362753884943
 20
120.1932046256716
 30
0.0
 10
198.9226796742255
 20
120.1935342533873
 30
0.0
  0
SPLINE
  5
157
330
1F
100
AcDbEntity
  8
0
  6
SLD-SOLID
 62
     7
100
AcDbSpline
210
0.0
220
0.0
230
1.0
 70
     8
 71
     3
 72
    23
 73
    19
 74
     0
 42
0.000000001
 43
0.00000001
 40
0.0
 40
0.0
 40
0.0
 40
0.0
 40
0.1114096600426607
 40
0.2145263672558013
 40
0.3094172254458341
 40
0.3960871907990314
 40
0.4742842164262461
 40
0.5443738816396977
 40
0.6064195628105363
 40
0.6605816023749734
 40
0.7097938180647575
 40
0.7564506485918284
 40
0.8007673253039324
 40
0.8431682879413349
 40
0.8842948685500487
 40
0.9238845020552847
 40
0.9623587101392161
 40
1.0
 40
1.0
 40
1.0
 40
1.0
 10
198.7448729960404
 20
119.1443925341887
 30
0.0
 10
198.7713104587848
 20
119.1666445173977
 30
0.0
 10
198.8222174702581
 20
119.2094921225357
 30
0.0
 10
198.8941061478181
 20
119.2730739974184
 30
0.0
 10
198.959764753182
 20
119.3321133696434
 30
0.0
 10
199.0181477475516
 20
119.3876450249374
 30
0.0
 10
199.0697326425646
 20
119.4391303421444
 30
0.0
 10
199.114640560458
 20
119.4864526745267
 30
0.0
 10
199.1532579028193
 20
119.5294643387077
 30
0.0
 10
199.1851132275931
 20
119.5697221746725
 30
0.0
 10
199.2119905425585
 20
119.6077367696163
 30
0.0
 10
199.2347666931242
 20
119.6448176594327
 30
0.0
 10
199.2537475926671
 20
119.6816125660577
 30
0.0
 10
199.2695561422933
 20
119.7180050603073
 30
0.0
 10
199.2820593618238
 20
119.7541507727406
 30
0.0
 10
199.2905820845465
 20
119.7901550123156
 30
0.0
 10
199.2963619002446
 20
119.8256605294618
 30
0.0
 10
199.2969401754729
 20
119.8492862945593
 30
0.0
 10
199.2972261491061
 20
119.8609699108559
 30
0.0
  0
SPLINE
  5
158
330
1F
100
AcDbEntity
  8
0
  6
SLD-SOLID
 62
     7
100
AcDbSpline
210
0.0
220
0.0
230
1.0
 70
     8
 71
     3
 72
    19
 73
    15
 74
     0
 42
0.000000001
 43
0.00000001
 40
0.0
 40
0.0
 40
0.0
 40
0.0
 40
0.1003881431397112
 40
0.2044067930373089
 40
0.3106860830942075
 40
0.4221572938827998
 40
0.4806854607703738
 40
0.5432381544526688
 40
0.6094995045645644
 40
0.6795546087742242
 40
0.7538412220511751
 40
0.8316406764893858
 40
0.9138127068095903
 40
0.9999999999999999
 40
0.9999999999999999
 40
0.9999999999999999
 40
0.9999999999999999
 10
198.2711334437463
 20
118.5587006289632
 30
0.0
 10
198.2798504730568
 20
118.5827726665331
 30
0.0
 10
198.2975997803998
 20
118.6317872996126
 30
0.0
 10
198.3335600629979
 20
118.7025085702721
 30
0.0
 10
198.3758578533067
 20
118.77280213268
 30
0.0
 10
198.4170407061016
 20
118.8300310169035
 30
0.0
 10
198.4547553062548
 20
118.8757528944927
 30
0.0
 10
198.4863839145125
 20
118.9115249722322
 30
0.0
 10
198.5214342104317
 20
118.9481419092752
 30
0.0
 10
198.5598781243108
 20
118.9855970169597
 30
0.0
 10
198.6013456565263
 20
119.0241328768457
 30
0.0
 10
198.6458933893251
 20
119.0638780045686
 30
0.0
 10
198.6940473614506
 20
119.1040917061624
 30
0.0
 10
198.7276638736928
 20
119.1307470207423
 30
0.0
 10
198.7448729960404
 20
119.1443925341887
 30
0.0
  0
SPLINE
  5
159
330
1F
100
AcDbEntity
  8
0
  6
SLD-SOLID
 62
     7
100
AcDbSpline
210
0.0
220
0.0
230
1.0
 70
     8
 71
     3
 72
    11
 73
     7
 74
     0
 42
0.000000001
 43
0.00000001
 40
0.0
 40
0.0
 40
0.0
 40
0.0
 40
0.2526433275832377
 40
0.5044398525799888
 40
0.7504068042814569
 40
1.0
 40
1.0
 40
1.0
 40
1.0
 10
198.2435569450463
 20
118.3759548763841
 30
0.0
 10
198.2435294415422
 20
118.3916105071321
 30
0.0
 10
198.2434745267194
 20
118.4228692945383
 30
0.0
 10
198.2487640170731
 20
118.4690990582023
 30
0.0
 10
198.257048417979
 20
118.5147155451836
 30
0.0
 10
198.2664155871797
 20
118.5439675841133
 30
0.0
 10
198.2711334437463
 20
118.5587006289632
 30
0.0
  0
LINE
  5
15A
330
1F
100
AcDbEntity
  8
0
  6
SLD-SOLID
 62
     7
100
AcDbLine
 10
199.5869851855
 20
118.3759549471
 30
0.0
 11
198.2435569409
 21
118.3759549471
 31
0.0
  0
LINE
  5
15B
330
1F
100
AcDbEntity
  8
0
  6
SLD-SOLID
 62
     7
100
AcDbLine
 10
199.5869851855
 20
118.6393720868
 30
0.0
 11
199.5869851855
 21
118.3759549471
 31
0.0
  0
LINE
  5
15C
330
1F
100
AcDbEntity
  8
0
  6
SLD-SOLID
 62
     7
100
AcDbLine
 10
198.5818834984
 20
118.6393720868
 30
0.0
 11
199.5869851855
 21
118.6393720868
 31
0.0
  0
SPLINE
  5
15D
330
1F
100
AcDbEntity
  8
0
  6
SLD-SOLID
 62
     7
100
AcDbSpline
210
0.0
220
0.0
230
1.0
 70
     8
 71
     3
 72
    23
 73
    19
 74
     0
 42
0.000000001
 43
0.00000001
 40
0.0
 40
0.0
 40
0.0
 40
0.0
 40
0.0642545754247026
 40
0.1273603868320975
 40
0.1894718420926418
 40
0.2517207629332008
 40
0.312027284089002
 40
0.368674657115051
 40
0.4226814918055484
 40
0.4740604252251506
 40
0.5257737722739171
 40
0.5796221048577138
 40
0.6373752855308658
 40
0.6984003818208012
 40
0.7643573310122578
 40
0.8363147679791494
 40
0.9146777942540467
 40
1.0
 40
1.0
 40
1.0
 40
1.0
 10
196.1362185369266
 20
118.9645279083394
 30
0.0
 10
196.1355087691665
 20
118.9411626354655
 30
0.0
 10
196.134101923103
 20
118.8948498215998
 30
0.0
 10
196.1228033808376
 20
118.8266851479522
 30
0.0
 10
196.1037094434716
 20
118.7611164768863
 30
0.0
 10
196.0774282625466
 20
118.6992039745744
 30
0.0
 10
196.0461131775717
 20
118.6419567510591
 30
0.0
 10
196.010522486338
 20
118.5908737252918
 30
0.0
 10
195.9715638251165
 20
118.5464805380861
 30
0.0
 10
195.9281401580524
 20
118.5091379327339
 30
0.0
 10
195.8805315864281
 20
118.4774449886898
 30
0.0
 10
195.8273934427399
 20
118.4507574571596
 30
0.0
 10
195.7691365815043
 20
118.4272216118903
 30
0.0
 10
195.7045769645089
 20
118.4084203098706
 30
0.0
 10
195.6337439791419
 20
118.3934845800529
 30
0.0
 10
195.5556763568669
 20
118.3837808120703
 30
0.0
 10
195.4702541585388
 20
118.3768342150509
 30
0.0
 10
195.4107394712147
 20
118.3762561810974
 30
0.0
 10
195.3797169755743
 20
118.3759548763841
 30
0.0
  0
SPLINE
  5
15E
330
1F
100
AcDbEntity
  8
0
  6
SLD-SOLID
 62
     7
100
AcDbSpline
210
0.0
220
0.0
230
1.0
 70
     8
 71
     3
 72
    23
 73
    19
 74
     0
 42
0.000000001
 43
0.00000001
 40
0.0
 40
0.0
 40
0.0
 40
0.0
 40
0.0704642259291737
 40
0.1379569656042678
 40
0.2035785636142838
 40
0.2676916802449432
 40
0.3301858648593747
 40
0.3915337640898193
 40
0.4526637734870349
 40
0.5131537880892134
 40
0.5734535531000284
 40
0.6329675593891929
 40
0.6923319074206209
 40
0.7514741915716302
 40
0.8121874455294297
 40
0.8729617178483159
 40
0.935420306759491
 40
1.0
 40
1.0
 40
1.0
 40
1.0
 10
195.7489127865281
 20
119.4559658105454
 30
0.0
 10
195.7640709712265
 20
119.4512206486828
 30
0.0
 10
195.7937481178565
 20
119.4419304290963
 30
0.0
 10
195.8364120991356
 20
119.4249306302953
 30
0.0
 10
195.8764605477297
 20
119.405573926435
 30
0.0
 10
195.9139806380557
 20
119.383828508977
 30
0.0
 10
195.9487188516085
 20
119.3594930046443
 30
0.0
 10
195.9805771700782
 20
119.332529475718
 30
0.0
 10
196.0097764852799
 20
119.3033551757821
 30
0.0
 10
196.0362646297741
 20
119.2719878512111
 30
0.0
 10
196.05953168574
 20
119.2386293574326
 30
0.0
 10
196.080399328306
 20
119.2040087793764
 30
0.0
 10
196.0976309197928
 20
119.1677092089903
 30
0.0
 10
196.1117550278337
 20
119.1298248890422
 30
0.0
 10
196.1227739318884
 20
119.0905899115737
 30
0.0
 10
196.1306867044308
 20
119.049853371846
 30
0.0
 10
196.1351967827595
 20
119.0077100921344
 30
0.0
 10
196.135874182121
 20
118.9790813038506
 30
0.0
 10
196.1362185369266
 20
118.9645279083394
 30
0.0
  0
SPLINE
  5
15F
330
1F
100
AcDbEntity
  8
0
  6
SLD-SOLID
 62
     7
100
AcDbSpline
210
0.0
220
0.0
230
1.0
 70
     8
 71
     3
 72
    15
 73
    11
 74
     0
 42
0.000000001
 43
0.00000001
 40
0.0
 40
0.0
 40
0.0
 40
0.0
 40
0.1158426906010182
 40
0.2305685484828842
 40
0.3473546045205446
 40
0.4682527467344629
 40
0.5923025714800847
 40
0.7199701656206978
 40
0.8556003811349115
 40
1.0
 40
1.0
 40
1.0
 40
1.0
 10
196.0571933466221
 20
119.8980129688112
 30
0.0
 10
196.0562346499237
 20
119.8759795891587
 30
0.0
 10
196.0543264992666
 20
119.8321252524
 30
0.0
 10
196.0391397549079
 20
119.7675251470312
 30
0.0
 10
196.015170426075
 20
119.7047988469501
 30
0.0
 10
195.9812771165203
 20
119.644708915095
 30
0.0
 10
195.9379572185049
 20
119.5883546831024
 30
0.0
 10
195.8842529155342
 20
119.537642857678
 30
0.0
 10
195.8209359335568
 20
119.4924647575855
 30
0.0
 10
195.7734165406877
 20
119.4683835021106
 30
0.0
 10
195.7489127865281
 20
119.4559658105454
 30
0.0
  0
SPLINE
  5
160
330
1F
100
AcDbEntity
  8
0
  6
SLD-SOLID
 62
     7
100
AcDbSpline
210
0.0
220
0.0
230
1.0
 70
     8
 71
     3
 72
    23
 73
    19
 74
     0
 42
0.000000001
 43
0.00000001
 40
0.0
 40
0.0
 40
0.0
 40
0.0
 40
0.0587320371008649
 40
0.1146029008469814
 40
0.1676568100446127
 40
0.2179667070908439
 40
0.2657752056293755
 40
0.3111706510536967
 40
0.3537918046646701
 40
0.3947449080003073
 40
0.472805951082463
 40
0.5491923665616076
 40
0.6247801075795552
 40
0.7026247640242257
 40
0.7797414321940389
 40
0.8540634639886253
 40
0.9271552664103497
 40
0.9999999999999999
 40
0.9999999999999999
 40
0.9999999999999999
 40
0.9999999999999999
 10
195.3776590279101
 20
120.4306098243008
 30
0.0
 10
195.3967354243795
 20
120.4305366426429
 30
0.0
 10
195.433958896968
 20
120.4303938444242
 30
0.0
 10
195.4883128640852
 20
120.426822608832
 30
0.0
 10
195.5397901297122
 20
120.4219378991632
 30
0.0
 10
195.5885015124543
 20
120.4156413586021
 30
0.0
 10
195.6342362386799
 20
120.4065052061088
 30
0.0
 10
195.6769516888255
 20
120.3954373680885
 30
0.0
 10
195.7168701531471
 20
120.3826709745067
 30
0.0
 10
195.765664392768
 20
120.3632236219739
 30
0.0
 10
195.8218944043863
 20
120.3332900126572
 30
0.0
 10
195.8821220886532
 20
120.2886243441404
 30
0.0
 10
195.9345225139629
 20
120.234996898299
 30
0.0
 10
195.9776403579566
 20
120.1735099949629
 30
0.0
 10
196.0131648110861
 20
120.1078303859833
 30
0.0
 10
196.0383512324742
 20
120.0392093302738
 30
0.0
 10
196.0544542758274
 20
119.9691408754315
 30
0.0
 10
196.0562813540979
 20
119.9216954961957
 30
0.0
 10
196.0571933466221
 20
119.8980129688112
 30
0.0
  0
LINE
  5
161
330
1F
100
AcDbEntity
  8
0
  6
SLD-SOLID
 62
     7
100
AcDbLine
 10
194.6083981785
 20
120.4306098238
 30
0.0
 11
195.3776589836
 21
120.4306098238
 31
0.0
  0
LINE
  5
162
330
1F
100
AcDbEntity
  8
0
  6
SLD-SOLID
 62
     7
100
AcDbLine
 10
194.6083981785
 20
118.3759549471
 30
0.0
 11
194.6083981785
 21
120.4306098238
 31
0.0
  0
LINE
  5
163
330
1F
100
AcDbEntity
  8
0
  6
SLD-SOLID
 62
     7
100
AcDbLine
 10
195.3797172065
 20
118.3759549471
 30
0.0
 11
194.6083981785
 21
118.3759549471
 31
0.0
  0
SPLINE
  5
164
330
1F
100
AcDbEntity
  8
0
  6
SLD-SOLID
 62
     7
100
AcDbSpline
210
0.0
220
0.0
230
1.0
 70
     8
 71
     3
 72
    23
 73
    19
 74
     0
 42
0.000000001
 43
0.00000001
 40
0.0
 40
0.0
 40
0.0
 40
0.0
 40
0.0642545754247028
 40
0.1273603868320974
 40
0.1894718420926419
 40
0.2517207629332009
 40
0.3120272840890018
 40
0.3686746571150508
 40
0.4226814918055488
 40
0.4740604252251504
 40
0.525773772273917
 40
0.5796221048577136
 40
0.6373752855308656
 40
0.698400381820801
 40
0.7643573310122576
 40
0.8363147679791493
 40
0.9146777942540475
 40
1.0
 40
1.0
 40
1.0
 40
1.0
 10
205.7114374288203
 20
122.1255355205189
 30
0.0
 10
205.7107276610602
 20
122.102170247645
 30
0.0
 10
205.7093208149967
 20
122.0558574337793
 30
0.0
 10
205.6980222727312
 20
121.9876927601317
 30
0.0
 10
205.6789283353653
 20
121.9221240890658
 30
0.0
 10
205.6526471544403
 20
121.8602115867539
 30
0.0
 10
205.6213320694654
 20
121.8029643632385
 30
0.0
 10
205.5857413782317
 20
121.7518813374713
 30
0.0
 10
205.5467827170102
 20
121.7074881502656
 30
0.0
 10
205.5033590499461
 20
121.6701455449134
 30
0.0
 10
205.4557504783218
 20
121.6384526008692
 30
0.0
 10
205.4026123346336
 20
121.6117650693391
 30
0.0
 10
205.344355473398
 20
121.5882292240698
 30
0.0
 10
205.2797958564026
 20
121.56942792205
 30
0.0
 10
205.2089628710356
 20
121.5544921922324
 30
0.0
 10
205.1308952487606
 20
121.5447884242498
 30
0.0
 10
205.0454730504325
 20
121.5378418272304
 30
0.0
 10
204.9859583631084
 20
121.5372637932769
 30
0.0
 10
204.954935867468
 20
121.5369624885636
 30
0.0
  0
SPLINE
  5
165
330
1F
100
AcDbEntity
  8
0
  6
SLD-SOLID
 62
     7
100
AcDbSpline
210
0.0
220
0.0
230
1.0
 70
     8
 71
     3
 72
    23
 73
    19
 74
     0
 42
0.000000001
 43
0.00000001
 40
0.0
 40
0.0
 40
0.0
 40
0.0
 40
0.0704642259291749
 40
0.137956965604269
 40
0.2035785636142838
 40
0.2676916802449431
 40
0.3301858648593746
 40
0.3915337640898202
 40
0.4526637734870348
 40
0.5131537880892133
 40
0.5734535531000283
 40
0.6329675593891928
 40
0.6923319074206212
 40
0.75147419157163
 40
0.8121874455294295
 40
0.872961717848316
 40
0.935420306759491
 40
1.0
 40
1.0
 40
1.0
 40
1.0
 10
205.3241316784218
 20
122.6169734227249
 30
0.0
 10
205.3392898631202
 20
122.6122282608623
 30
0.0
 10
205.3689670097502
 20
122.6029380412758
 30
0.0
 10
205.4116309910293
 20
122.5859382424748
 30
0.0
 10
205.4516794396234
 20
122.5665815386145
 30
0.0
 10
205.4891995299494
 20
122.5448361211565
 30
0.0
 10
205.5239377435022
 20
122.5205006168238
 30
0.0
 10
205.5557960619719
 20
122.4935370878975
 30
0.0
 10
205.5849953771736
 20
122.4643627879616
 30
0.0
 10
205.6114835216677
 20
122.4329954633905
 30
0.0
 10
205.6347505776336
 20
122.3996369696121
 30
0.0
 10
205.6556182201997
 20
122.3650163915559
 30
0.0
 10
205.6728498116865
 20
122.3287168211698
 30
0.0
 10
205.6869739197274
 20
122.2908325012217
 30
0.0
 10
205.6979928237821
 20
122.2515975237531
 30
0.0
 10
205.7059055963245
 20
122.2108609840254
 30
0.0
 10
205.7104156746532
 20
122.1687177043139
 30
0.0
 10
205.7110930740147
 20
122.1400889160301
 30
0.0
 10
205.7114374288203
 20
122.1255355205189
 30
0.0
  0
SPLINE
  5
166
330
1F
100
AcDbEntity
  8
0
  6
SLD-SOLID
 62
     7
100
AcDbSpline
210
0.0
220
0.0
230
1.0
 70
     8
 71
     3
 72
    15
 73
    11
 74
     0
 42
0.000000001
 43
0.00000001
 40
0.0
 40
0.0
 40
0.0
 40
0.0
 40
0.1158426906010177
 40
0.2305685484828844
 40
0.3473546045205441
 40
0.4682527467344622
 40
0.5923025714800838
 40
0.7199701656206967
 40
0.8556003811349103
 40
1.0
 40
1.0
 40
1.0
 40
1.0
 10
205.6324122385158
 20
123.0590205809906
 30
0.0
 10
205.6314535418174
 20
123.0369872013382
 30
0.0
 10
205.6295453911603
 20
122.9931328645795
 30
0.0
 10
205.6143586468016
 20
122.9285327592107
 30
0.0
 10
205.5903893179687
 20
122.8658064591296
 30
0.0
 10
205.556496008414
 20
122.8057165272745
 30
0.0
 10
205.5131761103985
 20
122.7493622952819
 30
0.0
 10
205.4594718074279
 20
122.6986504698574
 30
0.0
 10
205.3961548254505
 20
122.653472369765
 30
0.0
 10
205.3486354325814
 20
122.6293911142901
 30
0.0
 10
205.3241316784218
 20
122.6169734227249
 30
0.0
  0
SPLINE
  5
167
330
1F
100
AcDbEntity
  8
0
  6
SLD-SOLID
 62
     7
100
AcDbSpline
210
0.0
220
0.0
230
1.0
 70
     8
 71
     3
 72
    23
 73
    19
 74
     0
 42
0.000000001
 43
0.00000001
 40
0.0
 40
0.0
 40
0.0
 40
0.0
 40
0.0587320371008649
 40
0.1146029008469815
 40
0.1676568100446119
 40
0.2179667070908431
 40
0.2657752056293755
 40
0.3111706510536958
 40
0.3537918046646693
 40
0.3947449080003065
 40
0.472805951082463
 40
0.549192366561607
 40
0.6247801075795548
 40
0.7026247640242256
 40
0.7797414321940388
 40
0.8540634639886252
 40
0.92715526641035
 40
0.9999999999999999
 40
0.9999999999999999
 40
0.9999999999999999
 40
0.9999999999999999
 10
204.9528779198038
 20
123.5916174364803
 30
0.0
 10
204.9719543162732
 20
123.5915442548224
 30
0.0
 10
205.0091777888616
 20
123.5914014566037
 30
0.0
 10
205.0635317559789
 20
123.5878302210115
 30
0.0
 10
205.1150090216059
 20
123.5829455113427
 30
0.0
 10
205.163720404348
 20
123.5766489707815
 30
0.0
 10
205.2094551305736
 20
123.5675128182883
 30
0.0
 10
205.2521705807192
 20
123.556444980268
 30
0.0
 10
205.2920890450408
 20
123.5436785866862
 30
0.0
 10
205.3408832846617
 20
123.5242312341534
 30
0.0
 10
205.39711329628
 20
123.4942976248367
 30
0.0
 10
205.4573409805469
 20
123.4496319563199
 30
0.0
 10
205.5097414058566
 20
123.3960045104785
 30
0.0
 10
205.5528592498503
 20
123.3345176071424
 30
0.0
 10
205.5883837029798
 20
123.2688379981628
 30
0.0
 10
205.6135701243679
 20
123.2002169424532
 30
0.0
 10
205.6296731677211
 20
123.130148487611
 30
0.0
 10
205.6315002459916
 20
123.0827031083752
 30
0.0
 10
205.6324122385158
 20
123.0590205809906
 30
0.0
  0
LINE
  5
168
330
1F
100
AcDbEntity
  8
0
  6
SLD-SOLID
 62
     7
100
AcDbLine
 10
204.1836170721
 20
123.5916174787
 30
0.0
 11
204.9528778772
 21
123.5916174787
 31
0.0
  0
LINE
  5
169
330
1F
100
AcDbEntity
  8
0
  6
SLD-SOLID
 62
     7
100
AcDbLine
 10
204.1836170721
 20
121.5369624856
 30
0.0
 11
204.1836170721
 21
123.5916174787
 31
0.0
  0
LINE
  5
16A
330
1F
100
AcDbEntity
  8
0
  6
SLD-SOLID
 62
     7
100
AcDbLine
 10
204.9549361001
 20
121.5369624856
 30
0.0
 11
204.1836170721
 21
121.5369624856
 31
0.0
  0
LINE
  5
16B
330
1F
100
AcDbEntity
  8
0
  6
SLD-SOLID
 62
     7
100
AcDbLine
 10
201.9709117487
 20
121.7740380393
 30
0.0
 11
201.9709117487
 21
121.5369624856
 31
0.0
  0
LINE
  5
16C
330
1F
100
AcDbEntity
  8
0
  6
SLD-SOLID
 62
     7
100
AcDbLine
 10
200.996267715
 20
121.7740380393
 30
0.0
 11
201.9709117487
 21
121.7740380393
 31
0.0
  0
LINE
  5
16D
330
1F
100
AcDbEntity
  8
0
  6
SLD-SOLID
 62
     7
100
AcDbLine
 10
200.996267715
 20
123.5916174787
 30
0.0
 11
200.996267715
 21
121.7740380393
 31
0.0
  0
LINE
  5
16E
330
1F
100
AcDbEntity
  8
0
  6
SLD-SOLID
 62
     7
100
AcDbLine
 10
200.7065086984
 20
123.5916174787
 30
0.0
 11
200.996267715
 21
123.5916174787
 31
0.0
  0
LINE
  5
16F
330
1F
100
AcDbEntity
  8
0
  6
SLD-SOLID
 62
     7
100
AcDbLine
 10
200.7065086984
 20
121.5369624856
 30
0.0
 11
200.7065086984
 21
123.5916174787
 31
0.0
  0
LINE
  5
170
330
1F
100
AcDbEntity
  8
0
  6
SLD-SOLID
 62
     7
100
AcDbLine
 10
201.9709117487
 20
121.5369624856
 30
0.0
 11
200.7065086984
 21
121.5369624856
 31
0.0
  0
SPLINE
  5
171
330
1F
100
AcDbEntity
  8
0
  6
SLD-SOLID
 62
     7
100
AcDbSpline
210
0.0
220
0.0
230
1.0
 70
     8
 71
     3
 72
    31
 73
    27
 74
     0
 42
0.000000001
 43
0.00000001
 40
0.0
 40
0.0
 40
0.0
 40
0.0
 40
0.0475595569054264
 40
0.0939621052432108
 40
0.1391115332408221
 40
0.1836263101269046
 40
0.2274570284004936
 40
0.2707025105518545
 40
0.3136105321155538
 40
0.3562604510849769
 40
0.3983661529550377
 40
0.4395565149792806
 40
0.4800453830214204
 40
0.5198884957050127
 40
0.5596577503171976
 40
0.5994212546627414
 40
0.6392077550883982
 40
0.6796683749857806
 40
0.7200198525128486
 40
0.7598588655624579
 40
0.7995598848323808
 40
0.8391991446364383
 40
0.8789560762302792
 40
0.918794269302466
 40
0.9590833628432752
 40
1.0
 40
1.0
 40
1.0
 40
1.0
 10
198.2830695401985
 20
122.5609972462592
 30
0.0
 10
198.2826414386469
 20
122.5354693835392
 30
0.0
 10
198.2817956502153
 20
122.4850346890295
 30
0.0
 10
198.2760726995997
 20
122.4105272142555
 30
0.0
 10
198.2660097632153
 20
122.3381586945561
 30
0.0
 10
198.2526629914038
 20
122.2677133400947
 30
0.0
 10
198.2347787246471
 20
122.1993378034454
 30
0.0
 10
198.2135260219122
 20
122.1328360477552
 30
0.0
 10
198.1878196772511
 20
122.0686041707592
 30
0.0
 10
198.1587872149998
 20
122.0064873603364
 30
0.0
 10
198.1259369962732
 20
121.9473399381961
 30
0.0
 10
198.0897009759861
 20
121.89157549102
 30
0.0
 10
198.0500534832469
 20
121.8397156511468
 30
0.0
 10
198.0075967588703
 20
121.7911242307134
 30
0.0
 10
197.961339325887
 20
121.7466701352024
 30
0.0
 10
197.9118507813496
 20
121.7059376862004
 30
0.0
 10
197.8593214084354
 20
121.6685427304254
 30
0.0
 10
197.8035747351621
 20
121.6354980402222
 30
0.0
 10
197.7456112116177
 20
121.6065331889191
 30
0.0
 10
197.6865778445545
 20
121.5808361474524
 30
0.0
 10
197.626430782669
 20
121.5589206878875
 30
0.0
 10
197.5649644617218
 20
121.5411603861712
 30
0.0
 10
197.5023465558017
 20
121.5277394238516
 30
0.0
 10
197.4387532791402
 20
121.517689665708
 30
0.0
 10
197.3739761641653
 20
121.5119029804586
 30
0.0
 10
197.3303880195245
 20
121.5110503620892
 30
0.0
 10
197.3084255264432
 20
121.5106207584621
 30
0.0
  0
SPLINE
  5
172
330
1F
100
AcDbEntity
  8
0
  6
SLD-SOLID
 62
     7
100
AcDbSpline
210
0.0
220
0.0
230
1.0
 70
     8
 71
     3
 72
    31
 73
    27
 74
     0
 42
0.000000001
 43
0.00000001
 40
0.0
 40
0.0
 40
0.0
 40
0.0
 40
0.0430989705688968
 40
0.0855867603450731
 40
0.1269076657436391
 40
0.1679674856215208
 40
0.208449558601066
 40
0.2490254246415441
 40
0.289280534171679
 40
0.3300098489827308
 40
0.370597724099577
 40
0.4104659863326995
 40
0.4500332158929483
 40
0.4896882096042475
 40
0.5291164230741915
 40
0.5690368070925096
 40
0.6097030542359448
 40
0.6507589174942197
 40
0.6925092624061777
 40
0.7342191213706863
 40
0.7767069111468624
 40
0.8195518402403216
 40
0.8633507288313336
 40
0.9078385251300618
 40
0.9533337036124183
 40
1.0
 40
1.0
 40
1.0
 40
1.0
 10
197.3096602950417
 20
123.6179591665818
 30
0.0
 10
197.3328580200518
 20
123.6175540906315
 30
0.0
 10
197.3789245062066
 20
123.6167496830595
 30
0.0
 10
197.447029694527
 20
123.6106292157068
 30
0.0
 10
197.5133848190318
 20
123.5997052417923
 30
0.0
 10
197.5779245365565
 20
123.5850658917412
 30
0.0
 10
197.6408245246054
 20
123.5658597011057
 30
0.0
 10
197.7021223458708
 20
123.5431873774839
 30
0.0
 10
197.7612814064204
 20
123.5150931760704
 30
0.0
 10
197.8186952757134
 20
123.4836389219206
 30
0.0
 10
197.8736862255467
 20
123.4484559785923
 30
0.0
 10
197.9253665825064
 20
123.4095894524926
 30
0.0
 10
197.9736125558057
 20
123.3673332894379
 30
0.0
 10
198.0190722197296
 20
123.3223820655752
 30
0.0
 10
198.0602286492841
 20
123.2732187398369
 30
0.0
 10
198.09878212122
 20
123.2213409113541
 30
0.0
 10
198.1336247788817
 20
123.1658287021616
 30
0.0
 10
198.1648802516835
 20
123.1071369408295
 30
0.0
 10
198.1928258205337
 20
123.0461721108749
 30
0.0
 10
198.21671070556
 20
122.9826815379127
 30
0.0
 10
198.2372202205066
 20
122.9174268357916
 30
0.0
 10
198.2543884148288
 20
122.8500217663849
 30
0.0
 10
198.2667070574645
 20
122.7804893733723
 30
0.0
 10
198.2765165257822
 20
122.7091292649655
 30
0.0
 10
198.2816795199745
 20
122.6357082123274
 30
0.0
 10
198.2826022914977
 20
122.5861109829011
 30
0.0
 10
198.2830695401985
 20
122.5609972462592
 30
0.0
  0
SPLINE
  5
173
330
1F
100
AcDbEntity
  8
0
  6
SLD-SOLID
 62
     7
100
AcDbSpline
210
0.0
220
0.0
230
1.0
 70
     8
 71
     3
 72
    23
 73
    19
 74
     0
 42
0.000000001
 43
0.00000001
 40
0.0
 40
0.0
 40
0.0
 40
0.0
 40
0.0752263466908988
 40
0.1465747215268522
 40
0.2145002518264754
 40
0.2795299716530227
 40
0.3424029515883814
 40
0.4034960527288082
 40
0.4637616065030392
 40
0.5238643590795866
 40
0.5832517242549664
 40
0.6413020392831351
 40
0.6988977748564887
 40
0.7562952438113087
 40
0.814627804812969
 40
0.874324768339998
 40
0.9357832838625453
 40
1.0
 40
1.0
 40
1.0
 40
1.0
 10
196.3337815126878
 20
122.5371250533548
 30
0.0
 10
196.3344956316818
 20
122.5783191141204
 30
0.0
 10
196.335887056326
 20
122.6585836524223
 30
0.0
 10
196.3488878866603
 20
122.7754591625342
 30
0.0
 10
196.3699978981077
 20
122.8854237293719
 30
0.0
 10
196.4001765274048
 20
122.9884687859159
 30
0.0
 10
196.4384280267657
 20
123.0847558044673
 30
0.0
 10
196.4849300314057
 20
123.1745028122519
 30
0.0
 10
196.5410812908798
 20
123.2566939377536
 30
0.0
 10
196.6046026741583
 20
123.3321115870886
 30
0.0
 10
196.6755531416732
 20
123.3987863169222
 30
0.0
 10
196.7510952235777
 20
123.4580030295917
 30
0.0
 10
196.8321722035041
 20
123.507396768856
 30
0.0
 10
196.918034992377
 20
123.5481797136883
 30
0.0
 10
197.0090483841421
 20
123.5794916777757
 30
0.0
 10
197.1049568408526
 20
123.6014129018005
 30
0.0
 10
197.2056577890489
 20
123.6155542215568
 30
0.0
 10
197.2744892439129
 20
123.6171458742132
 30
0.0
 10
197.3096602950417
 20
123.6179591665818
 30
0.0
  0
SPLINE
  5
174
330
1F
100
AcDbEntity
  8
0
  6
SLD-SOLID
 62
     7
100
AcDbSpline
210
0.0
220
0.0
230
1.0
 70
     8
 71
     3
 72
    31
 73
    27
 74
     0
 42
0.000000001
 43
0.00000001
 40
0.0
 40
0.0
 40
0.0
 40
0.0
 40
0.0446969998899171
 40
0.0885335629185875
 40
0.1314091332352275
 40
0.1738139421467784
 40
0.2157145332694449
 40
0.2572471603264208
 40
0.2988479641797117
 40
0.3406041827148143
 40
0.3820294481091344
 40
0.4229697500404858
 40
0.4636322295306197
 40
0.5040475437003945
 40
0.5445912057564576
 40
0.5849639251690937
 40
0.6262652162680831
 40
0.6679794005009905
 40
0.7099427472053506
 40
0.7513818550852256
 40
0.7926185649779642
 40
0.8339484357458206
 40
0.8750080506311037
 40
0.9164455302232757
 40
0.957906613728307
 40
1.0
 40
1.0
 40
1.0
 40
1.0
 10
197.3084255264432
 20
121.5106207584621
 30
0.0
 10
197.2848109684456
 20
121.5109701387736
 30
0.0
 10
197.2380364430542
 20
121.5116621736724
 30
0.0
 10
197.1689024347806
 20
121.5185698616023
 30
0.0
 10
197.1014883719755
 20
121.5291077801651
 30
0.0
 10
197.0359902393183
 20
121.5443213509268
 30
0.0
 10
196.9724975374085
 20
121.5641685288829
 30
0.0
 10
196.9109351398487
 20
121.5881909250918
 30
0.0
 10
196.851086525189
 20
121.6160674876778
 30
0.0
 10
196.7936943156927
 20
121.6485964139101
 30
0.0
 10
196.7389538510045
 20
121.6847650832876
 30
0.0
 10
196.6873956954743
 20
121.7243937029465
 30
0.0
 10
196.639048358872
 20
121.7671170599853
 30
0.0
 10
196.5946876180321
 20
121.8136413205195
 30
0.0
 10
196.5528767682212
 20
121.8622799620552
 30
0.0
 10
196.5152875950536
 20
121.9148408527467
 30
0.0
 10
196.480692494792
 20
121.9701319666145
 30
0.0
 10
196.4501151931538
 20
122.0286862860495
 30
0.0
 10
196.4224931770758
 20
122.0887637986866
 30
0.0
 10
196.3992210318899
 20
122.1503837217025
 30
0.0
 10
196.3787693265653
 20
122.2126379412243
 30
0.0
 10
196.3624816135053
 20
122.2759101662298
 30
0.0
 10
196.349502288252
 20
122.3400544421084
 30
0.0
 10
196.3407746325658
 20
122.4049640350253
 30
0.0
 10
196.3344714532675
 20
122.4707356167751
 30
0.0
 10
196.3340126502196
 20
122.5148838764163
 30
0.0
 10
196.3337815126878
 20
122.5371250533548
 30
0.0
  0
LINE
  5
175
330
1F
100
AcDbEntity
  8
0
  6
SLD-SOLID
 62
     7
100
AcDbLine
 10
193.409849355
 20
123.3545418668
 30
0.0
 11
193.409849355
 21
121.5369624856
 31
0.0
  0
LINE
  5
176
330
1F
100
AcDbEntity
  8
0
  6
SLD-SOLID
 62
     7
100
AcDbLine
 10
194.0683926697
 20
123.3545418668
 30
0.0
 11
193.409849355
 21
123.3545418668
 31
0.0
  0
LINE
  5
177
330
1F
100
AcDbEntity
  8
0
  6
SLD-SOLID
 62
     7
100
AcDbLine
 10
194.0683926697
 20
123.5916174787
 30
0.0
 11
194.0683926697
 21
123.3545418668
 31
0.0
  0
LINE
  5
178
330
1F
100
AcDbEntity
  8
0
  6
SLD-SOLID
 62
     7
100
AcDbLine
 10
192.4615473728
 20
123.5916174787
 30
0.0
 11
194.0683926697
 21
123.5916174787
 31
0.0
  0
LINE
  5
179
330
1F
100
AcDbEntity
  8
0
  6
SLD-SOLID
 62
     7
100
AcDbLine
 10
192.4615473728
 20
123.3545418668
 30
0.0
 11
192.4615473728
 21
123.5916174787
 31
0.0
  0
LINE
  5
17A
330
1F
100
AcDbEntity
  8
0
  6
SLD-SOLID
 62
     7
100
AcDbLine
 10
193.1200902219
 20
123.3545418668
 30
0.0
 11
192.4615473728
 21
123.3545418668
 31
0.0
  0
LINE
  5
17B
330
1F
100
AcDbEntity
  8
0
  6
SLD-SOLID
 62
     7
100
AcDbLine
 10
193.1200902219
 20
121.5369624856
 30
0.0
 11
193.1200902219
 21
123.3545418668
 31
0.0
  0
LINE
  5
17C
330
1F
100
AcDbEntity
  8
0
  6
SLD-SOLID
 62
     7
100
AcDbLine
 10
193.409849355
 20
121.5369624856
 30
0.0
 11
193.1200902219
 21
121.5369624856
 31
0.0
  0
CIRCLE
  5
17D
330
1F
100
AcDbEntity
  8
0
  6
SLD-SOLID
 62
     7
100
AcDbCircle
 10
200.061136322
 20
120.9869624886
 30
0.0
 40
25.15000000000001
  0
LINE
  5
17E
330
1F
100
AcDbEntity
  8
0
  6
SLD-SOLID
 62
     7
100
AcDbLine
 10
194.6742524635
 20
122.5116064611
 30
0.0
 11
194.6742524635
 21
121.5369624856
 31
0.0
  0
LINE
  5
17F
330
1F
100
AcDbEntity
  8
0
  6
SLD-SOLID
 62
     7
100
AcDbLine
 10
195.6752384323
 20
122.5116064611
 30
0.0
 11
194.6742524635
 21
122.5116064611
 31
0.0
  0
LINE
  5
180
330
1F
100
AcDbEntity
  8
0
  6
SLD-SOLID
 62
     7
100
AcDbLine
 10
195.6752384323
 20
121.5369624856
 30
0.0
 11
195.6752384323
 21
122.5116064611
 31
0.0
  0
LINE
  5
181
330
1F
100
AcDbEntity
  8
0
  6
SLD-SOLID
 62
     7
100
AcDbLine
 10
195.9649970997
 20
121.5369624856
 30
0.0
 11
195.6752384323
 21
121.5369624856
 31
0.0
  0
LINE
  5
182
330
1F
100
AcDbEntity
  8
0
  6
SLD-SOLID
 62
     7
100
AcDbLine
 10
195.9649970997
 20
123.5916174787
 30
0.0
 11
195.9649970997
 21
121.5369624856
 31
0.0
  0
LINE
  5
183
330
1F
100
AcDbEntity
  8
0
  6
SLD-SOLID
 62
     7
100
AcDbLine
 10
195.6752384323
 20
123.5916174787
 30
0.0
 11
195.9649970997
 21
123.5916174787
 31
0.0
  0
LINE
  5
184
330
1F
100
AcDbEntity
  8
0
  6
SLD-SOLID
 62
     7
100
AcDbLine
 10
195.6752384323
 20
122.748682073
 30
0.0
 11
195.6752384323
 21
123.5916174787
 31
0.0
  0
LINE
  5
185
330
1F
100
AcDbEntity
  8
0
  6
SLD-SOLID
 62
     7
100
AcDbLine
 10
194.6742524635
 20
122.748682073
 30
0.0
 11
195.6752384323
 21
122.748682073
 31
0.0
  0
LINE
  5
186
330
1F
100
AcDbEntity
  8
0
  6
SLD-SOLID
 62
     7
100
AcDbLine
 10
194.6742524635
 20
123.5916174787
 30
0.0
 11
194.6742524635
 21
122.748682073
 31
0.0
  0
LINE
  5
187
330
1F
100
AcDbEntity
  8
0
  6
SLD-SOLID
 62
     7
100
AcDbLine
 10
194.3844933304
 20
123.5916174787
 30
0.0
 11
194.6742524635
 21
123.5916174787
 31
0.0
  0
LINE
  5
188
330
1F
100
AcDbEntity
  8
0
  6
SLD-SOLID
 62
     7
100
AcDbLine
 10
194.3844933304
 20
121.5369624856
 30
0.0
 11
194.3844933304
 21
123.5916174787
 31
0.0
  0
LINE
  5
189
330
1F
100
AcDbEntity
  8
0
  6
SLD-SOLID
 62
     7
100
AcDbLine
 10
194.6742524635
 20
121.5369624856
 30
0.0
 11
194.3844933304
 21
121.5369624856
 31
0.0
  0
LINE
  5
18A
330
1F
100
AcDbEntity
  8
0
  6
SLD-SOLID
 62
     7
100
AcDbLine
 10
198.94161278
 20
122.4589230564
 30
0.0
 11
198.94161278
 21
121.5369624856
 31
0.0
  0
LINE
  5
18B
330
1F
100
AcDbEntity
  8
0
  6
SLD-SOLID
 62
     7
100
AcDbLine
 10
199.2383688231
 20
122.4589230564
 30
0.0
 11
198.94161278
 21
122.4589230564
 31
0.0
  0
SPLINE
  5
18C
330
1F
100
AcDbEntity
  8
0
  6
SLD-SOLID
 62
     7
100
AcDbSpline
210
0.0
220
0.0
230
1.0
 70
     8
 71
     3
 72
    11
 73
     7
 74
     0
 42
0.000000001
 43
0.00000001
 40
0.0
 40
0.0
 40
0.0
 40
0.0
 40
0.1774946570818496
 40
0.4052256231013751
 40
0.6783881083348569
 40
0.9999999999999999
 40
0.9999999999999999
 40
0.9999999999999999
 40
0.9999999999999999
 10
199.3811904138046
 20
122.4494564828607
 30
0.0
 10
199.3728388331528
 20
122.4509625566899
 30
0.0
 10
199.3537719241587
 20
122.4544009683915
 30
0.0
 10
199.3213963602656
 20
122.4566466005557
 30
0.0
 10
199.2821693927204
 20
122.4590300386619
 30
0.0
 10
199.2537409408434
 20
122.4589605932696
 30
0.0
 10
199.2383688459106
 20
122.4589230421159
 30
0.0
  0
SPLINE
  5
18D
330
1F
100
AcDbEntity
  8
0
  6
SLD-SOLID
 62
     7
100
AcDbSpline
210
0.0
220
0.0
230
1.0
 70
     8
 71
     3
 72
    21
 73
    17
 74
     0
 42
0.000000001
 43
0.00000001
 40
0.0
 40
0.0
 40
0.0
 40
0.0
 40
0.0807814705861227
 40
0.1565412257955895
 40
0.227934986843486
 40
0.2943103173046012
 40
0.3568678635548113
 40
0.4147585592592751
 40
0.4676413968340161
 40
0.5167484215300129
 40
0.604729741894053
 40
0.6815706529393896
 40
0.7481095416219826
 40
0.8049410995352804
 40
0.9054060495000024
 40
1.0
 40
1.0
 40
1.0
 40
1.0
 10
199.8125362442166
 20
121.9707778561726
 30
0.0
 10
199.8033314576658
 20
121.9859987897865
 30
0.0
 10
199.7854940927431
 20
122.0154944598751
 30
0.0
 10
199.7597286581485
 20
122.0585714661265
 30
0.0
 10
199.7344664966468
 20
122.0982307139864
 30
0.0
 10
199.7110362739563
 20
122.1356056863414
 30
0.0
 10
199.6884871523793
 20
122.1700178590009
 30
0.0
 10
199.667037009205
 20
122.2015867731482
 30
0.0
 10
199.6472761618986
 20
122.2307265716961
 30
0.0
 10
199.6227997977425
 20
122.2646528805451
 30
0.0
 10
199.5943133751227
 20
122.3021926561067
 30
0.0
 10
199.5610716744503
 20
122.340851536121
 30
0.0
 10
199.5294157196105
 20
122.3716737461928
 30
0.0
 10
199.4904308270133
 20
122.4018982018559
 30
0.0
 10
199.4421421395844
 20
122.4301680996979
 30
0.0
 10
199.4010958437429
 20
122.4431573411259
 30
0.0
 10
199.3811904138046
 20
122.4494564828607
 30
0.0
  0
LINE
  5
18E
330
1F
100
AcDbEntity
  8
0
  6
SLD-SOLID
 62
     7
100
AcDbLine
 10
200.0685449336
 20
121.5369624856
 30
0.0
 11
199.8125362335
 21
121.9707778959
 31
0.0
  0
LINE
  5
18F
330
1F
100
AcDbEntity
  8
0
  6
SLD-SOLID
 62
     7
100
AcDbLine
 10
200.4006976969
 20
121.5369624856
 30
0.0
 11
200.0685449336
 21
121.5369624856
 31
0.0
  0
LINE
  5
190
330
1F
100
AcDbEntity
  8
0
  6
SLD-SOLID
 62
     7
100
AcDbLine
 10
200.0636058591
 20
122.1041328113
 30
0.0
 11
200.4006976969
 21
121.5369624856
 31
0.0
  0
SPLINE
  5
191
330
1F
100
AcDbEntity
  8
0
  6
SLD-SOLID
 62
     7
100
AcDbSpline
210
0.0
220
0.0
230
1.0
 70
     8
 71
     3
 72
    11
 73
     7
 74
     0
 42
0.000000001
 43
0.00000001
 40
0.0
 40
0.0
 40
0.0
 40
0.0
 40
0.2295275697008571
 40
0.4714659343032296
 40
0.7281863484998701
 40
1.0
 40
1.0
 40
1.0
 40
1.0
 10
199.8471097649748
 20
122.3840137471398
 30
0.0
 10
199.8665195748468
 20
122.3649864612611
 30
0.0
 10
199.9063887032389
 20
122.3259030643265
 30
0.0
 10
199.961330093927
 20
122.2593325904047
 30
0.0
 10
200.0145976590957
 20
122.1852294378333
 30
0.0
 10
200.0469617212672
 20
122.1316748383357
 30
0.0
 10
200.0636058592465
 20
122.1041328648114
 30
0.0
  0
SPLINE
  5
192
330
1F
100
AcDbEntity
  8
0
  6
SLD-SOLID
 62
     7
100
AcDbSpline
210
0.0
220
0.0
230
1.0
 70
     8
 71
     3
 72
    11
 73
     7
 74
     0
 42
0.000000001
 43
0.00000001
 40
0.0
 40
0.0
 40
0.0
 40
0.0
 40
0.2930762433192213
 40
0.5565623371181898
 40
0.7919136092098108
 40
1.0
 40
1.0
 40
1.0
 40
1.0
 10
199.6874130262345
 20
122.4852647722174
 30
0.0
 10
199.7039548732414
 20
122.4769081959823
 30
0.0
 10
199.7353684362315
 20
122.4610387568663
 30
0.0
 10
199.7788609034492
 20
122.4361556141599
 30
0.0
 10
199.8157279623738
 20
122.4107311740407
 30
0.0
 10
199.8370869177707
 20
122.3925468671431
 30
0.0
 10
199.8471097649748
 20
122.3840137471398
 30
0.0
  0
SPLINE
  5
193
330
1F
100
AcDbEntity
  8
0
  6
SLD-SOLID
 62
     7
100
AcDbSpline
210
0.0
220
0.0
230
1.0
 70
     8
 71
     3
 72
    23
 73
    19
 74
     0
 42
0.000000001
 43
0.00000001
 40
0.0
 40
0.0
 40
0.0
 40
0.0
 40
0.0614130692946597
 40
0.1212950233845471
 40
0.1792240423087202
 40
0.2359380947348319
 40
0.2922168332673612
 40
0.3481966394342069
 40
0.4044447389633588
 40
0.4620255339229974
 40
0.5203342118681488
 40
0.5803829016508381
 40
0.641825904813988
 40
0.7063632097966277
 40
0.7738513938275595
 40
0.8452662573568828
 40
0.920154675768406
 40
1.0
 40
1.0
 40
1.0
 40
1.0
 10
200.2323575677092
 20
123.0376179252832
 30
0.0
 10
200.2319555074334
 20
123.0200420766579
 30
0.0
 10
200.2311614108166
 20
122.985328570323
 30
0.0
 10
200.2250785508529
 20
122.9342904242557
 30
0.0
 10
200.214072106874
 20
122.8855255280365
 30
0.0
 10
200.1999585118768
 20
122.8386068074467
 30
0.0
 10
200.1806413059487
 20
122.7941990257621
 30
0.0
 10
200.1582631613395
 20
122.7513951405089
 30
0.0
 10
200.1305398217728
 20
122.7113710886141
 30
0.0
 10
200.0995004774247
 20
122.6730610937481
 30
0.0
 10
200.0639066731024
 20
122.6372856537202
 30
0.0
 10
200.0234452908693
 20
122.6053354584488
 30
0.0
 10
199.9785174151229
 20
122.5765961938461
 30
0.0
 10
199.9289114536039
 20
122.5518607873891
 30
0.0
 10
199.8751984208013
 20
122.5292514515589
 30
0.0
 10
199.8167043657011
 20
122.5110453249706
 30
0.0
 10
199.753665365432
 20
122.4961786265505
 30
0.0
 10
199.7099638001582
 20
122.488979597455
 30
0.0
 10
199.6874130262345
 20
122.4852647722174
 30
0.0
  0
SPLINE
  5
194
330
1F
100
AcDbEntity
  8
0
  6
SLD-SOLID
 62
     7
100
AcDbSpline
210
0.0
220
0.0
230
1.0
 70
     8
 71
     3
 72
    27
 73
    23
 74
     0
 42
0.000000001
 43
0.00000001
 40
0.0
 40
0.0
 40
0.0
 40
0.0
 40
0.0621127506505295
 40
0.1202119588785538
 40
0.1743851213884739
 40
0.2254437557784867
 40
0.2723582126361769
 40
0.3163881629634409
 40
0.3568694790582284
 40
0.3939783235063669
 40
0.4295893718770922
 40
0.4646830409549871
 40
0.5000363461428401
 40
0.535482747753064
 40
0.5713634671484438
 40
0.6079085322052602
 40
0.645662298533116
 40
0.6845173397035776
 40
0.7625786223763463
 40
0.8404972886541806
 40
0.9190729926935233
 40
1.0
 40
1.0
 40
1.0
 40
1.0
 10
199.543356689742
 20
123.5916174364802
 30
0.0
 10
199.5643488539285
 20
123.591452954187
 30
0.0
 10
199.6049767306775
 20
123.5911346179603
 30
0.0
 10
199.663895540711
 20
123.5888811590068
 30
0.0
 10
199.718890343307
 20
123.5840232926506
 30
0.0
 10
199.7700622555069
 20
123.5787701872296
 30
0.0
 10
199.8174021855291
 20
123.5707073720188
 30
0.0
 10
199.860861294057
 20
123.5614595051156
 30
0.0
 10
199.9005066797565
 20
123.5504544036844
 30
0.0
 10
199.9365155814819
 20
123.5374565305102
 30
0.0
 10
199.9699239905046
 20
123.5227513842224
 30
0.0
 10
200.0008910621579
 20
123.5046076078622
 30
0.0
 10
200.030704057698
 20
123.4847258976492
 30
0.0
 10
200.0582565128533
 20
123.4613678552167
 30
0.0
 10
200.084275126324
 20
123.4357929607571
 30
0.0
 10
200.1087357832412
 20
123.4076537057137
 30
0.0
 10
200.1312763630439
 20
123.3767058986212
 30
0.0
 10
200.1590774688281
 20
123.3324131686491
 30
0.0
 10
200.1889023871591
 20
123.2734245796929
 30
0.0
 10
200.2137512288056
 20
123.1979319673249
 30
0.0
 10
200.2297733173778
 20
123.1189639392717
 30
0.0
 10
200.2314877266321
 20
123.0649984400769
 30
0.0
 10
200.2323575677092
 20
123.0376179252832
 30
0.0
  0
LINE
  5
195
330
1F
100
AcDbEntity
  8
0
  6
SLD-SOLID
 62
     7
100
AcDbLine
 10
198.6518537635
 20
123.5916174787
 30
0.0
 11
199.5433567101
 21
123.5916174787
 31
0.0
  0
LINE
  5
196
330
1F
100
AcDbEntity
  8
0
  6
SLD-SOLID
 62
     7
100
AcDbLine
 10
198.6518537635
 20
121.5369624856
 30
0.0
 11
198.6518537635
 21
123.5916174787
 31
0.0
  0
LINE
  5
197
330
1F
100
AcDbEntity
  8
0
  6
SLD-SOLID
 62
     7
100
AcDbLine
 10
198.94161278
 20
121.5369624856
 30
0.0
 11
198.6518537635
 21
121.5369624856
 31
0.0
  0
LINE
  5
198
330
1F
100
AcDbEntity
  8
0
  6
SLD-SOLID
 62
     7
100
AcDbLine
 10
202.5471370909
 20
122.1691640398
 30
0.0
 11
202.3133541699
 21
121.5369624856
 31
0.0
  0
LINE
  5
199
330
1F
100
AcDbEntity
  8
0
  6
SLD-SOLID
 62
     7
100
AcDbLine
 10
203.422999639
 20
122.1691640398
 30
0.0
 11
202.5471370909
 21
122.1691640398
 31
0.0
  0
LINE
  5
19A
330
1F
100
AcDbEntity
  8
0
  6
SLD-SOLID
 62
     7
100
AcDbLine
 10
203.65678256
 20
121.5369624856
 30
0.0
 11
203.422999639
 21
122.1691640398
 31
0.0
  0
LINE
  5
19B
330
1F
100
AcDbEntity
  8
0
  6
SLD-SOLID
 62
     7
100
AcDbLine
 10
203.9642398487
 20
121.5369624856
 30
0.0
 11
203.65678256
 21
121.5369624856
 31
0.0
  0
LINE
  5
19C
330
1F
100
AcDbEntity
  8
0
  6
SLD-SOLID
 62
     7
100
AcDbLine
 10
203.1484694927
 20
123.5916174787
 30
0.0
 11
203.9642398487
 21
121.5369624856
 31
0.0
  0
LINE
  5
19D
330
1F
100
AcDbEntity
  8
0
  6
SLD-SOLID
 62
     7
100
AcDbLine
 10
202.8216672372
 20
123.5916174787
 30
0.0
 11
203.1484694927
 21
123.5916174787
 31
0.0
  0
LINE
  5
19E
330
1F
100
AcDbEntity
  8
0
  6
SLD-SOLID
 62
     7
100
AcDbLine
 10
202.0058968812
 20
121.5369624856
 30
0.0
 11
202.8216672372
 21
123.5916174787
 31
0.0
  0
LINE
  5
19F
330
1F
100
AcDbEntity
  8
0
  6
SLD-SOLID
 62
     7
100
AcDbLine
 10
202.3133541699
 20
121.5369624856
 30
0.0
 11
202.0058968812
 21
121.5369624856
 31
0.0
  0
SPLINE
  5
1A0
330
1F
100
AcDbEntity
  8
0
  6
SLD-SOLID
 62
     7
100
AcDbSpline
210
0.0
220
0.0
230
1.0
 70
     8
 71
     3
 72
    23
 73
    19
 74
     0
 42
0.000000001
 43
0.00000001
 40
0.0
 40
0.0
 40
0.0
 40
0.0
 40
0.0748159666505558
 40
0.1485345605139197
 40
0.2238723272963846
 40
0.3012971209351247
 40
0.3408936290197579
 40
0.38034006206544
 40
0.4201265887284643
 40
0.4599499070829665
 40
0.5008311555562169
 40
0.5419071755971084
 40
0.5844387941530512
 40
0.6280801713306066
 40
0.7172666799070602
 40
0.8078600064218678
 40
0.9019246558363443
 40
1.0
 40
1.0
 40
1.0
 40
1.0
 10
207.5817002660265
 20
122.120184856592
 30
0.0
 10
207.5806279805264
 20
122.0933323437947
 30
0.0
 10
207.5784991374113
 20
122.0400211808759
 30
0.0
 10
207.5601690304153
 20
121.9614380611745
 30
0.0
 10
207.5313734017962
 20
121.8852914568133
 30
0.0
 10
207.4976033944209
 20
121.8248649316779
 30
0.0
 10
207.4656805304334
 20
121.778707848059
 30
0.0
 10
207.4388638188634
 20
121.7455322458398
 30
0.0
 10
207.4091256275064
 20
121.714856346133
 30
0.0
 10
207.3771980804496
 20
121.6857191312083
 30
0.0
 10
207.3428332903993
 20
121.6587150954785
 30
0.0
 10
207.3057415408585
 20
121.6338350435746
 30
0.0
 10
207.2663143176898
 20
121.6108199763848
 30
0.0
 10
207.2100132344819
 20
121.5827747692705
 30
0.0
 10
207.1352360426593
 20
121.5534368195213
 30
0.0
 10
207.0399849119167
 20
121.5290051685076
 30
0.0
 10
206.9396017572325
 20
121.5131557523789
 30
0.0
 10
206.8706724866963
 20
121.5114774340699
 30
0.0
 10
206.8354884429951
 20
121.5106207584621
 30
0.0
  0
SPLINE
  5
1A1
330
1F
100
AcDbEntity
  8
0
  6
SLD-SOLID
 62
     7
100
AcDbSpline
210
0.0
220
0.0
230
1.0
 70
     8
 71
     3
 72
    23
 73
    19
 74
     0
 42
0.000000001
 43
0.00000001
 40
0.0
 40
0.0
 40
0.0
 40
0.0
 40
0.0749313059818448
 40
0.1470775964339469
 40
0.2163644561730687
 40
0.2825027309006237
 40
0.3466877108244162
 40
0.4088355551310375
 40
0.4692619872876909
 40
0.5284320432534628
 40
0.5870013379727417
 40
0.644416393832067
 40
0.7021887902662974
 40
0.7597671795443349
 40
0.8184897928274489
 40
0.8776328274167843
 40
0.9380195662701677
 40
1.0
 40
1.0
 40
1.0
 40
1.0
 10
207.2252637305907
 20
122.6169734227249
 30
0.0
 10
207.2400366265911
 20
122.6101621689878
 30
0.0
 10
207.2690333457548
 20
122.5967928193519
 30
0.0
 10
207.3101110813068
 20
122.5739666660485
 30
0.0
 10
207.3484410651173
 20
122.5502629346727
 30
0.0
 10
207.3837136165336
 20
122.5250434407323
 30
0.0
 10
207.4158146823519
 20
122.4982551356515
 30
0.0
 10
207.4451031899878
 20
122.4702049544716
 30
0.0
 10
207.471756031749
 20
122.4410505437845
 30
0.0
 10
207.4946977680085
 20
122.4098587927006
 30
0.0
 10
207.5152970934088
 20
122.3778906123084
 30
0.0
 10
207.5333228748219
 20
122.3446992062031
 30
0.0
 10
207.5478368878386
 20
122.3100893820853
 30
0.0
 10
207.5605665825454
 20
122.2744783292532
 30
0.0
 10
207.5697228843505
 20
122.2374699492096
 30
0.0
 10
207.5769032717793
 20
122.1994380513103
 30
0.0
 10
207.5810914716846
 20
122.1602038745798
 30
0.0
 10
207.581495580226
 20
122.1336398514354
 30
0.0
 10
207.5817002660265
 20
122.120184856592
 30
0.0
  0
SPLINE
  5
1A2
330
1F
100
AcDbEntity
  8
0
  6
SLD-SOLID
 62
     7
100
AcDbSpline
210
0.0
220
0.0
230
1.0
 70
     8
 71
     3
 72
    23
 73
    19
 74
     0
 42
0.000000001
 43
0.00000001
 40
0.0
 40
0.0
 40
0.0
 40
0.0
 40
0.0327432182311376
 40
0.0724096054938575
 40
0.1196114857927603
 40
0.1746729151985131
 40
0.2373450901947013
 40
0.3083524168429163
 40
0.3876300477623597
 40
0.4747836155862522
 40
0.5633323159904144
 40
0.6451362168299873
 40
0.7202025267224655
 40
0.7891341563324459
 40
0.8514970735699655
 40
0.9073306044315619
 40
0.9569686823424193
 40
1.0
 40
1.0
 40
1.0
 40
1.0
 10
206.4173134776339
 20
122.892738409725
 30
0.0
 10
206.424448954633
 20
122.886656663377
 30
0.0
 10
206.4402286214598
 20
122.8732072568261
 30
0.0
 10
206.4695891240615
 20
122.8554085419779
 30
0.0
 10
206.5059917929001
 20
122.8374252089746
 30
0.0
 10
206.5496798646503
 20
122.819548384359
 30
0.0
 10
206.6005781724182
 20
122.8015610453431
 30
0.0
 10
206.6586046162271
 20
122.7830408678684
 30
0.0
 10
206.723980211957
 20
122.764646869078
 30
0.0
 10
206.7947126403042
 20
122.746921207829
 30
0.0
 10
206.8661688860324
 20
122.7291242880596
 30
0.0
 10
206.9340763425895
 20
122.7113951975555
 30
0.0
 10
206.9964268823584
 20
122.6945928985332
 30
0.0
 10
207.053121581682
 20
122.6782050081291
 30
0.0
 10
207.1042191213408
 20
122.6622778653724
 30
0.0
 10
207.1495419186617
 20
122.6464777760924
 30
0.0
 10
207.1894566522162
 20
122.6319457017494
 30
0.0
 10
207.2139091420458
 20
122.6217212009749
 30
0.0
 10
207.2252637305907
 20
122.6169734227249
 30
0.0
  0
SPLINE
  5
1A3
330
1F
100
AcDbEntity
  8
0
  6
SLD-SOLID
 62
     7
100
AcDbSpline
210
0.0
220
0.0
230
1.0
 70
     8
 71
     3
 72
    11
 73
     7
 74
     0
 42
0.000000001
 43
0.00000001
 40
0.0
 40
0.0
 40
0.0
 40
0.0
 40
0.2627412305282691
 40
0.5099565029432329
 40
0.7533267184204503
 40
1.0
 40
1.0
 40
1.0
 40
1.0
 10
206.3436389512562
 20
123.0742493937056
 30
0.0
 10
206.3443877567969
 20
123.0565720456592
 30
0.0
 10
206.3458411193095
 20
123.0222619430044
 30
0.0
 10
206.3606820755038
 20
122.9735176296239
 30
0.0
 10
206.3835075699657
 20
122.929084029665
 30
0.0
 10
206.4059943188701
 20
122.9049079348418
 30
0.0
 10
206.4173134776339
 20
122.892738409725
 30
0.0
  0
SPLINE
  5
1A4
330
1F
100
AcDbEntity
  8
0
  6
SLD-SOLID
 62
     7
100
AcDbSpline
210
0.0
220
0.0
230
1.0
 70
     8
 71
     3
 72
    23
 73
    19
 74
     0
 42
0.000000001
 43
0.00000001
 40
0.0
 40
0.0
 40
0.0
 40
0.0
 40
0.0915110363280375
 40
0.177142860314148
 40
0.257108485228235
 40
0.3311983993883849
 40
0.4005922945239581
 40
0.4656249598049642
 40
0.5269734913138602
 40
0.5854431157040231
 40
0.6413985080863308
 40
0.6950441672657243
 40
0.7467815514927477
 40
0.7969589345766993
 40
0.8475448623598797
 40
0.8974385414187385
 40
0.9476489188871287
 40
1.0
 40
1.0
 40
1.0
 40
1.0
 10
206.7786890874637
 20
123.3808835956683
 30
0.0
 10
206.7604293748634
 20
123.3807459625868
 30
0.0
 10
206.7250830620215
 20
123.3804795387902
 30
0.0
 10
206.6739859584108
 20
123.37562296588
 30
0.0
 10
206.6266255481757
 20
123.3689595755786
 30
0.0
 10
206.5830831778484
 20
123.3591305082684
 30
0.0
 10
206.5435014865488
 20
123.3462642261577
 30
0.0
 10
206.507293025241
 20
123.331406622698
 30
0.0
 10
206.4754711261255
 20
123.3125781586318
 30
0.0
 10
206.4472939658306
 20
123.2916056985184
 30
0.0
 10
206.422987596295
 20
123.2684008299354
 30
0.0
 10
206.4020391063369
 20
123.2439485088444
 30
0.0
 10
206.383511784973
 20
123.2189671620173
 30
0.0
 10
206.3691156475963
 20
123.1920912926638
 30
0.0
 10
206.357395027986
 20
123.1643387307719
 30
0.0
 10
206.3498339404718
 20
123.1351878190737
 30
0.0
 10
206.3444805138828
 20
123.1051777737025
 30
0.0
 10
206.3439233485904
 20
123.0847013179533
 30
0.0
 10
206.3436389512562
 20
123.0742493937056
 30
0.0
  0
SPLINE
  5
1A5
330
1F
100
AcDbEntity
  8
0
  6
SLD-SOLID
 62
     7
100
AcDbSpline
210
0.0
220
0.0
230
1.0
 70
     8
 71
     3
 72
    23
 73
    19
 74
     0
 42
0.000000001
 43
0.00000001
 40
0.0
 40
0.0
 40
0.0
 40
0.0
 40
0.0671554674490462
 40
0.1314033464826141
 40
0.1927317719102091
 40
0.2512526591565257
 40
0.3077037298841914
 40
0.3626989162982003
 40
0.417778332785431
 40
0.4723043857981144
 40
0.5278725997916964
 40
0.5852299868117375
 40
0.6450565760102912
 40
0.707952356429442
 40
0.7744342720454286
 40
0.84494043137526
 40
0.9204035944750272
 40
1.0
 40
1.0
 40
1.0
 40
1.0
 10
207.2392577747071
 20
123.0120993742474
 30
0.0
 10
207.2374166885227
 20
123.026811985499
 30
0.0
 10
207.233814228515
 20
123.0556002052434
 30
0.0
 10
207.2248770034426
 20
123.097275484313
 30
0.0
 10
207.2123488123065
 20
123.135981608178
 30
0.0
 10
207.1976744610118
 20
123.1720795376468
 30
0.0
 10
207.1798860750553
 20
123.2051938145256
 30
0.0
 10
207.159149964317
 20
123.2356424083155
 30
0.0
 10
207.135213606957
 20
123.2630665826275
 30
0.0
 10
207.1086929106323
 20
123.2881909892819
 30
0.0
 10
207.0787808554273
 20
123.3100673341099
 30
0.0
 10
207.0456311387816
 20
123.3290566730254
 30
0.0
 10
207.0091878029166
 20
123.3450983161563
 30
0.0
 10
206.9694829543439
 20
123.358236945078
 30
0.0
 10
206.926508732279
 20
123.3684241240223
 30
0.0
 10
206.880167391354
 20
123.3759180073295
 30
0.0
 10
206.830476843218
 20
123.3797559604952
 30
0.0
 10
206.7962557367817
 20
123.3805010965359
 30
0.0
 10
206.7786890874637
 20
123.3808835956683
 30
0.0
  0
LINE
  5
1A6
330
1F
100
AcDbEntity
  8
0
  6
SLD-SOLID
 62
     7
100
AcDbLine
 10
207.5290167015
 20
123.0120994455
 30
0.0
 11
207.2392575684
 21
123.0120994455
 31
0.0
  0
SPLINE
  5
1A7
330
1F
100
AcDbEntity
  8
0
  6
SLD-SOLID
 62
     7
100
AcDbSpline
210
0.0
220
0.0
230
1.0
 70
     8
 71
     3
 72
    23
 73
    19
 74
     0
 42
0.000000001
 43
0.00000001
 40
0.0
 40
0.0
 40
0.0
 40
0.0
 40
0.1004750608070148
 40
0.1956443031597846
 40
0.286083379069932
 40
0.3729828804699542
 40
0.4150256681909619
 40
0.4560516735090279
 40
0.4959387495188998
 40
0.5355660888033517
 40
0.5740871099085042
 40
0.6125192874870976
 40
0.651080960134445
 40
0.6895131377130386
 40
0.7662374603277348
 40
0.8423504388672227
 40
0.9199744947371038
 40
1.0
 40
1.0
 40
1.0
 40
1.0
 10
206.7671645805443
 20
123.6179591665818
 30
0.0
 10
206.8036983483623
 20
123.6171220510866
 30
0.0
 10
206.8748366337152
 20
123.61549202592
 30
0.0
 10
206.9782025730716
 20
123.6019305134618
 30
0.0
 10
207.0746146971022
 20
123.5786418279707
 30
0.0
 10
207.1502243927171
 20
123.5525724811145
 30
0.0
 10
207.2061217564795
 20
123.5261808045472
 30
0.0
 10
207.2458328001335
 20
123.5055876473035
 30
0.0
 10
207.282692501319
 20
123.4817782061504
 30
0.0
 10
207.3170326716908
 20
123.4560126660216
 30
0.0
 10
207.3491722849589
 20
123.428302793924
 30
0.0
 10
207.3782852808935
 20
123.3979894635798
 30
0.0
 10
207.4056358269772
 20
123.366106910965
 30
0.0
 10
207.4377765299221
 20
123.3203335547358
 30
0.0
 10
207.4724310215885
 20
123.2597527767292
 30
0.0
 10
207.5023945467491
 20
123.1812679725691
 30
0.0
 10
207.5229798380398
 20
123.0984337057944
 30
0.0
 10
207.5269841508864
 20
123.0411682564333
 30
0.0
 10
207.5290168058235
 20
123.0120993742474
 30
0.0
  0
SPLINE
  5
1A8
330
1F
100
AcDbEntity
  8
0
  6
SLD-SOLID
 62
     7
100
AcDbSpline
210
0.0
220
0.0
230
1.0
 70
     8
 71
     3
 72
    23
 73
    19
 74
     0
 42
0.000000001
 43
0.00000001
 40
0.0
 40
0.0
 40
0.0
 40
0.0
 40
0.0749954673898322
 40
0.1491654404266561
 40
0.2236642943382247
 40
0.3004120221906725
 40
0.3395704846106348
 40
0.3789205746932795
 40
0.4180957375990935
 40
0.4582296767501551
 40
0.4984267212184583
 40
0.5397075464534805
 40
0.5822159516458436
 40
0.6258238199943749
 40
0.7154812648736979
 40
0.8073840844133601
 40
0.9016341255073719
 40
1.0
 40
1.0
 40
1.0
 40
1.0
 10
206.0538799201398
 20
123.0553162751951
 30
0.0
 10
206.0548578246729
 20
123.080788734121
 30
0.0
 10
206.0568028696929
 20
123.1314532700812
 30
0.0
 10
206.0740564849861
 20
123.2058003181559
 30
0.0
 10
206.1015763314645
 20
123.2773419539866
 30
0.0
 10
206.1329022744261
 20
123.3341399080789
 30
0.0
 10
206.1634519913772
 20
123.3770902667812
 30
0.0
 10
206.1887779387744
 20
123.4080223299723
 30
0.0
 10
206.2171859421363
 20
123.4366148639234
 30
0.0
 10
206.2478011337117
 20
123.463267001122
 30
0.0
 10
206.2811707910728
 20
123.4875805277896
 30
0.0
 10
206.3164670096915
 20
123.5105546993152
 30
0.0
 10
206.3549673155349
 20
123.5303015510611
 30
0.0
 10
206.4090659708406
 20
123.5554348362141
 30
0.0
 10
206.4814369363965
 20
123.5805327717511
 30
0.0
 10
206.572542930163
 20
123.6024024390482
 30
0.0
 10
206.668428997091
 20
123.6152810314361
 30
0.0
 10
206.7337871928828
 20
123.6170538277784
 30
0.0
 10
206.7671645805443
 20
123.6179591665818
 30
0.0
  0
SPLINE
  5
1A9
330
1F
100
AcDbEntity
  8
0
  6
SLD-SOLID
 62
     7
100
AcDbSpline
210
0.0
220
0.0
230
1.0
 70
     8
 71
     3
 72
    15
 73
    11
 74
     0
 42
0.000000001
 43
0.00000001
 40
0.0
 40
0.0
 40
0.0
 40
0.0
 40
0.1448052410584837
 40
0.2795118010254855
 40
0.4063939211311608
 40
0.5275015404829168
 40
0.6453932904726503
 40
0.7618854106740865
 40
0.8789420729184871
 40
1.0
 40
1.0
 40
1.0
 40
1.0
 10
206.3572214058398
 20
122.6112111692652
 30
0.0
 10
206.3330388618419
 20
122.624275276141
 30
0.0
 10
206.2863602583823
 20
122.6494924023647
 30
0.0
 10
206.2235360279884
 20
122.6945806946118
 30
0.0
 10
206.1706002361389
 20
122.7446145001097
 30
0.0
 10
206.1277762085361
 20
122.7995212677381
 30
0.0
 10
206.0942166938425
 20
122.8583723922333
 30
0.0
 10
206.0715742360179
 20
122.9212679210601
 30
0.0
 10
206.056066021541
 20
122.9870661828687
 30
0.0
 10
206.0546167384985
 20
123.0323128038193
 30
0.0
 10
206.0538799201398
 20
123.0553162751951
 30
0.0
  0
SPLINE
  5
1AA
330
1F
100
AcDbEntity
  8
0
  6
SLD-SOLID
 62
     7
100
AcDbSpline
210
0.0
220
0.0
230
1.0
 70
     8
 71
     3
 72
    23
 73
    19
 74
     0
 42
0.000000001
 43
0.00000001
 40
0.0
 40
0.0
 40
0.0
 40
0.0
 40
0.031200111153937
 40
0.0704867190162008
 40
0.1172148300204117
 40
0.1715755269954914
 40
0.2341219784876085
 40
0.3039626396728061
 40
0.3821556401561972
 40
0.4676462220680265
 40
0.5543353814021599
 40
0.6350744656665042
 40
0.7100366878785244
 40
0.7790924037748317
 40
0.8429656453505103
 40
0.9010012068505269
 40
0.953246256459026
 40
1.0
 40
1.0
 40
1.0
 40
1.0
 10
207.0729756034414
 20
122.383602157607
 30
0.0
 10
207.0657369551674
 20
122.3865726599784
 30
0.0
 10
207.0493835337188
 20
122.3932835644671
 30
0.0
 10
207.02135453675
 20
122.4021676465437
 30
0.0
 10
206.9880945822056
 20
122.4136556711806
 30
0.0
 10
206.9488046264074
 20
122.4254864668572
 30
0.0
 10
206.903695005759
 20
122.4380017940578
 30
0.0
 10
206.8528408232435
 20
122.452167246973
 30
0.0
 10
206.7962704953478
 20
122.467231430788
 30
0.0
 10
206.7355884542583
 20
122.4832656135928
 30
0.0
 10
206.674318084476
 20
122.4995699186418
 30
0.0
 10
206.6157814041021
 20
122.5158894923604
 30
0.0
 10
206.5619248753231
 20
122.5324559501446
 30
0.0
 10
206.5123073404613
 20
122.5484071617911
 30
0.0
 10
206.467184600484
 20
122.5644241829936
 30
0.0
 10
206.4264285867032
 20
122.5800685021301
 30
0.0
 10
206.3899884862545
 20
122.5950227167251
 30
0.0
 10
206.3677322601212
 20
122.6060183213356
 30
0.0
 10
206.3572214058398
 20
122.6112111692652
 30
0.0
  0
SPLINE
  5
1AB
330
1F
100
AcDbEntity
  8
0
  6
SLD-SOLID
 62
     7
100
AcDbSpline
210
0.0
220
0.0
230
1.0
 70
     8
 71
     3
 72
    15
 73
    11
 74
     0
 42
0.000000001
 43
0.00000001
 40
0.0
 40
0.0
 40
0.0
 40
0.0
 40
0.1177675192120368
 40
0.230176448544057
 40
0.3398429589695384
 40
0.4506252599208614
 40
0.5669428888721625
 40
0.6960213064547937
 40
0.8394383602270619
 40
1.0
 40
1.0
 40
1.0
 40
1.0
 10
207.2919412349101
 20
122.1061908124756
 30
0.0
 10
207.2912475397949
 20
122.1210433269041
 30
0.0
 10
207.2898917136805
 20
122.1500725451976
 30
0.0
 10
207.2810561703965
 20
122.1923354607852
 30
0.0
 10
207.2642629718557
 20
122.2310183044347
 30
0.0
 10
207.2424718668746
 20
122.2676999295104
 30
0.0
 10
207.2121567192052
 20
122.3012373284814
 30
0.0
 10
207.1738569512536
 20
122.3321390501026
 30
0.0
 10
207.1267287230214
 20
122.3601548501762
 30
0.0
 10
207.0915545908913
 20
122.3754979353052
 30
0.0
 10
207.0729756034414
 20
122.383602157607
 30
0.0
  0
SPLINE
  5
1AC
330
1F
100
AcDbEntity
  8
0
  6
SLD-SOLID
 62
     7
100
AcDbSpline
210
0.0
220
0.0
230
1.0
 70
     8
 71
     3
 72
    19
 73
    15
 74
     0
 42
0.000000001
 43
0.00000001
 40
0.0
 40
0.0
 40
0.0
 40
0.0
 40
0.1055838864195047
 40
0.2058681332620123
 40
0.300946717742213
 40
0.3930019285950097
 40
0.4809485116065868
 40
0.5628738662802266
 40
0.6414613436333616
 40
0.7177416181792268
 40
0.7917717603087844
 40
0.8627163930302565
 40
0.9317768462002763
 40
1.0
 40
1.0
 40
1.0
 40
1.0
 10
206.8227291674772
 20
121.7476963293756
 30
0.0
 10
206.8459567493789
 20
121.7481262471773
 30
0.0
 10
206.8912460363
 20
121.7489645036413
 30
0.0
 10
206.9567620520492
 20
121.7590340405587
 30
0.0
 10
207.0184128132404
 20
121.773317408165
 30
0.0
 10
207.0750509349161
 20
121.7949232378795
 30
0.0
 10
207.1264674848084
 20
121.8211594896731
 30
0.0
 10
207.1711169981237
 20
121.8528928514626
 30
0.0
 10
207.2092363775227
 20
121.8886793664565
 30
0.0
 10
207.239086614642
 20
121.9294616316281
 30
0.0
 10
207.262536364892
 20
121.9721946256163
 30
0.0
 10
207.279739180841
 20
122.0161197361834
 30
0.0
 10
207.2899865457401
 20
122.0609931588265
 30
0.0
 10
207.2912923265268
 20
122.0911863110921
 30
0.0
 10
207.2919412349101
 20
122.1061908124756
 30
0.0
  0
SPLINE
  5
1AD
330
1F
100
AcDbEntity
  8
0
  6
SLD-SOLID
 62
     7
100
AcDbSpline
210
0.0
220
0.0
230
1.0
 70
     8
 71
     3
 72
    19
 73
    15
 74
     0
 42
0.000000001
 43
0.00000001
 40
0.0
 40
0.0
 40
0.0
 40
0.0
 40
0.0937964706969321
 40
0.1801880710186105
 40
0.2603631916661885
 40
0.3348466760639744
 40
0.4070930058327154
 40
0.4814483792884674
 40
0.5592709137563652
 40
0.6422698113109349
 40
0.7285859445716477
 40
0.8159775452756136
 40
0.9060351298875359
 40
1.0
 40
1.0
 40
1.0
 40
1.0
 10
206.2646137609517
 20
122.248189201304
 30
0.0
 10
206.2678009421906
 20
122.2221728247995
 30
0.0
 10
206.2739236889759
 20
122.1721939645887
 30
0.0
 10
206.291043500535
 20
122.1013564539003
 30
0.0
 10
206.3130778026351
 20
122.0376662618996
 30
0.0
 10
206.3405319356068
 20
121.9802781072992
 30
0.0
 10
206.3766468014777
 20
121.9298800706143
 30
0.0
 10
206.420159002583
 20
121.8844218111654
 30
0.0
 10
206.4730022026824
 20
121.845057711102
 30
0.0
 10
206.532650129629
 20
121.8100262411109
 30
0.0
 10
206.599081273755
 20
121.7825209965217
 30
0.0
 10
206.6700024448653
 20
121.7621309059575
 30
0.0
 10
206.7450754107994
 20
121.7500496148284
 30
0.0
 10
206.7964807578986
 20
121.7484917834922
 30
0.0
 10
206.8227291674772
 20
121.7476963293756
 30
0.0
  0
LINE
  5
1AE
330
1F
100
AcDbEntity
  8
0
  6
SLD-SOLID
 62
     7
100
AcDbLine
 10
205.9748549256
 20
122.248189205
 30
0.0
 11
206.264613593
 21
122.248189205
 31
0.0
  0
SPLINE
  5
1AF
330
1F
100
AcDbEntity
  8
0
  6
SLD-SOLID
 62
     7
100
AcDbSpline
210
0.0
220
0.0
230
1.0
 70
     8
 71
     3
 72
    31
 73
    27
 74
     0
 42
0.000000001
 43
0.00000001
 40
0.0
 40
0.0
 40
0.0
 40
0.0
 40
0.0524925849212958
 40
0.1028254751380329
 40
0.1513973394924577
 40
0.1980330772483325
 40
0.2428758954632244
 40
0.2859991683849086
 40
0.3278486614843784
 40
0.3683945968796912
 40
0.4078519911389193
 40
0.4468375528599374
 40
0.4851660451611074
 40
0.5233414044713737
 40
0.5616022144094732
 40
0.5999198855663566
 40
0.6384964264110082
 40
0.6777905770472508
 40
0.7172899891758322
 40
0.7566052415928194
 40
0.7960678905323556
 40
0.8358862309537681
 40
0.8757136832726162
 40
0.9162634539474125
 40
0.9577596754778293
 40
1.0
 40
1.0
 40
1.0
 40
1.0
 10
206.8354884429951
 20
121.5106207584621
 30
0.0
 10
206.8131176977655
 20
121.5108053720558
 30
0.0
 10
206.7692966035886
 20
121.5111670037132
 30
0.0
 10
206.7049063999259
 20
121.5155464771816
 30
0.0
 10
206.6432000909032
 20
121.5218816007848
 30
0.0
 10
206.5842382326627
 20
121.5313178379159
 30
0.0
 10
206.5282057237722
 20
121.5436976686444
 30
0.0
 10
206.4749014329459
 20
121.558563452752
 30
0.0
 10
206.4241990139444
 20
121.5756844679741
 30
0.0
 10
206.3762756226634
 20
121.5958184851268
 30
0.0
 10
206.3312563591864
 20
121.619212013682
 30
0.0
 10
206.288331731649
 20
121.6444477120319
 30
0.0
 10
206.2482033716211
 20
121.6730535587721
 30
0.0
 10
206.2107868039052
 20
121.7045800566488
 30
0.0
 10
206.1751339722804
 20
121.7381164332355
 30
0.0
 10
206.1427225805181
 20
121.7750322866017
 30
0.0
 10
206.1124507240964
 20
121.8142480641807
 30
0.0
 10
206.0850101061798
 20
121.8561226836999
 30
0.0
 10
206.0604960916368
 20
121.9001082866073
 30
0.0
 10
206.0384510084474
 20
121.9454661819957
 30
0.0
 10
206.0198777174043
 20
121.9925254059732
 30
0.0
 10
206.0049094121568
 20
122.041048122246
 30
0.0
 10
205.9922304997632
 20
122.0907096161937
 30
0.0
 10
205.9834379670461
 20
122.1419242264309
 30
0.0
 10
205.9769734008337
 20
122.1945311575738
 30
0.0
 10
205.975565124927
 20
122.2301975400566
 30
0.0
 10
205.9748547298353
 20
122.248189201304
 30
0.0
  0
SPLINE
  5
1B0
330
1F
100
AcDbEntity
  8
0
  6
SLD-SOLID
 62
     7
100
AcDbSpline
210
0.0
220
0.0
230
1.0
 70
     8
 71
     3
 72
    23
 73
    19
 74
     0
 42
0.000000001
 43
0.00000001
 40
0.0
 40
0.0
 40
0.0
 40
0.0
 40
0.064254575424703
 40
0.1273603868320974
 40
0.1894718420926419
 40
0.251720762933201
 40
0.3120272840890019
 40
0.3686746571150509
 40
0.4226814918055486
 40
0.4740604252251505
 40
0.525773772273917
 40
0.579622104857714
 40
0.6373752855308656
 40
0.6984003818208012
 40
0.7643573310122578
 40
0.8363147679791494
 40
0.9146777942540472
 40
1.0
 40
1.0
 40
1.0
 40
1.0
 10
198.0328231042343
 20
118.9645279083394
 30
0.0
 10
198.0321133364742
 20
118.9411626354655
 30
0.0
 10
198.0307064904108
 20
118.8948498215998
 30
0.0
 10
198.0194079481452
 20
118.8266851479522
 30
0.0
 10
198.0003140107793
 20
118.7611164768863
 30
0.0
 10
197.9740328298543
 20
118.6992039745744
 30
0.0
 10
197.9427177448794
 20
118.6419567510591
 30
0.0
 10
197.9071270536458
 20
118.5908737252918
 30
0.0
 10
197.8681683924243
 20
118.5464805380861
 30
0.0
 10
197.8247447253601
 20
118.5091379327339
 30
0.0
 10
197.7771361537358
 20
118.4774449886898
 30
0.0
 10
197.7239980100476
 20
118.4507574571596
 30
0.0
 10
197.665741148812
 20
118.4272216118903
 30
0.0
 10
197.6011815318165
 20
118.4084203098706
 30
0.0
 10
197.5303485464496
 20
118.3934845800529
 30
0.0
 10
197.4522809241746
 20
118.3837808120703
 30
0.0
 10
197.3668587258465
 20
118.3768342150509
 30
0.0
 10
197.3073440385224
 20
118.3762561810974
 30
0.0
 10
197.276321542882
 20
118.3759548763841
 30
0.0
  0
SPLINE
  5
1B1
330
1F
100
AcDbEntity
  8
0
  6
SLD-SOLID
 62
     7
100
AcDbSpline
210
0.0
220
0.0
230
1.0
 70
     8
 71
     3
 72
    23
 73
    19
 74
     0
 42
0.000000001
 43
0.00000001
 40
0.0
 40
0.0
 40
0.0
 40
0.0
 40
0.0704642259291749
 40
0.137956965604269
 40
0.2035785636142838
 40
0.2676916802449431
 40
0.3301858648593746
 40
0.3915337640898197
 40
0.4526637734870352
 40
0.5131537880892132
 40
0.5734535531000283
 40
0.6329675593891927
 40
0.6923319074206211
 40
0.75147419157163
 40
0.8121874455294295
 40
0.872961717848316
 40
0.935420306759491
 40
1.0
 40
1.0
 40
1.0
 40
1.0
 10
197.6455173538358
 20
119.4559658105454
 30
0.0
 10
197.6606755385342
 20
119.4512206486828
 30
0.0
 10
197.6903526851642
 20
119.4419304290963
 30
0.0
 10
197.7330166664433
 20
119.4249306302953
 30
0.0
 10
197.7730651150374
 20
119.405573926435
 30
0.0
 10
197.8105852053634
 20
119.383828508977
 30
0.0
 10
197.8453234189162
 20
119.3594930046443
 30
0.0
 10
197.8771817373859
 20
119.332529475718
 30
0.0
 10
197.9063810525875
 20
119.3033551757821
 30
0.0
 10
197.9328691970817
 20
119.2719878512111
 30
0.0
 10
197.9561362530476
 20
119.2386293574326
 30
0.0
 10
197.9770038956137
 20
119.2040087793764
 30
0.0
 10
197.9942354871005
 20
119.1677092089903
 30
0.0
 10
198.0083595951414
 20
119.1298248890422
 30
0.0
 10
198.0193784991961
 20
119.0905899115737
 30
0.0
 10
198.0272912717385
 20
119.049853371846
 30
0.0
 10
198.0318013500672
 20
119.0077100921344
 30
0.0
 10
198.0324787494286
 20
118.9790813038506
 30
0.0
 10
198.0328231042343
 20
118.9645279083394
 30
0.0
  0
SPLINE
  5
1B2
330
1F
100
AcDbEntity
  8
0
  6
SLD-SOLID
 62
     7
100
AcDbSpline
210
0.0
220
0.0
230
1.0
 70
     8
 71
     3
 72
    15
 73
    11
 74
     0
 42
0.000000001
 43
0.00000001
 40
0.0
 40
0.0
 40
0.0
 40
0.0
 40
0.115842690601018
 40
0.2305685484828844
 40
0.3473546045205444
 40
0.4682527467344626
 40
0.5923025714800843
 40
0.7199701656206967
 40
0.8556003811349103
 40
1.0
 40
1.0
 40
1.0
 40
1.0
 10
197.9537979139298
 20
119.8980129688112
 30
0.0
 10
197.9528392172314
 20
119.8759795891587
 30
0.0
 10
197.9509310665743
 20
119.8321252524
 30
0.0
 10
197.9357443222156
 20
119.7675251470312
 30
0.0
 10
197.9117749933827
 20
119.7047988469501
 30
0.0
 10
197.877881683828
 20
119.644708915095
 30
0.0
 10
197.8345617858126
 20
119.5883546831024
 30
0.0
 10
197.7808574828419
 20
119.5376428576779
 30
0.0
 10
197.7175405008645
 20
119.4924647575855
 30
0.0
 10
197.6700211079954
 20
119.4683835021106
 30
0.0
 10
197.6455173538358
 20
119.4559658105454
 30
0.0
  0
SPLINE
  5
1B3
330
1F
100
AcDbEntity
  8
0
  6
SLD-SOLID
 62
     7
100
AcDbSpline
210
0.0
220
0.0
230
1.0
 70
     8
 71
     3
 72
    23
 73
    19
 74
     0
 42
0.000000001
 43
0.00000001
 40
0.0
 40
0.0
 40
0.0
 40
0.0
 40
0.0587320371008649
 40
0.1146029008469815
 40
0.1676568100446119
 40
0.2179667070908431
 40
0.2657752056293755
 40
0.3111706510536958
 40
0.3537918046646693
 40
0.3947449080003069
 40
0.472805951082463
 40
0.549192366561607
 40
0.6247801075795549
 40
0.7026247640242254
 40
0.7797414321940388
 40
0.8540634639886252
 40
0.9271552664103497
 40
0.9999999999999999
 40
0.9999999999999999
 40
0.9999999999999999
 40
0.9999999999999999
 10
197.2742635952178
 20
120.4306098243008
 30
0.0
 10
197.2933399916871
 20
120.4305366426429
 30
0.0
 10
197.3305634642757
 20
120.4303938444242
 30
0.0
 10
197.3849174313929
 20
120.426822608832
 30
0.0
 10
197.4363946970199
 20
120.4219378991632
 30
0.0
 10
197.485106079762
 20
120.4156413586021
 30
0.0
 10
197.5308408059876
 20
120.4065052061088
 30
0.0
 10
197.5735562561332
 20
120.3954373680885
 30
0.0
 10
197.6134747204548
 20
120.3826709745067
 30
0.0
 10
197.6622689600757
 20
120.3632236219739
 30
0.0
 10
197.718498971694
 20
120.3332900126572
 30
0.0
 10
197.7787266559609
 20
120.2886243441404
 30
0.0
 10
197.8311270812706
 20
120.234996898299
 30
0.0
 10
197.8742449252643
 20
120.1735099949629
 30
0.0
 10
197.9097693783938
 20
120.1078303859833
 30
0.0
 10
197.9349557997819
 20
120.0392093302738
 30
0.0
 10
197.9510588431351
 20
119.9691408754315
 30
0.0
 10
197.9528859214056
 20
119.9216954961957
 30
0.0
 10
197.9537979139298
 20
119.8980129688112
 30
0.0
  0
LINE
  5
1B4
330
1F
100
AcDbEntity
  8
0
  6
SLD-SOLID
 62
     7
100
AcDbLine
 10
196.5050028413
 20
120.4306098238
 30
0.0
 11
197.2742636464
 21
120.4306098238
 31
0.0
  0
LINE
  5
1B5
330
1F
100
AcDbEntity
  8
0
  6
SLD-SOLID
 62
     7
100
AcDbLine
 10
196.5050028413
 20
118.3759549471
 30
0.0
 11
196.5050028413
 21
120.4306098238
 31
0.0
  0
LINE
  5
1B6
330
1F
100
AcDbEntity
  8
0
  6
SLD-SOLID
 62
     7
100
AcDbLine
 10
197.2763216365
 20
118.3759549471
 30
0.0
 11
196.5050028413
 21
118.3759549471
 31
0.0
  0
LINE
  5
1B7
330
1F
100
AcDbEntity
  8
0
  6
SLD-SOLID
 62
     7
100
AcDbLine
 10
200.5879709506
 20
119.2188902364
 30
0.0
 11
200.5879709506
 21
118.9818147409
 31
0.0
  0
LINE
  5
1B8
330
1F
100
AcDbEntity
  8
0
  6
SLD-SOLID
 62
     7
100
AcDbLine
 10
199.8240607538
 20
119.2188902364
 30
0.0
 11
200.5879709506
 21
119.2188902364
 31
0.0
  0
LINE
  5
1B9
330
1F
100
AcDbEntity
  8
0
  6
SLD-SOLID
 62
     7
100
AcDbLine
 10
199.8240607538
 20
118.9818147409
 30
0.0
 11
199.8240607538
 21
119.2188902364
 31
0.0
  0
LINE
  5
1BA
330
1F
100
AcDbEntity
  8
0
  6
SLD-SOLID
 62
     7
100
AcDbLine
 10
200.5879709506
 20
118.9818147409
 30
0.0
 11
199.8240607538
 21
118.9818147409
 31
0.0
  0
SPLINE
  5
1BB
330
1F
100
AcDbEntity
  8
0
  6
SLD-SOLID
 62
     7
100
AcDbSpline
210
0.0
220
0.0
230
1.0
 70
     8
 71
     3
 72
    15
 73
    11
 74
     0
 42
0.000000001
 43
0.00000001
 40
0.0
 40
0.0
 40
0.0
 40
0.0
 40
0.1379032299933934
 40
0.2688733426002937
 40
0.3951781273461133
 40
0.5170892381308875
 40
0.6367430265135479
 40
0.756221816463797
 40
0.8766283594636795
 40
1.0
 40
1.0
 40
1.0
 40
1.0
 10
203.380194314838
 20
118.3496131462826
 30
0.0
 10
203.3564335329003
 20
118.3502909238438
 30
0.0
 10
203.3101065479363
 20
118.3516124035395
 30
0.0
 10
203.2424494023507
 20
118.3605910441019
 30
0.0
 10
203.1789495624274
 20
118.3763938730547
 30
0.0
 10
203.1190714433811
 20
118.3975876949793
 30
0.0
 10
203.0634880916418
 20
118.42593565226
 30
0.0
 10
203.0119341188067
 20
118.4604264777899
 30
0.0
 10
202.9633735849576
 20
118.500257706084
 30
0.0
 10
202.9354191894718
 20
118.5316836308952
 30
0.0
 10
202.921271985726
 20
118.5475877115767
 30
0.0
  0
SPLINE
  5
1BC
330
1F
100
AcDbEntity
  8
0
  6
SLD-SOLID
 62
     7
100
AcDbSpline
210
0.0
220
0.0
230
1.0
 70
     8
 71
     3
 72
    31
 73
    27
 74
     0
 42
0.000000001
 43
0.00000001
 40
0.0
 40
0.0
 40
0.0
 40
0.0
 40
0.0628739462114324
 40
0.1228366299919129
 40
0.1796565674430314
 40
0.233960012230862
 40
0.285595018695559
 40
0.3345131060783805
 40
0.3809048259061763
 40
0.4248945919393346
 40
0.4665290347654873
 40
0.5064882940692464
 40
0.5450315536447543
 40
0.5818311798231344
 40
0.617448279949443
 40
0.652066912769046
 40
0.6858797142465105
 40
0.7191745547913923
 40
0.7521816462063928
 40
0.7852401639180908
 40
0.8186564497770833
 40
0.8525477406533113
 40
0.8876263422585189
 40
0.923635078068751
 40
0.9610218444769891
 40
1.0
 40
1.0
 40
1.0
 40
1.0
 10
204.0387375673753
 20
119.389288306226
 30
0.0
 10
204.0384672031393
 20
119.3600633228831
 30
0.0
 10
204.037938993386
 20
119.3029665652953
 30
0.0
 10
204.0348012771097
 20
119.2194944544166
 30
0.0
 10
204.0288330576328
 20
119.140186585134
 30
0.0
 10
204.0214890545269
 20
119.0648612861935
 30
0.0
 10
204.0103791161105
 20
118.9937196406916
 30
0.0
 10
203.9984075555203
 20
118.9264593865979
 30
0.0
 10
203.983601692195
 20
118.8633859447016
 30
0.0
 10
203.9663267257459
 20
118.8044716715387
 30
0.0
 10
203.946871190806
 20
118.749405049649
 30
0.0
 10
203.925535186165
 20
118.6977699161157
 30
0.0
 10
203.9019035123614
 20
118.6496015538763
 30
0.0
 10
203.87527280153
 20
118.6053697729762
 30
0.0
 10
203.8468615293311
 20
118.5644874705782
 30
0.0
 10
203.8164616134025
 20
118.5268012879754
 30
0.0
 10
203.783428539937
 20
118.4928536382667
 30
0.0
 10
203.7477956877644
 20
118.4628350658492
 30
0.0
 10
203.7102854174432
 20
118.4357945622949
 30
0.0
 10
203.6701515600779
 20
118.4126420812322
 30
0.0
 10
203.6275697753067
 20
118.3934606528114
 30
0.0
 10
203.5828245684306
 20
118.3770614844731
 30
0.0
 10
203.5354619347735
 20
118.3650451357765
 30
0.0
 10
203.4858553716568
 20
118.3558468086179
 30
0.0
 10
203.4338221022785
 20
118.35043016747
 30
0.0
 10
203.3983168782839
 20
118.3498892441604
 30
0.0
 10
203.380194314838
 20
118.3496131462826
 30
0.0
  0
SPLINE
  5
1BD
330
1F
100
AcDbEntity
  8
0
  6
SLD-SOLID
 62
     7
100
AcDbSpline
210
0.0
220
0.0
230
1.0
 70
     8
 71
     3
 72
    27
 73
    23
 74
     0
 42
0.000000001
 43
0.00000001
 40
0.0
 40
0.0
 40
0.0
 40
0.0
 40
0.0567243372181508
 40
0.1114372357370108
 40
0.1643678222229016
 40
0.21643537246209
 40
0.2676414903219249
 40
0.3173597799690281
 40
0.3674730633322806
 40
0.4182103970528083
 40
0.4714042826470199
 40
0.5279657201290493
 40
0.5880611158232137
 40
0.6521342629937144
 40
0.6863448363353055
 40
0.7232636803169651
 40
0.7626102507715418
 40
0.8047389366452182
 40
0.84943033879095
 40
0.8967112583864923
 40
0.9468896380534765
 40
1.0
 40
1.0
 40
1.0
 40
1.0
 10
203.380194314838
 20
120.4306098243008
 30
0.0
 10
203.4065815039473
 20
120.429834059616
 30
0.0
 10
203.4584201953701
 20
120.428310038776
 30
0.0
 10
203.5341049525481
 20
120.4158804013505
 30
0.0
 10
203.6054329581933
 20
120.394617590843
 30
0.0
 10
203.67235787102
 20
120.3659331421963
 30
0.0
 10
203.7337356200116
 20
120.3294983716185
 30
0.0
 10
203.7885485368448
 20
120.2852063569699
 30
0.0
 10
203.8362053756735
 20
120.2335221556576
 30
0.0
 10
203.8761860358459
 20
120.1738333268431
 30
0.0
 10
203.9111331235641
 20
120.1077864870306
 30
0.0
 10
203.9421793491393
 20
120.035085193638
 30
0.0
 10
203.9702442353139
 20
119.9558109166744
 30
0.0
 10
203.9901596894975
 20
119.8848493719991
 30
0.0
 10
204.0043653666144
 20
119.8235928487038
 30
0.0
 10
204.0137683961806
 20
119.7730702011234
 30
0.0
 10
204.021574795835
 20
119.7185559799545
 30
0.0
 10
204.0275555529649
 20
119.660182069773
 30
0.0
 10
204.0324626230767
 20
119.5980139421134
 30
0.0
 10
204.0362521284348
 20
119.5320128899102
 30
0.0
 10
204.0381756904089
 20
119.4620139547626
 30
0.0
 10
204.038546763922
 20
119.4139846467334
 30
0.0
 10
204.0387375673753
 20
119.389288306226
 30
0.0
  0
SPLINE
  5
1BE
330
1F
100
AcDbEntity
  8
0
  6
SLD-SOLID
 62
     7
100
AcDbSpline
210
0.0
220
0.0
230
1.0
 70
     8
 71
     3
 72
    31
 73
    27
 74
     0
 42
0.000000001
 43
0.00000001
 40
0.0
 40
0.0
 40
0.0
 40
0.0
 40
0.0631144583947934
 40
0.1236146457694899
 40
0.1809737111859575
 40
0.2352614550083221
 40
0.2871007018338719
 40
0.3360307363034435
 40
0.3823823485850661
 40
0.4263340836597072
 40
0.4682106947981602
 40
0.5082496012618051
 40
0.546628336606585
 40
0.5836495392304462
 40
0.6189943150301618
 40
0.653583018620596
 40
0.6871561361903314
 40
0.7204221919788074
 40
0.7532302188118172
 40
0.7862601560778999
 40
0.8195039834988841
 40
0.8535452747120185
 40
0.8883082803397299
 40
0.9239958607406952
 40
0.961350304754645
 40
1.0
 40
1.0
 40
1.0
 40
1.0
 10
202.7216510623006
 20
119.389288306226
 30
0.0
 10
202.7219164552889
 20
119.4186512114282
 30
0.0
 10
202.7224362483931
 20
119.4761607776614
 30
0.0
 10
202.7256603561584
 20
119.5603076043076
 30
0.0
 10
202.7312893870633
 20
119.640218361347
 30
0.0
 10
202.739691980566
 20
119.7158236500209
 30
0.0
 10
202.7496422255084
 20
119.7872941263233
 30
0.0
 10
202.7625776067071
 20
119.8545277945137
 30
0.0
 10
202.7771317910509
 20
119.9176755041582
 30
0.0
 10
202.7945942004742
 20
119.9766714339992
 30
0.0
 10
202.8137796718197
 20
120.0320228416394
 30
0.0
 10
202.8355462011378
 20
120.0836409309247
 30
0.0
 10
202.8600364993319
 20
120.1314709745309
 30
0.0
 10
202.8860470204678
 20
120.1760089968365
 30
0.0
 10
202.9149470117011
 20
120.2165622482957
 30
0.0
 10
202.9449921275102
 20
120.2542688191588
 30
0.0
 10
202.9783658675206
 20
120.2877458623446
 30
0.0
 10
203.013680480031
 20
120.3178547452078
 30
0.0
 10
203.0514559818668
 20
120.3444240796805
 30
0.0
 10
203.0914925031193
 20
120.3673502106139
 30
0.0
 10
203.1336359941462
 20
120.3875923311642
 30
0.0
 10
203.1786896632811
 20
120.4028305942263
 30
0.0
 10
203.2257182050119
 20
120.4152530089887
 30
0.0
 10
203.2750836206645
 20
120.4243910879098
 30
0.0
 10
203.3268403101657
 20
120.429778293827
 30
0.0
 10
203.3622087321524
 20
120.430329516193
 30
0.0
 10
203.380194314838
 20
120.4306098243008
 30
0.0
  0
SPLINE
  5
1BF
330
1F
100
AcDbEntity
  8
0
  6
SLD-SOLID
 62
     7
100
AcDbSpline
210
0.0
220
0.0
230
1.0
 70
     8
 71
     3
 72
    15
 73
    11
 74
     0
 42
0.000000001
 43
0.00000001
 40
0.0
 40
0.0
 40
0.0
 40
0.0
 40
0.0974206681772145
 40
0.2008855880393207
 40
0.3111719701726506
 40
0.429797945825373
 40
0.5577399263645872
 40
0.6947152693641585
 40
0.8421299102060552
 40
1.0
 40
1.0
 40
1.0
 40
1.0
 10
202.921271985726
 20
118.5475877115767
 30
0.0
 10
202.9049882288073
 20
118.5710772698246
 30
0.0
 10
202.8714104249871
 20
118.6195137444426
 30
0.0
 10
202.8321105169776
 20
118.7021024267253
 30
0.0
 10
202.7970543032375
 20
118.793020970225
 30
0.0
 10
202.7695416028256
 20
118.8940531859869
 30
0.0
 10
202.7479923000566
 20
119.0043949717854
 30
0.0
 10
202.7324283232603
 20
119.1242628417083
 30
0.0
 10
202.7236206446516
 20
119.2536050088815
 30
0.0
 10
202.7223224104738
 20
119.3430395501072
 30
0.0
 10
202.7216510623006
 20
119.389288306226
 30
0.0
  0
CIRCLE
  5
1C0
330
1F
100
AcDbEntity
  8
0
  6
SLD-SOLID
 62
     7
100
AcDbCircle
 10
200.061136322
 20
120.9869624886
 30
0.0
 40
25.40000000000001
  0
LINE
  5
1C1
330
1F
100
AcDbEntity
  8
0
  6
SLD-SOLID
 62
     7
100
AcDbLine
 10
204.8647975791
 20
123.3545418668
 30
0.0
 11
204.4733762051
 21
123.3545418668
 31
0.0
  0
SPLINE
  5
1C2
330
1F
100
AcDbEntity
  8
0
  6
SLD-SOLID
 62
     7
100
AcDbSpline
210
0.0
220
0.0
230
1.0
 70
     8
 71
     3
 72
    23
 73
    19
 74
     0
 42
0.000000001
 43
0.00000001
 40
0.0
 40
0.0
 40
0.0
 40
0.0
 40
0.076010519206233
 40
0.1481357362434483
 40
0.217788177833154
 40
0.2867678984972345
 40
0.3540434632439188
 40
0.4186108400234796
 40
0.4836364388553443
 40
0.5502295626461522
 40
0.5869278113138146
 40
0.6291578250269657
 40
0.6772382242876696
 40
0.7300426397437304
 40
0.7888625661169236
 40
0.8537504514610937
 40
0.9241097665384561
 40
0.9999999999999999
 40
0.9999999999999999
 40
0.9999999999999999
 40
0.9999999999999999
 10
205.3426532073994
 20
123.0335020299548
 30
0.0
 10
205.3421212929924
 20
123.0504126521175
 30
0.0
 10
205.3410846531547
 20
123.0833695045449
 30
0.0
 10
205.3323829885763
 20
123.1312285683248
 30
0.0
 10
205.3173250794819
 20
123.1757526388989
 30
0.0
 10
205.2969325470829
 20
123.2169319492749
 30
0.0
 10
205.2711101827028
 20
123.2535668602925
 30
0.0
 10
205.240290290057
 20
123.2850643083973
 30
0.0
 10
205.203370234083
 20
123.3088749923995
 30
0.0
 10
205.1688610406674
 20
123.3237281461441
 30
0.0
 10
205.137822756163
 20
123.3330201952101
 30
0.0
 10
205.1100911390457
 20
123.3385179181541
 30
0.0
 10
205.0786352139307
 20
123.3433619588179
 30
0.0
 10
205.0433514679711
 20
123.3474802011205
 30
0.0
 10
205.0042265543281
 20
123.3506763365817
 30
0.0
 10
204.961139922321
 20
123.353215454398
 30
0.0
 10
204.9141941368304
 20
123.3542935021795
 30
0.0
 10
204.8816731818782
 20
123.3544570164899
 30
0.0
 10
204.864797759777
 20
123.3545418655668
 30
0.0
  0
SPLINE
  5
1C3
330
1F
100
AcDbEntity
  8
0
  6
SLD-SOLID
 62
     7
100
AcDbSpline
210
0.0
220
0.0
230
1.0
 70
     8
 71
     3
 72
    15
 73
    11
 74
     0
 42
0.000000001
 43
0.00000001
 40
0.0
 40
0.0
 40
0.0
 40
0.0
 40
0.1323768784386572
 40
0.2551949197670689
 40
0.3737221416536693
 40
0.4900113154474169
 40
0.6078124214239345
 40
0.7311098159015433
 40
0.8599973777575841
 40
1.0
 40
1.0
 40
1.0
 40
1.0
 10
205.1438554630396
 20
122.7466241255682
 30
0.0
 10
205.1595897064687
 20
122.752135832274
 30
0.0
 10
205.1899220351715
 20
122.7627612493947
 30
0.0
 10
205.2305701928953
 20
122.7868926398934
 30
0.0
 10
205.2651906082768
 20
122.8158501907192
 30
0.0
 10
205.293690506195
 20
122.8501452209667
 30
0.0
 10
205.3155912655515
 20
122.889594197923
 30
0.0
 10
205.3318300464364
 20
122.933379045614
 30
0.0
 10
205.3407211392818
 20
122.9821118356786
 30
0.0
 10
205.3419916780239
 20
123.0159063133155
 30
0.0
 10
205.3426532073994
 20
123.0335020299548
 30
0.0
  0
SPLINE
  5
1C4
330
1F
100
AcDbEntity
  8
0
  6
SLD-SOLID
 62
     7
100
AcDbSpline
210
0.0
220
0.0
230
1.0
 70
     8
 71
     3
 72
    15
 73
    11
 74
     0
 42
0.000000001
 43
0.00000001
 40
0.0
 40
0.0
 40
0.0
 40
0.0
 40
0.1669801744060282
 40
0.3208066328848138
 40
0.4631345048703168
 40
0.5942480539785199
 40
0.7123671525397434
 40
0.8194549510427512
 40
0.9157522665813538
 40
1.0
 40
1.0
 40
1.0
 40
1.0
 10
204.8969017433381
 20
122.7223403431309
 30
0.0
 10
204.9107605564614
 20
122.7223951738319
 30
0.0
 10
204.9373864669304
 20
122.7225005159937
 30
0.0
 10
204.9757937084261
 20
122.7239693000792
 30
0.0
 10
205.0112417513425
 20
122.7252223832027
 30
0.0
 10
205.0435934779119
 20
122.7283675250163
 30
0.0
 10
205.073009161202
 20
122.7314480517087
 30
0.0
 10
205.0993710832177
 20
122.7355949208331
 30
0.0
 10
205.1228083661015
 20
122.7402675017783
 30
0.0
 10
205.1371590183852
 20
122.7446016718529
 30
0.0
 10
205.1438554630396
 20
122.7466241255682
 30
0.0
  0
LINE
  5
1C5
330
1F
100
AcDbEntity
  8
0
  6
SLD-SOLID
 62
     7
100
AcDbLine
 10
204.4733762051
 20
122.7223403125
 30
0.0
 11
204.8969016652
 21
122.7223403125
 31
0.0
  0
LINE
  5
1C6
330
1F
100
AcDbEntity
  8
0
  6
SLD-SOLID
 62
     7
100
AcDbLine
 10
204.4733762051
 20
123.3545418668
 30
0.0
 11
204.4733762051
 21
122.7223403125
 31
0.0
  0
LINE
  5
1C7
330
1F
100
AcDbEntity
  8
0
  6
SLD-SOLID
 62
     7
100
AcDbLine
 10
204.926124705
 20
122.485264817
 30
0.0
 11
204.4733762051
 21
122.485264817
 31
0.0
  0
SPLINE
  5
1C8
330
1F
100
AcDbEntity
  8
0
  6
SLD-SOLID
 62
     7
100
AcDbSpline
210
0.0
220
0.0
230
1.0
 70
     8
 71
     3
 72
    19
 73
    15
 74
     0
 42
0.000000001
 43
0.00000001
 40
0.0
 40
0.0
 40
0.0
 40
0.0
 40
0.0801399024652513
 40
0.1562809906190948
 40
0.229406049012902
 40
0.3017986969723052
 40
0.3727428627695777
 40
0.442667609902629
 40
0.5133209646126967
 40
0.586547692363208
 40
0.6683225082295051
 40
0.7636766255259053
 40
0.8740807567185483
 40
1.0
 40
1.0
 40
1.0
 40
1.0
 10
205.4216783977039
 20
122.1296514158472
 30
0.0
 10
205.4211114474632
 20
122.1483599356199
 30
0.0
 10
205.4200058366187
 20
122.1848434589726
 30
0.0
 10
205.4094966263923
 20
122.2375639987084
 30
0.0
 10
205.3921371309451
 20
122.2864629548047
 30
0.0
 10
205.3677000196329
 20
122.3308631258558
 30
0.0
 10
205.3377266269975
 20
122.3707972570091
 30
0.0
 10
205.301461848506
 20
122.4046722934137
 30
0.0
 10
205.2591768496128
 20
122.4315538100797
 30
0.0
 10
205.2107416712225
 20
122.4526505981179
 30
0.0
 10
205.1541306497991
 20
122.4676605994578
 30
0.0
 10
205.0877808674875
 20
122.477843976185
 30
0.0
 10
205.0106310387537
 20
122.4844150650937
 30
0.0
 10
204.9554999035638
 20
122.4849694053202
 30
0.0
 10
204.9261246001695
 20
122.4852647722174
 30
0.0
  0
SPLINE
  5
1C9
330
1F
100
AcDbEntity
  8
0
  6
SLD-SOLID
 62
     7
100
AcDbSpline
210
0.0
220
0.0
230
1.0
 70
     8
 71
     3
 72
    19
 73
    15
 74
     0
 42
0.000000001
 43
0.00000001
 40
0.0
 40
0.0
 40
0.0
 40
0.0
 40
0.0889709576989538
 40
0.1722707767733128
 40
0.2503120304637083
 40
0.3246551996215513
 40
0.3978444501802943
 40
0.4733008807185318
 40
0.551825888744447
 40
0.6347494834982523
 40
0.7217660118923853
 40
0.8103926655611188
 40
0.903175236799419
 40
1.0
 40
1.0
 40
1.0
 40
1.0
 10
205.1352120828501
 20
121.7839162082651
 30
0.0
 10
205.1495540203094
 20
121.7869307381943
 30
0.0
 10
205.1773237192139
 20
121.7927676475178
 30
0.0
 10
205.2164723317237
 20
121.8057950201859
 30
0.0
 10
205.2523666601296
 20
121.8207185698963
 30
0.0
 10
205.2843802231642
 20
121.8396847436489
 30
0.0
 10
205.3140240144528
 20
121.861541959673
 30
0.0
 10
205.3397866753448
 20
121.8888426684789
 30
0.0
 10
205.3635153089259
 20
121.9198608962174
 30
0.0
 10
205.3840740808396
 20
121.9553577294799
 30
0.0
 10
205.4006988331476
 20
121.9946266846035
 30
0.0
 10
205.4134048469016
 20
122.0370610285643
 30
0.0
 10
205.4201729953059
 20
122.0825119775921
 30
0.0
 10
205.4211695153827
 20
122.1137165224324
 30
0.0
 10
205.4216783977039
 20
122.1296514158472
 30
0.0
  0
SPLINE
  5
1CA
330
1F
100
AcDbEntity
  8
0
  6
SLD-SOLID
 62
     7
100
AcDbSpline
210
0.0
220
0.0
230
1.0
 70
     8
 71
     3
 72
    11
 73
     7
 74
     0
 42
0.000000001
 43
0.00000001
 40
0.0
 40
0.0
 40
0.0
 40
0.0
 40
0.3293954641291814
 40
0.6051903468527978
 40
0.8278865786947356
 40
1.0
 40
1.0
 40
1.0
 40
1.0
 10
204.9594633523292
 20
121.7740380594771
 30
0.0
 10
204.9788085030554
 20
121.7742603078748
 30
0.0
 10
205.0143508822102
 20
121.7746686394991
 30
0.0
 10
205.0629659129442
 20
121.7759495956773
 30
0.0
 10
205.1022618879949
 20
121.7790784924523
 30
0.0
 10
205.1252086608256
 20
121.7824475154964
 30
0.0
 10
205.1352120828501
 20
121.7839162082651
 30
0.0
  0
LINE
  5
1CB
330
1F
100
AcDbEntity
  8
0
  6
SLD-SOLID
 62
     7
100
AcDbLine
 10
204.4733762051
 20
121.7740380393
 30
0.0
 11
204.9594632592
 21
121.7740380393
 31
0.0
  0
LINE
  5
1CC
330
1F
100
AcDbEntity
  8
0
  6
SLD-SOLID
 62
     7
100
AcDbLine
 10
204.4733762051
 20
122.485264817
 30
0.0
 11
204.4733762051
 21
121.7740380393
 31
0.0
  0
SPLINE
  5
1CD
330
1F
100
AcDbEntity
  8
0
  6
SLD-SOLID
 62
     7
100
AcDbSpline
210
0.0
220
0.0
230
1.0
 70
     8
 71
     3
 72
    15
 73
    11
 74
     0
 42
0.000000001
 43
0.00000001
 40
0.0
 40
0.0
 40
0.0
 40
0.0
 40
0.1276647678962251
 40
0.2517385630080496
 40
0.3727533493873896
 40
0.492146758972386
 40
0.614069621309245
 40
0.7371973244121095
 40
0.8656069906011175
 40
1.0
 40
1.0
 40
1.0
 40
1.0
 10
203.3773131881081
 20
120.1935342533873
 30
0.0
 10
203.3637049673877
 20
120.1931770913089
 30
0.0
 10
203.3368712999187
 20
120.192472813458
 30
0.0
 10
203.2975832965358
 20
120.1857504885032
 30
0.0
 10
203.2603505172729
 20
120.1745092628597
 30
0.0
 10
203.2247463948351
 20
120.1592819312291
 30
0.0
 10
203.1916597671485
 20
120.1387889505304
 30
0.0
 10
203.159778500841
 20
120.1148619368677
 30
0.0
 10
203.1305957910758
 20
120.0857095413243
 30
0.0
 10
203.1130105462102
 20
120.0639156661026
 30
0.0
 10
203.1040177383051
 20
120.0527706331575
 30
0.0
  0
SPLINE
  5
1CE
330
1F
100
AcDbEntity
  8
0
  6
SLD-SOLID
 62
     7
100
AcDbSpline
210
0.0
220
0.0
230
1.0
 70
     8
 71
     3
 72
    23
 73
    19
 74
     0
 42
0.000000001
 43
0.00000001
 40
0.0
 40
0.0
 40
0.0
 40
0.0
 40
0.1156291309254414
 40
0.2215410391198768
 40
0.3170478562190417
 40
0.4031508756396167
 40
0.4801812167162795
 40
0.5476493661481898
 40
0.6070358428421809
 40
0.6586524080635072
 40
0.705722890353646
 40
0.749804087979647
 40
0.7925868153452743
 40
0.8338739610102607
 40
0.8747683933034329
 40
0.9152226988916381
 40
0.9568807037304801
 40
1.0
 40
1.0
 40
1.0
 40
1.0
 10
203.7753202663604
 20
119.3901114852917
 30
0.0
 10
203.7750708147832
 20
119.4288078959081
 30
0.0
 10
203.7745928750011
 20
119.5029487542674
 30
0.0
 10
203.7691912796627
 20
119.6089416594659
 30
0.0
 10
203.7607264943202
 20
119.7048035662259
 30
0.0
 10
203.749148012701
 20
119.7906228503366
 30
0.0
 10
203.7337602127761
 20
119.8663063431997
 30
0.0
 10
203.7150969105392
 20
119.9320151646846
 30
0.0
 10
203.6928567953236
 20
119.9876091800547
 30
0.0
 10
203.6664133776958
 20
120.033646832289
 30
0.0
 10
203.6369765629159
 20
120.071410196622
 30
0.0
 10
203.6062270192997
 20
120.1040976743071
 30
0.0
 10
203.5733960051561
 20
120.1318973091481
 30
0.0
 10
203.5379018537065
 20
120.1541985863101
 30
0.0
 10
203.5008886082083
 20
120.1721904272275
 30
0.0
 10
203.4615057983573
 20
120.1845728703145
 30
0.0
 10
203.4201405260514
 20
120.1921802560383
 30
0.0
 10
203.3917520763277
 20
120.1930777642075
 30
0.0
 10
203.3773131881081
 20
120.1935342533873
 30
0.0
  0
SPLINE
  5
1CF
330
1F
100
AcDbEntity
  8
0
  6
SLD-SOLID
 62
     7
100
AcDbSpline
210
0.0
220
0.0
230
1.0
 70
     8
 71
     3
 72
    23
 73
    19
 74
     0
 42
0.000000001
 43
0.00000001
 40
0.0
 40
0.0
 40
0.0
 40
0.0
 40
0.0407818458722597
 40
0.0808695887215869
 40
0.1202681657882672
 40
0.1601868504553523
 40
0.2004597376386391
 40
0.2422651778979082
 40
0.2864592615494684
 40
0.3329520837492633
 40
0.3844305340495303
 40
0.4433891253601058
 40
0.5116814722136833
 40
0.5890200255490083
 40
0.6762451906507723
 40
0.7737051914728237
 40
0.881567767781983
 40
1.0
 40
1.0
 40
1.0
 40
1.0
 10
203.380194314838
 20
118.5866887171961
 30
0.0
 10
203.3937999824149
 20
118.5872081452132
 30
0.0
 10
203.420779750439
 20
118.5882381606336
 30
0.0
 10
203.4604964550669
 20
118.595098930318
 30
0.0
 10
203.4983348724424
 20
118.6079170290346
 30
0.0
 10
203.5346362106824
 20
118.624676747585
 30
0.0
 10
203.5692130458427
 20
118.6463846072429
 30
0.0
 10
203.6018835360034
 20
118.6731274725546
 30
0.0
 10
203.6331693962788
 20
118.704453507373
 30
0.0
 10
203.6631782759607
 20
118.7413230170232
 30
0.0
 10
203.6905003283097
 20
118.786240613969
 30
0.0
 10
203.713165943453
 20
118.841596373934
 30
0.0
 10
203.7325953285345
 20
118.9071151603731
 30
0.0
 10
203.7484005106162
 20
118.9832689384225
 30
0.0
 10
203.7603542472301
 20
119.069918511423
 30
0.0
 10
203.7693043735038
 20
119.1671464723064
 30
0.0
 10
203.7745701570761
 20
119.2750823873176
 30
0.0
 10
203.7750625635798
 20
119.3505928191214
 30
0.0
 10
203.7753202663604
 20
119.3901114852917
 30
0.0
  0
SPLINE
  5
1D0
330
1F
100
AcDbEntity
  8
0
  6
SLD-SOLID
 62
     7
100
AcDbSpline
210
0.0
220
0.0
230
1.0
 70
     8
 71
     3
 72
    23
 73
    19
 74
     0
 42
0.000000001
 43
0.00000001
 40
0.0
 40
0.0
 40
0.0
 40
0.0
 40
0.1184055081537694
 40
0.2266543328167019
 40
0.3240923419286019
 40
0.4117048030053216
 40
0.4890259050064157
 40
0.5569093973430758
 40
0.6162333444927067
 40
0.6673492812770749
 40
0.7135123932013474
 40
0.757696504520978
 40
0.7994925114422909
 40
0.8399760647439395
 40
0.879885741816776
 40
0.9191486593857414
 40
0.959227356493083
 40
1.0
 40
1.0
 40
1.0
 40
1.0
 10
202.9850683633155
 20
119.3901114852917
 30
0.0
 10
202.9853299157485
 20
119.3505929974015
 30
0.0
 10
202.9858305849581
 20
119.2749458704533
 30
0.0
 10
202.9910613628915
 20
119.1668708982601
 30
0.0
 10
203.0000659318025
 20
119.0693725210302
 30
0.0
 10
203.0119705600519
 20
118.9825857316376
 30
0.0
 10
203.0276894893242
 20
118.9063931337874
 30
0.0
 10
203.0474264641568
 20
118.8409888896751
 30
0.0
 10
203.069674729167
 20
118.7855880000974
 30
0.0
 10
203.0972065355258
 20
118.7408771164435
 30
0.0
 10
203.1273508225795
 20
118.7044312239112
 30
0.0
 10
203.158472738849
 20
118.6730865776796
 30
0.0
 10
203.1913044754436
 20
118.646444346095
 30
0.0
 10
203.2256318092501
 20
118.6242301582772
 30
0.0
 10
203.2619873535548
 20
118.6074110347459
 30
0.0
 10
203.299973566524
 20
118.5952204965579
 30
0.0
 10
203.3395987136331
 20
118.5882050290041
 30
0.0
 10
203.3665852393926
 20
118.587197038324
 30
0.0
 10
203.380194314838
 20
118.5866887171961
 30
0.0
  0
SPLINE
  5
1D1
330
1F
100
AcDbEntity
  8
0
  6
SLD-SOLID
 62
     7
100
AcDbSpline
210
0.0
220
0.0
230
1.0
 70
     8
 71
     3
 72
    15
 73
    11
 74
     0
 42
0.000000001
 43
0.00000001
 40
0.0
 40
0.0
 40
0.0
 40
0.0
 40
0.0838881132795455
 40
0.1771540327539696
 40
0.2825136355617228
 40
0.3993998606601629
 40
0.5294908061912204
 40
0.6728021776758328
 40
0.8295357616196702
 40
1.0
 40
1.0
 40
1.0
 40
1.0
 10
203.1040177383051
 20
120.0527706331575
 30
0.0
 10
203.0942273139804
 20
120.0364020317164
 30
0.0
 10
203.073551999163
 20
120.0018349918527
 30
0.0
 10
203.0504175240623
 20
119.9417560523633
 30
0.0
 10
203.0299814433046
 20
119.8730972602571
 30
0.0
 10
203.0131557733545
 20
119.7948022501501
 30
0.0
 10
203.0009835815229
 20
119.7070053294769
 30
0.0
 10
202.991374106736
 20
119.6098084577634
 30
0.0
 10
202.9863823422668
 20
119.5030759365482
 30
0.0
 10
202.9855184406649
 20
119.4288052107491
 30
0.0
 10
202.9850683633155
 20
119.3901114852917
 30
0.0
  0
SPLINE
  5
1D2
330
1F
100
AcDbEntity
  8
0
  6
SLD-SOLID
 62
     7
100
AcDbSpline
210
0.0
220
0.0
230
1.0
 70
     8
 71
     3
 72
    11
 73
     7
 74
     0
 42
0.000000001
 43
0.00000001
 40
0.0
 40
0.0
 40
0.0
 40
0.0
 40
0.247294050035337
 40
0.4956077709090489
 40
0.746359172773196
 40
1.0
 40
1.0
 40
1.0
 40
1.0
 10
202.9850683633155
 20
123.3545418655668
 30
0.0
 10
202.9772095717674
 20
123.322016879691
 30
0.0
 10
202.9614595844116
 20
123.2568327972335
 30
0.0
 10
202.9284829455472
 20
123.161329371864
 30
0.0
 10
202.8907588160106
 20
123.0666993684264
 30
0.0
 10
202.86012232775
 20
123.0057204401838
 30
0.0
 10
202.8447163326185
 20
122.9750563162921
 30
0.0
  0
SPLINE
  5
1D3
330
1F
100
AcDbEntity
  8
0
  6
SLD-SOLID
 62
     7
100
AcDbSpline
210
0.0
220
0.0
230
1.0
 70
     8
 71
     3
 72
    15
 73
    11
 74
     0
 42
0.000000001
 43
0.00000001
 40
0.0
 40
0.0
 40
0.0
 40
0.0
 40
0.1531481085926319
 40
0.2994334688329067
 40
0.4364263514567512
 40
0.5656705729563586
 40
0.6865083102878727
 40
0.7992685160630042
 40
0.9033947408013441
 40
1.0
 40
1.0
 40
1.0
 40
1.0
 10
203.1361217218663
 20
122.9462450489936
 30
0.0
 10
203.1284689683661
 20
122.9671101243347
 30
0.0
 10
203.1135063903249
 20
123.0079052862486
 30
0.0
 10
203.0911926786284
 20
123.0671772126924
 30
0.0
 10
203.0708072311939
 20
123.1234642668189
 30
0.0
 10
203.050817625975
 20
123.1759593728956
 30
0.0
 10
203.0327726522969
 20
123.2254250751022
 30
0.0
 10
203.0161401375273
 20
123.2715272550254
 30
0.0
 10
202.9996907207606
 20
123.3139454804468
 30
0.0
 10
202.9898191943638
 20
123.3413520247631
 30
0.0
 10
202.9850683633155
 20
123.3545418655668
 30
0.0
  0
LINE
  5
1D4
330
1F
100
AcDbEntity
  8
0
  6
SLD-SOLID
 62
     7
100
AcDbLine
 10
203.33574263
 20
122.4062395354
 30
0.0
 11
203.1361217852
 21
122.9462451606
 31
0.0
  0
LINE
  5
1D5
330
1F
100
AcDbEntity
  8
0
  6
SLD-SOLID
 62
     7
100
AcDbLine
 10
202.6343940999
 20
122.4062395354
 30
0.0
 11
203.33574263
 21
122.4062395354
 31
0.0
  0
LINE
  5
1D6
330
1F
100
AcDbEntity
  8
0
  6
SLD-SOLID
 62
     7
100
AcDbLine
 10
202.8447163067
 20
122.9750563229
 30
0.0
 11
202.6343940999
 21
122.4062395354
 31
0.0
  0
LINE
  5
1D7
330
1F
100
AcDbEntity
  8
0
  6
SLD-SOLID
 62
     7
100
AcDbLine
 10
199.5540580139
 20
123.3545418668
 30
0.0
 11
198.94161278
 21
123.3545418668
 31
0.0
  0
SPLINE
  5
1D8
330
1F
100
AcDbEntity
  8
0
  6
SLD-SOLID
 62
     7
100
AcDbSpline
210
0.0
220
0.0
230
1.0
 70
     8
 71
     3
 72
    23
 73
    19
 74
     0
 42
0.000000001
 43
0.00000001
 40
0.0
 40
0.0
 40
0.0
 40
0.0
 40
0.0603255293380428
 40
0.1181599905079977
 40
0.1741866762963808
 40
0.2295388181457999
 40
0.2834498146386372
 40
0.337826511950592
 40
0.3926321025334832
 40
0.4484655764151909
 40
0.5059654091573053
 40
0.5650585322290048
 40
0.6266544786228438
 40
0.6922320330373639
 40
0.7611310781257618
 40
0.8353098773394203
 40
0.9153255598322017
 40
1.0
 40
1.0
 40
1.0
 40
1.0
 10
199.9425985365928
 20
123.0314440822906
 30
0.0
 10
199.9422161089819
 20
123.0429771596907
 30
0.0
 10
199.9414670456356
 20
123.0655670703153
 30
0.0
 10
199.9375402078351
 20
123.0987227872783
 30
0.0
 10
199.9299055028402
 20
123.1302283820521
 30
0.0
 10
199.9198238936294
 20
123.1602503967518
 30
0.0
 10
199.9063528179201
 20
123.1885689415828
 30
0.0
 10
199.8903497295437
 20
123.2154034539611
 30
0.0
 10
199.8712531047678
 20
123.2406052061855
 30
0.0
 10
199.8493790198944
 20
123.2642509666555
 30
0.0
 10
199.8242635953224
 20
123.2857662978527
 30
0.0
 10
199.7955758759591
 20
123.3043293621173
 30
0.0
 10
199.7635421201619
 20
123.3201039620863
 30
0.0
 10
199.7281250939022
 20
123.3326237391358
 30
0.0
 10
199.6894363672837
 20
123.3426375228059
 30
0.0
 10
199.6472556939094
 20
123.3492993700981
 30
0.0
 10
199.6017759750065
 20
123.3541198605944
 30
0.0
 10
199.5702611672489
 20
123.3543985692043
 30
0.0
 10
199.5540580175957
 20
123.3545418655668
 30
0.0
  0
SPLINE
  5
1D9
330
1F
100
AcDbEntity
  8
0
  6
SLD-SOLID
 62
     7
100
AcDbSpline
210
0.0
220
0.0
230
1.0
 70
     8
 71
     3
 72
    19
 73
    15
 74
     0
 42
0.000000001
 43
0.00000001
 40
0.0
 40
0.0
 40
0.0
 40
0.0
 40
0.1288602680417313
 40
0.2408921848092289
 40
0.3380442015575112
 40
0.4201204852136088
 40
0.494058456868551
 40
0.5660947835833202
 40
0.6368049543510104
 40
0.7091484493607203
 40
0.7819418055941268
 40
0.8542853006038366
 40
0.9261704072165587
 40
1.0
 40
1.0
 40
1.0
 40
1.0
 10
199.4919079981375
 20
122.6959986130294
 30
0.0
 10
199.5195018841853
 20
122.6964303455462
 30
0.0
 10
199.5710860660162
 20
122.6972374289925
 30
0.0
 10
199.6432183837258
 20
122.7041290733159
 30
0.0
 10
199.7046911678656
 20
122.7150801888078
 30
0.0
 10
199.7567196476209
 20
122.7310536733061
 30
0.0
 10
199.8004317831225
 20
122.7532301742085
 30
0.0
 10
199.8384490578997
 20
122.7802563845692
 30
0.0
 10
199.8700418917938
 20
122.8141095265159
 30
0.0
 10
199.8963238660767
 20
122.8523055896806
 30
0.0
 10
199.9167533838458
 20
122.8943384505733
 30
0.0
 10
199.9314902635698
 20
122.938487808333
 30
0.0
 10
199.9411358076632
 20
122.9843826161721
 30
0.0
 10
199.9421066418587
 20
123.015617987042
 30
0.0
 10
199.9425985365928
 20
123.0314440822906
 30
0.0
  0
LINE
  5
1DA
330
1F
100
AcDbEntity
  8
0
  6
SLD-SOLID
 62
     7
100
AcDbLine
 10
198.94161278
 20
122.6959986684
 30
0.0
 11
199.4919080063
 21
122.6959986684
 31
0.0
  0
LINE
  5
1DB
330
1F
100
AcDbEntity
  8
0
  6
SLD-SOLID
 62
     7
100
AcDbLine
 10
198.94161278
 20
123.3545418668
 30
0.0
 11
198.94161278
 21
122.6959986684
 31
0.0
  0
SPLINE
  5
1DC
330
1F
100
AcDbEntity
  8
0
  6
SLD-SOLID
 62
     7
100
AcDbSpline
210
0.0
220
0.0
230
1.0
 70
     8
 71
     3
 72
    31
 73
    27
 74
     0
 42
0.000000001
 43
0.00000001
 40
0.0
 40
0.0
 40
0.0
 40
0.0
 40
0.0508516157922844
 40
0.0997524678094164
 40
0.1474376477769319
 40
0.1940857839327041
 40
0.239170927084144
 40
0.2833398222454342
 40
0.3265771497238441
 40
0.368936281499902
 40
0.4105718726814497
 40
0.4510505934949118
 40
0.4908768629924158
 40
0.5300443324843861
 40
0.5689366633103304
 40
0.6075778621311337
 40
0.646420096450513
 40
0.6856793513063945
 40
0.7247985849801968
 40
0.7635130084045112
 40
0.802172526378755
 40
0.8407403615726128
 40
0.8796493769005862
 40
0.9190706128663402
 40
0.9590978622172246
 40
1.0
 40
1.0
 40
1.0
 40
1.0
 10
197.9933105090821
 20
122.5630551939234
 30
0.0
 10
197.9931355603257
 20
122.583369674795
 30
0.0
 10
197.9927923741768
 20
122.6232193347838
 30
0.0
 10
197.9882474393595
 20
122.6819581895689
 30
0.0
 10
197.9823850566392
 20
122.7388699296477
 30
0.0
 10
197.9734594878084
 20
122.7938811185057
 30
0.0
 10
197.9611589215002
 20
122.8467639423011
 30
0.0
 10
197.9475319828812
 20
122.8979209990551
 30
0.0
 10
197.930491972676
 20
122.9469114453819
 30
0.0
 10
197.9111577063296
 20
122.9939274030942
 30
0.0
 10
197.8895229896693
 20
123.0387275011841
 30
0.0
 10
197.8651219066412
 20
123.0809340569887
 30
0.0
 10
197.8382380478874
 20
123.1203829807722
 30
0.0
 10
197.8095967712638
 20
123.1578221841574
 30
0.0
 10
197.7776120848284
 20
123.1918026166451
 30
0.0
 10
197.7438240702141
 20
123.2237596274725
 30
0.0
 10
197.7074652338288
 20
123.2530329777701
 30
0.0
 10
197.6688984235223
 20
123.2796303142167
 30
0.0
 10
197.6286707595071
 20
123.3035721087588
 30
0.0
 10
197.5868651708364
 20
123.3240631784614
 30
0.0
 10
197.544147680033
 20
123.3420620087404
 30
0.0
 10
197.4998032567336
 20
123.3558588675603
 30
0.0
 10
197.4544442119614
 20
123.3669862366925
 30
0.0
 10
197.4078871802942
 20
123.3754385099098
 30
0.0
 10
197.3599593543964
 20
123.3798154903364
 30
0.0
 10
197.3276406807599
 20
123.380525003822
 30
0.0
 10
197.311306653173
 20
123.3808835956683
 30
0.0
  0
SPLINE
  5
1DD
330
1F
100
AcDbEntity
  8
0
  6
SLD-SOLID
 62
     7
100
AcDbSpline
210
0.0
220
0.0
230
1.0
 70
     8
 71
     3
 72
    23
 73
    19
 74
     0
 42
0.000000001
 43
0.00000001
 40
0.0
 40
0.0
 40
0.0
 40
0.0
 40
0.0610549117432832
 40
0.1195453450847438
 40
0.1768063562451035
 40
0.2329564830316851
 40
0.2885834899465033
 40
0.3446666617213001
 40
0.4016615108374461
 40
0.4605400973082778
 40
0.5204770623221882
 40
0.5812128653554004
 40
0.6434307597220102
 40
0.7079608695212424
 40
0.7753707435336737
 40
0.8464136772813298
 40
0.9211518871893691
 40
1.0
 40
1.0
 40
1.0
 40
1.0
 10
197.3071907578447
 20
121.7476963293756
 30
0.0
 10
197.3316436779521
 20
121.7483083776768
 30
0.0
 10
197.3795224265918
 20
121.7495067665252
 30
0.0
 10
197.4497912846015
 20
121.7595380503422
 30
0.0
 10
197.5165545657946
 20
121.776615883457
 30
0.0
 10
197.5804740136018
 20
121.7993503479325
 30
0.0
 10
197.6403940262453
 20
121.830083468319
 30
0.0
 10
197.6977159616475
 20
121.8660717841153
 30
0.0
 10
197.7508772164574
 20
121.9100484752184
 30
0.0
 10
197.8011827490592
 20
121.9594475135904
 30
0.0
 10
197.8463034230784
 20
122.015598593475
 30
0.0
 10
197.8863385225295
 20
122.077118534872
 30
0.0
 10
197.9188602193329
 20
122.1449299805078
 30
0.0
 10
197.9469383151105
 20
122.2175391370685
 30
0.0
 10
197.9674987150708
 20
122.2963183452369
 30
0.0
 10
197.9826941105631
 20
122.3803720437606
 30
0.0
 10
197.9918511775901
 20
122.4699706069465
 30
0.0
 10
197.9928154639574
 20
122.5314783580808
 30
0.0
 10
197.9933105090821
 20
122.5630551939234
 30
0.0
  0
SPLINE
  5
1DE
330
1F
100
AcDbEntity
  8
0
  6
SLD-SOLID
 62
     7
100
AcDbSpline
210
0.0
220
0.0
230
1.0
 70
     8
 71
     3
 72
    23
 73
    19
 74
     0
 42
0.000000001
 43
0.00000001
 40
0.0
 40
0.0
 40
0.0
 40
0.0
 40
0.0759644026221998
 40
0.1481252239748712
 40
0.2172006111446031
 40
0.2832999093723612
 40
0.347201868136241
 40
0.4092995407059241
 40
0.4704256161074027
 40
0.5315880640528347
 40
0.5917391729173698
 40
0.6502577442905727
 40
0.7073030399522857
 40
0.7642084640229153
 40
0.8211475320101305
 40
0.8791188121552541
 40
0.9384228183936666
 40
1.0
 40
1.0
 40
1.0
 40
1.0
 10
196.6235405438043
 20
122.5338323370921
 30
0.0
 10
196.6239845857878
 20
122.5041688965371
 30
0.0
 10
196.6248504363175
 20
122.446327280933
 30
0.0
 10
196.6347562350341
 20
122.3619972812616
 30
0.0
 10
196.6497867024899
 20
122.2824276320228
 30
0.0
 10
196.6705046152892
 20
122.2073949620825
 30
0.0
 10
196.6983545636615
 20
122.1376413334621
 30
0.0
 10
196.7316527828728
 20
122.07249648157
 30
0.0
 10
196.7715204317874
 20
122.0123934522037
 30
0.0
 10
196.817077911276
 20
121.9575003772786
 30
0.0
 10
196.8671859160148
 20
121.908188552
 30
0.0
 10
196.9207314042839
 20
121.8651172957745
 30
0.0
 10
196.977726412844
 20
121.8290481653268
 30
0.0
 10
197.0375390506456
 20
121.7992653982656
 30
0.0
 10
197.1005989239214
 20
121.7760172328539
 30
0.0
 10
197.1667171677034
 20
121.7596929568343
 30
0.0
 10
197.235942361941
 20
121.7494834473239
 30
0.0
 10
197.2831454075167
 20
121.7482994570194
 30
0.0
 10
197.3071907578447
 20
121.7476963293756
 30
0.0
  0
SPLINE
  5
1DF
330
1F
100
AcDbEntity
  8
0
  6
SLD-SOLID
 62
     7
100
AcDbSpline
210
0.0
220
0.0
230
1.0
 70
     8
 71
     3
 72
    23
 73
    19
 74
     0
 42
0.000000001
 43
0.00000001
 40
0.0
 40
0.0
 40
0.0
 40
0.0
 40
0.0559431333569187
 40
0.1103820356898407
 40
0.1640478588828499
 40
0.2167594775435861
 40
0.2696011346144475
 40
0.3230085051908687
 40
0.3775814436721363
 40
0.4334493367080539
 40
0.490921858049893
 40
0.5506247708713257
 40
0.6131168723098183
 40
0.6798607463518506
 40
0.7513577440202002
 40
0.8282611012589941
 40
0.9107950320656293
 40
1.0
 40
1.0
 40
1.0
 40
1.0
 10
197.311306653173
 20
123.3808835956683
 30
0.0
 10
197.2882207333562
 20
123.3804251184102
 30
0.0
 10
197.2426696411625
 20
123.3795204916931
 30
0.0
 10
197.1756130108059
 20
123.3694641611629
 30
0.0
 10
197.1109631485693
 20
123.3544386293143
 30
0.0
 10
197.0486197247711
 20
123.3334321351561
 30
0.0
 10
196.9891159531378
 20
123.3056162355642
 30
0.0
 10
196.9321435497006
 20
123.2715038414612
 30
0.0
 10
196.877196800895
 20
123.2320237794557
 30
0.0
 10
196.8251421386074
 20
123.1862141267847
 30
0.0
 10
196.7766158074233
 20
123.1335900184901
 30
0.0
 10
196.7355916626957
 20
123.0715478073807
 30
0.0
 10
196.7010153927045
 20
123.0015685713127
 30
0.0
 10
196.6721448442035
 20
122.9238296913976
 30
0.0
 10
196.6501319011871
 20
122.8377291313899
 30
0.0
 10
196.6349182041507
 20
122.7436374224283
 30
0.0
 10
196.6253125862426
 20
122.6414554150169
 30
0.0
 10
196.6241463253883
 20
122.5706238253826
 30
0.0
 10
196.6235405438043
 20
122.5338323370921
 30
0.0
  0
LINE
  5
1E0
330
1F
100
AcDbEntity
  8
0
  6
SLD-SOLID
 62
     7
100
AcDbLine
 10
197.1861833483
 20
120.1935342701
 30
0.0
 11
196.7947617415
 21
120.1935342701
 31
0.0
  0
SPLINE
  5
1E1
330
1F
100
AcDbEntity
  8
0
  6
SLD-SOLID
 62
     7
100
AcDbSpline
210
0.0
220
0.0
230
1.0
 70
     8
 71
     3
 72
    23
 73
    19
 74
     0
 42
0.000000001
 43
0.00000001
 40
0.0
 40
0.0
 40
0.0
 40
0.0
 40
0.076010519206233
 40
0.1481357362434484
 40
0.217788177833154
 40
0.2867678984972347
 40
0.354043463243919
 40
0.4186108400234795
 40
0.4836364388553446
 40
0.5502295626461517
 40
0.5869278113138156
 40
0.629157825026966
 40
0.6772382242876698
 40
0.7300426397437305
 40
0.7888625661169237
 40
0.8537504514610939
 40
0.9241097665384562
 40
1.0
 40
1.0
 40
1.0
 40
1.0
 10
197.6640388828134
 20
119.8724944177753
 30
0.0
 10
197.6635069684064
 20
119.889405039938
 30
0.0
 10
197.6624703285687
 20
119.9223618923654
 30
0.0
 10
197.6537686639903
 20
119.9702209561453
 30
0.0
 10
197.638710754896
 20
120.0147450267195
 30
0.0
 10
197.6183182224969
 20
120.0559243370954
 30
0.0
 10
197.5924958581167
 20
120.092559248113
 30
0.0
 10
197.561675965471
 20
120.1240566962178
 30
0.0
 10
197.524755909497
 20
120.14786738022
 30
0.0
 10
197.4902467160814
 20
120.1627205339646
 30
0.0
 10
197.459208431577
 20
120.1720125830306
 30
0.0
 10
197.4314768144598
 20
120.1775103059746
 30
0.0
 10
197.4000208893446
 20
120.1823543466384
 30
0.0
 10
197.3647371433851
 20
120.186472588941
 30
0.0
 10
197.3256122297421
 20
120.1896687244022
 30
0.0
 10
197.282525597735
 20
120.1922078422185
 30
0.0
 10
197.2355798122444
 20
120.19328589
 30
0.0
 10
197.2030588572922
 20
120.1934494043104
 30
0.0
 10
197.1861834351909
 20
120.1935342533873
 30
0.0
  0
SPLINE
  5
1E2
330
1F
100
AcDbEntity
  8
0
  6
SLD-SOLID
 62
     7
100
AcDbSpline
210
0.0
220
0.0
230
1.0
 70
     8
 71
     3
 72
    15
 73
    11
 74
     0
 42
0.000000001
 43
0.00000001
 40
0.0
 40
0.0
 40
0.0
 40
0.0
 40
0.1323768784386573
 40
0.2551949197670691
 40
0.3737221416536696
 40
0.4900113154474174
 40
0.6078124214239351
 40
0.7311098159015436
 40
0.8599973777575846
 40
1.0
 40
1.0
 40
1.0
 40
1.0
 10
197.4652411384536
 20
119.5856165133887
 30
0.0
 10
197.4809753818827
 20
119.5911282200945
 30
0.0
 10
197.5113077105856
 20
119.6017536372153
 30
0.0
 10
197.5519558683092
 20
119.6258850277139
 30
0.0
 10
197.5865762836908
 20
119.6548425785397
 30
0.0
 10
197.615076181609
 20
119.6891376087872
 30
0.0
 10
197.6369769409655
 20
119.7285865857435
 30
0.0
 10
197.6532157218503
 20
119.7723714334346
 30
0.0
 10
197.6621068146958
 20
119.8211042234991
 30
0.0
 10
197.6633773534379
 20
119.854898701136
 30
0.0
 10
197.6640388828134
 20
119.8724944177753
 30
0.0
  0
SPLINE
  5
1E3
330
1F
100
AcDbEntity
  8
0
  6
SLD-SOLID
 62
     7
100
AcDbSpline
210
0.0
220
0.0
230
1.0
 70
     8
 71
     3
 72
    15
 73
    11
 74
     0
 42
0.000000001
 43
0.00000001
 40
0.0
 40
0.0
 40
0.0
 40
0.0
 40
0.1669801744060296
 40
0.3208066328848166
 40
0.4631345048703177
 40
0.5942480539785205
 40
0.7123671525397438
 40
0.8194549510427516
 40
0.915752266581354
 40
1.0
 40
1.0
 40
1.0
 40
1.0
 10
197.2182874187521
 20
119.5613327309514
 30
0.0
 10
197.2321462318754
 20
119.5613875616524
 30
0.0
 10
197.2587721423444
 20
119.5614929038142
 30
0.0
 10
197.29717938384
 20
119.5629616878997
 30
0.0
 10
197.3326274267565
 20
119.5642147710232
 30
0.0
 10
197.3649791533259
 20
119.5673599128368
 30
0.0
 10
197.394394836616
 20
119.5704404395292
 30
0.0
 10
197.4207567586317
 20
119.5745873086536
 30
0.0
 10
197.4441940415155
 20
119.5792598895988
 30
0.0
 10
197.4585446937992
 20
119.5835940596735
 30
0.0
 10
197.4652411384536
 20
119.5856165133887
 30
0.0
  0
LINE
  5
1E4
330
1F
100
AcDbEntity
  8
0
  6
SLD-SOLID
 62
     7
100
AcDbLine
 10
196.7947617415
 20
119.5613327741
 30
0.0
 11
197.2182874344
 21
119.5613327741
 31
0.0
  0
LINE
  5
1E5
330
1F
100
AcDbEntity
  8
0
  6
SLD-SOLID
 62
     7
100
AcDbLine
 10
196.7947617415
 20
120.1935342701
 30
0.0
 11
196.7947617415
 21
119.5613327741
 31
0.0
  0
LINE
  5
1E6
330
1F
100
AcDbEntity
  8
0
  6
SLD-SOLID
 62
     7
100
AcDbLine
 10
197.2475102413
 20
119.3242571621
 30
0.0
 11
196.7947617415
 21
119.3242571621
 31
0.0
  0
SPLINE
  5
1E7
330
1F
100
AcDbEntity
  8
0
  6
SLD-SOLID
 62
     7
100
AcDbSpline
210
0.0
220
0.0
230
1.0
 70
     8
 71
     3
 72
    19
 73
    15
 74
     0
 42
0.000000001
 43
0.00000001
 40
0.0
 40
0.0
 40
0.0
 40
0.0
 40
0.0889709576989545
 40
0.1722707767733135
 40
0.25031203046371
 40
0.3246551996215518
 40
0.397844450180295
 40
0.4733008807185327
 40
0.5518258887444478
 40
0.6347494834982528
 40
0.7217660118923857
 40
0.8103926655611193
 40
0.9031752367994195
 40
1.0
 40
1.0
 40
1.0
 40
1.0
 10
197.4565977582641
 20
118.6229085960856
 30
0.0
 10
197.4709396957234
 20
118.6259231260148
 30
0.0
 10
197.4987093946279
 20
118.6317600353383
 30
0.0
 10
197.5378580071377
 20
118.6447874080064
 30
0.0
 10
197.5737523355436
 20
118.6597109577168
 30
0.0
 10
197.6057658985783
 20
118.6786771314695
 30
0.0
 10
197.6354096898668
 20
118.7005343474935
 30
0.0
 10
197.6611723507588
 20
118.7278350562994
 30
0.0
 10
197.6849009843399
 20
118.7588532840379
 30
0.0
 10
197.7054597562536
 20
118.7943501173004
 30
0.0
 10
197.7220845085616
 20
118.8336190724241
 30
0.0
 10
197.7347905223156
 20
118.8760534163848
 30
0.0
 10
197.7415586707199
 20
118.9215043654126
 30
0.0
 10
197.7425551907967
 20
118.952708910253
 30
0.0
 10
197.7430640731179
 20
118.9686438036678
 30
0.0
  0
SPLINE
  5
1E8
330
1F
100
AcDbEntity
  8
0
  6
SLD-SOLID
 62
     7
100
AcDbSpline
210
0.0
220
0.0
230
1.0
 70
     8
 71
     3
 72
    11
 73
     7
 74
     0
 42
0.000000001
 43
0.00000001
 40
0.0
 40
0.0
 40
0.0
 40
0.0
 40
0.3293954641291822
 40
0.6051903468527992
 40
0.827886578694735
 40
0.9999999999999999
 40
0.9999999999999999
 40
0.9999999999999999
 40
0.9999999999999999
 10
197.2808490277432
 20
118.6130304472976
 30
0.0
 10
197.3001941784694
 20
118.6132526956953
 30
0.0
 10
197.3357365576242
 20
118.6136610273196
 30
0.0
 10
197.3843515883582
 20
118.6149419834978
 30
0.0
 10
197.4236475634089
 20
118.6180708802728
 30
0.0
 10
197.4465943362395
 20
118.6214399033169
 30
0.0
 10
197.4565977582641
 20
118.6229085960856
 30
0.0
  0
LINE
  5
1E9
330
1F
100
AcDbEntity
  8
0
  6
SLD-SOLID
 62
     7
100
AcDbLine
 10
196.7947617415
 20
118.6130305591
 30
0.0
 11
197.2808490283
 21
118.6130305591
 31
0.0
  0
LINE
  5
1EA
330
1F
100
AcDbEntity
  8
0
  6
SLD-SOLID
 62
     7
100
AcDbLine
 10
196.7947617415
 20
119.3242571621
 30
0.0
 11
196.7947617415
 21
118.6130305591
 31
0.0
  0
SPLINE
  5
1EB
330
1F
100
AcDbEntity
  8
0
  6
SLD-SOLID
 62
     7
100
AcDbSpline
210
0.0
220
0.0
230
1.0
 70
     8
 71
     3
 72
    19
 73
    15
 74
     0
 42
0.000000001
 43
0.00000001
 40
0.0
 40
0.0
 40
0.0
 40
0.0
 40
0.0801399024652516
 40
0.1562809906190949
 40
0.2294060490129023
 40
0.3017986969723054
 40
0.372742862769578
 40
0.4426676099026293
 40
0.5133209646126974
 40
0.5865476923632087
 40
0.6683225082295051
 40
0.7636766255259048
 40
0.8740807567185478
 40
1.0
 40
1.0
 40
1.0
 40
1.0
 10
197.7430640731179
 20
118.9686438036678
 30
0.0
 10
197.7424971228772
 20
118.9873523234404
 30
0.0
 10
197.7413915120327
 20
119.0238358467931
 30
0.0
 10
197.7308823018063
 20
119.0765563865289
 30
0.0
 10
197.7135228063591
 20
119.1254553426253
 30
0.0
 10
197.6890856950469
 20
119.1698555136763
 30
0.0
 10
197.6591123024114
 20
119.2097896448296
 30
0.0
 10
197.62284752392
 20
119.2436646812343
 30
0.0
 10
197.5805625250268
 20
119.2705461979002
 30
0.0
 10
197.5321273466365
 20
119.2916429859384
 30
0.0
 10
197.4755163252131
 20
119.3066529872783
 30
0.0
 10
197.4091665429015
 20
119.3168363640056
 30
0.0
 10
197.3320167141677
 20
119.3234074529142
 30
0.0
 10
197.2768855789778
 20
119.3239617931408
 30
0.0
 10
197.2475102755835
 20
119.324257160038
 30
0.0
  0
LINE
  5
1EC
330
1F
100
AcDbEntity
  8
0
  6
SLD-SOLID
 62
     7
100
AcDbLine
 10
230.9648277917
 20
193.6715061305
 30
0.0
 11
230.9648277917
 21
193.4674041025
 31
0.0
  0
LINE
  5
1ED
330
1F
100
AcDbEntity
  8
0
  6
SLD-SOLID
 62
     7
100
AcDbLine
 10
248.7456729813
 20
162.6667395164
 30
0.0
 11
248.9224209454
 21
162.5646719162
 31
0.0
  0
LINE
  5
1EE
330
1F
100
AcDbEntity
  8
0
  6
SLD-SOLID
 62
     7
100
AcDbLine
 10
244.358100113
 20
209.9951108578
 30
0.0
 11
236.2263721293
 21
205.3007642148
 31
0.0
  0
LINE
  5
1EF
330
1F
100
AcDbEntity
  8
0
  6
SLD-SOLID
 62
     7
100
AcDbLine
 10
261.6243079383
 20
161.3054820059
 30
0.0
 11
269.7560359219
 21
165.9998286489
 31
0.0
  0
LINE
  5
1F0
330
1F
100
AcDbEntity
  8
0
  6
SLD-SOLID
 62
     7
100
AcDbLine
 10
275.0175802596
 20
177.6290867332
 30
0.0
 11
275.0175802596
 21
177.8331887611
 31
0.0
  0
LINE
  5
1F1
330
1F
100
AcDbEntity
  8
0
  6
SLD-SOLID
 62
     7
100
AcDbLine
 10
257.2367350699
 20
208.6338533473
 30
0.0
 11
257.0599871058
 21
208.7359209475
 31
0.0
  0
POLYLINE
  5
1F2
330
1F
100
AcDbEntity
  8
0
  6
SLD-SOLID
 62
     7
100
AcDb2dPolyline
 66
     1
 10
0.0
 20
0.0
 30
0.0
 70
   128
  0
VERTEX
  5
1F9
330
1F2
100
AcDbEntity
  8
0
  6
SLD-SOLID
 62
     7
100
AcDbVertex
100
AcDb2dVertex
 10
266.5322988853
 20
172.9347400902
 30
0.0
  0
VERTEX
  5
1FA
330
1F2
100
AcDbEntity
  8
0
  6
SLD-SOLID
 62
     7
100
AcDbVertex
100
AcDb2dVertex
 10
266.5192488432
 20
173.7288587126
 30
0.0
  0
VERTEX
  5
1FB
330
1F2
100
AcDbEntity
  8
0
  6
SLD-SOLID
 62
     7
100
AcDbVertex
100
AcDb2dVertex
 10
266.4801178696
 20
174.5368791143
 30
0.0
  0
VERTEX
  5
1FC
330
1F2
100
AcDbEntity
  8
0
  6
SLD-SOLID
 62
     7
100
AcDbVertex
100
AcDb2dVertex
 10
266.4149633945
 20
175.357615414
 30
0.0
  0
VERTEX
  5
1FD
330
1F2
100
AcDbEntity
  8
0
  6
SLD-SOLID
 62
     7
100
AcDbVertex
100
AcDb2dVertex
 10
266.3238810411
 20
176.189863068
 30
0.0
  0
VERTEX
  5
1FE
330
1F2
100
AcDbEntity
  8
0
  6
SLD-SOLID
 62
     7
100
AcDbVertex
100
AcDb2dVertex
 10
266.2070044855
 20
177.032400638
 30
0.0
  0
VERTEX
  5
1FF
330
1F2
100
AcDbEntity
  8
0
  6
SLD-SOLID
 62
     7
100
AcDbVertex
100
AcDb2dVertex
 10
266.0645052599
 20
177.8839915841
 30
0.0
  0
VERTEX
  5
200
330
1F2
100
AcDbEntity
  8
0
  6
SLD-SOLID
 62
     7
100
AcDbVertex
100
AcDb2dVertex
 10
265.8965925018
 20
178.743386079
 30
0.0
  0
VERTEX
  5
201
330
1F2
100
AcDbEntity
  8
0
  6
SLD-SOLID
 62
     7
100
AcDbVertex
100
AcDb2dVertex
 10
265.7035126461
 20
179.6093228429
 30
0.0
  0
VERTEX
  5
202
330
1F2
100
AcDbEntity
  8
0
  6
SLD-SOLID
 62
     7
100
AcDbVertex
100
AcDb2dVertex
 10
265.4855490643
 20
180.4805309941
 30
0.0
  0
VERTEX
  5
203
330
1F2
100
AcDbEntity
  8
0
  6
SLD-SOLID
 62
     7
100
AcDbVertex
100
AcDb2dVertex
 10
265.2430216479
 20
181.3557319146
 30
0.0
  0
VERTEX
  5
204
330
1F2
100
AcDbEntity
  8
0
  6
SLD-SOLID
 62
     7
100
AcDbVertex
100
AcDb2dVertex
 10
264.9762863395
 20
182.2336411262
 30
0.0
  0
VERTEX
  5
205
330
1F2
100
AcDbEntity
  8
0
  6
SLD-SOLID
 62
     7
100
AcDbVertex
100
AcDb2dVertex
 10
264.6857346097
 20
183.1129701762
 30
0.0
  0
VERTEX
  5
206
330
1F2
100
AcDbEntity
  8
0
  6
SLD-SOLID
 62
     7
100
AcDbVertex
100
AcDb2dVertex
 10
264.3717928834
 20
183.9924285278
 30
0.0
  0
VERTEX
  5
207
330
1F2
100
AcDbEntity
  8
0
  6
SLD-SOLID
 62
     7
100
AcDbVertex
100
AcDb2dVertex
 10
264.0349219133
 20
184.8707254549
 30
0.0
  0
VERTEX
  5
208
330
1F2
100
AcDbEntity
  8
0
  6
SLD-SOLID
 62
     7
100
AcDbVertex
100
AcDb2dVertex
 10
263.675616104
 20
185.7465719353
 30
0.0
  0
VERTEX
  5
209
330
1F2
100
AcDbEntity
  8
0
  6
SLD-SOLID
 62
     7
100
AcDbVertex
100
AcDb2dVertex
 10
263.2944027864
 20
186.6186825437
 30
0.0
  0
VERTEX
  5
20A
330
1F2
100
AcDbEntity
  8
0
  6
SLD-SOLID
 62
     7
100
AcDbVertex
100
AcDb2dVertex
 10
262.8918414435
 20
187.4857773375
 30
0.0
  0
VERTEX
  5
20B
330
1F2
100
AcDbEntity
  8
0
  6
SLD-SOLID
 62
     7
100
AcDbVertex
100
AcDb2dVertex
 10
262.4685228897
 20
188.3465837356
 30
0.0
  0
VERTEX
  5
20C
330
1F2
100
AcDbEntity
  8
0
  6
SLD-SOLID
 62
     7
100
AcDbVertex
100
AcDb2dVertex
 10
262.0250684033
 20
189.1998383857
 30
0.0
  0
VERTEX
  5
20D
330
1F2
100
AcDbEntity
  8
0
  6
SLD-SOLID
 62
     7
100
AcDbVertex
100
AcDb2dVertex
 10
261.5621288149
 20
190.044289019
 30
0.0
  0
VERTEX
  5
20E
330
1F2
100
AcDbEntity
  8
0
  6
SLD-SOLID
 62
     7
100
AcDbVertex
100
AcDb2dVertex
 10
261.0803835522
 20
190.8786962879
 30
0.0
  0
VERTEX
  5
20F
330
1F2
100
AcDbEntity
  8
0
  6
SLD-SOLID
 62
     7
100
AcDbVertex
100
AcDb2dVertex
 10
260.5805396428
 20
191.7018355846
 30
0.0
  0
VERTEX
  5
210
330
1F2
100
AcDbEntity
  8
0
  6
SLD-SOLID
 62
     7
100
AcDbVertex
100
AcDb2dVertex
 10
260.0633306765
 20
192.5124988385
 30
0.0
  0
VERTEX
  5
211
330
1F2
100
AcDbEntity
  8
0
  6
SLD-SOLID
 62
     7
100
AcDbVertex
100
AcDb2dVertex
 10
259.5295157289
 20
193.3094962897
 30
0.0
  0
VERTEX
  5
212
330
1F2
100
AcDbEntity
  8
0
  6
SLD-SOLID
 62
     7
100
AcDbVertex
100
AcDb2dVertex
 10
258.979878247
 20
194.0916582345
 30
0.0
  0
VERTEX
  5
213
330
1F2
100
AcDbEntity
  8
0
  6
SLD-SOLID
 62
     7
100
AcDbVertex
100
AcDb2dVertex
 10
258.4152248996
 20
194.8578367423
 30
0.0
  0
VERTEX
  5
214
330
1F2
100
AcDbEntity
  8
0
  6
SLD-SOLID
 62
     7
100
AcDbVertex
100
AcDb2dVertex
 10
257.8363843933
 20
195.6069073406
 30
0.0
  0
VERTEX
  5
215
330
1F2
100
AcDbEntity
  8
0
  6
SLD-SOLID
 62
     7
100
AcDbVertex
100
AcDb2dVertex
 10
257.2442062564
 20
196.3377706648
 30
0.0
  0
VERTEX
  5
216
330
1F2
100
AcDbEntity
  8
0
  6
SLD-SOLID
 62
     7
100
AcDbVertex
100
AcDb2dVertex
 10
256.639559592
 20
197.0493540725
 30
0.0
  0
VERTEX
  5
217
330
1F2
100
AcDbEntity
  8
0
  6
SLD-SOLID
 62
     7
100
AcDbVertex
100
AcDb2dVertex
 10
256.0233318025
 20
197.7406132166
 30
0.0
  0
VERTEX
  5
218
330
1F2
100
AcDbEntity
  8
0
  6
SLD-SOLID
 62
     7
100
AcDbVertex
100
AcDb2dVertex
 10
255.396427287
 20
198.4105335792
 30
0.0
  0
VERTEX
  5
219
330
1F2
100
AcDbEntity
  8
0
  6
SLD-SOLID
 62
     7
100
AcDbVertex
100
AcDb2dVertex
 10
254.7597661145
 20
199.0581319597
 30
0.0
  0
VERTEX
  5
21A
330
1F2
100
AcDbEntity
  8
0
  6
SLD-SOLID
 62
     7
100
AcDbVertex
100
AcDb2dVertex
 10
254.114282673
 20
199.6824579181
 30
0.0
  0
VERTEX
  5
21B
330
1F2
100
AcDbEntity
  8
0
  6
SLD-SOLID
 62
     7
100
AcDbVertex
100
AcDb2dVertex
 10
253.4609242984
 20
200.2825951702
 30
0.0
  0
VERTEX
  5
21C
330
1F2
100
AcDbEntity
  8
0
  6
SLD-SOLID
 62
     7
100
AcDbVertex
100
AcDb2dVertex
 10
252.8006498843
 20
200.8576629316
 30
0.0
  0
VERTEX
  5
21D
330
1F2
100
AcDbEntity
  8
0
  6
SLD-SOLID
 62
     7
100
AcDbVertex
100
AcDb2dVertex
 10
252.1344284744
 20
201.4068172111
 30
0.0
  0
VERTEX
  5
21E
330
1F2
100
AcDbEntity
  8
0
  6
SLD-SOLID
 62
     7
100
AcDbVertex
100
AcDb2dVertex
 10
251.4632378405
 20
201.9292520491
 30
0.0
  0
VERTEX
  5
21F
330
1F2
100
AcDbEntity
  8
0
  6
SLD-SOLID
 62
     7
100
AcDbVertex
100
AcDb2dVertex
 10
250.7880630474
 20
202.4242007005
 30
0.0
  0
VERTEX
  5
220
330
1F2
100
AcDbEntity
  8
0
  6
SLD-SOLID
 62
     7
100
AcDbVertex
100
AcDb2dVertex
 10
250.1098950073
 20
202.8909367598
 30
0.0
  0
VERTEX
  5
221
330
1F2
100
AcDbEntity
  8
0
  6
SLD-SOLID
 62
     7
100
AcDbVertex
100
AcDb2dVertex
 10
249.4297290252
 20
203.3287752275
 30
0.0
  0
VERTEX
  5
222
330
1F2
100
AcDbEntity
  8
0
  6
SLD-SOLID
 62
     7
100
AcDbVertex
100
AcDb2dVertex
 10
248.7485633385
 20
203.7370735153
 30
0.0
  0
VERTEX
  5
223
330
1F2
100
AcDbEntity
  8
0
  6
SLD-SOLID
 62
     7
100
AcDbVertex
100
AcDb2dVertex
 10
248.0673976518
 20
204.1152323891
 30
0.0
  0
VERTEX
  5
224
330
1F2
100
AcDbEntity
  8
0
  6
SLD-SOLID
 62
     7
100
AcDbVertex
100
AcDb2dVertex
 10
247.3872316697
 20
204.4626968487
 30
0.0
  0
VERTEX
  5
225
330
1F2
100
AcDbEntity
  8
0
  6
SLD-SOLID
 62
     7
100
AcDbVertex
100
AcDb2dVertex
 10
246.7090636296
 20
204.778956942
 30
0.0
  0
VERTEX
  5
226
330
1F2
100
AcDbEntity
  8
0
  6
SLD-SOLID
 62
     7
100
AcDbVertex
100
AcDb2dVertex
 10
246.0338888365
 20
205.0635485137
 30
0.0
  0
VERTEX
  5
227
330
1F2
100
AcDbEntity
  8
0
  6
SLD-SOLID
 62
     7
100
AcDbVertex
100
AcDb2dVertex
 10
245.3626982026
 20
205.3160538865
 30
0.0
  0
VERTEX
  5
228
330
1F2
100
AcDbEntity
  8
0
  6
SLD-SOLID
 62
     7
100
AcDbVertex
100
AcDb2dVertex
 10
244.6964767927
 20
205.5361024739
 30
0.0
  0
VERTEX
  5
229
330
1F2
100
AcDbEntity
  8
0
  6
SLD-SOLID
 62
     7
100
AcDbVertex
100
AcDb2dVertex
 10
244.0362023786
 20
205.7233713242
 30
0.0
  0
VERTEX
  5
22A
330
1F2
100
AcDbEntity
  8
0
  6
SLD-SOLID
 62
     7
100
AcDbVertex
100
AcDb2dVertex
 10
243.382844004
 20
205.8775855947
 30
0.0
  0
VERTEX
  5
22B
330
1F2
100
AcDbEntity
  8
0
  6
SLD-SOLID
 62
     7
100
AcDbVertex
100
AcDb2dVertex
 10
242.7373605625
 20
205.9985189545
 30
0.0
  0
VERTEX
  5
22C
330
1F2
100
AcDbEntity
  8
0
  6
SLD-SOLID
 62
     7
100
AcDbVertex
100
AcDb2dVertex
 10
242.10069939
 20
206.0859939174
 30
0.0
  0
VERTEX
  5
22D
330
1F2
100
AcDbEntity
  8
0
  6
SLD-SOLID
 62
     7
100
AcDbVertex
100
AcDb2dVertex
 10
241.4737948745
 20
206.1398821016
 30
0.0
  0
VERTEX
  5
22E
330
1F2
100
AcDbEntity
  8
0
  6
SLD-SOLID
 62
     7
100
AcDbVertex
100
AcDb2dVertex
 10
240.857567085
 20
206.160104419
 30
0.0
  0
VERTEX
  5
22F
330
1F2
100
AcDbEntity
  8
0
  6
SLD-SOLID
 62
     7
100
AcDbVertex
100
AcDb2dVertex
 10
240.2529204206
 20
206.1466311904
 30
0.0
  0
VERTEX
  5
230
330
1F2
100
AcDbEntity
  8
0
  6
SLD-SOLID
 62
     7
100
AcDbVertex
100
AcDb2dVertex
 10
239.6607422837
 20
206.0994821897
 30
0.0
  0
VERTEX
  5
231
330
1F2
100
AcDbEntity
  8
0
  6
SLD-SOLID
 62
     7
100
AcDbVertex
100
AcDb2dVertex
 10
239.0819017774
 20
206.0187266145
 30
0.0
  0
VERTEX
  5
232
330
1F2
100
AcDbEntity
  8
0
  6
SLD-SOLID
 62
     7
100
AcDbVertex
100
AcDb2dVertex
 10
238.51724843
 20
205.9044829848
 30
0.0
  0
VERTEX
  5
233
330
1F2
100
AcDbEntity
  8
0
  6
SLD-SOLID
 62
     7
100
AcDbVertex
100
AcDb2dVertex
 10
237.9676109481
 20
205.7569189689
 30
0.0
  0
VERTEX
  5
234
330
1F2
100
AcDbEntity
  8
0
  6
SLD-SOLID
 62
     7
100
AcDbVertex
100
AcDb2dVertex
 10
237.4337960005
 20
205.5762511372
 30
0.0
  0
VERTEX
  5
235
330
1F2
100
AcDbEntity
  8
0
  6
SLD-SOLID
 62
     7
100
AcDbVertex
100
AcDb2dVertex
 10
236.9165870342
 20
205.3627446448
 30
0.0
  0
VERTEX
  5
236
330
1F2
100
AcDbEntity
  8
0
  6
SLD-SOLID
 62
     7
100
AcDbVertex
100
AcDb2dVertex
 10
236.4167431248
 20
205.1167128419
 30
0.0
  0
VERTEX
  5
237
330
1F2
100
AcDbEntity
  8
0
  6
SLD-SOLID
 62
     7
100
AcDbVertex
100
AcDb2dVertex
 10
235.9349978621
 20
204.8385168141
 30
0.0
  0
VERTEX
  5
238
330
1F2
100
AcDbEntity
  8
0
  6
SLD-SOLID
 62
     7
100
AcDbVertex
100
AcDb2dVertex
 10
235.4720582737
 20
204.5285648524
 30
0.0
  0
VERTEX
  5
239
330
1F2
100
AcDbEntity
  8
0
  6
SLD-SOLID
 62
     7
100
AcDbVertex
100
AcDb2dVertex
 10
235.0286037873
 20
204.187311854
 30
0.0
  0
VERTEX
  5
23A
330
1F2
100
AcDbEntity
  8
0
  6
SLD-SOLID
 62
     7
100
AcDbVertex
100
AcDb2dVertex
 10
234.6052852335
 20
203.8152586548
 30
0.0
  0
VERTEX
  5
23B
330
1F2
100
AcDbEntity
  8
0
  6
SLD-SOLID
 62
     7
100
AcDbVertex
100
AcDb2dVertex
 10
234.2027238906
 20
203.4129512942
 30
0.0
  0
VERTEX
  5
23C
330
1F2
100
AcDbEntity
  8
0
  6
SLD-SOLID
 62
     7
100
AcDbVertex
100
AcDb2dVertex
 10
233.821510573
 20
202.9809802137
 30
0.0
  0
VERTEX
  5
23D
330
1F2
100
AcDbEntity
  8
0
  6
SLD-SOLID
 62
     7
100
AcDbVertex
100
AcDb2dVertex
 10
233.4622047637
 20
202.5199793903
 30
0.0
  0
VERTEX
  5
23E
330
1F2
100
AcDbEntity
  8
0
  6
SLD-SOLID
 62
     7
100
AcDbVertex
100
AcDb2dVertex
 10
233.1253337936
 20
202.0306254065
 30
0.0
  0
VERTEX
  5
23F
330
1F2
100
AcDbEntity
  8
0
  6
SLD-SOLID
 62
     7
100
AcDbVertex
100
AcDb2dVertex
 10
232.8113920673
 20
201.5136364567
 30
0.0
  0
VERTEX
  5
240
330
1F2
100
AcDbEntity
  8
0
  6
SLD-SOLID
 62
     7
100
AcDbVertex
100
AcDb2dVertex
 10
232.5208403375
 20
200.9697712933
 30
0.0
  0
VERTEX
  5
241
330
1F2
100
AcDbEntity
  8
0
  6
SLD-SOLID
 62
     7
100
AcDbVertex
100
AcDb2dVertex
 10
232.2541050291
 20
200.3998281137
 30
0.0
  0
VERTEX
  5
242
330
1F2
100
AcDbEntity
  8
0
  6
SLD-SOLID
 62
     7
100
AcDbVertex
100
AcDb2dVertex
 10
232.0115776127
 20
199.8046433879
 30
0.0
  0
VERTEX
  5
243
330
1F2
100
AcDbEntity
  8
0
  6
SLD-SOLID
 62
     7
100
AcDbVertex
100
AcDb2dVertex
 10
231.7936140309
 20
199.1850906316
 30
0.0
  0
VERTEX
  5
244
330
1F2
100
AcDbEntity
  8
0
  6
SLD-SOLID
 62
     7
100
AcDbVertex
100
AcDb2dVertex
 10
231.6005341752
 20
198.5420791239
 30
0.0
  0
VERTEX
  5
245
330
1F2
100
AcDbEntity
  8
0
  6
SLD-SOLID
 62
     7
100
AcDbVertex
100
AcDb2dVertex
 10
231.4326214171
 20
197.8765525729
 30
0.0
  0
VERTEX
  5
246
330
1F2
100
AcDbEntity
  8
0
  6
SLD-SOLID
 62
     7
100
AcDbVertex
100
AcDb2dVertex
 10
231.2901221915
 20
197.1894877306
 30
0.0
  0
VERTEX
  5
247
330
1F2
100
AcDbEntity
  8
0
  6
SLD-SOLID
 62
     7
100
AcDbVertex
100
AcDb2dVertex
 10
231.1732456359
 20
196.4818929594
 30
0.0
  0
VERTEX
  5
248
330
1F2
100
AcDbEntity
  8
0
  6
SLD-SOLID
 62
     7
100
AcDbVertex
100
AcDb2dVertex
 10
231.0821632825
 20
195.7548067522
 30
0.0
  0
VERTEX
  5
249
330
1F2
100
AcDbEntity
  8
0
  6
SLD-SOLID
 62
     7
100
AcDbVertex
100
AcDb2dVertex
 10
231.0170088074
 20
195.0092962082
 30
0.0
  0
VERTEX
  5
24A
330
1F2
100
AcDbEntity
  8
0
  6
SLD-SOLID
 62
     7
100
AcDbVertex
100
AcDb2dVertex
 10
230.9778778338
 20
194.246455467
 30
0.0
  0
VERTEX
  5
24B
330
1F2
100
AcDbEntity
  8
0
  6
SLD-SOLID
 62
     7
100
AcDbVertex
100
AcDb2dVertex
 10
230.9648277917
 20
193.4674041025
 30
0.0
  0
VERTEX
  5
24C
330
1F2
100
AcDbEntity
  8
0
  6
SLD-SOLID
 62
     7
100
AcDbVertex
100
AcDb2dVertex
 10
230.9778778338
 20
192.6732854802
 30
0.0
  0
VERTEX
  5
24D
330
1F2
100
AcDbEntity
  8
0
  6
SLD-SOLID
 62
     7
100
AcDbVertex
100
AcDb2dVertex
 10
231.0170088074
 20
191.8652650785
 30
0.0
  0
VERTEX
  5
24E
330
1F2
100
AcDbEntity
  8
0
  6
SLD-SOLID
 62
     7
100
AcDbVertex
100
AcDb2dVertex
 10
231.0821632825
 20
191.0445287788
 30
0.0
  0
VERTEX
  5
24F
330
1F2
100
AcDbEntity
  8
0
  6
SLD-SOLID
 62
     7
100
AcDbVertex
100
AcDb2dVertex
 10
231.1732456359
 20
190.2122811248
 30
0.0
  0
VERTEX
  5
250
330
1F2
100
AcDbEntity
  8
0
  6
SLD-SOLID
 62
     7
100
AcDbVertex
100
AcDb2dVertex
 10
231.2901221915
 20
189.3697435547
 30
0.0
  0
VERTEX
  5
251
330
1F2
100
AcDbEntity
  8
0
  6
SLD-SOLID
 62
     7
100
AcDbVertex
100
AcDb2dVertex
 10
231.4326214171
 20
188.5181526086
 30
0.0
  0
VERTEX
  5
252
330
1F2
100
AcDbEntity
  8
0
  6
SLD-SOLID
 62
     7
100
AcDbVertex
100
AcDb2dVertex
 10
231.6005341752
 20
187.6587581137
 30
0.0
  0
VERTEX
  5
253
330
1F2
100
AcDbEntity
  8
0
  6
SLD-SOLID
 62
     7
100
AcDbVertex
100
AcDb2dVertex
 10
231.7936140309
 20
186.7928213498
 30
0.0
  0
VERTEX
  5
254
330
1F2
100
AcDbEntity
  8
0
  6
SLD-SOLID
 62
     7
100
AcDbVertex
100
AcDb2dVertex
 10
232.0115776127
 20
185.9216131986
 30
0.0
  0
VERTEX
  5
255
330
1F2
100
AcDbEntity
  8
0
  6
SLD-SOLID
 62
     7
100
AcDbVertex
100
AcDb2dVertex
 10
232.2541050291
 20
185.0464122782
 30
0.0
  0
VERTEX
  5
256
330
1F2
100
AcDbEntity
  8
0
  6
SLD-SOLID
 62
     7
100
AcDbVertex
100
AcDb2dVertex
 10
232.5208403375
 20
184.1685030666
 30
0.0
  0
VERTEX
  5
257
330
1F2
100
AcDbEntity
  8
0
  6
SLD-SOLID
 62
     7
100
AcDbVertex
100
AcDb2dVertex
 10
232.8113920673
 20
183.2891740166
 30
0.0
  0
VERTEX
  5
258
330
1F2
100
AcDbEntity
  8
0
  6
SLD-SOLID
 62
     7
100
AcDbVertex
100
AcDb2dVertex
 10
233.1253337936
 20
182.4097156649
 30
0.0
  0
VERTEX
  5
259
330
1F2
100
AcDbEntity
  8
0
  6
SLD-SOLID
 62
     7
100
AcDbVertex
100
AcDb2dVertex
 10
233.4622047637
 20
181.5314187379
 30
0.0
  0
VERTEX
  5
25A
330
1F2
100
AcDbEntity
  8
0
  6
SLD-SOLID
 62
     7
100
AcDbVertex
100
AcDb2dVertex
 10
233.821510573
 20
180.6555722574
 30
0.0
  0
VERTEX
  5
25B
330
1F2
100
AcDbEntity
  8
0
  6
SLD-SOLID
 62
     7
100
AcDbVertex
100
AcDb2dVertex
 10
234.2027238906
 20
179.783461649
 30
0.0
  0
VERTEX
  5
25C
330
1F2
100
AcDbEntity
  8
0
  6
SLD-SOLID
 62
     7
100
AcDbVertex
100
AcDb2dVertex
 10
234.6052852335
 20
178.9163668552
 30
0.0
  0
VERTEX
  5
25D
330
1F2
100
AcDbEntity
  8
0
  6
SLD-SOLID
 62
     7
100
AcDbVertex
100
AcDb2dVertex
 10
235.0286037873
 20
178.0555604572
 30
0.0
  0
VERTEX
  5
25E
330
1F2
100
AcDbEntity
  8
0
  6
SLD-SOLID
 62
     7
100
AcDbVertex
100
AcDb2dVertex
 10
235.4720582737
 20
177.2023058071
 30
0.0
  0
VERTEX
  5
25F
330
1F2
100
AcDbEntity
  8
0
  6
SLD-SOLID
 62
     7
100
AcDbVertex
100
AcDb2dVertex
 10
235.9349978621
 20
176.3578551737
 30
0.0
  0
VERTEX
  5
260
330
1F2
100
AcDbEntity
  8
0
  6
SLD-SOLID
 62
     7
100
AcDbVertex
100
AcDb2dVertex
 10
236.4167431248
 20
175.5234479048
 30
0.0
  0
VERTEX
  5
261
330
1F2
100
AcDbEntity
  8
0
  6
SLD-SOLID
 62
     7
100
AcDbVertex
100
AcDb2dVertex
 10
236.9165870342
 20
174.7003086082
 30
0.0
  0
VERTEX
  5
262
330
1F2
100
AcDbEntity
  8
0
  6
SLD-SOLID
 62
     7
100
AcDbVertex
100
AcDb2dVertex
 10
237.4337960005
 20
173.8896453542
 30
0.0
  0
VERTEX
  5
263
330
1F2
100
AcDbEntity
  8
0
  6
SLD-SOLID
 62
     7
100
AcDbVertex
100
AcDb2dVertex
 10
237.9676109481
 20
173.092647903
 30
0.0
  0
VERTEX
  5
264
330
1F2
100
AcDbEntity
  8
0
  6
SLD-SOLID
 62
     7
100
AcDbVertex
100
AcDb2dVertex
 10
238.51724843
 20
172.3104859582
 30
0.0
  0
VERTEX
  5
265
330
1F2
100
AcDbEntity
  8
0
  6
SLD-SOLID
 62
     7
100
AcDbVertex
100
AcDb2dVertex
 10
239.0819017774
 20
171.5443074504
 30
0.0
  0
VERTEX
  5
266
330
1F2
100
AcDbEntity
  8
0
  6
SLD-SOLID
 62
     7
100
AcDbVertex
100
AcDb2dVertex
 10
239.6607422837
 20
170.7952368522
 30
0.0
  0
VERTEX
  5
267
330
1F2
100
AcDbEntity
  8
0
  6
SLD-SOLID
 62
     7
100
AcDbVertex
100
AcDb2dVertex
 10
240.2529204206
 20
170.0643735279
 30
0.0
  0
VERTEX
  5
268
330
1F2
100
AcDbEntity
  8
0
  6
SLD-SOLID
 62
     7
100
AcDbVertex
100
AcDb2dVertex
 10
240.857567085
 20
169.3527901203
 30
0.0
  0
VERTEX
  5
269
330
1F2
100
AcDbEntity
  8
0
  6
SLD-SOLID
 62
     7
100
AcDbVertex
100
AcDb2dVertex
 10
241.4737948745
 20
168.6615309761
 30
0.0
  0
VERTEX
  5
26A
330
1F2
100
AcDbEntity
  8
0
  6
SLD-SOLID
 62
     7
100
AcDbVertex
100
AcDb2dVertex
 10
242.10069939
 20
167.9916106136
 30
0.0
  0
VERTEX
  5
26B
330
1F2
100
AcDbEntity
  8
0
  6
SLD-SOLID
 62
     7
100
AcDbVertex
100
AcDb2dVertex
 10
242.7373605625
 20
167.3440122331
 30
0.0
  0
VERTEX
  5
26C
330
1F2
100
AcDbEntity
  8
0
  6
SLD-SOLID
 62
     7
100
AcDbVertex
100
AcDb2dVertex
 10
243.382844004
 20
166.7196862746
 30
0.0
  0
VERTEX
  5
26D
330
1F2
100
AcDbEntity
  8
0
  6
SLD-SOLID
 62
     7
100
AcDbVertex
100
AcDb2dVertex
 10
244.0362023786
 20
166.1195490226
 30
0.0
  0
VERTEX
  5
26E
330
1F2
100
AcDbEntity
  8
0
  6
SLD-SOLID
 62
     7
100
AcDbVertex
100
AcDb2dVertex
 10
244.6964767927
 20
165.5444812612
 30
0.0
  0
VERTEX
  5
26F
330
1F2
100
AcDbEntity
  8
0
  6
SLD-SOLID
 62
     7
100
AcDbVertex
100
AcDb2dVertex
 10
245.3626982026
 20
164.9953269817
 30
0.0
  0
VERTEX
  5
270
330
1F2
100
AcDbEntity
  8
0
  6
SLD-SOLID
 62
     7
100
AcDbVertex
100
AcDb2dVertex
 10
246.0338888365
 20
164.4728921436
 30
0.0
  0
VERTEX
  5
271
330
1F2
100
AcDbEntity
  8
0
  6
SLD-SOLID
 62
     7
100
AcDbVertex
100
AcDb2dVertex
 10
246.7090636296
 20
163.9779434922
 30
0.0
  0
VERTEX
  5
272
330
1F2
100
AcDbEntity
  8
0
  6
SLD-SOLID
 62
     7
100
AcDbVertex
100
AcDb2dVertex
 10
247.3872316697
 20
163.5112074329
 30
0.0
  0
VERTEX
  5
273
330
1F2
100
AcDbEntity
  8
0
  6
SLD-SOLID
 62
     7
100
AcDbVertex
100
AcDb2dVertex
 10
248.0673976518
 20
163.0733689652
 30
0.0
  0
VERTEX
  5
274
330
1F2
100
AcDbEntity
  8
0
  6
SLD-SOLID
 62
     7
100
AcDbVertex
100
AcDb2dVertex
 10
248.7485633385
 20
162.6650706774
 30
0.0
  0
VERTEX
  5
275
330
1F2
100
AcDbEntity
  8
0
  6
SLD-SOLID
 62
     7
100
AcDbVertex
100
AcDb2dVertex
 10
249.4297290252
 20
162.2869118036
 30
0.0
  0
VERTEX
  5
276
330
1F2
100
AcDbEntity
  8
0
  6
SLD-SOLID
 62
     7
100
AcDbVertex
100
AcDb2dVertex
 10
250.1098950073
 20
161.9394473441
 30
0.0
  0
VERTEX
  5
277
330
1F2
100
AcDbEntity
  8
0
  6
SLD-SOLID
 62
     7
100
AcDbVertex
100
AcDb2dVertex
 10
250.7880630474
 20
161.6231872508
 30
0.0
  0
VERTEX
  5
278
330
1F2
100
AcDbEntity
  8
0
  6
SLD-SOLID
 62
     7
100
AcDbVertex
100
AcDb2dVertex
 10
251.4632378405
 20
161.338595679
 30
0.0
  0
VERTEX
  5
279
330
1F2
100
AcDbEntity
  8
0
  6
SLD-SOLID
 62
     7
100
AcDbVertex
100
AcDb2dVertex
 10
252.1344284744
 20
161.0860903062
 30
0.0
  0
VERTEX
  5
27A
330
1F2
100
AcDbEntity
  8
0
  6
SLD-SOLID
 62
     7
100
AcDbVertex
100
AcDb2dVertex
 10
252.8006498843
 20
160.8660417188
 30
0.0
  0
VERTEX
  5
27B
330
1F2
100
AcDbEntity
  8
0
  6
SLD-SOLID
 62
     7
100
AcDbVertex
100
AcDb2dVertex
 10
253.4609242984
 20
160.6787728685
 30
0.0
  0
VERTEX
  5
27C
330
1F2
100
AcDbEntity
  8
0
  6
SLD-SOLID
 62
     7
100
AcDbVertex
100
AcDb2dVertex
 10
254.114282673
 20
160.5245585981
 30
0.0
  0
VERTEX
  5
27D
330
1F2
100
AcDbEntity
  8
0
  6
SLD-SOLID
 62
     7
100
AcDbVertex
100
AcDb2dVertex
 10
254.7597661145
 20
160.4036252382
 30
0.0
  0
VERTEX
  5
27E
330
1F2
100
AcDbEntity
  8
0
  6
SLD-SOLID
 62
     7
100
AcDbVertex
100
AcDb2dVertex
 10
255.396427287
 20
160.3161502754
 30
0.0
  0
VERTEX
  5
27F
330
1F2
100
AcDbEntity
  8
0
  6
SLD-SOLID
 62
     7
100
AcDbVertex
100
AcDb2dVertex
 10
256.0233318025
 20
160.2622620911
 30
0.0
  0
VERTEX
  5
280
330
1F2
100
AcDbEntity
  8
0
  6
SLD-SOLID
 62
     7
100
AcDbVertex
100
AcDb2dVertex
 10
256.639559592
 20
160.2420397738
 30
0.0
  0
VERTEX
  5
281
330
1F2
100
AcDbEntity
  8
0
  6
SLD-SOLID
 62
     7
100
AcDbVertex
100
AcDb2dVertex
 10
257.2442062564
 20
160.2555130023
 30
0.0
  0
VERTEX
  5
282
330
1F2
100
AcDbEntity
  8
0
  6
SLD-SOLID
 62
     7
100
AcDbVertex
100
AcDb2dVertex
 10
257.8363843933
 20
160.3026620031
 30
0.0
  0
VERTEX
  5
283
330
1F2
100
AcDbEntity
  8
0
  6
SLD-SOLID
 62
     7
100
AcDbVertex
100
AcDb2dVertex
 10
258.4152248996
 20
160.3834175782
 30
0.0
  0
VERTEX
  5
284
330
1F2
100
AcDbEntity
  8
0
  6
SLD-SOLID
 62
     7
100
AcDbVertex
100
AcDb2dVertex
 10
258.979878247
 20
160.4976612079
 30
0.0
  0
VERTEX
  5
285
330
1F2
100
AcDbEntity
  8
0
  6
SLD-SOLID
 62
     7
100
AcDbVertex
100
AcDb2dVertex
 10
259.5295157289
 20
160.6452252239
 30
0.0
  0
VERTEX
  5
286
330
1F2
100
AcDbEntity
  8
0
  6
SLD-SOLID
 62
     7
100
AcDbVertex
100
AcDb2dVertex
 10
260.0633306765
 20
160.8258930555
 30
0.0
  0
VERTEX
  5
287
330
1F2
100
AcDbEntity
  8
0
  6
SLD-SOLID
 62
     7
100
AcDbVertex
100
AcDb2dVertex
 10
260.5805396428
 20
161.0393995479
 30
0.0
  0
VERTEX
  5
288
330
1F2
100
AcDbEntity
  8
0
  6
SLD-SOLID
 62
     7
100
AcDbVertex
100
AcDb2dVertex
 10
261.0803835522
 20
161.2854313508
 30
0.0
  0
VERTEX
  5
289
330
1F2
100
AcDbEntity
  8
0
  6
SLD-SOLID
 62
     7
100
AcDbVertex
100
AcDb2dVertex
 10
261.5621288149
 20
161.5636273787
 30
0.0
  0
VERTEX
  5
28A
330
1F2
100
AcDbEntity
  8
0
  6
SLD-SOLID
 62
     7
100
AcDbVertex
100
AcDb2dVertex
 10
262.0250684033
 20
161.8735793404
 30
0.0
  0
VERTEX
  5
28B
330
1F2
100
AcDbEntity
  8
0
  6
SLD-SOLID
 62
     7
100
AcDbVertex
100
AcDb2dVertex
 10
262.4685228897
 20
162.2148323388
 30
0.0
  0
VERTEX
  5
28C
330
1F2
100
AcDbEntity
  8
0
  6
SLD-SOLID
 62
     7
100
AcDbVertex
100
AcDb2dVertex
 10
262.8918414435
 20
162.5868855379
 30
0.0
  0
VERTEX
  5
28D
330
1F2
100
AcDbEntity
  8
0
  6
SLD-SOLID
 62
     7
100
AcDbVertex
100
AcDb2dVertex
 10
263.2944027864
 20
162.9891928986
 30
0.0
  0
VERTEX
  5
28E
330
1F2
100
AcDbEntity
  8
0
  6
SLD-SOLID
 62
     7
100
AcDbVertex
100
AcDb2dVertex
 10
263.675616104
 20
163.4211639791
 30
0.0
  0
VERTEX
  5
28F
330
1F2
100
AcDbEntity
  8
0
  6
SLD-SOLID
 62
     7
100
AcDbVertex
100
AcDb2dVertex
 10
264.0349219133
 20
163.8821648024
 30
0.0
  0
VERTEX
  5
290
330
1F2
100
AcDbEntity
  8
0
  6
SLD-SOLID
 62
     7
100
AcDbVertex
100
AcDb2dVertex
 10
264.3717928834
 20
164.3715187862
 30
0.0
  0
VERTEX
  5
291
330
1F2
100
AcDbEntity
  8
0
  6
SLD-SOLID
 62
     7
100
AcDbVertex
100
AcDb2dVertex
 10
264.6857346097
 20
164.8885077361
 30
0.0
  0
VERTEX
  5
292
330
1F2
100
AcDbEntity
  8
0
  6
SLD-SOLID
 62
     7
100
AcDbVertex
100
AcDb2dVertex
 10
264.9762863395
 20
165.4323728994
 30
0.0
  0
VERTEX
  5
293
330
1F2
100
AcDbEntity
  8
0
  6
SLD-SOLID
 62
     7
100
AcDbVertex
100
AcDb2dVertex
 10
265.2430216479
 20
166.0023160791
 30
0.0
  0
VERTEX
  5
294
330
1F2
100
AcDbEntity
  8
0
  6
SLD-SOLID
 62
     7
100
AcDbVertex
100
AcDb2dVertex
 10
265.4855490643
 20
166.5975008049
 30
0.0
  0
VERTEX
  5
295
330
1F2
100
AcDbEntity
  8
0
  6
SLD-SOLID
 62
     7
100
AcDbVertex
100
AcDb2dVertex
 10
265.7035126461
 20
167.2170535612
 30
0.0
  0
VERTEX
  5
296
330
1F2
100
AcDbEntity
  8
0
  6
SLD-SOLID
 62
     7
100
AcDbVertex
100
AcDb2dVertex
 10
265.8965925018
 20
167.8600650688
 30
0.0
  0
VERTEX
  5
297
330
1F2
100
AcDbEntity
  8
0
  6
SLD-SOLID
 62
     7
100
AcDbVertex
100
AcDb2dVertex
 10
266.0645052599
 20
168.5255916198
 30
0.0
  0
VERTEX
  5
298
330
1F2
100
AcDbEntity
  8
0
  6
SLD-SOLID
 62
     7
100
AcDbVertex
100
AcDb2dVertex
 10
266.2070044855
 20
169.2126564621
 30
0.0
  0
VERTEX
  5
299
330
1F2
100
AcDbEntity
  8
0
  6
SLD-SOLID
 62
     7
100
AcDbVertex
100
AcDb2dVertex
 10
266.3238810411
 20
169.9202512333
 30
0.0
  0
VERTEX
  5
29A
330
1F2
100
AcDbEntity
  8
0
  6
SLD-SOLID
 62
     7
100
AcDbVertex
100
AcDb2dVertex
 10
266.4149633945
 20
170.6473374406
 30
0.0
  0
VERTEX
  5
29B
330
1F2
100
AcDbEntity
  8
0
  6
SLD-SOLID
 62
     7
100
AcDbVertex
100
AcDb2dVertex
 10
266.4801178696
 20
171.3928479846
 30
0.0
  0
VERTEX
  5
29C
330
1F2
100
AcDbEntity
  8
0
  6
SLD-SOLID
 62
     7
100
AcDbVertex
100
AcDb2dVertex
 10
266.5192488432
 20
172.1556887258
 30
0.0
  0
VERTEX
  5
29D
330
1F2
100
AcDbEntity
  8
0
  6
SLD-SOLID
 62
     7
100
AcDbVertex
100
AcDb2dVertex
 10
266.5322988853
 20
172.9347400902
 30
0.0
  0
SEQEND
  5
373
330
1F2
100
AcDbEntity
  8
0
  6
SLD-SOLID
 62
     7
  0
POLYLINE
  5
1F3
330
1F
100
AcDbEntity
  8
0
  6
SLD-SOLID
 62
     7
100
AcDb2dPolyline
 66
     1
 10
0.0
 20
0.0
 30
0.0
 70
   128
  0
VERTEX
  5
29E
330
1F3
100
AcDbEntity
  8
0
  6
SLD-SOLID
 62
     7
100
AcDbVertex
100
AcDb2dVertex
 10
266.8858522759
 20
172.9347400902
 30
0.0
  0
VERTEX
  5
29F
330
1F3
100
AcDbEntity
  8
0
  6
SLD-SOLID
 62
     7
100
AcDbVertex
100
AcDb2dVertex
 10
266.8728317631
 20
172.1526649773
 30
0.0
  0
VERTEX
  5
2A0
330
1F3
100
AcDbEntity
  8
0
  6
SLD-SOLID
 62
     7
100
AcDbVertex
100
AcDb2dVertex
 10
266.833789103
 20
171.3867569628
 30
0.0
  0
VERTEX
  5
2A1
330
1F3
100
AcDbEntity
  8
0
  6
SLD-SOLID
 62
     7
100
AcDbVertex
100
AcDb2dVertex
 10
266.7687809039
 20
170.6381265399
 30
0.0
  0
VERTEX
  5
2A2
330
1F3
100
AcDbEntity
  8
0
  6
SLD-SOLID
 62
     7
100
AcDbVertex
100
AcDb2dVertex
 10
266.6779014213
 20
169.9078591512
 30
0.0
  0
VERTEX
  5
2A3
330
1F3
100
AcDbEntity
  8
0
  6
SLD-SOLID
 62
     7
100
AcDbVertex
100
AcDb2dVertex
 10
266.5612824219
 20
169.1970136148
 30
0.0
  0
VERTEX
  5
2A4
330
1F3
100
AcDbEntity
  8
0
  6
SLD-SOLID
 62
     7
100
AcDbVertex
100
AcDb2dVertex
 10
266.419092992
 20
168.5066205885
 30
0.0
  0
VERTEX
  5
2A5
330
1F3
100
AcDbEntity
  8
0
  6
SLD-SOLID
 62
     7
100
AcDbVertex
100
AcDb2dVertex
 10
266.2515392928
 20
167.8376810763
 30
0.0
  0
VERTEX
  5
2A6
330
1F3
100
AcDbEntity
  8
0
  6
SLD-SOLID
 62
     7
100
AcDbVertex
100
AcDb2dVertex
 10
266.058864261
 20
167.1911649765
 30
0.0
  0
VERTEX
  5
2A7
330
1F3
100
AcDbEntity
  8
0
  6
SLD-SOLID
 62
     7
100
AcDbVertex
100
AcDb2dVertex
 10
265.8413472571
 20
166.5680096758
 30
0.0
  0
VERTEX
  5
2A8
330
1F3
100
AcDbEntity
  8
0
  6
SLD-SOLID
 62
     7
100
AcDbVertex
100
AcDb2dVertex
 10
265.5993036599
 20
165.9691186896
 30
0.0
  0
VERTEX
  5
2A9
330
1F3
100
AcDbEntity
  8
0
  6
SLD-SOLID
 62
     7
100
AcDbVertex
100
AcDb2dVertex
 10
265.3330844095
 20
165.3953603527
 30
0.0
  0
VERTEX
  5
2AA
330
1F3
100
AcDbEntity
  8
0
  6
SLD-SOLID
 62
     7
100
AcDbVertex
100
AcDb2dVertex
 10
265.0430754984
 20
164.8475665597
 30
0.0
  0
VERTEX
  5
2AB
330
1F3
100
AcDbEntity
  8
0
  6
SLD-SOLID
 62
     7
100
AcDbVertex
100
AcDb2dVertex
 10
264.7296974117
 20
164.3265315595
 30
0.0
  0
VERTEX
  5
2AC
330
1F3
100
AcDbEntity
  8
0
  6
SLD-SOLID
 62
     7
100
AcDbVertex
100
AcDb2dVertex
 10
264.3934045177
 20
163.8330108027
 30
0.0
  0
VERTEX
  5
2AD
330
1F3
100
AcDbEntity
  8
0
  6
SLD-SOLID
 62
     7
100
AcDbVertex
100
AcDb2dVertex
 10
264.034684409
 20
163.3677198475
 30
0.0
  0
VERTEX
  5
2AE
330
1F3
100
AcDbEntity
  8
0
  6
SLD-SOLID
 62
     7
100
AcDbVertex
100
AcDb2dVertex
 10
263.6540571953
 20
162.9313333211
 30
0.0
  0
VERTEX
  5
2AF
330
1F3
100
AcDbEntity
  8
0
  6
SLD-SOLID
 62
     7
100
AcDbVertex
100
AcDb2dVertex
 10
263.2520747499
 20
162.5244839424
 30
0.0
  0
VERTEX
  5
2B0
330
1F3
100
AcDbEntity
  8
0
  6
SLD-SOLID
 62
     7
100
AcDbVertex
100
AcDb2dVertex
 10
262.8293199088
 20
162.147761604
 30
0.0
  0
VERTEX
  5
2B1
330
1F3
100
AcDbEntity
  8
0
  6
SLD-SOLID
 62
     7
100
AcDbVertex
100
AcDb2dVertex
 10
262.3864056261
 20
161.8017125174
 30
0.0
  0
VERTEX
  5
2B2
330
1F3
100
AcDbEntity
  8
0
  6
SLD-SOLID
 62
     7
100
AcDbVertex
100
AcDb2dVertex
 10
261.9239740852
 20
161.4868384205
 30
0.0
  0
VERTEX
  5
2B3
330
1F3
100
AcDbEntity
  8
0
  6
SLD-SOLID
 62
     7
100
AcDbVertex
100
AcDb2dVertex
 10
261.4426957676
 20
161.2035958508
 30
0.0
  0
VERTEX
  5
2B4
330
1F3
100
AcDbEntity
  8
0
  6
SLD-SOLID
 62
     7
100
AcDbVertex
100
AcDb2dVertex
 10
260.9432684809
 20
160.9523954829
 30
0.0
  0
VERTEX
  5
2B5
330
1F3
100
AcDbEntity
  8
0
  6
SLD-SOLID
 62
     7
100
AcDbVertex
100
AcDb2dVertex
 10
260.4264163468
 20
160.7336015332
 30
0.0
  0
VERTEX
  5
2B6
330
1F3
100
AcDbEntity
  8
0
  6
SLD-SOLID
 62
     7
100
AcDbVertex
100
AcDb2dVertex
 10
259.8928887516
 20
160.5475312322
 30
0.0
  0
VERTEX
  5
2B7
330
1F3
100
AcDbEntity
  8
0
  6
SLD-SOLID
 62
     7
100
AcDbVertex
100
AcDb2dVertex
 10
259.3434592593
 20
160.394454364
 30
0.0
  0
VERTEX
  5
2B8
330
1F3
100
AcDbEntity
  8
0
  6
SLD-SOLID
 62
     7
100
AcDbVertex
100
AcDb2dVertex
 10
258.7789244901
 20
160.2745928753
 30
0.0
  0
VERTEX
  5
2B9
330
1F3
100
AcDbEntity
  8
0
  6
SLD-SOLID
 62
     7
100
AcDbVertex
100
AcDb2dVertex
 10
258.2001029654
 20
160.188120554
 30
0.0
  0
VERTEX
  5
2BA
330
1F3
100
AcDbEntity
  8
0
  6
SLD-SOLID
 62
     7
100
AcDbVertex
100
AcDb2dVertex
 10
257.6078339211
 20
160.1351627765
 30
0.0
  0
VERTEX
  5
2BB
330
1F3
100
AcDbEntity
  8
0
  6
SLD-SOLID
 62
     7
100
AcDbVertex
100
AcDb2dVertex
 10
257.0029760908
 20
160.1157963267
 30
0.0
  0
VERTEX
  5
2BC
330
1F3
100
AcDbEntity
  8
0
  6
SLD-SOLID
 62
     7
100
AcDbVertex
100
AcDb2dVertex
 10
256.3864064604
 20
160.1300492839
 30
0.0
  0
VERTEX
  5
2BD
330
1F3
100
AcDbEntity
  8
0
  6
SLD-SOLID
 62
     7
100
AcDbVertex
100
AcDb2dVertex
 10
255.759018997
 20
160.1779009829
 30
0.0
  0
VERTEX
  5
2BE
330
1F3
100
AcDbEntity
  8
0
  6
SLD-SOLID
 62
     7
100
AcDbVertex
100
AcDb2dVertex
 10
255.1217233523
 20
160.2592820431
 30
0.0
  0
VERTEX
  5
2BF
330
1F3
100
AcDbEntity
  8
0
  6
SLD-SOLID
 62
     7
100
AcDbVertex
100
AcDb2dVertex
 10
254.4754435443
 20
160.3740744698
 30
0.0
  0
VERTEX
  5
2C0
330
1F3
100
AcDbEntity
  8
0
  6
SLD-SOLID
 62
     7
100
AcDbVertex
100
AcDb2dVertex
 10
253.8211166168
 20
160.5221118251
 30
0.0
  0
VERTEX
  5
2C1
330
1F3
100
AcDbEntity
  8
0
  6
SLD-SOLID
 62
     7
100
AcDbVertex
100
AcDb2dVertex
 10
253.1596912812
 20
160.7031794688
 30
0.0
  0
VERTEX
  5
2C2
330
1F3
100
AcDbEntity
  8
0
  6
SLD-SOLID
 62
     7
100
AcDbVertex
100
AcDb2dVertex
 10
252.4921265412
 20
160.9170148702
 30
0.0
  0
VERTEX
  5
2C3
330
1F3
100
AcDbEntity
  8
0
  6
SLD-SOLID
 62
     7
100
AcDbVertex
100
AcDb2dVertex
 10
251.8193903017
 20
161.1633079885
 30
0.0
  0
VERTEX
  5
2C4
330
1F3
100
AcDbEntity
  8
0
  6
SLD-SOLID
 62
     7
100
AcDbVertex
100
AcDb2dVertex
 10
251.142457966
 20
161.441701722
 30
0.0
  0
VERTEX
  5
2C5
330
1F3
100
AcDbEntity
  8
0
  6
SLD-SOLID
 62
     7
100
AcDbVertex
100
AcDb2dVertex
 10
250.4623110212
 20
161.7517924267
 30
0.0
  0
VERTEX
  5
2C6
330
1F3
100
AcDbEntity
  8
0
  6
SLD-SOLID
 62
     7
100
AcDbVertex
100
AcDb2dVertex
 10
249.7799356155
 20
162.0931305004
 30
0.0
  0
VERTEX
  5
2C7
330
1F3
100
AcDbEntity
  8
0
  6
SLD-SOLID
 62
     7
100
AcDbVertex
100
AcDb2dVertex
 10
249.0963211278
 20
162.4652210358
 30
0.0
  0
VERTEX
  5
2C8
330
1F3
100
AcDbEntity
  8
0
  6
SLD-SOLID
 62
     7
100
AcDbVertex
100
AcDb2dVertex
 10
248.9224209454
 20
162.5646719162
 30
0.0
  0
SEQEND
  5
374
330
1F3
100
AcDbEntity
  8
0
  6
SLD-SOLID
 62
     7
  0
POLYLINE
  5
1F4
330
1F
100
AcDbEntity
  8
0
  6
SLD-SOLID
 62
     7
100
AcDb2dPolyline
 66
     1
 10
0.0
 20
0.0
 30
0.0
 70
   128
  0
VERTEX
  5
2C9
330
1F4
100
AcDbEntity
  8
0
  6
SLD-SOLID
 62
     7
100
AcDbVertex
100
AcDb2dVertex
 10
230.9648277917
 20
193.6715061305
 30
0.0
  0
VERTEX
  5
2CA
330
1F4
100
AcDbEntity
  8
0
  6
SLD-SOLID
 62
     7
100
AcDbVertex
100
AcDb2dVertex
 10
230.9680832149
 20
194.0644942336
 30
0.0
  0
VERTEX
  5
2CB
330
1F4
100
AcDbEntity
  8
0
  6
SLD-SOLID
 62
     7
100
AcDbVertex
100
AcDb2dVertex
 10
230.9941195206
 20
194.8386261122
 30
0.0
  0
VERTEX
  5
2CC
330
1F4
100
AcDbEntity
  8
0
  6
SLD-SOLID
 62
     7
100
AcDbVertex
100
AcDb2dVertex
 10
231.0461543817
 20
195.5960326143
 30
0.0
  0
VERTEX
  5
2CD
330
1F4
100
AcDbEntity
  8
0
  6
SLD-SOLID
 62
     7
100
AcDbVertex
100
AcDb2dVertex
 10
231.1241123528
 20
196.3356155727
 30
0.0
  0
VERTEX
  5
2CE
330
1F4
100
AcDbEntity
  8
0
  6
SLD-SOLID
 62
     7
100
AcDbVertex
100
AcDb2dVertex
 10
231.2278804022
 20
197.0563026631
 30
0.0
  0
VERTEX
  5
2CF
330
1F4
100
AcDbEntity
  8
0
  6
SLD-SOLID
 62
     7
100
AcDbVertex
100
AcDb2dVertex
 10
231.3573080762
 20
197.7570489578
 30
0.0
  0
VERTEX
  5
2D0
330
1F4
100
AcDbEntity
  8
0
  6
SLD-SOLID
 62
     7
100
AcDbVertex
100
AcDb2dVertex
 10
231.512207717
 20
198.436838442
 30
0.0
  0
VERTEX
  5
2D1
330
1F4
100
AcDbEntity
  8
0
  6
SLD-SOLID
 62
     7
100
AcDbVertex
100
AcDb2dVertex
 10
231.6923547349
 20
199.0946854857
 30
0.0
  0
VERTEX
  5
2D2
330
1F4
100
AcDbEntity
  8
0
  6
SLD-SOLID
 62
     7
100
AcDbVertex
100
AcDb2dVertex
 10
231.8974879341
 20
199.7296362736
 30
0.0
  0
VERTEX
  5
2D3
330
1F4
100
AcDbEntity
  8
0
  6
SLD-SOLID
 62
     7
100
AcDbVertex
100
AcDb2dVertex
 10
232.1273098909
 20
200.3407701878
 30
0.0
  0
VERTEX
  5
2D4
330
1F4
100
AcDbEntity
  8
0
  6
SLD-SOLID
 62
     7
100
AcDbVertex
100
AcDb2dVertex
 10
232.3814873855
 20
200.9272011426
 30
0.0
  0
VERTEX
  5
2D5
330
1F4
100
AcDbEntity
  8
0
  6
SLD-SOLID
 62
     7
100
AcDbVertex
100
AcDb2dVertex
 10
232.6596518848
 20
201.4880788691
 30
0.0
  0
VERTEX
  5
2D6
330
1F4
100
AcDbEntity
  8
0
  6
SLD-SOLID
 62
     7
100
AcDbVertex
100
AcDb2dVertex
 10
232.961400077
 20
202.0225901483
 30
0.0
  0
VERTEX
  5
2D7
330
1F4
100
AcDbEntity
  8
0
  6
SLD-SOLID
 62
     7
100
AcDbVertex
100
AcDb2dVertex
 10
233.2862944559
 20
202.5299599899
 30
0.0
  0
VERTEX
  5
2D8
330
1F4
100
AcDbEntity
  8
0
  6
SLD-SOLID
 62
     7
100
AcDbVertex
100
AcDb2dVertex
 10
233.6338639558
 20
203.009452756
 30
0.0
  0
VERTEX
  5
2D9
330
1F4
100
AcDbEntity
  8
0
  6
SLD-SOLID
 62
     7
100
AcDbVertex
100
AcDb2dVertex
 10
234.0036046341
 20
203.4603732282
 30
0.0
  0
VERTEX
  5
2DA
330
1F4
100
AcDbEntity
  8
0
  6
SLD-SOLID
 62
     7
100
AcDbVertex
100
AcDb2dVertex
 10
234.3949804022
 20
203.8820676147
 30
0.0
  0
VERTEX
  5
2DB
330
1F4
100
AcDbEntity
  8
0
  6
SLD-SOLID
 62
     7
100
AcDbVertex
100
AcDb2dVertex
 10
234.8074238027
 20
204.2739244991
 30
0.0
  0
VERTEX
  5
2DC
330
1F4
100
AcDbEntity
  8
0
  6
SLD-SOLID
 62
     7
100
AcDbVertex
100
AcDb2dVertex
 10
235.240336832
 20
204.6353757263
 30
0.0
  0
VERTEX
  5
2DD
330
1F4
100
AcDbEntity
  8
0
  6
SLD-SOLID
 62
     7
100
AcDbVertex
100
AcDb2dVertex
 10
235.6930918077
 20
204.9658972265
 30
0.0
  0
VERTEX
  5
2DE
330
1F4
100
AcDbEntity
  8
0
  6
SLD-SOLID
 62
     7
100
AcDbVertex
100
AcDb2dVertex
 10
236.1650322783
 20
205.2650097753
 30
0.0
  0
VERTEX
  5
2DF
330
1F4
100
AcDbEntity
  8
0
  6
SLD-SOLID
 62
     7
100
AcDbVertex
100
AcDb2dVertex
 10
236.6554739752
 20
205.532279688
 30
0.0
  0
VERTEX
  5
2E0
330
1F4
100
AcDbEntity
  8
0
  6
SLD-SOLID
 62
     7
100
AcDbVertex
100
AcDb2dVertex
 10
237.1637058049
 20
205.7673194488
 30
0.0
  0
VERTEX
  5
2E1
330
1F4
100
AcDbEntity
  8
0
  6
SLD-SOLID
 62
     7
100
AcDbVertex
100
AcDb2dVertex
 10
237.6889908798
 20
205.9697882725
 30
0.0
  0
VERTEX
  5
2E2
330
1F4
100
AcDbEntity
  8
0
  6
SLD-SOLID
 62
     7
100
AcDbVertex
100
AcDb2dVertex
 10
238.2305675868
 20
206.1393925987
 30
0.0
  0
VERTEX
  5
2E3
330
1F4
100
AcDbEntity
  8
0
  6
SLD-SOLID
 62
     7
100
AcDbVertex
100
AcDb2dVertex
 10
238.7876506913
 20
206.2758865172
 30
0.0
  0
VERTEX
  5
2E4
330
1F4
100
AcDbEntity
  8
0
  6
SLD-SOLID
 62
     7
100
AcDbVertex
100
AcDb2dVertex
 10
239.3594324763
 20
206.3790721251
 30
0.0
  0
VERTEX
  5
2E5
330
1F4
100
AcDbEntity
  8
0
  6
SLD-SOLID
 62
     7
100
AcDbVertex
100
AcDb2dVertex
 10
239.9450839127
 20
206.4487998129
 30
0.0
  0
VERTEX
  5
2E6
330
1F4
100
AcDbEntity
  8
0
  6
SLD-SOLID
 62
     7
100
AcDbVertex
100
AcDb2dVertex
 10
240.543755862
 20
206.4849684823
 30
0.0
  0
VERTEX
  5
2E7
330
1F4
100
AcDbEntity
  8
0
  6
SLD-SOLID
 62
     7
100
AcDbVertex
100
AcDb2dVertex
 10
241.154580307
 20
206.4875256922
 30
0.0
  0
VERTEX
  5
2E8
330
1F4
100
AcDbEntity
  8
0
  6
SLD-SOLID
 62
     7
100
AcDbVertex
100
AcDb2dVertex
 10
241.7766716108
 20
206.4564677347
 30
0.0
  0
VERTEX
  5
2E9
330
1F4
100
AcDbEntity
  8
0
  6
SLD-SOLID
 62
     7
100
AcDbVertex
100
AcDb2dVertex
 10
242.4091278003
 20
206.391839641
 30
0.0
  0
VERTEX
  5
2EA
330
1F4
100
AcDbEntity
  8
0
  6
SLD-SOLID
 62
     7
100
AcDbVertex
100
AcDb2dVertex
 10
243.0510318746
 20
206.2937351156
 30
0.0
  0
VERTEX
  5
2EB
330
1F4
100
AcDbEntity
  8
0
  6
SLD-SOLID
 62
     7
100
AcDbVertex
100
AcDb2dVertex
 10
243.7014531342
 20
206.1622964007
 30
0.0
  0
VERTEX
  5
2EC
330
1F4
100
AcDbEntity
  8
0
  6
SLD-SOLID
 62
     7
100
AcDbVertex
100
AcDb2dVertex
 10
244.3594485303
 20
205.99771407
 30
0.0
  0
VERTEX
  5
2ED
330
1F4
100
AcDbEntity
  8
0
  6
SLD-SOLID
 62
     7
100
AcDbVertex
100
AcDb2dVertex
 10
245.0240640327
 20
205.8002267519
 30
0.0
  0
VERTEX
  5
2EE
330
1F4
100
AcDbEntity
  8
0
  6
SLD-SOLID
 62
     7
100
AcDbVertex
100
AcDb2dVertex
 10
245.6943360122
 20
205.5701207844
 30
0.0
  0
VERTEX
  5
2EF
330
1F4
100
AcDbEntity
  8
0
  6
SLD-SOLID
 62
     7
100
AcDbVertex
100
AcDb2dVertex
 10
246.3692926388
 20
205.3077297989
 30
0.0
  0
VERTEX
  5
2F0
330
1F4
100
AcDbEntity
  8
0
  6
SLD-SOLID
 62
     7
100
AcDbVertex
100
AcDb2dVertex
 10
247.0479552896
 20
205.0134342374
 30
0.0
  0
VERTEX
  5
2F1
330
1F4
100
AcDbEntity
  8
0
  6
SLD-SOLID
 62
     7
100
AcDbVertex
100
AcDb2dVertex
 10
247.7293399689
 20
204.6876608003
 30
0.0
  0
VERTEX
  5
2F2
330
1F4
100
AcDbEntity
  8
0
  6
SLD-SOLID
 62
     7
100
AcDbVertex
100
AcDb2dVertex
 10
248.4124587339
 20
204.330881828
 30
0.0
  0
VERTEX
  5
2F3
330
1F4
100
AcDbEntity
  8
0
  6
SLD-SOLID
 62
     7
100
AcDbVertex
100
AcDb2dVertex
 10
249.0963211278
 20
203.9436146157
 30
0.0
  0
VERTEX
  5
2F4
330
1F4
100
AcDbEntity
  8
0
  6
SLD-SOLID
 62
     7
100
AcDbVertex
100
AcDb2dVertex
 10
249.7799356155
 20
203.5264206641
 30
0.0
  0
VERTEX
  5
2F5
330
1F4
100
AcDbEntity
  8
0
  6
SLD-SOLID
 62
     7
100
AcDbVertex
100
AcDb2dVertex
 10
250.4623110212
 20
203.0799048643
 30
0.0
  0
VERTEX
  5
2F6
330
1F4
100
AcDbEntity
  8
0
  6
SLD-SOLID
 62
     7
100
AcDbVertex
100
AcDb2dVertex
 10
251.142457966
 20
202.6047146217
 30
0.0
  0
VERTEX
  5
2F7
330
1F4
100
AcDbEntity
  8
0
  6
SLD-SOLID
 62
     7
100
AcDbVertex
100
AcDb2dVertex
 10
251.8193903017
 20
202.1015389166
 30
0.0
  0
VERTEX
  5
2F8
330
1F4
100
AcDbEntity
  8
0
  6
SLD-SOLID
 62
     7
100
AcDbVertex
100
AcDb2dVertex
 10
252.4921265412
 20
201.5711073058
 30
0.0
  0
VERTEX
  5
2F9
330
1F4
100
AcDbEntity
  8
0
  6
SLD-SOLID
 62
     7
100
AcDbVertex
100
AcDb2dVertex
 10
253.1596912812
 20
201.0141888643
 30
0.0
  0
VERTEX
  5
2FA
330
1F4
100
AcDbEntity
  8
0
  6
SLD-SOLID
 62
     7
100
AcDbVertex
100
AcDb2dVertex
 10
253.8211166168
 20
200.4315910707
 30
0.0
  0
VERTEX
  5
2FB
330
1F4
100
AcDbEntity
  8
0
  6
SLD-SOLID
 62
     7
100
AcDbVertex
100
AcDb2dVertex
 10
254.4754435443
 20
199.824158636
 30
0.0
  0
VERTEX
  5
2FC
330
1F4
100
AcDbEntity
  8
0
  6
SLD-SOLID
 62
     7
100
AcDbVertex
100
AcDb2dVertex
 10
255.1217233523
 20
199.1927722793
 30
0.0
  0
VERTEX
  5
2FD
330
1F4
100
AcDbEntity
  8
0
  6
SLD-SOLID
 62
     7
100
AcDbVertex
100
AcDb2dVertex
 10
255.759018997
 20
198.5383474503
 30
0.0
  0
VERTEX
  5
2FE
330
1F4
100
AcDbEntity
  8
0
  6
SLD-SOLID
 62
     7
100
AcDbVertex
100
AcDb2dVertex
 10
256.3864064604
 20
197.8618330025
 30
0.0
  0
VERTEX
  5
2FF
330
1F4
100
AcDbEntity
  8
0
  6
SLD-SOLID
 62
     7
100
AcDbVertex
100
AcDb2dVertex
 10
257.0029760908
 20
197.1642098172
 30
0.0
  0
VERTEX
  5
300
330
1F4
100
AcDbEntity
  8
0
  6
SLD-SOLID
 62
     7
100
AcDbVertex
100
AcDb2dVertex
 10
257.6078339211
 20
196.4464893814
 30
0.0
  0
VERTEX
  5
301
330
1F4
100
AcDbEntity
  8
0
  6
SLD-SOLID
 62
     7
100
AcDbVertex
100
AcDb2dVertex
 10
258.2001029654
 20
195.7097123209
 30
0.0
  0
VERTEX
  5
302
330
1F4
100
AcDbEntity
  8
0
  6
SLD-SOLID
 62
     7
100
AcDbVertex
100
AcDb2dVertex
 10
258.7789244901
 20
194.9549468922
 30
0.0
  0
VERTEX
  5
303
330
1F4
100
AcDbEntity
  8
0
  6
SLD-SOLID
 62
     7
100
AcDbVertex
100
AcDb2dVertex
 10
259.3434592593
 20
194.1832874329
 30
0.0
  0
VERTEX
  5
304
330
1F4
100
AcDbEntity
  8
0
  6
SLD-SOLID
 62
     7
100
AcDbVertex
100
AcDb2dVertex
 10
259.8928887516
 20
193.3958527755
 30
0.0
  0
VERTEX
  5
305
330
1F4
100
AcDbEntity
  8
0
  6
SLD-SOLID
 62
     7
100
AcDbVertex
100
AcDb2dVertex
 10
260.4264163468
 20
192.5937846249
 30
0.0
  0
VERTEX
  5
306
330
1F4
100
AcDbEntity
  8
0
  6
SLD-SOLID
 62
     7
100
AcDbVertex
100
AcDb2dVertex
 10
260.9432684809
 20
191.7782459034
 30
0.0
  0
VERTEX
  5
307
330
1F4
100
AcDbEntity
  8
0
  6
SLD-SOLID
 62
     7
100
AcDbVertex
100
AcDb2dVertex
 10
261.4426957676
 20
190.950419064
 30
0.0
  0
VERTEX
  5
308
330
1F4
100
AcDbEntity
  8
0
  6
SLD-SOLID
 62
     7
100
AcDbVertex
100
AcDb2dVertex
 10
261.9239740852
 20
190.1115043766
 30
0.0
  0
VERTEX
  5
309
330
1F4
100
AcDbEntity
  8
0
  6
SLD-SOLID
 62
     7
100
AcDbVertex
100
AcDb2dVertex
 10
262.3864056261
 20
189.2627181872
 30
0.0
  0
VERTEX
  5
30A
330
1F4
100
AcDbEntity
  8
0
  6
SLD-SOLID
 62
     7
100
AcDbVertex
100
AcDb2dVertex
 10
262.8293199088
 20
188.4052911548
 30
0.0
  0
VERTEX
  5
30B
330
1F4
100
AcDbEntity
  8
0
  6
SLD-SOLID
 62
     7
100
AcDbVertex
100
AcDb2dVertex
 10
263.2520747499
 20
187.5404664664
 30
0.0
  0
VERTEX
  5
30C
330
1F4
100
AcDbEntity
  8
0
  6
SLD-SOLID
 62
     7
100
AcDbVertex
100
AcDb2dVertex
 10
263.6540571953
 20
186.6694980353
 30
0.0
  0
VERTEX
  5
30D
330
1F4
100
AcDbEntity
  8
0
  6
SLD-SOLID
 62
     7
100
AcDbVertex
100
AcDb2dVertex
 10
264.034684409
 20
185.7936486823
 30
0.0
  0
VERTEX
  5
30E
330
1F4
100
AcDbEntity
  8
0
  6
SLD-SOLID
 62
     7
100
AcDbVertex
100
AcDb2dVertex
 10
264.3934045177
 20
184.9141883054
 30
0.0
  0
VERTEX
  5
30F
330
1F4
100
AcDbEntity
  8
0
  6
SLD-SOLID
 62
     7
100
AcDbVertex
100
AcDb2dVertex
 10
264.7296974117
 20
184.0323920379
 30
0.0
  0
VERTEX
  5
310
330
1F4
100
AcDbEntity
  8
0
  6
SLD-SOLID
 62
     7
100
AcDbVertex
100
AcDb2dVertex
 10
265.0430754984
 20
183.1495384002
 30
0.0
  0
VERTEX
  5
311
330
1F4
100
AcDbEntity
  8
0
  6
SLD-SOLID
 62
     7
100
AcDbVertex
100
AcDb2dVertex
 10
265.3330844095
 20
182.2669074457
 30
0.0
  0
VERTEX
  5
312
330
1F4
100
AcDbEntity
  8
0
  6
SLD-SOLID
 62
     7
100
AcDbVertex
100
AcDb2dVertex
 10
265.5993036599
 20
181.3857789048
 30
0.0
  0
VERTEX
  5
313
330
1F4
100
AcDbEntity
  8
0
  6
SLD-SOLID
 62
     7
100
AcDbVertex
100
AcDb2dVertex
 10
265.8413472571
 20
180.5074303298
 30
0.0
  0
VERTEX
  5
314
330
1F4
100
AcDbEntity
  8
0
  6
SLD-SOLID
 62
     7
100
AcDbVertex
100
AcDb2dVertex
 10
266.058864261
 20
179.6331352419
 30
0.0
  0
VERTEX
  5
315
330
1F4
100
AcDbEntity
  8
0
  6
SLD-SOLID
 62
     7
100
AcDbVertex
100
AcDb2dVertex
 10
266.2515392928
 20
178.7641612857
 30
0.0
  0
VERTEX
  5
316
330
1F4
100
AcDbEntity
  8
0
  6
SLD-SOLID
 62
     7
100
AcDbVertex
100
AcDb2dVertex
 10
266.419092992
 20
177.9017683901
 30
0.0
  0
VERTEX
  5
317
330
1F4
100
AcDbEntity
  8
0
  6
SLD-SOLID
 62
     7
100
AcDbVertex
100
AcDb2dVertex
 10
266.5612824219
 20
177.0472069426
 30
0.0
  0
VERTEX
  5
318
330
1F4
100
AcDbEntity
  8
0
  6
SLD-SOLID
 62
     7
100
AcDbVertex
100
AcDb2dVertex
 10
266.6779014213
 20
176.2017159753
 30
0.0
  0
VERTEX
  5
319
330
1F4
100
AcDbEntity
  8
0
  6
SLD-SOLID
 62
     7
100
AcDbVertex
100
AcDb2dVertex
 10
266.7687809039
 20
175.3665213696
 30
0.0
  0
VERTEX
  5
31A
330
1F4
100
AcDbEntity
  8
0
  6
SLD-SOLID
 62
     7
100
AcDbVertex
100
AcDb2dVertex
 10
266.833789103
 20
174.5428340776
 30
0.0
  0
VERTEX
  5
31B
330
1F4
100
AcDbEntity
  8
0
  6
SLD-SOLID
 62
     7
100
AcDbVertex
100
AcDb2dVertex
 10
266.8728317631
 20
173.7318483672
 30
0.0
  0
VERTEX
  5
31C
330
1F4
100
AcDbEntity
  8
0
  6
SLD-SOLID
 62
     7
100
AcDbVertex
100
AcDb2dVertex
 10
266.8858522759
 20
172.9347400902
 30
0.0
  0
VERTEX
  5
31D
330
1F4
100
AcDbEntity
  8
0
  6
SLD-SOLID
 62
     7
100
AcDbVertex
100
AcDb2dVertex
 10
266.8858522759
 20
172.9347400902
 30
0.0
  0
SEQEND
  5
375
330
1F4
100
AcDbEntity
  8
0
  6
SLD-SOLID
 62
     7
  0
POLYLINE
  5
1F5
330
1F
100
AcDbEntity
  8
0
  6
SLD-SOLID
 62
     7
100
AcDb2dPolyline
 66
     1
 10
0.0
 20
0.0
 30
0.0
 70
   128
  0
VERTEX
  5
31E
330
1F5
100
AcDbEntity
  8
0
  6
SLD-SOLID
 62
     7
100
AcDbVertex
100
AcDb2dVertex
 10
275.0175802596
 20
177.6290867332
 30
0.0
  0
VERTEX
  5
31F
330
1F5
100
AcDbEntity
  8
0
  6
SLD-SOLID
 62
     7
100
AcDbVertex
100
AcDb2dVertex
 10
275.0045597467
 20
178.4261950102
 30
0.0
  0
VERTEX
  5
320
330
1F5
100
AcDbEntity
  8
0
  6
SLD-SOLID
 62
     7
100
AcDbVertex
100
AcDb2dVertex
 10
274.9655170867
 20
179.2371807206
 30
0.0
  0
VERTEX
  5
321
330
1F5
100
AcDbEntity
  8
0
  6
SLD-SOLID
 62
     7
100
AcDbVertex
100
AcDb2dVertex
 10
274.9005088875
 20
180.0608680126
 30
0.0
  0
VERTEX
  5
322
330
1F5
100
AcDbEntity
  8
0
  6
SLD-SOLID
 62
     7
100
AcDbVertex
100
AcDb2dVertex
 10
274.8096294049
 20
180.8960626183
 30
0.0
  0
VERTEX
  5
323
330
1F5
100
AcDbEntity
  8
0
  6
SLD-SOLID
 62
     7
100
AcDbVertex
100
AcDb2dVertex
 10
274.6930104055
 20
181.7415535855
 30
0.0
  0
VERTEX
  5
324
330
1F5
100
AcDbEntity
  8
0
  6
SLD-SOLID
 62
     7
100
AcDbVertex
100
AcDb2dVertex
 10
274.5508209757
 20
182.5961150331
 30
0.0
  0
VERTEX
  5
325
330
1F5
100
AcDbEntity
  8
0
  6
SLD-SOLID
 62
     7
100
AcDbVertex
100
AcDb2dVertex
 10
274.3832672764
 20
183.4585079287
 30
0.0
  0
VERTEX
  5
326
330
1F5
100
AcDbEntity
  8
0
  6
SLD-SOLID
 62
     7
100
AcDbVertex
100
AcDb2dVertex
 10
274.1905922447
 20
184.3274818849
 30
0.0
  0
VERTEX
  5
327
330
1F5
100
AcDbEntity
  8
0
  6
SLD-SOLID
 62
     7
100
AcDbVertex
100
AcDb2dVertex
 10
273.9730752408
 20
185.2017769727
 30
0.0
  0
VERTEX
  5
328
330
1F5
100
AcDbEntity
  8
0
  6
SLD-SOLID
 62
     7
100
AcDbVertex
100
AcDb2dVertex
 10
273.7310316436
 20
186.0801255478
 30
0.0
  0
VERTEX
  5
329
330
1F5
100
AcDbEntity
  8
0
  6
SLD-SOLID
 62
     7
100
AcDbVertex
100
AcDb2dVertex
 10
273.4648123932
 20
186.9612540887
 30
0.0
  0
VERTEX
  5
32A
330
1F5
100
AcDbEntity
  8
0
  6
SLD-SOLID
 62
     7
100
AcDbVertex
100
AcDb2dVertex
 10
273.174803482
 20
187.8438850432
 30
0.0
  0
VERTEX
  5
32B
330
1F5
100
AcDbEntity
  8
0
  6
SLD-SOLID
 62
     7
100
AcDbVertex
100
AcDb2dVertex
 10
272.8614253953
 20
188.7267386809
 30
0.0
  0
VERTEX
  5
32C
330
1F5
100
AcDbEntity
  8
0
  6
SLD-SOLID
 62
     7
100
AcDbVertex
100
AcDb2dVertex
 10
272.5251325013
 20
189.6085349484
 30
0.0
  0
VERTEX
  5
32D
330
1F5
100
AcDbEntity
  8
0
  6
SLD-SOLID
 62
     7
100
AcDbVertex
100
AcDb2dVertex
 10
272.1664123926
 20
190.4879953253
 30
0.0
  0
VERTEX
  5
32E
330
1F5
100
AcDbEntity
  8
0
  6
SLD-SOLID
 62
     7
100
AcDbVertex
100
AcDb2dVertex
 10
271.785785179
 20
191.3638446782
 30
0.0
  0
VERTEX
  5
32F
330
1F5
100
AcDbEntity
  8
0
  6
SLD-SOLID
 62
     7
100
AcDbVertex
100
AcDb2dVertex
 10
271.3838027336
 20
192.2348131094
 30
0.0
  0
VERTEX
  5
330
330
1F5
100
AcDbEntity
  8
0
  6
SLD-SOLID
 62
     7
100
AcDbVertex
100
AcDb2dVertex
 10
270.9610478925
 20
193.0996377977
 30
0.0
  0
VERTEX
  5
331
330
1F5
100
AcDbEntity
  8
0
  6
SLD-SOLID
 62
     7
100
AcDbVertex
100
AcDb2dVertex
 10
270.5181336098
 20
193.9570648302
 30
0.0
  0
VERTEX
  5
332
330
1F5
100
AcDbEntity
  8
0
  6
SLD-SOLID
 62
     7
100
AcDbVertex
100
AcDb2dVertex
 10
270.0557020689
 20
194.8058510196
 30
0.0
  0
VERTEX
  5
333
330
1F5
100
AcDbEntity
  8
0
  6
SLD-SOLID
 62
     7
100
AcDbVertex
100
AcDb2dVertex
 10
269.5744237513
 20
195.644765707
 30
0.0
  0
VERTEX
  5
334
330
1F5
100
AcDbEntity
  8
0
  6
SLD-SOLID
 62
     7
100
AcDbVertex
100
AcDb2dVertex
 10
269.0749964645
 20
196.4725925464
 30
0.0
  0
VERTEX
  5
335
330
1F5
100
AcDbEntity
  8
0
  6
SLD-SOLID
 62
     7
100
AcDbVertex
100
AcDb2dVertex
 10
268.5581443305
 20
197.2881312679
 30
0.0
  0
VERTEX
  5
336
330
1F5
100
AcDbEntity
  8
0
  6
SLD-SOLID
 62
     7
100
AcDbVertex
100
AcDb2dVertex
 10
268.0246167353
 20
198.0901994184
 30
0.0
  0
VERTEX
  5
337
330
1F5
100
AcDbEntity
  8
0
  6
SLD-SOLID
 62
     7
100
AcDbVertex
100
AcDb2dVertex
 10
267.4751872429
 20
198.8776340758
 30
0.0
  0
VERTEX
  5
338
330
1F5
100
AcDbEntity
  8
0
  6
SLD-SOLID
 62
     7
100
AcDbVertex
100
AcDb2dVertex
 10
266.9106524737
 20
199.6492935351
 30
0.0
  0
VERTEX
  5
339
330
1F5
100
AcDbEntity
  8
0
  6
SLD-SOLID
 62
     7
100
AcDbVertex
100
AcDb2dVertex
 10
266.331830949
 20
200.4040589639
 30
0.0
  0
VERTEX
  5
33A
330
1F5
100
AcDbEntity
  8
0
  6
SLD-SOLID
 62
     7
100
AcDbVertex
100
AcDb2dVertex
 10
265.7395619048
 20
201.1408360243
 30
0.0
  0
VERTEX
  5
33B
330
1F5
100
AcDbEntity
  8
0
  6
SLD-SOLID
 62
     7
100
AcDbVertex
100
AcDb2dVertex
 10
265.1347040744
 20
201.8585564602
 30
0.0
  0
VERTEX
  5
33C
330
1F5
100
AcDbEntity
  8
0
  6
SLD-SOLID
 62
     7
100
AcDbVertex
100
AcDb2dVertex
 10
264.518134444
 20
202.5561796455
 30
0.0
  0
VERTEX
  5
33D
330
1F5
100
AcDbEntity
  8
0
  6
SLD-SOLID
 62
     7
100
AcDbVertex
100
AcDb2dVertex
 10
263.8907469806
 20
203.2326940933
 30
0.0
  0
VERTEX
  5
33E
330
1F5
100
AcDbEntity
  8
0
  6
SLD-SOLID
 62
     7
100
AcDbVertex
100
AcDb2dVertex
 10
263.253451336
 20
203.8871189223
 30
0.0
  0
VERTEX
  5
33F
330
1F5
100
AcDbEntity
  8
0
  6
SLD-SOLID
 62
     7
100
AcDbVertex
100
AcDb2dVertex
 10
262.6071715279
 20
204.518505279
 30
0.0
  0
VERTEX
  5
340
330
1F5
100
AcDbEntity
  8
0
  6
SLD-SOLID
 62
     7
100
AcDbVertex
100
AcDb2dVertex
 10
261.9528446004
 20
205.1259377137
 30
0.0
  0
VERTEX
  5
341
330
1F5
100
AcDbEntity
  8
0
  6
SLD-SOLID
 62
     7
100
AcDbVertex
100
AcDb2dVertex
 10
261.2914192649
 20
205.7085355073
 30
0.0
  0
VERTEX
  5
342
330
1F5
100
AcDbEntity
  8
0
  6
SLD-SOLID
 62
     7
100
AcDbVertex
100
AcDb2dVertex
 10
260.6238545248
 20
206.2654539488
 30
0.0
  0
VERTEX
  5
343
330
1F5
100
AcDbEntity
  8
0
  6
SLD-SOLID
 62
     7
100
AcDbVertex
100
AcDb2dVertex
 10
259.9511182853
 20
206.7958855596
 30
0.0
  0
VERTEX
  5
344
330
1F5
100
AcDbEntity
  8
0
  6
SLD-SOLID
 62
     7
100
AcDbVertex
100
AcDb2dVertex
 10
259.2741859496
 20
207.2990612647
 30
0.0
  0
VERTEX
  5
345
330
1F5
100
AcDbEntity
  8
0
  6
SLD-SOLID
 62
     7
100
AcDbVertex
100
AcDb2dVertex
 10
258.5940390048
 20
207.7742515073
 30
0.0
  0
VERTEX
  5
346
330
1F5
100
AcDbEntity
  8
0
  6
SLD-SOLID
 62
     7
100
AcDbVertex
100
AcDb2dVertex
 10
257.9116635991
 20
208.220767307
 30
0.0
  0
VERTEX
  5
347
330
1F5
100
AcDbEntity
  8
0
  6
SLD-SOLID
 62
     7
100
AcDbVertex
100
AcDb2dVertex
 10
257.2280491115
 20
208.6379612587
 30
0.0
  0
VERTEX
  5
348
330
1F5
100
AcDbEntity
  8
0
  6
SLD-SOLID
 62
     7
100
AcDbVertex
100
AcDb2dVertex
 10
256.5441867176
 20
209.0252284709
 30
0.0
  0
VERTEX
  5
349
330
1F5
100
AcDbEntity
  8
0
  6
SLD-SOLID
 62
     7
100
AcDbVertex
100
AcDb2dVertex
 10
255.8610679525
 20
209.3820074433
 30
0.0
  0
VERTEX
  5
34A
330
1F5
100
AcDbEntity
  8
0
  6
SLD-SOLID
 62
     7
100
AcDbVertex
100
AcDb2dVertex
 10
255.1796832733
 20
209.7077808804
 30
0.0
  0
VERTEX
  5
34B
330
1F5
100
AcDbEntity
  8
0
  6
SLD-SOLID
 62
     7
100
AcDbVertex
100
AcDb2dVertex
 10
254.5010206224
 20
210.0020764419
 30
0.0
  0
VERTEX
  5
34C
330
1F5
100
AcDbEntity
  8
0
  6
SLD-SOLID
 62
     7
100
AcDbVertex
100
AcDb2dVertex
 10
253.8260639959
 20
210.2644674273
 30
0.0
  0
VERTEX
  5
34D
330
1F5
100
AcDbEntity
  8
0
  6
SLD-SOLID
 62
     7
100
AcDbVertex
100
AcDb2dVertex
 10
253.1557920163
 20
210.4945733949
 30
0.0
  0
VERTEX
  5
34E
330
1F5
100
AcDbEntity
  8
0
  6
SLD-SOLID
 62
     7
100
AcDbVertex
100
AcDb2dVertex
 10
252.491176514
 20
210.6920607129
 30
0.0
  0
VERTEX
  5
34F
330
1F5
100
AcDbEntity
  8
0
  6
SLD-SOLID
 62
     7
100
AcDbVertex
100
AcDb2dVertex
 10
251.8331811178
 20
210.8566430437
 30
0.0
  0
VERTEX
  5
350
330
1F5
100
AcDbEntity
  8
0
  6
SLD-SOLID
 62
     7
100
AcDbVertex
100
AcDb2dVertex
 10
251.1827598583
 20
210.9880817586
 30
0.0
  0
VERTEX
  5
351
330
1F5
100
AcDbEntity
  8
0
  6
SLD-SOLID
 62
     7
100
AcDbVertex
100
AcDb2dVertex
 10
250.5408557839
 20
211.0861862839
 30
0.0
  0
VERTEX
  5
352
330
1F5
100
AcDbEntity
  8
0
  6
SLD-SOLID
 62
     7
100
AcDbVertex
100
AcDb2dVertex
 10
249.9083995944
 20
211.1508143777
 30
0.0
  0
VERTEX
  5
353
330
1F5
100
AcDbEntity
  8
0
  6
SLD-SOLID
 62
     7
100
AcDbVertex
100
AcDb2dVertex
 10
249.2863082907
 20
211.1818723351
 30
0.0
  0
VERTEX
  5
354
330
1F5
100
AcDbEntity
  8
0
  6
SLD-SOLID
 62
     7
100
AcDbVertex
100
AcDb2dVertex
 10
248.6754838456
 20
211.1793151253
 30
0.0
  0
VERTEX
  5
355
330
1F5
100
AcDbEntity
  8
0
  6
SLD-SOLID
 62
     7
100
AcDbVertex
100
AcDb2dVertex
 10
248.0768118964
 20
211.1431464559
 30
0.0
  0
VERTEX
  5
356
330
1F5
100
AcDbEntity
  8
0
  6
SLD-SOLID
 62
     7
100
AcDbVertex
100
AcDb2dVertex
 10
247.49116046
 20
211.0734187681
 30
0.0
  0
VERTEX
  5
357
330
1F5
100
AcDbEntity
  8
0
  6
SLD-SOLID
 62
     7
100
AcDbVertex
100
AcDb2dVertex
 10
246.919378675
 20
210.9702331602
 30
0.0
  0
VERTEX
  5
358
330
1F5
100
AcDbEntity
  8
0
  6
SLD-SOLID
 62
     7
100
AcDbVertex
100
AcDb2dVertex
 10
246.3622955704
 20
210.8337392416
 30
0.0
  0
VERTEX
  5
359
330
1F5
100
AcDbEntity
  8
0
  6
SLD-SOLID
 62
     7
100
AcDbVertex
100
AcDb2dVertex
 10
245.8207188634
 20
210.6641349155
 30
0.0
  0
VERTEX
  5
35A
330
1F5
100
AcDbEntity
  8
0
  6
SLD-SOLID
 62
     7
100
AcDbVertex
100
AcDb2dVertex
 10
245.2954337885
 20
210.4616660918
 30
0.0
  0
VERTEX
  5
35B
330
1F5
100
AcDbEntity
  8
0
  6
SLD-SOLID
 62
     7
100
AcDbVertex
100
AcDb2dVertex
 10
244.7872019588
 20
210.226626331
 30
0.0
  0
VERTEX
  5
35C
330
1F5
100
AcDbEntity
  8
0
  6
SLD-SOLID
 62
     7
100
AcDbVertex
100
AcDb2dVertex
 10
244.358100113
 20
209.9951108578
 30
0.0
  0
SEQEND
  5
376
330
1F5
100
AcDbEntity
  8
0
  6
SLD-SOLID
 62
     7
  0
POLYLINE
  5
1F6
330
1F
100
AcDbEntity
  8
0
  6
SLD-SOLID
 62
     7
100
AcDb2dPolyline
 66
     1
 10
0.0
 20
0.0
 30
0.0
 70
   128
  0
VERTEX
  5
35D
330
1F6
100
AcDbEntity
  8
0
  6
SLD-SOLID
 62
     7
100
AcDbVertex
100
AcDb2dVertex
 10
269.7560359219
 20
165.9998286489
 30
0.0
  0
VERTEX
  5
35E
330
1F6
100
AcDbEntity
  8
0
  6
SLD-SOLID
 62
     7
100
AcDbVertex
100
AcDb2dVertex
 10
270.0557020689
 20
166.1811850635
 30
0.0
  0
VERTEX
  5
35F
330
1F6
100
AcDbEntity
  8
0
  6
SLD-SOLID
 62
     7
100
AcDbVertex
100
AcDb2dVertex
 10
270.5181336098
 20
166.4960591604
 30
0.0
  0
VERTEX
  5
360
330
1F6
100
AcDbEntity
  8
0
  6
SLD-SOLID
 62
     7
100
AcDbVertex
100
AcDb2dVertex
 10
270.9610478925
 20
166.842108247
 30
0.0
  0
VERTEX
  5
361
330
1F6
100
AcDbEntity
  8
0
  6
SLD-SOLID
 62
     7
100
AcDbVertex
100
AcDb2dVertex
 10
271.3838027336
 20
167.2188305854
 30
0.0
  0
VERTEX
  5
362
330
1F6
100
AcDbEntity
  8
0
  6
SLD-SOLID
 62
     7
100
AcDbVertex
100
AcDb2dVertex
 10
271.785785179
 20
167.6256799641
 30
0.0
  0
VERTEX
  5
363
330
1F6
100
AcDbEntity
  8
0
  6
SLD-SOLID
 62
     7
100
AcDbVertex
100
AcDb2dVertex
 10
272.1664123926
 20
168.0620664905
 30
0.0
  0
VERTEX
  5
364
330
1F6
100
AcDbEntity
  8
0
  6
SLD-SOLID
 62
     7
100
AcDbVertex
100
AcDb2dVertex
 10
272.5251325013
 20
168.5273574457
 30
0.0
  0
VERTEX
  5
365
330
1F6
100
AcDbEntity
  8
0
  6
SLD-SOLID
 62
     7
100
AcDbVertex
100
AcDb2dVertex
 10
272.8614253953
 20
169.0208782024
 30
0.0
  0
VERTEX
  5
366
330
1F6
100
AcDbEntity
  8
0
  6
SLD-SOLID
 62
     7
100
AcDbVertex
100
AcDb2dVertex
 10
273.174803482
 20
169.5419132027
 30
0.0
  0
VERTEX
  5
367
330
1F6
100
AcDbEntity
  8
0
  6
SLD-SOLID
 62
     7
100
AcDbVertex
100
AcDb2dVertex
 10
273.4648123932
 20
170.0897069957
 30
0.0
  0
VERTEX
  5
368
330
1F6
100
AcDbEntity
  8
0
  6
SLD-SOLID
 62
     7
100
AcDbVertex
100
AcDb2dVertex
 10
273.7310316436
 20
170.6634653326
 30
0.0
  0
VERTEX
  5
369
330
1F6
100
AcDbEntity
  8
0
  6
SLD-SOLID
 62
     7
100
AcDbVertex
100
AcDb2dVertex
 10
273.9730752408
 20
171.2623563188
 30
0.0
  0
VERTEX
  5
36A
330
1F6
100
AcDbEntity
  8
0
  6
SLD-SOLID
 62
     7
100
AcDbVertex
100
AcDb2dVertex
 10
274.1905922447
 20
171.8855116195
 30
0.0
  0
VERTEX
  5
36B
330
1F6
100
AcDbEntity
  8
0
  6
SLD-SOLID
 62
     7
100
AcDbVertex
100
AcDb2dVertex
 10
274.3832672764
 20
172.5320277193
 30
0.0
  0
VERTEX
  5
36C
330
1F6
100
AcDbEntity
  8
0
  6
SLD-SOLID
 62
     7
100
AcDbVertex
100
AcDb2dVertex
 10
274.5508209757
 20
173.2009672315
 30
0.0
  0
VERTEX
  5
36D
330
1F6
100
AcDbEntity
  8
0
  6
SLD-SOLID
 62
     7
100
AcDbVertex
100
AcDb2dVertex
 10
274.6930104055
 20
173.8913602577
 30
0.0
  0
VERTEX
  5
36E
330
1F6
100
AcDbEntity
  8
0
  6
SLD-SOLID
 62
     7
100
AcDbVertex
100
AcDb2dVertex
 10
274.8096294049
 20
174.6022057942
 30
0.0
  0
VERTEX
  5
36F
330
1F6
100
AcDbEntity
  8
0
  6
SLD-SOLID
 62
     7
100
AcDbVertex
100
AcDb2dVertex
 10
274.9005088875
 20
175.3324731829
 30
0.0
  0
VERTEX
  5
370
330
1F6
100
AcDbEntity
  8
0
  6
SLD-SOLID
 62
     7
100
AcDbVertex
100
AcDb2dVertex
 10
274.9655170867
 20
176.0811036057
 30
0.0
  0
VERTEX
  5
371
330
1F6
100
AcDbEntity
  8
0
  6
SLD-SOLID
 62
     7
100
AcDbVertex
100
AcDb2dVertex
 10
275.0045597467
 20
176.8470116203
 30
0.0
  0
VERTEX
  5
372
330
1F6
100
AcDbEntity
  8
0
  6
SLD-SOLID
 62
     7
100
AcDbVertex
100
AcDb2dVertex
 10
275.0175802596
 20
177.6290867332
 30
0.0
  0
SEQEND
  5
377
330
1F6
100
AcDbEntity
  8
0
  6
SLD-SOLID
 62
     7
  0
ARC
  5
1F7
330
1F
100
AcDbEntity
  8
0
  6
SLD-SOLID
 62
     7
100
AcDbCircle
 10
236.4379327512
 20
176.0942963303
 30
0.0
 40
38.61881599370743
100
AcDbArc
 50
2.5807340673
 51
57.4138894
  0
OLE2FRAME
  5
1F8
330
1F
100
AcDbEntity
  8
0
100
AcDbOle2Frame
 70
     2
  3
Paintbrush Picture
 10
229.0524258301
 20
33.6996297921
 30
0.0
 11
265.1686469208
 21
28.555479607
 31
0.0
 71
     2
 72
     0
 90
     7296
310
80557333EF78ADA16C40002412788DD94040000000000000000041161DC7B292
310
7040002412788DD94040000000000000000041161DC7B2927040F6DD59E9338E
310
3C4000000000000000007333EF78ADA16C40F6DD59E9338E3C40000000000000
310
00000000000001000000000100000100000001000000000001000000001C0000
310
D0CF11E0A1B11AE1000000000000000000000000000000003E000300FEFF0900
310
0600000000000000000000000100000001000000000000000010000002000000
310
01000000FEFFFFFF0000000000000000FFFFFFFFFFFFFFFFFFFFFFFFFFFFFFFF
310
FFFFFFFFFFFFFFFFFFFFFFFFFFFFFFFFFFFFFFFFFFFFFFFFFFFFFFFFFFFFFFFF
310
FFFFFFFFFFFFFFFFFFFFFFFFFFFFFFFFFFFFFFFFFFFFFFFFFFFFFFFFFFFFFFFF
310
FFFFFFFFFFFFFFFFFFFFFFFFFFFFFFFFFFFFFFFFFFFFFFFFFFFFFFFFFFFFFFFF
310
FFFFFFFFFFFFFFFFFFFFFFFFFFFFFFFFFFFFFFFFFFFFFFFFFFFFFFFFFFFFFFFF
310
FFFFFFFFFFFFFFFFFFFFFFFFFFFFFFFFFFFFFFFFFFFFFFFFFFFFFFFFFFFFFFFF
310
FFFFFFFFFFFFFFFFFFFFFFFFFFFFFFFFFFFFFFFFFFFFFFFFFFFFFFFFFFFFFFFF
310
FFFFFFFFFFFFFFFFFFFFFFFFFFFFFFFFFFFFFFFFFFFFFFFFFFFFFFFFFFFFFFFF
310
FFFFFFFFFFFFFFFFFFFFFFFFFFFFFFFFFFFFFFFFFFFFFFFFFFFFFFFFFFFFFFFF
310
FFFFFFFFFFFFFFFFFFFFFFFFFFFFFFFFFFFFFFFFFFFFFFFFFFFFFFFFFFFFFFFF
310
FFFFFFFFFFFFFFFFFFFFFFFFFFFFFFFFFFFFFFFFFFFFFFFFFFFFFFFFFFFFFFFF
310
FFFFFFFFFFFFFFFFFFFFFFFFFFFFFFFFFFFFFFFFFFFFFFFFFFFFFFFFFFFFFFFF
310
FFFFFFFFFFFFFFFFFFFFFFFFFFFFFFFFFFFFFFFFFFFFFFFFFFFFFFFFFFFFFFFF
310
FFFFFFFFFFFFFFFFFFFFFFFFFFFFFFFFFFFFFFFFFFFFFFFFFFFFFFFFFFFFFFFF
310
FDFFFFFFFEFFFFFFFEFFFFFFFEFFFFFF05000000060000000700000008000000
310
090000000A0000000B0000000C000000FEFFFFFFFFFFFFFFFFFFFFFFFFFFFFFF
310
FFFFFFFFFFFFFFFFFFFFFFFFFFFFFFFFFFFFFFFFFFFFFFFFFFFFFFFFFFFFFFFF
310
FFFFFFFFFFFFFFFFFFFFFFFFFFFFFFFFFFFFFFFFFFFFFFFFFFFFFFFFFFFFFFFF
310
FFFFFFFFFFFFFFFFFFFFFFFFFFFFFFFFFFFFFFFFFFFFFFFFFFFFFFFFFFFFFFFF
310
FFFFFFFFFFFFFFFFFFFFFFFFFFFFFFFFFFFFFFFFFFFFFFFFFFFFFFFFFFFFFFFF
310
FFFFFFFFFFFFFFFFFFFFFFFFFFFFFFFFFFFFFFFFFFFFFFFFFFFFFFFFFFFFFFFF
310
FFFFFFFFFFFFFFFFFFFFFFFFFFFFFFFFFFFFFFFFFFFFFFFFFFFFFFFFFFFFFFFF
310
FFFFFFFFFFFFFFFFFFFFFFFFFFFFFFFFFFFFFFFFFFFFFFFFFFFFFFFFFFFFFFFF
310
FFFFFFFFFFFFFFFFFFFFFFFFFFFFFFFFFFFFFFFFFFFFFFFFFFFFFFFFFFFFFFFF
310
FFFFFFFFFFFFFFFFFFFFFFFFFFFFFFFFFFFFFFFFFFFFFFFFFFFFFFFFFFFFFFFF
310
FFFFFFFFFFFFFFFFFFFFFFFFFFFFFFFFFFFFFFFFFFFFFFFFFFFFFFFFFFFFFFFF
310
FFFFFFFFFFFFFFFFFFFFFFFFFFFFFFFFFFFFFFFFFFFFFFFFFFFFFFFFFFFFFFFF
310
FFFFFFFFFFFFFFFFFFFFFFFFFFFFFFFFFFFFFFFFFFFFFFFFFFFFFFFFFFFFFFFF
310
FFFFFFFFFFFFFFFFFFFFFFFFFFFFFFFFFFFFFFFFFFFFFFFFFFFFFFFFFFFFFFFF
310
FFFFFFFFFFFFFFFFFFFFFFFFFFFFFFFFFFFFFFFFFFFFFFFFFFFFFFFFFFFFFFFF
310
52006F006F007400200045006E00740072007900000000000000000000000000
310
0000000000000000000000000000000000000000000000000000000000000000
310
16000500FFFFFFFFFFFFFFFF020000000A00030000000000C000000000000046
310
000000000000000000000000C04014EEA6D1D70103000000C000000000000000
310
01004F006C006500000000000000000000000000000000000000000000000000
310
0000000000000000000000000000000000000000000000000000000000000000
310
0A000200FFFFFFFFFFFFFFFFFFFFFFFF00000000000000000000000000000000
310
0000000000000000000000000000000000000000000000001400000000000000
310
010043006F006D0070004F0062006A0000000000000000000000000000000000
310
0000000000000000000000000000000000000000000000000000000000000000
310
120002010100000003000000FFFFFFFF00000000000000000000000000000000
310
0000000000000000000000000000000000000000010000004D00000000000000
310
01004F006C006500310030004E00610074006900760065000000000000000000
310
0000000000000000000000000000000000000000000000000000000000000000
310
1A000200FFFFFFFFFFFFFFFFFFFFFFFF00000000000000000000000000000000
310
000000000000000000000000000000000000000004000000E411000000000000
310
FEFFFFFF02000000FEFFFFFFFFFFFFFFFFFFFFFFFFFFFFFFFFFFFFFFFFFFFFFF
310
FFFFFFFFFFFFFFFFFFFFFFFFFFFFFFFFFFFFFFFFFFFFFFFFFFFFFFFFFFFFFFFF
310
FFFFFFFFFFFFFFFFFFFFFFFFFFFFFFFFFFFFFFFFFFFFFFFFFFFFFFFFFFFFFFFF
310
FFFFFFFFFFFFFFFFFFFFFFFFFFFFFFFFFFFFFFFFFFFFFFFFFFFFFFFFFFFFFFFF
310
FFFFFFFFFFFFFFFFFFFFFFFFFFFFFFFFFFFFFFFFFFFFFFFFFFFFFFFFFFFFFFFF
310
FFFFFFFFFFFFFFFFFFFFFFFFFFFFFFFFFFFFFFFFFFFFFFFFFFFFFFFFFFFFFFFF
310
FFFFFFFFFFFFFFFFFFFFFFFFFFFFFFFFFFFFFFFFFFFFFFFFFFFFFFFFFFFFFFFF
310
FFFFFFFFFFFFFFFFFFFFFFFFFFFFFFFFFFFFFFFFFFFFFFFFFFFFFFFFFFFFFFFF
310
FFFFFFFFFFFFFFFFFFFFFFFFFFFFFFFFFFFFFFFFFFFFFFFFFFFFFFFFFFFFFFFF
310
FFFFFFFFFFFFFFFFFFFFFFFFFFFFFFFFFFFFFFFFFFFFFFFFFFFFFFFFFFFFFFFF
310
FFFFFFFFFFFFFFFFFFFFFFFFFFFFFFFFFFFFFFFFFFFFFFFFFFFFFFFFFFFFFFFF
310
FFFFFFFFFFFFFFFFFFFFFFFFFFFFFFFFFFFFFFFFFFFFFFFFFFFFFFFFFFFFFFFF
310
FFFFFFFFFFFFFFFFFFFFFFFFFFFFFFFFFFFFFFFFFFFFFFFFFFFFFFFFFFFFFFFF
310
FFFFFFFFFFFFFFFFFFFFFFFFFFFFFFFFFFFFFFFFFFFFFFFFFFFFFFFFFFFFFFFF
310
FFFFFFFFFFFFFFFFFFFFFFFFFFFFFFFFFFFFFFFFFFFFFFFFFFFFFFFFFFFFFFFF
310
FFFFFFFFFFFFFFFFFFFFFFFFFFFFFFFFFFFFFFFFFFFFFFFFFFFFFFFFFFFFFFFF
310
0100000200000000000000000000000000000000000000000000000000000000
310
0000000000000000000000000000000000000000000000000000000000000000
310
0100FEFF030A0000FFFFFFFF0A00030000000000C00000000000004607000000
310
5042727573680007000000504272757368000700000050427275736800F439B2
310
7100000000000000000000000000000000000000000000000000000000000000
310
0000000000000000000000000000000000000000000000000000000000000000
310
0000000000000000000000000000000000000000000000000000000000000000
310
0000000000000000000000000000000000000000000000000000000000000000
310
0000000000000000000000000000000000000000000000000000000000000000
310
0000000000000000000000000000000000000000000000000000000000000000
310
0000000000000000000000000000000000000000000000000000000000000000
310
0000000000000000000000000000000000000000000000000000000000000000
310
0000000000000000000000000000000000000000000000000000000000000000
310
0000000000000000000000000000000000000000000000000000000000000000
310
0000000000000000000000000000000000000000000000000000000000000000
310
0000000000000000000000000000000000000000000000000000000000000000
310
E0110000424DDE11000000000000360400002800000096000000170000000100
310
08000000000000000000E7240000E72400000001000000010000000000FF0101
310
01FF020202FF030303FF040404FF050505FF060606FF070707FF080808FF0909
310
09FF0A0A0AFF0B0B0BFF0C0C0CFF0D0D0DFF0E0E0EFF0F0F0FFF101010FF1111
310
11FF121212FF131313FF141414FF151515FF161616FF171717FF181818FF1919
310
19FF1A1A1AFF1B1B1BFF1C1C1CFF1D1D1DFF1E1E1EFF1F1F1FFF202020FF2121
310
21FF222222FF232323FF242424FF252525FF262626FF272727FF282828FF2929
310
29FF2A2A2AFF2B2B2BFF2C2C2CFF2D2D2DFF2E2E2EFF2F2F2FFF303030FF3131
310
31FF323232FF333333FF343434FF353535FF363636FF373737FF383838FF3939
310
39FF3A3A3AFF3B3B3BFF3C3C3CFF3D3D3DFF3E3E3EFF3F3F3FFF404040FF4141
310
41FF424242FF434343FF444444FF454545FF464646FF474747FF484848FF4949
310
49FF4A4A4AFF4B4B4BFF4C4C4CFF4D4D4DFF4E4E4EFF4F4F4FFF505050FF5151
310
51FF525252FF535353FF545454FF555555FF565656FF575757FF585858FF5959
310
59FF5A5A5AFF5B5B5BFF5C5C5CFF5D5D5DFF5E5E5EFF5F5F5FFF606060FF6161
310
61FF626262FF636363FF646464FF656565FF666666FF676767FF686868FF6969
310
69FF6A6A6AFF6B6B6BFF6C6C6CFF6D6D6DFF6E6E6EFF6F6F6FFF707070FF7171
310
71FF727272FF737373FF747474FF757575FF767676FF777777FF787878FF7979
310
79FF7A7A7AFF7B7B7BFF7C7C7CFF7D7D7DFF7E7E7EFF7F7F7FFF808080FF8181
310
81FF828282FF838383FF848484FF858585FF868686FF878787FF888888FF8989
310
89FF8A8A8AFF8B8B8BFF8C8C8CFF8D8D8DFF8E8E8EFF8F8F8FFF909090FF9191
310
91FF929292FF939393FF949494FF959595FF969696FF979797FF989898FF9999
310
99FF9A9A9AFF9B9B9BFF9C9C9CFF9D9D9DFF9E9E9EFF9F9F9FFFA0A0A0FFA1A1
310
A1FFA2A2A2FFA3A3A3FFA4A4A4FFA5A5A5FFA6A6A6FFA7A7A7FFA8A8A8FFA9A9
310
A9FFAAAAAAFFABABABFFACACACFFADADADFFAEAEAEFFAFAFAFFFB0B0B0FFB1B1
310
B1FFB2B2B2FFB3B3B3FFB4B4B4FFB5B5B5FFB6B6B6FFB7B7B7FFB8B8B8FFB9B9
310
B9FFBABABAFFBBBBBBFFBCBCBCFFBDBDBDFFBEBEBEFFBFBFBFFFC0C0C0FFC1C1
310
C1FFC2C2C2FFC3C3C3FFC4C4C4FFC5C5C5FFC6C6C6FFC7C7C7FFC8C8C8FFC9C9
310
C9FFCACACAFFCBCBCBFFCCCCCCFFCDCDCDFFCECECEFFCFCFCFFFD0D0D0FFD1D1
310
D1FFD2D2D2FFD3D3D3FFD4D4D4FFD5D5D5FFD6D6D6FFD7D7D7FFD8D8D8FFD9D9
310
D9FFDADADAFFDBDBDBFFDCDCDCFFDDDDDDFFDEDEDEFFDFDFDFFFE0E0E0FFE1E1
310
E1FFE2E2E2FFE3E3E3FFE4E4E4FFE5E5E5FFE6E6E6FFE7E7E7FFE8E8E8FFE9E9
310
E9FFEAEAEAFFEBEBEBFFECECECFFEDEDEDFFEEEEEEFFEFEFEFFFF0F0F0FFF1F1
310
F1FFF2F2F2FFF3F3F3FFF4F4F4FFF5F5F5FFF6F6F6FFF7F7F7FFF8F8F8FFF9F9
310
F9FFFAFAFAFFFBFBFBFFFCFCFCFFFDFDFDFFFEFEFEFFFFFFFFFFFFFFFFFFFFFF
310
C94E4E4E4F4E4EFFFFFFFFFFC94E4E4E4E4E72FFFFFFFFFFFFFF734E4D4E4E4E
310
C9FFFFFFFFFFAA683516171616265B9BE9FFFFFFFFFF4E4E4E4D4E4EFFFFFFFF
310
FFFFFFFF4E4E4F4E4D4E4E4E4F4E4E4F4D4E4E4E4E4E4D4E4F4E4D4E4E4EAAFF
310
FFFFFFFFFFEA4E4F4F4E4E4E4E4E4D4D4F4F4E4E4E4E4E5B7FAAFFFFFFFFFFFF
310
C9744E1716171616164D8DEAFFFFFFFF0000FFFFFFFFFFFFBA161617161716FF
310
FFFFFFFFB917171616174FFFFFFFFFFFFFFF4E1716161616B9FFFFFFB9341717
310
1716171617171616268CFFFFFFFF161617161617FFFFFFFFFFFFFFB917161717
310
1617167F807F7F7F7F7F7F807F7F807F7F807F7F7F414EFFFFFFFFFFFF8C167F
310
7F807F7F7F7E7F7F807F807F7F807F4E3417258EFFFFEA4E162674AABAEAEBBA
310
AA74341680FFFFFF0000FFFFFFFFFFFFB9171717171617FFFFFFFFFFBB161616
310
16164EFFFFFFFFFFFFFF4E1717171717B9FFFF9C171617171716161616171616
310
171766FFFFFF161717161617FFFFFFFFFFFFFF8E16171717161616FFFFFFFFFF
310
FFFFFFFFFFFFFFFFFFFFFFFFFFAA16D9FFFFFFFFFF3467FFFFFFFFEAFFFFFFFF
310
FFFFFFFFFFFFFFFFFFCA671667EB26278DFFFFFFFFFFFFFFFFFFFF8C2541EAFF
310
0000FFFFFFFFFFFFB9171717171716FFFFFFFFFFBA16171617174EFFFFFFFFFF
310
FFFF4E1717161616BAFF9B1617161616171716171617161616161667FFFF1616
310
16161716FFFFFFFFFFFFFF7F16161617174017FFFFFFFFFFFFFFFFFFFFFFFFFF
310
FFFFFFFFFFFF344E7F7F7F7E7417DAFFFFFFFF80FFFFFFFFFFFFFFFFFFFFFFFF
310
FFFFFF9B163425CAFFFFFFFFFFFFFFFFFFFFFFFFCA2667FF0000FFFFFFFFFFFF
310
BA171717171617FFFFFFFFFFB916171716164EFFFFFFFFFFFFFF4F1716161717
310
B9C91716171616161716161617171616161617168DFF161716161717FFFFFFFF
310
FFFFFF7F17171716164F16FFFFFFFFFFFFFFFFFFFFFFFFFFFFFFFFFFFFFF9B16
310
17161617174EFFFFFFFFFF34FFFFFFFFD9BABABABABADAFFFFFFFFFF7F16AAFF
310
FFFFFFFFFFFFFFFFFFFFFFFFFF9C16BA0000FFFFFFFFFFFFB9161717161717FF
310
FFFFFFFFB917161716174DFFFFFFFFFFFFFF4E1616161616BA4E161617171716
310
419BEAEAAA4E16161617161726E9171717161616FFFFFFFFFFFFFF4F16161717
310
164E16FFFFFFFFFFBAB9B9B9B9B9BABABACAFFFFFFFFFFFFFFFFFFFFFFFFFFFF
310
FFFFBA16FFFFFFFF7F1617161617174DEAFFFFFFEA41FFFFFFFFFFAA4D16174E
310
9BFFFFFFFFFF34730000FFFFFFFFFFFFB9161617171617FFFFFFFFFFBA161616
310
16164EFFFFFFFFFFFFFF4F16161717169B1617161716175BFFFFFFFFFFFF7417
310
16171616168D171717161617FFFFFFFFFFFFEA2616171717167416FFFFFFFFFF
310
16171616171717171717EAFFFFFFFFFFFFFFFFFFFFFFFFFFFFFF6716FFFFFFFF
310
7F4EFFFFFFFFBA2573FFFFFFFFBAFFFFFFFFAA167FB9BB9B269BFFFFFFFF664F
310
0000FFFFFFFFFFFFB9171616161616FFFFFFFFFFBA16161717164EFFFFFFFFFF
310
FFFF4E16161616174E161617171626EAFFFFFFFFFFFFFF4E16161616164E1716
310
16161617FFFFFFFFFFFF671616161716347F16FFFFFFFFFF16B9FFFFFFFFFFFF
310
D9168DFFFFFFFFFFFFFFFFFFFFFFFFFFFFEA1716FFFFFFFF7F4EFFFFFFFFFF7F
310
4EFFFFFFFFFFFFFFFFFF5B66FFFFFFEA347FFFFFFFFF7F4D0000FFFFFFFFFFFF
310
B9171616171617FFFFFFFFFFBA17161716174EFFFFFFFFFFFFFF4D1716161617
310
17161716161673FFFFFFFFFFFFFFFF9B1617161717161616171616174F4E4E4E
310
4E341616171616167E7F16FFFFFFFFFF16BAFFFFFFFFFFFFFF5B41FFFFFFFF34
310
1616171616BAFFFFFF9B1716FFFFFFFF7F4EFFFFFFFFFF4E4EFFFFFFFF734E4E
310
4E4E267EDA9B67164EEAFFFFFFFF744D0000FFFFFFFFFFFFBA171717161617FF
310
FFFFFFFFBA1616171616347F7F7F7F80807F331616161717161717161716B9FF
310
FFFFFFFFFFFFFFE9161616161616171716161716171616161616171616171734
310
EA7F16FFFFFFFFFF16BAFFFFFFFFFFFFFFAA17C9FFFFFF7326BABA5B25FFFFFF
310
FF401716FFFFFFFF7F264F4E4E4E4217AAFFFFFFEA16677F73261616164173CA
310
FFFFFFFFFFFF417F0000FFFFFFFFFFFFBA171616171617FFFFFFFFFFBA161616
310
17171616161616161616161717161616161616161617EAFFFFFFFFFFFFFFFFFF
310
261717161716161617161616161617161617161616174EEAFF8016FFFFFFFFFF
310
17BAFFFFFFFFFFFFFFFF3467FFFFFFC916C9FF3467FFFFFFDA166716FFFFFFFF
310
9C4D4E4E4E4E67AAFFFFFFFF6834FF7F262567AAEAFFFFFFFFFFFFFFFF9B17D9
310
0000FFFFFFFFFFFFB9161616161616FFFFFFFFFFBA1617161717171616161616
310
1716171716161716161617171716FFFFFFFFFFFFFFFFFFFF4E17161716171616
310
1617171616161716171717161616169BFF7F17FFFFFFFFFF17B9FFFFFFFFFFFF
310
FFFF7326FFFFFFFF3473DA16AAFFFFFF7317AA16FFFFFFFFFFFFFFFFFFFFFFFF
310
FFFFEA6725BA4E167FEAFFFFFFFFFFFFFFFFFFFF9C167FFF0000FFFFFFFFFFFF
310
B9161717171716FFFFFFFFFFBA16161716171616171717161617161716161616
310
171617171617EAFFFFFFFFFFFFFFFFFF26161717161616161616161617171616
310
1616161616171616AA8016FFFFFFFFFF16BAFFFFFFFFFFFFFFFFDA179BFFFFFF
310
74348D26FFFFFFFF2566B917FFFFFFFFD8BAB9BAB9BADAFFFFEA41169B7425C9
310
FFFFFFFFFFFFFFFFFFFFAB4F1680FFFF0000FFFFFFFFFFFFBA161717171617FF
310
FFFFFFFFBA17161717161617171617161616161617171616171716171617BBFF
310
FFFFFFFFFFFFFFE9171616161617161617161716FFFFFFFFFFD9671616161617
310
348017FFFFFFFFFF16BAFFFFFFFFFFFFFFFFFF4E5AFFFFFFC916265AFFFFFFAA
310
16AABA16FFFFFFFF7F1617161616179BFFFFEB4127168DFFFFFFFFFFFFFFD99B
310
6734175AC9FFFFFF0000FFFFFFFFFFFFB9161617171617FFFFFFFFFFBB161616
310
1616347F807F7F7F7F8033171716171617171616161672FFFFFFFFFFFFFFFF9C
310
171617171617161716161617FFFFFFFFFFFFFF4117161616174E17FFFFFFFFFF
310
16BAFFFFFFFFFFFFFFFFFF9B16DAFFFFFF34169BFFFFFF5A26FFB917FFFFFFFF
310
7F4EFFFFFFEA5B26FFFFFFEA2616EAFFFFFFFFDA743416331617414E4E4E4ECA
310
0000FFFFFFFFFFFFBA161716161616FFFFFFFFFFBA17171616164EFFFFFFFFFF
310
FFFF4E16161717174E161717171626EBFFFFFFFFFFFFFF4E16161617165B1616
310
16171617FFFFFFFFFFFFFF6716161616161617FFFFFFFFFF16BAFFFFFFFFFFFF
310
FFFFFFEA268CFFFFFF7316EAFFFFEB1774FFB916FFFFFFFF7F4EFFFFFFFF7316
310
FFFFFFFF6826FFFFFFFFEB264D9CEABA257F807F7F6616BA0000FFFFFFFFFFFF
310
BA161716161616FFFFFFFFFFBA16171616164DFFFFFFFFFFFFFF4E1617161617
310
9B1617171717165BEBFFFFFFFFFF671616161617179B171616161616FFFFFFFF
310
FFFFFF3417161617171617FFFFFFFFFF17BAFFFFFFFFFFFFFFFFFFFF6734FFFF
310
FFEBCAFFFFFF8D17C9FFBA17FFFFFFFF7F357F808066174FFFFFFFFF7F16FFFF
310
FFFFD91673B99B415BFFFFFFFFBA16DA00009B7F7F7F807F671617161616167F
310
80807F7E6617161616164EFFFFFFFFFFFFFF4E1616161617B94E171716161616
310
349BC9D9AA4E16171616161634FF161617161717B9B9BAB9BA9B411716171716
310
163416FFFFFFFFFF16B9FFFFFFFFFFFFFFFFFFFFC917CAFFFFFFFFFFFFFF3342
310
FFFFBA17FFFFFFFF9B4E4E4F4E4E66EAFFFFFFFF5B16C9FFFFFFFFAA4E164E73
310
EAFFFFFFFF8D26FF00004E161716161616171617171616171717171617161616
310
17174EFFFFFFFFFFFFFF4E1717171616B9D92616171716171716171717171716
310
16171716AAFF161717171617161617171616161617161716166717FFFFFFFFFF
310
17B9FFFFFFFFFFFFFFFFFFFFFF3467FFFFFFFFFFFFCA168CFFFFBB17FFFFFFFF
310
FFFFFFFFFFFFFFFFFFFFFFEA26265BFFFFFFFFFFFFFFFFFFFFFFFFFFEA3467FF
310
00004D16161616161617161717161617161616171617171616164EFFFFFFFFFF
310
FFFF4D1617161616BAFF9B1616161616161716161616171717161766FFFF1616
310
16171617161617161716171616171717667F16FFFFFFFFFF17BAFFFFFFFFFFFF
310
FFFFFFFFFF8C26EAFFFFFFFFFF6617EAFFFFBA17FFFFFFFFFFFFFFFFFFFFFFFF
310
FFFFEA5A25BA269BFFFFFFFFFFFFFFFFFFFFFFFF6616DAFF00004E1616171616
310
1616161616161716161617171616171616174EFFFFFFFFFFFFFF4D1717171716
310
B9FFFF9C161616161616161716161717171667FFFFFF17161717171716161617
310
1716161616161641E97E16FFFFFFFFFF16B9FFFFFFFFFFFFFFFFFFFFFFEA169B
310
FFFFFFFFEA265BFFFFFFB916FFFFFFFFFFFFFFFFFFFFFFFFFF9B3416AAFF9B17
310
67EAFFFFFFFFFFFFFFFFEA5B169BFFFF00004D17161716161616161717171616
310
161717161716171716174EFFFFFFFFFFFFFF4D1616161616BAFFFFFFBB411616
310
161716161616171634ABFFFFFFFF161716161617171716171617171617267FFF
310
FF7F164E4E4E4E4F17BAFFFFFFFFFFFFFFFFFFFFFFFF66344D4E4E4F4117AAFF
310
FFFFBA174E4E4E4D4E4D4D4E4E4E4E4116174EBBFFFFFFCA342666ABEAFFFFEA
310
AA6725269CFFFFFF0000724F4E4D4D4D4E4D4D4E4E4E4D4E4E4E4E4E4E4E4E4D
310
4E4E74FFFFFFFFFFFFFF734E4E4E4D4ECAFFFFFFFFFFAA663416171717265B9B
310
FFFFFFFFFFFF7F8080807F80807F7F7F7F7F807FBAFFFFFFFF9B4E4E4F4D4D4E
310
4DC9FFFFFFFFFFFFFFFFFFFFFFFFBA4E4E4E4E4D4E4EFFFFFFFFC94E4E4E4F4E
310
4E4E4D4E4E5A807F9CD9FFFFFFFFFFFFFF9B5B2617171716174E8DEAFFFFFFFF
310
0000000000000000000000000000000000000000000000000000000000000000
  1
OLE
  0
ENDSEC
  0
SECTION
  2
OBJECTS
  0
DICTIONARY
  5
C
330
0
100
AcDbDictionary
  3
ACAD_GROUP
350
D
  3
ACAD_MLINESTYLE
350
17
  3
ACAD_SCALELIST
350
47
1001
ACAD
1000
TREAT_AS_HARD
1070
     0
  0
DICTIONARY
  5
D
102
{ACAD_REACTORS
330
C
102
}
330
C
100
AcDbDictionary
1001
ACAD
1000
TREAT_AS_HARD
1070
     0
  0
DICTIONARY
  5
17
102
{ACAD_REACTORS
330
C
102
}
330
C
100
AcDbDictionary
  3
STANDARD
350
18
1001
ACAD
1000
TREAT_AS_HARD
1070
     0
  0
DICTIONARY
  5
47
102
{ACAD_REACTORS
330
C
102
}
330
C
100
AcDbDictionary
1001
ACAD
1000
TREAT_AS_HARD
1070
     0
  0
MLINESTYLE
  5
18
102
{ACAD_REACTORS
330
17
102
}
330
17
100
AcDbMlineStyle
  2
Standard
 70
     0
  3

 62
   256
 51
90.0
 52
90.0
 71
     2
 49
0.5
 62
   256
  6
BYLAYER
 49
-0.5
 62
   256
  6
BYLAYER
  0
ENDSEC
  0
EOF
