  0
SECTION
  2
HEADER
  9
$ACADVER
  1
AC1015
  9
$ACADMAINTVER
 70
     6
  9
$DWGCODEPAGE
  3
ANSI_1252
  9
$INSBASE
 10
0.0
 20
0.0
 30
0.0
  9
$EXTMIN
 10
0.0
 20
0.0
 30
0.0
  9
$EXTMAX
 10
279.4
 20
215.9
 30
0.0
  9
$LIMMIN
 10
0.0
 20
0.0
  9
$LIMMAX
 10
279.4
 20
215.9
  9
$ORTHOMODE
 70
     0
  9
$REGENMODE
 70
     1
  9
$FILLMODE
 70
     1
  9
$QTEXTMODE
 70
     0
  9
$MIRRTEXT
 70
     1
  9
$LTSCALE
 40
1.0
  9
$ATTMODE
 70
     1
  9
$TEXTSIZE
 40
2.8222222222
  9
$TRACEWID
 40
1.0
  9
$TEXTSTYLE
  7
Standard
  9
$CLAYER
  8
0
  9
$CELTYPE
  6
ByLayer
  9
$CECOLOR
 62
   256
  9
$CELTSCALE
 40
1.0
  9
$DISPSILH
 70
     0
  9
$DIMSCALE
 40
1.0
  9
$DIMASZ
 40
3.175
  9
$DIMEXO
 40
1.27
  9
$DIMDLI
 40
3.75
  9
$DIMRND
 40
0.0
  9
$DIMDLE
 40
0.0
  9
$DIMEXE
 40
1.778
  9
$DIMTP
 40
0.0
  9
$DIMTM
 40
0.0
  9
$DIMTXT
 40
2.8222222222
  9
$DIMCEN
 40
2.5
  9
$DIMTSZ
 40
0.0
  9
$DIMTOL
 70
     0
  9
$DIMLIM
 70
     0
  9
$DIMTIH
 70
     1
  9
$DIMTOH
 70
     1
  9
$DIMSE1
 70
     0
  9
$DIMSE2
 70
     0
  9
$DIMTAD
 70
     0
  9
$DIMZIN
 70
     1
  9
$DIMBLK
  1

  9
$DIMASO
 70
     1
  9
$DIMSHO
 70
     1
  9
$DIMPOST
  1

  9
$DIMAPOST
  1

  9
$DIMALT
 70
     0
  9
$DIMALTD
 70
     3
  9
$DIMALTF
 40
0.0393700787
  9
$DIMLFAC
 40
1.0
  9
$DIMTOFL
 70
     1
  9
$DIMTVP
 40
0.0
  9
$DIMTIX
 70
     0
  9
$DIMSOXD
 70
     0
  9
$DIMSAH
 70
     0
  9
$DIMBLK1
  1

  9
$DIMBLK2
  1

  9
$DIMSTYLE
  2
ISO-25
  9
$DIMCLRD
 70
     0
  9
$DIMCLRE
 70
     0
  9
$DIMCLRT
 70
     0
  9
$DIMTFAC
 40
1.0
  9
$DIMGAP
 40
2.54
  9
$DIMJUST
 70
     0
  9
$DIMSD1
 70
     0
  9
$DIMSD2
 70
     0
  9
$DIMTOLJ
 70
     0
  9
$DIMTZIN
 70
     1
  9
$DIMALTZ
 70
     0
  9
$DIMALTTZ
 70
     0
  9
$DIMUPT
 70
     0
  9
$DIMDEC
 70
     1
  9
$DIMTDEC
 70
     1
  9
$DIMALTU
 70
     2
  9
$DIMALTTD
 70
     3
  9
$DIMTXSTY
  7
Standard
  9
$DIMAUNIT
 70
     0
  9
$DIMADEC
 70
     0
  9
$DIMALTRND
 40
0.0
  9
$DIMAZIN
 70
     0
  9
$DIMDSEP
 70
    44
  9
$DIMATFIT
 70
     3
  9
$DIMFRAC
 70
     0
  9
$DIMLDRBLK
  1

  9
$DIMLUNIT
 70
     2
  9
$DIMLWD
 70
    -2
  9
$DIMLWE
 70
    -2
  9
$DIMTMOVE
 70
     0
  9
$LUNITS
 70
     2
  9
$LUPREC
 70
     1
  9
$SKETCHINC
 40
1.0
  9
$FILLETRAD
 40
10.0
  9
$AUNITS
 70
     0
  9
$AUPREC
 70
     0
  9
$MENU
  1
.
  9
$ELEVATION
 40
0.0
  9
$PELEVATION
 40
0.0
  9
$THICKNESS
 40
0.0
  9
$LIMCHECK
 70
     0
  9
$CHAMFERA
 40
0.0
  9
$CHAMFERB
 40
0.0
  9
$CHAMFERC
 40
0.0
  9
$CHAMFERD
 40
0.0
  9
$SKPOLY
 70
     0
  9
$TDCREATE
 40
2458204.669404861
  9
$TDUCREATE
 40
2458204.836071528
  9
$TDUPDATE
 40
2458204.66940684
  9
$TDUUPDATE
 40
2458204.836073507
  9
$TDINDWG
 40
0.0000000116
  9
$TDUSRTIMER
 40
0.0000000116
  9
$USRTIMER
 70
     1
  9
$ANGBASE
 50
0.0
  9
$ANGDIR
 70
     0
  9
$PDMODE
 70
     0
  9
$PDSIZE
 40
-1.0
  9
$PLINEWID
 40
0.0
  9
$SPLFRAME
 70
     0
  9
$SPLINETYPE
 70
     6
  9
$SPLINESEGS
 70
     8
  9
$HANDSEED
  5
1FF
  9
$SURFTAB1
 70
     6
  9
$SURFTAB2
 70
     6
  9
$SURFTYPE
 70
     6
  9
$SURFU
 70
     6
  9
$SURFV
 70
     6
  9
$UCSBASE
  2

  9
$UCSNAME
  2

  9
$UCSORG
 10
0.0
 20
0.0
 30
0.0
  9
$UCSXDIR
 10
1.0
 20
0.0
 30
0.0
  9
$UCSYDIR
 10
0.0
 20
1.0
 30
0.0
  9
$UCSORTHOREF
  2

  9
$UCSORTHOVIEW
 70
     0
  9
$UCSORGTOP
 10
0.0
 20
0.0
 30
0.0
  9
$UCSORGBOTTOM
 10
0.0
 20
0.0
 30
0.0
  9
$UCSORGLEFT
 10
0.0
 20
0.0
 30
0.0
  9
$UCSORGRIGHT
 10
0.0
 20
0.0
 30
0.0
  9
$UCSORGFRONT
 10
0.0
 20
0.0
 30
0.0
  9
$UCSORGBACK
 10
0.0
 20
0.0
 30
0.0
  9
$PUCSBASE
  2

  9
$PUCSNAME
  2

  9
$PUCSORG
 10
0.0
 20
0.0
 30
0.0
  9
$PUCSXDIR
 10
1.0
 20
0.0
 30
0.0
  9
$PUCSYDIR
 10
0.0
 20
1.0
 30
0.0
  9
$PUCSORTHOREF
  2

  9
$PUCSORTHOVIEW
 70
     0
  9
$PUCSORGTOP
 10
0.0
 20
0.0
 30
0.0
  9
$PUCSORGBOTTOM
 10
0.0
 20
0.0
 30
0.0
  9
$PUCSORGLEFT
 10
0.0
 20
0.0
 30
0.0
  9
$PUCSORGRIGHT
 10
0.0
 20
0.0
 30
0.0
  9
$PUCSORGFRONT
 10
0.0
 20
0.0
 30
0.0
  9
$PUCSORGBACK
 10
0.0
 20
0.0
 30
0.0
  9
$USERI1
 70
     0
  9
$USERI2
 70
     0
  9
$USERI3
 70
     0
  9
$USERI4
 70
     0
  9
$USERI5
 70
     0
  9
$USERR1
 40
0.0
  9
$USERR2
 40
0.0
  9
$USERR3
 40
0.0
  9
$USERR4
 40
0.0
  9
$USERR5
 40
0.0
  9
$WORLDVIEW
 70
     1
  9
$SHADEDGE
 70
     3
  9
$SHADEDIF
 70
    70
  9
$TILEMODE
 70
     1
  9
$MAXACTVP
 70
    64
  9
$PINSBASE
 10
0.0
 20
0.0
 30
0.0
  9
$PLIMCHECK
 70
     0
  9
$PEXTMIN
 10
1.0000000000E+20
 20
1.0000000000E+20
 30
1.0000000000E+20
  9
$PEXTMAX
 10
-1.0000000000E+20
 20
-1.0000000000E+20
 30
-1.0000000000E+20
  9
$PLIMMIN
 10
0.0
 20
0.0
  9
$PLIMMAX
 10
420.0
 20
297.0
  9
$UNITMODE
 70
     0
  9
$VISRETAIN
 70
     1
  9
$PLINEGEN
 70
     0
  9
$PSLTSCALE
 70
     1
  9
$TREEDEPTH
 70
  3020
  9
$CMLSTYLE
  2
Standard
  9
$CMLJUST
 70
     0
  9
$CMLSCALE
 40
20.0
  9
$PROXYGRAPHICS
 70
     1
  9
$MEASUREMENT
 70
     1
  9
$CELWEIGHT
370
    -1
  9
$ENDCAPS
280
     0
  9
$JOINSTYLE
280
     0
  9
$LWDISPLAY
290
     1
  9
$INSUNITS
 70
     4
  9
$HYPERLINKBASE
  1

  9
$STYLESHEET
  1

  9
$XEDIT
290
     1
  9
$CEPSNTYPE
380
     0
  9
$PSTYLEMODE
290
     1
  9
$FINGERPRINTGUID
  2
{2197904F-AE10-4D96-B5D8-DA9A81EE9280}
  9
$VERSIONGUID
  2
{FAEB1C32-E019-11D5-929B-00C0DF256EC4}
  9
$EXTNAMES
290
     1
  9
$PSVPSCALE
 40
0.0
  9
$OLESTARTUP
290
     0
  0
ENDSEC
  0
SECTION
  2
CLASSES
  0
CLASS
  1
ACDBDICTIONARYWDFLT
  2
AcDbDictionaryWithDefault
  3
ObjectDBX Classes
 90
        0
280
     0
281
     0
  0
CLASS
  1
VISUALSTYLE
  2
AcDbVisualStyle
  3
ObjectDBX Classes
 90
     4095
280
     0
281
     0
  0
CLASS
  1
MATERIAL
  2
AcDbMaterial
  3
ObjectDBX Classes
 90
     1153
280
     0
281
     0
  0
CLASS
  1
SCALE
  2
AcDbScale
  3
ObjectDBX Classes
 90
     1153
280
     0
281
     0
  0
CLASS
  1
TABLESTYLE
  2
AcDbTableStyle
  3
ObjectDBX Classes
 90
     4095
280
     0
281
     0
  0
CLASS
  1
MLEADERSTYLE
  2
AcDbMLeaderStyle
  3
ACDB_MLEADERSTYLE_CLASS
 90
     4095
280
     0
281
     0
  0
CLASS
  1
SUN
  2
AcDbSun
  3
SCENEOE
 90
     1153
280
     0
281
     0
  0
CLASS
  1
ACDBPLACEHOLDER
  2
AcDbPlaceHolder
  3
ObjectDBX Classes
 90
        0
280
     0
281
     0
  0
CLASS
  1
LAYOUT
  2
AcDbLayout
  3
ObjectDBX Classes
 90
        0
280
     0
281
     0
  0
ENDSEC
  0
SECTION
  2
TABLES
  0
TABLE
  2
VPORT
  5
8
330
0
100
AcDbSymbolTable
 70
     1
  0
VPORT
  5
29
330
8
100
AcDbSymbolTableRecord
100
AcDbViewportTableRecord
  2
*Active
 70
     0
 10
0.0
 20
0.0
 11
1.0
 21
1.0
 12
139.7
 22
107.95
 13
0.0
 23
0.0
 14
10.0
 24
10.0
 15
10.0
 25
10.0
 16
0.0
 26
0.0
 36
1.0
 17
0.0
 27
0.0
 37
0.0
 40
215.9
 41
1.2941176471
 42
50.0
 43
0.0
 44
0.0
 50
0.0
 51
0.0
 71
     0
 72
  2000
 73
     1
 74
     3
 75
     0
 76
     0
 77
     0
 78
     0
281
     0
 65
     1
110
0.0
120
0.0
130
0.0
111
1.0
121
0.0
131
0.0
112
0.0
122
1.0
132
0.0
 79
     0
146
0.0
  0
ENDTAB
  0
TABLE
  2
LTYPE
  5
5
330
0
100
AcDbSymbolTable
 70
     6
  0
LTYPE
  5
14
330
5
100
AcDbSymbolTableRecord
100
AcDbLinetypeTableRecord
  2
ByBlock
 70
     0
  3

 72
    65
 73
     0
 40
0.0
  0
LTYPE
  5
15
330
5
100
AcDbSymbolTableRecord
100
AcDbLinetypeTableRecord
  2
ByLayer
 70
     0
  3

 72
    65
 73
     0
 40
0.0
  0
LTYPE
  5
16
330
5
100
AcDbSymbolTableRecord
100
AcDbLinetypeTableRecord
  2
Continuous
 70
     0
  3
Solid line
 72
    65
 73
     0
 40
0.0
  0
LTYPE
  5
6E
330
5
100
AcDbSymbolTableRecord
100
AcDbLinetypeTableRecord
  2
HIDDEN
 70
     0
  3
Hidden __ __ __ __ __ __ __ __ __ __ __ __ __ __
 72
    65
 73
     2
 40
1.905
 49
1.27
 74
     0
 49
-0.635
 74
     0
  0
LTYPE
  5
6F
330
5
100
AcDbSymbolTableRecord
100
AcDbLinetypeTableRecord
  2
PHANTOM
 70
     0
  3
Phantom ______  __  __  ______  __  __  ______
 72
    65
 73
     6
 40
12.7
 49
6.35
 74
     0
 49
-1.27
 74
     0
 49
1.27
 74
     0
 49
-1.27
 74
     0
 49
1.27
 74
     0
 49
-1.27
 74
     0
  0
LTYPE
  5
70
330
5
100
AcDbSymbolTableRecord
100
AcDbLinetypeTableRecord
  2
CENTER
 70
     0
  3
Center ____ _ ____ _ ____ _ ____ _ ____ _ ____
 72
    65
 73
     4
 40
10.16
 49
6.35
 74
     0
 49
-1.27
 74
     0
 49
1.27
 74
     0
 49
-1.27
 74
     0
  0
LTYPE
  5
71
330
5
100
AcDbSymbolTableRecord
100
AcDbLinetypeTableRecord
  2
CENTERX2
 70
     0
  3
Center (2x) ________  __  ________  __  _____
 72
    65
 73
     4
 40
20.32
 49
12.7
 74
     0
 49
-2.54
 74
     0
 49
2.54
 74
     0
 49
-2.54
 74
     0
  0
LTYPE
  5
72
330
5
100
AcDbSymbolTableRecord
100
AcDbLinetypeTableRecord
  2
DOT2
 70
     0
  3
Dot (.5x) ........................................
 72
    65
 73
     2
 40
0.635
 49
0.0
 74
     0
 49
-0.635
 74
     0
  0
ENDTAB
  0
TABLE
  2
LAYER
  5
2
330
0
100
AcDbSymbolTable
 70
     2
  0
LAYER
  5
10
330
2
100
AcDbSymbolTableRecord
100
AcDbLayerTableRecord
  2
0
 70
     0
 62
     7
  6
Continuous
370
    -3
390
F
  0
LAYER
  5
73
330
2
100
AcDbSymbolTableRecord
100
AcDbLayerTableRecord
  2
FORMAT
 70
     0
 62
     7
  6
Continuous
370
    -3
390
F
  0
ENDTAB
  0
TABLE
  2
STYLE
  5
3
330
0
100
AcDbSymbolTable
 70
     5
  0
STYLE
  5
11
330
3
100
AcDbSymbolTableRecord
100
AcDbTextStyleTableRecord
  2
Standard
 70
     0
 40
0.0
 41
1.0
 50
0.0
 71
     0
 42
2.8222222222
  3
txt
  4

  0
STYLE
  5
9D
330
3
100
AcDbSymbolTableRecord
100
AcDbTextStyleTableRecord
  2
SLDTEXTSTYLE0
 70
     0
 40
0.0
 41
0.75
 50
0.0
 71
     0
 42
2.8222222222
  3
TXT
  4

  0
STYLE
  5
A5
330
3
100
AcDbSymbolTableRecord
100
AcDbTextStyleTableRecord
  2
SLDTEXTSTYLE1
 70
     0
 40
0.0
 41
0.75
 50
0.0
 71
     0
 42
2.8222222222
  3
TXT
  4
bigfont
  0
STYLE
  5
C2
330
3
100
AcDbSymbolTableRecord
100
AcDbTextStyleTableRecord
  2
SLDTEXTSTYLE2
 70
     0
 40
0.0
 41
0.6
 50
0.0
 71
     0
 42
2.8222222222
  3
TXT
  4

  0
STYLE
  5
C7
330
3
100
AcDbSymbolTableRecord
100
AcDbTextStyleTableRecord
  2
SLDTEXTSTYLE3
 70
     0
 40
0.0
 41
0.6875
 50
0.0
 71
     0
 42
2.8222222222
  3
TXT
  4

  0
ENDTAB
  0
TABLE
  2
VIEW
  5
6
330
0
100
AcDbSymbolTable
 70
     0
  0
ENDTAB
  0
TABLE
  2
UCS
  5
7
330
0
100
AcDbSymbolTable
 70
     0
  0
ENDTAB
  0
TABLE
  2
APPID
  5
9
330
0
100
AcDbSymbolTable
 70
     1
  0
APPID
  5
12
330
9
100
AcDbSymbolTableRecord
100
AcDbRegAppTableRecord
  2
ACAD
 70
     0
  0
ENDTAB
  0
TABLE
  2
DIMSTYLE
  5
A
330
0
100
AcDbSymbolTable
 70
     4
100
AcDbDimStyleTable
  0
DIMSTYLE
105
27
330
A
100
AcDbSymbolTableRecord
100
AcDbDimStyleTableRecord
  2
ISO-25
 70
     0
 41
2.5
 42
0.625
 43
3.75
 44
1.25
 73
     0
 74
     0
 77
     1
 78
     8
140
2.5
141
2.5
143
0.0393700787
147
0.625
171
     3
172
     1
178
     0
271
     2
272
     2
274
     3
278
    44
283
     0
284
     8
340
11
  0
DIMSTYLE
105
E7
102
{ACAD_REACTORS
330
E6
102
}
330
A
100
AcDbSymbolTableRecord
100
AcDbDimStyleTableRecord
  2
SLDDIMSTYLE0
 70
     0
 41
3.175
 44
0.0
 45
0.000000001
 78
    12
 79
     3
140
2.1166666667
141
0.0
143
0.0393700787
147
0.5291666667
148
0.000000001
170
     1
173
     1
178
     0
271
     1
272
     1
276
     2
284
    12
340
9D
  0
DIMSTYLE
105
16D
102
{ACAD_REACTORS
330
16C
102
}
330
A
100
AcDbSymbolTableRecord
100
AcDbDimStyleTableRecord
  2
SLDDIMSTYLE1
 70
     0
 41
3.175
 44
0.0
 45
0.000000001
 78
     4
 79
     1
140
2.1166666667
143
0.0393700787
147
0.5291666667
148
0.000000001
170
     1
172
     1
173
     1
178
     0
271
     1
272
     1
276
     2
284
    12
289
     0
340
9D
  0
DIMSTYLE
105
182
330
A
100
AcDbSymbolTableRecord
100
AcDbDimStyleTableRecord
  2
SLDDIMSTYLE2
 70
     0
 41
3.175
 44
0.0
 45
0.000000001
146
3.175
147
0.0
173
     1
178
     0
271
     0
272
     0
276
     2
340
11
  0
ENDTAB
  0
TABLE
  2
BLOCK_RECORD
  5
1
330
0
100
AcDbSymbolTable
 70
    10
  0
BLOCK_RECORD
  5
1F
330
1
100
AcDbSymbolTableRecord
100
AcDbBlockTableRecord
  2
*Model_Space
340
22
  0
BLOCK_RECORD
  5
1B
330
1
100
AcDbSymbolTableRecord
100
AcDbBlockTableRecord
  2
*Paper_Space
340
1E
  0
BLOCK_RECORD
  5
23
330
1
100
AcDbSymbolTableRecord
100
AcDbBlockTableRecord
  2
*Paper_Space0
340
26
  0
BLOCK_RECORD
  5
74
330
1
100
AcDbSymbolTableRecord
100
AcDbBlockTableRecord
  2
Third Angle Projection Block
340
0
102
{BLKREFS
331
99
102
}
  0
BLOCK_RECORD
  5
9A
330
1
100
AcDbSymbolTableRecord
100
AcDbBlockTableRecord
  2
SW_NOTE_0
340
0
102
{BLKREFS
331
B6
102
}
  0
BLOCK_RECORD
  5
C9
330
1
100
AcDbSymbolTableRecord
100
AcDbBlockTableRecord
  2
SW_NOTE_1
340
0
102
{BLKREFS
331
CE
102
}
  0
BLOCK_RECORD
  5
CF
330
1
100
AcDbSymbolTableRecord
100
AcDbBlockTableRecord
  2
SW_NOTE_2
340
0
102
{BLKREFS
331
D4
102
}
  0
BLOCK_RECORD
  5
D6
330
1
100
AcDbSymbolTableRecord
100
AcDbBlockTableRecord
  2
SW_NOTE_3
340
0
102
{BLKREFS
331
DB
102
}
  0
BLOCK_RECORD
  5
DC
330
1
100
AcDbSymbolTableRecord
100
AcDbBlockTableRecord
  2
SW_NOTE_4
340
0
102
{BLKREFS
331
E2
102
}
  0
BLOCK_RECORD
  5
E8
330
1
100
AcDbSymbolTableRecord
100
AcDbBlockTableRecord
  2
_D
340
0
  0
BLOCK_RECORD
  5
16E
330
1
100
AcDbSymbolTableRecord
100
AcDbBlockTableRecord
  2
_D_1
340
0
  0
BLOCK_RECORD
  5
184
330
1
100
AcDbSymbolTableRecord
100
AcDbBlockTableRecord
  2
SW_NOTE_5
340
0
102
{BLKREFS
331
189
102
}
  0
ENDTAB
  0
ENDSEC
  0
SECTION
  2
BLOCKS
  0
BLOCK
  5
20
330
1F
100
AcDbEntity
  8
0
100
AcDbBlockBegin
  2
*Model_Space
 70
     0
 10
0.0
 20
0.0
 30
0.0
  3
*Model_Space
  1

  0
ENDBLK
  5
21
330
1F
100
AcDbEntity
  8
0
100
AcDbBlockEnd
  0
BLOCK
  5
1C
330
1B
100
AcDbEntity
 67
     1
  8
0
100
AcDbBlockBegin
  2
*Paper_Space
 70
     0
 10
0.0
 20
0.0
 30
0.0
  3
*Paper_Space
  1

  0
ENDBLK
  5
1D
330
1B
100
AcDbEntity
 67
     1
  8
0
100
AcDbBlockEnd
  0
BLOCK
  5
24
330
23
100
AcDbEntity
  8
0
100
AcDbBlockBegin
  2
*Paper_Space0
 70
     0
 10
0.0
 20
0.0
 30
0.0
  3
*Paper_Space0
  1

  0
ENDBLK
  5
25
330
23
100
AcDbEntity
  8
0
100
AcDbBlockEnd
  0
BLOCK
  5
75
330
74
100
AcDbEntity
  8
0
100
AcDbBlockBegin
  2
Third Angle Projection Block
 70
     0
 10
0.0
 20
0.0
 30
0.0
  3
Third Angle Projection Block
  1

  0
CIRCLE
  5
77
330
74
100
AcDbEntity
  8
0
  6
Continuous
 62
     7
370
    30
100
AcDbCircle
 10
101.4766388944
 20
18.9404083667
 30
0.0
 40
1.768227153674871
  0
CIRCLE
  5
78
330
74
100
AcDbEntity
  8
0
  6
Continuous
 62
     7
370
    30
100
AcDbCircle
 10
101.4766388944
 20
18.9404083667
 30
0.0
 40
3.901228248531818
  0
LINE
  5
79
330
74
100
AcDbEntity
  8
0
  6
CENTERX2
 62
     7
370
     0
100
AcDbLine
 10
110.1367822585
 20
18.9404083667
 30
0.0
 11
119.4527334874
 21
18.9404083667
 31
0.0
  0
LINE
  5
7A
330
74
100
AcDbEntity
  8
0
  6
Continuous
 62
     7
370
    30
100
AcDbLine
 10
111.0016388944
 20
20.7086355204
 30
0.0
 11
111.0016388944
 21
17.172181213
 31
0.0
  0
LINE
  5
7B
330
74
100
AcDbEntity
  8
0
  6
Continuous
 62
     7
370
    30
100
AcDbLine
 10
111.0016388944
 20
17.172181213
 30
0.0
 11
118.6216388944
 21
15.1304083667
 31
0.0
  0
LINE
  5
7C
330
74
100
AcDbEntity
  8
0
  6
Continuous
 62
     7
370
    30
100
AcDbLine
 10
118.6216388944
 20
15.1304083667
 30
0.0
 11
118.6216388944
 21
22.7504083667
 31
0.0
  0
LINE
  5
7D
330
74
100
AcDbEntity
  8
0
  6
Continuous
 62
     7
370
    30
100
AcDbLine
 10
118.6216388944
 20
22.7504083667
 30
0.0
 11
111.0016388944
 21
20.7086355204
 31
0.0
  0
LINE
  5
7E
330
74
100
AcDbEntity
  8
0
  6
CENTERX2
 62
     7
370
     0
100
AcDbLine
 10
96.6025854619
 20
18.9404083667
 30
0.0
 11
106.3506923269
 21
18.9404083667
 31
0.0
  0
LINE
  5
7F
330
74
100
AcDbEntity
  8
0
  6
CENTERX2
 62
     7
370
     0
100
AcDbLine
 10
101.4766388944
 20
23.8144617992
 30
0.0
 11
101.4766388944
 21
14.0663549342
 31
0.0
  0
POINT
  5
80
330
74
100
AcDbEntity
  8
0
  6
Continuous
 62
     7
370
     0
100
AcDbPoint
 10
101.4766388944
 20
18.9404083667
 30
0.0
  0
ENDBLK
  5
76
330
74
100
AcDbEntity
  8
0
100
AcDbBlockEnd
  0
BLOCK
  5
9B
330
9A
100
AcDbEntity
  8
0
100
AcDbBlockBegin
  2
SW_NOTE_0
 70
     0
 10
0.0
 20
0.0
 30
0.0
  3
SW_NOTE_0
  1

  0
MTEXT
  5
9E
330
9A
100
AcDbEntity
  8
0
  6
Continuous
 62
     0
370
     0
100
AcDbMText
 10
0.0
 20
2.7285267159
 30
0.0
 40
2.1166666667
 41
0.0
 71
     1
 72
     1
  1
NOTES/SPECIFICATIONS:
  7
SLDTEXTSTYLE0
 73
     1
 44
1.0
  0
MTEXT
  5
9F
330
9A
100
AcDbEntity
  8
0
  6
Continuous
 62
     0
370
     0
100
AcDbMText
 10
9.9999997765
 20
-2.9159176604
 30
0.0
 40
2.1166666667
 41
0.0
 71
     1
 72
     1
  1
CLEAR APERTURE: >
  7
SLDTEXTSTYLE0
 73
     1
 44
1.0
  0
MTEXT
  5
A0
330
9A
100
AcDbEntity
  8
0
  6
Continuous
 62
     0
370
     0
100
AcDbMText
 10
36.2231489271
 20
-2.9159176604
 30
0.0
 40
2.1166666667
 41
0.0
 71
     1
 72
     1
  1
%%c
  7
SLDTEXTSTYLE0
 73
     1
 44
1.0
  0
MTEXT
  5
A1
330
9A
100
AcDbEntity
  8
0
  6
Continuous
 62
     0
370
     0
100
AcDbMText
 10
39.4181385636
 20
-2.9159176604
 30
0.0
 40
2.1166666667
 41
0.0
 71
     1
 72
     1
  1
45.72mm
  7
SLDTEXTSTYLE0
 73
     1
 44
1.0
  0
MTEXT
  5
A2
330
9A
100
AcDbEntity
  8
0
  6
Continuous
 62
     0
370
     0
100
AcDbMText
 10
0.0
 20
-2.9159176604
 30
0.0
 40
2.1166666667
 41
0.0
 71
     1
 72
     1
  1
1.
  7
SLDTEXTSTYLE0
 73
     1
 44
1.0
  0
MTEXT
  5
A3
330
9A
100
AcDbEntity
  8
0
  6
Continuous
 62
     0
370
     0
100
AcDbMText
 10
9.9999997765
 20
-5.7381398485
 30
0.0
 40
2.1166666667
 41
0.0
 71
     1
 72
     1
  1
SURFACE QUALITY: 40-20 SCRATCH-DIG
  7
SLDTEXTSTYLE0
 73
     1
 44
1.0
  0
MTEXT
  5
A4
330
9A
100
AcDbEntity
  8
0
  6
Continuous
 62
     0
370
     0
100
AcDbMText
 10
0.0
 20
-5.7381398485
 30
0.0
 40
2.1166666667
 41
0.0
 71
     1
 72
     1
  1
2.
  7
SLDTEXTSTYLE0
 73
     1
 44
1.0
  0
MTEXT
  5
A6
330
9A
100
AcDbEntity
  8
0
  6
Continuous
 62
     0
370
     0
100
AcDbMText
 10
9.9999997765
 20
-8.5603620366
 30
0.0
 40
2.1166666667
 41
0.0
 71
     1
 72
     1
  1
TRANSMITTED WAVEFRONT ERROR: <\M+183C9/4 AT 633nm
  7
SLDTEXTSTYLE1
 73
     1
 44
1.0
  0
MTEXT
  5
A7
330
9A
100
AcDbEntity
  8
0
  6
Continuous
 62
     0
370
     0
100
AcDbMText
 10
0.0
 20
-8.5603620366
 30
0.0
 40
2.1166666667
 41
0.0
 71
     1
 72
     1
  1
3.
  7
SLDTEXTSTYLE0
 73
     1
 44
1.0
  0
MTEXT
  5
A8
330
9A
100
AcDbEntity
  8
0
  6
Continuous
 62
     0
370
     0
100
AcDbMText
 10
9.9999997765
 20
-11.3825842247
 30
0.0
 40
2.1166666667
 41
0.0
 71
     1
 72
     1
  1
PARALLELISM: <3 arcmin
  7
SLDTEXTSTYLE0
 73
     1
 44
1.0
  0
MTEXT
  5
A9
330
9A
100
AcDbEntity
  8
0
  6
Continuous
 62
     0
370
     0
100
AcDbMText
 10
0.0
 20
-11.3825842247
 30
0.0
 40
2.1166666667
 41
0.0
 71
     1
 72
     1
  1
4.
  7
SLDTEXTSTYLE0
 73
     1
 44
1.0
  0
MTEXT
  5
AA
330
9A
100
AcDbEntity
  8
0
  6
Continuous
 62
     0
370
     0
100
AcDbMText
 10
9.9999997765
 20
-14.2048064128
 30
0.0
 40
2.1166666667
 41
0.0
 71
     1
 72
     1
  1
FILTER COATING (S1):
  7
SLDTEXTSTYLE0
 73
     1
 44
1.0
  0
MTEXT
  5
AB
330
9A
100
AcDbEntity
  8
0
  6
Continuous
 62
     0
370
     0
100
AcDbMText
 10
0.0
 20
-14.2048064128
 30
0.0
 40
2.1166666667
 41
0.0
 71
     1
 72
     1
  1
5.
  7
SLDTEXTSTYLE0
 73
     1
 44
1.0
  0
MTEXT
  5
AC
330
9A
100
AcDbEntity
  8
0
  6
Continuous
 62
     0
370
     0
100
AcDbMText
 10
20.0
 20
-17.027028601
 30
0.0
 40
2.1166666667
 41
0.0
 71
     1
 72
     1
  1
REFLECTION BAND (R): >95% AVERAGE, >90% ABSOUTE 1000-1450nm
  7
SLDTEXTSTYLE0
 73
     1
 44
1.0
  0
MTEXT
  5
AD
330
9A
100
AcDbEntity
  8
0
  6
Continuous
 62
     0
370
     0
100
AcDbMText
 10
20.0
 20
-19.8492507891
 30
0.0
 40
2.1166666667
 41
0.0
 71
     1
 72
     1
  1
TRANSMISSION BAND (T): >90% AVERAGE, >85% ABSOLUTE 1550-2000nm
  7
SLDTEXTSTYLE0
 73
     1
 44
1.0
  0
MTEXT
  5
AE
330
9A
100
AcDbEntity
  8
0
  6
Continuous
 62
     0
370
     0
100
AcDbMText
 10
20.0
 20
-22.6714729772
 30
0.0
 40
2.1166666667
 41
0.0
 71
     1
 72
     1
  1
45
  7
SLDTEXTSTYLE0
 73
     1
 44
1.0
  0
MTEXT
  5
AF
330
9A
100
AcDbEntity
  8
0
  6
Continuous
 62
     0
370
     0
100
AcDbMText
 10
23.1279630493
 20
-22.6714729772
 30
0.0
 40
2.1166666667
 41
0.0
 71
     1
 72
     1
  1
%%d
  7
SLDTEXTSTYLE0
 73
     1
 44
1.0
  0
MTEXT
  5
B0
330
9A
100
AcDbEntity
  8
0
  6
Continuous
 62
     0
370
     0
100
AcDbMText
 10
25.2669724196
 20
-22.6714729772
 30
0.0
 40
2.1166666667
 41
0.0
 71
     1
 72
     1
  1
AOI
  7
SLDTEXTSTYLE0
 73
     1
 44
1.0
  0
MTEXT
  5
B1
330
9A
100
AcDbEntity
  8
0
  6
Continuous
 62
     0
370
     0
100
AcDbMText
 10
9.9999997765
 20
-25.4936951653
 30
0.0
 40
2.1166666667
 41
0.0
 71
     1
 72
     1
  1
AR COATING (S2):
  7
SLDTEXTSTYLE0
 73
     1
 44
1.0
  0
MTEXT
  5
B2
330
9A
100
AcDbEntity
  8
0
  6
Continuous
 62
     0
370
     0
100
AcDbMText
 10
0.0
 20
-25.4936951653
 30
0.0
 40
2.1166666667
 41
0.0
 71
     1
 72
     1
  1
6.
  7
SLDTEXTSTYLE0
 73
     1
 44
1.0
  0
MTEXT
  5
B3
330
9A
100
AcDbEntity
  8
0
  6
Continuous
 62
     0
370
     0
100
AcDbMText
 10
20.0
 20
-28.3159173534
 30
0.0
 40
2.1166666667
 41
0.0
 71
     1
 72
     1
  1
R: <2% ABSOLUTE 1550-2000nm 45
  7
SLDTEXTSTYLE0
 73
     1
 44
1.0
  0
MTEXT
  5
B4
330
9A
100
AcDbEntity
  8
0
  6
Continuous
 62
     0
370
     0
100
AcDbMText
 10
65.4534590244
 20
-28.3159173534
 30
0.0
 40
2.1166666667
 41
0.0
 71
     1
 72
     1
  1
%%d
  7
SLDTEXTSTYLE0
 73
     1
 44
1.0
  0
MTEXT
  5
B5
330
9A
100
AcDbEntity
  8
0
  6
Continuous
 62
     0
370
     0
100
AcDbMText
 10
67.5924672306
 20
-28.3159173534
 30
0.0
 40
2.1166666667
 41
0.0
 71
     1
 72
     1
  1
AOI
  7
SLDTEXTSTYLE0
 73
     1
 44
1.0
  0
ENDBLK
  5
9C
330
9A
100
AcDbEntity
  8
0
100
AcDbBlockEnd
  0
BLOCK
  5
CA
330
C9
100
AcDbEntity
  8
0
100
AcDbBlockBegin
  2
SW_NOTE_1
 70
     0
 10
0.0
 20
0.0
 30
0.0
  3
SW_NOTE_1
  1

  0
MTEXT
  5
CC
330
C9
100
AcDbEntity
  8
0
  6
Continuous
 62
     0
370
     0
100
AcDbMText
 10
19.90725
 20
1.9645392354
 30
0.0
 40
1.524
 41
0.0
 71
     2
 72
     1
  1
VALUES IN PARENTHESIS ARE CALCULATED
  7
SLDTEXTSTYLE0
 73
     1
 44
1.0
  0
MTEXT
  5
CD
330
C9
100
AcDbEntity
  8
0
  6
Continuous
 62
     0
370
     0
100
AcDbMText
 10
19.8778795174
 20
-0.5594606586
 30
0.0
 40
1.524
 41
0.0
 71
     2
 72
     1
  1
AND MAY CONTAIN ROUNDOFF ERRORS
  7
SLDTEXTSTYLE0
 73
     1
 44
1.0
  0
ENDBLK
  5
CB
330
C9
100
AcDbEntity
  8
0
100
AcDbBlockEnd
  0
BLOCK
  5
D0
330
CF
100
AcDbEntity
  8
0
100
AcDbBlockBegin
  2
SW_NOTE_2
 70
     0
 10
0.0
 20
0.0
 30
0.0
  3
SW_NOTE_2
  1

  0
MTEXT
  5
D2
330
CF
100
AcDbEntity
  8
0
  6
Continuous
 62
     0
370
     0
100
AcDbMText
 10
0.0
 20
2.7285267159
 30
0.0
 40
2.1166666667
 41
0.0
 71
     1
 72
     1
  1
DRAWING
  7
SLDTEXTSTYLE0
 73
     1
 44
1.0
  0
MTEXT
  5
D3
330
CF
100
AcDbEntity
  8
0
  6
Continuous
 62
     0
370
     0
100
AcDbMText
 10
0.0
 20
-0.0936954723
 30
0.0
 40
2.1166666667
 41
0.0
 71
     1
 72
     1
  1
PROJECTION
  7
SLDTEXTSTYLE0
 73
     1
 44
1.0
  0
ENDBLK
  5
D1
330
CF
100
AcDbEntity
  8
0
100
AcDbBlockEnd
  0
BLOCK
  5
D7
330
D6
100
AcDbEntity
  8
0
100
AcDbBlockBegin
  2
SW_NOTE_3
 70
     0
 10
0.0
 20
0.0
 30
0.0
  3
SW_NOTE_3
  1

  0
MTEXT
  5
D9
330
D6
100
AcDbEntity
  8
0
  6
Continuous
 62
     0
370
     0
100
AcDbMText
 10
25.052734375
 20
4.0927900738
 30
0.0
 40
3.175
 41
0.0
 71
     2
 72
     1
  1
FOR INFORMATION ONLY
  7
SLDTEXTSTYLE0
 73
     1
 44
1.0
  0
MTEXT
  5
DA
330
D6
100
AcDbEntity
  8
0
  6
Continuous
 62
     0
370
     0
100
AcDbMText
 10
25.3768468589
 20
-0.1405432084
 30
0.0
 40
3.175
 41
0.0
 71
     2
 72
     1
  1
NOT FOR MANUFACTURING PURPOSES
  7
SLDTEXTSTYLE0
 73
     1
 44
1.0
  0
ENDBLK
  5
D8
330
D6
100
AcDbEntity
  8
0
100
AcDbBlockEnd
  0
BLOCK
  5
DD
330
DC
100
AcDbEntity
  8
0
100
AcDbBlockBegin
  2
SW_NOTE_4
 70
     0
 10
0.0
 20
0.0
 30
0.0
  3
SW_NOTE_4
  1

  0
MTEXT
  5
DF
330
DC
100
AcDbEntity
  8
0
  6
Continuous
 62
     0
370
     0
100
AcDbMText
 10
1.9016927083
 20
3.4106583948
 30
0.0
 40
2.6458333333
 41
0.0
 71
     2
 72
     1
  1
%%c
  7
SLDTEXTSTYLE0
 73
     1
 44
1.0
  0
MTEXT
  5
E0
330
DC
100
AcDbEntity
  8
0
  6
Continuous
 62
     0
370
     0
100
AcDbMText
 10
20.1167853177
 20
3.4106583948
 30
0.0
 40
2.6458333333
 41
0.0
 71
     2
 72
     1
  1
50.8mm LONGPASS
  7
SLDTEXTSTYLE0
 73
     1
 44
1.0
  0
MTEXT
  5
E1
330
DC
100
AcDbEntity
  8
0
  6
Continuous
 62
     0
370
     0
100
AcDbMText
 10
18.2071939905
 20
-0.1171193403
 30
0.0
 40
2.6458333333
 41
0.0
 71
     2
 72
     1
  1
DICHROIC MIRROR 1500nm
  7
SLDTEXTSTYLE0
 73
     1
 44
1.0
  0
ENDBLK
  5
DE
330
DC
100
AcDbEntity
  8
0
100
AcDbBlockEnd
  0
BLOCK
  5
E9
330
E8
100
AcDbEntity
  8
0
100
AcDbBlockBegin
  2
_D
 70
     0
 10
0.0
 20
0.0
 30
0.0
  3
_D
  1

  0
SOLID
  5
EB
330
E8
100
AcDbEntity
  8
0
  6
Continuous
 62
     7
370
     0
100
AcDbTrace
 10
66.8943021265
 20
120.1609592815
 30
0.0
 11
65.169840656
 21
122.8747981928
 31
0.0
 12
64.4091776057
 22
122.2012644342
 32
0.0
 13
64.4091776057
 23
122.2012644342
 33
0.0
  0
LINE
  5
EC
330
E8
100
AcDbEntity
  8
0
  6
Continuous
 62
     7
370
     0
100
AcDbLine
 10
43.3015287141
 20
126.6223229397
 30
0.0
 11
42.65770926
 21
126.6223229397
 31
0.0
  0
LINE
  5
ED
330
E8
100
AcDbEntity
  8
0
  6
Continuous
 62
     7
370
     0
100
AcDbLine
 10
42.65770926
 20
126.6223229397
 30
0.0
 11
42.65770926
 21
123.2591748632
 31
0.0
  0
LINE
  5
EE
330
E8
100
AcDbEntity
  8
0
  6
Continuous
 62
     7
370
     0
100
AcDbLine
 10
42.65770926
 20
123.2591748632
 30
0.0
 11
43.3015287141
 21
123.2591748632
 31
0.0
  0
LINE
  5
EF
330
E8
100
AcDbEntity
  8
0
  6
Continuous
 62
     7
370
     0
100
AcDbLine
 10
51.0587202604
 20
126.6223229397
 30
0.0
 11
51.7025397145
 21
126.6223229397
 31
0.0
  0
LINE
  5
F0
330
E8
100
AcDbEntity
  8
0
  6
Continuous
 62
     7
370
     0
100
AcDbLine
 10
51.7025397145
 20
126.6223229397
 30
0.0
 11
51.7025397145
 21
123.2591748632
 31
0.0
  0
LINE
  5
F1
330
E8
100
AcDbEntity
  8
0
  6
Continuous
 62
     7
370
     0
100
AcDbLine
 10
51.7025397145
 20
123.2591748632
 30
0.0
 11
51.0587202604
 21
123.2591748632
 31
0.0
  0
LINE
  5
F2
330
E8
100
AcDbEntity
  8
0
  6
Continuous
 62
     7
370
     0
100
AcDbLine
 10
66.8943021265
 20
120.1609592815
 30
0.0
 11
59.7825227519
 21
128.1927286213
 31
0.0
  0
LINE
  5
F3
330
E8
100
AcDbEntity
  8
0
  6
Continuous
 62
     7
370
     0
100
AcDbLine
 10
59.7825227519
 20
128.1927286213
 30
0.0
 11
55.9725227519
 21
128.1927286213
 31
0.0
  0
MTEXT
  5
F4
330
E8
100
AcDbEntity
  8
0
  6
Continuous
 62
     7
370
     0
100
AcDbMText
 10
42.0138898059
 20
129.7800625862
 30
0.0
 40
2.1166666667
 41
0.0
 71
     1
 72
     1
  1
%%c
  7
SLDTEXTSTYLE0
 73
     1
 44
1.0
  0
MTEXT
  5
F5
330
E8
100
AcDbEntity
  8
0
  6
Continuous
 62
     7
370
     0
100
AcDbMText
 10
45.2088806066
 20
129.7800625862
 30
0.0
 40
2.1166666667
 41
0.0
 71
     1
 72
     1
  1
50.8mm
  7
SLDTEXTSTYLE0
 73
     1
 44
1.0
  0
MTEXT
  5
F6
330
E8
100
AcDbEntity
  8
0
  6
Continuous
 62
     7
370
     0
100
AcDbMText
 10
43.3015287141
 20
125.9877014627
 30
0.0
 40
2.1166666667
 41
0.0
 71
     1
 72
     1
  1
2.00in
  7
SLDTEXTSTYLE0
 73
     1
 44
1.0
  0
ENDBLK
  5
EA
330
E8
100
AcDbEntity
  8
0
100
AcDbBlockEnd
  0
BLOCK
  5
16F
330
16E
100
AcDbEntity
  8
0
100
AcDbBlockBegin
  2
_D_1
 70
     0
 10
0.0
 20
0.0
 30
0.0
  3
_D_1
  1

  0
SOLID
  5
171
330
16E
100
AcDbEntity
  8
0
  6
Continuous
 62
     7
370
     0
100
AcDbTrace
 10
171.883464194
 20
131.5443830254
 30
0.0
 11
168.708464194
 21
132.0523830254
 31
0.0
 12
168.708464194
 22
131.0363830254
 32
0.0
 13
168.708464194
 23
131.0363830254
 33
0.0
  0
SOLID
  5
172
330
16E
100
AcDbEntity
  8
0
  6
Continuous
 62
     7
370
     0
100
AcDbTrace
 10
176.883464194
 20
131.5443830254
 30
0.0
 11
180.058464194
 21
131.0363830254
 31
0.0
 12
180.058464194
 22
132.0523830254
 32
0.0
 13
180.058464194
 23
132.0523830254
 33
0.0
  0
LINE
  5
173
330
16E
100
AcDbEntity
  8
0
  6
Continuous
 62
     7
370
     0
100
AcDbLine
 10
183.139397676
 20
131.5443827925
 30
0.0
 11
182.4955782218
 21
131.5443827925
 31
0.0
  0
LINE
  5
174
330
16E
100
AcDbEntity
  8
0
  6
Continuous
 62
     7
370
     0
100
AcDbLine
 10
182.4955782218
 20
131.5443827925
 30
0.0
 11
182.4955782218
 21
128.1812347161
 31
0.0
  0
LINE
  5
175
330
16E
100
AcDbEntity
  8
0
  6
Continuous
 62
     7
370
     0
100
AcDbLine
 10
182.4955782218
 20
128.1812347161
 30
0.0
 11
183.139397676
 21
128.1812347161
 31
0.0
  0
LINE
  5
176
330
16E
100
AcDbEntity
  8
0
  6
Continuous
 62
     7
370
     0
100
AcDbLine
 10
190.8965892222
 20
131.5443827925
 30
0.0
 11
191.5404086763
 21
131.5443827925
 31
0.0
  0
LINE
  5
177
330
16E
100
AcDbEntity
  8
0
  6
Continuous
 62
     7
370
     0
100
AcDbLine
 10
191.5404086763
 20
131.5443827925
 30
0.0
 11
191.5404086763
 21
128.1812347161
 31
0.0
  0
LINE
  5
178
330
16E
100
AcDbEntity
  8
0
  6
Continuous
 62
     7
370
     0
100
AcDbLine
 10
191.5404086763
 20
128.1812347161
 30
0.0
 11
190.8965892222
 21
128.1812347161
 31
0.0
  0
LINE
  5
179
330
16E
100
AcDbEntity
  8
0
  6
Continuous
 62
     7
370
     0
100
AcDbLine
 10
171.883464194
 20
127.6143830254
 30
0.0
 11
171.883464194
 21
133.3223830254
 31
0.0
  0
LINE
  5
17A
330
16E
100
AcDbEntity
  8
0
  6
Continuous
 62
     7
370
     0
100
AcDbLine
 10
176.883464194
 20
127.6143830254
 30
0.0
 11
176.883464194
 21
133.3223830254
 31
0.0
  0
LINE
  5
17B
330
16E
100
AcDbEntity
  8
0
  6
Continuous
 62
     7
370
     0
100
AcDbLine
 10
171.883464194
 20
131.5443830254
 30
0.0
 11
165.533464194
 21
131.5443830254
 31
0.0
  0
LINE
  5
17C
330
16E
100
AcDbEntity
  8
0
  6
Continuous
 62
     7
370
     0
100
AcDbLine
 10
176.883464194
 20
131.5443830254
 30
0.0
 11
179.8622315814
 21
131.5443830254
 31
0.0
  0
MTEXT
  5
17D
330
16E
100
AcDbEntity
  8
0
  6
Continuous
 62
     7
370
     0
100
AcDbMText
 10
181.8791970633
 20
134.702122439
 30
0.0
 40
2.1166666667
 41
0.0
 71
     1
 72
     1
  1

  7
SLDTEXTSTYLE0
 73
     1
 44
1.0
  0
MTEXT
  5
17E
330
16E
100
AcDbEntity
  8
0
  6
Continuous
 62
     7
370
     0
100
AcDbMText
 10
182.4181630806
 20
134.702122439
 30
0.0
 40
2.1166666667
 41
0.0
 71
     1
 72
     1
  1
5.0mm
  7
SLDTEXTSTYLE0
 73
     1
 44
1.0
  0
MTEXT
  5
17F
330
16E
100
AcDbEntity
  8
0
  6
Continuous
 62
     7
370
     0
100
AcDbMText
 10
183.139397676
 20
130.9097613155
 30
0.0
 40
2.1166666667
 41
0.0
 71
     1
 72
     1
  1
0.20in
  7
SLDTEXTSTYLE0
 73
     1
 44
1.0
  0
MTEXT
  5
180
330
16E
100
AcDbEntity
  8
0
  6
Continuous
 62
     7
370
     0
100
AcDbMText
 10
193.7717281305
 20
134.702122439
 30
0.0
 40
2.1166666667
 41
0.0
 71
     1
 72
     1
  1

  7
SLDTEXTSTYLE0
 73
     1
 44
1.0
  0
ENDBLK
  5
170
330
16E
100
AcDbEntity
  8
0
100
AcDbBlockEnd
  0
BLOCK
  5
185
330
184
100
AcDbEntity
  8
0
100
AcDbBlockBegin
  2
SW_NOTE_5
 70
     0
 10
0.0
 20
0.0
 30
0.0
  3
SW_NOTE_5
  1

  0
MTEXT
  5
187
330
184
100
AcDbEntity
  8
0
  6
Continuous
 62
     0
370
     0
100
AcDbMText
 10
0.5725927121
 20
1.0869062825
 30
0.0
 40
2.1166666667
 41
0.0
 71
     1
 72
     1
  1
S2
  7
SLDTEXTSTYLE0
 73
     1
 44
1.0
  0
MTEXT
  5
188
330
184
100
AcDbEntity
  8
0
  6
Continuous
 62
     0
370
     0
100
AcDbMText
 10
0.5725927121
 20
-1.7353159056
 30
0.0
 40
2.1166666667
 41
0.0
 71
     1
 72
     1
  1
INDICATED BY ENGRAVED ARROW
  7
SLDTEXTSTYLE0
 73
     1
 44
1.0
  0
ENDBLK
  5
186
330
184
100
AcDbEntity
  8
0
100
AcDbBlockEnd
  0
ENDSEC
  0
SECTION
  2
ENTITIES
  0
LINE
  5
81
330
1F
100
AcDbEntity
  8
0
  6
Continuous
 62
     7
370
     0
100
AcDbLine
 10
1.5793501011
 20
214.6453799966
 30
0.0
 11
277.9892068491
 21
214.6453799966
 31
0.0
  0
LINE
  5
82
330
1F
100
AcDbEntity
  8
0
  6
Continuous
 62
     7
370
     0
100
AcDbLine
 10
1.5793501011
 20
214.6453799966
 30
0.0
 11
1.5793501011
 21
0.9031642596
 31
0.0
  0
LINE
  5
83
330
1F
100
AcDbEntity
  8
0
  6
Continuous
 62
     7
370
     0
100
AcDbLine
 10
277.9892068491
 20
0.9031642596
 30
0.0
 11
1.5793501011
 21
0.9031642596
 31
0.0
  0
LINE
  5
84
330
1F
100
AcDbEntity
  8
0
  6
Continuous
 62
     7
370
     0
100
AcDbLine
 10
277.9892068491
 20
0.9031642596
 30
0.0
 11
277.9892068491
 21
214.6453799966
 31
0.0
  0
LINE
  5
85
330
1F
100
AcDbEntity
  8
0
  6
Continuous
 62
     7
370
     0
100
AcDbLine
 10
215.7427640041
 20
12.2958890132
 30
0.0
 11
171.6327596684
 21
12.2958890132
 31
0.0
  0
LINE
  5
86
330
1F
100
AcDbEntity
  8
0
  6
Continuous
 62
     7
370
     0
100
AcDbLine
 10
171.6327596684
 20
12.2958890132
 30
0.0
 11
171.6327596684
 21
26.1661402506
 31
0.0
  0
LINE
  5
87
330
1F
100
AcDbEntity
  8
0
  6
Continuous
 62
     7
370
     0
100
AcDbLine
 10
171.6327596684
 20
0.9031642596
 30
0.0
 11
171.6327596684
 21
26.1661402506
 31
0.0
  0
LINE
  5
88
330
1F
100
AcDbEntity
  8
0
  6
Continuous
 62
     7
370
     0
100
AcDbLine
 10
215.7427640041
 20
17.1604579552
 30
0.0
 11
277.9892068491
 21
17.1604579552
 31
0.0
  0
LINE
  5
89
330
1F
100
AcDbEntity
  8
0
  6
Continuous
 62
     7
370
     0
100
AcDbLine
 10
215.7427640041
 20
35.2394508358
 30
0.0
 11
215.7427640041
 21
0.9031642596
 31
0.0
  0
LINE
  5
8A
330
1F
100
AcDbEntity
  8
0
  6
Continuous
 62
     7
370
     0
100
AcDbLine
 10
215.7427640041
 20
26.1661402506
 30
0.0
 11
171.6327596684
 21
26.1661402506
 31
0.0
  0
LINE
  5
8B
330
1F
100
AcDbEntity
  8
0
  6
Continuous
 62
     7
370
     0
100
AcDbLine
 10
215.7427640041
 20
9.1409200612
 30
0.0
 11
277.9892068491
 21
9.1409200612
 31
0.0
  0
LINE
  5
8C
330
1F
100
AcDbEntity
  8
0
  6
Continuous
 62
     7
370
     0
100
AcDbLine
 10
215.7427640041
 20
16.9216824031
 30
0.0
 11
171.6327596684
 21
16.9216824031
 31
0.0
  0
LINE
  5
8D
330
1F
100
AcDbEntity
  8
0
  6
Continuous
 62
     7
370
     0
100
AcDbLine
 10
215.7427640041
 20
21.4874005542
 30
0.0
 11
171.6327596684
 21
21.4874005542
 31
0.0
  0
LINE
  5
8E
330
1F
100
AcDbEntity
  8
0
  6
Continuous
 62
     7
370
     0
100
AcDbLine
 10
186.1338100705
 20
26.1661402506
 30
0.0
 11
186.1338100705
 21
12.2958890132
 31
0.0
  0
LINE
  5
8F
330
1F
100
AcDbEntity
  8
0
  6
Continuous
 62
     7
370
     0
100
AcDbLine
 10
198.2145906188
 20
26.1661402506
 30
0.0
 11
198.2145906188
 21
12.2958890132
 31
0.0
  0
LINE
  5
90
330
1F
100
AcDbEntity
  8
0
  6
Continuous
 62
     7
370
     0
100
AcDbLine
 10
253.7490408369
 20
9.1409200612
 30
0.0
 11
253.7490408369
 21
0.9031642596
 31
0.0
  0
LINE
  5
91
330
1F
100
AcDbEntity
  8
0
  6
Continuous
 62
     7
370
     0
100
AcDbLine
 10
171.6327596684
 20
12.2958890132
 30
0.0
 11
171.6327596684
 21
7.5627342528
 31
0.0
  0
LINE
  5
92
330
1F
100
AcDbEntity
  8
0
  6
Continuous
 62
     7
370
     0
100
AcDbLine
 10
171.6327596684
 20
7.5627342528
 30
0.0
 11
215.7427640041
 21
7.5627342528
 31
0.0
  0
LINE
  5
93
330
1F
100
AcDbEntity
  8
0
  6
Continuous
 62
     7
370
     0
100
AcDbLine
 10
171.6327596684
 20
7.5627342528
 30
0.0
 11
171.6327596684
 21
35.2394508358
 31
0.0
  0
LINE
  5
94
330
1F
100
AcDbEntity
  8
0
  6
Continuous
 62
     7
370
     0
100
AcDbLine
 10
171.6327596684
 20
35.2394508358
 30
0.0
 11
215.7427640041
 21
35.2394508358
 31
0.0
  0
LINE
  5
95
330
1F
100
AcDbEntity
  8
0
  6
Continuous
 62
     7
370
     0
100
AcDbLine
 10
270.1683598194
 20
17.1604579552
 30
0.0
 11
270.1683598194
 21
9.1409200612
 31
0.0
  0
LINE
  5
96
330
1F
100
AcDbEntity
  8
0
  6
Continuous
 62
     7
370
     0
100
AcDbLine
 10
215.7427640041
 20
35.2394508358
 30
0.0
 11
277.9892068491
 21
35.2394508358
 31
0.0
  0
LINE
  5
97
330
1F
100
AcDbEntity
  8
0
  6
Continuous
 62
     7
370
     0
100
AcDbLine
 10
277.9892068491
 20
35.2394508358
 30
0.0
 11
277.9892068491
 21
50.0331356147
 31
0.0
  0
LINE
  5
98
330
1F
100
AcDbEntity
  8
0
  6
Continuous
 62
     7
370
     0
100
AcDbLine
 10
215.7427640041
 20
24.8927335446
 30
0.0
 11
277.9892068491
 21
24.8927335446
 31
0.0
  0
INSERT
  5
99
330
1F
100
AcDbEntity
  8
0
  6
Continuous
 62
     7
100
AcDbBlockReference
  2
Third Angle Projection Block
 10
117.7262204235
 20
15.5162339489
 30
0.0
 41
0.8
 42
0.8
 43
0.8
  0
INSERT
  5
B6
330
1F
100
AcDbEntity
  8
0
  6
Continuous
 62
     7
370
     0
100
AcDbBlockReference
  2
SW_NOTE_0
 10
13.8229635922
 20
46.866219443
 30
0.0
  0
MTEXT
  5
B7
330
1F
100
AcDbEntity
  8
0
  6
Continuous
 62
     7
370
     0
100
AcDbMText
 10
274.1458225539
 20
13.2559386876
 30
0.0
 40
3.175
 41
0.0
 71
     2
 72
     1
  1
A
  7
SLDTEXTSTYLE0
 73
     1
 44
1.0
  0
MTEXT
  5
B8
330
1F
100
AcDbEntity
  8
0
  6
Continuous
 62
     7
370
     0
100
AcDbMText
 10
234.6105315602
 20
5.1306563898
 30
0.0
 40
3.175
 41
0.0
 71
     2
 72
     1
  1
DMLP1500L
  7
SLDTEXTSTYLE0
 73
     1
 44
1.0
  0
MTEXT
  5
B9
330
1F
100
AcDbEntity
  8
0
  6
Continuous
 62
     7
370
     0
100
AcDbMText
 10
216.4199766059
 20
16.8243178599
 30
0.0
 40
2.1166666667
 41
0.0
 71
     1
 72
     1
  1
MATERIAL
  7
SLDTEXTSTYLE0
 73
     1
 44
1.0
  0
MTEXT
  5
BA
330
1F
100
AcDbEntity
  8
0
  6
Continuous
 62
     7
370
     0
100
AcDbMText
 10
174.230946566
 20
20.054553926
 30
0.0
 40
1.8520833333
 41
0.0
 71
     1
 72
     1
  1
DRAWN
  7
SLDTEXTSTYLE0
 73
     1
 44
1.0
  0
MTEXT
  5
BB
330
1F
100
AcDbEntity
  8
0
  6
Continuous
 62
     7
370
     0
100
AcDbMText
 10
172.3960124543
 20
15.5787169747
 30
0.0
 40
1.8520833333
 41
0.0
 71
     1
 72
     1
  1
APPROVAL
  7
SLDTEXTSTYLE0
 73
     1
 44
1.0
  0
MTEXT
  5
BC
330
1F
100
AcDbEntity
  8
0
  6
Continuous
 62
     7
370
     0
100
AcDbMText
 10
271.7160653675
 20
16.1671746307
 30
0.0
 40
2.1166666667
 41
0.0
 71
     1
 72
     1
  1
REV
  7
SLDTEXTSTYLE0
 73
     1
 44
1.0
  0
MTEXT
  5
BD
330
1F
100
AcDbEntity
  8
0
  6
Continuous
 62
     7
370
     0
100
AcDbMText
 10
190.2958696448
 20
20.3177146903
 30
0.0
 40
2.1166666667
 41
0.0
 71
     1
 72
     1
  1
MG
  7
SLDTEXTSTYLE0
 73
     1
 44
1.0
  0
MTEXT
  5
BE
330
1F
100
AcDbEntity
  8
0
  6
Continuous
 62
     7
370
     0
100
AcDbMText
 10
190.2958696448
 20
15.841877739
 30
0.0
 40
2.1166666667
 41
0.0
 71
     1
 72
     1
  1
DD
  7
SLDTEXTSTYLE0
 73
     1
 44
1.0
  0
MTEXT
  5
BF
330
1F
100
AcDbEntity
  8
0
  6
Continuous
 62
     7
370
     0
100
AcDbMText
 10
199.8662436873
 20
20.3177146903
 30
0.0
 40
2.1166666667
 41
0.0
 71
     1
 72
     1
  1
18/MAY/16
  7
SLDTEXTSTYLE0
 73
     1
 44
1.0
  0
MTEXT
  5
C0
330
1F
100
AcDbEntity
  8
0
  6
Continuous
 62
     7
370
     0
100
AcDbMText
 10
203.6145073853
 20
24.8221395769
 30
0.0
 40
2.1166666667
 41
0.0
 71
     1
 72
     1
  1
DATE
  7
SLDTEXTSTYLE0
 73
     1
 44
1.0
  0
MTEXT
  5
C1
330
1F
100
AcDbEntity
  8
0
  6
Continuous
 62
     7
370
     0
100
AcDbMText
 10
199.8662436873
 20
15.841877739
 30
0.0
 40
2.1166666667
 41
0.0
 71
     1
 72
     1
  1
08/JUNE/16
  7
SLDTEXTSTYLE0
 73
     1
 44
1.0
  0
MTEXT
  5
C3
330
1F
100
AcDbEntity
  8
0
  6
Continuous
 62
     7
370
     0
100
AcDbMText
 10
229.402906477
 20
27.7957480569
 30
0.0
 40
2.1166666667
 41
0.0
 71
     1
 72
     1
  1
w w w . t h o r  l a b s . c o m
  7
SLDTEXTSTYLE2
 73
     1
 44
1.0
  0
MTEXT
  5
C4
330
1F
100
AcDbEntity
  8
0
  6
Continuous
 62
     7
370
     0
100
AcDbMText
 10
216.7004035316
 20
8.3494791871
 30
0.0
 40
2.1166666667
 41
0.0
 71
     1
 72
     1
  1
ITEM #
  7
SLDTEXTSTYLE0
 73
     1
 44
1.0
  0
MTEXT
  5
C5
330
1F
100
AcDbEntity
  8
0
  6
Continuous
 62
     7
370
     0
100
AcDbMText
 10
254.5318000914
 20
8.3494791871
 30
0.0
 40
2.1166666667
 41
0.0
 71
     1
 72
     1
  1
APPROX WEIGHT
  7
SLDTEXTSTYLE0
 73
     1
 44
1.0
  0
MTEXT
  5
C6
330
1F
100
AcDbEntity
  8
0
  6
Continuous
 62
     7
370
     0
100
AcDbMText
 10
243.4409424799
 20
13.8247651814
 30
0.0
 40
3.175
 41
0.0
 71
     2
 72
     1
  1
UV FUSED SILICA
  7
SLDTEXTSTYLE0
 73
     1
 44
1.0
  0
MTEXT
  5
C8
330
1F
100
AcDbEntity
  8
0
  6
Continuous
 62
     7
370
     0
100
AcDbMText
 10
266.2586154088
 20
5.1306563898
 30
0.0
 40
3.175
 41
0.0
 71
     2
 72
     1
  1
10 g
  7
SLDTEXTSTYLE3
 73
     1
 44
1.0
  0
INSERT
  5
CE
330
1F
100
AcDbEntity
  8
0
  6
Continuous
 62
     7
370
     0
100
AcDbBlockReference
  2
SW_NOTE_1
 10
174.8430140051
 20
4.4558554801
 30
0.0
  0
INSERT
  5
D4
330
1F
100
AcDbEntity
  8
0
  6
Continuous
 62
     7
370
     0
100
AcDbBlockReference
  2
SW_NOTE_2
 10
174.5483650337
 20
30.4835322715
 30
0.0
  0
MTEXT
  5
D5
330
1F
100
AcDbEntity
  8
0
  6
Continuous
 62
     7
370
     0
100
AcDbMText
 10
187.9273588276
 20
24.8221395769
 30
0.0
 40
2.1166666667
 41
0.0
 71
     1
 72
     1
  1
NAME
  7
SLDTEXTSTYLE0
 73
     1
 44
1.0
  0
INSERT
  5
DB
330
1F
100
AcDbEntity
  8
0
  6
Continuous
 62
     7
370
     0
100
AcDbBlockReference
  2
SW_NOTE_3
 10
58.6204667508
 20
8.1776609732
 30
0.0
  0
INSERT
  5
E2
330
1F
100
AcDbEntity
  8
0
  6
Continuous
 62
     7
370
     0
100
AcDbBlockReference
  2
SW_NOTE_4
 10
229.9346720245
 20
20.9611555011
 30
0.0
  0
MTEXT
  5
E3
330
1F
100
AcDbEntity
  8
0
  6
Continuous
 62
     7
370
     0
100
AcDbMText
 10
177.6925831922
 20
10.7142101515
 30
0.0
 40
1.5875
 41
0.0
 71
     1
 72
     1
  1
COPYRIGHT © 2016 BY THORLABS
  7
SLDTEXTSTYLE0
 73
     1
 44
1.0
  0
CIRCLE
  5
E4
330
1F
100
AcDbEntity
  8
0
  6
Continuous
 62
     7
370
     0
100
AcDbCircle
 10
83.7326460919
 20
101.1443830254
 30
0.0
 40
25.20000000000002
  0
CIRCLE
  5
E5
330
1F
100
AcDbEntity
  8
0
  6
Continuous
 62
     7
370
     0
100
AcDbCircle
 10
83.7326460919
 20
101.1443830254
 30
0.0
 40
25.39999999999999
  0
DIMENSION
  5
E6
330
1F
100
AcDbEntity
  8
0
  6
Continuous
 62
     7
370
     0
100
AcDbDimension
  2
_D
 10
100.5709900573
 20
82.1278067693
 30
0.0
 11
48.9932062789
 21
128.1927286213
 31
0.0
 70
   163
  1
<>
 71
     1
 42
-1.0
  3
SLDDIMSTYLE0
100
AcDbDiametricDimension
 15
66.8943021265
 25
120.1609592815
 35
0.0
 40
0.0
  0
LINE
  5
F7
330
1F
100
AcDbEntity
  8
0
  6
Continuous
 62
     7
370
     0
100
AcDbLine
 10
176.683464245
 20
75.7443833323
 30
0.0
 11
176.8834641381
 21
75.9443829926
 31
0.0
  0
LINE
  5
F8
330
1F
100
AcDbEntity
  8
0
  6
Continuous
 62
     7
370
     0
100
AcDbLine
 10
176.8834641381
 20
126.3443830582
 30
0.0
 11
176.683464245
 21
126.5443827184
 31
0.0
  0
LINE
  5
F9
330
1F
100
AcDbEntity
  8
0
  6
Continuous
 62
     7
370
     0
100
AcDbLine
 10
176.683464245
 20
126.5443827184
 30
0.0
 11
172.083464143
 21
126.5443827184
 31
0.0
  0
LINE
  5
FA
330
1F
100
AcDbEntity
  8
0
  6
Continuous
 62
     7
370
     0
100
AcDbLine
 10
172.083464143
 20
75.7443833323
 30
0.0
 11
176.683464245
 21
75.7443833323
 31
0.0
  0
LINE
  5
FB
330
1F
100
AcDbEntity
  8
0
  6
Continuous
 62
     7
370
     0
100
AcDbLine
 10
172.083464143
 20
126.5443827184
 30
0.0
 11
171.8834642499
 21
126.3443830582
 31
0.0
  0
LINE
  5
FC
330
1F
100
AcDbEntity
  8
0
  6
Continuous
 62
     7
370
     0
100
AcDbLine
 10
171.8834642499
 20
75.9443829926
 30
0.0
 11
172.083464143
 21
75.7443833323
 31
0.0
  0
LINE
  5
FD
330
1F
100
AcDbEntity
  8
0
  6
Continuous
 62
     7
370
     0
100
AcDbLine
 10
176.683464245
 20
101.1443830254
 30
0.0
 11
176.683464245
 21
126.5443827184
 31
0.0
  0
LINE
  5
FE
330
1F
100
AcDbEntity
  8
0
  6
Continuous
 62
     7
370
     0
100
AcDbLine
 10
176.683464245
 20
75.7443833323
 30
0.0
 11
176.683464245
 21
101.1443830254
 31
0.0
  0
LINE
  5
FF
330
1F
100
AcDbEntity
  8
0
  6
Continuous
 62
     7
370
     0
100
AcDbLine
 10
176.8834641381
 20
101.1443830254
 30
0.0
 11
176.8834641381
 21
75.9443829926
 31
0.0
  0
LINE
  5
100
330
1F
100
AcDbEntity
  8
0
  6
Continuous
 62
     7
370
     0
100
AcDbLine
 10
176.8834641381
 20
126.3443830582
 30
0.0
 11
176.8834641381
 21
101.1443830254
 31
0.0
  0
SPLINE
  5
101
330
1F
100
AcDbEntity
  8
0
  6
Continuous
 62
     7
370
     0
100
AcDbSpline
210
0.0
220
0.0
230
1.0
 70
     8
 71
     3
 72
    14
 73
    10
 74
     0
 42
0.000000001
 43
0.00000001
 40
0.0
 40
0.0
 40
0.0
 40
0.0
 40
0.062621765053179
 40
0.1251990132228181
 40
0.2501813163236348
 40
0.4995074396535516
 40
0.7494904487996535
 40
0.8747327762471745
 40
1.0
 40
1.0
 40
1.0
 40
1.0
 10
173.2487340803595
 20
94.07483942858656
 30
0.0
 10
173.2586074781678
 20
94.09972624949845
 30
0.0
 10
173.2783472549325
 20
94.14948219965052
 30
0.0
 10
173.334829934952
 20
94.24149076700361
 30
0.0
 10
173.4659599716672
 20
94.38059174731097
 30
0.0
 10
173.7115203191871
 20
94.51447685235992
 30
0.0
 10
173.9810285962292
 20
94.580211689129
 30
0.0
 10
174.2013157846175
 20
94.6028023591522
 30
0.0
 10
174.312077451044
 20
94.60458581899793
 30
0.0
 10
174.3674637881517
 20
94.60547763754327
 30
0.0
  0
SPLINE
  5
102
330
1F
100
AcDbEntity
  8
0
  6
Continuous
 62
     7
370
     0
100
AcDbSpline
210
0.0
220
0.0
230
1.0
 70
     8
 71
     3
 72
    12
 73
     8
 74
     0
 42
0.000000001
 43
0.00000001
 40
0.0
 40
0.0
 40
0.0
 40
0.0
 40
0.2621725736158223
 40
0.5000451414055228
 40
0.7500435138363617
 40
0.8623175480956365
 40
1.0
 40
1.0
 40
1.0
 40
1.0
 10
173.2053391939958
 20
93.71652742118205
 30
0.0
 10
173.2056733190705
 20
93.74811412527752
 30
0.0
 10
173.2063106001481
 20
93.80835985463855
 30
0.0
 10
173.2126164403001
 20
93.89867650457923
 30
0.0
 10
173.2219017485439
 20
93.97069407022335
 30
0.0
 10
173.2348835087461
 20
94.02986921508712
 30
0.0
 10
173.2438146038241
 20
94.05886680909656
 30
0.0
 10
173.2487340803595
 20
94.07483942858656
 30
0.0
  0
LINE
  5
103
330
1F
100
AcDbEntity
  8
0
  6
Continuous
 62
     7
370
     0
100
AcDbLine
 10
173.205339158
 20
93.7165276306
 30
0.0
 11
173.205339158
 21
93.0857121172
 31
0.0
  0
LINE
  5
104
330
1F
100
AcDbEntity
  8
0
  6
Continuous
 62
     7
370
     0
100
AcDbLine
 10
175.5553392406
 20
93.0857121172
 30
0.0
 11
173.205339158
 21
93.0857121172
 31
0.0
  0
LINE
  5
105
330
1F
100
AcDbEntity
  8
0
  6
Continuous
 62
     7
370
     0
100
AcDbLine
 10
175.5553392406
 20
93.745718074
 30
0.0
 11
175.5553392406
 21
93.0857121172
 31
0.0
  0
SPLINE
  5
106
330
1F
100
AcDbEntity
  8
0
  6
Continuous
 62
     7
370
     0
100
AcDbSpline
210
0.0
220
0.0
230
1.0
 70
     8
 71
     3
 72
    17
 73
    13
 74
     0
 42
0.000000001
 43
0.00000001
 40
0.0
 40
0.0
 40
0.0
 40
0.0
 40
0.071532919510357
 40
0.1430591690150033
 40
0.2860138941746813
 40
0.4288985810183091
 40
0.5716632366539705
 40
0.6786548293666634
 40
0.7856023341411968
 40
0.8927162757733074
 40
0.9463530387336602
 40
1.0
 40
1.0
 40
1.0
 40
1.0
 10
174.3674637881517
 20
94.60547763754327
 30
0.0
 10
174.4077773407741
 20
94.60495642773164
 30
0.0
 10
174.4884006870277
 20
94.60391405670794
 30
0.0
 10
174.6492119950487
 20
94.59261038455148
 30
0.0
 10
174.8486576733794
 20
94.56101078125374
 30
0.0
 10
175.078605459201
 20
94.48640899608554
 30
0.0
 10
175.2736341307017
 20
94.38173178609901
 30
0.0
 10
175.4207874682029
 20
94.24602691918678
 30
0.0
 10
175.5065277949104
 20
94.08970612941391
 30
0.0
 10
175.5412926394009
 20
93.94778098061339
 30
0.0
 10
175.553693497272
 20
93.83251915219527
 30
0.0
 10
175.5547905936581
 20
93.7746536225224
 30
0.0
 10
175.5553391939958
 20
93.74571810736022
 30
0.0
  0
LINE
  5
107
330
1F
100
AcDbEntity
  8
0
  6
Continuous
 62
     7
370
     0
100
AcDbLine
 10
175.2806638662
 20
98.3819377767
 30
0.0
 11
175.2806638662
 21
97.4133881433
 31
0.0
  0
LINE
  5
108
330
1F
100
AcDbEntity
  8
0
  6
Continuous
 62
     7
370
     0
100
AcDbLine
 10
173.205339158
 20
97.4133881433
 30
0.0
 11
175.2806638662
 21
97.4133881433
 31
0.0
  0
LINE
  5
109
330
1F
100
AcDbEntity
  8
0
  6
Continuous
 62
     7
370
     0
100
AcDbLine
 10
173.205339158
 20
97.4133881433
 30
0.0
 11
173.205339158
 21
97.1720570857
 31
0.0
  0
LINE
  5
10A
330
1F
100
AcDbEntity
  8
0
  6
Continuous
 62
     7
370
     0
100
AcDbLine
 10
175.5553392406
 20
97.1720570857
 30
0.0
 11
173.205339158
 21
97.1720570857
 31
0.0
  0
LINE
  5
10B
330
1F
100
AcDbEntity
  8
0
  6
Continuous
 62
     7
370
     0
100
AcDbLine
 10
175.5553392406
 20
98.3819377767
 30
0.0
 11
175.5553392406
 21
97.1720570857
 31
0.0
  0
LINE
  5
10C
330
1F
100
AcDbEntity
  8
0
  6
Continuous
 62
     7
370
     0
100
AcDbLine
 10
175.2806638662
 20
98.3819377767
 30
0.0
 11
175.5553392406
 21
98.3819377767
 31
0.0
  0
SPLINE
  5
10D
330
1F
100
AcDbEntity
  8
0
  6
Continuous
 62
     7
370
     0
100
AcDbSpline
210
0.0
220
0.0
230
1.0
 70
     8
 71
     3
 72
    13
 73
     9
 74
     0
 42
0.000000001
 43
0.00000001
 40
0.0
 40
0.0
 40
0.0
 40
0.0
 40
0.125065766938426
 40
0.2501073932780049
 40
0.5000423391884331
 40
0.7499626552581345
 40
0.8749753293646086
 40
0.9999999999999999
 40
0.9999999999999999
 40
0.9999999999999999
 40
0.9999999999999999
 10
173.7852093238659
 20
100.5128913752851
 30
0.0
 10
173.7669047239905
 20
100.5433161592684
 30
0.0
 10
173.7302990574528
 20
100.6041598545449
 30
0.0
 10
173.646888408069
 20
100.7191808861172
 30
0.0
 10
173.5274978546734
 20
100.8511703324862
 30
0.0
 10
173.3913509324719
 20
100.9656822488342
 30
0.0
 10
173.2722943018896
 20
101.0437453669482
 30
0.0
 10
173.2073122822038
 20
101.0725640466291
 30
0.0
 10
173.1748197134764
 20
101.0869740778146
 30
0.0
  0
LINE
  5
10E
330
1F
100
AcDbEntity
  8
0
  6
Continuous
 62
     7
370
     0
100
AcDbLine
 10
174.0598846347
 20
100.5128913717
 30
0.0
 11
173.7852093476
 21
100.5128913717
 31
0.0
  0
SPLINE
  5
10F
330
1F
100
AcDbEntity
  8
0
  6
Continuous
 62
     7
370
     0
100
AcDbSpline
210
0.0
220
0.0
230
1.0
 70
     8
 71
     3
 72
    13
 73
     9
 74
     0
 42
0.000000001
 43
0.00000001
 40
0.0
 40
0.0
 40
0.0
 40
0.0
 40
0.125010046661019
 40
0.2500138244896816
 40
0.4999842216405151
 40
0.7499787920909324
 40
0.8749856053617805
 40
1.0
 40
1.0
 40
1.0
 40
1.0
 10
173.6936508823075
 20
101.0011387492851
 30
0.0
 10
173.7129447099595
 20
100.9842912230545
 30
0.0
 10
173.7515313977432
 20
100.95059701544
 30
0.0
 10
173.8213051762258
 20
100.8754930176505
 30
0.0
 10
173.9013786729061
 20
100.7755195500727
 30
0.0
 10
173.9741895325225
 20
100.6701633713044
 30
0.0
 10
174.0267757216625
 20
100.5822065518641
 30
0.0
 10
174.048848116482
 20
100.5359969012149
 30
0.0
 10
174.0598846485413
 20
100.5128913752851
 30
0.0
  0
LINE
  5
110
330
1F
100
AcDbEntity
  8
0
  6
Continuous
 62
     7
370
     0
100
AcDbLine
 10
175.5553392406
 20
101.0011387449
 30
0.0
 11
173.6936509089
 21
101.0011387449
 31
0.0
  0
LINE
  5
111
330
1F
100
AcDbEntity
  8
0
  6
Continuous
 62
     7
370
     0
100
AcDbLine
 10
175.5553392406
 20
101.2452935653
 30
0.0
 11
175.5553392406
 21
101.0011387449
 31
0.0
  0
LINE
  5
112
330
1F
100
AcDbEntity
  8
0
  6
Continuous
 62
     7
370
     0
100
AcDbLine
 10
173.1748197173
 20
101.2452935653
 30
0.0
 11
175.5553392406
 21
101.2452935653
 31
0.0
  0
LINE
  5
113
330
1F
100
AcDbEntity
  8
0
  6
Continuous
 62
     7
370
     0
100
AcDbLine
 10
173.1748197173
 20
101.2452935653
 30
0.0
 11
173.1748197173
 21
101.0869740791
 31
0.0
  0
SPLINE
  5
114
330
1F
100
AcDbEntity
  8
0
  6
Continuous
 62
     7
370
     0
100
AcDbSpline
210
0.0
220
0.0
230
1.0
 70
     8
 71
     3
 72
    12
 73
     8
 74
     0
 42
0.000000001
 43
0.00000001
 40
0.0
 40
0.0
 40
0.0
 40
0.0
 40
0.1249944231638724
 40
0.2499890121454617
 40
0.499865969624416
 40
0.7499135593620979
 40
1.0
 40
1.0
 40
1.0
 40
1.0
 10
173.4227904926971
 20
104.4017409874399
 30
0.0
 10
173.4586042077419
 20
104.4220935900482
 30
0.0
 10
173.530231685342
 20
104.4627988222644
 30
0.0
 10
173.6858792862445
 20
104.518306526827
 30
0.0
 10
173.8876490542453
 20
104.5621339836896
 30
0.0
 10
174.1339205997256
 20
104.5882867643774
 30
0.0
 10
174.298831214944
 20
104.590604860426
 30
0.0
 10
174.381292927762
 20
104.5917639984862
 30
0.0
  0
SPLINE
  5
115
330
1F
100
AcDbEntity
  8
0
  6
Continuous
 62
     7
370
     0
100
AcDbSpline
210
0.0
220
0.0
230
1.0
 70
     8
 71
     3
 72
    13
 73
     9
 74
     0
 42
0.000000001
 43
0.00000001
 40
0.0
 40
0.0
 40
0.0
 40
0.0
 40
0.1251997679052543
 40
0.2503372878808384
 40
0.4998911747935338
 40
0.749623802952995
 40
0.8747841606148047
 40
1.0
 40
1.0
 40
1.0
 40
1.0
 10
173.1748197134764
 20
103.9723425788743
 30
0.0
 10
173.1754563877323
 20
103.9939914960648
 30
0.0
 10
173.1767294196969
 20
104.0372785668454
 30
0.0
 10
173.1930715867557
 20
104.1223180994291
 30
0.0
 10
173.2335147409449
 20
104.224028814214
 30
0.0
 10
173.3031614671767
 20
104.3085124391027
 30
0.0
 10
173.3686643372627
 20
104.3654234226291
 30
0.0
 10
173.4047457757489
 20
104.3896333442497
 30
0.0
 10
173.4227904926971
 20
104.4017409874399
 30
0.0
  0
SPLINE
  5
116
330
1F
100
AcDbEntity
  8
0
  6
Continuous
 62
     7
370
     0
100
AcDbSpline
210
0.0
220
0.0
230
1.0
 70
     8
 71
     3
 72
    16
 73
    12
 74
     0
 42
0.000000001
 43
0.00000001
 40
0.0
 40
0.0
 40
0.0
 40
0.0
 40
0.1251696058897749
 40
0.2503305803860868
 40
0.5002344284261412
 40
0.6344692268399678
 40
0.7499992257121195
 40
0.8127385779167315
 40
0.8749722161783949
 40
0.9374591980872459
 40
0.9999999999999999
 40
0.9999999999999999
 40
0.9999999999999999
 40
0.9999999999999999
 10
174.381292927762
 20
103.3483628828928
 30
0.0
 10
174.3181685461652
 20
103.349051942584
 30
0.0
 10
174.1919241358764
 20
103.3504300144505
 30
0.0
 10
173.9405965742123
 20
103.3705634865154
 30
0.0
 10
173.6856109429772
 20
103.4154362339869
 30
0.0
 10
173.4520547221723
 20
103.5133998743063
 30
0.0
 10
173.3233536415713
 20
103.607637230222
 30
0.0
 10
173.2468511786219
 20
103.7023373408005
 30
0.0
 10
173.204329156643
 20
103.786951854263
 30
0.0
 10
173.1787667113427
 20
103.8781947638669
 30
0.0
 10
173.1761357569425
 20
103.9409509691021
 30
0.0
 10
173.1748197134764
 20
103.9723425788743
 30
0.0
  0
SPLINE
  5
117
330
1F
100
AcDbEntity
  8
0
  6
Continuous
 62
     7
370
     0
100
AcDbSpline
210
0.0
220
0.0
230
1.0
 70
     8
 71
     3
 72
    16
 73
    12
 74
     0
 42
0.000000001
 43
0.00000001
 40
0.0
 40
0.0
 40
0.0
 40
0.0
 40
0.0625504672670115
 40
0.1250450729890675
 40
0.2495402333508444
 40
0.349527747799925
 40
0.4992738744144529
 40
0.6244010449097018
 40
0.7495800244049303
 40
0.8747855038494101
 40
1.0
 40
1.0
 40
1.0
 40
1.0
 10
175.5858586745153
 20
103.9694991485579
 30
0.0
 10
175.5843863158131
 20
103.938185379124
 30
0.0
 10
175.5814429133186
 20
103.8755858054437
 30
0.0
 10
175.5448772851477
 20
103.754989498691
 30
0.0
 10
175.461949848636
 20
103.6334400595841
 30
0.0
 10
175.3159635546245
 20
103.5131422490779
 30
0.0
 10
175.1420466470505
 20
103.4343658937037
 30
0.0
 10
174.9457574079814
 20
103.3891428580892
 30
0.0
 10
174.7586484177223
 20
103.3630022826218
 30
0.0
 10
174.5701132214283
 20
103.3506325805844
 30
0.0
 10
174.4442345364609
 20
103.3491194669505
 30
0.0
 10
174.381292927762
 20
103.3483628828928
 30
0.0
  0
SPLINE
  5
118
330
1F
100
AcDbEntity
  8
0
  6
Continuous
 62
     7
370
     0
100
AcDbSpline
210
0.0
220
0.0
230
1.0
 70
     8
 71
     3
 72
    16
 73
    12
 74
     0
 42
0.000000001
 43
0.00000001
 40
0.0
 40
0.0
 40
0.0
 40
0.0
 40
0.1251714468123402
 40
0.2503345712921596
 40
0.5002432313911926
 40
0.634368715203164
 40
0.7500270449023524
 40
0.8127090061706896
 40
0.8749750189615243
 40
0.9374562791878503
 40
1.0
 40
1.0
 40
1.0
 40
1.0
 10
174.381292927762
 20
104.5917639984862
 30
0.0
 10
174.4443333458772
 20
104.5910625235485
 30
0.0
 10
174.5704099907098
 20
104.5896596203122
 30
0.0
 10
174.8214286760534
 20
104.5695258515136
 30
0.0
 10
175.0757575244047
 20
104.5240533673809
 30
0.0
 10
175.3093262024789
 20
104.4273912367677
 30
0.0
 10
175.4376702153806
 20
104.3332803665868
 30
0.0
 10
175.5138454847002
 20
104.2387580238496
 30
0.0
 10
175.5564575552989
 20
104.1545314021863
 30
0.0
 10
175.5820569150013
 20
104.0635107020405
 30
0.0
 10
175.5845909993473
 20
104.0008467683693
 30
0.0
 10
175.5858586745153
 20
103.9694991485579
 30
0.0
  0
LINE
  5
119
330
1F
100
AcDbEntity
  8
0
  6
Continuous
 62
     7
370
     0
100
AcDbLine
 10
175.2806638662
 20
107.5833456749
 30
0.0
 11
175.2806638662
 21
106.6340974691
 31
0.0
  0
LINE
  5
11A
330
1F
100
AcDbEntity
  8
0
  6
Continuous
 62
     7
370
     0
100
AcDbLine
 10
173.205339158
 20
106.6340974691
 30
0.0
 11
175.2806638662
 21
106.6340974691
 31
0.0
  0
LINE
  5
11B
330
1F
100
AcDbEntity
  8
0
  6
Continuous
 62
     7
370
     0
100
AcDbLine
 10
173.205339158
 20
106.6340974691
 30
0.0
 11
173.205339158
 21
106.3954623575
 31
0.0
  0
LINE
  5
11C
330
1F
100
AcDbEntity
  8
0
  6
Continuous
 62
     7
370
     0
100
AcDbLine
 10
175.5553392406
 20
106.3954623575
 30
0.0
 11
173.205339158
 21
106.3954623575
 31
0.0
  0
LINE
  5
11D
330
1F
100
AcDbEntity
  8
0
  6
Continuous
 62
     7
370
     0
100
AcDbLine
 10
175.5553392406
 20
107.5833456749
 30
0.0
 11
175.5553392406
 21
106.3954623575
 31
0.0
  0
LINE
  5
11E
330
1F
100
AcDbEntity
  8
0
  6
Continuous
 62
     7
370
     0
100
AcDbLine
 10
175.2806638662
 20
107.5833456749
 30
0.0
 11
175.5553392406
 21
107.5833456749
 31
0.0
  0
LINE
  5
11F
330
1F
100
AcDbEntity
  8
0
  6
Continuous
 62
     7
370
     0
100
AcDbLine
 10
172.083464143
 20
101.1443830254
 30
0.0
 11
172.083464143
 21
75.7443833323
 31
0.0
  0
LINE
  5
120
330
1F
100
AcDbEntity
  8
0
  6
Continuous
 62
     7
370
     0
100
AcDbLine
 10
172.083464143
 20
126.5443827184
 30
0.0
 11
172.083464143
 21
101.1443830254
 31
0.0
  0
SPLINE
  5
121
330
1F
100
AcDbEntity
  8
0
  6
Continuous
 62
     7
370
     0
100
AcDbSpline
210
0.0
220
0.0
230
1.0
 70
     8
 71
     3
 72
    11
 73
     7
 74
     0
 42
0.000000001
 43
0.00000001
 40
0.0
 40
0.0
 40
0.0
 40
0.0
 40
0.4999543933284797
 40
0.7499015403200996
 40
0.8749458342614816
 40
0.9999999999999999
 40
0.9999999999999999
 40
0.9999999999999999
 40
0.9999999999999999
 10
175.5796594050348
 20
108.9884828874748
 30
0.0
 10
175.6776867294384
 20
108.8868225704998
 30
0.0
 10
175.8247218241285
 20
108.7343382053131
 30
0.0
 10
176.0257457715785
 20
108.5860456252848
 30
0.0
 10
176.1487544439516
 20
108.5129758841219
 30
0.0
 10
176.213478923556
 20
108.4819750800637
 30
0.0
 10
176.2458424407491
 20
108.4664740662083
 30
0.0
  0
LINE
  5
122
330
1F
100
AcDbEntity
  8
0
  6
Continuous
 62
     7
370
     0
100
AcDbLine
 10
175.4556739881
 20
108.9884828003
 30
0.0
 11
175.579659449
 21
108.9884828003
 31
0.0
  0
SPLINE
  5
123
330
1F
100
AcDbEntity
  8
0
  6
Continuous
 62
     7
370
     0
100
AcDbSpline
210
0.0
220
0.0
230
1.0
 70
     8
 71
     3
 72
    12
 73
     8
 74
     0
 42
0.000000001
 43
0.00000001
 40
0.0
 40
0.0
 40
0.0
 40
0.0
 40
0.1428486546064156
 40
0.2857137848888304
 40
0.4999809151670592
 40
0.7499794168908098
 40
1.0
 40
1.0
 40
1.0
 40
1.0
 10
175.7727904926971
 20
108.5139489020176
 30
0.0
 10
175.7537368730656
 20
108.5338609286975
 30
0.0
 10
175.7156274362232
 20
108.5736872786424
 30
0.0
 10
175.6562373573246
 20
108.6491890008928
 30
0.0
 10
175.5900952716613
 20
108.7446956284745
 30
0.0
 10
175.5199646804697
 20
108.8615194085881
 30
0.0
 10
175.4771048680181
 20
108.9461604818987
 30
0.0
 10
175.4556740154244
 20
108.9884828874748
 30
0.0
  0
LINE
  5
124
330
1F
100
AcDbEntity
  8
0
  6
Continuous
 62
     7
370
     0
100
AcDbLine
 10
173.4003777794
 20
108.5139488028
 30
0.0
 11
175.7727904889
 21
108.5139488028
 31
0.0
  0
LINE
  5
125
330
1F
100
AcDbEntity
  8
0
  6
Continuous
 62
     7
370
     0
100
AcDbLine
 10
173.4003777794
 20
108.5139488028
 30
0.0
 11
173.4003777794
 21
108.3581823083
 31
0.0
  0
LINE
  5
126
330
1F
100
AcDbEntity
  8
0
  6
Continuous
 62
     7
370
     0
100
AcDbLine
 10
175.7727904889
 20
108.3581823083
 30
0.0
 11
173.4003777794
 21
108.3581823083
 31
0.0
  0
SPLINE
  5
127
330
1F
100
AcDbEntity
  8
0
  6
Continuous
 62
     7
370
     0
100
AcDbSpline
210
0.0
220
0.0
230
1.0
 70
     8
 71
     3
 72
    11
 73
     7
 74
     0
 42
0.000000001
 43
0.00000001
 40
0.0
 40
0.0
 40
0.0
 40
0.0
 40
0.2500305180632151
 40
0.5000067443424591
 40
0.7035402666285254
 40
1.0
 40
1.0
 40
1.0
 40
1.0
 10
175.4585352167231
 20
107.8799383690659
 30
0.0
 10
175.4806928080338
 20
107.9222303867043
 30
0.0
 10
175.525003179342
 20
108.0068052386658
 30
0.0
 10
175.5902786072326
 20
108.1244549281972
 30
0.0
 10
175.6764523001311
 20
108.2397459023066
 30
0.0
 10
175.7369310066069
 20
108.3140972584786
 30
0.0
 10
175.7727904926971
 20
108.3581822195799
 30
0.0
  0
LINE
  5
128
330
1F
100
AcDbEntity
  8
0
  6
Continuous
 62
     7
370
     0
100
AcDbLine
 10
175.5810899605
 20
107.8799383873
 30
0.0
 11
175.4585352438
 21
107.8799383873
 31
0.0
  0
SPLINE
  5
129
330
1F
100
AcDbEntity
  8
0
  6
Continuous
 62
     7
370
     0
100
AcDbSpline
210
0.0
220
0.0
230
1.0
 70
     8
 71
     3
 72
    11
 73
     7
 74
     0
 42
0.000000001
 43
0.00000001
 40
0.0
 40
0.0
 40
0.0
 40
0.0
 40
0.1428778200382738
 40
0.2857522926218099
 40
0.5000376817880698
 40
1.0
 40
1.0
 40
1.0
 40
1.0
 10
176.2458424407491
 20
108.3952095295517
 30
0.0
 10
176.2088351630357
 20
108.3783182728973
 30
0.0
 10
176.1348214746448
 20
108.3445361553303
 30
0.0
 10
176.0148604171257
 20
108.268856474084
 30
0.0
 10
175.819701524495
 20
108.1250275183408
 30
0.0
 10
175.6793405270787
 20
107.9808561153022
 30
0.0
 10
175.5810900056841
 20
107.8799383690659
 30
0.0
  0
LINE
  5
12A
330
1F
100
AcDbEntity
  8
0
  6
Continuous
 62
     7
370
     0
100
AcDbLine
 10
176.2458424029
 20
108.4664741689
 30
0.0
 11
176.2458424029
 21
108.3952093655
 31
0.0
  0
SPLINE
  5
12B
330
1F
100
AcDbEntity
  8
0
  6
Continuous
 62
     7
370
     0
100
AcDbSpline
210
0.0
220
0.0
230
1.0
 70
     8
 71
     3
 72
    12
 73
     8
 74
     0
 42
0.000000001
 43
0.00000001
 40
0.0
 40
0.0
 40
0.0
 40
0.0
 40
0.1249944231638726
 40
0.249989012145461
 40
0.4998659696244153
 40
0.7499135593620977
 40
1.0
 40
1.0
 40
1.0
 40
1.0
 10
173.4227904926971
 20
105.8783466190168
 30
0.0
 10
173.4586042077419
 20
105.8985081239661
 30
0.0
 10
173.530231685342
 20
105.9388311606112
 30
0.0
 10
173.6858792862445
 20
105.9938080069123
 30
0.0
 10
173.8876490542453
 20
106.0372113225306
 30
0.0
 10
174.1339205997256
 20
106.0631084278422
 30
0.0
 10
174.298831214944
 20
106.0654038111772
 30
0.0
 10
174.381292927762
 20
106.0665515919986
 30
0.0
  0
SPLINE
  5
12C
330
1F
100
AcDbEntity
  8
0
  6
Continuous
 62
     7
370
     0
100
AcDbSpline
210
0.0
220
0.0
230
1.0
 70
     8
 71
     3
 72
    13
 73
     9
 74
     0
 42
0.000000001
 43
0.00000001
 40
0.0
 40
0.0
 40
0.0
 40
0.0
 40
0.1251997679052418
 40
0.250337287880839
 40
0.4998911747935373
 40
0.7496238029529938
 40
0.8747841606148081
 40
1.0
 40
1.0
 40
1.0
 40
1.0
 10
173.1748197134764
 20
105.4527409879853
 30
0.0
 10
173.1754563877323
 20
105.4742087080886
 30
0.0
 10
173.1767294196969
 20
105.5171334747837
 30
0.0
 10
173.1930715867557
 20
105.6014448716807
 30
0.0
 10
173.2335147409449
 20
105.7022622261599
 30
0.0
 10
173.3031614671767
 20
105.7859803993159
 30
0.0
 10
173.3686643372627
 20
105.8423674898257
 30
0.0
 10
173.4047457757489
 20
105.8663518043642
 30
0.0
 10
173.4227904926971
 20
105.8783466190168
 30
0.0
  0
SPLINE
  5
12D
330
1F
100
AcDbEntity
  8
0
  6
Continuous
 62
     7
370
     0
100
AcDbSpline
210
0.0
220
0.0
230
1.0
 70
     8
 71
     3
 72
    16
 73
    12
 74
     0
 42
0.000000001
 43
0.00000001
 40
0.0
 40
0.0
 40
0.0
 40
0.0
 40
0.1251696058899059
 40
0.2503305803863485
 40
0.5002344284266629
 40
0.6344692268563948
 40
0.7499992257118387
 40
0.8127385779168055
 40
0.8749722161782623
 40
0.9374591980871825
 40
0.9999999999999999
 40
0.9999999999999999
 40
0.9999999999999999
 40
0.9999999999999999
 10
174.381292927762
 20
104.8334976122818
 30
0.0
 10
174.3181685461652
 20
104.8341819648134
 30
0.0
 10
174.1919241358763
 20
104.8355506226853
 30
0.0
 10
173.9405965742128
 20
104.8555454892958
 30
0.0
 10
173.6856109429664
 20
104.900108926589
 30
0.0
 10
173.4520547221708
 20
104.9973742550898
 30
0.0
 10
173.3233536415649
 20
105.0909189137511
 30
0.0
 10
173.2468511786218
 20
105.1849001658099
 30
0.0
 10
173.2043291566429
 20
105.2688559294439
 30
0.0
 10
173.1787667113427
 20
105.3593708598091
 30
0.0
 10
173.1761357569425
 20
105.4216086815387
 30
0.0
 10
173.1748197134764
 20
105.4527409879853
 30
0.0
  0
SPLINE
  5
12E
330
1F
100
AcDbEntity
  8
0
  6
Continuous
 62
     7
370
     0
100
AcDbSpline
210
0.0
220
0.0
230
1.0
 70
     8
 71
     3
 72
    16
 73
    12
 74
     0
 42
0.000000001
 43
0.00000001
 40
0.0
 40
0.0
 40
0.0
 40
0.0
 40
0.062550467267011
 40
0.1250450729890679
 40
0.2495402333508459
 40
0.349527747799926
 40
0.4992738744144541
 40
0.6244010449097024
 40
0.7495800244049299
 40
0.8747855038494101
 40
1.0
 40
1.0
 40
1.0
 40
1.0
 10
175.5858586745153
 20
105.449921219671
 30
0.0
 10
175.5843863158131
 20
105.4188658944718
 30
0.0
 10
175.5814429133186
 20
105.3567829784536
 30
0.0
 10
175.5448772851477
 20
105.2371482787309
 30
0.0
 10
175.461949848636
 20
105.1165305554375
 30
0.0
 10
175.3159635546245
 20
104.9971193525344
 30
0.0
 10
175.1420466470505
 20
104.9189035023182
 30
0.0
 10
174.9457574079814
 20
104.8739963728968
 30
0.0
 10
174.7586484177223
 20
104.8480365016119
 30
0.0
 10
174.5701132214283
 20
104.835751746369
 30
0.0
 10
174.4442345364609
 20
104.8342490083469
 30
0.0
 10
174.381292927762
 20
104.8334976122818
 30
0.0
  0
SPLINE
  5
12F
330
1F
100
AcDbEntity
  8
0
  6
Continuous
 62
     7
370
     0
100
AcDbSpline
210
0.0
220
0.0
230
1.0
 70
     8
 71
     3
 72
    16
 73
    12
 74
     0
 42
0.000000001
 43
0.00000001
 40
0.0
 40
0.0
 40
0.0
 40
0.0
 40
0.1251714468123427
 40
0.2503345712921644
 40
0.5002432313912012
 40
0.6343687152037383
 40
0.750027044902372
 40
0.8127090061706254
 40
0.8749750189615221
 40
0.9374562791878491
 40
1.0
 40
1.0
 40
1.0
 40
1.0
 10
174.381292927762
 20
106.0665515919986
 30
0.0
 10
174.4443333458772
 20
106.0658570041409
 30
0.0
 10
174.5704099907098
 20
106.064467874607
 30
0.0
 10
174.8214286760534
 20
106.0445307708317
 30
0.0
 10
175.075757524405
 20
105.9995018072675
 30
0.0
 10
175.3093262024791
 20
105.9037598386251
 30
0.0
 10
175.4376702153808
 20
105.8105238349912
 30
0.0
 10
175.5138454846999
 20
105.7168572165377
 30
0.0
 10
175.556457555299
 20
105.6333766970863
 30
0.0
 10
175.5820569150013
 20
105.5431446806223
 30
0.0
 10
175.5845909993473
 20
105.4810060544934
 30
0.0
 10
175.5858586745153
 20
105.449921219671
 30
0.0
  0
SPLINE
  5
130
330
1F
100
AcDbEntity
  8
0
  6
Continuous
 62
     7
370
     0
100
AcDbSpline
210
0.0
220
0.0
230
1.0
 70
     8
 71
     3
 72
    14
 73
    10
 74
     0
 42
0.000000001
 43
0.00000001
 40
0.0
 40
0.0
 40
0.0
 40
0.0
 40
0.062713346505554
 40
0.1254006899987271
 40
0.2504473324746792
 40
0.4996124580573724
 40
0.7491976161721012
 40
0.8745628053037978
 40
1.0
 40
1.0
 40
1.0
 40
1.0
 10
173.9988456875023
 20
102.5330953600433
 30
0.0
 10
173.9997148464118
 20
102.5550799940091
 30
0.0
 10
174.0014528038491
 20
102.5990401463896
 30
0.0
 10
174.0193326638301
 20
102.685358473049
 30
0.0
 10
174.0830416996982
 20
102.8265441702587
 30
0.0
 10
174.2434894587395
 20
102.9859799789478
 30
0.0
 10
174.4493606831187
 20
103.0722246161063
 30
0.0
 10
174.6230462085263
 20
103.1014714578982
 30
0.0
 10
174.7111113510683
 20
103.1038434897551
 30
0.0
 10
174.7551565641257
 20
103.1050298461897
 30
0.0
  0
SPLINE
  5
131
330
1F
100
AcDbEntity
  8
0
  6
Continuous
 62
     7
370
     0
100
AcDbSpline
210
0.0
220
0.0
230
1.0
 70
     8
 71
     3
 72
    11
 73
     7
 74
     0
 42
0.000000001
 43
0.00000001
 40
0.0
 40
0.0
 40
0.0
 40
0.0
 40
0.2500769320832084
 40
0.5000174317493317
 40
0.7499383126224693
 40
1.0
 40
1.0
 40
1.0
 40
1.0
 10
174.0908809959438
 20
102.1853836770902
 30
0.0
 10
174.0770483844721
 20
102.2123917383257
 30
0.0
 10
174.0493907080728
 20
102.2663931262306
 30
0.0
 10
174.0202170414281
 20
102.3527781789812
 30
0.0
 10
174.0021188175248
 20
102.4421867763723
 30
0.0
 10
173.9999369356657
 20
102.5027868100354
 30
0.0
 10
173.9988456875023
 20
102.5330953600433
 30
0.0
  0
SPLINE
  5
132
330
1F
100
AcDbEntity
  8
0
  6
Continuous
 62
     7
370
     0
100
AcDbSpline
210
0.0
220
0.0
230
1.0
 70
     8
 71
     3
 72
     8
 73
     4
 74
     0
 42
0.000000001
 43
0.00000001
 40
0.0
 40
0.0
 40
0.0
 40
0.0
 40
1.0
 40
1.0
 40
1.0
 40
1.0
 10
173.5105339991906
 20
102.2735234707305
 30
0.0
 10
173.7039829981084
 20
102.2441457506643
 30
0.0
 10
173.8974319970261
 20
102.2147657603804
 30
0.0
 10
174.0908809959438
 20
102.1853836770902
 30
0.0
  0
LINE
  5
133
330
1F
100
AcDbEntity
  8
0
  6
Continuous
 62
     7
370
     0
100
AcDbLine
 10
173.5105339732
 20
103.0137320673
 30
0.0
 11
173.5105339732
 21
102.2735235207
 31
0.0
  0
LINE
  5
134
330
1F
100
AcDbEntity
  8
0
  6
Continuous
 62
     7
370
     0
100
AcDbLine
 10
173.2358587152
 20
103.0137320673
 30
0.0
 11
173.5105339732
 21
103.0137320673
 31
0.0
  0
LINE
  5
135
330
1F
100
AcDbEntity
  8
0
  6
Continuous
 62
     7
370
     0
100
AcDbLine
 10
173.2358587152
 20
103.0137320673
 30
0.0
 11
173.2358587152
 21
102.0691153868
 31
0.0
  0
SPLINE
  5
136
330
1F
100
AcDbEntity
  8
0
  6
Continuous
 62
     7
370
     0
100
AcDbSpline
210
0.0
220
0.0
230
1.0
 70
     8
 71
     3
 72
     8
 73
     4
 74
     0
 42
0.000000001
 43
0.00000001
 40
0.0
 40
0.0
 40
0.0
 40
0.0
 40
1.0
 40
1.0
 40
1.0
 40
1.0
 10
174.4399475543854
 20
101.8860974722112
 30
0.0
 10
174.0385845944287
 20
101.9471104031528
 30
0.0
 10
173.637221634472
 20
102.0081169090388
 30
0.0
 10
173.2358586745153
 20
102.0691154044936
 30
0.0
  0
SPLINE
  5
137
330
1F
100
AcDbEntity
  8
0
  6
Continuous
 62
     7
370
     0
100
AcDbSpline
210
0.0
220
0.0
230
1.0
 70
     8
 71
     3
 72
     8
 73
     4
 74
     0
 42
0.000000001
 43
0.00000001
 40
0.0
 40
0.0
 40
0.0
 40
0.0
 40
1.0
 40
1.0
 40
1.0
 40
1.0
 10
174.4747588368529
 20
102.1301111711063
 30
0.0
 10
174.4631550760304
 20
102.0487871990225
 30
0.0
 10
174.4515513152079
 20
101.9674480468
 30
0.0
 10
174.4399475543854
 20
101.8860974722112
 30
0.0
  0
SPLINE
  5
138
330
1F
100
AcDbEntity
  8
0
  6
Continuous
 62
     7
370
     0
100
AcDbSpline
210
0.0
220
0.0
230
1.0
 70
     8
 71
     3
 72
    13
 73
     9
 74
     0
 42
0.000000001
 43
0.00000001
 40
0.0
 40
0.0
 40
0.0
 40
0.0
 40
0.1251857732062522
 40
0.2502844631579679
 40
0.4998384123132086
 40
0.7496104912811543
 40
0.8747712753911021
 40
0.9999999999999999
 40
0.9999999999999999
 40
0.9999999999999999
 40
0.9999999999999999
 10
174.2430015316581
 20
102.4650004693199
 30
0.0
 10
174.2438028993353
 20
102.4470782545009
 30
0.0
 10
174.2454050772326
 20
102.4112462921324
 30
0.0
 10
174.263453117155
 20
102.341650877166
 30
0.0
 10
174.3052605713918
 20
102.2611752679101
 30
0.0
 10
174.3684418353657
 20
102.1963967901119
 30
0.0
 10
174.4270191152575
 20
102.1549513775438
 30
0.0
 10
174.4588427179904
 20
102.1383927375884
 30
0.0
 10
174.4747588368529
 20
102.1301111711063
 30
0.0
  0
SPLINE
  5
139
330
1F
100
AcDbEntity
  8
0
  6
Continuous
 62
     7
370
     0
100
AcDbSpline
210
0.0
220
0.0
230
1.0
 70
     8
 71
     3
 72
    14
 73
    10
 74
     0
 42
0.000000001
 43
0.00000001
 40
0.0
 40
0.0
 40
0.0
 40
0.0
 40
0.1253753764942672
 40
0.2507116442999248
 40
0.375984388971372
 40
0.5011455318268867
 40
0.7498422054561061
 40
0.8748658854891888
 40
1.0
 40
1.0
 40
1.0
 40
1.0
 10
174.768508836853
 20
102.8615156492662
 30
0.0
 10
174.7377157575955
 20
102.8606744095985
 30
0.0
 10
174.676139204451
 20
102.8589921926734
 30
0.0
 10
174.5844594035209
 20
102.8456377645777
 30
0.0
 10
174.4958735132909
 20
102.8183801935459
 30
0.0
 10
174.3858712703466
 20
102.7632870783801
 30
0.0
 10
174.2963542662496
 20
102.6722727680345
 30
0.0
 10
174.2489103861895
 20
102.5573812854845
 30
0.0
 10
174.2449717294208
 20
102.4958031361231
 30
0.0
 10
174.2430015316581
 20
102.4650004693199
 30
0.0
  0
SPLINE
  5
13A
330
1F
100
AcDbEntity
  8
0
  6
Continuous
 62
     7
370
     0
100
AcDbSpline
210
0.0
220
0.0
230
1.0
 70
     8
 71
     3
 72
    16
 73
    12
 74
     0
 42
0.000000001
 43
0.00000001
 40
0.0
 40
0.0
 40
0.0
 40
0.0
 40
0.0625610874929043
 40
0.1250928754981878
 40
0.2497698647651843
 40
0.3746545436190584
 40
0.4996400329584949
 40
0.6246834970050212
 40
0.7497226164574258
 40
0.8748534373134395
 40
1.0
 40
1.0
 40
1.0
 40
1.0
 10
175.3417028303594
 20
102.4588095453335
 30
0.0
 10
175.3410794774986
 20
102.4750426274358
 30
0.0
 10
175.3398330637143
 20
102.5075011891352
 30
0.0
 10
175.3251154879181
 20
102.5708828476894
 30
0.0
 10
175.2887983854693
 20
102.6446216026021
 30
0.0
 10
175.2228660994329
 20
102.716966802342
 30
0.0
 10
175.1452675532184
 20
102.7765651443232
 30
0.0
 10
175.0564063091086
 20
102.817735008037
 30
0.0
 10
174.9626840039907
 20
102.8451010639953
 30
0.0
 10
174.865949675228
 20
102.8589827456116
 30
0.0
 10
174.8009904782358
 20
102.8606713126458
 30
0.0
 10
174.768508836853
 20
102.8615156492662
 30
0.0
  0
SPLINE
  5
13B
330
1F
100
AcDbEntity
  8
0
  6
Continuous
 62
     7
370
     0
100
AcDbSpline
210
0.0
220
0.0
230
1.0
 70
     8
 71
     3
 72
    14
 73
    10
 74
     0
 42
0.000000001
 43
0.00000001
 40
0.0
 40
0.0
 40
0.0
 40
0.0
 40
0.1377979488015268
 40
0.2504541919851039
 40
0.5001429767152941
 40
0.6430016293616229
 40
0.785778720385236
 40
0.892846763617492
 40
1.0
 40
1.0
 40
1.0
 40
1.0
 10
174.8839106225672
 20
102.099613977349
 30
0.0
 10
174.9129278023739
 20
102.1038285099349
 30
0.0
 10
174.9656678785898
 20
102.1114886192657
 30
0.0
 10
175.0691036084625
 20
102.1360754592997
 30
0.0
 10
175.170258322687
 20
102.1777781773058
 30
0.0
 10
175.2584988281007
 20
102.2511395102311
 30
0.0
 10
175.3090942640902
 20
102.3186772375551
 30
0.0
 10
175.3370609232218
 20
102.3904001963033
 30
0.0
 10
175.3401551178059
 20
102.4360003841134
 30
0.0
 10
175.3417028303594
 20
102.4588095453335
 30
0.0
  0
SPLINE
  5
13C
330
1F
100
AcDbEntity
  8
0
  6
Continuous
 62
     7
370
     0
100
AcDbSpline
210
0.0
220
0.0
230
1.0
 70
     8
 71
     3
 72
     8
 73
     4
 74
     0
 42
0.000000001
 43
0.00000001
 40
0.0
 40
0.0
 40
0.0
 40
0.0
 40
1.0
 40
1.0
 40
1.0
 40
1.0
 10
174.9144301030867
 20
101.8555904786623
 30
0.0
 10
174.9042569429135
 20
101.9369438500929
 30
0.0
 10
174.8940837827404
 20
102.0182862689628
 30
0.0
 10
174.8839106225672
 20
102.099613977349
 30
0.0
  0
SPLINE
  5
13D
330
1F
100
AcDbEntity
  8
0
  6
Continuous
 62
     7
370
     0
100
AcDbSpline
210
0.0
220
0.0
230
1.0
 70
     8
 71
     3
 72
    15
 73
    11
 74
     0
 42
0.000000001
 43
0.00000001
 40
0.0
 40
0.0
 40
0.0
 40
0.0
 40
0.0626620904673465
 40
0.1252926296738046
 40
0.250378994739695
 40
0.4991573193917701
 40
0.6218210237258127
 40
0.7494608068978353
 40
0.8747179529641241
 40
1.0
 40
1.0
 40
1.0
 40
1.0
 10
175.5858586745153
 20
102.4611906792298
 30
0.0
 10
175.5852546873052
 20
102.4402914828726
 30
0.0
 10
175.5840470170012
 20
102.3985036132032
 30
0.0
 10
175.5714623833683
 20
102.3157664806182
 30
0.0
 10
175.5252358671095
 20
102.1763153681531
 30
0.0
 10
175.4165051548561
 20
102.0431400952297
 30
0.0
 10
175.2783462175705
 20
101.9488791444356
 30
0.0
 10
175.1620829424502
 20
101.9000469720484
 30
0.0
 10
175.0393830602351
 20
101.8683995332197
 30
0.0
 10
174.9560838484923
 20
101.8598604464134
 30
0.0
 10
174.9144301030867
 20
101.8555904786623
 30
0.0
  0
SPLINE
  5
13E
330
1F
100
AcDbEntity
  8
0
  6
Continuous
 62
     7
370
     0
100
AcDbSpline
210
0.0
220
0.0
230
1.0
 70
     8
 71
     3
 72
    14
 73
    10
 74
     0
 42
0.000000001
 43
0.00000001
 40
0.0
 40
0.0
 40
0.0
 40
0.0
 40
0.1254508217661203
 40
0.2508652089522883
 40
0.5007660647446088
 40
0.749448187600124
 40
0.8745485641857015
 40
0.9372586901485888
 40
1.0
 40
1.0
 40
1.0
 40
1.0
 10
174.7551565641257
 20
103.1050298461897
 30
0.0
 10
174.8041087498297
 20
103.1035003682096
 30
0.0
 10
174.9019989040944
 20
103.1004418564544
 30
0.0
 10
175.0944352544452
 20
103.0628961135987
 30
0.0
 10
175.3206914487343
 20
102.9658314673239
 30
0.0
 10
175.50465773093
 20
102.7917681156531
 30
0.0
 10
175.5666321745526
 20
102.6308218811346
 30
0.0
 10
175.58368742718
 20
102.5345200374765
 30
0.0
 10
175.5851348054769
 20
102.4856378489158
 30
0.0
 10
175.5858586745153
 20
102.4611906792298
 30
0.0
  0
LINE
  5
13F
330
1F
100
AcDbEntity
  8
0
  6
Continuous
 62
     7
370
     0
100
AcDbLine
 10
174.6092352961
 20
99.3926270791
 30
0.0
 11
174.6092352961
 21
98.8982315799
 31
0.0
  0
SPLINE
  5
140
330
1F
100
AcDbEntity
  8
0
  6
Continuous
 62
     7
370
     0
100
AcDbSpline
210
0.0
220
0.0
230
1.0
 70
     8
 71
     3
 72
    15
 73
    11
 74
     0
 42
0.000000001
 43
0.00000001
 40
0.0
 40
0.0
 40
0.0
 40
0.0
 40
0.1251267795937829
 40
0.2502087440697853
 40
0.375203587475554
 40
0.5001276200207311
 40
0.6181871583708123
 40
0.7497555672938371
 40
0.8748246125366184
 40
1.0
 40
1.0
 40
1.0
 40
1.0
 10
173.8863051030867
 20
100.1163539330015
 30
0.0
 10
173.9352566820911
 20
100.1147910769653
 30
0.0
 10
174.0331423077155
 20
100.1116659246419
 30
0.0
 10
174.1774612409983
 20
100.0802667566967
 30
0.0
 10
174.3129931114582
 20
100.0228511925188
 30
0.0
 10
174.4335751691846
 20
99.9413834211294
 30
0.0
 10
174.5248702394515
 20
99.82404427967987
 30
0.0
 10
174.5787369986609
 20
99.68642530890503
 30
0.0
 10
174.6054085425354
 20
99.53913788435523
 30
0.0
 10
174.6079593514481
 20
99.44147783056619
 30
0.0
 10
174.6092352978919
 20
99.39262705318609
 30
0.0
  0
SPLINE
  5
141
330
1F
100
AcDbEntity
  8
0
  6
Continuous
 62
     7
370
     0
100
AcDbSpline
210
0.0
220
0.0
230
1.0
 70
     8
 71
     3
 72
    14
 73
    10
 74
     0
 42
0.000000001
 43
0.00000001
 40
0.0
 40
0.0
 40
0.0
 40
0.0
 40
0.0715632193436358
 40
0.1431246732572841
 40
0.2503740552462812
 40
0.499786091922228
 40
0.7495413463656677
 40
0.8497349887435405
 40
1.0
 40
1.0
 40
1.0
 40
1.0
 10
173.2506415478919
 20
99.7524443926263
 30
0.0
 10
173.257507221048
 20
99.76974458227491
 30
0.0
 10
173.2712383979874
 20
99.80434453478486
 30
0.0
 10
173.3044978969051
 20
99.86049918937613
 30
0.0
 10
173.3731044184287
 20
99.94864860728356
 30
0.0
 10
173.5037996796795
 20
100.0432594343335
 30
0.0
 10
173.6532769430806
 20
100.0933694135105
 30
0.0
 10
173.7820096730236
 20
100.1133937363554
 30
0.0
 10
173.8471959729167
 20
100.1152439062641
 30
0.0
 10
173.8863051030867
 20
100.1163539330015
 30
0.0
  0
SPLINE
  5
142
330
1F
100
AcDbEntity
  8
0
  6
Continuous
 62
     7
370
     0
100
AcDbSpline
210
0.0
220
0.0
230
1.0
 70
     8
 71
     3
 72
    12
 73
     8
 74
     0
 42
0.000000001
 43
0.00000001
 40
0.0
 40
0.0
 40
0.0
 40
0.0
 40
0.2716297071090248
 40
0.5000612463477077
 40
0.7500575439835201
 40
0.8670058444018962
 40
1.0
 40
1.0
 40
1.0
 40
1.0
 10
173.2053391939958
 20
99.37645254211269
 30
0.0
 10
173.2055872937925
 20
99.41088758475637
 30
0.0
 10
173.2060440372573
 20
99.47428135168155
 30
0.0
 10
173.2126438491407
 20
99.56917719034351
 30
0.0
 10
173.2218468810439
 20
99.6442311079343
 30
0.0
 10
173.2357547025807
 20
99.7061783123813
 30
0.0
 10
173.245471336004
 20
99.7363761502896
 30
0.0
 10
173.2506415478919
 20
99.7524443926263
 30
0.0
  0
LINE
  5
143
330
1F
100
AcDbEntity
  8
0
  6
Continuous
 62
     7
370
     0
100
AcDbLine
 10
173.205339158
 20
99.3764525671
 30
0.0
 11
173.205339158
 21
98.655139857
 31
0.0
  0
LINE
  5
144
330
1F
100
AcDbEntity
  8
0
  6
Continuous
 62
     7
370
     0
100
AcDbLine
 10
175.5553392406
 20
98.655139857
 30
0.0
 11
173.205339158
 21
98.655139857
 31
0.0
  0
LINE
  5
145
330
1F
100
AcDbEntity
  8
0
  6
Continuous
 62
     7
370
     0
100
AcDbLine
 10
175.5553392406
 20
98.8982315799
 30
0.0
 11
175.5553392406
 21
98.655139857
 31
0.0
  0
LINE
  5
146
330
1F
100
AcDbEntity
  8
0
  6
Continuous
 62
     7
370
     0
100
AcDbLine
 10
174.6092352961
 20
98.8982315799
 30
0.0
 11
175.5553392406
 21
98.8982315799
 31
0.0
  0
SPLINE
  5
147
330
1F
100
AcDbEntity
  8
0
  6
Continuous
 62
     7
370
     0
100
AcDbSpline
210
0.0
220
0.0
230
1.0
 70
     8
 71
     3
 72
     8
 73
     4
 74
     0
 42
0.000000001
 43
0.00000001
 40
0.0
 40
0.0
 40
0.0
 40
0.0
 40
1.0
 40
1.0
 40
1.0
 40
1.0
 10
175.5553391939958
 20
95.7423390323872
 30
0.0
 10
174.8716710392339
 20
95.56014977039328
 30
0.0
 10
174.188002884472
 20
95.37839717305874
 30
0.0
 10
173.5043347297101
 20
95.19712531027244
 30
0.0
  0
LINE
  5
148
330
1F
100
AcDbEntity
  8
0
  6
Continuous
 62
     7
370
     0
100
AcDbLine
 10
175.5553392406
 20
95.9867581884
 30
0.0
 11
175.5553392406
 21
95.7423390979
 31
0.0
  0
SPLINE
  5
149
330
1F
100
AcDbEntity
  8
0
  6
Continuous
 62
     7
370
     0
100
AcDbSpline
210
0.0
220
0.0
230
1.0
 70
     8
 71
     3
 72
     8
 73
     4
 74
     0
 42
0.000000001
 43
0.00000001
 40
0.0
 40
0.0
 40
0.0
 40
0.0
 40
1.0
 40
1.0
 40
1.0
 40
1.0
 10
173.6154447134763
 20
96.54036567656641
 30
0.0
 10
174.2620762069828
 20
96.3554361049715
 30
0.0
 10
174.9087077004893
 20
96.17088506380395
 30
0.0
 10
175.5553391939958
 20
95.98675806766607
 30
0.0
  0
LINE
  5
14A
330
1F
100
AcDbEntity
  8
0
  6
Continuous
 62
     7
370
     0
100
AcDbLine
 10
175.5553392406
 20
96.5403656634
 30
0.0
 11
173.6154447255
 21
96.5403656634
 31
0.0
  0
LINE
  5
14B
330
1F
100
AcDbEntity
  8
0
  6
Continuous
 62
     7
370
     0
100
AcDbLine
 10
175.5553392406
 20
96.7806860032
 30
0.0
 11
175.5553392406
 21
96.5403656634
 31
0.0
  0
LINE
  5
14C
330
1F
100
AcDbEntity
  8
0
  6
Continuous
 62
     7
370
     0
100
AcDbLine
 10
173.205339158
 20
96.7806860032
 30
0.0
 11
175.5553392406
 21
96.7806860032
 31
0.0
  0
LINE
  5
14D
330
1F
100
AcDbEntity
  8
0
  6
Continuous
 62
     7
370
     0
100
AcDbLine
 10
173.205339158
 20
96.7806860032
 30
0.0
 11
173.205339158
 21
96.4405125165
 31
0.0
  0
SPLINE
  5
14E
330
1F
100
AcDbEntity
  8
0
  6
Continuous
 62
     7
370
     0
100
AcDbSpline
210
0.0
220
0.0
230
1.0
 70
     8
 71
     3
 72
     8
 73
     4
 74
     0
 42
0.000000001
 43
0.00000001
 40
0.0
 40
0.0
 40
0.0
 40
0.0
 40
1.0
 40
1.0
 40
1.0
 40
1.0
 10
174.8405157362036
 20
95.97088341907867
 30
0.0
 10
174.295456888801
 20
96.12712939997678
 30
0.0
 10
173.7503980413984
 20
96.28368174639117
 30
0.0
 10
173.2053391939958
 20
96.44051264833655
 30
0.0
  0
SPLINE
  5
14F
330
1F
100
AcDbEntity
  8
0
  6
Continuous
 62
     7
370
     0
100
AcDbSpline
210
0.0
220
0.0
230
1.0
 70
     8
 71
     3
 72
     9
 73
     5
 74
     0
 42
0.000000001
 43
0.00000001
 40
0.0
 40
0.0
 40
0.0
 40
0.0
 40
0.4999953013385137
 40
1.0
 40
1.0
 40
1.0
 40
1.0
 10
175.217240573866
 20
95.86681695138633
 30
0.0
 10
175.154317881536
 20
95.88368464966422
 30
0.0
 10
175.0284713142555
 20
95.9174203632454
 30
0.0
 10
174.9031679880595
 20
95.95306228882136
 30
0.0
 10
174.8405157362036
 20
95.97088341907867
 30
0.0
  0
SPLINE
  5
150
330
1F
100
AcDbEntity
  8
0
  6
Continuous
 62
     7
370
     0
100
AcDbSpline
210
0.0
220
0.0
230
1.0
 70
     8
 71
     3
 72
     8
 73
     4
 74
     0
 42
0.000000001
 43
0.00000001
 40
0.0
 40
0.0
 40
0.0
 40
0.0
 40
1.0
 40
1.0
 40
1.0
 40
1.0
 10
174.8691277491906
 20
95.77729116544617
 30
0.0
 10
174.9851653574157
 20
95.80712153573577
 30
0.0
 10
175.1012029656408
 20
95.83696352900817
 30
0.0
 10
175.217240573866
 20
95.86681695138637
 30
0.0
  0
SPLINE
  5
151
330
1F
100
AcDbEntity
  8
0
  6
Continuous
 62
     7
370
     0
100
AcDbSpline
210
0.0
220
0.0
230
1.0
 70
     8
 71
     3
 72
     8
 73
     4
 74
     0
 42
0.000000001
 43
0.00000001
 40
0.0
 40
0.0
 40
0.0
 40
0.0
 40
1.0
 40
1.0
 40
1.0
 40
1.0
 10
173.2053391939958
 20
95.33119574398835
 30
0.0
 10
173.7599353790607
 20
95.47958817287792
 30
0.0
 10
174.3145315641257
 20
95.62829468051012
 30
0.0
 10
174.8691277491906
 20
95.77729116544617
 30
0.0
  0
LINE
  5
152
330
1F
100
AcDbEntity
  8
0
  6
Continuous
 62
     7
370
     0
100
AcDbLine
 10
173.205339158
 20
95.3311955715
 30
0.0
 11
173.205339158
 21
94.9600351201
 31
0.0
  0
LINE
  5
153
330
1F
100
AcDbEntity
  8
0
  6
Continuous
 62
     7
370
     0
100
AcDbLine
 10
175.5553392406
 20
94.9600351201
 30
0.0
 11
173.205339158
 21
94.9600351201
 31
0.0
  0
LINE
  5
154
330
1F
100
AcDbEntity
  8
0
  6
Continuous
 62
     7
370
     0
100
AcDbLine
 10
175.5553392406
 20
95.1971251676
 30
0.0
 11
175.5553392406
 21
94.9600351201
 31
0.0
  0
LINE
  5
155
330
1F
100
AcDbEntity
  8
0
  6
Continuous
 62
     7
370
     0
100
AcDbLine
 10
173.5043347409
 20
95.1971251676
 30
0.0
 11
175.5553392406
 21
95.1971251676
 31
0.0
  0
LINE
  5
156
330
1F
100
AcDbEntity
  8
0
  6
Continuous
 62
     7
370
     0
100
AcDbLine
 10
171.8834642499
 20
101.1443830254
 30
0.0
 11
171.8834642499
 21
126.3443830582
 31
0.0
  0
LINE
  5
157
330
1F
100
AcDbEntity
  8
0
  6
Continuous
 62
     7
370
     0
100
AcDbLine
 10
171.8834642499
 20
75.9443829926
 30
0.0
 11
171.8834642499
 21
101.1443830254
 31
0.0
  0
LINE
  5
158
330
1F
100
AcDbEntity
  8
0
  6
Continuous
 62
     7
370
     0
100
AcDbLine
 10
174.3345599727
 20
99.4078508271
 30
0.0
 11
174.3345599727
 21
98.8982315799
 31
0.0
  0
SPLINE
  5
159
330
1F
100
AcDbEntity
  8
0
  6
Continuous
 62
     7
370
     0
100
AcDbSpline
210
0.0
220
0.0
230
1.0
 70
     8
 71
     3
 72
    14
 73
    10
 74
     0
 42
0.000000001
 43
0.00000001
 40
0.0
 40
0.0
 40
0.0
 40
0.0
 40
0.1254334684850727
 40
0.2507837227448746
 40
0.4991924195966432
 40
0.6189973935762006
 40
0.7493281599186867
 40
0.8746069720799522
 40
1.0
 40
1.0
 40
1.0
 40
1.0
 10
174.3345599732166
 20
99.40785077457492
 30
0.0
 10
174.3337878955181
 20
99.43839037859362
 30
0.0
 10
174.3322442523278
 20
99.49944932625301
 30
0.0
 10
174.3129395560516
 20
99.61929133346844
 30
0.0
 10
174.2617360931308
 20
99.73430111396829
 30
0.0
 10
174.1669696358175
 20
99.81315361059225
 30
0.0
 10
174.0823536092864
 20
99.85032640433668
 30
0.0
 10
173.9909045637081
 20
99.86945867540155
 30
0.0
 10
173.9297644797834
 20
99.8714521882872
 30
0.0
 10
173.8991805089309
 20
99.87244939889068
 30
0.0
  0
SPLINE
  5
15A
330
1F
100
AcDbEntity
  8
0
  6
Continuous
 62
     7
370
     0
100
AcDbSpline
210
0.0
220
0.0
230
1.0
 70
     8
 71
     3
 72
    15
 73
    11
 74
     0
 42
0.000000001
 43
0.00000001
 40
0.0
 40
0.0
 40
0.0
 40
0.0
 40
0.1251494126434
 40
0.2502382939156019
 40
0.3752400413420949
 40
0.500157646678466
 40
0.6246526713367393
 40
0.7495806942684533
 40
0.8926595291875251
 40
1.0
 40
1.0
 40
1.0
 40
1.0
 10
173.8991805089309
 20
99.87244939889068
 30
0.0
 10
173.8686105152407
 20
99.87138290408325
 30
0.0
 10
173.807485313736
 20
99.86925043030293
 30
0.0
 10
173.7175296383383
 20
99.84812842356313
 30
0.0
 10
173.6346292726427
 20
99.80817084205479
 30
0.0
 10
173.5602897470317
 20
99.75369370022273
 30
0.0
 10
173.5067868122566
 20
99.67645012464187
 30
0.0
 10
173.4885662561174
 20
99.58121059661218
 30
0.0
 10
173.4808562997793
 20
99.49026799151845
 30
0.0
 10
173.4802670825042
 20
99.42924875836881
 30
0.0
 10
173.4800145186711
 20
99.40309329405362
 30
0.0
  0
LINE
  5
15B
330
1F
100
AcDbEntity
  8
0
  6
Continuous
 62
     7
370
     0
100
AcDbLine
 10
173.4800145324
 20
99.4030932821
 30
0.0
 11
173.4800145324
 21
98.8982315799
 31
0.0
  0
LINE
  5
15C
330
1F
100
AcDbEntity
  8
0
  6
Continuous
 62
     7
370
     0
100
AcDbLine
 10
173.4800145324
 20
98.8982315799
 30
0.0
 11
174.3345599727
 21
98.8982315799
 31
0.0
  0
SPLINE
  5
15D
330
1F
100
AcDbEntity
  8
0
  6
Continuous
 62
     7
370
     0
100
AcDbSpline
210
0.0
220
0.0
230
1.0
 70
     8
 71
     3
 72
    14
 73
    10
 74
     0
 42
0.000000001
 43
0.00000001
 40
0.0
 40
0.0
 40
0.0
 40
0.0
 40
0.250459384859403
 40
0.5007737691173246
 40
0.625870340125704
 40
0.7507069732232925
 40
0.8751134679239073
 40
0.9375438466361619
 40
1.0
 40
1.0
 40
1.0
 40
1.0
 10
174.3803391939958
 20
103.5914922758429
 30
0.0
 10
174.475223525463
 20
103.5926784734652
 30
0.0
 10
174.6649372561968
 20
103.5950501819743
 30
0.0
 10
174.9013129482037
 20
103.6198950505479
 30
0.0
 10
175.0861239224188
 20
103.6656992647372
 30
0.0
 10
175.2126144635823
 20
103.7328856026232
 30
0.0
 10
175.2979215425785
 20
103.8183507070322
 30
0.0
 10
175.3370381807806
 20
103.9057563289136
 30
0.0
 10
175.3401477332453
 20
103.9529872984268
 30
0.0
 10
175.3417028303594
 20
103.9766076570549
 30
0.0
  0
SPLINE
  5
15E
330
1F
100
AcDbEntity
  8
0
  6
Continuous
 62
     7
370
     0
100
AcDbSpline
210
0.0
220
0.0
230
1.0
 70
     8
 71
     3
 72
    15
 73
    11
 74
     0
 42
0.000000001
 43
0.00000001
 40
0.0
 40
0.0
 40
0.0
 40
0.0
 40
0.0312901635285475
 40
0.0625537335386462
 40
0.1249650643503549
 40
0.249457137508821
 40
0.374303112525276
 40
0.4993924584937474
 40
0.7496226152148623
 40
1.0
 40
1.0
 40
1.0
 40
1.0
 10
175.3417028303594
 20
103.9766076570549
 30
0.0
 10
175.3413218073933
 20
103.9883042684849
 30
0.0
 10
175.3405600852925
 20
104.0116875503916
 30
0.0
 10
175.3297097598816
 20
104.0572739882082
 30
0.0
 10
175.2951182113352
 20
104.132290268273
 30
0.0
 10
175.2054454978743
 20
104.2123277649569
 30
0.0
 10
175.0801092518551
 20
104.2774988065861
 30
0.0
 10
174.8964839208689
 20
104.3216454643787
 30
0.0
 10
174.6623857000336
 20
104.3460633346876
 30
0.0
 10
174.4743731274307
 20
104.3484954417515
 30
0.0
 10
174.3803391939958
 20
104.3497118529233
 30
0.0
  0
SPLINE
  5
15F
330
1F
100
AcDbEntity
  8
0
  6
Continuous
 62
     7
370
     0
100
AcDbSpline
210
0.0
220
0.0
230
1.0
 70
     8
 71
     3
 72
    14
 73
    10
 74
     0
 42
0.000000001
 43
0.00000001
 40
0.0
 40
0.0
 40
0.0
 40
0.0
 40
0.2504545161899774
 40
0.5007633272324292
 40
0.6258556209242593
 40
0.7506768265904485
 40
0.8750919021456441
 40
0.937529081724393
 40
1.0
 40
1.0
 40
1.0
 40
1.0
 10
174.3803391939958
 20
104.3497118529233
 30
0.0
 10
174.2852238413766
 20
104.3485216371206
 30
0.0
 10
174.0950484707223
 20
104.3461418979385
 30
0.0
 10
173.858068256728
 20
104.3213985508966
 30
0.0
 10
173.6728567269249
 20
104.2754872837759
 30
0.0
 10
173.5460984289805
 20
104.2080317079768
 30
0.0
 10
173.4616015620409
 20
104.1213462535091
 30
0.0
 10
173.4234674666924
 20
104.033406265865
 30
0.0
 10
173.4204731302505
 20
103.9860666282363
 30
0.0
 10
173.4189755576322
 20
103.9623904160106
 30
0.0
  0
SPLINE
  5
160
330
1F
100
AcDbEntity
  8
0
  6
Continuous
 62
     7
370
     0
100
AcDbSpline
210
0.0
220
0.0
230
1.0
 70
     8
 71
     3
 72
    16
 73
    12
 74
     0
 42
0.000000001
 43
0.00000001
 40
0.0
 40
0.0
 40
0.0
 40
0.0
 40
0.0312835484950862
 40
0.0625395266465644
 40
0.1249245184145103
 40
0.2493412095452066
 40
0.3118907638807536
 40
0.3744409013743332
 40
0.4994832982156769
 40
0.749671270279263
 40
1.0
 40
1.0
 40
1.0
 40
1.0
 10
173.4189755576322
 20
103.9623904160106
 30
0.0
 10
173.4193447617583
 20
103.9507094944843
 30
0.0
 10
173.4200828446293
 20
103.9273579458847
 30
0.0
 10
173.4310556855808
 20
103.881835966673
 30
0.0
 10
173.4663626260038
 20
103.8072621783213
 30
0.0
 10
173.5383576632697
 20
103.7434814719564
 30
0.0
 10
173.6179827320311
 20
103.6947224004921
 30
0.0
 10
173.7047481388969
 20
103.6582548245493
 30
0.0
 10
173.8647822040828
 20
103.6193073712237
 30
0.0
 10
174.0987971638727
 20
103.5952197051221
 30
0.0
 10
174.286474257477
 20
103.5927349851908
 30
0.0
 10
174.3803391939958
 20
103.5914922758429
 30
0.0
  0
SPLINE
  5
161
330
1F
100
AcDbEntity
  8
0
  6
Continuous
 62
     7
370
     0
100
AcDbSpline
210
0.0
220
0.0
230
1.0
 70
     8
 71
     3
 72
    14
 73
    10
 74
     0
 42
0.000000001
 43
0.00000001
 40
0.0
 40
0.0
 40
0.0
 40
0.0
 40
0.2504593848594039
 40
0.5007737691173267
 40
0.6258703401257071
 40
0.7507069732232907
 40
0.875113467923906
 40
0.937543846636161
 40
1.0
 40
1.0
 40
1.0
 40
1.0
 10
174.3803391939958
 20
105.0748903585612
 30
0.0
 10
174.475223525463
 20
105.0760677421546
 30
0.0
 10
174.6649372561968
 20
105.0784218277087
 30
0.0
 10
174.9013129482037
 20
105.1030818070279
 30
0.0
 10
175.0861239224188
 20
105.1485405218681
 30
0.0
 10
175.2126144635823
 20
105.2152126862005
 30
0.0
 10
175.2979215425785
 20
105.3000063533016
 30
0.0
 10
175.3370381807806
 20
105.3867062519294
 30
0.0
 10
175.3401477332453
 20
105.4335458869448
 30
0.0
 10
175.3417028303594
 20
105.4569705379411
 30
0.0
  0
SPLINE
  5
162
330
1F
100
AcDbEntity
  8
0
  6
Continuous
 62
     7
370
     0
100
AcDbSpline
210
0.0
220
0.0
230
1.0
 70
     8
 71
     3
 72
    15
 73
    11
 74
     0
 42
0.000000001
 43
0.00000001
 40
0.0
 40
0.0
 40
0.0
 40
0.0
 40
0.0312901635285471
 40
0.0625537335386457
 40
0.1249650643503551
 40
0.2494571375088189
 40
0.3743031125252727
 40
0.4993924584937448
 40
0.7496226152148613
 40
1.0
 40
1.0
 40
1.0
 40
1.0
 10
175.3417028303594
 20
105.4569705379411
 30
0.0
 10
175.3413218073933
 20
105.4685693730217
 30
0.0
 10
175.3405600852925
 20
105.4917571853298
 30
0.0
 10
175.3297097598816
 20
105.5369578212599
 30
0.0
 10
175.2951182113352
 20
105.6113302715813
 30
0.0
 10
175.2054454978743
 20
105.6906626192358
 30
0.0
 10
175.0801092518551
 20
105.7552476349737
 30
0.0
 10
174.8964839208689
 20
105.7989922237
 30
0.0
 10
174.6623857000336
 20
105.8231854319552
 30
0.0
 10
174.4743731274307
 20
105.8255951115143
 30
0.0
 10
174.3803391939958
 20
105.8268003056358
 30
0.0
  0
SPLINE
  5
163
330
1F
100
AcDbEntity
  8
0
  6
Continuous
 62
     7
370
     0
100
AcDbSpline
210
0.0
220
0.0
230
1.0
 70
     8
 71
     3
 72
    14
 73
    10
 74
     0
 42
0.000000001
 43
0.00000001
 40
0.0
 40
0.0
 40
0.0
 40
0.0
 40
0.2504545161899771
 40
0.5007633272324292
 40
0.625855620924261
 40
0.7506768265904501
 40
0.8750919021456431
 40
0.9375290817243926
 40
1.0
 40
1.0
 40
1.0
 40
1.0
 10
174.3803391939958
 20
105.8268003056358
 30
0.0
 10
174.2852238413766
 20
105.8256210573858
 30
0.0
 10
174.0950484707223
 20
105.8232632469286
 30
0.0
 10
173.858068256728
 20
105.7987476624934
 30
0.0
 10
173.6728567269249
 20
105.753254281711
 30
0.0
 10
173.5460984289805
 20
105.6864052595508
 30
0.0
 10
173.4616015620409
 20
105.6004812881886
 30
0.0
 10
173.4234674666924
 20
105.5132943508724
 30
0.0
 10
173.4204731302505
 20
105.4663500502659
 30
0.0
 10
173.4189755576322
 20
105.4428715599433
 30
0.0
  0
SPLINE
  5
164
330
1F
100
AcDbEntity
  8
0
  6
Continuous
 62
     7
370
     0
100
AcDbSpline
210
0.0
220
0.0
230
1.0
 70
     8
 71
     3
 72
    16
 73
    12
 74
     0
 42
0.000000001
 43
0.00000001
 40
0.0
 40
0.0
 40
0.0
 40
0.0
 40
0.0312835484950851
 40
0.0625395266465642
 40
0.1249245184145117
 40
0.2493412095452084
 40
0.311890763880755
 40
0.3744409013743367
 40
0.4994832982156803
 40
0.7496712702792634
 40
1.0
 40
1.0
 40
1.0
 40
1.0
 10
173.4189755576322
 20
105.4428715599433
 30
0.0
 10
173.4193447617583
 20
105.431287324313
 30
0.0
 10
173.4200828446293
 20
105.4081290622957
 30
0.0
 10
173.4310556855808
 20
105.3629791649069
 30
0.0
 10
173.4663626260038
 20
105.2890060622468
 30
0.0
 10
173.5383576632697
 20
105.2257247207682
 30
0.0
 10
173.6179827320311
 20
105.1773415634294
 30
0.0
 10
173.7047481388969
 20
105.1411522503898
 30
0.0
 10
173.8647822040828
 20
105.102498518034
 30
0.0
 10
174.0987971638727
 20
105.0785900840296
 30
0.0
 10
174.2864742574769
 20
105.0761238315744
 30
0.0
 10
174.3803391939958
 20
105.0748903585612
 30
0.0
  0
LINE
  5
165
330
1F
100
AcDbEntity
  8
0
  6
Continuous
 62
     7
370
     0
100
AcDbLine
 10
175.2806638662
 20
93.7174393954
 30
0.0
 11
175.2806638662
 21
93.3176216828
 31
0.0
  0
SPLINE
  5
166
330
1F
100
AcDbEntity
  8
0
  6
Continuous
 62
     7
370
     0
100
AcDbSpline
210
0.0
220
0.0
230
1.0
 70
     8
 71
     3
 72
    15
 73
    11
 74
     0
 42
0.000000001
 43
0.00000001
 40
0.0
 40
0.0
 40
0.0
 40
0.0
 40
0.1388489419424235
 40
0.2501977506340647
 40
0.3831761862776433
 40
0.5002075727696145
 40
0.6213379654255621
 40
0.7499414540047515
 40
0.8749212798674988
 40
1.0
 40
1.0
 40
1.0
 40
1.0
 10
175.2806638693205
 20
93.71743946802064
 30
0.0
 10
175.2798192968557
 20
93.74988096196127
 30
0.0
 10
175.2782974261955
 20
93.80833865488712
 30
0.0
 10
175.2685782967456
 20
93.89763254276124
 30
0.0
 10
175.2494980044045
 20
93.98051851461317
 30
0.0
 10
175.2169471363742
 20
94.06224627246954
 30
0.0
 10
175.1667357041543
 20
94.13448595448197
 30
0.0
 10
175.1001973526269
 20
94.1956846786073
 30
0.0
 10
175.022856262627
 20
94.24549781078386
 30
0.0
 10
174.9664751516552
 20
94.26837803388452
 30
0.0
 10
174.9382734472426
 20
94.27982266982121
 30
0.0
  0
SPLINE
  5
167
330
1F
100
AcDbEntity
  8
0
  6
Continuous
 62
     7
370
     0
100
AcDbSpline
210
0.0
220
0.0
230
1.0
 70
     8
 71
     3
 72
    12
 73
     8
 74
     0
 42
0.000000001
 43
0.00000001
 40
0.0
 40
0.0
 40
0.0
 40
0.0
 40
0.1384428690844934
 40
0.2499955774680871
 40
0.4999714742338767
 40
0.7499799309452824
 40
1.0
 40
1.0
 40
1.0
 40
1.0
 10
174.9382734472426
 20
94.27982266982121
 30
0.0
 10
174.9128692389363
 20
94.28862115139808
 30
0.0
 10
174.8669951555138
 20
94.30450915991159
 30
0.0
 10
174.7732451805618
 20
94.3304656246466
 30
0.0
 10
174.6559269439233
 20
94.35202475698154
 30
0.0
 10
174.5104141238759
 20
94.36769520009047
 30
0.0
 10
174.4128892762235
 20
94.3691362451617
 30
0.0
 10
174.3641257199698
 20
94.36985678443028
 30
0.0
  0
SPLINE
  5
168
330
1F
100
AcDbEntity
  8
0
  6
Continuous
 62
     7
370
     0
100
AcDbSpline
210
0.0
220
0.0
230
1.0
 70
     8
 71
     3
 72
    15
 73
    11
 74
     0
 42
0.000000001
 43
0.00000001
 40
0.0
 40
0.0
 40
0.0
 40
0.0
 40
0.0834230312274555
 40
0.2502275879770218
 40
0.5000787347285472
 40
0.625085156257011
 40
0.7500916741890106
 40
0.8749580725237437
 40
0.9374643383058788
 40
0.9999999999999999
 40
0.9999999999999999
 40
0.9999999999999999
 40
0.9999999999999999
 10
174.3641257199698
 20
94.36985678443028
 30
0.0
 10
174.3374890784383
 20
94.36965711438165
 30
0.0
 10
174.2575924064502
 20
94.36905820357818
 30
0.0
 10
174.0983471824363
 20
94.35800835529405
 30
0.0
 10
173.9268436795048
 20
94.32698838535742
 30
0.0
 10
173.7792922863987
 20
94.26715647586636
 30
0.0
 10
173.6761097627879
 20
94.20772871642733
 30
0.0
 10
173.602110629587
 20
94.14229753730332
 30
0.0
 10
173.5533358739383
 20
94.08116597114702
 30
0.0
 10
173.5356116623763
 20
94.04672955284886
 30
0.0
 10
173.5267474732166
 20
94.02950729589782
 30
0.0
  0
SPLINE
  5
169
330
1F
100
AcDbEntity
  8
0
  6
Continuous
 62
     7
370
     0
100
AcDbSpline
210
0.0
220
0.0
230
1.0
 70
     8
 71
     3
 72
    12
 73
     8
 74
     0
 42
0.000000001
 43
0.00000001
 40
0.0
 40
0.0
 40
0.0
 40
0.0
 40
0.1264898950852846
 40
0.2499216889095194
 40
0.499900211056267
 40
0.7499192313532342
 40
1.0
 40
1.0
 40
1.0
 40
1.0
 10
173.5267474732166
 20
94.02950729589782
 30
0.0
 10
173.5216446818983
 20
94.01674214574108
 30
0.0
 10
173.5115624676347
 20
93.99152046392842
 30
0.0
 10
173.497123638165
 20
93.93924407891485
 30
0.0
 10
173.4875359392391
 20
93.87246948512849
 30
0.0
 10
173.480875002965
 20
93.7918366490776
 30
0.0
 10
173.4803013703783
 20
93.73798467284261
 30
0.0
 10
173.4800145186711
 20
93.71105536011797
 30
0.0
  0
LINE
  5
16A
330
1F
100
AcDbEntity
  8
0
  6
Continuous
 62
     7
370
     0
100
AcDbLine
 10
173.4800145324
 20
93.7110551791
 30
0.0
 11
173.4800145324
 21
93.3176216828
 31
0.0
  0
LINE
  5
16B
330
1F
100
AcDbEntity
  8
0
  6
Continuous
 62
     7
370
     0
100
AcDbLine
 10
173.4800145324
 20
93.3176216828
 30
0.0
 11
175.2806638662
 21
93.3176216828
 31
0.0
  0
DIMENSION
  5
16C
330
1F
100
AcDbEntity
  8
0
  6
Continuous
 62
     7
370
     0
100
AcDbDimension
  2
_D_1
 10
176.883464194
 20
131.5443830254
 30
0.0
 11
187.0179936819
 21
131.5443830254
 31
0.0
 70
   160
  1
<>
 71
     2
 42
-1.0
  3
SLDDIMSTYLE1
100
AcDbAlignedDimension
 13
171.883464194
 23
126.3443830254
 33
0.0
 14
176.883464194
 24
126.3443830254
 34
0.0
100
AcDbRotatedDimension
  0
MTEXT
  5
181
330
1F
100
AcDbEntity
  8
0
  6
Continuous
 62
     7
370
     0
100
AcDbMText
 10
147.8338298893
 20
121.2225241264
 30
0.0
 40
2.1166666667
 41
0.0
 71
     1
 72
     1
  1
S1
  7
SLDTEXTSTYLE0
 73
     1
 44
1.0
  0
LEADER
  5
183
330
1F
100
AcDbEntity
  8
0
  6
Continuous
 62
     7
370
     0
100
AcDbLeader
  3
SLDDIMSTYLE2
 76
     3
 10
171.883464194
 20
111.7206138663
 30
0.0
 10
157.5343990036
 20
120.1613250286
 30
0.0
 10
151.1843990036
 20
120.1613250286
 30
0.0
  0
INSERT
  5
189
102
{ACAD_REACTORS
330
18A
102
}
330
1F
100
AcDbEntity
  8
0
  6
Continuous
 62
     7
370
     0
100
AcDbBlockReference
  2
SW_NOTE_5
 10
191.3417799753
 20
107.1823386256
 30
0.0
  0
LEADER
  5
18A
330
1F
100
AcDbEntity
  8
0
  6
Continuous
 62
     7
370
     0
100
AcDbLeader
  3
SLDDIMSTYLE2
 73
     2
 76
     3
 10
176.883464194
 20
110.9918736083
 30
0.0
 10
184.9917799753
 20
107.1823386256
 30
0.0
 10
191.3417799753
 20
107.1823386256
 30
0.0
340
189
  0
LINE
  5
18B
330
1F
100
AcDbEntity
  8
0
  6
Continuous
 62
     7
370
     0
100
AcDbLine
 10
246.3935513096
 20
194.7404975598
 30
0.0
 11
246.3935513096
 21
194.6588567487
 31
0.0
  0
LINE
  5
18C
330
1F
100
AcDbEntity
  8
0
  6
Continuous
 62
     7
370
     0
100
AcDbLine
 10
255.3016487009
 20
179.2279074928
 30
0.0
 11
255.3723478865
 21
179.1870804527
 31
0.0
  0
LINE
  5
18D
330
1F
100
AcDbEntity
  8
0
  6
Continuous
 62
     7
370
     0
100
AcDbLine
 10
250.6506690752
 20
201.4939959306
 30
0.0
 11
249.0243234785
 21
200.555126602
 31
0.0
  0
LINE
  5
18E
330
1F
100
AcDbEntity
  8
0
  6
Continuous
 62
     7
370
     0
100
AcDbLine
 10
261.7232913829
 20
178.5574854975
 30
0.0
 11
263.3496369797
 21
179.4963548261
 31
0.0
  0
LINE
  5
18F
330
1F
100
AcDbEntity
  8
0
  6
Continuous
 62
     7
370
     0
100
AcDbLine
 10
265.9804091485
 20
185.3109838683
 30
0.0
 11
265.9804091485
 21
185.3926246795
 31
0.0
  0
LINE
  5
190
330
1F
100
AcDbEntity
  8
0
  6
Continuous
 62
     7
370
     0
100
AcDbLine
 10
257.0723117573
 20
200.8235739354
 30
0.0
 11
257.0016125716
 21
200.8644009754
 31
0.0
  0
LWPOLYLINE
  5
191
330
1F
100
AcDbEntity
  8
0
  6
Continuous
 62
     7
370
     0
100
AcDbPolyline
 90
      171
 70
   128
 43
0.0
 10
264.2126421955
 20
184.3721145397
 10
264.2065575118
 20
184.7557994849
 10
264.1883117717
 20
185.145985589
 10
264.1579298966
 20
185.5421399045
 10
264.1154533846
 20
185.9437213323
 10
264.0609402534
 20
186.3501813606
 10
263.9944649615
 20
186.7609648138
 10
263.916118306
 20
187.1755106111
 10
263.8260072991
 20
187.5932525328
 10
263.7242550215
 20
188.0136199937
 10
263.6110004548
 20
188.4360388225
 10
263.4863982909
 20
188.8599320458
 10
263.3506187214
 20
189.2847206764
 10
263.2038472049
 20
189.7098245043
 10
263.0462842137
 20
190.1346628886
 10
262.8781449597
 20
190.5586555513
 10
262.6996591012
 20
190.9812233693
 10
262.5110704281
 20
191.401789166
 10
262.31263653
 20
191.8197784989
 10
262.1046284437
 20
192.234620445
 10
261.8873302833
 20
192.64574838
 10
261.6610388519
 20
193.0526007526
 10
261.4260632363
 20
193.4546218515
 10
261.182724385
 20
193.8512625641
 10
260.9313546696
 20
194.241981127
 10
260.6722974309
 20
194.6262438656
 10
260.4059065099
 20
195.0035259232
 10
260.1325457646
 20
195.3733119779
 10
259.8525885728
 20
195.7350969465
 10
259.5664173225
 20
196.0883866742
 10
259.274422889
 20
196.4326986096
 10
258.9770041018
 20
196.7675624643
 10
258.6745671991
 20
197.0925208543
 10
258.3675252732
 20
197.4071299256
 10
258.0562977066
 20
197.7109599601
 10
257.7413095987
 20
198.0035959624
 10
257.4229911853
 20
198.2846382271
 10
257.1017772511
 20
198.5537028842
 10
256.7781065357
 20
198.8104224236
 10
256.4524211344
 20
199.0544461975
 10
256.1251658942
 20
199.2854408987
 10
255.7967878064
 20
199.5030910162
 10
255.4677353961
 20
199.7070992661
 10
255.1384581091
 20
199.8971869977
 10
254.8094056988
 20
200.0730945741
 10
254.481027611
 20
200.2345817265
 10
254.1537723708
 20
200.3814278831
 10
253.8280869695
 20
200.5134324696
 10
253.5044162541
 20
200.6304151837
 10
253.1832023199
 20
200.732216241
 10
252.8648839065
 20
200.8186965934
 10
252.5498957986
 20
200.8897381194
 10
252.238668232
 20
200.9452437846
 10
251.9316263061
 20
200.9851377751
 10
251.6291894034
 20
201.0093656004
 10
251.3317706161
 20
201.0178941682
 10
251.0397761827
 20
201.0107118295
 10
250.7536049324
 20
200.9878283946
 10
250.4736477406
 20
200.9492751195
 10
250.2002869953
 20
200.8951046632
 10
249.9338960743
 20
200.8253910162
 10
249.6748388356
 20
200.7402293989
 10
249.4234691202
 20
200.6397361318
 10
249.1801302689
 20
200.5240484766
 10
248.9451546533
 20
200.3933244488
 10
248.7188632219
 20
200.2477426016
 10
248.5015650614
 20
200.0875017823
 10
248.2935569752
 20
199.9128208607
 10
248.0951230771
 20
199.7239384298
 10
247.906534404
 20
199.5211124803
 10
247.7280485454
 20
199.3046200482
 10
247.5599092915
 20
199.0747568359
 10
247.4023463003
 20
198.831836809
 10
247.2555747838
 20
198.5761917671
 10
247.1197952143
 20
198.3081708904
 10
246.9951930504
 20
198.0281402634
 10
246.8819384836
 20
197.7364823741
 10
246.7801862061
 20
197.4335955922
 10
246.6900751992
 20
197.1198936244
 10
246.6117285437
 20
196.7958049501
 10
246.5452532518
 20
196.4617722354
 10
246.4907401206
 20
196.1182517287
 10
246.4482636085
 20
195.7657126377
 10
246.4178817335
 20
195.4046364885
 10
246.3996359933
 20
195.0355164677
 10
246.3935513096
 20
194.6588567487
 10
246.3996359933
 20
194.2751718034
 10
246.4178817335
 20
193.8849856994
 10
246.4482636085
 20
193.4888313839
 10
246.4907401206
 20
193.087249956
 10
246.5452532518
 20
192.6807899278
 10
246.6117285437
 20
192.2700064746
 10
246.6900751992
 20
191.8554606773
 10
246.7801862061
 20
191.4377187555
 10
246.8819384836
 20
191.0173512946
 10
246.9951930504
 20
190.5949324658
 10
247.1197952143
 20
190.1710392426
 10
247.2555747838
 20
189.7462506119
 10
247.4023463003
 20
189.3211467841
 10
247.5599092915
 20
188.8963083998
 10
247.7280485454
 20
188.4723157371
 10
247.906534404
 20
188.049747919
 10
248.0951230771
 20
187.6291821223
 10
248.2935569752
 20
187.2111927894
 10
248.5015650614
 20
186.7963508433
 10
248.7188632219
 20
186.3852229083
 10
248.9451546533
 20
185.9783705357
 10
249.1801302689
 20
185.5763494368
 10
249.4234691202
 20
185.1797087242
 10
249.6748388356
 20
184.7889901613
 10
249.9338960743
 20
184.4047274227
 10
250.2002869953
 20
184.0274453651
 10
250.4736477406
 20
183.6576593104
 10
250.7536049324
 20
183.2958743418
 10
251.0397761827
 20
182.9425846142
 10
251.3317706161
 20
182.5982726787
 10
251.6291894034
 20
182.2634088241
 10
251.9316263061
 20
181.9384504341
 10
252.238668232
 20
181.6238413628
 10
252.5498957986
 20
181.3200113283
 10
252.8648839065
 20
181.0273753259
 10
253.1832023199
 20
180.7463330612
 10
253.5044162541
 20
180.4772684042
 10
253.8280869695
 20
180.2205488647
 10
254.1537723708
 20
179.9765250908
 10
254.481027611
 20
179.7455303896
 10
254.8094056988
 20
179.5278802722
 10
255.1384581091
 20
179.3238720222
 10
255.4677353961
 20
179.1337842906
 10
255.7967878064
 20
178.9578767143
 10
256.1251658942
 20
178.7963895618
 10
256.4524211344
 20
178.6495434052
 10
256.7781065357
 20
178.5175388187
 10
257.1017772511
 20
178.4005561047
 10
257.4229911853
 20
178.2987550474
 10
257.7413095987
 20
178.2122746949
 10
258.0562977066
 20
178.141233169
 10
258.3675252732
 20
178.0857275037
 10
258.6745671991
 20
178.0458335133
 10
258.9770041018
 20
178.021605688
 10
259.274422889
 20
178.0130771202
 10
259.5664173225
 20
178.0202594588
 10
259.8525885728
 20
178.0431428937
 10
260.1325457646
 20
178.0816961689
 10
260.4059065099
 20
178.1358666251
 10
260.6722974309
 20
178.2055802721
 10
260.9313546696
 20
178.2907418894
 10
261.182724385
 20
178.3912351565
 10
261.4260632363
 20
178.5069228117
 10
261.6610388519
 20
178.6376468396
 10
261.8873302833
 20
178.7832286868
 10
262.1046284437
 20
178.943469506
 10
262.31263653
 20
179.1181504277
 10
262.5110704281
 20
179.3070328585
 10
262.6996591012
 20
179.509858808
 10
262.8781449597
 20
179.7263512402
 10
263.0462842137
 20
179.9562144525
 10
263.2038472049
 20
180.1991344793
 10
263.3506187214
 20
180.4547795213
 10
263.4863982909
 20
180.7228003979
 10
263.6110004548
 20
181.0028310249
 10
263.7242550215
 20
181.2944889142
 10
263.8260072991
 20
181.5973756962
 10
263.916118306
 20
181.9110776639
 10
263.9944649615
 20
182.2351663382
 10
264.0609402534
 20
182.569199053
 10
264.1154533846
 20
182.9127195597
 10
264.1579298966
 20
183.2652586506
 10
264.1883117717
 20
183.6263347998
 10
264.2065575118
 20
183.9954548207
 10
264.2126421955
 20
184.3721145397
  0
LWPOLYLINE
  5
192
330
1F
100
AcDbEntity
  8
0
  6
Continuous
 62
     7
370
     0
100
AcDbPolyline
 90
       44
 70
   128
 43
0.0
 10
264.3540635518
 20
184.3721145397
 10
264.3479305769
 20
183.9924654578
 10
264.3295400294
 20
183.620415913
 10
264.2989170283
 20
183.2564740801
 10
264.2561034011
 20
182.9011370598
 10
264.201157626
 20
182.5548901999
 10
264.1341547523
 20
182.2182064318
 10
264.055186298
 20
181.8915456252
 10
263.9643601244
 20
181.5753539593
 10
263.8618002891
 20
181.270063314
 10
263.7476468765
 20
180.9760906796
 10
263.6220558066
 20
180.6938375873
 10
263.4851986215
 20
180.4236895608
 10
263.3372622517
 20
180.16601559
 10
263.1784487605
 20
179.9211676264
 10
263.0089750681
 20
179.6894801029
 10
262.8290726551
 20
179.4712694768
 10
262.6389872465
 20
179.2668337976
 10
262.4389784762
 20
179.0764522998
 10
262.2293195321
 20
178.9003850216
 10
262.0102967831
 20
178.7388724498
 10
261.7822093879
 20
178.5921351912
 10
261.5453688865
 20
178.460373671
 10
261.3000987745
 20
178.3437678599
 10
261.0467340614
 20
178.2424770271
 10
260.7856208128
 20
178.156639524
 10
260.5171156782
 20
178.086372594
 10
260.2415854031
 20
178.0317722135
 10
259.9594063289
 20
177.99291296
 10
259.6709638781
 20
177.9698479106
 10
259.3766520286
 20
177.9626085692
 10
259.0768727748
 20
177.9712048241
 10
258.7720355791
 20
177.9956249337
 10
258.4625568126
 20
178.0358355431
 10
258.148859186
 20
178.0917817295
 10
257.8313711724
 20
178.1633870771
 10
257.5105264224
 20
178.2505537816
 10
257.1867631713
 20
178.3531627837
 10
256.8605236407
 20
178.471073932
 10
256.5322534346
 20
178.604126174
 10
256.2024009306
 20
178.7521377763
 10
255.8714166675
 20
178.9149065728
 10
255.5397527301
 20
179.092210241
 10
255.3723478865
 20
179.1870804527
  0
LWPOLYLINE
  5
193
330
1F
100
AcDbEntity
  8
0
  6
Continuous
 62
     7
370
     0
100
AcDbPolyline
 90
       86
 70
   128
 43
0.0
 10
246.3935513096
 20
194.7404975598
 10
246.3996842845
 20
195.1201466417
 10
246.4180748321
 20
195.4921961865
 10
246.4486978331
 20
195.8561380195
 10
246.4915114603
 20
196.2114750397
 10
246.5464572354
 20
196.5577218996
 10
246.6134601091
 20
196.8944056677
 10
246.6924285634
 20
197.2210664743
 10
246.783254737
 20
197.5372581402
 10
246.8858145723
 20
197.8425487855
 10
246.9999679849
 20
198.1365214199
 10
247.1255590548
 20
198.4187745123
 10
247.2624162399
 20
198.6889225387
 10
247.4103526097
 20
198.9465965096
 10
247.5691661009
 20
199.1914444732
 10
247.7386397933
 20
199.4231319967
 10
247.9185422064
 20
199.6413426227
 10
248.1086276149
 20
199.8457783019
 10
248.3086363852
 20
200.0361597997
 10
248.5182953293
 20
200.2122270779
 10
248.7373180783
 20
200.3737396497
 10
248.9654054735
 20
200.5204769084
 10
249.2022459749
 20
200.6522384285
 10
249.4475160869
 20
200.7688442397
 10
249.7008808001
 20
200.8701350724
 10
249.9619940486
 20
200.9559725756
 10
250.2304991832
 20
201.0262395055
 10
250.5060294583
 20
201.080839886
 10
250.7882085325
 20
201.1196991395
 10
251.0766509833
 20
201.142764189
 10
251.3709628329
 20
201.1500035303
 10
251.6707420867
 20
201.1414072754
 10
251.9755792823
 20
201.1169871658
 10
252.2850580488
 20
201.0767765564
 10
252.5987556755
 20
201.02083037
 10
252.916243689
 20
200.9492250224
 10
253.237088439
 20
200.862058318
 10
253.5608516901
 20
200.7594493158
 10
253.8870912207
 20
200.6415381675
 10
254.2153614268
 20
200.5084859255
 10
254.5452139309
 20
200.3604743233
 10
254.8761981939
 20
200.1977055267
 10
255.2078621313
 20
200.0204018585
 10
255.5397527301
 20
199.8288054941
 10
255.8714166675
 20
199.6231781311
 10
256.2024009306
 20
199.4038006317
 10
256.5322534346
 20
199.1709726393
 10
256.8605236407
 20
198.9250121688
 10
257.1867631713
 20
198.6662551726
 10
257.5105264224
 20
198.3950550818
 10
257.8313711724
 20
198.1117823229
 10
258.148859186
 20
197.8168238126
 10
258.4625568126
 20
197.5105824286
 10
258.7720355791
 20
197.1934764599
 10
259.0768727748
 20
196.8659390351
 10
259.3766520286
 20
196.5284175308
 10
259.6709638781
 20
196.1813729609
 10
259.9594063289
 20
195.8252793466
 10
260.2415854031
 20
195.4606230687
 10
260.5171156782
 20
195.087902204
 10
260.7856208128
 20
194.7076258444
 10
261.0467340614
 20
194.3203134015
 10
261.3000987745
 20
193.9264938977
 10
261.5453688865
 20
193.5267052429
 10
261.7822093879
 20
193.1214935004
 10
262.0102967831
 20
192.7114121406
 10
262.2293195321
 20
192.2970212855
 10
262.4389784762
 20
191.8788869431
 10
262.6389872465
 20
191.4575802345
 10
262.8290726551
 20
191.033676614
 10
263.0089750681
 20
190.6077550831
 10
263.1784487605
 20
190.1803973993
 10
263.3372622517
 20
189.7521872818
 10
263.4851986215
 20
189.323709614
 10
263.6220558066
 20
188.895549645
 10
263.7476468765
 20
188.4682921898
 10
263.8618002891
 20
188.0425208307
 10
263.9643601244
 20
187.61881712
 10
264.055186298
 20
187.1977597862
 10
264.1341547523
 20
186.7799239429
 10
264.201157626
 20
186.3658803036
 10
264.2561034011
 20
185.9561944021
 10
264.2989170283
 20
185.5514258201
 10
264.3295400294
 20
185.1521274227
 10
264.3479305769
 20
184.7588446036
 10
264.3540635518
 20
184.3721145397
  0
SPLINE
  5
194
330
1F
100
AcDbEntity
  8
0
  6
Continuous
 62
     7
370
     0
100
AcDbSpline
210
0.0
220
0.0
230
1.0
 70
     8
 71
     3
 72
    14
 73
    10
 74
     0
 42
0.000000001
 43
0.00000001
 40
0.0
 40
0.0
 40
0.0
 40
0.0
 40
0.062621765053179
 40
0.1251990132228181
 40
0.2501813163236348
 40
0.4995074396535516
 40
0.7494904487996535
 40
0.8747327762471745
 40
1.0
 40
1.0
 40
1.0
 40
1.0
 10
264.4112023470154
 20
181.9285114750716
 30
0.0
 10
264.4172341108664
 20
181.9392203254255
 30
0.0
 10
264.4292933506771
 20
181.9606304133705
 30
0.0
 10
264.4585228520612
 20
182.0043774156073
 30
0.0
 10
264.5186691122875
 20
182.0799743451868
 30
0.0
 10
264.6183835781255
 20
182.1773104653579
 30
0.0
 10
264.7198920836359
 20
182.2555628127373
 30
0.0
 10
264.7999060614665
 20
182.3085169523269
 30
0.0
 10
264.8392340880524
 20
182.3317548611882
 30
0.0
 10
264.8589000556073
 20
182.3433749703415
 30
0.0
  0
SPLINE
  5
195
330
1F
100
AcDbEntity
  8
0
  6
Continuous
 62
     7
370
     0
100
AcDbSpline
210
0.0
220
0.0
230
1.0
 70
     8
 71
     3
 72
    12
 73
     8
 74
     0
 42
0.000000001
 43
0.00000001
 40
0.0
 40
0.0
 40
0.0
 40
0.0
 40
0.2621725736158223
 40
0.5000451414055228
 40
0.7500435138363617
 40
0.8623175480956365
 40
1.0
 40
1.0
 40
1.0
 40
1.0
 10
264.3581372648211
 20
181.7951431376265
 30
0.0
 10
264.3616567977492
 20
181.8061436622289
 30
0.0
 10
264.3683696484352
 20
181.827125105118
 30
0.0
 10
264.3801593808707
 20
181.8597667223148
 30
0.0
 10
264.3909714071646
 20
181.8867180136387
 30
0.0
 10
264.40168851968
 20
181.9099898238572
 30
0.0
 10
264.4078232048656
 20
181.9219329141942
 30
0.0
 10
264.4112023470154
 20
181.9285114750716
 30
0.0
  0
ARC
  5
196
330
1F
100
AcDbEntity
  8
0
  6
Continuous
 62
     7
370
     0
100
AcDbCircle
 10
257.5248083913
 20
183.9304205019
 30
0.0
 40
7.159175435469231
100
AcDbArc
 50
340.8238023053
 51
342.6470288238
  0
LINE
  5
197
330
1F
100
AcDbEntity
  8
0
  6
Continuous
 62
     7
370
     0
100
AcDbLine
 10
265.1175924783
 20
182.0584551463
 30
0.0
 11
264.2867420104
 21
181.5788153806
 31
0.0
  0
ARC
  5
198
330
1F
100
AcDbEntity
  8
0
  6
Continuous
 62
     7
370
     0
100
AcDbCircle
 10
258.3486310219
 20
184.4124192837
 30
0.0
 40
7.166588195091753
100
AcDbArc
 50
340.8244446337
 51
342.7303650052
  0
SPLINE
  5
199
330
1F
100
AcDbEntity
  8
0
  6
Continuous
 62
     7
370
     0
100
AcDbSpline
210
0.0
220
0.0
230
1.0
 70
     8
 71
     3
 72
    17
 73
    13
 74
     0
 42
0.000000001
 43
0.00000001
 40
0.0
 40
0.0
 40
0.0
 40
0.0
 40
0.071532919510357
 40
0.1430591690150033
 40
0.2860138941746813
 40
0.4288985810183091
 40
0.5716632366539705
 40
0.6786548293666634
 40
0.7856023341411968
 40
0.8927162757733074
 40
0.9463530387336602
 40
1.0
 40
1.0
 40
1.0
 40
1.0
 10
264.8589000556073
 20
182.3433749703415
 30
0.0
 10
264.8731039744862
 20
182.3514185836565
 30
0.0
 10
264.901510487816
 20
182.3675050602689
 30
0.0
 10
264.9573002991844
 20
182.3963271610569
 30
0.0
 10
265.024831626005
 20
182.4258555078652
 30
0.0
 10
265.099023011363
 20
182.4464336504609
 30
0.0
 10
265.157856711838
 20
182.4493445658316
 30
0.0
 10
265.1964992282616
 20
182.4317010240424
 30
0.0
 10
265.2110476747993
 20
182.3944807814456
 30
0.0
 10
265.2086426334794
 20
182.3521164946564
 30
0.0
 10
265.2008648066825
 20
182.3146106254948
 30
0.0
 10
265.1950464445794
 20
182.2947925503463
 30
0.0
 10
265.1921369869834
 20
182.2848825708268
 30
0.0
  0
ARC
  5
19A
330
1F
100
AcDbEntity
  8
0
  6
Continuous
 62
     7
370
     0
100
AcDbCircle
 10
255.7084685131
 20
184.9000837471
 30
0.0
 40
9.771221757093132
100
AcDbArc
 50
352.1033480916
 51
354.2881402755
  0
LINE
  5
19B
330
1F
100
AcDbEntity
  8
0
  6
Continuous
 62
     7
370
     0
100
AcDbLine
 10
264.6532965174
 20
183.1340702004
 30
0.0
 11
265.387034593
 21
183.5576481753
 31
0.0
  0
ARC
  5
19C
330
1F
100
AcDbEntity
  8
0
  6
Continuous
 62
     7
370
     0
100
AcDbCircle
 10
255.3560491118
 20
184.425431323
 30
0.0
 40
9.386502163749334
100
AcDbArc
 50
351.5313546655
 51
352.0923731997
  0
LINE
  5
19D
330
1F
100
AcDbEntity
  8
0
  6
Continuous
 62
     7
370
     0
100
AcDbLine
 10
265.4710569821
 20
183.5227382063
 30
0.0
 11
264.6402065142
 21
183.0430984406
 31
0.0
  0
ARC
  5
19E
330
1F
100
AcDbEntity
  8
0
  6
Continuous
 62
     7
370
     0
100
AcDbCircle
 10
255.8830279641
 20
184.9472778746
 30
0.0
 40
9.693276727490591
100
AcDbArc
 50
351.549111089
 51
354.2947348134
  0
LINE
  5
19F
330
1F
100
AcDbEntity
  8
0
  6
Continuous
 62
     7
370
     0
100
AcDbLine
 10
265.4311760596
 20
183.9275959113
 30
0.0
 11
265.528288452
 21
183.9836577021
 31
0.0
  0
SPLINE
  5
1A0
330
1F
100
AcDbEntity
  8
0
  6
Continuous
 62
     7
370
     0
100
AcDbSpline
210
0.0
220
0.0
230
1.0
 70
     8
 71
     3
 72
    13
 73
     9
 74
     0
 42
0.000000001
 43
0.00000001
 40
0.0
 40
0.0
 40
0.0
 40
0.0
 40
0.125065766938426
 40
0.2501073932780049
 40
0.5000423391884331
 40
0.7499626552581345
 40
0.8749753293646086
 40
0.9999999999999999
 40
0.9999999999999999
 40
0.9999999999999999
 40
0.9999999999999999
 10
264.952945477381
 20
184.46322727486
 30
0.0
 10
264.9467298727516
 20
184.4717649940324
 30
0.0
 10
264.934299863249
 20
184.488838784399
 30
0.0
 10
264.9055947145423
 20
184.5183210318882
 30
0.0
 10
264.8640602927159
 20
184.5474500199528
 30
0.0
 10
264.8162692307206
 20
184.5662153135205
 30
0.0
 10
264.7743149067908
 20
184.5737064906287
 30
0.0
 10
264.7513673747774
 20
184.5721937089377
 30
0.0
 10
264.7398930582716
 20
184.5714372818013
 30
0.0
  0
LINE
  5
1A1
330
1F
100
AcDbEntity
  8
0
  6
Continuous
 62
     7
370
     0
100
AcDbLine
 10
265.0500578697
 20
184.5192890657
 30
0.0
 11
264.9529454774
 21
184.4632272749
 31
0.0
  0
SPLINE
  5
1A2
330
1F
100
AcDbEntity
  8
0
  6
Continuous
 62
     7
370
     0
100
AcDbSpline
210
0.0
220
0.0
230
1.0
 70
     8
 71
     3
 72
    13
 73
     9
 74
     0
 42
0.000000001
 43
0.00000001
 40
0.0
 40
0.0
 40
0.0
 40
0.0
 40
0.125010046661019
 40
0.2500138244896816
 40
0.4999842216405151
 40
0.7499787920909324
 40
0.8749856053617805
 40
1.0
 40
1.0
 40
1.0
 40
1.0
 10
264.9232077079821
 20
184.6423569501053
 30
0.0
 10
264.9299922813723
 20
184.6394377715838
 30
0.0
 10
264.9435610879291
 20
184.6335995609276
 30
0.0
 10
264.9679970260137
 20
184.6173121938455
 30
0.0
 10
264.9958825734695
 20
184.5930843278789
 30
0.0
 10
265.020991786265
 20
184.5652969662073
 30
0.0
 10
265.0389417453304
 20
184.54049040472
 30
0.0
 10
265.0463524200273
 20
184.5263563215392
 30
0.0
 10
265.0500578697323
 20
184.5192890656556
 30
0.0
  0
LINE
  5
1A3
330
1F
100
AcDbEntity
  8
0
  6
Continuous
 62
     7
370
     0
100
AcDbLine
 10
265.5814139228
 20
185.0223313099
 30
0.0
 11
264.923207708
 21
184.6423569501
 31
0.0
  0
ARC
  5
1A4
330
1F
100
AcDbEntity
  8
0
  6
Continuous
 62
     7
370
     0
100
AcDbCircle
 10
253.6215825783
 20
185.0807857442
 30
0.0
 40
11.95997419353923
100
AcDbArc
 50
359.7199654736
 51
0.1973034556
  0
LINE
  5
1A5
330
1F
100
AcDbEntity
  8
0
  6
Continuous
 62
     7
370
     0
100
AcDbLine
 10
264.7398451254
 20
184.6361021156
 30
0.0
 11
265.5814858591
 21
185.1219709692
 31
0.0
  0
ARC
  5
1A6
330
1F
100
AcDbEntity
  8
0
  6
Continuous
 62
     7
370
     0
100
AcDbCircle
 10
252.7495758004
 20
184.5948818884
 30
0.0
 40
11.99034017845906
100
AcDbArc
 50
359.8879699952
 51
0.1969710339
  0
SPLINE
  5
1A7
330
1F
100
AcDbEntity
  8
0
  6
Continuous
 62
     7
370
     0
100
AcDbSpline
210
0.0
220
0.0
230
1.0
 70
     8
 71
     3
 72
    12
 73
     8
 74
     0
 42
0.000000001
 43
0.00000001
 40
0.0
 40
0.0
 40
0.0
 40
0.0
 40
0.1249944231638724
 40
0.2499890121454617
 40
0.499865969624416
 40
0.7499135593620979
 40
1.0
 40
1.0
 40
1.0
 40
1.0
 10
264.7534355667474
 20
186.0181632676916
 30
0.0
 10
264.765161305601
 20
186.0343228118037
 30
0.0
 10
264.7886127988637
 20
186.066641921465
 30
0.0
 10
264.8410307587183
 20
186.1225798124044
 30
0.0
 10
264.9102749745129
 20
186.1828626687561
 30
0.0
 10
264.9960811626564
 20
186.2445342608286
 30
0.0
 10
265.0542735339155
 20
186.2792041119733
 30
0.0
 10
265.0833719797652
 20
186.2965403841396
 30
0.0
  0
SPLINE
  5
1A8
330
1F
100
AcDbEntity
  8
0
  6
Continuous
 62
     7
370
     0
100
AcDbSpline
210
0.0
220
0.0
230
1.0
 70
     8
 71
     3
 72
    13
 73
     9
 74
     0
 42
0.000000001
 43
0.00000001
 40
0.0
 40
0.0
 40
0.0
 40
0.0
 40
0.1251997679052543
 40
0.2503372878808384
 40
0.4998911747935338
 40
0.749623802952995
 40
0.8747841606148047
 40
1.0
 40
1.0
 40
1.0
 40
1.0
 10
264.684083138988
 20
185.7816662316386
 30
0.0
 10
264.6834448992902
 20
185.7911331847967
 30
0.0
 10
264.6821687372203
 20
185.8100623842493
 30
0.0
 10
264.6844569002971
 20
185.8501315191867
 30
0.0
 10
264.6944468588047
 20
185.9023989732839
 30
0.0
 10
264.7153510283324
 20
185.9532534930418
 30
0.0
 10
264.7359544731273
 20
185.9913329851249
 30
0.0
 10
264.747607674783
 20
186.0092185190637
 30
0.0
 10
264.7534355667474
 20
186.0181632676916
 30
0.0
  0
SPLINE
  5
1A9
330
1F
100
AcDbEntity
  8
0
  6
Continuous
 62
     7
370
     0
100
AcDbSpline
210
0.0
220
0.0
230
1.0
 70
     8
 71
     3
 72
    16
 73
    12
 74
     0
 42
0.000000001
 43
0.00000001
 40
0.0
 40
0.0
 40
0.0
 40
0.0
 40
0.1251696058897749
 40
0.2503305803860868
 40
0.5002344284261412
 40
0.6344692268399678
 40
0.7499992257121195
 40
0.8127385779167315
 40
0.8749722161783949
 40
0.9374591980872459
 40
0.9999999999999999
 40
0.9999999999999999
 40
0.9999999999999999
 40
0.9999999999999999
 10
265.1325978237215
 20
185.7604790310934
 30
0.0
 10
265.1102588753458
 20
185.7478887255767
 30
0.0
 10
265.0655825190344
 20
185.7227089827405
 30
0.0
 10
264.9761016042512
 20
185.6799921860903
 30
0.0
 10
264.8845592455241
 20
185.6470725108755
 30
0.0
 10
264.7988087351475
 20
185.6412322854059
 30
0.0
 10
264.7501250562862
 20
185.6552747954449
 30
0.0
 10
264.719744003271
 20
185.6802480409563
 30
0.0
 10
264.7016330131717
 20
185.707891232917
 30
0.0
 10
264.6891711814799
 20
185.7419023811155
 30
0.0
 10
264.6857796397979
 20
185.7684078115833
 30
0.0
 10
264.684083138988
 20
185.7816662316386
 30
0.0
  0
SPLINE
  5
1AA
330
1F
100
AcDbEntity
  8
0
  6
Continuous
 62
     7
370
     0
100
AcDbSpline
210
0.0
220
0.0
230
1.0
 70
     8
 71
     3
 72
    16
 73
    12
 74
     0
 42
0.000000001
 43
0.00000001
 40
0.0
 40
0.0
 40
0.0
 40
0.0
 40
0.0625504672670115
 40
0.1250450729890675
 40
0.2495402333508444
 40
0.349527747799925
 40
0.4992738744144529
 40
0.6244010449097018
 40
0.7495800244049303
 40
0.8747855038494101
 40
1.0
 40
1.0
 40
1.0
 40
1.0
 10
265.5366267089931
 20
186.272538299064
 30
0.0
 10
265.5373330093008
 20
186.258745052423
 30
0.0
 10
265.538744979145
 20
186.2311708773874
 30
0.0
 10
265.5303393771205
 20
186.1718611873093
 30
0.0
 10
265.5053528760287
 20
186.1028092325809
 30
0.0
 10
265.4578136997762
 20
186.0215467816217
 30
0.0
 10
265.3988724495828
 20
185.9524171994429
 30
0.0
 10
265.3309010332169
 20
185.8930669722558
 30
0.0
 10
265.2655616293291
 20
185.8437355351564
 30
0.0
 10
265.199285994451
 20
185.7999846297006
 30
0.0
 10
265.1548277475576
 20
185.7736478800591
 30
0.0
 10
265.1325978237215
 20
185.7604790310934
 30
0.0
  0
SPLINE
  5
1AB
330
1F
100
AcDbEntity
  8
0
  6
Continuous
 62
     7
370
     0
100
AcDbSpline
210
0.0
220
0.0
230
1.0
 70
     8
 71
     3
 72
    16
 73
    12
 74
     0
 42
0.000000001
 43
0.00000001
 40
0.0
 40
0.0
 40
0.0
 40
0.0
 40
0.1251714468123402
 40
0.2503345712921596
 40
0.5002432313911926
 40
0.634368715203164
 40
0.7500270449023524
 40
0.8127090061706896
 40
0.8749750189615243
 40
0.9374562791878503
 40
1.0
 40
1.0
 40
1.0
 40
1.0
 10
265.0833719797652
 20
186.2965403841396
 30
0.0
 10
265.1056942113765
 20
186.3091009970274
 30
0.0
 10
265.1503371904506
 20
186.3342213876797
 30
0.0
 10
265.2400577490912
 20
186.3766736351612
 30
0.0
 10
265.3321680600402
 20
186.4087524823701
 30
0.0
 10
265.4192695123496
 20
186.4143492786661
 30
0.0
 10
265.4689228307454
 20
186.399652891538
 30
0.0
 10
265.5000124127591
 20
186.3742096365241
 30
0.0
 10
265.5186841354225
 20
186.3464378634985
 30
0.0
 10
265.5315260746992
 20
186.3123130740162
 30
0.0
 10
265.5349259313895
 20
186.2858009723962
 30
0.0
 10
265.5366267089931
 20
186.272538299064
 30
0.0
  0
ARC
  5
1AC
330
1F
100
AcDbEntity
  8
0
  6
Continuous
 62
     7
370
     0
100
AcDbCircle
 10
249.2104518166
 20
184.6147308692
 30
0.0
 40
16.29948492422534
100
AcDbArc
 50
9.7979682634
 51
11.3512589815
  0
LINE
  5
1AD
330
1F
100
AcDbEntity
  8
0
  6
Continuous
 62
     7
370
     0
100
AcDbLine
 10
264.5384532955
 20
186.9649105044
 30
0.0
 11
265.272191371
 21
187.3884884793
 31
0.0
  0
ARC
  5
1AE
330
1F
100
AcDbEntity
  8
0
  6
Continuous
 62
     7
370
     0
100
AcDbCircle
 10
248.8979422002
 20
184.2653325778
 30
0.0
 40
15.87177709967101
100
AcDbArc
 50
9.3975875109
 51
9.7928590494
  0
LINE
  5
1AF
330
1F
100
AcDbEntity
  8
0
  6
Continuous
 62
     7
370
     0
100
AcDbLine
 10
265.387555246
 20
187.3365862871
 30
0.0
 11
264.5567047781
 21
186.8569465214
 31
0.0
  0
ARC
  5
1B0
330
1F
100
AcDbEntity
  8
0
  6
Continuous
 62
     7
370
     0
100
AcDbCircle
 10
249.3918694072
 20
184.6868266476
 30
0.0
 40
16.21367298300292
100
AcDbArc
 50
9.405895478
 51
11.3543435817
  0
LINE
  5
1B1
330
1F
100
AcDbEntity
  8
0
  6
Continuous
 62
     7
370
     0
100
AcDbLine
 10
265.1911019501
 20
187.822850272
 30
0.0
 11
265.2882143425
 21
187.8789120628
 31
0.0
  0
LWPOLYLINE
  5
1B2
330
1F
100
AcDbEntity
  8
0
  6
Continuous
 62
     7
370
     0
100
AcDbPolyline
 90
       65
 70
   128
 43
0.0
 10
265.9804091485
 20
185.3109838683
 10
265.9742761737
 20
185.6977139322
 10
265.9558856261
 20
186.0909967513
 10
265.925262625
 20
186.4902951487
 10
265.8824489978
 20
186.8950637307
 10
265.8275032227
 20
187.3047496322
 10
265.7605003491
 20
187.7187932715
 10
265.6815318947
 20
188.1366291148
 10
265.5907057211
 20
188.5576864486
 10
265.4881458858
 20
188.9813901593
 10
265.3739924733
 20
189.4071615184
 10
265.2484014033
 20
189.8344189736
 10
265.1115442182
 20
190.2625789426
 10
264.9636078484
 20
190.6910566104
 10
264.8047943573
 20
191.1192667279
 10
264.6353206648
 20
191.5466244117
 10
264.4554182518
 20
191.9725459426
 10
264.2653328432
 20
192.3964495631
 10
264.0653240729
 20
192.8177562716
 10
263.8556651288
 20
193.2358906141
 10
263.6366423798
 20
193.6502814692
 10
263.4085549847
 20
194.060362829
 10
263.1717144832
 20
194.4655745715
 10
262.9264443712
 20
194.8653632263
 10
262.6730796581
 20
195.2591827301
 10
262.4119664096
 20
195.646495173
 10
262.1434612749
 20
196.0267715326
 10
261.8679309998
 20
196.3994923973
 10
261.5857519256
 20
196.7641486752
 10
261.2973094749
 20
197.1202422895
 10
261.0029976253
 20
197.4672868594
 10
260.7032183715
 20
197.8048083637
 10
260.3983811759
 20
198.1323457885
 10
260.0889024093
 20
198.4494517572
 10
259.7752047827
 20
198.7556931412
 10
259.4577167691
 20
199.0506516515
 10
259.1368720191
 20
199.3339244104
 10
258.813108768
 20
199.6051245012
 10
258.4868692374
 20
199.8638814974
 10
258.1585990313
 20
200.1098419679
 10
257.8287465273
 20
200.3426699603
 10
257.4977622642
 20
200.5620474597
 10
257.1660983268
 20
200.7676748227
 10
256.8342077281
 20
200.9592711871
 10
256.5025437906
 20
201.1365748553
 10
256.1715595276
 20
201.2993436519
 10
255.8417070236
 20
201.4473552541
 10
255.5134368175
 20
201.5804074961
 10
255.1871972869
 20
201.6983186444
 10
254.8634340357
 20
201.8009276465
 10
254.5425892857
 20
201.888094351
 10
254.2251012722
 20
201.9596996986
 10
253.9114036455
 20
202.015645885
 10
253.601924879
 20
202.0558564944
 10
253.2970876834
 20
202.080276604
 10
252.9973084296
 20
202.0888728589
 10
252.70299658
 20
202.0816335176
 10
252.4145541293
 20
202.0585684681
 10
252.132375055
 20
202.0197092146
 10
251.85684478
 20
201.9651088341
 10
251.5883396453
 20
201.8948419042
 10
251.3272263968
 20
201.809004401
 10
251.0738616836
 20
201.7077135683
 10
250.8285915716
 20
201.5911077571
 10
250.6506690752
 20
201.4939959306
  0
LWPOLYLINE
  5
1B3
330
1F
100
AcDbEntity
  8
0
  6
Continuous
 62
     7
370
     0
100
AcDbPolyline
 90
       23
 70
   128
 43
0.0
 10
263.3496369797
 20
179.4963548261
 10
263.4085549847
 20
179.5310045198
 10
263.6366423798
 20
179.6777417784
 10
263.8556651288
 20
179.8392543502
 10
264.0653240729
 20
180.0153216284
 10
264.2653328432
 20
180.2057031262
 10
264.4554182518
 20
180.4101388054
 10
264.6353206648
 20
180.6283494315
 10
264.8047943573
 20
180.860036955
 10
264.9636078484
 20
181.1048849186
 10
265.1115442182
 20
181.3625588894
 10
265.2484014033
 20
181.6327069158
 10
265.3739924733
 20
181.9149600082
 10
265.4881458858
 20
182.2089326426
 10
265.5907057211
 20
182.5142232879
 10
265.6815318947
 20
182.8304149538
 10
265.7605003491
 20
183.1570757604
 10
265.8275032227
 20
183.4937595285
 10
265.8824489978
 20
183.8400063884
 10
265.925262625
 20
184.1953434087
 10
265.9558856261
 20
184.5592852416
 10
265.9742761737
 20
184.9313347864
 10
265.9804091485
 20
185.3109838683
  0
SPLINE
  5
1B4
330
1F
100
AcDbEntity
  8
0
  6
Continuous
 62
     7
370
     0
100
AcDbSpline
210
0.0
220
0.0
230
1.0
 70
     8
 71
     3
 72
    11
 73
     7
 74
     0
 42
0.000000001
 43
0.00000001
 40
0.0
 40
0.0
 40
0.0
 40
0.0
 40
0.4999543933284797
 40
0.7499015403200996
 40
0.8749458342614816
 40
0.9999999999999999
 40
0.9999999999999999
 40
0.9999999999999999
 40
0.9999999999999999
 10
265.151196554076
 20
188.5416143529276
 30
0.0
 10
265.1973763919538
 20
188.5134655525067
 30
0.0
 10
265.2666433731392
 20
188.4712440437541
 30
0.0
 10
265.3538236162671
 20
188.4424312794977
 30
0.0
 10
265.4051797577389
 20
188.4331644361741
 30
0.0
 10
265.4313686570729
 20
188.4318099906295
 30
0.0
 10
265.4444636235994
 20
188.431132741126
 30
0.0
  0
LINE
  5
1B5
330
1F
100
AcDbEntity
  8
0
  6
Continuous
 62
     7
370
     0
100
AcDbLine
 10
265.1073610992
 20
188.5163086835
 30
0.0
 11
265.1511965541
 21
188.5416143529
 31
0.0
  0
SPLINE
  5
1B6
330
1F
100
AcDbEntity
  8
0
  6
Continuous
 62
     7
370
     0
100
AcDbSpline
210
0.0
220
0.0
230
1.0
 70
     8
 71
     3
 72
    12
 73
     8
 74
     0
 42
0.000000001
 43
0.00000001
 40
0.0
 40
0.0
 40
0.0
 40
0.0
 40
0.1428486546064156
 40
0.2857137848888304
 40
0.4999809151670592
 40
0.7499794168908098
 40
1.0
 40
1.0
 40
1.0
 40
1.0
 10
265.2721435139229
 20
188.3568918696239
 30
0.0
 10
265.2632673833877
 20
188.3623676771151
 30
0.0
 10
265.2455140985748
 20
188.3733199236584
 30
0.0
 10
265.2163115472022
 20
188.3967600454326
 30
0.0
 10
265.1824238268326
 20
188.4283160719713
 30
0.0
 10
265.1445899403423
 20
188.4692252101055
 30
0.0
 10
265.1197710782536
 20
188.5006137302989
 30
0.0
 10
265.1073610991953
 20
188.5163086834712
 30
0.0
  0
LINE
  5
1B7
330
1F
100
AcDbEntity
  8
0
  6
Continuous
 62
     7
370
     0
100
AcDbLine
 10
264.4333689446
 20
187.8726776175
 30
0.0
 11
265.2721435139
 21
188.3568918696
 31
0.0
  0
ARC
  5
1B8
330
1F
100
AcDbEntity
  8
0
  6
Continuous
 62
     7
370
     0
100
AcDbCircle
 10
247.62594796
 20
184.0406623289
 30
0.0
 40
17.23872794975919
100
AcDbArc
 50
12.5944846564
 51
12.8436343136
  0
LINE
  5
1B9
330
1F
100
AcDbEntity
  8
0
  6
Continuous
 62
     7
370
     0
100
AcDbLine
 10
265.2886480023
 20
188.2837691046
 30
0.0
 11
264.449873433
 21
187.7995548525
 31
0.0
  0
SPLINE
  5
1BA
330
1F
100
AcDbEntity
  8
0
  6
Continuous
 62
     7
370
     0
100
AcDbSpline
210
0.0
220
0.0
230
1.0
 70
     8
 71
     3
 72
    11
 73
     7
 74
     0
 42
0.000000001
 43
0.00000001
 40
0.0
 40
0.0
 40
0.0
 40
0.0
 40
0.2500305180632151
 40
0.5000067443424591
 40
0.7035402666285254
 40
1.0
 40
1.0
 40
1.0
 40
1.0
 10
265.2258301549722
 20
187.9964999867472
 30
0.0
 10
265.2295280104982
 20
188.0206766580425
 30
0.0
 10
265.2369229185956
 20
188.0690247508957
 30
0.0
 10
265.2481935250019
 20
188.13719694923
 30
0.0
 10
265.2669222863097
 20
188.2086314092196
 30
0.0
 10
265.2805611471633
 20
188.2558009740885
 30
0.0
 10
265.2886480023486
 20
188.2837691045903
 30
0.0
  0
LINE
  5
1BB
330
1F
100
AcDbEntity
  8
0
  6
Continuous
 62
     7
370
     0
100
AcDbLine
 10
265.2691598161
 20
188.0215136677
 30
0.0
 11
265.225830155
 21
187.9964999867
 31
0.0
  0
SPLINE
  5
1BC
330
1F
100
AcDbEntity
  8
0
  6
Continuous
 62
     7
370
     0
100
AcDbSpline
210
0.0
220
0.0
230
1.0
 70
     8
 71
     3
 72
    11
 73
     7
 74
     0
 42
0.000000001
 43
0.00000001
 40
0.0
 40
0.0
 40
0.0
 40
0.0
 40
0.1428778200382738
 40
0.2857522926218099
 40
0.5000376817880698
 40
1.0
 40
1.0
 40
1.0
 40
1.0
 10
265.4520086345383
 20
188.3976818977134
 30
0.0
 10
265.4407002970246
 20
188.3822073409321
 30
0.0
 10
265.4180838869382
 20
188.3512585899197
 30
0.0
 10
265.3835396308297
 20
188.2913342000795
 30
0.0
 10
265.3293495049354
 20
188.184231736208
 30
0.0
 10
265.2939434826477
 20
188.0885143521274
 30
0.0
 10
265.2691598161428
 20
188.0215136677097
 30
0.0
  0
ARC
  5
1BD
330
1F
100
AcDbEntity
  8
0
  6
Continuous
 62
     7
370
     0
100
AcDbCircle
 10
248.6355175213
 20
184.6222115818
 30
0.0
 40
17.23509644494333
100
AcDbArc
 50
12.6536582277
 51
12.7676547538
  0
SPLINE
  5
1BE
330
1F
100
AcDbEntity
  8
0
  6
Continuous
 62
     7
370
     0
100
AcDbSpline
210
0.0
220
0.0
230
1.0
 70
     8
 71
     3
 72
    12
 73
     8
 74
     0
 42
0.000000001
 43
0.00000001
 40
0.0
 40
0.0
 40
0.0
 40
0.0
 40
0.1249944231638726
 40
0.249989012145461
 40
0.4998659696244153
 40
0.7499135593620977
 40
1.0
 40
1.0
 40
1.0
 40
1.0
 10
264.6702383886131
 20
186.6690463569301
 30
0.0
 10
264.6815423374787
 20
186.6853713757006
 30
0.0
 10
264.7041502502058
 20
186.7180214348984
 30
0.0
 10
264.7554179619074
 20
186.7744066162443
 30
0.0
 10
264.8237540232665
 20
186.8350405746744
 30
0.0
 10
264.9090183231118
 20
186.896920607513
 30
0.0
 10
264.9671626637088
 20
186.9316089132401
 30
0.0
 10
264.9962370923619
 20
186.9489544134143
 30
0.0
  0
SPLINE
  5
1BF
330
1F
100
AcDbEntity
  8
0
  6
Continuous
 62
     7
370
     0
100
AcDbSpline
210
0.0
220
0.0
230
1.0
 70
     8
 71
     3
 72
    13
 73
     9
 74
     0
 42
0.000000001
 43
0.00000001
 40
0.0
 40
0.0
 40
0.0
 40
0.0
 40
0.1251997679052418
 40
0.250337287880839
 40
0.4998911747935373
 40
0.7496238029529938
 40
0.8747841606148081
 40
1.0
 40
1.0
 40
1.0
 40
1.0
 10
264.6097873575617
 20
186.4289591327608
 30
0.0
 10
264.608700233092
 20
186.4386112441735
 30
0.0
 10
264.6065265246588
 20
186.4579106680765
 30
0.0
 10
264.6070515851814
 20
186.4987003442012
 30
0.0
 10
264.6149330358861
 20
186.5518202813692
 30
0.0
 10
264.6340860663992
 20
186.6033732008728
 30
0.0
 10
264.653509971617
 20
186.6419197366451
 30
0.0
 10
264.664661425918
 20
186.6600028144713
 30
0.0
 10
264.6702383886131
 20
186.6690463569301
 30
0.0
  0
SPLINE
  5
1C0
330
1F
100
AcDbEntity
  8
0
  6
Continuous
 62
     7
370
     0
100
AcDbSpline
210
0.0
220
0.0
230
1.0
 70
     8
 71
     3
 72
    16
 73
    12
 74
     0
 42
0.000000001
 43
0.00000001
 40
0.0
 40
0.0
 40
0.0
 40
0.0
 40
0.1251696058899059
 40
0.2503305803863485
 40
0.5002344284266629
 40
0.6344692268563948
 40
0.7499992257118387
 40
0.8127385779168055
 40
0.8749722161782623
 40
0.9374591980871825
 40
0.9999999999999999
 40
0.9999999999999999
 40
0.9999999999999999
 40
0.9999999999999999
 10
265.0712451644853
 20
186.4022337262218
 30
0.0
 10
265.0488919175958
 20
186.3896497532675
 30
0.0
 10
265.0041869652427
 20
186.3644826751191
 30
0.0
 10
264.9142882766888
 20
186.3219504656285
 30
0.0
 10
264.8218148031049
 20
186.2894420293823
 30
0.0
 10
264.7340317754328
 20
186.2844900511262
 30
0.0
 10
264.6833931090742
 20
186.2993783436334
 30
0.0
 10
264.6510477055059
 20
186.3251920959243
 30
0.0
 10
264.6311817401783
 20
186.3535794654593
 30
0.0
 10
264.6168276383178
 20
186.388385785595
 30
0.0
 10
264.6121347911815
 20
186.4154308030669
 30
0.0
 10
264.6097873575617
 20
186.4289591327608
 30
0.0
  0
SPLINE
  5
1C1
330
1F
100
AcDbEntity
  8
0
  6
Continuous
 62
     7
370
     0
100
AcDbSpline
210
0.0
220
0.0
230
1.0
 70
     8
 71
     3
 72
    16
 73
    12
 74
     0
 42
0.000000001
 43
0.00000001
 40
0.0
 40
0.0
 40
0.0
 40
0.0
 40
0.062550467267011
 40
0.1250450729890679
 40
0.2495402333508459
 40
0.349527747799926
 40
0.4992738744144541
 40
0.6244010449097024
 40
0.7495800244049299
 40
0.8747855038494101
 40
1.0
 40
1.0
 40
1.0
 40
1.0
 10
265.4623898867942
 20
186.9198068242439
 30
0.0
 10
265.4637455080734
 20
186.9057442477174
 30
0.0
 10
265.4664555399756
 20
186.8776316534396
 30
0.0
 10
265.4605509688133
 20
186.8172707446698
 30
0.0
 10
265.4380856557888
 20
186.7471437310437
 30
0.0
 10
265.3930420759593
 20
186.6648025785812
 30
0.0
 10
265.3357352623734
 20
186.5949582939009
 30
0.0
 10
265.2687021858484
 20
186.5351953498038
 30
0.0
 10
265.2039051966436
 20
186.4856245595429
 30
0.0
 10
265.1378862378685
 20
186.4417601593892
 30
0.0
 10
265.093459388829
 20
186.4154095202076
 30
0.0
 10
265.0712451644853
 20
186.4022337262218
 30
0.0
  0
SPLINE
  5
1C2
330
1F
100
AcDbEntity
  8
0
  6
Continuous
 62
     7
370
     0
100
AcDbSpline
210
0.0
220
0.0
230
1.0
 70
     8
 71
     3
 72
    16
 73
    12
 74
     0
 42
0.000000001
 43
0.00000001
 40
0.0
 40
0.0
 40
0.0
 40
0.0
 40
0.1251714468123427
 40
0.2503345712921644
 40
0.5002432313912012
 40
0.6343687152037383
 40
0.750027044902372
 40
0.8127090061706254
 40
0.8749750189615221
 40
0.9374562791878491
 40
1.0
 40
1.0
 40
1.0
 40
1.0
 10
264.9962370923619
 20
186.9489544134143
 30
0.0
 10
265.0185738583007
 20
186.9615094476044
 30
0.0
 10
265.0632459050635
 20
186.9866186812322
 30
0.0
 10
265.1533836391989
 20
187.0289103909357
 30
0.0
 10
265.2464361553907
 20
187.0606263909584
 30
0.0
 10
265.3355407154473
 20
187.0654424926673
 30
0.0
 10
265.3871444911142
 20
187.0499773126439
 30
0.0
 10
265.4201932973207
 20
187.0237523884786
 30
0.0
 10
265.4406110091547
 20
186.9952772888125
 30
0.0
 10
265.4553399597906
 20
186.9603851470669
 30
0.0
 10
265.4600391285819
 20
186.9333374360604
 30
0.0
 10
265.4623898867942
 20
186.9198068242439
 30
0.0
  0
SPLINE
  5
1C3
330
1F
100
AcDbEntity
  8
0
  6
Continuous
 62
     7
370
     0
100
AcDbSpline
210
0.0
220
0.0
230
1.0
 70
     8
 71
     3
 72
    14
 73
    10
 74
     0
 42
0.000000001
 43
0.00000001
 40
0.0
 40
0.0
 40
0.0
 40
0.0
 40
0.062713346505554
 40
0.1254006899987271
 40
0.2504473324746792
 40
0.4996124580573724
 40
0.7491976161721012
 40
0.8745628053037978
 40
1.0
 40
1.0
 40
1.0
 40
1.0
 10
265.0178211696431
 20
185.3377720659753
 30
0.0
 10
265.0176969560484
 20
185.347174242583
 30
0.0
 10
265.0174485803619
 20
185.3659746973474
 30
0.0
 10
265.0219754210984
 20
185.4059012574446
 30
0.0
 10
265.0413795403998
 20
185.4783477265607
 30
0.0
 10
265.0941614891821
 20
185.5784657044466
 30
0.0
 10
265.1646339684565
 20
185.6570314099314
 30
0.0
 10
265.2252450454931
 20
185.7048811358374
 30
0.0
 10
265.2563156383157
 20
185.7238614431728
 30
0.0
 10
265.271855394923
 20
185.7333543214712
 30
0.0
  0
SPLINE
  5
1C4
330
1F
100
AcDbEntity
  8
0
  6
Continuous
 62
     7
370
     0
100
AcDbSpline
210
0.0
220
0.0
230
1.0
 70
     8
 71
     3
 72
    11
 73
     7
 74
     0
 42
0.000000001
 43
0.00000001
 40
0.0
 40
0.0
 40
0.0
 40
0.0
 40
0.2500769320832084
 40
0.5000174317493317
 40
0.7499383126224693
 40
1.0
 40
1.0
 40
1.0
 40
1.0
 10
265.0562472810816
 20
185.2111979402612
 30
0.0
 10
265.0509566126252
 20
185.2196322421674
 30
0.0
 10
265.0403781620991
 20
185.2364962445473
 30
0.0
 10
265.0286563562169
 20
185.2666227505502
 30
0.0
 10
265.0207049962896
 20
185.3003280888801
 30
0.0
 10
265.0187826256531
 20
185.325288397146
 30
0.0
 10
265.0178211696431
 20
185.3377720659753
 30
0.0
  0
SPLINE
  5
1C5
330
1F
100
AcDbEntity
  8
0
  6
Continuous
 62
     7
370
     0
100
AcDbSpline
210
0.0
220
0.0
230
1.0
 70
     8
 71
     3
 72
     8
 73
     4
 74
     0
 42
0.000000001
 43
0.00000001
 40
0.0
 40
0.0
 40
0.0
 40
0.0
 40
1.0
 40
1.0
 40
1.0
 40
1.0
 10
264.8497311897993
 20
185.129502013525
 30
0.0
 10
264.9185879253847
 20
185.1567244784503
 30
0.0
 10
264.9874266233717
 20
185.1839564293968
 30
0.0
 10
265.0562472810816
 20
185.2111979402612
 30
0.0
  0
ARC
  5
1C6
330
1F
100
AcDbEntity
  8
0
  6
Continuous
 62
     7
370
     0
100
AcDbCircle
 10
251.8106948182
 20
184.6369072609
 30
0.0
 40
13.04833779029577
100
AcDbArc
 50
2.1635176095
 51
3.5314639937
  0
LINE
  5
1C7
330
1F
100
AcDbEntity
  8
0
  6
Continuous
 62
     7
370
     0
100
AcDbLine
 10
264.7371430289
 20
185.3845794484
 30
0.0
 11
264.8342554213
 21
185.4406412392
 31
0.0
  0
ARC
  5
1C8
330
1F
100
AcDbEntity
  8
0
  6
Continuous
 62
     7
370
     0
100
AcDbCircle
 10
251.7875925487
 20
184.5847401237
 30
0.0
 40
12.97422832327907
100
AcDbArc
 50
1.7824497621
 51
3.534429499
  0
SPLINE
  5
1C9
330
1F
100
AcDbEntity
  8
0
  6
Continuous
 62
     7
370
     0
100
AcDbSpline
210
0.0
220
0.0
230
1.0
 70
     8
 71
     3
 72
     8
 73
     4
 74
     0
 42
0.000000001
 43
0.00000001
 40
0.0
 40
0.0
 40
0.0
 40
0.0
 40
1.0
 40
1.0
 40
1.0
 40
1.0
 10
265.1833765987261
 20
185.1581084319189
 30
0.0
 10
265.0408431825842
 20
185.1014630075557
 30
0.0
 10
264.8982320087343
 20
185.0448598486016
 30
0.0
 10
264.7555430955736
 20
184.9882982971745
 30
0.0
  0
SPLINE
  5
1CA
330
1F
100
AcDbEntity
  8
0
  6
Continuous
 62
     7
370
     0
100
AcDbSpline
210
0.0
220
0.0
230
1.0
 70
     8
 71
     3
 72
     8
 73
     4
 74
     0
 42
0.000000001
 43
0.00000001
 40
0.0
 40
0.0
 40
0.0
 40
0.0
 40
1.0
 40
1.0
 40
1.0
 40
1.0
 10
265.1927488585425
 20
185.2665316200908
 30
0.0
 10
265.1897629781916
 20
185.2303164587999
 30
0.0
 10
265.1866389066543
 20
185.1941748759816
 30
0.0
 10
265.1833765987261
 20
185.1581084319189
 30
0.0
  0
SPLINE
  5
1CB
330
1F
100
AcDbEntity
  8
0
  6
Continuous
 62
     7
370
     0
100
AcDbSpline
210
0.0
220
0.0
230
1.0
 70
     8
 71
     3
 72
    13
 73
     9
 74
     0
 42
0.000000001
 43
0.00000001
 40
0.0
 40
0.0
 40
0.0
 40
0.0
 40
0.1251857732062522
 40
0.2502844631579679
 40
0.4998384123132086
 40
0.7496104912811543
 40
0.8747712753911021
 40
0.9999999999999999
 40
0.9999999999999999
 40
0.9999999999999999
 40
0.9999999999999999
 10
265.1054291352727
 20
185.3590613411171
 30
0.0
 10
265.1060384123008
 20
185.3517196245921
 30
0.0
 10
265.1072565425243
 20
185.3370412986764
 30
0.0
 10
265.1148375077233
 20
185.3116184353987
 30
0.0
 10
265.1309210135901
 20
185.2865437878219
 30
0.0
 10
265.1542249398201
 20
185.2724344303507
 30
0.0
 10
265.1755270524518
 20
185.2671275303094
 30
0.0
 10
265.1870072181724
 20
185.266730292759
 30
0.0
 10
265.1927488585425
 20
185.2665316200908
 30
0.0
  0
SPLINE
  5
1CC
330
1F
100
AcDbEntity
  8
0
  6
Continuous
 62
     7
370
     0
100
AcDbSpline
210
0.0
220
0.0
230
1.0
 70
     8
 71
     3
 72
    14
 73
    10
 74
     0
 42
0.000000001
 43
0.00000001
 40
0.0
 40
0.0
 40
0.0
 40
0.0
 40
0.1253753764942672
 40
0.2507116442999248
 40
0.375984388971372
 40
0.5011455318268867
 40
0.7498422054561061
 40
0.8748658854891888
 40
1.0
 40
1.0
 40
1.0
 40
1.0
 10
265.2828256674607
 20
185.6330521297891
 30
0.0
 10
265.2719588269949
 20
185.6264121101517
 30
0.0
 10
265.250228535787
 20
185.6131341421165
 30
0.0
 10
265.2181339044375
 20
185.5887856940539
 30
0.0
 10
265.1874573087867
 20
185.5592053364932
 30
0.0
 10
265.1498412179494
 20
185.5135243932877
 30
0.0
 10
265.1202104858021
 20
185.4569301972795
 30
0.0
 10
265.105782480739
 20
185.3989857308236
 30
0.0
 10
265.1055469517536
 20
185.3723733871079
 30
0.0
 10
265.1054291352727
 20
185.3590613411171
 30
0.0
  0
SPLINE
  5
1CD
330
1F
100
AcDbEntity
  8
0
  6
Continuous
 62
     7
370
     0
100
AcDbSpline
210
0.0
220
0.0
230
1.0
 70
     8
 71
     3
 72
    16
 73
    12
 74
     0
 42
0.000000001
 43
0.00000001
 40
0.0
 40
0.0
 40
0.0
 40
0.0
 40
0.0625610874929043
 40
0.1250928754981878
 40
0.2497698647651843
 40
0.3746545436190584
 40
0.4996400329584949
 40
0.6246834970050212
 40
0.7497226164574258
 40
0.8748534373134395
 40
1.0
 40
1.0
 40
1.0
 40
1.0
 10
265.493992394
 20
185.5807153018017
 30
0.0
 10
265.4934713749689
 20
185.5873891115397
 30
0.0
 10
265.4924295809176
 20
185.6007336054433
 30
0.0
 10
265.4859980729904
 20
185.6243155172739
 30
0.0
 10
265.4716576847514
 20
185.6478746100742
 30
0.0
 10
265.4467917006347
 20
185.6648520146439
 30
0.0
 10
265.4180204952062
 20
185.6741174759763
 30
0.0
 10
265.3856506805767
 20
185.6733390889165
 30
0.0
 10
265.3518692555841
 20
185.6657556161581
 30
0.0
 10
265.3173369128499
 20
185.65187084773
 30
0.0
 10
265.2943298982853
 20
185.6393252987974
 30
0.0
 10
265.2828256674607
 20
185.6330521297891
 30
0.0
  0
SPLINE
  5
1CE
330
1F
100
AcDbEntity
  8
0
  6
Continuous
 62
     7
370
     0
100
AcDbSpline
210
0.0
220
0.0
230
1.0
 70
     8
 71
     3
 72
    14
 73
    10
 74
     0
 42
0.000000001
 43
0.00000001
 40
0.0
 40
0.0
 40
0.0
 40
0.0
 40
0.1377979488015268
 40
0.2504541919851039
 40
0.5001429767152941
 40
0.6430016293616229
 40
0.785778720385236
 40
0.892846763617492
 40
1.0
 40
1.0
 40
1.0
 40
1.0
 10
265.3378181326239
 20
185.3373512274989
 30
0.0
 10
265.3480210572982
 20
185.3450268038749
 30
0.0
 10
265.3665653482506
 20
185.3589775215453
 30
0.0
 10
265.4028011177293
 20
185.390320020709
 30
0.0
 10
265.4379862452785
 20
185.4283258291569
 30
0.0
 10
265.4680893125304
 20
185.4769190917158
 30
0.0
 10
265.4849045183185
 20
185.5154387975707
 30
0.0
 10
265.4935853041184
 20
185.5511259517685
 30
0.0
 10
265.493856661401
 20
185.570849570511
 30
0.0
 10
265.493992394
 20
185.5807153018017
 30
0.0
  0
SPLINE
  5
1CF
330
1F
100
AcDbEntity
  8
0
  6
Continuous
 62
     7
370
     0
100
AcDbSpline
210
0.0
220
0.0
230
1.0
 70
     8
 71
     3
 72
     8
 73
     4
 74
     0
 42
0.000000001
 43
0.00000001
 40
0.0
 40
0.0
 40
0.0
 40
0.0
 40
1.0
 40
1.0
 40
1.0
 40
1.0
 10
265.3514401231362
 20
185.242318022626
 30
0.0
 10
265.3470376862395
 20
185.2739209440843
 30
0.0
 10
265.3424970081995
 20
185.3055991988497
 30
0.0
 10
265.3378181326239
 20
185.3373512274989
 30
0.0
  0
SPLINE
  5
1D0
330
1F
100
AcDbEntity
  8
0
  6
Continuous
 62
     7
370
     0
100
AcDbSpline
210
0.0
220
0.0
230
1.0
 70
     8
 71
     3
 72
    15
 73
    11
 74
     0
 42
0.000000001
 43
0.00000001
 40
0.0
 40
0.0
 40
0.0
 40
0.0
 40
0.0626620904673465
 40
0.1252926296738046
 40
0.250378994739695
 40
0.4991573193917701
 40
0.6218210237258127
 40
0.7494608068978353
 40
0.8747179529641241
 40
1.0
 40
1.0
 40
1.0
 40
1.0
 10
265.580270857093
 20
185.6315453576019
 30
0.0
 10
265.5804355697584
 20
185.6226711975946
 30
0.0
 10
265.580764912154
 20
185.6049273458468
 30
0.0
 10
265.5777217546938
 20
185.5677679020565
 30
0.0
 10
265.5635732166678
 20
185.50013206548
 30
0.0
 10
265.526880520851
 20
185.4225584674164
 30
0.0
 10
265.4791275121242
 20
185.3552446973638
 30
0.0
 10
265.4385481348964
 20
185.3112748019003
 30
0.0
 10
265.3954907009173
 20
185.2731240271726
 30
0.0
 10
265.3661246219567
 20
185.2525873711843
 30
0.0
 10
265.3514401231362
 20
185.242318022626
 30
0.0
  0
SPLINE
  5
1D1
330
1F
100
AcDbEntity
  8
0
  6
Continuous
 62
     7
370
     0
100
AcDbSpline
210
0.0
220
0.0
230
1.0
 70
     8
 71
     3
 72
    14
 73
    10
 74
     0
 42
0.000000001
 43
0.00000001
 40
0.0
 40
0.0
 40
0.0
 40
0.0
 40
0.1254508217661203
 40
0.2508652089522883
 40
0.5007660647446088
 40
0.749448187600124
 40
0.8745485641857015
 40
0.9372586901485888
 40
1.0
 40
1.0
 40
1.0
 40
1.0
 10
265.271855394923
 20
185.7333543214712
 30
0.0
 10
265.2892046261449
 20
185.742696863627
 30
0.0
 10
265.3238980498655
 20
185.7613792345917
 30
0.0
 10
265.3929551557025
 20
185.7847378990007
 30
0.0
 10
265.4755330883195
 20
185.789796746858
 30
0.0
 10
265.5448244883651
 20
185.7538265403552
 30
0.0
 10
265.5701852458545
 20
185.6987747214352
 30
0.0
 10
265.5781353640554
 20
185.661830046382
 30
0.0
 10
265.5795589081287
 20
185.641641926605
 30
0.0
 10
265.580270857093
 20
185.6315453576019
 30
0.0
  0
ARC
  5
1D2
330
1F
100
AcDbEntity
  8
0
  6
Continuous
 62
     7
370
     0
100
AcDbCircle
 10
254.6521672912
 20
184.8399324331
 30
0.0
 40
10.5937863601105
100
AcDbArc
 50
355.4031492915
 51
356.454407049
  0
SPLINE
  5
1D3
330
1F
100
AcDbEntity
  8
0
  6
Continuous
 62
     7
370
     0
100
AcDbSpline
210
0.0
220
0.0
230
1.0
 70
     8
 71
     3
 72
    15
 73
    11
 74
     0
 42
0.000000001
 43
0.00000001
 40
0.0
 40
0.0
 40
0.0
 40
0.0
 40
0.1251267795937829
 40
0.2502087440697853
 40
0.375203587475554
 40
0.5001276200207311
 40
0.6181871583708123
 40
0.7497555672938371
 40
0.8748246125366184
 40
1.0
 40
1.0
 40
1.0
 40
1.0
 10
264.984105724189
 20
184.3246120518531
 30
0.0
 10
265.0013904294584
 20
184.3339779691185
 30
0.0
 10
265.0359536493473
 20
184.3527064491741
 30
0.0
 10
265.0865235634973
 20
184.3696052820017
 30
0.0
 10
265.1335732964278
 20
184.3743276328566
 30
0.0
 10
265.1748974994455
 20
184.3664328831804
 30
0.0
 10
265.2051297606802
 20
184.3383410893161
 30
0.0
 10
265.221515986699
 20
184.2946843989124
 30
0.0
 10
265.2278169474237
 20
184.2418012674875
 30
0.0
 10
265.2263899304908
 20
184.2037946075669
 30
0.0
 10
265.2256761188165
 20
184.1847832020771
 30
0.0
  0
SPLINE
  5
1D4
330
1F
100
AcDbEntity
  8
0
  6
Continuous
 62
     7
370
     0
100
AcDbSpline
210
0.0
220
0.0
230
1.0
 70
     8
 71
     3
 72
    14
 73
    10
 74
     0
 42
0.000000001
 43
0.00000001
 40
0.0
 40
0.0
 40
0.0
 40
0.0
 40
0.0715632193436358
 40
0.1431246732572841
 40
0.2503740552462812
 40
0.499786091922228
 40
0.7495413463656677
 40
0.8497349887435405
 40
1.0
 40
1.0
 40
1.0
 40
1.0
 10
264.7532285284478
 20
184.0498406827542
 30
0.0
 10
264.7559878536215
 20
184.0581135093174
 30
0.0
 10
264.7615064358976
 20
184.0746589583571
 30
0.0
 10
264.7742921121683
 20
184.1037808905367
 30
0.0
 10
264.8000913763091
 20
184.1528815513479
 30
0.0
 10
264.8478026190675
 20
184.2173155736725
 30
0.0
 10
264.9013862512433
 20
184.2678580479757
 30
0.0
 10
264.9471895490186
 20
184.302140927905
 30
0.0
 10
264.9702627446908
 20
184.3161857371907
 30
0.0
 10
264.984105724189
 20
184.3246120518531
 30
0.0
  0
SPLINE
  5
1D5
330
1F
100
AcDbEntity
  8
0
  6
Continuous
 62
     7
370
     0
100
AcDbSpline
210
0.0
220
0.0
230
1.0
 70
     8
 71
     3
 72
    12
 73
     8
 74
     0
 42
0.000000001
 43
0.00000001
 40
0.0
 40
0.0
 40
0.0
 40
0.0
 40
0.2716297071090248
 40
0.5000612463477077
 40
0.7500575439835201
 40
0.8670058444018962
 40
1.0
 40
1.0
 40
1.0
 40
1.0
 10
264.7289267258807
 20
183.8918708647145
 30
0.0
 10
264.7298496368001
 20
183.9054981637635
 30
0.0
 10
264.7315486850726
 20
183.9305855675652
 30
0.0
 10
264.736021185531
 20
183.9694408805601
 30
0.0
 10
264.7408773535158
 20
184.0010364828066
 30
0.0
 10
264.7470586006058
 20
184.028436564283
 30
0.0
 10
264.7510857081518
 20
184.0424070172961
 30
0.0
 10
264.7532285284478
 20
184.0498406827542
 30
0.0
  0
ARC
  5
1D6
330
1F
100
AcDbEntity
  8
0
  6
Continuous
 62
     7
370
     0
100
AcDbCircle
 10
254.2427837924
 20
184.5472815186
 30
0.0
 40
10.5066053864632
100
AcDbArc
 50
354.8806094672
 51
356.4235201934
  0
LINE
  5
1D7
330
1F
100
AcDbEntity
  8
0
  6
Continuous
 62
     7
370
     0
100
AcDbLine
 10
265.5383279993
 20
184.0894023803
 30
0.0
 11
264.7074775314
 21
183.6097626146
 31
0.0
  0
ARC
  5
1D8
330
1F
100
AcDbEntity
  8
0
  6
Continuous
 62
     7
370
     0
100
AcDbCircle
 10
255.2323264557
 20
185.0136590654
 30
0.0
 40
10.34736286391255
100
AcDbArc
 50
354.8753435081
 51
355.4010699767
  0
LINE
  5
1D9
330
1F
100
AcDbEntity
  8
0
  6
Continuous
 62
     7
370
     0
100
AcDbLine
 10
265.2118764611
 20
183.990902581
 30
0.0
 11
265.5463747014
 21
184.1840043048
 31
0.0
  0
SPLINE
  5
1DA
330
1F
100
AcDbEntity
  8
0
  6
Continuous
 62
     7
370
     0
100
AcDbSpline
210
0.0
220
0.0
230
1.0
 70
     8
 71
     3
 72
     8
 73
     4
 74
     0
 42
0.000000001
 43
0.00000001
 40
0.0
 40
0.0
 40
0.0
 40
0.0
 40
1.0
 40
1.0
 40
1.0
 40
1.0
 10
265.3761077340325
 20
182.993839754747
 30
0.0
 10
265.1203743683455
 20
182.7880128867044
 30
0.0
 10
264.8639317078794
 20
182.5827737630798
 30
0.0
 10
264.606783324115
 20
182.3781383145326
 30
0.0
  0
ARC
  5
1DB
330
1F
100
AcDbEntity
  8
0
  6
Continuous
 62
     7
370
     0
100
AcDbCircle
 10
257.0448113429
 20
184.7557885132
 30
0.0
 40
8.515571794311589
100
AcDbArc
 50
348.0587248713
 51
348.6714024327
  0
SPLINE
  5
1DC
330
1F
100
AcDbEntity
  8
0
  6
Continuous
 62
     7
370
     0
100
AcDbSpline
210
0.0
220
0.0
230
1.0
 70
     8
 71
     3
 72
     8
 73
     4
 74
     0
 42
0.000000001
 43
0.00000001
 40
0.0
 40
0.0
 40
0.0
 40
0.0
 40
1.0
 40
1.0
 40
1.0
 40
1.0
 10
264.7469435327051
 20
182.8909863840416
 30
0.0
 10
264.9635114060219
 20
182.9544207390068
 30
0.0
 10
265.1793531777489
 20
183.0184288062686
 30
0.0
 10
265.3944719989896
 20
183.0830273489992
 30
0.0
  0
LINE
  5
1DD
330
1F
100
AcDbEntity
  8
0
  6
Continuous
 62
     7
370
     0
100
AcDbLine
 10
265.4327998037
 20
183.2869227815
 30
0.0
 11
264.7469435327
 21
182.890986384
 31
0.0
  0
ARC
  5
1DE
330
1F
100
AcDbEntity
  8
0
  6
Continuous
 62
     7
370
     0
100
AcDbCircle
 10
256.5746513462
 20
184.8441591562
 30
0.0
 40
8.993985725002151
100
AcDbArc
 50
350.0294498626
 51
350.6066746647
  0
LINE
  5
1DF
330
1F
100
AcDbEntity
  8
0
  6
Continuous
 62
     7
370
     0
100
AcDbLine
 10
264.6171878816
 20
182.8966017118
 30
0.0
 11
265.4480383495
 21
183.3762414775
 31
0.0
  0
ARC
  5
1E0
330
1F
100
AcDbEntity
  8
0
  6
Continuous
 62
     7
370
     0
100
AcDbCircle
 10
255.7739466619
 20
184.3594066593
 30
0.0
 40
8.963409707443803
100
AcDbArc
 50
349.7882499829
 51
350.6074676225
  0
SPLINE
  5
1E1
330
1F
100
AcDbEntity
  8
0
  6
Continuous
 62
     7
370
     0
100
AcDbSpline
210
0.0
220
0.0
230
1.0
 70
     8
 71
     3
 72
     8
 73
     4
 74
     0
 42
0.000000001
 43
0.00000001
 40
0.0
 40
0.0
 40
0.0
 40
0.0
 40
1.0
 40
1.0
 40
1.0
 40
1.0
 10
265.1405779661421
 20
182.9313222703796
 30
0.0
 10
264.9593630842439
 20
182.8772307727745
 30
0.0
 10
264.7776275547068
 20
182.8235649186275
 30
0.0
 10
264.5953694284852
 20
182.7703144791044
 30
0.0
  0
SPLINE
  5
1E2
330
1F
100
AcDbEntity
  8
0
  6
Continuous
 62
     7
370
     0
100
AcDbSpline
210
0.0
220
0.0
230
1.0
 70
     8
 71
     3
 72
     9
 73
     5
 74
     0
 42
0.000000001
 43
0.00000001
 40
0.0
 40
0.0
 40
0.0
 40
0.0
 40
0.4999953013385137
 40
1.0
 40
1.0
 40
1.0
 40
1.0
 10
265.2660354128726
 20
182.9701905756789
 30
0.0
 10
265.2450526483838
 20
182.9635049515892
 30
0.0
 10
265.2030867250388
 20
182.9501335777547
 30
0.0
 10
265.161414349644
 20
182.9375927454547
 30
0.0
 10
265.1405779661421
 20
182.9313222703796
 30
0.0
  0
SPLINE
  5
1E3
330
1F
100
AcDbEntity
  8
0
  6
Continuous
 62
     7
370
     0
100
AcDbSpline
210
0.0
220
0.0
230
1.0
 70
     8
 71
     3
 72
     8
 73
     4
 74
     0
 42
0.000000001
 43
0.00000001
 40
0.0
 40
0.0
 40
0.0
 40
0.0
 40
1.0
 40
1.0
 40
1.0
 40
1.0
 10
265.1361759426316
 20
182.8665050562316
 30
0.0
 10
265.1794814461501
 20
182.901051200888
 30
0.0
 10
265.2227679411268
 20
182.9356130642619
 30
0.0
 10
265.2660354128726
 20
182.9701905756789
 30
0.0
  0
SPLINE
  5
1E4
330
1F
100
AcDbEntity
  8
0
  6
Continuous
 62
     7
370
     0
100
AcDbSpline
210
0.0
220
0.0
230
1.0
 70
     8
 71
     3
 72
     8
 73
     4
 74
     0
 42
0.000000001
 43
0.00000001
 40
0.0
 40
0.0
 40
0.0
 40
0.0
 40
1.0
 40
1.0
 40
1.0
 40
1.0
 10
264.5123524911813
 20
182.3653378740474
 30
0.0
 10
264.7207665962456
 20
182.5319956214866
 30
0.0
 10
264.9287083875923
 20
182.6990542588869
 30
0.0
 10
265.1361759426316
 20
182.8665050562316
 30
0.0
  0
ARC
  5
1E5
330
1F
100
AcDbEntity
  8
0
  6
Continuous
 62
     7
370
     0
100
AcDbCircle
 10
256.6200747269
 20
184.1858867043
 30
0.0
 40
8.09953371198736
100
AcDbArc
 50
346.0421665372
 51
347.0105255049
  0
LINE
  5
1E6
330
1F
100
AcDbEntity
  8
0
  6
Continuous
 62
     7
370
     0
100
AcDbLine
 10
265.3113080626
 20
182.7118562001
 30
0.0
 11
264.4804575947
 21
182.2322164344
 31
0.0
  0
ARC
  5
1E7
330
1F
100
AcDbEntity
  8
0
  6
Continuous
 62
     7
370
     0
100
AcDbCircle
 10
257.4877664925
 20
184.6565498287
 30
0.0
 40
8.061614975160936
100
AcDbArc
 50
346.0409240948
 51
346.6618386954
  0
LINE
  5
1E8
330
1F
100
AcDbEntity
  8
0
  6
Continuous
 62
     7
370
     0
100
AcDbLine
 10
264.6067833241
 20
182.3781383145
 30
0.0
 11
265.3319229066
 21
182.796752485
 31
0.0
  0
ARC
  5
1E9
330
1F
100
AcDbEntity
  8
0
  6
Continuous
 62
     7
370
     0
100
AcDbCircle
 10
246.6591795751
 20
184.5254584733
 30
0.0
 40
19.34067965345266
100
AcDbArc
 50
2.5697972707
 51
57.4248261966
  0
SPLINE
  5
1EA
330
1F
100
AcDbEntity
  8
0
  6
Continuous
 62
     7
370
     0
100
AcDbSpline
210
0.0
220
0.0
230
1.0
 70
     8
 71
     3
 72
    14
 73
    10
 74
     0
 42
0.000000001
 43
0.00000001
 40
0.0
 40
0.0
 40
0.0
 40
0.0
 40
0.2504593848594039
 40
0.5007737691173267
 40
0.6258703401257071
 40
0.7507069732232907
 40
0.875113467923906
 40
0.937543846636161
 40
1.0
 40
1.0
 40
1.0
 40
1.0
 10
265.0579601924554
 20
186.5080671738536
 30
0.0
 10
265.0914416527498
 20
186.5279515980679
 30
0.0
 10
265.1583851896293
 20
186.5677089346362
 30
0.0
 10
265.2405889753526
 20
186.6268111552145
 30
0.0
 10
265.3033803192656
 20
186.6845625211612
 30
0.0
 10
265.3443179445228
 20
186.7397839566727
 30
0.0
 10
265.3695614351104
 20
186.7946526402792
 30
0.0
 10
265.3782482857957
 20
186.8410024012975
 30
0.0
 10
265.3765086985642
 20
186.8623992123606
 30
0.0
 10
265.3756387254364
 20
186.8730998258777
 30
0.0
  0
SPLINE
  5
1EB
330
1F
100
AcDbEntity
  8
0
  6
Continuous
 62
     7
370
     0
100
AcDbSpline
210
0.0
220
0.0
230
1.0
 70
     8
 71
     3
 72
    15
 73
    11
 74
     0
 42
0.000000001
 43
0.00000001
 40
0.0
 40
0.0
 40
0.0
 40
0.0
 40
0.0312901635285471
 40
0.0625537335386457
 40
0.1249650643503551
 40
0.2494571375088189
 40
0.3743031125252727
 40
0.4993924584937448
 40
0.7496226152148613
 40
1.0
 40
1.0
 40
1.0
 40
1.0
 10
265.3756387254364
 20
186.8730998258777
 30
0.0
 10
265.3747957689816
 20
186.8781663802675
 30
0.0
 10
265.3731105725009
 20
186.8882951829812
 30
0.0
 10
265.3664857293619
 20
186.9061445586593
 30
0.0
 10
265.3496130285239
 20
186.9321286215895
 30
0.0
 10
265.3128461206237
 20
186.9491379901737
 30
0.0
 10
265.2643395354664
 20
186.9523456323556
 30
0.0
 10
265.1965469206833
 20
186.9343844919605
 30
0.0
 10
265.1121789437905
 20
186.8974066160431
 30
0.0
 10
265.0455466184612
 20
186.8601089448363
 30
0.0
 10
265.0122206575541
 20
186.8414546246333
 30
0.0
  0
SPLINE
  5
1EC
330
1F
100
AcDbEntity
  8
0
  6
Continuous
 62
     7
370
     0
100
AcDbSpline
210
0.0
220
0.0
230
1.0
 70
     8
 71
     3
 72
    14
 73
    10
 74
     0
 42
0.000000001
 43
0.00000001
 40
0.0
 40
0.0
 40
0.0
 40
0.0
 40
0.2504545161899771
 40
0.5007633272324292
 40
0.625855620924261
 40
0.7506768265904501
 40
0.8750919021456431
 40
0.9375290817243926
 40
1.0
 40
1.0
 40
1.0
 40
1.0
 10
265.0122206575541
 20
186.8414546246333
 30
0.0
 10
264.9786704778201
 20
186.8215148062517
 30
0.0
 10
264.9115896366021
 20
186.7816467697351
 30
0.0
 10
264.829428221553
 20
186.722332272918
 30
0.0
 10
264.766930558361
 20
186.6642337072059
 30
0.0
 10
264.7264551742657
 20
186.6085639203305
 30
0.0
 10
264.7020509450717
 20
186.5530800035023
 30
0.0
 10
264.6940009112479
 20
186.5065648504298
 30
0.0
 10
264.6958063723507
 20
186.4851343109749
 30
0.0
 10
264.696709346737
 20
186.4744161469656
 30
0.0
  0
SPLINE
  5
1ED
330
1F
100
AcDbEntity
  8
0
  6
Continuous
 62
     7
370
     0
100
AcDbSpline
210
0.0
220
0.0
230
1.0
 70
     8
 71
     3
 72
    16
 73
    12
 74
     0
 42
0.000000001
 43
0.00000001
 40
0.0
 40
0.0
 40
0.0
 40
0.0
 40
0.0312835484950851
 40
0.0625395266465642
 40
0.1249245184145117
 40
0.2493412095452084
 40
0.311890763880755
 40
0.3744409013743367
 40
0.4994832982156803
 40
0.7496712702792634
 40
1.0
 40
1.0
 40
1.0
 40
1.0
 10
264.696709346737
 20
186.4744161469656
 30
0.0
 10
264.6975414206117
 20
186.4693570109806
 30
0.0
 10
264.6992048350505
 20
186.4592431976518
 30
0.0
 10
264.7057900286655
 20
186.4414874375422
 30
0.0
 10
264.7226522698826
 20
186.41596448052
 30
0.0
 10
264.7517656142513
 20
186.4027104718016
 30
0.0
 10
264.7826797234684
 20
186.3976140011535
 30
0.0
 10
264.8154046361611
 20
186.399365276647
 30
0.0
 10
264.8741524682236
 20
186.4149962545784
 30
0.0
 10
264.9582150769953
 20
186.4522326931624
 30
0.0
 10
265.0247055877109
 20
186.4894521912758
 30
0.0
 10
265.0579601924554
 20
186.5080671738536
 30
0.0
  0
SPLINE
  5
1EE
330
1F
100
AcDbEntity
  8
0
  6
Continuous
 62
     7
370
     0
100
AcDbSpline
210
0.0
220
0.0
230
1.0
 70
     8
 71
     3
 72
    14
 73
    10
 74
     0
 42
0.000000001
 43
0.00000001
 40
0.0
 40
0.0
 40
0.0
 40
0.0
 40
0.250459384859403
 40
0.5007737691173246
 40
0.625870340125704
 40
0.7507069732232925
 40
0.8751134679239073
 40
0.9375438466361619
 40
1.0
 40
1.0
 40
1.0
 40
1.0
 10
265.1243571831513
 20
185.864109469599
 30
0.0
 10
265.1578632505505
 20
185.8839832869413
 30
0.0
 10
265.2248559873938
 20
185.9237194159062
 30
0.0
 10
265.3075751651733
 20
185.9825995917944
 30
0.0
 10
265.3713166420662
 20
186.0399435148064
 30
0.0
 10
265.4136478603076
 20
186.094570368058
 30
0.0
 10
265.4406639049394
 20
186.1486899059781
 30
0.0
 10
265.4511633579463
 20
186.1942813998685
 30
0.0
 10
265.450403134239
 20
186.2152726066976
 30
0.0
 10
265.4500229439361
 20
186.2257703762426
 30
0.0
  0
SPLINE
  5
1EF
330
1F
100
AcDbEntity
  8
0
  6
Continuous
 62
     7
370
     0
100
AcDbSpline
210
0.0
220
0.0
230
1.0
 70
     8
 71
     3
 72
    15
 73
    11
 74
     0
 42
0.000000001
 43
0.00000001
 40
0.0
 40
0.0
 40
0.0
 40
0.0
 40
0.0312901635285475
 40
0.0625537335386462
 40
0.1249650643503549
 40
0.249457137508821
 40
0.374303112525276
 40
0.4993924584937474
 40
0.7496226152148623
 40
1.0
 40
1.0
 40
1.0
 40
1.0
 10
265.4500229439361
 20
186.2257703762426
 30
0.0
 10
265.4494225150032
 20
186.2307368416641
 30
0.0
 10
265.4482221674418
 20
186.2406655515068
 30
0.0
 10
265.4425425031815
 20
186.2581267985253
 30
0.0
 10
265.4272250796186
 20
186.2834758756264
 30
0.0
 10
265.3921173617831
 20
186.2998153056547
 30
0.0
 10
265.344961659298
 20
186.302482356898
 30
0.0
 10
265.2780840751068
 20
186.2841571334869
 30
0.0
 10
265.1942221852903
 20
186.246978822587
 30
0.0
 10
265.1276402675165
 20
186.2096612082043
 30
0.0
 10
265.0943395177995
 20
186.1909969134807
 30
0.0
  0
SPLINE
  5
1F0
330
1F
100
AcDbEntity
  8
0
  6
Continuous
 62
     7
370
     0
100
AcDbSpline
210
0.0
220
0.0
230
1.0
 70
     8
 71
     3
 72
    14
 73
    10
 74
     0
 42
0.000000001
 43
0.00000001
 40
0.0
 40
0.0
 40
0.0
 40
0.0
 40
0.2504545161899774
 40
0.5007633272324292
 40
0.6258556209242593
 40
0.7506768265904485
 40
0.8750919021456441
 40
0.937529081724393
 40
1.0
 40
1.0
 40
1.0
 40
1.0
 10
265.0943395177995
 20
186.1909969134807
 30
0.0
 10
265.0607646697147
 20
186.1710668581076
 30
0.0
 10
264.9936345061464
 20
186.1312183419284
 30
0.0
 10
264.9109602592625
 20
186.0721069078961
 30
0.0
 10
264.8475109876636
 20
186.014387083399
 30
0.0
 10
264.8056373663077
 20
185.9592768438123
 30
0.0
 10
264.7794361105458
 20
185.9045194373234
 30
0.0
 10
264.769562840619
 20
185.8587493678865
 30
0.0
 10
264.7703867171928
 20
185.8377240807119
 30
0.0
 10
264.7707987667476
 20
185.8272085975738
 30
0.0
  0
SPLINE
  5
1F1
330
1F
100
AcDbEntity
  8
0
  6
Continuous
 62
     7
370
     0
100
AcDbSpline
210
0.0
220
0.0
230
1.0
 70
     8
 71
     3
 72
    16
 73
    12
 74
     0
 42
0.000000001
 43
0.00000001
 40
0.0
 40
0.0
 40
0.0
 40
0.0
 40
0.0312835484950862
 40
0.0625395266465644
 40
0.1249245184145103
 40
0.2493412095452066
 40
0.3118907638807536
 40
0.3744409013743332
 40
0.4994832982156769
 40
0.749671270279263
 40
1.0
 40
1.0
 40
1.0
 40
1.0
 10
264.7707987667476
 20
185.8272085975738
 30
0.0
 10
264.7713886284412
 20
185.8222498137146
 30
0.0
 10
264.7725678319805
 20
185.8123366161967
 30
0.0
 10
264.7782090460276
 20
185.7949738938953
 30
0.0
 10
264.7935247743097
 20
185.7700984775958
 30
0.0
 10
264.8213152831806
 20
185.7574042496505
 30
0.0
 10
264.8512180503741
 20
185.7527381397129
 30
0.0
 10
264.883186536474
 20
185.7548124844749
 30
0.0
 10
264.9411264671621
 20
185.7707899363628
 30
0.0
 10
265.024689391362
 20
185.808241661549
 30
0.0
 10
265.0911283577955
 20
185.8454833758191
 30
0.0
 10
265.1243571831513
 20
185.864109469599
 30
0.0
  0
ARC
  5
1F2
330
1F
100
AcDbEntity
  8
0
  6
Continuous
 62
     7
370
     0
100
AcDbCircle
 10
254.5499593708
 20
184.7842485306
 30
0.0
 40
10.59889578284084
100
AcDbArc
 50
355.4033206777
 51
356.486576621
  0
SPLINE
  5
1F3
330
1F
100
AcDbEntity
  8
0
  6
Continuous
 62
     7
370
     0
100
AcDbSpline
210
0.0
220
0.0
230
1.0
 70
     8
 71
     3
 72
    14
 73
    10
 74
     0
 42
0.000000001
 43
0.00000001
 40
0.0
 40
0.0
 40
0.0
 40
0.0
 40
0.1254334684850727
 40
0.2507837227448746
 40
0.4991924195966432
 40
0.6189973935762006
 40
0.7493281599186867
 40
0.8746069720799522
 40
1.0
 40
1.0
 40
1.0
 40
1.0
 10
265.1289341945588
 20
184.1347229395148
 30
0.0
 10
265.1293895976667
 20
184.1466132921786
 30
0.0
 10
265.1303001017621
 20
184.1703861092887
 30
0.0
 10
265.1261422622571
 20
184.2138340685605
 30
0.0
 10
265.1103753618829
 20
184.2489897349353
 30
0.0
 10
265.0783566143467
 20
184.260982853011
 30
0.0
 10
265.0491172177657
 20
184.258498343733
 30
0.0
 10
265.0171260355265
 20
184.2474477288947
 30
0.0
 10
264.9955450332751
 20
184.2357624383872
 30
0.0
 10
264.9847496155809
 20
184.2299171309989
 30
0.0
  0
SPLINE
  5
1F4
330
1F
100
AcDbEntity
  8
0
  6
Continuous
 62
     7
370
     0
100
AcDbSpline
210
0.0
220
0.0
230
1.0
 70
     8
 71
     3
 72
    15
 73
    11
 74
     0
 42
0.000000001
 43
0.00000001
 40
0.0
 40
0.0
 40
0.0
 40
0.0
 40
0.1251494126434
 40
0.2502382939156019
 40
0.3752400413420949
 40
0.500157646678466
 40
0.6246526713367393
 40
0.7495806942684533
 40
0.8926595291875251
 40
1.0
 40
1.0
 40
1.0
 40
1.0
 10
264.9847496155809
 20
184.2299171309989
 30
0.0
 10
264.973922612731
 20
184.2232532130214
 30
0.0
 10
264.9522738437583
 20
184.2099286002225
 30
0.0
 10
264.9200932650201
 20
184.1831622910804
 30
0.0
 10
264.890053226226
 20
184.1503502728104
 30
0.0
 10
264.8627397202329
 20
184.1135309235149
 30
0.0
 10
264.8422923144752
 20
184.0719585786656
 30
0.0
 10
264.8338412723173
 20
184.0305160757702
 30
0.0
 10
264.8290784119422
 20
183.9929892067918
 30
0.0
 10
264.8274075366792
 20
183.9688009145797
 30
0.0
 10
264.8266913277716
 20
183.9584327735668
 30
0.0
  0
ARC
  5
1F5
330
1F
100
AcDbEntity
  8
0
  6
Continuous
 62
     7
370
     0
100
AcDbCircle
 10
254.2494244085
 20
184.6097160747
 30
0.0
 40
10.59729896811128
100
AcDbArc
 50
355.4032665729
 51
356.4765252945
  0
LINE
  5
1F6
330
1F
100
AcDbEntity
  8
0
  6
Continuous
 62
     7
370
     0
100
AcDbLine
 10
264.8126366259
 20
183.7604263299
 30
0.0
 11
265.1147640687
 21
183.9348407902
 31
0.0
  0
ARC
  5
1F7
330
1F
100
AcDbEntity
  8
0
  6
Continuous
 62
     7
370
     0
100
AcDbCircle
 10
258.2017512142
 20
184.3722893047
 30
0.0
 40
7.218841088200297
100
AcDbArc
 50
341.4981166586
 51
342.6455348404
  0
SPLINE
  5
1F8
330
1F
100
AcDbEntity
  8
0
  6
Continuous
 62
     7
370
     0
100
AcDbSpline
210
0.0
220
0.0
230
1.0
 70
     8
 71
     3
 72
    15
 73
    11
 74
     0
 42
0.000000001
 43
0.00000001
 40
0.0
 40
0.0
 40
0.0
 40
0.0
 40
0.1388489419424235
 40
0.2501977506340647
 40
0.3831761862776433
 40
0.5002075727696145
 40
0.6213379654255621
 40
0.7499414540047515
 40
0.8749212798674988
 40
1.0
 40
1.0
 40
1.0
 40
1.0
 10
265.0919739422536
 20
182.2190365526005
 30
0.0
 10
265.0951680769703
 20
182.2300927618727
 30
0.0
 10
265.1009237227115
 20
182.2500154105565
 30
0.0
 10
265.1069402480908
 20
182.2790308081746
 30
0.0
 10
265.1088651543449
 20
182.3039708201006
 30
0.0
 10
265.1057940952368
 20
182.3258233333102
 30
0.0
 10
265.0954133586922
 20
182.340812818975
 30
0.0
 10
265.0780677803302
 20
182.348650611197
 30
0.0
 10
265.0557103404794
 20
182.350323567565
 30
0.0
 10
265.038050097939
 20
182.3468449283739
 30
0.0
 10
265.0292164844931
 20
182.3451049209045
 30
0.0
  0
SPLINE
  5
1F9
330
1F
100
AcDbEntity
  8
0
  6
Continuous
 62
     7
370
     0
100
AcDbSpline
210
0.0
220
0.0
230
1.0
 70
     8
 71
     3
 72
    12
 73
     8
 74
     0
 42
0.000000001
 43
0.00000001
 40
0.0
 40
0.0
 40
0.0
 40
0.0
 40
0.1384428690844934
 40
0.2499955774680871
 40
0.4999714742338767
 40
0.7499799309452824
 40
1.0
 40
1.0
 40
1.0
 40
1.0
 10
265.0292164844931
 20
182.3451049209045
 30
0.0
 10
265.0211068231036
 20
182.3430085875511
 30
0.0
 10
265.0064626634185
 20
182.3392230977622
 30
0.0
 10
264.9758777355165
 20
182.3292075371923
 30
0.0
 10
264.9365180104335
 20
182.3128415985157
 30
0.0
 10
264.8866061721827
 20
182.2886539442645
 30
0.0
 10
264.8522668485679
 20
182.269255911521
 30
0.0
 10
264.8350967880233
 20
182.2595566699054
 30
0.0
  0
SPLINE
  5
1FA
330
1F
100
AcDbEntity
  8
0
  6
Continuous
 62
     7
370
     0
100
AcDbSpline
210
0.0
220
0.0
230
1.0
 70
     8
 71
     3
 72
    15
 73
    11
 74
     0
 42
0.000000001
 43
0.00000001
 40
0.0
 40
0.0
 40
0.0
 40
0.0
 40
0.0834230312274555
 40
0.2502275879770218
 40
0.5000787347285472
 40
0.625085156257011
 40
0.7500916741890106
 40
0.8749580725237437
 40
0.9374643383058788
 40
0.9999999999999999
 40
0.9999999999999999
 40
0.9999999999999999
 40
0.9999999999999999
 10
264.8350967880233
 20
182.2595566699054
 30
0.0
 10
264.8256597936286
 20
182.2540498263277
 30
0.0
 10
264.79735350566
 20
182.2375320354305
 30
0.0
 10
264.7399697005647
 20
182.2011431286132
 30
0.0
 10
264.6762943969618
 20
182.1552291377284
 30
0.0
 10
264.6182033285175
 20
182.1041057226257
 30
0.0
 10
264.575791319496
 20
182.0622075341712
 30
0.0
 10
264.5430260436522
 20
182.02420216493
 30
0.0
 10
264.5195514112658
 20
181.9928855193399
 30
0.0
 10
264.5097408354471
 20
181.9772545786833
 30
0.0
 10
264.5048343943614
 20
181.9694372710282
 30
0.0
  0
SPLINE
  5
1FB
330
1F
100
AcDbEntity
  8
0
  6
Continuous
 62
     7
370
     0
100
AcDbSpline
210
0.0
220
0.0
230
1.0
 70
     8
 71
     3
 72
    12
 73
     8
 74
     0
 42
0.000000001
 43
0.00000001
 40
0.0
 40
0.0
 40
0.0
 40
0.0
 40
0.1264898950852846
 40
0.2499216889095194
 40
0.499900211056267
 40
0.7499192313532342
 40
1.0
 40
1.0
 40
1.0
 40
1.0
 10
264.5048343943614
 20
181.9694372710282
 30
0.0
 10
264.5017111724821
 20
181.9639456554922
 30
0.0
 10
264.4955402377497
 20
181.9530951932582
 30
0.0
 10
264.4849937765274
 20
181.9319466460449
 30
0.0
 10
264.474591918563
 20
181.9067756827303
 30
0.0
 10
264.463672885862
 20
181.8774400842264
 30
0.0
 10
264.4576630703538
 20
181.8586891495245
 30
0.0
 10
264.4546577915775
 20
181.8493125245652
 30
0.0
  0
ARC
  5
1FC
330
1F
100
AcDbEntity
  8
0
  6
Continuous
 62
     7
370
     0
100
AcDbCircle
 10
257.5666797006
 20
184.0042644551
 30
0.0
 40
7.217205830813191
100
AcDbArc
 50
341.4980307652
 51
342.627344219
  0
LINE
  5
1FD
330
1F
100
AcDbEntity
  8
0
  6
Continuous
 62
     7
370
     0
100
AcDbLine
 10
264.4108480022
 20
181.7139762059
 30
0.0
 11
265.0474736854
 21
182.08149239
 31
0.0
  0
OLE2FRAME
  5
1FE
330
1F
100
AcDbEntity
  8
0
100
AcDbOle2Frame
 70
     2
  3
Paintbrush Picture
 10
229.0524258301
 20
33.6996297921
 30
0.0
 11
265.1686469208
 21
28.555479607
 31
0.0
 71
     2
 72
     0
 73
     1
 90
     7296
310
80557333EF78ADA16C40002412788DD94040000000000000000041161DC7B292
310
7040002412788DD94040000000000000000041161DC7B2927040F6DD59E9338E
310
3C4000000000000000007333EF78ADA16C40F6DD59E9338E3C40000000000000
310
00000000000001000000000100000100000001000000000001000000001C0000
310
D0CF11E0A1B11AE1000000000000000000000000000000003E000300FEFF0900
310
0600000000000000000000000100000001000000000000000010000002000000
310
01000000FEFFFFFF0000000000000000FFFFFFFFFFFFFFFFFFFFFFFFFFFFFFFF
310
FFFFFFFFFFFFFFFFFFFFFFFFFFFFFFFFFFFFFFFFFFFFFFFFFFFFFFFFFFFFFFFF
310
FFFFFFFFFFFFFFFFFFFFFFFFFFFFFFFFFFFFFFFFFFFFFFFFFFFFFFFFFFFFFFFF
310
FFFFFFFFFFFFFFFFFFFFFFFFFFFFFFFFFFFFFFFFFFFFFFFFFFFFFFFFFFFFFFFF
310
FFFFFFFFFFFFFFFFFFFFFFFFFFFFFFFFFFFFFFFFFFFFFFFFFFFFFFFFFFFFFFFF
310
FFFFFFFFFFFFFFFFFFFFFFFFFFFFFFFFFFFFFFFFFFFFFFFFFFFFFFFFFFFFFFFF
310
FFFFFFFFFFFFFFFFFFFFFFFFFFFFFFFFFFFFFFFFFFFFFFFFFFFFFFFFFFFFFFFF
310
FFFFFFFFFFFFFFFFFFFFFFFFFFFFFFFFFFFFFFFFFFFFFFFFFFFFFFFFFFFFFFFF
310
FFFFFFFFFFFFFFFFFFFFFFFFFFFFFFFFFFFFFFFFFFFFFFFFFFFFFFFFFFFFFFFF
310
FFFFFFFFFFFFFFFFFFFFFFFFFFFFFFFFFFFFFFFFFFFFFFFFFFFFFFFFFFFFFFFF
310
FFFFFFFFFFFFFFFFFFFFFFFFFFFFFFFFFFFFFFFFFFFFFFFFFFFFFFFFFFFFFFFF
310
FFFFFFFFFFFFFFFFFFFFFFFFFFFFFFFFFFFFFFFFFFFFFFFFFFFFFFFFFFFFFFFF
310
FFFFFFFFFFFFFFFFFFFFFFFFFFFFFFFFFFFFFFFFFFFFFFFFFFFFFFFFFFFFFFFF
310
FFFFFFFFFFFFFFFFFFFFFFFFFFFFFFFFFFFFFFFFFFFFFFFFFFFFFFFFFFFFFFFF
310
FDFFFFFFFEFFFFFFFEFFFFFFFEFFFFFF05000000060000000700000008000000
310
090000000A0000000B0000000C000000FEFFFFFFFFFFFFFFFFFFFFFFFFFFFFFF
310
FFFFFFFFFFFFFFFFFFFFFFFFFFFFFFFFFFFFFFFFFFFFFFFFFFFFFFFFFFFFFFFF
310
FFFFFFFFFFFFFFFFFFFFFFFFFFFFFFFFFFFFFFFFFFFFFFFFFFFFFFFFFFFFFFFF
310
FFFFFFFFFFFFFFFFFFFFFFFFFFFFFFFFFFFFFFFFFFFFFFFFFFFFFFFFFFFFFFFF
310
FFFFFFFFFFFFFFFFFFFFFFFFFFFFFFFFFFFFFFFFFFFFFFFFFFFFFFFFFFFFFFFF
310
FFFFFFFFFFFFFFFFFFFFFFFFFFFFFFFFFFFFFFFFFFFFFFFFFFFFFFFFFFFFFFFF
310
FFFFFFFFFFFFFFFFFFFFFFFFFFFFFFFFFFFFFFFFFFFFFFFFFFFFFFFFFFFFFFFF
310
FFFFFFFFFFFFFFFFFFFFFFFFFFFFFFFFFFFFFFFFFFFFFFFFFFFFFFFFFFFFFFFF
310
FFFFFFFFFFFFFFFFFFFFFFFFFFFFFFFFFFFFFFFFFFFFFFFFFFFFFFFFFFFFFFFF
310
FFFFFFFFFFFFFFFFFFFFFFFFFFFFFFFFFFFFFFFFFFFFFFFFFFFFFFFFFFFFFFFF
310
FFFFFFFFFFFFFFFFFFFFFFFFFFFFFFFFFFFFFFFFFFFFFFFFFFFFFFFFFFFFFFFF
310
FFFFFFFFFFFFFFFFFFFFFFFFFFFFFFFFFFFFFFFFFFFFFFFFFFFFFFFFFFFFFFFF
310
FFFFFFFFFFFFFFFFFFFFFFFFFFFFFFFFFFFFFFFFFFFFFFFFFFFFFFFFFFFFFFFF
310
FFFFFFFFFFFFFFFFFFFFFFFFFFFFFFFFFFFFFFFFFFFFFFFFFFFFFFFFFFFFFFFF
310
FFFFFFFFFFFFFFFFFFFFFFFFFFFFFFFFFFFFFFFFFFFFFFFFFFFFFFFFFFFFFFFF
310
52006F006F007400200045006E00740072007900000000000000000000000000
310
0000000000000000000000000000000000000000000000000000000000000000
310
16000500FFFFFFFFFFFFFFFF020000000A00030000000000C000000000000046
310
000000000000000000000000F0F59F923DC5D30103000000C000000000000000
310
01004F006C006500000000000000000000000000000000000000000000000000
310
0000000000000000000000000000000000000000000000000000000000000000
310
0A000200FFFFFFFFFFFFFFFFFFFFFFFF00000000000000000000000000000000
310
0000000000000000000000000000000000000000000000001400000000000000
310
010043006F006D0070004F0062006A0000000000000000000000000000000000
310
0000000000000000000000000000000000000000000000000000000000000000
310
120002010100000003000000FFFFFFFF00000000000000000000000000000000
310
0000000000000000000000000000000000000000010000004D00000000000000
310
01004F006C006500310030004E00610074006900760065000000000000000000
310
0000000000000000000000000000000000000000000000000000000000000000
310
1A000200FFFFFFFFFFFFFFFFFFFFFFFF00000000000000000000000000000000
310
000000000000000000000000000000000000000004000000E411000000000000
310
FEFFFFFF02000000FEFFFFFFFFFFFFFFFFFFFFFFFFFFFFFFFFFFFFFFFFFFFFFF
310
FFFFFFFFFFFFFFFFFFFFFFFFFFFFFFFFFFFFFFFFFFFFFFFFFFFFFFFFFFFFFFFF
310
FFFFFFFFFFFFFFFFFFFFFFFFFFFFFFFFFFFFFFFFFFFFFFFFFFFFFFFFFFFFFFFF
310
FFFFFFFFFFFFFFFFFFFFFFFFFFFFFFFFFFFFFFFFFFFFFFFFFFFFFFFFFFFFFFFF
310
FFFFFFFFFFFFFFFFFFFFFFFFFFFFFFFFFFFFFFFFFFFFFFFFFFFFFFFFFFFFFFFF
310
FFFFFFFFFFFFFFFFFFFFFFFFFFFFFFFFFFFFFFFFFFFFFFFFFFFFFFFFFFFFFFFF
310
FFFFFFFFFFFFFFFFFFFFFFFFFFFFFFFFFFFFFFFFFFFFFFFFFFFFFFFFFFFFFFFF
310
FFFFFFFFFFFFFFFFFFFFFFFFFFFFFFFFFFFFFFFFFFFFFFFFFFFFFFFFFFFFFFFF
310
FFFFFFFFFFFFFFFFFFFFFFFFFFFFFFFFFFFFFFFFFFFFFFFFFFFFFFFFFFFFFFFF
310
FFFFFFFFFFFFFFFFFFFFFFFFFFFFFFFFFFFFFFFFFFFFFFFFFFFFFFFFFFFFFFFF
310
FFFFFFFFFFFFFFFFFFFFFFFFFFFFFFFFFFFFFFFFFFFFFFFFFFFFFFFFFFFFFFFF
310
FFFFFFFFFFFFFFFFFFFFFFFFFFFFFFFFFFFFFFFFFFFFFFFFFFFFFFFFFFFFFFFF
310
FFFFFFFFFFFFFFFFFFFFFFFFFFFFFFFFFFFFFFFFFFFFFFFFFFFFFFFFFFFFFFFF
310
FFFFFFFFFFFFFFFFFFFFFFFFFFFFFFFFFFFFFFFFFFFFFFFFFFFFFFFFFFFFFFFF
310
FFFFFFFFFFFFFFFFFFFFFFFFFFFFFFFFFFFFFFFFFFFFFFFFFFFFFFFFFFFFFFFF
310
FFFFFFFFFFFFFFFFFFFFFFFFFFFFFFFFFFFFFFFFFFFFFFFFFFFFFFFFFFFFFFFF
310
0100000200000000000000000000000000000000000000000000000000000000
310
0000000000000000000000000000000000000000000000000000000000000000
310
0100FEFF030A0000FFFFFFFF0A00030000000000C00000000000004607000000
310
5042727573680007000000504272757368000700000050427275736800F439B2
310
7100000000000000000000000000000000000000000000000000000000000000
310
0000000000000000000000000000000000000000000000000000000000000000
310
0000000000000000000000000000000000000000000000000000000000000000
310
0000000000000000000000000000000000000000000000000000000000000000
310
0000000000000000000000000000000000000000000000000000000000000000
310
0000000000000000000000000000000000000000000000000000000000000000
310
0000000000000000000000000000000000000000000000000000000000000000
310
0000000000000000000000000000000000000000000000000000000000000000
310
0000000000000000000000000000000000000000000000000000000000000000
310
0000000000000000000000000000000000000000000000000000000000000000
310
0000000000000000000000000000000000000000000000000000000000000000
310
0000000000000000000000000000000000000000000000000000000000000000
310
E0110000424DDE11000000000000360400002800000096000000170000000100
310
08000000000000000000E7240000E72400000001000000010000000000FF0101
310
01FF020202FF030303FF040404FF050505FF060606FF070707FF080808FF0909
310
09FF0A0A0AFF0B0B0BFF0C0C0CFF0D0D0DFF0E0E0EFF0F0F0FFF101010FF1111
310
11FF121212FF131313FF141414FF151515FF161616FF171717FF181818FF1919
310
19FF1A1A1AFF1B1B1BFF1C1C1CFF1D1D1DFF1E1E1EFF1F1F1FFF202020FF2121
310
21FF222222FF232323FF242424FF252525FF262626FF272727FF282828FF2929
310
29FF2A2A2AFF2B2B2BFF2C2C2CFF2D2D2DFF2E2E2EFF2F2F2FFF303030FF3131
310
31FF323232FF333333FF343434FF353535FF363636FF373737FF383838FF3939
310
39FF3A3A3AFF3B3B3BFF3C3C3CFF3D3D3DFF3E3E3EFF3F3F3FFF404040FF4141
310
41FF424242FF434343FF444444FF454545FF464646FF474747FF484848FF4949
310
49FF4A4A4AFF4B4B4BFF4C4C4CFF4D4D4DFF4E4E4EFF4F4F4FFF505050FF5151
310
51FF525252FF535353FF545454FF555555FF565656FF575757FF585858FF5959
310
59FF5A5A5AFF5B5B5BFF5C5C5CFF5D5D5DFF5E5E5EFF5F5F5FFF606060FF6161
310
61FF626262FF636363FF646464FF656565FF666666FF676767FF686868FF6969
310
69FF6A6A6AFF6B6B6BFF6C6C6CFF6D6D6DFF6E6E6EFF6F6F6FFF707070FF7171
310
71FF727272FF737373FF747474FF757575FF767676FF777777FF787878FF7979
310
79FF7A7A7AFF7B7B7BFF7C7C7CFF7D7D7DFF7E7E7EFF7F7F7FFF808080FF8181
310
81FF828282FF838383FF848484FF858585FF868686FF878787FF888888FF8989
310
89FF8A8A8AFF8B8B8BFF8C8C8CFF8D8D8DFF8E8E8EFF8F8F8FFF909090FF9191
310
91FF929292FF939393FF949494FF959595FF969696FF979797FF989898FF9999
310
99FF9A9A9AFF9B9B9BFF9C9C9CFF9D9D9DFF9E9E9EFF9F9F9FFFA0A0A0FFA1A1
310
A1FFA2A2A2FFA3A3A3FFA4A4A4FFA5A5A5FFA6A6A6FFA7A7A7FFA8A8A8FFA9A9
310
A9FFAAAAAAFFABABABFFACACACFFADADADFFAEAEAEFFAFAFAFFFB0B0B0FFB1B1
310
B1FFB2B2B2FFB3B3B3FFB4B4B4FFB5B5B5FFB6B6B6FFB7B7B7FFB8B8B8FFB9B9
310
B9FFBABABAFFBBBBBBFFBCBCBCFFBDBDBDFFBEBEBEFFBFBFBFFFC0C0C0FFC1C1
310
C1FFC2C2C2FFC3C3C3FFC4C4C4FFC5C5C5FFC6C6C6FFC7C7C7FFC8C8C8FFC9C9
310
C9FFCACACAFFCBCBCBFFCCCCCCFFCDCDCDFFCECECEFFCFCFCFFFD0D0D0FFD1D1
310
D1FFD2D2D2FFD3D3D3FFD4D4D4FFD5D5D5FFD6D6D6FFD7D7D7FFD8D8D8FFD9D9
310
D9FFDADADAFFDBDBDBFFDCDCDCFFDDDDDDFFDEDEDEFFDFDFDFFFE0E0E0FFE1E1
310
E1FFE2E2E2FFE3E3E3FFE4E4E4FFE5E5E5FFE6E6E6FFE7E7E7FFE8E8E8FFE9E9
310
E9FFEAEAEAFFEBEBEBFFECECECFFEDEDEDFFEEEEEEFFEFEFEFFFF0F0F0FFF1F1
310
F1FFF2F2F2FFF3F3F3FFF4F4F4FFF5F5F5FFF6F6F6FFF7F7F7FFF8F8F8FFF9F9
310
F9FFFAFAFAFFFBFBFBFFFCFCFCFFFDFDFDFFFEFEFEFFFFFFFFFFFFFFFFFFFFFF
310
C94E4E4E4F4E4EFFFFFFFFFFC94E4E4E4E4E72FFFFFFFFFFFFFF734E4D4E4E4E
310
C9FFFFFFFFFFAA683516171616265B9BE9FFFFFFFFFF4E4E4E4D4E4EFFFFFFFF
310
FFFFFFFF4E4E4F4E4D4E4E4E4F4E4E4F4D4E4E4E4E4E4D4E4F4E4D4E4E4EAAFF
310
FFFFFFFFFFEA4E4F4F4E4E4E4E4E4D4D4F4F4E4E4E4E4E5B7FAAFFFFFFFFFFFF
310
C9744E1716171616164D8DEAFFFFFFFF0000FFFFFFFFFFFFBA161617161716FF
310
FFFFFFFFB917171616174FFFFFFFFFFFFFFF4E1716161616B9FFFFFFB9341717
310
1716171617171616268CFFFFFFFF161617161617FFFFFFFFFFFFFFB917161717
310
1617167F807F7F7F7F7F7F807F7F807F7F807F7F7F414EFFFFFFFFFFFF8C167F
310
7F807F7F7F7E7F7F807F807F7F807F4E3417258EFFFFEA4E162674AABAEAEBBA
310
AA74341680FFFFFF0000FFFFFFFFFFFFB9171717171617FFFFFFFFFFBB161616
310
16164EFFFFFFFFFFFFFF4E1717171717B9FFFF9C171617171716161616171616
310
171766FFFFFF161717161617FFFFFFFFFFFFFF8E16171717161616FFFFFFFFFF
310
FFFFFFFFFFFFFFFFFFFFFFFFFFAA16D9FFFFFFFFFF3467FFFFFFFFEAFFFFFFFF
310
FFFFFFFFFFFFFFFFFFCA671667EB26278DFFFFFFFFFFFFFFFFFFFF8C2541EAFF
310
0000FFFFFFFFFFFFB9171717171716FFFFFFFFFFBA16171617174EFFFFFFFFFF
310
FFFF4E1717161616BAFF9B1617161616171716171617161616161667FFFF1616
310
16161716FFFFFFFFFFFFFF7F16161617174017FFFFFFFFFFFFFFFFFFFFFFFFFF
310
FFFFFFFFFFFF344E7F7F7F7E7417DAFFFFFFFF80FFFFFFFFFFFFFFFFFFFFFFFF
310
FFFFFF9B163425CAFFFFFFFFFFFFFFFFFFFFFFFFCA2667FF0000FFFFFFFFFFFF
310
BA171717171617FFFFFFFFFFB916171716164EFFFFFFFFFFFFFF4F1716161717
310
B9C91716171616161716161617171616161617168DFF161716161717FFFFFFFF
310
FFFFFF7F17171716164F16FFFFFFFFFFFFFFFFFFFFFFFFFFFFFFFFFFFFFF9B16
310
17161617174EFFFFFFFFFF34FFFFFFFFD9BABABABABADAFFFFFFFFFF7F16AAFF
310
FFFFFFFFFFFFFFFFFFFFFFFFFF9C16BA0000FFFFFFFFFFFFB9161717161717FF
310
FFFFFFFFB917161716174DFFFFFFFFFFFFFF4E1616161616BA4E161617171716
310
419BEAEAAA4E16161617161726E9171717161616FFFFFFFFFFFFFF4F16161717
310
164E16FFFFFFFFFFBAB9B9B9B9B9BABABACAFFFFFFFFFFFFFFFFFFFFFFFFFFFF
310
FFFFBA16FFFFFFFF7F1617161617174DEAFFFFFFEA41FFFFFFFFFFAA4D16174E
310
9BFFFFFFFFFF34730000FFFFFFFFFFFFB9161617171617FFFFFFFFFFBA161616
310
16164EFFFFFFFFFFFFFF4F16161717169B1617161716175BFFFFFFFFFFFF7417
310
16171616168D171717161617FFFFFFFFFFFFEA2616171717167416FFFFFFFFFF
310
16171616171717171717EAFFFFFFFFFFFFFFFFFFFFFFFFFFFFFF6716FFFFFFFF
310
7F4EFFFFFFFFBA2573FFFFFFFFBAFFFFFFFFAA167FB9BB9B269BFFFFFFFF664F
310
0000FFFFFFFFFFFFB9171616161616FFFFFFFFFFBA16161717164EFFFFFFFFFF
310
FFFF4E16161616174E161617171626EAFFFFFFFFFFFFFF4E16161616164E1716
310
16161617FFFFFFFFFFFF671616161716347F16FFFFFFFFFF16B9FFFFFFFFFFFF
310
D9168DFFFFFFFFFFFFFFFFFFFFFFFFFFFFEA1716FFFFFFFF7F4EFFFFFFFFFF7F
310
4EFFFFFFFFFFFFFFFFFF5B66FFFFFFEA347FFFFFFFFF7F4D0000FFFFFFFFFFFF
310
B9171616171617FFFFFFFFFFBA17161716174EFFFFFFFFFFFFFF4D1716161617
310
17161716161673FFFFFFFFFFFFFFFF9B1617161717161616171616174F4E4E4E
310
4E341616171616167E7F16FFFFFFFFFF16BAFFFFFFFFFFFFFF5B41FFFFFFFF34
310
1616171616BAFFFFFF9B1716FFFFFFFF7F4EFFFFFFFFFF4E4EFFFFFFFF734E4E
310
4E4E267EDA9B67164EEAFFFFFFFF744D0000FFFFFFFFFFFFBA171717161617FF
310
FFFFFFFFBA1616171616347F7F7F7F80807F331616161717161717161716B9FF
310
FFFFFFFFFFFFFFE9161616161616171716161716171616161616171616171734
310
EA7F16FFFFFFFFFF16BAFFFFFFFFFFFFFFAA17C9FFFFFF7326BABA5B25FFFFFF
310
FF401716FFFFFFFF7F264F4E4E4E4217AAFFFFFFEA16677F73261616164173CA
310
FFFFFFFFFFFF417F0000FFFFFFFFFFFFBA171616171617FFFFFFFFFFBA161616
310
17171616161616161616161717161616161616161617EAFFFFFFFFFFFFFFFFFF
310
261717161716161617161616161617161617161616174EEAFF8016FFFFFFFFFF
310
17BAFFFFFFFFFFFFFFFF3467FFFFFFC916C9FF3467FFFFFFDA166716FFFFFFFF
310
9C4D4E4E4E4E67AAFFFFFFFF6834FF7F262567AAEAFFFFFFFFFFFFFFFF9B17D9
310
0000FFFFFFFFFFFFB9161616161616FFFFFFFFFFBA1617161717171616161616
310
1716171716161716161617171716FFFFFFFFFFFFFFFFFFFF4E17161716171616
310
1617171616161716171717161616169BFF7F17FFFFFFFFFF17B9FFFFFFFFFFFF
310
FFFF7326FFFFFFFF3473DA16AAFFFFFF7317AA16FFFFFFFFFFFFFFFFFFFFFFFF
310
FFFFEA6725BA4E167FEAFFFFFFFFFFFFFFFFFFFF9C167FFF0000FFFFFFFFFFFF
310
B9161717171716FFFFFFFFFFBA16161716171616171717161617161716161616
310
171617171617EAFFFFFFFFFFFFFFFFFF26161717161616161616161617171616
310
1616161616171616AA8016FFFFFFFFFF16BAFFFFFFFFFFFFFFFFDA179BFFFFFF
310
74348D26FFFFFFFF2566B917FFFFFFFFD8BAB9BAB9BADAFFFFEA41169B7425C9
310
FFFFFFFFFFFFFFFFFFFFAB4F1680FFFF0000FFFFFFFFFFFFBA161717171617FF
310
FFFFFFFFBA17161717161617171617161616161617171616171716171617BBFF
310
FFFFFFFFFFFFFFE9171616161617161617161716FFFFFFFFFFD9671616161617
310
348017FFFFFFFFFF16BAFFFFFFFFFFFFFFFFFF4E5AFFFFFFC916265AFFFFFFAA
310
16AABA16FFFFFFFF7F1617161616179BFFFFEB4127168DFFFFFFFFFFFFFFD99B
310
6734175AC9FFFFFF0000FFFFFFFFFFFFB9161617171617FFFFFFFFFFBB161616
310
1616347F807F7F7F7F8033171716171617171616161672FFFFFFFFFFFFFFFF9C
310
171617171617161716161617FFFFFFFFFFFFFF4117161616174E17FFFFFFFFFF
310
16BAFFFFFFFFFFFFFFFFFF9B16DAFFFFFF34169BFFFFFF5A26FFB917FFFFFFFF
310
7F4EFFFFFFEA5B26FFFFFFEA2616EAFFFFFFFFDA743416331617414E4E4E4ECA
310
0000FFFFFFFFFFFFBA161716161616FFFFFFFFFFBA17171616164EFFFFFFFFFF
310
FFFF4E16161717174E161717171626EBFFFFFFFFFFFFFF4E16161617165B1616
310
16171617FFFFFFFFFFFFFF6716161616161617FFFFFFFFFF16BAFFFFFFFFFFFF
310
FFFFFFEA268CFFFFFF7316EAFFFFEB1774FFB916FFFFFFFF7F4EFFFFFFFF7316
310
FFFFFFFF6826FFFFFFFFEB264D9CEABA257F807F7F6616BA0000FFFFFFFFFFFF
310
BA161716161616FFFFFFFFFFBA16171616164DFFFFFFFFFFFFFF4E1617161617
310
9B1617171717165BEBFFFFFFFFFF671616161617179B171616161616FFFFFFFF
310
FFFFFF3417161617171617FFFFFFFFFF17BAFFFFFFFFFFFFFFFFFFFF6734FFFF
310
FFEBCAFFFFFF8D17C9FFBA17FFFFFFFF7F357F808066174FFFFFFFFF7F16FFFF
310
FFFFD91673B99B415BFFFFFFFFBA16DA00009B7F7F7F807F671617161616167F
310
80807F7E6617161616164EFFFFFFFFFFFFFF4E1616161617B94E171716161616
310
349BC9D9AA4E16171616161634FF161617161717B9B9BAB9BA9B411716171716
310
163416FFFFFFFFFF16B9FFFFFFFFFFFFFFFFFFFFC917CAFFFFFFFFFFFFFF3342
310
FFFFBA17FFFFFFFF9B4E4E4F4E4E66EAFFFFFFFF5B16C9FFFFFFFFAA4E164E73
310
EAFFFFFFFF8D26FF00004E161716161616171617171616171717171617161616
310
17174EFFFFFFFFFFFFFF4E1717171616B9D92616171716171716171717171716
310
16171716AAFF161717171617161617171616161617161716166717FFFFFFFFFF
310
17B9FFFFFFFFFFFFFFFFFFFFFF3467FFFFFFFFFFFFCA168CFFFFBB17FFFFFFFF
310
FFFFFFFFFFFFFFFFFFFFFFEA26265BFFFFFFFFFFFFFFFFFFFFFFFFFFEA3467FF
310
00004D16161616161617161717161617161616171617171616164EFFFFFFFFFF
310
FFFF4D1617161616BAFF9B1616161616161716161616171717161766FFFF1616
310
16171617161617161716171616171717667F16FFFFFFFFFF17BAFFFFFFFFFFFF
310
FFFFFFFFFF8C26EAFFFFFFFFFF6617EAFFFFBA17FFFFFFFFFFFFFFFFFFFFFFFF
310
FFFFEA5A25BA269BFFFFFFFFFFFFFFFFFFFFFFFF6616DAFF00004E1616171616
310
1616161616161716161617171616171616174EFFFFFFFFFFFFFF4D1717171716
310
B9FFFF9C161616161616161716161717171667FFFFFF17161717171716161617
310
1716161616161641E97E16FFFFFFFFFF16B9FFFFFFFFFFFFFFFFFFFFFFEA169B
310
FFFFFFFFEA265BFFFFFFB916FFFFFFFFFFFFFFFFFFFFFFFFFF9B3416AAFF9B17
310
67EAFFFFFFFFFFFFFFFFEA5B169BFFFF00004D17161716161616161717171616
310
161717161716171716174EFFFFFFFFFFFFFF4D1616161616BAFFFFFFBB411616
310
161716161616171634ABFFFFFFFF161716161617171716171617171617267FFF
310
FF7F164E4E4E4E4F17BAFFFFFFFFFFFFFFFFFFFFFFFF66344D4E4E4F4117AAFF
310
FFFFBA174E4E4E4D4E4D4D4E4E4E4E4116174EBBFFFFFFCA342666ABEAFFFFEA
310
AA6725269CFFFFFF0000724F4E4D4D4D4E4D4D4E4E4E4D4E4E4E4E4E4E4E4E4D
310
4E4E74FFFFFFFFFFFFFF734E4E4E4D4ECAFFFFFFFFFFAA663416171717265B9B
310
FFFFFFFFFFFF7F8080807F80807F7F7F7F7F807FBAFFFFFFFF9B4E4E4F4D4D4E
310
4DC9FFFFFFFFFFFFFFFFFFFFFFFFBA4E4E4E4E4D4E4EFFFFFFFFC94E4E4E4F4E
310
4E4E4D4E4E5A807F9CD9FFFFFFFFFFFFFF9B5B2617171716174E8DEAFFFFFFFF
310
0000000000000000000000000000000000000000000000000000000000000000
  1
OLE
  0
ENDSEC
  0
SECTION
  2
OBJECTS
  0
DICTIONARY
  5
C
330
0
100
AcDbDictionary
281
     1
  3
ACAD_GROUP
350
D
  3
ACAD_LAYOUT
350
1A
  3
ACAD_MLINESTYLE
350
17
  3
ACAD_PLOTSETTINGS
350
19
  3
ACAD_PLOTSTYLENAME
350
E
  3
ACAD_SCALELIST
350
47
  0
DICTIONARY
  5
D
102
{ACAD_REACTORS
330
C
102
}
330
C
100
AcDbDictionary
281
     1
  0
DICTIONARY
  5
1A
102
{ACAD_REACTORS
330
C
102
}
330
C
100
AcDbDictionary
281
     1
  3
Layout1
350
1E
  3
Layout2
350
26
  3
Model
350
22
  0
DICTIONARY
  5
17
102
{ACAD_REACTORS
330
C
102
}
330
C
100
AcDbDictionary
281
     1
  3
Standard
350
18
  0
DICTIONARY
  5
19
102
{ACAD_REACTORS
330
C
102
}
330
C
100
AcDbDictionary
281
     1
  0
ACDBDICTIONARYWDFLT
  5
E
102
{ACAD_REACTORS
330
C
102
}
330
C
100
AcDbDictionary
281
     1
  3
Normal
350
F
100
AcDbDictionaryWithDefault
340
F
  0
DICTIONARY
  5
47
102
{ACAD_REACTORS
330
C
102
}
330
C
100
AcDbDictionary
281
     1
  3
A0
350
48
  3
A1
350
49
  3
A2
350
4A
  3
A3
350
4B
  3
A4
350
4C
  3
A5
350
4D
  3
A6
350
4E
  3
A7
350
4F
  3
A8
350
50
  3
A9
350
51
  3
B0
350
52
  3
B1
350
53
  3
B2
350
54
  3
B3
350
55
  3
B4
350
56
  3
B5
350
57
  3
B6
350
58
  3
B7
350
59
  3
B8
350
5A
  3
B9
350
5B
  3
C0
350
5C
  3
C1
350
5D
  3
C2
350
5E
  3
C3
350
5F
  3
C4
350
60
  3
C5
350
61
  3
C6
350
62
  3
C7
350
63
  3
C8
350
64
  3
C9
350
65
  3
D0
350
66
  3
D1
350
67
  3
D2
350
68
  0
LAYOUT
  5
1E
102
{ACAD_REACTORS
330
1A
102
}
330
1A
100
AcDbPlotSettings
  1

  2
none_device
  4

  6

 40
0.0
 41
0.0
 42
0.0
 43
0.0
 44
0.0
 45
0.0
 46
0.0
 47
0.0
 48
0.0
 49
0.0
140
0.0
141
0.0
142
1.0
143
1.0
 70
   688
 72
     1
 73
     0
 74
     5
  7

 75
    16
147
1.0
148
0.0
149
0.0
100
AcDbLayout
  1
Layout1
 70
     1
 71
     1
 10
0.0
 20
0.0
 11
420.0
 21
297.0
 12
0.0
 22
0.0
 32
0.0
 14
1.0000000000E+20
 24
1.0000000000E+20
 34
1.0000000000E+20
 15
-1.0000000000E+20
 25
-1.0000000000E+20
 35
-1.0000000000E+20
146
0.0
 13
0.0
 23
0.0
 33
0.0
 16
1.0
 26
0.0
 36
0.0
 17
0.0
 27
1.0
 37
0.0
 76
     0
330
1B
  0
LAYOUT
  5
26
102
{ACAD_REACTORS
330
1A
102
}
330
1A
100
AcDbPlotSettings
  1

  2
none_device
  4

  6

 40
0.0
 41
0.0
 42
0.0
 43
0.0
 44
0.0
 45
0.0
 46
0.0
 47
0.0
 48
0.0
 49
0.0
140
0.0
141
0.0
142
1.0
143
1.0
 70
   688
 72
     1
 73
     0
 74
     5
  7

 75
    16
147
1.0
148
0.0
149
0.0
100
AcDbLayout
  1
Layout2
 70
     1
 71
     2
 10
0.0
 20
0.0
 11
0.0
 21
0.0
 12
0.0
 22
0.0
 32
0.0
 14
0.0
 24
0.0
 34
0.0
 15
0.0
 25
0.0
 35
0.0
146
0.0
 13
0.0
 23
0.0
 33
0.0
 16
1.0
 26
0.0
 36
0.0
 17
0.0
 27
1.0
 37
0.0
 76
     0
330
23
  0
LAYOUT
  5
22
102
{ACAD_REACTORS
330
1A
102
}
330
1A
100
AcDbPlotSettings
  1

  2
none_device
  4
Letter_(8.50_x_11.00_Inches)
  6

 40
6.35
 41
6.35
 42
6.35000508
 43
6.35000508
 44
215.9
 45
279.4
 46
0.0
 47
0.0
 48
0.0
 49
0.0
140
0.0
141
0.0
142
1.0
143
1.0
 70
  1712
 72
     1
 73
     0
 74
     0
  7

 75
     0
147
1.0
148
0.0
149
0.0
100
AcDbLayout
  1
Model
 70
     1
 71
     0
 10
0.0
 20
0.0
 11
279.4
 21
215.9
 12
0.0
 22
0.0
 32
0.0
 14
0.0
 24
0.0
 34
0.0
 15
279.4
 25
215.9
 35
0.0
146
0.0
 13
0.0
 23
0.0
 33
0.0
 16
1.0
 26
0.0
 36
0.0
 17
0.0
 27
1.0
 37
0.0
 76
     0
330
1F
331
29
  0
MLINESTYLE
  5
18
102
{ACAD_REACTORS
330
17
102
}
330
17
100
AcDbMlineStyle
  2
Standard
 70
     0
  3

 62
   256
 51
90.0
 52
90.0
 71
     2
 49
0.5
 62
   256
  6
BYLAYER
 49
-0.5
 62
   256
  6
BYLAYER
  0
ACDBPLACEHOLDER
  5
F
102
{ACAD_REACTORS
330
E
102
}
330
E
  0
SCALE
  5
48
102
{ACAD_REACTORS
330
47
102
}
330
47
100
AcDbScale
 70
     0
300
1:1
140
1.0
141
1.0
290
     1
  0
SCALE
  5
49
102
{ACAD_REACTORS
330
47
102
}
330
47
100
AcDbScale
 70
     0
300
1:2
140
1.0
141
2.0
290
     0
  0
SCALE
  5
4A
102
{ACAD_REACTORS
330
47
102
}
330
47
100
AcDbScale
 70
     0
300
1:4
140
1.0
141
4.0
290
     0
  0
SCALE
  5
4B
102
{ACAD_REACTORS
330
47
102
}
330
47
100
AcDbScale
 70
     0
300
1:5
140
1.0
141
5.0
290
     0
  0
SCALE
  5
4C
102
{ACAD_REACTORS
330
47
102
}
330
47
100
AcDbScale
 70
     0
300
1:8
140
1.0
141
8.0
290
     0
  0
SCALE
  5
4D
102
{ACAD_REACTORS
330
47
102
}
330
47
100
AcDbScale
 70
     0
300
1:10
140
1.0
141
10.0
290
     0
  0
SCALE
  5
4E
102
{ACAD_REACTORS
330
47
102
}
330
47
100
AcDbScale
 70
     0
300
1:16
140
1.0
141
16.0
290
     0
  0
SCALE
  5
4F
102
{ACAD_REACTORS
330
47
102
}
330
47
100
AcDbScale
 70
     0
300
1:20
140
1.0
141
20.0
290
     0
  0
SCALE
  5
50
102
{ACAD_REACTORS
330
47
102
}
330
47
100
AcDbScale
 70
     0
300
1:30
140
1.0
141
30.0
290
     0
  0
SCALE
  5
51
102
{ACAD_REACTORS
330
47
102
}
330
47
100
AcDbScale
 70
     0
300
1:40
140
1.0
141
40.0
290
     0
  0
SCALE
  5
52
102
{ACAD_REACTORS
330
47
102
}
330
47
100
AcDbScale
 70
     0
300
1:50
140
1.0
141
50.0
290
     0
  0
SCALE
  5
53
102
{ACAD_REACTORS
330
47
102
}
330
47
100
AcDbScale
 70
     0
300
1:100
140
1.0
141
100.0
290
     0
  0
SCALE
  5
54
102
{ACAD_REACTORS
330
47
102
}
330
47
100
AcDbScale
 70
     0
300
2:1
140
2.0
141
1.0
290
     0
  0
SCALE
  5
55
102
{ACAD_REACTORS
330
47
102
}
330
47
100
AcDbScale
 70
     0
300
4:1
140
4.0
141
1.0
290
     0
  0
SCALE
  5
56
102
{ACAD_REACTORS
330
47
102
}
330
47
100
AcDbScale
 70
     0
300
8:1
140
8.0
141
1.0
290
     0
  0
SCALE
  5
57
102
{ACAD_REACTORS
330
47
102
}
330
47
100
AcDbScale
 70
     0
300
10:1
140
10.0
141
1.0
290
     0
  0
SCALE
  5
58
102
{ACAD_REACTORS
330
47
102
}
330
47
100
AcDbScale
 70
     0
300
100:1
140
100.0
141
1.0
290
     0
  0
SCALE
  5
59
102
{ACAD_REACTORS
330
47
102
}
330
47
100
AcDbScale
 70
     0
300
1/128" = 1'-0"
140
0.0078125
141
12.0
290
     0
  0
SCALE
  5
5A
102
{ACAD_REACTORS
330
47
102
}
330
47
100
AcDbScale
 70
     0
300
1/64" = 1'-0"
140
0.015625
141
12.0
290
     0
  0
SCALE
  5
5B
102
{ACAD_REACTORS
330
47
102
}
330
47
100
AcDbScale
 70
     0
300
1/32" = 1'-0"
140
0.03125
141
12.0
290
     0
  0
SCALE
  5
5C
102
{ACAD_REACTORS
330
47
102
}
330
47
100
AcDbScale
 70
     0
300
1/16" = 1'-0"
140
0.0625
141
12.0
290
     0
  0
SCALE
  5
5D
102
{ACAD_REACTORS
330
47
102
}
330
47
100
AcDbScale
 70
     0
300
3/32" = 1'-0"
140
0.09375
141
12.0
290
     0
  0
SCALE
  5
5E
102
{ACAD_REACTORS
330
47
102
}
330
47
100
AcDbScale
 70
     0
300
1/8" = 1'-0"
140
0.125
141
12.0
290
     0
  0
SCALE
  5
5F
102
{ACAD_REACTORS
330
47
102
}
330
47
100
AcDbScale
 70
     0
300
3/16" = 1'-0"
140
0.1875
141
12.0
290
     0
  0
SCALE
  5
60
102
{ACAD_REACTORS
330
47
102
}
330
47
100
AcDbScale
 70
     0
300
1/4" = 1'-0"
140
0.25
141
12.0
290
     0
  0
SCALE
  5
61
102
{ACAD_REACTORS
330
47
102
}
330
47
100
AcDbScale
 70
     0
300
3/8" = 1'-0"
140
0.375
141
12.0
290
     0
  0
SCALE
  5
62
102
{ACAD_REACTORS
330
47
102
}
330
47
100
AcDbScale
 70
     0
300
1/2" = 1'-0"
140
0.5
141
12.0
290
     0
  0
SCALE
  5
63
102
{ACAD_REACTORS
330
47
102
}
330
47
100
AcDbScale
 70
     0
300
3/4" = 1'-0"
140
0.75
141
12.0
290
     0
  0
SCALE
  5
64
102
{ACAD_REACTORS
330
47
102
}
330
47
100
AcDbScale
 70
     0
300
1" = 1'-0"
140
1.0
141
12.0
290
     0
  0
SCALE
  5
65
102
{ACAD_REACTORS
330
47
102
}
330
47
100
AcDbScale
 70
     0
300
1-1/2" = 1'-0"
140
1.5
141
12.0
290
     0
  0
SCALE
  5
66
102
{ACAD_REACTORS
330
47
102
}
330
47
100
AcDbScale
 70
     0
300
3" = 1'-0"
140
3.0
141
12.0
290
     0
  0
SCALE
  5
67
102
{ACAD_REACTORS
330
47
102
}
330
47
100
AcDbScale
 70
     0
300
6" = 1'-0"
140
6.0
141
12.0
290
     0
  0
SCALE
  5
68
102
{ACAD_REACTORS
330
47
102
}
330
47
100
AcDbScale
 70
     0
300
1'-0" = 1'-0"
140
12.0
141
12.0
290
     0
  0
ENDSEC
  0
EOF
