  0
SECTION
  2
HEADER
  9
$ACADVER
  1
AC1015
  9
$ACADMAINTVER
 70
     6
  9
$DWGCODEPAGE
  3
ANSI_1252
  9
$INSBASE
 10
0.0
 20
0.0
 30
0.0
  9
$EXTMIN
 10
0.0
 20
0.0
 30
0.0
  9
$EXTMAX
 10
279.4
 20
215.9
 30
0.0
  9
$LIMMIN
 10
0.0
 20
0.0
  9
$LIMMAX
 10
279.4
 20
215.9
  9
$ORTHOMODE
 70
     0
  9
$REGENMODE
 70
     1
  9
$FILLMODE
 70
     1
  9
$QTEXTMODE
 70
     0
  9
$MIRRTEXT
 70
     1
  9
$LTSCALE
 40
1.0
  9
$ATTMODE
 70
     1
  9
$TEXTSIZE
 40
2.8222222222
  9
$TRACEWID
 40
1.0
  9
$TEXTSTYLE
  7
Standard
  9
$CLAYER
  8
0
  9
$CELTYPE
  6
ByLayer
  9
$CECOLOR
 62
   256
  9
$CELTSCALE
 40
1.0
  9
$DISPSILH
 70
     0
  9
$DIMSCALE
 40
1.0
  9
$DIMASZ
 40
3.175
  9
$DIMEXO
 40
1.27
  9
$DIMDLI
 40
3.75
  9
$DIMRND
 40
0.0
  9
$DIMDLE
 40
0.0
  9
$DIMEXE
 40
1.778
  9
$DIMTP
 40
0.0
  9
$DIMTM
 40
0.0
  9
$DIMTXT
 40
2.8222222222
  9
$DIMCEN
 40
2.5
  9
$DIMTSZ
 40
0.0
  9
$DIMTOL
 70
     0
  9
$DIMLIM
 70
     0
  9
$DIMTIH
 70
     1
  9
$DIMTOH
 70
     1
  9
$DIMSE1
 70
     0
  9
$DIMSE2
 70
     0
  9
$DIMTAD
 70
     1
  9
$DIMZIN
 70
     1
  9
$DIMBLK
  1

  9
$DIMASO
 70
     1
  9
$DIMSHO
 70
     1
  9
$DIMPOST
  1

  9
$DIMAPOST
  1

  9
$DIMALT
 70
     0
  9
$DIMALTD
 70
     3
  9
$DIMALTF
 40
0.0393700787
  9
$DIMLFAC
 40
1.0
  9
$DIMTOFL
 70
     1
  9
$DIMTVP
 40
0.0
  9
$DIMTIX
 70
     0
  9
$DIMSOXD
 70
     0
  9
$DIMSAH
 70
     0
  9
$DIMBLK1
  1

  9
$DIMBLK2
  1

  9
$DIMSTYLE
  2
ISO-25
  9
$DIMCLRD
 70
     0
  9
$DIMCLRE
 70
     0
  9
$DIMCLRT
 70
     0
  9
$DIMTFAC
 40
1.0
  9
$DIMGAP
 40
2.54
  9
$DIMJUST
 70
     0
  9
$DIMSD1
 70
     0
  9
$DIMSD2
 70
     0
  9
$DIMTOLJ
 70
     0
  9
$DIMTZIN
 70
     1
  9
$DIMALTZ
 70
     0
  9
$DIMALTTZ
 70
     0
  9
$DIMUPT
 70
     0
  9
$DIMDEC
 70
     1
  9
$DIMTDEC
 70
     1
  9
$DIMALTU
 70
     2
  9
$DIMALTTD
 70
     3
  9
$DIMTXSTY
  7
Standard
  9
$DIMAUNIT
 70
     0
  9
$DIMADEC
 70
     0
  9
$DIMALTRND
 40
0.0
  9
$DIMAZIN
 70
     0
  9
$DIMDSEP
 70
    44
  9
$DIMATFIT
 70
     3
  9
$DIMFRAC
 70
     0
  9
$DIMLDRBLK
  1

  9
$DIMLUNIT
 70
     2
  9
$DIMLWD
 70
    -2
  9
$DIMLWE
 70
    -2
  9
$DIMTMOVE
 70
     0
  9
$LUNITS
 70
     2
  9
$LUPREC
 70
     1
  9
$SKETCHINC
 40
1.0
  9
$FILLETRAD
 40
10.0
  9
$AUNITS
 70
     0
  9
$AUPREC
 70
     0
  9
$MENU
  1
.
  9
$ELEVATION
 40
0.0
  9
$PELEVATION
 40
0.0
  9
$THICKNESS
 40
0.0
  9
$LIMCHECK
 70
     0
  9
$CHAMFERA
 40
10.0
  9
$CHAMFERB
 40
10.0
  9
$CHAMFERC
 40
20.0
  9
$CHAMFERD
 40
0.0
  9
$SKPOLY
 70
     0
  9
$TDCREATE
 40
2456244.562465289
  9
$TDUCREATE
 40
2456244.770798623
  9
$TDUPDATE
 40
2456244.562465301
  9
$TDUUPDATE
 40
2456244.770798634
  9
$TDINDWG
 40
0.0000000116
  9
$TDUSRTIMER
 40
0.0000000116
  9
$USRTIMER
 70
     1
  9
$ANGBASE
 50
0.0
  9
$ANGDIR
 70
     0
  9
$PDMODE
 70
     0
  9
$PDSIZE
 40
-1.0
  9
$PLINEWID
 40
0.0
  9
$SPLFRAME
 70
     0
  9
$SPLINETYPE
 70
     6
  9
$SPLINESEGS
 70
     8
  9
$HANDSEED
  5
22A
  9
$SURFTAB1
 70
     6
  9
$SURFTAB2
 70
     6
  9
$SURFTYPE
 70
     6
  9
$SURFU
 70
     6
  9
$SURFV
 70
     6
  9
$UCSBASE
  2

  9
$UCSNAME
  2

  9
$UCSORG
 10
0.0
 20
0.0
 30
0.0
  9
$UCSXDIR
 10
1.0
 20
0.0
 30
0.0
  9
$UCSYDIR
 10
0.0
 20
1.0
 30
0.0
  9
$UCSORTHOREF
  2

  9
$UCSORTHOVIEW
 70
     0
  9
$UCSORGTOP
 10
0.0
 20
0.0
 30
0.0
  9
$UCSORGBOTTOM
 10
0.0
 20
0.0
 30
0.0
  9
$UCSORGLEFT
 10
0.0
 20
0.0
 30
0.0
  9
$UCSORGRIGHT
 10
0.0
 20
0.0
 30
0.0
  9
$UCSORGFRONT
 10
0.0
 20
0.0
 30
0.0
  9
$UCSORGBACK
 10
0.0
 20
0.0
 30
0.0
  9
$PUCSBASE
  2

  9
$PUCSNAME
  2

  9
$PUCSORG
 10
0.0
 20
0.0
 30
0.0
  9
$PUCSXDIR
 10
1.0
 20
0.0
 30
0.0
  9
$PUCSYDIR
 10
0.0
 20
1.0
 30
0.0
  9
$PUCSORTHOREF
  2

  9
$PUCSORTHOVIEW
 70
     0
  9
$PUCSORGTOP
 10
0.0
 20
0.0
 30
0.0
  9
$PUCSORGBOTTOM
 10
0.0
 20
0.0
 30
0.0
  9
$PUCSORGLEFT
 10
0.0
 20
0.0
 30
0.0
  9
$PUCSORGRIGHT
 10
0.0
 20
0.0
 30
0.0
  9
$PUCSORGFRONT
 10
0.0
 20
0.0
 30
0.0
  9
$PUCSORGBACK
 10
0.0
 20
0.0
 30
0.0
  9
$USERI1
 70
     0
  9
$USERI2
 70
     0
  9
$USERI3
 70
     0
  9
$USERI4
 70
     0
  9
$USERI5
 70
     0
  9
$USERR1
 40
0.0
  9
$USERR2
 40
0.0
  9
$USERR3
 40
0.0
  9
$USERR4
 40
0.0
  9
$USERR5
 40
0.0
  9
$WORLDVIEW
 70
     1
  9
$SHADEDGE
 70
     3
  9
$SHADEDIF
 70
    70
  9
$TILEMODE
 70
     1
  9
$MAXACTVP
 70
    64
  9
$PINSBASE
 10
0.0
 20
0.0
 30
0.0
  9
$PLIMCHECK
 70
     0
  9
$PEXTMIN
 10
1.0000000000E+20
 20
1.0000000000E+20
 30
1.0000000000E+20
  9
$PEXTMAX
 10
-1.0000000000E+20
 20
-1.0000000000E+20
 30
-1.0000000000E+20
  9
$PLIMMIN
 10
0.0
 20
0.0
  9
$PLIMMAX
 10
420.0
 20
297.0
  9
$UNITMODE
 70
     0
  9
$VISRETAIN
 70
     1
  9
$PLINEGEN
 70
     0
  9
$PSLTSCALE
 70
     1
  9
$TREEDEPTH
 70
  3020
  9
$CMLSTYLE
  2
Standard
  9
$CMLJUST
 70
     0
  9
$CMLSCALE
 40
20.0
  9
$PROXYGRAPHICS
 70
     1
  9
$MEASUREMENT
 70
     1
  9
$CELWEIGHT
370
    -1
  9
$ENDCAPS
280
     0
  9
$JOINSTYLE
280
     0
  9
$LWDISPLAY
290
     1
  9
$INSUNITS
 70
     4
  9
$HYPERLINKBASE
  1

  9
$STYLESHEET
  1

  9
$XEDIT
290
     1
  9
$CEPSNTYPE
380
     0
  9
$PSTYLEMODE
290
     1
  9
$FINGERPRINTGUID
  2
{CF9F97EA-1B09-4AB2-A6E7-437C7351FCFC}
  9
$VERSIONGUID
  2
{FAEB1C32-E019-11D5-929B-00C0DF256EC4}
  9
$EXTNAMES
290
     1
  9
$PSVPSCALE
 40
0.0
  9
$OLESTARTUP
290
     0
  0
ENDSEC
  0
SECTION
  2
CLASSES
  0
CLASS
  1
ACDBDICTIONARYWDFLT
  2
AcDbDictionaryWithDefault
  3
ObjectDBX Classes
 90
        0
280
     0
281
     0
  0
CLASS
  1
VISUALSTYLE
  2
AcDbVisualStyle
  3
ObjectDBX Classes
 90
     4095
280
     0
281
     0
  0
CLASS
  1
MATERIAL
  2
AcDbMaterial
  3
ObjectDBX Classes
 90
     1153
280
     0
281
     0
  0
CLASS
  1
ACDBPLACEHOLDER
  2
AcDbPlaceHolder
  3
ObjectDBX Classes
 90
        0
280
     0
281
     0
  0
CLASS
  1
LAYOUT
  2
AcDbLayout
  3
ObjectDBX Classes
 90
        0
280
     0
281
     0
  0
ENDSEC
  0
SECTION
  2
TABLES
  0
TABLE
  2
VPORT
  5
8
330
0
100
AcDbSymbolTable
 70
     1
  0
VPORT
  5
29
330
8
100
AcDbSymbolTableRecord
100
AcDbViewportTableRecord
  2
*Active
 70
     0
 10
0.0
 20
0.0
 11
1.0
 21
1.0
 12
139.7
 22
107.95
 13
0.0
 23
0.0
 14
10.0
 24
10.0
 15
10.0
 25
10.0
 16
0.0
 26
0.0
 36
1.0
 17
0.0
 27
0.0
 37
0.0
 40
215.9
 41
1.2941176471
 42
50.0
 43
0.0
 44
0.0
 50
0.0
 51
0.0
 71
     0
 72
  2000
 73
     1
 74
     3
 75
     0
 76
     0
 77
     0
 78
     0
281
     0
 65
     1
110
0.0
120
0.0
130
0.0
111
1.0
121
0.0
131
0.0
112
0.0
122
1.0
132
0.0
 79
     0
146
0.0
  0
ENDTAB
  0
TABLE
  2
LTYPE
  5
5
330
0
100
AcDbSymbolTable
 70
     6
  0
LTYPE
  5
14
330
5
100
AcDbSymbolTableRecord
100
AcDbLinetypeTableRecord
  2
ByBlock
 70
     0
  3

 72
    65
 73
     0
 40
0.0
  0
LTYPE
  5
15
330
5
100
AcDbSymbolTableRecord
100
AcDbLinetypeTableRecord
  2
ByLayer
 70
     0
  3

 72
    65
 73
     0
 40
0.0
  0
LTYPE
  5
16
330
5
100
AcDbSymbolTableRecord
100
AcDbLinetypeTableRecord
  2
Continuous
 70
     0
  3
Solid line
 72
    65
 73
     0
 40
0.0
  0
LTYPE
  5
3F
330
5
100
AcDbSymbolTableRecord
100
AcDbLinetypeTableRecord
  2
HIDDEN
 70
     0
  3
Hidden __ __ __ __ __ __ __ __ __ __ __ __ __ __
 72
    65
 73
     2
 40
1.905
 49
1.27
 74
     0
 49
-0.635
 74
     0
  0
LTYPE
  5
40
330
5
100
AcDbSymbolTableRecord
100
AcDbLinetypeTableRecord
  2
PHANTOM
 70
     0
  3
Phantom ______  __  __  ______  __  __  ______
 72
    65
 73
     6
 40
12.7
 49
6.35
 74
     0
 49
-1.27
 74
     0
 49
1.27
 74
     0
 49
-1.27
 74
     0
 49
1.27
 74
     0
 49
-1.27
 74
     0
  0
LTYPE
  5
41
330
5
100
AcDbSymbolTableRecord
100
AcDbLinetypeTableRecord
  2
CENTER
 70
     0
  3
Center ____ _ ____ _ ____ _ ____ _ ____ _ ____
 72
    65
 73
     4
 40
10.16
 49
6.35
 74
     0
 49
-1.27
 74
     0
 49
1.27
 74
     0
 49
-1.27
 74
     0
  0
LTYPE
  5
42
330
5
100
AcDbSymbolTableRecord
100
AcDbLinetypeTableRecord
  2
CENTERX2
 70
     0
  3
Center (2x) ________  __  ________  __  _____
 72
    65
 73
     4
 40
20.32
 49
12.7
 74
     0
 49
-2.54
 74
     0
 49
2.54
 74
     0
 49
-2.54
 74
     0
  0
LTYPE
  5
43
330
5
100
AcDbSymbolTableRecord
100
AcDbLinetypeTableRecord
  2
DOT2
 70
     0
  3
Dot (.5x) ........................................
 72
    65
 73
     2
 40
0.635
 49
0.0
 74
     0
 49
-0.635
 74
     0
  0
ENDTAB
  0
TABLE
  2
LAYER
  5
2
330
0
100
AcDbSymbolTable
 70
     2
  0
LAYER
  5
10
330
2
100
AcDbSymbolTableRecord
100
AcDbLayerTableRecord
  2
0
 70
     0
 62
     7
  6
Continuous
370
    -3
390
F
  0
LAYER
  5
44
330
2
100
AcDbSymbolTableRecord
100
AcDbLayerTableRecord
  2
FORMAT
 70
     0
 62
     7
  6
Continuous
370
    -3
390
F
  0
ENDTAB
  0
TABLE
  2
STYLE
  5
3
330
0
100
AcDbSymbolTable
 70
     5
  0
STYLE
  5
11
330
3
100
AcDbSymbolTableRecord
100
AcDbTextStyleTableRecord
  2
Standard
 70
     0
 40
0.0
 41
1.0
 50
0.0
 71
     0
 42
2.5
  3
txt
  4

  0
STYLE
  5
6B
330
3
100
AcDbSymbolTableRecord
100
AcDbTextStyleTableRecord
  2
SLDTEXTSTYLE0
 70
     0
 40
0.0
 41
0.75
 50
0.0
 71
     0
 42
0.2
  3
TXT
  4

  0
STYLE
  5
75
330
3
100
AcDbSymbolTableRecord
100
AcDbTextStyleTableRecord
  2
SLDTEXTSTYLE1
 70
     0
 40
0.0
 41
0.6
 50
0.0
 71
     0
 42
0.2
  3
TXT
  4

  0
STYLE
  5
9E
330
3
100
AcDbSymbolTableRecord
100
AcDbTextStyleTableRecord
  2
SLDTEXTSTYLE2
 70
     0
 40
0.0
 41
0.75
 50
0.0
 71
     0
 42
0.2
  3
TXT
  4
bigfont
  0
STYLE
  5
B3
330
3
100
AcDbSymbolTableRecord
100
AcDbTextStyleTableRecord
  2
SLDTEXTSTYLE3
 70
     0
 40
0.0
 41
0.7
 50
0.0
 71
     0
 42
0.2
  3
TXT
  4

  0
ENDTAB
  0
TABLE
  2
VIEW
  5
6
330
0
100
AcDbSymbolTable
 70
     0
  0
ENDTAB
  0
TABLE
  2
UCS
  5
7
330
0
100
AcDbSymbolTable
 70
     0
  0
ENDTAB
  0
TABLE
  2
APPID
  5
9
330
0
100
AcDbSymbolTable
 70
     1
  0
APPID
  5
12
330
9
100
AcDbSymbolTableRecord
100
AcDbRegAppTableRecord
  2
ACAD
 70
     0
  0
ENDTAB
  0
TABLE
  2
DIMSTYLE
  5
A
330
0
100
AcDbSymbolTable
 70
     5
100
AcDbDimStyleTable
  0
DIMSTYLE
105
27
330
A
100
AcDbSymbolTableRecord
100
AcDbDimStyleTableRecord
  2
ISO-25
 70
     0
 41
2.5
 42
0.625
 43
3.75
 44
1.25
 73
     0
 74
     0
 77
     1
 78
     8
140
2.5
141
2.5
143
0.0393700787
147
0.625
171
     3
172
     1
178
     0
271
     2
272
     2
274
     3
278
    44
283
     0
284
     8
340
11
  0
DIMSTYLE
105
C0
102
{ACAD_REACTORS
330
BF
102
}
330
A
100
AcDbSymbolTableRecord
100
AcDbDimStyleTableRecord
  2
SLDDIMSTYLE0
 70
     0
 41
3.175
 44
0.0
 45
0.000000001
 78
    12
 79
     3
140
2.1166666667
141
0.0
143
0.0393700787
147
0.5291666667
148
0.000000001
170
     1
173
     1
178
     0
271
     1
272
     1
276
     2
284
    12
340
6B
  0
DIMSTYLE
105
1F1
102
{ACAD_REACTORS
330
1F0
102
}
330
A
100
AcDbSymbolTableRecord
100
AcDbDimStyleTableRecord
  2
SLDDIMSTYLE1
 70
     0
 41
3.175
 44
0.0
 45
0.000000001
 78
     4
 79
     1
140
2.1166666667
141
0.0
143
0.0393700787
147
0.5291666667
148
0.000000001
170
     1
173
     1
178
     0
271
     1
272
     1
276
     2
284
    12
340
6B
  0
DIMSTYLE
105
202
102
{ACAD_REACTORS
330
201
102
}
330
A
100
AcDbSymbolTableRecord
100
AcDbDimStyleTableRecord
  2
SLDDIMSTYLE2
 70
     0
 41
3.175
 44
0.0
 45
0.000000001
 78
     4
 79
     1
140
2.1166666667
143
0.0393700787
147
0.5291666667
148
0.000000001
170
     1
172
     1
173
     1
178
     0
271
     1
272
     1
276
     2
284
    12
289
     0
340
6B
  0
DIMSTYLE
105
215
102
{ACAD_REACTORS
330
214
102
}
330
A
100
AcDbSymbolTableRecord
100
AcDbDimStyleTableRecord
  2
SLDDIMSTYLE3
 70
     0
 41
3.175
 44
0.0
 45
0.000000001
 78
    12
 79
     3
140
2.1166666667
143
0.0393700787
147
0.5291666667
148
0.000000001
170
     1
172
     1
173
     1
178
     0
271
     1
272
     1
276
     2
284
    12
289
     0
340
6B
  0
ENDTAB
  0
TABLE
  2
BLOCK_RECORD
  5
1
330
0
100
AcDbSymbolTable
 70
    12
  0
BLOCK_RECORD
  5
1F
330
1
100
AcDbSymbolTableRecord
100
AcDbBlockTableRecord
  2
*Model_Space
340
22
  0
BLOCK_RECORD
  5
1B
330
1
100
AcDbSymbolTableRecord
100
AcDbBlockTableRecord
  2
*Paper_Space
340
1E
  0
BLOCK_RECORD
  5
23
330
1
100
AcDbSymbolTableRecord
100
AcDbBlockTableRecord
  2
*Paper_Space0
340
26
  0
BLOCK_RECORD
  5
45
330
1
100
AcDbSymbolTableRecord
100
AcDbBlockTableRecord
  2
Third Angle Projection Block
340
0
102
{BLKREFS
331
6A
102
}
  0
BLOCK_RECORD
  5
7B
330
1
100
AcDbSymbolTableRecord
100
AcDbBlockTableRecord
  2
SW_NOTE_0
340
0
102
{BLKREFS
331
80
102
}
  0
BLOCK_RECORD
  5
81
330
1
100
AcDbSymbolTableRecord
100
AcDbBlockTableRecord
  2
SW_NOTE_1
340
0
102
{BLKREFS
331
86
102
}
  0
BLOCK_RECORD
  5
88
330
1
100
AcDbSymbolTableRecord
100
AcDbBlockTableRecord
  2
SW_NOTE_2
340
0
102
{BLKREFS
331
8D
102
}
  0
BLOCK_RECORD
  5
8F
330
1
100
AcDbSymbolTableRecord
100
AcDbBlockTableRecord
  2
SW_NOTE_3
340
0
102
{BLKREFS
331
95
102
}
  0
BLOCK_RECORD
  5
96
330
1
100
AcDbSymbolTableRecord
100
AcDbBlockTableRecord
  2
SW_NOTE_4
340
0
102
{BLKREFS
331
BA
102
}
  0
BLOCK_RECORD
  5
C1
330
1
100
AcDbSymbolTableRecord
100
AcDbBlockTableRecord
  2
*D7
340
0
  0
BLOCK_RECORD
  5
D0
330
1
100
AcDbSymbolTableRecord
100
AcDbBlockTableRecord
  2
SW_CENTERMARKSYMBOL_0
340
0
102
{BLKREFS
331
D7
102
}
  0
BLOCK_RECORD
  5
1F2
330
1
100
AcDbSymbolTableRecord
100
AcDbBlockTableRecord
  2
*D9
340
0
  0
BLOCK_RECORD
  5
203
330
1
100
AcDbSymbolTableRecord
100
AcDbBlockTableRecord
  2
*D10
340
0
  0
BLOCK_RECORD
  5
216
330
1
100
AcDbSymbolTableRecord
100
AcDbBlockTableRecord
  2
*D11
340
0
  0
ENDTAB
  0
ENDSEC
  0
SECTION
  2
BLOCKS
  0
BLOCK
  5
20
330
1F
100
AcDbEntity
  8
0
100
AcDbBlockBegin
  2
*Model_Space
 70
     0
 10
0.0
 20
0.0
 30
0.0
  3
*Model_Space
  1

  0
ENDBLK
  5
21
330
1F
100
AcDbEntity
  8
0
100
AcDbBlockEnd
  0
BLOCK
  5
1C
330
1B
100
AcDbEntity
 67
     1
  8
0
100
AcDbBlockBegin
  2
*Paper_Space
 70
     0
 10
0.0
 20
0.0
 30
0.0
  3
*Paper_Space
  1

  0
ENDBLK
  5
1D
330
1B
100
AcDbEntity
 67
     1
  8
0
100
AcDbBlockEnd
  0
BLOCK
  5
24
330
23
100
AcDbEntity
  8
0
100
AcDbBlockBegin
  2
*Paper_Space0
 70
     0
 10
0.0
 20
0.0
 30
0.0
  3
*Paper_Space0
  1

  0
ENDBLK
  5
25
330
23
100
AcDbEntity
  8
0
100
AcDbBlockEnd
  0
BLOCK
  5
46
330
45
100
AcDbEntity
  8
0
100
AcDbBlockBegin
  2
Third Angle Projection Block
 70
     0
 10
0.0
 20
0.0
 30
0.0
  3
Third Angle Projection Block
  1

  0
CIRCLE
  5
48
330
45
100
AcDbEntity
  8
0
  6
Continuous
 62
     7
370
    30
100
AcDbCircle
 10
101.4766388944
 20
18.9404083667
 30
0.0
 40
1.768227153674871
  0
CIRCLE
  5
49
330
45
100
AcDbEntity
  8
0
  6
Continuous
 62
     7
370
    30
100
AcDbCircle
 10
101.4766388944
 20
18.9404083667
 30
0.0
 40
3.901228248531818
  0
LINE
  5
4A
330
45
100
AcDbEntity
  8
0
  6
CENTERX2
 62
     7
370
     0
100
AcDbLine
 10
110.1367822585
 20
18.9404083667
 30
0.0
 11
119.4527334874
 21
18.9404083667
 31
0.0
  0
LINE
  5
4B
330
45
100
AcDbEntity
  8
0
  6
Continuous
 62
     7
370
    30
100
AcDbLine
 10
111.0016388944
 20
20.7086355204
 30
0.0
 11
111.0016388944
 21
17.172181213
 31
0.0
  0
LINE
  5
4C
330
45
100
AcDbEntity
  8
0
  6
Continuous
 62
     7
370
    30
100
AcDbLine
 10
111.0016388944
 20
17.172181213
 30
0.0
 11
118.6216388944
 21
15.1304083667
 31
0.0
  0
LINE
  5
4D
330
45
100
AcDbEntity
  8
0
  6
Continuous
 62
     7
370
    30
100
AcDbLine
 10
118.6216388944
 20
15.1304083667
 30
0.0
 11
118.6216388944
 21
22.7504083667
 31
0.0
  0
LINE
  5
4E
330
45
100
AcDbEntity
  8
0
  6
Continuous
 62
     7
370
    30
100
AcDbLine
 10
118.6216388944
 20
22.7504083667
 30
0.0
 11
111.0016388944
 21
20.7086355204
 31
0.0
  0
LINE
  5
4F
330
45
100
AcDbEntity
  8
0
  6
CENTERX2
 62
     7
370
     0
100
AcDbLine
 10
96.6025854619
 20
18.9404083667
 30
0.0
 11
106.3506923269
 21
18.9404083667
 31
0.0
  0
LINE
  5
50
330
45
100
AcDbEntity
  8
0
  6
CENTERX2
 62
     7
370
     0
100
AcDbLine
 10
101.4766388944
 20
23.8144617992
 30
0.0
 11
101.4766388944
 21
14.0663549342
 31
0.0
  0
POINT
  5
51
330
45
100
AcDbEntity
  8
0
  6
Continuous
 62
     7
370
     0
100
AcDbPoint
 10
101.4766388944
 20
18.9404083667
 30
0.0
  0
ENDBLK
  5
47
330
45
100
AcDbEntity
  8
0
100
AcDbBlockEnd
  0
BLOCK
  5
7C
330
7B
100
AcDbEntity
  8
0
100
AcDbBlockBegin
  2
SW_NOTE_0
 70
     0
 10
0.0
 20
0.0
 30
0.0
  3
SW_NOTE_0
  1

  0
MTEXT
  5
7E
330
7B
100
AcDbEntity
  8
0
  6
Continuous
 62
     0
370
     0
100
AcDbMText
 10
19.90725
 20
1.9645392354
 30
0.0
 40
1.524
 41
0.0
 71
     2
 72
     1
  1
VALUES IN PARENTHESIS ARE CALCULATED
  7
SLDTEXTSTYLE0
 73
     1
 44
1.0
  0
MTEXT
  5
7F
330
7B
100
AcDbEntity
  8
0
  6
Continuous
 62
     0
370
     0
100
AcDbMText
 10
19.8778795174
 20
-0.5594606586
 30
0.0
 40
1.524
 41
0.0
 71
     2
 72
     1
  1
AND MAY CONTAIN ROUNDOFF ERRORS
  7
SLDTEXTSTYLE0
 73
     1
 44
1.0
  0
ENDBLK
  5
7D
330
7B
100
AcDbEntity
  8
0
100
AcDbBlockEnd
  0
BLOCK
  5
82
330
81
100
AcDbEntity
  8
0
100
AcDbBlockBegin
  2
SW_NOTE_1
 70
     0
 10
0.0
 20
0.0
 30
0.0
  3
SW_NOTE_1
  1

  0
MTEXT
  5
84
330
81
100
AcDbEntity
  8
0
  6
Continuous
 62
     0
370
     0
100
AcDbMText
 10
0.0
 20
2.7285267159
 30
0.0
 40
2.1166666667
 41
0.0
 71
     1
 72
     1
  1
DRAWING
  7
SLDTEXTSTYLE0
 73
     1
 44
1.0
  0
MTEXT
  5
85
330
81
100
AcDbEntity
  8
0
  6
Continuous
 62
     0
370
     0
100
AcDbMText
 10
0.0
 20
-0.0936954723
 30
0.0
 40
2.1166666667
 41
0.0
 71
     1
 72
     1
  1
PROJECTION
  7
SLDTEXTSTYLE0
 73
     1
 44
1.0
  0
ENDBLK
  5
83
330
81
100
AcDbEntity
  8
0
100
AcDbBlockEnd
  0
BLOCK
  5
89
330
88
100
AcDbEntity
  8
0
100
AcDbBlockBegin
  2
SW_NOTE_2
 70
     0
 10
0.0
 20
0.0
 30
0.0
  3
SW_NOTE_2
  1

  0
MTEXT
  5
8B
330
88
100
AcDbEntity
  8
0
  6
Continuous
 62
     0
370
     0
100
AcDbMText
 10
25.052734375
 20
4.0927900738
 30
0.0
 40
3.175
 41
0.0
 71
     2
 72
     1
  1
FOR INFORMATION ONLY
  7
SLDTEXTSTYLE0
 73
     1
 44
1.0
  0
MTEXT
  5
8C
330
88
100
AcDbEntity
  8
0
  6
Continuous
 62
     0
370
     0
100
AcDbMText
 10
25.3768468589
 20
-0.1405432084
 30
0.0
 40
3.175
 41
0.0
 71
     2
 72
     1
  1
NOT FOR MANUFACTURING PURPOSES
  7
SLDTEXTSTYLE0
 73
     1
 44
1.0
  0
ENDBLK
  5
8A
330
88
100
AcDbEntity
  8
0
100
AcDbBlockEnd
  0
BLOCK
  5
90
330
8F
100
AcDbEntity
  8
0
100
AcDbBlockBegin
  2
SW_NOTE_3
 70
     0
 10
0.0
 20
0.0
 30
0.0
  3
SW_NOTE_3
  1

  0
MTEXT
  5
92
330
8F
100
AcDbEntity
  8
0
  6
Continuous
 62
     0
370
     0
100
AcDbMText
 10
1.9016927083
 20
3.4106583948
 30
0.0
 40
2.6458333333
 41
0.0
 71
     2
 72
     1
  1
%%c
  7
SLDTEXTSTYLE0
 73
     1
 44
1.0
  0
MTEXT
  5
93
330
8F
100
AcDbEntity
  8
0
  6
Continuous
 62
     0
370
     0
100
AcDbMText
 10
30.4934129218
 20
3.4106583948
 30
0.0
 40
2.6458333333
 41
0.0
 71
     2
 72
     1
  1
50.8mm, f= 100.0mm CONCAVE
  7
SLDTEXTSTYLE0
 73
     1
 44
1.0
  0
MTEXT
  5
94
330
8F
100
AcDbEntity
  8
0
  6
Continuous
 62
     0
370
     0
100
AcDbMText
 10
28.888212204
 20
-0.1171193403
 30
0.0
 40
2.6458333333
 41
0.0
 71
     2
 72
     1
  1
PROTECTED SILVER MIRROR
  7
SLDTEXTSTYLE0
 73
     1
 44
1.0
  0
ENDBLK
  5
91
330
8F
100
AcDbEntity
  8
0
100
AcDbBlockEnd
  0
BLOCK
  5
97
330
96
100
AcDbEntity
  8
0
100
AcDbBlockBegin
  2
SW_NOTE_4
 70
     0
 10
0.0
 20
0.0
 30
0.0
  3
SW_NOTE_4
  1

  0
MTEXT
  5
99
330
96
100
AcDbEntity
  8
0
  6
Continuous
 62
     0
370
     0
100
AcDbMText
 10
0.0
 20
3.0695925553
 30
0.0
 40
2.38125
 41
0.0
 71
     1
 72
     1
  1
NOTES/SPECIFICATIONS:
  7
SLDTEXTSTYLE0
 73
     1
 44
1.0
  0
MTEXT
  5
9A
330
96
100
AcDbEntity
  8
0
  6
Continuous
 62
     0
370
     0
100
AcDbMText
 10
9.9999997765
 20
-3.2804073679
 30
0.0
 40
2.38125
 41
0.0
 71
     1
 72
     1
  1
CLEAR APERTURE: >90% DIAMETER
  7
SLDTEXTSTYLE0
 73
     1
 44
1.0
  0
MTEXT
  5
9B
330
96
100
AcDbEntity
  8
0
  6
Continuous
 62
     0
370
     0
100
AcDbMText
 10
0.0
 20
-3.2804073679
 30
0.0
 40
2.38125
 41
0.0
 71
     1
 72
     1
  1
1.
  7
SLDTEXTSTYLE0
 73
     1
 44
1.0
  0
MTEXT
  5
9C
330
96
100
AcDbEntity
  8
0
  6
Continuous
 62
     0
370
     0
100
AcDbMText
 10
9.9999997765
 20
-6.5976282029
 30
0.0
 40
2.38125
 41
0.0
 71
     1
 72
     1
  1
SURFACE ACCURACY
  7
SLDTEXTSTYLE0
 73
     1
 44
1.0
  0
MTEXT
  5
9D
330
96
100
AcDbEntity
  8
0
  6
Continuous
 62
     0
370
     0
100
AcDbMText
 10
42.9582651705
 20
-6.6891910621
 30
0.0
 40
2.286
 41
0.0
 71
     1
 72
     1
  1
:
  7
SLDTEXTSTYLE0
 73
     1
 44
1.0
  0
MTEXT
  5
9F
330
96
100
AcDbEntity
  8
0
  6
Continuous
 62
     0
370
     0
100
AcDbMText
 10
44.6957833081
 20
-6.5976282029
 30
0.0
 40
2.38125
 41
0.0
 71
     1
 72
     1
  1
\M+183C9/
  7
SLDTEXTSTYLE2
 73
     1
 44
1.0
  0
MTEXT
  5
A0
330
96
100
AcDbEntity
  8
0
  6
Continuous
 62
     0
370
     0
100
AcDbMText
 10
47.7715637535
 20
-6.6891910621
 30
0.0
 40
2.286
 41
0.0
 71
     1
 72
     1
  1
4
  7
SLDTEXTSTYLE0
 73
     1
 44
1.0
  0
MTEXT
  5
A1
330
96
100
AcDbEntity
  8
0
  6
Continuous
 62
     0
370
     0
100
AcDbMText
 10
50.3052156419
 20
-6.5976282029
 30
0.0
 40
2.38125
 41
0.0
 71
     1
 72
     1
  1
AT 632.8nm OVER CLEAR APERTURE
  7
SLDTEXTSTYLE0
 73
     1
 44
1.0
  0
MTEXT
  5
A2
330
96
100
AcDbEntity
  8
0
  6
Continuous
 62
     0
370
     0
100
AcDbMText
 10
0.0
 20
-6.5976282029
 30
0.0
 40
2.38125
 41
0.0
 71
     1
 72
     1
  1
2.
  7
SLDTEXTSTYLE0
 73
     1
 44
1.0
  0
MTEXT
  5
A3
330
96
100
AcDbEntity
  8
0
  6
Continuous
 62
     0
370
     0
100
AcDbMText
 10
9.9999997765
 20
-9.7726281646
 30
0.0
 40
2.38125
 41
0.0
 71
     1
 72
     1
  1
SURFACE QUALITY: 40-20 SCRATCH-DIG
  7
SLDTEXTSTYLE0
 73
     1
 44
1.0
  0
MTEXT
  5
A4
330
96
100
AcDbEntity
  8
0
  6
Continuous
 62
     0
370
     0
100
AcDbMText
 10
0.0
 20
-9.7726281646
 30
0.0
 40
2.38125
 41
0.0
 71
     1
 72
     1
  1
3.
  7
SLDTEXTSTYLE0
 73
     1
 44
1.0
  0
MTEXT
  5
A5
330
96
100
AcDbEntity
  8
0
  6
Continuous
 62
     0
370
     0
100
AcDbMText
 10
9.9999997765
 20
-12.9476281262
 30
0.0
 40
2.38125
 41
0.0
 71
     1
 72
     1
  1
BACK SURFACE: FINE GROUND
  7
SLDTEXTSTYLE0
 73
     1
 44
1.0
  0
MTEXT
  5
A6
330
96
100
AcDbEntity
  8
0
  6
Continuous
 62
     0
370
     0
100
AcDbMText
 10
0.0
 20
-12.9476281262
 30
0.0
 40
2.38125
 41
0.0
 71
     1
 72
     1
  1
4.
  7
SLDTEXTSTYLE0
 73
     1
 44
1.0
  0
MTEXT
  5
A7
330
96
100
AcDbEntity
  8
0
  6
Continuous
 62
     0
370
     0
100
AcDbMText
 10
9.9999997765
 20
-16.1226280878
 30
0.0
 40
2.38125
 41
0.0
 71
     1
 72
     1
  1
THICKNESS TOLERANCE:
  7
SLDTEXTSTYLE0
 73
     1
 44
1.0
  0
MTEXT
  5
A8
330
96
100
AcDbEntity
  8
0
  6
Continuous
 62
     0
370
     0
100
AcDbMText
 10
46.741804108
 20
-16.1226280878
 30
0.0
 40
2.38125
 41
0.0
 71
     1
 72
     1
  1
%%p
  7
SLDTEXTSTYLE0
 73
     1
 44
1.0
  0
MTEXT
  5
A9
330
96
100
AcDbEntity
  8
0
  6
Continuous
 62
     0
370
     0
100
AcDbMText
 10
49.0119289607
 20
-16.1226280878
 30
0.0
 40
2.38125
 41
0.0
 71
     1
 72
     1
  1
0.2 mm
  7
SLDTEXTSTYLE0
 73
     1
 44
1.0
  0
MTEXT
  5
AA
330
96
100
AcDbEntity
  8
0
  6
Continuous
 62
     0
370
     0
100
AcDbMText
 10
0.0
 20
-16.1226280878
 30
0.0
 40
2.38125
 41
0.0
 71
     1
 72
     1
  1
5.
  7
SLDTEXTSTYLE0
 73
     1
 44
1.0
  0
MTEXT
  5
AB
330
96
100
AcDbEntity
  8
0
  6
Continuous
 62
     0
370
     0
100
AcDbMText
 10
9.9999997765
 20
-19.2976280495
 30
0.0
 40
2.38125
 41
0.0
 71
     1
 72
     1
  1
DIAMETER TOLERANCE: + 0.0/-0.2 mm
  7
SLDTEXTSTYLE0
 73
     1
 44
1.0
  0
MTEXT
  5
AC
330
96
100
AcDbEntity
  8
0
  6
Continuous
 62
     0
370
     0
100
AcDbMText
 10
0.0
 20
-19.2976280495
 30
0.0
 40
2.38125
 41
0.0
 71
     1
 72
     1
  1
6.
  7
SLDTEXTSTYLE0
 73
     1
 44
1.0
  0
MTEXT
  5
AD
330
96
100
AcDbEntity
  8
0
  6
Continuous
 62
     0
370
     0
100
AcDbMText
 10
9.9999997765
 20
-22.4726280111
 30
0.0
 40
2.38125
 41
0.0
 71
     1
 72
     1
  1
COATING: PROTECTED SILVER
  7
SLDTEXTSTYLE0
 73
     1
 44
1.0
  0
MTEXT
  5
AE
330
96
100
AcDbEntity
  8
0
  6
Continuous
 62
     0
370
     0
100
AcDbMText
 10
0.0
 20
-22.4726280111
 30
0.0
 40
2.38125
 41
0.0
 71
     1
 72
     1
  1
7.
  7
SLDTEXTSTYLE0
 73
     1
 44
1.0
  0
MTEXT
  5
AF
330
96
100
AcDbEntity
  8
0
  6
Continuous
 62
     0
370
     0
100
AcDbMText
 10
10.0
 20
-25.6476279727
 30
0.0
 40
2.38125
 41
0.0
 71
     1
 72
     1
  1
Ravg: >97.5% FROM 450nm - 2µm
  7
SLDTEXTSTYLE0
 73
     1
 44
1.0
  0
MTEXT
  5
B0
330
96
100
AcDbEntity
  8
0
  6
Continuous
 62
     0
370
     0
100
AcDbMText
 10
10.0
 20
-28.8226279343
 30
0.0
 40
2.38125
 41
0.0
 71
     1
 72
     1
  1
Ravg: >96% FROM 2µm - 20µm
  7
SLDTEXTSTYLE0
 73
     1
 44
1.0
  0
MTEXT
  5
B1
330
96
100
AcDbEntity
  8
0
  6
Continuous
 62
     0
370
     0
100
AcDbMText
 10
10.0
 20
-31.997627896
 30
0.0
 40
2.38125
 41
0.0
 71
     1
 72
     1
  1
AOI: 0
  7
SLDTEXTSTYLE0
 73
     1
 44
1.0
  0
MTEXT
  5
B2
330
96
100
AcDbEntity
  8
0
  6
Continuous
 62
     0
370
     0
100
AcDbMText
 10
19.344201535
 20
-31.997627896
 30
0.0
 40
2.38125
 41
0.0
 71
     1
 72
     1
  1
%%d
  7
SLDTEXTSTYLE0
 73
     1
 44
1.0
  0
MTEXT
  5
B4
330
96
100
AcDbEntity
  8
0
  6
Continuous
 62
     0
370
     0
100
AcDbMText
 10
21.7505871639
 20
-31.997627896
 30
0.0
 40
2.38125
 41
0.0
 71
     1
 72
     1
  1
TO 45
  7
SLDTEXTSTYLE3
 73
     1
 44
1.0
  0
MTEXT
  5
B5
330
96
100
AcDbEntity
  8
0
  6
Continuous
 62
     0
370
     0
100
AcDbMText
 10
30.2459171414
 20
-31.997627896
 30
0.0
 40
2.38125
 41
0.0
 71
     1
 72
     1
  1
%%d
  7
SLDTEXTSTYLE0
 73
     1
 44
1.0
  0
MTEXT
  5
B6
330
96
100
AcDbEntity
  8
0
  6
Continuous
 62
     0
370
     0
100
AcDbMText
 10
9.9999997765
 20
-35.1726278576
 30
0.0
 40
2.38125
 41
0.0
 71
     1
 72
     1
  1
DAMAGE THRESHOLD: 3J/cm
  7
SLDTEXTSTYLE0
 73
     1
 44
1.0
  0
MTEXT
  5
B7
330
96
100
AcDbEntity
  8
0
  6
Continuous
 62
     0
370
     0
100
AcDbMText
 10
54.2956609279
 20
-35.1257800342
 30
0.0
 40
1.3229166667
 41
0.0
 71
     1
 72
     1
  1
2
  7
SLDTEXTSTYLE0
 73
     1
 44
1.0
  0
MTEXT
  5
B8
330
96
100
AcDbEntity
  8
0
  6
Continuous
 62
     0
370
     0
100
AcDbMText
 10
56.1661160499
 20
-35.1726278576
 30
0.0
 40
2.38125
 41
0.0
 71
     1
 72
     1
  1
10ns PULSE, 10Hz AT 1064nm
  7
SLDTEXTSTYLE0
 73
     1
 44
1.0
  0
MTEXT
  5
B9
330
96
100
AcDbEntity
  8
0
  6
Continuous
 62
     0
370
     0
100
AcDbMText
 10
0.0
 20
-35.1726278576
 30
0.0
 40
2.38125
 41
0.0
 71
     1
 72
     1
  1
8.
  7
SLDTEXTSTYLE0
 73
     1
 44
1.0
  0
ENDBLK
  5
98
330
96
100
AcDbEntity
  8
0
100
AcDbBlockEnd
  0
BLOCK
  5
C2
330
C1
100
AcDbEntity
  8
0
100
AcDbBlockBegin
  2
*D7
 70
     1
 10
0.0
 20
0.0
 30
0.0
  3
*D7
  1

  0
SOLID
  5
C4
330
C1
100
AcDbEntity
  8
0
  6
Continuous
 62
     7
370
     0
100
AcDbTrace
 10
76.7246525234
 20
88.5612036346
 30
0.0
 11
78.6096814362
 21
85.9563322369
 31
0.0
 12
79.3283294148
 22
86.6745251656
 32
0.0
 13
79.3283294148
 23
86.6745251656
 33
0.0
  0
LINE
  5
C5
330
C1
100
AcDbEntity
  8
0
  6
Continuous
 62
     7
370
     0
100
AcDbLine
 10
91.9769873245
 20
77.7946886052
 30
0.0
 11
91.9769873245
 21
74.9360818245
 31
0.0
  0
LINE
  5
C6
330
C1
100
AcDbEntity
  8
0
  6
Continuous
 62
     7
370
     0
100
AcDbLine
 10
91.9769873245
 20
74.9360818245
 30
0.0
 11
92.4061625804
 21
74.9360818245
 31
0.0
  0
LINE
  5
C7
330
C1
100
AcDbEntity
  8
0
  6
Continuous
 62
     7
370
     0
100
AcDbLine
 10
91.9769873245
 20
77.7946886052
 30
0.0
 11
92.4061625804
 21
77.7946886052
 31
0.0
  0
LINE
  5
C8
330
C1
100
AcDbEntity
  8
0
  6
Continuous
 62
     7
370
     0
100
AcDbLine
 10
101.4488005603
 20
77.7946886052
 30
0.0
 11
101.4488005603
 21
74.9360818245
 31
0.0
  0
LINE
  5
C9
330
C1
100
AcDbEntity
  8
0
  6
Continuous
 62
     7
370
     0
100
AcDbLine
 10
101.4488005603
 20
74.9360818245
 30
0.0
 11
101.0196253044
 21
74.9360818245
 31
0.0
  0
LINE
  5
CA
330
C1
100
AcDbEntity
  8
0
  6
Continuous
 62
     7
370
     0
100
AcDbLine
 10
101.4488005603
 20
77.7946886052
 30
0.0
 11
101.0196253044
 21
77.7946886052
 31
0.0
  0
LINE
  5
CB
330
C1
100
AcDbEntity
  8
0
  6
Continuous
 62
     7
370
     0
100
AcDbLine
 10
76.7246525234
 20
88.5612036346
 30
0.0
 11
85.5518112184
 21
79.7284520156
 31
0.0
  0
LINE
  5
CC
330
C1
100
AcDbEntity
  8
0
  6
Continuous
 62
     7
370
     0
100
AcDbLine
 10
85.5518112184
 20
79.7284520156
 30
0.0
 11
89.3618112184
 21
79.7284520156
 31
0.0
  0
MTEXT
  5
CD
330
C1
100
AcDbEntity
  8
0
  6
Continuous
 62
     7
370
     0
100
AcDbMText
 10
91.1186368126
 20
80.7754452146
 30
0.0
 40
2.1166666667
 41
0.0
 71
     1
 72
     1
  1
%%c
  7
SLDTEXTSTYLE0
 73
     1
 44
1.0
  0
MTEXT
  5
CE
330
C1
100
AcDbEntity
  8
0
  6
Continuous
 62
     7
370
     0
100
AcDbMText
 10
94.1453969333
 20
80.7754452146
 30
0.0
 40
2.1166666667
 41
0.0
 71
     1
 72
     1
  1
50.8mm
  7
SLDTEXTSTYLE0
 73
     1
 44
1.0
  0
MTEXT
  5
CF
330
C1
100
AcDbEntity
  8
0
  6
Continuous
 62
     7
370
     0
100
AcDbMText
 10
92.8353378364
 20
77.4123784139
 30
0.0
 40
2.1166666667
 41
0.0
 71
     1
 72
     1
  1
2.00in
  7
SLDTEXTSTYLE0
 73
     1
 44
1.0
  0
ENDBLK
  5
C3
330
C1
100
AcDbEntity
  8
0
100
AcDbBlockEnd
  0
BLOCK
  5
D1
330
D0
100
AcDbEntity
  8
0
100
AcDbBlockBegin
  2
SW_CENTERMARKSYMBOL_0
 70
     0
 10
0.0
 20
0.0
 30
0.0
  3
SW_CENTERMARKSYMBOL_0
  1

  0
LINE
  5
D3
330
D0
100
AcDbEntity
  8
0
  6
Continuous
 62
     0
370
     0
100
AcDbLine
 10
0.0
 20
0.0
 30
0.0
 11
0.0
 21
2.0
 31
0.0
  0
LINE
  5
D4
330
D0
100
AcDbEntity
  8
0
  6
Continuous
 62
     0
370
     0
100
AcDbLine
 10
0.0
 20
0.0
 30
0.0
 11
-2.0
 21
0.0
 31
0.0
  0
LINE
  5
D5
330
D0
100
AcDbEntity
  8
0
  6
Continuous
 62
     0
370
     0
100
AcDbLine
 10
0.0
 20
0.0
 30
0.0
 11
0.0
 21
-2.0
 31
0.0
  0
LINE
  5
D6
330
D0
100
AcDbEntity
  8
0
  6
Continuous
 62
     0
370
     0
100
AcDbLine
 10
0.0
 20
0.0
 30
0.0
 11
2.0
 21
0.0
 31
0.0
  0
ENDBLK
  5
D2
330
D0
100
AcDbEntity
  8
0
100
AcDbBlockEnd
  0
BLOCK
  5
1F3
330
1F2
100
AcDbEntity
  8
0
100
AcDbBlockBegin
  2
*D9
 70
     1
 10
0.0
 20
0.0
 30
0.0
  3
*D9
  1

  0
SOLID
  5
1F5
330
1F2
100
AcDbEntity
  8
0
  6
Continuous
 62
     7
370
     0
100
AcDbTrace
 10
138.1026853584
 20
92.4033188927
 30
0.0
 11
141.2338830388
 21
91.6723673992
 31
0.0
 12
141.3056333866
 22
92.6858307126
 32
0.0
 13
141.3056333866
 23
92.6858307126
 33
0.0
  0
LINE
  5
1F6
330
1F2
100
AcDbEntity
  8
0
  6
Continuous
 62
     7
370
     0
100
AcDbLine
 10
162.7282606523
 20
89.1690307132
 30
0.0
 11
162.7282606523
 21
86.3104239326
 31
0.0
  0
LINE
  5
1F7
330
1F2
100
AcDbEntity
  8
0
  6
Continuous
 62
     7
370
     0
100
AcDbLine
 10
162.7282606523
 20
86.3104239326
 30
0.0
 11
163.1574359082
 21
86.3104239326
 31
0.0
  0
LINE
  5
1F8
330
1F2
100
AcDbEntity
  8
0
  6
Continuous
 62
     7
370
     0
100
AcDbLine
 10
162.7282606523
 20
89.1690307132
 30
0.0
 11
163.1574359082
 21
89.1690307132
 31
0.0
  0
LINE
  5
1F9
330
1F2
100
AcDbEntity
  8
0
  6
Continuous
 62
     7
370
     0
100
AcDbLine
 10
172.2000738881
 20
89.1690307132
 30
0.0
 11
172.2000738881
 21
86.3104239326
 31
0.0
  0
LINE
  5
1FA
330
1F2
100
AcDbEntity
  8
0
  6
Continuous
 62
     7
370
     0
100
AcDbLine
 10
172.2000738881
 20
86.3104239326
 30
0.0
 11
171.7708986321
 21
86.3104239326
 31
0.0
  0
LINE
  5
1FB
330
1F2
100
AcDbEntity
  8
0
  6
Continuous
 62
     7
370
     0
100
AcDbLine
 10
172.2000738881
 20
89.1690307132
 30
0.0
 11
171.7708986321
 21
89.1690307132
 31
0.0
  0
LINE
  5
1FC
330
1F2
100
AcDbEntity
  8
0
  6
Continuous
 62
     7
370
     0
100
AcDbLine
 10
138.1026853584
 20
92.4033188927
 30
0.0
 11
156.4724101404
 21
91.1027941236
 31
0.0
  0
LINE
  5
1FD
330
1F2
100
AcDbEntity
  8
0
  6
Continuous
 62
     7
370
     0
100
AcDbLine
 10
156.4724101404
 20
91.1027941236
 30
0.0
 11
160.2824101404
 21
91.1027941236
 31
0.0
  0
MTEXT
  5
1FE
330
1F2
100
AcDbEntity
  8
0
  6
Continuous
 62
     7
370
     0
100
AcDbMText
 10
161.8699101404
 20
92.1497873227
 30
0.0
 40
2.1166666667
 41
0.0
 71
     1
 72
     1
  1
R
  7
SLDTEXTSTYLE0
 73
     1
 44
1.0
  0
MTEXT
  5
1FF
330
1F2
100
AcDbEntity
  8
0
  6
Continuous
 62
     7
370
     0
100
AcDbMText
 10
163.5814011459
 20
92.1497873227
 30
0.0
 40
2.1166666667
 41
0.0
 71
     1
 72
     1
  1
200.0mm
  7
SLDTEXTSTYLE0
 73
     1
 44
1.0
  0
MTEXT
  5
200
330
1F2
100
AcDbEntity
  8
0
  6
Continuous
 62
     7
370
     0
100
AcDbMText
 10
163.5866111641
 20
88.7867205219
 30
0.0
 40
2.1166666667
 41
0.0
 71
     1
 72
     1
  1
7.87in
  7
SLDTEXTSTYLE0
 73
     1
 44
1.0
  0
ENDBLK
  5
1F4
330
1F2
100
AcDbEntity
  8
0
100
AcDbBlockEnd
  0
BLOCK
  5
204
330
203
100
AcDbEntity
  8
0
100
AcDbBlockBegin
  2
*D10
 70
     1
 10
0.0
 20
0.0
 30
0.0
  3
*D10
  1

  0
SOLID
  5
206
330
203
100
AcDbEntity
  8
0
  6
Continuous
 62
     7
370
     0
100
AcDbTrace
 10
147.6020331156
 20
141.9274031008
 30
0.0
 11
150.7770331156
 21
141.4194031008
 31
0.0
 12
150.7770331156
 22
142.4354031008
 32
0.0
 13
150.7770331156
 23
142.4354031008
 33
0.0
  0
SOLID
  5
207
330
203
100
AcDbEntity
  8
0
  6
Continuous
 62
     7
370
     0
100
AcDbTrace
 10
138.6020331156
 20
141.9274031008
 30
0.0
 11
135.4270331156
 21
142.4354031008
 31
0.0
 12
135.4270331156
 22
141.4194031008
 32
0.0
 13
135.4270331156
 23
141.4194031008
 33
0.0
  0
LINE
  5
208
330
203
100
AcDbEntity
  8
0
  6
Continuous
 62
     7
370
     0
100
AcDbLine
 10
157.4277821959
 20
141.6751730907
 30
0.0
 11
157.4277821959
 21
138.8165663101
 31
0.0
  0
LINE
  5
209
330
203
100
AcDbEntity
  8
0
  6
Continuous
 62
     7
370
     0
100
AcDbLine
 10
157.4277821959
 20
138.8165663101
 30
0.0
 11
157.8569574519
 21
138.8165663101
 31
0.0
  0
LINE
  5
20A
330
203
100
AcDbEntity
  8
0
  6
Continuous
 62
     7
370
     0
100
AcDbLine
 10
157.4277821959
 20
141.6751730907
 30
0.0
 11
157.8569574519
 21
141.6751730907
 31
0.0
  0
LINE
  5
20B
330
203
100
AcDbEntity
  8
0
  6
Continuous
 62
     7
370
     0
100
AcDbLine
 10
166.8995954317
 20
141.6751730907
 30
0.0
 11
166.8995954317
 21
138.8165663101
 31
0.0
  0
LINE
  5
20C
330
203
100
AcDbEntity
  8
0
  6
Continuous
 62
     7
370
     0
100
AcDbLine
 10
166.8995954317
 20
138.8165663101
 30
0.0
 11
166.4704201758
 21
138.8165663101
 31
0.0
  0
LINE
  5
20D
330
203
100
AcDbEntity
  8
0
  6
Continuous
 62
     7
370
     0
100
AcDbLine
 10
166.8995954317
 20
141.6751730907
 30
0.0
 11
166.4704201758
 21
141.6751730907
 31
0.0
  0
LINE
  5
20E
330
203
100
AcDbEntity
  8
0
  6
Continuous
 62
     7
370
     0
100
AcDbLine
 10
147.6020331156
 20
132.9974031008
 30
0.0
 11
147.6020331156
 21
143.7054031008
 31
0.0
  0
LINE
  5
20F
330
203
100
AcDbEntity
  8
0
  6
Continuous
 62
     7
370
     0
100
AcDbLine
 10
138.6020331156
 20
107.7974031008
 30
0.0
 11
138.6020331156
 21
143.7054031008
 31
0.0
  0
LINE
  5
210
330
203
100
AcDbEntity
  8
0
  6
Continuous
 62
     7
370
     0
100
AcDbLine
 10
147.6020331156
 20
141.9274031008
 30
0.0
 11
154.5527564281
 21
141.9274031008
 31
0.0
  0
LINE
  5
211
330
203
100
AcDbEntity
  8
0
  6
Continuous
 62
     7
370
     0
100
AcDbLine
 10
138.6020331156
 20
141.9274031008
 30
0.0
 11
132.2520331156
 21
141.9274031008
 31
0.0
  0
MTEXT
  5
212
330
203
100
AcDbEntity
  8
0
  6
Continuous
 62
     7
370
     0
100
AcDbMText
 10
157.5645451758
 20
144.6559297002
 30
0.0
 40
2.1166666667
 41
0.0
 71
     1
 72
     1
  1
9.0mm
  7
SLDTEXTSTYLE0
 73
     1
 44
1.0
  0
MTEXT
  5
213
330
203
100
AcDbEntity
  8
0
  6
Continuous
 62
     7
370
     0
100
AcDbMText
 10
158.2861327078
 20
141.2928628995
 30
0.0
 40
2.1166666667
 41
0.0
 71
     1
 72
     1
  1
0.35in
  7
SLDTEXTSTYLE0
 73
     1
 44
1.0
  0
ENDBLK
  5
205
330
203
100
AcDbEntity
  8
0
100
AcDbBlockEnd
  0
BLOCK
  5
217
330
216
100
AcDbEntity
  8
0
100
AcDbBlockBegin
  2
*D11
 70
     1
 10
0.0
 20
0.0
 30
0.0
  3
*D11
  1

  0
SOLID
  5
219
330
216
100
AcDbEntity
  8
0
  6
Continuous
 62
     7
370
     0
100
AcDbTrace
 10
137.0078884262
 20
153.9274031008
 30
0.0
 11
133.8328884262
 21
154.4354031008
 31
0.0
 12
133.8328884262
 22
153.4194031008
 32
0.0
 13
133.8328884262
 23
153.4194031008
 33
0.0
  0
SOLID
  5
21A
330
216
100
AcDbEntity
  8
0
  6
Continuous
 62
     7
370
     0
100
AcDbTrace
 10
147.6020331156
 20
153.9274031008
 30
0.0
 11
150.7770331156
 21
153.4194031008
 31
0.0
 12
150.7770331156
 22
154.4354031008
 32
0.0
 13
150.7770331156
 23
154.4354031008
 33
0.0
  0
LINE
  5
21B
330
216
100
AcDbEntity
  8
0
  6
Continuous
 62
     7
370
     0
100
AcDbLine
 10
156.1803620736
 20
153.6751730907
 30
0.0
 11
156.1803620736
 21
150.8165663101
 31
0.0
  0
LINE
  5
21C
330
216
100
AcDbEntity
  8
0
  6
Continuous
 62
     7
370
     0
100
AcDbLine
 10
156.1803620736
 20
150.8165663101
 30
0.0
 11
156.6095373295
 21
150.8165663101
 31
0.0
  0
LINE
  5
21D
330
216
100
AcDbEntity
  8
0
  6
Continuous
 62
     7
370
     0
100
AcDbLine
 10
156.1803620736
 20
153.6751730907
 30
0.0
 11
156.6095373295
 21
153.6751730907
 31
0.0
  0
LINE
  5
21E
330
216
100
AcDbEntity
  8
0
  6
Continuous
 62
     7
370
     0
100
AcDbLine
 10
165.6521753094
 20
153.6751730907
 30
0.0
 11
165.6521753094
 21
150.8165663101
 31
0.0
  0
LINE
  5
21F
330
216
100
AcDbEntity
  8
0
  6
Continuous
 62
     7
370
     0
100
AcDbLine
 10
165.6521753094
 20
150.8165663101
 30
0.0
 11
165.2230000535
 21
150.8165663101
 31
0.0
  0
LINE
  5
220
330
216
100
AcDbEntity
  8
0
  6
Continuous
 62
     7
370
     0
100
AcDbLine
 10
165.6521753094
 20
153.6751730907
 30
0.0
 11
165.2230000535
 21
153.6751730907
 31
0.0
  0
LINE
  5
221
330
216
100
AcDbEntity
  8
0
  6
Continuous
 62
     7
370
     0
100
AcDbLine
 10
137.0078884262
 20
132.9989224692
 30
0.0
 11
137.0078884262
 21
155.7054031008
 31
0.0
  0
LINE
  5
222
330
216
100
AcDbEntity
  8
0
  6
Continuous
 62
     7
370
     0
100
AcDbLine
 10
147.6020331156
 20
132.9974031008
 30
0.0
 11
147.6020331156
 21
155.7054031008
 31
0.0
  0
LINE
  5
223
330
216
100
AcDbEntity
  8
0
  6
Continuous
 62
     7
370
     0
100
AcDbLine
 10
137.0078884262
 20
153.9274031008
 30
0.0
 11
130.6578884262
 21
153.9274031008
 31
0.0
  0
LINE
  5
224
330
216
100
AcDbEntity
  8
0
  6
Continuous
 62
     7
370
     0
100
AcDbLine
 10
147.6020331156
 20
153.9274031008
 30
0.0
 11
153.3053363057
 21
153.9274031008
 31
0.0
  0
MTEXT
  5
225
330
216
100
AcDbEntity
  8
0
  6
Continuous
 62
     7
370
     0
100
AcDbMText
 10
155.5356223112
 20
156.6559297002
 30
0.0
 40
2.1166666667
 41
0.0
 71
     1
 72
     1
  1
10.6mm
  7
SLDTEXTSTYLE0
 73
     1
 44
1.0
  0
MTEXT
  5
226
330
216
100
AcDbEntity
  8
0
  6
Continuous
 62
     7
370
     0
100
AcDbMText
 10
167.3042758213
 20
156.6559297002
 30
0.0
 40
2.1166666667
 41
0.0
 71
     1
 72
     1
  1
REF
  7
SLDTEXTSTYLE0
 73
     1
 44
1.0
  0
MTEXT
  5
227
330
216
100
AcDbEntity
  8
0
  6
Continuous
 62
     7
370
     0
100
AcDbMText
 10
157.0387125854
 20
153.2928628995
 30
0.0
 40
2.1166666667
 41
0.0
 71
     1
 72
     1
  1
0.42in
  7
SLDTEXTSTYLE0
 73
     1
 44
1.0
  0
ENDBLK
  5
218
330
216
100
AcDbEntity
  8
0
100
AcDbBlockEnd
  0
ENDSEC
  0
SECTION
  2
ENTITIES
  0
LINE
  5
52
330
1F
100
AcDbEntity
  8
0
  6
Continuous
 62
     7
370
     0
100
AcDbLine
 10
1.5793501011
 20
214.6453799966
 30
0.0
 11
277.9892068491
 21
214.6453799966
 31
0.0
  0
LINE
  5
53
330
1F
100
AcDbEntity
  8
0
  6
Continuous
 62
     7
370
     0
100
AcDbLine
 10
1.5793501011
 20
214.6453799966
 30
0.0
 11
1.5793501011
 21
0.9031642596
 31
0.0
  0
LINE
  5
54
330
1F
100
AcDbEntity
  8
0
  6
Continuous
 62
     7
370
     0
100
AcDbLine
 10
277.9892068491
 20
0.9031642596
 30
0.0
 11
1.5793501011
 21
0.9031642596
 31
0.0
  0
LINE
  5
55
330
1F
100
AcDbEntity
  8
0
  6
Continuous
 62
     7
370
     0
100
AcDbLine
 10
277.9892068491
 20
0.9031642596
 30
0.0
 11
277.9892068491
 21
214.6453799966
 31
0.0
  0
LINE
  5
56
330
1F
100
AcDbEntity
  8
0
  6
Continuous
 62
     7
370
     0
100
AcDbLine
 10
215.7427640041
 20
12.2958890132
 30
0.0
 11
171.6327596684
 21
12.2958890132
 31
0.0
  0
LINE
  5
57
330
1F
100
AcDbEntity
  8
0
  6
Continuous
 62
     7
370
     0
100
AcDbLine
 10
171.6327596684
 20
12.2958890132
 30
0.0
 11
171.6327596684
 21
26.1661402506
 31
0.0
  0
LINE
  5
58
330
1F
100
AcDbEntity
  8
0
  6
Continuous
 62
     7
370
     0
100
AcDbLine
 10
171.6327596684
 20
0.9031642596
 30
0.0
 11
171.6327596684
 21
26.1661402506
 31
0.0
  0
LINE
  5
59
330
1F
100
AcDbEntity
  8
0
  6
Continuous
 62
     7
370
     0
100
AcDbLine
 10
215.7427640041
 20
17.1604579552
 30
0.0
 11
277.9892068491
 21
17.1604579552
 31
0.0
  0
LINE
  5
5A
330
1F
100
AcDbEntity
  8
0
  6
Continuous
 62
     7
370
     0
100
AcDbLine
 10
215.7427640041
 20
35.2394508358
 30
0.0
 11
215.7427640041
 21
0.9031642596
 31
0.0
  0
LINE
  5
5B
330
1F
100
AcDbEntity
  8
0
  6
Continuous
 62
     7
370
     0
100
AcDbLine
 10
215.7427640041
 20
26.1661402506
 30
0.0
 11
171.6327596684
 21
26.1661402506
 31
0.0
  0
LINE
  5
5C
330
1F
100
AcDbEntity
  8
0
  6
Continuous
 62
     7
370
     0
100
AcDbLine
 10
215.7427640041
 20
9.1409200612
 30
0.0
 11
277.9892068491
 21
9.1409200612
 31
0.0
  0
LINE
  5
5D
330
1F
100
AcDbEntity
  8
0
  6
Continuous
 62
     7
370
     0
100
AcDbLine
 10
215.7427640041
 20
16.9216824031
 30
0.0
 11
171.6327596684
 21
16.9216824031
 31
0.0
  0
LINE
  5
5E
330
1F
100
AcDbEntity
  8
0
  6
Continuous
 62
     7
370
     0
100
AcDbLine
 10
215.7427640041
 20
21.4874005542
 30
0.0
 11
171.6327596684
 21
21.4874005542
 31
0.0
  0
LINE
  5
5F
330
1F
100
AcDbEntity
  8
0
  6
Continuous
 62
     7
370
     0
100
AcDbLine
 10
186.1338100705
 20
26.1661402506
 30
0.0
 11
186.1338100705
 21
12.2958890132
 31
0.0
  0
LINE
  5
60
330
1F
100
AcDbEntity
  8
0
  6
Continuous
 62
     7
370
     0
100
AcDbLine
 10
198.2145906188
 20
26.1661402506
 30
0.0
 11
198.2145906188
 21
12.2958890132
 31
0.0
  0
LINE
  5
61
330
1F
100
AcDbEntity
  8
0
  6
Continuous
 62
     7
370
     0
100
AcDbLine
 10
253.7490408369
 20
9.1409200612
 30
0.0
 11
253.7490408369
 21
0.9031642596
 31
0.0
  0
LINE
  5
62
330
1F
100
AcDbEntity
  8
0
  6
Continuous
 62
     7
370
     0
100
AcDbLine
 10
171.6327596684
 20
12.2958890132
 30
0.0
 11
171.6327596684
 21
7.5627342528
 31
0.0
  0
LINE
  5
63
330
1F
100
AcDbEntity
  8
0
  6
Continuous
 62
     7
370
     0
100
AcDbLine
 10
171.6327596684
 20
7.5627342528
 30
0.0
 11
215.7427640041
 21
7.5627342528
 31
0.0
  0
LINE
  5
64
330
1F
100
AcDbEntity
  8
0
  6
Continuous
 62
     7
370
     0
100
AcDbLine
 10
171.6327596684
 20
7.5627342528
 30
0.0
 11
171.6327596684
 21
35.2394508358
 31
0.0
  0
LINE
  5
65
330
1F
100
AcDbEntity
  8
0
  6
Continuous
 62
     7
370
     0
100
AcDbLine
 10
171.6327596684
 20
35.2394508358
 30
0.0
 11
215.7427640041
 21
35.2394508358
 31
0.0
  0
LINE
  5
66
330
1F
100
AcDbEntity
  8
0
  6
Continuous
 62
     7
370
     0
100
AcDbLine
 10
270.1683598194
 20
17.1604579552
 30
0.0
 11
270.1683598194
 21
9.1409200612
 31
0.0
  0
LINE
  5
67
330
1F
100
AcDbEntity
  8
0
  6
Continuous
 62
     7
370
     0
100
AcDbLine
 10
215.7427640041
 20
35.2394508358
 30
0.0
 11
277.9892068491
 21
35.2394508358
 31
0.0
  0
LINE
  5
68
330
1F
100
AcDbEntity
  8
0
  6
Continuous
 62
     7
370
     0
100
AcDbLine
 10
277.9892068491
 20
35.2394508358
 30
0.0
 11
277.9892068491
 21
50.0331356147
 31
0.0
  0
LINE
  5
69
330
1F
100
AcDbEntity
  8
0
  6
Continuous
 62
     7
370
     0
100
AcDbLine
 10
215.7427640041
 20
24.8927335446
 30
0.0
 11
277.9892068491
 21
24.8927335446
 31
0.0
  0
INSERT
  5
6A
330
1F
100
AcDbEntity
  8
0
  6
Continuous
 62
     7
100
AcDbBlockReference
  2
Third Angle Projection Block
 10
117.7262204235
 20
15.5162339489
 30
0.0
 41
0.8
 42
0.8
 43
0.8
  0
MTEXT
  5
6C
330
1F
100
AcDbEntity
  8
0
  6
Continuous
 62
     7
370
     0
100
AcDbMText
 10
273.8638944939
 20
13.1125292762
 30
0.0
 40
3.175
 41
0.0
 71
     2
 72
     1
  1
C
  7
SLDTEXTSTYLE0
 73
     1
 44
1.0
  0
MTEXT
  5
6D
330
1F
100
AcDbEntity
  8
0
  6
Continuous
 62
     7
370
     0
100
AcDbMText
 10
234.6597744665
 20
5.1306563898
 30
0.0
 40
3.175
 41
0.0
 71
     2
 72
     1
  1
CM508-100-P01
  7
SLDTEXTSTYLE0
 73
     1
 44
1.0
  0
MTEXT
  5
6E
330
1F
100
AcDbEntity
  8
0
  6
Continuous
 62
     7
370
     0
100
AcDbMText
 10
216.4199766059
 20
16.8243178599
 30
0.0
 40
2.1166666667
 41
0.0
 71
     1
 72
     1
  1
MATERIAL
  7
SLDTEXTSTYLE0
 73
     1
 44
1.0
  0
MTEXT
  5
6F
330
1F
100
AcDbEntity
  8
0
  6
Continuous
 62
     7
370
     0
100
AcDbMText
 10
174.230946566
 20
20.054553926
 30
0.0
 40
1.8520833333
 41
0.0
 71
     1
 72
     1
  1
DRAWN
  7
SLDTEXTSTYLE0
 73
     1
 44
1.0
  0
MTEXT
  5
70
330
1F
100
AcDbEntity
  8
0
  6
Continuous
 62
     7
370
     0
100
AcDbMText
 10
172.3960124543
 20
15.5787169747
 30
0.0
 40
1.8520833333
 41
0.0
 71
     1
 72
     1
  1
APPROVAL
  7
SLDTEXTSTYLE0
 73
     1
 44
1.0
  0
MTEXT
  5
71
330
1F
100
AcDbEntity
  8
0
  6
Continuous
 62
     7
370
     0
100
AcDbMText
 10
271.321689486
 20
16.0237652193
 30
0.0
 40
2.1166666667
 41
0.0
 71
     1
 72
     1
  1
REV
  7
SLDTEXTSTYLE0
 73
     1
 44
1.0
  0
MTEXT
  5
72
330
1F
100
AcDbEntity
  8
0
  6
Continuous
 62
     7
370
     0
100
AcDbMText
 10
190.2958696448
 20
20.3177146903
 30
0.0
 40
2.1166666667
 41
0.0
 71
     1
 72
     1
  1
BAG
  7
SLDTEXTSTYLE0
 73
     1
 44
1.0
  0
MTEXT
  5
73
330
1F
100
AcDbEntity
  8
0
  6
Continuous
 62
     7
370
     0
100
AcDbMText
 10
199.8662436873
 20
20.3177146903
 30
0.0
 40
2.1166666667
 41
0.0
 71
     1
 72
     1
  1
28/OCT/10
  7
SLDTEXTSTYLE0
 73
     1
 44
1.0
  0
MTEXT
  5
74
330
1F
100
AcDbEntity
  8
0
  6
Continuous
 62
     7
370
     0
100
AcDbMText
 10
203.6145073853
 20
24.8221395769
 30
0.0
 40
2.1166666667
 41
0.0
 71
     1
 72
     1
  1
DATE
  7
SLDTEXTSTYLE0
 73
     1
 44
1.0
  0
MTEXT
  5
76
330
1F
100
AcDbEntity
  8
0
  6
Continuous
 62
     7
370
     0
100
AcDbMText
 10
229.402906477
 20
27.7957480569
 30
0.0
 40
2.1166666667
 41
0.0
 71
     1
 72
     1
  1
w w w . t h o r  l a b s . c o m
  7
SLDTEXTSTYLE1
 73
     1
 44
1.0
  0
MTEXT
  5
77
330
1F
100
AcDbEntity
  8
0
  6
Continuous
 62
     7
370
     0
100
AcDbMText
 10
216.7004035316
 20
8.3494791871
 30
0.0
 40
2.1166666667
 41
0.0
 71
     1
 72
     1
  1
ITEM #
  7
SLDTEXTSTYLE0
 73
     1
 44
1.0
  0
MTEXT
  5
78
330
1F
100
AcDbEntity
  8
0
  6
Continuous
 62
     7
370
     0
100
AcDbMText
 10
254.5318000914
 20
8.3494791871
 30
0.0
 40
2.1166666667
 41
0.0
 71
     1
 72
     1
  1
APPROX WEIGHT
  7
SLDTEXTSTYLE0
 73
     1
 44
1.0
  0
MTEXT
  5
79
330
1F
100
AcDbEntity
  8
0
  6
Continuous
 62
     7
370
     0
100
AcDbMText
 10
243.7058359879
 20
13.1125292762
 30
0.0
 40
3.175
 41
0.0
 71
     2
 72
     1
  1
N-BK7
  7
SLDTEXTSTYLE0
 73
     1
 44
1.0
  0
MTEXT
  5
7A
330
1F
100
AcDbEntity
  8
0
  6
Continuous
 62
     7
370
     0
100
AcDbMText
 10
266.1678480997
 20
5.1306563898
 30
0.0
 40
3.175
 41
0.0
 71
     2
 72
     1
  1
0.05 kg
  7
SLDTEXTSTYLE0
 73
     1
 44
1.0
  0
INSERT
  5
80
330
1F
100
AcDbEntity
  8
0
  6
Continuous
 62
     7
370
     0
100
AcDbBlockReference
  2
SW_NOTE_0
 10
174.8430140051
 20
4.4558554801
 30
0.0
  0
INSERT
  5
86
330
1F
100
AcDbEntity
  8
0
  6
Continuous
 62
     7
370
     0
100
AcDbBlockReference
  2
SW_NOTE_1
 10
174.5483650337
 20
30.4835322715
 30
0.0
  0
MTEXT
  5
87
330
1F
100
AcDbEntity
  8
0
  6
Continuous
 62
     7
370
     0
100
AcDbMText
 10
187.9273588276
 20
24.8221395769
 30
0.0
 40
2.1166666667
 41
0.0
 71
     1
 72
     1
  1
NAME
  7
SLDTEXTSTYLE0
 73
     1
 44
1.0
  0
INSERT
  5
8D
330
1F
100
AcDbEntity
  8
0
  6
Continuous
 62
     7
370
     0
100
AcDbBlockReference
  2
SW_NOTE_2
 10
58.6204667508
 20
8.1776609732
 30
0.0
  0
MTEXT
  5
8E
330
1F
100
AcDbEntity
  8
0
  6
Continuous
 62
     7
370
     0
100
AcDbMText
 10
179.1174811218
 20
10.6680638482
 30
0.0
 40
1.5875
 41
0.0
 71
     1
 72
     1
  1
COPYRIGHT © 2010 BY THORLABS
  7
SLDTEXTSTYLE0
 73
     1
 44
1.0
  0
INSERT
  5
95
330
1F
100
AcDbEntity
  8
0
  6
Continuous
 62
     7
370
     0
100
AcDbBlockReference
  2
SW_NOTE_3
 10
218.0010743732
 20
20.5867261075
 30
0.0
  0
INSERT
  5
BA
330
1F
100
AcDbEntity
  8
0
  6
Continuous
 62
     7
370
     0
100
AcDbBlockReference
  2
SW_NOTE_4
 10
7.0257848731
 20
55.7535067465
 30
0.0
  0
MTEXT
  5
BB
330
1F
100
AcDbEntity
  8
0
  6
Continuous
 62
     7
370
     0
100
AcDbMText
 10
199.719841499
 20
15.6633765617
 30
0.0
 40
2.1166666667
 41
0.0
 71
     1
 72
     1
  1
08/NOV/12
  7
SLDTEXTSTYLE0
 73
     1
 44
1.0
  0
MTEXT
  5
BC
330
1F
100
AcDbEntity
  8
0
  6
Continuous
 62
     7
370
     0
100
AcDbMText
 10
190.1494674565
 20
15.6633765617
 30
0.0
 40
2.1166666667
 41
0.0
 71
     1
 72
     1
  1
WD
  7
SLDTEXTSTYLE0
 73
     1
 44
1.0
  0
CIRCLE
  5
BD
330
1F
100
AcDbEntity
  8
0
  6
Continuous
 62
     7
370
     0
100
AcDbCircle
 10
58.7698293068
 20
106.5274031008
 30
0.0
 40
25.39999999999999
  0
CIRCLE
  5
BE
330
1F
100
AcDbEntity
  8
0
  6
Continuous
 62
     7
370
     0
100
AcDbCircle
 10
58.7698293068
 20
106.5274031008
 30
0.0
 40
25.20151936846453
  0
DIMENSION
  5
BF
330
1F
100
AcDbEntity
  8
0
  6
Continuous
 62
     7
370
     0
100
AcDbDimension
  2
*D7
 10
40.8150060902
 20
124.493602567
 30
0.0
 11
97.8421654049
 21
79.7284520156
 31
0.0
 70
   163
  1
<>
 71
     1
 42
-1.0
  3
SLDDIMSTYLE0
100
AcDbDiametricDimension
 15
76.7246525234
 25
88.5612036346
 35
0.0
 40
0.0
  0
INSERT
  5
D7
330
1F
100
AcDbEntity
  8
0
  6
Continuous
 62
     7
370
     0
100
AcDbBlockReference
  2
SW_CENTERMARKSYMBOL_0
 10
58.7698293068
 20
106.5274031008
 30
0.0
  0
LINE
  5
D8
330
1F
100
AcDbEntity
  8
0
  6
PHANTOM
 62
     7
370
    30
100
AcDbLine
 10
58.7698293068
 20
138.8170038038
 30
0.0
 11
58.7698293068
 21
74.2614854355
 31
0.0
  0
LINE
  5
D9
330
1F
100
AcDbEntity
  8
0
  6
Continuous
 62
     7
370
    30
100
AcDbLine
 10
58.7698293068
 20
138.8170038038
 30
0.0
 11
49.8798293068
 21
138.8170038038
 31
0.0
  0
SOLID
  5
DA
330
1F
100
AcDbEntity
  8
0
  6
Continuous
 62
     7
370
    30
100
AcDbTrace
 10
49.8798293068
 20
138.8170038038
 30
0.0
 11
53.6898293068
 21
138.1820038038
 31
0.0
 12
53.6898293068
 22
139.4520038038
 32
0.0
 13
53.6898293068
 23
139.4520038038
 33
0.0
  0
LINE
  5
DB
330
1F
100
AcDbEntity
  8
0
  6
Continuous
 62
     7
370
    30
100
AcDbLine
 10
58.7698293068
 20
74.2614854355
 30
0.0
 11
49.8798293068
 21
74.2614854355
 31
0.0
  0
SOLID
  5
DC
330
1F
100
AcDbEntity
  8
0
  6
Continuous
 62
     7
370
    30
100
AcDbTrace
 10
49.8798293068
 20
74.2614854355
 30
0.0
 11
53.6898293068
 21
73.6264854355
 31
0.0
 12
53.6898293068
 22
74.8964854355
 32
0.0
 13
53.6898293068
 23
74.8964854355
 33
0.0
  0
MTEXT
  5
DD
330
1F
100
AcDbEntity
  8
0
  6
Continuous
 62
     7
100
AcDbMText
 10
46.4737798552
 20
140.9179436759
 30
0.0
 40
2.6458333333
 41
0.0
 71
     1
 72
     1
  1
A
  7
SLDTEXTSTYLE0
 73
     1
 44
1.0
  0
MTEXT
  5
DE
330
1F
100
AcDbEntity
  8
0
  6
Continuous
 62
     7
100
AcDbMText
 10
46.4737798552
 20
76.3624253075
 30
0.0
 40
2.6458333333
 41
0.0
 71
     1
 72
     1
  1
A
  7
SLDTEXTSTYLE0
 73
     1
 44
1.0
  0
LINE
  5
DF
330
1F
100
AcDbEntity
  8
0
  6
Continuous
 62
     7
370
     0
100
AcDbLine
 10
215.3892459308
 20
181.522824587
 30
0.0
 11
215.4045429917
 21
181.3952176022
 31
0.0
  0
LINE
  5
E0
330
1F
100
AcDbEntity
  8
0
  6
Continuous
 62
     7
370
     0
100
AcDbLine
 10
230.4065846883
 20
155.4081034084
 30
0.0
 11
230.5094398177
 21
155.3310426206
 31
0.0
  0
LINE
  5
E1
330
1F
100
AcDbEntity
  8
0
  6
Continuous
 62
     7
370
     0
100
AcDbLine
 10
227.6816485737
 20
200.4874347659
 30
0.0
 11
220.4554015124
 21
196.3158111329
 31
0.0
  0
LINE
  5
E2
330
1F
100
AcDbEntity
  8
0
  6
Continuous
 62
     7
370
     0
100
AcDbLine
 10
245.8533373213
 20
152.3205289239
 30
0.0
 11
253.0795843827
 21
156.4921525569
 31
0.0
  0
LINE
  5
E3
330
1F
100
AcDbEntity
  8
0
  6
Continuous
 62
     7
370
     0
100
AcDbLine
 10
258.3411287203
 20
168.1214106412
 30
0.0
 11
258.3411287203
 21
168.2846922636
 31
0.0
  0
LINE
  5
E4
330
1F
100
AcDbEntity
  8
0
  6
Continuous
 62
     7
370
     0
100
AcDbLine
 10
240.5249339378
 20
199.1465907754
 30
0.0
 11
240.3835355665
 21
199.2282448555
 31
0.0
  0
LWPOLYLINE
  5
E5
330
1F
100
AcDbEntity
  8
0
  6
Continuous
 62
     7
370
     0
100
AcDbPolyline
 90
       47
 70
   128
 43
0.0
 10
251.114881659
 20
163.9497870082
 10
251.1020175286
 20
163.1723759155
 10
251.0634435652
 20
162.4109310655
 10
250.9992150256
 20
161.6665432207
 10
250.9094239165
 20
160.9402787093
 10
250.7941988629
 20
160.2331778984
 10
250.6537049235
 20
159.5462537031
 10
250.4881433546
 20
158.8804901356
 10
250.2977513214
 20
158.2368408958
 10
250.0828015589
 20
157.6162280051
 10
249.8436019803
 20
157.0195404855
 10
249.5804952369
 20
156.4476330861
 10
249.2938582265
 20
155.9013250587
 10
248.9841015538
 20
155.3813989843
 10
248.6516689423
 20
154.888599652
 10
248.2970365985
 20
154.4236329921
 10
247.9207125299
 20
153.9871650649
 10
247.5232358169
 20
153.5798211065
 10
247.1051758413
 20
153.2021846331
 10
246.6671314698
 20
152.8547966054
 10
246.2097301969
 20
152.5381546534
 10
245.7336272454
 20
152.2527123636
 10
245.2395046283
 20
151.9988786294
 10
244.7280701713
 20
151.7770170651
 10
244.2000564995
 20
151.5874454852
 10
243.6562199874
 20
151.4304354494
 10
243.0973396755
 20
151.3062118728
 10
242.5242161545
 20
151.2149527047
 10
241.9376704183
 20
151.1567886728
 10
241.338542688
 20
151.1318030966
 10
240.7276912083
 20
151.1400317677
 10
240.1059910181
 20
151.1814628985
 10
239.4743326969
 20
151.2560371395
 10
238.8336210892
 20
151.3636476637
 10
238.1847740082
 20
151.50414032
 10
237.5287209211
 20
151.6773138542
 10
236.8664016176
 20
151.8829201967
 10
236.1987648637
 20
152.1206648185
 10
235.5267670426
 20
152.3902071527
 10
234.8513707848
 20
152.6911610825
 10
234.1735435889
 20
153.0230954943
 10
233.4942564359
 20
153.3855348952
 10
232.8144823979
 20
153.7779600943
 10
232.1351952448
 20
154.1998089463
 10
231.4573680489
 20
154.6504771568
 10
230.7819717911
 20
155.1293191478
 10
230.5094398177
 20
155.3310426206
  0
LWPOLYLINE
  5
E6
330
1F
100
AcDbEntity
  8
0
  6
Continuous
 62
     7
370
     0
100
AcDbPolyline
 90
       89
 70
   128
 43
0.0
 10
215.3892459308
 20
181.522824587
 10
215.3095238082
 20
182.2697634086
 10
215.2452952685
 20
183.0883079469
 10
215.2067213051
 20
183.894289347
 10
215.1938571747
 20
184.6865530485
 10
215.2067213051
 20
185.4639641412
 10
215.2452952685
 20
186.2254089912
 10
215.3095238082
 20
186.9697968361
 10
215.3993149172
 20
187.6960613475
 10
215.5145399709
 20
188.4031621583
 10
215.6550339102
 20
189.0900863537
 10
215.8205954792
 20
189.7558499212
 10
216.0109875123
 20
190.399499161
 10
216.2259372749
 20
191.0201120516
 10
216.4651368534
 20
191.6167995713
 10
216.7282435968
 20
192.1887069707
 10
217.0148806073
 20
192.7350149981
 10
217.3246372799
 20
193.2549410725
 10
217.6570698914
 20
193.7477404048
 10
218.0117022352
 20
194.2127070647
 10
218.3880263039
 20
194.6491749919
 10
218.7855030168
 20
195.0565189503
 10
219.2035629924
 20
195.4341554237
 10
219.6416073639
 20
195.7815434514
 10
220.0990086368
 20
196.0981854034
 10
220.5751115883
 20
196.3836276932
 10
221.0692342055
 20
196.6374614274
 10
221.5806686624
 20
196.8593229917
 10
222.1086823342
 20
197.0488945715
 10
222.6525188463
 20
197.2059046074
 10
223.2113991582
 20
197.3301281839
 10
223.7845226793
 20
197.4213873521
 10
224.3710684155
 20
197.479551384
 10
224.9701961458
 20
197.5045369602
 10
225.5810476255
 20
197.4963082891
 10
226.2027478156
 20
197.4548771582
 10
226.8344061368
 20
197.3803029173
 10
227.4751177445
 20
197.2726923931
 10
228.1239648255
 20
197.1321997367
 10
228.7800179126
 20
196.9590262026
 10
229.4423372162
 20
196.75341986
 10
230.1099739701
 20
196.5156752382
 10
230.7819717911
 20
196.246132904
 10
231.4573680489
 20
195.9451789742
 10
232.1351952448
 20
195.6132445625
 10
232.8144823979
 20
195.2508051615
 10
233.4942564359
 20
194.8583799624
 10
234.1735435889
 20
194.4365311104
 10
234.8513707848
 20
193.9858629
 10
235.5267670426
 20
193.507020909
 10
236.1987648637
 20
193.0006910739
 10
236.8664016176
 20
192.4675987074
 10
237.5287209211
 20
191.9085074591
 10
238.1847740082
 20
191.3242182219
 10
238.8336210892
 20
190.7155679845
 10
239.4743326969
 20
190.0834286325
 10
240.1059910181
 20
189.4287056993
 10
240.7276912083
 20
188.7523370694
 10
241.338542688
 20
188.0552916342
 10
241.9376704183
 20
187.3385679047
 10
242.5242161545
 20
186.6031925806
 10
243.0973396755
 20
185.8502190801
 10
243.6562199874
 20
185.0807260303
 10
244.2000564995
 20
184.2958157228
 10
244.7280701713
 20
183.4966125339
 10
245.2395046283
 20
182.6842613146
 10
245.7336272454
 20
181.85992575
 10
246.2097301969
 20
181.0247866931
 10
246.6671314698
 20
180.1800404723
 10
247.1051758413
 20
179.3268971787
 10
247.5232358169
 20
178.4665789316
 10
247.9207125299
 20
177.6003181287
 10
248.2970365985
 20
176.7293556803
 10
248.6516689423
 20
175.8549392317
 10
248.9841015538
 20
174.978321376
 10
249.2938582265
 20
174.1007578598
 10
249.5804952369
 20
173.2235057845
 10
249.8436019803
 20
172.3478218052
 10
250.0828015589
 20
171.4749603307
 10
250.2977513214
 20
170.6061717268
 10
250.4881433546
 20
169.7427005246
 10
250.6537049235
 20
168.8857836384
 10
250.7941988629
 20
168.0366485934
 10
250.9094239165
 20
167.1965117674
 10
250.9992150256
 20
166.3665766482
 10
251.0634435652
 20
165.5480321099
 10
251.1020175286
 20
164.7420507097
 10
251.114881659
 20
163.9497870082
 10
251.114881659
 20
163.9497870082
  0
LWPOLYLINE
  5
E7
330
1F
100
AcDbEntity
  8
0
  6
Continuous
 62
     7
370
     0
100
AcDbPolyline
 90
      166
 70
   128
 43
0.0
 10
250.8510115253
 20
163.9594992201
 10
250.8380927573
 20
164.7503787351
 10
250.7993551843
 20
165.5550272425
 10
250.7348549721
 20
166.3722780788
 10
250.6446856399
 20
167.2009463085
 10
250.5289779244
 20
168.0398304418
 10
250.3878995909
 20
168.887714177
 10
250.2216551895
 20
169.7433681636
 10
250.0304857586
 20
170.6055517852
 10
249.8146684756
 20
171.473014958
 10
249.5745162551
 20
172.3444999434
 10
249.3103772946
 20
173.2187431713
 10
249.0226345705
 20
174.0944770727
 10
248.7117052823
 20
174.9704319171
 10
248.3780402476
 20
175.8453376539
 10
248.0221232488
 20
176.7179257532
 10
247.6444703317
 20
177.5869310458
 10
247.2456290567
 20
178.4510935571
 10
246.8261777057
 20
179.3091603341
 10
246.3867244429
 20
180.1598872618
 10
245.9279064337
 20
181.0020408678
 10
245.4503889202
 20
181.8344001096
 10
244.9548642572
 20
182.6557581461
 10
244.4420509081
 20
183.4649240865
 10
243.9126924032
 20
184.2607247177
 10
243.3675562618
 20
185.0420062047
 10
242.8074328791
 20
185.8076357641
 10
242.2331343804
 20
186.5565033062
 10
241.6454934438
 20
187.2875230448
 10
241.0453620924
 20
187.999635071
 10
240.4336104592
 20
188.6918068906
 10
239.8111255257
 20
189.3630349204
 10
239.1788098355
 20
190.0123459442
 10
238.5375801859
 20
190.6387985228
 10
237.8883662986
 20
191.2414843601
 10
237.2321094716
 20
191.8195296192
 10
236.5697612147
 20
192.3720961897
 10
235.9022818695
 20
192.8983829028
 10
235.2306392171
 20
193.3976266932
 10
234.5558070753
 20
193.8691037051
 10
233.8787638862
 20
194.312130342
 10
233.2004912975
 20
194.7260642575
 10
232.5219727399
 20
195.110305287
 10
231.8441920002
 20
195.4642963178
 10
231.1681317958
 20
195.7875240967
 10
230.4947723493
 20
196.0795199744
 10
229.8250899676
 20
196.3398605847
 10
229.160055626
 20
196.5681684587
 10
228.5006335609
 20
196.7641125717
 10
227.8477798711
 20
196.9274088235
 10
227.2024411321
 20
197.0578204502
 10
226.5655530234
 20
197.1551583674
 10
225.9380389718
 20
197.2192814444
 10
225.3208088127
 20
197.2500967088
 10
224.7147574709
 20
197.2475594816
 10
224.1207636628
 20
197.2116734413
 10
223.5396886228
 20
197.1424906194
 10
222.9723748539
 20
197.0401113243
 10
222.4196449071
 20
196.9046839963
 10
221.8823001878
 20
196.7364049919
 10
221.3611197945
 20
196.5355182997
 10
220.856859389
 20
196.3023151862
 10
220.3702501006
 20
196.0371337735
 10
219.9019974664
 20
195.7403585495
 10
219.4527804078
 20
195.4124198097
 10
219.0232502466
 20
195.053793034
 10
218.6140297606
 20
194.6649981969
 10
218.2257122803
 20
194.2465990139
 10
217.8588608288
 20
193.7992021236
 10
217.5140073059
 20
193.3234562089
 10
217.191651716
 20
192.8200510558
 10
216.892261444
 20
192.2897165536
 10
216.6162705772
 20
191.7332216368
 10
216.3640792759
 20
191.1513731696
 10
216.1360531934
 20
190.5450147769
 10
215.9325229457
 20
189.9150256202
 10
215.7537836322
 20
189.2623191236
 10
215.6000944079
 20
188.5878416492
 10
215.4716781074
 20
187.8925711247
 10
215.3687209221
 20
187.1775156261
 10
215.29137213
 20
186.4437119153
 10
215.2397438796
 20
185.6922239377
 10
215.2139110267
 20
184.924141279
 10
215.2139110267
 20
184.1405775855
 10
215.2397438796
 20
183.3426689498
 10
215.29137213
 20
182.5315722631
 10
215.3687209221
 20
181.7084635379
 10
215.4716781074
 20
180.8745362034
 10
215.6000944079
 20
180.0309993743
 10
215.7537836322
 20
179.1790760985
 10
215.9325229457
 20
178.3200015833
 10
216.1360531934
 20
177.4550214046
 10
216.3640792759
 20
176.5853897008
 10
216.6162705772
 20
175.712367355
 10
216.892261444
 20
174.837220166
 10
217.191651716
 20
173.9612170136
 10
217.5140073059
 20
173.0856280186
 10
217.8588608288
 20
172.2117227013
 10
218.2257122803
 20
171.3407681409
 10
218.6140297606
 20
170.4740271383
 10
219.0232502466
 20
169.612756385
 10
219.4527804078
 20
168.7582046413
 10
219.9019974664
 20
167.9116109255
 10
220.3702501006
 20
167.0742027176
 10
220.856859389
 20
166.2471941795
 10
221.3611197945
 20
165.4317843943
 10
221.8823001878
 20
164.6291556285
 10
222.4196449071
 20
163.8404716169
 10
222.9723748539
 20
163.066875876
 10
223.5396886228
 20
162.3094900457
 10
224.1207636628
 20
161.5694122629
 10
224.7147574709
 20
160.8477155697
 10
225.3208088127
 20
160.1454463574
 10
225.9380389718
 20
159.4636228492
 10
226.5655530234
 20
158.8032336239
 10
227.2024411321
 20
158.1652361828
 10
227.8477798711
 20
157.5505555612
 10
228.5006335609
 20
156.9600829872
 10
229.160055626
 20
156.3946745896
 10
229.8250899676
 20
155.8551501566
 10
230.4947723493
 20
155.342291947
 10
231.1681317958
 20
154.8568435561
 10
231.8441920002
 20
154.3995088378
 10
232.5219727399
 20
153.9709508835
 10
233.2004912975
 20
153.5717910615
 10
233.8787638862
 20
153.2026081153
 10
234.5558070753
 20
152.8639373249
 10
235.2306392171
 20
152.5562697304
 10
235.9022818695
 20
152.2800514206
 10
236.5697612147
 20
152.0356828856
 10
237.2321094716
 20
151.8235184364
 10
237.8883662986
 20
151.6438656911
 10
238.5375801859
 20
151.496985129
 10
239.1788098355
 20
151.3830897131
 10
239.8111255257
 20
151.3023445806
 10
240.4336104592
 20
151.2548668043
 10
241.0453620924
 20
151.2407252225
 10
241.6454934438
 20
151.2599403391
 10
242.2331343804
 20
151.312484294
 10
242.8074328791
 20
151.3982809035
 10
243.3675562618
 20
151.5172057707
 10
243.9126924032
 20
151.669086466
 10
244.4420509081
 20
151.8537027768
 10
244.9548642572
 20
152.0707870271
 10
245.4503889202
 20
152.3200244656
 10
245.9279064337
 20
152.6010537218
 10
246.3867244429
 20
152.9134673301
 10
246.8261777057
 20
153.2568123207
 10
247.2456290567
 20
153.6305908761
 10
247.6444703317
 20
154.0342610531
 10
248.0221232488
 20
154.4672375687
 10
248.3780402476
 20
154.9288926483
 10
248.7117052823
 20
155.418556936
 10
249.0226345705
 20
155.9355204656
 10
249.3103772946
 20
156.4790336893
 10
249.5745162551
 20
157.0483085649
 10
249.8146684756
 20
157.6425196983
 10
250.0304857586
 20
158.2608055401
 10
250.2216551895
 20
158.902269635
 10
250.3878995909
 20
159.5659819213
 10
250.5289779244
 20
160.2509800797
 10
250.6446856399
 20
160.9562709284
 10
250.7348549721
 20
161.680831863
 10
250.7993551843
 20
162.4236123395
 10
250.8380927573
 20
163.1835353971
 10
250.8510115253
 20
163.9594992201
  0
LWPOLYLINE
  5
E8
330
1F
100
AcDbEntity
  8
0
  6
Continuous
 62
     7
370
     0
100
AcDbPolyline
 90
       85
 70
   128
 43
0.0
 10
253.0795843827
 20
156.4921525569
 10
253.4359772582
 20
156.7097782864
 10
253.8933785312
 20
157.0264202384
 10
254.3314229026
 20
157.3738082661
 10
254.7494828783
 20
157.7514447395
 10
255.1469595912
 20
158.1587886979
 10
255.5232836598
 20
158.5952566251
 10
255.8779160036
 20
159.060223285
 10
256.2103486151
 20
159.5530226173
 10
256.5201052878
 20
160.0729486917
 10
256.8067422982
 20
160.6192567191
 10
257.0698490417
 20
161.1911641185
 10
257.3090486202
 20
161.7878516381
 10
257.5239983828
 20
162.4084645288
 10
257.7143904159
 20
163.0521137686
 10
257.8799519848
 20
163.7178773361
 10
258.0204459242
 20
164.4048015314
 10
258.1356709778
 20
165.1119023423
 10
258.2254620869
 20
165.8381668537
 10
258.2896906265
 20
166.5825546985
 10
258.3282645899
 20
167.3439995485
 10
258.3411287203
 20
168.1214106412
 10
258.3282645899
 20
168.9136743427
 10
258.2896906265
 20
169.7196557429
 10
258.2254620869
 20
170.5382002812
 10
258.1356709778
 20
171.3681354004
 10
258.0204459242
 20
172.2082722264
 10
257.8799519848
 20
173.0574072714
 10
257.7143904159
 20
173.9143241576
 10
257.5239983828
 20
174.7777953598
 10
257.3090486202
 20
175.6465839637
 10
257.0698490417
 20
176.5194454382
 10
256.8067422982
 20
177.3951294175
 10
256.5201052878
 20
178.2723814928
 10
256.2103486151
 20
179.149945009
 10
255.8779160036
 20
180.0265628647
 10
255.5232836598
 20
180.9009793133
 10
255.1469595912
 20
181.7719417617
 10
254.7494828783
 20
182.6382025646
 10
254.3314229026
 20
183.4985208117
 10
253.8933785312
 20
184.3516641053
 10
253.4359772582
 20
185.1964103261
 10
252.9598743068
 20
186.031549383
 10
252.4657516896
 20
186.8558849476
 10
251.9543172327
 20
187.6682361669
 10
251.4263035609
 20
188.4674393558
 10
250.8824670488
 20
189.2523496633
 10
250.3235867368
 20
190.0218427131
 10
249.7504632158
 20
190.7748162136
 10
249.1639174796
 20
191.5101915377
 10
248.5647897493
 20
192.2269152672
 10
247.9539382696
 20
192.9239607024
 10
247.3322380794
 20
193.6003293323
 10
246.7005797582
 20
194.2550522655
 10
246.0598681506
 20
194.8871916175
 10
245.4110210695
 20
195.4958418549
 10
244.7549679824
 20
196.0801310921
 10
244.0926486789
 20
196.6392223404
 10
243.425011925
 20
197.1723147069
 10
242.753014104
 20
197.678644542
 10
242.0776178462
 20
198.157486533
 10
241.3997906503
 20
198.6081547434
 10
240.7205034972
 20
199.0300035954
 10
240.0407294592
 20
199.4224287945
 10
239.3614423061
 20
199.7848681955
 10
238.6836151102
 20
200.1168026072
 10
238.0082188524
 20
200.417756537
 10
237.3362210314
 20
200.6872988712
 10
236.6685842775
 20
200.925043493
 10
236.006264974
 20
201.1306498356
 10
235.3502118868
 20
201.3038233697
 10
234.7013648058
 20
201.4443160261
 10
234.0606531981
 20
201.5519265503
 10
233.428994877
 20
201.6265007912
 10
232.8072946868
 20
201.6679319221
 10
232.1964432071
 20
201.6761605932
 10
231.5973154768
 20
201.651175017
 10
231.0107697406
 20
201.5930109851
 10
230.4376462196
 20
201.5017518169
 10
229.8787659076
 20
201.3775282404
 10
229.3349293955
 20
201.2205182045
 10
228.8069157237
 20
201.0309466247
 10
228.2954812668
 20
200.8090850604
 10
227.8013586496
 20
200.5552513262
 10
227.6816485737
 20
200.4874347659
  0
ARC
  5
E9
330
1F
100
AcDbEntity
  8
0
  6
Continuous
 62
     7
370
     0
100
AcDbCircle
 10
219.7398052919
 20
166.5741069961
 30
0.0
 40
38.63920641500565
100
AcDbArc
 50
2.5373543706
 51
57.4572690967
  0
SPLINE
  5
EA
330
1F
100
AcDbEntity
  8
0
  6
Continuous
 62
     7
370
     0
100
AcDbSpline
210
0.0
220
0.0
230
1.0
 70
     8
 71
     3
 72
    15
 73
    11
 74
     0
 42
0.00000001
 43
0.00000001
 40
0.0
 40
0.0
 40
0.0
 40
0.0
 40
0.0763829976036969
 40
0.1659855054655332
 40
0.2707148802617357
 40
0.3888240826834133
 40
0.5206018700426673
 40
0.6660294782576531
 40
0.8252434598020228
 40
1.0
 40
1.0
 40
1.0
 40
1.0
 10
226.7878278665402
 20
105.7158649261542
 30
0.0
 10
226.7819425519265
 20
105.7173040156194
 30
0.0
 10
226.7691533586292
 20
105.7204312559713
 30
0.0
 10
226.7479681600659
 20
105.7239807209085
 30
0.0
 10
226.7234156311136
 20
105.7273417489213
 30
0.0
 10
226.6953760904634
 20
105.7295716345715
 30
0.0
 10
226.6641052517125
 20
105.731786194754
 30
0.0
 10
226.6295075160005
 20
105.7328070518373
 30
0.0
 10
226.591504070586
 20
105.7336887812921
 30
0.0
 10
226.5650214362189
 20
105.733876590694
 30
0.0
 10
226.5511638851596
 20
105.7339748655989
 30
0.0
  0
SPLINE
  5
EB
330
1F
100
AcDbEntity
  8
0
  6
Continuous
 62
     7
370
     0
100
AcDbSpline
210
0.0
220
0.0
230
1.0
 70
     8
 71
     3
 72
    15
 73
    11
 74
     0
 42
0.00000001
 43
0.00000001
 40
0.0
 40
0.0
 40
0.0
 40
0.0
 40
0.1428946013811191
 40
0.2768798469236296
 40
0.4054067255101085
 40
0.5318333729300085
 40
0.6542249868698854
 40
0.7698109407908951
 40
0.8841096717431476
 40
0.9999999999999999
 40
0.9999999999999999
 40
0.9999999999999999
 40
0.9999999999999999
 10
227.0088514456731
 20
105.3721876662362
 30
0.0
 10
227.0082376577972
 20
105.3931035319447
 30
0.0
 10
227.007048351193
 20
105.4336311770737
 30
0.0
 10
226.9950657910443
 20
105.4919492103951
 30
0.0
 10
226.9762796681956
 20
105.5458361071902
 30
0.0
 10
226.9493834686886
 20
105.5942716187366
 30
0.0
 10
226.916831243895
 20
105.6367624628934
 30
0.0
 10
226.8785667935496
 20
105.6715269676027
 30
0.0
 10
226.8358168864772
 20
105.6993199079139
 30
0.0
 10
226.8038977726792
 20
105.7103245569085
 30
0.0
 10
226.7878278665402
 20
105.7158649261542
 30
0.0
  0
SPLINE
  5
EC
330
1F
100
AcDbEntity
  8
0
  6
Continuous
 62
     7
370
     0
100
AcDbSpline
210
0.0
220
0.0
230
1.0
 70
     8
 71
     3
 72
    23
 73
    19
 74
     0
 42
0.00000001
 43
0.00000001
 40
0.0
 40
0.0
 40
0.0
 40
0.0
 40
0.0877310226443747
 40
0.169005684660542
 40
0.2448021443962134
 40
0.3142317617715646
 40
0.3789415805204463
 40
0.439171854935432
 40
0.4957867026411701
 40
0.5494347689706728
 40
0.6020003354234685
 40
0.6542545252912737
 40
0.7069046930323722
 40
0.7612021463875933
 40
0.8168623067330519
 40
0.8746699957507752
 40
0.9360077445631972
 40
0.9999999999999999
 40
0.9999999999999999
 40
0.9999999999999999
 40
0.9999999999999999
 10
226.5561029595536
 20
104.996406422757
 30
0.0
 10
226.5758675923125
 20
104.9967368949262
 30
0.0
 10
226.6139423256371
 20
104.9973735189336
 30
0.0
 10
226.6689585787765
 20
105.0018162270696
 30
0.0
 10
226.719449923584
 20
105.0095063500747
 30
0.0
 10
226.7655564185578
 20
105.0202318202127
 30
0.0
 10
226.8073367722515
 20
105.0335632717374
 30
0.0
 10
226.8447162309804
 20
105.0504238884916
 30
0.0
 10
226.8775020406017
 20
105.0706491563556
 30
0.0
 10
226.9059114480841
 20
105.0940329780483
 30
0.0
 10
226.9302977183346
 20
105.1202285633171
 30
0.0
 10
226.951427841783
 20
105.1488065009992
 30
0.0
 10
226.9693811368245
 20
105.1799710128723
 30
0.0
 10
226.9834543985618
 20
105.2138524884484
 30
0.0
 10
226.9953763915361
 20
105.2497918670987
 30
0.0
 10
227.0028178674594
 20
105.2885338150834
 30
0.0
 10
227.0079919022867
 20
105.3295165172571
 30
0.0
 10
227.0085609139626
 20
105.3577645177391
 30
0.0
 10
227.0088514456731
 20
105.3721876662362
 30
0.0
  0
LINE
  5
ED
330
1F
100
AcDbEntity
  8
0
  6
Continuous
 62
     7
370
     0
100
AcDbLine
 10
226.060549162
 20
104.9964064228
 30
0.0
 11
226.5561029596
 21
104.9964064228
 31
0.0
  0
LINE
  5
EE
330
1F
100
AcDbEntity
  8
0
  6
Continuous
 62
     7
370
     0
100
AcDbLine
 10
226.060549162
 20
105.7339748656
 30
0.0
 11
226.060549162
 21
104.9964064228
 31
0.0
  0
LINE
  5
EF
330
1F
100
AcDbEntity
  8
0
  6
Continuous
 62
     7
370
     0
100
AcDbLine
 10
226.5511638852
 20
105.7339748656
 30
0.0
 11
226.060549162
 21
105.7339748656
 31
0.0
  0
SPLINE
  5
F0
330
1F
100
AcDbEntity
  8
0
  6
Continuous
 62
     7
370
     0
100
AcDbSpline
210
0.0
220
0.0
230
1.0
 70
     8
 71
     3
 72
    15
 73
    11
 74
     0
 42
0.00000001
 43
0.00000001
 40
0.0
 40
0.0
 40
0.0
 40
0.0
 40
0.1426572507006123
 40
0.2811689939054435
 40
0.416977192367973
 40
0.5508524927475571
 40
0.6783641702618121
 40
0.795032443007094
 40
0.9019981783473521
 40
1.0
 40
1.0
 40
1.0
 40
1.0
 10
229.3269236946047
 20
105.4573866995332
 30
0.0
 10
229.3598400905239
 20
105.4743387093317
 30
0.0
 10
229.4247163577878
 20
105.5077501168578
 30
0.0
 10
229.5163724946495
 20
105.5654562107254
 30
0.0
 10
229.601943357979
 20
105.6280119919925
 30
0.0
 10
229.680012411211
 20
105.6954036107926
 30
0.0
 10
229.7499963427706
 20
105.7642899428158
 30
0.0
 10
229.808972818186
 20
105.8337989576463
 30
0.0
 10
229.8583205799058
 20
105.9013827550604
 30
0.0
 10
229.883079286809
 20
105.9485149587584
 30
0.0
 10
229.8949172499182
 20
105.9710504365124
 30
0.0
  0
LINE
  5
F1
330
1F
100
AcDbEntity
  8
0
  6
Continuous
 62
     7
370
     0
100
AcDbLine
 10
229.3269236946
 20
105.2145488752
 30
0.0
 11
229.3269236946
 21
105.4573866995
 31
0.0
  0
SPLINE
  5
F2
330
1F
100
AcDbEntity
  8
0
  6
Continuous
 62
     7
370
     0
100
AcDbSpline
210
0.0
220
0.0
230
1.0
 70
     8
 71
     3
 72
    15
 73
    11
 74
     0
 42
0.00000001
 43
0.00000001
 40
0.0
 40
0.0
 40
0.0
 40
0.0
 40
0.111670300101588
 40
0.2320944808560198
 40
0.3627434591045547
 40
0.5025575097108851
 40
0.6415251033312812
 40
0.7710984952996689
 40
0.8901617573732539
 40
1.0
 40
1.0
 40
1.0
 40
1.0
 10
229.8010748364316
 20
105.5174787713273
 30
0.0
 10
229.7859072449334
 20
105.5028514954273
 30
0.0
 10
229.7543830682148
 20
105.4724503054667
 30
0.0
 10
229.7010947777318
 20
105.4294250302082
 30
0.0
 10
229.6416182353786
 20
105.3858170899589
 30
0.0
 10
229.5767257819031
 20
105.3438831802602
 30
0.0
 10
229.5105789033053
 20
105.3044069264839
 30
0.0
 10
229.4466564613174
 20
105.2689041053341
 30
0.0
 10
229.3860256683335
 20
105.2388601046499
 30
0.0
 10
229.3460878375238
 20
105.2224319262172
 30
0.0
 10
229.3269236946047
 20
105.2145488751601
 30
0.0
  0
LINE
  5
F3
330
1F
100
AcDbEntity
  8
0
  6
Continuous
 62
     7
370
     0
100
AcDbLine
 10
229.8010748364
 20
103.9163954886
 30
0.0
 11
229.8010748364
 21
105.5174787713
 31
0.0
  0
LINE
  5
F4
330
1F
100
AcDbEntity
  8
0
  6
Continuous
 62
     7
370
     0
100
AcDbLine
 10
230.0644921374
 20
103.9163954886
 30
0.0
 11
229.8010748364
 21
103.9163954886
 31
0.0
  0
LINE
  5
F5
330
1F
100
AcDbEntity
  8
0
  6
Continuous
 62
     7
370
     0
100
AcDbLine
 10
230.0644921374
 20
105.9710504365
 30
0.0
 11
230.0644921374
 21
103.9163954886
 31
0.0
  0
LINE
  5
F6
330
1F
100
AcDbEntity
  8
0
  6
Continuous
 62
     7
370
     0
100
AcDbLine
 10
229.8949172499
 20
105.9710504365
 30
0.0
 11
230.0644921374
 21
105.9710504365
 31
0.0
  0
LINE
  5
F7
330
1F
100
AcDbEntity
  8
0
  6
Continuous
 62
     7
370
     0
100
AcDbLine
 10
226.5639231607
 20
104.7593308518
 30
0.0
 11
226.060549162
 21
104.7593308518
 31
0.0
  0
SPLINE
  5
F8
330
1F
100
AcDbEntity
  8
0
  6
Continuous
 62
     7
370
     0
100
AcDbSpline
210
0.0
220
0.0
230
1.0
 70
     8
 71
     3
 72
    23
 73
    19
 74
     0
 42
0.00000001
 43
0.00000001
 40
0.0
 40
0.0
 40
0.0
 40
0.0
 40
0.058048068659147
 40
0.1142127550191541
 40
0.1688916471752764
 40
0.2226262701242397
 40
0.2756512298918107
 40
0.3287250271459033
 40
0.3816587912372605
 40
0.4359534350342106
 40
0.4912638558489658
 40
0.548992591180569
 40
0.6104165486580292
 40
0.6762479649809728
 40
0.7474094740183921
 40
0.8248664857445538
 40
0.9090259917114393
 40
1.0
 40
1.0
 40
1.0
 40
1.0
 10
227.2986104767896
 20
105.3804194568929
 30
0.0
 10
227.2981567723555
 20
105.3591305793935
 30
0.0
 10
227.297264084027
 20
105.3172435466869
 30
0.0
 10
227.2895987109245
 20
105.2557054505356
 30
0.0
 10
227.2775087603429
 20
105.1965032999684
 30
0.0
 10
227.2594749595389
 20
105.1400422244914
 30
0.0
 10
227.2374281536115
 20
105.0856621386633
 30
0.0
 10
227.2096440837751
 20
105.0342801755897
 30
0.0
 10
227.1772001291688
 20
104.9851986115671
 30
0.0
 10
227.1399768447631
 20
104.9385510018143
 30
0.0
 10
227.0961547009543
 20
104.8952839326125
 30
0.0
 10
227.0434312747407
 20
104.8585803306914
 30
0.0
 10
226.9828230788296
 20
104.8277596226363
 30
0.0
 10
226.9143159775223
 20
104.8028568238622
 30
0.0
 10
226.8380762733005
 20
104.7832623341211
 30
0.0
 10
226.7538541642459
 20
104.7689057301775
 30
0.0
 10
226.6614855833838
 20
104.7609796900293
 30
0.0
 10
226.5972767636388
 20
104.759894539098
 30
0.0
 10
226.5639231606775
 20
104.7593308518436
 30
0.0
  0
SPLINE
  5
F9
330
1F
100
AcDbEntity
  8
0
  6
Continuous
 62
     7
370
     0
100
AcDbSpline
210
0.0
220
0.0
230
1.0
 70
     8
 71
     3
 72
    19
 73
    15
 74
     0
 42
0.00000001
 43
0.00000001
 40
0.0
 40
0.0
 40
0.0
 40
0.0
 40
0.0892424937815279
 40
0.1729768290722685
 40
0.2526551372368087
 40
0.3289533944009836
 40
0.4046880824662921
 40
0.4814988935669583
 40
0.5618700905962241
 40
0.6456290048367237
 40
0.7322912491886802
 40
0.8191788448148045
 40
0.908074685965368
 40
0.9999999999999999
 40
0.9999999999999999
 40
0.9999999999999999
 40
0.9999999999999999
 10
226.8302215884223
 20
105.9517057284691
 30
0.0
 10
226.8539444781244
 20
105.9471402053149
 30
0.0
 10
226.8999260510638
 20
105.9382909488137
 30
0.0
 10
226.9650288313408
 20
105.9169573109691
 30
0.0
 10
227.0243412355338
 20
105.8904092272155
 30
0.0
 10
227.0777705697029
 20
105.857333054264
 30
0.0
 10
227.126204460185
 20
105.818476641527
 30
0.0
 10
227.1689526687748
 20
105.7719175377528
 30
0.0
 10
227.2068457292495
 20
105.7186953257079
 30
0.0
 10
227.2390664057105
 20
105.6588516486507
 30
0.0
 10
227.2658851819724
 20
105.5944598778023
 30
0.0
 10
227.2846691574606
 20
105.5258603611384
 30
0.0
 10
227.2967003275927
 20
105.4542449218775
 30
0.0
 10
227.2979666881998
 20
105.405301278725
 30
0.0
 10
227.2986104767896
 20
105.3804194568929
 30
0.0
  0
SPLINE
  5
FA
330
1F
100
AcDbEntity
  8
0
  6
Continuous
 62
     7
370
     0
100
AcDbSpline
210
0.0
220
0.0
230
1.0
 70
     8
 71
     3
 72
    11
 73
     7
 74
     0
 42
0.00000001
 43
0.00000001
 40
0.0
 40
0.0
 40
0.0
 40
0.0
 40
0.3071626301099397
 40
0.576852859909682
 40
0.8066330493509283
 40
1.0
 40
1.0
 40
1.0
 40
1.0
 10
226.5256453341238
 20
105.9710504365124
 30
0.0
 10
226.55693347388
 20
105.9708721854205
 30
0.0
 10
226.6156927470805
 20
105.9705374290339
 30
0.0
 10
226.697749317171
 20
105.9666170013176
 30
0.0
 10
226.7682126265429
 20
105.9617667833
 30
0.0
 10
226.8107727484823
 20
105.9548613343542
 30
0.0
 10
226.8302215884223
 20
105.9517057284691
 30
0.0
  0
LINE
  5
FB
330
1F
100
AcDbEntity
  8
0
  6
Continuous
 62
     7
370
     0
100
AcDbLine
 10
225.7707901309
 20
105.9710504365
 30
0.0
 11
226.5256453341
 21
105.9710504365
 31
0.0
  0
LINE
  5
FC
330
1F
100
AcDbEntity
  8
0
  6
Continuous
 62
     7
370
     0
100
AcDbLine
 10
225.7707901309
 20
103.9163954886
 30
0.0
 11
225.7707901309
 21
105.9710504365
 31
0.0
  0
LINE
  5
FD
330
1F
100
AcDbEntity
  8
0
  6
Continuous
 62
     7
370
     0
100
AcDbLine
 10
226.060549162
 20
103.9163954886
 30
0.0
 11
225.7707901309
 21
103.9163954886
 31
0.0
  0
LINE
  5
FE
330
1F
100
AcDbEntity
  8
0
  6
Continuous
 62
     7
370
     0
100
AcDbLine
 10
226.060549162
 20
104.7593308518
 30
0.0
 11
226.060549162
 21
103.9163954886
 31
0.0
  0
SPLINE
  5
FF
330
1F
100
AcDbEntity
  8
0
  6
Continuous
 62
     7
370
     0
100
AcDbSpline
210
0.0
220
0.0
230
1.0
 70
     8
 71
     3
 72
    31
 73
    27
 74
     0
 42
0.00000001
 43
0.00000001
 40
0.0
 40
0.0
 40
0.0
 40
0.0
 40
0.0628739462114324
 40
0.1228366299919129
 40
0.1796565674430314
 40
0.233960012230862
 40
0.285595018695559
 40
0.3345131060783805
 40
0.3809048259061763
 40
0.4248945919393346
 40
0.4665290347654874
 40
0.5064882940692463
 40
0.5450315536447542
 40
0.5818311798231344
 40
0.617448279949443
 40
0.6520669127690458
 40
0.6858797142465107
 40
0.7191745547913923
 40
0.7521816462063928
 40
0.7852401639180908
 40
0.8186564497770833
 40
0.8525477406533113
 40
0.8876263422585189
 40
0.923635078068751
 40
0.9610218444769891
 40
1.0
 40
1.0
 40
1.0
 40
1.0
 10
224.453703625828
 20
104.9297289184376
 30
0.0
 10
224.453433261592
 20
104.9005039350947
 30
0.0
 10
224.4529050518387
 20
104.8434071775069
 30
0.0
 10
224.4497673355623
 20
104.7599350666282
 30
0.0
 10
224.4437991160854
 20
104.6806271973456
 30
0.0
 10
224.4364551129796
 20
104.6053018984051
 30
0.0
 10
224.4253451745631
 20
104.5341602529032
 30
0.0
 10
224.4133736139729
 20
104.4668999988095
 30
0.0
 10
224.3985677506476
 20
104.4038265569132
 30
0.0
 10
224.3812927841985
 20
104.3449122837503
 30
0.0
 10
224.3618372492586
 20
104.2898456618606
 30
0.0
 10
224.3405012446176
 20
104.2382105283273
 30
0.0
 10
224.3168695708141
 20
104.1900421660879
 30
0.0
 10
224.2902388599827
 20
104.1458103851879
 30
0.0
 10
224.2618275877837
 20
104.1049280827898
 30
0.0
 10
224.2314276718551
 20
104.067241900187
 30
0.0
 10
224.1983945983897
 20
104.0332942504783
 30
0.0
 10
224.1627617462171
 20
104.0032756780608
 30
0.0
 10
224.1252514758959
 20
103.9762351745065
 30
0.0
 10
224.0851176185305
 20
103.9530826934439
 30
0.0
 10
224.0425358337594
 20
103.933901265023
 30
0.0
 10
223.9977906268833
 20
103.9175020966847
 30
0.0
 10
223.9504279932262
 20
103.9054857479881
 30
0.0
 10
223.9008214301095
 20
103.8962874208295
 30
0.0
 10
223.8487881607312
 20
103.8908707796816
 30
0.0
 10
223.8132829367366
 20
103.8903298563721
 30
0.0
 10
223.7951603732906
 20
103.8900537584942
 30
0.0
  0
SPLINE
  5
100
330
1F
100
AcDbEntity
  8
0
  6
Continuous
 62
     7
370
     0
100
AcDbSpline
210
0.0
220
0.0
230
1.0
 70
     8
 71
     3
 72
    27
 73
    23
 74
     0
 42
0.00000001
 43
0.00000001
 40
0.0
 40
0.0
 40
0.0
 40
0.0
 40
0.0567243372181507
 40
0.1114372357370107
 40
0.1643678222229016
 40
0.2164353724620897
 40
0.2676414903219248
 40
0.317359779969028
 40
0.3674730633322805
 40
0.4182103970528082
 40
0.4714042826470201
 40
0.5279657201290493
 40
0.5880611158232137
 40
0.6521342629937144
 40
0.6863448363353055
 40
0.7232636803169652
 40
0.7626102507715419
 40
0.8047389366452182
 40
0.84943033879095
 40
0.8967112583864923
 40
0.9468896380534765
 40
1.0
 40
1.0
 40
1.0
 40
1.0
 10
223.7951603732906
 20
105.9710504365124
 30
0.0
 10
223.8215475623999
 20
105.9702746718276
 30
0.0
 10
223.8733862538228
 20
105.9687506509876
 30
0.0
 10
223.9490710110007
 20
105.9563210135622
 30
0.0
 10
224.0203990166459
 20
105.9350582030547
 30
0.0
 10
224.0873239294727
 20
105.906373754408
 30
0.0
 10
224.1487016784642
 20
105.8699389838301
 30
0.0
 10
224.2035145952974
 20
105.8256469691815
 30
0.0
 10
224.2511714341262
 20
105.7739627678692
 30
0.0
 10
224.2911520942985
 20
105.7142739390547
 30
0.0
 10
224.3260991820168
 20
105.6482270992422
 30
0.0
 10
224.3571454075919
 20
105.5755258058496
 30
0.0
 10
224.3852102937665
 20
105.496251528886
 30
0.0
 10
224.4051257479502
 20
105.4252899842107
 30
0.0
 10
224.419331425067
 20
105.3640334609155
 30
0.0
 10
224.4287344546333
 20
105.313510813335
 30
0.0
 10
224.4365408542877
 20
105.2589965921661
 30
0.0
 10
224.4425216114176
 20
105.2006226819846
 30
0.0
 10
224.4474286815293
 20
105.1384545543251
 30
0.0
 10
224.4512181868874
 20
105.0724535021219
 30
0.0
 10
224.4531417488616
 20
105.0024545669742
 30
0.0
 10
224.4535128223746
 20
104.9544252589451
 30
0.0
 10
224.453703625828
 20
104.9297289184376
 30
0.0
  0
SPLINE
  5
101
330
1F
100
AcDbEntity
  8
0
  6
Continuous
 62
     7
370
     0
100
AcDbSpline
210
0.0
220
0.0
230
1.0
 70
     8
 71
     3
 72
    31
 73
    27
 74
     0
 42
0.00000001
 43
0.00000001
 40
0.0
 40
0.0
 40
0.0
 40
0.0
 40
0.0631144583947934
 40
0.1236146457694899
 40
0.1809737111859575
 40
0.2352614550083221
 40
0.2871007018338719
 40
0.3360307363034435
 40
0.3823823485850661
 40
0.4263340836597072
 40
0.4682106947981602
 40
0.5082496012618051
 40
0.546628336606585
 40
0.5836495392304462
 40
0.6189943150301618
 40
0.653583018620596
 40
0.6871561361903314
 40
0.7204221919788074
 40
0.7532302188118172
 40
0.7862601560778999
 40
0.8195039834988841
 40
0.8535452747120185
 40
0.8883082803397299
 40
0.9239958607406952
 40
0.961350304754645
 40
1.0
 40
1.0
 40
1.0
 40
1.0
 10
223.1366171207532
 20
104.9297289184376
 30
0.0
 10
223.1368825137416
 20
104.9590918236398
 30
0.0
 10
223.1374023068457
 20
105.016601389873
 30
0.0
 10
223.1406264146111
 20
105.1007482165192
 30
0.0
 10
223.1462554455159
 20
105.1806589735586
 30
0.0
 10
223.1546580390186
 20
105.2562642622325
 30
0.0
 10
223.1646082839611
 20
105.3277347385349
 30
0.0
 10
223.1775436651597
 20
105.3949684067253
 30
0.0
 10
223.1920978495035
 20
105.4581161163698
 30
0.0
 10
223.2095602589268
 20
105.5171120462108
 30
0.0
 10
223.2287457302724
 20
105.572463453851
 30
0.0
 10
223.2505122595905
 20
105.6240815431363
 30
0.0
 10
223.2750025577846
 20
105.6719115867425
 30
0.0
 10
223.3010130789204
 20
105.7164496090481
 30
0.0
 10
223.3299130701538
 20
105.7570028605073
 30
0.0
 10
223.3599581859629
 20
105.7947094313704
 30
0.0
 10
223.3933319259732
 20
105.8281864745562
 30
0.0
 10
223.4286465384837
 20
105.8582953574194
 30
0.0
 10
223.4664220403195
 20
105.8848646918921
 30
0.0
 10
223.506458561572
 20
105.9077908228255
 30
0.0
 10
223.5486020525988
 20
105.9280329433758
 30
0.0
 10
223.5936557217338
 20
105.9432712064379
 30
0.0
 10
223.6406842634645
 20
105.9556936212003
 30
0.0
 10
223.6900496791172
 20
105.9648317001214
 30
0.0
 10
223.7418063686184
 20
105.9702189060386
 30
0.0
 10
223.777174790605
 20
105.9707701284046
 30
0.0
 10
223.7951603732906
 20
105.9710504365124
 30
0.0
  0
SPLINE
  5
102
330
1F
100
AcDbEntity
  8
0
  6
Continuous
 62
     7
370
     0
100
AcDbSpline
210
0.0
220
0.0
230
1.0
 70
     8
 71
     3
 72
    15
 73
    11
 74
     0
 42
0.00000001
 43
0.00000001
 40
0.0
 40
0.0
 40
0.0
 40
0.0
 40
0.0974206681772145
 40
0.2008855880393207
 40
0.3111719701726506
 40
0.429797945825373
 40
0.5577399263645872
 40
0.6947152693641585
 40
0.8421299102060552
 40
1.0
 40
1.0
 40
1.0
 40
1.0
 10
223.3362380441786
 20
104.0880283237883
 30
0.0
 10
223.31995428726
 20
104.1115178820363
 30
0.0
 10
223.2863764834397
 20
104.1599543566542
 30
0.0
 10
223.2470765754302
 20
104.242543038937
 30
0.0
 10
223.2120203616902
 20
104.3334615824366
 30
0.0
 10
223.1845076612782
 20
104.4344937981985
 30
0.0
 10
223.1629583585092
 20
104.544835583997
 30
0.0
 10
223.1473943817129
 20
104.6647034539199
 30
0.0
 10
223.1385867031042
 20
104.7940456210931
 30
0.0
 10
223.1372884689264
 20
104.8834801623188
 30
0.0
 10
223.1366171207532
 20
104.9297289184376
 30
0.0
  0
SPLINE
  5
103
330
1F
100
AcDbEntity
  8
0
  6
Continuous
 62
     7
370
     0
100
AcDbSpline
210
0.0
220
0.0
230
1.0
 70
     8
 71
     3
 72
    15
 73
    11
 74
     0
 42
0.00000001
 43
0.00000001
 40
0.0
 40
0.0
 40
0.0
 40
0.0
 40
0.1379032299933934
 40
0.2688733426002937
 40
0.3951781273461133
 40
0.5170892381308875
 40
0.6367430265135479
 40
0.756221816463797
 40
0.8766283594636795
 40
1.0
 40
1.0
 40
1.0
 40
1.0
 10
223.7951603732906
 20
103.8900537584942
 30
0.0
 10
223.7713995913529
 20
103.8907315360554
 30
0.0
 10
223.7250726063889
 20
103.8920530157511
 30
0.0
 10
223.6574154608034
 20
103.9010316563135
 30
0.0
 10
223.5939156208801
 20
103.9168344852663
 30
0.0
 10
223.5340375018337
 20
103.9380283071909
 30
0.0
 10
223.4784541500944
 20
103.9663762644716
 30
0.0
 10
223.4269001772594
 20
104.0008670900015
 30
0.0
 10
223.3783396434103
 20
104.0406983182956
 30
0.0
 10
223.3503852479245
 20
104.0721242431069
 30
0.0
 10
223.3362380441786
 20
104.0880283237883
 30
0.0
  0
SPLINE
  5
104
330
1F
100
AcDbEntity
  8
0
  6
Continuous
 62
     7
370
     0
100
AcDbSpline
210
0.0
220
0.0
230
1.0
 70
     8
 71
     3
 72
    15
 73
    11
 74
     0
 42
0.00000001
 43
0.00000001
 40
0.0
 40
0.0
 40
0.0
 40
0.0
 40
0.1426572507006138
 40
0.2811689939054436
 40
0.416977192367974
 40
0.5508524927475579
 40
0.678364170261812
 40
0.7950324430070947
 40
0.9019981783473519
 40
1.0
 40
1.0
 40
1.0
 40
1.0
 10
220.1600016192842
 20
105.4573866995332
 30
0.0
 10
220.1929180152034
 20
105.4743387093317
 30
0.0
 10
220.2577942824673
 20
105.5077501168578
 30
0.0
 10
220.3494504193289
 20
105.5654562107254
 30
0.0
 10
220.4350212826585
 20
105.6280119919925
 30
0.0
 10
220.5130903358904
 20
105.6954036107926
 30
0.0
 10
220.5830742674501
 20
105.7642899428158
 30
0.0
 10
220.6420507428655
 20
105.8337989576463
 30
0.0
 10
220.6913985045852
 20
105.9013827550604
 30
0.0
 10
220.7161572114884
 20
105.9485149587584
 30
0.0
 10
220.7279951745977
 20
105.9710504365124
 30
0.0
  0
LINE
  5
105
330
1F
100
AcDbEntity
  8
0
  6
Continuous
 62
     7
370
     0
100
AcDbLine
 10
220.1600016193
 20
105.2145488752
 30
0.0
 11
220.1600016193
 21
105.4573866995
 31
0.0
  0
SPLINE
  5
106
330
1F
100
AcDbEntity
  8
0
  6
Continuous
 62
     7
370
     0
100
AcDbSpline
210
0.0
220
0.0
230
1.0
 70
     8
 71
     3
 72
    15
 73
    11
 74
     0
 42
0.00000001
 43
0.00000001
 40
0.0
 40
0.0
 40
0.0
 40
0.0
 40
0.1116703001015866
 40
0.232094480856018
 40
0.3627434591045532
 40
0.5025575097108851
 40
0.6415251033312813
 40
0.7710984952996682
 40
0.8901617573732524
 40
1.0
 40
1.0
 40
1.0
 40
1.0
 10
220.6341527611111
 20
105.5174787713273
 30
0.0
 10
220.6189851696129
 20
105.5028514954273
 30
0.0
 10
220.5874609928944
 20
105.4724503054667
 30
0.0
 10
220.5341727024112
 20
105.4294250302082
 30
0.0
 10
220.4746961600581
 20
105.3858170899589
 30
0.0
 10
220.4098037065826
 20
105.3438831802602
 30
0.0
 10
220.3436568279848
 20
105.3044069264839
 30
0.0
 10
220.2797343859968
 20
105.2689041053341
 30
0.0
 10
220.219103593013
 20
105.2388601046499
 30
0.0
 10
220.1791657622033
 20
105.2224319262172
 30
0.0
 10
220.1600016192842
 20
105.2145488751601
 30
0.0
  0
LINE
  5
107
330
1F
100
AcDbEntity
  8
0
  6
Continuous
 62
     7
370
     0
100
AcDbLine
 10
220.6341527611
 20
103.9163954886
 30
0.0
 11
220.6341527611
 21
105.5174787713
 31
0.0
  0
LINE
  5
108
330
1F
100
AcDbEntity
  8
0
  6
Continuous
 62
     7
370
     0
100
AcDbLine
 10
220.8975700621
 20
103.9163954886
 30
0.0
 11
220.6341527611
 21
103.9163954886
 31
0.0
  0
LINE
  5
109
330
1F
100
AcDbEntity
  8
0
  6
Continuous
 62
     7
370
     0
100
AcDbLine
 10
220.8975700621
 20
105.9710504365
 30
0.0
 11
220.8975700621
 21
103.9163954886
 31
0.0
  0
LINE
  5
10A
330
1F
100
AcDbEntity
  8
0
  6
Continuous
 62
     7
370
     0
100
AcDbLine
 10
220.7279951746
 20
105.9710504365
 30
0.0
 11
220.8975700621
 21
105.9710504365
 31
0.0
  0
SPLINE
  5
10B
330
1F
100
AcDbEntity
  8
0
  6
Continuous
 62
     7
370
     0
100
AcDbSpline
210
0.0
220
0.0
230
1.0
 70
     8
 71
     3
 72
    23
 73
    19
 74
     0
 42
0.00000001
 43
0.00000001
 40
0.0
 40
0.0
 40
0.0
 40
0.0
 40
0.0635999003471699
 40
0.1252966507935535
 40
0.1855687201945882
 40
0.2446982110006627
 40
0.303716806189989
 40
0.3629196509481438
 40
0.4233003138688771
 40
0.4851773095450755
 40
0.5470834132243567
 40
0.608524799634247
 40
0.6699648532447271
 40
0.7322993779782991
 40
0.7956502934901157
 40
0.8610554709467161
 40
0.929122115173219
 40
1.0
 40
1.0
 40
1.0
 40
1.0
 10
218.7638899239049
 20
104.5144350798062
 30
0.0
 10
218.7633664382549
 20
104.492862813906
 30
0.0
 10
218.7623351316283
 20
104.4503638060055
 30
0.0
 10
218.7532737472044
 20
104.3879802498666
 30
0.0
 10
218.7395634714431
 20
104.3280523317698
 30
0.0
 10
218.7195723065929
 20
104.2708332094245
 30
0.0
 10
218.6940386222463
 20
104.2162824340547
 30
0.0
 10
218.6624531460139
 20
104.1644792193472
 30
0.0
 10
218.6251262157421
 20
104.1154768543172
 30
0.0
 10
218.5831589111758
 20
104.0691230241178
 30
0.0
 10
218.536239489734
 20
104.0272211692247
 30
0.0
 10
218.4854813668763
 20
103.990296389533
 30
0.0
 10
218.4306940916106
 20
103.9593671786077
 30
0.0
 10
218.3725424209411
 20
103.9337579031578
 30
0.0
 10
218.310747904642
 20
103.9139108096257
 30
0.0
 10
218.2453899752706
 20
103.900013636034
 30
0.0
 10
218.1764903817891
 20
103.8917384807395
 30
0.0
 10
218.1293789738283
 20
103.8906228566523
 30
0.0
 10
218.1053466713676
 20
103.8900537584942
 30
0.0
  0
SPLINE
  5
10C
330
1F
100
AcDbEntity
  8
0
  6
Continuous
 62
     7
370
     0
100
AcDbSpline
210
0.0
220
0.0
230
1.0
 70
     8
 71
     3
 72
    23
 73
    19
 74
     0
 42
0.00000001
 43
0.00000001
 40
0.0
 40
0.0
 40
0.0
 40
0.0
 40
0.0690130029109932
 40
0.1352355440560497
 40
0.1996111851157138
 40
0.2624185195032886
 40
0.3237234972102992
 40
0.3837653656042444
 40
0.4437730350956272
 40
0.5037949564977896
 40
0.5638225777168209
 40
0.6234843128834681
 40
0.6834691722744386
 40
0.7435907624559172
 40
0.8057272199738402
 40
0.8686162107352969
 40
0.933278202847215
 40
1.0
 40
1.0
 40
1.0
 40
1.0
 10
218.3802884793019
 20
105.0433276295003
 30
0.0
 10
218.3956274661327
 20
105.0381207702948
 30
0.0
 10
218.4256852254221
 20
105.0279175852748
 30
0.0
 10
218.4681779291639
 20
105.0080794491533
 30
0.0
 10
218.5081835325286
 20
104.9866892295216
 30
0.0
 10
218.5459276315281
 20
104.9635343037912
 30
0.0
 10
218.5800169984716
 20
104.9368926952964
 30
0.0
 10
218.6115889547833
 20
104.908339611954
 30
0.0
 10
218.6405107580069
 20
104.8774726846737
 30
0.0
 10
218.6663873670171
 20
104.8440293869874
 30
0.0
 10
218.6894899082213
 20
104.8087116365798
 30
0.0
 10
218.7092675173305
 20
104.7714333271775
 30
0.0
 10
218.7260642609384
 20
104.7327250667544
 30
0.0
 10
218.7404193364473
 20
104.6924073577601
 30
0.0
 10
218.750904584389
 20
104.6501962070784
 30
0.0
 10
218.7582409718821
 20
104.6062855972506
 30
0.0
 10
218.7628957029084
 20
104.560906952581
 30
0.0
 10
218.7635550710981
 20
104.5300867680027
 30
0.0
 10
218.7638899239049
 20
104.5144350798062
 30
0.0
  0
SPLINE
  5
10D
330
1F
100
AcDbEntity
  8
0
  6
Continuous
 62
     7
370
     0
100
AcDbSpline
210
0.0
220
0.0
230
1.0
 70
     8
 71
     3
 72
    15
 73
    11
 74
     0
 42
0.00000001
 43
0.00000001
 40
0.0
 40
0.0
 40
0.0
 40
0.0
 40
0.1248350921668871
 40
0.2447781332833286
 40
0.3609889778410595
 40
0.4779641722472781
 40
0.5969221175582977
 40
0.7215907566966706
 40
0.8550978657574203
 40
1.0
 40
1.0
 40
1.0
 40
1.0
 10
218.6848647336004
 20
105.4462737821467
 30
0.0
 10
218.684111910368
 20
105.4236869800977
 30
0.0
 10
218.6826357656209
 20
105.3793985100337
 30
0.0
 10
218.6675931904952
 20
105.315556312307
 30
0.0
 10
218.6441480504272
 20
105.2559564209448
 30
0.0
 10
218.610262748345
 20
105.2017347062801
 30
0.0
 10
218.5673482735154
 20
105.1523311794883
 30
0.0
 10
218.5140948328098
 20
105.1093841518868
 30
0.0
 10
218.4513111760928
 20
105.0719247390157
 30
0.0
 10
218.4045999929785
 20
105.0531165990904
 30
0.0
 10
218.3802884793019
 20
105.0433276295003
 30
0.0
  0
SPLINE
  5
10E
330
1F
100
AcDbEntity
  8
0
  6
Continuous
 62
     7
370
     0
100
AcDbSpline
210
0.0
220
0.0
230
1.0
 70
     8
 71
     3
 72
    23
 73
    19
 74
     0
 42
0.00000001
 43
0.00000001
 40
0.0
 40
0.0
 40
0.0
 40
0.0
 40
0.0732007449685416
 40
0.1425867913224124
 40
0.2096247814680876
 40
0.274882926768208
 40
0.3379306095315751
 40
0.4004618221882003
 40
0.4625006206857345
 40
0.5250054581372535
 40
0.5866888527108447
 40
0.6468127657705337
 40
0.7052153157505644
 40
0.7628810210075593
 40
0.8207275416930105
 40
0.8792954957245831
 40
0.9385111654136069
 40
0.9999999999999999
 40
0.9999999999999999
 40
0.9999999999999999
 40
0.9999999999999999
 10
218.1020539551049
 20
105.9710504365124
 30
0.0
 10
218.1234759215795
 20
105.9705677190908
 30
0.0
 10
218.1652034950455
 20
105.9696274400227
 30
0.0
 10
218.2262263686704
 20
105.9625476354909
 30
0.0
 10
218.2841123444854
 20
105.9506814420402
 30
0.0
 10
218.3388273422686
 20
105.9338463008414
 30
0.0
 10
218.3904576220561
 20
105.9123215591374
 30
0.0
 10
218.4386639216982
 20
105.8858648260487
 30
0.0
 10
218.4839424957846
 20
105.8549124572918
 30
0.0
 10
218.5251360395564
 20
105.8190953348614
 30
0.0
 10
218.5626172542699
 20
105.7802095874877
 30
0.0
 10
218.5950911864889
 20
105.7385497901108
 30
0.0
 10
218.622943044566
 20
105.6950880459254
 30
0.0
 10
218.6459584206015
 20
105.649560314829
 30
0.0
 10
218.6629852828145
 20
105.6014481578697
 30
0.0
 10
218.67596357386
 20
105.5516580303599
 30
0.0
 10
218.6834915842813
 20
105.4995983285409
 30
0.0
 10
218.6844013063869
 20
105.4642704017438
 30
0.0
 10
218.6848647336004
 20
105.4462737821467
 30
0.0
  0
SPLINE
  5
10F
330
1F
100
AcDbEntity
  8
0
  6
Continuous
 62
     7
370
     0
100
AcDbSpline
210
0.0
220
0.0
230
1.0
 70
     8
 71
     3
 72
    23
 73
    19
 74
     0
 42
0.00000001
 43
0.00000001
 40
0.0
 40
0.0
 40
0.0
 40
0.0
 40
0.0621313717366117
 40
0.1219658247853497
 40
0.1805702366487598
 40
0.2385759705888209
 40
0.2960002420906481
 40
0.3543589964435931
 40
0.4137812280524365
 40
0.4750979653520684
 40
0.5372798973856026
 40
0.5989179536770425
 40
0.6612351129787322
 40
0.7243219805737479
 40
0.7892171825086325
 40
0.8563966620881328
 40
0.9265077687361052
 40
1.0
 40
1.0
 40
1.0
 40
1.0
 10
217.5258286091346
 20
105.452859214672
 30
0.0
 10
217.5262806114522
 20
105.4708591427554
 30
0.0
 10
217.5271679061299
 20
105.5061935642143
 30
0.0
 10
217.5348343340719
 20
105.558040845709
 30
0.0
 10
217.5471132229467
 20
105.6077235126269
 30
0.0
 10
217.5645398391947
 20
105.6551013407061
 30
0.0
 10
217.5863725332161
 20
105.7005642928786
 30
0.0
 10
217.6139217111895
 20
105.743279467664
 30
0.0
 10
217.6455877801495
 20
105.7844540823522
 30
0.0
 10
217.6826830751845
 20
105.8224237336962
 30
0.0
 10
217.7235614490208
 20
105.8572002594197
 30
0.0
 10
217.7678391073102
 20
105.8881479517292
 30
0.0
 10
217.8158548632935
 20
105.9134556404063
 30
0.0
 10
217.8668081575435
 20
105.9346150007351
 30
0.0
 10
217.9209509289372
 20
105.9511805425987
 30
0.0
 10
217.9784738974728
 20
105.962462599478
 30
0.0
 10
218.0391742821028
 20
105.9696388246355
 30
0.0
 10
218.0807676272097
 20
105.9705725709028
 30
0.0
 10
218.1020539551049
 20
105.9710504365124
 30
0.0
  0
SPLINE
  5
110
330
1F
100
AcDbEntity
  8
0
  6
Continuous
 62
     7
370
     0
100
AcDbSpline
210
0.0
220
0.0
230
1.0
 70
     8
 71
     3
 72
    15
 73
    11
 74
     0
 42
0.00000001
 43
0.00000001
 40
0.0
 40
0.0
 40
0.0
 40
0.0
 40
0.1453591950554989
 40
0.2787017789350165
 40
0.4036022344180536
 40
0.5216687911804251
 40
0.6375206936077398
 40
0.7537041507630958
 40
0.8732127703640606
 40
1.0
 40
1.0
 40
1.0
 40
1.0
 10
217.8369902959585
 20
105.0433276295003
 30
0.0
 10
217.8119966455437
 20
105.0531052870906
 30
0.0
 10
217.7640755296484
 20
105.0718522990232
 30
0.0
 10
217.6994422989587
 20
105.109370346828
 30
0.0
 10
217.6447406004487
 20
105.1525299199858
 30
0.0
 10
217.6006420986666
 20
105.2023717833712
 30
0.0
 10
217.567031023004
 20
105.2578655693755
 30
0.0
 10
217.5428297196904
 20
105.3183037342586
 30
0.0
 10
217.5286545918816
 20
105.3840229855577
 30
0.0
 10
217.5267889810833
 20
105.4294661548357
 30
0.0
 10
217.5258286091346
 20
105.452859214672
 30
0.0
  0
SPLINE
  5
111
330
1F
100
AcDbEntity
  8
0
  6
Continuous
 62
     7
370
     0
100
AcDbSpline
210
0.0
220
0.0
230
1.0
 70
     8
 71
     3
 72
    23
 73
    19
 74
     0
 42
0.00000001
 43
0.00000001
 40
0.0
 40
0.0
 40
0.0
 40
0.0
 40
0.0698340680322546
 40
0.1370265239564767
 40
0.2014822968650622
 40
0.2645399492437557
 40
0.3259725932884495
 40
0.3863863095292152
 40
0.4457607667910172
 40
0.5056119070745054
 40
0.5651144217391008
 40
0.6247503916637622
 40
0.6841789512645825
 40
0.7442191416569944
 40
0.8051791454666236
 40
0.8683948608225696
 40
0.9332039334133245
 40
1.0
 40
1.0
 40
1.0
 40
1.0
 10
217.4468034188302
 20
104.5214321018645
 30
0.0
 10
217.4471607299363
 20
104.5379026499796
 30
0.0
 10
217.4478618361474
 20
104.5702207150654
 30
0.0
 10
217.4521446564408
 20
104.61762252233
 30
0.0
 10
217.4606802350174
 20
104.6628014270589
 30
0.0
 10
217.471674603879
 20
104.7060236682613
 30
0.0
 10
217.4856340122626
 20
104.7473973763066
 30
0.0
 10
217.5028555995325
 20
104.7865976432517
 30
0.0
 10
217.5237498217577
 20
104.8235297262677
 30
0.0
 10
217.5474870282827
 20
104.8584339408727
 30
0.0
 10
217.5743667554649
 20
104.8910652465645
 30
0.0
 10
217.6039533451287
 20
104.921137884028
 30
0.0
 10
217.6363542692677
 20
104.948309797204
 30
0.0
 10
217.670841421567
 20
104.9733745958298
 30
0.0
 10
217.7088603798507
 20
104.9945592682193
 30
0.0
 10
217.7489972311182
 20
105.0140001523275
 30
0.0
 10
217.7919420341885
 20
105.03057962174
 30
0.0
 10
217.8218238221399
 20
105.0390357363542
 30
0.0
 10
217.8369902959585
 20
105.0433276295003
 30
0.0
  0
SPLINE
  5
112
330
1F
100
AcDbEntity
  8
0
  6
Continuous
 62
     7
370
     0
100
AcDbSpline
210
0.0
220
0.0
230
1.0
 70
     8
 71
     3
 72
    23
 73
    19
 74
     0
 42
0.00000001
 43
0.00000001
 40
0.0
 40
0.0
 40
0.0
 40
0.0
 40
0.0704416310595481
 40
0.1380893247200281
 40
0.2031777335235315
 40
0.2661387238052539
 40
0.3279287813674604
 40
0.3891903607612971
 40
0.4502535751031184
 40
0.5123465781279282
 40
0.5738427205586503
 40
0.6339325568070916
 40
0.6934598075975581
 40
0.7524794354833053
 40
0.8123859308429278
 40
0.8730704652319968
 40
0.9351843065837714
 40
1.0
 40
1.0
 40
1.0
 40
1.0
 10
218.1053466713676
 20
103.8900537584942
 30
0.0
 10
218.0813167727211
 20
103.8906351213709
 30
0.0
 10
218.034210077046
 20
103.8917747884378
 30
0.0
 10
217.9652475333393
 20
103.899880770883
 30
0.0
 10
217.8999831149281
 20
103.9144079405019
 30
0.0
 10
217.8382689463656
 20
103.9342752083009
 30
0.0
 10
217.7797702492574
 20
103.959191109618
 30
0.0
 10
217.7253509228665
 20
103.9908172342746
 30
0.0
 10
217.6742612487918
 20
104.0276952328584
 30
0.0
 10
217.6273092030032
 20
104.0698562626816
 30
0.0
 10
217.5849932974152
 20
104.1162051483838
 30
0.0
 10
217.5481584185092
 20
104.1659312025364
 30
0.0
 10
217.5167604485493
 20
104.2182691566855
 30
0.0
 10
217.4909206006283
 20
104.2735140525467
 30
0.0
 10
217.4712247442656
 20
104.3316663934718
 30
0.0
 10
217.4574019586545
 20
104.3925078548669
 30
0.0
 10
217.4483241729939
 20
104.4559919446341
 30
0.0
 10
217.4473174797879
 20
104.4993113471092
 30
0.0
 10
217.4468034188302
 20
104.5214321018645
 30
0.0
  0
SPLINE
  5
113
330
1F
100
AcDbEntity
  8
0
  6
Continuous
 62
     7
370
     0
100
AcDbSpline
210
0.0
220
0.0
230
1.0
 70
     8
 71
     3
 72
    15
 73
    11
 74
     0
 42
0.00000001
 43
0.00000001
 40
0.0
 40
0.0
 40
0.0
 40
0.0
 40
0.132461622242638
 40
0.26164950103549
 40
0.3875466984163659
 40
0.5107816292933464
 40
0.6326753605997106
 40
0.7546603541381373
 40
0.8765227798028644
 40
1.0
 40
1.0
 40
1.0
 40
1.0
 10
215.6028823117254
 20
104.6210367688107
 30
0.0
 10
215.6024159060662
 20
104.5982427162238
 30
0.0
 10
215.6014946218032
 20
104.5532179582223
 30
0.0
 10
215.5939445067241
 20
104.4868656538929
 30
0.0
 10
215.5815074864853
 20
104.4229299860427
 30
0.0
 10
215.5648577482278
 20
104.3612216214957
 30
0.0
 10
215.5423617174599
 20
104.3020910160264
 30
0.0
 10
215.5150761377674
 20
104.245347172984
 30
0.0
 10
215.4836006911325
 20
104.1903979895814
 30
0.0
 10
215.4583590163364
 20
104.1565249893906
 30
0.0
 10
215.4456551101821
 20
104.1394770153928
 30
0.0
  0
SPLINE
  5
114
330
1F
100
AcDbEntity
  8
0
  6
Continuous
 62
     7
370
     0
100
AcDbSpline
210
0.0
220
0.0
230
1.0
 70
     8
 71
     3
 72
    23
 73
    19
 74
     0
 42
0.00000001
 43
0.00000001
 40
0.0
 40
0.0
 40
0.0
 40
0.0
 40
0.0619974190757221
 40
0.1220879540822937
 40
0.1813753107870036
 40
0.2395080083953663
 40
0.2978356978967516
 40
0.3568799706531185
 40
0.4172818251154289
 40
0.4796404090798165
 40
0.5425000674783568
 40
0.6049624196481908
 40
0.6669910330782646
 40
0.7302162430101637
 40
0.794172863251256
 40
0.8604581431502615
 40
0.9285781799847829
 40
1.0
 40
1.0
 40
1.0
 40
1.0
 10
214.9999036461209
 20
105.2861654538735
 30
0.0
 10
215.0206488661899
 20
105.285621912651
 30
0.0
 10
215.0615012357397
 20
105.2845515481615
 30
0.0
 10
215.1216986168179
 20
105.2757571561569
 30
0.0
 10
215.1792574394185
 20
105.2608280927226
 30
0.0
 10
215.2346291901316
 20
105.2407208208035
 30
0.0
 10
215.2870837278037
 20
105.214065197022
 30
0.0
 10
215.3371523791722
 20
105.1817908966198
 30
0.0
 10
215.3846329997687
 20
105.1436318915698
 30
0.0
 10
215.4292571679847
 20
105.1003081635476
 30
0.0
 10
215.4697330632341
 20
105.0522142708878
 30
0.0
 10
215.5059603105232
 20
105.000918730096
 30
0.0
 10
215.5355487472761
 20
104.9453947455965
 30
0.0
 10
215.5604346533376
 20
104.8870920581124
 30
0.0
 10
215.5792041365451
 20
104.8250536078538
 30
0.0
 10
215.593450829403
 20
104.7601598471347
 30
0.0
 10
215.6010680631072
 20
104.6915994557986
 30
0.0
 10
215.6022680972777
 20
104.6449257889716
 30
0.0
 10
215.6028823117254
 20
104.6210367688107
 30
0.0
  0
SPLINE
  5
115
330
1F
100
AcDbEntity
  8
0
  6
Continuous
 62
     7
370
     0
100
AcDbSpline
210
0.0
220
0.0
230
1.0
 70
     8
 71
     3
 72
    15
 73
    11
 74
     0
 42
0.00000001
 43
0.00000001
 40
0.0
 40
0.0
 40
0.0
 40
0.0
 40
0.1367294018595733
 40
0.2685149167908308
 40
0.3955294046848096
 40
0.5199999535658124
 40
0.640496476841269
 40
0.7612361017625323
 40
0.8801067171759528
 40
1.0
 40
1.0
 40
1.0
 40
1.0
 10
214.633588961897
 20
105.1491061394392
 30
0.0
 10
214.6481236231173
 20
105.1600131529425
 30
0.0
 10
214.6766673985971
 20
105.1814328021435
 30
0.0
 10
214.7211905720454
 20
105.2094790093792
 30
0.0
 10
214.7663503801604
 20
105.2331200919334
 30
0.0
 10
214.8118839361983
 20
105.2524801505569
 30
0.0
 10
214.8581529327984
 20
105.2675616021682
 30
0.0
 10
214.9048781614171
 20
105.2780394983367
 30
0.0
 10
214.9522187136053
 20
105.2851210771047
 30
0.0
 10
214.983963346017
 20
105.285816335646
 30
0.0
 10
214.9999036461209
 20
105.2861654538735
 30
0.0
  0
LINE
  5
116
330
1F
100
AcDbEntity
  8
0
  6
Continuous
 62
     7
370
     0
100
AcDbLine
 10
214.7381327032
 20
105.6812914054
 30
0.0
 11
214.6335889619
 21
105.1491061394
 31
0.0
  0
LINE
  5
117
330
1F
100
AcDbEntity
  8
0
  6
Continuous
 62
     7
370
     0
100
AcDbLine
 10
215.4975153913
 20
105.6812914054
 30
0.0
 11
214.7381327032
 21
105.6812914054
 31
0.0
  0
LINE
  5
118
330
1F
100
AcDbEntity
  8
0
  6
Continuous
 62
     7
370
     0
100
AcDbLine
 10
215.4975153913
 20
105.9447087064
 30
0.0
 11
215.4975153913
 21
105.6812914054
 31
0.0
  0
LINE
  5
119
330
1F
100
AcDbEntity
  8
0
  6
Continuous
 62
     7
370
     0
100
AcDbLine
 10
214.5228713776
 20
105.9447087064
 30
0.0
 11
215.4975153913
 21
105.9447087064
 31
0.0
  0
LINE
  5
11A
330
1F
100
AcDbEntity
  8
0
  6
Continuous
 62
     7
370
     0
100
AcDbLine
 10
214.3121375368
 20
104.8910395024
 30
0.0
 11
214.5228713776
 21
105.9447087064
 31
0.0
  0
LINE
  5
11B
330
1F
100
AcDbEntity
  8
0
  6
Continuous
 62
     7
370
     0
100
AcDbLine
 10
214.5755548378
 20
104.8646977722
 30
0.0
 11
214.3121375368
 21
104.8910395024
 31
0.0
  0
SPLINE
  5
11C
330
1F
100
AcDbEntity
  8
0
  6
Continuous
 62
     7
370
     0
100
AcDbSpline
210
0.0
220
0.0
230
1.0
 70
     8
 71
     3
 72
    15
 73
    11
 74
     0
 42
0.00000001
 43
0.00000001
 40
0.0
 40
0.0
 40
0.0
 40
0.0
 40
0.1478596367312514
 40
0.283561321939547
 40
0.4123693961385312
 40
0.5342363558879457
 40
0.6526916293119823
 40
0.7686630594981229
 40
0.8836524018604046
 40
1.0
 40
1.0
 40
1.0
 40
1.0
 10
214.9270522988089
 20
105.04908988296
 30
0.0
 10
214.9065675299435
 20
105.0484906634311
 30
0.0
 10
214.8672823790563
 20
105.0473414959805
 30
0.0
 10
214.8108336571256
 20
105.037673962272
 30
0.0
 10
214.7594463418257
 20
105.022057293092
 30
0.0
 10
214.713702238544
 20
104.9987825476084
 30
0.0
 10
214.6728321426683
 20
104.970977041119
 30
0.0
 10
214.6359869999468
 20
104.939513849114
 30
0.0
 10
214.6028629847568
 20
104.9044142434878
 30
0.0
 10
214.5846931138731
 20
104.8779883144555
 30
0.0
 10
214.5755548377671
 20
104.8646977722496
 30
0.0
  0
SPLINE
  5
11D
330
1F
100
AcDbEntity
  8
0
  6
Continuous
 62
     7
370
     0
100
AcDbSpline
210
0.0
220
0.0
230
1.0
 70
     8
 71
     3
 72
    23
 73
    19
 74
     0
 42
0.00000001
 43
0.00000001
 40
0.0
 40
0.0
 40
0.0
 40
0.0
 40
0.0728659334565351
 40
0.1418868719641256
 40
0.2074526264147115
 40
0.2704376800000974
 40
0.3316408722476697
 40
0.3901075774931577
 40
0.4480692869488358
 40
0.505502951924537
 40
0.5624881528337238
 40
0.6190843288847293
 40
0.6764155306922391
 40
0.7354523604507931
 40
0.7962407694486783
 40
0.8604056780892032
 40
0.9283049272851064
 40
1.0
 40
1.0
 40
1.0
 40
1.0
 10
215.3394650107105
 20
104.605396366563
 30
0.0
 10
215.3391626201205
 20
104.622145974917
 30
0.0
 10
215.3385737955096
 20
104.6547613470564
 30
0.0
 10
215.3336149316333
 20
104.7022547517571
 30
0.0
 10
215.3252487444729
 20
104.7469129250202
 30
0.0
 10
215.314423681637
 20
104.7892280778628
 30
0.0
 10
215.2995026978809
 20
104.8285389839071
 30
0.0
 10
215.2818055709758
 20
104.8654156128557
 30
0.0
 10
215.2601258467336
 20
104.8990753340751
 30
0.0
 10
215.2360057229228
 20
104.9305661893862
 30
0.0
 10
215.2084574963738
 20
104.9587964722713
 30
0.0
 10
215.177108995175
 20
104.9826333705391
 30
0.0
 10
215.1431900025191
 20
105.003495470432
 30
0.0
 10
215.1060173551463
 20
105.0204133319926
 30
0.0
 10
215.0655691639982
 20
105.0329826674076
 30
0.0
 10
215.0222473726387
 20
105.0426536400055
 30
0.0
 10
214.9756024533118
 20
105.0477401755876
 30
0.0
 10
214.9435264188828
 20
105.0486318979846
 30
0.0
 10
214.9270522988089
 20
105.04908988296
 30
0.0
  0
SPLINE
  5
11E
330
1F
100
AcDbEntity
  8
0
  6
Continuous
 62
     7
370
     0
100
AcDbSpline
210
0.0
220
0.0
230
1.0
 70
     8
 71
     3
 72
    23
 73
    19
 74
     0
 42
0.00000001
 43
0.00000001
 40
0.0
 40
0.0
 40
0.0
 40
0.0
 40
0.0658010376094729
 40
0.1286767959489733
 40
0.1886758749524341
 40
0.2475984367338953
 40
0.304849420118827
 40
0.3617858992828986
 40
0.4195227063685901
 40
0.4786818154207406
 40
0.5387695030440189
 40
0.5987990560131542
 40
0.6601842815006784
 40
0.722951530610966
 40
0.7879926891048742
 40
0.8554037684344732
 40
0.9261530612840041
 40
1.0
 40
1.0
 40
1.0
 40
1.0
 10
214.9258175302104
 20
104.1271293294077
 30
0.0
 10
214.9414788093028
 20
104.1275077513727
 30
0.0
 10
214.9721051229186
 20
104.1282477720129
 30
0.0
 10
215.0166606077025
 20
104.1345065692705
 30
0.0
 10
215.0587468715721
 20
104.1448266008523
 30
0.0
 10
215.0981625381562
 20
104.1592687184124
 30
0.0
 10
215.1353696797271
 20
104.1772292004623
 30
0.0
 10
215.1691339720425
 20
104.2004847530166
 30
0.0
 10
215.2012964304043
 20
104.2266262919942
 30
0.0
 10
215.2297873933306
 20
104.2577920235864
 30
0.0
 10
215.2557221743551
 20
104.2917211282783
 30
0.0
 10
215.2781058401484
 20
104.3287561893253
 30
0.0
 10
215.2969497242447
 20
104.3683773903372
 30
0.0
 10
215.3128142150123
 20
104.4105771351988
 30
0.0
 10
215.3245289837271
 20
104.4555964964088
 30
0.0
 10
215.3331461423746
 20
104.5031959795502
 30
0.0
 10
215.338678014238
 20
104.5534059055391
 30
0.0
 10
215.3391989585369
 20
104.5878204616533
 30
0.0
 10
215.3394650107105
 20
104.605396366563
 30
0.0
  0
SPLINE
  5
11F
330
1F
100
AcDbEntity
  8
0
  6
Continuous
 62
     7
370
     0
100
AcDbSpline
210
0.0
220
0.0
230
1.0
 70
     8
 71
     3
 72
    23
 73
    19
 74
     0
 42
0.00000001
 43
0.00000001
 40
0.0
 40
0.0
 40
0.0
 40
0.0
 40
0.0773613371189759
 40
0.1504798322806804
 40
0.2199772368520742
 40
0.2866809968624409
 40
0.3496784941856623
 40
0.4106796250174851
 40
0.4694271135192905
 40
0.5267557014271295
 40
0.583141980834837
 40
0.6388244277786258
 40
0.6952634704038123
 40
0.7526958048985352
 40
0.8108491833348948
 40
0.8713563036360843
 40
0.934436430984128
 40
1.0
 40
1.0
 40
1.0
 40
1.0
 10
214.5492131076656
 20
104.4959135508286
 30
0.0
 10
214.5518213524957
 20
104.4810714316084
 30
0.0
 10
214.5568947943362
 20
104.4522012014117
 30
0.0
 10
214.5665627984874
 20
104.4104106868876
 30
0.0
 10
214.5791187838177
 20
104.3715861307975
 30
0.0
 10
214.5932268156699
 20
104.3353912903106
 30
0.0
 10
214.6099965916049
 20
104.3022088805445
 30
0.0
 10
214.6281667827669
 20
104.2715149686073
 30
0.0
 10
214.6495948098032
 20
104.2443990926889
 30
0.0
 10
214.6721235031695
 20
104.2194430669044
 30
0.0
 10
214.6968504655624
 20
104.197452394663
 30
0.0
 10
214.7240142936555
 20
104.1789134993255
 30
0.0
 10
214.7528570988374
 20
104.1627394357472
 30
0.0
 10
214.7837301756022
 20
104.1494968310552
 30
0.0
 10
214.8166808405363
 20
104.1398039418407
 30
0.0
 10
214.8512897197346
 20
104.1321385304683
 30
0.0
 10
214.8880024651318
 20
104.1282759658304
 30
0.0
 10
214.9130513207472
 20
104.1275164291184
 30
0.0
 10
214.9258175302104
 20
104.1271293294077
 30
0.0
  0
LINE
  5
120
330
1F
100
AcDbEntity
  8
0
  6
Continuous
 62
     7
370
     0
100
AcDbLine
 10
214.2857958067
 20
104.4695718207
 30
0.0
 11
214.5492131077
 21
104.4959135508
 31
0.0
  0
SPLINE
  5
121
330
1F
100
AcDbEntity
  8
0
  6
Continuous
 62
     7
370
     0
100
AcDbSpline
210
0.0
220
0.0
230
1.0
 70
     8
 71
     3
 72
    23
 73
    19
 74
     0
 42
0.00000001
 43
0.00000001
 40
0.0
 40
0.0
 40
0.0
 40
0.0
 40
0.0692980234597528
 40
0.135560844101282
 40
0.1996709556470567
 40
0.2617162384956084
 40
0.3226619299471026
 40
0.3829069237782244
 40
0.4430320330728902
 40
0.503500787350163
 40
0.5637242810171083
 40
0.6239800220534739
 40
0.6836293869955233
 40
0.7438482724857305
 40
0.80519184622951
 40
0.8676487429597676
 40
0.9327780842312613
 40
1.0
 40
1.0
 40
1.0
 40
1.0
 10
214.9241711720791
 20
103.8900537584942
 30
0.0
 10
214.9020601591771
 20
103.8905022767866
 30
0.0
 10
214.8588065795901
 20
103.8913796685977
 30
0.0
 10
214.7954756432749
 20
103.8990072974294
 30
0.0
 10
214.7352404338712
 20
103.9111706758216
 30
0.0
 10
214.6780820806732
 20
103.9286167257912
 30
0.0
 10
214.6238283809008
 20
103.950661442601
 30
0.0
 10
214.5731099631656
 20
103.9786657919884
 30
0.0
 10
214.5250466639796
 20
104.0107010234506
 30
0.0
 10
214.4806957157459
 20
104.0477541365638
 30
0.0
 10
214.4402862273373
 20
104.089082602631
 30
0.0
 10
214.4040785050437
 20
104.1338107605278
 30
0.0
 10
214.3725625379961
 20
104.1819677762771
 30
0.0
 10
214.3457535373299
 20
104.2332654889734
 30
0.0
 10
214.3234094732396
 20
104.2876547026845
 30
0.0
 10
214.3063153807874
 20
104.345506644561
 30
0.0
 10
214.2927754370256
 20
104.4062536979492
 30
0.0
 10
214.2881467444975
 20
104.4482444776975
 30
0.0
 10
214.2857958066507
 20
104.4695718207271
 30
0.0
  0
SPLINE
  5
122
330
1F
100
AcDbEntity
  8
0
  6
Continuous
 62
     7
370
     0
100
AcDbSpline
210
0.0
220
0.0
230
1.0
 70
     8
 71
     3
 72
    15
 73
    11
 74
     0
 42
0.00000001
 43
0.00000001
 40
0.0
 40
0.0
 40
0.0
 40
0.0
 40
0.1278926194654212
 40
0.2515785135038573
 40
0.3727928197023035
 40
0.4927776986078535
 40
0.6135900692425712
 40
0.7378086492801463
 40
0.8661799015391671
 40
0.9999999999999999
 40
0.9999999999999999
 40
0.9999999999999999
 40
0.9999999999999999
 10
215.4456551101821
 20
104.1394770153928
 30
0.0
 10
215.4295151535933
 20
104.1195766644677
 30
0.0
 10
215.3977661261389
 20
104.0804305376243
 30
0.0
 10
215.3427930316704
 20
104.0296212079771
 30
0.0
 10
215.2836961757108
 20
103.9864402703793
 30
0.0
 10
215.2201238656922
 20
103.9513588879594
 30
0.0
 10
215.1525028831059
 20
103.923168026519
 30
0.0
 10
215.0800025227176
 20
103.904408066786
 30
0.0
 10
215.0034988266567
 20
103.8918100107339
 30
0.0
 10
214.950977554996
 20
103.8906472308499
 30
0.0
 10
214.9241711720791
 20
103.8900537584942
 30
0.0
  0
SPLINE
  5
123
330
1F
100
AcDbEntity
  8
0
  6
Continuous
 62
     7
370
     0
100
AcDbSpline
210
0.0
220
0.0
230
1.0
 70
     8
 71
     3
 72
    27
 73
    23
 74
     0
 42
0.00000001
 43
0.00000001
 40
0.0
 40
0.0
 40
0.0
 40
0.0
 40
0.0467628351215619
 40
0.091968696607212
 40
0.1358043853805056
 40
0.1782315801839235
 40
0.2194414332265379
 40
0.2601769432685921
 40
0.3002796061140319
 40
0.3405476414666171
 40
0.3803111902076692
 40
0.4196419535698123
 40
0.4590173240985177
 40
0.4981819588897615
 40
0.5376702145628715
 40
0.5779133315743612
 40
0.6186488416164155
 40
0.6607616027603175
 40
0.7452991770631804
 40
0.8297447416906314
 40
0.9146020866092538
 40
1.0
 40
1.0
 40
1.0
 40
1.0
 10
210.8193887611069
 20
105.7603165957004
 30
0.0
 10
210.8012631834114
 20
105.760053611571
 30
0.0
 10
210.7656155210833
 20
105.7595363993972
 30
0.0
 10
210.7132448167671
 20
105.7538755695321
 30
0.0
 10
210.6629507252925
 20
105.7455377195285
 30
0.0
 10
210.615108086803
 20
105.7330343966856
 30
0.0
 10
210.5694551029643
 20
105.7174460045185
 30
0.0
 10
210.5262626865983
 20
105.6980356981012
 30
0.0
 10
210.4851634237569
 20
105.6752845421551
 30
0.0
 10
210.446616003152
 20
105.6490559132211
 30
0.0
 10
210.4109443809988
 20
105.6195698865516
 30
0.0
 10
210.3771805327193
 20
105.5883985428784
 30
0.0
 10
210.3469454976269
 20
105.5540881219198
 30
0.0
 10
210.3190863232898
 20
105.5177699741504
 30
0.0
 10
210.294414267903
 20
105.4788023315984
 30
0.0
 10
210.272205285074
 20
105.4377159807288
 30
0.0
 10
210.2526009401347
 20
105.3941741866494
 30
0.0
 10
210.2312308729308
 20
105.3328924094312
 30
0.0
 10
210.2094412251789
 20
105.2539628976444
 30
0.0
 10
210.1905386788832
 20
105.1573787577006
 30
0.0
 10
210.1784982025482
 20
105.0592729412323
 30
0.0
 10
210.1771580930312
 20
104.9932851810723
 30
0.0
 10
210.1764859108173
 20
104.9601865438675
 30
0.0
  0
SPLINE
  5
124
330
1F
100
AcDbEntity
  8
0
  6
Continuous
 62
     7
370
     0
100
AcDbSpline
210
0.0
220
0.0
230
1.0
 70
     8
 71
     3
 72
    23
 73
    19
 74
     0
 42
0.00000001
 43
0.00000001
 40
0.0
 40
0.0
 40
0.0
 40
0.0
 40
0.0772311103286299
 40
0.1511651795217243
 40
0.2207847057253998
 40
0.2871495176777696
 40
0.3506324812950841
 40
0.4113067715078916
 40
0.4699644151376497
 40
0.5267072266832779
 40
0.5824983333641278
 40
0.6385087274080254
 40
0.6949179812139082
 40
0.7524203526591543
 40
0.8112509754155086
 40
0.8718561089908092
 40
0.9346441878526853
 40
1.0
 40
1.0
 40
1.0
 40
1.0
 10
211.3355220352831
 20
105.3380257350108
 30
0.0
 10
211.3298316202072
 20
105.3557973885829
 30
0.0
 10
211.3186937171932
 20
105.3905820134729
 30
0.0
 10
211.2989172808857
 20
105.4401562858195
 30
0.0
 10
211.2775593890539
 20
105.48617740736
 30
0.0
 10
211.2541112791614
 20
105.5283325472028
 30
0.0
 10
211.2285221342476
 20
105.5666318027517
 30
0.0
 10
211.201381204341
 20
105.6015406445254
 30
0.0
 10
211.1720382199587
 20
105.6324074936482
 30
0.0
 10
211.1410900419241
 20
105.6599440629068
 30
0.0
 10
211.1077374974205
 20
105.6834025847668
 30
0.0
 10
211.0727625149289
 20
105.7041906956428
 30
0.0
 10
211.0354276473618
 20
105.7213896873797
 30
0.0
 10
210.9962699842886
 20
105.7359364813982
 30
0.0
 10
210.9549235231891
 20
105.7470081591008
 30
0.0
 10
210.9115566323636
 20
105.7547975211171
 30
0.0
 10
210.8661312086378
 20
105.7593056222309
 30
0.0
 10
210.8351763337507
 20
105.7599751326848
 30
0.0
 10
210.8193887611069
 20
105.7603165957004
 30
0.0
  0
LINE
  5
125
330
1F
100
AcDbEntity
  8
0
  6
Continuous
 62
     7
370
     0
100
AcDbLine
 10
211.6252810664
 20
105.4001757545
 30
0.0
 11
211.3355220353
 21
105.338025735
 31
0.0
  0
SPLINE
  5
126
330
1F
100
AcDbEntity
  8
0
  6
Continuous
 62
     7
370
     0
100
AcDbSpline
210
0.0
220
0.0
230
1.0
 70
     8
 71
     3
 72
    23
 73
    19
 74
     0
 42
0.00000001
 43
0.00000001
 40
0.0
 40
0.0
 40
0.0
 40
0.0
 40
0.0686494919759957
 40
0.134937373785155
 40
0.1988418982006104
 40
0.2614093284183097
 40
0.3225167637069052
 40
0.3823768656987784
 40
0.4424709047536874
 40
0.5022278334792912
 40
0.5621014330908561
 40
0.62173160809488
 40
0.6818513124344153
 40
0.7420491672939588
 40
0.8039081304743815
 40
0.8671621602461707
 40
0.9323605979385298
 40
1.0
 40
1.0
 40
1.0
 40
1.0
 10
210.8333828052234
 20
105.9973921666139
 30
0.0
 10
210.8579586988328
 20
105.9969289231786
 30
0.0
 10
210.906265051096
 20
105.9960183723385
 30
0.0
 10
210.9771460165177
 20
105.9885289120651
 30
0.0
 10
211.0450314747754
 20
105.9759848865193
 30
0.0
 10
211.1102155857757
 20
105.9595283112728
 30
0.0
 10
211.1720206425009
 20
105.9369958340995
 30
0.0
 10
211.2311176455366
 20
105.9102073084412
 30
0.0
 10
211.2869186967313
 20
105.8780241398426
 30
0.0
 10
211.3398579758739
 20
105.8413307799807
 30
0.0
 10
211.3890737127827
 20
105.8000595577224
 30
0.0
 10
211.4352546293984
 20
105.7551964312762
 30
0.0
 10
211.4765177105403
 20
105.7056201497478
 30
0.0
 10
211.5144972250674
 20
105.6525305474889
 30
0.0
 10
211.5479982108036
 20
105.5951914528892
 30
0.0
 10
211.5782531351287
 20
105.5341028012853
 30
0.0
 10
211.6042714894887
 20
105.4688104683986
 30
0.0
 10
211.6181926048518
 20
105.4233325525615
 30
0.0
 10
211.6252810663996
 20
105.400175754469
 30
0.0
  0
SPLINE
  5
127
330
1F
100
AcDbEntity
  8
0
  6
Continuous
 62
     7
370
     0
100
AcDbSpline
210
0.0
220
0.0
230
1.0
 70
     8
 71
     3
 72
    31
 73
    27
 74
     0
 42
0.00000001
 43
0.00000001
 40
0.0
 40
0.0
 40
0.0
 40
0.0
 40
0.0494014326173349
 40
0.0976047534771127
 40
0.1442547055445423
 40
0.1894721438466749
 40
0.2339150059350921
 40
0.2772371111508619
 40
0.3198588355644323
 40
0.3619566544332702
 40
0.4034857542265475
 40
0.4439336363338552
 40
0.4836491750513743
 40
0.5228932833172718
 40
0.5618583840947368
 40
0.6007948668981946
 40
0.6401043361891355
 40
0.6796434268265384
 40
0.7193997691904886
 40
0.7588541926680972
 40
0.7983154646830742
 40
0.8378024081343659
 40
0.8774685864444087
 40
0.9176827969423332
 40
0.9583928898538524
 40
0.9999999999999999
 40
0.9999999999999999
 40
0.9999999999999999
 40
0.9999999999999999
 10
209.8867268797009
 20
104.958951775269
 30
0.0
 10
209.8871917380751
 20
104.9850263110429
 30
0.0
 10
209.8881101808128
 20
105.0365430080577
 30
0.0
 10
209.8932947751709
 20
105.1125573898898
 30
0.0
 10
209.9028169957426
 20
105.1859205675447
 30
0.0
 10
209.9160405904215
 20
105.2566807977483
 30
0.0
 10
209.9327737278719
 20
105.3248953861207
 30
0.0
 10
209.9534289103486
 20
105.3905975665158
 30
0.0
 10
209.9777448506638
 20
105.4537032736969
 30
0.0
 10
210.0056474177568
 20
105.5142820943517
 30
0.0
 10
210.037321991327
 20
105.5716578090935
 30
0.0
 10
210.0718232149501
 20
105.6259119821484
 30
0.0
 10
210.1099740752983
 20
105.6761537841289
 30
0.0
 10
210.1506434561107
 20
105.7233430984982
 30
0.0
 10
210.1948471024281
 20
105.7666941702079
 30
0.0
 10
210.2424500357441
 20
105.806305199587
 30
0.0
 10
210.2930415582144
 20
105.8425374894241
 30
0.0
 10
210.3466142853853
 20
105.8750546737448
 30
0.0
 10
210.4024679593285
 20
105.9035868016519
 30
0.0
 10
210.4597729732291
 20
105.9290006165984
 30
0.0
 10
210.5187572534898
 20
105.9498306925173
 30
0.0
 10
210.5789531560762
 20
105.9671500632898
 30
0.0
 10
210.6404902773041
 20
105.9809378913178
 30
0.0
 10
210.7035124053348
 20
105.9901578549215
 30
0.0
 10
210.7679613067004
 20
105.9961662975549
 30
0.0
 10
210.811417789444
 20
105.9969805858059
 30
0.0
 10
210.8333828052234
 20
105.9973921666139
 30
0.0
  0
SPLINE
  5
128
330
1F
100
AcDbEntity
  8
0
  6
Continuous
 62
     7
370
     0
100
AcDbSpline
210
0.0
220
0.0
230
1.0
 70
     8
 71
     3
 72
    31
 73
    27
 74
     0
 42
0.00000001
 43
0.00000001
 40
0.0
 40
0.0
 40
0.0
 40
0.0
 40
0.0491959188678573
 40
0.0962478839423339
 40
0.1413486305545651
 40
0.18465611934875
 40
0.226058682310063
 40
0.2661730836384061
 40
0.3052898413966903
 40
0.3432450951047079
 40
0.3808772760868657
 40
0.4184957931350257
 40
0.4563187508918002
 40
0.494236737091876
 40
0.533023528957667
 40
0.572473194333944
 40
0.613078809089891
 40
0.6549344546107934
 40
0.6973967795046183
 40
0.7398840686663996
 40
0.7821947798191174
 40
0.8250615348667028
 40
0.8679874655774052
 40
0.9114105439600777
 40
0.9553719455228146
 40
1.0
 40
1.0
 40
1.0
 40
1.0
 10
210.8391450586831
 20
103.8900537584942
 30
0.0
 10
210.8125176688457
 20
103.8904406066576
 30
0.0
 10
210.760423308465
 20
103.8911974441757
 30
0.0
 10
210.6841080738864
 20
103.8973533594649
 30
0.0
 10
210.6115247920131
 20
103.9080298365343
 30
0.0
 10
210.5428090104717
 20
103.9228632734367
 30
0.0
 10
210.4777294401187
 20
103.9412038960259
 30
0.0
 10
210.4165559481934
 20
103.9642780244307
 30
0.0
 10
210.3593956821735
 20
103.9919191702871
 30
0.0
 10
210.3057718494868
 20
104.0233542967409
 30
0.0
 10
210.2559122088371
 20
104.0590660159478
 30
0.0
 10
210.2086829345822
 20
104.0980905656666
 30
0.0
 10
210.1652305964663
 20
104.1415022486378
 30
0.0
 10
210.1244687216879
 20
104.1882760747676
 30
0.0
 10
210.0872851187061
 20
104.2390290558052
 30
0.0
 10
210.0523117946383
 20
104.293071691186
 30
0.0
 10
210.0212557772828
 20
104.3513562098707
 30
0.0
 10
209.9929661546308
 20
104.4128020153963
 30
0.0
 10
209.9681357481652
 20
104.4768142019729
 30
0.0
 10
209.9461695236461
 20
104.5421283520985
 30
0.0
 10
209.9282109342373
 20
104.6088746112642
 30
0.0
 10
209.9127497476339
 20
104.6764913213046
 30
0.0
 10
209.9015179447307
 20
104.7455474303514
 30
0.0
 10
209.8926002409713
 20
104.8155248062562
 30
0.0
 10
209.8876971081542
 20
104.8868524708715
 30
0.0
 10
209.8870519076053
 20
104.9347984063017
 30
0.0
 10
209.8867268797009
 20
104.958951775269
 30
0.0
  0
SPLINE
  5
129
330
1F
100
AcDbEntity
  8
0
  6
Continuous
 62
     7
370
     0
100
AcDbSpline
210
0.0
220
0.0
230
1.0
 70
     8
 71
     3
 72
    23
 73
    19
 74
     0
 42
0.00000001
 43
0.00000001
 40
0.0
 40
0.0
 40
0.0
 40
0.0
 40
0.0715783870982365
 40
0.140016209075356
 40
0.206197439946981
 40
0.2701561038056543
 40
0.3320010402688309
 40
0.3927550109285565
 40
0.4525790344906381
 40
0.512252798847904
 40
0.5715322524285594
 40
0.630151752872219
 40
0.6887691695485556
 40
0.7481639008503594
 40
0.8087033721996509
 40
0.8702562984804197
 40
0.9339000275070017
 40
1.0
 40
1.0
 40
1.0
 40
1.0
 10
211.6779645266026
 20
104.5741155620674
 30
0.0
 10
211.6707052540262
 20
104.5469572530171
 30
0.0
 10
211.6565052158861
 20
104.4938322297764
 30
0.0
 10
211.6284300155753
 20
104.4178044409236
 30
0.0
 10
211.5969190463188
 20
104.3464556040685
 30
0.0
 10
211.5612077093145
 20
104.2799736647122
 30
0.0
 10
211.5209051472659
 20
104.2187408527196
 30
0.0
 10
211.4770792152467
 20
104.161970208334
 30
0.0
 10
211.4279940297895
 20
104.1108522656828
 30
0.0
 10
211.3754505849877
 20
104.0642072493341
 30
0.0
 10
211.31903977277
 20
104.0230664693794
 30
0.0
 10
211.2594417142583
 20
103.9875406511526
 30
0.0
 10
211.1969444936527
 20
103.9573153912634
 30
0.0
 10
211.1312955166703
 20
103.9324599934393
 30
0.0
 10
211.0624522225068
 20
103.9137541755348
 30
0.0
 10
210.9907690864038
 20
103.9001202795558
 30
0.0
 10
210.9160370850738
 20
103.891722593702
 30
0.0
 10
210.8650971904279
 20
103.8906170136613
 30
0.0
 10
210.8391450586831
 20
103.8900537584942
 30
0.0
  0
LINE
  5
12A
330
1F
100
AcDbEntity
  8
0
  6
Continuous
 62
     7
370
     0
100
AcDbLine
 10
211.3882054955
 20
104.6416162455
 30
0.0
 11
211.6779645266
 21
104.5741155621
 31
0.0
  0
SPLINE
  5
12B
330
1F
100
AcDbEntity
  8
0
  6
Continuous
 62
     7
370
     0
100
AcDbSpline
210
0.0
220
0.0
230
1.0
 70
     8
 71
     3
 72
    23
 73
    19
 74
     0
 42
0.00000001
 43
0.00000001
 40
0.0
 40
0.0
 40
0.0
 40
0.0
 40
0.0633358805656859
 40
0.1251107589802128
 40
0.1846884118917139
 40
0.2432104439678636
 40
0.3008880404131166
 40
0.358370115531299
 40
0.4157614077031932
 40
0.4743866229897766
 40
0.533966264972407
 40
0.5940075641988068
 40
0.6550724073076795
 40
0.7186100426051375
 40
0.7843747830517759
 40
0.8529914722129185
 40
0.9249004292977553
 40
0.9999999999999999
 40
0.9999999999999999
 40
0.9999999999999999
 40
0.9999999999999999
 10
210.8119801495159
 20
104.1271293294077
 30
0.0
 10
210.8298362550499
 20
104.1275038094995
 30
0.0
 10
210.8651083771997
 20
104.1282435400928
 30
0.0
 10
210.9168217869828
 20
104.1347184435843
 30
0.0
 10
210.9666728011034
 20
104.1442600608024
 30
0.0
 10
211.0140574814934
 20
104.1589837396663
 30
0.0
 10
211.0596132056711
 20
104.1770111593695
 30
0.0
 10
211.1029667225135
 20
104.1992421206784
 30
0.0
 10
211.1439816919253
 20
104.2259794786335
 30
0.0
 10
211.1831405400978
 20
104.2563372371381
 30
0.0
 10
211.2197211432709
 20
104.2908791785986
 30
0.0
 10
211.2532452995151
 20
104.3293270163659
 30
0.0
 10
211.2833202553624
 20
104.3718560285024
 30
0.0
 10
211.311207307633
 20
104.4177836864473
 30
0.0
 10
211.3346375569122
 20
104.4684820189815
 30
0.0
 10
211.3563395000726
 20
104.5224399319828
 30
0.0
 10
211.3744231268242
 20
104.5805442716956
 30
0.0
 10
211.3835453773868
 20
104.6209664850778
 30
0.0
 10
211.3882054954861
 20
104.6416162454525
 30
0.0
  0
SPLINE
  5
12C
330
1F
100
AcDbEntity
  8
0
  6
Continuous
 62
     7
370
     0
100
AcDbSpline
210
0.0
220
0.0
230
1.0
 70
     8
 71
     3
 72
    27
 73
    23
 74
     0
 42
0.00000001
 43
0.00000001
 40
0.0
 40
0.0
 40
0.0
 40
0.0
 40
0.1053432609984026
 40
0.2043754661654296
 40
0.2980686612490644
 40
0.3870699389029766
 40
0.4297257277325169
 40
0.4709012389537418
 40
0.5111216710274202
 40
0.5501787824700682
 40
0.5883543698960263
 40
0.6266830105708967
 40
0.6644516852874769
 40
0.7025148539501567
 40
0.7404811716294024
 40
0.777618121594641
 40
0.8147160450669567
 40
0.8515265100150813
 40
0.8880984508373161
 40
0.9251116757437154
 40
0.9621036957071507
 40
1.0
 40
1.0
 40
1.0
 40
1.0
 10
210.1764859108173
 20
104.9601865438675
 30
0.0
 10
210.1772440369538
 20
104.918570546639
 30
0.0
 10
210.1787148703141
 20
104.8378317432936
 30
0.0
 10
210.1932283804149
 20
104.720827880828
 30
0.0
 10
210.2153562167952
 20
104.611694771135
 30
0.0
 10
210.2420613273204
 20
104.526549200893
 30
0.0
 10
210.2688492363498
 20
104.4637442251431
 30
0.0
 10
210.2905139512076
 20
104.4197609948682
 30
0.0
 10
210.3152433589246
 20
104.379061047322
 30
0.0
 10
210.3424223489984
 20
104.3414132425485
 30
0.0
 10
210.3724010153478
 20
104.3069273980842
 30
0.0
 10
210.4047616944583
 20
104.2754203226998
 30
0.0
 10
210.4395116148229
 20
104.2465888441529
 30
0.0
 10
210.4770625307331
 20
104.2217826163491
 30
0.0
 10
210.5159690602281
 20
104.1997568491225
 30
0.0
 10
210.555740234254
 20
104.1801711162857
 30
0.0
 10
210.5964010931783
 20
104.1636063702996
 30
0.0
 10
210.6381156863938
 20
104.1507385392005
 30
0.0
 10
210.6802982294232
 20
104.1396189441638
 30
0.0
 10
210.7234133195057
 20
104.1323551028001
 30
0.0
 10
210.7674486618935
 20
104.1282556195891
 30
0.0
 10
210.7970173054896
 20
104.1275077695904
 30
0.0
 10
210.8119801495159
 20
104.1271293294077
 30
0.0
  0
SPLINE
  5
12D
330
1F
100
AcDbEntity
  8
0
  6
Continuous
 62
     7
370
     0
100
AcDbSpline
210
0.0
220
0.0
230
1.0
 70
     8
 71
     3
 72
    23
 73
    19
 74
     0
 42
0.00000001
 43
0.00000001
 40
0.0
 40
0.0
 40
0.0
 40
0.0
 40
0.0704642259291749
 40
0.137956965604269
 40
0.2035785636142838
 40
0.2676916802449431
 40
0.3301858648593746
 40
0.3915337640898202
 40
0.4526637734870348
 40
0.5131537880892133
 40
0.5734535531000283
 40
0.6329675593891928
 40
0.6923319074206212
 40
0.75147419157163
 40
0.8121874455294295
 40
0.872961717848316
 40
0.935420306759491
 40
1.0
 40
1.0
 40
1.0
 40
1.0
 10
225.4361678407072
 20
108.1574140349365
 30
0.0
 10
225.4513260254057
 20
108.1526688730739
 30
0.0
 10
225.4810031720356
 20
108.1433786534875
 30
0.0
 10
225.5236671533148
 20
108.1263788546864
 30
0.0
 10
225.5637156019089
 20
108.1070221508261
 30
0.0
 10
225.6012356922348
 20
108.0852767333681
 30
0.0
 10
225.6359739057877
 20
108.0609412290354
 30
0.0
 10
225.6678322242574
 20
108.0339777001091
 30
0.0
 10
225.697031539459
 20
108.0048034001732
 30
0.0
 10
225.7235196839532
 20
107.9734360756022
 30
0.0
 10
225.7467867399191
 20
107.9400775818237
 30
0.0
 10
225.7676543824852
 20
107.9054570037675
 30
0.0
 10
225.7848859739719
 20
107.8691574333814
 30
0.0
 10
225.7990100820129
 20
107.8312731134333
 30
0.0
 10
225.8100289860675
 20
107.7920381359648
 30
0.0
 10
225.8179417586099
 20
107.7513015962371
 30
0.0
 10
225.8224518369387
 20
107.7091583165255
 30
0.0
 10
225.8231292363001
 20
107.6805295282417
 30
0.0
 10
225.8234735911058
 20
107.6659761327305
 30
0.0
  0
SPLINE
  5
12E
330
1F
100
AcDbEntity
  8
0
  6
Continuous
 62
     7
370
     0
100
AcDbSpline
210
0.0
220
0.0
230
1.0
 70
     8
 71
     3
 72
    15
 73
    11
 74
     0
 42
0.00000001
 43
0.00000001
 40
0.0
 40
0.0
 40
0.0
 40
0.0
 40
0.1158426906010177
 40
0.2305685484828844
 40
0.3473546045205441
 40
0.4682527467344622
 40
0.5923025714800838
 40
0.7199701656206967
 40
0.8556003811349103
 40
1.0
 40
1.0
 40
1.0
 40
1.0
 10
225.7444484008013
 20
108.5994611932023
 30
0.0
 10
225.7434897041028
 20
108.5774278135498
 30
0.0
 10
225.7415815534457
 20
108.5335734767911
 30
0.0
 10
225.726394809087
 20
108.4689733714223
 30
0.0
 10
225.7024254802541
 20
108.4062470713413
 30
0.0
 10
225.6685321706994
 20
108.3461571394862
 30
0.0
 10
225.625212272684
 20
108.2898029074935
 30
0.0
 10
225.5715079697134
 20
108.2390910820691
 30
0.0
 10
225.508190987736
 20
108.1939129819766
 30
0.0
 10
225.4606715948669
 20
108.1698317265017
 30
0.0
 10
225.4361678407072
 20
108.1574140349365
 30
0.0
  0
SPLINE
  5
12F
330
1F
100
AcDbEntity
  8
0
  6
Continuous
 62
     7
370
     0
100
AcDbSpline
210
0.0
220
0.0
230
1.0
 70
     8
 71
     3
 72
    23
 73
    19
 74
     0
 42
0.00000001
 43
0.00000001
 40
0.0
 40
0.0
 40
0.0
 40
0.0
 40
0.0587320371008649
 40
0.1146029008469815
 40
0.1676568100446119
 40
0.2179667070908431
 40
0.2657752056293755
 40
0.3111706510536958
 40
0.3537918046646693
 40
0.3947449080003065
 40
0.472805951082463
 40
0.549192366561607
 40
0.6247801075795548
 40
0.7026247640242256
 40
0.7797414321940388
 40
0.8540634639886252
 40
0.92715526641035
 40
0.9999999999999999
 40
0.9999999999999999
 40
0.9999999999999999
 40
0.9999999999999999
 10
225.0649140820893
 20
109.1320580486919
 30
0.0
 10
225.0839904785586
 20
109.131984867034
 30
0.0
 10
225.1212139511471
 20
109.1318420688153
 30
0.0
 10
225.1755679182643
 20
109.1282708332231
 30
0.0
 10
225.2270451838914
 20
109.1233861235543
 30
0.0
 10
225.2757565666334
 20
109.1170895829932
 30
0.0
 10
225.3214912928591
 20
109.1079534304999
 30
0.0
 10
225.3642067430046
 20
109.0968855924796
 30
0.0
 10
225.4041252073262
 20
109.0841191988978
 30
0.0
 10
225.4529194469472
 20
109.064671846365
 30
0.0
 10
225.5091494585654
 20
109.0347382370484
 30
0.0
 10
225.5693771428324
 20
108.9900725685315
 30
0.0
 10
225.6217775681421
 20
108.9364451226901
 30
0.0
 10
225.6648954121357
 20
108.874958219354
 30
0.0
 10
225.7004198652652
 20
108.8092786103744
 30
0.0
 10
225.7256062866534
 20
108.7406575546649
 30
0.0
 10
225.7417093300066
 20
108.6705890998226
 30
0.0
 10
225.743536408277
 20
108.6231437205868
 30
0.0
 10
225.7444484008013
 20
108.5994611932023
 30
0.0
  0
LINE
  5
130
330
1F
100
AcDbEntity
  8
0
  6
Continuous
 62
     7
370
     0
100
AcDbLine
 10
224.2956532452
 20
109.1320580487
 30
0.0
 11
225.0649140821
 21
109.1320580487
 31
0.0
  0
LINE
  5
131
330
1F
100
AcDbEntity
  8
0
  6
Continuous
 62
     7
370
     0
100
AcDbLine
 10
224.2956532452
 20
107.0774031008
 30
0.0
 11
224.2956532452
 21
109.1320580487
 31
0.0
  0
LINE
  5
132
330
1F
100
AcDbEntity
  8
0
  6
Continuous
 62
     7
370
     0
100
AcDbLine
 10
225.0669720298
 20
107.0774031008
 30
0.0
 11
224.2956532452
 21
107.0774031008
 31
0.0
  0
SPLINE
  5
133
330
1F
100
AcDbEntity
  8
0
  6
Continuous
 62
     7
370
     0
100
AcDbSpline
210
0.0
220
0.0
230
1.0
 70
     8
 71
     3
 72
    23
 73
    19
 74
     0
 42
0.00000001
 43
0.00000001
 40
0.0
 40
0.0
 40
0.0
 40
0.0
 40
0.0642545754247028
 40
0.1273603868320974
 40
0.1894718420926419
 40
0.2517207629332009
 40
0.3120272840890018
 40
0.3686746571150508
 40
0.4226814918055488
 40
0.4740604252251504
 40
0.525773772273917
 40
0.5796221048577136
 40
0.6373752855308656
 40
0.698400381820801
 40
0.7643573310122576
 40
0.8363147679791493
 40
0.9146777942540475
 40
1.0
 40
1.0
 40
1.0
 40
1.0
 10
225.8234735911058
 20
107.6659761327305
 30
0.0
 10
225.8227638233456
 20
107.6426108598566
 30
0.0
 10
225.8213569772822
 20
107.5962980459909
 30
0.0
 10
225.8100584350167
 20
107.5281333723433
 30
0.0
 10
225.7909644976508
 20
107.4625647012774
 30
0.0
 10
225.7646833167258
 20
107.4006521989655
 30
0.0
 10
225.7333682317508
 20
107.3434049754502
 30
0.0
 10
225.6977775405172
 20
107.2923219496829
 30
0.0
 10
225.6588188792957
 20
107.2479287624772
 30
0.0
 10
225.6153952122316
 20
107.210586157125
 30
0.0
 10
225.5677866406073
 20
107.1788932130809
 30
0.0
 10
225.5146484969191
 20
107.1522056815507
 30
0.0
 10
225.4563916356835
 20
107.1286698362814
 30
0.0
 10
225.391832018688
 20
107.1098685342617
 30
0.0
 10
225.3209990333211
 20
107.094932804444
 30
0.0
 10
225.242931411046
 20
107.0852290364614
 30
0.0
 10
225.157509212718
 20
107.078282439442
 30
0.0
 10
225.0979945253939
 20
107.0777044054885
 30
0.0
 10
225.0669720297535
 20
107.0774031007752
 30
0.0
  0
LINE
  5
134
330
1F
100
AcDbEntity
  8
0
  6
Continuous
 62
     7
370
     0
100
AcDbLine
 10
221.1083039029
 20
107.3144786717
 30
0.0
 11
222.0829479167
 21
107.3144786717
 31
0.0
  0
LINE
  5
135
330
1F
100
AcDbEntity
  8
0
  6
Continuous
 62
     7
370
     0
100
AcDbLine
 10
221.1083039029
 20
109.1320580487
 30
0.0
 11
221.1083039029
 21
107.3144786717
 31
0.0
  0
LINE
  5
136
330
1F
100
AcDbEntity
  8
0
  6
Continuous
 62
     7
370
     0
100
AcDbLine
 10
220.8185448718
 20
109.1320580487
 30
0.0
 11
221.1083039029
 21
109.1320580487
 31
0.0
  0
LINE
  5
137
330
1F
100
AcDbEntity
  8
0
  6
Continuous
 62
     7
370
     0
100
AcDbLine
 10
220.8185448718
 20
107.0774031008
 30
0.0
 11
220.8185448718
 21
109.1320580487
 31
0.0
  0
LINE
  5
138
330
1F
100
AcDbEntity
  8
0
  6
Continuous
 62
     7
370
     0
100
AcDbLine
 10
222.0829479167
 20
107.0774031008
 30
0.0
 11
220.8185448718
 21
107.0774031008
 31
0.0
  0
LINE
  5
139
330
1F
100
AcDbEntity
  8
0
  6
Continuous
 62
     7
370
     0
100
AcDbLine
 10
222.0829479167
 20
107.3144786717
 30
0.0
 11
222.0829479167
 21
107.0774031008
 31
0.0
  0
SPLINE
  5
13A
330
1F
100
AcDbEntity
  8
0
  6
Continuous
 62
     7
370
     0
100
AcDbSpline
210
0.0
220
0.0
230
1.0
 70
     8
 71
     3
 72
    31
 73
    27
 74
     0
 42
0.00000001
 43
0.00000001
 40
0.0
 40
0.0
 40
0.0
 40
0.0
 40
0.0430989705688968
 40
0.0855867603450731
 40
0.1269076657436391
 40
0.1679674856215208
 40
0.208449558601066
 40
0.2490254246415441
 40
0.289280534171679
 40
0.3300098489827308
 40
0.370597724099577
 40
0.4104659863326995
 40
0.4500332158929483
 40
0.4896882096042475
 40
0.5291164230741915
 40
0.5690368070925096
 40
0.6097030542359448
 40
0.6507589174942197
 40
0.6925092624061777
 40
0.7342191213706863
 40
0.7767069111468624
 40
0.8195518402403216
 40
0.8633507288313336
 40
0.9078385251300618
 40
0.9533337036124183
 40
1.0
 40
1.0
 40
1.0
 40
1.0
 10
217.4216964573272
 20
109.1583997787934
 30
0.0
 10
217.4448941823373
 20
109.1579947028432
 30
0.0
 10
217.4909606684921
 20
109.1571902952711
 30
0.0
 10
217.5590658568125
 20
109.1510698279184
 30
0.0
 10
217.6254209813172
 20
109.1401458540039
 30
0.0
 10
217.689960698842
 20
109.1255065039528
 30
0.0
 10
217.7528606868909
 20
109.1063003133173
 30
0.0
 10
217.8141585081563
 20
109.0836279896956
 30
0.0
 10
217.8733175687058
 20
109.0555337882821
 30
0.0
 10
217.9307314379988
 20
109.0240795341322
 30
0.0
 10
217.9857223878322
 20
108.988896590804
 30
0.0
 10
218.0374027447918
 20
108.9500300647042
 30
0.0
 10
218.0856487180911
 20
108.9077739016495
 30
0.0
 10
218.131108382015
 20
108.8628226777869
 30
0.0
 10
218.1722648115696
 20
108.8136593520486
 30
0.0
 10
218.2108182835055
 20
108.7617815235657
 30
0.0
 10
218.2456609411671
 20
108.7062693143733
 30
0.0
 10
218.276916413969
 20
108.6475775530411
 30
0.0
 10
218.3048619828191
 20
108.5866127230865
 30
0.0
 10
218.3287468678454
 20
108.5231221501244
 30
0.0
 10
218.3492563827921
 20
108.4578674480032
 30
0.0
 10
218.3664245771142
 20
108.3904623785965
 30
0.0
 10
218.37874321975
 20
108.320929985584
 30
0.0
 10
218.3885526880677
 20
108.2495698771771
 30
0.0
 10
218.39371568226
 20
108.176148824539
 30
0.0
 10
218.3946384537832
 20
108.1265515951127
 30
0.0
 10
218.395105702484
 20
108.1014378584709
 30
0.0
  0
SPLINE
  5
13B
330
1F
100
AcDbEntity
  8
0
  6
Continuous
 62
     7
370
     0
100
AcDbSpline
210
0.0
220
0.0
230
1.0
 70
     8
 71
     3
 72
    23
 73
    19
 74
     0
 42
0.00000001
 43
0.00000001
 40
0.0
 40
0.0
 40
0.0
 40
0.0
 40
0.0752263466908988
 40
0.1465747215268522
 40
0.2145002518264754
 40
0.2795299716530227
 40
0.3424029515883814
 40
0.4034960527288082
 40
0.4637616065030392
 40
0.5238643590795866
 40
0.5832517242549664
 40
0.6413020392831351
 40
0.6988977748564887
 40
0.7562952438113087
 40
0.814627804812969
 40
0.874324768339998
 40
0.9357832838625453
 40
1.0
 40
1.0
 40
1.0
 40
1.0
 10
216.4458176749733
 20
108.0775656655664
 30
0.0
 10
216.4465317939673
 20
108.118759726332
 30
0.0
 10
216.4479232186115
 20
108.1990242646339
 30
0.0
 10
216.4609240489458
 20
108.3158997747459
 30
0.0
 10
216.4820340603931
 20
108.4258643415835
 30
0.0
 10
216.5122126896902
 20
108.5289093981276
 30
0.0
 10
216.5504641890512
 20
108.6251964166789
 30
0.0
 10
216.5969661936912
 20
108.7149434244636
 30
0.0
 10
216.6531174531653
 20
108.7971345499653
 30
0.0
 10
216.7166388364438
 20
108.8725521993003
 30
0.0
 10
216.7875893039587
 20
108.9392269291338
 30
0.0
 10
216.8631313858632
 20
108.9984436418033
 30
0.0
 10
216.9442083657895
 20
109.0478373810676
 30
0.0
 10
217.0300711546625
 20
109.0886203258999
 30
0.0
 10
217.1210845464275
 20
109.1199322899873
 30
0.0
 10
217.216993003138
 20
109.1418535140121
 30
0.0
 10
217.3176939513343
 20
109.1559948337684
 30
0.0
 10
217.3865254061984
 20
109.1575864864248
 30
0.0
 10
217.4216964573272
 20
109.1583997787934
 30
0.0
  0
SPLINE
  5
13C
330
1F
100
AcDbEntity
  8
0
  6
Continuous
 62
     7
370
     0
100
AcDbSpline
210
0.0
220
0.0
230
1.0
 70
     8
 71
     3
 72
    31
 73
    27
 74
     0
 42
0.00000001
 43
0.00000001
 40
0.0
 40
0.0
 40
0.0
 40
0.0
 40
0.0446969998899171
 40
0.0885335629185875
 40
0.1314091332352275
 40
0.1738139421467784
 40
0.2157145332694449
 40
0.2572471603264208
 40
0.2988479641797117
 40
0.3406041827148143
 40
0.3820294481091344
 40
0.4229697500404858
 40
0.4636322295306197
 40
0.5040475437003945
 40
0.5445912057564576
 40
0.5849639251690937
 40
0.6262652162680831
 40
0.6679794005009905
 40
0.7099427472053506
 40
0.7513818550852256
 40
0.7926185649779642
 40
0.8339484357458206
 40
0.8750080506311037
 40
0.9164455302232757
 40
0.957906613728307
 40
1.0
 40
1.0
 40
1.0
 40
1.0
 10
217.4204616887286
 20
107.0510613706737
 30
0.0
 10
217.3968471307311
 20
107.0514107509853
 30
0.0
 10
217.3500726053396
 20
107.052102785884
 30
0.0
 10
217.2809385970661
 20
107.0590104738139
 30
0.0
 10
217.213524534261
 20
107.0695483923768
 30
0.0
 10
217.1480264016038
 20
107.0847619631384
 30
0.0
 10
217.084533699694
 20
107.1046091410945
 30
0.0
 10
217.0229713021342
 20
107.1286315373034
 30
0.0
 10
216.9631226874745
 20
107.1565080998894
 30
0.0
 10
216.9057304779782
 20
107.1890370261217
 30
0.0
 10
216.85099001329
 20
107.2252056954992
 30
0.0
 10
216.7994318577598
 20
107.2648343151581
 30
0.0
 10
216.7510845211574
 20
107.3075576721969
 30
0.0
 10
216.7067237803175
 20
107.3540819327311
 30
0.0
 10
216.6649129305067
 20
107.4027205742668
 30
0.0
 10
216.627323757339
 20
107.4552814649583
 30
0.0
 10
216.5927286570774
 20
107.5105725788261
 30
0.0
 10
216.5621513554393
 20
107.5691268982611
 30
0.0
 10
216.5345293393612
 20
107.6292044108982
 30
0.0
 10
216.5112571941754
 20
107.6908243339141
 30
0.0
 10
216.4908054888508
 20
107.7530785534359
 30
0.0
 10
216.4745177757908
 20
107.8163507784414
 30
0.0
 10
216.4615384505374
 20
107.88049505432
 30
0.0
 10
216.4528107948513
 20
107.9454046472369
 30
0.0
 10
216.4465076155529
 20
108.0111762289867
 30
0.0
 10
216.4460488125051
 20
108.0553244886279
 30
0.0
 10
216.4458176749733
 20
108.0775656655664
 30
0.0
  0
SPLINE
  5
13D
330
1F
100
AcDbEntity
  8
0
  6
Continuous
 62
     7
370
     0
100
AcDbSpline
210
0.0
220
0.0
230
1.0
 70
     8
 71
     3
 72
    31
 73
    27
 74
     0
 42
0.00000001
 43
0.00000001
 40
0.0
 40
0.0
 40
0.0
 40
0.0
 40
0.0475595569054264
 40
0.0939621052432108
 40
0.1391115332408221
 40
0.1836263101269046
 40
0.2274570284004936
 40
0.2707025105518545
 40
0.3136105321155538
 40
0.3562604510849769
 40
0.3983661529550377
 40
0.4395565149792806
 40
0.4800453830214204
 40
0.5198884957050127
 40
0.5596577503171976
 40
0.5994212546627414
 40
0.6392077550883982
 40
0.6796683749857806
 40
0.7200198525128486
 40
0.7598588655624579
 40
0.7995598848323808
 40
0.8391991446364383
 40
0.8789560762302792
 40
0.918794269302466
 40
0.9590833628432752
 40
1.0
 40
1.0
 40
1.0
 40
1.0
 10
218.395105702484
 20
108.1014378584709
 30
0.0
 10
218.3946776009324
 20
108.0759099957508
 30
0.0
 10
218.3938318125007
 20
108.0254753012412
 30
0.0
 10
218.3881088618851
 20
107.9509678264671
 30
0.0
 10
218.3780459255007
 20
107.8785993067678
 30
0.0
 10
218.3646991536892
 20
107.8081539523063
 30
0.0
 10
218.3468148869325
 20
107.739778415657
 30
0.0
 10
218.3255621841977
 20
107.6732766599668
 30
0.0
 10
218.2998558395365
 20
107.6090447829708
 30
0.0
 10
218.2708233772853
 20
107.546927972548
 30
0.0
 10
218.2379731585586
 20
107.4877805504077
 30
0.0
 10
218.2017371382716
 20
107.4320161032317
 30
0.0
 10
218.1620896455323
 20
107.3801562633584
 30
0.0
 10
218.1196329211558
 20
107.331564842925
 30
0.0
 10
218.0733754881724
 20
107.287110747414
 30
0.0
 10
218.023886943635
 20
107.246378298412
 30
0.0
 10
217.9713575707208
 20
107.2089833426371
 30
0.0
 10
217.9156108974476
 20
107.1759386524339
 30
0.0
 10
217.8576473739032
 20
107.1469738011307
 30
0.0
 10
217.79861400684
 20
107.121276759664
 30
0.0
 10
217.7384669449545
 20
107.0993613000992
 30
0.0
 10
217.6770006240072
 20
107.0816009983829
 30
0.0
 10
217.6143827180872
 20
107.0681800360632
 30
0.0
 10
217.5507894414256
 20
107.0581302779196
 30
0.0
 10
217.4860123264507
 20
107.0523435926702
 30
0.0
 10
217.4424241818099
 20
107.0514909743008
 30
0.0
 10
217.4204616887286
 20
107.0510613706737
 30
0.0
  0
LINE
  5
13E
330
1F
100
AcDbEntity
  8
0
  6
Continuous
 62
     7
370
     0
100
AcDbLine
 10
214.1804288862
 20
108.8949824778
 30
0.0
 11
213.5218856337
 21
108.8949824778
 31
0.0
  0
LINE
  5
13F
330
1F
100
AcDbEntity
  8
0
  6
Continuous
 62
     7
370
     0
100
AcDbLine
 10
214.1804288862
 20
109.1320580487
 30
0.0
 11
214.1804288862
 21
108.8949824778
 31
0.0
  0
LINE
  5
140
330
1F
100
AcDbEntity
  8
0
  6
Continuous
 62
     7
370
     0
100
AcDbLine
 10
212.5735833501
 20
109.1320580487
 30
0.0
 11
214.1804288862
 21
109.1320580487
 31
0.0
  0
LINE
  5
141
330
1F
100
AcDbEntity
  8
0
  6
Continuous
 62
     7
370
     0
100
AcDbLine
 10
212.5735833501
 20
108.8949824778
 30
0.0
 11
212.5735833501
 21
109.1320580487
 31
0.0
  0
LINE
  5
142
330
1F
100
AcDbEntity
  8
0
  6
Continuous
 62
     7
370
     0
100
AcDbLine
 10
213.2321266026
 20
108.8949824778
 30
0.0
 11
212.5735833501
 21
108.8949824778
 31
0.0
  0
LINE
  5
143
330
1F
100
AcDbEntity
  8
0
  6
Continuous
 62
     7
370
     0
100
AcDbLine
 10
213.2321266026
 20
107.0774031008
 30
0.0
 11
213.2321266026
 21
108.8949824778
 31
0.0
  0
LINE
  5
144
330
1F
100
AcDbEntity
  8
0
  6
Continuous
 62
     7
370
     0
100
AcDbLine
 10
213.5218856337
 20
107.0774031008
 30
0.0
 11
213.2321266026
 21
107.0774031008
 31
0.0
  0
LINE
  5
145
330
1F
100
AcDbEntity
  8
0
  6
Continuous
 62
     7
370
     0
100
AcDbLine
 10
213.5218856337
 20
108.8949824778
 30
0.0
 11
213.5218856337
 21
107.0774031008
 31
0.0
  0
CIRCLE
  5
146
330
1F
100
AcDbEntity
  8
0
  6
Continuous
 62
     7
370
     0
100
AcDbCircle
 10
220.1731724843
 20
106.5274031008
 30
0.0
 40
25.19999999999996
  0
LINE
  5
147
330
1F
100
AcDbEntity
  8
0
  6
Continuous
 62
     7
370
     0
100
AcDbLine
 10
215.7872744224
 20
108.0520471145
 30
0.0
 11
214.7862886786
 21
108.0520471145
 31
0.0
  0
LINE
  5
148
330
1F
100
AcDbEntity
  8
0
  6
Continuous
 62
     7
370
     0
100
AcDbLine
 10
215.7872744224
 20
107.0774031008
 30
0.0
 11
215.7872744224
 21
108.0520471145
 31
0.0
  0
LINE
  5
149
330
1F
100
AcDbEntity
  8
0
  6
Continuous
 62
     7
370
     0
100
AcDbLine
 10
216.0770334536
 20
107.0774031008
 30
0.0
 11
215.7872744224
 21
107.0774031008
 31
0.0
  0
LINE
  5
14A
330
1F
100
AcDbEntity
  8
0
  6
Continuous
 62
     7
370
     0
100
AcDbLine
 10
216.0770334536
 20
109.1320580487
 30
0.0
 11
216.0770334536
 21
107.0774031008
 31
0.0
  0
LINE
  5
14B
330
1F
100
AcDbEntity
  8
0
  6
Continuous
 62
     7
370
     0
100
AcDbLine
 10
215.7872744224
 20
109.1320580487
 30
0.0
 11
216.0770334536
 21
109.1320580487
 31
0.0
  0
LINE
  5
14C
330
1F
100
AcDbEntity
  8
0
  6
Continuous
 62
     7
370
     0
100
AcDbLine
 10
215.7872744224
 20
108.2891226854
 30
0.0
 11
215.7872744224
 21
109.1320580487
 31
0.0
  0
LINE
  5
14D
330
1F
100
AcDbEntity
  8
0
  6
Continuous
 62
     7
370
     0
100
AcDbLine
 10
214.7862886786
 20
108.2891226854
 30
0.0
 11
215.7872744224
 21
108.2891226854
 31
0.0
  0
LINE
  5
14E
330
1F
100
AcDbEntity
  8
0
  6
Continuous
 62
     7
370
     0
100
AcDbLine
 10
214.7862886786
 20
109.1320580487
 30
0.0
 11
214.7862886786
 21
108.2891226854
 31
0.0
  0
LINE
  5
14F
330
1F
100
AcDbEntity
  8
0
  6
Continuous
 62
     7
370
     0
100
AcDbLine
 10
214.4965296475
 20
109.1320580487
 30
0.0
 11
214.7862886786
 21
109.1320580487
 31
0.0
  0
LINE
  5
150
330
1F
100
AcDbEntity
  8
0
  6
Continuous
 62
     7
370
     0
100
AcDbLine
 10
214.4965296475
 20
107.0774031008
 30
0.0
 11
214.4965296475
 21
109.1320580487
 31
0.0
  0
LINE
  5
151
330
1F
100
AcDbEntity
  8
0
  6
Continuous
 62
     7
370
     0
100
AcDbLine
 10
214.7862886786
 20
107.0774031008
 30
0.0
 11
214.4965296475
 21
107.0774031008
 31
0.0
  0
LINE
  5
152
330
1F
100
AcDbEntity
  8
0
  6
Continuous
 62
     7
370
     0
100
AcDbLine
 10
214.7862886786
 20
108.0520471145
 30
0.0
 11
214.7862886786
 21
107.0774031008
 31
0.0
  0
LINE
  5
153
330
1F
100
AcDbEntity
  8
0
  6
Continuous
 62
     7
370
     0
100
AcDbLine
 10
219.3504050082
 20
107.9993636543
 30
0.0
 11
219.053648955
 21
107.9993636543
 31
0.0
  0
SPLINE
  5
154
330
1F
100
AcDbEntity
  8
0
  6
Continuous
 62
     7
370
     0
100
AcDbSpline
210
0.0
220
0.0
230
1.0
 70
     8
 71
     3
 72
    11
 73
     7
 74
     0
 42
0.00000001
 43
0.00000001
 40
0.0
 40
0.0
 40
0.0
 40
0.0
 40
0.1774946570818496
 40
0.4052256231013751
 40
0.6783881083348569
 40
0.9999999999999999
 40
0.9999999999999999
 40
0.9999999999999999
 40
0.9999999999999999
 10
219.4932265760901
 20
107.9898970950723
 30
0.0
 10
219.4848749954382
 20
107.9914031689015
 30
0.0
 10
219.4658080864442
 20
107.9948415806031
 30
0.0
 10
219.433432522551
 20
107.9970872127673
 30
0.0
 10
219.3942055550058
 20
107.9994706508735
 30
0.0
 10
219.3657771031288
 20
107.9994012054812
 30
0.0
 10
219.350405008196
 20
107.9993636543276
 30
0.0
  0
SPLINE
  5
155
330
1F
100
AcDbEntity
  8
0
  6
Continuous
 62
     7
370
     0
100
AcDbSpline
210
0.0
220
0.0
230
1.0
 70
     8
 71
     3
 72
    21
 73
    17
 74
     0
 42
0.00000001
 43
0.00000001
 40
0.0
 40
0.0
 40
0.0
 40
0.0
 40
0.0807814705861227
 40
0.1565412257955895
 40
0.227934986843486
 40
0.2943103173046012
 40
0.3568678635548113
 40
0.4147585592592751
 40
0.4676413968340161
 40
0.5167484215300129
 40
0.604729741894053
 40
0.6815706529393896
 40
0.7481095416219826
 40
0.8049410995352804
 40
0.9054060495000024
 40
1.0
 40
1.0
 40
1.0
 40
1.0
 10
219.9245724065021
 20
107.5112184683842
 30
0.0
 10
219.9153676199513
 20
107.5264394019981
 30
0.0
 10
219.8975302550285
 20
107.5559350720867
 30
0.0
 10
219.871764820434
 20
107.5990120783381
 30
0.0
 10
219.8465026589322
 20
107.638671326198
 30
0.0
 10
219.8230724362417
 20
107.676046298553
 30
0.0
 10
219.8005233146647
 20
107.7104584712125
 30
0.0
 10
219.7790731714904
 20
107.7420273853598
 30
0.0
 10
219.7593123241841
 20
107.7711671839077
 30
0.0
 10
219.7348359600279
 20
107.8050934927567
 30
0.0
 10
219.7063495374081
 20
107.8426332683183
 30
0.0
 10
219.6731078367358
 20
107.8812921483326
 30
0.0
 10
219.6414518818959
 20
107.9121143584045
 30
0.0
 10
219.6024669892988
 20
107.9423388140676
 30
0.0
 10
219.5541783018699
 20
107.9706087119095
 30
0.0
 10
219.5131320060284
 20
107.9835979533375
 30
0.0
 10
219.4932265760901
 20
107.9898970950723
 30
0.0
  0
LINE
  5
156
330
1F
100
AcDbEntity
  8
0
  6
Continuous
 62
     7
370
     0
100
AcDbLine
 10
220.1805810959
 20
107.0774031008
 30
0.0
 11
219.9245724065
 21
107.5112184684
 31
0.0
  0
LINE
  5
157
330
1F
100
AcDbEntity
  8
0
  6
Continuous
 62
     7
370
     0
100
AcDbLine
 10
220.5127338489
 20
107.0774031008
 30
0.0
 11
220.1805810959
 21
107.0774031008
 31
0.0
  0
LINE
  5
158
330
1F
100
AcDbEntity
  8
0
  6
Continuous
 62
     7
370
     0
100
AcDbLine
 10
220.1756420215
 20
107.644573477
 30
0.0
 11
220.5127338489
 21
107.0774031008
 31
0.0
  0
SPLINE
  5
159
330
1F
100
AcDbEntity
  8
0
  6
Continuous
 62
     7
370
     0
100
AcDbSpline
210
0.0
220
0.0
230
1.0
 70
     8
 71
     3
 72
    11
 73
     7
 74
     0
 42
0.00000001
 43
0.00000001
 40
0.0
 40
0.0
 40
0.0
 40
0.0
 40
0.2295275697008571
 40
0.4714659343032296
 40
0.7281863484998701
 40
1.0
 40
1.0
 40
1.0
 40
1.0
 10
219.9591459272603
 20
107.9244543593514
 30
0.0
 10
219.9785557371323
 20
107.9054270734727
 30
0.0
 10
220.0184248655244
 20
107.8663436765381
 30
0.0
 10
220.0733662562124
 20
107.7997732026163
 30
0.0
 10
220.1266338213811
 20
107.7256700500449
 30
0.0
 10
220.1589978835527
 20
107.6721154505473
 30
0.0
 10
220.175642021532
 20
107.644573477023
 30
0.0
  0
SPLINE
  5
15A
330
1F
100
AcDbEntity
  8
0
  6
Continuous
 62
     7
370
     0
100
AcDbSpline
210
0.0
220
0.0
230
1.0
 70
     8
 71
     3
 72
    11
 73
     7
 74
     0
 42
0.00000001
 43
0.00000001
 40
0.0
 40
0.0
 40
0.0
 40
0.0
 40
0.2930762433192213
 40
0.5565623371181898
 40
0.7919136092098108
 40
1.0
 40
1.0
 40
1.0
 40
1.0
 10
219.79944918852
 20
108.0257053844291
 30
0.0
 10
219.8159910355269
 20
108.0173488081939
 30
0.0
 10
219.847404598517
 20
108.0014793690779
 30
0.0
 10
219.8908970657346
 20
107.9765962263715
 30
0.0
 10
219.9277641246592
 20
107.9511717862523
 30
0.0
 10
219.9491230800562
 20
107.9329874793547
 30
0.0
 10
219.9591459272603
 20
107.9244543593514
 30
0.0
  0
SPLINE
  5
15B
330
1F
100
AcDbEntity
  8
0
  6
Continuous
 62
     7
370
     0
100
AcDbSpline
210
0.0
220
0.0
230
1.0
 70
     8
 71
     3
 72
    23
 73
    19
 74
     0
 42
0.00000001
 43
0.00000001
 40
0.0
 40
0.0
 40
0.0
 40
0.0
 40
0.0614130692946597
 40
0.1212950233845471
 40
0.1792240423087202
 40
0.2359380947348319
 40
0.2922168332673612
 40
0.3481966394342069
 40
0.4044447389633588
 40
0.4620255339229974
 40
0.5203342118681488
 40
0.5803829016508381
 40
0.641825904813988
 40
0.7063632097966277
 40
0.7738513938275595
 40
0.8452662573568828
 40
0.920154675768406
 40
1.0
 40
1.0
 40
1.0
 40
1.0
 10
220.3443937299947
 20
108.5780585374948
 30
0.0
 10
220.3439916697189
 20
108.5604826888695
 30
0.0
 10
220.3431975731021
 20
108.5257691825346
 30
0.0
 10
220.3371147131384
 20
108.4747310364673
 30
0.0
 10
220.3261082691595
 20
108.4259661402481
 30
0.0
 10
220.3119946741623
 20
108.3790474196583
 30
0.0
 10
220.2926774682341
 20
108.3346396379737
 30
0.0
 10
220.270299323625
 20
108.2918357527205
 30
0.0
 10
220.2425759840583
 20
108.2518117008258
 30
0.0
 10
220.2115366397101
 20
108.2135017059597
 30
0.0
 10
220.1759428353879
 20
108.1777262659319
 30
0.0
 10
220.1354814531548
 20
108.1457760706604
 30
0.0
 10
220.0905535774084
 20
108.1170368060577
 30
0.0
 10
220.0409476158894
 20
108.0923013996007
 30
0.0
 10
219.9872345830868
 20
108.0696920637706
 30
0.0
 10
219.9287405279865
 20
108.0514859371822
 30
0.0
 10
219.8657015277174
 20
108.0366192387621
 30
0.0
 10
219.8219999624437
 20
108.0294202096667
 30
0.0
 10
219.79944918852
 20
108.0257053844291
 30
0.0
  0
SPLINE
  5
15C
330
1F
100
AcDbEntity
  8
0
  6
Continuous
 62
     7
370
     0
100
AcDbSpline
210
0.0
220
0.0
230
1.0
 70
     8
 71
     3
 72
    27
 73
    23
 74
     0
 42
0.00000001
 43
0.00000001
 40
0.0
 40
0.0
 40
0.0
 40
0.0
 40
0.0621127506505295
 40
0.1202119588785538
 40
0.1743851213884739
 40
0.2254437557784867
 40
0.2723582126361769
 40
0.3163881629634409
 40
0.3568694790582284
 40
0.3939783235063669
 40
0.4295893718770922
 40
0.4646830409549871
 40
0.5000363461428401
 40
0.535482747753064
 40
0.5713634671484438
 40
0.6079085322052602
 40
0.645662298533116
 40
0.6845173397035776
 40
0.7625786223763463
 40
0.8404972886541806
 40
0.9190729926935233
 40
1.0
 40
1.0
 40
1.0
 40
1.0
 10
219.6553928520274
 20
109.1320580486919
 30
0.0
 10
219.676385016214
 20
109.1318935663986
 30
0.0
 10
219.7170128929629
 20
109.1315752301719
 30
0.0
 10
219.7759317029965
 20
109.1293217712184
 30
0.0
 10
219.8309265055924
 20
109.1244639048622
 30
0.0
 10
219.8820984177923
 20
109.1192107994412
 30
0.0
 10
219.9294383478146
 20
109.1111479842304
 30
0.0
 10
219.9728974563424
 20
109.1019001173272
 30
0.0
 10
220.012542842042
 20
109.090895015896
 30
0.0
 10
220.0485517437673
 20
109.0778971427218
 30
0.0
 10
220.0819601527901
 20
109.063191996434
 30
0.0
 10
220.1129272244433
 20
109.0450482200738
 30
0.0
 10
220.1427402199835
 20
109.0251665098608
 30
0.0
 10
220.1702926751388
 20
109.0018084674283
 30
0.0
 10
220.1963112886094
 20
108.9762335729687
 30
0.0
 10
220.2207719455267
 20
108.9480943179253
 30
0.0
 10
220.2433125253293
 20
108.9171465108329
 30
0.0
 10
220.2711136311136
 20
108.8728537808607
 30
0.0
 10
220.3009385494446
 20
108.8138651919045
 30
0.0
 10
220.325787391091
 20
108.7383725795365
 30
0.0
 10
220.3418094796633
 20
108.6594045514834
 30
0.0
 10
220.3435238889175
 20
108.6054390522885
 30
0.0
 10
220.3443937299947
 20
108.5780585374948
 30
0.0
  0
LINE
  5
15D
330
1F
100
AcDbEntity
  8
0
  6
Continuous
 62
     7
370
     0
100
AcDbLine
 10
218.7638899239
 20
109.1320580487
 30
0.0
 11
219.655392852
 21
109.1320580487
 31
0.0
  0
LINE
  5
15E
330
1F
100
AcDbEntity
  8
0
  6
Continuous
 62
     7
370
     0
100
AcDbLine
 10
218.7638899239
 20
107.0774031008
 30
0.0
 11
218.7638899239
 21
109.1320580487
 31
0.0
  0
LINE
  5
15F
330
1F
100
AcDbEntity
  8
0
  6
Continuous
 62
     7
370
     0
100
AcDbLine
 10
219.053648955
 20
107.0774031008
 30
0.0
 11
218.7638899239
 21
107.0774031008
 31
0.0
  0
LINE
  5
160
330
1F
100
AcDbEntity
  8
0
  6
Continuous
 62
     7
370
     0
100
AcDbLine
 10
219.053648955
 20
107.9993636543
 30
0.0
 11
219.053648955
 21
107.0774031008
 31
0.0
  0
LINE
  5
161
330
1F
100
AcDbEntity
  8
0
  6
Continuous
 62
     7
370
     0
100
AcDbLine
 10
223.5350357885
 20
107.7096046232
 30
0.0
 11
222.6591732627
 21
107.7096046232
 31
0.0
  0
LINE
  5
162
330
1F
100
AcDbEntity
  8
0
  6
Continuous
 62
     7
370
     0
100
AcDbLine
 10
223.7688186432
 20
107.0774031008
 30
0.0
 11
223.5350357885
 21
107.7096046232
 31
0.0
  0
LINE
  5
163
330
1F
100
AcDbEntity
  8
0
  6
Continuous
 62
     7
370
     0
100
AcDbLine
 10
224.0762760242
 20
107.0774031008
 30
0.0
 11
223.7688186432
 21
107.0774031008
 31
0.0
  0
LINE
  5
164
330
1F
100
AcDbEntity
  8
0
  6
Continuous
 62
     7
370
     0
100
AcDbLine
 10
223.2605055701
 20
109.1320580487
 30
0.0
 11
224.0762760242
 21
107.0774031008
 31
0.0
  0
LINE
  5
165
330
1F
100
AcDbEntity
  8
0
  6
Continuous
 62
     7
370
     0
100
AcDbLine
 10
222.9337034811
 20
109.1320580487
 30
0.0
 11
223.2605055701
 21
109.1320580487
 31
0.0
  0
LINE
  5
166
330
1F
100
AcDbEntity
  8
0
  6
Continuous
 62
     7
370
     0
100
AcDbLine
 10
222.117933027
 20
107.0774031008
 30
0.0
 11
222.9337034811
 21
109.1320580487
 31
0.0
  0
LINE
  5
167
330
1F
100
AcDbEntity
  8
0
  6
Continuous
 62
     7
370
     0
100
AcDbLine
 10
222.425390408
 20
107.0774031008
 30
0.0
 11
222.117933027
 21
107.0774031008
 31
0.0
  0
LINE
  5
168
330
1F
100
AcDbEntity
  8
0
  6
Continuous
 62
     7
370
     0
100
AcDbLine
 10
222.6591732627
 20
107.7096046232
 30
0.0
 11
222.425390408
 21
107.0774031008
 31
0.0
  0
SPLINE
  5
169
330
1F
100
AcDbEntity
  8
0
  6
Continuous
 62
     7
370
     0
100
AcDbSpline
210
0.0
220
0.0
230
1.0
 70
     8
 71
     3
 72
    23
 73
    19
 74
     0
 42
0.00000001
 43
0.00000001
 40
0.0
 40
0.0
 40
0.0
 40
0.0
 40
0.0749313059818448
 40
0.1470775964339469
 40
0.2163644561730687
 40
0.2825027309006237
 40
0.3466877108244162
 40
0.4088355551310375
 40
0.4692619872876909
 40
0.5284320432534628
 40
0.5870013379727417
 40
0.644416393832067
 40
0.7021887902662974
 40
0.7597671795443349
 40
0.8184897928274489
 40
0.8776328274167843
 40
0.9380195662701677
 40
1.0
 40
1.0
 40
1.0
 40
1.0
 10
227.3372998928761
 20
108.1574140349365
 30
0.0
 10
227.3520727888766
 20
108.1506027811995
 30
0.0
 10
227.3810695080403
 20
108.1372334315635
 30
0.0
 10
227.4221472435923
 20
108.1144072782601
 30
0.0
 10
227.4604772274027
 20
108.0907035468844
 30
0.0
 10
227.4957497788191
 20
108.0654840529439
 30
0.0
 10
227.5278508446373
 20
108.0386957478631
 30
0.0
 10
227.5571393522733
 20
108.0106455666832
 30
0.0
 10
227.5837921940345
 20
107.9814911559961
 30
0.0
 10
227.606733930294
 20
107.9502994049122
 30
0.0
 10
227.6273332556942
 20
107.91833122452
 30
0.0
 10
227.6453590371074
 20
107.8851398184148
 30
0.0
 10
227.659873050124
 20
107.8505299942969
 30
0.0
 10
227.6726027448309
 20
107.8149189414649
 30
0.0
 10
227.681759046636
 20
107.7779105614212
 30
0.0
 10
227.6889394340648
 20
107.7398786635219
 30
0.0
 10
227.6931276339701
 20
107.7006444867914
 30
0.0
 10
227.6935317425115
 20
107.674080463647
 30
0.0
 10
227.693736428312
 20
107.6606254688036
 30
0.0
  0
SPLINE
  5
16A
330
1F
100
AcDbEntity
  8
0
  6
Continuous
 62
     7
370
     0
100
AcDbSpline
210
0.0
220
0.0
230
1.0
 70
     8
 71
     3
 72
    23
 73
    19
 74
     0
 42
0.00000001
 43
0.00000001
 40
0.0
 40
0.0
 40
0.0
 40
0.0
 40
0.0327432182311376
 40
0.0724096054938575
 40
0.1196114857927603
 40
0.1746729151985131
 40
0.2373450901947013
 40
0.3083524168429163
 40
0.3876300477623597
 40
0.4747836155862522
 40
0.5633323159904144
 40
0.6451362168299873
 40
0.7202025267224655
 40
0.7891341563324459
 40
0.8514970735699655
 40
0.9073306044315619
 40
0.9569686823424193
 40
1.0
 40
1.0
 40
1.0
 40
1.0
 10
226.5293496399193
 20
108.4331790219366
 30
0.0
 10
226.5364851169185
 20
108.4270972755886
 30
0.0
 10
226.5522647837453
 20
108.4136478690377
 30
0.0
 10
226.581625286347
 20
108.3958491541895
 30
0.0
 10
226.6180279551855
 20
108.3778658211862
 30
0.0
 10
226.6617160269357
 20
108.3599889965706
 30
0.0
 10
226.7126143347036
 20
108.3420016575547
 30
0.0
 10
226.7706407785126
 20
108.32348148008
 30
0.0
 10
226.8360163742424
 20
108.3050874812896
 30
0.0
 10
226.9067488025896
 20
108.2873618200406
 30
0.0
 10
226.9782050483179
 20
108.2695649002712
 30
0.0
 10
227.0461125048749
 20
108.2518358097671
 30
0.0
 10
227.1084630446438
 20
108.2350335107449
 30
0.0
 10
227.1651577439675
 20
108.2186456203407
 30
0.0
 10
227.2162552836263
 20
108.202718477584
 30
0.0
 10
227.2615780809471
 20
108.186918388304
 30
0.0
 10
227.3014928145017
 20
108.172386313961
 30
0.0
 10
227.3259453043313
 20
108.1621618131865
 30
0.0
 10
227.3372998928761
 20
108.1574140349365
 30
0.0
  0
SPLINE
  5
16B
330
1F
100
AcDbEntity
  8
0
  6
Continuous
 62
     7
370
     0
100
AcDbSpline
210
0.0
220
0.0
230
1.0
 70
     8
 71
     3
 72
    11
 73
     7
 74
     0
 42
0.00000001
 43
0.00000001
 40
0.0
 40
0.0
 40
0.0
 40
0.0
 40
0.2627412305282691
 40
0.5099565029432329
 40
0.7533267184204503
 40
1.0
 40
1.0
 40
1.0
 40
1.0
 10
226.4556751135417
 20
108.6146900059172
 30
0.0
 10
226.4564239190824
 20
108.5970126578708
 30
0.0
 10
226.4578772815949
 20
108.562702555216
 30
0.0
 10
226.4727182377893
 20
108.5139582418355
 30
0.0
 10
226.4955437322512
 20
108.4695246418766
 30
0.0
 10
226.5180304811556
 20
108.4453485470535
 30
0.0
 10
226.5293496399193
 20
108.4331790219366
 30
0.0
  0
SPLINE
  5
16C
330
1F
100
AcDbEntity
  8
0
  6
Continuous
 62
     7
370
     0
100
AcDbSpline
210
0.0
220
0.0
230
1.0
 70
     8
 71
     3
 72
    23
 73
    19
 74
     0
 42
0.00000001
 43
0.00000001
 40
0.0
 40
0.0
 40
0.0
 40
0.0
 40
0.0915110363280375
 40
0.177142860314148
 40
0.257108485228235
 40
0.3311983993883849
 40
0.4005922945239581
 40
0.4656249598049642
 40
0.5269734913138602
 40
0.5854431157040231
 40
0.6413985080863308
 40
0.6950441672657243
 40
0.7467815514927477
 40
0.7969589345766993
 40
0.8475448623598797
 40
0.8974385414187385
 40
0.9476489188871287
 40
1.0
 40
1.0
 40
1.0
 40
1.0
 10
226.8907252497492
 20
108.9213242078799
 30
0.0
 10
226.8724655371489
 20
108.9211865747984
 30
0.0
 10
226.837119224307
 20
108.9209201510018
 30
0.0
 10
226.7860221206962
 20
108.9160635780917
 30
0.0
 10
226.7386617104611
 20
108.9094001877902
 30
0.0
 10
226.6951193401339
 20
108.8995711204801
 30
0.0
 10
226.6555376488343
 20
108.8867048383693
 30
0.0
 10
226.6193291875265
 20
108.8718472349096
 30
0.0
 10
226.587507288411
 20
108.8530187708434
 30
0.0
 10
226.559330128116
 20
108.83204631073
 30
0.0
 10
226.5350237585805
 20
108.808841442147
 30
0.0
 10
226.5140752686223
 20
108.784389121056
 30
0.0
 10
226.4955479472584
 20
108.7594077742289
 30
0.0
 10
226.4811518098817
 20
108.7325319048754
 30
0.0
 10
226.4694311902715
 20
108.7047793429835
 30
0.0
 10
226.4618701027573
 20
108.6756284312853
 30
0.0
 10
226.4565166761683
 20
108.6456183859141
 30
0.0
 10
226.4559595108759
 20
108.625141930165
 30
0.0
 10
226.4556751135417
 20
108.6146900059172
 30
0.0
  0
SPLINE
  5
16D
330
1F
100
AcDbEntity
  8
0
  6
Continuous
 62
     7
370
     0
100
AcDbSpline
210
0.0
220
0.0
230
1.0
 70
     8
 71
     3
 72
    23
 73
    19
 74
     0
 42
0.00000001
 43
0.00000001
 40
0.0
 40
0.0
 40
0.0
 40
0.0
 40
0.0671554674490462
 40
0.1314033464826141
 40
0.1927317719102091
 40
0.2512526591565257
 40
0.3077037298841914
 40
0.3626989162982003
 40
0.417778332785431
 40
0.4723043857981144
 40
0.5278725997916964
 40
0.5852299868117375
 40
0.6450565760102912
 40
0.707952356429442
 40
0.7744342720454286
 40
0.84494043137526
 40
0.9204035944750272
 40
1.0
 40
1.0
 40
1.0
 40
1.0
 10
227.3512939369926
 20
108.552539986459
 30
0.0
 10
227.3494528508082
 20
108.5672525977106
 30
0.0
 10
227.3458503908004
 20
108.596040817455
 30
0.0
 10
227.3369131657281
 20
108.6377160965246
 30
0.0
 10
227.324384974592
 20
108.6764222203896
 30
0.0
 10
227.3097106232972
 20
108.7125201498584
 30
0.0
 10
227.2919222373407
 20
108.7456344267373
 30
0.0
 10
227.2711861266025
 20
108.7760830205271
 30
0.0
 10
227.2472497692425
 20
108.8035071948391
 30
0.0
 10
227.2207290729178
 20
108.8286316014935
 30
0.0
 10
227.1908170177128
 20
108.8505079463215
 30
0.0
 10
227.1576673010671
 20
108.8694972852371
 30
0.0
 10
227.1212239652021
 20
108.8855389283679
 30
0.0
 10
227.0815191166294
 20
108.8986775572896
 30
0.0
 10
227.0385448945645
 20
108.9088647362339
 30
0.0
 10
226.9922035536394
 20
108.9163586195411
 30
0.0
 10
226.9425130055035
 20
108.9201965727068
 30
0.0
 10
226.9082918990671
 20
108.9209417087475
 30
0.0
 10
226.8907252497492
 20
108.9213242078799
 30
0.0
  0
LINE
  5
16E
330
1F
100
AcDbEntity
  8
0
  6
Continuous
 62
     7
370
     0
100
AcDbLine
 10
227.6410529681
 20
108.5525399865
 30
0.0
 11
227.351293937
 21
108.5525399865
 31
0.0
  0
SPLINE
  5
16F
330
1F
100
AcDbEntity
  8
0
  6
Continuous
 62
     7
370
     0
100
AcDbSpline
210
0.0
220
0.0
230
1.0
 70
     8
 71
     3
 72
    23
 73
    19
 74
     0
 42
0.00000001
 43
0.00000001
 40
0.0
 40
0.0
 40
0.0
 40
0.0
 40
0.1004750608070148
 40
0.1956443031597846
 40
0.286083379069932
 40
0.3729828804699542
 40
0.4150256681909619
 40
0.4560516735090279
 40
0.4959387495188998
 40
0.5355660888033517
 40
0.5740871099085042
 40
0.6125192874870976
 40
0.651080960134445
 40
0.6895131377130386
 40
0.7662374603277348
 40
0.8423504388672227
 40
0.9199744947371038
 40
1.0
 40
1.0
 40
1.0
 40
1.0
 10
226.8792007428298
 20
109.1583997787934
 30
0.0
 10
226.9157345106478
 20
109.1575626632982
 30
0.0
 10
226.9868727960007
 20
109.1559326381316
 30
0.0
 10
227.0902387353571
 20
109.1423711256734
 30
0.0
 10
227.1866508593876
 20
109.1190824401823
 30
0.0
 10
227.2622605550026
 20
109.0930130933261
 30
0.0
 10
227.318157918765
 20
109.0666214167588
 30
0.0
 10
227.357868962419
 20
109.0460282595151
 30
0.0
 10
227.3947286636045
 20
109.022218818362
 30
0.0
 10
227.4290688339762
 20
108.9964532782332
 30
0.0
 10
227.4612084472444
 20
108.9687434061357
 30
0.0
 10
227.4903214431789
 20
108.9384300757914
 30
0.0
 10
227.5176719892627
 20
108.9065475231766
 30
0.0
 10
227.5498126922076
 20
108.8607741669475
 30
0.0
 10
227.584467183874
 20
108.8001933889408
 30
0.0
 10
227.6144307090345
 20
108.7217085847807
 30
0.0
 10
227.6350160003253
 20
108.638874318006
 30
0.0
 10
227.6390203131718
 20
108.5816088686449
 30
0.0
 10
227.641052968109
 20
108.552539986459
 30
0.0
  0
SPLINE
  5
170
330
1F
100
AcDbEntity
  8
0
  6
Continuous
 62
     7
370
     0
100
AcDbSpline
210
0.0
220
0.0
230
1.0
 70
     8
 71
     3
 72
    23
 73
    19
 74
     0
 42
0.00000001
 43
0.00000001
 40
0.0
 40
0.0
 40
0.0
 40
0.0
 40
0.0749954673898322
 40
0.1491654404266561
 40
0.2236642943382247
 40
0.3004120221906725
 40
0.3395704846106348
 40
0.3789205746932795
 40
0.4180957375990935
 40
0.4582296767501551
 40
0.4984267212184583
 40
0.5397075464534805
 40
0.5822159516458436
 40
0.6258238199943749
 40
0.7154812648736979
 40
0.8073840844133601
 40
0.9016341255073719
 40
1.0
 40
1.0
 40
1.0
 40
1.0
 10
226.1659160824252
 20
108.5957568874068
 30
0.0
 10
226.1668939869583
 20
108.6212293463326
 30
0.0
 10
226.1688390319784
 20
108.6718938822928
 30
0.0
 10
226.1860926472716
 20
108.7462409303675
 30
0.0
 10
226.21361249375
 20
108.8177825661982
 30
0.0
 10
226.2449384367115
 20
108.8745805202905
 30
0.0
 10
226.2754881536626
 20
108.9175308789928
 30
0.0
 10
226.3008141010598
 20
108.9484629421839
 30
0.0
 10
226.3292221044217
 20
108.977055476135
 30
0.0
 10
226.3598372959972
 20
109.0037076133336
 30
0.0
 10
226.3932069533582
 20
109.0280211400012
 30
0.0
 10
226.428503171977
 20
109.0509953115268
 30
0.0
 10
226.4670034778203
 20
109.0707421632727
 30
0.0
 10
226.5211021331261
 20
109.0958754484258
 30
0.0
 10
226.593473098682
 20
109.1209733839627
 30
0.0
 10
226.6845790924485
 20
109.1428430512598
 30
0.0
 10
226.7804651593765
 20
109.1557216436477
 30
0.0
 10
226.8458233551682
 20
109.1574944399901
 30
0.0
 10
226.8792007428298
 20
109.1583997787934
 30
0.0
  0
SPLINE
  5
171
330
1F
100
AcDbEntity
  8
0
  6
Continuous
 62
     7
370
     0
100
AcDbSpline
210
0.0
220
0.0
230
1.0
 70
     8
 71
     3
 72
    15
 73
    11
 74
     0
 42
0.00000001
 43
0.00000001
 40
0.0
 40
0.0
 40
0.0
 40
0.0
 40
0.1448052410584837
 40
0.2795118010254855
 40
0.4063939211311608
 40
0.5275015404829168
 40
0.6453932904726503
 40
0.7618854106740865
 40
0.8789420729184871
 40
1.0
 40
1.0
 40
1.0
 40
1.0
 10
226.4692575681253
 20
108.1516517814768
 30
0.0
 10
226.4450750241273
 20
108.1647158883526
 30
0.0
 10
226.3983964206678
 20
108.1899330145764
 30
0.0
 10
226.3355721902738
 20
108.2350213068235
 30
0.0
 10
226.2826363984243
 20
108.2850551123213
 30
0.0
 10
226.2398123708216
 20
108.3399618799497
 30
0.0
 10
226.2062528561279
 20
108.3988130044449
 30
0.0
 10
226.1836103983034
 20
108.4617085332717
 30
0.0
 10
226.1681021838264
 20
108.5275067950803
 30
0.0
 10
226.1666529007839
 20
108.5727534160309
 30
0.0
 10
226.1659160824252
 20
108.5957568874068
 30
0.0
  0
SPLINE
  5
172
330
1F
100
AcDbEntity
  8
0
  6
Continuous
 62
     7
370
     0
100
AcDbSpline
210
0.0
220
0.0
230
1.0
 70
     8
 71
     3
 72
    23
 73
    19
 74
     0
 42
0.00000001
 43
0.00000001
 40
0.0
 40
0.0
 40
0.0
 40
0.0
 40
0.031200111153937
 40
0.0704867190162008
 40
0.1172148300204117
 40
0.1715755269954914
 40
0.2341219784876085
 40
0.3039626396728061
 40
0.3821556401561972
 40
0.4676462220680265
 40
0.5543353814021599
 40
0.6350744656665042
 40
0.7100366878785244
 40
0.7790924037748317
 40
0.8429656453505103
 40
0.9010012068505269
 40
0.953246256459026
 40
1.0
 40
1.0
 40
1.0
 40
1.0
 10
227.1850117657268
 20
107.9240427698186
 30
0.0
 10
227.1777731174529
 20
107.92701327219
 30
0.0
 10
227.1614196960043
 20
107.9337241766787
 30
0.0
 10
227.1333906990354
 20
107.9426082587553
 30
0.0
 10
227.100130744491
 20
107.9540962833922
 30
0.0
 10
227.0608407886928
 20
107.9659270790688
 30
0.0
 10
227.0157311680445
 20
107.9784424062694
 30
0.0
 10
226.964876985529
 20
107.9926078591846
 30
0.0
 10
226.9083066576333
 20
108.0076720429996
 30
0.0
 10
226.8476246165438
 20
108.0237062258045
 30
0.0
 10
226.7863542467614
 20
108.0400105308535
 30
0.0
 10
226.7278175663876
 20
108.056330104572
 30
0.0
 10
226.6739610376085
 20
108.0728965623562
 30
0.0
 10
226.6243435027468
 20
108.0888477740028
 30
0.0
 10
226.5792207627695
 20
108.1048647952053
 30
0.0
 10
226.5384647489887
 20
108.1205091143417
 30
0.0
 10
226.5020246485399
 20
108.1354633289367
 30
0.0
 10
226.4797684224066
 20
108.1464589335472
 30
0.0
 10
226.4692575681253
 20
108.1516517814768
 30
0.0
  0
SPLINE
  5
173
330
1F
100
AcDbEntity
  8
0
  6
Continuous
 62
     7
370
     0
100
AcDbSpline
210
0.0
220
0.0
230
1.0
 70
     8
 71
     3
 72
    15
 73
    11
 74
     0
 42
0.00000001
 43
0.00000001
 40
0.0
 40
0.0
 40
0.0
 40
0.0
 40
0.1177675192120368
 40
0.230176448544057
 40
0.3398429589695384
 40
0.4506252599208614
 40
0.5669428888721625
 40
0.6960213064547937
 40
0.8394383602270619
 40
1.0
 40
1.0
 40
1.0
 40
1.0
 10
227.4039773971955
 20
107.6466314246872
 30
0.0
 10
227.4032837020804
 20
107.6614839391157
 30
0.0
 10
227.401927875966
 20
107.6905131574093
 30
0.0
 10
227.3930923326819
 20
107.7327760729968
 30
0.0
 10
227.3762991341411
 20
107.7714589166463
 30
0.0
 10
227.3545080291601
 20
107.808140541722
 30
0.0
 10
227.3241928814907
 20
107.841677940693
 30
0.0
 10
227.2858931135391
 20
107.8725796623142
 30
0.0
 10
227.2387648853069
 20
107.9005954623878
 30
0.0
 10
227.2035907531767
 20
107.9159385475168
 30
0.0
 10
227.1850117657268
 20
107.9240427698186
 30
0.0
  0
SPLINE
  5
174
330
1F
100
AcDbEntity
  8
0
  6
Continuous
 62
     7
370
     0
100
AcDbSpline
210
0.0
220
0.0
230
1.0
 70
     8
 71
     3
 72
    19
 73
    15
 74
     0
 42
0.00000001
 43
0.00000001
 40
0.0
 40
0.0
 40
0.0
 40
0.0
 40
0.1055838864195047
 40
0.2058681332620123
 40
0.300946717742213
 40
0.3930019285950097
 40
0.4809485116065868
 40
0.5628738662802266
 40
0.6414613436333616
 40
0.7177416181792268
 40
0.7917717603087844
 40
0.8627163930302565
 40
0.9317768462002763
 40
1.0
 40
1.0
 40
1.0
 40
1.0
 10
226.9347653297627
 20
107.2881369415872
 30
0.0
 10
226.9579929116643
 20
107.2885668593889
 30
0.0
 10
227.0032821985855
 20
107.289405115853
 30
0.0
 10
227.0687982143346
 20
107.2994746527703
 30
0.0
 10
227.1304489755258
 20
107.3137580203767
 30
0.0
 10
227.1870870972016
 20
107.3353638500911
 30
0.0
 10
227.2385036470939
 20
107.3616001018847
 30
0.0
 10
227.2831531604091
 20
107.3933334636742
 30
0.0
 10
227.3212725398081
 20
107.4291199786681
 30
0.0
 10
227.3511227769275
 20
107.4699022438397
 30
0.0
 10
227.3745725271774
 20
107.5126352378279
 30
0.0
 10
227.3917753431265
 20
107.556560348395
 30
0.0
 10
227.4020227080255
 20
107.6014337710381
 30
0.0
 10
227.4033284888123
 20
107.6316269233037
 30
0.0
 10
227.4039773971955
 20
107.6466314246872
 30
0.0
  0
SPLINE
  5
175
330
1F
100
AcDbEntity
  8
0
  6
Continuous
 62
     7
370
     0
100
AcDbSpline
210
0.0
220
0.0
230
1.0
 70
     8
 71
     3
 72
    19
 73
    15
 74
     0
 42
0.00000001
 43
0.00000001
 40
0.0
 40
0.0
 40
0.0
 40
0.0
 40
0.0937964706969321
 40
0.1801880710186105
 40
0.2603631916661885
 40
0.3348466760639744
 40
0.4070930058327154
 40
0.4814483792884674
 40
0.5592709137563652
 40
0.6422698113109349
 40
0.7285859445716477
 40
0.8159775452756136
 40
0.9060351298875359
 40
1.0
 40
1.0
 40
1.0
 40
1.0
 10
226.3766499232372
 20
107.7886298135156
 30
0.0
 10
226.3798371044761
 20
107.7626134370112
 30
0.0
 10
226.3859598512613
 20
107.7126345768003
 30
0.0
 10
226.4030796628204
 20
107.6417970661119
 30
0.0
 10
226.4251139649205
 20
107.5781068741112
 30
0.0
 10
226.4525680978923
 20
107.5207187195109
 30
0.0
 10
226.4886829637632
 20
107.470320682826
 30
0.0
 10
226.5321951648685
 20
107.424862423377
 30
0.0
 10
226.5850383649678
 20
107.3854983233136
 30
0.0
 10
226.6446862919144
 20
107.3504668533225
 30
0.0
 10
226.7111174360404
 20
107.3229616087333
 30
0.0
 10
226.7820386071508
 20
107.3025715181692
 30
0.0
 10
226.8571115730849
 20
107.29049022704
 30
0.0
 10
226.9085169201841
 20
107.2889323957038
 30
0.0
 10
226.9347653297627
 20
107.2881369415872
 30
0.0
  0
LINE
  5
176
330
1F
100
AcDbEntity
  8
0
  6
Continuous
 62
     7
370
     0
100
AcDbLine
 10
226.0868908921
 20
107.7886298135
 30
0.0
 11
226.3766499232
 21
107.7886298135
 31
0.0
  0
SPLINE
  5
177
330
1F
100
AcDbEntity
  8
0
  6
Continuous
 62
     7
370
     0
100
AcDbSpline
210
0.0
220
0.0
230
1.0
 70
     8
 71
     3
 72
    31
 73
    27
 74
     0
 42
0.00000001
 43
0.00000001
 40
0.0
 40
0.0
 40
0.0
 40
0.0
 40
0.0524925849212958
 40
0.1028254751380329
 40
0.1513973394924577
 40
0.1980330772483325
 40
0.2428758954632244
 40
0.2859991683849086
 40
0.3278486614843784
 40
0.3683945968796912
 40
0.4078519911389193
 40
0.4468375528599374
 40
0.4851660451611074
 40
0.5233414044713737
 40
0.5616022144094732
 40
0.5999198855663566
 40
0.6384964264110082
 40
0.6777905770472508
 40
0.7172899891758322
 40
0.7566052415928194
 40
0.7960678905323556
 40
0.8358862309537681
 40
0.8757136832726162
 40
0.9162634539474125
 40
0.9577596754778293
 40
1.0
 40
1.0
 40
1.0
 40
1.0
 10
226.9475246052806
 20
107.0510613706737
 30
0.0
 10
226.9251538600509
 20
107.0512459842674
 30
0.0
 10
226.881332765874
 20
107.0516076159248
 30
0.0
 10
226.8169425622114
 20
107.0559870893932
 30
0.0
 10
226.7552362531887
 20
107.0623222129964
 30
0.0
 10
226.6962743949481
 20
107.0717584501275
 30
0.0
 10
226.6402418860577
 20
107.084138280856
 30
0.0
 10
226.5869375952314
 20
107.0990040649636
 30
0.0
 10
226.5362351762298
 20
107.1161250801857
 30
0.0
 10
226.4883117849488
 20
107.1362590973384
 30
0.0
 10
226.4432925214718
 20
107.1596526258936
 30
0.0
 10
226.4003678939345
 20
107.1848883242435
 30
0.0
 10
226.3602395339066
 20
107.2134941709838
 30
0.0
 10
226.3228229661907
 20
107.2450206688604
 30
0.0
 10
226.2871701345658
 20
107.2785570454471
 30
0.0
 10
226.2547587428036
 20
107.3154728988134
 30
0.0
 10
226.2244868863819
 20
107.3546886763923
 30
0.0
 10
226.1970462684653
 20
107.3965632959115
 30
0.0
 10
226.1725322539223
 20
107.4405488988189
 30
0.0
 10
226.1504871707328
 20
107.4859067942073
 30
0.0
 10
226.1319138796897
 20
107.5329660181848
 30
0.0
 10
226.1169455744423
 20
107.5814887344576
 30
0.0
 10
226.1042666620487
 20
107.6311502284053
 30
0.0
 10
226.0954741293316
 20
107.6823648386425
 30
0.0
 10
226.0890095631192
 20
107.7349717697854
 30
0.0
 10
226.0876012872125
 20
107.7706381522682
 30
0.0
 10
226.0868908921207
 20
107.7886298135156
 30
0.0
  0
SPLINE
  5
178
330
1F
100
AcDbEntity
  8
0
  6
Continuous
 62
     7
370
     0
100
AcDbSpline
210
0.0
220
0.0
230
1.0
 70
     8
 71
     3
 72
    23
 73
    19
 74
     0
 42
0.00000001
 43
0.00000001
 40
0.0
 40
0.0
 40
0.0
 40
0.0
 40
0.0748159666505558
 40
0.1485345605139197
 40
0.2238723272963846
 40
0.3012971209351247
 40
0.3408936290197579
 40
0.38034006206544
 40
0.4201265887284643
 40
0.4599499070829665
 40
0.5008311555562169
 40
0.5419071755971084
 40
0.5844387941530512
 40
0.6280801713306066
 40
0.7172666799070602
 40
0.8078600064218678
 40
0.9019246558363443
 40
1.0
 40
1.0
 40
1.0
 40
1.0
 10
227.693736428312
 20
107.6606254688036
 30
0.0
 10
227.6926641428119
 20
107.6337729560064
 30
0.0
 10
227.6905352996968
 20
107.5804617930875
 30
0.0
 10
227.6722051927008
 20
107.5018786733861
 30
0.0
 10
227.6434095640816
 20
107.4257320690249
 30
0.0
 10
227.6096395567064
 20
107.3653055438895
 30
0.0
 10
227.5777166927188
 20
107.3191484602706
 30
0.0
 10
227.5508999811488
 20
107.2859728580514
 30
0.0
 10
227.5211617897919
 20
107.2552969583446
 30
0.0
 10
227.4892342427351
 20
107.2261597434199
 30
0.0
 10
227.4548694526848
 20
107.1991557076901
 30
0.0
 10
227.417777703144
 20
107.1742756557862
 30
0.0
 10
227.3783504799753
 20
107.1512605885964
 30
0.0
 10
227.3220493967673
 20
107.1232153814821
 30
0.0
 10
227.2472722049448
 20
107.0938774317329
 30
0.0
 10
227.1520210742021
 20
107.0694457807192
 30
0.0
 10
227.051637919518
 20
107.0535963645905
 30
0.0
 10
226.9827086489817
 20
107.0519180462815
 30
0.0
 10
226.9475246052806
 20
107.0510613706737
 30
0.0
  0
LINE
  5
179
330
1F
100
AcDbEntity
  8
0
  6
Continuous
 62
     7
370
     0
100
AcDbLine
 10
212.8287688604
 20
103.9163954886
 30
0.0
 11
212.2838243189
 21
105.6549496753
 31
0.0
  0
LINE
  5
17A
330
1F
100
AcDbEntity
  8
0
  6
Continuous
 62
     7
370
     0
100
AcDbLine
 10
213.1316987566
 20
103.9163954886
 30
0.0
 11
212.8287688604
 21
103.9163954886
 31
0.0
  0
LINE
  5
17B
330
1F
100
AcDbEntity
  8
0
  6
Continuous
 62
     7
370
     0
100
AcDbLine
 10
213.6799360143
 20
105.6549496753
 30
0.0
 11
213.1316987566
 21
103.9163954886
 31
0.0
  0
LINE
  5
17C
330
1F
100
AcDbEntity
  8
0
  6
Continuous
 62
     7
370
     0
100
AcDbLine
 10
213.6799360143
 20
103.9163954886
 30
0.0
 11
213.6799360143
 21
105.6549496753
 31
0.0
  0
LINE
  5
17D
330
1F
100
AcDbEntity
  8
0
  6
Continuous
 62
     7
370
     0
100
AcDbLine
 10
213.9696950454
 20
103.9163954886
 30
0.0
 11
213.6799360143
 21
103.9163954886
 31
0.0
  0
LINE
  5
17E
330
1F
100
AcDbEntity
  8
0
  6
Continuous
 62
     7
370
     0
100
AcDbLine
 10
213.9696950454
 20
105.9710504365
 30
0.0
 11
213.9696950454
 21
103.9163954886
 31
0.0
  0
LINE
  5
17F
330
1F
100
AcDbEntity
  8
0
  6
Continuous
 62
     7
370
     0
100
AcDbLine
 10
213.537526036
 20
105.9710504365
 30
0.0
 11
213.9696950454
 21
105.9710504365
 31
0.0
  0
LINE
  5
180
330
1F
100
AcDbEntity
  8
0
  6
Continuous
 62
     7
370
     0
100
AcDbLine
 10
213.0827196022
 20
104.553947675
 30
0.0
 11
213.537526036
 21
105.9710504365
 31
0.0
  0
SPLINE
  5
181
330
1F
100
AcDbEntity
  8
0
  6
Continuous
 62
     7
370
     0
100
AcDbSpline
210
0.0
220
0.0
230
1.0
 70
     8
 71
     3
 72
    15
 73
    11
 74
     0
 42
0.00000001
 43
0.00000001
 40
0.0
 40
0.0
 40
0.0
 40
0.0
 40
0.0892047702332451
 40
0.1898334556643485
 40
0.2992325919749813
 40
0.4192609378429071
 40
0.5492073901909386
 40
0.6890743636843492
 40
0.8395791979483176
 40
1.0
 40
1.0
 40
1.0
 40
1.0
 10
212.9818801666266
 20
104.2275571754196
 30
0.0
 10
212.9847485041932
 20
104.2373019637915
 30
0.0
 10
212.9908525099638
 20
104.258039496622
 30
0.0
 10
213.0007480790718
 20
104.2906457121845
 30
0.0
 10
213.0112772463435
 20
104.3267281587363
 30
0.0
 10
213.0238774321475
 20
104.3656666378643
 30
0.0
 10
213.0370116346193
 20
104.4080719720831
 30
0.0
 10
213.0507976894714
 20
104.4539089451324
 30
0.0
 10
213.066699635282
 20
104.5027199298079
 30
0.0
 10
213.0772672729968
 20
104.5365125247263
 30
0.0
 10
213.0827196021714
 20
104.5539476749585
 30
0.0
  0
SPLINE
  5
182
330
1F
100
AcDbEntity
  8
0
  6
Continuous
 62
     7
370
     0
100
AcDbSpline
210
0.0
220
0.0
230
1.0
 70
     8
 71
     3
 72
    15
 73
    11
 74
     0
 42
0.00000001
 43
0.00000001
 40
0.0
 40
0.0
 40
0.0
 40
0.0
 40
0.1625255217041868
 40
0.3143148980392372
 40
0.4549784905465745
 40
0.5845192373661998
 40
0.7045671033090736
 40
0.8134949897289286
 40
0.9116812596826069
 40
0.9999999999999999
 40
0.9999999999999999
 40
0.9999999999999999
 40
0.9999999999999999
 10
212.8892725217385
 20
104.5292523029883
 30
0.0
 10
212.8943275110405
 20
104.5129192428146
 30
0.0
 10
212.9041035660893
 20
104.4813320552187
 30
0.0
 10
212.9186002958797
 20
104.435717249801
 30
0.0
 10
212.9317898896756
 20
104.3933285127556
 30
0.0
 10
212.9436691958049
 20
104.3540309184966
 30
0.0
 10
212.9548798504771
 20
104.318019577783
 30
0.0
 10
212.9645865109966
 20
104.2849989910035
 30
0.0
 10
212.9738663942464
 20
104.2553360902828
 30
0.0
 10
212.9793048204992
 20
104.2364843469718
 30
0.0
 10
212.9818801666266
 20
104.2275571754196
 30
0.0
  0
LINE
  5
183
330
1F
100
AcDbEntity
  8
0
  6
Continuous
 62
     7
370
     0
100
AcDbLine
 10
212.4299386031
 20
105.9710504365
 30
0.0
 11
212.8892725217
 21
104.529252303
 31
0.0
  0
LINE
  5
184
330
1F
100
AcDbEntity
  8
0
  6
Continuous
 62
     7
370
     0
100
AcDbLine
 10
211.9940652878
 20
105.9710504365
 30
0.0
 11
212.4299386031
 21
105.9710504365
 31
0.0
  0
LINE
  5
185
330
1F
100
AcDbEntity
  8
0
  6
Continuous
 62
     7
370
     0
100
AcDbLine
 10
211.9940652878
 20
103.9163954886
 30
0.0
 11
211.9940652878
 21
105.9710504365
 31
0.0
  0
LINE
  5
186
330
1F
100
AcDbEntity
  8
0
  6
Continuous
 62
     7
370
     0
100
AcDbLine
 10
212.2838243189
 20
103.9163954886
 30
0.0
 11
211.9940652878
 21
103.9163954886
 31
0.0
  0
LINE
  5
187
330
1F
100
AcDbEntity
  8
0
  6
Continuous
 62
     7
370
     0
100
AcDbLine
 10
212.2838243189
 20
105.6549496753
 30
0.0
 11
212.2838243189
 21
103.9163954886
 31
0.0
  0
SPLINE
  5
188
330
1F
100
AcDbEntity
  8
0
  6
Continuous
 62
     7
370
     0
100
AcDbSpline
210
0.0
220
0.0
230
1.0
 70
     8
 71
     3
 72
    31
 73
    27
 74
     0
 42
0.00000001
 43
0.00000001
 40
0.0
 40
0.0
 40
0.0
 40
0.0
 40
0.0628739462114324
 40
0.1228366299919128
 40
0.1796565674430314
 40
0.233960012230862
 40
0.2855950186955586
 40
0.3345131060783809
 40
0.3809048259061764
 40
0.4248945919393347
 40
0.4665290347654873
 40
0.5064882940692464
 40
0.5450315536447543
 40
0.5818311798231344
 40
0.617448279949443
 40
0.652066912769046
 40
0.6858797142465105
 40
0.7191745547913924
 40
0.7521816462063929
 40
0.7852401639180909
 40
0.8186564497770833
 40
0.8525477406533113
 40
0.887626342258519
 40
0.923635078068751
 40
0.9610218444769891
 40
1.0
 40
1.0
 40
1.0
 40
1.0
 10
217.1833861178152
 20
104.9297289184376
 30
0.0
 10
217.1831157535792
 20
104.9005039350947
 30
0.0
 10
217.1825875438258
 20
104.8434071775069
 30
0.0
 10
217.1794498275495
 20
104.7599350666282
 30
0.0
 10
217.1734816080726
 20
104.6806271973456
 30
0.0
 10
217.1661376049668
 20
104.6053018984051
 30
0.0
 10
217.1550276665503
 20
104.5341602529032
 30
0.0
 10
217.1430561059601
 20
104.4668999988095
 30
0.0
 10
217.1282502426348
 20
104.4038265569132
 30
0.0
 10
217.1109752761857
 20
104.3449122837503
 30
0.0
 10
217.0915197412458
 20
104.2898456618606
 30
0.0
 10
217.0701837366048
 20
104.2382105283273
 30
0.0
 10
217.0465520628013
 20
104.1900421660879
 30
0.0
 10
217.0199213519699
 20
104.1458103851879
 30
0.0
 10
216.9915100797709
 20
104.1049280827898
 30
0.0
 10
216.9611101638423
 20
104.067241900187
 30
0.0
 10
216.9280770903768
 20
104.0332942504783
 30
0.0
 10
216.8924442382043
 20
104.0032756780608
 30
0.0
 10
216.8549339678831
 20
103.9762351745065
 30
0.0
 10
216.8148001105177
 20
103.9530826934439
 30
0.0
 10
216.7722183257466
 20
103.933901265023
 30
0.0
 10
216.7274731188705
 20
103.9175020966847
 30
0.0
 10
216.6801104852134
 20
103.9054857479881
 30
0.0
 10
216.6305039220966
 20
103.8962874208295
 30
0.0
 10
216.5784706527184
 20
103.8908707796816
 30
0.0
 10
216.5429654287237
 20
103.8903298563721
 30
0.0
 10
216.5248428652778
 20
103.8900537584942
 30
0.0
  0
SPLINE
  5
189
330
1F
100
AcDbEntity
  8
0
  6
Continuous
 62
     7
370
     0
100
AcDbSpline
210
0.0
220
0.0
230
1.0
 70
     8
 71
     3
 72
    27
 73
    23
 74
     0
 42
0.00000001
 43
0.00000001
 40
0.0
 40
0.0
 40
0.0
 40
0.0
 40
0.0567243372181508
 40
0.1114372357370108
 40
0.1643678222229016
 40
0.21643537246209
 40
0.2676414903219249
 40
0.3173597799690281
 40
0.3674730633322806
 40
0.4182103970528083
 40
0.4714042826470201
 40
0.5279657201290494
 40
0.5880611158232139
 40
0.6521342629937146
 40
0.6863448363353056
 40
0.7232636803169652
 40
0.762610250771542
 40
0.8047389366452182
 40
0.8494303387909499
 40
0.8967112583864923
 40
0.9468896380534765
 40
1.0
 40
1.0
 40
1.0
 40
1.0
 10
216.5248428652778
 20
105.9710504365124
 30
0.0
 10
216.5512300543871
 20
105.9702746718276
 30
0.0
 10
216.60306874581
 20
105.9687506509876
 30
0.0
 10
216.6787535029879
 20
105.9563210135622
 30
0.0
 10
216.7500815086331
 20
105.9350582030547
 30
0.0
 10
216.8170064214598
 20
105.906373754408
 30
0.0
 10
216.8783841704514
 20
105.8699389838301
 30
0.0
 10
216.9331970872846
 20
105.8256469691815
 30
0.0
 10
216.9808539261134
 20
105.7739627678692
 30
0.0
 10
217.0208345862857
 20
105.7142739390547
 30
0.0
 10
217.055781674004
 20
105.6482270992422
 30
0.0
 10
217.0868278995791
 20
105.5755258058496
 30
0.0
 10
217.1148927857537
 20
105.496251528886
 30
0.0
 10
217.1348082399374
 20
105.4252899842107
 30
0.0
 10
217.1490139170542
 20
105.3640334609155
 30
0.0
 10
217.1584169466205
 20
105.313510813335
 30
0.0
 10
217.1662233462748
 20
105.2589965921661
 30
0.0
 10
217.1722041034048
 20
105.2006226819846
 30
0.0
 10
217.1771111735165
 20
105.1384545543251
 30
0.0
 10
217.1809006788746
 20
105.0724535021219
 30
0.0
 10
217.1828242408488
 20
105.0024545669742
 30
0.0
 10
217.1831953143619
 20
104.9544252589451
 30
0.0
 10
217.1833861178152
 20
104.9297289184376
 30
0.0
  0
SPLINE
  5
18A
330
1F
100
AcDbEntity
  8
0
  6
Continuous
 62
     7
370
     0
100
AcDbSpline
210
0.0
220
0.0
230
1.0
 70
     8
 71
     3
 72
    31
 73
    27
 74
     0
 42
0.00000001
 43
0.00000001
 40
0.0
 40
0.0
 40
0.0
 40
0.0
 40
0.0631144583947934
 40
0.12361464576949
 40
0.1809737111859576
 40
0.2352614550083222
 40
0.287100701833872
 40
0.3360307363034436
 40
0.3823823485850662
 40
0.4263340836597073
 40
0.4682106947981602
 40
0.5082496012618052
 40
0.5466283366065849
 40
0.5836495392304463
 40
0.6189943150301618
 40
0.6535830186205963
 40
0.6871561361903312
 40
0.7204221919788076
 40
0.7532302188118171
 40
0.7862601560778999
 40
0.8195039834988841
 40
0.8535452747120184
 40
0.8883082803397299
 40
0.9239958607406951
 40
0.961350304754645
 40
1.0
 40
1.0
 40
1.0
 40
1.0
 10
215.8662996127404
 20
104.9297289184376
 30
0.0
 10
215.8665650057288
 20
104.9590918236398
 30
0.0
 10
215.8670847988329
 20
105.016601389873
 30
0.0
 10
215.8703089065982
 20
105.1007482165192
 30
0.0
 10
215.8759379375031
 20
105.1806589735586
 30
0.0
 10
215.8843405310058
 20
105.2562642622325
 30
0.0
 10
215.8942907759483
 20
105.3277347385349
 30
0.0
 10
215.9072261571469
 20
105.3949684067253
 30
0.0
 10
215.9217803414907
 20
105.4581161163698
 30
0.0
 10
215.939242750914
 20
105.5171120462108
 30
0.0
 10
215.9584282222596
 20
105.572463453851
 30
0.0
 10
215.9801947515776
 20
105.6240815431363
 30
0.0
 10
216.0046850497718
 20
105.6719115867425
 30
0.0
 10
216.0306955709077
 20
105.7164496090481
 30
0.0
 10
216.0595955621409
 20
105.7570028605073
 30
0.0
 10
216.0896406779501
 20
105.7947094313704
 30
0.0
 10
216.1230144179604
 20
105.8281864745562
 30
0.0
 10
216.1583290304709
 20
105.8582953574194
 30
0.0
 10
216.1961045323066
 20
105.8848646918921
 30
0.0
 10
216.2361410535592
 20
105.9077908228255
 30
0.0
 10
216.278284544586
 20
105.9280329433758
 30
0.0
 10
216.323338213721
 20
105.9432712064379
 30
0.0
 10
216.3703667554517
 20
105.9556936212003
 30
0.0
 10
216.4197321711044
 20
105.9648317001214
 30
0.0
 10
216.4714888606056
 20
105.9702189060386
 30
0.0
 10
216.5068572825922
 20
105.9707701284046
 30
0.0
 10
216.5248428652778
 20
105.9710504365124
 30
0.0
  0
SPLINE
  5
18B
330
1F
100
AcDbEntity
  8
0
  6
Continuous
 62
     7
370
     0
100
AcDbSpline
210
0.0
220
0.0
230
1.0
 70
     8
 71
     3
 72
    15
 73
    11
 74
     0
 42
0.00000001
 43
0.00000001
 40
0.0
 40
0.0
 40
0.0
 40
0.0
 40
0.0974206681772145
 40
0.2008855880393207
 40
0.3111719701726504
 40
0.4297979458253723
 40
0.5577399263645877
 40
0.6947152693641585
 40
0.8421299102060552
 40
1.0
 40
1.0
 40
1.0
 40
1.0
 10
216.0659205361658
 20
104.0880283237883
 30
0.0
 10
216.0496367792472
 20
104.1115178820363
 30
0.0
 10
216.0160589754269
 20
104.1599543566542
 30
0.0
 10
215.9767590674174
 20
104.242543038937
 30
0.0
 10
215.9417028536774
 20
104.3334615824366
 30
0.0
 10
215.9141901532654
 20
104.4344937981985
 30
0.0
 10
215.8926408504964
 20
104.544835583997
 30
0.0
 10
215.8770768737001
 20
104.6647034539199
 30
0.0
 10
215.8682691950914
 20
104.7940456210931
 30
0.0
 10
215.8669709609136
 20
104.8834801623188
 30
0.0
 10
215.8662996127404
 20
104.9297289184376
 30
0.0
  0
SPLINE
  5
18C
330
1F
100
AcDbEntity
  8
0
  6
Continuous
 62
     7
370
     0
100
AcDbSpline
210
0.0
220
0.0
230
1.0
 70
     8
 71
     3
 72
    15
 73
    11
 74
     0
 42
0.00000001
 43
0.00000001
 40
0.0
 40
0.0
 40
0.0
 40
0.0
 40
0.1379032299933934
 40
0.2688733426002937
 40
0.3951781273461133
 40
0.5170892381308875
 40
0.6367430265135471
 40
0.7562218164637977
 40
0.87662835946368
 40
1.0
 40
1.0
 40
1.0
 40
1.0
 10
216.5248428652778
 20
103.8900537584942
 30
0.0
 10
216.5010820833401
 20
103.8907315360554
 30
0.0
 10
216.4547550983761
 20
103.8920530157511
 30
0.0
 10
216.3870979527906
 20
103.9010316563135
 30
0.0
 10
216.3235981128673
 20
103.9168344852663
 30
0.0
 10
216.2637199938209
 20
103.9380283071909
 30
0.0
 10
216.2081366420816
 20
103.9663762644716
 30
0.0
 10
216.1565826692466
 20
104.0008670900015
 30
0.0
 10
216.1080221353974
 20
104.0406983182956
 30
0.0
 10
216.0800677399117
 20
104.0721242431069
 30
0.0
 10
216.0659205361658
 20
104.0880283237883
 30
0.0
  0
LINE
  5
18D
330
1F
100
AcDbEntity
  8
0
  6
Continuous
 62
     7
370
     0
100
AcDbLine
 10
218.9746237647
 20
104.7593308518
 30
0.0
 11
219.7385339377
 21
104.7593308518
 31
0.0
  0
LINE
  5
18E
330
1F
100
AcDbEntity
  8
0
  6
Continuous
 62
     7
370
     0
100
AcDbLine
 10
218.9746237647
 20
104.5222552809
 30
0.0
 11
218.9746237647
 21
104.7593308518
 31
0.0
  0
LINE
  5
18F
330
1F
100
AcDbEntity
  8
0
  6
Continuous
 62
     7
370
     0
100
AcDbLine
 10
219.7385339377
 20
104.5222552809
 30
0.0
 11
218.9746237647
 21
104.5222552809
 31
0.0
  0
LINE
  5
190
330
1F
100
AcDbEntity
  8
0
  6
Continuous
 62
     7
370
     0
100
AcDbLine
 10
219.7385339377
 20
104.7593308518
 30
0.0
 11
219.7385339377
 21
104.5222552809
 31
0.0
  0
SPLINE
  5
191
330
1F
100
AcDbEntity
  8
0
  6
Continuous
 62
     7
370
     0
100
AcDbSpline
210
0.0
220
0.0
230
1.0
 70
     8
 71
     3
 72
    31
 73
    27
 74
     0
 42
0.00000001
 43
0.00000001
 40
0.0
 40
0.0
 40
0.0
 40
0.0
 40
0.0628739462114324
 40
0.1228366299919129
 40
0.1796565674430314
 40
0.233960012230862
 40
0.2855950186955589
 40
0.3345131060783805
 40
0.3809048259061762
 40
0.4248945919393347
 40
0.4665290347654872
 40
0.5064882940692462
 40
0.5450315536447543
 40
0.5818311798231344
 40
0.6174482799494428
 40
0.6520669127690459
 40
0.6858797142465104
 40
0.719174554791392
 40
0.7521816462063926
 40
0.7852401639180911
 40
0.8186564497770833
 40
0.852547740653311
 40
0.8876263422585189
 40
0.923635078068751
 40
0.9610218444769894
 40
1.0
 40
1.0
 40
1.0
 40
1.0
 10
222.8731998197383
 20
104.9297289184376
 30
0.0
 10
222.8729294555023
 20
104.9005039350947
 30
0.0
 10
222.8724012457489
 20
104.8434071775069
 30
0.0
 10
222.8692635294726
 20
104.7599350666282
 30
0.0
 10
222.8632953099957
 20
104.6806271973456
 30
0.0
 10
222.8559513068899
 20
104.6053018984051
 30
0.0
 10
222.8448413684734
 20
104.5341602529032
 30
0.0
 10
222.8328698078832
 20
104.4668999988095
 30
0.0
 10
222.8180639445579
 20
104.4038265569132
 30
0.0
 10
222.8007889781088
 20
104.3449122837503
 30
0.0
 10
222.7813334431689
 20
104.2898456618606
 30
0.0
 10
222.7599974385279
 20
104.2382105283273
 30
0.0
 10
222.7363657647244
 20
104.1900421660879
 30
0.0
 10
222.709735053893
 20
104.1458103851879
 30
0.0
 10
222.6813237816939
 20
104.1049280827898
 30
0.0
 10
222.6509238657654
 20
104.067241900187
 30
0.0
 10
222.6178907922999
 20
104.0332942504783
 30
0.0
 10
222.5822579401274
 20
104.0032756780608
 30
0.0
 10
222.5447476698061
 20
103.9762351745065
 30
0.0
 10
222.5046138124408
 20
103.9530826934439
 30
0.0
 10
222.4620320276697
 20
103.933901265023
 30
0.0
 10
222.4172868207936
 20
103.9175020966847
 30
0.0
 10
222.3699241871364
 20
103.9054857479881
 30
0.0
 10
222.3203176240197
 20
103.8962874208295
 30
0.0
 10
222.2682843546415
 20
103.8908707796816
 30
0.0
 10
222.2327791306468
 20
103.8903298563721
 30
0.0
 10
222.2146565672009
 20
103.8900537584942
 30
0.0
  0
SPLINE
  5
192
330
1F
100
AcDbEntity
  8
0
  6
Continuous
 62
     7
370
     0
100
AcDbSpline
210
0.0
220
0.0
230
1.0
 70
     8
 71
     3
 72
    27
 73
    23
 74
     0
 42
0.00000001
 43
0.00000001
 40
0.0
 40
0.0
 40
0.0
 40
0.0
 40
0.0567243372181508
 40
0.1114372357370108
 40
0.1643678222229013
 40
0.21643537246209
 40
0.2676414903219251
 40
0.3173597799690279
 40
0.3674730633322809
 40
0.4182103970528082
 40
0.4714042826470201
 40
0.5279657201290494
 40
0.5880611158232139
 40
0.6521342629937146
 40
0.6863448363353056
 40
0.7232636803169653
 40
0.762610250771542
 40
0.8047389366452182
 40
0.84943033879095
 40
0.8967112583864923
 40
0.9468896380534765
 40
1.0
 40
1.0
 40
1.0
 40
1.0
 10
222.2146565672009
 20
105.9710504365124
 30
0.0
 10
222.2410437563102
 20
105.9702746718276
 30
0.0
 10
222.292882447733
 20
105.9687506509876
 30
0.0
 10
222.368567204911
 20
105.9563210135622
 30
0.0
 10
222.4398952105562
 20
105.9350582030546
 30
0.0
 10
222.5068201233829
 20
105.906373754408
 30
0.0
 10
222.5681978723745
 20
105.8699389838301
 30
0.0
 10
222.6230107892077
 20
105.8256469691815
 30
0.0
 10
222.6706676280365
 20
105.7739627678692
 30
0.0
 10
222.7106482882088
 20
105.7142739390547
 30
0.0
 10
222.745595375927
 20
105.6482270992422
 30
0.0
 10
222.7766416015022
 20
105.5755258058496
 30
0.0
 10
222.8047064876768
 20
105.496251528886
 30
0.0
 10
222.8246219418605
 20
105.4252899842107
 30
0.0
 10
222.8388276189773
 20
105.3640334609155
 30
0.0
 10
222.8482306485435
 20
105.313510813335
 30
0.0
 10
222.8560370481979
 20
105.2589965921661
 30
0.0
 10
222.8620178053279
 20
105.2006226819846
 30
0.0
 10
222.8669248754396
 20
105.1384545543251
 30
0.0
 10
222.8707143807977
 20
105.0724535021219
 30
0.0
 10
222.8726379427718
 20
105.0024545669742
 30
0.0
 10
222.8730090162849
 20
104.9544252589451
 30
0.0
 10
222.8731998197383
 20
104.9297289184376
 30
0.0
  0
SPLINE
  5
193
330
1F
100
AcDbEntity
  8
0
  6
Continuous
 62
     7
370
     0
100
AcDbSpline
210
0.0
220
0.0
230
1.0
 70
     8
 71
     3
 72
    31
 73
    27
 74
     0
 42
0.00000001
 43
0.00000001
 40
0.0
 40
0.0
 40
0.0
 40
0.0
 40
0.0631144583947934
 40
0.12361464576949
 40
0.1809737111859576
 40
0.2352614550083222
 40
0.287100701833872
 40
0.3360307363034436
 40
0.3823823485850663
 40
0.4263340836597073
 40
0.4682106947981602
 40
0.5082496012618052
 40
0.546628336606585
 40
0.5836495392304463
 40
0.6189943150301618
 40
0.6535830186205961
 40
0.6871561361903314
 40
0.7204221919788075
 40
0.753230218811817
 40
0.7862601560779
 40
0.8195039834988841
 40
0.8535452747120184
 40
0.8883082803397299
 40
0.9239958607406952
 40
0.961350304754645
 40
1.0
 40
1.0
 40
1.0
 40
1.0
 10
221.5561133146635
 20
104.9297289184376
 30
0.0
 10
221.5563787076518
 20
104.9590918236398
 30
0.0
 10
221.556898500756
 20
105.016601389873
 30
0.0
 10
221.5601226085213
 20
105.1007482165192
 30
0.0
 10
221.5657516394262
 20
105.1806589735586
 30
0.0
 10
221.5741542329289
 20
105.2562642622325
 30
0.0
 10
221.5841044778713
 20
105.3277347385349
 30
0.0
 10
221.59703985907
 20
105.3949684067253
 30
0.0
 10
221.6115940434138
 20
105.4581161163698
 30
0.0
 10
221.6290564528371
 20
105.5171120462108
 30
0.0
 10
221.6482419241827
 20
105.572463453851
 30
0.0
 10
221.6700084535007
 20
105.6240815431363
 30
0.0
 10
221.6944987516948
 20
105.6719115867425
 30
0.0
 10
221.7205092728307
 20
105.7164496090481
 30
0.0
 10
221.749409264064
 20
105.7570028605073
 30
0.0
 10
221.7794543798731
 20
105.7947094313704
 30
0.0
 10
221.8128281198835
 20
105.8281864745562
 30
0.0
 10
221.848142732394
 20
105.8582953574194
 30
0.0
 10
221.8859182342297
 20
105.8848646918921
 30
0.0
 10
221.9259547554823
 20
105.9077908228255
 30
0.0
 10
221.9680982465091
 20
105.9280329433758
 30
0.0
 10
222.0131519156441
 20
105.9432712064379
 30
0.0
 10
222.0601804573748
 20
105.9556936212003
 30
0.0
 10
222.1095458730275
 20
105.9648317001214
 30
0.0
 10
222.1613025625287
 20
105.9702189060386
 30
0.0
 10
222.1966709845153
 20
105.9707701284046
 30
0.0
 10
222.2146565672009
 20
105.9710504365124
 30
0.0
  0
SPLINE
  5
194
330
1F
100
AcDbEntity
  8
0
  6
Continuous
 62
     7
370
     0
100
AcDbSpline
210
0.0
220
0.0
230
1.0
 70
     8
 71
     3
 72
    15
 73
    11
 74
     0
 42
0.00000001
 43
0.00000001
 40
0.0
 40
0.0
 40
0.0
 40
0.0
 40
0.0974206681772144
 40
0.2008855880393207
 40
0.3111719701726504
 40
0.4297979458253729
 40
0.5577399263645872
 40
0.6947152693641585
 40
0.8421299102060553
 40
1.0
 40
1.0
 40
1.0
 40
1.0
 10
221.7557342380889
 20
104.0880283237883
 30
0.0
 10
221.7394504811703
 20
104.1115178820363
 30
0.0
 10
221.70587267735
 20
104.1599543566542
 30
0.0
 10
221.6665727693405
 20
104.242543038937
 30
0.0
 10
221.6315165556004
 20
104.3334615824366
 30
0.0
 10
221.6040038551885
 20
104.4344937981985
 30
0.0
 10
221.5824545524194
 20
104.544835583997
 30
0.0
 10
221.5668905756232
 20
104.6647034539199
 30
0.0
 10
221.5580828970145
 20
104.7940456210931
 30
0.0
 10
221.5567846628367
 20
104.8834801623188
 30
0.0
 10
221.5561133146635
 20
104.9297289184376
 30
0.0
  0
SPLINE
  5
195
330
1F
100
AcDbEntity
  8
0
  6
Continuous
 62
     7
370
     0
100
AcDbSpline
210
0.0
220
0.0
230
1.0
 70
     8
 71
     3
 72
    15
 73
    11
 74
     0
 42
0.00000001
 43
0.00000001
 40
0.0
 40
0.0
 40
0.0
 40
0.0
 40
0.1379032299933933
 40
0.2688733426002935
 40
0.3951781273461131
 40
0.5170892381308876
 40
0.6367430265135475
 40
0.7562218164637967
 40
0.8766283594636793
 40
1.0
 40
1.0
 40
1.0
 40
1.0
 10
222.2146565672009
 20
103.8900537584942
 30
0.0
 10
222.1908957852632
 20
103.8907315360554
 30
0.0
 10
222.1445688002992
 20
103.8920530157511
 30
0.0
 10
222.0769116547136
 20
103.9010316563135
 30
0.0
 10
222.0134118147904
 20
103.9168344852663
 30
0.0
 10
221.953533695744
 20
103.9380283071909
 30
0.0
 10
221.8979503440047
 20
103.9663762644716
 30
0.0
 10
221.8463963711696
 20
104.0008670900015
 30
0.0
 10
221.7978358373205
 20
104.0406983182956
 30
0.0
 10
221.7698814418347
 20
104.0721242431069
 30
0.0
 10
221.7557342380889
 20
104.0880283237883
 30
0.0
  0
LINE
  5
196
330
1F
100
AcDbEntity
  8
0
  6
Continuous
 62
     7
370
     0
100
AcDbLine
 10
224.6644374666
 20
104.7593308518
 30
0.0
 11
225.4283476396
 21
104.7593308518
 31
0.0
  0
LINE
  5
197
330
1F
100
AcDbEntity
  8
0
  6
Continuous
 62
     7
370
     0
100
AcDbLine
 10
224.6644374666
 20
104.5222552809
 30
0.0
 11
224.6644374666
 21
104.7593308518
 31
0.0
  0
LINE
  5
198
330
1F
100
AcDbEntity
  8
0
  6
Continuous
 62
     7
370
     0
100
AcDbLine
 10
225.4283476396
 20
104.5222552809
 30
0.0
 11
224.6644374666
 21
104.5222552809
 31
0.0
  0
LINE
  5
199
330
1F
100
AcDbEntity
  8
0
  6
Continuous
 62
     7
370
     0
100
AcDbLine
 10
225.4283476396
 20
104.7593308518
 30
0.0
 11
225.4283476396
 21
104.5222552809
 31
0.0
  0
SPLINE
  5
19A
330
1F
100
AcDbEntity
  8
0
  6
Continuous
 62
     7
370
     0
100
AcDbSpline
210
0.0
220
0.0
230
1.0
 70
     8
 71
     3
 72
    31
 73
    27
 74
     0
 42
0.00000001
 43
0.00000001
 40
0.0
 40
0.0
 40
0.0
 40
0.0
 40
0.0628739462114324
 40
0.1228366299919129
 40
0.1796565674430315
 40
0.2339600122308621
 40
0.2855950186955591
 40
0.3345131060783806
 40
0.3809048259061764
 40
0.4248945919393348
 40
0.4665290347654876
 40
0.5064882940692463
 40
0.5450315536447548
 40
0.5818311798231349
 40
0.6174482799494435
 40
0.652066912769046
 40
0.685879714246511
 40
0.7191745547913925
 40
0.7521816462063932
 40
0.7852401639180917
 40
0.8186564497770835
 40
0.852547740653311
 40
0.8876263422585192
 40
0.9236350780687517
 40
0.9610218444769894
 40
1.0
 40
1.0
 40
1.0
 40
1.0
 10
228.8791142828793
 20
104.9297289184376
 30
0.0
 10
228.8788439186433
 20
104.9005039350947
 30
0.0
 10
228.8783157088899
 20
104.8434071775069
 30
0.0
 10
228.8751779926136
 20
104.7599350666282
 30
0.0
 10
228.8692097731367
 20
104.6806271973456
 30
0.0
 10
228.8618657700309
 20
104.6053018984051
 30
0.0
 10
228.8507558316144
 20
104.5341602529032
 30
0.0
 10
228.8387842710242
 20
104.4668999988095
 30
0.0
 10
228.8239784076989
 20
104.4038265569132
 30
0.0
 10
228.8067034412499
 20
104.3449122837503
 30
0.0
 10
228.7872479063099
 20
104.2898456618606
 30
0.0
 10
228.7659119016689
 20
104.2382105283273
 30
0.0
 10
228.7422802278654
 20
104.1900421660879
 30
0.0
 10
228.715649517034
 20
104.1458103851879
 30
0.0
 10
228.687238244835
 20
104.1049280827898
 30
0.0
 10
228.6568383289064
 20
104.067241900187
 30
0.0
 10
228.623805255441
 20
104.0332942504783
 30
0.0
 10
228.5881724032684
 20
104.0032756780608
 30
0.0
 10
228.5506621329471
 20
103.9762351745065
 30
0.0
 10
228.5105282755818
 20
103.9530826934439
 30
0.0
 10
228.4679464908107
 20
103.933901265023
 30
0.0
 10
228.4232012839346
 20
103.9175020966847
 30
0.0
 10
228.3758386502775
 20
103.9054857479881
 30
0.0
 10
228.3262320871607
 20
103.8962874208295
 30
0.0
 10
228.2741988177825
 20
103.8908707796816
 30
0.0
 10
228.2386935937878
 20
103.8903298563721
 30
0.0
 10
228.2205710303419
 20
103.8900537584942
 30
0.0
  0
SPLINE
  5
19B
330
1F
100
AcDbEntity
  8
0
  6
Continuous
 62
     7
370
     0
100
AcDbSpline
210
0.0
220
0.0
230
1.0
 70
     8
 71
     3
 72
    27
 73
    23
 74
     0
 42
0.00000001
 43
0.00000001
 40
0.0
 40
0.0
 40
0.0
 40
0.0
 40
0.0567243372181508
 40
0.1114372357370111
 40
0.1643678222229013
 40
0.2164353724620895
 40
0.2676414903219251
 40
0.3173597799690279
 40
0.3674730633322808
 40
0.4182103970528078
 40
0.4714042826470199
 40
0.5279657201290492
 40
0.5880611158232136
 40
0.6521342629937142
 40
0.6863448363353056
 40
0.7232636803169652
 40
0.7626102507715418
 40
0.8047389366452182
 40
0.8494303387909499
 40
0.8967112583864923
 40
0.9468896380534765
 40
1.0
 40
1.0
 40
1.0
 40
1.0
 10
228.2205710303419
 20
105.9710504365124
 30
0.0
 10
228.2469582194512
 20
105.9702746718276
 30
0.0
 10
228.298796910874
 20
105.9687506509876
 30
0.0
 10
228.374481668052
 20
105.9563210135622
 30
0.0
 10
228.4458096736972
 20
105.9350582030546
 30
0.0
 10
228.5127345865239
 20
105.906373754408
 30
0.0
 10
228.5741123355155
 20
105.8699389838301
 30
0.0
 10
228.6289252523487
 20
105.8256469691815
 30
0.0
 10
228.6765820911775
 20
105.7739627678692
 30
0.0
 10
228.7165627513498
 20
105.7142739390547
 30
0.0
 10
228.7515098390681
 20
105.6482270992422
 30
0.0
 10
228.7825560646432
 20
105.5755258058496
 30
0.0
 10
228.8106209508178
 20
105.496251528886
 30
0.0
 10
228.8305364050015
 20
105.4252899842107
 30
0.0
 10
228.8447420821183
 20
105.3640334609155
 30
0.0
 10
228.8541451116845
 20
105.313510813335
 30
0.0
 10
228.861951511339
 20
105.2589965921661
 30
0.0
 10
228.8679322684689
 20
105.2006226819846
 30
0.0
 10
228.8728393385806
 20
105.1384545543251
 30
0.0
 10
228.8766288439387
 20
105.0724535021219
 30
0.0
 10
228.8785524059128
 20
105.0024545669742
 30
0.0
 10
228.878923479426
 20
104.9544252589451
 30
0.0
 10
228.8791142828793
 20
104.9297289184376
 30
0.0
  0
SPLINE
  5
19C
330
1F
100
AcDbEntity
  8
0
  6
Continuous
 62
     7
370
     0
100
AcDbSpline
210
0.0
220
0.0
230
1.0
 70
     8
 71
     3
 72
    31
 73
    27
 74
     0
 42
0.00000001
 43
0.00000001
 40
0.0
 40
0.0
 40
0.0
 40
0.0
 40
0.0631144583947934
 40
0.1236146457694899
 40
0.1809737111859575
 40
0.235261455008322
 40
0.2871007018338719
 40
0.3360307363034434
 40
0.3823823485850662
 40
0.426334083659707
 40
0.4682106947981599
 40
0.5082496012618049
 40
0.5466283366065846
 40
0.5836495392304459
 40
0.6189943150301614
 40
0.6535830186205956
 40
0.687156136190331
 40
0.7204221919788075
 40
0.7532302188118168
 40
0.7862601560778997
 40
0.8195039834988835
 40
0.8535452747120178
 40
0.8883082803397293
 40
0.9239958607406945
 40
0.9613503047546453
 40
1.0
 40
1.0
 40
1.0
 40
1.0
 10
227.5620277778045
 20
104.9297289184376
 30
0.0
 10
227.5622931707929
 20
104.9590918236398
 30
0.0
 10
227.562812963897
 20
105.016601389873
 30
0.0
 10
227.5660370716624
 20
105.1007482165192
 30
0.0
 10
227.5716661025672
 20
105.1806589735586
 30
0.0
 10
227.5800686960699
 20
105.2562642622325
 30
0.0
 10
227.5900189410123
 20
105.3277347385349
 30
0.0
 10
227.602954322211
 20
105.3949684067253
 30
0.0
 10
227.6175085065548
 20
105.4581161163698
 30
0.0
 10
227.6349709159781
 20
105.5171120462108
 30
0.0
 10
227.6541563873237
 20
105.572463453851
 30
0.0
 10
227.6759229166418
 20
105.6240815431363
 30
0.0
 10
227.7004132148359
 20
105.6719115867425
 30
0.0
 10
227.7264237359717
 20
105.7164496090481
 30
0.0
 10
227.755323727205
 20
105.7570028605073
 30
0.0
 10
227.7853688430141
 20
105.7947094313704
 30
0.0
 10
227.8187425830245
 20
105.8281864745562
 30
0.0
 10
227.854057195535
 20
105.8582953574194
 30
0.0
 10
227.8918326973708
 20
105.8848646918921
 30
0.0
 10
227.9318692186233
 20
105.9077908228255
 30
0.0
 10
227.9740127096501
 20
105.9280329433758
 30
0.0
 10
228.0190663787851
 20
105.9432712064379
 30
0.0
 10
228.0660949205158
 20
105.9556936212003
 30
0.0
 10
228.1154603361685
 20
105.9648317001214
 30
0.0
 10
228.1672170256697
 20
105.9702189060386
 30
0.0
 10
228.2025854476563
 20
105.9707701284046
 30
0.0
 10
228.2205710303419
 20
105.9710504365124
 30
0.0
  0
SPLINE
  5
19D
330
1F
100
AcDbEntity
  8
0
  6
Continuous
 62
     7
370
     0
100
AcDbSpline
210
0.0
220
0.0
230
1.0
 70
     8
 71
     3
 72
    15
 73
    11
 74
     0
 42
0.00000001
 43
0.00000001
 40
0.0
 40
0.0
 40
0.0
 40
0.0
 40
0.0974206681772145
 40
0.2008855880393207
 40
0.3111719701726504
 40
0.4297979458253728
 40
0.5577399263645871
 40
0.6947152693641585
 40
0.8421299102060552
 40
1.0
 40
1.0
 40
1.0
 40
1.0
 10
227.7616487012299
 20
104.0880283237883
 30
0.0
 10
227.7453649443113
 20
104.1115178820363
 30
0.0
 10
227.711787140491
 20
104.1599543566542
 30
0.0
 10
227.6724872324815
 20
104.242543038937
 30
0.0
 10
227.6374310187415
 20
104.3334615824366
 30
0.0
 10
227.6099183183295
 20
104.4344937981985
 30
0.0
 10
227.5883690155605
 20
104.544835583997
 30
0.0
 10
227.5728050387642
 20
104.6647034539199
 30
0.0
 10
227.5639973601555
 20
104.7940456210931
 30
0.0
 10
227.5626991259777
 20
104.8834801623188
 30
0.0
 10
227.5620277778045
 20
104.9297289184376
 30
0.0
  0
SPLINE
  5
19E
330
1F
100
AcDbEntity
  8
0
  6
Continuous
 62
     7
370
     0
100
AcDbSpline
210
0.0
220
0.0
230
1.0
 70
     8
 71
     3
 72
    15
 73
    11
 74
     0
 42
0.00000001
 43
0.00000001
 40
0.0
 40
0.0
 40
0.0
 40
0.0
 40
0.1379032299933933
 40
0.2688733426002926
 40
0.3951781273461146
 40
0.5170892381308878
 40
0.6367430265135473
 40
0.7562218164637978
 40
0.87662835946368
 40
1.0
 40
1.0
 40
1.0
 40
1.0
 10
228.2205710303419
 20
103.8900537584942
 30
0.0
 10
228.1968102484042
 20
103.8907315360554
 30
0.0
 10
228.1504832634402
 20
103.8920530157511
 30
0.0
 10
228.0828261178546
 20
103.9010316563135
 30
0.0
 10
228.0193262779314
 20
103.9168344852663
 30
0.0
 10
227.959448158885
 20
103.9380283071909
 30
0.0
 10
227.9038648071457
 20
103.9663762644716
 30
0.0
 10
227.8523108343107
 20
104.0008670900015
 30
0.0
 10
227.8037503004616
 20
104.0406983182956
 30
0.0
 10
227.7757959049758
 20
104.0721242431069
 30
0.0
 10
227.7616487012299
 20
104.0880283237883
 30
0.0
  0
CIRCLE
  5
19F
330
1F
100
AcDbEntity
  8
0
  6
Continuous
 62
     7
370
     0
100
AcDbCircle
 10
220.1731724843
 20
106.5274031008
 30
0.0
 40
25.40000000000001
  0
SPLINE
  5
1A0
330
1F
100
AcDbEntity
  8
0
  6
Continuous
 62
     7
370
     0
100
AcDbSpline
210
0.0
220
0.0
230
1.0
 70
     8
 71
     3
 72
    23
 73
    19
 74
     0
 42
0.00000001
 43
0.00000001
 40
0.0
 40
0.0
 40
0.0
 40
0.0
 40
0.1156291309254413
 40
0.2215410391198766
 40
0.3170478562190415
 40
0.4031508756396164
 40
0.4801812167162793
 40
0.5476493661481896
 40
0.6070358428421807
 40
0.6586524080635068
 40
0.7057228903536447
 40
0.7498040879796465
 40
0.7925868153452744
 40
0.8338739610102599
 40
0.8747683933034318
 40
0.9152226988916382
 40
0.9568807037304797
 40
1.0
 40
1.0
 40
1.0
 40
1.0
 10
228.6156969818643
 20
104.9305520975033
 30
0.0
 10
228.6154475302871
 20
104.9692485081197
 30
0.0
 10
228.6149695905051
 20
105.043389366479
 30
0.0
 10
228.6095679951667
 20
105.1493822716775
 30
0.0
 10
228.6011032098241
 20
105.2452441784376
 30
0.0
 10
228.5895247282049
 20
105.3310634625482
 30
0.0
 10
228.57413692828
 20
105.4067469554113
 30
0.0
 10
228.5554736260432
 20
105.4724557768962
 30
0.0
 10
228.5332335108275
 20
105.5280497922663
 30
0.0
 10
228.5067900931997
 20
105.5740874445006
 30
0.0
 10
228.4773532784199
 20
105.6118508088337
 30
0.0
 10
228.4466037348037
 20
105.6445382865187
 30
0.0
 10
228.41377272066
 20
105.6723379213597
 30
0.0
 10
228.3782785692105
 20
105.6946391985217
 30
0.0
 10
228.3412653237123
 20
105.7126310394392
 30
0.0
 10
228.3018825138612
 20
105.7250134825261
 30
0.0
 10
228.2605172415554
 20
105.7326208682499
 30
0.0
 10
228.2321287918317
 20
105.7335183764191
 30
0.0
 10
228.217689903612
 20
105.7339748655989
 30
0.0
  0
SPLINE
  5
1A1
330
1F
100
AcDbEntity
  8
0
  6
Continuous
 62
     7
370
     0
100
AcDbSpline
210
0.0
220
0.0
230
1.0
 70
     8
 71
     3
 72
    23
 73
    19
 74
     0
 42
0.00000001
 43
0.00000001
 40
0.0
 40
0.0
 40
0.0
 40
0.0
 40
0.0407818458722593
 40
0.0808695887215865
 40
0.1202681657882668
 40
0.1601868504553523
 40
0.2004597376386395
 40
0.2422651778979076
 40
0.2864592615494688
 40
0.3329520837492632
 40
0.3844305340495304
 40
0.4433891253601054
 40
0.5116814722136832
 40
0.589020025549008
 40
0.6762451906507723
 40
0.7737051914728237
 40
0.881567767781983
 40
1.0
 40
1.0
 40
1.0
 40
1.0
 10
228.2205710303419
 20
104.1271293294077
 30
0.0
 10
228.2341766979188
 20
104.1276487574249
 30
0.0
 10
228.2611564659429
 20
104.1286787728452
 30
0.0
 10
228.3008731705708
 20
104.1355395425296
 30
0.0
 10
228.3387115879463
 20
104.1483576412462
 30
0.0
 10
228.3750129261863
 20
104.1651173597966
 30
0.0
 10
228.4095897613466
 20
104.1868252194545
 30
0.0
 10
228.4422602515074
 20
104.2135680847662
 30
0.0
 10
228.4735461117827
 20
104.2448941195846
 30
0.0
 10
228.5035549914647
 20
104.2817636292348
 30
0.0
 10
228.5308770438137
 20
104.3266812261806
 30
0.0
 10
228.5535426589569
 20
104.3820369861456
 30
0.0
 10
228.5729720440385
 20
104.4475557725847
 30
0.0
 10
228.5887772261201
 20
104.5237095506341
 30
0.0
 10
228.600730962734
 20
104.6103591236346
 30
0.0
 10
228.6096810890078
 20
104.7075870845181
 30
0.0
 10
228.6149468725801
 20
104.8155229995292
 30
0.0
 10
228.6154392790838
 20
104.891033431333
 30
0.0
 10
228.6156969818643
 20
104.9305520975033
 30
0.0
  0
SPLINE
  5
1A2
330
1F
100
AcDbEntity
  8
0
  6
Continuous
 62
     7
370
     0
100
AcDbSpline
210
0.0
220
0.0
230
1.0
 70
     8
 71
     3
 72
    23
 73
    19
 74
     0
 42
0.00000001
 43
0.00000001
 40
0.0
 40
0.0
 40
0.0
 40
0.0
 40
0.1184055081537694
 40
0.2266543328167019
 40
0.324092341928602
 40
0.4117048030053217
 40
0.4890259050064155
 40
0.5569093973430755
 40
0.6162333444927066
 40
0.6673492812770748
 40
0.7135123932013473
 40
0.7576965045209773
 40
0.7994925114422908
 40
0.8399760647439393
 40
0.8798857418167766
 40
0.919148659385742
 40
0.9592273564930833
 40
1.0
 40
1.0
 40
1.0
 40
1.0
 10
227.8254450788195
 20
104.9305520975033
 30
0.0
 10
227.8257066312524
 20
104.8910336096131
 30
0.0
 10
227.826207300462
 20
104.815386482665
 30
0.0
 10
227.8314380783954
 20
104.7073115104717
 30
0.0
 10
227.8404426473064
 20
104.6098131332419
 30
0.0
 10
227.8523472755558
 20
104.5230263438492
 30
0.0
 10
227.8680662048281
 20
104.446833745999
 30
0.0
 10
227.8878031796607
 20
104.3814295018867
 30
0.0
 10
227.9100514446709
 20
104.326028612309
 30
0.0
 10
227.9375832510297
 20
104.2813177286551
 30
0.0
 10
227.9677275380834
 20
104.2448718361228
 30
0.0
 10
227.9988494543529
 20
104.2135271898912
 30
0.0
 10
228.0316811909476
 20
104.1868849583066
 30
0.0
 10
228.066008524754
 20
104.1646707704888
 30
0.0
 10
228.1023640690587
 20
104.1478516469575
 30
0.0
 10
228.1403502820279
 20
104.1356611087696
 30
0.0
 10
228.1799754291371
 20
104.1286456412157
 30
0.0
 10
228.2069619548965
 20
104.1276376505356
 30
0.0
 10
228.2205710303419
 20
104.1271293294077
 30
0.0
  0
SPLINE
  5
1A3
330
1F
100
AcDbEntity
  8
0
  6
Continuous
 62
     7
370
     0
100
AcDbSpline
210
0.0
220
0.0
230
1.0
 70
     8
 71
     3
 72
    15
 73
    11
 74
     0
 42
0.00000001
 43
0.00000001
 40
0.0
 40
0.0
 40
0.0
 40
0.0
 40
0.0838881132795455
 40
0.1771540327539698
 40
0.2825136355617228
 40
0.3993998606601629
 40
0.5294908061912204
 40
0.6728021776758327
 40
0.82953576161967
 40
1.0
 40
1.0
 40
1.0
 40
1.0
 10
227.9443944538091
 20
105.5932112453691
 30
0.0
 10
227.9346040294843
 20
105.576842643928
 30
0.0
 10
227.913928714667
 20
105.5422756040643
 30
0.0
 10
227.8907942395662
 20
105.4821966645749
 30
0.0
 10
227.8703581588085
 20
105.4135378724687
 30
0.0
 10
227.8535324888585
 20
105.3352428623617
 30
0.0
 10
227.8413602970269
 20
105.2474459416885
 30
0.0
 10
227.8317508222399
 20
105.150249069975
 30
0.0
 10
227.8267590577707
 20
105.0435165487598
 30
0.0
 10
227.8258951561689
 20
104.9692458229608
 30
0.0
 10
227.8254450788195
 20
104.9305520975033
 30
0.0
  0
SPLINE
  5
1A4
330
1F
100
AcDbEntity
  8
0
  6
Continuous
 62
     7
370
     0
100
AcDbSpline
210
0.0
220
0.0
230
1.0
 70
     8
 71
     3
 72
    15
 73
    11
 74
     0
 42
0.00000001
 43
0.00000001
 40
0.0
 40
0.0
 40
0.0
 40
0.0
 40
0.1276647678962228
 40
0.2517385630080477
 40
0.3727533493873867
 40
0.4921467589723859
 40
0.6140696213092441
 40
0.737197324412108
 40
0.8656069906011162
 40
1.0
 40
1.0
 40
1.0
 40
1.0
 10
228.217689903612
 20
105.7339748655989
 30
0.0
 10
228.2040816828917
 20
105.7336177035205
 30
0.0
 10
228.1772480154227
 20
105.7329134256696
 30
0.0
 10
228.1379600120397
 20
105.7261911007148
 30
0.0
 10
228.1007272327768
 20
105.7149498750714
 30
0.0
 10
228.0651231103391
 20
105.6997225434408
 30
0.0
 10
228.0320364826524
 20
105.679229562742
 30
0.0
 10
228.000155216345
 20
105.6553025490793
 30
0.0
 10
227.9709725065797
 20
105.6261501535359
 30
0.0
 10
227.9533872617141
 20
105.6043562783142
 30
0.0
 10
227.9443944538091
 20
105.5932112453691
 30
0.0
  0
SPLINE
  5
1A5
330
1F
100
AcDbEntity
  8
0
  6
Continuous
 62
     7
370
     0
100
AcDbSpline
210
0.0
220
0.0
230
1.0
 70
     8
 71
     3
 72
    15
 73
    11
 74
     0
 42
0.00000001
 43
0.00000001
 40
0.0
 40
0.0
 40
0.0
 40
0.0
 40
0.1323768784386572
 40
0.2551949197670689
 40
0.3737221416536693
 40
0.4900113154474169
 40
0.6078124214239345
 40
0.7311098159015433
 40
0.8599973777575841
 40
1.0
 40
1.0
 40
1.0
 40
1.0
 10
225.2558916253251
 20
108.2870647377798
 30
0.0
 10
225.2716258687541
 20
108.2925764444856
 30
0.0
 10
225.301958197457
 20
108.3032018616064
 30
0.0
 10
225.3426063551807
 20
108.327333252105
 30
0.0
 10
225.3772267705622
 20
108.3562908029308
 30
0.0
 10
225.4057266684805
 20
108.3905858331783
 30
0.0
 10
225.4276274278369
 20
108.4300348101346
 30
0.0
 10
225.4438662087218
 20
108.4738196578257
 30
0.0
 10
225.4527573015673
 20
108.5225524478902
 30
0.0
 10
225.4540278403094
 20
108.5563469255271
 30
0.0
 10
225.4546893696848
 20
108.5739426421664
 30
0.0
  0
SPLINE
  5
1A6
330
1F
100
AcDbEntity
  8
0
  6
Continuous
 62
     7
370
     0
100
AcDbSpline
210
0.0
220
0.0
230
1.0
 70
     8
 71
     3
 72
    15
 73
    11
 74
     0
 42
0.00000001
 43
0.00000001
 40
0.0
 40
0.0
 40
0.0
 40
0.0
 40
0.1669801744060282
 40
0.3208066328848138
 40
0.4631345048703168
 40
0.5942480539785199
 40
0.7123671525397434
 40
0.8194549510427512
 40
0.9157522665813538
 40
1.0
 40
1.0
 40
1.0
 40
1.0
 10
225.0089379056236
 20
108.2627809553425
 30
0.0
 10
225.0227967187468
 20
108.2628357860435
 30
0.0
 10
225.0494226292159
 20
108.2629411282053
 30
0.0
 10
225.0878298707115
 20
108.2644099122908
 30
0.0
 10
225.1232779136279
 20
108.2656629954143
 30
0.0
 10
225.1556296401973
 20
108.2688081372279
 30
0.0
 10
225.1850453234875
 20
108.2718886639203
 30
0.0
 10
225.2114072455032
 20
108.2760355330447
 30
0.0
 10
225.2348445283869
 20
108.2807081139899
 30
0.0
 10
225.2491951806707
 20
108.2850422840646
 30
0.0
 10
225.2558916253251
 20
108.2870647377798
 30
0.0
  0
LINE
  5
1A7
330
1F
100
AcDbEntity
  8
0
  6
Continuous
 62
     7
370
     0
100
AcDbLine
 10
224.5854122763
 20
108.2627809553
 30
0.0
 11
225.0089379056
 21
108.2627809553
 31
0.0
  0
LINE
  5
1A8
330
1F
100
AcDbEntity
  8
0
  6
Continuous
 62
     7
370
     0
100
AcDbLine
 10
224.5854122763
 20
108.8949824778
 30
0.0
 11
224.5854122763
 21
108.2627809553
 31
0.0
  0
LINE
  5
1A9
330
1F
100
AcDbEntity
  8
0
  6
Continuous
 62
     7
370
     0
100
AcDbLine
 10
224.9768339221
 20
108.8949824778
 30
0.0
 11
224.5854122763
 21
108.8949824778
 31
0.0
  0
SPLINE
  5
1AA
330
1F
100
AcDbEntity
  8
0
  6
Continuous
 62
     7
370
     0
100
AcDbSpline
210
0.0
220
0.0
230
1.0
 70
     8
 71
     3
 72
    23
 73
    19
 74
     0
 42
0.00000001
 43
0.00000001
 40
0.0
 40
0.0
 40
0.0
 40
0.0
 40
0.076010519206233
 40
0.1481357362434483
 40
0.217788177833154
 40
0.2867678984972345
 40
0.3540434632439188
 40
0.4186108400234796
 40
0.4836364388553443
 40
0.5502295626461522
 40
0.5869278113138146
 40
0.6291578250269657
 40
0.6772382242876696
 40
0.7300426397437304
 40
0.7888625661169236
 40
0.8537504514610937
 40
0.9241097665384561
 40
0.9999999999999999
 40
0.9999999999999999
 40
0.9999999999999999
 40
0.9999999999999999
 10
225.4546893696848
 20
108.5739426421664
 30
0.0
 10
225.4541574552779
 20
108.5908532643291
 30
0.0
 10
225.4531208154402
 20
108.6238101167565
 30
0.0
 10
225.4444191508617
 20
108.6716691805364
 30
0.0
 10
225.4293612417674
 20
108.7161932511106
 30
0.0
 10
225.4089687093684
 20
108.7573725614865
 30
0.0
 10
225.3831463449882
 20
108.7940074725041
 30
0.0
 10
225.3523264523425
 20
108.8255049206089
 30
0.0
 10
225.3154063963684
 20
108.8493156046111
 30
0.0
 10
225.2808972029528
 20
108.8641687583557
 30
0.0
 10
225.2498589184485
 20
108.8734608074217
 30
0.0
 10
225.2221273013312
 20
108.8789585303658
 30
0.0
 10
225.1906713762161
 20
108.8838025710295
 30
0.0
 10
225.1553876302565
 20
108.8879208133321
 30
0.0
 10
225.1162627166135
 20
108.8911169487933
 30
0.0
 10
225.0731760846064
 20
108.8936560666096
 30
0.0
 10
225.0262302991159
 20
108.8947341143911
 30
0.0
 10
224.9937093441637
 20
108.8948976287015
 30
0.0
 10
224.9768339220624
 20
108.8949824777784
 30
0.0
  0
SPLINE
  5
1AB
330
1F
100
AcDbEntity
  8
0
  6
Continuous
 62
     7
370
     0
100
AcDbSpline
210
0.0
220
0.0
230
1.0
 70
     8
 71
     3
 72
    19
 73
    15
 74
     0
 42
0.00000001
 43
0.00000001
 40
0.0
 40
0.0
 40
0.0
 40
0.0
 40
0.0801399024652513
 40
0.1562809906190948
 40
0.229406049012902
 40
0.3017986969723052
 40
0.3727428627695777
 40
0.442667609902629
 40
0.5133209646126967
 40
0.586547692363208
 40
0.6683225082295051
 40
0.7636766255259053
 40
0.8740807567185483
 40
1.0
 40
1.0
 40
1.0
 40
1.0
 10
225.5337145599893
 20
107.6700920280589
 30
0.0
 10
225.5331476097487
 20
107.6888005478315
 30
0.0
 10
225.5320419989042
 20
107.7252840711842
 30
0.0
 10
225.5215327886778
 20
107.77800461092
 30
0.0
 10
225.5041732932306
 20
107.8269035670164
 30
0.0
 10
225.4797361819184
 20
107.8713037380675
 30
0.0
 10
225.4497627892829
 20
107.9112378692207
 30
0.0
 10
225.4134980107915
 20
107.9451129056254
 30
0.0
 10
225.3712130118982
 20
107.9719944222913
 30
0.0
 10
225.322777833508
 20
107.9930912103295
 30
0.0
 10
225.2661668120845
 20
108.0081012116694
 30
0.0
 10
225.1998170297729
 20
108.0182845883967
 30
0.0
 10
225.1226672010391
 20
108.0248556773053
 30
0.0
 10
225.0675360658493
 20
108.0254100175319
 30
0.0
 10
225.0381607624549
 20
108.0257053844291
 30
0.0
  0
SPLINE
  5
1AC
330
1F
100
AcDbEntity
  8
0
  6
Continuous
 62
     7
370
     0
100
AcDbSpline
210
0.0
220
0.0
230
1.0
 70
     8
 71
     3
 72
    11
 73
     7
 74
     0
 42
0.00000001
 43
0.00000001
 40
0.0
 40
0.0
 40
0.0
 40
0.0
 40
0.3293954641291814
 40
0.6051903468527978
 40
0.8278865786947356
 40
1.0
 40
1.0
 40
1.0
 40
1.0
 10
225.0714995146146
 20
107.3144786716887
 30
0.0
 10
225.0908446653409
 20
107.3147009200864
 30
0.0
 10
225.1263870444957
 20
107.3151092517107
 30
0.0
 10
225.1750020752296
 20
107.3163902078889
 30
0.0
 10
225.2142980502803
 20
107.3195191046639
 30
0.0
 10
225.237244823111
 20
107.322888127708
 30
0.0
 10
225.2472482451356
 20
107.3243568204767
 30
0.0
  0
LINE
  5
1AD
330
1F
100
AcDbEntity
  8
0
  6
Continuous
 62
     7
370
     0
100
AcDbLine
 10
224.5854122763
 20
107.3144786717
 30
0.0
 11
225.0714995146
 21
107.3144786717
 31
0.0
  0
LINE
  5
1AE
330
1F
100
AcDbEntity
  8
0
  6
Continuous
 62
     7
370
     0
100
AcDbLine
 10
224.5854122763
 20
108.0257053844
 30
0.0
 11
224.5854122763
 21
107.3144786717
 31
0.0
  0
LINE
  5
1AF
330
1F
100
AcDbEntity
  8
0
  6
Continuous
 62
     7
370
     0
100
AcDbLine
 10
225.0381607625
 20
108.0257053844
 30
0.0
 11
224.5854122763
 21
108.0257053844
 31
0.0
  0
SPLINE
  5
1B0
330
1F
100
AcDbEntity
  8
0
  6
Continuous
 62
     7
370
     0
100
AcDbSpline
210
0.0
220
0.0
230
1.0
 70
     8
 71
     3
 72
    19
 73
    15
 74
     0
 42
0.00000001
 43
0.00000001
 40
0.0
 40
0.0
 40
0.0
 40
0.0
 40
0.0889709576989538
 40
0.1722707767733128
 40
0.2503120304637083
 40
0.3246551996215513
 40
0.3978444501802943
 40
0.4733008807185318
 40
0.551825888744447
 40
0.6347494834982523
 40
0.7217660118923853
 40
0.8103926655611188
 40
0.903175236799419
 40
1.0
 40
1.0
 40
1.0
 40
1.0
 10
225.2472482451356
 20
107.3243568204767
 30
0.0
 10
225.2615901825948
 20
107.3273713504059
 30
0.0
 10
225.2893598814993
 20
107.3332082597294
 30
0.0
 10
225.3285084940092
 20
107.3462356323975
 30
0.0
 10
225.364402822415
 20
107.3611591821079
 30
0.0
 10
225.3964163854497
 20
107.3801253558606
 30
0.0
 10
225.4260601767383
 20
107.4019825718846
 30
0.0
 10
225.4518228376303
 20
107.4292832806905
 30
0.0
 10
225.4755514712114
 20
107.460301508429
 30
0.0
 10
225.4961102431251
 20
107.4957983416915
 30
0.0
 10
225.512734995433
 20
107.5350672968152
 30
0.0
 10
225.5254410091871
 20
107.5775016407759
 30
0.0
 10
225.5322091575914
 20
107.6229525898037
 30
0.0
 10
225.5332056776681
 20
107.6541571346441
 30
0.0
 10
225.5337145599893
 20
107.6700920280589
 30
0.0
  0
SPLINE
  5
1B1
330
1F
100
AcDbEntity
  8
0
  6
Continuous
 62
     7
370
     0
100
AcDbSpline
210
0.0
220
0.0
230
1.0
 70
     8
 71
     3
 72
    23
 73
    19
 74
     0
 42
0.00000001
 43
0.00000001
 40
0.0
 40
0.0
 40
0.0
 40
0.0
 40
0.1156291309254414
 40
0.2215410391198768
 40
0.3170478562190418
 40
0.4031508756396168
 40
0.4801812167162797
 40
0.5476493661481898
 40
0.6070358428421809
 40
0.6586524080635074
 40
0.705722890353646
 40
0.7498040879796471
 40
0.7925868153452743
 40
0.8338739610102607
 40
0.874768393303433
 40
0.9152226988916382
 40
0.9568807037304802
 40
1.0
 40
1.0
 40
1.0
 40
1.0
 10
224.1902863248131
 20
104.9305520975033
 30
0.0
 10
224.1900368732358
 20
104.9692485081197
 30
0.0
 10
224.1895589334538
 20
105.043389366479
 30
0.0
 10
224.1841573381154
 20
105.1493822716775
 30
0.0
 10
224.1756925527728
 20
105.2452441784376
 30
0.0
 10
224.1641140711537
 20
105.3310634625482
 30
0.0
 10
224.1487262712288
 20
105.4067469554113
 30
0.0
 10
224.1300629689919
 20
105.4724557768962
 30
0.0
 10
224.1078228537762
 20
105.5280497922663
 30
0.0
 10
224.0813794361484
 20
105.5740874445006
 30
0.0
 10
224.0519426213686
 20
105.6118508088337
 30
0.0
 10
224.0211930777524
 20
105.6445382865187
 30
0.0
 10
223.9883620636087
 20
105.6723379213597
 30
0.0
 10
223.9528679121592
 20
105.6946391985217
 30
0.0
 10
223.915854666661
 20
105.7126310394392
 30
0.0
 10
223.87647185681
 20
105.7250134825261
 30
0.0
 10
223.8351065845041
 20
105.7326208682499
 30
0.0
 10
223.8067181347804
 20
105.7335183764191
 30
0.0
 10
223.7922792465608
 20
105.7339748655989
 30
0.0
  0
SPLINE
  5
1B2
330
1F
100
AcDbEntity
  8
0
  6
Continuous
 62
     7
370
     0
100
AcDbSpline
210
0.0
220
0.0
230
1.0
 70
     8
 71
     3
 72
    23
 73
    19
 74
     0
 42
0.00000001
 43
0.00000001
 40
0.0
 40
0.0
 40
0.0
 40
0.0
 40
0.0407818458722597
 40
0.0808695887215869
 40
0.1202681657882672
 40
0.1601868504553523
 40
0.2004597376386391
 40
0.2422651778979082
 40
0.2864592615494684
 40
0.3329520837492633
 40
0.3844305340495305
 40
0.4433891253601058
 40
0.5116814722136833
 40
0.5890200255490083
 40
0.6762451906507724
 40
0.7737051914728238
 40
0.881567767781983
 40
1.0
 40
1.0
 40
1.0
 40
1.0
 10
223.7951603732906
 20
104.1271293294077
 30
0.0
 10
223.8087660408675
 20
104.1276487574249
 30
0.0
 10
223.8357458088917
 20
104.1286787728452
 30
0.0
 10
223.8754625135196
 20
104.1355395425296
 30
0.0
 10
223.913300930895
 20
104.1483576412462
 30
0.0
 10
223.949602269135
 20
104.1651173597966
 30
0.0
 10
223.9841791042953
 20
104.1868252194545
 30
0.0
 10
224.0168495944561
 20
104.2135680847662
 30
0.0
 10
224.0481354547314
 20
104.2448941195846
 30
0.0
 10
224.0781443344134
 20
104.2817636292348
 30
0.0
 10
224.1054663867624
 20
104.3266812261806
 30
0.0
 10
224.1281320019056
 20
104.3820369861456
 30
0.0
 10
224.1475613869871
 20
104.4475557725847
 30
0.0
 10
224.1633665690688
 20
104.5237095506341
 30
0.0
 10
224.1753203056827
 20
104.6103591236346
 30
0.0
 10
224.1842704319565
 20
104.7075870845181
 30
0.0
 10
224.1895362155288
 20
104.8155229995292
 30
0.0
 10
224.1900286220325
 20
104.891033431333
 30
0.0
 10
224.1902863248131
 20
104.9305520975033
 30
0.0
  0
SPLINE
  5
1B3
330
1F
100
AcDbEntity
  8
0
  6
Continuous
 62
     7
370
     0
100
AcDbSpline
210
0.0
220
0.0
230
1.0
 70
     8
 71
     3
 72
    23
 73
    19
 74
     0
 42
0.00000001
 43
0.00000001
 40
0.0
 40
0.0
 40
0.0
 40
0.0
 40
0.1184055081537694
 40
0.2266543328167019
 40
0.3240923419286019
 40
0.4117048030053216
 40
0.4890259050064157
 40
0.5569093973430758
 40
0.6162333444927067
 40
0.6673492812770749
 40
0.7135123932013474
 40
0.757696504520978
 40
0.7994925114422909
 40
0.8399760647439395
 40
0.879885741816776
 40
0.9191486593857414
 40
0.959227356493083
 40
1.0
 40
1.0
 40
1.0
 40
1.0
 10
223.4000344217682
 20
104.9305520975033
 30
0.0
 10
223.4002959742011
 20
104.8910336096131
 30
0.0
 10
223.4007966434107
 20
104.815386482665
 30
0.0
 10
223.4060274213441
 20
104.7073115104717
 30
0.0
 10
223.4150319902551
 20
104.6098131332419
 30
0.0
 10
223.4269366185045
 20
104.5230263438492
 30
0.0
 10
223.4426555477768
 20
104.446833745999
 30
0.0
 10
223.4623925226094
 20
104.3814295018867
 30
0.0
 10
223.4846407876196
 20
104.326028612309
 30
0.0
 10
223.5121725939784
 20
104.2813177286551
 30
0.0
 10
223.5423168810321
 20
104.2448718361228
 30
0.0
 10
223.5734387973016
 20
104.2135271898912
 30
0.0
 10
223.6062705338963
 20
104.1868849583066
 30
0.0
 10
223.6405978677028
 20
104.1646707704888
 30
0.0
 10
223.6769534120074
 20
104.1478516469575
 30
0.0
 10
223.7149396249766
 20
104.1356611087696
 30
0.0
 10
223.7545647720858
 20
104.1286456412157
 30
0.0
 10
223.7815512978452
 20
104.1276376505356
 30
0.0
 10
223.7951603732906
 20
104.1271293294077
 30
0.0
  0
SPLINE
  5
1B4
330
1F
100
AcDbEntity
  8
0
  6
Continuous
 62
     7
370
     0
100
AcDbSpline
210
0.0
220
0.0
230
1.0
 70
     8
 71
     3
 72
    15
 73
    11
 74
     0
 42
0.00000001
 43
0.00000001
 40
0.0
 40
0.0
 40
0.0
 40
0.0
 40
0.0838881132795455
 40
0.1771540327539696
 40
0.2825136355617228
 40
0.3993998606601629
 40
0.5294908061912204
 40
0.6728021776758328
 40
0.8295357616196702
 40
1.0
 40
1.0
 40
1.0
 40
1.0
 10
223.5189837967577
 20
105.5932112453691
 30
0.0
 10
223.5091933724331
 20
105.576842643928
 30
0.0
 10
223.4885180576157
 20
105.5422756040643
 30
0.0
 10
223.4653835825149
 20
105.4821966645749
 30
0.0
 10
223.4449475017572
 20
105.4135378724687
 30
0.0
 10
223.4281218318072
 20
105.3352428623617
 30
0.0
 10
223.4159496399756
 20
105.2474459416885
 30
0.0
 10
223.4063401651886
 20
105.150249069975
 30
0.0
 10
223.4013484007195
 20
105.0435165487598
 30
0.0
 10
223.4004844991176
 20
104.9692458229608
 30
0.0
 10
223.4000344217682
 20
104.9305520975033
 30
0.0
  0
SPLINE
  5
1B5
330
1F
100
AcDbEntity
  8
0
  6
Continuous
 62
     7
370
     0
100
AcDbSpline
210
0.0
220
0.0
230
1.0
 70
     8
 71
     3
 72
    15
 73
    11
 74
     0
 42
0.00000001
 43
0.00000001
 40
0.0
 40
0.0
 40
0.0
 40
0.0
 40
0.1276647678962251
 40
0.2517385630080496
 40
0.3727533493873896
 40
0.492146758972386
 40
0.614069621309245
 40
0.7371973244121095
 40
0.8656069906011175
 40
1.0
 40
1.0
 40
1.0
 40
1.0
 10
223.7922792465608
 20
105.7339748655989
 30
0.0
 10
223.7786710258404
 20
105.7336177035205
 30
0.0
 10
223.7518373583714
 20
105.7329134256696
 30
0.0
 10
223.7125493549884
 20
105.7261911007148
 30
0.0
 10
223.6753165757255
 20
105.7149498750714
 30
0.0
 10
223.6397124532878
 20
105.6997225434408
 30
0.0
 10
223.6066258256012
 20
105.679229562742
 30
0.0
 10
223.5747445592937
 20
105.6553025490793
 30
0.0
 10
223.5455618495284
 20
105.6261501535359
 30
0.0
 10
223.5279766046628
 20
105.6043562783142
 30
0.0
 10
223.5189837967577
 20
105.5932112453691
 30
0.0
  0
SPLINE
  5
1B6
330
1F
100
AcDbEntity
  8
0
  6
Continuous
 62
     7
370
     0
100
AcDbSpline
210
0.0
220
0.0
230
1.0
 70
     8
 71
     3
 72
    15
 73
    11
 74
     0
 42
0.00000001
 43
0.00000001
 40
0.0
 40
0.0
 40
0.0
 40
0.0
 40
0.1531481085926319
 40
0.2994334688329067
 40
0.4364263514567512
 40
0.5656705729563586
 40
0.6865083102878727
 40
0.7992685160630042
 40
0.9033947408013441
 40
1.0
 40
1.0
 40
1.0
 40
1.0
 10
223.2481578841517
 20
108.4866856612052
 30
0.0
 10
223.2405051306515
 20
108.5075507365463
 30
0.0
 10
223.2255425526103
 20
108.5483458984603
 30
0.0
 10
223.2032288409139
 20
108.607617824904
 30
0.0
 10
223.1828433934794
 20
108.6639048790305
 30
0.0
 10
223.1628537882605
 20
108.7163999851072
 30
0.0
 10
223.1448088145823
 20
108.7658656873138
 30
0.0
 10
223.1281762998128
 20
108.811967867237
 30
0.0
 10
223.1117268830461
 20
108.8543860926584
 30
0.0
 10
223.1018553566493
 20
108.8817926369747
 30
0.0
 10
223.097104525601
 20
108.8949824777784
 30
0.0
  0
LINE
  5
1B7
330
1F
100
AcDbEntity
  8
0
  6
Continuous
 62
     7
370
     0
100
AcDbLine
 10
223.4477788076
 20
107.9466801941
 30
0.0
 11
223.2481578842
 21
108.4866856612
 31
0.0
  0
LINE
  5
1B8
330
1F
100
AcDbEntity
  8
0
  6
Continuous
 62
     7
370
     0
100
AcDbLine
 10
222.7464302436
 20
107.9466801941
 30
0.0
 11
223.4477788076
 21
107.9466801941
 31
0.0
  0
LINE
  5
1B9
330
1F
100
AcDbEntity
  8
0
  6
Continuous
 62
     7
370
     0
100
AcDbLine
 10
222.9567524949
 20
108.5154969285
 30
0.0
 11
222.7464302436
 21
107.9466801941
 31
0.0
  0
SPLINE
  5
1BA
330
1F
100
AcDbEntity
  8
0
  6
Continuous
 62
     7
370
     0
100
AcDbSpline
210
0.0
220
0.0
230
1.0
 70
     8
 71
     3
 72
    11
 73
     7
 74
     0
 42
0.00000001
 43
0.00000001
 40
0.0
 40
0.0
 40
0.0
 40
0.0
 40
0.247294050035337
 40
0.4956077709090489
 40
0.746359172773196
 40
1.0
 40
1.0
 40
1.0
 40
1.0
 10
223.097104525601
 20
108.8949824777784
 30
0.0
 10
223.0892457340528
 20
108.8624574919026
 30
0.0
 10
223.073495746697
 20
108.7972734094451
 30
0.0
 10
223.0405191078326
 20
108.7017699840756
 30
0.0
 10
223.0027949782961
 20
108.6071399806381
 30
0.0
 10
222.9721584900355
 20
108.5461610523954
 30
0.0
 10
222.9567524949039
 20
108.5154969285038
 30
0.0
  0
SPLINE
  5
1BB
330
1F
100
AcDbEntity
  8
0
  6
Continuous
 62
     7
370
     0
100
AcDbSpline
210
0.0
220
0.0
230
1.0
 70
     8
 71
     3
 72
    23
 73
    19
 74
     0
 42
0.00000001
 43
0.00000001
 40
0.0
 40
0.0
 40
0.0
 40
0.0
 40
0.1156291309254413
 40
0.2215410391198767
 40
0.3170478562190416
 40
0.4031508756396165
 40
0.4801812167162793
 40
0.5476493661481897
 40
0.6070358428421808
 40
0.6586524080635069
 40
0.7057228903536454
 40
0.7498040879796471
 40
0.7925868153452743
 40
0.8338739610102602
 40
0.8747683933034326
 40
0.9152226988916381
 40
0.9568807037304797
 40
1.0
 40
1.0
 40
1.0
 40
1.0
 10
222.6097825187233
 20
104.9305520975033
 30
0.0
 10
222.6095330671461
 20
104.9692485081197
 30
0.0
 10
222.609055127364
 20
105.043389366479
 30
0.0
 10
222.6036535320256
 20
105.1493822716775
 30
0.0
 10
222.5951887466831
 20
105.2452441784376
 30
0.0
 10
222.5836102650639
 20
105.3310634625482
 30
0.0
 10
222.568222465139
 20
105.4067469554113
 30
0.0
 10
222.5495591629021
 20
105.4724557768962
 30
0.0
 10
222.5273190476865
 20
105.5280497922663
 30
0.0
 10
222.5008756300587
 20
105.5740874445006
 30
0.0
 10
222.4714388152789
 20
105.6118508088337
 30
0.0
 10
222.4406892716626
 20
105.6445382865187
 30
0.0
 10
222.407858257519
 20
105.6723379213597
 30
0.0
 10
222.3723641060695
 20
105.6946391985217
 30
0.0
 10
222.3353508605713
 20
105.7126310394392
 30
0.0
 10
222.2959680507202
 20
105.7250134825261
 30
0.0
 10
222.2546027784143
 20
105.7326208682499
 30
0.0
 10
222.2262143286907
 20
105.7335183764191
 30
0.0
 10
222.211775440471
 20
105.7339748655989
 30
0.0
  0
SPLINE
  5
1BC
330
1F
100
AcDbEntity
  8
0
  6
Continuous
 62
     7
370
     0
100
AcDbSpline
210
0.0
220
0.0
230
1.0
 70
     8
 71
     3
 72
    23
 73
    19
 74
     0
 42
0.00000001
 43
0.00000001
 40
0.0
 40
0.0
 40
0.0
 40
0.0
 40
0.0407818458722601
 40
0.0808695887215869
 40
0.1202681657882672
 40
0.1601868504553522
 40
0.2004597376386394
 40
0.2422651778979082
 40
0.2864592615494687
 40
0.3329520837492634
 40
0.3844305340495304
 40
0.4433891253601058
 40
0.5116814722136832
 40
0.5890200255490082
 40
0.6762451906507722
 40
0.7737051914728236
 40
0.8815677677819829
 40
1.0
 40
1.0
 40
1.0
 40
1.0
 10
222.2146565672009
 20
104.1271293294077
 30
0.0
 10
222.2282622347778
 20
104.1276487574249
 30
0.0
 10
222.2552420028019
 20
104.1286787728452
 30
0.0
 10
222.2949587074298
 20
104.1355395425296
 30
0.0
 10
222.3327971248053
 20
104.1483576412462
 30
0.0
 10
222.3690984630453
 20
104.1651173597966
 30
0.0
 10
222.4036752982056
 20
104.1868252194545
 30
0.0
 10
222.4363457883663
 20
104.2135680847662
 30
0.0
 10
222.4676316486417
 20
104.2448941195846
 30
0.0
 10
222.4976405283237
 20
104.2817636292348
 30
0.0
 10
222.5249625806727
 20
104.3266812261806
 30
0.0
 10
222.5476281958159
 20
104.3820369861456
 30
0.0
 10
222.5670575808974
 20
104.4475557725847
 30
0.0
 10
222.5828627629791
 20
104.5237095506341
 30
0.0
 10
222.594816499593
 20
104.6103591236346
 30
0.0
 10
222.6037666258668
 20
104.7075870845181
 30
0.0
 10
222.609032409439
 20
104.8155229995292
 30
0.0
 10
222.6095248159427
 20
104.891033431333
 30
0.0
 10
222.6097825187233
 20
104.9305520975033
 30
0.0
  0
SPLINE
  5
1BD
330
1F
100
AcDbEntity
  8
0
  6
Continuous
 62
     7
370
     0
100
AcDbSpline
210
0.0
220
0.0
230
1.0
 70
     8
 71
     3
 72
    23
 73
    19
 74
     0
 42
0.00000001
 43
0.00000001
 40
0.0
 40
0.0
 40
0.0
 40
0.0
 40
0.1184055081537694
 40
0.2266543328167019
 40
0.324092341928602
 40
0.4117048030053217
 40
0.4890259050064157
 40
0.5569093973430758
 40
0.6162333444927066
 40
0.667349281277075
 40
0.7135123932013474
 40
0.7576965045209779
 40
0.7994925114422909
 40
0.8399760647439393
 40
0.879885741816776
 40
0.9191486593857419
 40
0.959227356493083
 40
1.0
 40
1.0
 40
1.0
 40
1.0
 10
221.8195306156784
 20
104.9305520975033
 30
0.0
 10
221.8197921681114
 20
104.8910336096131
 30
0.0
 10
221.820292837321
 20
104.815386482665
 30
0.0
 10
221.8255236152544
 20
104.7073115104717
 30
0.0
 10
221.8345281841654
 20
104.6098131332419
 30
0.0
 10
221.8464328124148
 20
104.5230263438492
 30
0.0
 10
221.8621517416871
 20
104.446833745999
 30
0.0
 10
221.8818887165197
 20
104.3814295018867
 30
0.0
 10
221.9041369815299
 20
104.326028612309
 30
0.0
 10
221.9316687878887
 20
104.2813177286551
 30
0.0
 10
221.9618130749424
 20
104.2448718361228
 30
0.0
 10
221.9929349912119
 20
104.2135271898912
 30
0.0
 10
222.0257667278065
 20
104.1868849583066
 30
0.0
 10
222.060094061613
 20
104.1646707704888
 30
0.0
 10
222.0964496059177
 20
104.1478516469575
 30
0.0
 10
222.1344358188869
 20
104.1356611087696
 30
0.0
 10
222.1740609659961
 20
104.1286456412157
 30
0.0
 10
222.2010474917555
 20
104.1276376505356
 30
0.0
 10
222.2146565672009
 20
104.1271293294077
 30
0.0
  0
SPLINE
  5
1BE
330
1F
100
AcDbEntity
  8
0
  6
Continuous
 62
     7
370
     0
100
AcDbSpline
210
0.0
220
0.0
230
1.0
 70
     8
 71
     3
 72
    15
 73
    11
 74
     0
 42
0.00000001
 43
0.00000001
 40
0.0
 40
0.0
 40
0.0
 40
0.0
 40
0.0838881132795455
 40
0.1771540327539697
 40
0.2825136355617227
 40
0.3993998606601629
 40
0.5294908061912204
 40
0.6728021776758328
 40
0.82953576161967
 40
1.0
 40
1.0
 40
1.0
 40
1.0
 10
221.938479990668
 20
105.5932112453691
 30
0.0
 10
221.9286895663433
 20
105.576842643928
 30
0.0
 10
221.908014251526
 20
105.5422756040643
 30
0.0
 10
221.8848797764252
 20
105.4821966645749
 30
0.0
 10
221.8644436956675
 20
105.4135378724687
 30
0.0
 10
221.8476180257175
 20
105.3352428623617
 30
0.0
 10
221.8354458338858
 20
105.2474459416885
 30
0.0
 10
221.8258363590989
 20
105.150249069975
 30
0.0
 10
221.8208445946297
 20
105.0435165487598
 30
0.0
 10
221.8199806930278
 20
104.9692458229608
 30
0.0
 10
221.8195306156784
 20
104.9305520975033
 30
0.0
  0
SPLINE
  5
1BF
330
1F
100
AcDbEntity
  8
0
  6
Continuous
 62
     7
370
     0
100
AcDbSpline
210
0.0
220
0.0
230
1.0
 70
     8
 71
     3
 72
    15
 73
    11
 74
     0
 42
0.00000001
 43
0.00000001
 40
0.0
 40
0.0
 40
0.0
 40
0.0
 40
0.1276647678962239
 40
0.2517385630080486
 40
0.3727533493873887
 40
0.4921467589723853
 40
0.6140696213092445
 40
0.7371973244121091
 40
0.8656069906011172
 40
1.0
 40
1.0
 40
1.0
 40
1.0
 10
222.211775440471
 20
105.7339748655989
 30
0.0
 10
222.1981672197507
 20
105.7336177035205
 30
0.0
 10
222.1713335522816
 20
105.7329134256696
 30
0.0
 10
222.1320455488987
 20
105.7261911007148
 30
0.0
 10
222.0948127696358
 20
105.7149498750714
 30
0.0
 10
222.0592086471981
 20
105.6997225434408
 30
0.0
 10
222.0261220195114
 20
105.679229562742
 30
0.0
 10
221.9942407532039
 20
105.6553025490793
 30
0.0
 10
221.9650580434387
 20
105.6261501535359
 30
0.0
 10
221.9474727985731
 20
105.6043562783142
 30
0.0
 10
221.938479990668
 20
105.5932112453691
 30
0.0
  0
SPLINE
  5
1C0
330
1F
100
AcDbEntity
  8
0
  6
Continuous
 62
     7
370
     0
100
AcDbSpline
210
0.0
220
0.0
230
1.0
 70
     8
 71
     3
 72
    23
 73
    19
 74
     0
 42
0.00000001
 43
0.00000001
 40
0.0
 40
0.0
 40
0.0
 40
0.0
 40
0.0603255293380428
 40
0.1181599905079977
 40
0.1741866762963808
 40
0.2295388181457999
 40
0.2834498146386372
 40
0.337826511950592
 40
0.3926321025334832
 40
0.4484655764151909
 40
0.5059654091573053
 40
0.5650585322290048
 40
0.6266544786228438
 40
0.6922320330373639
 40
0.7611310781257618
 40
0.8353098773394203
 40
0.9153255598322017
 40
1.0
 40
1.0
 40
1.0
 40
1.0
 10
220.0546346988782
 20
108.5718846945023
 30
0.0
 10
220.0542522712674
 20
108.5834177719024
 30
0.0
 10
220.0535032079211
 20
108.6060076825269
 30
0.0
 10
220.0495763701205
 20
108.63916339949
 30
0.0
 10
220.0419416651257
 20
108.6706689942637
 30
0.0
 10
220.0318600559148
 20
108.7006910089634
 30
0.0
 10
220.0183889802056
 20
108.7290095537944
 30
0.0
 10
220.0023858918292
 20
108.7558440661728
 30
0.0
 10
219.9832892670532
 20
108.7810458183971
 30
0.0
 10
219.9614151821799
 20
108.8046915788671
 30
0.0
 10
219.9362997576078
 20
108.8262069100643
 30
0.0
 10
219.9076120382445
 20
108.8447699743289
 30
0.0
 10
219.8755782824473
 20
108.8605445742979
 30
0.0
 10
219.8401612561876
 20
108.8730643513474
 30
0.0
 10
219.8014725295691
 20
108.8830781350175
 30
0.0
 10
219.7592918561949
 20
108.8897399823097
 30
0.0
 10
219.7138121372919
 20
108.8945604728061
 30
0.0
 10
219.6822973295344
 20
108.8948391814159
 30
0.0
 10
219.6660941798812
 20
108.8949824777784
 30
0.0
  0
LINE
  5
1C1
330
1F
100
AcDbEntity
  8
0
  6
Continuous
 62
     7
370
     0
100
AcDbLine
 10
219.053648955
 20
108.2364392252
 30
0.0
 11
219.6039441604
 21
108.2364392252
 31
0.0
  0
LINE
  5
1C2
330
1F
100
AcDbEntity
  8
0
  6
Continuous
 62
     7
370
     0
100
AcDbLine
 10
219.053648955
 20
108.8949824778
 30
0.0
 11
219.053648955
 21
108.2364392252
 31
0.0
  0
LINE
  5
1C3
330
1F
100
AcDbEntity
  8
0
  6
Continuous
 62
     7
370
     0
100
AcDbLine
 10
219.6660941799
 20
108.8949824778
 30
0.0
 11
219.053648955
 21
108.8949824778
 31
0.0
  0
SPLINE
  5
1C4
330
1F
100
AcDbEntity
  8
0
  6
Continuous
 62
     7
370
     0
100
AcDbSpline
210
0.0
220
0.0
230
1.0
 70
     8
 71
     3
 72
    19
 73
    15
 74
     0
 42
0.00000001
 43
0.00000001
 40
0.0
 40
0.0
 40
0.0
 40
0.0
 40
0.1288602680417313
 40
0.2408921848092289
 40
0.3380442015575112
 40
0.4201204852136088
 40
0.494058456868551
 40
0.5660947835833202
 40
0.6368049543510104
 40
0.7091484493607203
 40
0.7819418055941268
 40
0.8542853006038366
 40
0.9261704072165587
 40
1.0
 40
1.0
 40
1.0
 40
1.0
 10
219.6039441604229
 20
108.236439225241
 30
0.0
 10
219.6315380464708
 20
108.2368709577578
 30
0.0
 10
219.6831222283017
 20
108.2376780412041
 30
0.0
 10
219.7552545460113
 20
108.2445696855276
 30
0.0
 10
219.816727330151
 20
108.2555208010194
 30
0.0
 10
219.8687558099064
 20
108.2714942855177
 30
0.0
 10
219.912467945408
 20
108.2936707864201
 30
0.0
 10
219.9504852201852
 20
108.3206969967808
 30
0.0
 10
219.9820780540793
 20
108.3545501387275
 30
0.0
 10
220.0083600283621
 20
108.3927462018922
 30
0.0
 10
220.0287895461312
 20
108.4347790627849
 30
0.0
 10
220.0435264258553
 20
108.4789284205446
 30
0.0
 10
220.0531719699486
 20
108.5248232283837
 30
0.0
 10
220.0541428041441
 20
108.5560585992536
 30
0.0
 10
220.0546346988782
 20
108.5718846945023
 30
0.0
  0
SPLINE
  5
1C5
330
1F
100
AcDbEntity
  8
0
  6
Continuous
 62
     7
370
     0
100
AcDbSpline
210
0.0
220
0.0
230
1.0
 70
     8
 71
     3
 72
    23
 73
    19
 74
     0
 42
0.00000001
 43
0.00000001
 40
0.0
 40
0.0
 40
0.0
 40
0.0
 40
0.0718367171319505
 40
0.1395582629178172
 40
0.2049233526537264
 40
0.2678265586039221
 40
0.3285473200936659
 40
0.3887551463289839
 40
0.4480299679797879
 40
0.5086005276974233
 40
0.5693212891871666
 40
0.6285118954019238
 40
0.687493275539241
 40
0.747078295388978
 40
0.8077025413165653
 40
0.8697098126206608
 40
0.933428331305089
 40
1.0
 40
1.0
 40
1.0
 40
1.0
 10
218.1074046190317
 20
104.1271293294077
 30
0.0
 10
218.1223777325165
 20
104.1273829629935
 30
0.0
 10
218.1514662236368
 20
104.1278757007475
 30
0.0
 10
218.1938681360808
 20
104.1335062866263
 30
0.0
 10
218.2338203240291
 20
104.1420497273082
 30
0.0
 10
218.2715058264675
 20
104.1537641848478
 30
0.0
 10
218.3063699547567
 20
104.1697903381985
 30
0.0
 10
218.3389804570338
 20
104.1885214303129
 30
0.0
 10
218.3690037697669
 20
104.2111593889712
 30
0.0
 10
218.3964313935543
 20
104.236995014054
 30
0.0
 10
218.4209839790842
 20
104.2655740572705
 30
0.0
 10
218.4420163734119
 20
104.2964046004327
 30
0.0
 10
218.4603631794082
 20
104.3286196099263
 30
0.0
 10
218.4753425077284
 20
104.36291433535
 30
0.0
 10
218.4861749763774
 20
104.3993594954071
 30
0.0
 10
218.4945337559299
 20
104.4372975404426
 30
0.0
 10
218.4995763603404
 20
104.4771197806224
 30
0.0
 10
218.5001695388152
 20
104.5042680160681
 30
0.0
 10
218.50047262289
 20
104.5181393856018
 30
0.0
  0
SPLINE
  5
1C6
330
1F
100
AcDbEntity
  8
0
  6
Continuous
 62
     7
370
     0
100
AcDbSpline
210
0.0
220
0.0
230
1.0
 70
     8
 71
     3
 72
    19
 73
    15
 74
     0
 42
0.00000001
 43
0.00000001
 40
0.0
 40
0.0
 40
0.0
 40
0.0
 40
0.079823271279787
 40
0.1598568116661127
 40
0.2397327021152788
 40
0.3213646023254474
 40
0.4025836963489389
 40
0.483265588546352
 40
0.5660170116609762
 40
0.6530713596602558
 40
0.7418556865073695
 40
0.8285909050739395
 40
0.9142807452008549
 40
1.0
 40
1.0
 40
1.0
 40
1.0
 10
217.7102207198451
 20
104.5263711762585
 30
0.0
 10
217.710676227785
 20
104.5094688796322
 30
0.0
 10
217.7115884435561
 20
104.4756197626368
 30
0.0
 10
217.719590539268
 20
104.4253466509382
 30
0.0
 10
217.7331684381835
 20
104.3760097164685
 30
0.0
 10
217.7505708793516
 20
104.3275623571039
 30
0.0
 10
217.7751181047823
 20
104.2819599930343
 30
0.0
 10
217.8076704864595
 20
104.2412565278581
 30
0.0
 10
217.8485176284295
 20
104.2070355085081
 30
0.0
 10
217.8951672981177
 20
104.1781242926435
 30
0.0
 10
217.9460740817385
 20
104.1553686792685
 30
0.0
 10
217.999120438809
 20
104.1394844879127
 30
0.0
 10
218.0529372703105
 20
104.1289890071262
 30
0.0
 10
218.0892467591603
 20
104.1277492928943
 30
0.0
 10
218.1074046190317
 20
104.1271293294077
 30
0.0
  0
SPLINE
  5
1C7
330
1F
100
AcDbEntity
  8
0
  6
Continuous
 62
     7
370
     0
100
AcDbSpline
210
0.0
220
0.0
230
1.0
 70
     8
 71
     3
 72
    23
 73
    19
 74
     0
 42
0.00000001
 43
0.00000001
 40
0.0
 40
0.0
 40
0.0
 40
0.0
 40
0.0709524654154269
 40
0.1390889271416602
 40
0.2035598239190671
 40
0.2664237811295191
 40
0.3275165661984789
 40
0.3878608717608968
 40
0.4478987850107178
 40
0.5088188285885856
 40
0.5694824568188307
 40
0.6290357116670982
 40
0.6883784585529115
 40
0.7480679615575835
 40
0.8086301697509072
 40
0.8702311456070247
 40
0.933682580472202
 40
1.0
 40
1.0
 40
1.0
 40
1.0
 10
218.0995844179078
 20
104.9173812324526
 30
0.0
 10
218.084885948689
 20
104.9171156410001
 30
0.0
 10
218.0560723718484
 20
104.9165949990468
 30
0.0
 10
218.0142142093405
 20
104.911054920861
 30
0.0
 10
217.9745873896119
 20
104.9025471982104
 30
0.0
 10
217.9375405511068
 20
104.8900950135786
 30
0.0
 10
217.9026104937588
 20
104.8745347433989
 30
0.0
 10
217.8704360765265
 20
104.8549688171337
 30
0.0
 10
217.8404433100739
 20
104.832258359635
 30
0.0
 10
217.8135483660704
 20
104.8058617726239
 30
0.0
 10
217.7892821568192
 20
104.7771879024491
 30
0.0
 10
217.7683014201565
 20
104.7464496017276
 30
0.0
 10
217.7497670657276
 20
104.7143599069797
 30
0.0
 10
217.7357017356395
 20
104.6798658382993
 30
0.0
 10
217.7237966928763
 20
104.6440825259107
 30
0.0
 10
217.7163541580458
 20
104.606315454465
 30
0.0
 10
217.7110634457927
 20
104.5669937240883
 30
0.0
 10
217.7105057342375
 20
104.5401099377376
 30
0.0
 10
217.7102207198451
 20
104.5263711762585
 30
0.0
  0
SPLINE
  5
1C8
330
1F
100
AcDbEntity
  8
0
  6
Continuous
 62
     7
370
     0
100
AcDbSpline
210
0.0
220
0.0
230
1.0
 70
     8
 71
     3
 72
    23
 73
    19
 74
     0
 42
0.00000001
 43
0.00000001
 40
0.0
 40
0.0
 40
0.0
 40
0.0
 40
0.0666161804351809
 40
0.130423869924064
 40
0.1926709575700171
 40
0.2529685047960665
 40
0.312880382805784
 40
0.3722002559180861
 40
0.4319271071459047
 40
0.4924217452545999
 40
0.5527712209075776
 40
0.6132624068156192
 40
0.6735564905563718
 40
0.7343197960333021
 40
0.7968580801403251
 40
0.8617690047507051
 40
0.9288631073150267
 40
0.9999999999999999
 40
0.9999999999999999
 40
0.9999999999999999
 40
0.9999999999999999
 10
218.50047262289
 20
104.5181393856018
 30
0.0
 10
218.5001598862429
 20
104.532283033793
 30
0.0
 10
218.4995475977041
 20
104.5599740439935
 30
0.0
 10
218.4946331422295
 20
104.6006702999881
 30
0.0
 10
218.4858056559759
 20
104.6392758085189
 30
0.0
 10
218.4744534719027
 20
104.6763737864177
 30
0.0
 10
218.4590680164915
 20
104.7113188350749
 30
0.0
 10
218.4405999313465
 20
104.7446120247521
 30
0.0
 10
218.4179840300388
 20
104.7753758209473
 30
0.0
 10
218.3931838901872
 20
104.8046546594361
 30
0.0
 10
218.3651184366928
 20
104.8311587760397
 30
0.0
 10
218.3341253916545
 20
104.8540142771882
 30
0.0
 10
218.3011869949304
 20
104.8741995554817
 30
0.0
 10
218.2653068301462
 20
104.8896833680589
 30
0.0
 10
218.227275385956
 20
104.9020862550015
 30
0.0
 10
218.1869119814403
 20
104.9110983811528
 30
0.0
 10
218.1440520430771
 20
104.916607254177
 30
0.0
 10
218.1146931755632
 20
104.9171182579818
 30
0.0
 10
218.0995844179078
 20
104.9173812324526
 30
0.0
  0
SPLINE
  5
1C9
330
1F
100
AcDbEntity
  8
0
  6
Continuous
 62
     7
370
     0
100
AcDbSpline
210
0.0
220
0.0
230
1.0
 70
     8
 71
     3
 72
    19
 73
    15
 74
     0
 42
0.00000001
 43
0.00000001
 40
0.0
 40
0.0
 40
0.0
 40
0.0
 40
0.0768426979287827
 40
0.1498390532852208
 40
0.2183793964454711
 40
0.2849970207005652
 40
0.3476576708142682
 40
0.4098471591145119
 40
0.4699357615076958
 40
0.5304196066566044
 40
0.6487517360264009
 40
0.7637748930771634
 40
0.8787494877784697
 40
0.9999999999999999
 40
0.9999999999999999
 40
0.9999999999999999
 40
0.9999999999999999
 10
218.1078162085646
 20
105.154456803366
 30
0.0
 10
218.1200422946894
 20
105.1546312210034
 30
0.0
 10
218.1438824931689
 20
105.1549713258457
 30
0.0
 10
218.1783685395319
 20
105.1594099053519
 30
0.0
 10
218.2109577331661
 20
105.1653380460413
 30
0.0
 10
218.2411685014056
 20
105.1743212321139
 30
0.0
 10
218.2693496260251
 20
105.1860019939006
 30
0.0
 10
218.2950427532513
 20
105.200401489822
 30
0.0
 10
218.319016744923
 20
105.2169506428283
 30
0.0
 10
218.3470456841527
 20
105.2426933305878
 30
0.0
 10
218.3771238378405
 20
105.2788754241511
 30
0.0
 10
218.4029022436918
 20
105.3282707656637
 30
0.0
 10
218.4189662489477
 20
105.3823122025338
 30
0.0
 10
218.4206058513114
 20
105.419955213633
 30
0.0
 10
218.4214474325855
 20
105.4392767600884
 30
0.0
  0
SPLINE
  5
1CA
330
1F
100
AcDbEntity
  8
0
  6
Continuous
 62
     7
370
     0
100
AcDbSpline
210
0.0
220
0.0
230
1.0
 70
     8
 71
     3
 72
    19
 73
    15
 74
     0
 42
0.00000001
 43
0.00000001
 40
0.0
 40
0.0
 40
0.0
 40
0.0
 40
0.1273939413394724
 40
0.2461816112928118
 40
0.3612680043537856
 40
0.477140268037225
 40
0.5363265834357714
 40
0.5956719150436505
 40
0.6566189532057533
 40
0.7188356214960797
 40
0.7835815527063736
 40
0.8515878166889451
 40
0.9239265274809916
 40
1.0
 40
1.0
 40
1.0
 40
1.0
 10
217.7892459101496
 20
105.4516244460735
 30
0.0
 10
217.7900277297031
 20
105.4306545821776
 30
0.0
 10
217.7915385519244
 20
105.39013150213
 30
0.0
 10
217.8079689054047
 20
105.3325714358929
 30
0.0
 10
217.8336612100165
 20
105.2808663545576
 30
0.0
 10
217.8637809283186
 20
105.2433710265853
 30
0.0
 10
217.8926581739677
 20
105.2178235203326
 30
0.0
 10
217.9167602122464
 20
105.2007663581755
 30
0.0
 10
217.9430990791967
 20
105.1862851718822
 30
0.0
 10
217.9718655877519
 20
105.1750294806248
 30
0.0
 10
218.0023630117928
 20
105.1650576389858
 30
0.0
 10
218.0356431640508
 20
105.1594841044472
 30
0.0
 10
218.0709238143589
 20
105.1549531520793
 30
0.0
 10
218.0953141512443
 20
105.1546250055171
 30
0.0
 10
218.1078162085646
 20
105.154456803366
 30
0.0
  0
SPLINE
  5
1CB
330
1F
100
AcDbEntity
  8
0
  6
Continuous
 62
     7
370
     0
100
AcDbSpline
210
0.0
220
0.0
230
1.0
 70
     8
 71
     3
 72
    19
 73
    15
 74
     0
 42
0.00000001
 43
0.00000001
 40
0.0
 40
0.0
 40
0.0
 40
0.0
 40
0.0762358674075237
 40
0.1486180999543649
 40
0.2182394281414515
 40
0.2842516902686069
 40
0.3482575207850561
 40
0.4106562042500674
 40
0.4728623729995132
 40
0.5341947480221281
 40
0.653476101422413
 40
0.7677667895221957
 40
0.8817126094674202
 40
1.0
 40
1.0
 40
1.0
 40
1.0
 10
218.1053466713676
 20
105.7339748655989
 30
0.0
 10
218.0932565498772
 20
105.7338063169585
 30
0.0
 10
218.0696874485446
 20
105.7334777396162
 30
0.0
 10
218.0353589579705
 20
105.7289262456354
 30
0.0
 10
218.0028651875777
 20
105.7232096617476
 30
0.0
 10
217.972505913335
 20
105.7140356024169
 30
0.0
 10
217.9444073289204
 20
105.7020472395836
 30
0.0
 10
217.9182759438314
 20
105.6874571448997
 30
0.0
 10
217.8939177891331
 20
105.670761544714
 30
0.0
 10
217.8651926130451
 20
105.6450466653143
 30
0.0
 10
217.8351077236871
 20
105.6088637522492
 30
0.0
 10
217.8086037822554
 20
105.5602573129391
 30
0.0
 10
217.7922234889122
 20
105.5072598894837
 30
0.0
 10
217.7902507298975
 20
105.470399295264
 30
0.0
 10
217.7892459101496
 20
105.4516244460735
 30
0.0
  0
SPLINE
  5
1CC
330
1F
100
AcDbEntity
  8
0
  6
Continuous
 62
     7
370
     0
100
AcDbSpline
210
0.0
220
0.0
230
1.0
 70
     8
 71
     3
 72
    19
 73
    15
 74
     0
 42
0.00000001
 43
0.00000001
 40
0.0
 40
0.0
 40
0.0
 40
0.0
 40
0.1233861213626085
 40
0.2414346864233538
 40
0.3574485461509667
 40
0.4767139204528327
 40
0.5378895868739915
 40
0.5992703938301226
 40
0.6603520522565615
 40
0.7230069362990812
 40
0.7878755372012023
 40
0.855360105861051
 40
0.9253732137563339
 40
0.9999999999999999
 40
0.9999999999999999
 40
0.9999999999999999
 40
0.9999999999999999
 10
218.4214474325855
 20
105.4392767600884
 30
0.0
 10
218.420433445396
 20
105.4592737333159
 30
0.0
 10
218.4184493350566
 20
105.4984026313417
 30
0.0
 10
218.4024245690833
 20
105.5545739281631
 30
0.0
 10
218.3754454723088
 20
105.6054483475806
 30
0.0
 10
218.344625594413
 20
105.6426012155527
 30
0.0
 10
218.3161008245654
 20
105.6695162808996
 30
0.0
 10
218.2916964297769
 20
105.6866495225515
 30
0.0
 10
218.2654616140791
 20
105.7012314269438
 30
0.0
 10
218.2372965281727
 20
105.7131395149787
 30
0.0
 10
218.2071604435646
 20
105.7227435119321
 30
0.0
 10
218.1749717253353
 20
105.7290441965532
 30
0.0
 10
218.1408656308104
 20
105.7334630881259
 30
0.0
 10
218.1174354474156
 20
105.7338006836027
 30
0.0
 10
218.1053466713676
 20
105.7339748655989
 30
0.0
  0
SPLINE
  5
1CD
330
1F
100
AcDbEntity
  8
0
  6
Continuous
 62
     7
370
     0
100
AcDbSpline
210
0.0
220
0.0
230
1.0
 70
     8
 71
     3
 72
    23
 73
    19
 74
     0
 42
0.00000001
 43
0.00000001
 40
0.0
 40
0.0
 40
0.0
 40
0.0
 40
0.0610549117432832
 40
0.1195453450847438
 40
0.1768063562451035
 40
0.2329564830316851
 40
0.2885834899465033
 40
0.3446666617213001
 40
0.4016615108374461
 40
0.4605400973082778
 40
0.5204770623221882
 40
0.5812128653554004
 40
0.6434307597220102
 40
0.7079608695212424
 40
0.7753707435336737
 40
0.8464136772813298
 40
0.9211518871893691
 40
1.0
 40
1.0
 40
1.0
 40
1.0
 10
217.4192269201301
 20
107.2881369415872
 30
0.0
 10
217.4436798402376
 20
107.2887489898884
 30
0.0
 10
217.4915585888773
 20
107.2899473787368
 30
0.0
 10
217.561827446887
 20
107.2999786625538
 30
0.0
 10
217.6285907280801
 20
107.3170564956686
 30
0.0
 10
217.6925101758873
 20
107.3397909601441
 30
0.0
 10
217.7524301885308
 20
107.3705240805307
 30
0.0
 10
217.809752123933
 20
107.4065123963269
 30
0.0
 10
217.8629133787428
 20
107.45048908743
 30
0.0
 10
217.9132189113447
 20
107.499888125802
 30
0.0
 10
217.9583395853639
 20
107.5560392056867
 30
0.0
 10
217.998374684815
 20
107.6175591470836
 30
0.0
 10
218.0308963816184
 20
107.6853705927195
 30
0.0
 10
218.0589744773959
 20
107.7579797492801
 30
0.0
 10
218.0795348773562
 20
107.8367589574486
 30
0.0
 10
218.0947302728486
 20
107.9208126559722
 30
0.0
 10
218.1038873398755
 20
108.0104112191581
 30
0.0
 10
218.1048516262429
 20
108.0719189702924
 30
0.0
 10
218.1053466713676
 20
108.103495806135
 30
0.0
  0
SPLINE
  5
1CE
330
1F
100
AcDbEntity
  8
0
  6
Continuous
 62
     7
370
     0
100
AcDbSpline
210
0.0
220
0.0
230
1.0
 70
     8
 71
     3
 72
    23
 73
    19
 74
     0
 42
0.00000001
 43
0.00000001
 40
0.0
 40
0.0
 40
0.0
 40
0.0
 40
0.0759644026221998
 40
0.1481252239748712
 40
0.2172006111446031
 40
0.2832999093723612
 40
0.347201868136241
 40
0.4092995407059241
 40
0.4704256161074027
 40
0.5315880640528347
 40
0.5917391729173698
 40
0.6502577442905727
 40
0.7073030399522857
 40
0.7642084640229153
 40
0.8211475320101305
 40
0.8791188121552541
 40
0.9384228183936666
 40
1.0
 40
1.0
 40
1.0
 40
1.0
 10
216.7355767060897
 20
108.0742729493037
 30
0.0
 10
216.7360207480732
 20
108.0446095087487
 30
0.0
 10
216.736886598603
 20
107.9867678931446
 30
0.0
 10
216.7467923973196
 20
107.9024378934732
 30
0.0
 10
216.7618228647753
 20
107.8228682442344
 30
0.0
 10
216.7825407775746
 20
107.7478355742941
 30
0.0
 10
216.8103907259469
 20
107.6780819456737
 30
0.0
 10
216.8436889451583
 20
107.6129370937816
 30
0.0
 10
216.8835565940728
 20
107.5528340644153
 30
0.0
 10
216.9291140735614
 20
107.4979409894903
 30
0.0
 10
216.9792220783003
 20
107.4486291642116
 30
0.0
 10
217.0327675665693
 20
107.4055579079862
 30
0.0
 10
217.0897625751295
 20
107.3694887775385
 30
0.0
 10
217.149575212931
 20
107.3397060104772
 30
0.0
 10
217.2126350862068
 20
107.3164578450655
 30
0.0
 10
217.2787533299889
 20
107.3001335690459
 30
0.0
 10
217.3479785242265
 20
107.2899240595355
 30
0.0
 10
217.3951815698022
 20
107.288740069231
 30
0.0
 10
217.4192269201301
 20
107.2881369415872
 30
0.0
  0
SPLINE
  5
1CF
330
1F
100
AcDbEntity
  8
0
  6
Continuous
 62
     7
370
     0
100
AcDbSpline
210
0.0
220
0.0
230
1.0
 70
     8
 71
     3
 72
    23
 73
    19
 74
     0
 42
0.00000001
 43
0.00000001
 40
0.0
 40
0.0
 40
0.0
 40
0.0
 40
0.0559431333569187
 40
0.1103820356898407
 40
0.1640478588828499
 40
0.2167594775435861
 40
0.2696011346144475
 40
0.3230085051908687
 40
0.3775814436721363
 40
0.4334493367080539
 40
0.490921858049893
 40
0.5506247708713257
 40
0.6131168723098183
 40
0.6798607463518506
 40
0.7513577440202002
 40
0.8282611012589941
 40
0.9107950320656293
 40
1.0
 40
1.0
 40
1.0
 40
1.0
 10
217.4233428154585
 20
108.9213242078799
 30
0.0
 10
217.4002568956417
 20
108.9208657306218
 30
0.0
 10
217.3547058034479
 20
108.9199611039048
 30
0.0
 10
217.2876491730914
 20
108.9099047733745
 30
0.0
 10
217.2229993108547
 20
108.894879241526
 30
0.0
 10
217.1606558870565
 20
108.8738727473677
 30
0.0
 10
217.1011521154232
 20
108.8460568477758
 30
0.0
 10
217.044179711986
 20
108.8119444536728
 30
0.0
 10
216.9892329631805
 20
108.7724643916673
 30
0.0
 10
216.9371783008929
 20
108.7266547389963
 30
0.0
 10
216.8886519697087
 20
108.6740306307017
 30
0.0
 10
216.8476278249811
 20
108.6119884195923
 30
0.0
 10
216.81305155499
 20
108.5420091835243
 30
0.0
 10
216.784181006489
 20
108.4642703036093
 30
0.0
 10
216.7621680634726
 20
108.3781697436016
 30
0.0
 10
216.7469543664361
 20
108.2840780346399
 30
0.0
 10
216.7373487485281
 20
108.1818960272285
 30
0.0
 10
216.7361824876738
 20
108.1110644375943
 30
0.0
 10
216.7355767060897
 20
108.0742729493037
 30
0.0
  0
SPLINE
  5
1D0
330
1F
100
AcDbEntity
  8
0
  6
Continuous
 62
     7
370
     0
100
AcDbSpline
210
0.0
220
0.0
230
1.0
 70
     8
 71
     3
 72
    31
 73
    27
 74
     0
 42
0.00000001
 43
0.00000001
 40
0.0
 40
0.0
 40
0.0
 40
0.0
 40
0.0508516157922844
 40
0.0997524678094164
 40
0.1474376477769319
 40
0.1940857839327041
 40
0.239170927084144
 40
0.2833398222454342
 40
0.3265771497238441
 40
0.368936281499902
 40
0.4105718726814497
 40
0.4510505934949118
 40
0.4908768629924158
 40
0.5300443324843861
 40
0.5689366633103304
 40
0.6075778621311337
 40
0.646420096450513
 40
0.6856793513063945
 40
0.7247985849801968
 40
0.7635130084045112
 40
0.802172526378755
 40
0.8407403615726128
 40
0.8796493769005862
 40
0.9190706128663402
 40
0.9590978622172246
 40
1.0
 40
1.0
 40
1.0
 40
1.0
 10
218.1053466713676
 20
108.103495806135
 30
0.0
 10
218.1051717226112
 20
108.1238102870066
 30
0.0
 10
218.1048285364623
 20
108.1636599469954
 30
0.0
 10
218.1002836016449
 20
108.2223988017805
 30
0.0
 10
218.0944212189247
 20
108.2793105418593
 30
0.0
 10
218.0854956500939
 20
108.3343217307173
 30
0.0
 10
218.0731950837857
 20
108.3872045545127
 30
0.0
 10
218.0595681451667
 20
108.4383616112667
 30
0.0
 10
218.0425281349614
 20
108.4873520575935
 30
0.0
 10
218.0231938686151
 20
108.5343680153058
 30
0.0
 10
218.0015591519548
 20
108.5791681133958
 30
0.0
 10
217.9771580689267
 20
108.6213746692003
 30
0.0
 10
217.9502742101729
 20
108.6608235929838
 30
0.0
 10
217.9216329335492
 20
108.698262796369
 30
0.0
 10
217.8896482471139
 20
108.7322432288567
 30
0.0
 10
217.8558602324996
 20
108.7642002396841
 30
0.0
 10
217.8195013961142
 20
108.7934735899817
 30
0.0
 10
217.7809345858078
 20
108.8200709264283
 30
0.0
 10
217.7407069217926
 20
108.8440127209705
 30
0.0
 10
217.6989013331218
 20
108.864503790673
 30
0.0
 10
217.6561838423184
 20
108.8825026209521
 30
0.0
 10
217.6118394190191
 20
108.8962994797719
 30
0.0
 10
217.5664803742469
 20
108.9074268489041
 30
0.0
 10
217.5199233425796
 20
108.9158791221215
 30
0.0
 10
217.4719955166818
 20
108.920256102548
 30
0.0
 10
217.4396768430454
 20
108.9209656160337
 30
0.0
 10
217.4233428154585
 20
108.9213242078799
 30
0.0
  0
SPLINE
  5
1D1
330
1F
100
AcDbEntity
  8
0
  6
Continuous
 62
     7
370
     0
100
AcDbSpline
210
0.0
220
0.0
230
1.0
 70
     8
 71
     3
 72
    23
 73
    19
 74
     0
 42
0.00000001
 43
0.00000001
 40
0.0
 40
0.0
 40
0.0
 40
0.0
 40
0.1156291309254414
 40
0.2215410391198768
 40
0.3170478562190417
 40
0.4031508756396167
 40
0.4801812167162795
 40
0.5476493661481898
 40
0.6070358428421809
 40
0.6586524080635072
 40
0.705722890353646
 40
0.749804087979647
 40
0.7925868153452743
 40
0.8338739610102607
 40
0.8747683933034329
 40
0.9152226988916381
 40
0.9568807037304801
 40
1.0
 40
1.0
 40
1.0
 40
1.0
 10
216.9199688168002
 20
104.9305520975033
 30
0.0
 10
216.919719365223
 20
104.9692485081197
 30
0.0
 10
216.919241425441
 20
105.043389366479
 30
0.0
 10
216.9138398301025
 20
105.1493822716775
 30
0.0
 10
216.90537504476
 20
105.2452441784376
 30
0.0
 10
216.8937965631409
 20
105.3310634625482
 30
0.0
 10
216.8784087632159
 20
105.4067469554113
 30
0.0
 10
216.859745460979
 20
105.4724557768962
 30
0.0
 10
216.8375053457634
 20
105.5280497922663
 30
0.0
 10
216.8110619281356
 20
105.5740874445006
 30
0.0
 10
216.7816251133558
 20
105.6118508088337
 30
0.0
 10
216.7508755697395
 20
105.6445382865187
 30
0.0
 10
216.7180445555959
 20
105.6723379213597
 30
0.0
 10
216.6825504041464
 20
105.6946391985217
 30
0.0
 10
216.6455371586482
 20
105.7126310394392
 30
0.0
 10
216.6061543487971
 20
105.7250134825261
 30
0.0
 10
216.5647890764913
 20
105.7326208682499
 30
0.0
 10
216.5364006267676
 20
105.7335183764191
 30
0.0
 10
216.5219617385479
 20
105.7339748655989
 30
0.0
  0
SPLINE
  5
1D2
330
1F
100
AcDbEntity
  8
0
  6
Continuous
 62
     7
370
     0
100
AcDbSpline
210
0.0
220
0.0
230
1.0
 70
     8
 71
     3
 72
    23
 73
    19
 74
     0
 42
0.00000001
 43
0.00000001
 40
0.0
 40
0.0
 40
0.0
 40
0.0
 40
0.0407818458722597
 40
0.0808695887215869
 40
0.1202681657882671
 40
0.1601868504553522
 40
0.2004597376386391
 40
0.2422651778979079
 40
0.2864592615494684
 40
0.3329520837492633
 40
0.3844305340495303
 40
0.4433891253601058
 40
0.5116814722136833
 40
0.5890200255490083
 40
0.6762451906507723
 40
0.7737051914728237
 40
0.881567767781983
 40
1.0
 40
1.0
 40
1.0
 40
1.0
 10
216.5248428652778
 20
104.1271293294077
 30
0.0
 10
216.5384485328547
 20
104.1276487574249
 30
0.0
 10
216.5654283008788
 20
104.1286787728452
 30
0.0
 10
216.6051450055068
 20
104.1355395425296
 30
0.0
 10
216.6429834228822
 20
104.1483576412462
 30
0.0
 10
216.6792847611222
 20
104.1651173597966
 30
0.0
 10
216.7138615962825
 20
104.1868252194545
 30
0.0
 10
216.7465320864433
 20
104.2135680847662
 30
0.0
 10
216.7778179467186
 20
104.2448941195846
 30
0.0
 10
216.8078268264006
 20
104.2817636292348
 30
0.0
 10
216.8351488787496
 20
104.3266812261806
 30
0.0
 10
216.8578144938928
 20
104.3820369861456
 30
0.0
 10
216.8772438789743
 20
104.4475557725847
 30
0.0
 10
216.893049061056
 20
104.5237095506341
 30
0.0
 10
216.9050027976699
 20
104.6103591236346
 30
0.0
 10
216.9139529239437
 20
104.7075870845181
 30
0.0
 10
216.919218707516
 20
104.8155229995292
 30
0.0
 10
216.9197111140196
 20
104.891033431333
 30
0.0
 10
216.9199688168002
 20
104.9305520975033
 30
0.0
  0
SPLINE
  5
1D3
330
1F
100
AcDbEntity
  8
0
  6
Continuous
 62
     7
370
     0
100
AcDbSpline
210
0.0
220
0.0
230
1.0
 70
     8
 71
     3
 72
    23
 73
    19
 74
     0
 42
0.00000001
 43
0.00000001
 40
0.0
 40
0.0
 40
0.0
 40
0.0
 40
0.1184055081537695
 40
0.226654332816702
 40
0.3240923419286021
 40
0.4117048030053219
 40
0.4890259050064157
 40
0.5569093973430758
 40
0.6162333444927074
 40
0.6673492812770747
 40
0.7135123932013476
 40
0.7576965045209786
 40
0.7994925114422912
 40
0.8399760647439397
 40
0.8798857418167761
 40
0.9191486593857416
 40
0.9592273564930831
 40
1.0
 40
1.0
 40
1.0
 40
1.0
 10
216.1297169137553
 20
104.9305520975033
 30
0.0
 10
216.1299784661883
 20
104.8910336096131
 30
0.0
 10
216.1304791353979
 20
104.815386482665
 30
0.0
 10
216.1357099133313
 20
104.7073115104717
 30
0.0
 10
216.1447144822423
 20
104.6098131332419
 30
0.0
 10
216.1566191104917
 20
104.5230263438492
 30
0.0
 10
216.172338039764
 20
104.446833745999
 30
0.0
 10
216.1920750145966
 20
104.3814295018867
 30
0.0
 10
216.2143232796068
 20
104.326028612309
 30
0.0
 10
216.2418550859656
 20
104.2813177286551
 30
0.0
 10
216.2719993730193
 20
104.2448718361228
 30
0.0
 10
216.3031212892888
 20
104.2135271898912
 30
0.0
 10
216.3359530258835
 20
104.1868849583066
 30
0.0
 10
216.3702803596899
 20
104.1646707704888
 30
0.0
 10
216.4066359039946
 20
104.1478516469575
 30
0.0
 10
216.4446221169638
 20
104.1356611087696
 30
0.0
 10
216.484247264073
 20
104.1286456412157
 30
0.0
 10
216.5112337898324
 20
104.1276376505356
 30
0.0
 10
216.5248428652778
 20
104.1271293294077
 30
0.0
  0
SPLINE
  5
1D4
330
1F
100
AcDbEntity
  8
0
  6
Continuous
 62
     7
370
     0
100
AcDbSpline
210
0.0
220
0.0
230
1.0
 70
     8
 71
     3
 72
    15
 73
    11
 74
     0
 42
0.00000001
 43
0.00000001
 40
0.0
 40
0.0
 40
0.0
 40
0.0
 40
0.0838881132795455
 40
0.1771540327539698
 40
0.2825136355617228
 40
0.3993998606601629
 40
0.5294908061912204
 40
0.6728021776758327
 40
0.82953576161967
 40
1.0
 40
1.0
 40
1.0
 40
1.0
 10
216.2486662887449
 20
105.5932112453691
 30
0.0
 10
216.2388758644203
 20
105.576842643928
 30
0.0
 10
216.2182005496029
 20
105.5422756040643
 30
0.0
 10
216.1950660745021
 20
105.4821966645749
 30
0.0
 10
216.1746299937444
 20
105.4135378724687
 30
0.0
 10
216.1578043237944
 20
105.3352428623617
 30
0.0
 10
216.1456321319627
 20
105.2474459416885
 30
0.0
 10
216.1360226571758
 20
105.150249069975
 30
0.0
 10
216.1310308927066
 20
105.0435165487598
 30
0.0
 10
216.1301669911048
 20
104.9692458229608
 30
0.0
 10
216.1297169137553
 20
104.9305520975033
 30
0.0
  0
SPLINE
  5
1D5
330
1F
100
AcDbEntity
  8
0
  6
Continuous
 62
     7
370
     0
100
AcDbSpline
210
0.0
220
0.0
230
1.0
 70
     8
 71
     3
 72
    15
 73
    11
 74
     0
 42
0.00000001
 43
0.00000001
 40
0.0
 40
0.0
 40
0.0
 40
0.0
 40
0.1276647678962251
 40
0.2517385630080496
 40
0.3727533493873896
 40
0.492146758972386
 40
0.614069621309245
 40
0.7371973244121095
 40
0.8656069906011175
 40
1.0
 40
1.0
 40
1.0
 40
1.0
 10
216.5219617385479
 20
105.7339748655989
 30
0.0
 10
216.5083535178276
 20
105.7336177035205
 30
0.0
 10
216.4815198503586
 20
105.7329134256696
 30
0.0
 10
216.4422318469756
 20
105.7261911007148
 30
0.0
 10
216.4049990677127
 20
105.7149498750714
 30
0.0
 10
216.369394945275
 20
105.6997225434408
 30
0.0
 10
216.3363083175883
 20
105.679229562742
 30
0.0
 10
216.3044270512809
 20
105.6553025490793
 30
0.0
 10
216.2752443415156
 20
105.6261501535359
 30
0.0
 10
216.25765909665
 20
105.6043562783142
 30
0.0
 10
216.2486662887449
 20
105.5932112453691
 30
0.0
  0
LINE
  5
1D6
330
1F
100
AcDbEntity
  8
0
  6
Continuous
 62
     7
370
     0
100
AcDbLine
 10
147.6017331156
 20
105.2199756538
 30
0.0
 11
147.6020331156
 21
105.2199756578
 31
0.0
  0
LINE
  5
1D7
330
1F
100
AcDbEntity
  8
0
  6
Continuous
 62
     7
370
     0
100
AcDbLine
 10
147.6020331156
 20
108.9985514553
 30
0.0
 11
147.6017331156
 21
108.9985514551
 31
0.0
  0
LINE
  5
1D8
330
1F
100
AcDbEntity
  8
0
  6
Continuous
 62
     7
370
     0
100
AcDbLine
 10
147.6017331156
 20
108.9985514551
 30
0.0
 11
147.6017331156
 21
108.1766279558
 31
0.0
  0
LINE
  5
1D9
330
1F
100
AcDbEntity
  8
0
  6
Continuous
 62
     7
370
     0
100
AcDbLine
 10
147.6017331156
 20
108.1766279558
 30
0.0
 11
147.6020331156
 21
108.1766279473
 31
0.0
  0
LINE
  5
1DA
330
1F
100
AcDbEntity
  8
0
  6
Continuous
 62
     7
370
     0
100
AcDbLine
 10
147.6020331156
 20
108.1766279473
 30
0.0
 11
147.6020331156
 21
107.6486596483
 31
0.0
  0
LINE
  5
1DB
330
1F
100
AcDbEntity
  8
0
  6
Continuous
 62
     7
370
     0
100
AcDbLine
 10
147.6020331156
 20
107.6486596483
 30
0.0
 11
147.6017331156
 21
107.6486596625
 31
0.0
  0
LINE
  5
1DC
330
1F
100
AcDbEntity
  8
0
  6
Continuous
 62
     7
370
     0
100
AcDbLine
 10
147.6017331156
 20
107.6486596625
 30
0.0
 11
147.6017331156
 21
107.0899572432
 31
0.0
  0
LINE
  5
1DD
330
1F
100
AcDbEntity
  8
0
  6
Continuous
 62
     7
370
     0
100
AcDbLine
 10
147.6017331156
 20
107.0899572432
 30
0.0
 11
147.6020331156
 21
107.0899572432
 31
0.0
  0
LINE
  5
1DE
330
1F
100
AcDbEntity
  8
0
  6
Continuous
 62
     7
370
     0
100
AcDbLine
 10
147.6020331156
 20
107.0899572432
 30
0.0
 11
147.6020331156
 21
105.464174049
 31
0.0
  0
LINE
  5
1DF
330
1F
100
AcDbEntity
  8
0
  6
Continuous
 62
     7
370
     0
100
AcDbLine
 10
147.6020331156
 20
105.464174049
 30
0.0
 11
147.6017331156
 21
105.464174044
 31
0.0
  0
LINE
  5
1E0
330
1F
100
AcDbEntity
  8
0
  6
Continuous
 62
     7
370
     0
100
AcDbLine
 10
147.6020331156
 20
105.2199756578
 30
0.0
 11
147.6020331156
 21
81.3274031008
 31
0.0
  0
LINE
  5
1E1
330
1F
100
AcDbEntity
  8
0
  6
Continuous
 62
     7
370
     0
100
AcDbLine
 10
147.6020331156
 20
81.3274031008
 30
0.0
 11
147.4020331156
 21
81.1274031008
 31
0.0
  0
LINE
  5
1E2
330
1F
100
AcDbEntity
  8
0
  6
Continuous
 62
     7
370
     0
100
AcDbLine
 10
147.4020331156
 20
81.1274031008
 30
0.0
 11
137.1825765164
 21
81.1274031008
 31
0.0
  0
LINE
  5
1E3
330
1F
100
AcDbEntity
  8
0
  6
Continuous
 62
     7
370
     0
100
AcDbLine
 10
137.1825765164
 20
81.1274031008
 30
0.0
 11
137.0078884262
 21
81.3258837323
 31
0.0
  0
ARC
  5
1E4
330
1F
100
AcDbEntity
  8
0
  6
Continuous
 62
     7
370
     0
100
AcDbCircle
 10
-61.3979668844
 20
106.5274031008
 30
0.0
 40
200.0
100
AcDbArc
 50
352.76105306
 51
7.23894694
  0
LINE
  5
1E5
330
1F
100
AcDbEntity
  8
0
  6
Continuous
 62
     7
370
     0
100
AcDbLine
 10
137.0078884262
 20
131.7289224692
 30
0.0
 11
137.1825765164
 21
131.9274031008
 31
0.0
  0
LINE
  5
1E6
330
1F
100
AcDbEntity
  8
0
  6
Continuous
 62
     7
370
     0
100
AcDbLine
 10
137.1825765164
 20
131.9274031008
 30
0.0
 11
147.4020331156
 21
131.9274031008
 31
0.0
  0
LINE
  5
1E7
330
1F
100
AcDbEntity
  8
0
  6
Continuous
 62
     7
370
     0
100
AcDbLine
 10
147.4020331156
 20
131.9274031008
 30
0.0
 11
147.6020331156
 21
131.7274031008
 31
0.0
  0
LINE
  5
1E8
330
1F
100
AcDbEntity
  8
0
  6
Continuous
 62
     7
370
     0
100
AcDbLine
 10
147.6020331156
 20
131.7274031008
 30
0.0
 11
147.6020331156
 21
108.9985514553
 31
0.0
  0
LINE
  5
1E9
330
1F
100
AcDbEntity
  8
0
  6
Continuous
 62
     7
370
     0
100
AcDbLine
 10
147.6017331156
 20
105.464174044
 30
0.0
 11
147.6017331156
 21
105.2199756538
 31
0.0
  0
LINE
  5
1EA
330
1F
100
AcDbEntity
  8
0
  6
Continuous
 62
     7
370
     0
100
AcDbLine
 10
147.6017331156
 20
107.644573477
 30
0.0
 11
147.6020331156
 21
107.644573477
 31
0.0
  0
LINE
  5
1EB
330
1F
100
AcDbEntity
  8
0
  6
Continuous
 62
     7
370
     0
100
AcDbLine
 10
147.6020331156
 20
107.6486596483
 30
0.0
 11
147.6020331156
 21
107.644573477
 31
0.0
  0
LINE
  5
1EC
330
1F
100
AcDbEntity
  8
0
  6
Continuous
 62
     7
370
     0
100
AcDbLine
 10
147.6017331156
 20
108.5780585375
 30
0.0
 11
147.6020331156
 21
108.5780585375
 31
0.0
  0
LINE
  5
1ED
330
1F
100
AcDbEntity
  8
0
  6
Continuous
 62
     7
370
     0
100
AcDbLine
 10
137.0078884262
 20
131.7289224692
 30
0.0
 11
137.0078884262
 21
81.3258837323
 31
0.0
  0
LINE
  5
1EE
330
1F
100
AcDbEntity
  8
0
  6
Continuous
 62
     7
370
     0
100
AcDbLine
 10
147.6020331156
 20
107.644573477
 30
0.0
 11
147.6020331156
 21
107.0899572432
 31
0.0
  0
HATCH
  5
1EF
330
1F
100
AcDbEntity
  8
0
  6
Continuous
 62
     7
370
     0
100
AcDbHatch
 10
0.0
 20
0.0
 30
0.0
210
0.0
220
0.0
230
1.0
  2
ANSI31
 70
     0
 71
     0
 91
        1
 92
        0
 93
       20
 72
     1
 10
147.6020331156075
 20
108.9985514552934
 11
147.6020331156075
 21
131.7274031007752
 72
     1
 10
147.6020331156075
 20
131.7274031007752
 11
147.4020331156075
 21
131.9274031007752
 72
     1
 10
147.4020331156075
 20
131.9274031007752
 11
137.1825765164157
 21
131.9274031007752
 72
     1
 10
137.1825765164157
 20
131.9274031007752
 11
137.0078884261826
 21
131.72892246924
 72
     2
 10
-61.39796688439256
 20
106.5274031007752
 40
200.0
 50
352.7610530600284
 51
367.2389469399732
 73
     0
 72
     1
 10
137.0078884261826
 20
81.3258837323108
 11
137.1825765164157
 21
81.12740310077521
 72
     1
 10
137.1825765164157
 20
81.12740310077521
 11
147.4020331156075
 21
81.12740310077521
 72
     1
 10
147.4020331156075
 20
81.12740310077521
 11
147.6020331156075
 21
81.32740310077523
 72
     1
 10
147.6020331156075
 20
81.32740310077523
 11
147.6020331156075
 21
105.2199756577946
 72
     1
 10
147.6020331156075
 20
105.2199756577946
 11
147.6017331156075
 21
105.2199756538187
 72
     1
 10
147.6017331156075
 20
105.2199756538187
 11
147.6017331156075
 21
105.464174044046
 72
     1
 10
147.6017331156075
 20
105.464174044046
 11
147.6020331156075
 21
105.4641740490251
 72
     1
 10
147.6020331156075
 20
105.4641740490251
 11
147.6020331156075
 21
107.0899572432462
 72
     1
 10
147.6020331156075
 20
107.0899572432462
 11
147.6017331156075
 21
107.0899572432462
 72
     1
 10
147.6017331156075
 20
107.0899572432462
 11
147.6017331156068
 21
107.6486596624766
 72
     1
 10
147.6017331156068
 20
107.6486596624766
 11
147.6020331156075
 21
107.6486596483427
 72
     1
 10
147.6020331156075
 20
107.6486596483427
 11
147.6020331156075
 21
108.1766279473201
 72
     1
 10
147.6020331156075
 20
108.1766279473201
 11
147.6017331156075
 21
108.1766279557779
 72
     1
 10
147.6017331156075
 20
108.1766279557779
 11
147.6017331156075
 21
108.9985514550682
 72
     1
 10
147.6017331156075
 20
108.9985514550682
 11
147.6020331156075
 21
108.9985514552934
 97
        0
 75
     0
 76
     1
 52
0.0
 41
0.5
 77
     0
 78
     1
 53
45.0
 43
0.0
 44
0.0
 45
-1.122532015133644
 46
1.122532015133644
 79
     0
 98
        1
 10
0.0
 20
0.0
  0
DIMENSION
  5
1F0
330
1F
100
AcDbEntity
  8
0
  6
Continuous
 62
     7
370
     0
100
AcDbDimension
  2
*D9
 10
-61.3979668844
 20
106.5274031008
 30
0.0
 11
168.8891072702
 21
91.1027941236
 31
0.0
 70
   164
  1
<>
 71
     1
 42
-1.0
  3
SLDDIMSTYLE1
100
AcDbRadialDimension
 15
138.1026853584
 25
92.4033188927
 35
0.0
 40
0.0
  0
DIMENSION
  5
201
330
1F
100
AcDbEntity
  8
0
  6
Continuous
 62
     7
370
     0
100
AcDbDimension
  2
*D10
 10
138.6020331156
 20
141.9274031008
 30
0.0
 11
162.1636888138
 21
141.9274031008
 31
0.0
 70
   160
 71
     2
 42
-1.0
  3
SLDDIMSTYLE2
100
AcDbAlignedDimension
 13
147.6020331156
 23
131.7274031008
 33
0.0
 14
138.6020331156
 24
106.5274031008
 34
0.0
100
AcDbRotatedDimension
  0
DIMENSION
  5
214
330
1F
100
AcDbEntity
  8
0
  6
Continuous
 62
     7
370
     0
100
AcDbDimension
  2
*D11
 10
147.6020331156
 20
153.9274031008
 30
0.0
 11
163.6020331156
 21
153.9274031008
 31
0.0
 70
   160
  1
<> REF
 71
     2
 42
-1.0
  3
SLDDIMSTYLE3
100
AcDbAlignedDimension
 13
137.0078884262
 23
131.7289224692
 33
0.0
 14
147.6020331156
 24
131.7274031008
 34
0.0
100
AcDbRotatedDimension
  0
MTEXT
  5
228
330
1F
100
AcDbEntity
  8
0
  6
Continuous
 62
     7
370
     0
100
AcDbMText
 10
142.1239167208
 20
74.542596401
 30
0.0
 40
2.1166666667
 41
0.0
 71
     2
 72
     1
  1
SECTION A-A
  7
SLDTEXTSTYLE0
 73
     1
 44
1.0
  0
OLE2FRAME
  5
229
330
1F
100
AcDbEntity
  8
0
100
AcDbOle2Frame
 70
     2
  3
Paintbrush Picture
 10
229.0524258301
 20
33.6996297921
 30
0.0
 11
265.1686469208
 21
28.555479607
 31
0.0
 71
     2
 72
     0
 73
     1
 90
     7296
310
80557333EF78ADA16C40002412788DD94040000000000000000041161DC7B292
310
7040002412788DD94040000000000000000041161DC7B2927040F6DD59E9338E
310
3C4000000000000000007333EF78ADA16C40F6DD59E9338E3C40000000000000
310
00000000000001000000000100000100000001000000000001000000001C0000
310
D0CF11E0A1B11AE1000000000000000000000000000000003E000300FEFF0900
310
0600000000000000000000000100000001000000000000000010000002000000
310
01000000FEFFFFFF0000000000000000FFFFFFFFFFFFFFFFFFFFFFFFFFFFFFFF
310
FFFFFFFFFFFFFFFFFFFFFFFFFFFFFFFFFFFFFFFFFFFFFFFFFFFFFFFFFFFFFFFF
310
FFFFFFFFFFFFFFFFFFFFFFFFFFFFFFFFFFFFFFFFFFFFFFFFFFFFFFFFFFFFFFFF
310
FFFFFFFFFFFFFFFFFFFFFFFFFFFFFFFFFFFFFFFFFFFFFFFFFFFFFFFFFFFFFFFF
310
FFFFFFFFFFFFFFFFFFFFFFFFFFFFFFFFFFFFFFFFFFFFFFFFFFFFFFFFFFFFFFFF
310
FFFFFFFFFFFFFFFFFFFFFFFFFFFFFFFFFFFFFFFFFFFFFFFFFFFFFFFFFFFFFFFF
310
FFFFFFFFFFFFFFFFFFFFFFFFFFFFFFFFFFFFFFFFFFFFFFFFFFFFFFFFFFFFFFFF
310
FFFFFFFFFFFFFFFFFFFFFFFFFFFFFFFFFFFFFFFFFFFFFFFFFFFFFFFFFFFFFFFF
310
FFFFFFFFFFFFFFFFFFFFFFFFFFFFFFFFFFFFFFFFFFFFFFFFFFFFFFFFFFFFFFFF
310
FFFFFFFFFFFFFFFFFFFFFFFFFFFFFFFFFFFFFFFFFFFFFFFFFFFFFFFFFFFFFFFF
310
FFFFFFFFFFFFFFFFFFFFFFFFFFFFFFFFFFFFFFFFFFFFFFFFFFFFFFFFFFFFFFFF
310
FFFFFFFFFFFFFFFFFFFFFFFFFFFFFFFFFFFFFFFFFFFFFFFFFFFFFFFFFFFFFFFF
310
FFFFFFFFFFFFFFFFFFFFFFFFFFFFFFFFFFFFFFFFFFFFFFFFFFFFFFFFFFFFFFFF
310
FFFFFFFFFFFFFFFFFFFFFFFFFFFFFFFFFFFFFFFFFFFFFFFFFFFFFFFFFFFFFFFF
310
FDFFFFFFFEFFFFFFFEFFFFFFFEFFFFFF05000000060000000700000008000000
310
090000000A0000000B0000000C000000FEFFFFFFFFFFFFFFFFFFFFFFFFFFFFFF
310
FFFFFFFFFFFFFFFFFFFFFFFFFFFFFFFFFFFFFFFFFFFFFFFFFFFFFFFFFFFFFFFF
310
FFFFFFFFFFFFFFFFFFFFFFFFFFFFFFFFFFFFFFFFFFFFFFFFFFFFFFFFFFFFFFFF
310
FFFFFFFFFFFFFFFFFFFFFFFFFFFFFFFFFFFFFFFFFFFFFFFFFFFFFFFFFFFFFFFF
310
FFFFFFFFFFFFFFFFFFFFFFFFFFFFFFFFFFFFFFFFFFFFFFFFFFFFFFFFFFFFFFFF
310
FFFFFFFFFFFFFFFFFFFFFFFFFFFFFFFFFFFFFFFFFFFFFFFFFFFFFFFFFFFFFFFF
310
FFFFFFFFFFFFFFFFFFFFFFFFFFFFFFFFFFFFFFFFFFFFFFFFFFFFFFFFFFFFFFFF
310
FFFFFFFFFFFFFFFFFFFFFFFFFFFFFFFFFFFFFFFFFFFFFFFFFFFFFFFFFFFFFFFF
310
FFFFFFFFFFFFFFFFFFFFFFFFFFFFFFFFFFFFFFFFFFFFFFFFFFFFFFFFFFFFFFFF
310
FFFFFFFFFFFFFFFFFFFFFFFFFFFFFFFFFFFFFFFFFFFFFFFFFFFFFFFFFFFFFFFF
310
FFFFFFFFFFFFFFFFFFFFFFFFFFFFFFFFFFFFFFFFFFFFFFFFFFFFFFFFFFFFFFFF
310
FFFFFFFFFFFFFFFFFFFFFFFFFFFFFFFFFFFFFFFFFFFFFFFFFFFFFFFFFFFFFFFF
310
FFFFFFFFFFFFFFFFFFFFFFFFFFFFFFFFFFFFFFFFFFFFFFFFFFFFFFFFFFFFFFFF
310
FFFFFFFFFFFFFFFFFFFFFFFFFFFFFFFFFFFFFFFFFFFFFFFFFFFFFFFFFFFFFFFF
310
FFFFFFFFFFFFFFFFFFFFFFFFFFFFFFFFFFFFFFFFFFFFFFFFFFFFFFFFFFFFFFFF
310
52006F006F007400200045006E00740072007900000000000000000000000000
310
0000000000000000000000000000000000000000000000000000000000000000
310
16000500FFFFFFFFFFFFFFFF020000000A00030000000000C000000000000046
310
00000000000000000000000030C29EB703C1CD0103000000C000000000000000
310
01004F006C006500000000000000000000000000000000000000000000000000
310
0000000000000000000000000000000000000000000000000000000000000000
310
0A000200FFFFFFFFFFFFFFFFFFFFFFFF00000000000000000000000000000000
310
0000000000000000000000000000000000000000000000001400000000000000
310
010043006F006D0070004F0062006A0000000000000000000000000000000000
310
0000000000000000000000000000000000000000000000000000000000000000
310
120002010100000003000000FFFFFFFF00000000000000000000000000000000
310
0000000000000000000000000000000000000000010000004D00000000000000
310
01004F006C006500310030004E00610074006900760065000000000000000000
310
0000000000000000000000000000000000000000000000000000000000000000
310
1A000200FFFFFFFFFFFFFFFFFFFFFFFF00000000000000000000000000000000
310
000000000000000000000000000000000000000004000000E411000000000000
310
FEFFFFFF02000000FEFFFFFFFFFFFFFFFFFFFFFFFFFFFFFFFFFFFFFFFFFFFFFF
310
FFFFFFFFFFFFFFFFFFFFFFFFFFFFFFFFFFFFFFFFFFFFFFFFFFFFFFFFFFFFFFFF
310
FFFFFFFFFFFFFFFFFFFFFFFFFFFFFFFFFFFFFFFFFFFFFFFFFFFFFFFFFFFFFFFF
310
FFFFFFFFFFFFFFFFFFFFFFFFFFFFFFFFFFFFFFFFFFFFFFFFFFFFFFFFFFFFFFFF
310
FFFFFFFFFFFFFFFFFFFFFFFFFFFFFFFFFFFFFFFFFFFFFFFFFFFFFFFFFFFFFFFF
310
FFFFFFFFFFFFFFFFFFFFFFFFFFFFFFFFFFFFFFFFFFFFFFFFFFFFFFFFFFFFFFFF
310
FFFFFFFFFFFFFFFFFFFFFFFFFFFFFFFFFFFFFFFFFFFFFFFFFFFFFFFFFFFFFFFF
310
FFFFFFFFFFFFFFFFFFFFFFFFFFFFFFFFFFFFFFFFFFFFFFFFFFFFFFFFFFFFFFFF
310
FFFFFFFFFFFFFFFFFFFFFFFFFFFFFFFFFFFFFFFFFFFFFFFFFFFFFFFFFFFFFFFF
310
FFFFFFFFFFFFFFFFFFFFFFFFFFFFFFFFFFFFFFFFFFFFFFFFFFFFFFFFFFFFFFFF
310
FFFFFFFFFFFFFFFFFFFFFFFFFFFFFFFFFFFFFFFFFFFFFFFFFFFFFFFFFFFFFFFF
310
FFFFFFFFFFFFFFFFFFFFFFFFFFFFFFFFFFFFFFFFFFFFFFFFFFFFFFFFFFFFFFFF
310
FFFFFFFFFFFFFFFFFFFFFFFFFFFFFFFFFFFFFFFFFFFFFFFFFFFFFFFFFFFFFFFF
310
FFFFFFFFFFFFFFFFFFFFFFFFFFFFFFFFFFFFFFFFFFFFFFFFFFFFFFFFFFFFFFFF
310
FFFFFFFFFFFFFFFFFFFFFFFFFFFFFFFFFFFFFFFFFFFFFFFFFFFFFFFFFFFFFFFF
310
FFFFFFFFFFFFFFFFFFFFFFFFFFFFFFFFFFFFFFFFFFFFFFFFFFFFFFFFFFFFFFFF
310
0100000200000000000000000000000000000000000000000000000000000000
310
0000000000000000000000000000000000000000000000000000000000000000
310
0100FEFF030A0000FFFFFFFF0A00030000000000C00000000000004607000000
310
5042727573680007000000504272757368000700000050427275736800F439B2
310
7100000000000000000000000000000000000000000000000000000000000000
310
0000000000000000000000000000000000000000000000000000000000000000
310
0000000000000000000000000000000000000000000000000000000000000000
310
0000000000000000000000000000000000000000000000000000000000000000
310
0000000000000000000000000000000000000000000000000000000000000000
310
0000000000000000000000000000000000000000000000000000000000000000
310
0000000000000000000000000000000000000000000000000000000000000000
310
0000000000000000000000000000000000000000000000000000000000000000
310
0000000000000000000000000000000000000000000000000000000000000000
310
0000000000000000000000000000000000000000000000000000000000000000
310
0000000000000000000000000000000000000000000000000000000000000000
310
0000000000000000000000000000000000000000000000000000000000000000
310
E0110000424DDE11000000000000360400002800000096000000170000000100
310
08000000000000000000E7240000E72400000001000000010000000000FF0101
310
01FF020202FF030303FF040404FF050505FF060606FF070707FF080808FF0909
310
09FF0A0A0AFF0B0B0BFF0C0C0CFF0D0D0DFF0E0E0EFF0F0F0FFF101010FF1111
310
11FF121212FF131313FF141414FF151515FF161616FF171717FF181818FF1919
310
19FF1A1A1AFF1B1B1BFF1C1C1CFF1D1D1DFF1E1E1EFF1F1F1FFF202020FF2121
310
21FF222222FF232323FF242424FF252525FF262626FF272727FF282828FF2929
310
29FF2A2A2AFF2B2B2BFF2C2C2CFF2D2D2DFF2E2E2EFF2F2F2FFF303030FF3131
310
31FF323232FF333333FF343434FF353535FF363636FF373737FF383838FF3939
310
39FF3A3A3AFF3B3B3BFF3C3C3CFF3D3D3DFF3E3E3EFF3F3F3FFF404040FF4141
310
41FF424242FF434343FF444444FF454545FF464646FF474747FF484848FF4949
310
49FF4A4A4AFF4B4B4BFF4C4C4CFF4D4D4DFF4E4E4EFF4F4F4FFF505050FF5151
310
51FF525252FF535353FF545454FF555555FF565656FF575757FF585858FF5959
310
59FF5A5A5AFF5B5B5BFF5C5C5CFF5D5D5DFF5E5E5EFF5F5F5FFF606060FF6161
310
61FF626262FF636363FF646464FF656565FF666666FF676767FF686868FF6969
310
69FF6A6A6AFF6B6B6BFF6C6C6CFF6D6D6DFF6E6E6EFF6F6F6FFF707070FF7171
310
71FF727272FF737373FF747474FF757575FF767676FF777777FF787878FF7979
310
79FF7A7A7AFF7B7B7BFF7C7C7CFF7D7D7DFF7E7E7EFF7F7F7FFF808080FF8181
310
81FF828282FF838383FF848484FF858585FF868686FF878787FF888888FF8989
310
89FF8A8A8AFF8B8B8BFF8C8C8CFF8D8D8DFF8E8E8EFF8F8F8FFF909090FF9191
310
91FF929292FF939393FF949494FF959595FF969696FF979797FF989898FF9999
310
99FF9A9A9AFF9B9B9BFF9C9C9CFF9D9D9DFF9E9E9EFF9F9F9FFFA0A0A0FFA1A1
310
A1FFA2A2A2FFA3A3A3FFA4A4A4FFA5A5A5FFA6A6A6FFA7A7A7FFA8A8A8FFA9A9
310
A9FFAAAAAAFFABABABFFACACACFFADADADFFAEAEAEFFAFAFAFFFB0B0B0FFB1B1
310
B1FFB2B2B2FFB3B3B3FFB4B4B4FFB5B5B5FFB6B6B6FFB7B7B7FFB8B8B8FFB9B9
310
B9FFBABABAFFBBBBBBFFBCBCBCFFBDBDBDFFBEBEBEFFBFBFBFFFC0C0C0FFC1C1
310
C1FFC2C2C2FFC3C3C3FFC4C4C4FFC5C5C5FFC6C6C6FFC7C7C7FFC8C8C8FFC9C9
310
C9FFCACACAFFCBCBCBFFCCCCCCFFCDCDCDFFCECECEFFCFCFCFFFD0D0D0FFD1D1
310
D1FFD2D2D2FFD3D3D3FFD4D4D4FFD5D5D5FFD6D6D6FFD7D7D7FFD8D8D8FFD9D9
310
D9FFDADADAFFDBDBDBFFDCDCDCFFDDDDDDFFDEDEDEFFDFDFDFFFE0E0E0FFE1E1
310
E1FFE2E2E2FFE3E3E3FFE4E4E4FFE5E5E5FFE6E6E6FFE7E7E7FFE8E8E8FFE9E9
310
E9FFEAEAEAFFEBEBEBFFECECECFFEDEDEDFFEEEEEEFFEFEFEFFFF0F0F0FFF1F1
310
F1FFF2F2F2FFF3F3F3FFF4F4F4FFF5F5F5FFF6F6F6FFF7F7F7FFF8F8F8FFF9F9
310
F9FFFAFAFAFFFBFBFBFFFCFCFCFFFDFDFDFFFEFEFEFFFFFFFFFFFFFFFFFFFFFF
310
C94E4E4E4F4E4EFFFFFFFFFFC94E4E4E4E4E72FFFFFFFFFFFFFF734E4D4E4E4E
310
C9FFFFFFFFFFAA683516171616265B9BE9FFFFFFFFFF4E4E4E4D4E4EFFFFFFFF
310
FFFFFFFF4E4E4F4E4D4E4E4E4F4E4E4F4D4E4E4E4E4E4D4E4F4E4D4E4E4EAAFF
310
FFFFFFFFFFEA4E4F4F4E4E4E4E4E4D4D4F4F4E4E4E4E4E5B7FAAFFFFFFFFFFFF
310
C9744E1716171616164D8DEAFFFFFFFF0000FFFFFFFFFFFFBA161617161716FF
310
FFFFFFFFB917171616174FFFFFFFFFFFFFFF4E1716161616B9FFFFFFB9341717
310
1716171617171616268CFFFFFFFF161617161617FFFFFFFFFFFFFFB917161717
310
1617167F807F7F7F7F7F7F807F7F807F7F807F7F7F414EFFFFFFFFFFFF8C167F
310
7F807F7F7F7E7F7F807F807F7F807F4E3417258EFFFFEA4E162674AABAEAEBBA
310
AA74341680FFFFFF0000FFFFFFFFFFFFB9171717171617FFFFFFFFFFBB161616
310
16164EFFFFFFFFFFFFFF4E1717171717B9FFFF9C171617171716161616171616
310
171766FFFFFF161717161617FFFFFFFFFFFFFF8E16171717161616FFFFFFFFFF
310
FFFFFFFFFFFFFFFFFFFFFFFFFFAA16D9FFFFFFFFFF3467FFFFFFFFEAFFFFFFFF
310
FFFFFFFFFFFFFFFFFFCA671667EB26278DFFFFFFFFFFFFFFFFFFFF8C2541EAFF
310
0000FFFFFFFFFFFFB9171717171716FFFFFFFFFFBA16171617174EFFFFFFFFFF
310
FFFF4E1717161616BAFF9B1617161616171716171617161616161667FFFF1616
310
16161716FFFFFFFFFFFFFF7F16161617174017FFFFFFFFFFFFFFFFFFFFFFFFFF
310
FFFFFFFFFFFF344E7F7F7F7E7417DAFFFFFFFF80FFFFFFFFFFFFFFFFFFFFFFFF
310
FFFFFF9B163425CAFFFFFFFFFFFFFFFFFFFFFFFFCA2667FF0000FFFFFFFFFFFF
310
BA171717171617FFFFFFFFFFB916171716164EFFFFFFFFFFFFFF4F1716161717
310
B9C91716171616161716161617171616161617168DFF161716161717FFFFFFFF
310
FFFFFF7F17171716164F16FFFFFFFFFFFFFFFFFFFFFFFFFFFFFFFFFFFFFF9B16
310
17161617174EFFFFFFFFFF34FFFFFFFFD9BABABABABADAFFFFFFFFFF7F16AAFF
310
FFFFFFFFFFFFFFFFFFFFFFFFFF9C16BA0000FFFFFFFFFFFFB9161717161717FF
310
FFFFFFFFB917161716174DFFFFFFFFFFFFFF4E1616161616BA4E161617171716
310
419BEAEAAA4E16161617161726E9171717161616FFFFFFFFFFFFFF4F16161717
310
164E16FFFFFFFFFFBAB9B9B9B9B9BABABACAFFFFFFFFFFFFFFFFFFFFFFFFFFFF
310
FFFFBA16FFFFFFFF7F1617161617174DEAFFFFFFEA41FFFFFFFFFFAA4D16174E
310
9BFFFFFFFFFF34730000FFFFFFFFFFFFB9161617171617FFFFFFFFFFBA161616
310
16164EFFFFFFFFFFFFFF4F16161717169B1617161716175BFFFFFFFFFFFF7417
310
16171616168D171717161617FFFFFFFFFFFFEA2616171717167416FFFFFFFFFF
310
16171616171717171717EAFFFFFFFFFFFFFFFFFFFFFFFFFFFFFF6716FFFFFFFF
310
7F4EFFFFFFFFBA2573FFFFFFFFBAFFFFFFFFAA167FB9BB9B269BFFFFFFFF664F
310
0000FFFFFFFFFFFFB9171616161616FFFFFFFFFFBA16161717164EFFFFFFFFFF
310
FFFF4E16161616174E161617171626EAFFFFFFFFFFFFFF4E16161616164E1716
310
16161617FFFFFFFFFFFF671616161716347F16FFFFFFFFFF16B9FFFFFFFFFFFF
310
D9168DFFFFFFFFFFFFFFFFFFFFFFFFFFFFEA1716FFFFFFFF7F4EFFFFFFFFFF7F
310
4EFFFFFFFFFFFFFFFFFF5B66FFFFFFEA347FFFFFFFFF7F4D0000FFFFFFFFFFFF
310
B9171616171617FFFFFFFFFFBA17161716174EFFFFFFFFFFFFFF4D1716161617
310
17161716161673FFFFFFFFFFFFFFFF9B1617161717161616171616174F4E4E4E
310
4E341616171616167E7F16FFFFFFFFFF16BAFFFFFFFFFFFFFF5B41FFFFFFFF34
310
1616171616BAFFFFFF9B1716FFFFFFFF7F4EFFFFFFFFFF4E4EFFFFFFFF734E4E
310
4E4E267EDA9B67164EEAFFFFFFFF744D0000FFFFFFFFFFFFBA171717161617FF
310
FFFFFFFFBA1616171616347F7F7F7F80807F331616161717161717161716B9FF
310
FFFFFFFFFFFFFFE9161616161616171716161716171616161616171616171734
310
EA7F16FFFFFFFFFF16BAFFFFFFFFFFFFFFAA17C9FFFFFF7326BABA5B25FFFFFF
310
FF401716FFFFFFFF7F264F4E4E4E4217AAFFFFFFEA16677F73261616164173CA
310
FFFFFFFFFFFF417F0000FFFFFFFFFFFFBA171616171617FFFFFFFFFFBA161616
310
17171616161616161616161717161616161616161617EAFFFFFFFFFFFFFFFFFF
310
261717161716161617161616161617161617161616174EEAFF8016FFFFFFFFFF
310
17BAFFFFFFFFFFFFFFFF3467FFFFFFC916C9FF3467FFFFFFDA166716FFFFFFFF
310
9C4D4E4E4E4E67AAFFFFFFFF6834FF7F262567AAEAFFFFFFFFFFFFFFFF9B17D9
310
0000FFFFFFFFFFFFB9161616161616FFFFFFFFFFBA1617161717171616161616
310
1716171716161716161617171716FFFFFFFFFFFFFFFFFFFF4E17161716171616
310
1617171616161716171717161616169BFF7F17FFFFFFFFFF17B9FFFFFFFFFFFF
310
FFFF7326FFFFFFFF3473DA16AAFFFFFF7317AA16FFFFFFFFFFFFFFFFFFFFFFFF
310
FFFFEA6725BA4E167FEAFFFFFFFFFFFFFFFFFFFF9C167FFF0000FFFFFFFFFFFF
310
B9161717171716FFFFFFFFFFBA16161716171616171717161617161716161616
310
171617171617EAFFFFFFFFFFFFFFFFFF26161717161616161616161617171616
310
1616161616171616AA8016FFFFFFFFFF16BAFFFFFFFFFFFFFFFFDA179BFFFFFF
310
74348D26FFFFFFFF2566B917FFFFFFFFD8BAB9BAB9BADAFFFFEA41169B7425C9
310
FFFFFFFFFFFFFFFFFFFFAB4F1680FFFF0000FFFFFFFFFFFFBA161717171617FF
310
FFFFFFFFBA17161717161617171617161616161617171616171716171617BBFF
310
FFFFFFFFFFFFFFE9171616161617161617161716FFFFFFFFFFD9671616161617
310
348017FFFFFFFFFF16BAFFFFFFFFFFFFFFFFFF4E5AFFFFFFC916265AFFFFFFAA
310
16AABA16FFFFFFFF7F1617161616179BFFFFEB4127168DFFFFFFFFFFFFFFD99B
310
6734175AC9FFFFFF0000FFFFFFFFFFFFB9161617171617FFFFFFFFFFBB161616
310
1616347F807F7F7F7F8033171716171617171616161672FFFFFFFFFFFFFFFF9C
310
171617171617161716161617FFFFFFFFFFFFFF4117161616174E17FFFFFFFFFF
310
16BAFFFFFFFFFFFFFFFFFF9B16DAFFFFFF34169BFFFFFF5A26FFB917FFFFFFFF
310
7F4EFFFFFFEA5B26FFFFFFEA2616EAFFFFFFFFDA743416331617414E4E4E4ECA
310
0000FFFFFFFFFFFFBA161716161616FFFFFFFFFFBA17171616164EFFFFFFFFFF
310
FFFF4E16161717174E161717171626EBFFFFFFFFFFFFFF4E16161617165B1616
310
16171617FFFFFFFFFFFFFF6716161616161617FFFFFFFFFF16BAFFFFFFFFFFFF
310
FFFFFFEA268CFFFFFF7316EAFFFFEB1774FFB916FFFFFFFF7F4EFFFFFFFF7316
310
FFFFFFFF6826FFFFFFFFEB264D9CEABA257F807F7F6616BA0000FFFFFFFFFFFF
310
BA161716161616FFFFFFFFFFBA16171616164DFFFFFFFFFFFFFF4E1617161617
310
9B1617171717165BEBFFFFFFFFFF671616161617179B171616161616FFFFFFFF
310
FFFFFF3417161617171617FFFFFFFFFF17BAFFFFFFFFFFFFFFFFFFFF6734FFFF
310
FFEBCAFFFFFF8D17C9FFBA17FFFFFFFF7F357F808066174FFFFFFFFF7F16FFFF
310
FFFFD91673B99B415BFFFFFFFFBA16DA00009B7F7F7F807F671617161616167F
310
80807F7E6617161616164EFFFFFFFFFFFFFF4E1616161617B94E171716161616
310
349BC9D9AA4E16171616161634FF161617161717B9B9BAB9BA9B411716171716
310
163416FFFFFFFFFF16B9FFFFFFFFFFFFFFFFFFFFC917CAFFFFFFFFFFFFFF3342
310
FFFFBA17FFFFFFFF9B4E4E4F4E4E66EAFFFFFFFF5B16C9FFFFFFFFAA4E164E73
310
EAFFFFFFFF8D26FF00004E161716161616171617171616171717171617161616
310
17174EFFFFFFFFFFFFFF4E1717171616B9D92616171716171716171717171716
310
16171716AAFF161717171617161617171616161617161716166717FFFFFFFFFF
310
17B9FFFFFFFFFFFFFFFFFFFFFF3467FFFFFFFFFFFFCA168CFFFFBB17FFFFFFFF
310
FFFFFFFFFFFFFFFFFFFFFFEA26265BFFFFFFFFFFFFFFFFFFFFFFFFFFEA3467FF
310
00004D16161616161617161717161617161616171617171616164EFFFFFFFFFF
310
FFFF4D1617161616BAFF9B1616161616161716161616171717161766FFFF1616
310
16171617161617161716171616171717667F16FFFFFFFFFF17BAFFFFFFFFFFFF
310
FFFFFFFFFF8C26EAFFFFFFFFFF6617EAFFFFBA17FFFFFFFFFFFFFFFFFFFFFFFF
310
FFFFEA5A25BA269BFFFFFFFFFFFFFFFFFFFFFFFF6616DAFF00004E1616171616
310
1616161616161716161617171616171616174EFFFFFFFFFFFFFF4D1717171716
310
B9FFFF9C161616161616161716161717171667FFFFFF17161717171716161617
310
1716161616161641E97E16FFFFFFFFFF16B9FFFFFFFFFFFFFFFFFFFFFFEA169B
310
FFFFFFFFEA265BFFFFFFB916FFFFFFFFFFFFFFFFFFFFFFFFFF9B3416AAFF9B17
310
67EAFFFFFFFFFFFFFFFFEA5B169BFFFF00004D17161716161616161717171616
310
161717161716171716174EFFFFFFFFFFFFFF4D1616161616BAFFFFFFBB411616
310
161716161616171634ABFFFFFFFF161716161617171716171617171617267FFF
310
FF7F164E4E4E4E4F17BAFFFFFFFFFFFFFFFFFFFFFFFF66344D4E4E4F4117AAFF
310
FFFFBA174E4E4E4D4E4D4D4E4E4E4E4116174EBBFFFFFFCA342666ABEAFFFFEA
310
AA6725269CFFFFFF0000724F4E4D4D4D4E4D4D4E4E4E4D4E4E4E4E4E4E4E4E4D
310
4E4E74FFFFFFFFFFFFFF734E4E4E4D4ECAFFFFFFFFFFAA663416171717265B9B
310
FFFFFFFFFFFF7F8080807F80807F7F7F7F7F807FBAFFFFFFFF9B4E4E4F4D4D4E
310
4DC9FFFFFFFFFFFFFFFFFFFFFFFFBA4E4E4E4E4D4E4EFFFFFFFFC94E4E4E4F4E
310
4E4E4D4E4E5A807F9CD9FFFFFFFFFFFFFF9B5B2617171716174E8DEAFFFFFFFF
310
0000000000000000000000000000000000000000000000000000000000000000
  1
OLE
  0
ENDSEC
  0
SECTION
  2
OBJECTS
  0
DICTIONARY
  5
C
330
0
100
AcDbDictionary
281
     1
  3
ACAD_GROUP
350
D
  3
ACAD_LAYOUT
350
1A
  3
ACAD_MLINESTYLE
350
17
  3
ACAD_PLOTSETTINGS
350
19
  3
ACAD_PLOTSTYLENAME
350
E
  0
DICTIONARY
  5
D
102
{ACAD_REACTORS
330
C
102
}
330
C
100
AcDbDictionary
281
     1
  0
DICTIONARY
  5
1A
102
{ACAD_REACTORS
330
C
102
}
330
C
100
AcDbDictionary
281
     1
  3
Layout1
350
1E
  3
Layout2
350
26
  3
Model
350
22
  0
DICTIONARY
  5
17
102
{ACAD_REACTORS
330
C
102
}
330
C
100
AcDbDictionary
281
     1
  3
Standard
350
18
  0
DICTIONARY
  5
19
102
{ACAD_REACTORS
330
C
102
}
330
C
100
AcDbDictionary
281
     1
  0
ACDBDICTIONARYWDFLT
  5
E
102
{ACAD_REACTORS
330
C
102
}
330
C
100
AcDbDictionary
281
     1
  3
Normal
350
F
100
AcDbDictionaryWithDefault
340
F
  0
LAYOUT
  5
1E
102
{ACAD_REACTORS
330
1A
102
}
330
1A
100
AcDbPlotSettings
  1

  2
none_device
  4

  6

 40
0.0
 41
0.0
 42
0.0
 43
0.0
 44
0.0
 45
0.0
 46
0.0
 47
0.0
 48
0.0
 49
0.0
140
0.0
141
0.0
142
1.0
143
1.0
 70
   688
 72
     0
 73
     0
 74
     5
  7

 75
    16
147
1.0
148
0.0
149
0.0
100
AcDbLayout
  1
Layout1
 70
     1
 71
     1
 10
0.0
 20
0.0
 11
420.0
 21
297.0
 12
0.0
 22
0.0
 32
0.0
 14
1.0000000000E+20
 24
1.0000000000E+20
 34
1.0000000000E+20
 15
-1.0000000000E+20
 25
-1.0000000000E+20
 35
-1.0000000000E+20
146
0.0
 13
0.0
 23
0.0
 33
0.0
 16
1.0
 26
0.0
 36
0.0
 17
0.0
 27
1.0
 37
0.0
 76
     0
330
1B
  0
LAYOUT
  5
26
102
{ACAD_REACTORS
330
1A
102
}
330
1A
100
AcDbPlotSettings
  1

  2
none_device
  4

  6

 40
0.0
 41
0.0
 42
0.0
 43
0.0
 44
0.0
 45
0.0
 46
0.0
 47
0.0
 48
0.0
 49
0.0
140
0.0
141
0.0
142
1.0
143
1.0
 70
   688
 72
     0
 73
     0
 74
     5
  7

 75
    16
147
1.0
148
0.0
149
0.0
100
AcDbLayout
  1
Layout2
 70
     1
 71
     2
 10
0.0
 20
0.0
 11
0.0
 21
0.0
 12
0.0
 22
0.0
 32
0.0
 14
0.0
 24
0.0
 34
0.0
 15
0.0
 25
0.0
 35
0.0
146
0.0
 13
0.0
 23
0.0
 33
0.0
 16
1.0
 26
0.0
 36
0.0
 17
0.0
 27
1.0
 37
0.0
 76
     0
330
23
  0
LAYOUT
  5
22
102
{ACAD_REACTORS
330
1A
102
}
330
1A
100
AcDbPlotSettings
  1

  2
none_device
  4

  6

 40
0.0
 41
0.0
 42
0.0
 43
0.0
 44
0.0
 45
0.0
 46
0.0
 47
0.0
 48
0.0
 49
0.0
140
0.0
141
0.0
142
1.0
143
1.0
 70
  1712
 72
     0
 73
     0
 74
     0
  7

 75
     0
147
1.0
148
0.0
149
0.0
100
AcDbLayout
  1
Model
 70
     1
 71
     0
 10
0.0
 20
0.0
 11
279.4
 21
215.9
 12
0.0
 22
0.0
 32
0.0
 14
0.0
 24
0.0
 34
0.0
 15
279.4
 25
215.9
 35
0.0
146
0.0
 13
0.0
 23
0.0
 33
0.0
 16
1.0
 26
0.0
 36
0.0
 17
0.0
 27
1.0
 37
0.0
 76
     0
330
1F
331
29
  0
MLINESTYLE
  5
18
102
{ACAD_REACTORS
330
17
102
}
330
17
100
AcDbMlineStyle
  2
Standard
 70
     0
  3

 62
   256
 51
90.0
 52
90.0
 71
     2
 49
0.5
 62
   256
  6
BYLAYER
 49
-0.5
 62
   256
  6
BYLAYER
  0
ACDBPLACEHOLDER
  5
F
102
{ACAD_REACTORS
330
E
102
}
330
E
  0
ENDSEC
  0
EOF
