  0
SECTION
  2
HEADER
  9
$ACADVER
  1
AC1015
  9
$ACADMAINTVER
 70
     6
  9
$DWGCODEPAGE
  3
ANSI_1252
  9
$INSBASE
 10
0.0
 20
0.0
 30
0.0
  9
$EXTMIN
 10
0.0
 20
0.0
 30
0.0
  9
$EXTMAX
 10
11.0
 20
8.5
 30
0.0
  9
$LIMMIN
 10
0.0
 20
0.0
  9
$LIMMAX
 10
11.0
 20
8.5
  9
$ORTHOMODE
 70
     0
  9
$REGENMODE
 70
     1
  9
$FILLMODE
 70
     1
  9
$QTEXTMODE
 70
     0
  9
$MIRRTEXT
 70
     1
  9
$LTSCALE
 40
1.0
  9
$ATTMODE
 70
     1
  9
$TEXTSIZE
 40
0.1111111111
  9
$TRACEWID
 40
0.05
  9
$TEXTSTYLE
  7
Standard
  9
$CLAYER
  8
0
  9
$CELTYPE
  6
ByLayer
  9
$CECOLOR
 62
   256
  9
$CELTSCALE
 40
1.0
  9
$DISPSILH
 70
     0
  9
$DIMSCALE
 40
1.0
  9
$DIMASZ
 40
0.125
  9
$DIMEXO
 40
0.05
  9
$DIMDLI
 40
0.38
  9
$DIMRND
 40
0.0
  9
$DIMDLE
 40
0.0
  9
$DIMEXE
 40
0.07
  9
$DIMTP
 40
0.0
  9
$DIMTM
 40
0.0
  9
$DIMTXT
 40
0.1111111111
  9
$DIMCEN
 40
0.09
  9
$DIMTSZ
 40
0.0
  9
$DIMTOL
 70
     0
  9
$DIMLIM
 70
     0
  9
$DIMTIH
 70
     1
  9
$DIMTOH
 70
     1
  9
$DIMSE1
 70
     0
  9
$DIMSE2
 70
     0
  9
$DIMTAD
 70
     0
  9
$DIMZIN
 70
     0
  9
$DIMBLK
  1

  9
$DIMASO
 70
     1
  9
$DIMSHO
 70
     1
  9
$DIMPOST
  1

  9
$DIMAPOST
  1

  9
$DIMALT
 70
     0
  9
$DIMALTD
 70
     2
  9
$DIMALTF
 40
25.4
  9
$DIMLFAC
 40
1.0
  9
$DIMTOFL
 70
     0
  9
$DIMTVP
 40
0.0
  9
$DIMTIX
 70
     0
  9
$DIMSOXD
 70
     0
  9
$DIMSAH
 70
     0
  9
$DIMBLK1
  1

  9
$DIMBLK2
  1

  9
$DIMSTYLE
  2
Standard
  9
$DIMCLRD
 70
     0
  9
$DIMCLRE
 70
     0
  9
$DIMCLRT
 70
     0
  9
$DIMTFAC
 40
1.0
  9
$DIMGAP
 40
0.1
  9
$DIMJUST
 70
     0
  9
$DIMSD1
 70
     0
  9
$DIMSD2
 70
     0
  9
$DIMTOLJ
 70
     1
  9
$DIMTZIN
 70
     0
  9
$DIMALTZ
 70
     0
  9
$DIMALTTZ
 70
     0
  9
$DIMUPT
 70
     0
  9
$DIMDEC
 70
     2
  9
$DIMTDEC
 70
     2
  9
$DIMALTU
 70
     2
  9
$DIMALTTD
 70
     2
  9
$DIMTXSTY
  7
Standard
  9
$DIMAUNIT
 70
     0
  9
$DIMADEC
 70
     2
  9
$DIMALTRND
 40
0.0
  9
$DIMAZIN
 70
     0
  9
$DIMDSEP
 70
    46
  9
$DIMATFIT
 70
     3
  9
$DIMFRAC
 70
     0
  9
$DIMLDRBLK
  1

  9
$DIMLUNIT
 70
     2
  9
$DIMLWD
 70
    -2
  9
$DIMLWE
 70
    -2
  9
$DIMTMOVE
 70
     0
  9
$LUNITS
 70
     2
  9
$LUPREC
 70
     2
  9
$SKETCHINC
 40
0.1
  9
$FILLETRAD
 40
0.5
  9
$AUNITS
 70
     0
  9
$AUPREC
 70
     2
  9
$MENU
  1
.
  9
$ELEVATION
 40
0.0
  9
$PELEVATION
 40
0.0
  9
$THICKNESS
 40
0.0
  9
$LIMCHECK
 70
     0
  9
$CHAMFERA
 40
0.5
  9
$CHAMFERB
 40
0.5
  9
$CHAMFERC
 40
1.0
  9
$CHAMFERD
 40
0.0
  9
$SKPOLY
 70
     0
  9
$TDCREATE
 40
2455993.629278009
  9
$TDUCREATE
 40
2455993.837611343
  9
$TDUPDATE
 40
2455993.629278021
  9
$TDUUPDATE
 40
2455993.837611354
  9
$TDINDWG
 40
0.0000000116
  9
$TDUSRTIMER
 40
0.0000000116
  9
$USRTIMER
 70
     1
  9
$ANGBASE
 50
0.0
  9
$ANGDIR
 70
     0
  9
$PDMODE
 70
     0
  9
$PDSIZE
 40
-1.0
  9
$PLINEWID
 40
0.0
  9
$SPLFRAME
 70
     0
  9
$SPLINETYPE
 70
     6
  9
$SPLINESEGS
 70
     8
  9
$HANDSEED
  5
3D1
  9
$SURFTAB1
 70
     6
  9
$SURFTAB2
 70
     6
  9
$SURFTYPE
 70
     6
  9
$SURFU
 70
     6
  9
$SURFV
 70
     6
  9
$UCSBASE
  2

  9
$UCSNAME
  2

  9
$UCSORG
 10
0.0
 20
0.0
 30
0.0
  9
$UCSXDIR
 10
1.0
 20
0.0
 30
0.0
  9
$UCSYDIR
 10
0.0
 20
1.0
 30
0.0
  9
$UCSORTHOREF
  2

  9
$UCSORTHOVIEW
 70
     0
  9
$UCSORGTOP
 10
0.0
 20
0.0
 30
0.0
  9
$UCSORGBOTTOM
 10
0.0
 20
0.0
 30
0.0
  9
$UCSORGLEFT
 10
0.0
 20
0.0
 30
0.0
  9
$UCSORGRIGHT
 10
0.0
 20
0.0
 30
0.0
  9
$UCSORGFRONT
 10
0.0
 20
0.0
 30
0.0
  9
$UCSORGBACK
 10
0.0
 20
0.0
 30
0.0
  9
$PUCSBASE
  2

  9
$PUCSNAME
  2

  9
$PUCSORG
 10
0.0
 20
0.0
 30
0.0
  9
$PUCSXDIR
 10
1.0
 20
0.0
 30
0.0
  9
$PUCSYDIR
 10
0.0
 20
1.0
 30
0.0
  9
$PUCSORTHOREF
  2

  9
$PUCSORTHOVIEW
 70
     0
  9
$PUCSORGTOP
 10
0.0
 20
0.0
 30
0.0
  9
$PUCSORGBOTTOM
 10
0.0
 20
0.0
 30
0.0
  9
$PUCSORGLEFT
 10
0.0
 20
0.0
 30
0.0
  9
$PUCSORGRIGHT
 10
0.0
 20
0.0
 30
0.0
  9
$PUCSORGFRONT
 10
0.0
 20
0.0
 30
0.0
  9
$PUCSORGBACK
 10
0.0
 20
0.0
 30
0.0
  9
$USERI1
 70
     0
  9
$USERI2
 70
     0
  9
$USERI3
 70
     0
  9
$USERI4
 70
     0
  9
$USERI5
 70
     0
  9
$USERR1
 40
0.0
  9
$USERR2
 40
0.0
  9
$USERR3
 40
0.0
  9
$USERR4
 40
0.0
  9
$USERR5
 40
0.0
  9
$WORLDVIEW
 70
     1
  9
$SHADEDGE
 70
     3
  9
$SHADEDIF
 70
    70
  9
$TILEMODE
 70
     1
  9
$MAXACTVP
 70
    64
  9
$PINSBASE
 10
0.0
 20
0.0
 30
0.0
  9
$PLIMCHECK
 70
     0
  9
$PEXTMIN
 10
1.0000000000E+20
 20
1.0000000000E+20
 30
1.0000000000E+20
  9
$PEXTMAX
 10
-1.0000000000E+20
 20
-1.0000000000E+20
 30
-1.0000000000E+20
  9
$PLIMMIN
 10
0.0
 20
0.0
  9
$PLIMMAX
 10
12.0
 20
9.0
  9
$UNITMODE
 70
     0
  9
$VISRETAIN
 70
     1
  9
$PLINEGEN
 70
     0
  9
$PSLTSCALE
 70
     1
  9
$TREEDEPTH
 70
  3020
  9
$CMLSTYLE
  2
Standard
  9
$CMLJUST
 70
     0
  9
$CMLSCALE
 40
1.0
  9
$PROXYGRAPHICS
 70
     1
  9
$MEASUREMENT
 70
     0
  9
$CELWEIGHT
370
    -1
  9
$ENDCAPS
280
     0
  9
$JOINSTYLE
280
     0
  9
$LWDISPLAY
290
     1
  9
$INSUNITS
 70
     1
  9
$HYPERLINKBASE
  1

  9
$STYLESHEET
  1

  9
$XEDIT
290
     1
  9
$CEPSNTYPE
380
     0
  9
$PSTYLEMODE
290
     1
  9
$FINGERPRINTGUID
  2
{F5A7401D-5B49-4A10-8124-35DDB3FB955F}
  9
$VERSIONGUID
  2
{FAEB1C32-E019-11D5-929B-00C0DF256EC4}
  9
$EXTNAMES
290
     1
  9
$PSVPSCALE
 40
0.0
  9
$OLESTARTUP
290
     0
  0
ENDSEC
  0
SECTION
  2
CLASSES
  0
CLASS
  1
ACDBDICTIONARYWDFLT
  2
AcDbDictionaryWithDefault
  3
ObjectDBX Classes
 90
        0
280
     0
281
     0
  0
CLASS
  1
VISUALSTYLE
  2
AcDbVisualStyle
  3
ObjectDBX Classes
 90
     4095
280
     0
281
     0
  0
CLASS
  1
MATERIAL
  2
AcDbMaterial
  3
ObjectDBX Classes
 90
     1153
280
     0
281
     0
  0
CLASS
  1
ACDBPLACEHOLDER
  2
AcDbPlaceHolder
  3
ObjectDBX Classes
 90
        0
280
     0
281
     0
  0
CLASS
  1
LAYOUT
  2
AcDbLayout
  3
ObjectDBX Classes
 90
        0
280
     0
281
     0
  0
ENDSEC
  0
SECTION
  2
TABLES
  0
TABLE
  2
VPORT
  5
8
330
0
100
AcDbSymbolTable
 70
     1
  0
VPORT
  5
29
330
8
100
AcDbSymbolTableRecord
100
AcDbViewportTableRecord
  2
*Active
 70
     0
 10
0.0
 20
0.0
 11
1.0
 21
1.0
 12
5.5
 22
4.25
 13
0.0
 23
0.0
 14
0.5
 24
0.5
 15
0.5
 25
0.5
 16
0.0
 26
0.0
 36
1.0
 17
0.0
 27
0.0
 37
0.0
 40
8.5
 41
1.2941176471
 42
50.0
 43
0.0
 44
0.0
 50
0.0
 51
0.0
 71
     0
 72
  2000
 73
     1
 74
     3
 75
     0
 76
     0
 77
     0
 78
     0
281
     0
 65
     1
110
0.0
120
0.0
130
0.0
111
1.0
121
0.0
131
0.0
112
0.0
122
1.0
132
0.0
 79
     0
146
0.0
  0
ENDTAB
  0
TABLE
  2
LTYPE
  5
5
330
0
100
AcDbSymbolTable
 70
     6
  0
LTYPE
  5
14
330
5
100
AcDbSymbolTableRecord
100
AcDbLinetypeTableRecord
  2
ByBlock
 70
     0
  3

 72
    65
 73
     0
 40
0.0
  0
LTYPE
  5
15
330
5
100
AcDbSymbolTableRecord
100
AcDbLinetypeTableRecord
  2
ByLayer
 70
     0
  3

 72
    65
 73
     0
 40
0.0
  0
LTYPE
  5
16
330
5
100
AcDbSymbolTableRecord
100
AcDbLinetypeTableRecord
  2
Continuous
 70
     0
  3
Solid line
 72
    65
 73
     0
 40
0.0
  0
LTYPE
  5
3F
330
5
100
AcDbSymbolTableRecord
100
AcDbLinetypeTableRecord
  2
HIDDEN
 70
     0
  3
Hidden __ __ __ __ __ __ __ __ __ __ __ __ __ __
 72
    65
 73
     2
 40
0.075
 49
0.05
 74
     0
 49
-0.025
 74
     0
  0
LTYPE
  5
40
330
5
100
AcDbSymbolTableRecord
100
AcDbLinetypeTableRecord
  2
PHANTOM
 70
     0
  3
Phantom ______  __  __  ______  __  __  ______
 72
    65
 73
     6
 40
0.5
 49
0.25
 74
     0
 49
-0.05
 74
     0
 49
0.05
 74
     0
 49
-0.05
 74
     0
 49
0.05
 74
     0
 49
-0.05
 74
     0
  0
LTYPE
  5
41
330
5
100
AcDbSymbolTableRecord
100
AcDbLinetypeTableRecord
  2
CENTER
 70
     0
  3
Center ____ _ ____ _ ____ _ ____ _ ____ _ ____
 72
    65
 73
     4
 40
0.4
 49
0.25
 74
     0
 49
-0.05
 74
     0
 49
0.05
 74
     0
 49
-0.05
 74
     0
  0
LTYPE
  5
42
330
5
100
AcDbSymbolTableRecord
100
AcDbLinetypeTableRecord
  2
CENTERX2
 70
     0
  3
Center (2x) ________  __  ________  __  _____
 72
    65
 73
     4
 40
0.8
 49
0.5
 74
     0
 49
-0.1
 74
     0
 49
0.1
 74
     0
 49
-0.1
 74
     0
  0
LTYPE
  5
43
330
5
100
AcDbSymbolTableRecord
100
AcDbLinetypeTableRecord
  2
DOT2
 70
     0
  3
Dot (.5x) ........................................
 72
    65
 73
     2
 40
0.025
 49
0.0
 74
     0
 49
-0.025
 74
     0
  0
ENDTAB
  0
TABLE
  2
LAYER
  5
2
330
0
100
AcDbSymbolTable
 70
     2
  0
LAYER
  5
10
330
2
100
AcDbSymbolTableRecord
100
AcDbLayerTableRecord
  2
0
 70
     0
 62
     7
  6
Continuous
370
    -3
390
F
  0
LAYER
  5
44
330
2
100
AcDbSymbolTableRecord
100
AcDbLayerTableRecord
  2
FORMAT
 70
     0
 62
     7
  6
Continuous
370
    -3
390
F
  0
ENDTAB
  0
TABLE
  2
STYLE
  5
3
330
0
100
AcDbSymbolTable
 70
     4
  0
STYLE
  5
11
330
3
100
AcDbSymbolTableRecord
100
AcDbTextStyleTableRecord
  2
Standard
 70
     0
 40
0.0
 41
1.0
 50
0.0
 71
     0
 42
0.2
  3
txt
  4

  0
STYLE
  5
6B
330
3
100
AcDbSymbolTableRecord
100
AcDbTextStyleTableRecord
  2
SLDTEXTSTYLE0
 70
     0
 40
0.0
 41
0.75
 50
0.0
 71
     0
 42
0.2
  3
TXT
  4

  0
STYLE
  5
74
330
3
100
AcDbSymbolTableRecord
100
AcDbTextStyleTableRecord
  2
SLDTEXTSTYLE1
 70
     0
 40
0.0
 41
0.6944444444
 50
0.0
 71
     0
 42
0.2
  3
TXT
  4

  0
STYLE
  5
78
330
3
100
AcDbSymbolTableRecord
100
AcDbTextStyleTableRecord
  2
SLDTEXTSTYLE2
 70
     0
 40
0.0
 41
0.6
 50
0.0
 71
     0
 42
0.2
  3
TXT
  4

  0
ENDTAB
  0
TABLE
  2
VIEW
  5
6
330
0
100
AcDbSymbolTable
 70
     0
  0
ENDTAB
  0
TABLE
  2
UCS
  5
7
330
0
100
AcDbSymbolTable
 70
     0
  0
ENDTAB
  0
TABLE
  2
APPID
  5
9
330
0
100
AcDbSymbolTable
 70
     1
  0
APPID
  5
12
330
9
100
AcDbSymbolTableRecord
100
AcDbRegAppTableRecord
  2
ACAD
 70
     0
  0
ENDTAB
  0
TABLE
  2
DIMSTYLE
  5
A
330
0
100
AcDbSymbolTable
 70
     9
100
AcDbDimStyleTable
  0
DIMSTYLE
105
27
330
A
100
AcDbSymbolTableRecord
100
AcDbDimStyleTableRecord
  2
Standard
 70
     0
178
     0
340
11
  0
DIMSTYLE
105
CB
102
{ACAD_REACTORS
330
CA
330
1C2
330
1D2
102
}
330
A
100
AcDbSymbolTableRecord
100
AcDbDimStyleTableRecord
  2
SLDDIMSTYLE0
 70
     0
 41
0.125
 44
0.0
 45
0.000000001
 78
    12
 79
     3
140
0.0833333333
147
0.0208333333
172
     1
173
     1
178
     0
271
     2
272
     2
276
     2
284
    12
289
     0
340
6B
  0
DIMSTYLE
105
DA
102
{ACAD_REACTORS
330
D9
102
}
330
A
100
AcDbSymbolTableRecord
100
AcDbDimStyleTableRecord
  2
SLDDIMSTYLE1
 70
     0
 41
0.125
 44
0.0
 45
0.000000001
 78
     4
 79
     1
140
0.0833333333
147
0.0208333333
173
     1
178
     0
271
     2
272
     2
276
     2
284
    12
340
6B
  0
DIMSTYLE
105
ED
102
{ACAD_REACTORS
330
EC
330
12D
330
145
330
1B4
330
3AC
102
}
330
A
100
AcDbSymbolTableRecord
100
AcDbDimStyleTableRecord
  2
SLDDIMSTYLE2
 70
     0
 41
0.125
 44
0.0
 45
0.000000001
 78
    12
 79
     3
140
0.0833333333
147
0.0208333333
173
     1
178
     0
271
     2
272
     2
276
     2
284
    12
340
6B
  0
DIMSTYLE
105
13C
102
{ACAD_REACTORS
330
13B
330
3A3
102
}
330
A
100
AcDbSymbolTableRecord
100
AcDbDimStyleTableRecord
  2
SLDDIMSTYLE3
 70
     0
  3
<>
 41
0.125
 44
0.0
 45
0.000000001
 78
    12
 79
     3
140
0.0833333333
141
0.0
147
0.0208333333
173
     1
178
     0
271
     2
272
     2
276
     2
284
    12
340
6B
  0
DIMSTYLE
105
154
102
{ACAD_REACTORS
330
153
102
}
330
A
100
AcDbSymbolTableRecord
100
AcDbDimStyleTableRecord
  2
SLDDIMSTYLE4
 70
     0
 41
0.125
 44
0.0
 45
0.000000001
 78
    12
 79
     3
140
0.0833333333
141
0.0
147
0.0208333333
173
     1
178
     0
271
     2
272
     2
276
     2
284
    12
340
6B
  0
DIMSTYLE
105
162
102
{ACAD_REACTORS
330
161
102
}
330
A
100
AcDbSymbolTableRecord
100
AcDbDimStyleTableRecord
  2
SLDDIMSTYLE5
 70
     0
 41
0.125
 44
0.0
 45
0.000000001
 78
     4
 79
     1
140
0.0833333333
141
0.0
147
0.0208333333
173
     1
178
     0
271
     2
272
     2
276
     2
284
    12
340
6B
  0
DIMSTYLE
105
1E1
102
{ACAD_REACTORS
330
1E0
102
}
330
A
100
AcDbSymbolTableRecord
100
AcDbDimStyleTableRecord
  2
SLDDIMSTYLE6
 70
     0
  3
<>
 41
0.125
 44
0.0
 45
0.000000001
 78
    12
 79
     3
140
0.0833333333
141
0.0
147
0.0208333333
173
     1
178
     0
271
     2
272
     2
276
     2
284
    12
340
6B
  0
DIMSTYLE
105
1F2
330
A
100
AcDbSymbolTableRecord
100
AcDbDimStyleTableRecord
  2
SLDDIMSTYLE7
 70
     0
 41
0.04
 44
0.0
 45
0.000000001
140
0.0
146
0.04
147
0.0
173
     1
178
     0
271
     0
272
     0
276
     2
340
11
341
1F3
343
1F3
344
1F3
  0
ENDTAB
  0
TABLE
  2
BLOCK_RECORD
  5
1
330
0
100
AcDbSymbolTable
 70
    28
  0
BLOCK_RECORD
  5
1F
330
1
100
AcDbSymbolTableRecord
100
AcDbBlockTableRecord
  2
*Model_Space
340
22
  0
BLOCK_RECORD
  5
1B
330
1
100
AcDbSymbolTableRecord
100
AcDbBlockTableRecord
  2
*Paper_Space
340
1E
  0
BLOCK_RECORD
  5
23
330
1
100
AcDbSymbolTableRecord
100
AcDbBlockTableRecord
  2
*Paper_Space0
340
26
  0
BLOCK_RECORD
  5
45
330
1
100
AcDbSymbolTableRecord
100
AcDbBlockTableRecord
  2
Third Angle Projection Block
340
0
102
{BLKREFS
331
6A
102
}
  0
BLOCK_RECORD
  5
7E
330
1
100
AcDbSymbolTableRecord
100
AcDbBlockTableRecord
  2
SW_NOTE_0
340
0
102
{BLKREFS
331
83
102
}
  0
BLOCK_RECORD
  5
84
330
1
100
AcDbSymbolTableRecord
100
AcDbBlockTableRecord
  2
SW_NOTE_1
340
0
102
{BLKREFS
331
89
102
}
  0
BLOCK_RECORD
  5
8B
330
1
100
AcDbSymbolTableRecord
100
AcDbBlockTableRecord
  2
SW_NOTE_2
340
0
102
{BLKREFS
331
90
102
}
  0
BLOCK_RECORD
  5
92
330
1
100
AcDbSymbolTableRecord
100
AcDbBlockTableRecord
  2
SW_NOTE_3
340
0
102
{BLKREFS
331
97
102
}
  0
BLOCK_RECORD
  5
98
330
1
100
AcDbSymbolTableRecord
100
AcDbBlockTableRecord
  2
SW_BROKEN_VIEW_0
340
0
102
{BLKREFS
331
9B
102
}
  0
BLOCK_RECORD
  5
CC
330
1
100
AcDbSymbolTableRecord
100
AcDbBlockTableRecord
  2
*D7
340
0
  0
BLOCK_RECORD
  5
DB
330
1
100
AcDbSymbolTableRecord
100
AcDbBlockTableRecord
  2
*D8
340
0
  0
BLOCK_RECORD
  5
EE
330
1
100
AcDbSymbolTableRecord
100
AcDbBlockTableRecord
  2
*D9
340
0
  0
BLOCK_RECORD
  5
12E
330
1
100
AcDbSymbolTableRecord
100
AcDbBlockTableRecord
  2
*D10
340
0
  0
BLOCK_RECORD
  5
13D
330
1
100
AcDbSymbolTableRecord
100
AcDbBlockTableRecord
  2
*D11
340
0
  0
BLOCK_RECORD
  5
146
330
1
100
AcDbSymbolTableRecord
100
AcDbBlockTableRecord
  2
*D12
340
0
  0
BLOCK_RECORD
  5
155
330
1
100
AcDbSymbolTableRecord
100
AcDbBlockTableRecord
  2
*D13
340
0
  0
BLOCK_RECORD
  5
163
330
1
100
AcDbSymbolTableRecord
100
AcDbBlockTableRecord
  2
*D14
340
0
  0
BLOCK_RECORD
  5
16F
330
1
100
AcDbSymbolTableRecord
100
AcDbBlockTableRecord
  2
SW_CENTERMARKSYMBOL_0
340
0
102
{BLKREFS
331
176
102
}
  0
BLOCK_RECORD
  5
177
330
1
100
AcDbSymbolTableRecord
100
AcDbBlockTableRecord
  2
SW_CENTERMARKSYMBOL_1
340
0
102
{BLKREFS
331
17E
102
}
  0
BLOCK_RECORD
  5
1B5
330
1
100
AcDbSymbolTableRecord
100
AcDbBlockTableRecord
  2
*D17
340
0
  0
BLOCK_RECORD
  5
1C3
330
1
100
AcDbSymbolTableRecord
100
AcDbBlockTableRecord
  2
*D18
340
0
  0
BLOCK_RECORD
  5
1D3
330
1
100
AcDbSymbolTableRecord
100
AcDbBlockTableRecord
  2
*D19
340
0
  0
BLOCK_RECORD
  5
1E2
330
1
100
AcDbSymbolTableRecord
100
AcDbBlockTableRecord
  2
*D20
340
0
  0
BLOCK_RECORD
  5
1EA
330
1
100
AcDbSymbolTableRecord
100
AcDbBlockTableRecord
  2
SW_NOTE_4
340
0
102
{BLKREFS
331
1F1
102
}
  0
BLOCK_RECORD
  5
1F3
330
1
100
AcDbSymbolTableRecord
100
AcDbBlockTableRecord
  2
_DOT
340
0
  0
BLOCK_RECORD
  5
1FC
330
1
100
AcDbSymbolTableRecord
100
AcDbBlockTableRecord
  2
SW_CENTERMARKSYMBOL_2
340
0
102
{BLKREFS
331
203
102
}
  0
BLOCK_RECORD
  5
24B
330
1
100
AcDbSymbolTableRecord
100
AcDbBlockTableRecord
  2
SW_BROKEN_VIEW_1
340
0
102
{BLKREFS
331
24E
102
}
  0
BLOCK_RECORD
  5
3A4
330
1
100
AcDbSymbolTableRecord
100
AcDbBlockTableRecord
  2
*D25
340
0
  0
BLOCK_RECORD
  5
3AD
330
1
100
AcDbSymbolTableRecord
100
AcDbBlockTableRecord
  2
*D26
340
0
  0
BLOCK_RECORD
  5
3BE
330
1
100
AcDbSymbolTableRecord
100
AcDbBlockTableRecord
  2
SW_CENTERMARKSYMBOL_3
340
0
102
{BLKREFS
331
3C5
102
}
  0
ENDTAB
  0
ENDSEC
  0
SECTION
  2
BLOCKS
  0
BLOCK
  5
20
330
1F
100
AcDbEntity
  8
0
100
AcDbBlockBegin
  2
*Model_Space
 70
     0
 10
0.0
 20
0.0
 30
0.0
  3
*Model_Space
  1

  0
ENDBLK
  5
21
330
1F
100
AcDbEntity
  8
0
100
AcDbBlockEnd
  0
BLOCK
  5
1C
330
1B
100
AcDbEntity
 67
     1
  8
0
100
AcDbBlockBegin
  2
*Paper_Space
 70
     0
 10
0.0
 20
0.0
 30
0.0
  3
*Paper_Space
  1

  0
ENDBLK
  5
1D
330
1B
100
AcDbEntity
 67
     1
  8
0
100
AcDbBlockEnd
  0
BLOCK
  5
24
330
23
100
AcDbEntity
  8
0
100
AcDbBlockBegin
  2
*Paper_Space0
 70
     0
 10
0.0
 20
0.0
 30
0.0
  3
*Paper_Space0
  1

  0
ENDBLK
  5
25
330
23
100
AcDbEntity
  8
0
100
AcDbBlockEnd
  0
BLOCK
  5
46
330
45
100
AcDbEntity
  8
0
100
AcDbBlockBegin
  2
Third Angle Projection Block
 70
     0
 10
0.0
 20
0.0
 30
0.0
  3
Third Angle Projection Block
  1

  0
CIRCLE
  5
48
330
45
100
AcDbEntity
  8
0
  6
Continuous
 62
     7
370
    30
100
AcDbCircle
 10
3.9951432636
 20
0.7456853688
 30
0.0
 40
0.0696152422706639
  0
CIRCLE
  5
49
330
45
100
AcDbEntity
  8
0
  6
Continuous
 62
     7
370
    30
100
AcDbCircle
 10
3.9951432636
 20
0.7456853688
 30
0.0
 40
0.1535916633280245
  0
LINE
  5
4A
330
45
100
AcDbEntity
  8
0
  6
CENTERX2
 62
     7
370
     0
100
AcDbLine
 10
4.3360937897
 20
0.7456853688
 30
0.0
 11
4.7028635231
 21
0.7456853688
 31
0.0
  0
LINE
  5
4B
330
45
100
AcDbEntity
  8
0
  6
Continuous
 62
     7
370
    30
100
AcDbLine
 10
4.3701432636
 20
0.815300611
 30
0.0
 11
4.3701432636
 21
0.6760701265
 31
0.0
  0
LINE
  5
4C
330
45
100
AcDbEntity
  8
0
  6
Continuous
 62
     7
370
    30
100
AcDbLine
 10
4.3701432636
 20
0.6760701265
 30
0.0
 11
4.6701432636
 21
0.5956853688
 31
0.0
  0
LINE
  5
4D
330
45
100
AcDbEntity
  8
0
  6
Continuous
 62
     7
370
    30
100
AcDbLine
 10
4.6701432636
 20
0.5956853688
 30
0.0
 11
4.6701432636
 21
0.8956853688
 31
0.0
  0
LINE
  5
4E
330
45
100
AcDbEntity
  8
0
  6
Continuous
 62
     7
370
    30
100
AcDbLine
 10
4.6701432636
 20
0.8956853688
 30
0.0
 11
4.3701432636
 21
0.815300611
 31
0.0
  0
LINE
  5
4F
330
45
100
AcDbEntity
  8
0
  6
CENTERX2
 62
     7
370
     0
100
AcDbLine
 10
3.8032513961
 20
0.7456853688
 30
0.0
 11
4.187035131
 21
0.7456853688
 31
0.0
  0
LINE
  5
50
330
45
100
AcDbEntity
  8
0
  6
CENTERX2
 62
     7
370
     0
100
AcDbLine
 10
3.9951432636
 20
0.9375772362
 30
0.0
 11
3.9951432636
 21
0.5537935013
 31
0.0
  0
POINT
  5
51
330
45
100
AcDbEntity
  8
0
  6
Continuous
 62
     7
370
     0
100
AcDbPoint
 10
3.9951432636
 20
0.7456853688
 30
0.0
  0
ENDBLK
  5
47
330
45
100
AcDbEntity
  8
0
100
AcDbBlockEnd
  0
BLOCK
  5
7F
330
7E
100
AcDbEntity
  8
0
100
AcDbBlockBegin
  2
SW_NOTE_0
 70
     0
 10
0.0
 20
0.0
 30
0.0
  3
SW_NOTE_0
  1

  0
MTEXT
  5
81
330
7E
100
AcDbEntity
  8
0
  6
Continuous
 62
     0
370
     0
100
AcDbMText
 10
0.78375
 20
0.0773440644
 30
0.0
 40
0.06
 41
0.0
 71
     2
 72
     1
  1
VALUES IN PARENTHESIS ARE CALCULATED
  7
SLDTEXTSTYLE0
 73
     1
 44
1.0
  0
MTEXT
  5
82
330
7E
100
AcDbEntity
  8
0
  6
Continuous
 62
     0
370
     0
100
AcDbMText
 10
0.7825936818
 20
-0.0220260102
 30
0.0
 40
0.06
 41
0.0
 71
     2
 72
     1
  1
AND MAY CONTAIN ROUNDOFF ERRORS
  7
SLDTEXTSTYLE0
 73
     1
 44
1.0
  0
ENDBLK
  5
80
330
7E
100
AcDbEntity
  8
0
100
AcDbBlockEnd
  0
BLOCK
  5
85
330
84
100
AcDbEntity
  8
0
100
AcDbBlockBegin
  2
SW_NOTE_1
 70
     0
 10
0.0
 20
0.0
 30
0.0
  3
SW_NOTE_1
  1

  0
MTEXT
  5
87
330
84
100
AcDbEntity
  8
0
  6
Continuous
 62
     0
370
     0
100
AcDbMText
 10
0.0
 20
0.1074223116
 30
0.0
 40
0.0833333333
 41
0.0
 71
     1
 72
     1
  1
DRAWING
  7
SLDTEXTSTYLE0
 73
     1
 44
1.0
  0
MTEXT
  5
88
330
84
100
AcDbEntity
  8
0
  6
Continuous
 62
     0
370
     0
100
AcDbMText
 10
0.0
 20
-0.0036887981
 30
0.0
 40
0.0833333333
 41
0.0
 71
     1
 72
     1
  1
PROJECTION
  7
SLDTEXTSTYLE0
 73
     1
 44
1.0
  0
ENDBLK
  5
86
330
84
100
AcDbEntity
  8
0
100
AcDbBlockEnd
  0
BLOCK
  5
8C
330
8B
100
AcDbEntity
  8
0
100
AcDbBlockBegin
  2
SW_NOTE_2
 70
     0
 10
0.0
 20
0.0
 30
0.0
  3
SW_NOTE_2
  1

  0
MTEXT
  5
8E
330
8B
100
AcDbEntity
  8
0
  6
Continuous
 62
     0
370
     0
100
AcDbMText
 10
0.986328125
 20
0.1611334675
 30
0.0
 40
0.125
 41
0.0
 71
     2
 72
     1
  1
FOR INFORMATION ONLY
  7
SLDTEXTSTYLE0
 73
     1
 44
1.0
  0
MTEXT
  5
8F
330
8B
100
AcDbEntity
  8
0
  6
Continuous
 62
     0
370
     0
100
AcDbMText
 10
0.999088459
 20
-0.0055331972
 30
0.0
 40
0.125
 41
0.0
 71
     2
 72
     1
  1
NOT FOR MANUFACTURING PURPOSES
  7
SLDTEXTSTYLE0
 73
     1
 44
1.0
  0
ENDBLK
  5
8D
330
8B
100
AcDbEntity
  8
0
100
AcDbBlockEnd
  0
BLOCK
  5
93
330
92
100
AcDbEntity
  8
0
100
AcDbBlockBegin
  2
SW_NOTE_3
 70
     0
 10
0.0
 20
0.0
 30
0.0
  3
SW_NOTE_3
  1

  0
MTEXT
  5
95
330
92
100
AcDbEntity
  8
0
  6
Continuous
 62
     0
370
     0
100
AcDbMText
 10
0.6731770833
 20
0.1477056785
 30
0.0
 40
0.1145833333
 41
0.0
 71
     2
 72
     1
  1
METRIC UNIVERSAL
  7
SLDTEXTSTYLE0
 73
     1
 44
1.0
  0
MTEXT
  5
96
330
92
100
AcDbEntity
  8
0
  6
Continuous
 62
     0
370
     0
100
AcDbMText
 10
0.6786276985
 20
-0.0050720974
 30
0.0
 40
0.1145833333
 41
0.0
 71
     2
 72
     1
  1
POST HOLDER 4"
  7
SLDTEXTSTYLE0
 73
     1
 44
1.0
  0
ENDBLK
  5
94
330
92
100
AcDbEntity
  8
0
100
AcDbBlockEnd
  0
BLOCK
  5
99
330
98
100
AcDbEntity
  8
0
100
AcDbBlockBegin
  2
SW_BROKEN_VIEW_0
 70
     0
 10
0.0
 20
0.0
 30
0.0
  3
SW_BROKEN_VIEW_0
  1

  0
ENDBLK
  5
9A
330
98
100
AcDbEntity
  8
0
100
AcDbBlockEnd
  0
BLOCK
  5
CD
330
CC
100
AcDbEntity
  8
0
100
AcDbBlockBegin
  2
*D7
 70
     1
 10
0.0
 20
0.0
 30
0.0
  3
*D7
  1

  0
SOLID
  5
CF
330
CC
100
AcDbEntity
  8
0
  6
Continuous
 62
     7
370
     0
100
AcDbTrace
 10
6.337976498
 20
3.3926437985
 30
0.0
 11
6.317976498
 21
3.2676437985
 31
0.0
 12
6.357976498
 22
3.2676437985
 32
0.0
 13
6.357976498
 23
3.2676437985
 33
0.0
  0
SOLID
  5
D0
330
CC
100
AcDbEntity
  8
0
  6
Continuous
 62
     7
370
     0
100
AcDbTrace
 10
6.337976498
 20
3.8226437985
 30
0.0
 11
6.357976498
 21
3.9476437985
 31
0.0
 12
6.317976498
 22
3.9476437985
 32
0.0
 13
6.317976498
 23
3.9476437985
 33
0.0
  0
LINE
  5
D1
330
CC
100
AcDbEntity
  8
0
  6
Continuous
 62
     7
370
     0
100
AcDbLine
 10
5.9942757106
 20
3.3926437985
 30
0.0
 11
6.407976498
 21
3.3926437985
 31
0.0
  0
LINE
  5
D2
330
CC
100
AcDbEntity
  8
0
  6
Continuous
 62
     7
370
     0
100
AcDbLine
 10
5.9942757106
 20
3.8226437985
 30
0.0
 11
6.407976498
 21
3.8226437985
 31
0.0
  0
LINE
  5
D3
330
CC
100
AcDbEntity
  8
0
  6
Continuous
 62
     7
370
     0
100
AcDbLine
 10
6.337976498
 20
3.3926437985
 30
0.0
 11
6.337976498
 21
3.1426437985
 31
0.0
  0
LINE
  5
D4
330
CC
100
AcDbEntity
  8
0
  6
Continuous
 62
     7
370
     0
100
AcDbLine
 10
6.337976498
 20
3.8226437985
 30
0.0
 11
6.337976498
 21
4.0726437985
 31
0.0
  0
MTEXT
  5
D5
330
CC
100
AcDbEntity
  8
0
  6
Continuous
 62
     7
370
     0
100
AcDbMText
 10
6.1720854451
 20
3.5827784152
 30
0.0
 40
0.0833333333
 41
0.0
 71
     1
 72
     1
  1
(
  7
SLDTEXTSTYLE0
 73
     1
 44
1.0
  0
MTEXT
  5
D6
330
CC
100
AcDbEntity
  8
0
  6
Continuous
 62
     7
370
     0
100
AcDbMText
 10
6.2131289683
 20
3.5827784152
 30
0.0
 40
0.0833333333
 41
0.0
 71
     1
 72
     1
  1
0.43
  7
SLDTEXTSTYLE0
 73
     1
 44
1.0
  0
MTEXT
  5
D7
330
CC
100
AcDbEntity
  8
0
  6
Continuous
 62
     7
370
     0
100
AcDbMText
 10
6.4284848251
 20
3.5827784152
 30
0.0
 40
0.0833333333
 41
0.0
 71
     1
 72
     1
  1
")
  7
SLDTEXTSTYLE0
 73
     1
 44
1.0
  0
MTEXT
  5
D8
330
CC
100
AcDbEntity
  8
0
  6
Continuous
 62
     7
370
     0
100
AcDbMText
 10
6.1263904404
 20
3.7150661055
 30
0.0
 40
0.0833333333
 41
0.0
 71
     1
 72
     1
  1
10.9 mm
  7
SLDTEXTSTYLE0
 73
     1
 44
1.0
  0
ENDBLK
  5
CE
330
CC
100
AcDbEntity
  8
0
100
AcDbBlockEnd
  0
BLOCK
  5
DC
330
DB
100
AcDbEntity
  8
0
100
AcDbBlockBegin
  2
*D8
 70
     1
 10
0.0
 20
0.0
 30
0.0
  3
*D8
  1

  0
SOLID
  5
DE
330
DB
100
AcDbEntity
  8
0
  6
Continuous
 62
     7
370
     0
100
AcDbTrace
 10
6.8104174429
 20
3.3926437985
 30
0.0
 11
6.8304174429
 21
3.5176437985
 31
0.0
 12
6.7904174429
 22
3.5176437985
 32
0.0
 13
6.7904174429
 23
3.5176437985
 33
0.0
  0
SOLID
  5
DF
330
DB
100
AcDbEntity
  8
0
  6
Continuous
 62
     7
370
     0
100
AcDbTrace
 10
6.8104174429
 20
5.4483405356
 30
0.0
 11
6.7904174429
 21
5.3233405356
 31
0.0
 12
6.8304174429
 22
5.3233405356
 32
0.0
 13
6.8304174429
 23
5.3233405356
 33
0.0
  0
LINE
  5
E0
330
DB
100
AcDbEntity
  8
0
  6
Continuous
 62
     7
370
     0
100
AcDbLine
 10
5.9942757106
 20
3.3926437985
 30
0.0
 11
6.8804174429
 21
3.3926437985
 31
0.0
  0
LINE
  5
E1
330
DB
100
AcDbEntity
  8
0
  6
Continuous
 62
     7
370
     0
100
AcDbLine
 10
4.4311692332
 20
5.4483405356
 30
0.0
 11
6.8804174429
 21
5.4483405356
 31
0.0
  0
LINE
  5
E2
330
DB
100
AcDbEntity
  8
0
  6
Continuous
 62
     7
370
     0
100
AcDbLine
 10
6.8104174429
 20
3.3926437985
 30
0.0
 11
6.8104174429
 21
3.5774863182
 31
0.0
  0
LINE
  5
E3
330
DB
100
AcDbEntity
  8
0
  6
Continuous
 62
     7
370
     0
100
AcDbLine
 10
6.8104174429
 20
5.4483405356
 30
0.0
 11
6.8104174429
 21
4.5527798573
 31
0.0
  0
LINE
  5
E4
330
DB
100
AcDbEntity
  8
0
  6
Continuous
 62
     7
370
     0
100
AcDbLine
 10
6.8104174429
 20
3.5774863182
 30
0.0
 11
6.7548618874
 21
3.6052640959
 31
0.0
  0
LINE
  5
E5
330
DB
100
AcDbEntity
  8
0
  6
Continuous
 62
     7
370
     0
100
AcDbLine
 10
6.7548618874
 20
3.6052640959
 30
0.0
 11
6.8659729985
 21
3.6608196515
 31
0.0
  0
LINE
  5
E6
330
DB
100
AcDbEntity
  8
0
  6
Continuous
 62
     7
370
     0
100
AcDbLine
 10
6.8659729985
 20
3.6608196515
 30
0.0
 11
6.8104174429
 21
3.6885974293
 31
0.0
  0
LINE
  5
E7
330
DB
100
AcDbEntity
  8
0
  6
Continuous
 62
     7
370
     0
100
AcDbLine
 10
6.8104174429
 20
3.6885974293
 30
0.0
 11
6.8104174429
 21
4.2882044768
 31
0.0
  0
MTEXT
  5
E8
330
DB
100
AcDbEntity
  8
0
  6
Continuous
 62
     7
370
     0
100
AcDbMText
 10
6.64452639
 20
4.3956267838
 30
0.0
 40
0.0833333333
 41
0.0
 71
     1
 72
     1
  1
(
  7
SLDTEXTSTYLE0
 73
     1
 44
1.0
  0
MTEXT
  5
E9
330
DB
100
AcDbEntity
  8
0
  6
Continuous
 62
     7
370
     0
100
AcDbMText
 10
6.6855699132
 20
4.3956267838
 30
0.0
 40
0.0833333333
 41
0.0
 71
     1
 72
     1
  1
4.00
  7
SLDTEXTSTYLE0
 73
     1
 44
1.0
  0
MTEXT
  5
EA
330
DB
100
AcDbEntity
  8
0
  6
Continuous
 62
     7
370
     0
100
AcDbMText
 10
6.90092577
 20
4.3956267838
 30
0.0
 40
0.0833333333
 41
0.0
 71
     1
 72
     1
  1
")
  7
SLDTEXTSTYLE0
 73
     1
 44
1.0
  0
MTEXT
  5
EB
330
DB
100
AcDbEntity
  8
0
  6
Continuous
 62
     7
370
     0
100
AcDbMText
 10
6.5680896229
 20
4.5279144741
 30
0.0
 40
0.0833333333
 41
0.0
 71
     1
 72
     1
  1
101.7 mm
  7
SLDTEXTSTYLE0
 73
     1
 44
1.0
  0
ENDBLK
  5
DD
330
DB
100
AcDbEntity
  8
0
100
AcDbBlockEnd
  0
BLOCK
  5
EF
330
EE
100
AcDbEntity
  8
0
100
AcDbBlockBegin
  2
*D9
 70
     1
 10
0.0
 20
0.0
 30
0.0
  3
*D9
  1

  0
SOLID
  5
F1
330
EE
100
AcDbEntity
  8
0
  6
Continuous
 62
     7
370
     0
100
AcDbTrace
 10
3.4837717736
 20
3.0009430111
 30
0.0
 11
3.6087717736
 21
2.9809430111
 31
0.0
 12
3.6087717736
 22
3.0209430111
 32
0.0
 13
3.6087717736
 23
3.0209430111
 33
0.0
  0
SOLID
  5
F2
330
EE
100
AcDbEntity
  8
0
  6
Continuous
 62
     7
370
     0
100
AcDbTrace
 10
5.9442757106
 20
3.0009430111
 30
0.0
 11
5.8192757106
 21
3.0209430111
 31
0.0
 12
5.8192757106
 22
2.9809430111
 32
0.0
 13
5.8192757106
 23
2.9809430111
 33
0.0
  0
LINE
  5
F3
330
EE
100
AcDbEntity
  8
0
  6
Continuous
 62
     7
370
     0
100
AcDbLine
 10
3.4837717736
 20
3.8016437985
 30
0.0
 11
3.4837717736
 21
2.9309430111
 31
0.0
  0
LINE
  5
F4
330
EE
100
AcDbEntity
  8
0
  6
Continuous
 62
     7
370
     0
100
AcDbLine
 10
5.9442757106
 20
3.3426437985
 30
0.0
 11
5.9442757106
 21
2.9309430111
 31
0.0
  0
LINE
  5
F5
330
EE
100
AcDbEntity
  8
0
  6
Continuous
 62
     7
370
     0
100
AcDbLine
 10
3.4837717736
 20
3.0009430111
 30
0.0
 11
4.4396835656
 21
3.0009430111
 31
0.0
  0
LINE
  5
F6
330
EE
100
AcDbEntity
  8
0
  6
Continuous
 62
     7
370
     0
100
AcDbLine
 10
5.9442757106
 20
3.0009430111
 30
0.0
 11
4.9883639186
 21
3.0009430111
 31
0.0
  0
MTEXT
  5
F7
330
EE
100
AcDbEntity
  8
0
  6
Continuous
 62
     7
370
     0
100
AcDbMText
 10
4.5481326892
 20
2.9760776278
 30
0.0
 40
0.0833333333
 41
0.0
 71
     1
 72
     1
  1
(
  7
SLDTEXTSTYLE0
 73
     1
 44
1.0
  0
MTEXT
  5
F8
330
EE
100
AcDbEntity
  8
0
  6
Continuous
 62
     7
370
     0
100
AcDbMText
 10
4.5891762124
 20
2.9760776278
 30
0.0
 40
0.0833333333
 41
0.0
 71
     1
 72
     1
  1
2.46
  7
SLDTEXTSTYLE0
 73
     1
 44
1.0
  0
MTEXT
  5
F9
330
EE
100
AcDbEntity
  8
0
  6
Continuous
 62
     7
370
     0
100
AcDbMText
 10
4.8045320692
 20
2.9760776278
 30
0.0
 40
0.0833333333
 41
0.0
 71
     1
 72
     1
  1
")
  7
SLDTEXTSTYLE0
 73
     1
 44
1.0
  0
MTEXT
  5
FA
330
EE
100
AcDbEntity
  8
0
  6
Continuous
 62
     7
370
     0
100
AcDbMText
 10
4.5178085656
 20
3.1083653181
 30
0.0
 40
0.0833333333
 41
0.0
 71
     1
 72
     1
  1
62.5mm
  7
SLDTEXTSTYLE0
 73
     1
 44
1.0
  0
ENDBLK
  5
F0
330
EE
100
AcDbEntity
  8
0
100
AcDbBlockEnd
  0
BLOCK
  5
12F
330
12E
100
AcDbEntity
  8
0
100
AcDbBlockBegin
  2
*D10
 70
     1
 10
0.0
 20
0.0
 30
0.0
  3
*D10
  1

  0
SOLID
  5
131
330
12E
100
AcDbEntity
  8
0
  6
Continuous
 62
     7
370
     0
100
AcDbTrace
 10
5.9442757106
 20
7.5624403714
 30
0.0
 11
5.8192757106
 21
7.5824403714
 31
0.0
 12
5.8192757106
 22
7.5424403714
 32
0.0
 13
5.8192757106
 23
7.5424403714
 33
0.0
  0
SOLID
  5
132
330
12E
100
AcDbEntity
  8
0
  6
Continuous
 62
     7
370
     0
100
AcDbTrace
 10
4.7257717736
 20
7.5624403714
 30
0.0
 11
4.8507717736
 21
7.5424403714
 31
0.0
 12
4.8507717736
 22
7.5824403714
 32
0.0
 13
4.8507717736
 23
7.5824403714
 33
0.0
  0
LINE
  5
133
330
12E
100
AcDbEntity
  8
0
  6
Continuous
 62
     7
370
     0
100
AcDbLine
 10
5.9442757106
 20
7.215739584
 30
0.0
 11
5.9442757106
 21
7.6324403714
 31
0.0
  0
LINE
  5
134
330
12E
100
AcDbEntity
  8
0
  6
Continuous
 62
     7
370
     0
100
AcDbLine
 10
4.7257717736
 20
6.773739584
 30
0.0
 11
4.7257717736
 21
7.6324403714
 31
0.0
  0
LINE
  5
135
330
12E
100
AcDbEntity
  8
0
  6
Continuous
 62
     7
370
     0
100
AcDbLine
 10
5.9442757106
 20
7.5624403714
 30
0.0
 11
5.6247347998
 21
7.5624403714
 31
0.0
  0
LINE
  5
136
330
12E
100
AcDbEntity
  8
0
  6
Continuous
 62
     7
370
     0
100
AcDbLine
 10
4.7257717736
 20
7.5624403714
 30
0.0
 11
5.0453126845
 21
7.5624403714
 31
0.0
  0
MTEXT
  5
137
330
12E
100
AcDbEntity
  8
0
  6
Continuous
 62
     7
370
     0
100
AcDbMText
 10
5.1691326892
 20
7.5375749882
 30
0.0
 40
0.0833333333
 41
0.0
 71
     1
 72
     1
  1
(
  7
SLDTEXTSTYLE0
 73
     1
 44
1.0
  0
MTEXT
  5
138
330
12E
100
AcDbEntity
  8
0
  6
Continuous
 62
     7
370
     0
100
AcDbMText
 10
5.2101762124
 20
7.5375749882
 30
0.0
 40
0.0833333333
 41
0.0
 71
     1
 72
     1
  1
1.22
  7
SLDTEXTSTYLE0
 73
     1
 44
1.0
  0
MTEXT
  5
139
330
12E
100
AcDbEntity
  8
0
  6
Continuous
 62
     7
370
     0
100
AcDbMText
 10
5.4255320692
 20
7.5375749882
 30
0.0
 40
0.0833333333
 41
0.0
 71
     1
 72
     1
  1
")
  7
SLDTEXTSTYLE0
 73
     1
 44
1.0
  0
MTEXT
  5
13A
330
12E
100
AcDbEntity
  8
0
  6
Continuous
 62
     7
370
     0
100
AcDbMText
 10
5.1234376845
 20
7.6698626784
 30
0.0
 40
0.0833333333
 41
0.0
 71
     1
 72
     1
  1
31.0 mm
  7
SLDTEXTSTYLE0
 73
     1
 44
1.0
  0
ENDBLK
  5
130
330
12E
100
AcDbEntity
  8
0
100
AcDbBlockEnd
  0
BLOCK
  5
13E
330
13D
100
AcDbEntity
  8
0
100
AcDbBlockBegin
  2
*D11
 70
     1
 10
0.0
 20
0.0
 30
0.0
  3
*D11
  1

  0
SOLID
  5
140
330
13D
100
AcDbEntity
  8
0
  6
Continuous
 62
     7
370
     0
100
AcDbTrace
 10
4.6320803279
 20
6.7674314353
 30
0.0
 11
4.5578343379
 21
6.8699620793
 31
0.0
 12
4.5295500054
 22
6.8416778693
 32
0.0
 13
4.5295500054
 23
6.8416778693
 33
0.0
  0
LINE
  5
141
330
13D
100
AcDbEntity
  8
0
  6
Continuous
 62
     7
370
     0
100
AcDbLine
 10
4.6320803279
 20
6.7674314353
 30
0.0
 11
3.5571832794
 21
7.8423331379
 31
0.0
  0
LINE
  5
142
330
13D
100
AcDbEntity
  8
0
  6
Continuous
 62
     7
370
     0
100
AcDbLine
 10
3.5571832794
 20
7.8423331379
 30
0.0
 11
3.4071832794
 21
7.8423331379
 31
0.0
  0
MTEXT
  5
143
330
13D
100
AcDbEntity
  8
0
  6
Continuous
 62
     7
370
     0
100
AcDbMText
 10
1.270268398
 20
7.7513239096
 30
0.0
 40
0.0833333333
 41
0.0
 71
     1
 72
     1
  1
FOR USE WITH M6 (1/4"-20) CAP SCREW
  7
SLDTEXTSTYLE0
 73
     1
 44
1.0
  0
MTEXT
  5
144
330
13D
100
AcDbEntity
  8
0
  6
Continuous
 62
     7
370
     0
100
AcDbMText
 10
2.3980659258
 20
7.8836115998
 30
0.0
 40
0.0833333333
 41
0.0
 71
     1
 72
     1
  1
CLEARANCE SLOT
  7
SLDTEXTSTYLE0
 73
     1
 44
1.0
  0
ENDBLK
  5
13F
330
13D
100
AcDbEntity
  8
0
100
AcDbBlockEnd
  0
BLOCK
  5
147
330
146
100
AcDbEntity
  8
0
100
AcDbBlockBegin
  2
*D12
 70
     1
 10
0.0
 20
0.0
 30
0.0
  3
*D12
  1

  0
SOLID
  5
149
330
146
100
AcDbEntity
  8
0
  6
Continuous
 62
     7
370
     0
100
AcDbTrace
 10
6.5741969705
 20
7.165739584
 30
0.0
 11
6.5541969705
 21
7.040739584
 31
0.0
 12
6.5941969705
 22
7.040739584
 32
0.0
 13
6.5941969705
 23
7.040739584
 33
0.0
  0
SOLID
  5
14A
330
146
100
AcDbEntity
  8
0
  6
Continuous
 62
     7
370
     0
100
AcDbTrace
 10
6.5741969705
 20
6.181739584
 30
0.0
 11
6.5941969705
 21
6.306739584
 31
0.0
 12
6.5541969705
 22
6.306739584
 32
0.0
 13
6.5541969705
 23
6.306739584
 33
0.0
  0
LINE
  5
14B
330
146
100
AcDbEntity
  8
0
  6
Continuous
 62
     7
370
     0
100
AcDbLine
 10
5.9942757106
 20
7.165739584
 30
0.0
 11
6.6441969705
 21
7.165739584
 31
0.0
  0
LINE
  5
14C
330
146
100
AcDbEntity
  8
0
  6
Continuous
 62
     7
370
     0
100
AcDbLine
 10
5.9942757106
 20
6.181739584
 30
0.0
 11
6.6441969705
 21
6.181739584
 31
0.0
  0
LINE
  5
14D
330
146
100
AcDbEntity
  8
0
  6
Continuous
 62
     7
370
     0
100
AcDbLine
 10
6.5741969705
 20
7.165739584
 30
0.0
 11
6.5741969705
 21
6.8060272743
 31
0.0
  0
LINE
  5
14E
330
146
100
AcDbEntity
  8
0
  6
Continuous
 62
     7
370
     0
100
AcDbLine
 10
6.5741969705
 20
6.181739584
 30
0.0
 11
6.5741969705
 21
6.5414518937
 31
0.0
  0
MTEXT
  5
14F
330
146
100
AcDbEntity
  8
0
  6
Continuous
 62
     7
370
     0
100
AcDbMText
 10
6.4083059176
 20
6.6488742008
 30
0.0
 40
0.0833333333
 41
0.0
 71
     1
 72
     1
  1
(
  7
SLDTEXTSTYLE0
 73
     1
 44
1.0
  0
MTEXT
  5
150
330
146
100
AcDbEntity
  8
0
  6
Continuous
 62
     7
370
     0
100
AcDbMText
 10
6.4493494408
 20
6.6488742008
 30
0.0
 40
0.0833333333
 41
0.0
 71
     1
 72
     1
  1
0.98
  7
SLDTEXTSTYLE0
 73
     1
 44
1.0
  0
MTEXT
  5
151
330
146
100
AcDbEntity
  8
0
  6
Continuous
 62
     7
370
     0
100
AcDbMText
 10
6.6647052975
 20
6.6488742008
 30
0.0
 40
0.0833333333
 41
0.0
 71
     1
 72
     1
  1
")
  7
SLDTEXTSTYLE0
 73
     1
 44
1.0
  0
MTEXT
  5
152
330
146
100
AcDbEntity
  8
0
  6
Continuous
 62
     7
370
     0
100
AcDbMText
 10
6.3626109128
 20
6.781161891
 30
0.0
 40
0.0833333333
 41
0.0
 71
     1
 72
     1
  1
25.0 mm
  7
SLDTEXTSTYLE0
 73
     1
 44
1.0
  0
ENDBLK
  5
148
330
146
100
AcDbEntity
  8
0
100
AcDbBlockEnd
  0
BLOCK
  5
156
330
155
100
AcDbEntity
  8
0
100
AcDbBlockBegin
  2
*D13
 70
     1
 10
0.0
 20
0.0
 30
0.0
  3
*D13
  1

  0
SOLID
  5
158
330
155
100
AcDbEntity
  8
0
  6
Continuous
 62
     7
370
     0
100
AcDbTrace
 10
3.6155218125
 20
6.3386515874
 30
0.0
 11
3.5103734282
 21
6.2681617492
 31
0.0
 12
3.5376163547
 22
6.2388731345
 32
0.0
 13
3.5376163547
 23
6.2388731345
 33
0.0
  0
LINE
  5
159
330
155
100
AcDbEntity
  8
0
  6
Continuous
 62
     7
370
     0
100
AcDbLine
 10
3.6155218125
 20
6.3386515874
 30
0.0
 11
3.388289158
 21
6.1272901907
 31
0.0
  0
LINE
  5
15A
330
155
100
AcDbEntity
  8
0
  6
Continuous
 62
     7
370
     0
100
AcDbLine
 10
3.388289158
 20
6.1272901907
 30
0.0
 11
3.238289158
 21
6.1272901907
 31
0.0
  0
MTEXT
  5
15B
330
155
100
AcDbEntity
  8
0
  6
Continuous
 62
     7
370
     0
100
AcDbMText
 10
2.7182601624
 20
6.0362809623
 30
0.0
 40
0.0833333333
 41
0.0
 71
     1
 72
     1
  1
(
  7
SLDTEXTSTYLE0
 73
     1
 44
1.0
  0
MTEXT
  5
15C
330
155
100
AcDbEntity
  8
0
  6
Continuous
 62
     7
370
     0
100
AcDbMText
 10
2.7593095432
 20
6.0362809623
 30
0.0
 40
0.0833333333
 41
0.0
 71
     1
 72
     1
  1
%%c
  7
SLDTEXTSTYLE0
 73
     1
 44
1.0
  0
MTEXT
  5
15D
330
155
100
AcDbEntity
  8
0
  6
Continuous
 62
     7
370
     0
100
AcDbMText
 10
2.8850505754
 20
6.0362809623
 30
0.0
 40
0.0833333333
 41
0.0
 71
     1
 72
     1
  1
0.98
  7
SLDTEXTSTYLE0
 73
     1
 44
1.0
  0
MTEXT
  5
15E
330
155
100
AcDbEntity
  8
0
  6
Continuous
 62
     7
370
     0
100
AcDbMText
 10
3.1004064321
 20
6.0362809623
 30
0.0
 40
0.0833333333
 41
0.0
 71
     1
 72
     1
  1
")
  7
SLDTEXTSTYLE0
 73
     1
 44
1.0
  0
MTEXT
  5
15F
330
155
100
AcDbEntity
  8
0
  6
Continuous
 62
     7
370
     0
100
AcDbMText
 10
2.5956201529
 20
6.1685686526
 30
0.0
 40
0.0833333333
 41
0.0
 71
     1
 72
     1
  1
%%c
  7
SLDTEXTSTYLE0
 73
     1
 44
1.0
  0
MTEXT
  5
160
330
155
100
AcDbEntity
  8
0
  6
Continuous
 62
     7
370
     0
100
AcDbMText
 10
2.7214071923
 20
6.1685686526
 30
0.0
 40
0.0833333333
 41
0.0
 71
     1
 72
     1
  1
25.0 mm
  7
SLDTEXTSTYLE0
 73
     1
 44
1.0
  0
ENDBLK
  5
157
330
155
100
AcDbEntity
  8
0
100
AcDbBlockEnd
  0
BLOCK
  5
164
330
163
100
AcDbEntity
  8
0
100
AcDbBlockBegin
  2
*D14
 70
     1
 10
0.0
 20
0.0
 30
0.0
  3
*D14
  1

  0
SOLID
  5
166
330
163
100
AcDbEntity
  8
0
  6
Continuous
 62
     7
370
     0
100
AcDbTrace
 10
3.7979401958
 20
6.8515827169
 30
0.0
 11
3.7236973147
 21
6.9541156122
 31
0.0
 12
3.6954121246
 22
6.9258322598
 32
0.0
 13
3.6954121246
 23
6.9258322598
 33
0.0
  0
LINE
  5
167
330
163
100
AcDbEntity
  8
0
  6
Continuous
 62
     7
370
     0
100
AcDbLine
 10
3.7979401958
 20
6.8515827169
 30
0.0
 11
3.2640961967
 21
7.3854614036
 31
0.0
  0
LINE
  5
168
330
163
100
AcDbEntity
  8
0
  6
Continuous
 62
     7
370
     0
100
AcDbLine
 10
3.2640961967
 20
7.3854614036
 30
0.0
 11
3.1140961967
 21
7.3854614036
 31
0.0
  0
MTEXT
  5
169
330
163
100
AcDbEntity
  8
0
  6
Continuous
 62
     7
370
     0
100
AcDbMText
 10
1.6889839307
 20
7.4267398656
 30
0.0
 40
0.0833333333
 41
0.0
 71
     1
 72
     1
  1
%%c
  7
SLDTEXTSTYLE0
 73
     1
 44
1.0
  0
MTEXT
  5
16A
330
163
100
AcDbEntity
  8
0
  6
Continuous
 62
     7
370
     0
100
AcDbMText
 10
1.8147709701
 20
7.4267398656
 30
0.0
 40
0.0833333333
 41
0.0
 71
     1
 72
     1
  1
12.8 mm (
  7
SLDTEXTSTYLE1
 73
     1
 44
1.0
  0
MTEXT
  5
16B
330
163
100
AcDbEntity
  8
0
  6
Continuous
 62
     7
370
     0
100
AcDbMText
 10
2.3410055785
 20
7.4267398656
 30
0.0
 40
0.0833333333
 41
0.0
 71
     1
 72
     1
  1
%%c
  7
SLDTEXTSTYLE0
 73
     1
 44
1.0
  0
MTEXT
  5
16C
330
163
100
AcDbEntity
  8
0
  6
Continuous
 62
     7
370
     0
100
AcDbMText
 10
2.4666851112
 20
7.4267398656
 30
0.0
 40
0.0833333333
 41
0.0
 71
     1
 72
     1
  1
0.50
  7
SLDTEXTSTYLE0
 73
     1
 44
1.0
  0
MTEXT
  5
16D
330
163
100
AcDbEntity
  8
0
  6
Continuous
 62
     7
370
     0
100
AcDbMText
 10
2.6820409679
 20
7.4267398656
 30
0.0
 40
0.0833333333
 41
0.0
 71
     1
 72
     1
  1
") THRU
  7
SLDTEXTSTYLE0
 73
     1
 44
1.0
  0
MTEXT
  5
16E
330
163
100
AcDbEntity
  8
0
  6
Continuous
 62
     7
370
     0
100
AcDbMText
 10
1.4796783144
 20
7.2944521753
 30
0.0
 40
0.0833333333
 41
0.0
 71
     1
 72
     1
  1
FOR USE WITH TR SERIES POSTS
  7
SLDTEXTSTYLE0
 73
     1
 44
1.0
  0
ENDBLK
  5
165
330
163
100
AcDbEntity
  8
0
100
AcDbBlockEnd
  0
BLOCK
  5
170
330
16F
100
AcDbEntity
  8
0
100
AcDbBlockBegin
  2
SW_CENTERMARKSYMBOL_0
 70
     0
 10
0.0
 20
0.0
 30
0.0
  3
SW_CENTERMARKSYMBOL_0
  1

  0
LINE
  5
172
330
16F
100
AcDbEntity
  8
0
  6
Continuous
 62
     0
370
     0
100
AcDbLine
 10
0.0
 20
0.0
 30
0.0
 11
0.0
 21
0.05
 31
0.0
  0
LINE
  5
173
330
16F
100
AcDbEntity
  8
0
  6
Continuous
 62
     0
370
     0
100
AcDbLine
 10
0.0
 20
0.0
 30
0.0
 11
-0.05
 21
0.0
 31
0.0
  0
LINE
  5
174
330
16F
100
AcDbEntity
  8
0
  6
Continuous
 62
     0
370
     0
100
AcDbLine
 10
0.0
 20
0.0
 30
0.0
 11
0.0
 21
-0.05
 31
0.0
  0
LINE
  5
175
330
16F
100
AcDbEntity
  8
0
  6
Continuous
 62
     0
370
     0
100
AcDbLine
 10
0.0
 20
0.0
 30
0.0
 11
0.05
 21
0.0
 31
0.0
  0
ENDBLK
  5
171
330
16F
100
AcDbEntity
  8
0
100
AcDbBlockEnd
  0
BLOCK
  5
178
330
177
100
AcDbEntity
  8
0
100
AcDbBlockBegin
  2
SW_CENTERMARKSYMBOL_1
 70
     0
 10
0.0
 20
0.0
 30
0.0
  3
SW_CENTERMARKSYMBOL_1
  1

  0
LINE
  5
17A
330
177
100
AcDbEntity
  8
0
  6
Continuous
 62
     0
370
     0
100
AcDbLine
 10
0.0
 20
0.0
 30
0.0
 11
0.0
 21
0.05
 31
0.0
  0
LINE
  5
17B
330
177
100
AcDbEntity
  8
0
  6
Continuous
 62
     0
370
     0
100
AcDbLine
 10
0.0
 20
0.0
 30
0.0
 11
-0.05
 21
0.0
 31
0.0
  0
LINE
  5
17C
330
177
100
AcDbEntity
  8
0
  6
Continuous
 62
     0
370
     0
100
AcDbLine
 10
0.0
 20
0.0
 30
0.0
 11
0.0
 21
-0.05
 31
0.0
  0
LINE
  5
17D
330
177
100
AcDbEntity
  8
0
  6
Continuous
 62
     0
370
     0
100
AcDbLine
 10
0.0
 20
0.0
 30
0.0
 11
0.05
 21
0.0
 31
0.0
  0
ENDBLK
  5
179
330
177
100
AcDbEntity
  8
0
100
AcDbBlockEnd
  0
BLOCK
  5
1B6
330
1B5
100
AcDbEntity
  8
0
100
AcDbBlockBegin
  2
*D17
 70
     1
 10
0.0
 20
0.0
 30
0.0
  3
*D17
  1

  0
SOLID
  5
1B8
330
1B5
100
AcDbEntity
  8
0
  6
Continuous
 62
     7
370
     0
100
AcDbTrace
 10
5.9442757106
 20
0.8544605754
 30
0.0
 11
5.8192757106
 21
0.8744605754
 31
0.0
 12
5.8192757106
 22
0.8344605754
 32
0.0
 13
5.8192757106
 23
0.8344605754
 33
0.0
  0
SOLID
  5
1B9
330
1B5
100
AcDbEntity
  8
0
  6
Continuous
 62
     7
370
     0
100
AcDbTrace
 10
3.9757717736
 20
0.8544605754
 30
0.0
 11
4.1007717736
 21
0.8344605754
 31
0.0
 12
4.1007717736
 22
0.8744605754
 32
0.0
 13
4.1007717736
 23
0.8744605754
 33
0.0
  0
LINE
  5
1BA
330
1B5
100
AcDbEntity
  8
0
  6
Continuous
 62
     7
370
     0
100
AcDbLine
 10
5.9442757106
 20
1.1981613628
 30
0.0
 11
5.9442757106
 21
0.7844605754
 31
0.0
  0
LINE
  5
1BB
330
1B5
100
AcDbEntity
  8
0
  6
Continuous
 62
     7
370
     0
100
AcDbLine
 10
3.9757717736
 20
1.6401613628
 30
0.0
 11
3.9757717736
 21
0.7844605754
 31
0.0
  0
LINE
  5
1BC
330
1B5
100
AcDbEntity
  8
0
  6
Continuous
 62
     7
370
     0
100
AcDbLine
 10
5.9442757106
 20
0.8544605754
 30
0.0
 11
5.2497347998
 21
0.8544605754
 31
0.0
  0
LINE
  5
1BD
330
1B5
100
AcDbEntity
  8
0
  6
Continuous
 62
     7
370
     0
100
AcDbLine
 10
3.9757717736
 20
0.8544605754
 30
0.0
 11
4.6703126845
 21
0.8544605754
 31
0.0
  0
MTEXT
  5
1BE
330
1B5
100
AcDbEntity
  8
0
  6
Continuous
 62
     7
370
     0
100
AcDbMText
 10
4.7941326892
 20
0.8295951922
 30
0.0
 40
0.0833333333
 41
0.0
 71
     1
 72
     1
  1
(
  7
SLDTEXTSTYLE0
 73
     1
 44
1.0
  0
MTEXT
  5
1BF
330
1B5
100
AcDbEntity
  8
0
  6
Continuous
 62
     7
370
     0
100
AcDbMText
 10
4.8351762124
 20
0.8295951922
 30
0.0
 40
0.0833333333
 41
0.0
 71
     1
 72
     1
  1
1.97
  7
SLDTEXTSTYLE0
 73
     1
 44
1.0
  0
MTEXT
  5
1C0
330
1B5
100
AcDbEntity
  8
0
  6
Continuous
 62
     7
370
     0
100
AcDbMText
 10
5.0505320692
 20
0.8295951922
 30
0.0
 40
0.0833333333
 41
0.0
 71
     1
 72
     1
  1
")
  7
SLDTEXTSTYLE0
 73
     1
 44
1.0
  0
MTEXT
  5
1C1
330
1B5
100
AcDbEntity
  8
0
  6
Continuous
 62
     7
370
     0
100
AcDbMText
 10
4.7484376845
 20
0.9618828825
 30
0.0
 40
0.0833333333
 41
0.0
 71
     1
 72
     1
  1
50.0 mm
  7
SLDTEXTSTYLE0
 73
     1
 44
1.0
  0
ENDBLK
  5
1B7
330
1B5
100
AcDbEntity
  8
0
100
AcDbBlockEnd
  0
BLOCK
  5
1C4
330
1C3
100
AcDbEntity
  8
0
100
AcDbBlockBegin
  2
*D18
 70
     1
 10
0.0
 20
0.0
 30
0.0
  3
*D18
  1

  0
SOLID
  5
1C6
330
1C3
100
AcDbEntity
  8
0
  6
Continuous
 62
     7
370
     0
100
AcDbTrace
 10
2.6800709862
 20
2.0251613628
 30
0.0
 11
2.7000709862
 21
2.1501613628
 31
0.0
 12
2.6600709862
 22
2.1501613628
 32
0.0
 13
2.6600709862
 23
2.1501613628
 33
0.0
  0
SOLID
  5
1C7
330
1C3
100
AcDbEntity
  8
0
  6
Continuous
 62
     7
370
     0
100
AcDbTrace
 10
2.6800709862
 20
1.4551613628
 30
0.0
 11
2.6600709862
 21
1.3301613628
 31
0.0
 12
2.7000709862
 22
1.3301613628
 32
0.0
 13
2.7000709862
 23
1.3301613628
 33
0.0
  0
LINE
  5
1C8
330
1C3
100
AcDbEntity
  8
0
  6
Continuous
 62
     7
370
     0
100
AcDbLine
 10
3.0437717736
 20
2.0251613628
 30
0.0
 11
2.6100709862
 21
2.0251613628
 31
0.0
  0
LINE
  5
1C9
330
1C3
100
AcDbEntity
  8
0
  6
Continuous
 62
     7
370
     0
100
AcDbLine
 10
3.0437717736
 20
1.4551613628
 30
0.0
 11
2.6100709862
 21
1.4551613628
 31
0.0
  0
LINE
  5
1CA
330
1C3
100
AcDbEntity
  8
0
  6
Continuous
 62
     7
370
     0
100
AcDbLine
 10
2.6800709862
 20
2.0251613628
 30
0.0
 11
2.6800709862
 21
2.2751613628
 31
0.0
  0
LINE
  5
1CB
330
1C3
100
AcDbEntity
  8
0
  6
Continuous
 62
     7
370
     0
100
AcDbLine
 10
2.6800709862
 20
1.4551613628
 30
0.0
 11
2.6800709862
 21
1.2051613628
 31
0.0
  0
MTEXT
  5
1CC
330
1C3
100
AcDbEntity
  8
0
  6
Continuous
 62
     7
370
     0
100
AcDbMText
 10
2.4513064884
 20
1.7152959796
 30
0.0
 40
0.0833333333
 41
0.0
 71
     1
 72
     1
  1
(
  7
SLDTEXTSTYLE0
 73
     1
 44
1.0
  0
MTEXT
  5
1CD
330
1C3
100
AcDbEntity
  8
0
  6
Continuous
 62
     7
370
     0
100
AcDbMText
 10
2.4923558692
 20
1.7152959796
 30
0.0
 40
0.0833333333
 41
0.0
 71
     1
 72
     1
  1
%%c
  7
SLDTEXTSTYLE0
 73
     1
 44
1.0
  0
MTEXT
  5
1CE
330
1C3
100
AcDbEntity
  8
0
  6
Continuous
 62
     7
370
     0
100
AcDbMText
 10
2.6180969014
 20
1.7152959796
 30
0.0
 40
0.0833333333
 41
0.0
 71
     1
 72
     1
  1
0.57
  7
SLDTEXTSTYLE0
 73
     1
 44
1.0
  0
MTEXT
  5
1CF
330
1C3
100
AcDbEntity
  8
0
  6
Continuous
 62
     7
370
     0
100
AcDbMText
 10
2.8334527582
 20
1.7152959796
 30
0.0
 40
0.0833333333
 41
0.0
 71
     1
 72
     1
  1
")
  7
SLDTEXTSTYLE0
 73
     1
 44
1.0
  0
MTEXT
  5
1D0
330
1C3
100
AcDbEntity
  8
0
  6
Continuous
 62
     7
370
     0
100
AcDbMText
 10
2.4056114837
 20
1.8475836699
 30
0.0
 40
0.0833333333
 41
0.0
 71
     1
 72
     1
  1
%%c
  7
SLDTEXTSTYLE0
 73
     1
 44
1.0
  0
MTEXT
  5
1D1
330
1C3
100
AcDbEntity
  8
0
  6
Continuous
 62
     7
370
     0
100
AcDbMText
 10
2.5313985231
 20
1.8475836699
 30
0.0
 40
0.0833333333
 41
0.0
 71
     1
 72
     1
  1
14.5 mm
  7
SLDTEXTSTYLE0
 73
     1
 44
1.0
  0
ENDBLK
  5
1C5
330
1C3
100
AcDbEntity
  8
0
100
AcDbBlockEnd
  0
BLOCK
  5
1D4
330
1D3
100
AcDbEntity
  8
0
100
AcDbBlockBegin
  2
*D19
 70
     1
 10
0.0
 20
0.0
 30
0.0
  3
*D19
  1

  0
SOLID
  5
1D6
330
1D3
100
AcDbEntity
  8
0
  6
Continuous
 62
     7
370
     0
100
AcDbTrace
 10
3.0737717736
 20
2.5637100946
 30
0.0
 11
2.9487717736
 21
2.5837100946
 31
0.0
 12
2.9487717736
 22
2.5437100946
 32
0.0
 13
2.9487717736
 23
2.5437100946
 33
0.0
  0
SOLID
  5
1D7
330
1D3
100
AcDbEntity
  8
0
  6
Continuous
 62
     7
370
     0
100
AcDbTrace
 10
3.3837717736
 20
2.5637100946
 30
0.0
 11
3.5087717736
 21
2.5437100946
 31
0.0
 12
3.5087717736
 22
2.5837100946
 32
0.0
 13
3.5087717736
 23
2.5837100946
 33
0.0
  0
LINE
  5
1D8
330
1D3
100
AcDbEntity
  8
0
  6
Continuous
 62
     7
370
     0
100
AcDbLine
 10
3.0737717736
 20
2.0551613628
 30
0.0
 11
3.0737717736
 21
2.6337100946
 31
0.0
  0
LINE
  5
1D9
330
1D3
100
AcDbEntity
  8
0
  6
Continuous
 62
     7
370
     0
100
AcDbLine
 10
3.3837717736
 20
2.0551613628
 30
0.0
 11
3.3837717736
 21
2.6337100946
 31
0.0
  0
LINE
  5
1DA
330
1D3
100
AcDbEntity
  8
0
  6
Continuous
 62
     7
370
     0
100
AcDbLine
 10
3.0737717736
 20
2.5637100946
 30
0.0
 11
2.8237717736
 21
2.5637100946
 31
0.0
  0
LINE
  5
1DB
330
1D3
100
AcDbEntity
  8
0
  6
Continuous
 62
     7
370
     0
100
AcDbLine
 10
3.3837717736
 20
2.5637100946
 30
0.0
 11
3.6401943699
 21
2.5637100946
 31
0.0
  0
MTEXT
  5
1DC
330
1D3
100
AcDbEntity
  8
0
  6
Continuous
 62
     7
370
     0
100
AcDbMText
 10
3.7026943699
 20
2.4727008662
 30
0.0
 40
0.0833333333
 41
0.0
 71
     1
 72
     1
  1
(
  7
SLDTEXTSTYLE0
 73
     1
 44
1.0
  0
MTEXT
  5
1DD
330
1D3
100
AcDbEntity
  8
0
  6
Continuous
 62
     7
370
     0
100
AcDbMText
 10
3.743737893
 20
2.4727008662
 30
0.0
 40
0.0833333333
 41
0.0
 71
     1
 72
     1
  1
0.31
  7
SLDTEXTSTYLE0
 73
     1
 44
1.0
  0
MTEXT
  5
1DE
330
1D3
100
AcDbEntity
  8
0
  6
Continuous
 62
     7
370
     0
100
AcDbMText
 10
3.9590937498
 20
2.4727008662
 30
0.0
 40
0.0833333333
 41
0.0
 71
     1
 72
     1
  1
")
  7
SLDTEXTSTYLE0
 73
     1
 44
1.0
  0
MTEXT
  5
1DF
330
1D3
100
AcDbEntity
  8
0
  6
Continuous
 62
     7
370
     0
100
AcDbMText
 10
3.7026943699
 20
2.6049885565
 30
0.0
 40
0.0833333333
 41
0.0
 71
     1
 72
     1
  1
7.9 mm
  7
SLDTEXTSTYLE0
 73
     1
 44
1.0
  0
ENDBLK
  5
1D5
330
1D3
100
AcDbEntity
  8
0
100
AcDbBlockEnd
  0
BLOCK
  5
1E3
330
1E2
100
AcDbEntity
  8
0
100
AcDbBlockBegin
  2
*D20
 70
     1
 10
0.0
 20
0.0
 30
0.0
  3
*D20
  1

  0
SOLID
  5
1E5
330
1E2
100
AcDbEntity
  8
0
  6
Continuous
 62
     7
370
     0
100
AcDbTrace
 10
3.7211500598
 20
1.3346573287
 30
0.0
 11
3.6258633514
 21
1.2513180031
 31
0.0
 12
3.6566231638
 22
1.2257478264
 32
0.0
 13
3.6566231638
 23
1.2257478264
 33
0.0
  0
LINE
  5
1E6
330
1E2
100
AcDbEntity
  8
0
  6
Continuous
 62
     7
370
     0
100
AcDbLine
 10
3.7211500598
 20
1.3346573287
 30
0.0
 11
3.4261109838
 21
0.979738129
 31
0.0
  0
LINE
  5
1E7
330
1E2
100
AcDbEntity
  8
0
  6
Continuous
 62
     7
370
     0
100
AcDbLine
 10
3.4261109838
 20
0.979738129
 30
0.0
 11
3.2761109838
 21
0.979738129
 31
0.0
  0
MTEXT
  5
1E8
330
1E2
100
AcDbEntity
  8
0
  6
Continuous
 62
     7
370
     0
100
AcDbMText
 10
2.805586286
 20
1.0208968767
 30
0.7128425529
 40
0.0833333333
 41
0.0
 71
     1
 72
     1
  1
MAGNET
  7
SLDTEXTSTYLE0
 73
     1
 44
1.0
  0
MTEXT
  5
1E9
330
1E2
100
AcDbEntity
  8
0
  6
Continuous
 62
     7
370
     0
100
AcDbMText
 10
2.7791974075
 20
0.8884894721
 30
0.7128425529
 40
0.0833333333
 41
0.0
 71
     1
 72
     1
  1
3 PLACES
  7
SLDTEXTSTYLE0
 73
     1
 44
1.0
  0
ENDBLK
  5
1E4
330
1E2
100
AcDbEntity
  8
0
100
AcDbBlockEnd
  0
BLOCK
  5
1EB
330
1EA
100
AcDbEntity
  8
0
100
AcDbBlockBegin
  2
SW_NOTE_4
 70
     0
 10
0.0
 20
0.0
 30
0.0
  3
SW_NOTE_4
  1

  0
MTEXT
  5
1ED
330
1EA
100
AcDbEntity
  8
0
  6
Continuous
 62
     0
370
     0
100
AcDbMText
 10
0.0197364698
 20
0.0395563321
 30
0.0
 40
0.0833333333
 41
0.0
 71
     1
 72
     1
  1
CLAMPING BASE
  7
SLDTEXTSTYLE0
 73
     1
 44
1.0
  0
MTEXT
  5
1EE
330
1EA
100
AcDbEntity
  8
0
  6
Continuous
 62
     0
370
     0
100
AcDbMText
 10
0.0197364698
 20
-0.0715547777
 30
0.0
 40
0.0833333333
 41
0.0
 71
     1
 72
     1
  1
PROVIDES 360
  7
SLDTEXTSTYLE0
 73
     1
 44
1.0
  0
MTEXT
  5
1EF
330
1EA
100
AcDbEntity
  8
0
  6
Continuous
 62
     0
370
     0
100
AcDbMText
 10
0.7658784569
 20
-0.0715547777
 30
0.0
 40
0.0833333333
 41
0.0
 71
     1
 72
     1
  1
%%d
  7
SLDTEXTSTYLE0
 73
     1
 44
1.0
  0
MTEXT
  5
1F0
330
1EA
100
AcDbEntity
  8
0
  6
Continuous
 62
     0
370
     0
100
AcDbMText
 10
0.8500913784
 20
-0.0715547777
 30
0.0
 40
0.0833333333
 41
0.0
 71
     1
 72
     1
  1
ROTATION
  7
SLDTEXTSTYLE0
 73
     1
 44
1.0
  0
ENDBLK
  5
1EC
330
1EA
100
AcDbEntity
  8
0
100
AcDbBlockEnd
  0
BLOCK
  5
1F4
330
1F3
100
AcDbEntity
  8
0
100
AcDbBlockBegin
  2
_DOT
 70
     0
 10
0.0
 20
0.0
 30
0.0
  3
_DOT
  1

  0
POLYLINE
  5
1F6
330
1F3
100
AcDbEntity
  8
0
  6
ByBlock
 62
     0
100
AcDb2dPolyline
 66
     1
 10
0.0
 20
0.0
 30
0.0
 70
     1
 40
0.5
 41
0.5
  0
VERTEX
  5
1F8
330
1F6
100
AcDbEntity
  8
0
  6
ByBlock
 62
     0
100
AcDbVertex
100
AcDb2dVertex
 10
-0.25
 20
0.0
 30
0.0
 42
1.0
  0
VERTEX
  5
1F9
330
1F6
100
AcDbEntity
  8
0
  6
ByBlock
 62
     0
100
AcDbVertex
100
AcDb2dVertex
 10
0.25
 20
0.0
 30
0.0
 42
1.0
  0
SEQEND
  5
1FA
330
1F6
100
AcDbEntity
  8
0
  6
ByBlock
 62
     0
  0
LINE
  5
1F7
330
1F3
100
AcDbEntity
  8
0
  6
ByBlock
 62
     0
370
    -2
100
AcDbLine
 10
-0.5
 20
0.0
 30
0.0
 11
-1.0
 21
0.0
 31
0.0
  0
ENDBLK
  5
1F5
330
1F3
100
AcDbEntity
  8
0
100
AcDbBlockEnd
  0
BLOCK
  5
1FD
330
1FC
100
AcDbEntity
  8
0
100
AcDbBlockBegin
  2
SW_CENTERMARKSYMBOL_2
 70
     0
 10
0.0
 20
0.0
 30
0.0
  3
SW_CENTERMARKSYMBOL_2
  1

  0
LINE
  5
1FF
330
1FC
100
AcDbEntity
  8
0
  6
Continuous
 62
     0
370
     0
100
AcDbLine
 10
0.0
 20
0.0
 30
0.0
 11
0.0
 21
0.05
 31
0.0
  0
LINE
  5
200
330
1FC
100
AcDbEntity
  8
0
  6
Continuous
 62
     0
370
     0
100
AcDbLine
 10
0.0
 20
0.0
 30
0.0
 11
-0.05
 21
0.0
 31
0.0
  0
LINE
  5
201
330
1FC
100
AcDbEntity
  8
0
  6
Continuous
 62
     0
370
     0
100
AcDbLine
 10
0.0
 20
0.0
 30
0.0
 11
0.0
 21
-0.05
 31
0.0
  0
LINE
  5
202
330
1FC
100
AcDbEntity
  8
0
  6
Continuous
 62
     0
370
     0
100
AcDbLine
 10
0.0
 20
0.0
 30
0.0
 11
0.05
 21
0.0
 31
0.0
  0
ENDBLK
  5
1FE
330
1FC
100
AcDbEntity
  8
0
100
AcDbBlockEnd
  0
BLOCK
  5
24C
330
24B
100
AcDbEntity
  8
0
100
AcDbBlockBegin
  2
SW_BROKEN_VIEW_1
 70
     0
 10
0.0
 20
0.0
 30
0.0
  3
SW_BROKEN_VIEW_1
  1

  0
ENDBLK
  5
24D
330
24B
100
AcDbEntity
  8
0
100
AcDbBlockEnd
  0
BLOCK
  5
3A5
330
3A4
100
AcDbEntity
  8
0
100
AcDbBlockBegin
  2
*D25
 70
     1
 10
0.0
 20
0.0
 30
0.0
  3
*D25
  1

  0
SOLID
  5
3A7
330
3A4
100
AcDbEntity
  8
0
  6
Continuous
 62
     7
370
     0
100
AcDbTrace
 10
2.2076234816
 20
5.3701166867
 30
0.0
 11
2.2874555724
 21
5.4683604512
 31
0.0
 12
2.2528169144
 22
5.488364535
 32
0.0
 13
2.2528169144
 23
5.488364535
 33
0.0
  0
LINE
  5
3A8
330
3A4
100
AcDbEntity
  8
0
  6
Continuous
 62
     7
370
     0
100
AcDbLine
 10
2.2076234816
 20
5.3701166867
 30
0.0
 11
2.4424332052
 21
5.7767083513
 31
0.0
  0
LINE
  5
3A9
330
3A4
100
AcDbEntity
  8
0
  6
Continuous
 62
     7
370
     0
100
AcDbLine
 10
2.4424332052
 20
5.7767083513
 30
0.0
 11
2.2924332052
 21
5.7767083513
 31
0.0
  0
MTEXT
  5
3AA
330
3A4
100
AcDbEntity
  8
0
  6
Continuous
 62
     7
370
     0
100
AcDbMText
 10
1.1577324818
 20
5.6856991229
 30
0.0
 40
0.0833333333
 41
0.0
 71
     1
 72
     1
  1
5.0 mm HEX SOCKET
  7
SLDTEXTSTYLE0
 73
     1
 44
1.0
  0
MTEXT
  5
3AB
330
3A4
100
AcDbEntity
  8
0
  6
Continuous
 62
     7
370
     0
100
AcDbMText
 10
0.5791986768
 20
5.8179868132
 30
0.0
 40
0.0833333333
 41
0.0
 71
     1
 72
     1
  1
SPRING LOADED THUMBSCREW
  7
SLDTEXTSTYLE0
 73
     1
 44
1.0
  0
ENDBLK
  5
3A6
330
3A4
100
AcDbEntity
  8
0
100
AcDbBlockEnd
  0
BLOCK
  5
3AE
330
3AD
100
AcDbEntity
  8
0
100
AcDbBlockBegin
  2
*D26
 70
     1
 10
0.0
 20
0.0
 30
0.0
  3
*D26
  1

  0
SOLID
  5
3B0
330
3AD
100
AcDbEntity
  8
0
  6
Continuous
 62
     7
370
     0
100
AcDbTrace
 10
1.0853368476
 20
5.1233162481
 30
0.0
 11
1.0653368476
 21
4.9983162481
 31
0.0
 12
1.1053368476
 22
4.9983162481
 32
0.0
 13
1.1053368476
 23
4.9983162481
 33
0.0
  0
SOLID
  5
3B1
330
3AD
100
AcDbEntity
  8
0
  6
Continuous
 62
     7
370
     0
100
AcDbTrace
 10
1.0853368476
 20
3.397668086
 30
0.0
 11
1.1053368476
 21
3.522668086
 31
0.0
 12
1.0653368476
 22
3.522668086
 32
0.0
 13
1.0653368476
 23
3.522668086
 33
0.0
  0
LINE
  5
3B2
330
3AD
100
AcDbEntity
  8
0
  6
Continuous
 62
     7
370
     0
100
AcDbLine
 10
1.9650943846
 20
5.1233162481
 30
0.0
 11
1.0153368476
 21
5.1233162481
 31
0.0
  0
LINE
  5
3B3
330
3AD
100
AcDbEntity
  8
0
  6
Continuous
 62
     7
370
     0
100
AcDbLine
 10
1.5230943846
 20
3.397668086
 30
0.0
 11
1.0153368476
 21
3.397668086
 31
0.0
  0
LINE
  5
3B4
330
3AD
100
AcDbEntity
  8
0
  6
Continuous
 62
     7
370
     0
100
AcDbLine
 10
1.0853368476
 20
5.1233162481
 30
0.0
 11
1.0853368476
 21
4.3927798573
 31
0.0
  0
LINE
  5
3B5
330
3AD
100
AcDbEntity
  8
0
  6
Continuous
 62
     7
370
     0
100
AcDbLine
 10
1.0853368476
 20
3.397668086
 30
0.0
 11
1.0853368476
 21
3.7735408002
 31
0.0
  0
LINE
  5
3B6
330
3AD
100
AcDbEntity
  8
0
  6
Continuous
 62
     7
370
     0
100
AcDbLine
 10
1.0853368476
 20
3.7735408002
 30
0.0
 11
1.0297812921
 21
3.801318578
 31
0.0
  0
LINE
  5
3B7
330
3AD
100
AcDbEntity
  8
0
  6
Continuous
 62
     7
370
     0
100
AcDbLine
 10
1.0297812921
 20
3.801318578
 30
0.0
 11
1.1408924032
 21
3.8568741336
 31
0.0
  0
LINE
  5
3B8
330
3AD
100
AcDbEntity
  8
0
  6
Continuous
 62
     7
370
     0
100
AcDbLine
 10
1.1408924032
 20
3.8568741336
 30
0.0
 11
1.0853368476
 21
3.8846519114
 31
0.0
  0
LINE
  5
3B9
330
3AD
100
AcDbEntity
  8
0
  6
Continuous
 62
     7
370
     0
100
AcDbLine
 10
1.0853368476
 20
3.8846519114
 30
0.0
 11
1.0853368476
 21
4.1282044768
 31
0.0
  0
MTEXT
  5
3BA
330
3AD
100
AcDbEntity
  8
0
  6
Continuous
 62
     7
370
     0
100
AcDbMText
 10
0.9194457947
 20
4.2356267838
 30
0.0
 40
0.0833333333
 41
0.0
 71
     1
 72
     1
  1
(
  7
SLDTEXTSTYLE0
 73
     1
 44
1.0
  0
MTEXT
  5
3BB
330
3AD
100
AcDbEntity
  8
0
  6
Continuous
 62
     7
370
     0
100
AcDbMText
 10
0.9604893179
 20
4.2356267838
 30
0.0
 40
0.0833333333
 41
0.0
 71
     1
 72
     1
  1
3.68
  7
SLDTEXTSTYLE0
 73
     1
 44
1.0
  0
MTEXT
  5
3BC
330
3AD
100
AcDbEntity
  8
0
  6
Continuous
 62
     7
370
     0
100
AcDbMText
 10
1.1758451747
 20
4.2356267838
 30
0.0
 40
0.0833333333
 41
0.0
 71
     1
 72
     1
  1
")
  7
SLDTEXTSTYLE0
 73
     1
 44
1.0
  0
MTEXT
  5
3BD
330
3AD
100
AcDbEntity
  8
0
  6
Continuous
 62
     7
370
     0
100
AcDbMText
 10
0.87375079
 20
4.3679144741
 30
0.0
 40
0.0833333333
 41
0.0
 71
     1
 72
     1
  1
93.5 mm
  7
SLDTEXTSTYLE0
 73
     1
 44
1.0
  0
ENDBLK
  5
3AF
330
3AD
100
AcDbEntity
  8
0
100
AcDbBlockEnd
  0
BLOCK
  5
3BF
330
3BE
100
AcDbEntity
  8
0
100
AcDbBlockBegin
  2
SW_CENTERMARKSYMBOL_3
 70
     0
 10
0.0
 20
0.0
 30
0.0
  3
SW_CENTERMARKSYMBOL_3
  1

  0
LINE
  5
3C1
330
3BE
100
AcDbEntity
  8
0
  6
Continuous
 62
     0
370
     0
100
AcDbLine
 10
0.0
 20
0.0
 30
0.0
 11
0.0
 21
0.0499999957
 31
0.0
  0
LINE
  5
3C2
330
3BE
100
AcDbEntity
  8
0
  6
Continuous
 62
     0
370
     0
100
AcDbLine
 10
0.0
 20
0.0
 30
0.0
 11
-0.0500000003
 21
0.0
 31
0.0
  0
LINE
  5
3C3
330
3BE
100
AcDbEntity
  8
0
  6
Continuous
 62
     0
370
     0
100
AcDbLine
 10
0.0
 20
0.0
 30
0.0
 11
0.0
 21
-0.0499999957
 31
0.0
  0
LINE
  5
3C4
330
3BE
100
AcDbEntity
  8
0
  6
Continuous
 62
     0
370
     0
100
AcDbLine
 10
0.0
 20
0.0
 30
0.0
 11
0.0500000003
 21
0.0
 31
0.0
  0
ENDBLK
  5
3C0
330
3BE
100
AcDbEntity
  8
0
100
AcDbBlockEnd
  0
ENDSEC
  0
SECTION
  2
ENTITIES
  0
LINE
  5
52
330
1F
100
AcDbEntity
  8
0
  6
Continuous
 62
     7
370
     0
100
AcDbLine
 10
0.0621791378
 20
8.4506055117
 30
0.0
 11
10.9444569626
 21
8.4506055117
 31
0.0
  0
LINE
  5
53
330
1F
100
AcDbEntity
  8
0
  6
Continuous
 62
     7
370
     0
100
AcDbLine
 10
0.0621791378
 20
8.4506055117
 30
0.0
 11
0.0621791378
 21
0.035557648
 31
0.0
  0
LINE
  5
54
330
1F
100
AcDbEntity
  8
0
  6
Continuous
 62
     7
370
     0
100
AcDbLine
 10
10.9444569626
 20
0.035557648
 30
0.0
 11
0.0621791378
 21
0.035557648
 31
0.0
  0
LINE
  5
55
330
1F
100
AcDbEntity
  8
0
  6
Continuous
 62
     7
370
     0
100
AcDbLine
 10
10.9444569626
 20
0.035557648
 30
0.0
 11
10.9444569626
 21
8.4506055117
 31
0.0
  0
LINE
  5
56
330
1F
100
AcDbEntity
  8
0
  6
Continuous
 62
     7
370
     0
100
AcDbLine
 10
8.4938096065
 20
0.4840901186
 30
0.0
 11
6.7571952625
 21
0.4840901186
 31
0.0
  0
LINE
  5
57
330
1F
100
AcDbEntity
  8
0
  6
Continuous
 62
     7
370
     0
100
AcDbLine
 10
6.7571952625
 20
0.4840901186
 30
0.0
 11
6.7571952625
 21
1.030163002
 31
0.0
  0
LINE
  5
58
330
1F
100
AcDbEntity
  8
0
  6
Continuous
 62
     7
370
     0
100
AcDbLine
 10
6.7571952625
 20
0.035557648
 30
0.0
 11
6.7571952625
 21
1.030163002
 31
0.0
  0
LINE
  5
59
330
1F
100
AcDbEntity
  8
0
  6
Continuous
 62
     7
370
     0
100
AcDbLine
 10
8.4938096065
 20
0.6756085809
 30
0.0
 11
10.9444569626
 21
0.6756085809
 31
0.0
  0
LINE
  5
5A
330
1F
100
AcDbEntity
  8
0
  6
Continuous
 62
     7
370
     0
100
AcDbLine
 10
8.4938096065
 20
1.3873799542
 30
0.0
 11
8.4938096065
 21
0.035557648
 31
0.0
  0
LINE
  5
5B
330
1F
100
AcDbEntity
  8
0
  6
Continuous
 62
     7
370
     0
100
AcDbLine
 10
8.4938096065
 20
1.030163002
 30
0.0
 11
6.7571952625
 21
1.030163002
 31
0.0
  0
LINE
  5
5C
330
1F
100
AcDbEntity
  8
0
  6
Continuous
 62
     7
370
     0
100
AcDbLine
 10
8.4938096065
 20
0.3598787426
 30
0.0
 11
10.9444569626
 21
0.3598787426
 31
0.0
  0
LINE
  5
5D
330
1F
100
AcDbEntity
  8
0
  6
Continuous
 62
     7
370
     0
100
AcDbLine
 10
8.4938096065
 20
0.6662079686
 30
0.0
 11
6.7571952625
 21
0.6662079686
 31
0.0
  0
LINE
  5
5E
330
1F
100
AcDbEntity
  8
0
  6
Continuous
 62
     7
370
     0
100
AcDbLine
 10
8.4938096065
 20
0.8459606517
 30
0.0
 11
6.7571952625
 21
0.8459606517
 31
0.0
  0
LINE
  5
5F
330
1F
100
AcDbEntity
  8
0
  6
Continuous
 62
     7
370
     0
100
AcDbLine
 10
7.3281027587
 20
1.030163002
 30
0.0
 11
7.3281027587
 21
0.4840901186
 31
0.0
  0
LINE
  5
60
330
1F
100
AcDbEntity
  8
0
  6
Continuous
 62
     7
370
     0
100
AcDbLine
 10
7.8037240401
 20
1.030163002
 30
0.0
 11
7.8037240401
 21
0.4840901186
 31
0.0
  0
LINE
  5
61
330
1F
100
AcDbEntity
  8
0
  6
Continuous
 62
     7
370
     0
100
AcDbLine
 10
9.990119718
 20
0.3598787426
 30
0.0
 11
9.990119718
 21
0.035557648
 31
0.0
  0
LINE
  5
62
330
1F
100
AcDbEntity
  8
0
  6
Continuous
 62
     7
370
     0
100
AcDbLine
 10
6.7571952625
 20
0.4840901186
 30
0.0
 11
6.7571952625
 21
0.297745443
 31
0.0
  0
LINE
  5
63
330
1F
100
AcDbEntity
  8
0
  6
Continuous
 62
     7
370
     0
100
AcDbLine
 10
6.7571952625
 20
0.297745443
 30
0.0
 11
8.4938096065
 21
0.297745443
 31
0.0
  0
LINE
  5
64
330
1F
100
AcDbEntity
  8
0
  6
Continuous
 62
     7
370
     0
100
AcDbLine
 10
6.7571952625
 20
0.297745443
 30
0.0
 11
6.7571952625
 21
1.3873799542
 31
0.0
  0
LINE
  5
65
330
1F
100
AcDbEntity
  8
0
  6
Continuous
 62
     7
370
     0
100
AcDbLine
 10
6.7571952625
 20
1.3873799542
 30
0.0
 11
8.4938096065
 21
1.3873799542
 31
0.0
  0
LINE
  5
66
330
1F
100
AcDbEntity
  8
0
  6
Continuous
 62
     7
370
     0
100
AcDbLine
 10
10.6365495992
 20
0.6756085809
 30
0.0
 11
10.6365495992
 21
0.3598787426
 31
0.0
  0
LINE
  5
67
330
1F
100
AcDbEntity
  8
0
  6
Continuous
 62
     7
370
     0
100
AcDbLine
 10
8.4938096065
 20
1.3873799542
 30
0.0
 11
10.9444569626
 21
1.3873799542
 31
0.0
  0
LINE
  5
68
330
1F
100
AcDbEntity
  8
0
  6
Continuous
 62
     7
370
     0
100
AcDbLine
 10
10.9444569626
 20
1.3873799542
 30
0.0
 11
10.9444569626
 21
1.9698084888
 31
0.0
  0
LINE
  5
69
330
1F
100
AcDbEntity
  8
0
  6
Continuous
 62
     7
370
     0
100
AcDbLine
 10
8.4938096065
 20
0.9800288797
 30
0.0
 11
10.9444569626
 21
0.9800288797
 31
0.0
  0
INSERT
  5
6A
330
1F
100
AcDbEntity
  8
0
  6
Continuous
 62
     7
100
AcDbBlockReference
  2
Third Angle Projection Block
 10
4.6348905679
 20
0.6108753523
 30
0.0
 41
0.8
 42
0.8
 43
0.8
  0
MTEXT
  5
6C
330
1F
100
AcDbEntity
  8
0
  6
Continuous
 62
     7
370
     0
100
AcDbMText
 10
10.7776160107
 20
0.5162413101
 30
0.0
 40
0.125
 41
0.0
 71
     2
 72
     1
  1
A
  7
SLDTEXTSTYLE0
 73
     1
 44
1.0
  0
MTEXT
  5
6D
330
1F
100
AcDbEntity
  8
0
  6
Continuous
 62
     7
370
     0
100
AcDbMText
 10
9.2383277748
 20
0.2019943461
 30
0.0
 40
0.125
 41
0.0
 71
     2
 72
     1
  1
UPH4/M
  7
SLDTEXTSTYLE0
 73
     1
 44
1.0
  0
MTEXT
  5
6E
330
1F
100
AcDbEntity
  8
0
  6
Continuous
 62
     7
370
     0
100
AcDbMText
 10
8.5204715199
 20
0.6623747189
 30
0.0
 40
0.0833333333
 41
0.0
 71
     1
 72
     1
  1
MATERIAL
  7
SLDTEXTSTYLE0
 73
     1
 44
1.0
  0
MTEXT
  5
6F
330
1F
100
AcDbEntity
  8
0
  6
Continuous
 62
     7
370
     0
100
AcDbMText
 10
6.8055665782
 20
0.7895493672
 30
0.0
 40
0.0729166667
 41
0.0
 71
     1
 72
     1
  1
REDRAWN
  7
SLDTEXTSTYLE0
 73
     1
 44
1.0
  0
MTEXT
  5
70
330
1F
100
AcDbEntity
  8
0
  6
Continuous
 62
     7
370
     0
100
AcDbMText
 10
6.7872445848
 20
0.613335314
 30
0.0
 40
0.0729166667
 41
0.0
 71
     1
 72
     1
  1
APPROVAL
  7
SLDTEXTSTYLE0
 73
     1
 44
1.0
  0
MTEXT
  5
71
330
1F
100
AcDbEntity
  8
0
  6
Continuous
 62
     7
370
     0
100
AcDbMText
 10
10.681956279
 20
0.6308568984
 30
0.0
 40
0.0833333333
 41
0.0
 71
     1
 72
     1
  1
REV
  7
SLDTEXTSTYLE0
 73
     1
 44
1.0
  0
MTEXT
  5
72
330
1F
100
AcDbEntity
  8
0
  6
Continuous
 62
     7
370
     0
100
AcDbMText
 10
7.4919633718
 20
0.7999100272
 30
0.0
 40
0.0833333333
 41
0.0
 71
     1
 72
     1
  1
TLB
  7
SLDTEXTSTYLE0
 73
     1
 44
1.0
  0
MTEXT
  5
73
330
1F
100
AcDbEntity
  8
0
  6
Continuous
 62
     7
370
     0
100
AcDbMText
 10
7.4919633718
 20
0.623695974
 30
0.0
 40
0.0833333333
 41
0.0
 71
     1
 72
     1
  1
TLB
  7
SLDTEXTSTYLE0
 73
     1
 44
1.0
  0
MTEXT
  5
75
330
1F
100
AcDbEntity
  8
0
  6
Continuous
 62
     7
370
     0
100
AcDbMText
 10
7.8687497515
 20
0.7999100272
 30
0.0
 40
0.0833333333
 41
0.0
 71
     1
 72
     1
  1
05 MAR 12
  7
SLDTEXTSTYLE1
 73
     1
 44
1.0
  0
MTEXT
  5
76
330
1F
100
AcDbEntity
  8
0
  6
Continuous
 62
     7
370
     0
100
AcDbMText
 10
8.0163191884
 20
0.9772495896
 30
0.0
 40
0.0833333333
 41
0.0
 71
     1
 72
     1
  1
DATE
  7
SLDTEXTSTYLE0
 73
     1
 44
1.0
  0
MTEXT
  5
77
330
1F
100
AcDbEntity
  8
0
  6
Continuous
 62
     7
370
     0
100
AcDbMText
 10
7.8687497515
 20
0.623695974
 30
0.0
 40
0.0833333333
 41
0.0
 71
     1
 72
     1
  1
05 MAR 12
  7
SLDTEXTSTYLE1
 73
     1
 44
1.0
  0
MTEXT
  5
79
330
1F
100
AcDbEntity
  8
0
  6
Continuous
 62
     7
370
     0
100
AcDbMText
 10
9.0316104912
 20
1.0943207896
 30
0.0
 40
0.0833333333
 41
0.0
 71
     1
 72
     1
  1
w w w . t h o r  l a b s . c o m
  7
SLDTEXTSTYLE2
 73
     1
 44
1.0
  0
MTEXT
  5
7A
330
1F
100
AcDbEntity
  8
0
  6
Continuous
 62
     7
370
     0
100
AcDbMText
 10
8.5315119501
 20
0.328719653
 30
0.0
 40
0.0833333333
 41
0.0
 71
     1
 72
     1
  1
ITEM #
  7
SLDTEXTSTYLE0
 73
     1
 44
1.0
  0
MTEXT
  5
7B
330
1F
100
AcDbEntity
  8
0
  6
Continuous
 62
     7
370
     0
100
AcDbMText
 10
10.0209370115
 20
0.328719653
 30
0.0
 40
0.0833333333
 41
0.0
 71
     1
 72
     1
  1
APPROX WEIGHT
  7
SLDTEXTSTYLE0
 73
     1
 44
1.0
  0
MTEXT
  5
7C
330
1F
100
AcDbEntity
  8
0
  6
Continuous
 62
     7
370
     0
100
AcDbMText
 10
9.5853574294
 20
0.5162413101
 30
0.0
 40
0.125
 41
0.0
 71
     2
 72
     1
  1
ALUMINUM
  7
SLDTEXTSTYLE0
 73
     1
 44
1.0
  0
MTEXT
  5
7D
330
1F
100
AcDbEntity
  8
0
  6
Continuous
 62
     7
370
     0
100
AcDbMText
 10
10.4790491378
 20
0.2019943461
 30
0.0
 40
0.125
 41
0.0
 71
     2
 72
     1
  1
0.14 kg
  7
SLDTEXTSTYLE0
 73
     1
 44
1.0
  0
INSERT
  5
83
330
1F
100
AcDbEntity
  8
0
  6
Continuous
 62
     7
370
     0
100
AcDbBlockReference
  2
SW_NOTE_0
 10
6.8835832285
 20
0.1754273811
 30
0.0
  0
INSERT
  5
89
330
1F
100
AcDbEntity
  8
0
  6
Continuous
 62
     7
370
     0
100
AcDbBlockReference
  2
SW_NOTE_1
 10
6.8719828753
 20
1.2001390658
 30
0.0
  0
MTEXT
  5
8A
330
1F
100
AcDbEntity
  8
0
  6
Continuous
 62
     7
370
     0
100
AcDbMText
 10
7.3987149145
 20
0.9772495896
 30
0.0
 40
0.0833333333
 41
0.0
 71
     1
 72
     1
  1
NAME
  7
SLDTEXTSTYLE0
 73
     1
 44
1.0
  0
INSERT
  5
90
330
1F
100
AcDbEntity
  8
0
  6
Continuous
 62
     7
370
     0
100
AcDbBlockReference
  2
SW_NOTE_2
 10
2.3078923918
 20
0.3219551564
 30
0.0
  0
MTEXT
  5
91
330
1F
100
AcDbEntity
  8
0
  6
Continuous
 62
     7
370
     0
100
AcDbMText
 10
7.0518693355
 20
0.4200025137
 30
0.0
 40
0.0625
 41
0.0
 71
     1
 72
     1
  1
COPYRIGHT © 2012 BY THORLABS
  7
SLDTEXTSTYLE0
 73
     1
 44
1.0
  0
INSERT
  5
97
330
1F
100
AcDbEntity
  8
0
  6
Continuous
 62
     7
370
     0
100
AcDbBlockReference
  2
SW_NOTE_3
 10
9.0468496418
 20
0.8160616777
 30
0.0
  0
INSERT
  5
9B
330
1F
100
AcDbEntity
  8
0
  6
Continuous
 62
     7
100
AcDbBlockReference
  2
SW_BROKEN_VIEW_0
 10
0.0
 20
0.0
 30
0.0
  0
LINE
  5
9C
330
1F
100
AcDbEntity
  8
0
  6
Continuous
 62
     7
370
     0
100
AcDbLine
 10
4.4677717895
 20
4.6530815952
 30
0.0
 11
4.4677717895
 21
5.2983405945
 31
0.0
  0
LINE
  5
9D
330
1F
100
AcDbEntity
  8
0
  6
Continuous
 62
     7
370
     0
100
AcDbLine
 10
3.4837717859
 20
5.003340429
 30
0.0
 11
3.4837717859
 21
4.5985793515
 31
0.0
  0
LINE
  5
9E
330
1F
100
AcDbEntity
  8
0
  6
Continuous
 62
     7
370
     0
100
AcDbLine
 10
3.4837717859
 20
5.2983405945
 30
0.0
 11
3.4837717859
 21
5.2533405543
 31
0.0
  0
LINE
  5
9F
330
1F
100
AcDbEntity
  8
0
  6
Continuous
 62
     7
370
     0
100
AcDbLine
 10
4.4677717895
 20
5.2983405945
 30
0.0
 11
4.3811692399
 21
5.448340435
 31
0.0
  0
LINE
  5
A0
330
1F
100
AcDbEntity
  8
0
  6
Continuous
 62
     7
370
     0
100
AcDbLine
 10
3.5703742255
 20
5.448340435
 30
0.0
 11
3.4837717859
 21
5.2983405945
 31
0.0
  0
LINE
  5
A1
330
1F
100
AcDbEntity
  8
0
  6
Continuous
 62
     7
370
     0
100
AcDbLine
 10
3.0937717312
 20
4.8433406773
 30
0.0
 11
3.3637716788
 21
4.8433406773
 31
0.0
  0
LINE
  5
A2
330
1F
100
AcDbEntity
  8
0
  6
Continuous
 62
     7
370
     0
100
AcDbLine
 10
3.3637716788
 20
5.4133405993
 30
0.0
 11
3.0937717312
 21
5.4133405993
 31
0.0
  0
LINE
  5
A3
330
1F
100
AcDbEntity
  8
0
  6
Continuous
 62
     7
370
     0
100
AcDbLine
 10
3.3637716788
 20
4.8433406773
 30
0.0
 11
3.3837717945
 21
4.8633404996
 31
0.0
  0
LINE
  5
A4
330
1F
100
AcDbEntity
  8
0
  6
Continuous
 62
     7
370
     0
100
AcDbLine
 10
3.3837717945
 20
5.3933404837
 30
0.0
 11
3.3637716788
 21
5.4133405993
 31
0.0
  0
LINE
  5
A5
330
1F
100
AcDbEntity
  8
0
  6
Continuous
 62
     7
370
     0
100
AcDbLine
 10
3.0937717312
 20
5.4133405993
 30
0.0
 11
3.0737717623
 21
5.3933404837
 31
0.0
  0
LINE
  5
A6
330
1F
100
AcDbEntity
  8
0
  6
Continuous
 62
     7
370
     0
100
AcDbLine
 10
3.0737717623
 20
4.8633404996
 30
0.0
 11
3.0937717312
 21
4.8433406773
 31
0.0
  0
ARC
  5
A7
330
1F
100
AcDbEntity
  8
0
  6
Continuous
 62
     7
370
     0
100
AcDbCircle
 10
3.3937716829
 20
4.9933405406
 30
0.0
 40
0.0099998883904779
100
AcDbArc
 50
89.999869614
 51
180.000130386
  0
ARC
  5
A8
330
1F
100
AcDbEntity
  8
0
  6
Continuous
 62
     7
370
     0
100
AcDbCircle
 10
3.3937716829
 20
5.2633404427
 30
0.0
 40
0.0099998883904779
100
AcDbArc
 50
179.999869614
 51
270.000130386
  0
LINE
  5
A9
330
1F
100
AcDbEntity
  8
0
  6
Continuous
 62
     7
370
     0
100
AcDbLine
 10
3.3937717056
 20
5.003340429
 30
0.0
 11
3.4837717859
 21
5.003340429
 31
0.0
  0
LINE
  5
AA
330
1F
100
AcDbEntity
  8
0
  6
Continuous
 62
     7
370
     0
100
AcDbLine
 10
3.4837717859
 20
5.2533405543
 30
0.0
 11
3.3937717056
 21
5.2533405543
 31
0.0
  0
SPLINE
  5
AB
330
1F
100
AcDbEntity
  8
0
  6
Continuous
 62
     7
370
     0
100
AcDbSpline
210
0.0
220
0.0
230
1.0
 70
     8
 71
     3
 72
    24
 73
    20
 74
     0
 42
0.00000001
 43
0.00000001
 40
0.0
 40
0.0
 40
0.0
 40
0.0
 40
0.0000480876797043
 40
0.0099305731914326
 40
0.0395161325114499
 40
0.0864533610802316
 40
0.1487657909645527
 40
0.2242543986141869
 40
0.3106590145274243
 40
0.4043919765358044
 40
0.5003634689704404
 40
0.5961931531313719
 40
0.690034213110553
 40
0.7762890266243118
 40
0.8517164355632062
 40
0.9138521530209766
 40
0.9607008847736171
 40
0.9902077724793517
 40
1.0
 40
1.0
 40
1.0
 40
1.0
 10
3.483774719224974
 20
5.246747377153206
 30
0.0
 10
3.483773736368259
 20
5.246751111958231
 30
0.0
 10
3.483570766904949
 20
5.247522385491792
 30
0.0
 10
3.485354535533419
 20
5.240769728586307
 30
0.0
 10
3.486108239565673
 20
5.23757120099095
 30
0.0
 10
3.489198129094619
 20
5.224894772874912
 30
0.0
 10
3.49199277243922
 20
5.211218171033118
 30
0.0
 10
3.495104626834724
 20
5.19328047084552
 30
0.0
 10
3.497652181283873
 20
5.17310442497776
 30
0.0
 10
3.499451013174179
 20
5.151080213425726
 30
0.0
 10
3.500066471873337
 20
5.128271815562967
 30
0.0
 10
3.499449027218568
 20
5.105444738195702
 30
0.0
 10
3.497649651825122
 20
5.083464191461679
 30
0.0
 10
3.495071578164323
 20
5.06320531707336
 30
0.0
 10
3.492030045056238
 20
5.045579049284831
 30
0.0
 10
3.489029994220482
 20
5.031151034287287
 30
0.0
 10
3.486443755291843
 20
5.020391917121922
 30
0.0
 10
3.484774294015009
 20
5.013714398384653
 30
0.0
 10
3.483971755752265
 20
5.010678835915619
 30
0.0
 10
3.483771785925526
 20
5.009922459641529
 30
0.0
  0
LINE
  5
AC
330
1F
100
AcDbEntity
  8
0
  6
Continuous
 62
     7
370
     0
100
AcDbLine
 10
4.4677717895
 20
5.2983405945
 30
0.0
 11
3.4837717859
 21
5.2983405945
 31
0.0
  0
LINE
  5
AD
330
1F
100
AcDbEntity
  8
0
  6
Continuous
 62
     7
370
     0
100
AcDbLine
 10
3.5703742255
 20
5.448340435
 30
0.0
 11
4.3811692399
 21
5.448340435
 31
0.0
  0
LINE
  5
AE
330
1F
100
AcDbEntity
  8
0
  6
Continuous
 62
     7
370
     0
100
AcDbLine
 10
3.0937717312
 20
4.8433406773
 30
0.0
 11
3.0937717312
 21
5.4133405993
 31
0.0
  0
LINE
  5
AF
330
1F
100
AcDbEntity
  8
0
  6
Continuous
 62
     7
370
     0
100
AcDbLine
 10
3.3637716788
 20
4.8433406773
 30
0.0
 11
3.3637716788
 21
5.4133405993
 31
0.0
  0
LINE
  5
B0
330
1F
100
AcDbEntity
  8
0
  6
Continuous
 62
     7
370
     0
100
AcDbLine
 10
3.3837717945
 20
4.8633404996
 30
0.0
 11
3.3837717945
 21
5.3933404837
 31
0.0
  0
LINE
  5
B1
330
1F
100
AcDbEntity
  8
0
  6
Continuous
 62
     7
370
     0
100
AcDbLine
 10
3.0737717623
 20
4.8633404996
 30
0.0
 11
3.0737717623
 21
5.3933404837
 31
0.0
  0
LINE
  5
B2
330
1F
100
AcDbEntity
  8
0
  6
Continuous
 62
     7
370
     0
100
AcDbLine
 10
4.4677717895
 20
3.85164381
 30
0.0
 11
4.4677717895
 21
4.3530815974
 31
0.0
  0
LINE
  5
B3
330
1F
100
AcDbEntity
  8
0
  6
Continuous
 62
     7
370
     0
100
AcDbLine
 10
3.4837717859
 20
4.2985793536
 30
0.0
 11
3.4837717859
 21
3.85164381
 31
0.0
  0
LINE
  5
B4
330
1F
100
AcDbEntity
  8
0
  6
Continuous
 62
     7
370
     0
100
AcDbLine
 10
3.4837717859
 20
3.85164381
 30
0.0
 11
3.5087717105
 21
3.8266437388
 31
0.0
  0
LINE
  5
B5
330
1F
100
AcDbEntity
  8
0
  6
Continuous
 62
     7
370
     0
100
AcDbLine
 10
4.442771755
 20
3.8266437388
 30
0.0
 11
4.4677717895
 21
3.85164381
 31
0.0
  0
LINE
  5
B6
330
1F
100
AcDbEntity
  8
0
  6
Continuous
 62
     7
370
     0
100
AcDbLine
 10
3.4837717859
 20
3.5446438098
 30
0.0
 11
3.4837717859
 21
3.3946438226
 31
0.0
  0
LINE
  5
B7
330
1F
100
AcDbEntity
  8
0
  6
Continuous
 62
     7
370
     0
100
AcDbLine
 10
4.4677717895
 20
3.3946438226
 30
0.0
 11
4.4677717895
 21
3.4726437749
 31
0.0
  0
LINE
  5
B8
330
1F
100
AcDbEntity
  8
0
  6
Continuous
 62
     7
370
     0
100
AcDbLine
 10
3.5810218092
 20
3.8266437388
 30
0.0
 11
3.5810218092
 21
3.822643745
 31
0.0
  0
LINE
  5
B9
330
1F
100
AcDbEntity
  8
0
  6
Continuous
 62
     7
370
     0
100
AcDbLine
 10
4.3705217663
 20
3.822643745
 30
0.0
 11
4.3705217663
 21
3.8266437388
 31
0.0
  0
LINE
  5
BA
330
1F
100
AcDbEntity
  8
0
  6
Continuous
 62
     7
370
     0
100
AcDbLine
 10
3.4837717859
 20
3.822643745
 30
0.0
 11
3.4837717859
 21
3.5446438098
 31
0.0
  0
LINE
  5
BB
330
1F
100
AcDbEntity
  8
0
  6
Continuous
 62
     7
370
     0
100
AcDbLine
 10
3.4837717859
 20
3.85164381
 30
0.0
 11
4.4677717895
 21
3.85164381
 31
0.0
  0
LINE
  5
BC
330
1F
100
AcDbEntity
  8
0
  6
Continuous
 62
     7
370
     0
100
AcDbLine
 10
4.442771755
 20
3.8266437388
 30
0.0
 11
3.5087717105
 21
3.8266437388
 31
0.0
  0
LINE
  5
BD
330
1F
100
AcDbEntity
  8
0
  6
Continuous
 62
     7
370
     0
100
AcDbLine
 10
3.4837717859
 20
3.3946438226
 30
0.0
 11
4.4677717895
 21
3.3946438226
 31
0.0
  0
LINE
  5
BE
330
1F
100
AcDbEntity
  8
0
  6
Continuous
 62
     7
370
     0
100
AcDbLine
 10
3.4837717859
 20
3.5446438098
 30
0.0
 11
3.9757717923
 21
3.5446438098
 31
0.0
  0
SPLINE
  5
BF
330
1F
100
AcDbEntity
  8
0
  6
Continuous
 62
     7
370
     0
100
AcDbSpline
210
0.0
220
0.0
230
1.0
 70
     8
 71
     3
 72
    17
 73
    13
 74
     0
 42
0.00000001
 43
0.00000001
 40
0.0
 40
0.0
 40
0.0
 40
0.0
 40
0.1072268048195486
 40
0.2144105555316454
 40
0.321733557739562
 40
0.4291889022507697
 40
0.5365033267527103
 40
0.6436244411511425
 40
0.7508008260605502
 40
0.858195058989759
 40
0.9656308515949266
 40
1.0
 40
1.0
 40
1.0
 40
1.0
 10
3.975771792299469
 20
3.650143737754486
 30
0.0
 10
3.972009907746408
 20
3.650513162426964
 30
0.0
 10
3.964487649126232
 20
3.651251863439147
 30
0.0
 10
3.954469055388704
 20
3.657011340361592
 30
0.0
 10
3.946840691346921
 20
3.665502751786504
 30
0.0
 10
3.942471012962408
 20
3.676116137900211
 30
0.0
 10
3.941856640026429
 20
3.687551591671741
 30
0.0
 10
3.945054466794333
 20
3.698539464238941
 30
0.0
 10
3.951706602012906
 20
3.707864930547077
 30
0.0
 10
3.961067797303145
 20
3.714437310473437
 30
0.0
 10
3.969620093292294
 20
3.716939713446887
 30
0.0
 10
3.974571680201131
 20
3.71710399927454
 30
0.0
 10
3.975771792299469
 20
3.717143817097186
 30
0.0
  0
LINE
  5
C0
330
1F
100
AcDbEntity
  8
0
  6
Continuous
 62
     7
370
     0
100
AcDbLine
 10
3.4837717859
 20
3.822643745
 30
0.0
 11
3.9757717923
 21
3.822643745
 31
0.0
  0
LINE
  5
C1
330
1F
100
AcDbEntity
  8
0
  6
Continuous
 62
     7
370
     0
100
AcDbLine
 10
5.944275722
 20
3.822643745
 30
0.0
 11
5.944275722
 21
3.3926437524
 31
0.0
  0
LINE
  5
C2
330
1F
100
AcDbEntity
  8
0
  6
Continuous
 62
     7
370
     0
100
AcDbLine
 10
4.1757717752
 20
3.5446438098
 30
0.0
 11
4.1757717752
 21
3.4726437749
 31
0.0
  0
LINE
  5
C3
330
1F
100
AcDbEntity
  8
0
  6
Continuous
 62
     7
370
     0
100
AcDbLine
 10
5.7442757391
 20
3.3926437524
 30
0.0
 11
5.944275722
 21
3.3926437524
 31
0.0
  0
ARC
  5
C4
330
1F
100
AcDbEntity
  8
0
  6
Continuous
 62
     7
370
     0
100
AcDbCircle
 10
3.9757717744
 20
3.6836437774
 30
0.0
 40
0.0335000396713546
100
AcDbArc
 50
270.0000306758
 51
89.9999693242
  0
LINE
  5
C5
330
1F
100
AcDbEntity
  8
0
  6
Continuous
 62
     7
370
     0
100
AcDbLine
 10
4.1757717752
 20
3.4726437749
 30
0.0
 11
5.7442757391
 21
3.4726437749
 31
0.0
  0
LINE
  5
C6
330
1F
100
AcDbEntity
  8
0
  6
Continuous
 62
     7
370
     0
100
AcDbLine
 10
3.9757717923
 20
3.5446438098
 30
0.0
 11
4.1757717752
 21
3.5446438098
 31
0.0
  0
LINE
  5
C7
330
1F
100
AcDbEntity
  8
0
  6
Continuous
 62
     7
370
     0
100
AcDbLine
 10
3.9757717923
 20
3.822643745
 30
0.0
 11
5.944275722
 21
3.822643745
 31
0.0
  0
LINE
  5
C8
330
1F
100
AcDbEntity
  8
0
  6
Continuous
 62
     7
370
     0
100
AcDbLine
 10
5.7442757391
 20
3.4726437749
 30
0.0
 11
5.7442757391
 21
3.3926437524
 31
0.0
  0
CIRCLE
  5
C9
330
1F
100
AcDbEntity
  8
0
  6
Continuous
 62
     7
370
     0
100
AcDbCircle
 10
3.9757717749
 20
3.6836438557
 30
0.0
 40
0.0312500024670794
  0
DIMENSION
  5
CA
330
1F
100
AcDbEntity
  8
0
  6
Continuous
 62
     7
370
     0
100
AcDbDimension
  2
*D7
 10
6.337976498
 20
3.8226437985
 30
0.0
 11
6.337976498
 21
3.6076437985
 31
0.0
 70
   160
  1
10.9 mm\P(<>")
 71
     2
 42
-1.0
  3
SLDDIMSTYLE0
100
AcDbAlignedDimension
 13
5.9442757106
 23
3.3926437985
 33
0.0
 14
5.9442757106
 24
3.8226437985
 34
0.0
 50
90.0
100
AcDbRotatedDimension
  0
DIMENSION
  5
D9
330
1F
100
AcDbEntity
  8
0
  6
Continuous
 62
     7
370
     0
100
AcDbDimension
  2
*D8
 10
6.8104174429
 20
5.4483405356
 30
0.0
 11
6.8104174429
 21
4.420492167
 31
0.0
 70
   160
  1
101.7 mm\P(4.00")
 71
     2
 42
-1.0
  3
SLDDIMSTYLE1
100
AcDbAlignedDimension
 13
5.9442757106
 23
3.3926437985
 33
0.0
 14
4.3811692332
 24
5.4483405356
 34
0.0
 50
90.0
100
AcDbRotatedDimension
  0
DIMENSION
  5
EC
330
1F
100
AcDbEntity
  8
0
  6
Continuous
 62
     7
370
     0
100
AcDbDimension
  2
*D9
 10
5.9442757106
 20
3.0009430111
 30
0.0
 11
4.7140237421
 21
3.0009430111
 31
0.0
 70
   160
  1
62.5mm\P(<>")
 71
     2
 42
-1.0
  3
SLDDIMSTYLE2
100
AcDbAlignedDimension
 13
3.4837717736
 23
3.8516437985
 33
0.0
 14
5.9442757106
 24
3.3926437985
 34
0.0
100
AcDbRotatedDimension
  0
LINE
  5
FB
330
1F
100
AcDbEntity
  8
0
  6
HIDDEN
 62
     7
370
     0
100
AcDbLine
 10
4.5377717912
 20
4.3258304785
 30
0.0
 11
4.3355119547
 21
4.404570636
 31
0.0
  0
LINE
  5
FC
330
1F
100
AcDbEntity
  8
0
  6
HIDDEN
 62
     7
370
     0
100
AcDbLine
 10
4.3355119547
 20
4.404570636
 30
0.0
 11
4.1780316397
 21
4.247090321
 31
0.0
  0
LINE
  5
FD
330
1F
100
AcDbEntity
  8
0
  6
HIDDEN
 62
     7
370
     0
100
AcDbLine
 10
4.1780316397
 20
4.247090321
 30
0.0
 11
3.7735119667
 21
4.404570636
 31
0.0
  0
LINE
  5
FE
330
1F
100
AcDbEntity
  8
0
  6
HIDDEN
 62
     7
370
     0
100
AcDbLine
 10
3.7735119667
 20
4.404570636
 30
0.0
 11
3.6160316517
 21
4.247090321
 31
0.0
  0
LINE
  5
FF
330
1F
100
AcDbEntity
  8
0
  6
HIDDEN
 62
     7
370
     0
100
AcDbLine
 10
3.6160316517
 20
4.247090321
 30
0.0
 11
3.4137718152
 21
4.3258304785
 31
0.0
  0
LINE
  5
100
330
1F
100
AcDbEntity
  8
0
  6
HIDDEN
 62
     7
370
     0
100
AcDbLine
 10
4.5377717912
 20
4.6258304785
 30
0.0
 11
4.3355119547
 21
4.704570636
 31
0.0
  0
LINE
  5
101
330
1F
100
AcDbEntity
  8
0
  6
HIDDEN
 62
     7
370
     0
100
AcDbLine
 10
4.3355119547
 20
4.704570636
 30
0.0
 11
4.1780316397
 21
4.547090321
 31
0.0
  0
LINE
  5
102
330
1F
100
AcDbEntity
  8
0
  6
HIDDEN
 62
     7
370
     0
100
AcDbLine
 10
4.1780316397
 20
4.547090321
 30
0.0
 11
3.7735119667
 21
4.704570636
 31
0.0
  0
LINE
  5
103
330
1F
100
AcDbEntity
  8
0
  6
HIDDEN
 62
     7
370
     0
100
AcDbLine
 10
3.7735119667
 20
4.704570636
 30
0.0
 11
3.6160316517
 21
4.547090321
 31
0.0
  0
LINE
  5
104
330
1F
100
AcDbEntity
  8
0
  6
HIDDEN
 62
     7
370
     0
100
AcDbLine
 10
3.6160316517
 20
4.547090321
 30
0.0
 11
3.4137718152
 21
4.6258304785
 31
0.0
  0
SPLINE
  5
105
330
1F
100
AcDbEntity
  8
0
  6
Continuous
 62
     7
370
     0
100
AcDbSpline
210
0.0
220
0.0
230
1.0
 70
     8
 71
     3
 72
     9
 73
     5
 74
     0
 42
0.00000001
 43
0.00000001
 40
0.0
 40
0.0
 40
0.0
 40
0.0
 40
0.5962563313919099
 40
0.9999999999999999
 40
0.9999999999999999
 40
0.9999999999999999
 40
0.9999999999999999
 10
3.382802221564932
 20
6.673613795036197
 30
0.0
 10
3.383002848608953
 20
6.676096548475339
 30
0.0
 10
3.383339326451551
 20
6.680260451327901
 30
0.0
 10
3.383647429173907
 20
6.684205394037526
 30
0.0
 10
3.383771823697339
 20
6.685798139679558
 30
0.0
  0
ARC
  5
106
330
1F
100
AcDbEntity
  8
0
  6
Continuous
 62
     7
370
     0
100
AcDbCircle
 10
3.7037717736
 20
6.673739584
 30
0.0
 40
0.0450000000000005
100
AcDbArc
 50
301.4066750694
 51
58.5933249306
  0
LINE
  5
107
330
1F
100
AcDbEntity
  8
0
  6
Continuous
 62
     7
370
     0
100
AcDbLine
 10
3.0937717605
 20
6.3887395863
 30
0.0
 11
3.3637717081
 21
6.3887395863
 31
0.0
  0
LINE
  5
108
330
1F
100
AcDbEntity
  8
0
  6
Continuous
 62
     7
370
     0
100
AcDbLine
 10
3.3637717081
 20
6.9587395816
 30
0.0
 11
3.0937717605
 21
6.9587395816
 31
0.0
  0
LINE
  5
109
330
1F
100
AcDbEntity
  8
0
  6
Continuous
 62
     7
370
     0
100
AcDbLine
 10
3.0937717605
 20
6.9587395816
 30
0.0
 11
3.0737717915
 21
6.938739576
 31
0.0
  0
LINE
  5
10A
330
1F
100
AcDbEntity
  8
0
  6
Continuous
 62
     7
370
     0
100
AcDbLine
 10
3.0737717915
 20
6.408739592
 30
0.0
 11
3.0937717605
 21
6.3887395863
 31
0.0
  0
LINE
  5
10B
330
1F
100
AcDbEntity
  8
0
  6
Continuous
 62
     7
370
     0
100
AcDbLine
 10
3.3637717081
 20
6.3887395863
 30
0.0
 11
3.3837718237
 21
6.408739592
 31
0.0
  0
LINE
  5
10C
330
1F
100
AcDbEntity
  8
0
  6
Continuous
 62
     7
370
     0
100
AcDbLine
 10
3.3837718237
 20
6.938739576
 30
0.0
 11
3.3637717081
 21
6.9587395816
 31
0.0
  0
ARC
  5
10D
330
1F
100
AcDbEntity
  8
0
  6
Continuous
 62
     7
370
     0
100
AcDbCircle
 10
3.3937717736
 20
6.538739584
 30
0.0
 40
0.0100000000000002
100
AcDbArc
 50
90.0
 51
180.0
  0
ARC
  5
10E
330
1F
100
AcDbEntity
  8
0
  6
Continuous
 62
     7
370
     0
100
AcDbCircle
 10
3.3937717736
 20
6.808739584
 30
0.0
 40
0.0100000000000002
100
AcDbArc
 50
180.0
 51
270.0
  0
LINE
  5
10F
330
1F
100
AcDbEntity
  8
0
  6
Continuous
 62
     7
370
     0
100
AcDbLine
 10
3.3937717348
 20
6.5487395855
 30
0.0
 11
3.4999156687
 21
6.5487395855
 31
0.0
  0
LINE
  5
110
330
1F
100
AcDbEntity
  8
0
  6
Continuous
 62
     7
370
     0
100
AcDbLine
 10
3.4999156687
 20
6.7987395825
 30
0.0
 11
3.3937717348
 21
6.7987395825
 31
0.0
  0
LINE
  5
111
330
1F
100
AcDbEntity
  8
0
  6
Continuous
 62
     7
370
     0
100
AcDbLine
 10
3.0737093122
 20
6.6925157816
 30
0.0
 11
3.0737717915
 21
6.6925157816
 31
0.0
  0
CIRCLE
  5
112
330
1F
100
AcDbEntity
  8
0
  6
Continuous
 62
     7
370
     0
100
AcDbCircle
 10
3.9757717736
 20
6.673739584
 30
0.0
 40
0.4053974596215557
  0
CIRCLE
  5
113
330
1F
100
AcDbEntity
  8
0
  6
Continuous
 62
     7
370
     0
100
AcDbCircle
 10
3.9757717736
 20
6.673739584
 30
0.0
 40
0.492
  0
LINE
  5
114
330
1F
100
AcDbEntity
  8
0
  6
Continuous
 62
     7
370
     0
100
AcDbLine
 10
4.2094237524
 20
6.8307395786
 30
0.0
 11
4.2707718037
 21
6.8307395786
 31
0.0
  0
ARC
  5
115
330
1F
100
AcDbEntity
  8
0
  6
Continuous
 62
     7
370
     0
100
AcDbCircle
 10
3.9757717736
 20
6.673739584
 30
0.0
 40
0.2814999999999994
100
AcDbArc
 50
33.8987130402
 51
326.1012869598
  0
LINE
  5
116
330
1F
100
AcDbEntity
  8
0
  6
Continuous
 62
     7
370
     0
100
AcDbLine
 10
4.2707718037
 20
6.5167395893
 30
0.0
 11
4.2094237524
 21
6.5167395893
 31
0.0
  0
LINE
  5
117
330
1F
100
AcDbEntity
  8
0
  6
Continuous
 62
     7
370
     0
100
AcDbLine
 10
4.2707718037
 20
6.8307395786
 30
0.0
 11
4.2707718037
 21
6.5167395893
 31
0.0
  0
ARC
  5
118
330
1F
100
AcDbEntity
  8
0
  6
Continuous
 62
     7
370
     0
100
AcDbCircle
 10
3.9757717736
 20
6.673739584
 30
0.0
 40
0.2515000000000007
100
AcDbArc
 50
30.3293727942
 51
329.6706272058
  0
LINE
  5
119
330
1F
100
AcDbEntity
  8
0
  6
Continuous
 62
     7
370
     0
100
AcDbLine
 10
4.1928506838
 20
6.5467395794
 30
0.0
 11
4.2094237524
 21
6.5167395893
 31
0.0
  0
LINE
  5
11A
330
1F
100
AcDbEntity
  8
0
  6
Continuous
 62
     7
370
     0
100
AcDbLine
 10
4.1928506838
 20
6.8007395885
 30
0.0
 11
4.2094237524
 21
6.8307395786
 31
0.0
  0
LINE
  5
11B
330
1F
100
AcDbEntity
  8
0
  6
Continuous
 62
     7
370
     0
100
AcDbLine
 10
4.2407717769
 20
6.8007395885
 30
0.0
 11
4.1928506838
 21
6.8007395885
 31
0.0
  0
LINE
  5
11C
330
1F
100
AcDbEntity
  8
0
  6
Continuous
 62
     7
370
     0
100
AcDbLine
 10
4.2707718037
 20
6.8307395786
 30
0.0
 11
4.2407717769
 21
6.8007395885
 31
0.0
  0
LINE
  5
11D
330
1F
100
AcDbEntity
  8
0
  6
Continuous
 62
     7
370
     0
100
AcDbLine
 10
4.2707718037
 20
6.5167395893
 30
0.0
 11
4.2407717769
 21
6.5467395794
 31
0.0
  0
LINE
  5
11E
330
1F
100
AcDbEntity
  8
0
  6
Continuous
 62
     7
370
     0
100
AcDbLine
 10
4.2407717769
 20
6.5467395794
 30
0.0
 11
4.2407717769
 21
6.8007395885
 31
0.0
  0
LINE
  5
11F
330
1F
100
AcDbEntity
  8
0
  6
Continuous
 62
     7
370
     0
100
AcDbLine
 10
4.1928506838
 20
6.5467395794
 30
0.0
 11
4.2407717769
 21
6.5467395794
 31
0.0
  0
ARC
  5
120
330
1F
100
AcDbEntity
  8
0
  6
Continuous
 62
     7
370
     0
100
AcDbCircle
 10
3.9757717736
 20
6.673739584
 30
0.0
 40
0.2550000000000008
100
AcDbArc
 50
0.0
 51
29.8703601201
  0
ARC
  5
121
330
1F
100
AcDbEntity
  8
0
  6
Continuous
 62
     7
370
     0
100
AcDbCircle
 10
3.9757717736
 20
6.673739584
 30
0.0
 40
0.2550000000000003
100
AcDbArc
 50
330.1296398799
 51
0.0
  0
LINE
  5
122
330
1F
100
AcDbEntity
  8
0
  6
Continuous
 62
     7
370
     0
100
AcDbLine
 10
3.9757717849
 20
7.1657395904
 30
0.0
 11
5.9442756779
 21
7.1657395904
 31
0.0
  0
LINE
  5
123
330
1F
100
AcDbEntity
  8
0
  6
Continuous
 62
     7
370
     0
100
AcDbLine
 10
5.9442756779
 20
6.80623958
 30
0.0
 11
4.7257717758
 21
6.80623958
 31
0.0
  0
ARC
  5
124
330
1F
100
AcDbEntity
  8
0
  6
Continuous
 62
     7
370
     0
100
AcDbCircle
 10
4.7257717736
 20
6.673739584
 30
0.0
 40
0.1325000000000003
100
AcDbArc
 50
90.0
 51
270.0
  0
LINE
  5
125
330
1F
100
AcDbEntity
  8
0
  6
Continuous
 62
     7
370
     0
100
AcDbLine
 10
5.9442756779
 20
6.541239588
 30
0.0
 11
4.7257717758
 21
6.541239588
 31
0.0
  0
LINE
  5
126
330
1F
100
AcDbEntity
  8
0
  6
Continuous
 62
     7
370
     0
100
AcDbLine
 10
5.9442756779
 20
6.1817395776
 30
0.0
 11
5.9442756779
 21
6.541239588
 31
0.0
  0
LINE
  5
127
330
1F
100
AcDbEntity
  8
0
  6
Continuous
 62
     7
370
     0
100
AcDbLine
 10
3.9757717849
 20
6.1817395776
 30
0.0
 11
5.9442756779
 21
6.1817395776
 31
0.0
  0
LINE
  5
128
330
1F
100
AcDbEntity
  8
0
  6
Continuous
 62
     7
370
     0
100
AcDbLine
 10
5.9442756779
 20
7.1657395904
 30
0.0
 11
5.9442756779
 21
6.80623958
 31
0.0
  0
LINE
  5
129
330
1F
100
AcDbEntity
  8
0
  6
Continuous
 62
     7
370
     0
100
AcDbLine
 10
3.0937717605
 20
6.3887395863
 30
0.0
 11
3.0937717605
 21
6.9587395816
 31
0.0
  0
LINE
  5
12A
330
1F
100
AcDbEntity
  8
0
  6
Continuous
 62
     7
370
     0
100
AcDbLine
 10
3.3637717081
 20
6.3887395863
 30
0.0
 11
3.3637717081
 21
6.9587395816
 31
0.0
  0
LINE
  5
12B
330
1F
100
AcDbEntity
  8
0
  6
Continuous
 62
     7
370
     0
100
AcDbLine
 10
3.0737717915
 20
6.408739592
 30
0.0
 11
3.0737717915
 21
6.938739576
 31
0.0
  0
LINE
  5
12C
330
1F
100
AcDbEntity
  8
0
  6
Continuous
 62
     7
370
     0
100
AcDbLine
 10
3.3837718237
 20
6.408739592
 30
0.0
 11
3.3837718237
 21
6.938739576
 31
0.0
  0
DIMENSION
  5
12D
330
1F
100
AcDbEntity
  8
0
  6
Continuous
 62
     7
370
     0
100
AcDbDimension
  2
*D10
 10
4.7257717736
 20
7.5624403714
 30
0.0
 11
5.3350237421
 21
7.5624403714
 31
0.0
 70
   160
  1
31.0 mm\P(<>")
 71
     2
 42
-1.0
  3
SLDDIMSTYLE2
100
AcDbAlignedDimension
 13
5.9442757106
 23
7.165739584
 33
0.0
 14
4.7257717736
 24
6.723739584
 34
0.0
100
AcDbRotatedDimension
  0
DIMENSION
  5
13B
330
1F
100
AcDbEntity
  8
0
  6
Continuous
 62
     7
370
     0
100
AcDbDimension
  2
*D11
 10
4.8194632193
 20
6.5800477326
 30
0.0
 11
2.3074758387
 21
7.8423331379
 31
0.0
 70
   163
  1
CLEARANCE SLOT\PFOR USE WITH M6 (1/4"-20) CAP SCREW
 71
     1
 42
-1.0
  3
SLDDIMSTYLE3
100
AcDbDiametricDimension
 15
4.6320803279
 25
6.7674314353
 35
0.0
 40
0.0
  0
DIMENSION
  5
145
330
1F
100
AcDbEntity
  8
0
  6
Continuous
 62
     7
370
     0
100
AcDbDimension
  2
*D12
 10
6.5741969705
 20
6.181739584
 30
0.0
 11
6.5741969705
 21
6.673739584
 31
0.0
 70
   160
  1
25.0 mm\P(<>")
 71
     2
 42
-1.0
  3
SLDDIMSTYLE2
100
AcDbAlignedDimension
 13
5.9442757106
 23
7.165739584
 33
0.0
 14
5.9442757106
 24
6.181739584
 34
0.0
 50
90.0
100
AcDbRotatedDimension
  0
DIMENSION
  5
153
330
1F
100
AcDbEntity
  8
0
  6
Continuous
 62
     7
370
     0
100
AcDbDimension
  2
*D13
 10
4.3360217348
 20
7.0088275806
 30
0.0
 11
2.8857046554
 21
6.1272901907
 31
0.0
 70
   163
  1
%%c25.0 mm\P(<>")
 71
     1
 42
-1.0
  3
SLDDIMSTYLE4
100
AcDbDiametricDimension
 15
3.6155218125
 25
6.3386515874
 35
0.0
 40
0.0
  0
DIMENSION
  5
161
330
1F
100
AcDbEntity
  8
0
  6
Continuous
 62
     7
370
     0
100
AcDbDimension
  2
*D14
 10
4.1536033515
 20
6.4958964511
 30
0.0
 11
2.2656372556
 21
7.3854614036
 31
0.0
 70
   163
  1
%%c12.8 mm (<>") THRU\PFOR USE WITH TR SERIES POSTS
 71
     1
 42
-1.0
  3
SLDDIMSTYLE5
100
AcDbDiametricDimension
 15
3.7979401958
 25
6.8515827169
 35
0.0
 40
0.0
  0
INSERT
  5
176
330
1F
100
AcDbEntity
  8
0
  6
Continuous
 62
     7
370
     0
100
AcDbBlockReference
  2
SW_CENTERMARKSYMBOL_0
 10
4.7257717736
 20
6.673739584
 30
0.0
  0
INSERT
  5
17E
330
1F
100
AcDbEntity
  8
0
  6
Continuous
 62
     7
370
     0
100
AcDbBlockReference
  2
SW_CENTERMARKSYMBOL_1
 10
3.9757717736
 20
6.673739584
 30
0.0
  0
ARC
  5
17F
330
1F
100
AcDbEntity
  8
0
  6
Continuous
 62
     7
370
     0
100
AcDbCircle
 10
3.7037717736
 20
1.7401613628
 30
0.0
 40
0.0450000000000004
100
AcDbArc
 50
301.4066750694
 51
58.5933249306
  0
LINE
  5
180
330
1F
100
AcDbEntity
  8
0
  6
Continuous
 62
     7
370
     0
100
AcDbLine
 10
3.3637717081
 20
1.4551613652
 30
0.0
 11
3.3837718237
 21
1.4751613708
 31
0.0
  0
LINE
  5
181
330
1F
100
AcDbEntity
  8
0
  6
Continuous
 62
     7
370
     0
100
AcDbLine
 10
3.3837718237
 20
2.0051613549
 30
0.0
 11
3.3637717081
 21
2.0251613605
 31
0.0
  0
LINE
  5
182
330
1F
100
AcDbEntity
  8
0
  6
Continuous
 62
     7
370
     0
100
AcDbLine
 10
3.0937717605
 20
2.0251613605
 30
0.0
 11
3.0737717915
 21
2.0051613549
 31
0.0
  0
LINE
  5
183
330
1F
100
AcDbEntity
  8
0
  6
Continuous
 62
     7
370
     0
100
AcDbLine
 10
3.0737717915
 20
1.4751613708
 30
0.0
 11
3.0937717605
 21
1.4551613652
 31
0.0
  0
LINE
  5
184
330
1F
100
AcDbEntity
  8
0
  6
Continuous
 62
     7
370
     0
100
AcDbLine
 10
3.0937717605
 20
1.4551613652
 30
0.0
 11
3.3637717081
 21
1.4551613652
 31
0.0
  0
LINE
  5
185
330
1F
100
AcDbEntity
  8
0
  6
Continuous
 62
     7
370
     0
100
AcDbLine
 10
3.3637717081
 20
2.0251613605
 30
0.0
 11
3.0937717605
 21
2.0251613605
 31
0.0
  0
LINE
  5
186
330
1F
100
AcDbEntity
  8
0
  6
Continuous
 62
     7
370
     0
100
AcDbLine
 10
3.0737717915
 20
1.7213851653
 30
0.0
 11
3.0737093122
 21
1.7213851653
 31
0.0
  0
LINE
  5
187
330
1F
100
AcDbEntity
  8
0
  6
Continuous
 62
     7
370
     0
100
AcDbLine
 10
3.0737717915
 20
1.7003229168
 30
0.0
 11
3.0737093122
 21
1.7003229168
 31
0.0
  0
ARC
  5
188
330
1F
100
AcDbEntity
  8
0
  6
Continuous
 62
     7
370
     0
100
AcDbCircle
 10
3.3937717736
 20
1.6051613628
 30
0.0
 40
0.0100000000000002
100
AcDbArc
 50
90.0
 51
180.0
  0
ARC
  5
189
330
1F
100
AcDbEntity
  8
0
  6
Continuous
 62
     7
370
     0
100
AcDbCircle
 10
3.3937717736
 20
1.8751613628
 30
0.0
 40
0.0100000000000002
100
AcDbArc
 50
180.0
 51
270.0
  0
LINE
  5
18A
330
1F
100
AcDbEntity
  8
0
  6
Continuous
 62
     7
370
     0
100
AcDbLine
 10
3.3937717348
 20
1.6151613644
 30
0.0
 11
3.4999156687
 21
1.6151613644
 31
0.0
  0
LINE
  5
18B
330
1F
100
AcDbEntity
  8
0
  6
Continuous
 62
     7
370
     0
100
AcDbLine
 10
3.4999156687
 20
1.8651613613
 30
0.0
 11
3.3937717348
 21
1.8651613613
 31
0.0
  0
LINE
  5
18C
330
1F
100
AcDbEntity
  8
0
  6
Continuous
 62
     7
370
     0
100
AcDbLine
 10
4.1928506838
 20
1.6131613583
 30
0.0
 11
4.1968961437
 21
1.6131613583
 31
0.0
  0
LINE
  5
18D
330
1F
100
AcDbEntity
  8
0
  6
Continuous
 62
     7
370
     0
100
AcDbLine
 10
4.1928506838
 20
1.8671613674
 30
0.0
 11
4.1968961437
 21
1.8671613674
 31
0.0
  0
ARC
  5
18E
330
1F
100
AcDbEntity
  8
0
  6
Continuous
 62
     7
370
     0
100
AcDbCircle
 10
3.9757717736
 20
1.7401613628
 30
0.0
 40
0.2515000000000007
100
AcDbArc
 50
30.3293727942
 51
329.6706272058
  0
CIRCLE
  5
18F
330
1F
100
AcDbEntity
  8
0
  6
Continuous
 62
     7
370
     0
100
AcDbCircle
 10
3.9757717736
 20
1.7401613628
 30
0.0
 40
0.2550000000000003
  0
CIRCLE
  5
190
330
1F
100
AcDbEntity
  8
0
  6
Continuous
 62
     7
370
     0
100
AcDbCircle
 10
3.9757717736
 20
1.7401613628
 30
0.0
 40
0.4920000000000004
  0
CIRCLE
  5
191
330
1F
100
AcDbEntity
  8
0
  6
Continuous
 62
     7
370
     0
100
AcDbCircle
 10
4.3507717736
 20
1.7401613628
 30
0.0
 40
0.1050000000000004
  0
CIRCLE
  5
192
330
1F
100
AcDbEntity
  8
0
  6
Continuous
 62
     7
370
     0
100
AcDbCircle
 10
3.7882717736
 20
1.4154018364
 30
0.0
 40
0.105
  0
CIRCLE
  5
193
330
1F
100
AcDbEntity
  8
0
  6
Continuous
 62
     7
370
     0
100
AcDbCircle
 10
3.7882717736
 20
2.0649208893
 30
0.0
 40
0.1049999999999995
  0
CIRCLE
  5
194
330
1F
100
AcDbEntity
  8
0
  6
Continuous
 62
     7
370
     0
100
AcDbCircle
 10
3.7882717736
 20
1.4154018364
 30
0.0
 40
0.0949999999999998
  0
CIRCLE
  5
195
330
1F
100
AcDbEntity
  8
0
  6
Continuous
 62
     7
370
     0
100
AcDbCircle
 10
4.3507717736
 20
1.7401613628
 30
0.0
 40
0.0949999999999998
  0
CIRCLE
  5
196
330
1F
100
AcDbEntity
  8
0
  6
Continuous
 62
     7
370
     0
100
AcDbCircle
 10
3.7882717736
 20
2.0649208893
 30
0.0
 40
0.0949999999999998
  0
LINE
  5
197
330
1F
100
AcDbEntity
  8
0
  6
Continuous
 62
     7
370
     0
100
AcDbLine
 10
5.9442756779
 20
1.2481613565
 30
0.0
 11
5.9442756779
 21
1.6076613668
 31
0.0
  0
LINE
  5
198
330
1F
100
AcDbEntity
  8
0
  6
Continuous
 62
     7
370
     0
100
AcDbLine
 10
5.744275695
 20
1.2481613565
 30
0.0
 11
5.9442756779
 21
1.2481613565
 31
0.0
  0
LINE
  5
199
330
1F
100
AcDbEntity
  8
0
  6
Continuous
 62
     7
370
     0
100
AcDbLine
 10
5.744275695
 20
1.2481613565
 30
0.0
 11
5.744275695
 21
1.6076613668
 31
0.0
  0
LINE
  5
19A
330
1F
100
AcDbEntity
  8
0
  6
Continuous
 62
     7
370
     0
100
AcDbLine
 10
5.9442756779
 20
1.6076613668
 30
0.0
 11
5.744275695
 21
1.6076613668
 31
0.0
  0
LINE
  5
19B
330
1F
100
AcDbEntity
  8
0
  6
Continuous
 62
     7
370
     0
100
AcDbLine
 10
5.744275695
 20
2.2321613692
 30
0.0
 11
5.9442756779
 21
2.2321613692
 31
0.0
  0
LINE
  5
19C
330
1F
100
AcDbEntity
  8
0
  6
Continuous
 62
     7
370
     0
100
AcDbLine
 10
5.9442756779
 20
2.2321613692
 30
0.0
 11
5.9442756779
 21
1.8726613589
 31
0.0
  0
LINE
  5
19D
330
1F
100
AcDbEntity
  8
0
  6
Continuous
 62
     7
370
     0
100
AcDbLine
 10
5.9442756779
 20
1.8726613589
 30
0.0
 11
5.744275695
 21
1.8726613589
 31
0.0
  0
LINE
  5
19E
330
1F
100
AcDbEntity
  8
0
  6
Continuous
 62
     7
370
     0
100
AcDbLine
 10
5.744275695
 20
1.8726613589
 30
0.0
 11
5.744275695
 21
2.2321613692
 31
0.0
  0
LINE
  5
19F
330
1F
100
AcDbEntity
  8
0
  6
Continuous
 62
     7
370
     0
100
AcDbLine
 10
4.1757717678
 20
2.2093095365
 30
0.0
 11
4.1757717678
 21
2.2321613692
 31
0.0
  0
ARC
  5
1A0
330
1F
100
AcDbEntity
  8
0
  6
Continuous
 62
     7
370
     0
100
AcDbCircle
 10
4.7257717736
 20
1.7401613628
 30
0.0
 40
0.1325000000000003
100
AcDbArc
 50
90.0
 51
270.0
  0
ARC
  5
1A1
330
1F
100
AcDbEntity
  8
0
  6
Continuous
 62
     7
370
     0
100
AcDbCircle
 10
3.9757717736
 20
1.7401613628
 30
0.0
 40
0.5100000000000002
100
AcDbArc
 50
293.088772437
 51
66.911227563
  0
LINE
  5
1A2
330
1F
100
AcDbEntity
  8
0
  6
Continuous
 62
     7
370
     0
100
AcDbLine
 10
4.1757717678
 20
1.2481613565
 30
0.0
 11
4.1757717678
 21
1.2710131892
 31
0.0
  0
LINE
  5
1A3
330
1F
100
AcDbEntity
  8
0
  6
Continuous
 62
     7
370
     0
100
AcDbLine
 10
4.1757717678
 20
2.2321613692
 30
0.0
 11
5.744275695
 21
2.2321613692
 31
0.0
  0
LINE
  5
1A4
330
1F
100
AcDbEntity
  8
0
  6
Continuous
 62
     7
370
     0
100
AcDbLine
 10
5.744275695
 20
1.8726613589
 30
0.0
 11
4.7257717758
 21
1.8726613589
 31
0.0
  0
LINE
  5
1A5
330
1F
100
AcDbEntity
  8
0
  6
Continuous
 62
     7
370
     0
100
AcDbLine
 10
5.744275695
 20
1.6076613668
 30
0.0
 11
4.7257717758
 21
1.6076613668
 31
0.0
  0
LINE
  5
1A6
330
1F
100
AcDbEntity
  8
0
  6
Continuous
 62
     7
370
     0
100
AcDbLine
 10
4.1757717678
 20
1.2481613565
 30
0.0
 11
5.744275695
 21
1.2481613565
 31
0.0
  0
LINE
  5
1A7
330
1F
100
AcDbEntity
  8
0
  6
Continuous
 62
     7
370
     0
100
AcDbLine
 10
3.9757717849
 20
2.2321613692
 30
0.0
 11
4.1757717678
 21
2.2321613692
 31
0.0
  0
LINE
  5
1A8
330
1F
100
AcDbEntity
  8
0
  6
Continuous
 62
     7
370
     0
100
AcDbLine
 10
3.9757717849
 20
1.2481613565
 30
0.0
 11
4.1757717678
 21
1.2481613565
 31
0.0
  0
CIRCLE
  5
1A9
330
1F
100
AcDbEntity
  8
0
  6
Continuous
 62
     7
370
     0
100
AcDbCircle
 10
3.7882717736
 20
2.0649208893
 30
0.0
 40
0.0937500000000006
  0
CIRCLE
  5
1AA
330
1F
100
AcDbEntity
  8
0
  6
Continuous
 62
     7
370
     0
100
AcDbCircle
 10
3.7882717736
 20
1.4154018364
 30
0.0
 40
0.0937499999999996
  0
CIRCLE
  5
1AB
330
1F
100
AcDbEntity
  8
0
  6
Continuous
 62
     7
370
     0
100
AcDbCircle
 10
4.3507717736
 20
1.7401613628
 30
0.0
 40
0.0937500000000001
  0
LINE
  5
1AC
330
1F
100
AcDbEntity
  8
0
  6
Continuous
 62
     7
370
     0
100
AcDbLine
 10
3.3637717081
 20
1.7401613628
 30
0.0
 11
3.3637717081
 21
2.0251613605
 31
0.0
  0
LINE
  5
1AD
330
1F
100
AcDbEntity
  8
0
  6
Continuous
 62
     7
370
     0
100
AcDbLine
 10
3.3637717081
 20
1.4551613652
 30
0.0
 11
3.3637717081
 21
1.7401613628
 31
0.0
  0
LINE
  5
1AE
330
1F
100
AcDbEntity
  8
0
  6
Continuous
 62
     7
370
     0
100
AcDbLine
 10
3.3837718237
 20
1.7401613628
 30
0.0
 11
3.3837718237
 21
2.0051613549
 31
0.0
  0
LINE
  5
1AF
330
1F
100
AcDbEntity
  8
0
  6
Continuous
 62
     7
370
     0
100
AcDbLine
 10
3.3837718237
 20
1.4751613708
 30
0.0
 11
3.3837718237
 21
1.7401613628
 31
0.0
  0
LINE
  5
1B0
330
1F
100
AcDbEntity
  8
0
  6
Continuous
 62
     7
370
     0
100
AcDbLine
 10
3.0737717915
 20
1.7401613628
 30
0.0
 11
3.0737717915
 21
2.0051613549
 31
0.0
  0
LINE
  5
1B1
330
1F
100
AcDbEntity
  8
0
  6
Continuous
 62
     7
370
     0
100
AcDbLine
 10
3.0737717915
 20
1.4751613708
 30
0.0
 11
3.0737717915
 21
1.7401613628
 31
0.0
  0
LINE
  5
1B2
330
1F
100
AcDbEntity
  8
0
  6
Continuous
 62
     7
370
     0
100
AcDbLine
 10
3.0937717605
 20
1.7401613628
 30
0.0
 11
3.0937717605
 21
2.0251613605
 31
0.0
  0
LINE
  5
1B3
330
1F
100
AcDbEntity
  8
0
  6
Continuous
 62
     7
370
     0
100
AcDbLine
 10
3.0937717605
 20
1.4551613652
 30
0.0
 11
3.0937717605
 21
1.7401613628
 31
0.0
  0
DIMENSION
  5
1B4
330
1F
100
AcDbEntity
  8
0
  6
Continuous
 62
     7
370
     0
100
AcDbDimension
  2
*D17
 10
3.9757717736
 20
0.8544605754
 30
0.0
 11
4.9600237421
 21
0.8544605754
 31
0.0
 70
   160
  1
50.0 mm\P(<>")
 71
     2
 42
-1.0
  3
SLDDIMSTYLE2
100
AcDbAlignedDimension
 13
5.9442757106
 23
1.2481613628
 33
0.0
 14
3.9757717736
 24
1.6901613628
 34
0.0
 50
0.0
100
AcDbRotatedDimension
  0
DIMENSION
  5
1C2
330
1F
100
AcDbEntity
  8
0
  6
Continuous
 62
     7
370
     0
100
AcDbDimension
  2
*D18
 10
2.6800709862
 20
1.4551613628
 30
0.0
 11
2.6800709862
 21
1.7401613628
 31
0.0
 70
   160
  1
%%c14.5 mm\P(%%c<>")
 71
     2
 42
-1.0
  3
SLDDIMSTYLE0
100
AcDbAlignedDimension
 13
3.0937717736
 23
2.0251613628
 33
0.0
 14
3.0937717736
 24
1.4551613628
 34
0.0
 50
90.0
100
AcDbRotatedDimension
  0
DIMENSION
  5
1D2
330
1F
100
AcDbEntity
  8
0
  6
Continuous
 62
     7
370
     0
100
AcDbDimension
  2
*D19
 10
3.3837717736
 20
2.5637100946
 30
0.0
 11
3.8990819051
 21
2.5637100946
 31
0.0
 70
   160
  1
7.9 mm\P(<>")
 71
     1
 42
-1.0
  3
SLDDIMSTYLE0
100
AcDbAlignedDimension
 13
3.0737717736
 23
2.0051613628
 33
0.0
 14
3.3837717736
 24
2.0051613628
 34
0.0
100
AcDbRotatedDimension
  0
DIMENSION
  5
1E0
330
1F
100
AcDbEntity
  8
0
  6
Continuous
 62
     7
370
     0
100
AcDbDimension
  2
*D20
 10
3.8553934875
 20
1.4961463442
 30
0.0
 11
3.0276541957
 21
0.979738129
 31
0.0
 70
   163
  1
MAGNET\P3 PLACES
 71
     1
 42
-1.0
  3
SLDDIMSTYLE6
100
AcDbDiametricDimension
 15
3.7211500598
 25
1.3346573287
 35
0.0
 40
0.0
  0
INSERT
  5
1F1
102
{ACAD_REACTORS
330
1FB
102
}
330
1F
100
AcDbEntity
  8
0
  6
Continuous
 62
     7
370
     0
100
AcDbBlockReference
  2
SW_NOTE_4
 10
5.5611568065
 20
2.5466120275
 30
0.0
  0
LEADER
  5
1FB
330
1F
100
AcDbEntity
  8
0
  6
Continuous
 62
     7
370
     0
100
AcDbLeader
  3
SLDDIMSTYLE7
 73
     2
 76
     3
 10
5.0192840763
 20
2.0616872763
 30
0.0
 10
5.3111568065
 20
2.5466120275
 30
0.0
 10
5.5611568065
 20
2.5466120275
 30
0.0
340
1F1
  0
INSERT
  5
203
330
1F
100
AcDbEntity
  8
0
  6
Continuous
 62
     7
370
     0
100
AcDbBlockReference
  2
SW_CENTERMARKSYMBOL_2
 10
3.9757717736
 20
1.7401613628
 30
0.0
  0
LINE
  5
204
330
1F
100
AcDbEntity
  8
0
  6
Continuous
 62
     7
370
     0
100
AcDbLine
 10
8.6465763344
 20
6.8623398863
 30
0.0
 11
8.5675168236
 21
6.9644141222
 31
0.0
  0
LINE
  5
205
330
1F
100
AcDbEntity
  8
0
  6
Continuous
 62
     7
370
     0
100
AcDbLine
 10
7.8273416575
 20
6.9644141222
 30
0.0
 11
7.7482821466
 21
6.8623398863
 31
0.0
  0
LINE
  5
206
330
1F
100
AcDbEntity
  8
0
  6
Continuous
 62
     7
370
     0
100
AcDbLine
 10
8.6894292405
 20
3.974249727
 30
0.0
 11
8.6894292405
 21
6.7464057834
 31
0.0
  0
LINE
  5
207
330
1F
100
AcDbEntity
  8
0
  6
Continuous
 62
     7
370
     0
100
AcDbLine
 10
7.7054292405
 20
6.7464057834
 30
0.0
 11
7.7054292405
 21
3.974249727
 31
0.0
  0
LINE
  5
208
330
1F
100
AcDbEntity
  8
0
  6
Continuous
 62
     7
370
     0
100
AcDbLine
 10
7.849476175
 20
3.7734459704
 30
0.0
 11
7.8671567169
 21
3.763235893
 31
0.0
  0
LINE
  5
209
330
1F
100
AcDbEntity
  8
0
  6
Continuous
 62
     7
370
     0
100
AcDbLine
 10
8.5277017641
 20
3.763235893
 30
0.0
 11
8.5453823061
 21
3.7734459704
 31
0.0
  0
LINE
  5
20A
330
1F
100
AcDbEntity
  8
0
  6
Continuous
 62
     7
370
     0
100
AcDbLine
 10
7.7054292405
 20
3.7235716978
 30
0.0
 11
7.7054292405
 21
3.601090576
 31
0.0
  0
LINE
  5
20B
330
1F
100
AcDbEntity
  8
0
  6
Continuous
 62
     7
370
     0
100
AcDbLine
 10
7.7054292405
 20
3.9505700435
 30
0.0
 11
7.7054292405
 21
3.7235716978
 31
0.0
  0
ARC
  5
20C
330
1F
100
AcDbEntity
  8
0
  6
Continuous
 62
     7
370
     0
100
AcDbCircle
 10
8.005096196
 20
6.7186253485
 30
0.0
 40
0.0450000000000013
100
AcDbArc
 50
16.0146835306
 51
60.0026882663
  0
LINE
  5
20D
330
1F
100
AcDbEntity
  8
0
  6
Continuous
 62
     7
370
     0
100
AcDbLine
 10
8.0275943675
 20
6.7575975473
 30
0.0
 11
8.0060896329
 21
6.7700119664
 31
0.0
  0
LINE
  5
20E
330
1F
100
AcDbEntity
  8
0
  6
Continuous
 62
     7
370
     0
100
AcDbLine
 10
7.4312726401
 20
6.7208058969
 30
0.0
 11
7.622191471
 21
6.6105908018
 31
0.0
  0
LINE
  5
20F
330
1F
100
AcDbEntity
  8
0
  6
Continuous
 62
     7
370
     0
100
AcDbLine
 10
7.9071683098
 20
7.1042386533
 30
0.0
 11
7.7162494789
 21
7.2144537484
 31
0.0
  0
LINE
  5
210
330
1F
100
AcDbEntity
  8
0
  6
Continuous
 62
     7
370
     0
100
AcDbLine
 10
7.8763141025
 20
7.0181301746
 30
0.0
 11
7.8692430347
 21
7.0222122152
 31
0.0
  0
LINE
  5
211
330
1F
100
AcDbEntity
  8
0
  6
Continuous
 62
     7
370
     0
100
AcDbLine
 10
7.6742588818
 20
6.6844531588
 30
0.0
 11
7.6813299496
 21
6.6803711183
 31
0.0
  0
LINE
  5
212
330
1F
100
AcDbEntity
  8
0
  6
Continuous
 62
     7
370
     0
100
AcDbLine
 10
7.573728306
 20
7.2003250427
 30
0.0
 11
7.5595884688
 21
7.1921596347
 31
0.0
  0
LINE
  5
213
330
1F
100
AcDbEntity
  8
0
  6
Continuous
 62
     7
370
     0
100
AcDbLine
 10
7.3722356269
 20
6.8676198289
 30
0.0
 11
7.3722356269
 21
6.8512916667
 31
0.0
  0
LWPOLYLINE
  5
214
330
1F
100
AcDbEntity
  8
0
  6
Continuous
 62
     7
370
     0
100
AcDbPolyline
 90
       80
 70
   128
 43
0.0
 10
7.9107699477
 20
7.0343717924
 10
7.8889009952
 20
7.0207008661
 10
7.8689826576
 20
7.0060701231
 10
7.8511408651
 20
6.9905720636
 10
7.8354884191
 20
6.9743046713
 10
7.8221242796
 20
6.957370794
 10
7.8111329389
 20
6.939877493
 10
7.8025838877
 20
6.9219353667
 10
7.796531176
 20
6.903657851
 10
7.793013071
 20
6.8851605021
 10
7.7920518151
 20
6.8665602663
 10
7.7936534859
 20
6.8479747403
 10
7.797807957
 20
6.8295214277
 10
7.8044889626
 20
6.8113169963
 10
7.813654263
 20
6.7934765404
 10
7.8252459125
 20
6.7761128532
 10
7.8391906248
 20
6.7593357133
 10
7.8554002369
 20
6.7432511914
 10
7.8737722666
 20
6.7279609789
 10
7.8941905598
 20
6.7135617455
 10
7.9165260256
 20
6.7001445277
 10
7.940637452
 20
6.6877941536
 10
7.9663723987
 20
6.6765887062
 10
7.9935681612
 20
6.6665990299
 10
8.0220527991
 20
6.6578882827
 10
8.0516462233
 20
6.6505115367
 10
8.0821613347
 20
6.64451543
 10
8.1134052068
 20
6.6399378722
 10
8.145180306
 20
6.6368078038
 10
8.1772857398
 20
6.6351450142
 10
8.2095185273
 20
6.6349600161
 10
8.2416748824
 20
6.6362539791
 10
8.2735515023
 20
6.6390187223
 10
8.3049468527
 20
6.6432367663
 10
8.3356624422
 20
6.648881443
 10
8.3655040769
 20
6.6559170651
 10
8.3942830884
 20
6.6642991512
 10
8.4218175264
 20
6.6739747068
 10
8.4479333095
 20
6.6848825602
 10
8.4724653252
 20
6.6969537483
 10
8.4952584742
 20
6.7101119531
 10
8.5161686509
 20
6.7242739843
 10
8.5350636544
 20
6.739350305
 10
8.5518240244
 20
6.7552455977
 10
8.5663437965
 20
6.7718593674
 10
8.5785311721
 20
6.7890865764
 10
8.5883090984
 20
6.8068183088
 10
8.5956157565
 20
6.8249424588
 10
8.6004049513
 20
6.8433444398
 10
8.6026464038
 20
6.8619079085
 10
8.602325943
 20
6.8805155006
 10
8.5994455948
 20
6.899049573
 10
8.5940235698
 20
6.9173929473
 10
8.5860941478
 20
6.9354296508
 10
8.5757074611
 20
6.9530456496
 10
8.5629291777
 20
6.9701295698
 10
8.547840086
 20
6.9865734012
 10
8.5305355841
 20
7.0022731807
 10
8.5111250767
 20
7.0171296492
 10
8.4897312831
 20
7.0310488794
 10
8.466489462
 20
7.0439428693
 10
8.4415465555
 20
7.0557300991
 10
8.4150602608
 20
7.0663360461
 10
8.3871980326
 20
7.075693656
 10
8.3581360251
 20
7.0837437671
 10
8.3280579775
 20
7.0904354838
 10
8.297154053
 20
7.0957264992
 10
8.2656196361
 20
7.0995833616
 10
8.2336540976
 20
7.1019816867
 10
8.2014595339
 20
7.1029063116
 10
8.1692394893
 20
7.1023513904
 10
8.1371976695
 20
7.1003204316
 10
8.105536653
 20
7.0968262755
 10
8.0744566111
 20
7.0918910133
 10
8.0441540417
 20
7.0855458474
 10
8.0148205274
 20
7.0778308938
 10
7.9866415243
 20
7.0687949291
 10
7.959795189
 20
7.0584950815
 10
7.9344512526
 20
7.04699647
 10
7.9107699477
 20
7.0343717924
  0
LWPOLYLINE
  5
215
330
1F
100
AcDbEntity
  8
0
  6
Continuous
 62
     7
370
     0
100
AcDbPolyline
 90
       57
 70
   128
 43
0.0
 10
8.6465763344
 20
6.8623398863
 10
8.6493868059
 20
6.8586409063
 10
8.6622374238
 20
6.8395216878
 10
8.6726647471
 20
6.8199170061
 10
8.6806144124
 20
6.7999290709
 10
8.6860449741
 20
6.7796620901
 10
8.6889281195
 20
6.7592217263
 10
8.6892488173
 20
6.7387145461
 10
8.6870053957
 20
6.7182474645
 10
8.6822095506
 20
6.6979271873
 10
8.6748862855
 20
6.677859655
 10
8.6650737804
 20
6.6581494905
 10
8.6528231932
 20
6.6388994535
 10
8.6381983928
 20
6.6202099047
 10
8.6212756262
 20
6.6021782827
 10
8.6021431207
 20
6.5848985962
 10
8.5809006245
 20
6.5684609333
 10
8.557658886
 20
6.5529509926
 10
8.532539077
 20
6.5384496355
 10
8.5056721604
 20
6.5250324655
 10
8.477198208
 20
6.5127694334
 10
8.4472656698
 20
6.5017244731
 10
8.4160306
 20
6.4919551679
 10
8.3836558441
 20
6.4835124503
 10
8.3503101888
 20
6.4764403369
 10
8.316167483
 20
6.4707756983
 10
8.2814057311
 20
6.4665480673
 10
8.2462061646
 20
6.4637794849
 10
8.2107522978
 20
6.4624843851
 10
8.1752289707
 20
6.46266952
 10
8.1398213856
 20
6.4643339245
 10
8.1047141412
 20
6.4674689209
 10
8.0700902703
 20
6.4720581651
 10
8.0361302859
 20
6.4780777307
 10
8.0030112396
 20
6.4854962345
 10
7.9709057986
 20
6.4942749999
 10
7.9399813461
 20
6.5043682584
 10
7.9103991076
 20
6.5157233885
 10
7.8823133113
 20
6.5282811898
 10
7.8558703836
 20
6.5419761918
 10
7.8312081856
 20
6.556736995
 10
7.8084552947
 20
6.5724866434
 10
7.7877303337
 20
6.5891430257
 10
7.7691413532
 20
6.6066193032
 10
7.7527852674
 20
6.6248243626
 10
7.7387473494
 20
6.6436632913
 10
7.7271007863
 20
6.6630378718
 10
7.7179062981
 20
6.682847094
 10
7.7112118204
 20
6.7029876817
 10
7.7070522553
 20
6.7233546313
 10
7.7054492886
 20
6.743841759
 10
7.7064112777
 20
6.7643422543
 10
7.709933207
 20
6.7847492371
 10
7.7159967149
 20
6.8049563149
 10
7.7245701891
 20
6.8248581374
 10
7.7356089315
 20
6.8443509456
 10
7.7482821466
 20
6.8623398863
  0
LWPOLYLINE
  5
216
330
1F
100
AcDbEntity
  8
0
  6
Continuous
 62
     7
370
     0
100
AcDbPolyline
 90
       46
 70
   128
 43
0.0
 10
7.7054292405
 20
3.974249727
 10
7.7054492886
 20
3.9716857026
 10
7.7070522553
 20
3.951198575
 10
7.7112118204
 20
3.9308316254
 10
7.7179062981
 20
3.9106910376
 10
7.7271007863
 20
3.8908818155
 10
7.7387473494
 20
3.871507235
 10
7.7527852674
 20
3.8526683063
 10
7.7691413532
 20
3.8344632468
 10
7.7877303337
 20
3.8169869693
 10
7.8084552947
 20
3.800330587
 10
7.8312081856
 20
3.7845809386
 10
7.8558703836
 20
3.7698201354
 10
7.8823133113
 20
3.7561251335
 10
7.9103991076
 20
3.7435673322
 10
7.9399813461
 20
3.7322122021
 10
7.9709057986
 20
3.7221189435
 10
8.0030112396
 20
3.7133401781
 10
8.0361302859
 20
3.7059216743
 10
8.0700902703
 20
3.6999021087
 10
8.1047141412
 20
3.6953128646
 10
8.1398213856
 20
3.6921778681
 10
8.1752289707
 20
3.6905134637
 10
8.2107522978
 20
3.6903283287
 10
8.2462061646
 20
3.6916234285
 10
8.2814057311
 20
3.6943920109
 10
8.316167483
 20
3.6986196419
 10
8.3503101888
 20
3.7042842805
 10
8.3836558441
 20
3.711356394
 10
8.4160306
 20
3.7197991115
 10
8.4472656698
 20
3.7295684168
 10
8.477198208
 20
3.7406133771
 10
8.5056721604
 20
3.7528764091
 10
8.532539077
 20
3.7662935791
 10
8.557658886
 20
3.7807949362
 10
8.5809006245
 20
3.796304877
 10
8.6021431207
 20
3.8127425398
 10
8.6212756262
 20
3.8300222264
 10
8.6381983928
 20
3.8480538483
 10
8.6528231932
 20
3.8667433971
 10
8.6650737804
 20
3.8859934342
 10
8.6748862855
 20
3.9057035986
 10
8.6822095506
 20
3.9257711309
 10
8.6870053957
 20
3.9460914081
 10
8.6892488173
 20
3.9665584898
 10
8.6894292405
 20
3.974249727
  0
LINE
  5
217
330
1F
100
AcDbEntity
  8
0
  6
Continuous
 62
     7
370
     0
100
AcDbLine
 10
8.4736619081
 20
6.837597254
 30
0.0
 11
8.5170415056
 21
6.8125547454
 31
0.0
  0
LWPOLYLINE
  5
218
330
1F
100
AcDbEntity
  8
0
  6
Continuous
 62
     7
370
     0
100
AcDbPolyline
 90
       54
 70
   128
 43
0.0
 10
8.2516303788
 20
6.7094211805
 10
8.2248403012
 20
6.7071526835
 10
8.1977966163
 20
6.7063805526
 10
8.1707495325
 20
6.7071119316
 10
8.1439492895
 20
6.7093400537
 10
8.1176438433
 20
6.7130443044
 10
8.0920765722
 20
6.7181904119
 10
8.0674840247
 20
6.7247307644
 10
8.0440937313
 20
6.7326048505
 10
8.022122099
 20
6.7417398191
 10
8.0017724096
 20
6.7520511534
 10
7.9832329385
 20
6.7634434529
 10
7.9666752131
 20
6.7758113159
 10
7.9522524255
 20
6.7890403149
 10
7.9400980154
 20
6.8030080551
 10
7.9303244357
 20
6.8175853069
 10
7.9230221114
 20
6.8326372014
 10
7.9182586037
 20
6.8480244784
 10
7.9160779847
 20
6.8636047748
 10
7.9165004294
 20
6.8792339414
 10
7.9195220294
 20
6.8947673772
 10
7.9251148288
 20
6.9100613667
 10
7.933227083
 20
6.9249744097
 10
7.9437837374
 20
6.9393685309
 10
7.9566871217
 20
6.9531105555
 10
7.9718178537
 20
6.9660733423
 10
7.9890359439
 20
6.9781369596
 10
8.0081820902
 20
6.9891897946
 10
8.0290791524
 20
6.9991295864
 10
8.0515337909
 20
7.0078643721
 10
8.075338255
 20
7.0153133373
 10
8.1002723057
 20
7.0214075642
 10
8.1261052531
 20
7.0260906688
 10
8.1525980905
 20
7.0293193232
 10
8.179505706
 20
7.0310636558
 10
8.2065791501
 20
7.0313075279
 10
8.2335679393
 20
7.0300486833
 10
8.2602223729
 20
7.0272987689
 10
8.2862958441
 20
7.0230832268
 10
8.3115471208
 20
7.0174410593
 10
8.3357425781
 20
7.0104244678
 10
8.3586583595
 20
7.0020983697
 10
8.380082448
 20
6.9925397983
 10
8.3998166277
 20
6.9818371894
 10
8.417678318
 20
6.9700895638
 10
8.4335022623
 20
6.9574056105
 10
8.4471420574
 20
6.9439026815
 10
8.4584715078
 20
6.929705706
 10
8.4673857933
 20
6.9149460345
 10
8.473802439
 20
6.8997602237
 10
8.477662078
 20
6.8842887728
 10
8.4789290008
 20
6.8686748236
 10
8.4775914859
 20
6.8530628366
 10
8.4736619081
 20
6.837597254
  0
LINE
  5
219
330
1F
100
AcDbEntity
  8
0
  6
Continuous
 62
     7
370
     0
100
AcDbLine
 10
8.2950099763
 20
6.6843786719
 30
0.0
 11
8.2516303788
 21
6.7094211805
 31
0.0
  0
LINE
  5
21A
330
1F
100
AcDbEntity
  8
0
  6
Continuous
 62
     7
370
     0
100
AcDbLine
 10
8.5170415056
 20
6.8125547454
 30
0.0
 11
8.2950099763
 21
6.6843786719
 31
0.0
  0
LWPOLYLINE
  5
21B
330
1F
100
AcDbEntity
  8
0
  6
Continuous
 62
     7
370
     0
100
AcDbPolyline
 90
       43
 70
   128
 43
0.0
 10
8.4407297659
 20
6.8076201073
 10
8.445891588
 20
6.8218934009
 10
8.4485474369
 20
6.8363936004
 10
8.4486705259
 20
6.8509744578
 10
8.4462596135
 20
6.8654889118
 10
8.4413390161
 20
6.8797905705
 10
8.4339583624
 20
6.8937351885
 10
8.4241920931
 20
6.9071821214
 10
8.4121387102
 20
6.9199957443
 10
8.3979197831
 20
6.9320468201
 10
8.3816787231
 20
6.9432138025
 10
8.3635793361
 20
6.953384062
 10
8.3438041713
 20
6.9624550222
 10
8.3225526796
 20
6.970335194
 10
8.3000392019
 20
6.9769450986
 10
8.2764908077
 20
6.982218069
 10
8.2521450042
 20
6.9861009223
 10
8.2272473415
 20
6.9885544964
 10
8.2020489357
 20
6.9895540448
 10
8.1768039359
 20
6.989089486
 10
8.1517669614
 20
6.9871655056
 10
8.1271905333
 20
6.9838015086
 10
8.1033225278
 20
6.9790314242
 10
8.0804036757
 20
6.972903363
 10
8.058665135
 20
6.9654791323
 10
8.038326159
 20
6.9568336122
 10
8.0195918851
 20
6.9470540008
 10
8.0026512658
 20
6.9362389347
 10
7.987675163
 20
6.9244974938
 10
7.9748146247
 20
6.9119481013
 10
7.9641993612
 20
6.8987173297
 10
7.9559364373
 20
6.8849386233
 10
7.9501091923
 20
6.8707509534
 10
7.9467763993
 20
6.8562974157
 10
7.9459716727
 20
6.8417237875
 10
7.9477031288
 20
6.8271770575
 10
7.9519533044
 20
6.8128039427
 10
7.9586793325
 20
6.7987494095
 10
7.9678133747
 20
6.7851552109
 10
7.979263306
 20
6.7721584569
 10
7.992913643
 20
6.7598902319
 10
8.0086267094
 20
6.7484742723
 10
8.0095528984
 20
6.7478700915
  0
LINE
  5
21C
330
1F
100
AcDbEntity
  8
0
  6
Continuous
 62
     7
370
     0
100
AcDbLine
 10
8.4407297659
 20
6.8076201073
 30
0.0
 11
8.4736619081
 21
6.837597254
 31
0.0
  0
LINE
  5
21D
330
1F
100
AcDbEntity
  8
0
  6
Continuous
 62
     7
370
     0
100
AcDbLine
 10
8.4407297659
 20
6.8076201073
 30
0.0
 11
8.4407297659
 21
6.7685009158
 31
0.0
  0
SPLINE
  5
21E
330
1F
100
AcDbEntity
  8
0
  6
Continuous
 62
     7
370
     0
100
AcDbSpline
210
0.0
220
0.0
230
1.0
 70
     8
 71
     3
 72
    20
 73
    16
 74
     0
 42
0.00000001
 43
0.00000001
 40
0.0
 40
0.0
 40
0.0
 40
0.0
 40
0.0767614905228315
 40
0.1558806691450525
 40
0.2326085315913322
 40
0.3113599704528752
 40
0.3920481230270201
 40
0.4748965707193683
 40
0.558547229249477
 40
0.6448615383173432
 40
0.7244109196642694
 40
0.8065496743528794
 40
0.881786662868641
 40
0.9591510000648594
 40
1.0
 40
1.0
 40
1.0
 40
1.0
 10
8.105472001051327
 20
6.74272864495543
 30
0.0
 10
8.105222995519934
 20
6.747011459228926
 30
0.0
 10
8.10471733638552
 20
6.755708632124208
 30
0.0
 10
8.100706408359262
 20
6.767531698394843
 30
0.0
 10
8.094540379289267
 20
6.778109891481023
 30
0.0
 10
8.086304400419978
 20
6.787045241172695
 30
0.0
 10
8.076193612014796
 20
6.794139441965361
 30
0.0
 10
8.064558493219796
 20
6.798934095760403
 30
0.0
 10
8.0517657859403
 20
6.80103414570242
 30
0.0
 10
8.03873558098058
 20
6.800068369049794
 30
0.0
 10
8.025930778810498
 20
6.796050877259457
 30
0.0
 10
8.01423909625828
 20
6.789438796187216
 30
0.0
 10
8.00364010925018
 20
6.780331785521373
 30
0.0
 10
7.995634518707875
 20
6.771321935297157
 30
0.0
 10
7.991582531805362
 20
6.764736721521072
 30
0.0
 10
7.99018235466178
 20
6.762461179660569
 30
0.0
  0
SPLINE
  5
21F
330
1F
100
AcDbEntity
  8
0
  6
Continuous
 62
     7
370
     0
100
AcDbSpline
210
0.0
220
0.0
230
1.0
 70
     8
 71
     3
 72
    10
 73
     6
 74
     0
 42
0.00000001
 43
0.00000001
 40
0.0
 40
0.0
 40
0.0
 40
0.0
 40
0.2632739667353452
 40
0.781723926832804
 40
1.0
 40
1.0
 40
1.0
 40
1.0
 10
8.100406704809847
 20
6.716662544706606
 30
0.0
 10
8.10127636599528
 20
6.7189678836944
 30
0.0
 10
8.103858599876286
 20
6.7258129913538
 30
0.0
 10
8.105239823885157
 20
6.734595327304604
 30
0.0
 10
8.105418934445742
 20
6.740869687130431
 30
0.0
 10
8.105472001051321
 20
6.742728644955433
 30
0.0
  0
LINE
  5
220
330
1F
100
AcDbEntity
  8
0
  6
Continuous
 62
     7
370
     0
100
AcDbLine
 10
8.4746116507
 20
6.7880605116
 30
0.0
 11
8.4407297659
 21
6.8076201073
 31
0.0
  0
ARC
  5
221
330
1F
100
AcDbEntity
  8
0
  6
Continuous
 62
     7
370
     0
100
AcDbCircle
 10
8.1974292405
 20
4.3967737968
 30
0.0
 40
0.7144579871391854
100
AcDbArc
 50
242.466313567
 51
297.533686433
  0
LWPOLYLINE
  5
222
330
1F
100
AcDbEntity
  8
0
  6
Continuous
 62
     7
370
     0
100
AcDbPolyline
 90
       21
 70
   128
 43
0.0
 10
7.7054292405
 20
3.601090576
 10
7.7059303616
 20
3.588274633
 10
7.708813507
 20
3.5678342692
 10
7.7142440686
 20
3.5475672884
 10
7.722193734
 20
3.5275793532
 10
7.7326210572
 20
3.5079746715
 10
7.7454716751
 20
3.488855453
 10
7.7606785905
 20
3.4703213765
 10
7.7781625215
 20
3.45246907
 10
7.7978323151
 20
3.4353916072
 10
7.819585422
 20
3.4191780222
 10
7.8433084316
 20
3.4039128449
 10
7.8688776632
 20
3.3896756611
 10
7.8961598105
 20
3.3765406967
 10
7.9250126372
 20
3.3645764314
 10
7.9552857179
 20
3.3538452414
 10
7.9868212228
 20
3.344403074
 10
8.0194547403
 20
3.3362991564
 10
8.0530161346
 20
3.3295757387
 10
8.0873304318
 20
3.3242678736
 10
8.0926833611
 20
3.3235764774
  0
ARC
  5
223
330
1F
100
AcDbEntity
  8
0
  6
Continuous
 62
     7
370
     0
100
AcDbCircle
 10
7.9533895791
 20
3.7493708595
 30
0.0
 40
0.249298869370944
100
AcDbArc
 50
185.939996132
 51
245.3801448256
  0
LINE
  5
224
330
1F
100
AcDbEntity
  8
0
  6
Continuous
 62
     7
370
     0
100
AcDbLine
 10
7.8495327042
 20
3.7497336479
 30
0.0
 11
9.2414751868
 21
2.9461823568
 31
0.0
  0
LINE
  5
225
330
1F
100
AcDbEntity
  8
0
  6
Continuous
 62
     7
370
     0
100
AcDbLine
 10
9.2414751868
 20
2.9461823568
 30
0.0
 11
9.2414751868
 21
2.5950698077
 31
0.0
  0
LINE
  5
226
330
1F
100
AcDbEntity
  8
0
  6
Continuous
 62
     7
370
     0
100
AcDbLine
 10
9.1000538306
 20
2.6767106189
 30
0.0
 11
9.2414751868
 21
2.5950698077
 31
0.0
  0
LINE
  5
227
330
1F
100
AcDbEntity
  8
0
  6
Continuous
 62
     7
370
     0
100
AcDbLine
 10
9.1000538306
 20
2.7420338838
 30
0.0
 11
9.1000538306
 21
2.6767106189
 31
0.0
  0
LINE
  5
228
330
1F
100
AcDbEntity
  8
0
  6
Continuous
 62
     7
370
     0
100
AcDbLine
 10
7.9909540604
 20
3.3823035526
 30
0.0
 11
9.1000538306
 21
2.7420338838
 31
0.0
  0
LINE
  5
229
330
1F
100
AcDbEntity
  8
0
  6
Continuous
 62
     7
370
     0
100
AcDbLine
 10
7.9909540604
 20
3.4410944911
 30
0.0
 11
7.9909540604
 21
3.3823035526
 31
0.0
  0
LINE
  5
22A
330
1F
100
AcDbEntity
  8
0
  6
Continuous
 62
     7
370
     0
100
AcDbLine
 10
7.8495327042
 20
3.5227353022
 30
0.0
 11
7.9909540604
 21
3.4410944911
 31
0.0
  0
LWPOLYLINE
  5
22B
330
1F
100
AcDbEntity
  8
0
  6
Continuous
 62
     7
370
     0
100
AcDbPolyline
 90
       12
 70
   128
 43
0.0
 10
7.8495327042
 20
3.6088803579
 10
7.8562064067
 20
3.6061357454
 10
7.8623394456
 20
3.6058295529
 10
7.8674349584
 20
3.6079865864
 10
7.8710801371
 20
3.6124320959
 10
7.8729796709
 20
3.6188059326
 10
7.8729796709
 20
3.6265917261
 10
7.8710801371
 20
3.6351587178
 10
7.8674349584
 20
3.643812861
 10
7.8623394456
 20
3.6518530484
 10
7.8562064067
 20
3.6586279119
 10
7.8495327042
 20
3.6635885923
  0
LINE
  5
22C
330
1F
100
AcDbEntity
  8
0
  6
Continuous
 62
     7
370
     0
100
AcDbLine
 10
9.2414751868
 20
2.9461823568
 30
0.0
 11
9.4956800747
 21
3.0929317149
 31
0.0
  0
LINE
  5
22D
330
1F
100
AcDbEntity
  8
0
  6
Continuous
 62
     7
370
     0
100
AcDbLine
 10
9.4956800747
 20
3.0929317149
 30
0.0
 11
9.4956800747
 21
2.7418191658
 31
0.0
  0
LINE
  5
22E
330
1F
100
AcDbEntity
  8
0
  6
Continuous
 62
     7
370
     0
100
AcDbLine
 10
9.2414751868
 20
2.5950698077
 30
0.0
 11
9.4956800747
 21
2.7418191658
 31
0.0
  0
ARC
  5
22F
330
1F
100
AcDbEntity
  8
0
  6
Continuous
 62
     7
370
     0
100
AcDbCircle
 10
7.9443424491
 20
3.9686524402
 30
0.0
 40
0.2385672343564948
100
AcDbArc
 50
181.4994216662
 51
246.5834416504
  0
LINE
  5
230
330
1F
100
AcDbEntity
  8
0
  6
Continuous
 62
     7
370
     0
100
AcDbLine
 10
8.6894292405
 20
4.0682172801
 30
0.0
 11
9.9372682595
 21
3.3478551478
 31
0.0
  0
LINE
  5
231
330
1F
100
AcDbEntity
  8
0
  6
Continuous
 62
     7
370
     0
100
AcDbLine
 10
9.9372682595
 20
3.3478551478
 30
0.0
 11
9.6830633717
 21
3.2011057897
 31
0.0
  0
LINE
  5
232
330
1F
100
AcDbEntity
  8
0
  6
Continuous
 62
     7
370
     0
100
AcDbLine
 10
9.6830633717
 20
3.2011057897
 30
0.0
 11
8.8214509749
 21
3.6985040389
 31
0.0
  0
LWPOLYLINE
  5
233
330
1F
100
AcDbEntity
  8
0
  6
Continuous
 62
     7
370
     0
100
AcDbPolyline
 90
       23
 70
   128
 43
0.0
 10
8.8214509749
 20
3.6985040389
 10
8.8071636172
 20
3.7056508989
 10
8.7912598172
 20
3.7115512132
 10
8.7740633302
 20
3.7160848686
 10
8.7559242273
 20
3.7191595729
 10
8.7372117682
 20
3.720712734
 10
8.7183068846
 20
3.720712734
 10
8.6995944255
 20
3.7191595729
 10
8.6814553226
 20
3.7160848686
 10
8.6642588357
 20
3.7115512132
 10
8.6483550356
 20
3.7056508989
 10
8.6340676779
 20
3.6985040389
 10
8.621687612
 20
3.6902561229
 10
8.6114668603
 20
3.6810750545
 10
8.6036134878
 20
3.6711477339
 10
8.5982873667
 20
3.6606762527
 10
8.5955969212
 20
3.64987378
 10
8.5955969212
 20
3.638960223
 10
8.5982873667
 20
3.6281577503
 10
8.6036134878
 20
3.6176862691
 10
8.6114668603
 20
3.6077589485
 10
8.621687612
 20
3.5985778802
 10
8.6340676779
 20
3.5903299641
  0
LINE
  5
234
330
1F
100
AcDbEntity
  8
0
  6
Continuous
 62
     7
370
     0
100
AcDbLine
 10
9.4956800747
 20
3.0929317149
 30
0.0
 11
8.6340676779
 21
3.5903299641
 31
0.0
  0
LINE
  5
235
330
1F
100
AcDbEntity
  8
0
  6
Continuous
 62
     7
370
     0
100
AcDbLine
 10
9.6830633717
 20
3.2011057897
 30
0.0
 11
9.6830633717
 21
2.8499932406
 31
0.0
  0
LINE
  5
236
330
1F
100
AcDbEntity
  8
0
  6
Continuous
 62
     7
370
     0
100
AcDbLine
 10
9.6830633717
 20
2.8499932406
 30
0.0
 11
9.5416420154
 21
2.9316340518
 31
0.0
  0
LINE
  5
237
330
1F
100
AcDbEntity
  8
0
  6
Continuous
 62
     7
370
     0
100
AcDbLine
 10
9.5416420154
 20
2.9969573167
 30
0.0
 11
9.5416420154
 21
2.9316340518
 31
0.0
  0
LINE
  5
238
330
1F
100
AcDbEntity
  8
0
  6
Continuous
 62
     7
370
     0
100
AcDbLine
 10
9.5416420154
 20
2.9969573167
 30
0.0
 11
9.4956800747
 21
3.0234905804
 31
0.0
  0
LINE
  5
239
330
1F
100
AcDbEntity
  8
0
  6
Continuous
 62
     7
370
     0
100
AcDbLine
 10
9.9372682595
 20
3.3478551478
 30
0.0
 11
9.9372682595
 21
2.9967425987
 31
0.0
  0
LINE
  5
23A
330
1F
100
AcDbEntity
  8
0
  6
Continuous
 62
     7
370
     0
100
AcDbLine
 10
9.9372682595
 20
2.9967425987
 30
0.0
 11
9.6830633717
 21
2.8499932406
 31
0.0
  0
SPLINE
  5
23B
330
1F
100
AcDbEntity
  8
0
  6
Continuous
 62
     7
370
     0
100
AcDbSpline
210
0.0
220
0.0
230
1.0
 70
     8
 71
     3
 72
    17
 73
    13
 74
     0
 42
0.00000001
 43
0.00000001
 40
0.0
 40
0.0
 40
0.0
 40
0.0
 40
0.1072028223541183
 40
0.2143996562184863
 40
0.321752036277195
 40
0.4292072669282311
 40
0.5364929531126954
 40
0.6436012507253206
 40
0.7508011422587003
 40
0.8582184677951118
 40
0.9656401968878022
 40
1.0
 40
1.0
 40
1.0
 40
1.0
 10
7.849532704176815
 20
3.608880357899422
 30
0.0
 10
7.846890755747526
 20
3.610728368401136
 30
0.0
 10
7.841607006471641
 20
3.614424286172282
 30
0.0
 10
7.834778329589937
 20
3.623363348471643
 30
0.0
 10
7.829668853052542
 20
3.633571891911004
 30
0.0
 10
7.82678261485787
 20
3.644139896890971
 30
0.0
 10
7.826378690239718
 20
3.653748316570736
 30
0.0
 10
7.828486094512605
 20
3.661326199771326
 30
0.0
 10
7.832916661882503
 20
3.666066461247512
 30
0.0
 10
7.839264524551504
 20
3.667456225574004
 30
0.0
 10
7.845192131627652
 20
3.665938889062899
 30
0.0
 10
7.848685990837695
 20
3.664047063523026
 30
0.0
 10
7.849532704176815
 20
3.663588592295767
 30
0.0
  0
ARC
  5
23C
330
1F
100
AcDbEntity
  8
0
  6
Continuous
 62
     7
370
     0
100
AcDbCircle
 10
7.9549185583
 20
3.7504679275
 30
0.0
 40
0.2509349056264252
100
AcDbArc
 50
186.1530160379
 51
245.1671249197
  0
LWPOLYLINE
  5
23D
330
1F
100
AcDbEntity
  8
0
  6
Continuous
 62
     7
370
     0
100
AcDbPolyline
 90
       44
 70
   128
 43
0.0
 10
7.7054292405
 20
6.6007813992
 10
7.6897804533
 20
6.5981318657
 10
7.6723355924
 20
6.5972609296
 10
7.6557270158
 20
6.5987459867
 10
7.6401051333
 20
6.6025735879
 10
7.6256114191
 20
6.6087090699
 10
7.6123771305
 20
6.6170968688
 10
7.6005221193
 20
6.6276610236
 10
7.5901537463
 20
6.6403058634
 10
7.581365909
 20
6.6549168747
 10
7.5742381916
 20
6.671361738
 10
7.5688351437
 20
6.6894915259
 10
7.5652056961
 20
6.7091420523
 10
7.5633827178
 20
6.7301353591
 10
7.5633827178
 20
6.7522813275
 10
7.5652056961
 20
6.7753794003
 10
7.5688351437
 20
6.7992203977
 10
7.5742381916
 20
6.8235884119
 10
7.581365909
 20
6.8482627625
 10
7.5901537463
 20
6.8730199948
 10
7.6005221193
 20
6.8976359033
 10
7.6123771305
 20
6.9218875626
 10
7.6256114191
 20
6.9455553459
 10
7.6401051333
 20
6.9684249142
 10
7.6557270158
 20
6.990289157
 10
7.6723355924
 20
7.0109500684
 10
7.6897804533
 20
7.03022054
 10
7.707903615
 20
7.0479260553
 10
7.7265409515
 20
7.0639062706
 10
7.7455236802
 20
7.0780164665
 10
7.7646798904
 20
7.0901288589
 10
7.7838361007
 20
7.1001337561
 10
7.8028188293
 20
7.1079405522
 10
7.8214561658
 20
7.1134785476
 10
7.8395793276
 20
7.1166975894
 10
7.8570241885
 20
7.1175685255
 10
7.8736327651
 20
7.1160834684
 10
7.8892546476
 20
7.1122558673
 10
7.9037483618
 20
7.1061203852
 10
7.9169826504
 20
7.0977325863
 10
7.9288376616
 20
7.0871684315
 10
7.9392060346
 20
7.0745235917
 10
7.9479938718
 20
7.0599125804
 10
7.9505986948
 20
7.0545383449
  0
LWPOLYLINE
  5
23E
330
1F
100
AcDbEntity
  8
0
  6
Continuous
 62
     7
370
     0
100
AcDbPolyline
 90
       40
 70
   128
 43
0.0
 10
7.7054292405
 20
6.6077865401
 10
7.6904901513
 20
6.6074246937
 10
7.6747174441
 20
6.6092361993
 10
7.6599473209
 20
6.6133591753
 10
7.6463220261
 20
6.6197539151
 10
7.6339727787
 20
6.6283588339
 10
7.6230185087
 20
6.6390910616
 10
7.6135647118
 20
6.6518472409
 10
7.6057024332
 20
6.666504523
 10
7.5995073909
 20
6.6829217502
 10
7.5950392466
 20
6.7009408155
 10
7.5923410308
 20
6.7203881856
 10
7.591438729
 20
6.7410765716
 10
7.5923410308
 20
6.7628067331
 10
7.5950392466
 20
6.7853693968
 10
7.5995073909
 20
6.8085472718
 10
7.6057024332
 20
6.8321171425
 10
7.6135647118
 20
6.8558520183
 10
7.6230185087
 20
6.8795233192
 10
7.6339727787
 20
6.9029030778
 10
7.6463220261
 20
6.9257661341
 10
7.6599473209
 20
6.9478923044
 10
7.6747174441
 20
6.9690685016
 10
7.6904901513
 20
6.9890907874
 10
7.7071135428
 20
7.0077663362
 10
7.7244275262
 20
7.0249152923
 10
7.7422653583
 20
7.0403725018
 10
7.7604552511
 20
7.0539891033
 10
7.7788220261
 20
7.0656339616
 10
7.797188801
 20
7.0751949302
 10
7.8153786938
 20
7.0825799319
 10
7.833216526
 20
7.0877178451
 10
7.8505305093
 20
7.0905591887
 10
7.8671539008
 20
7.0910765992
 10
7.882926608
 20
7.0892650935
 10
7.8976967312
 20
7.0851421176
 10
7.9113220261
 20
7.0787473778
 10
7.9236712734
 20
7.070142459
 10
7.9346255434
 20
7.0594102313
 10
7.9415864944
 20
7.0504267634
  0
LWPOLYLINE
  5
23F
330
1F
100
AcDbEntity
  8
0
  6
Continuous
 62
     7
370
     0
100
AcDbPolyline
 90
       14
 70
   128
 43
0.0
 10
7.9918974158
 20
6.7607159802
 10
7.9946866798
 20
6.7633765842
 10
8.0039266958
 20
6.7707672115
 10
8.013336764
 20
6.7761995283
 10
8.02257678
 20
6.7794771963
 10
8.0313127856
 20
6.7804817523
 10
8.0392290387
 20
6.7791768889
 10
8.0460394254
 20
6.7756097672
 10
8.0514978004
 20
6.7699093124
 10
8.055406884
 20
6.7622815538
 10
8.0576253917
 20
6.7530021783
 10
8.0580731408
 20
6.7424065669
 10
8.0567339484
 20
6.7308776724
 10
8.056214076
 20
6.7283075357
  0
LWPOLYLINE
  5
240
330
1F
100
AcDbEntity
  8
0
  6
Continuous
 62
     7
370
     0
100
AcDbPolyline
 90
       35
 70
   128
 43
0.0
 10
7.4312726401
 20
6.7208058969
 10
7.4214582996
 20
6.7273119639
 10
7.4096032884
 20
6.7378761187
 10
7.3992349153
 20
6.7505209585
 10
7.3904470781
 20
6.7651319698
 10
7.3833193607
 20
6.7815768331
 10
7.3779163128
 20
6.799706621
 10
7.3742868652
 20
6.8193571474
 10
7.3724638868
 20
6.8403504542
 10
7.3724638868
 20
6.8624964226
 10
7.3742868652
 20
6.8855944954
 10
7.3779163128
 20
6.9094354928
 10
7.3833193607
 20
6.933803507
 10
7.3904470781
 20
6.9584778576
 10
7.3992349153
 20
6.9832350899
 10
7.4096032884
 20
7.0078509984
 10
7.4214582996
 20
7.0321026577
 10
7.4346925882
 20
7.055770441
 10
7.4491863024
 20
7.0786400093
 10
7.4648081849
 20
7.1005042521
 10
7.4814167615
 20
7.1211651635
 10
7.4988616223
 20
7.1404356351
 10
7.5169847841
 20
7.1581411504
 10
7.5356221206
 20
7.1741213657
 10
7.5546048493
 20
7.1882315616
 10
7.5737610595
 20
7.200343954
 10
7.5929172698
 20
7.2103488512
 10
7.6118999984
 20
7.2181556473
 10
7.6305373349
 20
7.2236936427
 10
7.6486604967
 20
7.2269126845
 10
7.6661053576
 20
7.2277836206
 10
7.6827139342
 20
7.2262985635
 10
7.6983358167
 20
7.2224709623
 10
7.7128295309
 20
7.2163354803
 10
7.7162494789
 20
7.2144537484
  0
LWPOLYLINE
  5
241
330
1F
100
AcDbEntity
  8
0
  6
Continuous
 62
     7
370
     0
100
AcDbPolyline
 90
       24
 70
   128
 43
0.0
 10
7.7788220261
 20
7.0125588088
 10
7.7627012063
 20
7.0021879718
 10
7.746790546
 20
6.9898233629
 10
7.7312974651
 20
6.9756261736
 10
7.7164239395
 20
6.9597814861
 10
7.7023638684
 20
6.9424958601
 10
7.6893005463
 20
6.9239946401
 10
7.6774042736
 20
6.9045190178
 10
7.6668301364
 20
6.8843228878
 10
7.6577159848
 20
6.8636695375
 10
7.6501806356
 20
6.8428282149
 10
7.6443223237
 20
6.8220706185
 10
7.640217421
 20
6.8016673553
 10
7.6379194414
 20
6.7818844131
 10
7.6374583425
 20
6.7629796928
 10
7.6388401353
 20
6.7451996463
 10
7.6420468062
 20
6.7287760637
 10
7.6470365512
 20
6.7139230515
 10
7.6537443215
 20
6.7008342415
 10
7.6620826709
 20
6.6896802663
 10
7.6719428963
 20
6.6806065351
 10
7.6831964546
 20
6.6737313377
 10
7.6956966385
 20
6.669144303
 10
7.7054292405
 20
6.6672868486
  0
ARC
  5
242
330
1F
100
AcDbEntity
  8
0
  6
Continuous
 62
     7
370
     0
100
AcDbCircle
 10
7.8362419658
 20
6.9364441545
 30
0.0
 40
0.0953440616188804
100
AcDbArc
 50
59.0491427607
 51
127.030443711
  0
ARC
  5
243
330
1F
100
AcDbEntity
  8
0
  6
Continuous
 62
     7
370
     0
100
AcDbCircle
 10
8.0094151217
 20
6.7509779026
 30
0.0
 40
0.0195650328326624
100
AcDbArc
 50
19.2471515465
 51
115.6164421135
  0
ARC
  5
244
330
1F
100
AcDbEntity
  8
0
  6
Continuous
 62
     7
370
     0
100
AcDbCircle
 10
7.7073481901
 20
6.7435820879
 30
0.0
 40
0.0727978827821049
100
AcDbArc
 50
243.9311730913
 51
268.4895103761
  0
LWPOLYLINE
  5
245
330
1F
100
AcDbEntity
  8
0
  6
Continuous
 62
     7
370
     0
100
AcDbPolyline
 90
        3
 70
   128
 43
0.0
 10
7.8840934282
 20
7.01738318
 10
7.8837428479
 20
7.0177080118
 10
7.8752158611
 20
7.0243931668
  0
LWPOLYLINE
  5
246
330
1F
100
AcDbEntity
  8
0
  6
Continuous
 62
     7
370
     0
100
AcDbPolyline
 90
       24
 70
   128
 43
0.0
 10
7.7788220261
 20
7.0084761048
 10
7.7631042268
 20
6.9983645387
 10
7.747591333
 20
6.986309045
 10
7.7324855791
 20
6.9724667855
 10
7.7179838917
 20
6.9570182151
 10
7.7042753224
 20
6.9401647297
 10
7.6915385833
 20
6.9221260402
 10
7.6799397174
 20
6.9031373085
 10
7.6696299337
 20
6.8834460817
 10
7.6607436358
 20
6.8633090652
 10
7.6533966704
 20
6.8429887756
 10
7.6476848162
 20
6.8227501192
 10
7.6436825362
 20
6.8028569376
 10
7.641442006
 20
6.7835685689
 10
7.6409924346
 20
6.7651364666
 10
7.6423396826
 20
6.7478009213
 10
7.6454661867
 20
6.7317879283
 10
7.6503311881
 20
6.7173062414
 10
7.6568712641
 20
6.7045446516
 10
7.6650011547
 20
6.6936695258
 10
7.6746148745
 20
6.6848226378
 10
7.6855870939
 20
6.6781193204
 10
7.6977747732
 20
6.6736469615
 10
7.7054292405
 20
6.6720858727
  0
ARC
  5
247
330
1F
100
AcDbEntity
  8
0
  6
Continuous
 62
     7
370
     0
100
AcDbCircle
 10
7.8350227137
 20
6.9336054509
 30
0.0
 40
0.0936169434587766
100
AcDbArc
 50
60.600161607
 51
126.8932511097
  0
ARC
  5
248
330
1F
100
AcDbEntity
  8
0
  6
Continuous
 62
     7
370
     0
100
AcDbCircle
 10
7.7109430761
 20
6.7461196894
 30
0.0
 40
0.0717529866735013
100
AcDbArc
 50
208.7960005703
 51
239.2524266488
  0
ARC
  5
249
330
1F
100
AcDbEntity
  8
0
  6
Continuous
 62
     7
370
     0
100
AcDbCircle
 10
7.8343798533
 20
6.9603817323
 30
0.0
 40
0.0709820401444505
100
AcDbArc
 50
60.583477708
 51
91.3788476017
  0
ARC
  5
24A
330
1F
100
AcDbEntity
  8
0
  6
Continuous
 62
     7
370
     0
100
AcDbCircle
 10
7.7790763775
 20
6.8491038125
 30
0.0
 40
0.4072618804392918
100
AcDbArc
 50
122.6112070127
 51
177.39416952
  0
INSERT
  5
24E
330
1F
100
AcDbEntity
  8
0
  6
Continuous
 62
     7
100
AcDbBlockReference
  2
SW_BROKEN_VIEW_1
 10
0.0
 20
0.0
 30
0.0
  0
LINE
  5
24F
330
1F
100
AcDbEntity
  8
0
  6
Continuous
 62
     7
370
     0
100
AcDbLine
 10
2.557094391
 20
4.5899309725
 30
0.0
 11
2.557094391
 21
5.2933163069
 31
0.0
  0
LINE
  5
250
330
1F
100
AcDbEntity
  8
0
  6
Continuous
 62
     7
370
     0
100
AcDbLine
 10
1.5730943782
 20
5.2933163069
 30
0.0
 11
1.5730943782
 21
4.5354286554
 31
0.0
  0
LINE
  5
251
330
1F
100
AcDbEntity
  8
0
  6
Continuous
 62
     7
370
     0
100
AcDbLine
 10
2.557094391
 20
5.2933163069
 30
0.0
 11
2.4704918414
 21
5.4433161474
 31
0.0
  0
LINE
  5
252
330
1F
100
AcDbEntity
  8
0
  6
Continuous
 62
     7
370
     0
100
AcDbLine
 10
1.6596969278
 20
5.4433161474
 30
0.0
 11
1.5730943782
 21
5.2933163069
 31
0.0
  0
LINE
  5
253
330
1F
100
AcDbEntity
  8
0
  6
Continuous
 62
     7
370
     0
100
AcDbLine
 10
1.8363477921
 20
5.2933163069
 30
0.0
 11
1.5730943782
 21
5.2933163069
 31
0.0
  0
LINE
  5
254
330
1F
100
AcDbEntity
  8
0
  6
Continuous
 62
     7
370
     0
100
AcDbLine
 10
2.557094391
 20
5.2933163069
 30
0.0
 11
2.2938409771
 21
5.2933163069
 31
0.0
  0
LINE
  5
255
330
1F
100
AcDbEntity
  8
0
  6
Continuous
 62
     7
370
     0
100
AcDbLine
 10
2.0650943846
 20
5.4433161474
 30
0.0
 11
2.4704918414
 21
5.4433161474
 31
0.0
  0
LINE
  5
256
330
1F
100
AcDbEntity
  8
0
  6
Continuous
 62
     7
370
     0
100
AcDbLine
 10
1.6596969278
 20
5.4433161474
 30
0.0
 11
2.0650943846
 21
5.4433161474
 31
0.0
  0
CIRCLE
  5
257
330
1F
100
AcDbEntity
  8
0
  6
Continuous
 62
     7
370
     0
100
AcDbCircle
 10
2.0650943838
 20
5.1233162034
 30
0.0
 40
0.054099957000577
  0
LINE
  5
258
330
1F
100
AcDbEntity
  8
0
  6
Continuous
 62
     7
370
     0
100
AcDbLine
 10
2.0696107826
 20
5.1591169772
 30
0.0
 11
2.036348325
 21
5.1451277788
 31
0.0
  0
LINE
  5
259
330
1F
100
AcDbEntity
  8
0
  6
Continuous
 62
     7
370
     0
100
AcDbLine
 10
2.0318319261
 20
5.1093271524
 30
0.0
 11
2.036348325
 21
5.1451277788
 31
0.0
  0
LINE
  5
25A
330
1F
100
AcDbEntity
  8
0
  6
Continuous
 62
     7
370
     0
100
AcDbLine
 10
2.0605779866
 20
5.0875157244
 30
0.0
 11
2.0318319261
 21
5.1093271524
 31
0.0
  0
LINE
  5
25B
330
1F
100
AcDbEntity
  8
0
  6
Continuous
 62
     7
370
     0
100
AcDbLine
 10
2.0605779866
 20
5.0875157244
 30
0.0
 11
2.0938404442
 21
5.1015046294
 31
0.0
  0
LINE
  5
25C
330
1F
100
AcDbEntity
  8
0
  6
Continuous
 62
     7
370
     0
100
AcDbLine
 10
2.098356843
 20
5.1373052558
 30
0.0
 11
2.0938404442
 21
5.1015046294
 31
0.0
  0
LINE
  5
25D
330
1F
100
AcDbEntity
  8
0
  6
Continuous
 62
     7
370
     0
100
AcDbLine
 10
2.098356843
 20
5.1373052558
 30
0.0
 11
2.0696107826
 21
5.1591169772
 31
0.0
  0
LINE
  5
25E
330
1F
100
AcDbEntity
  8
0
  6
Continuous
 62
     7
370
     0
100
AcDbLine
 10
2.008268569
 20
5.2217414538
 30
0.0
 11
2.1219202002
 21
5.2217414538
 31
0.0
  0
LWPOLYLINE
  5
25F
330
1F
100
AcDbEntity
  8
0
  6
Continuous
 62
     7
370
     0
100
AcDbPolyline
 90
        7
 70
   128
 43
0.0
 10
1.9514427533
 20
5.1233163508
 10
1.9632864998
 20
5.1438300871
 10
1.9697126714
 20
5.1549607852
 10
1.9762870205
 20
5.1663478537
 10
1.9853949703
 20
5.1821231381
 10
1.9946241249
 20
5.1981084468
 10
2.008268569
 20
5.2217414538
  0
LWPOLYLINE
  5
260
330
1F
100
AcDbEntity
  8
0
  6
Continuous
 62
     7
370
     0
100
AcDbPolyline
 90
        7
 70
   128
 43
0.0
 10
2.008268569
 20
5.0248909545
 10
1.996424827
 20
5.0454049842
 10
1.98999866
 20
5.0565353889
 10
1.9834243064
 20
5.0679224574
 10
1.9743163566
 20
5.0836980351
 10
1.9650872065
 20
5.0996833438
 10
1.9514427533
 20
5.1233163508
  0
LINE
  5
261
330
1F
100
AcDbEntity
  8
0
  6
Continuous
 62
     7
370
     0
100
AcDbLine
 10
2.1219202002
 20
5.0248909545
 30
0.0
 11
2.008268569
 21
5.0248909545
 31
0.0
  0
LWPOLYLINE
  5
262
330
1F
100
AcDbEntity
  8
0
  6
Continuous
 62
     7
370
     0
100
AcDbPolyline
 90
        7
 70
   128
 43
0.0
 10
2.1787460158
 20
5.1233163508
 10
2.1669022693
 20
5.1028023211
 10
2.1604760977
 20
5.0916719163
 10
2.1539017487
 20
5.0802848479
 10
2.1447937989
 20
5.0645092701
 10
2.1355646443
 20
5.0485239615
 10
2.1219202002
 20
5.0248909545
  0
LWPOLYLINE
  5
263
330
1F
100
AcDbEntity
  8
0
  6
Continuous
 62
     7
370
     0
100
AcDbPolyline
 90
        7
 70
   128
 43
0.0
 10
2.1219202002
 20
5.2217414538
 10
2.1337639421
 20
5.2012274241
 10
2.1401901092
 20
5.1900970193
 10
2.1467644628
 20
5.1787099509
 10
2.1558724126
 20
5.1629343731
 10
2.1651015626
 20
5.1469490644
 10
2.1787460158
 20
5.1233163508
  0
CIRCLE
  5
264
330
1F
100
AcDbEntity
  8
0
  6
Continuous
 62
     7
370
     0
100
AcDbCircle
 10
2.0650943734
 20
5.1233163049
 30
0.0
 40
0.1199999945183962
  0
CIRCLE
  5
265
330
1F
100
AcDbEntity
  8
0
  6
Continuous
 62
     7
370
     0
100
AcDbCircle
 10
2.0650944402
 20
5.1233163462
 30
0.0
 40
0.2650000318187833
  0
CIRCLE
  5
266
330
1F
100
AcDbEntity
  8
0
  6
Continuous
 62
     7
370
     0
100
AcDbCircle
 10
2.0650944168
 20
5.1233163014
 30
0.0
 40
0.2850000287045274
  0
LINE
  5
267
330
1F
100
AcDbEntity
  8
0
  6
Continuous
 62
     7
370
     0
100
AcDbLine
 10
2.1520602783
 20
4.983520579
 30
0.0
 11
2.172344099
 21
4.9759731996
 31
0.0
  0
LINE
  5
268
330
1F
100
AcDbEntity
  8
0
  6
Continuous
 62
     7
370
     0
100
AcDbLine
 10
2.1465776849
 20
4.9794620659
 30
0.0
 11
2.1520602783
 21
4.983520579
 31
0.0
  0
LINE
  5
269
330
1F
100
AcDbEntity
  8
0
  6
Continuous
 62
     7
370
     0
100
AcDbLine
 10
2.17189018
 20
4.9704104905
 30
0.0
 11
2.1465776849
 21
4.9794620659
 31
0.0
  0
LINE
  5
26A
330
1F
100
AcDbEntity
  8
0
  6
Continuous
 62
     7
370
     0
100
AcDbLine
 10
2.1725666081
 20
4.9431574987
 30
0.0
 11
2.17189018
 21
4.9704104905
 31
0.0
  0
LINE
  5
26B
330
1F
100
AcDbEntity
  8
0
  6
Continuous
 62
     7
370
     0
100
AcDbLine
 10
2.1781382087
 20
4.9472784911
 30
0.0
 11
2.1725666081
 21
4.9431574987
 31
0.0
  0
LINE
  5
26C
330
1F
100
AcDbEntity
  8
0
  6
Continuous
 62
     7
370
     0
100
AcDbLine
 10
2.1769633673
 20
4.9692799969
 30
0.0
 11
2.1781382087
 21
4.9472784911
 31
0.0
  0
LINE
  5
26D
330
1F
100
AcDbEntity
  8
0
  6
Continuous
 62
     7
370
     0
100
AcDbLine
 10
2.1977990057
 20
4.9618305896
 30
0.0
 11
2.1769633673
 21
4.9692799969
 31
0.0
  0
LINE
  5
26E
330
1F
100
AcDbEntity
  8
0
  6
Continuous
 62
     7
370
     0
100
AcDbLine
 10
2.2033261027
 20
4.9659245957
 30
0.0
 11
2.1977990057
 21
4.9618305896
 31
0.0
  0
LINE
  5
26F
330
1F
100
AcDbEntity
  8
0
  6
Continuous
 62
     7
370
     0
100
AcDbLine
 10
2.1774261777
 20
4.974842706
 30
0.0
 11
2.2033261027
 21
4.9659245957
 31
0.0
  0
LINE
  5
270
330
1F
100
AcDbEntity
  8
0
  6
Continuous
 62
     7
370
     0
100
AcDbLine
 10
2.1767675604
 20
5.0018105811
 30
0.0
 11
2.1774261777
 21
4.974842706
 31
0.0
  0
LINE
  5
271
330
1F
100
AcDbEntity
  8
0
  6
Continuous
 62
     7
370
     0
100
AcDbLine
 10
2.1712048605
 20
4.997689882
 30
0.0
 11
2.1767675604
 21
5.0018105811
 31
0.0
  0
LINE
  5
272
330
1F
100
AcDbEntity
  8
0
  6
Continuous
 62
     7
370
     0
100
AcDbLine
 10
2.172344099
 20
4.9759731996
 30
0.0
 11
2.1712048605
 21
4.997689882
 31
0.0
  0
LINE
  5
273
330
1F
100
AcDbEntity
  8
0
  6
Continuous
 62
     7
370
     0
100
AcDbLine
 10
2.1113156444
 20
4.9478361113
 30
0.0
 11
2.1078089216
 21
4.9649246339
 31
0.0
  0
LINE
  5
274
330
1F
100
AcDbEntity
  8
0
  6
Continuous
 62
     7
370
     0
100
AcDbLine
 10
2.0885308353
 20
4.9431633653
 30
0.0
 11
2.1113156444
 21
4.9478361113
 31
0.0
  0
LINE
  5
275
330
1F
100
AcDbEntity
  8
0
  6
Continuous
 62
     7
370
     0
100
AcDbLine
 10
2.0850241102
 20
4.9602518878
 30
0.0
 11
2.0885308353
 21
4.9431633653
 31
0.0
  0
LINE
  5
276
330
1F
100
AcDbEntity
  8
0
  6
Continuous
 62
     7
370
     0
100
AcDbLine
 10
2.0793279073
 20
4.9590771014
 30
0.0
 11
2.0850241102
 21
4.9602518878
 31
0.0
  0
LINE
  5
277
330
1F
100
AcDbEntity
  8
0
  6
Continuous
 62
     7
370
     0
100
AcDbLine
 10
2.0883350284
 20
4.9152163548
 30
0.0
 11
2.0793279073
 21
4.9590771014
 31
0.0
  0
LINE
  5
278
330
1F
100
AcDbEntity
  8
0
  6
Continuous
 62
     7
370
     0
100
AcDbLine
 10
2.0940312301
 20
4.9163911412
 30
0.0
 11
2.0883350284
 21
4.9152163548
 31
0.0
  0
LINE
  5
279
330
1F
100
AcDbEntity
  8
0
  6
Continuous
 62
     7
370
     0
100
AcDbLine
 10
2.0895899718
 20
4.9380368378
 30
0.0
 11
2.0940312301
 21
4.9163911412
 31
0.0
  0
LINE
  5
27A
330
1F
100
AcDbEntity
  8
0
  6
Continuous
 62
     7
370
     0
100
AcDbLine
 10
2.1123747809
 20
4.9427092905
 30
0.0
 11
2.0895899718
 21
4.9380368378
 31
0.0
  0
LINE
  5
27B
330
1F
100
AcDbEntity
  8
0
  6
Continuous
 62
     7
370
     0
100
AcDbLine
 10
2.1168160392
 20
4.9210638872
 30
0.0
 11
2.1123747809
 21
4.9427092905
 31
0.0
  0
LINE
  5
27C
330
1F
100
AcDbEntity
  8
0
  6
Continuous
 62
     7
370
     0
100
AcDbLine
 10
2.1225122409
 20
4.9222386736
 30
0.0
 11
2.1168160392
 21
4.9210638872
 31
0.0
  0
LINE
  5
27D
330
1F
100
AcDbEntity
  8
0
  6
Continuous
 62
     7
370
     0
100
AcDbLine
 10
2.1135051233
 20
4.9660994203
 30
0.0
 11
2.1225122409
 21
4.9222386736
 31
0.0
  0
LINE
  5
27E
330
1F
100
AcDbEntity
  8
0
  6
Continuous
 62
     7
370
     0
100
AcDbLine
 10
2.1078089216
 20
4.9649246339
 30
0.0
 11
2.1135051233
 21
4.9660994203
 31
0.0
  0
SPLINE
  5
27F
330
1F
100
AcDbEntity
  8
0
  6
Continuous
 62
     7
370
     0
100
AcDbSpline
210
0.0
220
0.0
230
1.0
 70
     8
 71
     3
 72
     9
 73
     5
 74
     0
 42
0.00000001
 43
0.00000001
 40
0.0
 40
0.0
 40
0.0
 40
0.0
 40
0.5607309776747256
 40
1.0
 40
1.0
 40
1.0
 40
1.0
 10
1.979846771869099
 20
4.965806970342642
 30
0.0
 10
1.982392770030883
 20
4.966191132977634
 30
0.0
 10
1.98693326852865
 20
4.966876243396511
 30
0.0
 10
1.991149418091924
 20
4.965125500768395
 30
0.0
 10
1.99300144198856
 20
4.9643564537658
 30
0.0
  0
SPLINE
  5
280
330
1F
100
AcDbEntity
  8
0
  6
Continuous
 62
     7
370
     0
100
AcDbSpline
210
0.0
220
0.0
230
1.0
 70
     8
 71
     3
 72
    10
 73
     6
 74
     0
 42
0.00000001
 43
0.00000001
 40
0.0
 40
0.0
 40
0.0
 40
0.0
 40
0.2815155414281708
 40
0.5625273548815262
 40
1.0
 40
1.0
 40
1.0
 40
1.0
 10
1.974203974555175
 20
4.974778760033095
 30
0.0
 10
1.975087397186465
 20
4.974221860238231
 30
0.0
 10
1.976852661702594
 20
4.973109057133472
 30
0.0
 10
1.979349969297312
 20
4.970180646400581
 30
0.0
 10
1.979658756643891
 20
4.96746219061669
 30
0.0
 10
1.979846771869099
 20
4.965806970342642
 30
0.0
  0
SPLINE
  5
281
330
1F
100
AcDbEntity
  8
0
  6
Continuous
 62
     7
370
     0
100
AcDbSpline
210
0.0
220
0.0
230
1.0
 70
     8
 71
     3
 72
     9
 73
     5
 74
     0
 42
0.00000001
 43
0.00000001
 40
0.0
 40
0.0
 40
0.0
 40
0.0
 40
0.5606378864318682
 40
1.0
 40
1.0
 40
1.0
 40
1.0
 10
1.96266915947301
 20
4.976211676813251
 30
0.0
 10
1.964905006623269
 20
4.976492875511528
 30
0.0
 10
1.968893048110242
 20
4.976994444715255
 30
0.0
 10
1.972582825960353
 20
4.975455092900118
 30
0.0
 10
1.974203974555175
 20
4.974778760033095
 30
0.0
  0
LINE
  5
282
330
1F
100
AcDbEntity
  8
0
  6
Continuous
 62
     7
370
     0
100
AcDbLine
 10
1.9644492231
 20
4.9794336129
 30
0.0
 11
1.9626691595
 21
4.9762116768
 31
0.0
  0
LINE
  5
283
330
1F
100
AcDbEntity
  8
0
  6
Continuous
 62
     7
370
     0
100
AcDbLine
 10
1.9593226406
 20
4.9822815534
 30
0.0
 11
1.9644492231
 21
4.9794336129
 31
0.0
  0
LINE
  5
284
330
1F
100
AcDbEntity
  8
0
  6
Continuous
 62
     7
370
     0
100
AcDbLine
 10
1.9432219708
 20
4.9532310356
 30
0.0
 11
1.9593226406
 21
4.9822815534
 31
0.0
  0
LINE
  5
285
330
1F
100
AcDbEntity
  8
0
  6
Continuous
 62
     7
370
     0
100
AcDbLine
 10
1.9483485532
 20
4.9503828019
 30
0.0
 11
1.9432219708
 21
4.9532310356
 31
0.0
  0
LINE
  5
286
330
1F
100
AcDbEntity
  8
0
  6
Continuous
 62
     7
370
     0
100
AcDbLine
 10
1.9603105759
 20
4.9719572193
 30
0.0
 11
1.9483485532
 21
4.9503828019
 31
0.0
  0
SPLINE
  5
287
330
1F
100
AcDbEntity
  8
0
  6
Continuous
 62
     7
370
     0
100
AcDbSpline
210
0.0
220
0.0
230
1.0
 70
     8
 71
     3
 72
     9
 73
     5
 74
     0
 42
0.00000001
 43
0.00000001
 40
0.0
 40
0.0
 40
0.0
 40
0.0
 40
0.5575489431487481
 40
1.0
 40
1.0
 40
1.0
 40
1.0
 10
1.970163226234244
 20
4.971058163013749
 30
0.0
 10
1.968361599473433
 20
4.971625161264033
 30
0.0
 10
1.965130265645346
 20
4.972642109206005
 30
0.0
 10
1.961788946204233
 20
4.972167299396472
 30
0.0
 10
1.960310575886235
 20
4.971957219294441
 30
0.0
  0
SPLINE
  5
288
330
1F
100
AcDbEntity
  8
0
  6
Continuous
 62
     7
370
     0
100
AcDbSpline
210
0.0
220
0.0
230
1.0
 70
     8
 71
     3
 72
    10
 73
     6
 74
     0
 42
0.00000001
 43
0.00000001
 40
0.0
 40
0.0
 40
0.0
 40
0.0
 40
0.2796973165818267
 40
0.5592506553422293
 40
1.0
 40
1.0
 40
1.0
 40
1.0
 10
1.973803460015287
 20
4.966127579972265
 30
0.0
 10
1.973754657227255
 20
4.966738545582554
 30
0.0
 10
1.973657076773061
 20
4.967960162300662
 30
0.0
 10
1.972321411554965
 20
4.969770063266148
 30
0.0
 10
1.970982499395787
 20
4.970569184823383
 30
0.0
 10
1.970163226234244
 20
4.971058163013749
 30
0.0
  0
SPLINE
  5
289
330
1F
100
AcDbEntity
  8
0
  6
Continuous
 62
     7
370
     0
100
AcDbSpline
210
0.0
220
0.0
230
1.0
 70
     8
 71
     3
 72
     9
 73
     5
 74
     0
 42
0.00000001
 43
0.00000001
 40
0.0
 40
0.0
 40
0.0
 40
0.0
 40
0.5612882542348078
 40
0.9999999999999999
 40
0.9999999999999999
 40
0.9999999999999999
 40
0.9999999999999999
 10
1.971133360027176
 20
4.959256619346188
 30
0.0
 10
1.971824748580856
 20
4.960470385391443
 30
0.0
 10
1.973056537324809
 20
4.962632850107386
 30
0.0
 10
1.973575698089762
 20
4.965061918942867
 30
0.0
 10
1.973803460015287
 20
4.966127579972265
 30
0.0
  0
LINE
  5
28A
330
1F
100
AcDbEntity
  8
0
  6
Continuous
 62
     7
370
     0
100
AcDbLine
 10
1.9620194428
 20
4.9428087294
 30
0.0
 11
1.97113336
 21
4.9592566193
 31
0.0
  0
LINE
  5
28B
330
1F
100
AcDbEntity
  8
0
  6
Continuous
 62
     7
370
     0
100
AcDbLine
 10
1.9671460253
 20
4.9399695888
 30
0.0
 11
1.9620194428
 21
4.9428087294
 31
0.0
  0
LINE
  5
28C
330
1F
100
AcDbEntity
  8
0
  6
Continuous
 62
     7
370
     0
100
AcDbLine
 10
1.977399181
 20
4.9584643352
 30
0.0
 11
1.9671460253
 21
4.9399695888
 31
0.0
  0
SPLINE
  5
28D
330
1F
100
AcDbEntity
  8
0
  6
Continuous
 62
     7
370
     0
100
AcDbSpline
210
0.0
220
0.0
230
1.0
 70
     8
 71
     3
 72
     9
 73
     5
 74
     0
 42
0.00000001
 43
0.00000001
 40
0.0
 40
0.0
 40
0.0
 40
0.0
 40
0.5600231130162816
 40
1.0
 40
1.0
 40
1.0
 40
1.0
 10
1.978841035154122
 20
4.961508220002172
 30
0.0
 10
1.978596852732942
 20
4.96092806199215
 30
0.0
 10
1.978160830691164
 20
4.95989210830285
 30
0.0
 10
1.977631898788967
 20
4.958900583264938
 30
0.0
 10
1.977399180977211
 20
4.95846433516539
 30
0.0
  0
SPLINE
  5
28E
330
1F
100
AcDbEntity
  8
0
  6
Continuous
 62
     7
370
     0
100
AcDbSpline
210
0.0
220
0.0
230
1.0
 70
     8
 71
     3
 72
     9
 73
     5
 74
     0
 42
0.00000001
 43
0.00000001
 40
0.0
 40
0.0
 40
0.0
 40
0.0
 40
0.5574886124954531
 40
0.9999999999999999
 40
0.9999999999999999
 40
0.9999999999999999
 40
0.9999999999999999
 10
1.98896069825091
 20
4.960644949974742
 30
0.0
 10
1.987108125227338
 20
4.961218182614936
 30
0.0
 10
1.983785056411134
 20
4.962246423600217
 30
0.0
 10
1.980357685715943
 20
4.96173467471252
 30
0.0
 10
1.978841035154122
 20
4.961508220002172
 30
0.0
  0
SPLINE
  5
28F
330
1F
100
AcDbEntity
  8
0
  6
Continuous
 62
     7
370
     0
100
AcDbSpline
210
0.0
220
0.0
230
1.0
 70
     8
 71
     3
 72
    10
 73
     6
 74
     0
 42
0.00000001
 43
0.00000001
 40
0.0
 40
0.0
 40
0.0
 40
0.0
 40
0.2796497348759293
 40
0.5592351387025171
 40
1.0
 40
1.0
 40
1.0
 40
1.0
 10
1.992592026718161
 20
4.95568738057834
 30
0.0
 10
1.992536954322882
 20
4.956297204765596
 30
0.0
 10
1.992426822201263
 20
4.957516712855228
 30
0.0
 10
1.991123957066173
 20
4.959349371300396
 30
0.0
 10
1.98978188165466
 20
4.960153142106853
 30
0.0
 10
1.98896069825091
 20
4.960644949974742
 30
0.0
  0
SPLINE
  5
290
330
1F
100
AcDbEntity
  8
0
  6
Continuous
 62
     7
370
     0
100
AcDbSpline
210
0.0
220
0.0
230
1.0
 70
     8
 71
     3
 72
     9
 73
     5
 74
     0
 42
0.00000001
 43
0.00000001
 40
0.0
 40
0.0
 40
0.0
 40
0.0
 40
0.561318119227405
 40
1.0
 40
1.0
 40
1.0
 40
1.0
 10
1.989930832043842
 20
4.948834313078893
 30
0.0
 10
1.990619631138073
 20
4.950045203595872
 30
0.0
 10
1.991846741168261
 20
4.952202430443718
 30
0.0
 10
1.992364774765445
 20
4.954624752001524
 30
0.0
 10
1.992592026718161
 20
4.95568738057834
 30
0.0
  0
LINE
  5
291
330
1F
100
AcDbEntity
  8
0
  6
Continuous
 62
     7
370
     0
100
AcDbLine
 10
1.9808169057
 20
4.9323864231
 30
0.0
 11
1.989930832
 21
4.9488343131
 31
0.0
  0
LINE
  5
292
330
1F
100
AcDbEntity
  8
0
  6
Continuous
 62
     7
370
     0
100
AcDbLine
 10
1.9859434881
 20
4.9295472826
 30
0.0
 11
1.9808169057
 21
4.9323864231
 31
0.0
  0
LINE
  5
293
330
1F
100
AcDbEntity
  8
0
  6
Continuous
 62
     7
370
     0
100
AcDbLine
 10
1.9963123579
 20
4.9482555731
 30
0.0
 11
1.9859434881
 21
4.9295472826
 31
0.0
  0
SPLINE
  5
294
330
1F
100
AcDbEntity
  8
0
  6
Continuous
 62
     7
370
     0
100
AcDbSpline
210
0.0
220
0.0
230
1.0
 70
     8
 71
     3
 72
    10
 73
     6
 74
     0
 42
0.00000001
 43
0.00000001
 40
0.0
 40
0.0
 40
0.0
 40
0.0
 40
0.2811652991097749
 40
0.5598158769820845
 40
1.0
 40
1.0
 40
1.0
 40
1.0
 10
1.99300144198856
 20
4.9643564537658
 30
0.0
 10
1.994497983280527
 20
4.963385902338942
 30
0.0
 10
1.997477680911971
 20
4.961453480024017
 30
0.0
 10
1.999448316543043
 20
4.954979699657093
 30
0.0
 10
1.997503364622101
 20
4.950809331234912
 30
0.0
 10
1.996312357907244
 20
4.948255573097881
 30
0.0
  0
LINE
  5
295
330
1F
100
AcDbEntity
  8
0
  6
Continuous
 62
     7
370
     0
100
AcDbLine
 10
1.8735773753
 20
5.1755625206
 30
0.0
 11
1.8382609266
 21
5.180777927
 31
0.0
  0
LINE
  5
296
330
1F
100
AcDbEntity
  8
0
  6
Continuous
 62
     7
370
     0
100
AcDbLine
 10
1.8668487531
 20
5.1299928337
 30
0.0
 11
1.8735773753
 21
5.1755625206
 31
0.0
  0
LINE
  5
297
330
1F
100
AcDbEntity
  8
0
  6
Continuous
 62
     7
370
     0
100
AcDbLine
 10
1.831532286
 20
5.1352085334
 30
0.0
 11
1.8668487531
 21
5.1299928337
 31
0.0
  0
LINE
  5
298
330
1F
100
AcDbEntity
  8
0
  6
Continuous
 62
     7
370
     0
100
AcDbLine
 10
1.829859022
 20
5.123816185
 30
0.0
 11
1.831532286
 21
5.1352085334
 31
0.0
  0
LINE
  5
299
330
1F
100
AcDbEntity
  8
0
  6
Continuous
 62
     7
370
     0
100
AcDbLine
 10
1.9187197905
 20
5.1106970032
 30
0.0
 11
1.829859022
 21
5.123816185
 31
0.0
  0
LINE
  5
29A
330
1F
100
AcDbEntity
  8
0
  6
Continuous
 62
     7
370
     0
100
AcDbLine
 10
1.9203930454
 20
5.1220893516
 30
0.0
 11
1.9187197905
 21
5.1106970032
 31
0.0
  0
LINE
  5
29B
330
1F
100
AcDbEntity
  8
0
  6
Continuous
 62
     7
370
     0
100
AcDbLine
 10
1.8771018996
 20
5.1284798378
 30
0.0
 11
1.9203930454
 21
5.1220893516
 31
0.0
  0
LINE
  5
29C
330
1F
100
AcDbEntity
  8
0
  6
Continuous
 62
     7
370
     0
100
AcDbLine
 10
1.8838305402
 20
5.1740495247
 30
0.0
 11
1.8771018996
 21
5.1284798378
 31
0.0
  0
LINE
  5
29D
330
1F
100
AcDbEntity
  8
0
  6
Continuous
 62
     7
370
     0
100
AcDbLine
 10
1.927121686
 20
5.1676590385
 30
0.0
 11
1.8838305402
 21
5.1740495247
 31
0.0
  0
LINE
  5
29E
330
1F
100
AcDbEntity
  8
0
  6
Continuous
 62
     7
370
     0
100
AcDbLine
 10
1.9288127514
 20
5.1790513869
 30
0.0
 11
1.927121686
 21
5.1676590385
 31
0.0
  0
LINE
  5
29F
330
1F
100
AcDbEntity
  8
0
  6
Continuous
 62
     7
370
     0
100
AcDbLine
 10
1.8399519921
 20
5.1921705687
 30
0.0
 11
1.9288127514
 21
5.1790513869
 31
0.0
  0
LINE
  5
2A0
330
1F
100
AcDbEntity
  8
0
  6
Continuous
 62
     7
370
     0
100
AcDbLine
 10
1.8382609266
 20
5.180777927
 30
0.0
 11
1.8399519921
 21
5.1921705687
 31
0.0
  0
SPLINE
  5
2A1
330
1F
100
AcDbEntity
  8
0
  6
Continuous
 62
     7
370
     0
100
AcDbSpline
210
0.0
220
0.0
230
1.0
 70
     8
 71
     3
 72
    10
 73
     6
 74
     0
 42
0.00000001
 43
0.00000001
 40
0.0
 40
0.0
 40
0.0
 40
0.0
 40
0.2805776516799885
 40
0.5609751809145014
 40
1.0
 40
1.0
 40
1.0
 40
1.0
 10
2.040625116835805
 20
5.351257770915435
 30
0.0
 10
2.042575092011853
 20
5.350343805358809
 30
0.0
 10
2.046473790538315
 20
5.348516460984061
 30
0.0
 10
2.052080722195303
 20
5.342927332378786
 30
0.0
 10
2.053544899199466
 20
5.337510402567781
 30
0.0
 10
2.054438407784323
 20
5.334204741246822
 30
0.0
  0
SPLINE
  5
2A2
330
1F
100
AcDbEntity
  8
0
  6
Continuous
 62
     7
370
     0
100
AcDbSpline
210
0.0
220
0.0
230
1.0
 70
     8
 71
     3
 72
     9
 73
     5
 74
     0
 42
0.00000001
 43
0.00000001
 40
0.0
 40
0.0
 40
0.0
 40
0.0
 40
0.561024994521119
 40
1.0
 40
1.0
 40
1.0
 40
1.0
 10
2.016701066958471
 20
5.351578380545059
 30
0.0
 10
2.021203217610447
 20
5.352433526815089
 30
0.0
 10
2.029228084053018
 20
5.353957783806099
 30
0.0
 10
2.037148327795538
 20
5.352081439268923
 30
0.0
 10
2.040625116835805
 20
5.351257770915435
 30
0.0
  0
LINE
  5
2A3
330
1F
100
AcDbEntity
  8
0
  6
Continuous
 62
     7
370
     0
100
AcDbLine
 10
1.9918691838
 20
5.3468789415
 30
0.0
 11
2.016701067
 21
5.3515783805
 31
0.0
  0
LINE
  5
2A4
330
1F
100
AcDbEntity
  8
0
  6
Continuous
 62
     7
370
     0
100
AcDbLine
 10
2.0084593709
 20
5.2591574482
 30
0.0
 11
1.9918691838
 21
5.3468789415
 31
0.0
  0
LINE
  5
2A5
330
1F
100
AcDbEntity
  8
0
  6
Continuous
 62
     7
370
     0
100
AcDbLine
 10
2.0198517789
 20
5.26131137
 30
0.0
 11
2.0084593709
 21
5.2591574482
 31
0.0
  0
LINE
  5
2A6
330
1F
100
AcDbEntity
  8
0
  6
Continuous
 62
     7
370
     0
100
AcDbLine
 10
2.0131765427
 20
5.2966277087
 30
0.0
 11
2.0198517789
 21
5.26131137
 31
0.0
  0
LINE
  5
2A7
330
1F
100
AcDbEntity
  8
0
  6
Continuous
 62
     7
370
     0
100
AcDbLine
 10
2.0315645948
 20
5.3000986819
 30
0.0
 11
2.0131765427
 21
5.2966277087
 31
0.0
  0
LINE
  5
2A8
330
1F
100
AcDbEntity
  8
0
  6
Continuous
 62
     7
370
     0
100
AcDbLine
 10
2.0679846894
 20
5.2704072382
 30
0.0
 11
2.0315645948
 21
5.3000986819
 31
0.0
  0
LINE
  5
2A9
330
1F
100
AcDbEntity
  8
0
  6
Continuous
 62
     7
370
     0
100
AcDbLine
 10
2.0813707648
 20
5.2729527555
 30
0.0
 11
2.0679846894
 21
5.2704072382
 31
0.0
  0
LINE
  5
2AA
330
1F
100
AcDbEntity
  8
0
  6
Continuous
 62
     7
370
     0
100
AcDbLine
 10
2.0407141196
 20
5.3054211538
 30
0.0
 11
2.0813707648
 21
5.2729527555
 31
0.0
  0
SPLINE
  5
2AB
330
1F
100
AcDbEntity
  8
0
  6
Continuous
 62
     7
370
     0
100
AcDbSpline
210
0.0
220
0.0
230
1.0
 70
     8
 71
     3
 72
    11
 73
     7
 74
     0
 42
0.00000001
 43
0.00000001
 40
0.0
 40
0.0
 40
0.0
 40
0.0
 40
0.2799533400165856
 40
0.5592002695556242
 40
0.7795040901387968
 40
0.9999999999999999
 40
0.9999999999999999
 40
0.9999999999999999
 40
0.9999999999999999
 10
2.054438407784323
 20
5.334204741246822
 30
0.0
 10
2.05480833398722
 20
5.331005339563605
 30
0.0
 10
2.055547252952657
 20
5.324614609295605
 30
0.0
 10
2.05219583019846
 20
5.316062693231279
 30
0.0
 10
2.046964051573186
 20
5.309651680513023
 30
0.0
 10
2.042798035377349
 20
5.306831738962059
 30
0.0
 10
2.040714119557638
 20
5.305421153757282
 30
0.0
  0
LINE
  5
2AC
330
1F
100
AcDbEntity
  8
0
  6
Continuous
 62
     7
370
     0
100
AcDbLine
 10
2.145117186
 20
5.2496937442
 30
0.0
 11
2.2331235118
 21
5.2851171483
 31
0.0
  0
LINE
  5
2AD
330
1F
100
AcDbEntity
  8
0
  6
Continuous
 62
     7
370
     0
100
AcDbLine
 10
2.1538751015
 20
5.2399924429
 30
0.0
 11
2.145117186
 21
5.2496937442
 31
0.0
  0
LINE
  5
2AE
330
1F
100
AcDbEntity
  8
0
  6
Continuous
 62
     7
370
     0
100
AcDbLine
 10
2.1779415585
 20
5.2499964607
 30
0.0
 11
2.1538751015
 21
5.2399924429
 31
0.0
  0
LINE
  5
2AF
330
1F
100
AcDbEntity
  8
0
  6
Continuous
 62
     7
370
     0
100
AcDbLine
 10
2.203271855
 20
5.221978171
 30
0.0
 11
2.1779415585
 21
5.2499964607
 31
0.0
  0
LINE
  5
2B0
330
1F
100
AcDbEntity
  8
0
  6
Continuous
 62
     7
370
     0
100
AcDbLine
 10
2.1909004171
 20
5.1990333161
 30
0.0
 11
2.203271855
 21
5.221978171
 31
0.0
  0
LINE
  5
2B1
330
1F
100
AcDbEntity
  8
0
  6
Continuous
 62
     7
370
     0
100
AcDbLine
 10
2.1996761249
 20
5.1893141217
 30
0.0
 11
2.1909004171
 21
5.1990333161
 31
0.0
  0
LINE
  5
2B2
330
1F
100
AcDbEntity
  8
0
  6
Continuous
 62
     7
370
     0
100
AcDbLine
 10
2.2438038934
 20
5.2732974182
 30
0.0
 11
2.1996761249
 21
5.1893141217
 31
0.0
  0
LINE
  5
2B3
330
1F
100
AcDbEntity
  8
0
  6
Continuous
 62
     7
370
     0
100
AcDbLine
 10
2.2331235118
 20
5.2851171483
 30
0.0
 11
2.2438038934
 21
5.2732974182
 31
0.0
  0
SPLINE
  5
2B4
330
1F
100
AcDbEntity
  8
0
  6
Continuous
 62
     7
370
     0
100
AcDbSpline
210
0.0
220
0.0
230
1.0
 70
     8
 71
     3
 72
    10
 73
     6
 74
     0
 42
0.00000001
 43
0.00000001
 40
0.0
 40
0.0
 40
0.0
 40
0.0
 40
0.2808941727712155
 40
0.5594628818296611
 40
1.0
 40
1.0
 40
1.0
 40
1.0
 10
2.268589412122813
 20
5.062290815753026
 30
0.0
 10
2.266711778291039
 20
5.062931359410954
 30
0.0
 10
2.262972055162639
 20
5.064207143800735
 30
0.0
 10
2.255810453827845
 20
5.062213137286602
 30
0.0
 10
2.252696462803594
 20
5.058143891825362
 30
0.0
 10
2.250788776090613
 20
5.055650999123421
 30
0.0
  0
SPLINE
  5
2B5
330
1F
100
AcDbEntity
  8
0
  6
Continuous
 62
     7
370
     0
100
AcDbSpline
210
0.0
220
0.0
230
1.0
 70
     8
 71
     3
 72
    11
 73
     7
 74
     0
 42
0.00000001
 43
0.00000001
 40
0.0
 40
0.0
 40
0.0
 40
0.0
 40
0.280979619451696
 40
0.5609428716899814
 40
0.7806506916469732
 40
0.9999999999999999
 40
0.9999999999999999
 40
0.9999999999999999
 40
0.9999999999999999
 10
2.274695019923644
 20
5.037245131749572
 30
0.0
 10
2.275589140078547
 20
5.039794339392004
 30
0.0
 10
2.277374146152319
 20
5.044883533612819
 30
0.0
 10
2.277068406101602
 20
5.052488721369083
 30
0.0
 10
2.274183343286675
 20
5.059104122636086
 30
0.0
 10
2.270453040519258
 20
5.06122916311385
 30
0.0
 10
2.268589412122813
 20
5.062290815753026
 30
0.0
  0
SPLINE
  5
2B6
330
1F
100
AcDbEntity
  8
0
  6
Continuous
 62
     7
370
     0
100
AcDbSpline
210
0.0
220
0.0
230
1.0
 70
     8
 71
     3
 72
    10
 73
     6
 74
     0
 42
0.00000001
 43
0.00000001
 40
0.0
 40
0.0
 40
0.0
 40
0.0
 40
0.2800291961281114
 40
0.5604779387398633
 40
0.9999999999999999
 40
0.9999999999999999
 40
0.9999999999999999
 40
0.9999999999999999
 10
2.253049451641762
 20
5.013659350881191
 30
0.0
 10
2.255700775590528
 20
5.015175002463859
 30
0.0
 10
2.261007395765434
 20
5.018208576414887
 30
0.0
 10
2.268803147253828
 20
5.026021282249752
 30
0.0
 10
2.272461622808065
 20
5.032990573902963
 30
0.0
 10
2.274695019923644
 20
5.037245131749572
 30
0.0
  0
LINE
  5
2B7
330
1F
100
AcDbEntity
  8
0
  6
Continuous
 62
     7
370
     0
100
AcDbLine
 10
2.2527468451
 20
5.0128940531
 30
0.0
 11
2.2530494516
 21
5.0136593509
 31
0.0
  0
LINE
  5
2B8
330
1F
100
AcDbEntity
  8
0
  6
Continuous
 62
     7
370
     0
100
AcDbLine
 10
2.266150722
 20
5.0073935299
 30
0.0
 11
2.2527468451
 21
5.0128940531
 31
0.0
  0
SPLINE
  5
2B9
330
1F
100
AcDbEntity
  8
0
  6
Continuous
 62
     7
370
     0
100
AcDbSpline
210
0.0
220
0.0
230
1.0
 70
     8
 71
     3
 72
     9
 73
     5
 74
     0
 42
0.00000001
 43
0.00000001
 40
0.0
 40
0.0
 40
0.0
 40
0.0
 40
0.5597423991606394
 40
1.0
 40
1.0
 40
1.0
 40
1.0
 10
2.283808946305455
 20
5.033507228263485
 30
0.0
 10
2.281254647188561
 20
5.028120419363461
 30
0.0
 10
2.276691299618815
 20
5.018496690826724
 30
0.0
 10
2.269372763232521
 20
5.010787541512673
 30
0.0
 10
2.266150721961436
 20
5.007393529931156
 30
0.0
  0
SPLINE
  5
2BA
330
1F
100
AcDbEntity
  8
0
  6
Continuous
 62
     7
370
     0
100
AcDbSpline
210
0.0
220
0.0
230
1.0
 70
     8
 71
     3
 72
    12
 73
     8
 74
     0
 42
0.00000001
 43
0.00000001
 40
0.0
 40
0.0
 40
0.0
 40
0.0
 40
0.1863548135208207
 40
0.3726725660530605
 40
0.559465643288631
 40
0.7795516078426
 40
1.0
 40
1.0
 40
1.0
 40
1.0
 10
2.272167340790276
 20
5.074128145673847
 30
0.0
 10
2.274788443489112
 20
5.072751796849543
 30
0.0
 10
2.280030127619558
 20
5.069999372919908
 30
0.0
 10
2.285065557401896
 20
5.06241471535495
 30
0.0
 10
2.287469576650344
 20
5.05335284494478
 30
0.0
 10
2.287242934817446
 20
5.043327214512193
 30
0.0
 10
2.284954236780057
 20
5.036782351832505
 30
0.0
 10
2.283808946305455
 20
5.033507228263485
 30
0.0
  0
SPLINE
  5
2BB
330
1F
100
AcDbEntity
  8
0
  6
Continuous
 62
     7
370
     0
100
AcDbSpline
210
0.0
220
0.0
230
1.0
 70
     8
 71
     3
 72
    11
 73
     7
 74
     0
 42
0.00000001
 43
0.00000001
 40
0.0
 40
0.0
 40
0.0
 40
0.0
 40
0.2807154958310038
 40
0.5600204493775505
 40
0.7796946248681264
 40
0.9999999999999999
 40
0.9999999999999999
 40
0.9999999999999999
 40
0.9999999999999999
 10
2.240215203237428
 20
5.062255029499766
 30
0.0
 10
2.242333606026674
 20
5.06504629277754
 30
0.0
 10
2.246559767031728
 20
5.070614793762935
 30
0.0
 10
2.255122626554638
 20
5.075863978173931
 30
0.0
 10
2.264320123785694
 20
5.076743845641319
 30
0.0
 10
2.269549101271994
 20
5.075000879156151
 30
0.0
 10
2.272167340790276
 20
5.074128145673847
 30
0.0
  0
SPLINE
  5
2BC
330
1F
100
AcDbEntity
  8
0
  6
Continuous
 62
     7
370
     0
100
AcDbSpline
210
0.0
220
0.0
230
1.0
 70
     8
 71
     3
 72
     9
 73
     5
 74
     0
 42
0.00000001
 43
0.00000001
 40
0.0
 40
0.0
 40
0.0
 40
0.0
 40
0.5599140168443705
 40
1.0
 40
1.0
 40
1.0
 40
1.0
 10
2.228609182311172
 20
5.044686032458318
 30
0.0
 10
2.23080588393501
 20
5.047944909989891
 30
0.0
 10
2.234729167792447
 20
5.053765227812865
 30
0.0
 10
2.238538687160839
 20
5.059660571414708
 30
0.0
 10
2.240215203237428
 20
5.062255029499766
 30
0.0
  0
SPLINE
  5
2BD
330
1F
100
AcDbEntity
  8
0
  6
Continuous
 62
     7
370
     0
100
AcDbSpline
210
0.0
220
0.0
230
1.0
 70
     8
 71
     3
 72
    10
 73
     6
 74
     0
 42
0.00000001
 43
0.00000001
 40
0.0
 40
0.0
 40
0.0
 40
0.0
 40
0.281110642089152
 40
0.5592646755624867
 40
1.0
 40
1.0
 40
1.0
 40
1.0
 10
2.21175198704693
 20
5.039007458057695
 30
0.0
 10
2.213492663387789
 20
5.038377386347231
 30
0.0
 10
2.216955708336193
 20
5.037123869767019
 30
0.0
 10
2.223686074966561
 20
5.038747922352907
 30
0.0
 10
2.226738070609433
 20
5.042429151483213
 30
0.0
 10
2.228609182311172
 20
5.044686032458318
 30
0.0
  0
SPLINE
  5
2BE
330
1F
100
AcDbEntity
  8
0
  6
Continuous
 62
     7
370
     0
100
AcDbSpline
210
0.0
220
0.0
230
1.0
 70
     8
 71
     3
 72
    11
 73
     7
 74
     0
 42
0.00000001
 43
0.00000001
 40
0.0
 40
0.0
 40
0.0
 40
0.0
 40
0.2513587579507253
 40
0.5020484726317509
 40
0.7513550638716813
 40
1.0
 40
1.0
 40
1.0
 40
1.0
 10
2.20545056317485
 20
5.066331435742106
 30
0.0
 10
2.204547203393193
 20
5.063857583115425
 30
0.0
 10
2.202742888308588
 20
5.058916462531972
 30
0.0
 10
2.202257945555561
 20
5.051020917490715
 30
0.0
 10
2.204828617497845
 20
5.043073699625603
 30
0.0
 10
2.20944624242652
 20
5.040361670707189
 30
0.0
 10
2.21175198704693
 20
5.039007458057695
 30
0.0
  0
SPLINE
  5
2BF
330
1F
100
AcDbEntity
  8
0
  6
Continuous
 62
     7
370
     0
100
AcDbSpline
210
0.0
220
0.0
230
1.0
 70
     8
 71
     3
 72
    11
 73
     7
 74
     0
 42
0.00000001
 43
0.00000001
 40
0.0
 40
0.0
 40
0.0
 40
0.0
 40
0.2799186943754633
 40
0.5598764391053118
 40
0.7800000289153124
 40
0.9999999999999999
 40
0.9999999999999999
 40
0.9999999999999999
 40
0.9999999999999999
 10
2.228876204226513
 20
5.09098523093936
 30
0.0
 10
2.22604470973708
 20
5.089392119759991
 30
0.0
 10
2.220381325747574
 20
5.086205675152585
 30
0.0
 10
2.213964694381143
 20
5.079769245900648
 30
0.0
 10
2.208758657481431
 20
5.073231549190625
 30
0.0
 10
2.206553054779127
 20
5.068631042839287
 30
0.0
 10
2.20545056317485
 20
5.066331435742106
 30
0.0
  0
LINE
  5
2C0
330
1F
100
AcDbEntity
  8
0
  6
Continuous
 62
     7
370
     0
100
AcDbLine
 10
2.2291788107
 20
5.0917508221
 30
0.0
 11
2.2288762042
 21
5.0909852309
 31
0.0
  0
LINE
  5
2C1
330
1F
100
AcDbEntity
  8
0
  6
Continuous
 62
     7
370
     0
100
AcDbLine
 10
2.2153299157
 20
5.0974291032
 30
0.0
 11
2.2291788107
 21
5.0917508221
 31
0.0
  0
SPLINE
  5
2C2
330
1F
100
AcDbEntity
  8
0
  6
Continuous
 62
     7
370
     0
100
AcDbSpline
210
0.0
220
0.0
230
1.0
 70
     8
 71
     3
 72
     9
 73
     5
 74
     0
 42
0.00000001
 43
0.00000001
 40
0.0
 40
0.0
 40
0.0
 40
0.0
 40
0.5596085212970606
 40
1.0
 40
1.0
 40
1.0
 40
1.0
 10
2.196354447420622
 20
5.070087525684768
 30
0.0
 10
2.199058346499339
 20
5.075784836013077
 30
0.0
 10
2.203890115451765
 20
5.085965721599139
 30
0.0
 10
2.21183226203606
 20
5.09392423963831
 30
0.0
 10
2.215329915714393
 20
5.097429103165865
 30
0.0
  0
SPLINE
  5
2C3
330
1F
100
AcDbEntity
  8
0
  6
Continuous
 62
     7
370
     0
100
AcDbSpline
210
0.0
220
0.0
230
1.0
 70
     8
 71
     3
 72
    10
 73
     6
 74
     0
 42
0.00000001
 43
0.00000001
 40
0.0
 40
0.0
 40
0.0
 40
0.0
 40
0.2800255448500869
 40
0.5601015221685108
 40
0.9999999999999999
 40
0.9999999999999999
 40
0.9999999999999999
 40
0.9999999999999999
 10
2.19414716708598
 20
5.042745654873726
 30
0.0
 10
2.193550949838933
 20
5.045294266600655
 30
0.0
 10
2.192358407966395
 20
5.050391949058283
 30
0.0
 10
2.192697145407744
 20
5.059848131046881
 30
0.0
 10
2.19496736307484
 20
5.066204088122737
 30
0.0
 10
2.196354447420622
 20
5.070087525684768
 30
0.0
  0
SPLINE
  5
2C4
330
1F
100
AcDbEntity
  8
0
  6
Continuous
 62
     7
370
     0
100
AcDbSpline
210
0.0
220
0.0
230
1.0
 70
     8
 71
     3
 72
    10
 73
     6
 74
     0
 42
0.00000001
 43
0.00000001
 40
0.0
 40
0.0
 40
0.0
 40
0.0
 40
0.2803989260274113
 40
0.5608929919541131
 40
1.0
 40
1.0
 40
1.0
 40
1.0
 10
2.208690282416004
 20
5.026956583937087
 30
0.0
 10
2.206845239141195
 20
5.027888401189355
 30
0.0
 10
2.203154526564818
 20
5.029752351861291
 30
0.0
 10
2.197710953521784
 20
5.034918981943483
 30
0.0
 10
2.195497708800002
 20
5.039779638681479
 30
0.0
 10
2.19414716708598
 20
5.042745654873726
 30
0.0
  0
SPLINE
  5
2C5
330
1F
100
AcDbEntity
  8
0
  6
Continuous
 62
     7
370
     0
100
AcDbSpline
210
0.0
220
0.0
230
1.0
 70
     8
 71
     3
 72
    11
 73
     7
 74
     0
 42
0.00000001
 43
0.00000001
 40
0.0
 40
0.0
 40
0.0
 40
0.0
 40
0.2805834047577827
 40
0.559871320790164
 40
0.779535218930733
 40
1.0
 40
1.0
 40
1.0
 40
1.0
 10
2.237936726225256
 20
5.036408554747114
 30
0.0
 10
2.235895781389106
 20
5.034023000577596
 30
0.0
 10
2.23182331501476
 20
5.029262906640975
 30
0.0
 10
2.223968890989898
 20
5.024801206192056
 30
0.0
 10
2.215686019730986
 20
5.024509614144877
 30
0.0
 10
2.211025021992315
 20
5.026139938463039
 30
0.0
 10
2.208690282416004
 20
5.026956583937087
 30
0.0
  0
SPLINE
  5
2C6
330
1F
100
AcDbEntity
  8
0
  6
Continuous
 62
     7
370
     0
100
AcDbSpline
210
0.0
220
0.0
230
1.0
 70
     8
 71
     3
 72
     9
 73
     5
 74
     0
 42
0.00000001
 43
0.00000001
 40
0.0
 40
0.0
 40
0.0
 40
0.0
 40
0.5600317165520191
 40
1.0
 40
1.0
 40
1.0
 40
1.0
 10
2.250788776090613
 20
5.055650999123421
 30
0.0
 10
2.248449997976516
 20
5.052018404077105
 30
0.0
 10
2.244273845010581
 20
5.045531994577515
 30
0.0
 10
2.239872971145394
 20
5.039196132923288
 30
0.0
 10
2.237936726225256
 20
5.036408554747114
 30
0.0
  0
SPLINE
  5
2C7
330
1F
100
AcDbEntity
  8
0
  6
Continuous
 62
     7
370
     0
100
AcDbSpline
210
0.0
220
0.0
230
1.0
 70
     8
 71
     3
 72
    10
 73
     6
 74
     0
 42
0.00000001
 43
0.00000001
 40
0.0
 40
0.0
 40
0.0
 40
0.0
 40
0.2804508408645199
 40
0.5604734277599354
 40
1.0
 40
1.0
 40
1.0
 40
1.0
 10
2.280225096039732
 20
5.130394989007805
 30
0.0
 10
2.278080309658241
 20
5.130186618094438
 30
0.0
 10
2.273794012026393
 20
5.129770194454201
 30
0.0
 10
2.266387680429799
 20
5.132559918766114
 30
0.0
 10
2.262656514404137
 20
5.136663764197404
 30
0.0
 10
2.260377383655533
 20
5.139170540965213
 30
0.0
  0
SPLINE
  5
2C8
330
1F
100
AcDbEntity
  8
0
  6
Continuous
 62
     7
370
     0
100
AcDbSpline
210
0.0
220
0.0
230
1.0
 70
     8
 71
     3
 72
    10
 73
     6
 74
     0
 42
0.00000001
 43
0.00000001
 40
0.0
 40
0.0
 40
0.0
 40
0.0
 40
0.2807012172554525
 40
0.5606997871867183
 40
1.0
 40
1.0
 40
1.0
 40
1.0
 10
2.294643601142598
 20
5.142463756255043
 30
0.0
 10
2.293964515901357
 20
5.140726450499837
 30
0.0
 10
2.292608045295465
 20
5.137256187788668
 30
0.0
 10
2.28776541199228
 20
5.132380195407396
 30
0.0
 10
2.283084120098388
 20
5.131147709834564
 30
0.0
 10
2.280225096039732
 20
5.130394989007805
 30
0.0
  0
SPLINE
  5
2C9
330
1F
100
AcDbEntity
  8
0
  6
Continuous
 62
     7
370
     0
100
AcDbSpline
210
0.0
220
0.0
230
1.0
 70
     8
 71
     3
 72
     9
 73
     5
 74
     0
 42
0.00000001
 43
0.00000001
 40
0.0
 40
0.0
 40
0.0
 40
0.0
 40
0.561098073290825
 40
1.0
 40
1.0
 40
1.0
 40
1.0
 10
2.294162980028107
 20
5.166832728075934
 30
0.0
 10
2.295078587009813
 20
5.162278515008674
 30
0.0
 10
2.296710399745038
 20
5.154161907085659
 30
0.0
 10
2.295274027630945
 20
5.146031991756843
 30
0.0
 10
2.294643601142598
 20
5.142463756255043
 30
0.0
  0
LINE
  5
2CA
330
1F
100
AcDbEntity
  8
0
  6
Continuous
 62
     7
370
     0
100
AcDbLine
 10
2.2895882245
 20
5.1930710916
 30
0.0
 11
2.29416298
 21
5.1668327281
 31
0.0
  0
LINE
  5
2CB
330
1F
100
AcDbEntity
  8
0
  6
Continuous
 62
     7
370
     0
100
AcDbLine
 10
2.2018667037
 20
5.1777624951
 30
0.0
 11
2.2895882245
 21
5.1930710916
 31
0.0
  0
LINE
  5
2CC
330
1F
100
AcDbEntity
  8
0
  6
Continuous
 62
     7
370
     0
100
AcDbLine
 10
2.2073670985
 20
5.1461661668
 30
0.0
 11
2.2018667037
 21
5.1777624951
 31
0.0
  0
SPLINE
  5
2CD
330
1F
100
AcDbEntity
  8
0
  6
Continuous
 62
     7
370
     0
100
AcDbSpline
210
0.0
220
0.0
230
1.0
 70
     8
 71
     3
 72
    10
 73
     6
 74
     0
 42
0.00000001
 43
0.00000001
 40
0.0
 40
0.0
 40
0.0
 40
0.0
 40
0.2798601026372922
 40
0.559755229939652
 40
1.0
 40
1.0
 40
1.0
 40
1.0
 10
2.219151124904792
 20
5.121067390094357
 30
0.0
 10
2.217317875808753
 20
5.122979702824223
 30
0.0
 10
2.213651148184415
 20
5.126804567611075
 30
0.0
 10
2.209557290705248
 20
5.13544272725161
 30
0.0
 10
2.208198047680878
 20
5.142097741649319
 30
0.0
 10
2.20736709853487
 20
5.146166166817813
 30
0.0
  0
SPLINE
  5
2CE
330
1F
100
AcDbEntity
  8
0
  6
Continuous
 62
     7
370
     0
100
AcDbSpline
210
0.0
220
0.0
230
1.0
 70
     8
 71
     3
 72
    10
 73
     6
 74
     0
 42
0.00000001
 43
0.00000001
 40
0.0
 40
0.0
 40
0.0
 40
0.0
 40
0.2807744986238001
 40
0.5612871544304197
 40
1.0
 40
1.0
 40
1.0
 40
1.0
 10
2.240511888143432
 20
5.115246550670524
 30
0.0
 10
2.238381672923359
 20
5.11499534041496
 30
0.0
 10
2.234123229065174
 20
5.114493154175823
 30
0.0
 10
2.226425314800931
 20
5.11584819192914
 30
0.0
 10
2.221907127033028
 20
5.119089971102497
 30
0.0
 10
2.219151124904792
 20
5.121067390094357
 30
0.0
  0
SPLINE
  5
2CF
330
1F
100
AcDbEntity
  8
0
  6
Continuous
 62
     7
370
     0
100
AcDbSpline
210
0.0
220
0.0
230
1.0
 70
     8
 71
     3
 72
    11
 73
     7
 74
     0
 42
0.00000001
 43
0.00000001
 40
0.0
 40
0.0
 40
0.0
 40
0.0
 40
0.2802137277797738
 40
0.5596805506799416
 40
0.7796355640803879
 40
1.0
 40
1.0
 40
1.0
 40
1.0
 10
2.259914564002065
 20
5.139081661991951
 30
0.0
 10
2.259612070617604
 20
5.13593818591632
 30
0.0
 10
2.259007890139603
 20
5.129659612646558
 30
0.0
 10
2.254324212793174
 20
5.12194956632515
 30
0.0
 10
2.247744143513951
 20
5.116990096054173
 30
0.0
 10
2.242924133864505
 20
5.115828092620542
 30
0.0
 10
2.240511888143432
 20
5.115246550670524
 30
0.0
  0
LINE
  5
2D0
330
1F
100
AcDbEntity
  8
0
  6
Continuous
 62
     7
370
     0
100
AcDbLine
 10
2.2603773837
 20
5.139170541
 30
0.0
 11
2.259914564
 21
5.139081662
 31
0.0
  0
LINE
  5
2D1
330
1F
100
AcDbEntity
  8
0
  6
Continuous
 62
     7
370
     0
100
AcDbLine
 10
2.1311962647
 20
5.3491821682
 30
0.0
 11
2.1061329718
 21
5.2751316103
 31
0.0
  0
LINE
  5
2D2
330
1F
100
AcDbEntity
  8
0
  6
Continuous
 62
     7
370
     0
100
AcDbLine
 10
2.1198038613
 20
5.3530271371
 30
0.0
 11
2.1311962647
 21
5.3491821682
 31
0.0
  0
LINE
  5
2D3
330
1F
100
AcDbEntity
  8
0
  6
Continuous
 62
     7
370
     0
100
AcDbLine
 10
2.0912694462
 20
5.268723231
 30
0.0
 11
2.1198038613
 21
5.3530271371
 31
0.0
  0
LINE
  5
2D4
330
1F
100
AcDbEntity
  8
0
  6
Continuous
 62
     7
370
     0
100
AcDbLine
 10
2.1448137453
 20
5.250602187
 30
0.0
 11
2.0912694462
 21
5.268723231
 31
0.0
  0
LINE
  5
2D5
330
1F
100
AcDbEntity
  8
0
  6
Continuous
 62
     7
370
     0
100
AcDbLine
 10
2.1482848744
 20
5.2608555352
 30
0.0
 11
2.1448137453
 21
5.250602187
 31
0.0
  0
LINE
  5
2D6
330
1F
100
AcDbEntity
  8
0
  6
Continuous
 62
     7
370
     0
100
AcDbLine
 10
2.1061329718
 20
5.2751316103
 30
0.0
 11
2.1482848744
 21
5.2608555352
 31
0.0
  0
SPLINE
  5
2D7
330
1F
100
AcDbEntity
  8
0
  6
Continuous
 62
     7
370
     0
100
AcDbSpline
210
0.0
220
0.0
230
1.0
 70
     8
 71
     3
 72
    11
 73
     7
 74
     0
 42
0.00000001
 43
0.00000001
 40
0.0
 40
0.0
 40
0.0
 40
0.0
 40
0.2801136934695101
 40
0.5600640180714684
 40
0.7800770091513848
 40
1.0
 40
1.0
 40
1.0
 40
1.0
 10
1.902920563027228
 20
5.225040828984318
 30
0.0
 10
1.900542831431759
 20
5.227554707474317
 30
0.0
 10
1.895788754989584
 20
5.232580998301492
 30
0.0
 10
1.890727189859964
 20
5.240835477139839
 30
0.0
 10
1.887467341411878
 20
5.249170769911605
 30
0.0
 10
1.88682798195302
 20
5.254575818493501
 30
0.0
 10
1.88650836762231
 20
5.257277789913529
 30
0.0
  0
SPLINE
  5
2D8
330
1F
100
AcDbEntity
  8
0
  6
Continuous
 62
     7
370
     0
100
AcDbSpline
210
0.0
220
0.0
230
1.0
 70
     8
 71
     3
 72
    10
 73
     6
 74
     0
 42
0.00000001
 43
0.00000001
 40
0.0
 40
0.0
 40
0.0
 40
0.0
 40
0.279934289987755
 40
0.5600647855303467
 40
0.9999999999999999
 40
0.9999999999999999
 40
0.9999999999999999
 40
0.9999999999999999
 10
1.935317709605959
 20
5.209269651174311
 30
0.0
 10
1.931889332295956
 20
5.209662574825503
 30
0.0
 10
1.925030174731057
 20
5.210448697527528
 30
0.0
 10
1.913670633948445
 20
5.215620501240974
 30
0.0
 10
1.906997572498925
 20
5.221468130188414
 30
0.0
 10
1.902920563027228
 20
5.225040828984318
 30
0.0
  0
SPLINE
  5
2D9
330
1F
100
AcDbEntity
  8
0
  6
Continuous
 62
     7
370
     0
100
AcDbSpline
210
0.0
220
0.0
230
1.0
 70
     8
 71
     3
 72
    11
 73
     7
 74
     0
 42
0.00000001
 43
0.00000001
 40
0.0
 40
0.0
 40
0.0
 40
0.0
 40
0.2801009389243075
 40
0.5600495756098822
 40
0.7800618679980336
 40
1.0
 40
1.0
 40
1.0
 40
1.0
 10
1.9655787908607
 20
5.222762535303362
 30
0.0
 10
1.963242106041079
 20
5.220591151553218
 30
0.0
 10
1.958570006952128
 20
5.216249564722327
 30
0.0
 10
1.950706760161808
 20
5.211990273884579
 30
0.0
 10
1.942834163994795
 20
5.209530177391591
 30
0.0
 10
1.937822912827844
 20
5.209356483487148
 30
0.0
 10
1.935317709605959
 20
5.209269651174311
 30
0.0
  0
SPLINE
  5
2DA
330
1F
100
AcDbEntity
  8
0
  6
Continuous
 62
     7
370
     0
100
AcDbSpline
210
0.0
220
0.0
230
1.0
 70
     8
 71
     3
 72
    10
 73
     6
 74
     0
 42
0.00000001
 43
0.00000001
 40
0.0
 40
0.0
 40
0.0
 40
0.0
 40
0.2801466360586967
 40
0.5602695306981756
 40
1.0
 40
1.0
 40
1.0
 40
1.0
 10
1.978537649492192
 20
5.253272662847765
 30
0.0
 10
1.978438480594448
 20
5.250080191863639
 30
0.0
 10
1.978240151203166
 20
5.243695520445814
 30
0.0
 10
1.974201761435824
 20
5.232830953701814
 30
0.0
 10
1.968848742363189
 20
5.226580620913521
 30
0.0
 10
1.9655787908607
 20
5.222762535303362
 30
0.0
  0
SPLINE
  5
2DB
330
1F
100
AcDbEntity
  8
0
  6
Continuous
 62
     7
370
     0
100
AcDbSpline
210
0.0
220
0.0
230
1.0
 70
     8
 71
     3
 72
    11
 73
     7
 74
     0
 42
0.00000001
 43
0.00000001
 40
0.0
 40
0.0
 40
0.0
 40
0.0
 40
0.2801246889496304
 40
0.5600769042887472
 40
0.7800997226104801
 40
1.0
 40
1.0
 40
1.0
 40
1.0
 10
1.962232272019971
 20
5.285420744803712
 30
0.0
 10
1.964604743370334
 20
5.282915747437984
 30
0.0
 10
1.96934822533334
 20
5.277907295040912
 30
0.0
 10
1.974341757213397
 20
5.269653430442896
 30
0.0
 10
1.977648855935436
 20
5.261365258690623
 30
0.0
 10
1.978241439994862
 20
5.255969693815739
 30
0.0
 10
1.978537649492192
 20
5.253272662847765
 30
0.0
  0
SPLINE
  5
2DC
330
1F
100
AcDbEntity
  8
0
  6
Continuous
 62
     7
370
     0
100
AcDbSpline
210
0.0
220
0.0
230
1.0
 70
     8
 71
     3
 72
    10
 73
     6
 74
     0
 42
0.00000001
 43
0.00000001
 40
0.0
 40
0.0
 40
0.0
 40
0.0
 40
0.2799327680031766
 40
0.5601202587534806
 40
1.0
 40
1.0
 40
1.0
 40
1.0
 10
1.929710515214081
 20
5.301245308663667
 30
0.0
 10
1.933151108873297
 20
5.300849026401749
 30
0.0
 10
1.940035426934424
 20
5.300056101283809
 30
0.0
 10
1.951427626909006
 20
5.294851644572081
 30
0.0
 10
1.958134891186791
 20
5.288997168420933
 30
0.0
 10
1.962232272019971
 20
5.285420744803712
 30
0.0
  0
SPLINE
  5
2DD
330
1F
100
AcDbEntity
  8
0
  6
Continuous
 62
     7
370
     0
100
AcDbSpline
210
0.0
220
0.0
230
1.0
 70
     8
 71
     3
 72
    11
 73
     7
 74
     0
 42
0.00000001
 43
0.00000001
 40
0.0
 40
0.0
 40
0.0
 40
0.0
 40
0.2800968879514451
 40
0.5600298148602967
 40
0.7800529482257454
 40
1.0
 40
1.0
 40
1.0
 40
1.0
 10
1.899502829175848
 20
5.287681438687984
 30
0.0
 10
1.90183178671492
 20
5.289857827833687
 30
0.0
 10
1.906488338485143
 20
5.294209332126532
 30
0.0
 10
1.914345575345654
 20
5.298464332311988
 30
0.0
 10
1.922201090429223
 20
5.300950499716913
 30
0.0
 10
1.92720766220531
 20
5.301147050344217
 30
0.0
 10
1.929710515214081
 20
5.301245308663667
 30
0.0
  0
SPLINE
  5
2DE
330
1F
100
AcDbEntity
  8
0
  6
Continuous
 62
     7
370
     0
100
AcDbSpline
210
0.0
220
0.0
230
1.0
 70
     8
 71
     3
 72
    10
 73
     6
 74
     0
 42
0.00000001
 43
0.00000001
 40
0.0
 40
0.0
 40
0.0
 40
0.0
 40
0.2800761039865267
 40
0.5603202539680301
 40
1.0
 40
1.0
 40
1.0
 40
1.0
 10
1.88650836762231
 20
5.257277789913529
 30
0.0
 10
1.88663444758004
 20
5.260456672399644
 30
0.0
 10
1.886886683143624
 20
5.266816344705145
 30
0.0
 10
1.891026032199491
 20
5.277580418695962
 30
0.0
 10
1.896288734457108
 20
5.283851497366894
 30
0.0
 10
1.899502829175848
 20
5.287681438687984
 30
0.0
  0
LINE
  5
2DF
330
1F
100
AcDbEntity
  8
0
  6
Continuous
 62
     7
370
     0
100
AcDbLine
 10
1.8757329838
 20
4.9985390722
 30
0.0
 11
1.8654798189
 21
4.9940176845
 31
0.0
  0
LINE
  5
2E0
330
1F
100
AcDbEntity
  8
0
  6
Continuous
 62
     7
370
     0
100
AcDbLine
 10
1.8626673164
 20
5.0281592367
 30
0.0
 11
1.8757329838
 21
4.9985390722
 31
0.0
  0
LINE
  5
2E1
330
1F
100
AcDbEntity
  8
0
  6
Continuous
 62
     7
370
     0
100
AcDbLine
 10
1.9344394706
 20
5.0598089511
 30
0.0
 11
1.8626673164
 21
5.0281592367
 31
0.0
  0
LINE
  5
2E2
330
1F
100
AcDbEntity
  8
0
  6
Continuous
 62
     7
370
     0
100
AcDbLine
 10
1.9294196969
 20
5.0712012995
 30
0.0
 11
1.9344394706
 21
5.0598089511
 31
0.0
  0
LINE
  5
2E3
330
1F
100
AcDbEntity
  8
0
  6
Continuous
 62
     7
370
     0
100
AcDbLine
 10
1.8576475427
 20
5.0395515851
 30
0.0
 11
1.9294196969
 21
5.0712012995
 31
0.0
  0
LINE
  5
2E4
330
1F
100
AcDbEntity
  8
0
  6
Continuous
 62
     7
370
     0
100
AcDbLine
 10
1.8445818753
 20
5.0691720429
 30
0.0
 11
1.8576475427
 21
5.0395515851
 31
0.0
  0
LINE
  5
2E5
330
1F
100
AcDbEntity
  8
0
  6
Continuous
 62
     7
370
     0
100
AcDbLine
 10
1.8343287104
 20
5.0646506552
 30
0.0
 11
1.8445818753
 21
5.0691720429
 31
0.0
  0
LINE
  5
2E6
330
1F
100
AcDbEntity
  8
0
  6
Continuous
 62
     7
370
     0
100
AcDbLine
 10
1.8654798189
 20
4.9940176845
 30
0.0
 11
1.8343287104
 21
5.0646506552
 31
0.0
  0
SPLINE
  5
2E7
330
1F
100
AcDbEntity
  8
0
  6
Continuous
 62
     7
370
     0
100
AcDbSpline
210
0.0
220
0.0
230
1.0
 70
     8
 71
     3
 72
     9
 73
     5
 74
     0
 42
0.00000001
 43
0.00000001
 40
0.0
 40
0.0
 40
0.0
 40
0.0
 40
0.5599799942347059
 40
1.0
 40
1.0
 40
1.0
 40
1.0
 10
1.934595879611268
 20
4.99755583024377
 30
0.0
 10
1.935340050989534
 20
4.996960951580263
 30
0.0
 10
1.936668975926011
 20
4.995898630301593
 30
0.0
 10
1.937924124361274
 20
4.994750302404953
 30
0.0
 10
1.938476414782994
 20
4.994245015157254
 30
0.0
  0
LINE
  5
2E8
330
1F
100
AcDbEntity
  8
0
  6
Continuous
 62
     7
370
     0
100
AcDbLine
 10
1.9433270929
 20
5.0068479362
 30
0.0
 11
1.9345958796
 21
4.9975558302
 31
0.0
  0
LINE
  5
2E9
330
1F
100
AcDbEntity
  8
0
  6
Continuous
 62
     7
370
     0
100
AcDbLine
 10
1.9592764595
 20
4.9918687493
 30
0.0
 11
1.9433270929
 21
5.0068479362
 31
0.0
  0
LINE
  5
2EA
330
1F
100
AcDbEntity
  8
0
  6
Continuous
 62
     7
370
     0
100
AcDbLine
 10
1.9624805667
 20
4.9952863365
 30
0.0
 11
1.9592764595
 21
4.9918687493
 31
0.0
  0
LINE
  5
2EB
330
1F
100
AcDbEntity
  8
0
  6
Continuous
 62
     7
370
     0
100
AcDbLine
 10
1.9425438653
 20
5.0140037202
 30
0.0
 11
1.9624805667
 21
4.9952863365
 31
0.0
  0
LINE
  5
2EC
330
1F
100
AcDbEntity
  8
0
  6
Continuous
 62
     7
370
     0
100
AcDbLine
 10
1.9270395077
 20
4.9974848444
 30
0.0
 11
1.9425438653
 21
5.0140037202
 31
0.0
  0
SPLINE
  5
2ED
330
1F
100
AcDbEntity
  8
0
  6
Continuous
 62
     7
370
     0
100
AcDbSpline
210
0.0
220
0.0
230
1.0
 70
     8
 71
     3
 72
     9
 73
     5
 74
     0
 42
0.00000001
 43
0.00000001
 40
0.0
 40
0.0
 40
0.0
 40
0.0
 40
0.5599113011573318
 40
1.0
 40
1.0
 40
1.0
 40
1.0
 10
1.934355569054022
 20
4.991690697998278
 30
0.0
 10
1.933045388244556
 20
4.992842501543958
 30
0.0
 10
1.930705409025064
 20
4.994899619418343
 30
0.0
 10
1.928159801041641
 20
4.996694803965567
 30
0.0
 10
1.927039507736454
 20
4.997484844397137
 30
0.0
  0
SPLINE
  5
2EE
330
1F
100
AcDbEntity
  8
0
  6
Continuous
 62
     7
370
     0
100
AcDbSpline
210
0.0
220
0.0
230
1.0
 70
     8
 71
     3
 72
     9
 73
     5
 74
     0
 42
0.00000001
 43
0.00000001
 40
0.0
 40
0.0
 40
0.0
 40
0.0
 40
0.5577525204461447
 40
1.0
 40
1.0
 40
1.0
 40
1.0
 10
1.93926854313226
 20
4.984080839241349
 30
0.0
 10
1.938659055071045
 20
4.98569943730765
 30
0.0
 10
1.93756629790927
 20
4.988601437759406
 30
0.0
 10
1.935340099631398
 20
4.990743414280542
 30
0.0
 10
1.934355569054022
 20
4.991690697998278
 30
0.0
  0
SPLINE
  5
2EF
330
1F
100
AcDbEntity
  8
0
  6
Continuous
 62
     7
370
     0
100
AcDbSpline
210
0.0
220
0.0
230
1.0
 70
     8
 71
     3
 72
     9
 73
     5
 74
     0
 42
0.00000001
 43
0.00000001
 40
0.0
 40
0.0
 40
0.0
 40
0.0
 40
0.5604291559970342
 40
0.9999999999999999
 40
0.9999999999999999
 40
0.9999999999999999
 40
0.9999999999999999
 10
1.936785358484888
 20
4.977049720465433
 30
0.0
 10
1.937737111342108
 20
4.978207660298146
 30
0.0
 10
1.93943536855631
 20
4.980273826592891
 30
0.0
 10
1.939319483030603
 20
4.982918373517634
 30
0.0
 10
1.93926854313226
 20
4.984080839241349
 30
0.0
  0
SPLINE
  5
2F0
330
1F
100
AcDbEntity
  8
0
  6
Continuous
 62
     7
370
     0
100
AcDbSpline
210
0.0
220
0.0
230
1.0
 70
     8
 71
     3
 72
     9
 73
     5
 74
     0
 42
0.00000001
 43
0.00000001
 40
0.0
 40
0.0
 40
0.0
 40
0.0
 40
0.5579370592187185
 40
1.0
 40
1.0
 40
1.0
 40
1.0
 10
1.929620600419451
 20
4.973258137599455
 30
0.0
 10
1.931156620001328
 20
4.973598579354773
 30
0.0
 10
1.933909653800568
 20
4.974208758853864
 30
0.0
 10
1.93590381411285
 20
4.976178826547323
 30
0.0
 10
1.936785358484888
 20
4.977049720465433
 30
0.0
  0
SPLINE
  5
2F1
330
1F
100
AcDbEntity
  8
0
  6
Continuous
 62
     7
370
     0
100
AcDbSpline
210
0.0
220
0.0
230
1.0
 70
     8
 71
     3
 72
     9
 73
     5
 74
     0
 42
0.00000001
 43
0.00000001
 40
0.0
 40
0.0
 40
0.0
 40
0.0
 40
0.5604554645526039
 40
0.9999999999999999
 40
0.9999999999999999
 40
0.9999999999999999
 40
0.9999999999999999
 10
1.922144335119239
 20
4.976355408486184
 30
0.0
 10
1.923373698310908
 20
4.975341248747097
 30
0.0
 10
1.925567205680222
 20
4.973531720955452
 30
0.0
 10
1.92838295374457
 20
4.973341672402413
 30
0.0
 10
1.929620600419451
 20
4.973258137599455
 30
0.0
  0
SPLINE
  5
2F2
330
1F
100
AcDbEntity
  8
0
  6
Continuous
 62
     7
370
     0
100
AcDbSpline
210
0.0
220
0.0
230
1.0
 70
     8
 71
     3
 72
     9
 73
     5
 74
     0
 42
0.00000001
 43
0.00000001
 40
0.0
 40
0.0
 40
0.0
 40
0.0
 40
0.5603107046606634
 40
1.0
 40
1.0
 40
1.0
 40
1.0
 10
1.916572734482845
 20
4.988014687130535
 30
0.0
 10
1.917104255160521
 20
4.985581315205497
 30
0.0
 10
1.918052872906453
 20
4.981238417765207
 30
0.0
 10
1.92089477929975
 20
4.977846707279596
 30
0.0
 10
1.922144335119239
 20
4.976355408486184
 30
0.0
  0
LINE
  5
2F3
330
1F
100
AcDbEntity
  8
0
  6
Continuous
 62
     7
370
     0
100
AcDbLine
 10
1.916270128
 20
4.9882995105
 30
0.0
 11
1.9165727345
 21
4.9880146871
 31
0.0
  0
LINE
  5
2F4
330
1F
100
AcDbEntity
  8
0
  6
Continuous
 62
     7
370
     0
100
AcDbLine
 10
1.9117220655
 20
4.9834578064
 30
0.0
 11
1.916270128
 21
4.9882995105
 31
0.0
  0
SPLINE
  5
2F5
330
1F
100
AcDbEntity
  8
0
  6
Continuous
 62
     7
370
     0
100
AcDbSpline
210
0.0
220
0.0
230
1.0
 70
     8
 71
     3
 72
     9
 73
     5
 74
     0
 42
0.00000001
 43
0.00000001
 40
0.0
 40
0.0
 40
0.0
 40
0.0
 40
0.5598887983596267
 40
1.0
 40
1.0
 40
1.0
 40
1.0
 10
1.919109332679846
 20
4.972777369819992
 30
0.0
 10
1.917423294775529
 20
4.974563796354808
 30
0.0
 10
1.914411914820695
 20
4.977754477325834
 30
0.0
 10
1.912544108154484
 20
4.981714816712366
 30
0.0
 10
1.911722065518187
 20
4.983457806438677
 30
0.0
  0
SPLINE
  5
2F6
330
1F
100
AcDbEntity
  8
0
  6
Continuous
 62
     7
370
     0
100
AcDbSpline
210
0.0
220
0.0
230
1.0
 70
     8
 71
     3
 72
     9
 73
     5
 74
     0
 42
0.00000001
 43
0.00000001
 40
0.0
 40
0.0
 40
0.0
 40
0.0
 40
0.5583273143551428
 40
1.0
 40
1.0
 40
1.0
 40
1.0
 10
1.930839945500139
 20
4.967775507601932
 30
0.0
 10
1.928374272416491
 20
4.968084431400477
 30
0.0
 10
1.923958093912856
 20
4.968637733720823
 30
0.0
 10
1.920594805365261
 20
4.971509145616456
 30
0.0
 10
1.919109332679846
 20
4.972777369819992
 30
0.0
  0
SPLINE
  5
2F7
330
1F
100
AcDbEntity
  8
0
  6
Continuous
 62
     7
370
     0
100
AcDbSpline
210
0.0
220
0.0
230
1.0
 70
     8
 71
     3
 72
     9
 73
     5
 74
     0
 42
0.00000001
 43
0.00000001
 40
0.0
 40
0.0
 40
0.0
 40
0.0
 40
0.5596704703731994
 40
1.0
 40
1.0
 40
1.0
 40
1.0
 10
1.941351222406305
 20
4.972777369819992
 30
0.0
 10
1.939638070309125
 20
4.971290852572087
 30
0.0
 10
1.936577068902284
 20
4.968634794540451
 30
0.0
 10
1.932593866944582
 20
4.968038204023597
 30
0.0
 10
1.930839945500139
 20
4.967775507601932
 30
0.0
  0
SPLINE
  5
2F8
330
1F
100
AcDbEntity
  8
0
  6
Continuous
 62
     7
370
     0
100
AcDbSpline
210
0.0
220
0.0
230
1.0
 70
     8
 71
     3
 72
    10
 73
     6
 74
     0
 42
0.00000001
 43
0.00000001
 40
0.0
 40
0.0
 40
0.0
 40
0.0
 40
0.2801784432904795
 40
0.5602817352531934
 40
1.0
 40
1.0
 40
1.0
 40
1.0
 10
1.945035950673343
 20
4.984232197492846
 30
0.0
 10
1.945195175221143
 20
4.983066431250354
 30
0.0
 10
1.945513581608477
 20
4.980735211454957
 30
0.0
 10
1.94446663747321
 20
4.976559227445835
 30
0.0
 10
1.942532643588947
 20
4.974211517955299
 30
0.0
 10
1.941351222406305
 20
4.972777369819992
 30
0.0
  0
SPLINE
  5
2F9
330
1F
100
AcDbEntity
  8
0
  6
Continuous
 62
     7
370
     0
100
AcDbSpline
210
0.0
220
0.0
230
1.0
 70
     8
 71
     3
 72
     9
 73
     5
 74
     0
 42
0.00000001
 43
0.00000001
 40
0.0
 40
0.0
 40
0.0
 40
0.0
 40
0.5607399453361795
 40
1.0
 40
1.0
 40
1.0
 40
1.0
 10
1.938476414782994
 20
4.994245015157254
 30
0.0
 10
1.94013670603856
 20
4.992646098886354
 30
0.0
 10
1.943097599531837
 20
4.9897946589556
 30
0.0
 10
1.944444368752052
 20
4.985929852561002
 30
0.0
 10
1.945035950673343
 20
4.984232197492846
 30
0.0
  0
SPLINE
  5
2FA
330
1F
100
AcDbEntity
  8
0
  6
Continuous
 62
     7
370
     0
100
AcDbSpline
210
0.0
220
0.0
230
1.0
 70
     8
 71
     3
 72
     9
 73
     5
 74
     0
 42
0.00000001
 43
0.00000001
 40
0.0
 40
0.0
 40
0.0
 40
0.0
 40
0.5611431695887731
 40
1.0
 40
1.0
 40
1.0
 40
1.0
 10
2.030706877453819
 20
4.948261439696775
 30
0.0
 10
2.032990630431798
 20
4.94957209441981
 30
0.0
 10
2.037060452719134
 20
4.951907781271341
 30
0.0
 10
2.04171295756754
 20
4.951625256751812
 30
0.0
 10
2.043754741098785
 20
4.951501268936658
 30
0.0
  0
SPLINE
  5
2FB
330
1F
100
AcDbEntity
  8
0
  6
Continuous
 62
     7
370
     0
100
AcDbSpline
210
0.0
220
0.0
230
1.0
 70
     8
 71
     3
 72
    10
 73
     6
 74
     0
 42
0.00000001
 43
0.00000001
 40
0.0
 40
0.0
 40
0.0
 40
0.0
 40
0.281367690848461
 40
0.5622262116938758
 40
1.0
 40
1.0
 40
1.0
 40
1.0
 10
2.022678792069946
 20
4.955604368203972
 30
0.0
 10
2.023723850594792
 20
4.95533233897207
 30
0.0
 10
2.025812076480467
 20
4.954788772779161
 30
0.0
 10
2.02908156064589
 20
4.952503643903041
 30
0.0
 10
2.030091590922757
 20
4.949867385748277
 30
0.0
 10
2.030706877453819
 20
4.948261439696775
 30
0.0
  0
SPLINE
  5
2FC
330
1F
100
AcDbEntity
  8
0
  6
Continuous
 62
     7
370
     0
100
AcDbSpline
210
0.0
220
0.0
230
1.0
 70
     8
 71
     3
 72
     9
 73
     5
 74
     0
 42
0.00000001
 43
0.00000001
 40
0.0
 40
0.0
 40
0.0
 40
0.0
 40
0.5610006315807291
 40
1.0
 40
1.0
 40
1.0
 40
1.0
 10
2.011170683762596
 20
4.952845306743552
 30
0.0
 10
2.013193291125603
 20
4.953963352909684
 30
0.0
 10
2.016798647785021
 20
4.955956302833788
 30
0.0
 10
2.020884920798041
 20
4.955711733838457
 30
0.0
 10
2.022678792069946
 20
4.955604368203972
 30
0.0
  0
LINE
  5
2FD
330
1F
100
AcDbEntity
  8
0
  6
Continuous
 62
     7
370
     0
100
AcDbLine
 10
2.0118827055
 20
4.9565122244
 30
0.0
 11
2.0111706838
 21
4.9528453067
 31
0.0
  0
LINE
  5
2FE
330
1F
100
AcDbEntity
  8
0
  6
Continuous
 62
     7
370
     0
100
AcDbLine
 10
2.0061865038
 20
4.9576248249
 30
0.0
 11
2.0118827055
 21
4.9565122244
 31
0.0
  0
LINE
  5
2FF
330
1F
100
AcDbEntity
  8
0
  6
Continuous
 62
     7
370
     0
100
AcDbLine
 10
1.9997693751
 20
4.9245867799
 30
0.0
 11
2.0061865038
 21
4.9576248249
 31
0.0
  0
LINE
  5
300
330
1F
100
AcDbEntity
  8
0
  6
Continuous
 62
     7
370
     0
100
AcDbLine
 10
2.0054655813
 20
4.9234741794
 30
0.0
 11
1.9997693751
 21
4.9245867799
 31
0.0
  0
LINE
  5
301
330
1F
100
AcDbEntity
  8
0
  6
Continuous
 62
     7
370
     0
100
AcDbLine
 10
2.010325151
 20
4.9484752772
 30
0.0
 11
2.0054655813
 21
4.9234741794
 31
0.0
  0
SPLINE
  5
302
330
1F
100
AcDbEntity
  8
0
  6
Continuous
 62
     7
370
     0
100
AcDbSpline
210
0.0
220
0.0
230
1.0
 70
     8
 71
     3
 72
     9
 73
     5
 74
     0
 42
0.00000001
 43
0.00000001
 40
0.0
 40
0.0
 40
0.0
 40
0.0
 40
0.557453901933703
 40
1.0
 40
1.0
 40
1.0
 40
1.0
 10
2.020026498126139
 20
4.950798157059067
 30
0.0
 10
2.018120433523259
 20
4.950766750544331
 30
0.0
 10
2.01470120083645
 20
4.950710411330223
 30
0.0
 10
2.011667641068721
 20
4.949160974465284
 30
0.0
 10
2.010325151030262
 20
4.948475277226506
 30
0.0
  0
SPLINE
  5
303
330
1F
100
AcDbEntity
  8
0
  6
Continuous
 62
     7
370
     0
100
AcDbSpline
210
0.0
220
0.0
230
1.0
 70
     8
 71
     3
 72
    10
 73
     6
 74
     0
 42
0.00000001
 43
0.00000001
 40
0.0
 40
0.0
 40
0.0
 40
0.0
 40
0.2797753491693291
 40
0.5591840002842489
 40
1.0
 40
1.0
 40
1.0
 40
1.0
 10
2.025010673465187
 20
4.947149132546243
 30
0.0
 10
2.02477771418044
 20
4.94772076880787
 30
0.0
 10
2.024312100947771
 20
4.948863292094619
 30
0.0
 10
2.022502928766031
 20
4.950231003201709
 30
0.0
 10
2.02096673243037
 20
4.950582823948631
 30
0.0
 10
2.020026498126139
 20
4.950798157059067
 30
0.0
  0
SPLINE
  5
304
330
1F
100
AcDbEntity
  8
0
  6
Continuous
 62
     7
370
     0
100
AcDbSpline
210
0.0
220
0.0
230
1.0
 70
     8
 71
     3
 72
     9
 73
     5
 74
     0
 42
0.00000001
 43
0.00000001
 40
0.0
 40
0.0
 40
0.0
 40
0.0
 40
0.5612321038662414
 40
1.0
 40
1.0
 40
1.0
 40
1.0
 10
2.024547858395
 20
4.939557166915944
 30
0.0
 10
2.02484210575753
 20
4.940967382892824
 30
0.0
 10
2.02536639394508
 20
4.943480097271003
 30
0.0
 10
2.025119154288948
 20
4.946030220390305
 30
0.0
 10
2.025010673465187
 20
4.947149132546243
 30
0.0
  0
LINE
  5
305
330
1F
100
AcDbEntity
  8
0
  6
Continuous
 62
     7
370
     0
100
AcDbLine
 10
2.0208453241
 20
4.9204924805
 30
0.0
 11
2.0245478584
 21
4.9395571669
 31
0.0
  0
LINE
  5
306
330
1F
100
AcDbEntity
  8
0
  6
Continuous
 62
     7
370
     0
100
AcDbLine
 10
2.0265415304
 20
4.9193801733
 30
0.0
 11
2.0208453241
 21
4.9204924805
 31
0.0
  0
LINE
  5
307
330
1F
100
AcDbEntity
  8
0
  6
Continuous
 62
     7
370
     0
100
AcDbLine
 10
2.0307068775
 20
4.9408120324
 30
0.0
 11
2.0265415304
 21
4.9193801733
 31
0.0
  0
SPLINE
  5
308
330
1F
100
AcDbEntity
  8
0
  6
Continuous
 62
     7
370
     0
100
AcDbSpline
210
0.0
220
0.0
230
1.0
 70
     8
 71
     3
 72
     9
 73
     5
 74
     0
 42
0.00000001
 43
0.00000001
 40
0.0
 40
0.0
 40
0.0
 40
0.0
 40
0.5599586346567312
 40
1.0
 40
1.0
 40
1.0
 40
1.0
 10
2.031160794085135
 20
4.944274205757642
 30
0.0
 10
2.031104323076684
 20
4.94362417211426
 30
0.0
 10
2.031003474540815
 20
4.942463312002192
 30
0.0
 10
2.030797510258028
 20
4.941316623009569
 30
0.0
 10
2.030706877453819
 20
4.940812032419631
 30
0.0
  0
SPLINE
  5
309
330
1F
100
AcDbEntity
  8
0
  6
Continuous
 62
     7
370
     0
100
AcDbSpline
210
0.0
220
0.0
230
1.0
 70
     8
 71
     3
 72
     9
 73
     5
 74
     0
 42
0.00000001
 43
0.00000001
 40
0.0
 40
0.0
 40
0.0
 40
0.0
 40
0.557231563589955
 40
1.0
 40
1.0
 40
1.0
 40
1.0
 10
2.041102447154977
 20
4.94670415102004
 30
0.0
 10
2.039147758140042
 20
4.946663345491431
 30
0.0
 10
2.035639900468909
 20
4.946590116458342
 30
0.0
 10
2.032535378446707
 20
4.944984931147758
 30
0.0
 10
2.031160794085135
 20
4.944274205757642
 30
0.0
  0
SPLINE
  5
30A
330
1F
100
AcDbEntity
  8
0
  6
Continuous
 62
     7
370
     0
100
AcDbSpline
210
0.0
220
0.0
230
1.0
 70
     8
 71
     3
 72
    10
 73
     6
 74
     0
 42
0.00000001
 43
0.00000001
 40
0.0
 40
0.0
 40
0.0
 40
0.0
 40
0.2798225514175247
 40
0.5592824506953126
 40
1.0
 40
1.0
 40
1.0
 40
1.0
 10
2.046077722909334
 20
4.943028140152299
 30
0.0
 10
2.045844619839269
 20
4.943600094267469
 30
0.0
 10
2.045378715802479
 20
4.944743261240959
 30
0.0
 10
2.04358459529904
 20
4.946134394110246
 30
0.0
 10
2.042044759981765
 20
4.946487850778036
 30
0.0
 10
2.041102447154977
 20
4.94670415102004
 30
0.0
  0
SPLINE
  5
30B
330
1F
100
AcDbEntity
  8
0
  6
Continuous
 62
     7
370
     0
100
AcDbSpline
210
0.0
220
0.0
230
1.0
 70
     8
 71
     3
 72
     9
 73
     5
 74
     0
 42
0.00000001
 43
0.00000001
 40
0.0
 40
0.0
 40
0.0
 40
0.0
 40
0.56125339528726
 40
1.0
 40
1.0
 40
1.0
 40
1.0
 10
2.045623807423838
 20
4.935462867546973
 30
0.0
 10
2.04591087588686
 20
4.936868547690463
 30
0.0
 10
2.046422353350395
 20
4.939373085133433
 30
0.0
 10
2.046182818160577
 20
4.941913529021809
 30
0.0
 10
2.046077722909334
 20
4.943028140152299
 30
0.0
  0
LINE
  5
30C
330
1F
100
AcDbEntity
  8
0
  6
Continuous
 62
     7
370
     0
100
AcDbLine
 10
2.0419212754
 20
4.9163984744
 30
0.0
 11
2.0456238074
 21
4.9354628675
 31
0.0
  0
LINE
  5
30D
330
1F
100
AcDbEntity
  8
0
  6
Continuous
 62
     7
370
     0
100
AcDbLine
 10
2.0476174782
 20
4.915285874
 30
0.0
 11
2.0419212754
 21
4.9163984744
 31
0.0
  0
LINE
  5
30E
330
1F
100
AcDbEntity
  8
0
  6
Continuous
 62
     7
370
     0
100
AcDbLine
 10
2.0518095275
 20
4.9368690913
 30
0.0
 11
2.0476174782
 21
4.915285874
 31
0.0
  0
SPLINE
  5
30F
330
1F
100
AcDbEntity
  8
0
  6
Continuous
 62
     7
370
     0
100
AcDbSpline
210
0.0
220
0.0
230
1.0
 70
     8
 71
     3
 72
    10
 73
     6
 74
     0
 42
0.00000001
 43
0.00000001
 40
0.0
 40
0.0
 40
0.0
 40
0.0
 40
0.2809532685918912
 40
0.5595374732297854
 40
0.9999999999999999
 40
0.9999999999999999
 40
0.9999999999999999
 40
0.9999999999999999
 10
2.043754741098785
 20
4.951501268936658
 30
0.0
 10
2.045505352922038
 20
4.951022332263698
 30
0.0
 10
2.048991814998448
 20
4.950068497424303
 30
0.0
 10
2.052748401946058
 20
4.94431390099146
 30
0.0
 10
2.052166177546832
 20
4.939697149520705
 30
0.0
 10
2.051809527528371
 20
4.936869091302157
 30
0.0
  0
LINE
  5
310
330
1F
100
AcDbEntity
  8
0
  6
Continuous
 62
     7
370
     0
100
AcDbLine
 10
2.1336708695
 20
4.9490337774
 30
0.0
 11
2.1406220146
 21
4.9336539018
 31
0.0
  0
LINE
  5
311
330
1F
100
AcDbEntity
  8
0
  6
Continuous
 62
     7
370
     0
100
AcDbLine
 10
2.1553164423
 20
4.9588063579
 30
0.0
 11
2.1336708695
 21
4.9490337774
 31
0.0
  0
LINE
  5
312
330
1F
100
AcDbEntity
  8
0
  6
Continuous
 62
     7
370
     0
100
AcDbLine
 10
2.1532604652
 20
4.9633632386
 30
0.0
 11
2.1553164423
 21
4.9588063579
 31
0.0
  0
LINE
  5
313
330
1F
100
AcDbEntity
  8
0
  6
Continuous
 62
     7
370
     0
100
AcDbLine
 10
2.131614897
 20
4.9535906581
 30
0.0
 11
2.1532604652
 21
4.9633632386
 31
0.0
  0
LINE
  5
314
330
1F
100
AcDbEntity
  8
0
  6
Continuous
 62
     7
370
     0
100
AcDbLine
 10
2.1264705131
 20
4.9649830065
 30
0.0
 11
2.131614897
 21
4.9535906581
 31
0.0
  0
LINE
  5
315
330
1F
100
AcDbEntity
  8
0
  6
Continuous
 62
     7
370
     0
100
AcDbLine
 10
2.1481160813
 20
4.974755587
 30
0.0
 11
2.1264705131
 21
4.9649830065
 31
0.0
  0
LINE
  5
316
330
1F
100
AcDbEntity
  8
0
  6
Continuous
 62
     7
370
     0
100
AcDbLine
 10
2.1460601134
 20
4.979312761
 30
0.0
 11
2.1481160813
 21
4.974755587
 31
0.0
  0
LINE
  5
317
330
1F
100
AcDbEntity
  8
0
  6
Continuous
 62
     7
370
     0
100
AcDbLine
 10
2.1192879581
 20
4.9672261006
 30
0.0
 11
2.1460601134
 21
4.979312761
 31
0.0
  0
LINE
  5
318
330
1F
100
AcDbEntity
  8
0
  6
Continuous
 62
     7
370
     0
100
AcDbLine
 10
2.1375514092
 20
4.9267829412
 30
0.0
 11
2.1192879581
 21
4.9672261006
 31
0.0
  0
LINE
  5
319
330
1F
100
AcDbEntity
  8
0
  6
Continuous
 62
     7
370
     0
100
AcDbLine
 10
2.1643235599
 20
4.9388696015
 30
0.0
 11
2.1375514092
 21
4.9267829412
 31
0.0
  0
LINE
  5
31A
330
1F
100
AcDbEntity
  8
0
  6
Continuous
 62
     7
370
     0
100
AcDbLine
 10
2.1622675829
 20
4.9434264822
 30
0.0
 11
2.1643235599
 21
4.9388696015
 31
0.0
  0
LINE
  5
31B
330
1F
100
AcDbEntity
  8
0
  6
Continuous
 62
     7
370
     0
100
AcDbLine
 10
2.1406220146
 20
4.9336539018
 30
0.0
 11
2.1622675829
 21
4.9434264822
 31
0.0
  0
SPLINE
  5
31C
330
1F
100
AcDbEntity
  8
0
  6
Continuous
 62
     7
370
     0
100
AcDbSpline
210
0.0
220
0.0
230
1.0
 70
     8
 71
     3
 72
    12
 73
     8
 74
     0
 42
0.00000001
 43
0.00000001
 40
0.0
 40
0.0
 40
0.0
 40
0.0
 40
0.1867025773584066
 40
0.3729880653243976
 40
0.559463644984253
 40
0.7794657360407181
 40
1.0
 40
1.0
 40
1.0
 40
1.0
 10
1.906373881467532
 20
5.281006129135062
 30
0.0
 10
1.904203243904481
 20
5.278462902700682
 30
0.0
 10
1.899866817934269
 20
5.273382131343036
 30
0.0
 10
1.897251295128424
 20
5.263435538380638
 30
0.0
 10
1.898640062863732
 20
5.252816443354972
 30
0.0
 10
1.903849286560854
 20
5.242737760108748
 30
0.0
 10
1.90919712627654
 20
5.237018145621249
 30
0.0
 10
1.911874276259835
 20
5.234154883697981
 30
0.0
  0
SPLINE
  5
31D
330
1F
100
AcDbEntity
  8
0
  6
Continuous
 62
     7
370
     0
100
AcDbSpline
210
0.0
220
0.0
230
1.0
 70
     8
 71
     3
 72
    12
 73
     8
 74
     0
 42
0.00000001
 43
0.00000001
 40
0.0
 40
0.0
 40
0.0
 40
0.0
 40
0.1873376329533893
 40
0.3744339010951819
 40
0.5611488644832394
 40
0.7802800945471261
 40
1.0
 40
1.0
 40
1.0
 40
1.0
 10
1.953278549620803
 20
5.27630669009005
 30
0.0
 10
1.95082758778184
 20
5.27854802228508
 30
0.0
 10
1.945928821910134
 20
5.28302779895464
 30
0.0
 10
1.93719951716031
 20
5.288016961170632
 30
0.0
 10
1.926868631635202
 20
5.29052434185073
 30
0.0
 10
1.915361000587676
 20
5.28871684685226
 30
0.0
 10
1.909372265606112
 20
5.283578665827994
 30
0.0
 10
1.906373881467532
 20
5.281006129135062
 30
0.0
  0
SPLINE
  5
31E
330
1F
100
AcDbEntity
  8
0
  6
Continuous
 62
     7
370
     0
100
AcDbSpline
210
0.0
220
0.0
230
1.0
 70
     8
 71
     3
 72
    12
 73
     8
 74
     0
 42
0.00000001
 43
0.00000001
 40
0.0
 40
0.0
 40
0.0
 40
0.0
 40
0.1866353677656057
 40
0.3729057030241538
 40
0.5594199175664598
 40
0.7794460971930549
 40
1.0
 40
1.0
 40
1.0
 40
1.0
 10
1.958778944413106
 20
5.229508830702915
 30
0.0
 10
1.960931857667723
 20
5.232057342453523
 30
0.0
 10
1.96523347338169
 20
5.237149381424506
 30
0.0
 10
1.967818175371706
 20
5.247072686438687
 30
0.0
 10
1.966497699546593
 20
5.257678488824516
 30
0.0
 10
1.961302536649806
 20
5.267751706299051
 30
0.0
 10
1.955955346903694
 20
5.27345275260434
 30
0.0
 10
1.953278549620803
 20
5.27630669009005
 30
0.0
  0
SPLINE
  5
31F
330
1F
100
AcDbEntity
  8
0
  6
Continuous
 62
     7
370
     0
100
AcDbSpline
210
0.0
220
0.0
230
1.0
 70
     8
 71
     3
 72
    12
 73
     8
 74
     0
 42
0.00000001
 43
0.00000001
 40
0.0
 40
0.0
 40
0.0
 40
0.0
 40
0.1873423706658035
 40
0.3744354150652133
 40
0.5611210004501704
 40
0.7803313374963424
 40
1.0
 40
1.0
 40
1.0
 40
1.0
 10
1.911874276259835
 20
5.234154883697981
 30
0.0
 10
1.914324973510528
 20
5.231915361526875
 30
0.0
 10
1.919223106479599
 20
5.227439297672738
 30
0.0
 10
1.927932090921864
 20
5.222412851945509
 30
0.0
 10
1.938288385481545
 20
5.219977209908794
 30
0.0
 10
1.94976725218926
 20
5.221842439683984
 30
0.0
 10
1.955772956400736
 20
5.226951588519248
 30
0.0
 10
1.958778944413106
 20
5.229508830702915
 30
0.0
  0
LINE
  5
320
330
1F
100
AcDbEntity
  8
0
  6
Continuous
 62
     7
370
     0
100
AcDbLine
 10
2.0112362705
 20
5.3068807636
 30
0.0
 11
2.0232160992
 21
5.3091414574
 31
0.0
  0
LINE
  5
321
330
1F
100
AcDbEntity
  8
0
  6
Continuous
 62
     7
370
     0
100
AcDbLine
 10
2.0052018548
 20
5.3387795151
 30
0.0
 11
2.0112362705
 21
5.3068807636
 31
0.0
  0
LINE
  5
322
330
1F
100
AcDbEntity
  8
0
  6
Continuous
 62
     7
370
     0
100
AcDbLine
 10
2.0191397525
 20
5.3414142046
 30
0.0
 11
2.0052018548
 21
5.3387795151
 31
0.0
  0
SPLINE
  5
323
330
1F
100
AcDbEntity
  8
0
  6
Continuous
 62
     7
370
     0
100
AcDbSpline
210
0.0
220
0.0
230
1.0
 70
     8
 71
     3
 72
     9
 73
     5
 74
     0
 42
0.00000001
 43
0.00000001
 40
0.0
 40
0.0
 40
0.0
 40
0.0
 40
0.5580882193134424
 40
1.0
 40
1.0
 40
1.0
 40
1.0
 10
2.034127886059036
 20
5.341182767302737
 30
0.0
 10
2.031339831187358
 20
5.341748347795595
 30
0.0
 10
2.026344106900062
 20
5.342761772686652
 30
0.0
 10
2.02134771637188
 20
5.341827202295073
 30
0.0
 10
2.019139752536566
 20
5.341414204629153
 30
0.0
  0
SPLINE
  5
324
330
1F
100
AcDbEntity
  8
0
  6
Continuous
 62
     7
370
     0
100
AcDbSpline
210
0.0
220
0.0
230
1.0
 70
     8
 71
     3
 72
     9
 73
     5
 74
     0
 42
0.00000001
 43
0.00000001
 40
0.0
 40
0.0
 40
0.0
 40
0.0
 40
0.5598605570511223
 40
1.0
 40
1.0
 40
1.0
 40
1.0
 10
2.042049167260053
 20
5.331107470360093
 30
0.0
 10
2.041326874248645
 20
5.333625322003755
 30
0.0
 10
2.040036744050489
 20
5.338122605500424
 30
0.0
 10
2.035933767758586
 20
5.340247512097001
 30
0.0
 10
2.034127886059036
 20
5.341182767302737
 30
0.0
  0
SPLINE
  5
325
330
1F
100
AcDbEntity
  8
0
  6
Continuous
 62
     7
370
     0
100
AcDbSpline
210
0.0
220
0.0
230
1.0
 70
     8
 71
     3
 72
    10
 73
     6
 74
     0
 42
0.00000001
 43
0.00000001
 40
0.0
 40
0.0
 40
0.0
 40
0.0
 40
0.2801909730611128
 40
0.56010851319819
 40
1.0
 40
1.0
 40
1.0
 40
1.0
 10
2.039307870594413
 20
5.316778009228584
 30
0.0
 10
2.040092717455697
 20
5.317953297193085
 30
0.0
 10
2.04166164526147
 20
5.320302726181409
 30
0.0
 10
2.042872720205358
 20
5.325298580163843
 30
0.0
 10
2.042361553022824
 20
5.328904072745949
 30
0.0
 10
2.042049167260053
 20
5.331107470360093
 30
0.0
  0
SPLINE
  5
326
330
1F
100
AcDbEntity
  8
0
  6
Continuous
 62
     7
370
     0
100
AcDbSpline
210
0.0
220
0.0
230
1.0
 70
     8
 71
     3
 72
     9
 73
     5
 74
     0
 42
0.00000001
 43
0.00000001
 40
0.0
 40
0.0
 40
0.0
 40
0.0
 40
0.561905665096809
 40
1.0
 40
1.0
 40
1.0
 40
1.0
 10
2.023216099196262
 20
5.309141457446682
 30
0.0
 10
2.026625477407062
 20
5.309785334175457
 30
0.0
 10
2.032693005148062
 20
5.310931214647518
 30
0.0
 10
2.037292748910209
 20
5.314996869061948
 30
0.0
 10
2.039307870594413
 20
5.316778009228584
 30
0.0
  0
SPLINE
  5
327
330
1F
100
AcDbEntity
  8
0
  6
Continuous
 62
     7
370
     0
100
AcDbSpline
210
0.0
220
0.0
230
1.0
 70
     8
 71
     3
 72
     9
 73
     5
 74
     0
 42
0.00000001
 43
0.00000001
 40
0.0
 40
0.0
 40
0.0
 40
0.0
 40
0.5616908399538038
 40
1.0
 40
1.0
 40
1.0
 40
1.0
 10
2.216854837265036
 20
5.152396494844532
 30
0.0
 10
2.217492074115609
 20
5.148302542234004
 30
0.0
 10
2.21862657161004
 20
5.141013919526777
 30
0.0
 10
2.222468948245787
 20
5.134744714031108
 30
0.0
 10
2.224153097121582
 20
5.131996863836144
 30
0.0
  0
LINE
  5
328
330
1F
100
AcDbEntity
  8
0
  6
Continuous
 62
     7
370
     0
100
AcDbLine
 10
2.2492697853
 20
5.1549953982
 30
0.0
 11
2.2459944815
 21
5.1737215818
 31
0.0
  0
SPLINE
  5
329
330
1F
100
AcDbEntity
  8
0
  6
Continuous
 62
     7
370
     0
100
AcDbSpline
210
0.0
220
0.0
230
1.0
 70
     8
 71
     3
 72
    10
 73
     6
 74
     0
 42
0.00000001
 43
0.00000001
 40
0.0
 40
0.0
 40
0.0
 40
0.0
 40
0.2815397407146664
 40
0.5618771852456921
 40
1.0
 40
1.0
 40
1.0
 40
1.0
 10
2.237841778988761
 20
5.127689313597331
 30
0.0
 10
2.239358753324061
 20
5.128017326170946
 30
0.0
 10
2.242386223859639
 20
5.128671950562939
 30
0.0
 10
2.247491699838961
 20
5.131392935238649
 30
0.0
 10
2.249016429899646
 20
5.135229250434684
 30
0.0
 10
2.24994622249053
 20
5.137568666136874
 30
0.0
  0
SPLINE
  5
32A
330
1F
100
AcDbEntity
  8
0
  6
Continuous
 62
     7
370
     0
100
AcDbSpline
210
0.0
220
0.0
230
1.0
 70
     8
 71
     3
 72
    10
 73
     6
 74
     0
 42
0.00000001
 43
0.00000001
 40
0.0
 40
0.0
 40
0.0
 40
0.0
 40
0.2806790058926867
 40
0.5606186678507036
 40
1.0
 40
1.0
 40
1.0
 40
1.0
 10
2.224153097121582
 20
5.131996863836144
 30
0.0
 10
2.225180783661061
 20
5.131034893939473
 30
0.0
 10
2.227233449683938
 20
5.129113488096279
 30
0.0
 10
2.2319687346859
 20
5.127031396210079
 30
0.0
 10
2.235614713442168
 20
5.127439830523461
 30
0.0
 10
2.237841778988761
 20
5.127689313597331
 30
0.0
  0
LINE
  5
32B
330
1F
100
AcDbEntity
  8
0
  6
Continuous
 62
     7
370
     0
100
AcDbLine
 10
2.2140957391
 20
5.168167966
 30
0.0
 11
2.2168548373
 21
5.1523964948
 31
0.0
  0
SPLINE
  5
32C
330
1F
100
AcDbEntity
  8
0
  6
Continuous
 62
     7
370
     0
100
AcDbSpline
210
0.0
220
0.0
230
1.0
 70
     8
 71
     3
 72
     9
 73
     5
 74
     0
 42
0.00000001
 43
0.00000001
 40
0.0
 40
0.0
 40
0.0
 40
0.0
 40
0.5584154325352696
 40
1.0
 40
1.0
 40
1.0
 40
1.0
 10
2.24994622249053
 20
5.137568666136874
 30
0.0
 10
2.25025543799581
 20
5.140834083476884
 30
0.0
 10
2.250809175387836
 20
5.146681732287708
 30
0.0
 10
2.249741329548065
 20
5.152448765353292
 30
0.0
 10
2.24926978530479
 20
5.154995398155113
 30
0.0
  0
LINE
  5
32D
330
1F
100
AcDbEntity
  8
0
  6
Continuous
 62
     7
370
     0
100
AcDbLine
 10
2.2459944815
 20
5.1737215818
 30
0.0
 11
2.2140957391
 21
5.168167966
 31
0.0
  0
LINE
  5
32E
330
1F
100
AcDbEntity
  8
0
  6
Continuous
 62
     7
370
     0
100
AcDbLine
 10
2.2837674218
 20
5.1658005
 30
0.0
 11
2.2813109302
 21
5.1798806307
 31
0.0
  0
SPLINE
  5
32F
330
1F
100
AcDbEntity
  8
0
  6
Continuous
 62
     7
370
     0
100
AcDbSpline
210
0.0
220
0.0
230
1.0
 70
     8
 71
     3
 72
     9
 73
     5
 74
     0
 42
0.00000001
 43
0.00000001
 40
0.0
 40
0.0
 40
0.0
 40
0.0
 40
0.5578113323686823
 40
1.0
 40
1.0
 40
1.0
 40
1.0
 10
2.284354833332655
 20
5.148711684078448
 30
0.0
 10
2.284714716630821
 20
5.15191081846165
 30
0.0
 10
2.285359886919201
 20
5.157645973338512
 30
0.0
 10
2.284255686636816
 20
5.163300245102554
 30
0.0
 10
2.28376742178515
 20
5.165800500000321
 30
0.0
  0
SPLINE
  5
330
330
1F
100
AcDbEntity
  8
0
  6
Continuous
 62
     7
370
     0
100
AcDbSpline
210
0.0
220
0.0
230
1.0
 70
     8
 71
     3
 72
     9
 73
     5
 74
     0
 42
0.00000001
 43
0.00000001
 40
0.0
 40
0.0
 40
0.0
 40
0.0
 40
0.5603126856269085
 40
1.0
 40
1.0
 40
1.0
 40
1.0
 10
2.276362362329029
 20
5.142623914404882
 30
0.0
 10
2.278373425171615
 20
5.143129631550739
 30
0.0
 10
2.281962604738979
 20
5.144032193921411
 30
0.0
 10
2.283624235406828
 20
5.147282545654262
 30
0.0
 10
2.284354833332655
 20
5.148711684078448
 30
0.0
  0
SPLINE
  5
331
330
1F
100
AcDbEntity
  8
0
  6
Continuous
 62
     7
370
     0
100
AcDbSpline
210
0.0
220
0.0
230
1.0
 70
     8
 71
     3
 72
    10
 73
     6
 74
     0
 42
0.00000001
 43
0.00000001
 40
0.0
 40
0.0
 40
0.0
 40
0.0
 40
0.2800065587434249
 40
0.5598075733694201
 40
0.9999999999999999
 40
0.9999999999999999
 40
0.9999999999999999
 40
0.9999999999999999
 10
2.264364727593395
 20
5.145827957391504
 30
0.0
 10
2.265257520089531
 20
5.144989477342607
 30
0.0
 10
2.26704244971056
 20
5.143313132746973
 30
0.0
 10
2.271341472349286
 20
5.142057949938294
 30
0.0
 10
2.274457359169446
 20
5.142409178750165
 30
0.0
 10
2.276362362329029
 20
5.142623914404882
 30
0.0
  0
LINE
  5
332
330
1F
100
AcDbEntity
  8
0
  6
Continuous
 62
     7
370
     0
100
AcDbLine
 10
2.2813109302
 20
5.1798806307
 30
0.0
 11
2.2562476464
 21
5.1755194011
 31
0.0
  0
SPLINE
  5
333
330
1F
100
AcDbEntity
  8
0
  6
Continuous
 62
     7
370
     0
100
AcDbSpline
210
0.0
220
0.0
230
1.0
 70
     8
 71
     3
 72
     9
 73
     5
 74
     0
 42
0.00000001
 43
0.00000001
 40
0.0
 40
0.0
 40
0.0
 40
0.0
 40
0.5613688200161651
 40
0.9999999999999999
 40
0.9999999999999999
 40
0.9999999999999999
 40
0.9999999999999999
 10
2.25891773718416
 20
5.160246590826221
 30
0.0
 10
2.259369769865007
 20
5.157322460979735
 30
0.0
 10
2.260175002832583
 20
5.15211353283442
 30
0.0
 10
2.263087302259362
 20
5.147744396720613
 30
0.0
 10
2.264364727593395
 20
5.145827957391504
 30
0.0
  0
LINE
  5
334
330
1F
100
AcDbEntity
  8
0
  6
Continuous
 62
     7
370
     0
100
AcDbLine
 10
2.2562476464
 20
5.1755194011
 30
0.0
 11
2.2589177372
 21
5.1602465908
 31
0.0
  0
LINE
  5
335
330
1F
100
AcDbEntity
  8
0
  6
Continuous
 62
     7
370
     0
100
AcDbLine
 10
2.2086120458
 20
5.232106854
 30
0.0
 11
2.2293675869
 21
5.2710012314
 31
0.0
  0
LINE
  5
336
330
1F
100
AcDbEntity
  8
0
  6
Continuous
 62
     7
370
     0
100
AcDbLine
 10
2.2293675869
 20
5.2710012314
 30
0.0
 11
2.1885507342
 21
5.2543040109
 31
0.0
  0
LINE
  5
337
330
1F
100
AcDbEntity
  8
0
  6
Continuous
 62
     7
370
     0
100
AcDbLine
 10
2.1885507342
 20
5.2543040109
 30
0.0
 11
2.2086120458
 21
5.232106854
 31
0.0
  0
SPLINE
  5
338
330
1F
100
AcDbEntity
  8
0
  6
Continuous
 62
     7
370
     0
100
AcDbSpline
210
0.0
220
0.0
230
1.0
 70
     8
 71
     3
 72
     9
 73
     5
 74
     0
 42
0.00000001
 43
0.00000001
 40
0.0
 40
0.0
 40
0.0
 40
0.0
 40
0.5606378864318682
 40
1.0
 40
1.0
 40
1.0
 40
1.0
 10
1.96266915947301
 20
4.976211676813251
 30
0.0
 10
1.964905006623269
 20
4.976492875511528
 30
0.0
 10
1.968893048110242
 20
4.976994444715255
 30
0.0
 10
1.972582825960353
 20
4.975455092900118
 30
0.0
 10
1.974203974555175
 20
4.974778760033095
 30
0.0
  0
SPLINE
  5
339
330
1F
100
AcDbEntity
  8
0
  6
Continuous
 62
     7
370
     0
100
AcDbSpline
210
0.0
220
0.0
230
1.0
 70
     8
 71
     3
 72
     9
 73
     5
 74
     0
 42
0.00000001
 43
0.00000001
 40
0.0
 40
0.0
 40
0.0
 40
0.0
 40
0.5607309776747256
 40
1.0
 40
1.0
 40
1.0
 40
1.0
 10
1.979846771869099
 20
4.965806970342642
 30
0.0
 10
1.982392770030883
 20
4.966191132977634
 30
0.0
 10
1.98693326852865
 20
4.966876243396511
 30
0.0
 10
1.991149418091924
 20
4.965125500768395
 30
0.0
 10
1.99300144198856
 20
4.9643564537658
 30
0.0
  0
SPLINE
  5
33A
330
1F
100
AcDbEntity
  8
0
  6
Continuous
 62
     7
370
     0
100
AcDbSpline
210
0.0
220
0.0
230
1.0
 70
     8
 71
     3
 72
    10
 73
     6
 74
     0
 42
0.00000001
 43
0.00000001
 40
0.0
 40
0.0
 40
0.0
 40
0.0
 40
0.2811652991097749
 40
0.5598158769820845
 40
1.0
 40
1.0
 40
1.0
 40
1.0
 10
1.99300144198856
 20
4.9643564537658
 30
0.0
 10
1.994497983280527
 20
4.963385902338942
 30
0.0
 10
1.997477680911971
 20
4.961453480024017
 30
0.0
 10
1.999448316543043
 20
4.954979699657093
 30
0.0
 10
1.997503364622101
 20
4.950809331234912
 30
0.0
 10
1.996312357907244
 20
4.948255573097881
 30
0.0
  0
SPLINE
  5
33B
330
1F
100
AcDbEntity
  8
0
  6
Continuous
 62
     7
370
     0
100
AcDbSpline
210
0.0
220
0.0
230
1.0
 70
     8
 71
     3
 72
     9
 73
     5
 74
     0
 42
0.00000001
 43
0.00000001
 40
0.0
 40
0.0
 40
0.0
 40
0.0
 40
0.561318119227405
 40
1.0
 40
1.0
 40
1.0
 40
1.0
 10
1.989930832043842
 20
4.948834313078893
 30
0.0
 10
1.990619631138073
 20
4.950045203595872
 30
0.0
 10
1.991846741168261
 20
4.952202430443718
 30
0.0
 10
1.992364774765445
 20
4.954624752001524
 30
0.0
 10
1.992592026718161
 20
4.95568738057834
 30
0.0
  0
SPLINE
  5
33C
330
1F
100
AcDbEntity
  8
0
  6
Continuous
 62
     7
370
     0
100
AcDbSpline
210
0.0
220
0.0
230
1.0
 70
     8
 71
     3
 72
     9
 73
     5
 74
     0
 42
0.00000001
 43
0.00000001
 40
0.0
 40
0.0
 40
0.0
 40
0.0
 40
0.5612882542348078
 40
0.9999999999999999
 40
0.9999999999999999
 40
0.9999999999999999
 40
0.9999999999999999
 10
1.971133360027176
 20
4.959256619346188
 30
0.0
 10
1.971824748580856
 20
4.960470385391443
 30
0.0
 10
1.973056537324809
 20
4.962632850107386
 30
0.0
 10
1.973575698089762
 20
4.965061918942867
 30
0.0
 10
1.973803460015287
 20
4.966127579972265
 30
0.0
  0
SPLINE
  5
33D
330
1F
100
AcDbEntity
  8
0
  6
Continuous
 62
     7
370
     0
100
AcDbSpline
210
0.0
220
0.0
230
1.0
 70
     8
 71
     3
 72
    10
 73
     6
 74
     0
 42
0.00000001
 43
0.00000001
 40
0.0
 40
0.0
 40
0.0
 40
0.0
 40
0.2796497348759293
 40
0.5592351387025171
 40
1.0
 40
1.0
 40
1.0
 40
1.0
 10
1.992592026718161
 20
4.95568738057834
 30
0.0
 10
1.992536954322882
 20
4.956297204765596
 30
0.0
 10
1.992426822201263
 20
4.957516712855228
 30
0.0
 10
1.991123957066173
 20
4.959349371300396
 30
0.0
 10
1.98978188165466
 20
4.960153142106853
 30
0.0
 10
1.98896069825091
 20
4.960644949974742
 30
0.0
  0
SPLINE
  5
33E
330
1F
100
AcDbEntity
  8
0
  6
Continuous
 62
     7
370
     0
100
AcDbSpline
210
0.0
220
0.0
230
1.0
 70
     8
 71
     3
 72
    10
 73
     6
 74
     0
 42
0.00000001
 43
0.00000001
 40
0.0
 40
0.0
 40
0.0
 40
0.0
 40
0.2796973165818267
 40
0.5592506553422293
 40
1.0
 40
1.0
 40
1.0
 40
1.0
 10
1.973803460015287
 20
4.966127579972265
 30
0.0
 10
1.973754657227255
 20
4.966738545582554
 30
0.0
 10
1.973657076773061
 20
4.967960162300662
 30
0.0
 10
1.972321411554965
 20
4.969770063266148
 30
0.0
 10
1.970982499395787
 20
4.970569184823383
 30
0.0
 10
1.970163226234244
 20
4.971058163013749
 30
0.0
  0
SPLINE
  5
33F
330
1F
100
AcDbEntity
  8
0
  6
Continuous
 62
     7
370
     0
100
AcDbSpline
210
0.0
220
0.0
230
1.0
 70
     8
 71
     3
 72
     9
 73
     5
 74
     0
 42
0.00000001
 43
0.00000001
 40
0.0
 40
0.0
 40
0.0
 40
0.0
 40
0.5575489431487481
 40
1.0
 40
1.0
 40
1.0
 40
1.0
 10
1.970163226234244
 20
4.971058163013749
 30
0.0
 10
1.968361599473433
 20
4.971625161264033
 30
0.0
 10
1.965130265645346
 20
4.972642109206005
 30
0.0
 10
1.961788946204233
 20
4.972167299396472
 30
0.0
 10
1.960310575886235
 20
4.971957219294441
 30
0.0
  0
SPLINE
  5
340
330
1F
100
AcDbEntity
  8
0
  6
Continuous
 62
     7
370
     0
100
AcDbSpline
210
0.0
220
0.0
230
1.0
 70
     8
 71
     3
 72
    10
 73
     6
 74
     0
 42
0.00000001
 43
0.00000001
 40
0.0
 40
0.0
 40
0.0
 40
0.0
 40
0.2815155414281708
 40
0.5625273548815262
 40
1.0
 40
1.0
 40
1.0
 40
1.0
 10
1.974203974555175
 20
4.974778760033095
 30
0.0
 10
1.975087397186465
 20
4.974221860238231
 30
0.0
 10
1.976852661702594
 20
4.973109057133472
 30
0.0
 10
1.979349969297312
 20
4.970180646400581
 30
0.0
 10
1.979658756643891
 20
4.96746219061669
 30
0.0
 10
1.979846771869099
 20
4.965806970342642
 30
0.0
  0
SPLINE
  5
341
330
1F
100
AcDbEntity
  8
0
  6
Continuous
 62
     7
370
     0
100
AcDbSpline
210
0.0
220
0.0
230
1.0
 70
     8
 71
     3
 72
     9
 73
     5
 74
     0
 42
0.00000001
 43
0.00000001
 40
0.0
 40
0.0
 40
0.0
 40
0.0
 40
0.5574886124954531
 40
0.9999999999999999
 40
0.9999999999999999
 40
0.9999999999999999
 40
0.9999999999999999
 10
1.98896069825091
 20
4.960644949974742
 30
0.0
 10
1.987108125227338
 20
4.961218182614936
 30
0.0
 10
1.983785056411134
 20
4.962246423600217
 30
0.0
 10
1.980357685715943
 20
4.96173467471252
 30
0.0
 10
1.978841035154122
 20
4.961508220002172
 30
0.0
  0
SPLINE
  5
342
330
1F
100
AcDbEntity
  8
0
  6
Continuous
 62
     7
370
     0
100
AcDbSpline
210
0.0
220
0.0
230
1.0
 70
     8
 71
     3
 72
    12
 73
     8
 74
     0
 42
0.00000001
 43
0.00000001
 40
0.0
 40
0.0
 40
0.0
 40
0.0
 40
0.1866353677656057
 40
0.3729057030241538
 40
0.5594199175664598
 40
0.7794460971930549
 40
1.0
 40
1.0
 40
1.0
 40
1.0
 10
1.958778944413106
 20
5.229508830702915
 30
0.0
 10
1.960931857667723
 20
5.232057342453523
 30
0.0
 10
1.96523347338169
 20
5.237149381424506
 30
0.0
 10
1.967818175371706
 20
5.247072686438687
 30
0.0
 10
1.966497699546593
 20
5.257678488824516
 30
0.0
 10
1.961302536649806
 20
5.267751706299051
 30
0.0
 10
1.955955346903694
 20
5.27345275260434
 30
0.0
 10
1.953278549620803
 20
5.27630669009005
 30
0.0
  0
SPLINE
  5
343
330
1F
100
AcDbEntity
  8
0
  6
Continuous
 62
     7
370
     0
100
AcDbSpline
210
0.0
220
0.0
230
1.0
 70
     8
 71
     3
 72
    11
 73
     7
 74
     0
 42
0.00000001
 43
0.00000001
 40
0.0
 40
0.0
 40
0.0
 40
0.0
 40
0.2801246889496304
 40
0.5600769042887472
 40
0.7800997226104801
 40
1.0
 40
1.0
 40
1.0
 40
1.0
 10
1.962232272019971
 20
5.285420744803712
 30
0.0
 10
1.964604743370334
 20
5.282915747437984
 30
0.0
 10
1.96934822533334
 20
5.277907295040912
 30
0.0
 10
1.974341757213397
 20
5.269653430442896
 30
0.0
 10
1.977648855935436
 20
5.261365258690623
 30
0.0
 10
1.978241439994862
 20
5.255969693815739
 30
0.0
 10
1.978537649492192
 20
5.253272662847765
 30
0.0
  0
SPLINE
  5
344
330
1F
100
AcDbEntity
  8
0
  6
Continuous
 62
     7
370
     0
100
AcDbSpline
210
0.0
220
0.0
230
1.0
 70
     8
 71
     3
 72
    12
 73
     8
 74
     0
 42
0.00000001
 43
0.00000001
 40
0.0
 40
0.0
 40
0.0
 40
0.0
 40
0.1867025773584066
 40
0.3729880653243976
 40
0.559463644984253
 40
0.7794657360407181
 40
1.0
 40
1.0
 40
1.0
 40
1.0
 10
1.906373881467532
 20
5.281006129135062
 30
0.0
 10
1.904203243904481
 20
5.278462902700682
 30
0.0
 10
1.899866817934269
 20
5.273382131343036
 30
0.0
 10
1.897251295128424
 20
5.263435538380638
 30
0.0
 10
1.898640062863732
 20
5.252816443354972
 30
0.0
 10
1.903849286560854
 20
5.242737760108748
 30
0.0
 10
1.90919712627654
 20
5.237018145621249
 30
0.0
 10
1.911874276259835
 20
5.234154883697981
 30
0.0
  0
SPLINE
  5
345
330
1F
100
AcDbEntity
  8
0
  6
Continuous
 62
     7
370
     0
100
AcDbSpline
210
0.0
220
0.0
230
1.0
 70
     8
 71
     3
 72
    10
 73
     6
 74
     0
 42
0.00000001
 43
0.00000001
 40
0.0
 40
0.0
 40
0.0
 40
0.0
 40
0.279934289987755
 40
0.5600647855303467
 40
0.9999999999999999
 40
0.9999999999999999
 40
0.9999999999999999
 40
0.9999999999999999
 10
1.935317709605959
 20
5.209269651174311
 30
0.0
 10
1.931889332295956
 20
5.209662574825503
 30
0.0
 10
1.925030174731057
 20
5.210448697527528
 30
0.0
 10
1.913670633948445
 20
5.215620501240974
 30
0.0
 10
1.906997572498925
 20
5.221468130188414
 30
0.0
 10
1.902920563027228
 20
5.225040828984318
 30
0.0
  0
SPLINE
  5
346
330
1F
100
AcDbEntity
  8
0
  6
Continuous
 62
     7
370
     0
100
AcDbSpline
210
0.0
220
0.0
230
1.0
 70
     8
 71
     3
 72
    10
 73
     6
 74
     0
 42
0.00000001
 43
0.00000001
 40
0.0
 40
0.0
 40
0.0
 40
0.0
 40
0.2799327680031766
 40
0.5601202587534806
 40
1.0
 40
1.0
 40
1.0
 40
1.0
 10
1.929710515214081
 20
5.301245308663667
 30
0.0
 10
1.933151108873297
 20
5.300849026401749
 30
0.0
 10
1.940035426934424
 20
5.300056101283809
 30
0.0
 10
1.951427626909006
 20
5.294851644572081
 30
0.0
 10
1.958134891186791
 20
5.288997168420933
 30
0.0
 10
1.962232272019971
 20
5.285420744803712
 30
0.0
  0
SPLINE
  5
347
330
1F
100
AcDbEntity
  8
0
  6
Continuous
 62
     7
370
     0
100
AcDbSpline
210
0.0
220
0.0
230
1.0
 70
     8
 71
     3
 72
    10
 73
     6
 74
     0
 42
0.00000001
 43
0.00000001
 40
0.0
 40
0.0
 40
0.0
 40
0.0
 40
0.2800761039865267
 40
0.5603202539680301
 40
1.0
 40
1.0
 40
1.0
 40
1.0
 10
1.88650836762231
 20
5.257277789913529
 30
0.0
 10
1.88663444758004
 20
5.260456672399644
 30
0.0
 10
1.886886683143624
 20
5.266816344705145
 30
0.0
 10
1.891026032199491
 20
5.277580418695962
 30
0.0
 10
1.896288734457108
 20
5.283851497366894
 30
0.0
 10
1.899502829175848
 20
5.287681438687984
 30
0.0
  0
SPLINE
  5
348
330
1F
100
AcDbEntity
  8
0
  6
Continuous
 62
     7
370
     0
100
AcDbSpline
210
0.0
220
0.0
230
1.0
 70
     8
 71
     3
 72
    11
 73
     7
 74
     0
 42
0.00000001
 43
0.00000001
 40
0.0
 40
0.0
 40
0.0
 40
0.0
 40
0.2801136934695101
 40
0.5600640180714684
 40
0.7800770091513848
 40
1.0
 40
1.0
 40
1.0
 40
1.0
 10
1.902920563027228
 20
5.225040828984318
 30
0.0
 10
1.900542831431759
 20
5.227554707474317
 30
0.0
 10
1.895788754989584
 20
5.232580998301492
 30
0.0
 10
1.890727189859964
 20
5.240835477139839
 30
0.0
 10
1.887467341411878
 20
5.249170769911605
 30
0.0
 10
1.88682798195302
 20
5.254575818493501
 30
0.0
 10
1.88650836762231
 20
5.257277789913529
 30
0.0
  0
SPLINE
  5
349
330
1F
100
AcDbEntity
  8
0
  6
Continuous
 62
     7
370
     0
100
AcDbSpline
210
0.0
220
0.0
230
1.0
 70
     8
 71
     3
 72
    10
 73
     6
 74
     0
 42
0.00000001
 43
0.00000001
 40
0.0
 40
0.0
 40
0.0
 40
0.0
 40
0.2801466360586967
 40
0.5602695306981756
 40
1.0
 40
1.0
 40
1.0
 40
1.0
 10
1.978537649492192
 20
5.253272662847765
 30
0.0
 10
1.978438480594448
 20
5.250080191863639
 30
0.0
 10
1.978240151203166
 20
5.243695520445814
 30
0.0
 10
1.974201761435824
 20
5.232830953701814
 30
0.0
 10
1.968848742363189
 20
5.226580620913521
 30
0.0
 10
1.9655787908607
 20
5.222762535303362
 30
0.0
  0
SPLINE
  5
34A
330
1F
100
AcDbEntity
  8
0
  6
Continuous
 62
     7
370
     0
100
AcDbSpline
210
0.0
220
0.0
230
1.0
 70
     8
 71
     3
 72
    12
 73
     8
 74
     0
 42
0.00000001
 43
0.00000001
 40
0.0
 40
0.0
 40
0.0
 40
0.0
 40
0.1873376329533893
 40
0.3744339010951819
 40
0.5611488644832394
 40
0.7802800945471261
 40
1.0
 40
1.0
 40
1.0
 40
1.0
 10
1.953278549620803
 20
5.27630669009005
 30
0.0
 10
1.95082758778184
 20
5.27854802228508
 30
0.0
 10
1.945928821910134
 20
5.28302779895464
 30
0.0
 10
1.93719951716031
 20
5.288016961170632
 30
0.0
 10
1.926868631635202
 20
5.29052434185073
 30
0.0
 10
1.915361000587676
 20
5.28871684685226
 30
0.0
 10
1.909372265606112
 20
5.283578665827994
 30
0.0
 10
1.906373881467532
 20
5.281006129135062
 30
0.0
  0
SPLINE
  5
34B
330
1F
100
AcDbEntity
  8
0
  6
Continuous
 62
     7
370
     0
100
AcDbSpline
210
0.0
220
0.0
230
1.0
 70
     8
 71
     3
 72
    12
 73
     8
 74
     0
 42
0.00000001
 43
0.00000001
 40
0.0
 40
0.0
 40
0.0
 40
0.0
 40
0.1873423706658035
 40
0.3744354150652133
 40
0.5611210004501704
 40
0.7803313374963424
 40
1.0
 40
1.0
 40
1.0
 40
1.0
 10
1.911874276259835
 20
5.234154883697981
 30
0.0
 10
1.914324973510528
 20
5.231915361526875
 30
0.0
 10
1.919223106479599
 20
5.227439297672738
 30
0.0
 10
1.927932090921864
 20
5.222412851945509
 30
0.0
 10
1.938288385481545
 20
5.219977209908794
 30
0.0
 10
1.94976725218926
 20
5.221842439683984
 30
0.0
 10
1.955772956400736
 20
5.226951588519248
 30
0.0
 10
1.958778944413106
 20
5.229508830702915
 30
0.0
  0
SPLINE
  5
34C
330
1F
100
AcDbEntity
  8
0
  6
Continuous
 62
     7
370
     0
100
AcDbSpline
210
0.0
220
0.0
230
1.0
 70
     8
 71
     3
 72
    11
 73
     7
 74
     0
 42
0.00000001
 43
0.00000001
 40
0.0
 40
0.0
 40
0.0
 40
0.0
 40
0.2800968879514451
 40
0.5600298148602967
 40
0.7800529482257454
 40
1.0
 40
1.0
 40
1.0
 40
1.0
 10
1.899502829175848
 20
5.287681438687984
 30
0.0
 10
1.90183178671492
 20
5.289857827833687
 30
0.0
 10
1.906488338485143
 20
5.294209332126532
 30
0.0
 10
1.914345575345654
 20
5.298464332311988
 30
0.0
 10
1.922201090429223
 20
5.300950499716913
 30
0.0
 10
1.92720766220531
 20
5.301147050344217
 30
0.0
 10
1.929710515214081
 20
5.301245308663667
 30
0.0
  0
SPLINE
  5
34D
330
1F
100
AcDbEntity
  8
0
  6
Continuous
 62
     7
370
     0
100
AcDbSpline
210
0.0
220
0.0
230
1.0
 70
     8
 71
     3
 72
    11
 73
     7
 74
     0
 42
0.00000001
 43
0.00000001
 40
0.0
 40
0.0
 40
0.0
 40
0.0
 40
0.2801009389243075
 40
0.5600495756098822
 40
0.7800618679980336
 40
1.0
 40
1.0
 40
1.0
 40
1.0
 10
1.9655787908607
 20
5.222762535303362
 30
0.0
 10
1.963242106041079
 20
5.220591151553218
 30
0.0
 10
1.958570006952128
 20
5.216249564722327
 30
0.0
 10
1.950706760161808
 20
5.211990273884579
 30
0.0
 10
1.942834163994795
 20
5.209530177391591
 30
0.0
 10
1.937822912827844
 20
5.209356483487148
 30
0.0
 10
1.935317709605959
 20
5.209269651174311
 30
0.0
  0
SPLINE
  5
34E
330
1F
100
AcDbEntity
  8
0
  6
Continuous
 62
     7
370
     0
100
AcDbSpline
210
0.0
220
0.0
230
1.0
 70
     8
 71
     3
 72
     9
 73
     5
 74
     0
 42
0.00000001
 43
0.00000001
 40
0.0
 40
0.0
 40
0.0
 40
0.0
 40
0.5603107046606634
 40
1.0
 40
1.0
 40
1.0
 40
1.0
 10
1.916572734482845
 20
4.988014687130535
 30
0.0
 10
1.917104255160521
 20
4.985581315205497
 30
0.0
 10
1.918052872906453
 20
4.981238417765207
 30
0.0
 10
1.92089477929975
 20
4.977846707279596
 30
0.0
 10
1.922144335119239
 20
4.976355408486184
 30
0.0
  0
SPLINE
  5
34F
330
1F
100
AcDbEntity
  8
0
  6
Continuous
 62
     7
370
     0
100
AcDbSpline
210
0.0
220
0.0
230
1.0
 70
     8
 71
     3
 72
     9
 73
     5
 74
     0
 42
0.00000001
 43
0.00000001
 40
0.0
 40
0.0
 40
0.0
 40
0.0
 40
0.5599113011573318
 40
1.0
 40
1.0
 40
1.0
 40
1.0
 10
1.934355569054022
 20
4.991690697998278
 30
0.0
 10
1.933045388244556
 20
4.992842501543958
 30
0.0
 10
1.930705409025064
 20
4.994899619418343
 30
0.0
 10
1.928159801041641
 20
4.996694803965567
 30
0.0
 10
1.927039507736454
 20
4.997484844397137
 30
0.0
  0
SPLINE
  5
350
330
1F
100
AcDbEntity
  8
0
  6
Continuous
 62
     7
370
     0
100
AcDbSpline
210
0.0
220
0.0
230
1.0
 70
     8
 71
     3
 72
     9
 73
     5
 74
     0
 42
0.00000001
 43
0.00000001
 40
0.0
 40
0.0
 40
0.0
 40
0.0
 40
0.5577525204461447
 40
1.0
 40
1.0
 40
1.0
 40
1.0
 10
1.93926854313226
 20
4.984080839241349
 30
0.0
 10
1.938659055071045
 20
4.98569943730765
 30
0.0
 10
1.93756629790927
 20
4.988601437759406
 30
0.0
 10
1.935340099631398
 20
4.990743414280542
 30
0.0
 10
1.934355569054022
 20
4.991690697998278
 30
0.0
  0
SPLINE
  5
351
330
1F
100
AcDbEntity
  8
0
  6
Continuous
 62
     7
370
     0
100
AcDbSpline
210
0.0
220
0.0
230
1.0
 70
     8
 71
     3
 72
     9
 73
     5
 74
     0
 42
0.00000001
 43
0.00000001
 40
0.0
 40
0.0
 40
0.0
 40
0.0
 40
0.5583273143551428
 40
1.0
 40
1.0
 40
1.0
 40
1.0
 10
1.930839945500139
 20
4.967775507601932
 30
0.0
 10
1.928374272416491
 20
4.968084431400477
 30
0.0
 10
1.923958093912856
 20
4.968637733720823
 30
0.0
 10
1.920594805365261
 20
4.971509145616456
 30
0.0
 10
1.919109332679846
 20
4.972777369819992
 30
0.0
  0
SPLINE
  5
352
330
1F
100
AcDbEntity
  8
0
  6
Continuous
 62
     7
370
     0
100
AcDbSpline
210
0.0
220
0.0
230
1.0
 70
     8
 71
     3
 72
    10
 73
     6
 74
     0
 42
0.00000001
 43
0.00000001
 40
0.0
 40
0.0
 40
0.0
 40
0.0
 40
0.2801784432904795
 40
0.5602817352531934
 40
1.0
 40
1.0
 40
1.0
 40
1.0
 10
1.945035950673343
 20
4.984232197492846
 30
0.0
 10
1.945195175221143
 20
4.983066431250354
 30
0.0
 10
1.945513581608477
 20
4.980735211454957
 30
0.0
 10
1.94446663747321
 20
4.976559227445835
 30
0.0
 10
1.942532643588947
 20
4.974211517955299
 30
0.0
 10
1.941351222406305
 20
4.972777369819992
 30
0.0
  0
SPLINE
  5
353
330
1F
100
AcDbEntity
  8
0
  6
Continuous
 62
     7
370
     0
100
AcDbSpline
210
0.0
220
0.0
230
1.0
 70
     8
 71
     3
 72
     9
 73
     5
 74
     0
 42
0.00000001
 43
0.00000001
 40
0.0
 40
0.0
 40
0.0
 40
0.0
 40
0.5604291559970342
 40
0.9999999999999999
 40
0.9999999999999999
 40
0.9999999999999999
 40
0.9999999999999999
 10
1.936785358484888
 20
4.977049720465433
 30
0.0
 10
1.937737111342108
 20
4.978207660298146
 30
0.0
 10
1.93943536855631
 20
4.980273826592891
 30
0.0
 10
1.939319483030603
 20
4.982918373517634
 30
0.0
 10
1.93926854313226
 20
4.984080839241349
 30
0.0
  0
SPLINE
  5
354
330
1F
100
AcDbEntity
  8
0
  6
Continuous
 62
     7
370
     0
100
AcDbSpline
210
0.0
220
0.0
230
1.0
 70
     8
 71
     3
 72
     9
 73
     5
 74
     0
 42
0.00000001
 43
0.00000001
 40
0.0
 40
0.0
 40
0.0
 40
0.0
 40
0.5579370592187185
 40
1.0
 40
1.0
 40
1.0
 40
1.0
 10
1.929620600419451
 20
4.973258137599455
 30
0.0
 10
1.931156620001328
 20
4.973598579354773
 30
0.0
 10
1.933909653800568
 20
4.974208758853864
 30
0.0
 10
1.93590381411285
 20
4.976178826547323
 30
0.0
 10
1.936785358484888
 20
4.977049720465433
 30
0.0
  0
SPLINE
  5
355
330
1F
100
AcDbEntity
  8
0
  6
Continuous
 62
     7
370
     0
100
AcDbSpline
210
0.0
220
0.0
230
1.0
 70
     8
 71
     3
 72
     9
 73
     5
 74
     0
 42
0.00000001
 43
0.00000001
 40
0.0
 40
0.0
 40
0.0
 40
0.0
 40
0.5604554645526039
 40
0.9999999999999999
 40
0.9999999999999999
 40
0.9999999999999999
 40
0.9999999999999999
 10
1.922144335119239
 20
4.976355408486184
 30
0.0
 10
1.923373698310908
 20
4.975341248747097
 30
0.0
 10
1.925567205680222
 20
4.973531720955452
 30
0.0
 10
1.92838295374457
 20
4.973341672402413
 30
0.0
 10
1.929620600419451
 20
4.973258137599455
 30
0.0
  0
SPLINE
  5
356
330
1F
100
AcDbEntity
  8
0
  6
Continuous
 62
     7
370
     0
100
AcDbSpline
210
0.0
220
0.0
230
1.0
 70
     8
 71
     3
 72
     9
 73
     5
 74
     0
 42
0.00000001
 43
0.00000001
 40
0.0
 40
0.0
 40
0.0
 40
0.0
 40
0.5598887983596267
 40
1.0
 40
1.0
 40
1.0
 40
1.0
 10
1.919109332679846
 20
4.972777369819992
 30
0.0
 10
1.917423294775529
 20
4.974563796354808
 30
0.0
 10
1.914411914820695
 20
4.977754477325834
 30
0.0
 10
1.912544108154484
 20
4.981714816712366
 30
0.0
 10
1.911722065518187
 20
4.983457806438677
 30
0.0
  0
SPLINE
  5
357
330
1F
100
AcDbEntity
  8
0
  6
Continuous
 62
     7
370
     0
100
AcDbSpline
210
0.0
220
0.0
230
1.0
 70
     8
 71
     3
 72
     9
 73
     5
 74
     0
 42
0.00000001
 43
0.00000001
 40
0.0
 40
0.0
 40
0.0
 40
0.0
 40
0.5596704703731994
 40
1.0
 40
1.0
 40
1.0
 40
1.0
 10
1.941351222406305
 20
4.972777369819992
 30
0.0
 10
1.939638070309125
 20
4.971290852572087
 30
0.0
 10
1.936577068902284
 20
4.968634794540451
 30
0.0
 10
1.932593866944582
 20
4.968038204023597
 30
0.0
 10
1.930839945500139
 20
4.967775507601932
 30
0.0
  0
SPLINE
  5
358
330
1F
100
AcDbEntity
  8
0
  6
Continuous
 62
     7
370
     0
100
AcDbSpline
210
0.0
220
0.0
230
1.0
 70
     8
 71
     3
 72
     9
 73
     5
 74
     0
 42
0.00000001
 43
0.00000001
 40
0.0
 40
0.0
 40
0.0
 40
0.0
 40
0.5607399453361795
 40
1.0
 40
1.0
 40
1.0
 40
1.0
 10
1.938476414782994
 20
4.994245015157254
 30
0.0
 10
1.94013670603856
 20
4.992646098886354
 30
0.0
 10
1.943097599531837
 20
4.9897946589556
 30
0.0
 10
1.944444368752052
 20
4.985929852561002
 30
0.0
 10
1.945035950673343
 20
4.984232197492846
 30
0.0
  0
SPLINE
  5
359
330
1F
100
AcDbEntity
  8
0
  6
Continuous
 62
     7
370
     0
100
AcDbSpline
210
0.0
220
0.0
230
1.0
 70
     8
 71
     3
 72
    10
 73
     6
 74
     0
 42
0.00000001
 43
0.00000001
 40
0.0
 40
0.0
 40
0.0
 40
0.0
 40
0.2798225514175247
 40
0.5592824506953126
 40
1.0
 40
1.0
 40
1.0
 40
1.0
 10
2.046077722909334
 20
4.943028140152299
 30
0.0
 10
2.045844619839269
 20
4.943600094267469
 30
0.0
 10
2.045378715802479
 20
4.944743261240959
 30
0.0
 10
2.04358459529904
 20
4.946134394110246
 30
0.0
 10
2.042044759981765
 20
4.946487850778036
 30
0.0
 10
2.041102447154977
 20
4.94670415102004
 30
0.0
  0
SPLINE
  5
35A
330
1F
100
AcDbEntity
  8
0
  6
Continuous
 62
     7
370
     0
100
AcDbSpline
210
0.0
220
0.0
230
1.0
 70
     8
 71
     3
 72
     9
 73
     5
 74
     0
 42
0.00000001
 43
0.00000001
 40
0.0
 40
0.0
 40
0.0
 40
0.0
 40
0.557231563589955
 40
1.0
 40
1.0
 40
1.0
 40
1.0
 10
2.041102447154977
 20
4.94670415102004
 30
0.0
 10
2.039147758140042
 20
4.946663345491431
 30
0.0
 10
2.035639900468909
 20
4.946590116458342
 30
0.0
 10
2.032535378446707
 20
4.944984931147758
 30
0.0
 10
2.031160794085135
 20
4.944274205757642
 30
0.0
  0
SPLINE
  5
35B
330
1F
100
AcDbEntity
  8
0
  6
Continuous
 62
     7
370
     0
100
AcDbSpline
210
0.0
220
0.0
230
1.0
 70
     8
 71
     3
 72
     9
 73
     5
 74
     0
 42
0.00000001
 43
0.00000001
 40
0.0
 40
0.0
 40
0.0
 40
0.0
 40
0.56125339528726
 40
1.0
 40
1.0
 40
1.0
 40
1.0
 10
2.045623807423838
 20
4.935462867546973
 30
0.0
 10
2.04591087588686
 20
4.936868547690463
 30
0.0
 10
2.046422353350395
 20
4.939373085133433
 30
0.0
 10
2.046182818160577
 20
4.941913529021809
 30
0.0
 10
2.046077722909334
 20
4.943028140152299
 30
0.0
  0
SPLINE
  5
35C
330
1F
100
AcDbEntity
  8
0
  6
Continuous
 62
     7
370
     0
100
AcDbSpline
210
0.0
220
0.0
230
1.0
 70
     8
 71
     3
 72
    10
 73
     6
 74
     0
 42
0.00000001
 43
0.00000001
 40
0.0
 40
0.0
 40
0.0
 40
0.0
 40
0.2809532685918912
 40
0.5595374732297854
 40
0.9999999999999999
 40
0.9999999999999999
 40
0.9999999999999999
 40
0.9999999999999999
 10
2.043754741098785
 20
4.951501268936658
 30
0.0
 10
2.045505352922038
 20
4.951022332263698
 30
0.0
 10
2.048991814998448
 20
4.950068497424303
 30
0.0
 10
2.052748401946058
 20
4.94431390099146
 30
0.0
 10
2.052166177546832
 20
4.939697149520705
 30
0.0
 10
2.051809527528371
 20
4.936869091302157
 30
0.0
  0
SPLINE
  5
35D
330
1F
100
AcDbEntity
  8
0
  6
Continuous
 62
     7
370
     0
100
AcDbSpline
210
0.0
220
0.0
230
1.0
 70
     8
 71
     3
 72
     9
 73
     5
 74
     0
 42
0.00000001
 43
0.00000001
 40
0.0
 40
0.0
 40
0.0
 40
0.0
 40
0.5611431695887731
 40
1.0
 40
1.0
 40
1.0
 40
1.0
 10
2.030706877453819
 20
4.948261439696775
 30
0.0
 10
2.032990630431798
 20
4.94957209441981
 30
0.0
 10
2.037060452719134
 20
4.951907781271341
 30
0.0
 10
2.04171295756754
 20
4.951625256751812
 30
0.0
 10
2.043754741098785
 20
4.951501268936658
 30
0.0
  0
SPLINE
  5
35E
330
1F
100
AcDbEntity
  8
0
  6
Continuous
 62
     7
370
     0
100
AcDbSpline
210
0.0
220
0.0
230
1.0
 70
     8
 71
     3
 72
     9
 73
     5
 74
     0
 42
0.00000001
 43
0.00000001
 40
0.0
 40
0.0
 40
0.0
 40
0.0
 40
0.5610006315807291
 40
1.0
 40
1.0
 40
1.0
 40
1.0
 10
2.011170683762596
 20
4.952845306743552
 30
0.0
 10
2.013193291125603
 20
4.953963352909684
 30
0.0
 10
2.016798647785021
 20
4.955956302833788
 30
0.0
 10
2.020884920798041
 20
4.955711733838457
 30
0.0
 10
2.022678792069946
 20
4.955604368203972
 30
0.0
  0
SPLINE
  5
35F
330
1F
100
AcDbEntity
  8
0
  6
Continuous
 62
     7
370
     0
100
AcDbSpline
210
0.0
220
0.0
230
1.0
 70
     8
 71
     3
 72
     9
 73
     5
 74
     0
 42
0.00000001
 43
0.00000001
 40
0.0
 40
0.0
 40
0.0
 40
0.0
 40
0.557453901933703
 40
1.0
 40
1.0
 40
1.0
 40
1.0
 10
2.020026498126139
 20
4.950798157059067
 30
0.0
 10
2.018120433523259
 20
4.950766750544331
 30
0.0
 10
2.01470120083645
 20
4.950710411330223
 30
0.0
 10
2.011667641068721
 20
4.949160974465284
 30
0.0
 10
2.010325151030262
 20
4.948475277226506
 30
0.0
  0
SPLINE
  5
360
330
1F
100
AcDbEntity
  8
0
  6
Continuous
 62
     7
370
     0
100
AcDbSpline
210
0.0
220
0.0
230
1.0
 70
     8
 71
     3
 72
    10
 73
     6
 74
     0
 42
0.00000001
 43
0.00000001
 40
0.0
 40
0.0
 40
0.0
 40
0.0
 40
0.2797753491693291
 40
0.5591840002842489
 40
1.0
 40
1.0
 40
1.0
 40
1.0
 10
2.025010673465187
 20
4.947149132546243
 30
0.0
 10
2.02477771418044
 20
4.94772076880787
 30
0.0
 10
2.024312100947771
 20
4.948863292094619
 30
0.0
 10
2.022502928766031
 20
4.950231003201709
 30
0.0
 10
2.02096673243037
 20
4.950582823948631
 30
0.0
 10
2.020026498126139
 20
4.950798157059067
 30
0.0
  0
SPLINE
  5
361
330
1F
100
AcDbEntity
  8
0
  6
Continuous
 62
     7
370
     0
100
AcDbSpline
210
0.0
220
0.0
230
1.0
 70
     8
 71
     3
 72
     9
 73
     5
 74
     0
 42
0.00000001
 43
0.00000001
 40
0.0
 40
0.0
 40
0.0
 40
0.0
 40
0.5612321038662414
 40
1.0
 40
1.0
 40
1.0
 40
1.0
 10
2.024547858395
 20
4.939557166915944
 30
0.0
 10
2.02484210575753
 20
4.940967382892824
 30
0.0
 10
2.02536639394508
 20
4.943480097271003
 30
0.0
 10
2.025119154288948
 20
4.946030220390305
 30
0.0
 10
2.025010673465187
 20
4.947149132546243
 30
0.0
  0
SPLINE
  5
362
330
1F
100
AcDbEntity
  8
0
  6
Continuous
 62
     7
370
     0
100
AcDbSpline
210
0.0
220
0.0
230
1.0
 70
     8
 71
     3
 72
    10
 73
     6
 74
     0
 42
0.00000001
 43
0.00000001
 40
0.0
 40
0.0
 40
0.0
 40
0.0
 40
0.281367690848461
 40
0.5622262116938758
 40
1.0
 40
1.0
 40
1.0
 40
1.0
 10
2.022678792069946
 20
4.955604368203972
 30
0.0
 10
2.023723850594792
 20
4.95533233897207
 30
0.0
 10
2.025812076480467
 20
4.954788772779161
 30
0.0
 10
2.02908156064589
 20
4.952503643903041
 30
0.0
 10
2.030091590922757
 20
4.949867385748277
 30
0.0
 10
2.030706877453819
 20
4.948261439696775
 30
0.0
  0
SPLINE
  5
363
330
1F
100
AcDbEntity
  8
0
  6
Continuous
 62
     7
370
     0
100
AcDbSpline
210
0.0
220
0.0
230
1.0
 70
     8
 71
     3
 72
     9
 73
     5
 74
     0
 42
0.00000001
 43
0.00000001
 40
0.0
 40
0.0
 40
0.0
 40
0.0
 40
0.5598605570511223
 40
1.0
 40
1.0
 40
1.0
 40
1.0
 10
2.042049167260053
 20
5.331107470360093
 30
0.0
 10
2.041326874248645
 20
5.333625322003755
 30
0.0
 10
2.040036744050489
 20
5.338122605500424
 30
0.0
 10
2.035933767758586
 20
5.340247512097001
 30
0.0
 10
2.034127886059036
 20
5.341182767302737
 30
0.0
  0
SPLINE
  5
364
330
1F
100
AcDbEntity
  8
0
  6
Continuous
 62
     7
370
     0
100
AcDbSpline
210
0.0
220
0.0
230
1.0
 70
     8
 71
     3
 72
    10
 73
     6
 74
     0
 42
0.00000001
 43
0.00000001
 40
0.0
 40
0.0
 40
0.0
 40
0.0
 40
0.2805776516799885
 40
0.5609751809145014
 40
1.0
 40
1.0
 40
1.0
 40
1.0
 10
2.040625116835805
 20
5.351257770915435
 30
0.0
 10
2.042575092011853
 20
5.350343805358809
 30
0.0
 10
2.046473790538315
 20
5.348516460984061
 30
0.0
 10
2.052080722195303
 20
5.342927332378786
 30
0.0
 10
2.053544899199466
 20
5.337510402567781
 30
0.0
 10
2.054438407784323
 20
5.334204741246822
 30
0.0
  0
SPLINE
  5
365
330
1F
100
AcDbEntity
  8
0
  6
Continuous
 62
     7
370
     0
100
AcDbSpline
210
0.0
220
0.0
230
1.0
 70
     8
 71
     3
 72
    11
 73
     7
 74
     0
 42
0.00000001
 43
0.00000001
 40
0.0
 40
0.0
 40
0.0
 40
0.0
 40
0.2799533400165856
 40
0.5592002695556242
 40
0.7795040901387968
 40
0.9999999999999999
 40
0.9999999999999999
 40
0.9999999999999999
 40
0.9999999999999999
 10
2.054438407784323
 20
5.334204741246822
 30
0.0
 10
2.05480833398722
 20
5.331005339563605
 30
0.0
 10
2.055547252952657
 20
5.324614609295605
 30
0.0
 10
2.05219583019846
 20
5.316062693231279
 30
0.0
 10
2.046964051573186
 20
5.309651680513023
 30
0.0
 10
2.042798035377349
 20
5.306831738962059
 30
0.0
 10
2.040714119557638
 20
5.305421153757282
 30
0.0
  0
SPLINE
  5
366
330
1F
100
AcDbEntity
  8
0
  6
Continuous
 62
     7
370
     0
100
AcDbSpline
210
0.0
220
0.0
230
1.0
 70
     8
 71
     3
 72
     9
 73
     5
 74
     0
 42
0.00000001
 43
0.00000001
 40
0.0
 40
0.0
 40
0.0
 40
0.0
 40
0.5580882193134424
 40
1.0
 40
1.0
 40
1.0
 40
1.0
 10
2.034127886059036
 20
5.341182767302737
 30
0.0
 10
2.031339831187358
 20
5.341748347795595
 30
0.0
 10
2.026344106900062
 20
5.342761772686652
 30
0.0
 10
2.02134771637188
 20
5.341827202295073
 30
0.0
 10
2.019139752536566
 20
5.341414204629153
 30
0.0
  0
SPLINE
  5
367
330
1F
100
AcDbEntity
  8
0
  6
Continuous
 62
     7
370
     0
100
AcDbSpline
210
0.0
220
0.0
230
1.0
 70
     8
 71
     3
 72
     9
 73
     5
 74
     0
 42
0.00000001
 43
0.00000001
 40
0.0
 40
0.0
 40
0.0
 40
0.0
 40
0.561024994521119
 40
1.0
 40
1.0
 40
1.0
 40
1.0
 10
2.016701066958471
 20
5.351578380545059
 30
0.0
 10
2.021203217610447
 20
5.352433526815089
 30
0.0
 10
2.029228084053018
 20
5.353957783806099
 30
0.0
 10
2.037148327795538
 20
5.352081439268923
 30
0.0
 10
2.040625116835805
 20
5.351257770915435
 30
0.0
  0
SPLINE
  5
368
330
1F
100
AcDbEntity
  8
0
  6
Continuous
 62
     7
370
     0
100
AcDbSpline
210
0.0
220
0.0
230
1.0
 70
     8
 71
     3
 72
    10
 73
     6
 74
     0
 42
0.00000001
 43
0.00000001
 40
0.0
 40
0.0
 40
0.0
 40
0.0
 40
0.2801909730611128
 40
0.56010851319819
 40
1.0
 40
1.0
 40
1.0
 40
1.0
 10
2.039307870594413
 20
5.316778009228584
 30
0.0
 10
2.040092717455697
 20
5.317953297193085
 30
0.0
 10
2.04166164526147
 20
5.320302726181409
 30
0.0
 10
2.042872720205358
 20
5.325298580163843
 30
0.0
 10
2.042361553022824
 20
5.328904072745949
 30
0.0
 10
2.042049167260053
 20
5.331107470360093
 30
0.0
  0
SPLINE
  5
369
330
1F
100
AcDbEntity
  8
0
  6
Continuous
 62
     7
370
     0
100
AcDbSpline
210
0.0
220
0.0
230
1.0
 70
     8
 71
     3
 72
     9
 73
     5
 74
     0
 42
0.00000001
 43
0.00000001
 40
0.0
 40
0.0
 40
0.0
 40
0.0
 40
0.561905665096809
 40
1.0
 40
1.0
 40
1.0
 40
1.0
 10
2.023216099196262
 20
5.309141457446682
 30
0.0
 10
2.026625477407062
 20
5.309785334175457
 30
0.0
 10
2.032693005148062
 20
5.310931214647518
 30
0.0
 10
2.037292748910209
 20
5.314996869061948
 30
0.0
 10
2.039307870594413
 20
5.316778009228584
 30
0.0
  0
SPLINE
  5
36A
330
1F
100
AcDbEntity
  8
0
  6
Continuous
 62
     7
370
     0
100
AcDbSpline
210
0.0
220
0.0
230
1.0
 70
     8
 71
     3
 72
     9
 73
     5
 74
     0
 42
0.00000001
 43
0.00000001
 40
0.0
 40
0.0
 40
0.0
 40
0.0
 40
0.5597423991606394
 40
1.0
 40
1.0
 40
1.0
 40
1.0
 10
2.283808946305455
 20
5.033507228263485
 30
0.0
 10
2.281254647188561
 20
5.028120419363461
 30
0.0
 10
2.276691299618815
 20
5.018496690826724
 30
0.0
 10
2.269372763232521
 20
5.010787541512673
 30
0.0
 10
2.266150721961436
 20
5.007393529931156
 30
0.0
  0
SPLINE
  5
36B
330
1F
100
AcDbEntity
  8
0
  6
Continuous
 62
     7
370
     0
100
AcDbSpline
210
0.0
220
0.0
230
1.0
 70
     8
 71
     3
 72
    11
 73
     7
 74
     0
 42
0.00000001
 43
0.00000001
 40
0.0
 40
0.0
 40
0.0
 40
0.0
 40
0.280979619451696
 40
0.5609428716899814
 40
0.7806506916469732
 40
0.9999999999999999
 40
0.9999999999999999
 40
0.9999999999999999
 40
0.9999999999999999
 10
2.274695019923644
 20
5.037245131749572
 30
0.0
 10
2.275589140078547
 20
5.039794339392004
 30
0.0
 10
2.277374146152319
 20
5.044883533612819
 30
0.0
 10
2.277068406101602
 20
5.052488721369083
 30
0.0
 10
2.274183343286675
 20
5.059104122636086
 30
0.0
 10
2.270453040519258
 20
5.06122916311385
 30
0.0
 10
2.268589412122813
 20
5.062290815753026
 30
0.0
  0
SPLINE
  5
36C
330
1F
100
AcDbEntity
  8
0
  6
Continuous
 62
     7
370
     0
100
AcDbSpline
210
0.0
220
0.0
230
1.0
 70
     8
 71
     3
 72
    12
 73
     8
 74
     0
 42
0.00000001
 43
0.00000001
 40
0.0
 40
0.0
 40
0.0
 40
0.0
 40
0.1863548135208207
 40
0.3726725660530605
 40
0.559465643288631
 40
0.7795516078426
 40
1.0
 40
1.0
 40
1.0
 40
1.0
 10
2.272167340790276
 20
5.074128145673847
 30
0.0
 10
2.274788443489112
 20
5.072751796849543
 30
0.0
 10
2.280030127619558
 20
5.069999372919908
 30
0.0
 10
2.285065557401896
 20
5.06241471535495
 30
0.0
 10
2.287469576650344
 20
5.05335284494478
 30
0.0
 10
2.287242934817446
 20
5.043327214512193
 30
0.0
 10
2.284954236780057
 20
5.036782351832505
 30
0.0
 10
2.283808946305455
 20
5.033507228263485
 30
0.0
  0
SPLINE
  5
36D
330
1F
100
AcDbEntity
  8
0
  6
Continuous
 62
     7
370
     0
100
AcDbSpline
210
0.0
220
0.0
230
1.0
 70
     8
 71
     3
 72
    10
 73
     6
 74
     0
 42
0.00000001
 43
0.00000001
 40
0.0
 40
0.0
 40
0.0
 40
0.0
 40
0.2800255448500869
 40
0.5601015221685108
 40
0.9999999999999999
 40
0.9999999999999999
 40
0.9999999999999999
 40
0.9999999999999999
 10
2.19414716708598
 20
5.042745654873726
 30
0.0
 10
2.193550949838933
 20
5.045294266600655
 30
0.0
 10
2.192358407966395
 20
5.050391949058283
 30
0.0
 10
2.192697145407744
 20
5.059848131046881
 30
0.0
 10
2.19496736307484
 20
5.066204088122737
 30
0.0
 10
2.196354447420622
 20
5.070087525684768
 30
0.0
  0
SPLINE
  5
36E
330
1F
100
AcDbEntity
  8
0
  6
Continuous
 62
     7
370
     0
100
AcDbSpline
210
0.0
220
0.0
230
1.0
 70
     8
 71
     3
 72
     9
 73
     5
 74
     0
 42
0.00000001
 43
0.00000001
 40
0.0
 40
0.0
 40
0.0
 40
0.0
 40
0.5596085212970606
 40
1.0
 40
1.0
 40
1.0
 40
1.0
 10
2.196354447420622
 20
5.070087525684768
 30
0.0
 10
2.199058346499339
 20
5.075784836013077
 30
0.0
 10
2.203890115451765
 20
5.085965721599139
 30
0.0
 10
2.21183226203606
 20
5.09392423963831
 30
0.0
 10
2.215329915714393
 20
5.097429103165865
 30
0.0
  0
SPLINE
  5
36F
330
1F
100
AcDbEntity
  8
0
  6
Continuous
 62
     7
370
     0
100
AcDbSpline
210
0.0
220
0.0
230
1.0
 70
     8
 71
     3
 72
    10
 73
     6
 74
     0
 42
0.00000001
 43
0.00000001
 40
0.0
 40
0.0
 40
0.0
 40
0.0
 40
0.2803989260274113
 40
0.5608929919541131
 40
1.0
 40
1.0
 40
1.0
 40
1.0
 10
2.208690282416004
 20
5.026956583937087
 30
0.0
 10
2.206845239141195
 20
5.027888401189355
 30
0.0
 10
2.203154526564818
 20
5.029752351861291
 30
0.0
 10
2.197710953521784
 20
5.034918981943483
 30
0.0
 10
2.195497708800002
 20
5.039779638681479
 30
0.0
 10
2.19414716708598
 20
5.042745654873726
 30
0.0
  0
SPLINE
  5
370
330
1F
100
AcDbEntity
  8
0
  6
Continuous
 62
     7
370
     0
100
AcDbSpline
210
0.0
220
0.0
230
1.0
 70
     8
 71
     3
 72
    11
 73
     7
 74
     0
 42
0.00000001
 43
0.00000001
 40
0.0
 40
0.0
 40
0.0
 40
0.0
 40
0.2799186943754633
 40
0.5598764391053118
 40
0.7800000289153124
 40
0.9999999999999999
 40
0.9999999999999999
 40
0.9999999999999999
 40
0.9999999999999999
 10
2.228876204226513
 20
5.09098523093936
 30
0.0
 10
2.22604470973708
 20
5.089392119759991
 30
0.0
 10
2.220381325747574
 20
5.086205675152585
 30
0.0
 10
2.213964694381143
 20
5.079769245900648
 30
0.0
 10
2.208758657481431
 20
5.073231549190625
 30
0.0
 10
2.206553054779127
 20
5.068631042839287
 30
0.0
 10
2.20545056317485
 20
5.066331435742106
 30
0.0
  0
SPLINE
  5
371
330
1F
100
AcDbEntity
  8
0
  6
Continuous
 62
     7
370
     0
100
AcDbSpline
210
0.0
220
0.0
230
1.0
 70
     8
 71
     3
 72
    10
 73
     6
 74
     0
 42
0.00000001
 43
0.00000001
 40
0.0
 40
0.0
 40
0.0
 40
0.0
 40
0.2800291961281114
 40
0.5604779387398633
 40
0.9999999999999999
 40
0.9999999999999999
 40
0.9999999999999999
 40
0.9999999999999999
 10
2.253049451641762
 20
5.013659350881191
 30
0.0
 10
2.255700775590528
 20
5.015175002463859
 30
0.0
 10
2.261007395765434
 20
5.018208576414887
 30
0.0
 10
2.268803147253828
 20
5.026021282249752
 30
0.0
 10
2.272461622808065
 20
5.032990573902963
 30
0.0
 10
2.274695019923644
 20
5.037245131749572
 30
0.0
  0
SPLINE
  5
372
330
1F
100
AcDbEntity
  8
0
  6
Continuous
 62
     7
370
     0
100
AcDbSpline
210
0.0
220
0.0
230
1.0
 70
     8
 71
     3
 72
    10
 73
     6
 74
     0
 42
0.00000001
 43
0.00000001
 40
0.0
 40
0.0
 40
0.0
 40
0.0
 40
0.2808941727712155
 40
0.5594628818296611
 40
1.0
 40
1.0
 40
1.0
 40
1.0
 10
2.268589412122813
 20
5.062290815753026
 30
0.0
 10
2.266711778291039
 20
5.062931359410954
 30
0.0
 10
2.262972055162639
 20
5.064207143800735
 30
0.0
 10
2.255810453827845
 20
5.062213137286602
 30
0.0
 10
2.252696462803594
 20
5.058143891825362
 30
0.0
 10
2.250788776090613
 20
5.055650999123421
 30
0.0
  0
SPLINE
  5
373
330
1F
100
AcDbEntity
  8
0
  6
Continuous
 62
     7
370
     0
100
AcDbSpline
210
0.0
220
0.0
230
1.0
 70
     8
 71
     3
 72
     9
 73
     5
 74
     0
 42
0.00000001
 43
0.00000001
 40
0.0
 40
0.0
 40
0.0
 40
0.0
 40
0.5600317165520191
 40
1.0
 40
1.0
 40
1.0
 40
1.0
 10
2.250788776090613
 20
5.055650999123421
 30
0.0
 10
2.248449997976516
 20
5.052018404077105
 30
0.0
 10
2.244273845010581
 20
5.045531994577515
 30
0.0
 10
2.239872971145394
 20
5.039196132923288
 30
0.0
 10
2.237936726225256
 20
5.036408554747114
 30
0.0
  0
SPLINE
  5
374
330
1F
100
AcDbEntity
  8
0
  6
Continuous
 62
     7
370
     0
100
AcDbSpline
210
0.0
220
0.0
230
1.0
 70
     8
 71
     3
 72
     9
 73
     5
 74
     0
 42
0.00000001
 43
0.00000001
 40
0.0
 40
0.0
 40
0.0
 40
0.0
 40
0.5599140168443705
 40
1.0
 40
1.0
 40
1.0
 40
1.0
 10
2.228609182311172
 20
5.044686032458318
 30
0.0
 10
2.23080588393501
 20
5.047944909989891
 30
0.0
 10
2.234729167792447
 20
5.053765227812865
 30
0.0
 10
2.238538687160839
 20
5.059660571414708
 30
0.0
 10
2.240215203237428
 20
5.062255029499766
 30
0.0
  0
SPLINE
  5
375
330
1F
100
AcDbEntity
  8
0
  6
Continuous
 62
     7
370
     0
100
AcDbSpline
210
0.0
220
0.0
230
1.0
 70
     8
 71
     3
 72
    11
 73
     7
 74
     0
 42
0.00000001
 43
0.00000001
 40
0.0
 40
0.0
 40
0.0
 40
0.0
 40
0.2807154958310038
 40
0.5600204493775505
 40
0.7796946248681264
 40
0.9999999999999999
 40
0.9999999999999999
 40
0.9999999999999999
 40
0.9999999999999999
 10
2.240215203237428
 20
5.062255029499766
 30
0.0
 10
2.242333606026674
 20
5.06504629277754
 30
0.0
 10
2.246559767031728
 20
5.070614793762935
 30
0.0
 10
2.255122626554638
 20
5.075863978173931
 30
0.0
 10
2.264320123785694
 20
5.076743845641319
 30
0.0
 10
2.269549101271994
 20
5.075000879156151
 30
0.0
 10
2.272167340790276
 20
5.074128145673847
 30
0.0
  0
SPLINE
  5
376
330
1F
100
AcDbEntity
  8
0
  6
Continuous
 62
     7
370
     0
100
AcDbSpline
210
0.0
220
0.0
230
1.0
 70
     8
 71
     3
 72
    11
 73
     7
 74
     0
 42
0.00000001
 43
0.00000001
 40
0.0
 40
0.0
 40
0.0
 40
0.0
 40
0.2513587579507253
 40
0.5020484726317509
 40
0.7513550638716813
 40
1.0
 40
1.0
 40
1.0
 40
1.0
 10
2.20545056317485
 20
5.066331435742106
 30
0.0
 10
2.204547203393193
 20
5.063857583115425
 30
0.0
 10
2.202742888308588
 20
5.058916462531972
 30
0.0
 10
2.202257945555561
 20
5.051020917490715
 30
0.0
 10
2.204828617497845
 20
5.043073699625603
 30
0.0
 10
2.20944624242652
 20
5.040361670707189
 30
0.0
 10
2.21175198704693
 20
5.039007458057695
 30
0.0
  0
SPLINE
  5
377
330
1F
100
AcDbEntity
  8
0
  6
Continuous
 62
     7
370
     0
100
AcDbSpline
210
0.0
220
0.0
230
1.0
 70
     8
 71
     3
 72
    10
 73
     6
 74
     0
 42
0.00000001
 43
0.00000001
 40
0.0
 40
0.0
 40
0.0
 40
0.0
 40
0.281110642089152
 40
0.5592646755624867
 40
1.0
 40
1.0
 40
1.0
 40
1.0
 10
2.21175198704693
 20
5.039007458057695
 30
0.0
 10
2.213492663387789
 20
5.038377386347231
 30
0.0
 10
2.216955708336193
 20
5.037123869767019
 30
0.0
 10
2.223686074966561
 20
5.038747922352907
 30
0.0
 10
2.226738070609433
 20
5.042429151483213
 30
0.0
 10
2.228609182311172
 20
5.044686032458318
 30
0.0
  0
SPLINE
  5
378
330
1F
100
AcDbEntity
  8
0
  6
Continuous
 62
     7
370
     0
100
AcDbSpline
210
0.0
220
0.0
230
1.0
 70
     8
 71
     3
 72
    11
 73
     7
 74
     0
 42
0.00000001
 43
0.00000001
 40
0.0
 40
0.0
 40
0.0
 40
0.0
 40
0.2805834047577827
 40
0.559871320790164
 40
0.779535218930733
 40
1.0
 40
1.0
 40
1.0
 40
1.0
 10
2.237936726225256
 20
5.036408554747114
 30
0.0
 10
2.235895781389106
 20
5.034023000577596
 30
0.0
 10
2.23182331501476
 20
5.029262906640975
 30
0.0
 10
2.223968890989898
 20
5.024801206192056
 30
0.0
 10
2.215686019730986
 20
5.024509614144877
 30
0.0
 10
2.211025021992315
 20
5.026139938463039
 30
0.0
 10
2.208690282416004
 20
5.026956583937087
 30
0.0
  0
SPLINE
  5
379
330
1F
100
AcDbEntity
  8
0
  6
Continuous
 62
     7
370
     0
100
AcDbSpline
210
0.0
220
0.0
230
1.0
 70
     8
 71
     3
 72
    10
 73
     6
 74
     0
 42
0.00000001
 43
0.00000001
 40
0.0
 40
0.0
 40
0.0
 40
0.0
 40
0.2807012172554525
 40
0.5606997871867183
 40
1.0
 40
1.0
 40
1.0
 40
1.0
 10
2.294643601142598
 20
5.142463756255043
 30
0.0
 10
2.293964515901357
 20
5.140726450499837
 30
0.0
 10
2.292608045295465
 20
5.137256187788668
 30
0.0
 10
2.28776541199228
 20
5.132380195407396
 30
0.0
 10
2.283084120098388
 20
5.131147709834564
 30
0.0
 10
2.280225096039732
 20
5.130394989007805
 30
0.0
  0
SPLINE
  5
37A
330
1F
100
AcDbEntity
  8
0
  6
Continuous
 62
     7
370
     0
100
AcDbSpline
210
0.0
220
0.0
230
1.0
 70
     8
 71
     3
 72
     9
 73
     5
 74
     0
 42
0.00000001
 43
0.00000001
 40
0.0
 40
0.0
 40
0.0
 40
0.0
 40
0.5578113323686823
 40
1.0
 40
1.0
 40
1.0
 40
1.0
 10
2.284354833332655
 20
5.148711684078448
 30
0.0
 10
2.284714716630821
 20
5.15191081846165
 30
0.0
 10
2.285359886919201
 20
5.157645973338512
 30
0.0
 10
2.284255686636816
 20
5.163300245102554
 30
0.0
 10
2.28376742178515
 20
5.165800500000321
 30
0.0
  0
SPLINE
  5
37B
330
1F
100
AcDbEntity
  8
0
  6
Continuous
 62
     7
370
     0
100
AcDbSpline
210
0.0
220
0.0
230
1.0
 70
     8
 71
     3
 72
     9
 73
     5
 74
     0
 42
0.00000001
 43
0.00000001
 40
0.0
 40
0.0
 40
0.0
 40
0.0
 40
0.5603126856269085
 40
1.0
 40
1.0
 40
1.0
 40
1.0
 10
2.276362362329029
 20
5.142623914404882
 30
0.0
 10
2.278373425171615
 20
5.143129631550739
 30
0.0
 10
2.281962604738979
 20
5.144032193921411
 30
0.0
 10
2.283624235406828
 20
5.147282545654262
 30
0.0
 10
2.284354833332655
 20
5.148711684078448
 30
0.0
  0
SPLINE
  5
37C
330
1F
100
AcDbEntity
  8
0
  6
Continuous
 62
     7
370
     0
100
AcDbSpline
210
0.0
220
0.0
230
1.0
 70
     8
 71
     3
 72
     9
 73
     5
 74
     0
 42
0.00000001
 43
0.00000001
 40
0.0
 40
0.0
 40
0.0
 40
0.0
 40
0.561098073290825
 40
1.0
 40
1.0
 40
1.0
 40
1.0
 10
2.294162980028107
 20
5.166832728075934
 30
0.0
 10
2.295078587009813
 20
5.162278515008674
 30
0.0
 10
2.296710399745038
 20
5.154161907085659
 30
0.0
 10
2.295274027630945
 20
5.146031991756843
 30
0.0
 10
2.294643601142598
 20
5.142463756255043
 30
0.0
  0
SPLINE
  5
37D
330
1F
100
AcDbEntity
  8
0
  6
Continuous
 62
     7
370
     0
100
AcDbSpline
210
0.0
220
0.0
230
1.0
 70
     8
 71
     3
 72
    10
 73
     6
 74
     0
 42
0.00000001
 43
0.00000001
 40
0.0
 40
0.0
 40
0.0
 40
0.0
 40
0.2800065587434249
 40
0.5598075733694201
 40
0.9999999999999999
 40
0.9999999999999999
 40
0.9999999999999999
 40
0.9999999999999999
 10
2.264364727593395
 20
5.145827957391504
 30
0.0
 10
2.265257520089531
 20
5.144989477342607
 30
0.0
 10
2.26704244971056
 20
5.143313132746973
 30
0.0
 10
2.271341472349286
 20
5.142057949938294
 30
0.0
 10
2.274457359169446
 20
5.142409178750165
 30
0.0
 10
2.276362362329029
 20
5.142623914404882
 30
0.0
  0
SPLINE
  5
37E
330
1F
100
AcDbEntity
  8
0
  6
Continuous
 62
     7
370
     0
100
AcDbSpline
210
0.0
220
0.0
230
1.0
 70
     8
 71
     3
 72
    10
 73
     6
 74
     0
 42
0.00000001
 43
0.00000001
 40
0.0
 40
0.0
 40
0.0
 40
0.0
 40
0.2804508408645199
 40
0.5604734277599354
 40
1.0
 40
1.0
 40
1.0
 40
1.0
 10
2.280225096039732
 20
5.130394989007805
 30
0.0
 10
2.278080309658241
 20
5.130186618094438
 30
0.0
 10
2.273794012026393
 20
5.129770194454201
 30
0.0
 10
2.266387680429799
 20
5.132559918766114
 30
0.0
 10
2.262656514404137
 20
5.136663764197404
 30
0.0
 10
2.260377383655533
 20
5.139170540965213
 30
0.0
  0
SPLINE
  5
37F
330
1F
100
AcDbEntity
  8
0
  6
Continuous
 62
     7
370
     0
100
AcDbSpline
210
0.0
220
0.0
230
1.0
 70
     8
 71
     3
 72
     9
 73
     5
 74
     0
 42
0.00000001
 43
0.00000001
 40
0.0
 40
0.0
 40
0.0
 40
0.0
 40
0.5616908399538038
 40
1.0
 40
1.0
 40
1.0
 40
1.0
 10
2.216854837265036
 20
5.152396494844532
 30
0.0
 10
2.217492074115609
 20
5.148302542234004
 30
0.0
 10
2.21862657161004
 20
5.141013919526777
 30
0.0
 10
2.222468948245787
 20
5.134744714031108
 30
0.0
 10
2.224153097121582
 20
5.131996863836144
 30
0.0
  0
SPLINE
  5
380
330
1F
100
AcDbEntity
  8
0
  6
Continuous
 62
     7
370
     0
100
AcDbSpline
210
0.0
220
0.0
230
1.0
 70
     8
 71
     3
 72
    10
 73
     6
 74
     0
 42
0.00000001
 43
0.00000001
 40
0.0
 40
0.0
 40
0.0
 40
0.0
 40
0.2815397407146664
 40
0.5618771852456921
 40
1.0
 40
1.0
 40
1.0
 40
1.0
 10
2.237841778988761
 20
5.127689313597331
 30
0.0
 10
2.239358753324061
 20
5.128017326170946
 30
0.0
 10
2.242386223859639
 20
5.128671950562939
 30
0.0
 10
2.247491699838961
 20
5.131392935238649
 30
0.0
 10
2.249016429899646
 20
5.135229250434684
 30
0.0
 10
2.24994622249053
 20
5.137568666136874
 30
0.0
  0
SPLINE
  5
381
330
1F
100
AcDbEntity
  8
0
  6
Continuous
 62
     7
370
     0
100
AcDbSpline
210
0.0
220
0.0
230
1.0
 70
     8
 71
     3
 72
    10
 73
     6
 74
     0
 42
0.00000001
 43
0.00000001
 40
0.0
 40
0.0
 40
0.0
 40
0.0
 40
0.2806790058926867
 40
0.5606186678507036
 40
1.0
 40
1.0
 40
1.0
 40
1.0
 10
2.224153097121582
 20
5.131996863836144
 30
0.0
 10
2.225180783661061
 20
5.131034893939473
 30
0.0
 10
2.227233449683938
 20
5.129113488096279
 30
0.0
 10
2.2319687346859
 20
5.127031396210079
 30
0.0
 10
2.235614713442168
 20
5.127439830523461
 30
0.0
 10
2.237841778988761
 20
5.127689313597331
 30
0.0
  0
SPLINE
  5
382
330
1F
100
AcDbEntity
  8
0
  6
Continuous
 62
     7
370
     0
100
AcDbSpline
210
0.0
220
0.0
230
1.0
 70
     8
 71
     3
 72
     9
 73
     5
 74
     0
 42
0.00000001
 43
0.00000001
 40
0.0
 40
0.0
 40
0.0
 40
0.0
 40
0.5584154325352696
 40
1.0
 40
1.0
 40
1.0
 40
1.0
 10
2.24994622249053
 20
5.137568666136874
 30
0.0
 10
2.25025543799581
 20
5.140834083476884
 30
0.0
 10
2.250809175387836
 20
5.146681732287708
 30
0.0
 10
2.249741329548065
 20
5.152448765353292
 30
0.0
 10
2.24926978530479
 20
5.154995398155113
 30
0.0
  0
SPLINE
  5
383
330
1F
100
AcDbEntity
  8
0
  6
Continuous
 62
     7
370
     0
100
AcDbSpline
210
0.0
220
0.0
230
1.0
 70
     8
 71
     3
 72
    11
 73
     7
 74
     0
 42
0.00000001
 43
0.00000001
 40
0.0
 40
0.0
 40
0.0
 40
0.0
 40
0.2802137277797738
 40
0.5596805506799416
 40
0.7796355640803879
 40
1.0
 40
1.0
 40
1.0
 40
1.0
 10
2.259914564002065
 20
5.139081661991951
 30
0.0
 10
2.259612070617604
 20
5.13593818591632
 30
0.0
 10
2.259007890139603
 20
5.129659612646558
 30
0.0
 10
2.254324212793174
 20
5.12194956632515
 30
0.0
 10
2.247744143513951
 20
5.116990096054173
 30
0.0
 10
2.242924133864505
 20
5.115828092620542
 30
0.0
 10
2.240511888143432
 20
5.115246550670524
 30
0.0
  0
SPLINE
  5
384
330
1F
100
AcDbEntity
  8
0
  6
Continuous
 62
     7
370
     0
100
AcDbSpline
210
0.0
220
0.0
230
1.0
 70
     8
 71
     3
 72
     9
 73
     5
 74
     0
 42
0.00000001
 43
0.00000001
 40
0.0
 40
0.0
 40
0.0
 40
0.0
 40
0.5613688200161651
 40
0.9999999999999999
 40
0.9999999999999999
 40
0.9999999999999999
 40
0.9999999999999999
 10
2.25891773718416
 20
5.160246590826221
 30
0.0
 10
2.259369769865007
 20
5.157322460979735
 30
0.0
 10
2.260175002832583
 20
5.15211353283442
 30
0.0
 10
2.263087302259362
 20
5.147744396720613
 30
0.0
 10
2.264364727593395
 20
5.145827957391504
 30
0.0
  0
SPLINE
  5
385
330
1F
100
AcDbEntity
  8
0
  6
Continuous
 62
     7
370
     0
100
AcDbSpline
210
0.0
220
0.0
230
1.0
 70
     8
 71
     3
 72
    10
 73
     6
 74
     0
 42
0.00000001
 43
0.00000001
 40
0.0
 40
0.0
 40
0.0
 40
0.0
 40
0.2798601026372922
 40
0.559755229939652
 40
1.0
 40
1.0
 40
1.0
 40
1.0
 10
2.219151124904792
 20
5.121067390094357
 30
0.0
 10
2.217317875808753
 20
5.122979702824223
 30
0.0
 10
2.213651148184415
 20
5.126804567611075
 30
0.0
 10
2.209557290705248
 20
5.13544272725161
 30
0.0
 10
2.208198047680878
 20
5.142097741649319
 30
0.0
 10
2.20736709853487
 20
5.146166166817813
 30
0.0
  0
SPLINE
  5
386
330
1F
100
AcDbEntity
  8
0
  6
Continuous
 62
     7
370
     0
100
AcDbSpline
210
0.0
220
0.0
230
1.0
 70
     8
 71
     3
 72
    10
 73
     6
 74
     0
 42
0.00000001
 43
0.00000001
 40
0.0
 40
0.0
 40
0.0
 40
0.0
 40
0.2807744986238001
 40
0.5612871544304197
 40
1.0
 40
1.0
 40
1.0
 40
1.0
 10
2.240511888143432
 20
5.115246550670524
 30
0.0
 10
2.238381672923359
 20
5.11499534041496
 30
0.0
 10
2.234123229065174
 20
5.114493154175823
 30
0.0
 10
2.226425314800931
 20
5.11584819192914
 30
0.0
 10
2.221907127033028
 20
5.119089971102497
 30
0.0
 10
2.219151124904792
 20
5.121067390094357
 30
0.0
  0
CIRCLE
  5
387
330
1F
100
AcDbEntity
  8
0
  6
Continuous
 62
     7
370
     0
100
AcDbCircle
 10
2.0650944667
 20
5.1233163403
 30
0.0
 40
0.0690000745241152
  0
LINE
  5
388
330
1F
100
AcDbEntity
  8
0
  6
Continuous
 62
     7
370
     0
100
AcDbLine
 10
2.557094391
 20
3.8566680976
 30
0.0
 11
2.557094391
 21
4.2899309458
 31
0.0
  0
LINE
  5
389
330
1F
100
AcDbEntity
  8
0
  6
Continuous
 62
     7
370
     0
100
AcDbLine
 10
1.5730943782
 20
4.2354287021
 30
0.0
 11
1.5730943782
 21
3.8566680976
 31
0.0
  0
LINE
  5
38A
330
1F
100
AcDbEntity
  8
0
  6
Continuous
 62
     7
370
     0
100
AcDbLine
 10
1.5730943782
 20
3.8566680976
 30
0.0
 11
1.5980943761
 21
3.8316680264
 31
0.0
  0
LINE
  5
38B
330
1F
100
AcDbEntity
  8
0
  6
Continuous
 62
     7
370
     0
100
AcDbLine
 10
2.5320943931
 20
3.8316680264
 30
0.0
 11
2.557094391
 21
3.8566680976
 31
0.0
  0
LINE
  5
38C
330
1F
100
AcDbEntity
  8
0
  6
Continuous
 62
     7
370
     0
100
AcDbLine
 10
1.5730943782
 20
3.5496680974
 30
0.0
 11
1.5730943782
 21
3.3996681102
 31
0.0
  0
LINE
  5
38D
330
1F
100
AcDbEntity
  8
0
  6
Continuous
 62
     7
370
     0
100
AcDbLine
 10
2.557094391
 20
3.3996681102
 30
0.0
 11
2.557094391
 21
3.5496680974
 31
0.0
  0
LINE
  5
38E
330
1F
100
AcDbEntity
  8
0
  6
Continuous
 62
     7
370
     0
100
AcDbLine
 10
1.6703444014
 20
3.8316680264
 30
0.0
 11
1.6703444014
 21
3.8276680326
 31
0.0
  0
LINE
  5
38F
330
1F
100
AcDbEntity
  8
0
  6
Continuous
 62
     7
370
     0
100
AcDbLine
 10
2.4598443677
 20
3.8276680326
 30
0.0
 11
2.4598443677
 21
3.8316680264
 31
0.0
  0
LINE
  5
390
330
1F
100
AcDbEntity
  8
0
  6
Continuous
 62
     7
370
     0
100
AcDbLine
 10
2.0650943846
 20
3.8566680976
 30
0.0
 11
2.557094391
 21
3.8566680976
 31
0.0
  0
LINE
  5
391
330
1F
100
AcDbEntity
  8
0
  6
Continuous
 62
     7
370
     0
100
AcDbLine
 10
1.5730943782
 20
3.8566680976
 30
0.0
 11
2.0650943846
 21
3.8566680976
 31
0.0
  0
LINE
  5
392
330
1F
100
AcDbEntity
  8
0
  6
Continuous
 62
     7
370
     0
100
AcDbLine
 10
2.0650943846
 20
3.8316680264
 30
0.0
 11
1.5980943761
 21
3.8316680264
 31
0.0
  0
LINE
  5
393
330
1F
100
AcDbEntity
  8
0
  6
Continuous
 62
     7
370
     0
100
AcDbLine
 10
2.5320943931
 20
3.8316680264
 30
0.0
 11
2.0650943846
 21
3.8316680264
 31
0.0
  0
LINE
  5
394
330
1F
100
AcDbEntity
  8
0
  6
Continuous
 62
     7
370
     0
100
AcDbLine
 10
1.5730943782
 20
3.3996681102
 30
0.0
 11
2.557094391
 21
3.3996681102
 31
0.0
  0
LINE
  5
395
330
1F
100
AcDbEntity
  8
0
  6
Continuous
 62
     7
370
     0
100
AcDbLine
 10
1.5730943782
 20
3.5496680974
 30
0.0
 11
2.557094391
 21
3.5496680974
 31
0.0
  0
LINE
  5
396
330
1F
100
AcDbEntity
  8
0
  6
Continuous
 62
     7
370
     0
100
AcDbLine
 10
1.5730943782
 20
3.8276680326
 30
0.0
 11
1.5730943782
 21
3.5496680974
 31
0.0
  0
LINE
  5
397
330
1F
100
AcDbEntity
  8
0
  6
Continuous
 62
     7
370
     0
100
AcDbLine
 10
2.557094391
 20
3.8276680326
 30
0.0
 11
2.557094391
 21
3.7221681046
 31
0.0
  0
SPLINE
  5
398
330
1F
100
AcDbEntity
  8
0
  6
Continuous
 62
     7
370
     0
100
AcDbSpline
210
0.0
220
0.0
230
1.0
 70
     8
 71
     3
 72
    17
 73
    13
 74
     0
 42
0.00000001
 43
0.00000001
 40
0.0
 40
0.0
 40
0.0
 40
0.0
 40
0.0281516219352066
 40
0.1093552872362889
 40
0.2346000191908854
 40
0.3898643323831008
 40
0.5572930001138999
 40
0.7180206276296426
 40
0.8544236957474093
 40
0.9512181046915127
 40
0.9971082295946772
 40
1.0
 40
1.0
 40
1.0
 40
1.0
 10
2.557094390955345
 20
3.655168025304938
 30
0.0
 10
2.557052382291017
 20
3.655795819510504
 30
0.0
 10
2.556889199169116
 20
3.65823449305595
 30
0.0
 10
2.556583172101468
 20
3.663469061833739
 30
0.0
 10
2.556220810621642
 20
3.671545702989047
 30
0.0
 10
2.555964446437164
 20
3.681554738081987
 30
0.0
 10
2.555925315237243
 20
3.692360215601088
 30
0.0
 10
2.556120620907596
 20
3.702742268874627
 30
0.0
 10
2.556464283600672
 20
3.711540418982171
 30
0.0
 10
2.556806459154785
 20
3.717768903028924
 30
0.0
 10
2.557016128265823
 20
3.721015836754835
 30
0.0
 10
2.5570900112055
 20
3.722103621237271
 30
0.0
 10
2.557094390955345
 20
3.722168104647638
 30
0.0
  0
LINE
  5
399
330
1F
100
AcDbEntity
  8
0
  6
Continuous
 62
     7
370
     0
100
AcDbLine
 10
2.557094391
 20
3.6551680253
 30
0.0
 11
2.557094391
 21
3.5496680974
 31
0.0
  0
LINE
  5
39A
330
1F
100
AcDbEntity
  8
0
  6
Continuous
 62
     7
370
     0
100
AcDbLine
 10
1.5730943782
 20
3.8276680326
 30
0.0
 11
2.557094391
 21
3.8276680326
 31
0.0
  0
LINE
  5
39B
330
1F
100
AcDbEntity
  8
0
  6
Continuous
 62
     7
370
     0
100
AcDbLine
 10
1.5730943782
 20
3.5496680974
 30
0.0
 11
1.5730943782
 21
3.4776680625
 31
0.0
  0
LINE
  5
39C
330
1F
100
AcDbEntity
  8
0
  6
Continuous
 62
     7
370
     0
100
AcDbLine
 10
2.557094391
 20
3.5496680974
 30
0.0
 11
2.557094391
 21
3.4776680625
 31
0.0
  0
LINE
  5
39D
330
1F
100
AcDbEntity
  8
0
  6
Continuous
 62
     7
370
     0
100
AcDbLine
 10
1.5730943782
 20
3.39766804
 30
0.0
 11
1.9325943886
 21
3.39766804
 31
0.0
  0
LINE
  5
39E
330
1F
100
AcDbEntity
  8
0
  6
Continuous
 62
     7
370
     0
100
AcDbLine
 10
1.9325943886
 20
3.3996681102
 30
0.0
 11
1.9325943886
 21
3.39766804
 31
0.0
  0
LINE
  5
39F
330
1F
100
AcDbEntity
  8
0
  6
Continuous
 62
     7
370
     0
100
AcDbLine
 10
1.5730943782
 20
3.4776680625
 30
0.0
 11
1.5730943782
 21
3.39766804
 31
0.0
  0
LINE
  5
3A0
330
1F
100
AcDbEntity
  8
0
  6
Continuous
 62
     7
370
     0
100
AcDbLine
 10
2.1975943806
 20
3.39766804
 30
0.0
 11
2.557094391
 21
3.39766804
 31
0.0
  0
LINE
  5
3A1
330
1F
100
AcDbEntity
  8
0
  6
Continuous
 62
     7
370
     0
100
AcDbLine
 10
2.1975943806
 20
3.3996681102
 30
0.0
 11
2.1975943806
 21
3.39766804
 31
0.0
  0
LINE
  5
3A2
330
1F
100
AcDbEntity
  8
0
  6
Continuous
 62
     7
370
     0
100
AcDbLine
 10
2.557094391
 20
3.4776680625
 30
0.0
 11
2.557094391
 21
3.39766804
 31
0.0
  0
DIMENSION
  5
3A3
330
1F
100
AcDbEntity
  8
0
  6
Continuous
 62
     7
370
     0
100
AcDbDimension
  2
*D25
 10
1.9225652876
 20
4.8765158094
 30
0.0
 11
1.404565941
 21
5.7767083513
 31
0.0
 70
   163
  1
SPRING LOADED THUMBSCREW\P5.0 mm HEX SOCKET
 71
     1
 42
-1.0
  3
SLDDIMSTYLE3
100
AcDbDiametricDimension
 15
2.2076234816
 25
5.3701166867
 35
0.0
 40
0.0
  0
DIMENSION
  5
3AC
330
1F
100
AcDbEntity
  8
0
  6
Continuous
 62
     7
370
     0
100
AcDbDimension
  2
*D26
 10
1.0853368476
 20
3.397668086
 30
0.0
 11
1.0853368476
 21
4.260492167
 31
0.0
 70
   160
  1
93.5 mm\P(3.68")
 71
     2
 42
-1.0
  3
SLDDIMSTYLE2
100
AcDbAlignedDimension
 13
2.0150943846
 23
5.1233162481
 33
0.0
 14
1.5730943846
 24
3.397668086
 34
0.0
 50
90.0
100
AcDbRotatedDimension
  0
INSERT
  5
3C5
330
1F
100
AcDbEntity
  8
0
  6
Continuous
 62
     7
370
     0
100
AcDbBlockReference
  2
SW_CENTERMARKSYMBOL_3
 10
2.0650943846
 20
5.1233162041
 30
0.0
  0
LINE
  5
3C6
330
1F
100
AcDbEntity
  8
0
  6
HIDDEN
 62
     7
370
     0
100
AcDbLine
 10
2.627094391
 20
4.2626798065
 30
0.0
 11
2.4248345452
 21
4.341419964
 31
0.0
  0
LINE
  5
3C7
330
1F
100
AcDbEntity
  8
0
  6
HIDDEN
 62
     7
370
     0
100
AcDbLine
 10
2.4248345452
 20
4.341419964
 30
0.0
 11
2.2673542303
 21
4.183939649
 31
0.0
  0
LINE
  5
3C8
330
1F
100
AcDbEntity
  8
0
  6
HIDDEN
 62
     7
370
     0
100
AcDbLine
 10
2.2673542303
 20
4.183939649
 30
0.0
 11
1.8628345389
 21
4.341419964
 31
0.0
  0
LINE
  5
3C9
330
1F
100
AcDbEntity
  8
0
  6
HIDDEN
 62
     7
370
     0
100
AcDbLine
 10
1.8628345389
 20
4.341419964
 30
0.0
 11
1.7053542239
 21
4.183939649
 31
0.0
  0
LINE
  5
3CA
330
1F
100
AcDbEntity
  8
0
  6
HIDDEN
 62
     7
370
     0
100
AcDbLine
 10
1.7053542239
 20
4.183939649
 30
0.0
 11
1.5030943782
 21
4.2626798065
 31
0.0
  0
LINE
  5
3CB
330
1F
100
AcDbEntity
  8
0
  6
HIDDEN
 62
     7
370
     0
100
AcDbLine
 10
2.627094391
 20
4.5626798065
 30
0.0
 11
2.4248345452
 21
4.641419964
 31
0.0
  0
LINE
  5
3CC
330
1F
100
AcDbEntity
  8
0
  6
HIDDEN
 62
     7
370
     0
100
AcDbLine
 10
2.4248345452
 20
4.641419964
 30
0.0
 11
2.2673542303
 21
4.483939649
 31
0.0
  0
LINE
  5
3CD
330
1F
100
AcDbEntity
  8
0
  6
HIDDEN
 62
     7
370
     0
100
AcDbLine
 10
2.2673542303
 20
4.483939649
 30
0.0
 11
1.8628345389
 21
4.641419964
 31
0.0
  0
LINE
  5
3CE
330
1F
100
AcDbEntity
  8
0
  6
HIDDEN
 62
     7
370
     0
100
AcDbLine
 10
1.8628345389
 20
4.641419964
 30
0.0
 11
1.7053542239
 21
4.483939649
 31
0.0
  0
LINE
  5
3CF
330
1F
100
AcDbEntity
  8
0
  6
HIDDEN
 62
     7
370
     0
100
AcDbLine
 10
1.7053542239
 20
4.483939649
 30
0.0
 11
1.5030943782
 21
4.5626798065
 31
0.0
  0
OLE2FRAME
  5
3D0
330
1F
100
AcDbEntity
  8
0
100
AcDbOle2Frame
 70
     2
  3
Bitmap Image
 10
9.0178120406
 20
1.3267570784
 30
0.0
 11
10.4397105087
 21
1.1242314806
 31
0.0
 71
     2
 72
     0
 73
     1
 90
     7296
310
8055C64EE7A81E092240C05F59A1653AF53F0000000000000000FD155DBC21E1
310
2440C05F59A1653AF53F0000000000000000FD155DBC21E12440A1732426DAFC
310
F13F0000000000000000C64EE7A81E092240A1732426DAFCF13F000000000000
310
00000000000001000000000100000100000001000000000001000000001C0000
310
D0CF11E0A1B11AE1000000000000000000000000000000003E000300FEFF0900
310
0600000000000000000000000100000001000000000000000010000002000000
310
01000000FEFFFFFF0000000000000000FFFFFFFFFFFFFFFFFFFFFFFFFFFFFFFF
310
FFFFFFFFFFFFFFFFFFFFFFFFFFFFFFFFFFFFFFFFFFFFFFFFFFFFFFFFFFFFFFFF
310
FFFFFFFFFFFFFFFFFFFFFFFFFFFFFFFFFFFFFFFFFFFFFFFFFFFFFFFFFFFFFFFF
310
FFFFFFFFFFFFFFFFFFFFFFFFFFFFFFFFFFFFFFFFFFFFFFFFFFFFFFFFFFFFFFFF
310
FFFFFFFFFFFFFFFFFFFFFFFFFFFFFFFFFFFFFFFFFFFFFFFFFFFFFFFFFFFFFFFF
310
FFFFFFFFFFFFFFFFFFFFFFFFFFFFFFFFFFFFFFFFFFFFFFFFFFFFFFFFFFFFFFFF
310
FFFFFFFFFFFFFFFFFFFFFFFFFFFFFFFFFFFFFFFFFFFFFFFFFFFFFFFFFFFFFFFF
310
FFFFFFFFFFFFFFFFFFFFFFFFFFFFFFFFFFFFFFFFFFFFFFFFFFFFFFFFFFFFFFFF
310
FFFFFFFFFFFFFFFFFFFFFFFFFFFFFFFFFFFFFFFFFFFFFFFFFFFFFFFFFFFFFFFF
310
FFFFFFFFFFFFFFFFFFFFFFFFFFFFFFFFFFFFFFFFFFFFFFFFFFFFFFFFFFFFFFFF
310
FFFFFFFFFFFFFFFFFFFFFFFFFFFFFFFFFFFFFFFFFFFFFFFFFFFFFFFFFFFFFFFF
310
FFFFFFFFFFFFFFFFFFFFFFFFFFFFFFFFFFFFFFFFFFFFFFFFFFFFFFFFFFFFFFFF
310
FFFFFFFFFFFFFFFFFFFFFFFFFFFFFFFFFFFFFFFFFFFFFFFFFFFFFFFFFFFFFFFF
310
FFFFFFFFFFFFFFFFFFFFFFFFFFFFFFFFFFFFFFFFFFFFFFFFFFFFFFFFFFFFFFFF
310
FDFFFFFFFEFFFFFFFEFFFFFFFEFFFFFF05000000060000000700000008000000
310
090000000A0000000B0000000C000000FEFFFFFFFFFFFFFFFFFFFFFFFFFFFFFF
310
FFFFFFFFFFFFFFFFFFFFFFFFFFFFFFFFFFFFFFFFFFFFFFFFFFFFFFFFFFFFFFFF
310
FFFFFFFFFFFFFFFFFFFFFFFFFFFFFFFFFFFFFFFFFFFFFFFFFFFFFFFFFFFFFFFF
310
FFFFFFFFFFFFFFFFFFFFFFFFFFFFFFFFFFFFFFFFFFFFFFFFFFFFFFFFFFFFFFFF
310
FFFFFFFFFFFFFFFFFFFFFFFFFFFFFFFFFFFFFFFFFFFFFFFFFFFFFFFFFFFFFFFF
310
FFFFFFFFFFFFFFFFFFFFFFFFFFFFFFFFFFFFFFFFFFFFFFFFFFFFFFFFFFFFFFFF
310
FFFFFFFFFFFFFFFFFFFFFFFFFFFFFFFFFFFFFFFFFFFFFFFFFFFFFFFFFFFFFFFF
310
FFFFFFFFFFFFFFFFFFFFFFFFFFFFFFFFFFFFFFFFFFFFFFFFFFFFFFFFFFFFFFFF
310
FFFFFFFFFFFFFFFFFFFFFFFFFFFFFFFFFFFFFFFFFFFFFFFFFFFFFFFFFFFFFFFF
310
FFFFFFFFFFFFFFFFFFFFFFFFFFFFFFFFFFFFFFFFFFFFFFFFFFFFFFFFFFFFFFFF
310
FFFFFFFFFFFFFFFFFFFFFFFFFFFFFFFFFFFFFFFFFFFFFFFFFFFFFFFFFFFFFFFF
310
FFFFFFFFFFFFFFFFFFFFFFFFFFFFFFFFFFFFFFFFFFFFFFFFFFFFFFFFFFFFFFFF
310
FFFFFFFFFFFFFFFFFFFFFFFFFFFFFFFFFFFFFFFFFFFFFFFFFFFFFFFFFFFFFFFF
310
FFFFFFFFFFFFFFFFFFFFFFFFFFFFFFFFFFFFFFFFFFFFFFFFFFFFFFFFFFFFFFFF
310
FFFFFFFFFFFFFFFFFFFFFFFFFFFFFFFFFFFFFFFFFFFFFFFFFFFFFFFFFFFFFFFF
310
52006F006F007400200045006E00740072007900000000000000000000000000
310
0000000000000000000000000000000000000000000000000000000000000000
310
16000500FFFFFFFFFFFFFFFF020000000A00030000000000C000000000000046
310
00000000000000000000000080DC2A93D4FBCC0103000000C000000000000000
310
01004F006C006500000000000000000000000000000000000000000000000000
310
0000000000000000000000000000000000000000000000000000000000000000
310
0A000200FFFFFFFFFFFFFFFFFFFFFFFF00000000000000000000000000000000
310
0000000000000000000000000000000000000000000000001400000000000000
310
010043006F006D0070004F0062006A0000000000000000000000000000000000
310
0000000000000000000000000000000000000000000000000000000000000000
310
120002010100000003000000FFFFFFFF00000000000000000000000000000000
310
0000000000000000000000000000000000000000010000004D00000000000000
310
01004F006C006500310030004E00610074006900760065000000000000000000
310
0000000000000000000000000000000000000000000000000000000000000000
310
1A000200FFFFFFFFFFFFFFFFFFFFFFFF00000000000000000000000000000000
310
000000000000000000000000000000000000000004000000E411000000000000
310
FEFFFFFF02000000FEFFFFFFFFFFFFFFFFFFFFFFFFFFFFFFFFFFFFFFFFFFFFFF
310
FFFFFFFFFFFFFFFFFFFFFFFFFFFFFFFFFFFFFFFFFFFFFFFFFFFFFFFFFFFFFFFF
310
FFFFFFFFFFFFFFFFFFFFFFFFFFFFFFFFFFFFFFFFFFFFFFFFFFFFFFFFFFFFFFFF
310
FFFFFFFFFFFFFFFFFFFFFFFFFFFFFFFFFFFFFFFFFFFFFFFFFFFFFFFFFFFFFFFF
310
FFFFFFFFFFFFFFFFFFFFFFFFFFFFFFFFFFFFFFFFFFFFFFFFFFFFFFFFFFFFFFFF
310
FFFFFFFFFFFFFFFFFFFFFFFFFFFFFFFFFFFFFFFFFFFFFFFFFFFFFFFFFFFFFFFF
310
FFFFFFFFFFFFFFFFFFFFFFFFFFFFFFFFFFFFFFFFFFFFFFFFFFFFFFFFFFFFFFFF
310
FFFFFFFFFFFFFFFFFFFFFFFFFFFFFFFFFFFFFFFFFFFFFFFFFFFFFFFFFFFFFFFF
310
FFFFFFFFFFFFFFFFFFFFFFFFFFFFFFFFFFFFFFFFFFFFFFFFFFFFFFFFFFFFFFFF
310
FFFFFFFFFFFFFFFFFFFFFFFFFFFFFFFFFFFFFFFFFFFFFFFFFFFFFFFFFFFFFFFF
310
FFFFFFFFFFFFFFFFFFFFFFFFFFFFFFFFFFFFFFFFFFFFFFFFFFFFFFFFFFFFFFFF
310
FFFFFFFFFFFFFFFFFFFFFFFFFFFFFFFFFFFFFFFFFFFFFFFFFFFFFFFFFFFFFFFF
310
FFFFFFFFFFFFFFFFFFFFFFFFFFFFFFFFFFFFFFFFFFFFFFFFFFFFFFFFFFFFFFFF
310
FFFFFFFFFFFFFFFFFFFFFFFFFFFFFFFFFFFFFFFFFFFFFFFFFFFFFFFFFFFFFFFF
310
FFFFFFFFFFFFFFFFFFFFFFFFFFFFFFFFFFFFFFFFFFFFFFFFFFFFFFFFFFFFFFFF
310
FFFFFFFFFFFFFFFFFFFFFFFFFFFFFFFFFFFFFFFFFFFFFFFFFFFFFFFFFFFFFFFF
310
0100000200000000000000000000000000000000F8995C160000000000000000
310
0000000000000000000000000000000000000000000000000000000000000000
310
0100FEFF030A0000FFFFFFFF0A00030000000000C00000000000004607000000
310
5042727573680007000000504272757368000700000050427275736800F439B2
310
7100000000000000000000000000000000000000000000000000000000000000
310
0000000000000000000000000000000000000000000000000000000000000000
310
0000000000000000000000000000000000000000000000000000000000000000
310
0000000000000000000000000000000000000000000000000000000000000000
310
0000000000000000000000000000000000000000000000000000000000000000
310
0000000000000000000000000000000000000000000000000000000000000000
310
0000000000000000000000000000000000000000000000000000000000000000
310
0000000000000000000000000000000000000000000000000000000000000000
310
0000000000000000000000000000000000000000000000000000000000000000
310
0000000000000000000000000000000000000000000000000000000000000000
310
0000000000000000000000000000000000000000000000000000000000000000
310
0000000000000000000000000000000000000000000000000000000000000000
310
E0110000424DDE11000000000000360400002800000096000000170000000100
310
08000000000000000000E7240000E72400000001000000010000000000FF0101
310
01FF020202FF030303FF040404FF050505FF060606FF070707FF080808FF0909
310
09FF0A0A0AFF0B0B0BFF0C0C0CFF0D0D0DFF0E0E0EFF0F0F0FFF101010FF1111
310
11FF121212FF131313FF141414FF151515FF161616FF171717FF181818FF1919
310
19FF1A1A1AFF1B1B1BFF1C1C1CFF1D1D1DFF1E1E1EFF1F1F1FFF202020FF2121
310
21FF222222FF232323FF242424FF252525FF262626FF272727FF282828FF2929
310
29FF2A2A2AFF2B2B2BFF2C2C2CFF2D2D2DFF2E2E2EFF2F2F2FFF303030FF3131
310
31FF323232FF333333FF343434FF353535FF363636FF373737FF383838FF3939
310
39FF3A3A3AFF3B3B3BFF3C3C3CFF3D3D3DFF3E3E3EFF3F3F3FFF404040FF4141
310
41FF424242FF434343FF444444FF454545FF464646FF474747FF484848FF4949
310
49FF4A4A4AFF4B4B4BFF4C4C4CFF4D4D4DFF4E4E4EFF4F4F4FFF505050FF5151
310
51FF525252FF535353FF545454FF555555FF565656FF575757FF585858FF5959
310
59FF5A5A5AFF5B5B5BFF5C5C5CFF5D5D5DFF5E5E5EFF5F5F5FFF606060FF6161
310
61FF626262FF636363FF646464FF656565FF666666FF676767FF686868FF6969
310
69FF6A6A6AFF6B6B6BFF6C6C6CFF6D6D6DFF6E6E6EFF6F6F6FFF707070FF7171
310
71FF727272FF737373FF747474FF757575FF767676FF777777FF787878FF7979
310
79FF7A7A7AFF7B7B7BFF7C7C7CFF7D7D7DFF7E7E7EFF7F7F7FFF808080FF8181
310
81FF828282FF838383FF848484FF858585FF868686FF878787FF888888FF8989
310
89FF8A8A8AFF8B8B8BFF8C8C8CFF8D8D8DFF8E8E8EFF8F8F8FFF909090FF9191
310
91FF929292FF939393FF949494FF959595FF969696FF979797FF989898FF9999
310
99FF9A9A9AFF9B9B9BFF9C9C9CFF9D9D9DFF9E9E9EFF9F9F9FFFA0A0A0FFA1A1
310
A1FFA2A2A2FFA3A3A3FFA4A4A4FFA5A5A5FFA6A6A6FFA7A7A7FFA8A8A8FFA9A9
310
A9FFAAAAAAFFABABABFFACACACFFADADADFFAEAEAEFFAFAFAFFFB0B0B0FFB1B1
310
B1FFB2B2B2FFB3B3B3FFB4B4B4FFB5B5B5FFB6B6B6FFB7B7B7FFB8B8B8FFB9B9
310
B9FFBABABAFFBBBBBBFFBCBCBCFFBDBDBDFFBEBEBEFFBFBFBFFFC0C0C0FFC1C1
310
C1FFC2C2C2FFC3C3C3FFC4C4C4FFC5C5C5FFC6C6C6FFC7C7C7FFC8C8C8FFC9C9
310
C9FFCACACAFFCBCBCBFFCCCCCCFFCDCDCDFFCECECEFFCFCFCFFFD0D0D0FFD1D1
310
D1FFD2D2D2FFD3D3D3FFD4D4D4FFD5D5D5FFD6D6D6FFD7D7D7FFD8D8D8FFD9D9
310
D9FFDADADAFFDBDBDBFFDCDCDCFFDDDDDDFFDEDEDEFFDFDFDFFFE0E0E0FFE1E1
310
E1FFE2E2E2FFE3E3E3FFE4E4E4FFE5E5E5FFE6E6E6FFE7E7E7FFE8E8E8FFE9E9
310
E9FFEAEAEAFFEBEBEBFFECECECFFEDEDEDFFEEEEEEFFEFEFEFFFF0F0F0FFF1F1
310
F1FFF2F2F2FFF3F3F3FFF4F4F4FFF5F5F5FFF6F6F6FFF7F7F7FFF8F8F8FFF9F9
310
F9FFFAFAFAFFFBFBFBFFFCFCFCFFFDFDFDFFFEFEFEFFFFFFFFFFFFFFFFFFFFFF
310
C94E4E4E4F4E4EFFFFFFFFFFC94E4E4E4E4E72FFFFFFFFFFFFFF734E4D4E4E4E
310
C9FFFFFFFFFFAA683516171616265B9BE9FFFFFFFFFF4E4E4E4D4E4EFFFFFFFF
310
FFFFFFFF4E4E4F4E4D4E4E4E4F4E4E4F4D4E4E4E4E4E4D4E4F4E4D4E4E4EAAFF
310
FFFFFFFFFFEA4E4F4F4E4E4E4E4E4D4D4F4F4E4E4E4E4E5B7FAAFFFFFFFFFFFF
310
C9744E1716171616164D8DEAFFFFFFFF0000FFFFFFFFFFFFBA161617161716FF
310
FFFFFFFFB917171616174FFFFFFFFFFFFFFF4E1716161616B9FFFFFFB9341717
310
1716171617171616268CFFFFFFFF161617161617FFFFFFFFFFFFFFB917161717
310
1617167F807F7F7F7F7F7F807F7F807F7F807F7F7F414EFFFFFFFFFFFF8C167F
310
7F807F7F7F7E7F7F807F807F7F807F4E3417258EFFFFEA4E162674AABAEAEBBA
310
AA74341680FFFFFF0000FFFFFFFFFFFFB9171717171617FFFFFFFFFFBB161616
310
16164EFFFFFFFFFFFFFF4E1717171717B9FFFF9C171617171716161616171616
310
171766FFFFFF161717161617FFFFFFFFFFFFFF8E16171717161616FFFFFFFFFF
310
FFFFFFFFFFFFFFFFFFFFFFFFFFAA16D9FFFFFFFFFF3467FFFFFFFFEAFFFFFFFF
310
FFFFFFFFFFFFFFFFFFCA671667EB26278DFFFFFFFFFFFFFFFFFFFF8C2541EAFF
310
0000FFFFFFFFFFFFB9171717171716FFFFFFFFFFBA16171617174EFFFFFFFFFF
310
FFFF4E1717161616BAFF9B1617161616171716171617161616161667FFFF1616
310
16161716FFFFFFFFFFFFFF7F16161617174017FFFFFFFFFFFFFFFFFFFFFFFFFF
310
FFFFFFFFFFFF344E7F7F7F7E7417DAFFFFFFFF80FFFFFFFFFFFFFFFFFFFFFFFF
310
FFFFFF9B163425CAFFFFFFFFFFFFFFFFFFFFFFFFCA2667FF0000FFFFFFFFFFFF
310
BA171717171617FFFFFFFFFFB916171716164EFFFFFFFFFFFFFF4F1716161717
310
B9C91716171616161716161617171616161617168DFF161716161717FFFFFFFF
310
FFFFFF7F17171716164F16FFFFFFFFFFFFFFFFFFFFFFFFFFFFFFFFFFFFFF9B16
310
17161617174EFFFFFFFFFF34FFFFFFFFD9BABABABABADAFFFFFFFFFF7F16AAFF
310
FFFFFFFFFFFFFFFFFFFFFFFFFF9C16BA0000FFFFFFFFFFFFB9161717161717FF
310
FFFFFFFFB917161716174DFFFFFFFFFFFFFF4E1616161616BA4E161617171716
310
419BEAEAAA4E16161617161726E9171717161616FFFFFFFFFFFFFF4F16161717
310
164E16FFFFFFFFFFBAB9B9B9B9B9BABABACAFFFFFFFFFFFFFFFFFFFFFFFFFFFF
310
FFFFBA16FFFFFFFF7F1617161617174DEAFFFFFFEA41FFFFFFFFFFAA4D16174E
310
9BFFFFFFFFFF34730000FFFFFFFFFFFFB9161617171617FFFFFFFFFFBA161616
310
16164EFFFFFFFFFFFFFF4F16161717169B1617161716175BFFFFFFFFFFFF7417
310
16171616168D171717161617FFFFFFFFFFFFEA2616171717167416FFFFFFFFFF
310
16171616171717171717EAFFFFFFFFFFFFFFFFFFFFFFFFFFFFFF6716FFFFFFFF
310
7F4EFFFFFFFFBA2573FFFFFFFFBAFFFFFFFFAA167FB9BB9B269BFFFFFFFF664F
310
0000FFFFFFFFFFFFB9171616161616FFFFFFFFFFBA16161717164EFFFFFFFFFF
310
FFFF4E16161616174E161617171626EAFFFFFFFFFFFFFF4E16161616164E1716
310
16161617FFFFFFFFFFFF671616161716347F16FFFFFFFFFF16B9FFFFFFFFFFFF
310
D9168DFFFFFFFFFFFFFFFFFFFFFFFFFFFFEA1716FFFFFFFF7F4EFFFFFFFFFF7F
310
4EFFFFFFFFFFFFFFFFFF5B66FFFFFFEA347FFFFFFFFF7F4D0000FFFFFFFFFFFF
310
B9171616171617FFFFFFFFFFBA17161716174EFFFFFFFFFFFFFF4D1716161617
310
17161716161673FFFFFFFFFFFFFFFF9B1617161717161616171616174F4E4E4E
310
4E341616171616167E7F16FFFFFFFFFF16BAFFFFFFFFFFFFFF5B41FFFFFFFF34
310
1616171616BAFFFFFF9B1716FFFFFFFF7F4EFFFFFFFFFF4E4EFFFFFFFF734E4E
310
4E4E267EDA9B67164EEAFFFFFFFF744D0000FFFFFFFFFFFFBA171717161617FF
310
FFFFFFFFBA1616171616347F7F7F7F80807F331616161717161717161716B9FF
310
FFFFFFFFFFFFFFE9161616161616171716161716171616161616171616171734
310
EA7F16FFFFFFFFFF16BAFFFFFFFFFFFFFFAA17C9FFFFFF7326BABA5B25FFFFFF
310
FF401716FFFFFFFF7F264F4E4E4E4217AAFFFFFFEA16677F73261616164173CA
310
FFFFFFFFFFFF417F0000FFFFFFFFFFFFBA171616171617FFFFFFFFFFBA161616
310
17171616161616161616161717161616161616161617EAFFFFFFFFFFFFFFFFFF
310
261717161716161617161616161617161617161616174EEAFF8016FFFFFFFFFF
310
17BAFFFFFFFFFFFFFFFF3467FFFFFFC916C9FF3467FFFFFFDA166716FFFFFFFF
310
9C4D4E4E4E4E67AAFFFFFFFF6834FF7F262567AAEAFFFFFFFFFFFFFFFF9B17D9
310
0000FFFFFFFFFFFFB9161616161616FFFFFFFFFFBA1617161717171616161616
310
1716171716161716161617171716FFFFFFFFFFFFFFFFFFFF4E17161716171616
310
1617171616161716171717161616169BFF7F17FFFFFFFFFF17B9FFFFFFFFFFFF
310
FFFF7326FFFFFFFF3473DA16AAFFFFFF7317AA16FFFFFFFFFFFFFFFFFFFFFFFF
310
FFFFEA6725BA4E167FEAFFFFFFFFFFFFFFFFFFFF9C167FFF0000FFFFFFFFFFFF
310
B9161717171716FFFFFFFFFFBA16161716171616171717161617161716161616
310
171617171617EAFFFFFFFFFFFFFFFFFF26161717161616161616161617171616
310
1616161616171616AA8016FFFFFFFFFF16BAFFFFFFFFFFFFFFFFDA179BFFFFFF
310
74348D26FFFFFFFF2566B917FFFFFFFFD8BAB9BAB9BADAFFFFEA41169B7425C9
310
FFFFFFFFFFFFFFFFFFFFAB4F1680FFFF0000FFFFFFFFFFFFBA161717171617FF
310
FFFFFFFFBA17161717161617171617161616161617171616171716171617BBFF
310
FFFFFFFFFFFFFFE9171616161617161617161716FFFFFFFFFFD9671616161617
310
348017FFFFFFFFFF16BAFFFFFFFFFFFFFFFFFF4E5AFFFFFFC916265AFFFFFFAA
310
16AABA16FFFFFFFF7F1617161616179BFFFFEB4127168DFFFFFFFFFFFFFFD99B
310
6734175AC9FFFFFF0000FFFFFFFFFFFFB9161617171617FFFFFFFFFFBB161616
310
1616347F807F7F7F7F8033171716171617171616161672FFFFFFFFFFFFFFFF9C
310
171617171617161716161617FFFFFFFFFFFFFF4117161616174E17FFFFFFFFFF
310
16BAFFFFFFFFFFFFFFFFFF9B16DAFFFFFF34169BFFFFFF5A26FFB917FFFFFFFF
310
7F4EFFFFFFEA5B26FFFFFFEA2616EAFFFFFFFFDA743416331617414E4E4E4ECA
310
0000FFFFFFFFFFFFBA161716161616FFFFFFFFFFBA17171616164EFFFFFFFFFF
310
FFFF4E16161717174E161717171626EBFFFFFFFFFFFFFF4E16161617165B1616
310
16171617FFFFFFFFFFFFFF6716161616161617FFFFFFFFFF16BAFFFFFFFFFFFF
310
FFFFFFEA268CFFFFFF7316EAFFFFEB1774FFB916FFFFFFFF7F4EFFFFFFFF7316
310
FFFFFFFF6826FFFFFFFFEB264D9CEABA257F807F7F6616BA0000FFFFFFFFFFFF
310
BA161716161616FFFFFFFFFFBA16171616164DFFFFFFFFFFFFFF4E1617161617
310
9B1617171717165BEBFFFFFFFFFF671616161617179B171616161616FFFFFFFF
310
FFFFFF3417161617171617FFFFFFFFFF17BAFFFFFFFFFFFFFFFFFFFF6734FFFF
310
FFEBCAFFFFFF8D17C9FFBA17FFFFFFFF7F357F808066174FFFFFFFFF7F16FFFF
310
FFFFD91673B99B415BFFFFFFFFBA16DA00009B7F7F7F807F671617161616167F
310
80807F7E6617161616164EFFFFFFFFFFFFFF4E1616161617B94E171716161616
310
349BC9D9AA4E16171616161634FF161617161717B9B9BAB9BA9B411716171716
310
163416FFFFFFFFFF16B9FFFFFFFFFFFFFFFFFFFFC917CAFFFFFFFFFFFFFF3342
310
FFFFBA17FFFFFFFF9B4E4E4F4E4E66EAFFFFFFFF5B16C9FFFFFFFFAA4E164E73
310
EAFFFFFFFF8D26FF00004E161716161616171617171616171717171617161616
310
17174EFFFFFFFFFFFFFF4E1717171616B9D92616171716171716171717171716
310
16171716AAFF161717171617161617171616161617161716166717FFFFFFFFFF
310
17B9FFFFFFFFFFFFFFFFFFFFFF3467FFFFFFFFFFFFCA168CFFFFBB17FFFFFFFF
310
FFFFFFFFFFFFFFFFFFFFFFEA26265BFFFFFFFFFFFFFFFFFFFFFFFFFFEA3467FF
310
00004D16161616161617161717161617161616171617171616164EFFFFFFFFFF
310
FFFF4D1617161616BAFF9B1616161616161716161616171717161766FFFF1616
310
16171617161617161716171616171717667F16FFFFFFFFFF17BAFFFFFFFFFFFF
310
FFFFFFFFFF8C26EAFFFFFFFFFF6617EAFFFFBA17FFFFFFFFFFFFFFFFFFFFFFFF
310
FFFFEA5A25BA269BFFFFFFFFFFFFFFFFFFFFFFFF6616DAFF00004E1616171616
310
1616161616161716161617171616171616174EFFFFFFFFFFFFFF4D1717171716
310
B9FFFF9C161616161616161716161717171667FFFFFF17161717171716161617
310
1716161616161641E97E16FFFFFFFFFF16B9FFFFFFFFFFFFFFFFFFFFFFEA169B
310
FFFFFFFFEA265BFFFFFFB916FFFFFFFFFFFFFFFFFFFFFFFFFF9B3416AAFF9B17
310
67EAFFFFFFFFFFFFFFFFEA5B169BFFFF00004D17161716161616161717171616
310
161717161716171716174EFFFFFFFFFFFFFF4D1616161616BAFFFFFFBB411616
310
161716161616171634ABFFFFFFFF161716161617171716171617171617267FFF
310
FF7F164E4E4E4E4F17BAFFFFFFFFFFFFFFFFFFFFFFFF66344D4E4E4F4117AAFF
310
FFFFBA174E4E4E4D4E4D4D4E4E4E4E4116174EBBFFFFFFCA342666ABEAFFFFEA
310
AA6725269CFFFFFF0000724F4E4D4D4D4E4D4D4E4E4E4D4E4E4E4E4E4E4E4E4D
310
4E4E74FFFFFFFFFFFFFF734E4E4E4D4ECAFFFFFFFFFFAA663416171717265B9B
310
FFFFFFFFFFFF7F8080807F80807F7F7F7F7F807FBAFFFFFFFF9B4E4E4F4D4D4E
310
4DC9FFFFFFFFFFFFFFFFFFFFFFFFBA4E4E4E4E4D4E4EFFFFFFFFC94E4E4E4F4E
310
4E4E4D4E4E5A807F9CD9FFFFFFFFFFFFFF9B5B2617171716174E8DEAFFFFFFFF
310
0000000000000000000000000000000000000000000000000000000000000000
  1
OLE
  0
ENDSEC
  0
SECTION
  2
OBJECTS
  0
DICTIONARY
  5
C
330
0
100
AcDbDictionary
281
     1
  3
ACAD_GROUP
350
D
  3
ACAD_LAYOUT
350
1A
  3
ACAD_MLINESTYLE
350
17
  3
ACAD_PLOTSETTINGS
350
19
  3
ACAD_PLOTSTYLENAME
350
E
  0
DICTIONARY
  5
D
102
{ACAD_REACTORS
330
C
102
}
330
C
100
AcDbDictionary
281
     1
  0
DICTIONARY
  5
1A
102
{ACAD_REACTORS
330
C
102
}
330
C
100
AcDbDictionary
281
     1
  3
Layout1
350
1E
  3
Layout2
350
26
  3
Model
350
22
  0
DICTIONARY
  5
17
102
{ACAD_REACTORS
330
C
102
}
330
C
100
AcDbDictionary
281
     1
  3
Standard
350
18
  0
DICTIONARY
  5
19
102
{ACAD_REACTORS
330
C
102
}
330
C
100
AcDbDictionary
281
     1
  0
ACDBDICTIONARYWDFLT
  5
E
102
{ACAD_REACTORS
330
C
102
}
330
C
100
AcDbDictionary
281
     1
  3
Normal
350
F
100
AcDbDictionaryWithDefault
340
F
  0
LAYOUT
  5
1E
102
{ACAD_REACTORS
330
1A
102
}
330
1A
100
AcDbPlotSettings
  1

  2
none_device
  4

  6

 40
0.0
 41
0.0
 42
0.0
 43
0.0
 44
0.0
 45
0.0
 46
0.0
 47
0.0
 48
0.0
 49
0.0
140
0.0
141
0.0
142
1.0
143
1.0
 70
   688
 72
     0
 73
     0
 74
     5
  7

 75
    16
147
1.0
148
0.0
149
0.0
100
AcDbLayout
  1
Layout1
 70
     1
 71
     1
 10
0.0
 20
0.0
 11
12.0
 21
9.0
 12
0.0
 22
0.0
 32
0.0
 14
1.0000000000E+20
 24
1.0000000000E+20
 34
1.0000000000E+20
 15
-1.0000000000E+20
 25
-1.0000000000E+20
 35
-1.0000000000E+20
146
0.0
 13
0.0
 23
0.0
 33
0.0
 16
1.0
 26
0.0
 36
0.0
 17
0.0
 27
1.0
 37
0.0
 76
     0
330
1B
  0
LAYOUT
  5
26
102
{ACAD_REACTORS
330
1A
102
}
330
1A
100
AcDbPlotSettings
  1

  2
none_device
  4

  6

 40
0.0
 41
0.0
 42
0.0
 43
0.0
 44
0.0
 45
0.0
 46
0.0
 47
0.0
 48
0.0
 49
0.0
140
0.0
141
0.0
142
1.0
143
1.0
 70
   688
 72
     0
 73
     0
 74
     5
  7

 75
    16
147
1.0
148
0.0
149
0.0
100
AcDbLayout
  1
Layout2
 70
     1
 71
     2
 10
0.0
 20
0.0
 11
0.0
 21
0.0
 12
0.0
 22
0.0
 32
0.0
 14
0.0
 24
0.0
 34
0.0
 15
0.0
 25
0.0
 35
0.0
146
0.0
 13
0.0
 23
0.0
 33
0.0
 16
1.0
 26
0.0
 36
0.0
 17
0.0
 27
1.0
 37
0.0
 76
     0
330
23
  0
LAYOUT
  5
22
102
{ACAD_REACTORS
330
1A
102
}
330
1A
100
AcDbPlotSettings
  1

  2
none_device
  4

  6

 40
0.0
 41
0.0
 42
0.0
 43
0.0
 44
0.0
 45
0.0
 46
0.0
 47
0.0
 48
0.0
 49
0.0
140
0.0
141
0.0
142
1.0
143
1.0
 70
  1712
 72
     0
 73
     0
 74
     0
  7

 75
     0
147
1.0
148
0.0
149
0.0
100
AcDbLayout
  1
Model
 70
     1
 71
     0
 10
0.0
 20
0.0
 11
11.0
 21
8.5
 12
0.0
 22
0.0
 32
0.0
 14
0.0
 24
0.0
 34
0.0
 15
11.0
 25
8.5
 35
0.0
146
0.0
 13
0.0
 23
0.0
 33
0.0
 16
1.0
 26
0.0
 36
0.0
 17
0.0
 27
1.0
 37
0.0
 76
     0
330
1F
331
29
  0
MLINESTYLE
  5
18
102
{ACAD_REACTORS
330
17
102
}
330
17
100
AcDbMlineStyle
  2
Standard
 70
     0
  3

 62
   256
 51
90.0
 52
90.0
 71
     2
 49
0.5
 62
   256
  6
BYLAYER
 49
-0.5
 62
   256
  6
BYLAYER
  0
ACDBPLACEHOLDER
  5
F
102
{ACAD_REACTORS
330
E
102
}
330
E
  0
ENDSEC
  0
EOF
