  0
SECTION
  2
HEADER
  9
$ACADVER
  1
AC1015
  9
$ACADMAINTVER
 70
     6
  9
$DWGCODEPAGE
  3
ANSI_1252
  9
$INSBASE
 10
0.0
 20
0.0
 30
0.0
  9
$EXTMIN
 10
0.0
 20
0.0
 30
0.0
  9
$EXTMAX
 10
11.0
 20
8.5
 30
0.0
  9
$LIMMIN
 10
0.0
 20
0.0
  9
$LIMMAX
 10
11.0
 20
8.5
  9
$ORTHOMODE
 70
     0
  9
$REGENMODE
 70
     1
  9
$FILLMODE
 70
     1
  9
$QTEXTMODE
 70
     0
  9
$MIRRTEXT
 70
     1
  9
$LTSCALE
 40
1.0
  9
$ATTMODE
 70
     1
  9
$TEXTSIZE
 40
0.1111111111
  9
$TRACEWID
 40
0.05
  9
$TEXTSTYLE
  7
Standard
  9
$CLAYER
  8
0
  9
$CELTYPE
  6
ByLayer
  9
$CECOLOR
 62
   256
  9
$CELTSCALE
 40
1.0
  9
$DISPSILH
 70
     0
  9
$DIMSCALE
 40
1.0
  9
$DIMASZ
 40
0.125
  9
$DIMEXO
 40
0.05
  9
$DIMDLI
 40
0.38
  9
$DIMRND
 40
0.0
  9
$DIMDLE
 40
0.0
  9
$DIMEXE
 40
0.07
  9
$DIMTP
 40
0.0
  9
$DIMTM
 40
0.0
  9
$DIMTXT
 40
0.1111111111
  9
$DIMCEN
 40
0.09
  9
$DIMTSZ
 40
0.0
  9
$DIMTOL
 70
     0
  9
$DIMLIM
 70
     0
  9
$DIMTIH
 70
     1
  9
$DIMTOH
 70
     1
  9
$DIMSE1
 70
     0
  9
$DIMSE2
 70
     0
  9
$DIMTAD
 70
     0
  9
$DIMZIN
 70
     1
  9
$DIMBLK
  1

  9
$DIMASO
 70
     1
  9
$DIMSHO
 70
     1
  9
$DIMPOST
  1

  9
$DIMAPOST
  1

  9
$DIMALT
 70
     0
  9
$DIMALTD
 70
     2
  9
$DIMALTF
 40
25.4
  9
$DIMLFAC
 40
1.0
  9
$DIMTOFL
 70
     0
  9
$DIMTVP
 40
0.0
  9
$DIMTIX
 70
     0
  9
$DIMSOXD
 70
     0
  9
$DIMSAH
 70
     0
  9
$DIMBLK1
  1

  9
$DIMBLK2
  1

  9
$DIMSTYLE
  2
Standard
  9
$DIMCLRD
 70
     0
  9
$DIMCLRE
 70
     0
  9
$DIMCLRT
 70
     0
  9
$DIMTFAC
 40
1.0
  9
$DIMGAP
 40
0.1
  9
$DIMJUST
 70
     0
  9
$DIMSD1
 70
     0
  9
$DIMSD2
 70
     0
  9
$DIMTOLJ
 70
     1
  9
$DIMTZIN
 70
     1
  9
$DIMALTZ
 70
     0
  9
$DIMALTTZ
 70
     0
  9
$DIMUPT
 70
     0
  9
$DIMDEC
 70
     2
  9
$DIMTDEC
 70
     2
  9
$DIMALTU
 70
     2
  9
$DIMALTTD
 70
     2
  9
$DIMTXSTY
  7
Standard
  9
$DIMAUNIT
 70
     0
  9
$DIMADEC
 70
     0
  9
$DIMALTRND
 40
0.0
  9
$DIMAZIN
 70
     0
  9
$DIMDSEP
 70
    46
  9
$DIMATFIT
 70
     3
  9
$DIMFRAC
 70
     0
  9
$DIMLDRBLK
  1

  9
$DIMLUNIT
 70
     2
  9
$DIMLWD
 70
    -2
  9
$DIMLWE
 70
    -2
  9
$DIMTMOVE
 70
     0
  9
$LUNITS
 70
     2
  9
$LUPREC
 70
     2
  9
$SKETCHINC
 40
0.1
  9
$FILLETRAD
 40
0.5
  9
$AUNITS
 70
     0
  9
$AUPREC
 70
     0
  9
$MENU
  1
.
  9
$ELEVATION
 40
0.0
  9
$PELEVATION
 40
0.0
  9
$THICKNESS
 40
0.0
  9
$LIMCHECK
 70
     0
  9
$CHAMFERA
 40
0.0
  9
$CHAMFERB
 40
0.0
  9
$CHAMFERC
 40
0.0
  9
$CHAMFERD
 40
0.0
  9
$SKPOLY
 70
     0
  9
$TDCREATE
 40
2457427.560392836
  9
$TDUCREATE
 40
2457427.768726169
  9
$TDUPDATE
 40
2457427.560396088
  9
$TDUUPDATE
 40
2457427.768729421
  9
$TDINDWG
 40
0.0000000116
  9
$TDUSRTIMER
 40
0.0000000116
  9
$USRTIMER
 70
     1
  9
$ANGBASE
 50
0.0
  9
$ANGDIR
 70
     0
  9
$PDMODE
 70
     0
  9
$PDSIZE
 40
-1.0
  9
$PLINEWID
 40
0.0
  9
$SPLFRAME
 70
     0
  9
$SPLINETYPE
 70
     6
  9
$SPLINESEGS
 70
     8
  9
$HANDSEED
  5
212
  9
$SURFTAB1
 70
     6
  9
$SURFTAB2
 70
     6
  9
$SURFTYPE
 70
     6
  9
$SURFU
 70
     6
  9
$SURFV
 70
     6
  9
$UCSBASE
  2

  9
$UCSNAME
  2

  9
$UCSORG
 10
0.0
 20
0.0
 30
0.0
  9
$UCSXDIR
 10
1.0
 20
0.0
 30
0.0
  9
$UCSYDIR
 10
0.0
 20
1.0
 30
0.0
  9
$UCSORTHOREF
  2

  9
$UCSORTHOVIEW
 70
     0
  9
$UCSORGTOP
 10
0.0
 20
0.0
 30
0.0
  9
$UCSORGBOTTOM
 10
0.0
 20
0.0
 30
0.0
  9
$UCSORGLEFT
 10
0.0
 20
0.0
 30
0.0
  9
$UCSORGRIGHT
 10
0.0
 20
0.0
 30
0.0
  9
$UCSORGFRONT
 10
0.0
 20
0.0
 30
0.0
  9
$UCSORGBACK
 10
0.0
 20
0.0
 30
0.0
  9
$PUCSBASE
  2

  9
$PUCSNAME
  2

  9
$PUCSORG
 10
0.0
 20
0.0
 30
0.0
  9
$PUCSXDIR
 10
1.0
 20
0.0
 30
0.0
  9
$PUCSYDIR
 10
0.0
 20
1.0
 30
0.0
  9
$PUCSORTHOREF
  2

  9
$PUCSORTHOVIEW
 70
     0
  9
$PUCSORGTOP
 10
0.0
 20
0.0
 30
0.0
  9
$PUCSORGBOTTOM
 10
0.0
 20
0.0
 30
0.0
  9
$PUCSORGLEFT
 10
0.0
 20
0.0
 30
0.0
  9
$PUCSORGRIGHT
 10
0.0
 20
0.0
 30
0.0
  9
$PUCSORGFRONT
 10
0.0
 20
0.0
 30
0.0
  9
$PUCSORGBACK
 10
0.0
 20
0.0
 30
0.0
  9
$USERI1
 70
     0
  9
$USERI2
 70
     0
  9
$USERI3
 70
     0
  9
$USERI4
 70
     0
  9
$USERI5
 70
     0
  9
$USERR1
 40
0.0
  9
$USERR2
 40
0.0
  9
$USERR3
 40
0.0
  9
$USERR4
 40
0.0
  9
$USERR5
 40
0.0
  9
$WORLDVIEW
 70
     1
  9
$SHADEDGE
 70
     3
  9
$SHADEDIF
 70
    70
  9
$TILEMODE
 70
     1
  9
$MAXACTVP
 70
    64
  9
$PINSBASE
 10
0.0
 20
0.0
 30
0.0
  9
$PLIMCHECK
 70
     0
  9
$PEXTMIN
 10
1.0000000000E+20
 20
1.0000000000E+20
 30
1.0000000000E+20
  9
$PEXTMAX
 10
-1.0000000000E+20
 20
-1.0000000000E+20
 30
-1.0000000000E+20
  9
$PLIMMIN
 10
0.0
 20
0.0
  9
$PLIMMAX
 10
12.0
 20
9.0
  9
$UNITMODE
 70
     0
  9
$VISRETAIN
 70
     1
  9
$PLINEGEN
 70
     0
  9
$PSLTSCALE
 70
     1
  9
$TREEDEPTH
 70
  3020
  9
$CMLSTYLE
  2
Standard
  9
$CMLJUST
 70
     0
  9
$CMLSCALE
 40
1.0
  9
$PROXYGRAPHICS
 70
     1
  9
$MEASUREMENT
 70
     0
  9
$CELWEIGHT
370
    -1
  9
$ENDCAPS
280
     0
  9
$JOINSTYLE
280
     0
  9
$LWDISPLAY
290
     1
  9
$INSUNITS
 70
     1
  9
$HYPERLINKBASE
  1

  9
$STYLESHEET
  1

  9
$XEDIT
290
     1
  9
$CEPSNTYPE
380
     0
  9
$PSTYLEMODE
290
     1
  9
$FINGERPRINTGUID
  2
{8E339396-A07F-484E-AC63-10EB7F96F15F}
  9
$VERSIONGUID
  2
{FAEB1C32-E019-11D5-929B-00C0DF256EC4}
  9
$EXTNAMES
290
     1
  9
$PSVPSCALE
 40
0.0
  9
$OLESTARTUP
290
     0
  0
ENDSEC
  0
SECTION
  2
CLASSES
  0
CLASS
  1
ACDBDICTIONARYWDFLT
  2
AcDbDictionaryWithDefault
  3
ObjectDBX Classes
 90
        0
280
     0
281
     0
  0
CLASS
  1
VISUALSTYLE
  2
AcDbVisualStyle
  3
ObjectDBX Classes
 90
     4095
280
     0
281
     0
  0
CLASS
  1
MATERIAL
  2
AcDbMaterial
  3
ObjectDBX Classes
 90
     1153
280
     0
281
     0
  0
CLASS
  1
SCALE
  2
AcDbScale
  3
ObjectDBX Classes
 90
     1153
280
     0
281
     0
  0
CLASS
  1
SUN
  2
AcDbSun
  3
SCENEOE
 90
     1153
280
     0
281
     0
  0
CLASS
  1
ACDBPLACEHOLDER
  2
AcDbPlaceHolder
  3
ObjectDBX Classes
 90
        0
280
     0
281
     0
  0
CLASS
  1
LAYOUT
  2
AcDbLayout
  3
ObjectDBX Classes
 90
        0
280
     0
281
     0
  0
ENDSEC
  0
SECTION
  2
TABLES
  0
TABLE
  2
VPORT
  5
8
330
0
100
AcDbSymbolTable
 70
     1
  0
VPORT
  5
29
330
8
100
AcDbSymbolTableRecord
100
AcDbViewportTableRecord
  2
*Active
 70
     0
 10
0.0
 20
0.0
 11
1.0
 21
1.0
 12
5.5
 22
4.25
 13
0.0
 23
0.0
 14
0.5
 24
0.5
 15
0.5
 25
0.5
 16
0.0
 26
0.0
 36
1.0
 17
0.0
 27
0.0
 37
0.0
 40
8.5
 41
1.2941176471
 42
50.0
 43
0.0
 44
0.0
 50
0.0
 51
0.0
 71
     0
 72
  2000
 73
     1
 74
     3
 75
     0
 76
     0
 77
     0
 78
     0
281
     0
 65
     1
110
0.0
120
0.0
130
0.0
111
1.0
121
0.0
131
0.0
112
0.0
122
1.0
132
0.0
 79
     0
146
0.0
  0
ENDTAB
  0
TABLE
  2
LTYPE
  5
5
330
0
100
AcDbSymbolTable
 70
     6
  0
LTYPE
  5
14
330
5
100
AcDbSymbolTableRecord
100
AcDbLinetypeTableRecord
  2
ByBlock
 70
     0
  3

 72
    65
 73
     0
 40
0.0
  0
LTYPE
  5
15
330
5
100
AcDbSymbolTableRecord
100
AcDbLinetypeTableRecord
  2
ByLayer
 70
     0
  3

 72
    65
 73
     0
 40
0.0
  0
LTYPE
  5
16
330
5
100
AcDbSymbolTableRecord
100
AcDbLinetypeTableRecord
  2
Continuous
 70
     0
  3
Solid line
 72
    65
 73
     0
 40
0.0
  0
LTYPE
  5
6A
330
5
100
AcDbSymbolTableRecord
100
AcDbLinetypeTableRecord
  2
HIDDEN
 70
     0
  3
Hidden __ __ __ __ __ __ __ __ __ __ __ __ __ __
 72
    65
 73
     2
 40
0.075
 49
0.05
 74
     0
 49
-0.025
 74
     0
  0
LTYPE
  5
6B
330
5
100
AcDbSymbolTableRecord
100
AcDbLinetypeTableRecord
  2
PHANTOM
 70
     0
  3
Phantom ______  __  __  ______  __  __  ______
 72
    65
 73
     6
 40
0.5
 49
0.25
 74
     0
 49
-0.05
 74
     0
 49
0.05
 74
     0
 49
-0.05
 74
     0
 49
0.05
 74
     0
 49
-0.05
 74
     0
  0
LTYPE
  5
6C
330
5
100
AcDbSymbolTableRecord
100
AcDbLinetypeTableRecord
  2
CENTER
 70
     0
  3
Center ____ _ ____ _ ____ _ ____ _ ____ _ ____
 72
    65
 73
     4
 40
0.4
 49
0.25
 74
     0
 49
-0.05
 74
     0
 49
0.05
 74
     0
 49
-0.05
 74
     0
  0
LTYPE
  5
6D
330
5
100
AcDbSymbolTableRecord
100
AcDbLinetypeTableRecord
  2
CENTERX2
 70
     0
  3
Center (2x) ________  __  ________  __  _____
 72
    65
 73
     4
 40
0.8
 49
0.5
 74
     0
 49
-0.1
 74
     0
 49
0.1
 74
     0
 49
-0.1
 74
     0
  0
LTYPE
  5
6E
330
5
100
AcDbSymbolTableRecord
100
AcDbLinetypeTableRecord
  2
DOT2
 70
     0
  3
Dot (.5x) ........................................
 72
    65
 73
     2
 40
0.025
 49
0.0
 74
     0
 49
-0.025
 74
     0
  0
ENDTAB
  0
TABLE
  2
LAYER
  5
2
330
0
100
AcDbSymbolTable
 70
     2
  0
LAYER
  5
10
330
2
100
AcDbSymbolTableRecord
100
AcDbLayerTableRecord
  2
0
 70
     0
 62
     7
  6
Continuous
370
    -3
390
F
  0
LAYER
  5
6F
330
2
100
AcDbSymbolTableRecord
100
AcDbLayerTableRecord
  2
FORMAT
 70
     0
 62
     7
  6
Continuous
370
    -3
390
F
  0
ENDTAB
  0
TABLE
  2
STYLE
  5
3
330
0
100
AcDbSymbolTable
 70
     5
  0
STYLE
  5
11
330
3
100
AcDbSymbolTableRecord
100
AcDbTextStyleTableRecord
  2
Standard
 70
     0
 40
0.0
 41
1.0
 50
0.0
 71
     0
 42
0.1111111111
  3
txt
  4

  0
STYLE
  5
96
330
3
100
AcDbSymbolTableRecord
100
AcDbTextStyleTableRecord
  2
SLDTEXTSTYLE0
 70
     0
 40
0.0
 41
0.75
 50
0.0
 71
     0
 42
0.1111111111
  3
TXT
  4

  0
STYLE
  5
A2
330
3
100
AcDbSymbolTableRecord
100
AcDbTextStyleTableRecord
  2
SLDTEXTSTYLE1
 70
     0
 40
0.0
 41
0.6
 50
0.0
 71
     0
 42
0.1111111111
  3
TXT
  4

  0
STYLE
  5
A7
330
3
100
AcDbSymbolTableRecord
100
AcDbTextStyleTableRecord
  2
SLDTEXTSTYLE2
 70
     0
 40
0.0
 41
0.6875
 50
0.0
 71
     0
 42
0.1111111111
  3
TXT
  4

  0
STYLE
  5
1ED
330
3
100
AcDbSymbolTableRecord
100
AcDbTextStyleTableRecord
  2
SLDTEXTSTYLE3
 70
     0
 40
0.0
 41
0.7
 50
0.0
 71
     0
 42
0.1111111111
  3
TXT
  4

  0
ENDTAB
  0
TABLE
  2
VIEW
  5
6
330
0
100
AcDbSymbolTable
 70
     0
  0
ENDTAB
  0
TABLE
  2
UCS
  5
7
330
0
100
AcDbSymbolTable
 70
     0
  0
ENDTAB
  0
TABLE
  2
APPID
  5
9
330
0
100
AcDbSymbolTable
 70
     1
  0
APPID
  5
12
330
9
100
AcDbSymbolTableRecord
100
AcDbRegAppTableRecord
  2
ACAD
 70
     0
  0
ENDTAB
  0
TABLE
  2
DIMSTYLE
  5
A
330
0
100
AcDbSymbolTable
 70
     5
100
AcDbDimStyleTable
  0
DIMSTYLE
105
27
330
A
100
AcDbSymbolTableRecord
100
AcDbDimStyleTableRecord
  2
Standard
 70
     0
178
     0
340
11
  0
DIMSTYLE
105
11D
102
{ACAD_REACTORS
330
11C
102
}
330
A
100
AcDbSymbolTableRecord
100
AcDbDimStyleTableRecord
  2
SLDDIMSTYLE0
 70
     0
 41
0.125
 44
0.0
 45
0.000000001
 78
     4
 79
     1
140
0.0833333333
141
0.0
147
0.0208333333
148
0.000000001
170
     1
171
     1
173
     1
178
     0
271
     2
272
     2
274
     1
276
     2
284
    12
340
96
  0
DIMSTYLE
105
1AE
102
{ACAD_REACTORS
330
1AD
102
}
330
A
100
AcDbSymbolTableRecord
100
AcDbDimStyleTableRecord
  2
SLDDIMSTYLE1
 70
     0
 41
0.125
 44
0.0
 45
0.000000001
 78
     4
 79
     1
140
0.0833333333
147
0.0208333333
148
0.000000001
170
     1
171
     1
173
     1
178
     0
271
     2
272
     2
274
     1
276
     2
284
    12
340
96
  0
DIMSTYLE
105
1C2
102
{ACAD_REACTORS
330
1C1
330
1D6
102
}
330
A
100
AcDbSymbolTableRecord
100
AcDbDimStyleTableRecord
  2
SLDDIMSTYLE2
 70
     0
 41
0.125
 44
0.0
 45
0.000000001
 78
     8
 79
     2
140
0.0833333333
147
0.0208333333
148
0.000000001
170
     1
171
     1
172
     1
173
     1
178
     0
271
     2
272
     2
274
     1
276
     2
284
    12
289
     0
340
96
  0
DIMSTYLE
105
1F2
330
A
100
AcDbSymbolTableRecord
100
AcDbDimStyleTableRecord
  2
SLDDIMSTYLE3
 70
     0
 41
0.125
 44
0.0
 45
0.000000001
146
0.125
147
0.0
173
     1
178
     0
271
     0
272
     0
276
     2
340
11
  0
ENDTAB
  0
TABLE
  2
BLOCK_RECORD
  5
1
330
0
100
AcDbSymbolTable
 70
    20
  0
BLOCK_RECORD
  5
1F
330
1
100
AcDbSymbolTableRecord
100
AcDbBlockTableRecord
  2
*Model_Space
340
22
  0
BLOCK_RECORD
  5
1B
330
1
100
AcDbSymbolTableRecord
100
AcDbBlockTableRecord
  2
*Paper_Space
340
1E
  0
BLOCK_RECORD
  5
23
330
1
100
AcDbSymbolTableRecord
100
AcDbBlockTableRecord
  2
*Paper_Space0
340
26
  0
BLOCK_RECORD
  5
70
330
1
100
AcDbSymbolTableRecord
100
AcDbBlockTableRecord
  2
Third Angle Projection Block
340
0
102
{BLKREFS
331
95
102
}
  0
BLOCK_RECORD
  5
A9
330
1
100
AcDbSymbolTableRecord
100
AcDbBlockTableRecord
  2
SW_NOTE_0
340
0
102
{BLKREFS
331
AE
102
}
  0
BLOCK_RECORD
  5
AF
330
1
100
AcDbSymbolTableRecord
100
AcDbBlockTableRecord
  2
SW_NOTE_1
340
0
102
{BLKREFS
331
B4
102
}
  0
BLOCK_RECORD
  5
B6
330
1
100
AcDbSymbolTableRecord
100
AcDbBlockTableRecord
  2
SW_NOTE_2
340
0
102
{BLKREFS
331
BC
102
}
  0
BLOCK_RECORD
  5
BE
330
1
100
AcDbSymbolTableRecord
100
AcDbBlockTableRecord
  2
SW_NOTE_3
340
0
102
{BLKREFS
331
C3
102
}
  0
BLOCK_RECORD
  5
C4
330
1
100
AcDbSymbolTableRecord
100
AcDbBlockTableRecord
  2
SW_NOTE_4
340
0
102
{BLKREFS
331
D9
102
}
  0
BLOCK_RECORD
  5
DA
330
1
100
AcDbSymbolTableRecord
100
AcDbBlockTableRecord
  2
SW_TABLEANNOTATION_0
340
0
102
{BLKREFS
331
103
102
}
  0
BLOCK_RECORD
  5
E8
330
1
100
AcDbSymbolTableRecord
100
AcDbBlockTableRecord
  2
SW_SYMBOL_C#_1
340
0
102
{BLKREFS
331
ED
102
}
  0
BLOCK_RECORD
  5
F1
330
1
100
AcDbSymbolTableRecord
100
AcDbBlockTableRecord
  2
SW_SYMBOL_C#_2
340
0
102
{BLKREFS
331
F6
102
}
  0
BLOCK_RECORD
  5
F9
330
1
100
AcDbSymbolTableRecord
100
AcDbBlockTableRecord
  2
SW_SYMBOL_C#_3
340
0
102
{BLKREFS
331
FE
102
}
  0
BLOCK_RECORD
  5
11E
330
1
100
AcDbSymbolTableRecord
100
AcDbBlockTableRecord
  2
_D
340
0
  0
BLOCK_RECORD
  5
1AF
330
1
100
AcDbSymbolTableRecord
100
AcDbBlockTableRecord
  2
_D_1
340
0
  0
BLOCK_RECORD
  5
1C3
330
1
100
AcDbSymbolTableRecord
100
AcDbBlockTableRecord
  2
_D_2
340
0
  0
BLOCK_RECORD
  5
1D7
330
1
100
AcDbSymbolTableRecord
100
AcDbBlockTableRecord
  2
_D_3
340
0
  0
BLOCK_RECORD
  5
1EA
330
1
100
AcDbSymbolTableRecord
100
AcDbBlockTableRecord
  2
SW_NOTE_5
340
0
102
{BLKREFS
331
1F1
102
}
  0
BLOCK_RECORD
  5
1F4
330
1
100
AcDbSymbolTableRecord
100
AcDbBlockTableRecord
  2
SW_NOTE_6
340
0
102
{BLKREFS
331
1FA
102
}
  0
BLOCK_RECORD
  5
1FC
330
1
100
AcDbSymbolTableRecord
100
AcDbBlockTableRecord
  2
SW_NOTE_7
340
0
102
{BLKREFS
331
201
102
}
  0
BLOCK_RECORD
  5
203
330
1
100
AcDbSymbolTableRecord
100
AcDbBlockTableRecord
  2
SW_NOTE_8
340
0
102
{BLKREFS
331
208
102
}
  0
BLOCK_RECORD
  5
20A
330
1
100
AcDbSymbolTableRecord
100
AcDbBlockTableRecord
  2
SW_NOTE_9
340
0
102
{BLKREFS
331
20F
102
}
  0
ENDTAB
  0
ENDSEC
  0
SECTION
  2
BLOCKS
  0
BLOCK
  5
20
330
1F
100
AcDbEntity
  8
0
100
AcDbBlockBegin
  2
*Model_Space
 70
     0
 10
0.0
 20
0.0
 30
0.0
  3
*Model_Space
  1
*Model_Space
  0
ENDBLK
  5
21
330
1F
100
AcDbEntity
  8
0
100
AcDbBlockEnd
  0
BLOCK
  5
1C
330
1B
100
AcDbEntity
 67
     1
  8
0
100
AcDbBlockBegin
  2
*Paper_Space
 70
     0
 10
0.0
 20
0.0
 30
0.0
  3
*Paper_Space
  1
*Paper_Space
  0
ENDBLK
  5
1D
330
1B
100
AcDbEntity
 67
     1
  8
0
100
AcDbBlockEnd
  0
BLOCK
  5
24
330
23
100
AcDbEntity
  8
0
100
AcDbBlockBegin
  2
*Paper_Space0
 70
     0
 10
0.0
 20
0.0
 30
0.0
  3
*Paper_Space0
  1
*Paper_Space0
  0
ENDBLK
  5
25
330
23
100
AcDbEntity
  8
0
100
AcDbBlockEnd
  0
BLOCK
  5
71
330
70
100
AcDbEntity
  8
0
100
AcDbBlockBegin
  2
Third Angle Projection Block
 70
     0
 10
0.0
 20
0.0
 30
0.0
  3
Third Angle Projection Block
  1
Third Angle Projection Block
  0
CIRCLE
  5
73
330
70
100
AcDbEntity
  8
0
  6
Continuous
 62
     7
370
    30
100
AcDbCircle
 10
3.9951432636
 20
0.7456853688
 30
0.0
 40
0.0696152422706639
  0
CIRCLE
  5
74
330
70
100
AcDbEntity
  8
0
  6
Continuous
 62
     7
370
    30
100
AcDbCircle
 10
3.9951432636
 20
0.7456853688
 30
0.0
 40
0.1535916633280245
  0
LINE
  5
75
330
70
100
AcDbEntity
  8
0
  6
CENTERX2
 62
     7
370
     0
100
AcDbLine
 10
4.3360937897
 20
0.7456853688
 30
0.0
 11
4.7028635231
 21
0.7456853688
 31
0.0
  0
LINE
  5
76
330
70
100
AcDbEntity
  8
0
  6
Continuous
 62
     7
370
    30
100
AcDbLine
 10
4.3701432636
 20
0.815300611
 30
0.0
 11
4.3701432636
 21
0.6760701265
 31
0.0
  0
LINE
  5
77
330
70
100
AcDbEntity
  8
0
  6
Continuous
 62
     7
370
    30
100
AcDbLine
 10
4.3701432636
 20
0.6760701265
 30
0.0
 11
4.6701432636
 21
0.5956853688
 31
0.0
  0
LINE
  5
78
330
70
100
AcDbEntity
  8
0
  6
Continuous
 62
     7
370
    30
100
AcDbLine
 10
4.6701432636
 20
0.5956853688
 30
0.0
 11
4.6701432636
 21
0.8956853688
 31
0.0
  0
LINE
  5
79
330
70
100
AcDbEntity
  8
0
  6
Continuous
 62
     7
370
    30
100
AcDbLine
 10
4.6701432636
 20
0.8956853688
 30
0.0
 11
4.3701432636
 21
0.815300611
 31
0.0
  0
LINE
  5
7A
330
70
100
AcDbEntity
  8
0
  6
CENTERX2
 62
     7
370
     0
100
AcDbLine
 10
3.8032513961
 20
0.7456853688
 30
0.0
 11
4.187035131
 21
0.7456853688
 31
0.0
  0
LINE
  5
7B
330
70
100
AcDbEntity
  8
0
  6
CENTERX2
 62
     7
370
     0
100
AcDbLine
 10
3.9951432636
 20
0.9375772362
 30
0.0
 11
3.9951432636
 21
0.5537935013
 31
0.0
  0
POINT
  5
7C
330
70
100
AcDbEntity
  8
0
  6
Continuous
 62
     7
370
     0
100
AcDbPoint
 10
3.9951432636
 20
0.7456853688
 30
0.0
  0
ENDBLK
  5
72
330
70
100
AcDbEntity
  8
0
100
AcDbBlockEnd
  0
BLOCK
  5
AA
330
A9
100
AcDbEntity
  8
0
100
AcDbBlockBegin
  2
SW_NOTE_0
 70
     0
 10
0.0
 20
0.0
 30
0.0
  3
SW_NOTE_0
  1
SW_NOTE_0
  0
MTEXT
  5
AC
330
A9
100
AcDbEntity
  8
0
  6
Continuous
 62
     0
370
     0
100
AcDbMText
 10
0.78375
 20
0.0773440644
 30
0.0
 40
0.06
 41
0.0
 71
     2
 72
     1
  1
VALUES IN PARENTHESIS ARE CALCULATED
  7
SLDTEXTSTYLE0
 73
     1
 44
1.0
  0
MTEXT
  5
AD
330
A9
100
AcDbEntity
  8
0
  6
Continuous
 62
     0
370
     0
100
AcDbMText
 10
0.7825936818
 20
-0.0220260102
 30
0.0
 40
0.06
 41
0.0
 71
     2
 72
     1
  1
AND MAY CONTAIN ROUNDOFF ERRORS
  7
SLDTEXTSTYLE0
 73
     1
 44
1.0
  0
ENDBLK
  5
AB
330
A9
100
AcDbEntity
  8
0
100
AcDbBlockEnd
  0
BLOCK
  5
B0
330
AF
100
AcDbEntity
  8
0
100
AcDbBlockBegin
  2
SW_NOTE_1
 70
     0
 10
0.0
 20
0.0
 30
0.0
  3
SW_NOTE_1
  1
SW_NOTE_1
  0
MTEXT
  5
B2
330
AF
100
AcDbEntity
  8
0
  6
Continuous
 62
     0
370
     0
100
AcDbMText
 10
0.0
 20
0.1074223116
 30
0.0
 40
0.0833333333
 41
0.0
 71
     1
 72
     1
  1
DRAWING
  7
SLDTEXTSTYLE0
 73
     1
 44
1.0
  0
MTEXT
  5
B3
330
AF
100
AcDbEntity
  8
0
  6
Continuous
 62
     0
370
     0
100
AcDbMText
 10
0.0
 20
-0.0036887981
 30
0.0
 40
0.0833333333
 41
0.0
 71
     1
 72
     1
  1
PROJECTION
  7
SLDTEXTSTYLE0
 73
     1
 44
1.0
  0
ENDBLK
  5
B1
330
AF
100
AcDbEntity
  8
0
100
AcDbBlockEnd
  0
BLOCK
  5
B7
330
B6
100
AcDbEntity
  8
0
100
AcDbBlockBegin
  2
SW_NOTE_2
 70
     0
 10
0.0
 20
0.0
 30
0.0
  3
SW_NOTE_2
  1
SW_NOTE_2
  0
MTEXT
  5
B9
330
B6
100
AcDbEntity
  8
0
  6
Continuous
 62
     0
370
     0
100
AcDbMText
 10
0.0823567708
 20
0.1477056785
 30
0.0
 40
0.1145833333
 41
0.0
 71
     2
 72
     1
  1
%%c
  7
SLDTEXTSTYLE0
 73
     1
 44
1.0
  0
MTEXT
  5
BA
330
B6
100
AcDbEntity
  8
0
  6
Continuous
 62
     0
370
     0
100
AcDbMText
 10
1.2471759303
 20
0.1477056785
 30
0.0
 40
0.1145833333
 41
0.0
 71
     2
 72
     1
  1
2" MOUNTED PLANO-CONVEX
  7
SLDTEXTSTYLE0
 73
     1
 44
1.0
  0
MTEXT
  5
BB
330
B6
100
AcDbEntity
  8
0
  6
Continuous
 62
     0
370
     0
100
AcDbMText
 10
1.1579654396
 20
-0.0050720974
 30
0.0
 40
0.1145833333
 41
0.0
 71
     2
 72
     1
  1
LENS, f=200mm, -UV COAT
  7
SLDTEXTSTYLE0
 73
     1
 44
1.0
  0
ENDBLK
  5
B8
330
B6
100
AcDbEntity
  8
0
100
AcDbBlockEnd
  0
BLOCK
  5
BF
330
BE
100
AcDbEntity
  8
0
100
AcDbBlockBegin
  2
SW_NOTE_3
 70
     0
 10
0.0
 20
0.0
 30
0.0
  3
SW_NOTE_3
  1
SW_NOTE_3
  0
MTEXT
  5
C1
330
BE
100
AcDbEntity
  8
0
  6
Continuous
 62
     0
370
     0
100
AcDbMText
 10
0.986328125
 20
0.1611334675
 30
0.0
 40
0.125
 41
0.0
 71
     2
 72
     1
  1
FOR INFORMATION ONLY
  7
SLDTEXTSTYLE0
 73
     1
 44
1.0
  0
MTEXT
  5
C2
330
BE
100
AcDbEntity
  8
0
  6
Continuous
 62
     0
370
     0
100
AcDbMText
 10
0.999088459
 20
-0.0055331972
 30
0.0
 40
0.125
 41
0.0
 71
     2
 72
     1
  1
NOT FOR MANUFACTURING PURPOSES
  7
SLDTEXTSTYLE0
 73
     1
 44
1.0
  0
ENDBLK
  5
C0
330
BE
100
AcDbEntity
  8
0
100
AcDbBlockEnd
  0
BLOCK
  5
C5
330
C4
100
AcDbEntity
  8
0
100
AcDbBlockBegin
  2
SW_NOTE_4
 70
     0
 10
0.0
 20
0.0
 30
0.0
  3
SW_NOTE_4
  1
SW_NOTE_4
  0
MTEXT
  5
C7
330
C4
100
AcDbEntity
  8
0
  6
Continuous
 62
     0
370
     0
100
AcDbMText
 10
0.0
 20
0.1074223116
 30
0.0
 40
0.0833333333
 41
0.0
 71
     1
 72
     1
  1
NOTES/SPECIFICATIONS:
  7
SLDTEXTSTYLE0
 73
     1
 44
1.0
  0
MTEXT
  5
C8
330
C4
100
AcDbEntity
  8
0
  6
Continuous
 62
     0
370
     0
100
AcDbMText
 10
0.4183921567
 20
-0.1147999079
 30
0.0
 40
0.0833333333
 41
0.0
 71
     1
 72
     1
  1
DESIGN WAVELENGTH: 546nm
  7
SLDTEXTSTYLE0
 73
     1
 44
1.0
  0
MTEXT
  5
C9
330
C4
100
AcDbEntity
  8
0
  6
Continuous
 62
     0
370
     0
100
AcDbMText
 10
0.0
 20
-0.1147999079
 30
0.0
 40
0.0833333333
 41
0.0
 71
     1
 72
     1
  1
1.
  7
SLDTEXTSTYLE0
 73
     1
 44
1.0
  0
MTEXT
  5
CA
330
C4
100
AcDbEntity
  8
0
  6
Continuous
 62
     0
370
     0
100
AcDbMText
 10
0.4183921567
 20
-0.2259110177
 30
0.0
 40
0.0833333333
 41
0.0
 71
     1
 72
     1
  1
FOCAL LENGTH: f=200.0mm
  7
SLDTEXTSTYLE0
 73
     1
 44
1.0
  0
MTEXT
  5
CB
330
C4
100
AcDbEntity
  8
0
  6
Continuous
 62
     0
370
     0
100
AcDbMText
 10
1.8858304981
 20
-0.2259110177
 30
0.0
 40
0.0833333333
 41
0.0
 71
     1
 72
     1
  1
%%p
  7
SLDTEXTSTYLE0
 73
     1
 44
1.0
  0
MTEXT
  5
CC
330
C4
100
AcDbEntity
  8
0
  6
Continuous
 62
     0
370
     0
100
AcDbMText
 10
1.9652749536
 20
-0.2259110177
 30
0.0
 40
0.0833333333
 41
0.0
 71
     1
 72
     1
  1
1%
  7
SLDTEXTSTYLE0
 73
     1
 44
1.0
  0
MTEXT
  5
CD
330
C4
100
AcDbEntity
  8
0
  6
Continuous
 62
     0
370
     0
100
AcDbMText
 10
0.0
 20
-0.2259110177
 30
0.0
 40
0.0833333333
 41
0.0
 71
     1
 72
     1
  1
2.
  7
SLDTEXTSTYLE0
 73
     1
 44
1.0
  0
MTEXT
  5
CE
330
C4
100
AcDbEntity
  8
0
  6
Continuous
 62
     0
370
     0
100
AcDbMText
 10
0.4183921567
 20
-0.3370221274
 30
0.0
 40
0.0833333333
 41
0.0
 71
     1
 72
     1
  1
WORKING DISTANCE (REF): 191.7mm
  7
SLDTEXTSTYLE0
 73
     1
 44
1.0
  0
MTEXT
  5
CF
330
C4
100
AcDbEntity
  8
0
  6
Continuous
 62
     0
370
     0
100
AcDbMText
 10
0.0
 20
-0.3370221274
 30
0.0
 40
0.0833333333
 41
0.0
 71
     1
 72
     1
  1
3.
  7
SLDTEXTSTYLE0
 73
     1
 44
1.0
  0
MTEXT
  5
D0
330
C4
100
AcDbEntity
  8
0
  6
Continuous
 62
     0
370
     0
100
AcDbMText
 10
0.4183921567
 20
-0.4481332372
 30
0.0
 40
0.0833333333
 41
0.0
 71
     1
 72
     1
  1
CLEAR APERTURE: >
  7
SLDTEXTSTYLE0
 73
     1
 44
1.0
  0
MTEXT
  5
D1
330
C4
100
AcDbEntity
  8
0
  6
Continuous
 62
     0
370
     0
100
AcDbMText
 10
1.4507996036
 20
-0.4481332372
 30
0.0
 40
0.0833333333
 41
0.0
 71
     1
 72
     1
  1
%%c
  7
SLDTEXTSTYLE0
 73
     1
 44
1.0
  0
MTEXT
  5
D2
330
C4
100
AcDbEntity
  8
0
  6
Continuous
 62
     0
370
     0
100
AcDbMText
 10
1.5765865971
 20
-0.4481332372
 30
0.0
 40
0.0833333333
 41
0.0
 71
     1
 72
     1
  1
45.72mm
  7
SLDTEXTSTYLE0
 73
     1
 44
1.0
  0
MTEXT
  5
D3
330
C4
100
AcDbEntity
  8
0
  6
Continuous
 62
     0
370
     0
100
AcDbMText
 10
0.0
 20
-0.4481332372
 30
0.0
 40
0.0833333333
 41
0.0
 71
     1
 72
     1
  1
4.
  7
SLDTEXTSTYLE0
 73
     1
 44
1.0
  0
MTEXT
  5
D4
330
C4
100
AcDbEntity
  8
0
  6
Continuous
 62
     0
370
     0
100
AcDbMText
 10
0.4183921567
 20
-0.559244347
 30
0.0
 40
0.0833333333
 41
0.0
 71
     1
 72
     1
  1
SURFACE QUALITY: 40-20 SCRATCH-DIG
  7
SLDTEXTSTYLE0
 73
     1
 44
1.0
  0
MTEXT
  5
D5
330
C4
100
AcDbEntity
  8
0
  6
Continuous
 62
     0
370
     0
100
AcDbMText
 10
0.0
 20
-0.559244347
 30
0.0
 40
0.0833333333
 41
0.0
 71
     1
 72
     1
  1
5.
  7
SLDTEXTSTYLE0
 73
     1
 44
1.0
  0
MTEXT
  5
D6
330
C4
100
AcDbEntity
  8
0
  6
Continuous
 62
     0
370
     0
100
AcDbMText
 10
0.4183921567
 20
-0.6703554567
 30
0.0
 40
0.0833333333
 41
0.0
 71
     1
 72
     1
  1
COATING: BBAR Ravg<0.5% FROM 245-400nm, AOI: 0°,
  7
SLDTEXTSTYLE0
 73
     1
 44
1.0
  0
MTEXT
  5
D7
330
C4
100
AcDbEntity
  8
0
  6
Continuous
 62
     0
370
     0
100
AcDbMText
 10
0.0
 20
-0.6703554567
 30
0.0
 40
0.0833333333
 41
0.0
 71
     1
 72
     1
  1
6.
  7
SLDTEXTSTYLE0
 73
     1
 44
1.0
  0
MTEXT
  5
D8
330
C4
100
AcDbEntity
  8
0
  6
Continuous
 62
     0
370
     0
100
AcDbMText
 10
0.4249507874
 20
-0.7814665665
 30
0.0
 40
0.0833333333
 41
0.0
 71
     1
 72
     1
  1
ON OUTER OPTICAL SURFACES
  7
SLDTEXTSTYLE0
 73
     1
 44
1.0
  0
ENDBLK
  5
C6
330
C4
100
AcDbEntity
  8
0
100
AcDbBlockEnd
  0
BLOCK
  5
DB
330
DA
100
AcDbEntity
  8
0
100
AcDbBlockBegin
  2
SW_TABLEANNOTATION_0
 70
     0
 10
0.0
 20
0.0
 30
0.0
  3
SW_TABLEANNOTATION_0
  1
SW_TABLEANNOTATION_0
  0
LINE
  5
DD
330
DA
100
AcDbEntity
  8
0
  6
Continuous
 62
     0
370
     0
100
AcDbLine
 10
0.0
 20
0.0
 30
0.0
 11
0.0
 21
-1.2444444391
 31
0.0
  0
LINE
  5
DE
330
DA
100
AcDbEntity
  8
0
  6
Continuous
 62
     0
370
     0
100
AcDbLine
 10
0.0
 20
-1.2444444391
 30
0.0
 11
3.3
 21
-1.2444444391
 31
0.0
  0
LINE
  5
DF
330
DA
100
AcDbEntity
  8
0
  6
Continuous
 62
     0
370
     0
100
AcDbLine
 10
3.3
 20
-1.2444444391
 30
0.0
 11
3.3
 21
0.0
 31
0.0
  0
LINE
  5
E0
330
DA
100
AcDbEntity
  8
0
  6
Continuous
 62
     0
370
     0
100
AcDbLine
 10
3.3
 20
0.0
 30
0.0
 11
0.0
 21
0.0
 31
0.0
  0
LINE
  5
E1
330
DA
100
AcDbEntity
  8
0
  6
Continuous
 62
     0
370
     0
100
AcDbLine
 10
1.1
 20
0.0
 30
0.0
 11
1.1
 21
-1.2444444391
 31
0.0
  0
LINE
  5
E2
330
DA
100
AcDbEntity
  8
0
  6
Continuous
 62
     0
370
     0
100
AcDbLine
 10
2.2
 20
0.0
 30
0.0
 11
2.2
 21
-1.2444444391
 31
0.0
  0
LINE
  5
E3
330
DA
100
AcDbEntity
  8
0
  6
Continuous
 62
     0
370
     0
100
AcDbLine
 10
0.0
 20
-0.3111111098
 30
0.0
 11
3.3
 21
-0.3111111098
 31
0.0
  0
LINE
  5
E4
330
DA
100
AcDbEntity
  8
0
  6
Continuous
 62
     0
370
     0
100
AcDbLine
 10
0.0
 20
-0.6222222195
 30
0.0
 11
3.3
 21
-0.6222222195
 31
0.0
  0
LINE
  5
E5
330
DA
100
AcDbEntity
  8
0
  6
Continuous
 62
     0
370
     0
100
AcDbLine
 10
0.0
 20
-0.9333333293
 30
0.0
 11
3.3
 21
-0.9333333293
 31
0.0
  0
MTEXT
  5
E6
330
DA
100
AcDbEntity
  8
0
  6
Continuous
 62
     0
370
     0
100
AcDbMText
 10
1.1543981952
 20
-0.1141206209
 30
0.0
 40
0.0833333333
 41
0.0
 71
     1
 72
     1
  1
PART DESCRIPTION
  7
SLDTEXTSTYLE0
 73
     1
 44
1.0
  0
MTEXT
  5
E7
330
DA
100
AcDbEntity
  8
0
  6
Continuous
 62
     0
370
     0
100
AcDbMText
 10
2.491203698
 20
-0.1141206209
 30
0.0
 40
0.0833333333
 41
0.0
 71
     1
 72
     1
  1
MATERIAL
  7
SLDTEXTSTYLE0
 73
     1
 44
1.0
  0
INSERT
  5
ED
330
DA
100
AcDbEntity
  8
0
  6
Continuous
 62
     0
370
     0
100
AcDbBlockReference
  2
SW_SYMBOL_C#_1
 10
0.4374537001
 20
-0.5210980527
 30
0.0
 41
0.0027037109
 42
0.0027037109
 43
0.0027037109
  0
MTEXT
  5
EE
330
DA
100
AcDbEntity
  8
0
  6
Continuous
 62
     0
370
     0
100
AcDbMText
 10
1.4729938215
 20
-0.4252317307
 30
0.0
 40
0.0833333333
 41
0.0
 71
     1
 72
     1
  1
SM2RR
  7
SLDTEXTSTYLE0
 73
     1
 44
1.0
  0
MTEXT
  5
EF
330
DA
100
AcDbEntity
  8
0
  6
Continuous
 62
     0
370
     0
100
AcDbMText
 10
2.4676697448
 20
-0.3696761758
 30
0.0
 40
0.0833333333
 41
0.0
 71
     1
 72
     1
  1
ANODIZED
  7
SLDTEXTSTYLE0
 73
     1
 44
1.0
  0
MTEXT
  5
F0
330
DA
100
AcDbEntity
  8
0
  6
Continuous
 62
     0
370
     0
100
AcDbMText
 10
2.4546296155
 20
-0.4807872855
 30
0.0
 40
0.0833333333
 41
0.0
 71
     1
 72
     1
  1
ALUMINUM
  7
SLDTEXTSTYLE0
 73
     1
 44
1.0
  0
INSERT
  5
F6
330
DA
100
AcDbEntity
  8
0
  6
Continuous
 62
     0
370
     0
100
AcDbBlockReference
  2
SW_SYMBOL_C#_2
 10
0.4374537001
 20
-0.8322091625
 30
0.0
 41
0.0027037109
 42
0.0027037109
 43
0.0027037109
  0
MTEXT
  5
F7
330
DA
100
AcDbEntity
  8
0
  6
Continuous
 62
     0
370
     0
100
AcDbMText
 10
1.3662037001
 20
-0.7363428404
 30
0.0
 40
0.0833333333
 41
0.0
 71
     1
 72
     1
  1
LA4984-UV
  7
SLDTEXTSTYLE0
 73
     1
 44
1.0
  0
MTEXT
  5
F8
330
DA
100
AcDbEntity
  8
0
  6
Continuous
 62
     0
370
     0
100
AcDbMText
 10
2.3169753357
 20
-0.7363428404
 30
0.0
 40
0.0833333333
 41
0.0
 71
     1
 72
     1
  1
UV FUSED SILICA
  7
SLDTEXTSTYLE0
 73
     1
 44
1.0
  0
INSERT
  5
FE
330
DA
100
AcDbEntity
  8
0
  6
Continuous
 62
     0
370
     0
100
AcDbBlockReference
  2
SW_SYMBOL_C#_3
 10
0.4374537001
 20
-1.1433202723
 30
0.0
 41
0.0027037109
 42
0.0027037109
 43
0.0027037109
  0
MTEXT
  5
FF
330
DA
100
AcDbEntity
  8
0
  6
Continuous
 62
     0
370
     0
100
AcDbMText
 10
1.3456018548
 20
-0.9918983953
 30
0.0
 40
0.0833333333
 41
0.0
 71
     1
 72
     1
  1
ENGRAVED
  7
SLDTEXTSTYLE0
 73
     1
 44
1.0
  0
MTEXT
  5
100
330
DA
100
AcDbEntity
  8
0
  6
Continuous
 62
     0
370
     0
100
AcDbMText
 10
1.3975308615
 20
-1.1030095051
 30
0.0
 40
0.0833333333
 41
0.0
 71
     1
 72
     1
  1
HOUSING
  7
SLDTEXTSTYLE0
 73
     1
 44
1.0
  0
MTEXT
  5
101
330
DA
100
AcDbEntity
  8
0
  6
Continuous
 62
     0
370
     0
100
AcDbMText
 10
2.4676697448
 20
-0.9918983953
 30
0.0
 40
0.0833333333
 41
0.0
 71
     1
 72
     1
  1
ANODIZED
  7
SLDTEXTSTYLE0
 73
     1
 44
1.0
  0
MTEXT
  5
102
330
DA
100
AcDbEntity
  8
0
  6
Continuous
 62
     0
370
     0
100
AcDbMText
 10
2.4546296155
 20
-1.1030095051
 30
0.0
 40
0.0833333333
 41
0.0
 71
     1
 72
     1
  1
ALUMINUM
  7
SLDTEXTSTYLE0
 73
     1
 44
1.0
  0
ENDBLK
  5
DC
330
DA
100
AcDbEntity
  8
0
100
AcDbBlockEnd
  0
BLOCK
  5
E9
330
E8
100
AcDbEntity
  8
0
100
AcDbBlockBegin
  2
SW_SYMBOL_C#_1
 70
     0
 10
0.0
 20
0.0
 30
0.0
  3
SW_SYMBOL_C#_1
  1
SW_SYMBOL_C#_1
  0
CIRCLE
  5
EB
330
E8
100
AcDbEntity
  8
0
  6
Continuous
 62
     0
370
     0
100
AcDbCircle
 10
31.4960629921
 20
19.6850393701
 30
0.0
 40
31.49606299212599
  0
MTEXT
  5
EC
330
E8
100
AcDbEntity
  8
0
  6
Continuous
 62
     0
370
     0
100
AcDbMText
 10
31.4960629921
 20
19.6850393701
 30
0.0
 40
30.821835344
 41
0.0
 71
     5
 72
     1
  1
1
  7
SLDTEXTSTYLE0
 73
     1
 44
1.0
  0
ENDBLK
  5
EA
330
E8
100
AcDbEntity
  8
0
100
AcDbBlockEnd
  0
BLOCK
  5
F2
330
F1
100
AcDbEntity
  8
0
100
AcDbBlockBegin
  2
SW_SYMBOL_C#_2
 70
     0
 10
0.0
 20
0.0
 30
0.0
  3
SW_SYMBOL_C#_2
  1
SW_SYMBOL_C#_2
  0
CIRCLE
  5
F4
330
F1
100
AcDbEntity
  8
0
  6
Continuous
 62
     0
370
     0
100
AcDbCircle
 10
31.4960629921
 20
19.6850393701
 30
0.0
 40
31.49606299212599
  0
MTEXT
  5
F5
330
F1
100
AcDbEntity
  8
0
  6
Continuous
 62
     0
370
     0
100
AcDbMText
 10
31.4960629921
 20
19.6850393701
 30
0.0
 40
30.821835344
 41
0.0
 71
     5
 72
     1
  1
2
  7
SLDTEXTSTYLE0
 73
     1
 44
1.0
  0
ENDBLK
  5
F3
330
F1
100
AcDbEntity
  8
0
100
AcDbBlockEnd
  0
BLOCK
  5
FA
330
F9
100
AcDbEntity
  8
0
100
AcDbBlockBegin
  2
SW_SYMBOL_C#_3
 70
     0
 10
0.0
 20
0.0
 30
0.0
  3
SW_SYMBOL_C#_3
  1
SW_SYMBOL_C#_3
  0
CIRCLE
  5
FC
330
F9
100
AcDbEntity
  8
0
  6
Continuous
 62
     0
370
     0
100
AcDbCircle
 10
31.4960629921
 20
19.6850393701
 30
0.0
 40
31.49606299212599
  0
MTEXT
  5
FD
330
F9
100
AcDbEntity
  8
0
  6
Continuous
 62
     0
370
     0
100
AcDbMText
 10
31.4960629921
 20
19.6850393701
 30
0.0
 40
30.821835344
 41
0.0
 71
     5
 72
     1
  1
3
  7
SLDTEXTSTYLE0
 73
     1
 44
1.0
  0
ENDBLK
  5
FB
330
F9
100
AcDbEntity
  8
0
100
AcDbBlockEnd
  0
BLOCK
  5
11F
330
11E
100
AcDbEntity
  8
0
100
AcDbBlockBegin
  2
_D
 70
     0
 10
0.0
 20
0.0
 30
0.0
  3
_D
  1
_D
  0
SOLID
  5
121
330
11E
100
AcDbEntity
  8
0
  6
Continuous
 62
     7
370
     0
100
AcDbTrace
 10
3.2909586738
 20
5.2715652336
 30
0.0
 11
3.3707791819
 21
5.3698184091
 31
0.0
 12
3.3361381657
 22
5.3898184091
 32
0.0
 13
3.3361381657
 23
5.3898184091
 33
0.0
  0
LINE
  5
122
330
11E
100
AcDbEntity
  8
0
  6
Continuous
 62
     7
370
     0
100
AcDbLine
 10
3.7392478513
 20
5.6690164783
 30
0.0
 11
3.7223497032
 21
5.6690164783
 31
0.0
  0
LINE
  5
123
330
11E
100
AcDbEntity
  8
0
  6
Continuous
 62
     7
370
     0
100
AcDbLine
 10
3.7223497032
 20
5.6690164783
 30
0.0
 11
3.7223497032
 21
5.5366090738
 31
0.0
  0
LINE
  5
124
330
11E
100
AcDbEntity
  8
0
  6
Continuous
 62
     7
370
     0
100
AcDbLine
 10
3.7223497032
 20
5.5366090738
 30
0.0
 11
3.7392478513
 21
5.5366090738
 31
0.0
  0
LINE
  5
125
330
11E
100
AcDbEntity
  8
0
  6
Continuous
 62
     7
370
     0
100
AcDbLine
 10
4.205258671
 20
5.6690164783
 30
0.0
 11
4.222156819
 21
5.6690164783
 31
0.0
  0
LINE
  5
126
330
11E
100
AcDbEntity
  8
0
  6
Continuous
 62
     7
370
     0
100
AcDbLine
 10
4.222156819
 20
5.6690164783
 30
0.0
 11
4.222156819
 21
5.5366090738
 31
0.0
  0
LINE
  5
127
330
11E
100
AcDbEntity
  8
0
  6
Continuous
 62
     7
370
     0
100
AcDbLine
 10
4.222156819
 20
5.5366090738
 30
0.0
 11
4.205258671
 21
5.5366090738
 31
0.0
  0
LINE
  5
128
330
11E
100
AcDbEntity
  8
0
  6
Continuous
 62
     7
370
     0
100
AcDbLine
 10
3.2909586738
 20
5.2715652336
 30
0.0
 11
3.5596760919
 21
5.7369974547
 31
0.0
  0
LINE
  5
129
330
11E
100
AcDbEntity
  8
0
  6
Continuous
 62
     7
370
     0
100
AcDbLine
 10
3.5596760919
 20
5.7369974547
 30
0.0
 11
3.7096760919
 21
5.7369974547
 31
0.0
  0
MTEXT
  5
12A
330
11E
100
AcDbEntity
  8
0
  6
Continuous
 62
     7
370
     0
100
AcDbMText
 10
3.7096760919
 20
5.7933369369
 30
0.0
 40
0.0833333333
 41
0.0
 71
     1
 72
     1
  1
%%c
  7
SLDTEXTSTYLE0
 73
     1
 44
1.0
  0
MTEXT
  5
12B
330
11E
100
AcDbEntity
  8
0
  6
Continuous
 62
     7
370
     0
100
AcDbMText
 10
3.8354631313
 20
5.7933369369
 30
0.0
 40
0.0833333333
 41
0.0
 71
     1
 72
     1
  1
2.20in
  7
SLDTEXTSTYLE0
 73
     1
 44
1.0
  0
MTEXT
  5
12C
330
11E
100
AcDbEntity
  8
0
  6
Continuous
 62
     7
370
     0
100
AcDbMText
 10
3.7603705371
 20
5.6440313808
 30
0.0
 40
0.0833333333
 41
0.0
 71
     1
 72
     1
  1
55.9mm
  7
SLDTEXTSTYLE0
 73
     1
 44
1.0
  0
ENDBLK
  5
120
330
11E
100
AcDbEntity
  8
0
100
AcDbBlockEnd
  0
BLOCK
  5
1B0
330
1AF
100
AcDbEntity
  8
0
100
AcDbBlockBegin
  2
_D_1
 70
     0
 10
0.0
 20
0.0
 30
0.0
  3
_D_1
  1
_D_1
  0
SOLID
  5
1B2
330
1AF
100
AcDbEntity
  8
0
  6
Continuous
 62
     7
370
     0
100
AcDbTrace
 10
8.4255740685
 20
5.2689372894
 30
0.0
 11
8.4055740685
 21
5.1439372894
 31
0.0
 12
8.4455740685
 22
5.1439372894
 32
0.0
 13
8.4455740685
 23
5.1439372894
 33
0.0
  0
SOLID
  5
1B3
330
1AF
100
AcDbEntity
  8
0
  6
Continuous
 62
     7
370
     0
100
AcDbTrace
 10
8.4255740685
 20
3.3689372894
 30
0.0
 11
8.4455740685
 21
3.4939372894
 31
0.0
 12
8.4055740685
 22
3.4939372894
 32
0.0
 13
8.4055740685
 23
3.4939372894
 33
0.0
  0
LINE
  5
1B4
330
1AF
100
AcDbEntity
  8
0
  6
Continuous
 62
     7
370
     0
100
AcDbLine
 10
8.1925686678
 20
4.3295854322
 30
0.0
 11
8.1756705198
 21
4.3295854322
 31
0.0
  0
LINE
  5
1B5
330
1AF
100
AcDbEntity
  8
0
  6
Continuous
 62
     7
370
     0
100
AcDbLine
 10
8.1756705198
 20
4.3295854322
 30
0.0
 11
8.1756705198
 21
4.1971780277
 31
0.0
  0
LINE
  5
1B6
330
1AF
100
AcDbEntity
  8
0
  6
Continuous
 62
     7
370
     0
100
AcDbLine
 10
8.1756705198
 20
4.1971780277
 30
0.0
 11
8.1925686678
 21
4.1971780277
 31
0.0
  0
LINE
  5
1B7
330
1AF
100
AcDbEntity
  8
0
  6
Continuous
 62
     7
370
     0
100
AcDbLine
 10
8.6585794875
 20
4.3295854322
 30
0.0
 11
8.6754776356
 21
4.3295854322
 31
0.0
  0
LINE
  5
1B8
330
1AF
100
AcDbEntity
  8
0
  6
Continuous
 62
     7
370
     0
100
AcDbLine
 10
8.6754776356
 20
4.3295854322
 30
0.0
 11
8.6754776356
 21
4.1971780277
 31
0.0
  0
LINE
  5
1B9
330
1AF
100
AcDbEntity
  8
0
  6
Continuous
 62
     7
370
     0
100
AcDbLine
 10
8.6754776356
 20
4.1971780277
 30
0.0
 11
8.6585794875
 21
4.1971780277
 31
0.0
  0
LINE
  5
1BA
330
1AF
100
AcDbEntity
  8
0
  6
Continuous
 62
     7
370
     0
100
AcDbLine
 10
7.6094323362
 20
5.2689372894
 30
0.0
 11
8.4955740685
 21
5.2689372894
 31
0.0
  0
LINE
  5
1BB
330
1AF
100
AcDbEntity
  8
0
  6
Continuous
 62
     7
370
     0
100
AcDbLine
 10
7.6094323362
 20
3.3689372894
 30
0.0
 11
8.4955740685
 21
3.3689372894
 31
0.0
  0
LINE
  5
1BC
330
1AF
100
AcDbEntity
  8
0
  6
Continuous
 62
     7
370
     0
100
AcDbLine
 10
8.4255740685
 20
5.2689372894
 30
0.0
 11
8.4255740685
 21
4.4575946935
 31
0.0
  0
LINE
  5
1BD
330
1AF
100
AcDbEntity
  8
0
  6
Continuous
 62
     7
370
     0
100
AcDbLine
 10
8.4255740685
 20
3.3689372894
 30
0.0
 11
8.4255740685
 21
4.1802798854
 31
0.0
  0
MTEXT
  5
1BE
330
1AF
100
AcDbEntity
  8
0
  6
Continuous
 62
     7
370
     0
100
AcDbMText
 10
8.2099799324
 20
4.4539058908
 30
0.0
 40
0.0833333333
 41
0.0
 71
     1
 72
     1
  1
%%c
  7
SLDTEXTSTYLE0
 73
     1
 44
1.0
  0
MTEXT
  5
1BF
330
1AF
100
AcDbEntity
  8
0
  6
Continuous
 62
     7
370
     0
100
AcDbMText
 10
8.3357669718
 20
4.4539058908
 30
0.0
 40
0.0833333333
 41
0.0
 71
     1
 72
     1
  1
1.90in
  7
SLDTEXTSTYLE0
 73
     1
 44
1.0
  0
MTEXT
  5
1C0
330
1AF
100
AcDbEntity
  8
0
  6
Continuous
 62
     7
370
     0
100
AcDbMText
 10
8.2136913537
 20
4.3046003347
 30
0.0
 40
0.0833333333
 41
0.0
 71
     1
 72
     1
  1
48.3mm
  7
SLDTEXTSTYLE0
 73
     1
 44
1.0
  0
ENDBLK
  5
1B1
330
1AF
100
AcDbEntity
  8
0
100
AcDbBlockEnd
  0
BLOCK
  5
1C4
330
1C3
100
AcDbEntity
  8
0
100
AcDbBlockBegin
  2
_D_2
 70
     0
 10
0.0
 20
0.0
 30
0.0
  3
_D_2
  1
_D_2
  0
SOLID
  5
1C6
330
1C3
100
AcDbEntity
  8
0
  6
Continuous
 62
     7
370
     0
100
AcDbTrace
 10
7.4394323362
 20
5.5668437363
 30
0.0
 11
7.3144323362
 21
5.5868437363
 31
0.0
 12
7.3144323362
 22
5.5468437363
 32
0.0
 13
7.3144323362
 23
5.5468437363
 33
0.0
  0
SOLID
  5
1C7
330
1C3
100
AcDbEntity
  8
0
  6
Continuous
 62
     7
370
     0
100
AcDbTrace
 10
7.5594323362
 20
5.5668437363
 30
0.0
 11
7.6844323362
 21
5.5468437363
 31
0.0
 12
7.6844323362
 22
5.5868437363
 32
0.0
 13
7.6844323362
 23
5.5868437363
 33
0.0
  0
LINE
  5
1C8
330
1C3
100
AcDbEntity
  8
0
  6
Continuous
 62
     7
370
     0
100
AcDbLine
 10
8.2233557172
 20
5.5668437271
 30
0.0
 11
8.2064575691
 21
5.5668437271
 31
0.0
  0
LINE
  5
1C9
330
1C3
100
AcDbEntity
  8
0
  6
Continuous
 62
     7
370
     0
100
AcDbLine
 10
8.2064575691
 20
5.5668437271
 30
0.0
 11
8.2064575691
 21
5.4344363225
 31
0.0
  0
LINE
  5
1CA
330
1C3
100
AcDbEntity
  8
0
  6
Continuous
 62
     7
370
     0
100
AcDbLine
 10
8.2064575691
 20
5.4344363225
 30
0.0
 11
8.2233557172
 21
5.4344363225
 31
0.0
  0
LINE
  5
1CB
330
1C3
100
AcDbEntity
  8
0
  6
Continuous
 62
     7
370
     0
100
AcDbLine
 10
8.6277924382
 20
5.5668437271
 30
0.0
 11
8.6446905862
 21
5.5668437271
 31
0.0
  0
LINE
  5
1CC
330
1C3
100
AcDbEntity
  8
0
  6
Continuous
 62
     7
370
     0
100
AcDbLine
 10
8.6446905862
 20
5.5668437271
 30
0.0
 11
8.6446905862
 21
5.4344363225
 31
0.0
  0
LINE
  5
1CD
330
1C3
100
AcDbEntity
  8
0
  6
Continuous
 62
     7
370
     0
100
AcDbLine
 10
8.6446905862
 20
5.4344363225
 30
0.0
 11
8.6277924382
 21
5.4344363225
 31
0.0
  0
LINE
  5
1CE
330
1C3
100
AcDbEntity
  8
0
  6
Continuous
 62
     7
370
     0
100
AcDbLine
 10
7.4394323362
 20
5.4589372894
 30
0.0
 11
7.4394323362
 21
5.6368437363
 31
0.0
  0
LINE
  5
1CF
330
1C3
100
AcDbEntity
  8
0
  6
Continuous
 62
     7
370
     0
100
AcDbLine
 10
7.5594323362
 20
5.3691167813
 30
0.0
 11
7.5594323362
 21
5.6368437363
 31
0.0
  0
LINE
  5
1D0
330
1C3
100
AcDbEntity
  8
0
  6
Continuous
 62
     7
370
     0
100
AcDbLine
 10
7.4394323362
 20
5.5668437363
 30
0.0
 11
7.1894323362
 21
5.5668437363
 31
0.0
  0
LINE
  5
1D1
330
1C3
100
AcDbEntity
  8
0
  6
Continuous
 62
     7
370
     0
100
AcDbLine
 10
7.5594323362
 20
5.5668437363
 30
0.0
 11
8.1154696986
 21
5.5668437363
 31
0.0
  0
MTEXT
  5
1D2
330
1C3
100
AcDbEntity
  8
0
  6
Continuous
 62
     7
370
     0
100
AcDbMText
 10
8.1948642057
 20
5.6911641856
 30
0.0
 40
0.0833333333
 41
0.0
 71
     1
 72
     1
  1

  7
SLDTEXTSTYLE0
 73
     1
 44
1.0
  0
MTEXT
  5
1D3
330
1C3
100
AcDbEntity
  8
0
  6
Continuous
 62
     7
370
     0
100
AcDbMText
 10
8.2728734475
 20
5.6911641856
 30
0.0
 40
0.0833333333
 41
0.0
 71
     1
 72
     1
  1
0.12in
  7
SLDTEXTSTYLE0
 73
     1
 44
1.0
  0
MTEXT
  5
1D4
330
1C3
100
AcDbEntity
  8
0
  6
Continuous
 62
     7
370
     0
100
AcDbMText
 10
8.244478403
 20
5.5418586296
 30
0.0
 40
0.0833333333
 41
0.0
 71
     1
 72
     1
  1
3.0mm
  7
SLDTEXTSTYLE0
 73
     1
 44
1.0
  0
MTEXT
  5
1D5
330
1C3
100
AcDbEntity
  8
0
  6
Continuous
 62
     7
370
     0
100
AcDbMText
 10
8.7198641609
 20
5.6911641856
 30
0.0
 40
0.0833333333
 41
0.0
 71
     1
 72
     1
  1

  7
SLDTEXTSTYLE0
 73
     1
 44
1.0
  0
ENDBLK
  5
1C5
330
1C3
100
AcDbEntity
  8
0
100
AcDbBlockEnd
  0
BLOCK
  5
1D8
330
1D7
100
AcDbEntity
  8
0
100
AcDbBlockBegin
  2
_D_3
 70
     0
 10
0.0
 20
0.0
 30
0.0
  3
_D_3
  1
_D_3
  0
SOLID
  5
1DA
330
1D7
100
AcDbEntity
  8
0
  6
Continuous
 62
     7
370
     0
100
AcDbTrace
 10
7.5594323362
 20
6.0187579386
 30
0.0
 11
7.6844323362
 21
5.9987579386
 31
0.0
 12
7.6844323362
 22
6.0387579386
 32
0.0
 13
7.6844323362
 23
6.0387579386
 33
0.0
  0
SOLID
  5
1DB
330
1D7
100
AcDbEntity
  8
0
  6
Continuous
 62
     7
370
     0
100
AcDbTrace
 10
7.0494323362
 20
6.0187579386
 30
0.0
 11
6.9244323362
 21
6.0387579386
 31
0.0
 12
6.9244323362
 22
5.9987579386
 32
0.0
 13
6.9244323362
 23
5.9987579386
 33
0.0
  0
LINE
  5
1DC
330
1D7
100
AcDbEntity
  8
0
  6
Continuous
 62
     7
370
     0
100
AcDbLine
 10
8.1925686495
 20
6.0187579294
 30
0.0
 11
8.1756705015
 21
6.0187579294
 31
0.0
  0
LINE
  5
1DD
330
1D7
100
AcDbEntity
  8
0
  6
Continuous
 62
     7
370
     0
100
AcDbLine
 10
8.1756705015
 20
6.0187579294
 30
0.0
 11
8.1756705015
 21
5.8863505249
 31
0.0
  0
LINE
  5
1DE
330
1D7
100
AcDbEntity
  8
0
  6
Continuous
 62
     7
370
     0
100
AcDbLine
 10
8.1756705015
 20
5.8863505249
 30
0.0
 11
8.1925686495
 21
5.8863505249
 31
0.0
  0
LINE
  5
1DF
330
1D7
100
AcDbEntity
  8
0
  6
Continuous
 62
     7
370
     0
100
AcDbLine
 10
8.6585794692
 20
6.0187579294
 30
0.0
 11
8.6754776172
 21
6.0187579294
 31
0.0
  0
LINE
  5
1E0
330
1D7
100
AcDbEntity
  8
0
  6
Continuous
 62
     7
370
     0
100
AcDbLine
 10
8.6754776172
 20
6.0187579294
 30
0.0
 11
8.6754776172
 21
5.8863505249
 31
0.0
  0
LINE
  5
1E1
330
1D7
100
AcDbEntity
  8
0
  6
Continuous
 62
     7
370
     0
100
AcDbLine
 10
8.6754776172
 20
5.8863505249
 30
0.0
 11
8.6585794692
 21
5.8863505249
 31
0.0
  0
LINE
  5
1E2
330
1D7
100
AcDbEntity
  8
0
  6
Continuous
 62
     7
370
     0
100
AcDbLine
 10
7.5594323362
 20
5.3691167813
 30
0.0
 11
7.5594323362
 21
6.0887579386
 31
0.0
  0
LINE
  5
1E3
330
1D7
100
AcDbEntity
  8
0
  6
Continuous
 62
     7
370
     0
100
AcDbLine
 10
7.0494323362
 20
5.4589372894
 30
0.0
 11
7.0494323362
 21
6.0887579386
 31
0.0
  0
LINE
  5
1E4
330
1D7
100
AcDbEntity
  8
0
  6
Continuous
 62
     7
370
     0
100
AcDbLine
 10
7.5594323362
 20
6.0187579386
 30
0.0
 11
8.0846826309
 21
6.0187579386
 31
0.0
  0
LINE
  5
1E5
330
1D7
100
AcDbEntity
  8
0
  6
Continuous
 62
     7
370
     0
100
AcDbLine
 10
7.0494323362
 20
6.0187579386
 30
0.0
 11
6.7994323362
 21
6.0187579386
 31
0.0
  0
MTEXT
  5
1E6
330
1D7
100
AcDbEntity
  8
0
  6
Continuous
 62
     7
370
     0
100
AcDbMText
 10
8.164077138
 20
6.143078388
 30
0.0
 40
0.0833333333
 41
0.0
 71
     1
 72
     1
  1

  7
SLDTEXTSTYLE0
 73
     1
 44
1.0
  0
MTEXT
  5
1E7
330
1D7
100
AcDbEntity
  8
0
  6
Continuous
 62
     7
370
     0
100
AcDbMText
 10
8.2728734292
 20
6.143078388
 30
0.0
 40
0.0833333333
 41
0.0
 71
     1
 72
     1
  1
0.51in
  7
SLDTEXTSTYLE0
 73
     1
 44
1.0
  0
MTEXT
  5
1E8
330
1D7
100
AcDbEntity
  8
0
  6
Continuous
 62
     7
370
     0
100
AcDbMText
 10
8.2136913354
 20
5.9937728319
 30
0.0
 40
0.0833333333
 41
0.0
 71
     1
 72
     1
  1
13.0mm
  7
SLDTEXTSTYLE0
 73
     1
 44
1.0
  0
MTEXT
  5
1E9
330
1D7
100
AcDbEntity
  8
0
  6
Continuous
 62
     7
370
     0
100
AcDbMText
 10
8.7506512285
 20
6.143078388
 30
0.0
 40
0.0833333333
 41
0.0
 71
     1
 72
     1
  1

  7
SLDTEXTSTYLE0
 73
     1
 44
1.0
  0
ENDBLK
  5
1D9
330
1D7
100
AcDbEntity
  8
0
100
AcDbBlockEnd
  0
BLOCK
  5
1EB
330
1EA
100
AcDbEntity
  8
0
100
AcDbBlockBegin
  2
SW_NOTE_5
 70
     0
 10
0.0
 20
0.0
 30
0.0
  3
SW_NOTE_5
  1
SW_NOTE_5
  0
MTEXT
  5
1EE
330
1EA
100
AcDbEntity
  8
0
  6
Continuous
 62
     0
370
     0
100
AcDbMText
 10
-2.2724593183
 20
0.0371031448
 30
0.0
 40
0.0833333333
 41
0.0
 71
     1
 72
     1
  1
SM2 (
  7
SLDTEXTSTYLE3
 73
     1
 44
1.0
  0
MTEXT
  5
1EF
330
1EA
100
AcDbEntity
  8
0
  6
Continuous
 62
     0
370
     0
100
AcDbMText
 10
-1.9508543835
 20
0.0371031448
 30
0.0
 40
0.0833333333
 41
0.0
 71
     1
 72
     1
  1
%%c
  7
SLDTEXTSTYLE0
 73
     1
 44
1.0
  0
MTEXT
  5
1F0
330
1EA
100
AcDbEntity
  8
0
  6
Continuous
 62
     0
370
     0
100
AcDbMText
 10
-1.8250673533
 20
0.0371031448
 30
0.0
 40
0.0833333333
 41
0.0
 71
     1
 72
     1
  1
2.035-40) SERIES INTERNAL THREAD
  7
SLDTEXTSTYLE0
 73
     1
 44
1.0
  0
ENDBLK
  5
1EC
330
1EA
100
AcDbEntity
  8
0
100
AcDbBlockEnd
  0
BLOCK
  5
1F5
330
1F4
100
AcDbEntity
  8
0
100
AcDbBlockBegin
  2
SW_NOTE_6
 70
     0
 10
0.0
 20
0.0
 30
0.0
  3
SW_NOTE_6
  1
SW_NOTE_6
  0
MTEXT
  5
1F7
330
1F4
100
AcDbEntity
  8
0
  6
Continuous
 62
     0
370
     0
100
AcDbMText
 10
0.0234203258
 20
0.0382031578
 30
0.0
 40
0.0833333333
 41
0.0
 71
     1
 72
     1
  1
SM2 (
  7
SLDTEXTSTYLE3
 73
     1
 44
1.0
  0
MTEXT
  5
1F8
330
1F4
100
AcDbEntity
  8
0
  6
Continuous
 62
     0
370
     0
100
AcDbMText
 10
0.3450252606
 20
0.0382031578
 30
0.0
 40
0.0833333333
 41
0.0
 71
     1
 72
     1
  1
%%c
  7
SLDTEXTSTYLE0
 73
     1
 44
1.0
  0
MTEXT
  5
1F9
330
1F4
100
AcDbEntity
  8
0
  6
Continuous
 62
     0
370
     0
100
AcDbMText
 10
0.4708122908
 20
0.0382031578
 30
0.0
 40
0.0833333333
 41
0.0
 71
     1
 72
     1
  1
2.035-40) SERIES EXTERNAL THREAD
  7
SLDTEXTSTYLE0
 73
     1
 44
1.0
  0
ENDBLK
  5
1F6
330
1F4
100
AcDbEntity
  8
0
100
AcDbBlockEnd
  0
BLOCK
  5
1FD
330
1FC
100
AcDbEntity
  8
0
100
AcDbBlockBegin
  2
SW_NOTE_7
 70
     0
 10
0.0
 20
0.0
 30
0.0
  3
SW_NOTE_7
  1
SW_NOTE_7
  0
CIRCLE
  5
1FF
330
1FC
100
AcDbEntity
  8
0
  6
Continuous
 62
     0
370
     0
100
AcDbCircle
 10
-0.1778468128
 20
0.0
 30
0.0
 40
0.1778468128131543
  0
MTEXT
  5
200
330
1FC
100
AcDbEntity
  8
0
  6
Continuous
 62
     0
370
     0
100
AcDbMText
 10
-0.1791054935
 20
0.0644701083
 30
0.0
 40
0.125
 41
0.0
 71
     2
 72
     1
  1
1
  7
SLDTEXTSTYLE0
 73
     1
 44
1.0
  0
ENDBLK
  5
1FE
330
1FC
100
AcDbEntity
  8
0
100
AcDbBlockEnd
  0
BLOCK
  5
204
330
203
100
AcDbEntity
  8
0
100
AcDbBlockBegin
  2
SW_NOTE_8
 70
     0
 10
0.0
 20
0.0
 30
0.0
  3
SW_NOTE_8
  1
SW_NOTE_8
  0
CIRCLE
  5
206
330
203
100
AcDbEntity
  8
0
  6
Continuous
 62
     0
370
     0
100
AcDbCircle
 10
-0.1778468128
 20
0.0
 30
0.0
 40
0.1778468128131545
  0
MTEXT
  5
207
330
203
100
AcDbEntity
  8
0
  6
Continuous
 62
     0
370
     0
100
AcDbMText
 10
-0.1791054935
 20
0.0644701083
 30
0.0
 40
0.125
 41
0.0
 71
     2
 72
     1
  1
3
  7
SLDTEXTSTYLE0
 73
     1
 44
1.0
  0
ENDBLK
  5
205
330
203
100
AcDbEntity
  8
0
100
AcDbBlockEnd
  0
BLOCK
  5
20B
330
20A
100
AcDbEntity
  8
0
100
AcDbBlockBegin
  2
SW_NOTE_9
 70
     0
 10
0.0
 20
0.0
 30
0.0
  3
SW_NOTE_9
  1
SW_NOTE_9
  0
CIRCLE
  5
20D
330
20A
100
AcDbEntity
  8
0
  6
Continuous
 62
     0
370
     0
100
AcDbCircle
 10
0.1778468128
 20
0.0
 30
0.0
 40
0.1778468128131555
  0
MTEXT
  5
20E
330
20A
100
AcDbEntity
  8
0
  6
Continuous
 62
     0
370
     0
100
AcDbMText
 10
0.1765881321
 20
0.0644701083
 30
0.0
 40
0.125
 41
0.0
 71
     2
 72
     1
  1
2
  7
SLDTEXTSTYLE0
 73
     1
 44
1.0
  0
ENDBLK
  5
20C
330
20A
100
AcDbEntity
  8
0
100
AcDbBlockEnd
  0
ENDSEC
  0
SECTION
  2
ENTITIES
  0
LINE
  5
7D
330
1F
100
AcDbEntity
  8
0
  6
Continuous
 62
     7
370
     0
100
AcDbLine
 10
0.0621791378
 20
8.4506055117
 30
0.0
 11
10.9444569626
 21
8.4506055117
 31
0.0
  0
LINE
  5
7E
330
1F
100
AcDbEntity
  8
0
  6
Continuous
 62
     7
370
     0
100
AcDbLine
 10
0.0621791378
 20
8.4506055117
 30
0.0
 11
0.0621791378
 21
0.035557648
 31
0.0
  0
LINE
  5
7F
330
1F
100
AcDbEntity
  8
0
  6
Continuous
 62
     7
370
     0
100
AcDbLine
 10
10.9444569626
 20
0.035557648
 30
0.0
 11
0.0621791378
 21
0.035557648
 31
0.0
  0
LINE
  5
80
330
1F
100
AcDbEntity
  8
0
  6
Continuous
 62
     7
370
     0
100
AcDbLine
 10
10.9444569626
 20
0.035557648
 30
0.0
 11
10.9444569626
 21
8.4506055117
 31
0.0
  0
LINE
  5
81
330
1F
100
AcDbEntity
  8
0
  6
Continuous
 62
     7
370
     0
100
AcDbLine
 10
8.4938096065
 20
0.4840901186
 30
0.0
 11
6.7571952625
 21
0.4840901186
 31
0.0
  0
LINE
  5
82
330
1F
100
AcDbEntity
  8
0
  6
Continuous
 62
     7
370
     0
100
AcDbLine
 10
6.7571952625
 20
0.4840901186
 30
0.0
 11
6.7571952625
 21
1.030163002
 31
0.0
  0
LINE
  5
83
330
1F
100
AcDbEntity
  8
0
  6
Continuous
 62
     7
370
     0
100
AcDbLine
 10
6.7571952625
 20
0.035557648
 30
0.0
 11
6.7571952625
 21
1.030163002
 31
0.0
  0
LINE
  5
84
330
1F
100
AcDbEntity
  8
0
  6
Continuous
 62
     7
370
     0
100
AcDbLine
 10
8.4938096065
 20
0.6756085809
 30
0.0
 11
10.9444569626
 21
0.6756085809
 31
0.0
  0
LINE
  5
85
330
1F
100
AcDbEntity
  8
0
  6
Continuous
 62
     7
370
     0
100
AcDbLine
 10
8.4938096065
 20
1.3873799542
 30
0.0
 11
8.4938096065
 21
0.035557648
 31
0.0
  0
LINE
  5
86
330
1F
100
AcDbEntity
  8
0
  6
Continuous
 62
     7
370
     0
100
AcDbLine
 10
8.4938096065
 20
1.030163002
 30
0.0
 11
6.7571952625
 21
1.030163002
 31
0.0
  0
LINE
  5
87
330
1F
100
AcDbEntity
  8
0
  6
Continuous
 62
     7
370
     0
100
AcDbLine
 10
8.4938096065
 20
0.3598787426
 30
0.0
 11
10.9444569626
 21
0.3598787426
 31
0.0
  0
LINE
  5
88
330
1F
100
AcDbEntity
  8
0
  6
Continuous
 62
     7
370
     0
100
AcDbLine
 10
8.4938096065
 20
0.6662079686
 30
0.0
 11
6.7571952625
 21
0.6662079686
 31
0.0
  0
LINE
  5
89
330
1F
100
AcDbEntity
  8
0
  6
Continuous
 62
     7
370
     0
100
AcDbLine
 10
8.4938096065
 20
0.8459606517
 30
0.0
 11
6.7571952625
 21
0.8459606517
 31
0.0
  0
LINE
  5
8A
330
1F
100
AcDbEntity
  8
0
  6
Continuous
 62
     7
370
     0
100
AcDbLine
 10
7.3281027587
 20
1.030163002
 30
0.0
 11
7.3281027587
 21
0.4840901186
 31
0.0
  0
LINE
  5
8B
330
1F
100
AcDbEntity
  8
0
  6
Continuous
 62
     7
370
     0
100
AcDbLine
 10
7.8037240401
 20
1.030163002
 30
0.0
 11
7.8037240401
 21
0.4840901186
 31
0.0
  0
LINE
  5
8C
330
1F
100
AcDbEntity
  8
0
  6
Continuous
 62
     7
370
     0
100
AcDbLine
 10
9.990119718
 20
0.3598787426
 30
0.0
 11
9.990119718
 21
0.035557648
 31
0.0
  0
LINE
  5
8D
330
1F
100
AcDbEntity
  8
0
  6
Continuous
 62
     7
370
     0
100
AcDbLine
 10
6.7571952625
 20
0.4840901186
 30
0.0
 11
6.7571952625
 21
0.297745443
 31
0.0
  0
LINE
  5
8E
330
1F
100
AcDbEntity
  8
0
  6
Continuous
 62
     7
370
     0
100
AcDbLine
 10
6.7571952625
 20
0.297745443
 30
0.0
 11
8.4938096065
 21
0.297745443
 31
0.0
  0
LINE
  5
8F
330
1F
100
AcDbEntity
  8
0
  6
Continuous
 62
     7
370
     0
100
AcDbLine
 10
6.7571952625
 20
0.297745443
 30
0.0
 11
6.7571952625
 21
1.3873799542
 31
0.0
  0
LINE
  5
90
330
1F
100
AcDbEntity
  8
0
  6
Continuous
 62
     7
370
     0
100
AcDbLine
 10
6.7571952625
 20
1.3873799542
 30
0.0
 11
8.4938096065
 21
1.3873799542
 31
0.0
  0
LINE
  5
91
330
1F
100
AcDbEntity
  8
0
  6
Continuous
 62
     7
370
     0
100
AcDbLine
 10
10.6365495992
 20
0.6756085809
 30
0.0
 11
10.6365495992
 21
0.3598787426
 31
0.0
  0
LINE
  5
92
330
1F
100
AcDbEntity
  8
0
  6
Continuous
 62
     7
370
     0
100
AcDbLine
 10
8.4938096065
 20
1.3873799542
 30
0.0
 11
10.9444569626
 21
1.3873799542
 31
0.0
  0
LINE
  5
93
330
1F
100
AcDbEntity
  8
0
  6
Continuous
 62
     7
370
     0
100
AcDbLine
 10
10.9444569626
 20
1.3873799542
 30
0.0
 11
10.9444569626
 21
1.9698084888
 31
0.0
  0
LINE
  5
94
330
1F
100
AcDbEntity
  8
0
  6
Continuous
 62
     7
370
     0
100
AcDbLine
 10
8.4938096065
 20
0.9800288797
 30
0.0
 11
10.9444569626
 21
0.9800288797
 31
0.0
  0
INSERT
  5
95
330
1F
100
AcDbEntity
  8
0
  6
Continuous
 62
     7
100
AcDbBlockReference
  2
Third Angle Projection Block
 10
4.6348905679
 20
0.6108753523
 30
0.0
 41
0.8
 42
0.8
 43
0.8
  0
MTEXT
  5
97
330
1F
100
AcDbEntity
  8
0
  6
Continuous
 62
     7
370
     0
100
AcDbMText
 10
10.7892734632
 20
0.5227176726
 30
0.0
 40
0.125
 41
0.0
 71
     2
 72
     1
  1
A
  7
SLDTEXTSTYLE0
 73
     1
 44
1.0
  0
MTEXT
  5
98
330
1F
100
AcDbEntity
  8
0
  6
Continuous
 62
     7
370
     0
100
AcDbMText
 10
9.2295315048
 20
0.2019943461
 30
0.0
 40
0.125
 41
0.0
 71
     2
 72
     1
  1
LA4984-UV-ML
  7
SLDTEXTSTYLE0
 73
     1
 44
1.0
  0
MTEXT
  5
99
330
1F
100
AcDbEntity
  8
0
  6
Continuous
 62
     7
370
     0
100
AcDbMText
 10
8.5204715199
 20
0.6623747189
 30
0.0
 40
0.0833333333
 41
0.0
 71
     1
 72
     1
  1
MATERIAL
  7
SLDTEXTSTYLE0
 73
     1
 44
1.0
  0
MTEXT
  5
9A
330
1F
100
AcDbEntity
  8
0
  6
Continuous
 62
     7
370
     0
100
AcDbMText
 10
6.8594860853
 20
0.7895493672
 30
0.0
 40
0.0729166667
 41
0.0
 71
     1
 72
     1
  1
DRAWN
  7
SLDTEXTSTYLE0
 73
     1
 44
1.0
  0
MTEXT
  5
9B
330
1F
100
AcDbEntity
  8
0
  6
Continuous
 62
     7
370
     0
100
AcDbMText
 10
6.7872445848
 20
0.613335314
 30
0.0
 40
0.0729166667
 41
0.0
 71
     1
 72
     1
  1
APPROVAL
  7
SLDTEXTSTYLE0
 73
     1
 44
1.0
  0
MTEXT
  5
9C
330
1F
100
AcDbEntity
  8
0
  6
Continuous
 62
     7
370
     0
100
AcDbMText
 10
10.6936137314
 20
0.6373332609
 30
0.0
 40
0.0833333333
 41
0.0
 71
     1
 72
     1
  1
REV
  7
SLDTEXTSTYLE0
 73
     1
 44
1.0
  0
MTEXT
  5
9D
330
1F
100
AcDbEntity
  8
0
  6
Continuous
 62
     7
370
     0
100
AcDbMText
 10
7.4919633718
 20
0.7999100272
 30
0.0
 40
0.0833333333
 41
0.0
 71
     1
 72
     1
  1
GG
  7
SLDTEXTSTYLE0
 73
     1
 44
1.0
  0
MTEXT
  5
9E
330
1F
100
AcDbEntity
  8
0
  6
Continuous
 62
     7
370
     0
100
AcDbMText
 10
7.4919633718
 20
0.623695974
 30
0.0
 40
0.0833333333
 41
0.0
 71
     1
 72
     1
  1
DD
  7
SLDTEXTSTYLE0
 73
     1
 44
1.0
  0
MTEXT
  5
9F
330
1F
100
AcDbEntity
  8
0
  6
Continuous
 62
     7
370
     0
100
AcDbMText
 10
7.8687497515
 20
0.7999100272
 30
0.0
 40
0.0833333333
 41
0.0
 71
     1
 72
     1
  1
13/OCT/15
  7
SLDTEXTSTYLE0
 73
     1
 44
1.0
  0
MTEXT
  5
A0
330
1F
100
AcDbEntity
  8
0
  6
Continuous
 62
     7
370
     0
100
AcDbMText
 10
8.0163191884
 20
0.9772495896
 30
0.0
 40
0.0833333333
 41
0.0
 71
     1
 72
     1
  1
DATE
  7
SLDTEXTSTYLE0
 73
     1
 44
1.0
  0
MTEXT
  5
A1
330
1F
100
AcDbEntity
  8
0
  6
Continuous
 62
     7
370
     0
100
AcDbMText
 10
7.8687497515
 20
0.623695974
 30
0.0
 40
0.0833333333
 41
0.0
 71
     1
 72
     1
  1
13/OCT/15
  7
SLDTEXTSTYLE0
 73
     1
 44
1.0
  0
MTEXT
  5
A3
330
1F
100
AcDbEntity
  8
0
  6
Continuous
 62
     7
370
     0
100
AcDbMText
 10
9.0316104912
 20
1.0943207896
 30
0.0
 40
0.0833333333
 41
0.0
 71
     1
 72
     1
  1
w w w . t h o r  l a b s . c o m
  7
SLDTEXTSTYLE1
 73
     1
 44
1.0
  0
MTEXT
  5
A4
330
1F
100
AcDbEntity
  8
0
  6
Continuous
 62
     7
370
     0
100
AcDbMText
 10
8.5315119501
 20
0.328719653
 30
0.0
 40
0.0833333333
 41
0.0
 71
     1
 72
     1
  1
ITEM #
  7
SLDTEXTSTYLE0
 73
     1
 44
1.0
  0
MTEXT
  5
A5
330
1F
100
AcDbEntity
  8
0
  6
Continuous
 62
     7
370
     0
100
AcDbMText
 10
10.0209370115
 20
0.328719653
 30
0.0
 40
0.0833333333
 41
0.0
 71
     1
 72
     1
  1
APPROX WEIGHT
  7
SLDTEXTSTYLE0
 73
     1
 44
1.0
  0
MTEXT
  5
A6
330
1F
100
AcDbEntity
  8
0
  6
Continuous
 62
     7
370
     0
100
AcDbMText
 10
9.5949135982
 20
0.5414715262
 30
0.0
 40
0.125
 41
0.0
 71
     2
 72
     1
  1
SEE TABLE
  7
SLDTEXTSTYLE0
 73
     1
 44
1.0
  0
MTEXT
  5
A8
330
1F
100
AcDbEntity
  8
0
  6
Continuous
 62
     7
370
     0
100
AcDbMText
 10
10.4826226539
 20
0.2019943461
 30
0.0
 40
0.125
 41
0.0
 71
     2
 72
     1
  1
35 g
  7
SLDTEXTSTYLE2
 73
     1
 44
1.0
  0
INSERT
  5
AE
330
1F
100
AcDbEntity
  8
0
  6
Continuous
 62
     7
370
     0
100
AcDbBlockReference
  2
SW_NOTE_0
 10
6.8835832285
 20
0.1754273811
 30
0.0
  0
INSERT
  5
B4
330
1F
100
AcDbEntity
  8
0
  6
Continuous
 62
     7
370
     0
100
AcDbBlockReference
  2
SW_NOTE_1
 10
6.8719828753
 20
1.2001390658
 30
0.0
  0
MTEXT
  5
B5
330
1F
100
AcDbEntity
  8
0
  6
Continuous
 62
     7
370
     0
100
AcDbMText
 10
7.3987149145
 20
0.9772495896
 30
0.0
 40
0.0833333333
 41
0.0
 71
     1
 72
     1
  1
NAME
  7
SLDTEXTSTYLE0
 73
     1
 44
1.0
  0
INSERT
  5
BC
330
1F
100
AcDbEntity
  8
0
  6
Continuous
 62
     7
370
     0
100
AcDbBlockReference
  2
SW_NOTE_2
 10
8.5755302951
 20
0.8160048101
 30
0.0
  0
MTEXT
  5
BD
330
1F
100
AcDbEntity
  8
0
  6
Continuous
 62
     7
370
     0
100
AcDbMText
 10
7.0281258754
 20
0.4200025137
 30
0.0
 40
0.0625
 41
0.0
 71
     1
 72
     1
  1
COPYRIGHT © 2015 BY THORLABS
  7
SLDTEXTSTYLE0
 73
     1
 44
1.0
  0
INSERT
  5
C3
330
1F
100
AcDbEntity
  8
0
  6
Continuous
 62
     7
370
     0
100
AcDbBlockReference
  2
SW_NOTE_3
 10
2.1096529316
 20
0.3219551564
 30
0.0
  0
INSERT
  5
D9
330
1F
100
AcDbEntity
  8
0
  6
Continuous
 62
     7
370
     0
100
AcDbBlockReference
  2
SW_NOTE_4
 10
0.2229009106
 20
1.7636814979
 30
0.0
  0
INSERT
  5
103
330
1F
100
AcDbEntity
  8
0
  6
Continuous
 62
     7
370
     0
100
AcDbBlockReference
  2
SW_TABLEANNOTATION_0
 10
0.0612779343
 20
8.4504327236
 30
0.0
  0
ARC
  5
104
330
1F
100
AcDbEntity
  8
0
  6
Continuous
 62
     7
370
     0
100
AcDbCircle
 10
2.7409586738
 20
4.3189372894
 30
0.0
 40
1.000179491924312
100
AcDbArc
 50
180.8593146732
 51
359.1406853268
  0
LINE
  5
105
330
1F
100
AcDbEntity
  8
0
  6
Continuous
 62
     7
370
     0
100
AcDbLine
 10
3.7410256876
 20
4.3039372898
 30
0.0
 11
3.7583480675
 21
4.3039372898
 31
0.0
  0
LINE
  5
106
330
1F
100
AcDbEntity
  8
0
  6
Continuous
 62
     7
370
     0
100
AcDbLine
 10
1.7235692801
 20
4.3039372898
 30
0.0
 11
1.74089166
 21
4.3039372898
 31
0.0
  0
ARC
  5
107
330
1F
100
AcDbEntity
  8
0
  6
Continuous
 62
     7
370
     0
100
AcDbCircle
 10
2.7409586738
 20
4.3189372894
 30
0.0
 40
0.9500000000000001
100
AcDbArc
 50
0.9047077972
 51
179.0952922028
  0
LINE
  5
108
330
1F
100
AcDbEntity
  8
0
  6
Continuous
 62
     7
370
     0
100
AcDbLine
 10
1.7910771136
 20
4.3339372891
 30
0.0
 11
1.7810758824
 21
4.3339372891
 31
0.0
  0
ARC
  5
109
330
1F
100
AcDbEntity
  8
0
  6
Continuous
 62
     7
370
     0
100
AcDbCircle
 10
2.7409586738
 20
4.3189372894
 30
0.0
 40
0.9600000000000009
100
AcDbArc
 50
0.8952829866
 51
179.1047170134
  0
LINE
  5
10A
330
1F
100
AcDbEntity
  8
0
  6
Continuous
 62
     7
370
     0
100
AcDbLine
 10
3.7008414652
 20
4.3339372891
 30
0.0
 11
3.690840234
 21
4.3339372891
 31
0.0
  0
ARC
  5
10B
330
1F
100
AcDbEntity
  8
0
  6
Continuous
 62
     7
370
     0
100
AcDbCircle
 10
2.7409586738
 20
4.3189372894
 30
0.0
 40
1.000179491924312
100
AcDbArc
 50
0.8593146732
 51
179.1406853268
  0
LINE
  5
10C
330
1F
100
AcDbEntity
  8
0
  6
Continuous
 62
     7
370
     0
100
AcDbLine
 10
1.74089166
 20
4.3339372891
 30
0.0
 11
1.7235692801
 21
4.3339372891
 31
0.0
  0
LINE
  5
10D
330
1F
100
AcDbEntity
  8
0
  6
Continuous
 62
     7
370
     0
100
AcDbLine
 10
3.7583480675
 20
4.3339372891
 30
0.0
 11
3.7410256876
 21
4.3339372891
 31
0.0
  0
LINE
  5
10E
330
1F
100
AcDbEntity
  8
0
  6
Continuous
 62
     7
370
     0
100
AcDbLine
 10
1.74089166
 20
4.3039372898
 30
0.0
 11
1.7810758824
 21
4.3039372898
 31
0.0
  0
ARC
  5
10F
330
1F
100
AcDbEntity
  8
0
  6
Continuous
 62
     7
370
     0
100
AcDbCircle
 10
2.7409586738
 20
4.3189372894
 30
0.0
 40
0.9600000000000013
100
AcDbArc
 50
180.8952829866
 51
359.1047170134
  0
LINE
  5
110
330
1F
100
AcDbEntity
  8
0
  6
Continuous
 62
     7
370
     0
100
AcDbLine
 10
3.7008414652
 20
4.3039372898
 30
0.0
 11
3.7410256876
 21
4.3039372898
 31
0.0
  0
LINE
  5
111
330
1F
100
AcDbEntity
  8
0
  6
Continuous
 62
     7
370
     0
100
AcDbLine
 10
1.7810758824
 20
4.3339372891
 30
0.0
 11
1.74089166
 21
4.3339372891
 31
0.0
  0
LINE
  5
112
330
1F
100
AcDbEntity
  8
0
  6
Continuous
 62
     7
370
     0
100
AcDbLine
 10
3.7410256876
 20
4.3339372891
 30
0.0
 11
3.7008414652
 21
4.3339372891
 31
0.0
  0
ARC
  5
113
330
1F
100
AcDbEntity
  8
0
  6
Continuous
 62
     7
370
     0
100
AcDbCircle
 10
2.7409586738
 20
4.3189372894
 30
0.0
 40
0.9500000000000001
100
AcDbArc
 50
180.9047077972
 51
359.0952922028
  0
LINE
  5
114
330
1F
100
AcDbEntity
  8
0
  6
Continuous
 62
     7
370
     0
100
AcDbLine
 10
1.7810758824
 20
4.3039372898
 30
0.0
 11
1.7910771136
 21
4.3039372898
 31
0.0
  0
LINE
  5
115
330
1F
100
AcDbEntity
  8
0
  6
Continuous
 62
     7
370
     0
100
AcDbLine
 10
3.690840234
 20
4.3039372898
 30
0.0
 11
3.7008414652
 21
4.3039372898
 31
0.0
  0
ARC
  5
116
330
1F
100
AcDbEntity
  8
0
  6
Continuous
 62
     7
370
     0
100
AcDbCircle
 10
2.7409586738
 20
4.3189372894
 30
0.0
 40
0.9500000000000001
100
AcDbArc
 50
359.0952922028
 51
0.9047077972
  0
ARC
  5
117
330
1F
100
AcDbEntity
  8
0
  6
Continuous
 62
     7
370
     0
100
AcDbCircle
 10
2.7409586738
 20
4.3189372894
 30
0.0
 40
0.9500000000000001
100
AcDbArc
 50
179.0952922028
 51
180.9047077972
  0
CIRCLE
  5
118
330
1F
100
AcDbEntity
  8
0
  6
Continuous
 62
     7
370
     0
100
AcDbCircle
 10
2.7409586738
 20
4.3189372894
 30
0.0
 40
1.1
  0
CIRCLE
  5
119
330
1F
100
AcDbEntity
  8
0
  6
Continuous
 62
     7
370
     0
100
AcDbCircle
 10
2.7409586738
 20
4.3189372894
 30
0.0
 40
1.090000000000001
  0
CIRCLE
  5
11A
330
1F
100
AcDbEntity
  8
0
  6
Continuous
 62
     7
370
     0
100
AcDbCircle
 10
2.7409586738
 20
4.3189372894
 30
0.0
 40
1.034820508075689
  0
CIRCLE
  5
11B
330
1F
100
AcDbEntity
  8
0
  6
Continuous
 62
     7
370
     0
100
AcDbCircle
 10
2.7409586738
 20
4.3189372894
 30
0.0
 40
1.0175
  0
DIMENSION
  5
11C
330
1F
100
AcDbEntity
  8
0
  6
Continuous
 62
     7
370
     0
100
AcDbDimension
  2
_D
 10
2.1909586738
 20
3.3663093453
 30
0.0
 11
3.972253252
 21
5.7308631968
 31
0.0
 70
   163
  1
<>
 71
     1
 42
-1.0
  3
SLDDIMSTYLE0
100
AcDbDiametricDimension
 15
3.2909586738
 25
5.2715652336
 35
0.0
 40
0.0
  0
LINE
  5
12D
330
1F
100
AcDbEntity
  8
0
  6
PHANTOM
 62
     7
370
    30
100
AcDbLine
 10
2.7409586738
 20
5.7862065323
 30
0.0
 11
2.7409586738
 21
2.8944701041
 31
0.0
  0
LINE
  5
12E
330
1F
100
AcDbEntity
  8
0
  6
Continuous
 62
     7
370
    30
100
AcDbLine
 10
2.7409586738
 20
5.7862065323
 30
0.0
 11
2.359212225
 21
5.7862065323
 31
0.0
  0
SOLID
  5
12F
330
1F
100
AcDbEntity
  8
0
  6
Continuous
 62
     7
370
    30
100
AcDbTrace
 10
2.359212225
 20
5.7862065323
 30
0.0
 11
2.509212225
 21
5.7612065323
 31
0.0
 12
2.509212225
 22
5.8112065323
 32
0.0
 13
2.509212225
 23
5.8112065323
 33
0.0
  0
LINE
  5
130
330
1F
100
AcDbEntity
  8
0
  6
Continuous
 62
     7
370
    30
100
AcDbLine
 10
2.7409586738
 20
2.8944701041
 30
0.0
 11
2.3491364883
 21
2.8944701041
 31
0.0
  0
SOLID
  5
131
330
1F
100
AcDbEntity
  8
0
  6
Continuous
 62
     7
370
    30
100
AcDbTrace
 10
2.3491364883
 20
2.8944701041
 30
0.0
 11
2.4991364883
 21
2.8694701041
 31
0.0
 12
2.4991364883
 22
2.9194701041
 32
0.0
 13
2.4991364883
 23
2.9194701041
 33
0.0
  0
MTEXT
  5
132
330
1F
100
AcDbEntity
  8
0
  6
Continuous
 62
     7
100
AcDbMText
 10
2.1579870095
 20
5.8620525153
 30
0.0
 40
0.1041666667
 41
0.0
 71
     1
 72
     1
  1
A
  7
SLDTEXTSTYLE0
 73
     1
 44
1.0
  0
MTEXT
  5
133
330
1F
100
AcDbEntity
  8
0
  6
Continuous
 62
     7
100
AcDbMText
 10
2.1890816154
 20
2.9677979972
 30
0.0
 40
0.1041666667
 41
0.0
 71
     1
 72
     1
  1
A
  7
SLDTEXTSTYLE0
 73
     1
 44
1.0
  0
LINE
  5
134
330
1F
100
AcDbEntity
  8
0
  6
Continuous
 62
     7
370
     0
100
AcDbLine
 10
9.0357958088
 20
7.5912759741
 30
0.0
 11
9.0357958088
 21
7.583111893
 31
0.0
  0
LINE
  5
135
330
1F
100
AcDbEntity
  8
0
  6
Continuous
 62
     7
370
     0
100
AcDbLine
 10
9.8064169323
 20
6.2482123145
 30
0.0
 11
9.8134868509
 21
6.2441296105
 31
0.0
  0
LINE
  5
136
330
1F
100
AcDbEntity
  8
0
  6
Continuous
 62
     7
370
     0
100
AcDbLine
 10
9.5252874742
 20
8.2459407619
 30
0.0
 11
9.2636579651
 21
8.0949052612
 31
0.0
  0
LINE
  5
137
330
1F
100
AcDbEntity
  8
0
  6
Continuous
 62
     7
370
     0
100
AcDbLine
 10
10.363568571
 20
6.189597764
 30
0.0
 11
10.6251980801
 21
6.3406332647
 31
0.0
  0
LINE
  5
138
330
1F
100
AcDbEntity
  8
0
  6
Continuous
 62
     7
370
     0
100
AcDbLine
 10
10.8530602364
 20
6.8442625518
 30
0.0
 11
10.8530602364
 21
6.8524266329
 31
0.0
  0
LINE
  5
139
330
1F
100
AcDbEntity
  8
0
  6
Continuous
 62
     7
370
     0
100
AcDbLine
 10
10.0824391129
 20
8.1873262114
 30
0.0
 11
10.0753691943
 21
8.1914089154
 31
0.0
  0
LWPOLYLINE
  5
13A
330
1F
100
AcDbEntity
  8
0
  6
Continuous
 62
     7
370
     0
100
AcDbPolyline
 90
       21
 70
   128
 43
0.0
 10
9.4073557155
 20
8.0624865524
 10
9.394053421
 20
8.0548306484
 10
9.3747615767
 20
8.0421979403
 10
9.3563060059
 20
8.0282129081
 10
9.3387160746
 20
8.0128978045
 10
9.3220197717
 20
7.9962769986
 10
9.306243664
 20
7.9783769371
 10
9.2914128542
 20
7.9592261024
 10
9.2775509408
 20
7.9388549667
 10
9.2646799806
 20
7.9172959445
 10
9.2528204537
 20
7.8945833399
 10
9.2419912307
 20
7.8707532928
 10
9.2322095429
 20
7.8458437213
 10
9.2234909548
 20
7.819894261
 10
9.2158493391
 20
7.7929462021
 10
9.2092968552
 20
7.7650424239
 10
9.2038439291
 20
7.7362273265
 10
9.1994992376
 20
7.7065467599
 10
9.1962696937
 20
7.6760479513
 10
9.1941604363
 20
7.6447794299
 10
9.1931748217
 20
7.6127909495
  0
LINE
  5
13B
330
1F
100
AcDbEntity
  8
0
  6
Continuous
 62
     7
370
     0
100
AcDbLine
 10
9.1931748217
 20
7.6127909495
 30
0.0
 11
9.1879970866
 21
7.6239440734
 31
0.0
  0
LWPOLYLINE
  5
13C
330
1F
100
AcDbEntity
  8
0
  6
Continuous
 62
     7
370
     0
100
AcDbPolyline
 90
       19
 70
   128
 43
0.0
 10
9.1879970866
 20
7.6239440734
 10
9.1889927036
 20
7.6564963159
 10
9.1911318126
 20
7.6883162107
 10
9.1944110087
 20
7.71935311
 10
9.1988250726
 20
7.7495576122
 10
9.2043669783
 20
7.7788816407
 10
9.2110279047
 20
7.8072785203
 10
9.2187972496
 20
7.8347030515
 10
9.2276626465
 20
7.8611115827
 10
9.2376099843
 20
7.8864620793
 10
9.2486234299
 20
7.9107141907
 10
9.260685453
 20
7.9338293148
 10
9.2737768544
 20
7.9557706591
 10
9.2878767966
 20
7.9765032995
 10
9.3029628366
 20
7.9959942357
 10
9.3190109619
 20
8.0142124441
 10
9.3359956286
 20
8.0311289265
 10
9.3538898021
 20
8.0467167569
 10
9.3539632552
 20
8.0467764777
  0
LWPOLYLINE
  5
13D
330
1F
100
AcDbEntity
  8
0
  6
Continuous
 62
     7
370
     0
100
AcDbPolyline
 90
        3
 70
   128
 43
0.0
 10
9.1985602226
 20
7.6096820237
 10
9.1985694825
 20
7.6086525389
 10
9.1986036884
 20
7.6055709099
  0
LINE
  5
13E
330
1F
100
AcDbEntity
  8
0
  6
Continuous
 62
     7
370
     0
100
AcDbLine
 10
9.1879970866
 20
7.599447849
 30
0.0
 11
9.1986036884
 21
7.6055709099
 31
0.0
  0
LWPOLYLINE
  5
13F
330
1F
100
AcDbEntity
  8
0
  6
Continuous
 62
     7
370
     0
100
AcDbPolyline
 90
       58
 70
   128
 43
0.0
 10
10.3670500638
 20
6.2918685048
 10
10.3588417751
 20
6.2888530692
 10
10.3361360593
 20
6.2816815966
 10
10.3127479226
 20
6.2759660747
 10
10.288714592
 20
6.2717156011
 10
10.2640743214
 20
6.2689369412
 10
10.2388663308
 20
6.2676345177
 10
10.213130744
 20
6.2678104038
 10
10.1869085243
 20
6.2694643196
 10
10.1602414097
 20
6.2725936324
 10
10.1331718466
 20
6.2771933613
 10
10.1057429215
 20
6.283256185
 10
10.0779982932
 20
6.2907724532
 10
10.0499821229
 20
6.2997302022
 10
10.0217390042
 20
6.3101151739
 10
9.9933138916
 20
6.3219108385
 10
9.9647520297
 20
6.3350984209
 10
9.9360988803
 20
6.3496569303
 10
9.9074000509
 20
6.3655631938
 10
9.8787012215
 20
6.3827918934
 10
9.8500480722
 20
6.4013156061
 10
9.8214862102
 20
6.4211048476
 10
9.7930610977
 20
6.4421281193
 10
9.7648179789
 20
6.4643519584
 10
9.7368018087
 20
6.4877409911
 10
9.7090571804
 20
6.5122579889
 10
9.6816282553
 20
6.5378639281
 10
9.6545586921
 20
6.5645180515
 10
9.6278915776
 20
6.5921779338
 10
9.6016693579
 20
6.6207995484
 10
9.575933771
 20
6.6503373384
 10
9.5507257805
 20
6.6807442882
 10
9.5260855099
 20
6.7119719991
 10
9.5020521792
 20
6.7439707656
 10
9.4786640425
 20
6.7766896553
 10
9.4559583268
 20
6.8100765894
 10
9.4339711727
 20
6.8440784256
 10
9.4127375774
 20
6.8786410432
 10
9.3922913385
 20
6.9137094287
 10
9.3726650003
 20
6.9492277636
 10
9.3538898021
 20
6.9851395132
 10
9.3359956286
 20
7.0213875167
 10
9.3190109619
 20
7.0579140778
 10
9.3029628366
 20
7.0946610572
 10
9.2878767966
 20
7.1315699645
 10
9.2737768544
 20
7.1685820516
 10
9.260685453
 20
7.2056384063
 10
9.2486234299
 20
7.2426800458
 10
9.2376099843
 20
7.2796480107
 10
9.2276626465
 20
7.3164834591
 10
9.2187972496
 20
7.3531277597
 10
9.2110279047
 20
7.3895225856
 10
9.2043669783
 20
7.4256100072
 10
9.1988250726
 20
7.4613325837
 10
9.1944110087
 20
7.4966334556
 10
9.1911318126
 20
7.5314564342
 10
9.1889927036
 20
7.5657460917
 10
9.1879970866
 20
7.599447849
  0
LWPOLYLINE
  5
140
330
1F
100
AcDbEntity
  8
0
  6
Continuous
 62
     7
370
     0
100
AcDbPolyline
 90
       27
 70
   128
 43
0.0
 10
9.2215893423
 20
7.5963875959
 10
9.2225916333
 20
7.6278665422
 10
9.2247289084
 20
7.6586160791
 10
9.2279975881
 20
7.6885847112
 10
9.2323921987
 20
7.7177222511
 10
9.2379053807
 20
7.7459799031
 10
9.2445279012
 20
7.7733103451
 10
9.2522486697
 20
7.7996678078
 10
9.2610547566
 20
7.8250081511
 10
9.2709314146
 20
7.8492889384
 10
9.2818621035
 20
7.8724695076
 10
9.2938285182
 20
7.8945110388
 10
9.3068106189
 20
7.91537662
 10
9.3207866648
 20
7.9350313081
 10
9.3357332508
 20
7.9534421882
 10
9.3516253463
 20
7.9705784282
 10
9.3684363374
 20
7.9864113305
 10
9.3861380712
 20
8.0009143804
 10
9.4047009033
 20
8.0140632901
 10
9.4240937471
 20
8.0258360395
 10
9.4442841261
 20
8.0362129133
 10
9.4652382281
 20
8.0451765335
 10
9.4869209619
 20
8.0527118892
 10
9.5092960163
 20
8.0588063611
 10
9.5323259205
 20
8.0634497431
 10
9.5559721071
 20
8.0666342589
 10
9.5563305687
 20
8.0666708175
  0
LINE
  5
141
330
1F
100
AcDbEntity
  8
0
  6
Continuous
 62
     7
370
     0
100
AcDbLine
 10
9.2215893423
 20
7.5963875959
 30
0.0
 11
9.1931748217
 21
7.6127909495
 31
0.0
  0
LWPOLYLINE
  5
142
330
1F
100
AcDbEntity
  8
0
  6
Continuous
 62
     7
370
     0
100
AcDbPolyline
 90
       26
 70
   128
 43
0.0
 10
9.5708695134
 20
8.0644998328
 10
9.5484409439
 20
8.0614514228
 10
9.5256523801
 20
8.056859104
 10
9.5035116479
 20
8.0508311003
 10
9.4820558179
 20
8.0433775046
 10
9.4613208138
 20
8.0345107964
 10
9.4413413525
 20
8.0242458214
 10
9.4221508858
 20
8.0125997664
 10
9.4037815447
 20
7.9995921305
 10
9.3862640851
 20
7.9852446925
 10
9.3696278366
 20
7.9695814745
 10
9.3539006537
 20
7.9526287017
 10
9.3391088684
 20
7.9344147582
 10
9.3252772469
 20
7.91497014
 10
9.3124289476
 20
7.8943274034
 10
9.3005854826
 20
7.8725211107
 10
9.2897666815
 20
7.8495877725
 10
9.2799906583
 20
7.8255657864
 10
9.2712737813
 20
7.8004953726
 10
9.2636306452
 20
7.774418507
 10
9.2570740469
 20
7.7473788502
 10
9.2516149643
 20
7.7194216751
 10
9.2472625376
 20
7.6905937908
 10
9.244024054
 20
7.6609434642
 10
9.2419049359
 20
7.6305203391
 10
9.2409087312
 20
7.5993753533
  0
LINE
  5
143
330
1F
100
AcDbEntity
  8
0
  6
Continuous
 62
     7
370
     0
100
AcDbLine
 10
9.2409087312
 20
7.5993753533
 30
0.0
 11
9.2215893423
 21
7.5963875959
 31
0.0
  0
ARC
  5
144
330
1F
100
AcDbEntity
  8
0
  6
Continuous
 62
     7
370
     0
100
AcDbCircle
 10
10.1419929239
 20
7.5902620409
 30
0.0
 40
0.8957377147083592
100
AcDbArc
 50
179.2165262291
 51
180.7834737709
  0
LINE
  5
145
330
1F
100
AcDbEntity
  8
0
  6
Continuous
 62
     7
370
     0
100
AcDbLine
 10
9.2409087312
 20
7.5993753533
 30
0.0
 11
9.2463389521
 21
7.6025101531
 31
0.0
  0
LWPOLYLINE
  5
146
330
1F
100
AcDbEntity
  8
0
  6
Continuous
 62
     7
370
     0
100
AcDbPolyline
 90
       65
 70
   128
 43
0.0
 10
9.2409087312
 20
7.574879129
 10
9.2419049359
 20
7.5425839498
 10
9.244024054
 20
7.509714143
 10
9.2472625376
 20
7.4763247428
 10
9.2516149643
 20
7.4424716536
 10
9.2570740469
 20
7.4082115559
 10
9.2636306452
 20
7.3736018119
 10
9.2712737813
 20
7.3387003691
 10
9.2799906583
 20
7.3035656633
 10
9.2897666815
 20
7.2682565212
 10
9.3005854826
 20
7.2328320611
 10
9.3124289476
 20
7.1973515948
 10
9.3252772469
 20
7.1618745275
 10
9.3391088684
 20
7.126460259
 10
9.3539006537
 20
7.0911680838
 10
9.3696278366
 20
7.0560570921
 10
9.3862640851
 20
7.0211860705
 10
9.4037815447
 20
6.9866134041
 10
9.4221508858
 20
6.9523969783
 10
9.4413413525
 20
6.9185940822
 10
9.4613208138
 20
6.8852613122
 10
9.4820558179
 20
6.8524544779
 10
9.5035116479
 20
6.8202285081
 10
9.5256523801
 20
6.7886373592
 10
9.5484409439
 20
6.7577339246
 10
9.5718391843
 20
6.7275699463
 10
9.5958079252
 20
6.6981959283
 10
9.6203070355
 20
6.6696610518
 10
9.645295496
 20
6.6420130932
 10
9.6707314683
 20
6.6152983436
 10
9.6965723645
 20
6.589561532
 10
9.722774919
 20
6.5648457499
 10
9.7492952605
 20
6.5411923791
 10
9.7760889857
 20
6.5186410227
 10
9.8031112334
 20
6.4972294389
 10
9.8303167601
 20
6.4769934772
 10
9.8576600151
 20
6.4579670191
 10
9.8850952174
 20
6.4401819206
 10
9.9125764318
 20
6.4236679597
 10
9.9400576462
 20
6.4084527858
 10
9.9674928485
 20
6.394561874
 10
9.9948361035
 20
6.3820184819
 10
10.0220416302
 20
6.370843611
 10
10.049063878
 20
6.3610559717
 10
10.0758576031
 20
6.3526719514
 10
10.1023779446
 20
6.3457055877
 10
10.1285804991
 20
6.3401685444
 10
10.1544213953
 20
6.3360700923
 10
10.1798573676
 20
6.3334170934
 10
10.2048458281
 20
6.3322139896
 10
10.2293449384
 20
6.3324627955
 10
10.2533136793
 20
6.3341630943
 10
10.2767119197
 20
6.3373120392
 10
10.2995004836
 20
6.341904358
 10
10.3216412158
 20
6.3479323616
 10
10.3430970458
 20
6.3553859574
 10
10.3638320499
 20
6.3642526656
 10
10.3838115112
 20
6.3745176406
 10
10.4030019778
 20
6.3861636956
 10
10.4213713189
 20
6.3991713315
 10
10.4388887786
 20
6.4135187695
 10
10.455525027
 20
6.4291819875
 10
10.47125221
 20
6.4461347603
 10
10.4860439952
 20
6.4643487037
 10
10.4908688637
 20
6.470841539
  0
LINE
  5
147
330
1F
100
AcDbEntity
  8
0
  6
Continuous
 62
     7
370
     0
100
AcDbLine
 10
9.2463389521
 20
7.5780139287
 30
0.0
 11
9.2409087312
 21
7.574879129
 31
0.0
  0
LWPOLYLINE
  5
148
330
1F
100
AcDbEntity
  8
0
  6
Continuous
 62
     7
370
     0
100
AcDbPolyline
 90
       76
 70
   128
 43
0.0
 10
10.4125385304
 20
6.3926739078
 10
10.3934248591
 20
6.3846444573
 10
10.3719983813
 20
6.3772822098
 10
10.3498927781
 20
6.3713376453
 10
10.3271448422
 20
6.3668206581
 10
10.3037924353
 20
6.3637387661
 10
10.2798744251
 20
6.362097099
 10
10.2554306209
 20
6.361898389
 10
10.2305017069
 20
6.363142967
 10
10.2051291748
 20
6.3658287615
 10
10.1793552547
 20
6.3699513022
 10
10.1532228448
 20
6.3755037275
 10
10.1267754398
 20
6.382476796
 10
10.1000570589
 20
6.3908589018
 10
10.0731121723
 20
6.4006360935
 10
10.0459856268
 20
6.4117920981
 10
10.0187225722
 20
6.4243083475
 10
9.9913683849
 20
6.4381640096
 10
9.9639685934
 20
6.4533360231
 10
9.9365688019
 20
6.4697991355
 10
9.9092146146
 20
6.4875259458
 10
9.88195156
 20
6.5064869493
 10
9.8548250146
 20
6.5266505874
 10
9.8278801279
 20
6.5479832996
 10
9.801161747
 20
6.5704495798
 10
9.7747143421
 20
6.594012035
 10
9.7485819321
 20
6.618631448
 10
9.7228080121
 20
6.644266842
 10
9.69743548
 20
6.6708755495
 10
9.6725065659
 20
6.698413283
 10
9.6480627617
 20
6.7268342086
 10
9.6241447515
 20
6.7560910225
 10
9.6007923446
 20
6.7861350296
 10
9.5780444087
 20
6.8169162245
 10
9.5559388055
 20
6.8483833752
 10
9.5345123277
 20
6.8804841075
 10
9.5138006374
 20
6.913164993
 10
9.4938382072
 20
6.9463716376
 10
9.4746582627
 20
6.9800487721
 10
9.456292727
 20
7.0141403442
 10
9.4387721676
 20
7.0485896119
 10
9.4221257458
 20
7.0833392377
 10
9.406381168
 20
7.1183313844
 10
9.3915646394
 20
7.153507811
 10
9.3777008207
 20
7.1888099697
 10
9.3648127869
 20
7.2241791036
 10
9.3529219887
 20
7.2595563444
 10
9.3420482174
 20
7.29488281
 10
9.3322095711
 20
7.330099703
 10
9.3234224254
 20
7.3651484084
 10
9.3157014055
 20
7.3999705912
 10
9.3090593624
 20
7.4345082931
 10
9.3035073511
 20
7.4687040296
 10
9.2990546124
 20
7.5025008853
 10
9.2957085573
 20
7.5358426087
 10
9.2934747552
 20
7.5686737056
 10
9.2923569238
 20
7.6009395321
 10
9.2923569238
 20
7.6325863849
 10
9.2934747552
 20
7.6635615908
 10
9.2957085573
 20
7.6938135947
 10
9.2990546124
 20
7.7232920451
 10
9.3035073511
 20
7.7519478781
 10
9.3090593624
 20
7.7797333988
 10
9.3157014055
 20
7.806602361
 10
9.3234224254
 20
7.832510044
 10
9.3322095711
 20
7.8574133269
 10
9.3420482174
 20
7.8812707607
 10
9.3529219887
 20
7.9040426372
 10
9.3648127869
 20
7.9256910546
 10
9.3777008207
 20
7.9461799814
 10
9.3915646394
 20
7.9654753158
 10
9.406381168
 20
7.9835449426
 10
9.4221257458
 20
8.0003587866
 10
9.4387721676
 20
8.015888863
 10
9.456292727
 20
8.0301093234
 10
9.4640064948
 20
8.0357576175
  0
LWPOLYLINE
  5
149
330
1F
100
AcDbEntity
  8
0
  6
Continuous
 62
     7
370
     0
100
AcDbPolyline
 90
       61
 70
   128
 43
0.0
 10
9.1931748217
 20
7.5882947251
 10
9.1941604363
 20
7.5551682782
 10
9.1962696937
 20
7.52146446
 10
9.1994992376
 20
7.4872368994
 10
9.2038439291
 20
7.4525400588
 10
9.2092968552
 20
7.417429147
 10
9.2158493391
 20
7.3819600319
 10
9.2234909548
 20
7.3461891514
 10
9.2322095429
 20
7.3101734234
 10
9.2419912307
 20
7.2739701556
 10
9.2528204537
 20
7.2376369538
 10
9.2646799806
 20
7.2012316309
 10
9.2775509408
 20
7.1648121143
 10
9.2914128542
 20
7.1284363541
 10
9.306243664
 20
7.0921622308
 10
9.3220197717
 20
7.0560474631
 10
9.3387160746
 20
7.0201495162
 10
9.3563060059
 20
6.9845255102
 10
9.3747615767
 20
6.9492321295
 10
9.394053421
 20
6.9143255321
 10
9.4141508418
 20
6.879861261
 10
9.4350218606
 20
6.8458941549
 10
9.4566332677
 20
6.8124782617
 10
9.4789506754
 20
6.7796667523
 10
9.5019385727
 20
6.7475118356
 10
9.5255603817
 20
6.7160646761
 10
9.5497785157
 20
6.6853753118
 10
9.5745544393
 20
6.6554925752
 10
9.5998487296
 20
6.6264640151
 10
9.6256211386
 20
6.5983358212
 10
9.6518306578
 20
6.5711527506
 10
9.678435583
 20
6.5449580565
 10
9.7053935811
 20
6.5197934195
 10
9.7326617568
 20
6.4956988811
 10
9.7601967217
 20
6.47271278
 10
9.7879546624
 20
6.4508716914
 10
9.8158914112
 20
6.4302103683
 10
9.8439625155
 20
6.4107616868
 10
9.8721233091
 20
6.3925565931
 10
9.9003289831
 20
6.375624055
 10
9.9285346571
 20
6.3599910151
 10
9.9566954507
 20
6.3456823485
 10
9.984766555
 20
6.3327208229
 10
10.0127033038
 20
6.3211270624
 10
10.0404612446
 20
6.3109195148
 10
10.0679962094
 20
6.3021144222
 10
10.0952643851
 20
6.294725795
 10
10.1222223832
 20
6.28876539
 10
10.1488273085
 20
6.2842426912
 10
10.1750368276
 20
6.281164895
 10
10.2008092367
 20
6.2795368989
 10
10.2261035269
 20
6.2793612931
 10
10.2508794505
 20
6.2806383572
 10
10.2750975845
 20
6.2833660591
 10
10.2987193935
 20
6.2875400585
 10
10.3217072908
 20
6.2931537139
 10
10.3440246986
 20
6.3001980928
 10
10.3656361056
 20
6.3086619865
 10
10.3865071244
 20
6.3185319273
 10
10.4066045452
 20
6.3297922103
 10
10.4073552194
 20
6.3302489125
  0
LINE
  5
14A
330
1F
100
AcDbEntity
  8
0
  6
Continuous
 62
     7
370
     0
100
AcDbLine
 10
9.1879970866
 20
7.599447849
 30
0.0
 11
9.1931748217
 21
7.5882947251
 31
0.0
  0
LINE
  5
14B
330
1F
100
AcDbEntity
  8
0
  6
Continuous
 62
     7
370
     0
100
AcDbLine
 10
9.1931748217
 20
7.5882947251
 30
0.0
 11
9.2215893423
 21
7.5718913715
 31
0.0
  0
LWPOLYLINE
  5
14C
330
1F
100
AcDbEntity
  8
0
  6
Continuous
 62
     7
370
     0
100
AcDbPolyline
 90
       65
 70
   128
 43
0.0
 10
10.4854782359
 20
6.457165457
 10
10.4798713014
 20
6.4495915506
 10
10.4649247154
 20
6.4311806705
 10
10.4490326199
 20
6.4140444305
 10
10.4322216288
 20
6.3982115282
 10
10.414519895
 20
6.3837084783
 10
10.3959570629
 20
6.3705595686
 10
10.3765642191
 20
6.3587868192
 10
10.3563738401
 20
6.3484099454
 10
10.3354197381
 20
6.3394463252
 10
10.3137370043
 20
6.3319109695
 10
10.2913619499
 20
6.3258164976
 10
10.2683320457
 20
6.3211731156
 10
10.2446858592
 20
6.3179885997
 10
10.2204629897
 20
6.316268283
 10
10.1957040026
 20
6.3160150463
 10
10.1704503608
 20
6.3172293137
 10
10.1447443558
 20
6.3199090518
 10
10.1186290367
 20
6.3240497728
 10
10.0921481377
 20
6.3296445425
 10
10.0653460056
 20
6.3366839915
 10
10.0382675251
 20
6.345156331
 10
10.0109580435
 20
6.3550473727
 10
9.9834632952
 20
6.3663405524
 10
9.9558293246
 20
6.3790169579
 10
9.9281024095
 20
6.3930553602
 10
9.9003289831
 20
6.4084322499
 10
9.8725555567
 20
6.4251218758
 10
9.8448286416
 20
6.4430962882
 10
9.817194671
 20
6.4623253861
 10
9.7896999227
 20
6.4827769671
 10
9.7623904411
 20
6.5044167816
 10
9.7353119606
 20
6.5272085902
 10
9.7085098285
 20
6.5511142243
 10
9.6820289296
 20
6.5760936497
 10
9.6559136104
 20
6.6021050344
 10
9.6302076054
 20
6.6291048179
 10
9.6049539636
 20
6.6570477846
 10
9.5801949765
 20
6.6858871394
 10
9.5559721071
 20
6.715574586
 10
9.5323259205
 20
6.7460604077
 10
9.5092960163
 20
6.777293551
 10
9.4869209619
 20
6.8092217109
 10
9.4652382281
 20
6.8417914182
 10
9.4442841261
 20
6.8749481297
 10
9.4240937471
 20
6.9086363188
 10
9.4047009033
 20
6.942799569
 10
9.3861380712
 20
6.9773806685
 10
9.3684363374
 20
7.0123217052
 10
9.3516253463
 20
7.0475641647
 10
9.3357332508
 20
7.0830490276
 10
9.3207866648
 20
7.1187168686
 10
9.3068106189
 20
7.1545079559
 10
9.2938285182
 20
7.1903623514
 10
9.2818621035
 20
7.2262200109
 10
9.2709314146
 20
7.2620208849
 10
9.2610547566
 20
7.2977050188
 10
9.2522486697
 20
7.3332126537
 10
9.2445279012
 20
7.3684843259
 10
9.2379053807
 20
7.4034609673
 10
9.2323921987
 20
7.4380840037
 10
9.2279975881
 20
7.472295453
 10
9.2247289084
 20
7.5060380225
 10
9.2225916333
 20
7.5392552045
 10
9.2215893423
 20
7.5718913715
  0
LINE
  5
14D
330
1F
100
AcDbEntity
  8
0
  6
Continuous
 62
     7
370
     0
100
AcDbLine
 10
9.2215893423
 20
7.5718913715
 30
0.0
 11
9.2409087312
 21
7.574879129
 31
0.0
  0
LINE
  5
14E
330
1F
100
AcDbEntity
  8
0
  6
Continuous
 62
     7
370
     0
100
AcDbLine
 10
9.1986036884
 20
7.6055709099
 30
0.0
 11
9.2463389521
 21
7.5780139287
 31
0.0
  0
LWPOLYLINE
  5
14F
330
1F
100
AcDbEntity
  8
0
  6
Continuous
 62
     7
370
     0
100
AcDbPolyline
 90
      125
 70
   128
 43
0.0
 10
9.0357958088
 20
7.5912759741
 10
9.0363596892
 20
7.6251453688
 10
9.0380505131
 20
7.6583146135
 10
9.0408658288
 20
7.6907356161
 10
9.0448015544
 20
7.7223613691
 10
9.0498519836
 20
7.7531460183
 10
9.0560097935
 20
7.7830449289
 10
9.0632660561
 20
7.8120147503
 10
9.0716102504
 20
7.840013479
 10
9.0810302781
 20
7.8670005196
 10
9.0915124811
 20
7.8929367434
 10
9.1030416613
 20
7.9177845454
 10
9.1156011023
 20
7.9415078987
 10
9.1291725942
 20
7.9640724065
 10
9.1437364597
 20
7.9854453527
 10
9.1592715825
 20
8.0055957484
 10
9.1757554382
 20
8.0244943775
 10
9.1931641268
 20
8.0421138388
 10
9.2114724073
 20
8.0584285857
 10
9.2306537345
 20
8.0734149635
 10
9.2506802973
 20
8.0870512433
 10
9.2715230591
 20
8.0993176538
 10
9.2931517999
 20
8.1101964099
 10
9.31553516
 20
8.1196717384
 10
9.3386406858
 20
8.127729901
 10
9.3624348764
 20
8.1343592142
 10
9.3868832326
 20
8.1395500661
 10
9.4119503065
 20
8.1432949304
 10
9.4375997533
 20
8.1455883775
 10
9.4637943837
 20
8.146427082
 10
9.4904962181
 20
8.1458098279
 10
9.5176665413
 20
8.1437375103
 10
9.545265959
 20
8.1402131336
 10
9.5732544546
 20
8.1352418081
 10
9.6015914476
 20
8.1288307415
 10
9.6302358518
 20
8.1209892294
 10
9.6591461359
 20
8.1117286411
 10
9.6882803825
 20
8.1010624037
 10
9.7175963498
 20
8.0890059822
 10
9.7470515324
 20
8.0755768572
 10
9.7766032232
 20
8.0607944996
 10
9.806208575
 20
8.0446803426
 10
9.835824663
 20
8.02725775
 10
9.8654085465
 20
8.008551983
 10
9.8949173318
 20
7.9885901631
 10
9.924308234
 20
7.9674012331
 10
9.9535386391
 20
7.9450159149
 10
9.9825661658
 20
7.9214666651
 10
10.0113487269
 20
7.8967876277
 10
10.0398445905
 20
7.8710145852
 10
10.0680124403
 20
7.8441849058
 10
10.0958114357
 20
7.8163374902
 10
10.1232012706
 20
7.7875127143
 10
10.1501422326
 20
7.7577523713
 10
10.1765952598
 20
7.727099611
 10
10.2025219977
 20
7.6955988768
 10
10.2278848552
 20
7.6632958419
 10
10.2526470585
 20
7.6302373424
 10
10.2767727048
 20
7.5964713102
 10
10.3002268141
 20
7.5620467027
 10
10.3229753804
 20
7.5270134323
 10
10.3449854202
 20
7.4914222939
 10
10.3662250213
 20
7.4553248913
 10
10.3866633881
 20
7.4187735622
 10
10.4062708871
 20
7.3818213025
 10
10.4250190891
 20
7.3445216896
 10
10.4428808112
 20
7.3069288042
 10
10.4598301555
 20
7.2690971525
 10
10.475842547
 20
7.2310815868
 10
10.4908947695
 20
7.1929372259
 10
10.5049649985
 20
7.1547193756
 10
10.5180328336
 20
7.1164834481
 10
10.5300793276
 20
7.0782848818
 10
10.5410870144
 20
7.040179061
 10
10.5510399338
 20
7.0022212355
 10
10.559923655
 20
6.9644664406
 10
10.5677252975
 20
6.926969417
 10
10.5744335497
 20
6.8897845318
 10
10.5800386852
 20
6.8529656997
 10
10.5845325771
 20
6.8165663043
 10
10.5879087097
 20
6.7806391213
 10
10.5901621879
 20
6.7452362417
 10
10.5912897445
 20
6.7104089963
 10
10.5912897445
 20
6.6762078813
 10
10.5901621879
 20
6.642682485
 10
10.5879087097
 20
6.609881416
 10
10.5845325771
 20
6.5778522327
 10
10.5800386852
 20
6.5466413745
 10
10.5744335497
 20
6.516294094
 10
10.5677252975
 20
6.4868543919
 10
10.559923655
 20
6.458364953
 10
10.5510399338
 20
6.4308670843
 10
10.5410870144
 20
6.4044006549
 10
10.5300793276
 20
6.3790040388
 10
10.5180328336
 20
6.3547140585
 10
10.5049649985
 20
6.3315659322
 10
10.4908947695
 20
6.3095932225
 10
10.475842547
 20
6.2888277878
 10
10.4598301555
 20
6.2692997358
 10
10.4428808112
 20
6.2510373805
 10
10.4250190891
 20
6.2340672005
 10
10.4062708871
 20
6.2184138009
 10
10.3866633881
 20
6.2040998777
 10
10.3662250213
 20
6.1911461846
 10
10.3449854202
 20
6.1795715033
 10
10.3229753804
 20
6.1693926161
 10
10.3002268141
 20
6.1606242812
 10
10.2767727048
 20
6.1532792119
 10
10.2526470585
 20
6.147368058
 10
10.2278848552
 20
6.1428993899
 10
10.2025219977
 20
6.1398796869
 10
10.1765952598
 20
6.1383133272
 10
10.1501422326
 20
6.1382025819
 10
10.1232012706
 20
6.1395476116
 10
10.0958114357
 20
6.142346466
 10
10.0680124403
 20
6.1465950872
 10
10.0398445905
 20
6.152287315
 10
10.0113487269
 20
6.1594148962
 10
9.9825661658
 20
6.1679674966
 10
9.9535386391
 20
6.1779327157
 10
9.924308234
 20
6.1892961048
 10
9.8949173318
 20
6.2020411882
 10
9.8654085465
 20
6.2161494867
 10
9.835824663
 20
6.2316005445
 10
9.8134868509
 20
6.2441296105
  0
LWPOLYLINE
  5
150
330
1F
100
AcDbEntity
  8
0
  6
Continuous
 62
     7
370
     0
100
AcDbPolyline
 90
      165
 70
   128
 43
0.0
 10
9.0357958088
 20
7.583111893
 10
9.0363613971
 20
7.5486948235
 10
9.0380573319
 20
7.5136752514
 10
9.0408811243
 20
7.4781045728
 10
9.0448286299
 20
7.4420349926
 10
9.0498940551
 20
7.4055194478
 10
9.0560699659
 20
7.36861153
 10
9.0633472982
 20
7.3313654068
 10
9.0717153714
 20
7.2938357419
 10
9.0811619044
 20
7.2560776152
 10
9.091673033
 20
7.2181464422
 10
9.1032333306
 20
7.1800978918
 10
9.1158258311
 20
7.1419878058
 10
9.129432053
 20
7.1038721158
 10
9.1440320274
 20
7.0658067619
 10
9.1596043269
 20
7.0278476102
 10
9.176126097
 20
6.9900503711
 10
9.1935730895
 20
6.9524705173
 10
9.2119196988
 20
6.9151632022
 10
9.2311389986
 20
6.8781831796
 10
9.251202782
 20
6.8415847227
 10
9.2720816025
 20
6.8054215449
 10
9.2937448177
 20
6.7697467205
 10
9.3161606337
 20
6.7346126073
 10
9.3392961523
 20
6.7000707694
 10
9.3631174189
 20
6.6661719018
 10
9.3875894726
 20
6.6329657558
 10
9.4126763971
 20
6.6005010658
 10
9.438341374
 20
6.5688254784
 10
9.4645467364
 20
6.5379854818
 10
9.4912540243
 20
6.508026338
 10
9.5184240411
 20
6.4789920161
 10
9.546016911
 20
6.4509251281
 10
9.5739921377
 20
6.4238668659
 10
9.6023086636
 20
6.3978569412
 10
9.6309249305
 20
6.3729335273
 10
9.6597989399
 20
6.3491332027
 10
9.6888883153
 20
6.3264908976
 10
9.718150364
 20
6.3050398427
 10
9.7475421399
 20
6.2848115204
 10
9.7770205065
 20
6.2658356187
 10
9.8065422003
 20
6.2481399871
 10
9.836063894
 20
6.2317505965
 10
9.8655422607
 20
6.2166915007
 10
9.8949340366
 20
6.2029848008
 10
9.9241960852
 20
6.1906506134
 10
9.9532854606
 20
6.1797070406
 10
9.98215947
 20
6.1701701436
 10
10.0107757369
 20
6.162053919
 10
10.0390922629
 20
6.1553702787
 10
10.0670674896
 20
6.1501290317
 10
10.0946603595
 20
6.1463378703
 10
10.1218303762
 20
6.1440023585
 10
10.1485376641
 20
6.1431259241
 10
10.1747430265
 20
6.1437098533
 10
10.2004080034
 20
6.1457532891
 10
10.225494928
 20
6.1492532325
 10
10.2499669816
 20
6.1542045469
 10
10.2737882482
 20
6.1605999654
 10
10.2969237668
 20
6.1684301021
 10
10.3193395828
 20
6.177683465
 10
10.341002798
 20
6.1883464735
 10
10.3618816185
 20
6.2004034783
 10
10.3819454019
 20
6.213836784
 10
10.4011647017
 20
6.2286266754
 10
10.419511311
 20
6.2447514463
 10
10.4369583036
 20
6.2621874313
 10
10.4534800736
 20
6.2809090407
 10
10.4690523731
 20
6.3008887981
 10
10.4836523475
 20
6.3220973803
 10
10.4972585695
 20
6.3445036608
 10
10.5098510699
 20
6.3680747554
 10
10.5214113676
 20
6.3927760701
 10
10.5319224961
 20
6.4185713525
 10
10.5413690291
 20
6.4454227443
 10
10.5497371024
 20
6.4732908375
 10
10.5570144346
 20
6.5021347317
 10
10.5631903454
 20
6.5319120947
 10
10.5682557707
 20
6.5625792239
 10
10.5722032762
 20
6.5940911112
 10
10.5750270686
 20
6.6264015086
 10
10.5767230034
 20
6.6594629959
 10
10.5772885918
 20
6.6932270511
 10
10.5767230034
 20
6.7276441206
 10
10.5750270686
 20
6.7626636927
 10
10.5722032762
 20
6.7982343713
 10
10.5682557707
 20
6.8343039515
 10
10.5631903454
 20
6.8708194963
 10
10.5570144346
 20
6.9077274141
 10
10.5497371024
 20
6.9449735373
 10
10.5413690291
 20
6.9825032022
 10
10.5319224961
 20
7.0202613288
 10
10.5214113676
 20
7.0581925019
 10
10.5098510699
 20
7.0962410523
 10
10.4972585695
 20
7.1343511383
 10
10.4836523475
 20
7.1724668283
 10
10.4690523731
 20
7.2105321822
 10
10.4534800736
 20
7.2484913339
 10
10.4369583036
 20
7.2862885729
 10
10.419511311
 20
7.3238684268
 10
10.4011647017
 20
7.3611757419
 10
10.3819454019
 20
7.3981557645
 10
10.3618816185
 20
7.4347542214
 10
10.341002798
 20
7.4709173992
 10
10.3193395828
 20
7.5065922236
 10
10.2969237668
 20
7.5417263368
 10
10.2737882482
 20
7.5762681747
 10
10.2499669816
 20
7.6101670422
 10
10.225494928
 20
7.6433731883
 10
10.2004080034
 20
7.6758378783
 10
10.1747430265
 20
7.7075134657
 10
10.1485376641
 20
7.7383534623
 10
10.1218303762
 20
7.7683126061
 10
10.0946603595
 20
7.797346928
 10
10.0670674896
 20
7.825413816
 10
10.0390922629
 20
7.8524720782
 10
10.0107757369
 20
7.8784820029
 10
9.98215947
 20
7.9034054168
 10
9.9532854606
 20
7.9272057414
 10
9.9241960852
 20
7.9498480465
 10
9.8949340366
 20
7.9712991014
 10
9.8655422607
 20
7.9915274237
 10
9.836063894
 20
8.0105033254
 10
9.8065422003
 20
8.028198957
 10
9.7770205065
 20
8.0445883476
 10
9.7475421399
 20
8.0596474434
 10
9.718150364
 20
8.0733541433
 10
9.6888883153
 20
8.0856883307
 10
9.6597989399
 20
8.0966319035
 10
9.6309249305
 20
8.1061688005
 10
9.6023086636
 20
8.1142850251
 10
9.5739921377
 20
8.1209686654
 10
9.546016911
 20
8.1262099124
 10
9.5184240411
 20
8.1300010738
 10
9.4912540243
 20
8.1323365856
 10
9.4645467364
 20
8.13321302
 10
9.438341374
 20
8.1326290908
 10
9.4126763971
 20
8.130585655
 10
9.3875894726
 20
8.1270857116
 10
9.3631174189
 20
8.1221343972
 10
9.3392961523
 20
8.1157389786
 10
9.3161606337
 20
8.107908842
 10
9.2937448177
 20
8.0986554791
 10
9.2720816025
 20
8.0879924706
 10
9.251202782
 20
8.0759354658
 10
9.2311389986
 20
8.0625021601
 10
9.2119196988
 20
8.0477122687
 10
9.1935730895
 20
8.0315874978
 10
9.176126097
 20
8.0141515128
 10
9.1596043269
 20
7.9954299034
 10
9.1440320274
 20
7.975450146
 10
9.129432053
 20
7.9542415638
 10
9.1158258311
 20
7.9318352833
 10
9.1032333306
 20
7.9082641887
 10
9.091673033
 20
7.883562874
 10
9.0811619044
 20
7.8577675916
 10
9.0717153714
 20
7.8309161998
 10
9.0633472982
 20
7.8030481066
 10
9.0560699659
 20
7.7742042124
 10
9.0498940551
 20
7.7444268494
 10
9.0448286299
 20
7.7137597202
 10
9.0408811243
 20
7.6822478329
 10
9.0380573319
 20
7.6499374355
 10
9.0363613971
 20
7.6168759481
 10
9.0357958088
 20
7.583111893
  0
LWPOLYLINE
  5
151
330
1F
100
AcDbEntity
  8
0
  6
Continuous
 62
     7
370
     0
100
AcDbPolyline
 90
       63
 70
   128
 43
0.0
 10
10.8530602364
 20
6.8442625518
 10
10.8524963559
 20
6.878782989
 10
10.8508055321
 20
6.9139044174
 10
10.8479902164
 20
6.9495759143
 10
10.8440544907
 20
6.9857457594
 10
10.8390040616
 20
7.02236151
 10
10.8328462517
 20
7.0593700766
 10
10.8255899891
 20
7.0967178004
 10
10.8172457948
 20
7.1343505308
 10
10.8078257671
 20
7.1722137039
 10
10.7973435641
 20
7.2102524217
 10
10.7858143839
 20
7.2484115318
 10
10.7732549429
 20
7.286635707
 10
10.759683451
 20
7.3248695259
 10
10.7451195855
 20
7.3630575532
 10
10.7295844627
 20
7.40114442
 10
10.7131006069
 20
7.4390749037
 10
10.6956919184
 20
7.476794009
 10
10.6773836378
 20
7.5142470467
 10
10.6582023106
 20
7.5513797135
 10
10.6381757478
 20
7.5881381705
 10
10.6173329861
 20
7.6244691215
 10
10.5957042453
 20
7.6603198902
 10
10.5733208852
 20
7.6956384962
 10
10.5502153594
 20
7.7303737311
 10
10.5264211688
 20
7.764475232
 10
10.5019728126
 20
7.797893555
 10
10.4769057387
 20
7.8305802468
 10
10.4512562919
 20
7.8624879148
 10
10.4250616615
 20
7.8935702959
 10
10.3983598271
 20
7.9237823236
 10
10.3711895039
 20
7.9530801934
 10
10.3435900862
 20
7.9814214261
 10
10.3156015906
 20
8.0087649298
 10
10.2872645976
 20
8.0350710588
 10
10.2586201933
 20
8.0603016719
 10
10.2297099093
 20
8.0844201871
 10
10.2005756627
 20
8.1073916348
 10
10.1712596954
 20
8.1291827087
 10
10.1418045128
 20
8.1497618137
 10
10.112252822
 20
8.1690991121
 10
10.0826474702
 20
8.1871665667
 10
10.0530313822
 20
8.2039379814
 10
10.0234474987
 20
8.2193890392
 10
9.9939387134
 20
8.2334973377
 10
9.9645478112
 20
8.2462424211
 10
9.9353174061
 20
8.2576058102
 10
9.9062898794
 20
8.2675710293
 10
9.8775073183
 20
8.2761236297
 10
9.8490114547
 20
8.2832512109
 10
9.8208436049
 20
8.2889434387
 10
9.7930446095
 20
8.2931920599
 10
9.7656547745
 20
8.2959909143
 10
9.7387138126
 20
8.297335944
 10
9.7122607854
 20
8.2972251987
 10
9.6863340475
 20
8.295658839
 10
9.66097119
 20
8.292639136
 10
9.6362089867
 20
8.2881704679
 10
9.6120833404
 20
8.282259314
 10
9.5886292311
 20
8.2749142447
 10
9.5658806648
 20
8.2661459098
 10
9.543870625
 20
8.2559670226
 10
9.5252874742
 20
8.2459407619
  0
LWPOLYLINE
  5
152
330
1F
100
AcDbEntity
  8
0
  6
Continuous
 62
     7
370
     0
100
AcDbPolyline
 90
       22
 70
   128
 43
0.0
 10
10.6251980801
 20
6.3406332647
 10
10.6381757478
 20
6.3484872826
 10
10.6582023106
 20
6.3621235624
 10
10.6773836378
 20
6.3771099402
 10
10.6956919184
 20
6.3934246871
 10
10.7131006069
 20
6.4110441484
 10
10.7295844627
 20
6.4299427775
 10
10.7451195855
 20
6.4500931732
 10
10.759683451
 20
6.4714661194
 10
10.7732549429
 20
6.4940306272
 10
10.7858143839
 20
6.5177539805
 10
10.7973435641
 20
6.5426017825
 10
10.8078257671
 20
6.5685380063
 10
10.8172457948
 20
6.5955250469
 10
10.8255899891
 20
6.6235237756
 10
10.8328462517
 20
6.652493597
 10
10.8390040616
 20
6.6823925076
 10
10.8440544907
 20
6.7131771568
 10
10.8479902164
 20
6.7448029098
 10
10.8508055321
 20
6.7772239124
 10
10.8524963559
 20
6.8103931571
 10
10.8530602364
 20
6.8442625518
  0
LWPOLYLINE
  5
153
330
1F
100
AcDbEntity
  8
0
  6
Continuous
 62
     7
370
     0
100
AcDbPolyline
 90
      161
 70
   128
 43
0.0
 10
9.0748136017
 20
7.5605874006
 10
9.0753777379
 20
7.593435223
 10
9.0770692768
 20
7.6255810585
 10
9.07988561
 20
7.6569753408
 10
9.083822395
 20
7.687569662
 10
9.0888735615
 20
7.7173168479
 10
9.0950313211
 20
7.7461710305
 10
9.1022861789
 20
7.7740877189
 10
9.1106269484
 20
7.8010238673
 10
9.1200407688
 20
7.8269379424
 10
9.1305131247
 20
7.8517899863
 10
9.1420278684
 20
7.8755416792
 10
9.154567245
 20
7.8981563976
 10
9.1681119197
 20
7.9195992712
 10
9.1826410077
 20
7.9398372367
 10
9.1981321061
 20
7.9588390886
 10
9.2145613287
 20
7.9765755275
 10
9.231903343
 20
7.993019205
 10
9.2501314087
 20
8.0081447661
 10
9.2692174195
 20
8.0219288884
 10
9.2891319462
 20
8.0343503178
 10
9.309844282
 20
8.0453899012
 10
9.33132249
 20
8.0550306165
 10
9.3535334524
 20
8.0632575984
 10
9.3764429213
 20
8.0700581614
 10
9.4000155722
 20
8.0754218196
 10
9.4242150577
 20
8.0793403026
 10
9.449004064
 20
8.0818075685
 10
9.4743443681
 20
8.0828198127
 10
9.5001968972
 20
8.0823754746
 10
9.5265217886
 20
8.0804752393
 10
9.5532784511
 20
8.0771220368
 10
9.580425628
 20
8.0723210376
 10
9.6079214603
 20
8.0660796443
 10
9.6357235513
 20
8.0584074807
 10
9.6637890323
 20
8.0493163769
 10
9.6920746284
 20
8.0388203506
 10
9.7205367251
 20
8.0269355859
 10
9.7491314361
 20
8.0136804082
 10
9.7778146703
 20
7.9990752562
 10
9.8065422003
 20
7.9831426499
 10
9.8352697302
 20
7.9659071561
 10
9.8639529644
 20
7.9473953509
 10
9.8925476754
 20
7.927635778
 10
9.9210097721
 20
7.9066589052
 10
9.9492953682
 20
7.8844970775
 10
9.9773608492
 20
7.8611844667
 10
10.0051629402
 20
7.8367570192
 10
10.0326587725
 20
7.8112524003
 10
10.0598059494
 20
7.7847099363
 10
10.0865626119
 20
7.7571705538
 10
10.1128875033
 20
7.7286767165
 10
10.1387400324
 20
7.6992723598
 10
10.1640803365
 20
7.6690028231
 10
10.1888693428
 20
7.6379147799
 10
10.2130688283
 20
7.6060561656
 10
10.2366414792
 20
7.573476104
 10
10.2595509482
 20
7.5402248311
 10
10.2817619105
 20
7.506353618
 10
10.3032401185
 20
7.4719146916
 10
10.3239524543
 20
7.4369611542
 10
10.343866981
 20
7.4015469018
 10
10.3629529918
 20
7.3657265404
 10
10.3811810575
 20
7.3295553026
 10
10.3985230718
 20
7.2930889616
 10
10.4149522944
 20
7.2563837461
 10
10.4304433928
 20
7.2194962527
 10
10.4449724808
 20
7.1824833593
 10
10.4585171555
 20
7.1454021371
 10
10.4710565321
 20
7.1083097626
 10
10.4825712758
 20
7.0712634297
 10
10.4930436317
 20
7.034320261
 10
10.5024574521
 20
6.9975372202
 10
10.5107982216
 20
6.9609710243
 10
10.5180530794
 20
6.9246780554
 10
10.524210839
 20
6.8887142749
 10
10.5292620056
 20
6.8531351362
 10
10.5331987906
 20
6.8179954998
 10
10.5360151238
 20
6.7833495485
 10
10.5377066626
 20
6.7492507037
 10
10.5382707988
 20
6.7157515435
 10
10.5377066626
 20
6.6829037211
 10
10.5360151238
 20
6.6507578856
 10
10.5331987906
 20
6.6193636033
 10
10.5292620056
 20
6.5887692821
 10
10.524210839
 20
6.5590220962
 10
10.5180530794
 20
6.5301679136
 10
10.5107982216
 20
6.5022512252
 10
10.5024574521
 20
6.4753150768
 10
10.4930436317
 20
6.4494010017
 10
10.4825712758
 20
6.4245489578
 10
10.4710565321
 20
6.4007972649
 10
10.4585171555
 20
6.3781825465
 10
10.4449724808
 20
6.3567396729
 10
10.4304433928
 20
6.3365017074
 10
10.4149522944
 20
6.3174998555
 10
10.3985230718
 20
6.2997634166
 10
10.3811810575
 20
6.2833197391
 10
10.3629529918
 20
6.268194178
 10
10.343866981
 20
6.2544100557
 10
10.3239524543
 20
6.2419886263
 10
10.3032401185
 20
6.2309490429
 10
10.2817619105
 20
6.2213083276
 10
10.2595509482
 20
6.2130813457
 10
10.2366414792
 20
6.2062807827
 10
10.2130688283
 20
6.2009171245
 10
10.1888693428
 20
6.1969986415
 10
10.1640803365
 20
6.1945313756
 10
10.1387400324
 20
6.1935191314
 10
10.1128875033
 20
6.1939634695
 10
10.0865626119
 20
6.1958637048
 10
10.0598059494
 20
6.1992169072
 10
10.0326587725
 20
6.2040179065
 10
10.0051629402
 20
6.2102592998
 10
9.9773608492
 20
6.2179314634
 10
9.9492953682
 20
6.2270225672
 10
9.9210097721
 20
6.2375185935
 10
9.8925476754
 20
6.2494033582
 10
9.8639529644
 20
6.2626585358
 10
9.8352697302
 20
6.2772636879
 10
9.8065422003
 20
6.2931962942
 10
9.7778146703
 20
6.310431788
 10
9.7491314361
 20
6.3289435932
 10
9.7205367251
 20
6.3487031661
 10
9.6920746284
 20
6.3696800389
 10
9.6637890323
 20
6.3918418666
 10
9.6357235513
 20
6.4151544774
 10
9.6079214603
 20
6.4395819249
 10
9.580425628
 20
6.4650865438
 10
9.5532784511
 20
6.4916290078
 10
9.5265217886
 20
6.5191683903
 10
9.5001968972
 20
6.5476622276
 10
9.4743443681
 20
6.5770665843
 10
9.449004064
 20
6.607336121
 10
9.4242150577
 20
6.6384241642
 10
9.4000155722
 20
6.6702827785
 10
9.3764429213
 20
6.7028628401
 10
9.3535334524
 20
6.736114113
 10
9.33132249
 20
6.7699853261
 10
9.309844282
 20
6.8044242525
 10
9.2891319462
 20
6.8393777899
 10
9.2692174195
 20
6.8747920423
 10
9.2501314087
 20
6.9106124037
 10
9.231903343
 20
6.9467836415
 10
9.2145613287
 20
6.9832499825
 10
9.1981321061
 20
7.019955198
 10
9.1826410077
 20
7.0568426914
 10
9.1681119197
 20
7.0938555848
 10
9.154567245
 20
7.130936807
 10
9.1420278684
 20
7.1680291815
 10
9.1305131247
 20
7.2050755144
 10
9.1200407688
 20
7.2420186831
 10
9.1106269484
 20
7.2788017238
 10
9.1022861789
 20
7.3153679198
 10
9.0950313211
 20
7.3516608886
 10
9.0888735615
 20
7.3876246692
 10
9.083822395
 20
7.4232038079
 10
9.07988561
 20
7.4583434443
 10
9.0770692768
 20
7.4929893956
 10
9.0753777379
 20
7.5270882404
 10
9.0748136017
 20
7.5605874006
  0
LWPOLYLINE
  5
154
330
1F
100
AcDbEntity
  8
0
  6
Continuous
 62
     7
370
     0
100
AcDbPolyline
 90
      160
 70
   128
 43
0.0
 10
9.0941321182
 20
7.5575991395
 10
9.0946938104
 20
7.5244515982
 10
9.09637801
 20
7.4907072968
 10
9.0991820873
 20
7.4564189231
 10
9.1031016641
 20
7.4216400143
 10
9.1081306204
 20
7.3864248735
 10
9.1142611042
 20
7.350828485
 10
9.1214835433
 20
7.3149064283
 10
9.1297866608
 20
7.2787147914
 10
9.1391574924
 20
7.2423100834
 10
9.1495814066
 20
7.2057491457
 10
9.1610421278
 20
7.169089064
 10
9.1735217613
 20
7.1323870787
 10
9.1870008217
 20
7.0957004955
 10
9.2014582631
 20
7.0590865963
 10
9.2168715118
 20
7.0226025491
 10
9.233216502
 20
6.9863053196
 10
9.2504677128
 20
6.9502515816
 10
9.2685982085
 20
6.9144976287
 10
9.2875796806
 20
6.8790992864
 10
9.3073824917
 20
6.8441118251
 10
9.327975722
 20
6.8095898735
 10
9.3493272177
 20
6.7755873336
 10
9.371403641
 20
6.7421572963
 10
9.3941705221
 20
6.7093519586
 10
9.4175923133
 20
6.6772225422
 10
9.4416324441
 20
6.6458192133
 10
9.4662533789
 20
6.6151910045
 10
9.4914166749
 20
6.5853857381
 10
9.5170830427
 20
6.5564499515
 10
9.5432124071
 20
6.5284288246
 10
9.5697639705
 20
6.5013661089
 10
9.5966962755
 20
6.4753040596
 10
9.6239672707
 20
6.4502833697
 10
9.6515343757
 20
6.4263431058
 10
9.6793545475
 20
6.403520648
 10
9.7073843484
 20
6.3818516307
 10
9.7355800132
 20
6.3613698875
 10
9.7638975176
 20
6.3421073984
 10
9.7922926473
 20
6.3240942392
 10
9.8207210666
 20
6.3073585356
 10
9.8491383879
 20
6.2919264182
 10
9.8775002409
 20
6.2778219825
 10
9.9057623421
 20
6.2650672509
 10
9.9338805634
 20
6.2536821384
 10
9.9618110015
 20
6.2436844215
 10
9.9895100465
 20
6.2350897104
 10
10.0169344496
 20
6.2279114248
 10
10.0440413908
 20
6.2221607727
 10
10.0707885458
 20
6.2178467331
 10
10.0971341522
 20
6.2149760418
 10
10.1230370743
 20
6.2135531811
 10
10.1484568679
 20
6.2135803726
 10
10.173353843
 20
6.2150575738
 10
10.1976891259
 20
6.2179824783
 10
10.2214247199
 20
6.2223505192
 10
10.2445235647
 20
6.2281548763
 10
10.2669495943
 20
6.2353864868
 10
10.288667793
 20
6.2440340593
 10
10.3096442504
 20
6.2540840918
 10
10.3298462144
 20
6.2655208923
 10
10.3492421419
 20
6.2783266036
 10
10.3678017485
 20
6.2924812311
 10
10.3854960556
 20
6.307962674
 10
10.4022974355
 20
6.3247467598
 10
10.4181796551
 20
6.3428072823
 10
10.4331179159
 20
6.3621160421
 10
10.4470888939
 20
6.3826428908
 10
10.4600707748
 20
6.4043557782
 10
10.4720432891
 20
6.4272208022
 10
10.482987743
 20
6.4512022617
 10
10.4928870482
 20
6.4762627127
 10
10.501725748
 20
6.502363026
 10
10.5094900418
 20
6.5294624493
 10
10.5161678067
 20
6.55751867
 10
10.521748616
 20
6.5864878816
 10
10.5262237561
 20
6.6163248522
 10
10.5295862395
 20
6.6469829947
 10
10.531830816
 20
6.6784144403
 10
10.5329539812
 20
6.7105701124
 10
10.5329539812
 20
6.7433998038
 10
10.531830816
 20
6.7768522548
 10
10.5295862395
 20
6.8108752333
 10
10.5262237561
 20
6.8454156166
 10
10.521748616
 20
6.8804194739
 10
10.5161678067
 20
6.9158321508
 10
10.5094900418
 20
6.9515983547
 10
10.501725748
 20
6.9876622408
 10
10.4928870482
 20
7.0239674998
 10
10.482987743
 20
7.0604574452
 10
10.4720432891
 20
7.0970751023
 10
10.4600707748
 20
7.133763297
 10
10.4470888939
 20
7.1704647451
 10
10.4331179159
 20
7.2071221415
 10
10.4181796551
 20
7.2436782502
 10
10.4022974355
 20
7.280075993
 10
10.3854960556
 20
7.3162585393
 10
10.3678017485
 20
7.3521693943
 10
10.3492421419
 20
7.3877524874
 10
10.3298462144
 20
7.4229522599
 10
10.3096442504
 20
7.4577137515
 10
10.288667793
 20
7.4919826863
 10
10.2669495943
 20
7.5257055573
 10
10.2445235647
 20
7.5588297104
 10
10.2214247199
 20
7.591303426
 10
10.1976891259
 20
7.6230760004
 10
10.173353843
 20
7.6540978245
 10
10.1484568679
 20
7.6843204613
 10
10.1230370743
 20
7.7136967218
 10
10.0971341522
 20
7.7421807384
 10
10.0707885458
 20
7.7697280367
 10
10.0440413908
 20
7.796295605
 10
10.0169344496
 20
7.821841961
 10
9.9895100465
 20
7.8463272172
 10
9.9618110015
 20
7.8697131428
 10
9.9338805634
 20
7.8919632234
 10
9.9057623421
 20
7.9130427182
 10
9.8775002409
 20
7.9329187139
 10
9.8491383879
 20
7.9515601768
 10
9.8207210666
 20
7.9689380002
 10
9.7922926473
 20
7.9850250508
 10
9.7638975176
 20
7.9997962105
 10
9.7355800132
 20
8.013228416
 10
9.7073843484
 20
8.0253006945
 10
9.6793545475
 20
8.0359941965
 10
9.6515343757
 20
8.0452922254
 10
9.6239672707
 20
8.0531802634
 10
9.5966962755
 20
8.0596459943
 10
9.5697639705
 20
8.0646793226
 10
9.5432124071
 20
8.0682723894
 10
9.5170830427
 20
8.0704195845
 10
9.4914166749
 20
8.0711175553
 10
9.4662533789
 20
8.0703652121
 10
9.4416324441
 20
8.0681637295
 10
9.4175923133
 20
8.0645165449
 10
9.3941705221
 20
8.059429353
 10
9.371403641
 20
8.0529100967
 10
9.3493272177
 20
8.0449689551
 10
9.327975722
 20
8.0356183274
 10
9.3073824917
 20
8.0248728135
 10
9.2875796806
 20
8.0127491912
 10
9.2685982085
 20
7.9992663901
 10
9.2504677128
 20
7.984445462
 10
9.233216502
 20
7.968309548
 10
9.2168715118
 20
7.9508838425
 10
9.2014582631
 20
7.9321955535
 10
9.1870008217
 20
7.9122738607
 10
9.1735217613
 20
7.8911498695
 10
9.1610421278
 20
7.8688565623
 10
9.1495814066
 20
7.8454287476
 10
9.1391574924
 20
7.8209030052
 10
9.1297866608
 20
7.795317629
 10
9.1214835433
 20
7.7687125675
 10
9.1142611042
 20
7.7411293615
 10
9.1081306204
 20
7.7126110788
 10
9.1031016641
 20
7.6832022474
 10
9.0991820873
 20
7.6529487856
 10
9.09637801
 20
7.6218979307
 10
9.0946938104
 20
7.5900981648
 10
9.0941321182
 20
7.5575991395
  0
ARC
  5
155
330
1F
100
AcDbEntity
  8
0
  6
Continuous
 62
     7
370
     0
100
AcDbCircle
 10
9.1810198474
 20
6.7770631041
 30
0.0
 40
1.673737949627869
100
AcDbArc
 50
2.5807340673
 51
57.4138894
  0
LWPOLYLINE
  5
156
330
1F
100
AcDbEntity
  8
0
  6
Continuous
 62
     7
370
     0
100
AcDbPolyline
 90
       50
 70
   128
 43
0.0
 10
10.8795767407
 20
6.9269238731
 10
10.8790150485
 20
6.9600714144
 10
10.8773308489
 20
6.9938157158
 10
10.8745267716
 20
7.0281040895
 10
10.8706071948
 20
7.0628829983
 10
10.8655782385
 20
7.0980981391
 10
10.8594477548
 20
7.1336945276
 10
10.8522253157
 20
7.1696165843
 10
10.8439221981
 20
7.2058082212
 10
10.8345513665
 20
7.2422129293
 10
10.8241274523
 20
7.2787738669
 10
10.8126667312
 20
7.3154339486
 10
10.8001870977
 20
7.3521359339
 10
10.7867080372
 20
7.3888225171
 10
10.7722505959
 20
7.4254364164
 10
10.7568373471
 20
7.4619204635
 10
10.740492357
 20
7.498217693
 10
10.7232411461
 20
7.534271431
 10
10.7051106504
 20
7.5700253839
 10
10.6861291783
 20
7.6054237262
 10
10.6663263673
 20
7.6404111875
 10
10.6457331369
 20
7.6749331391
 10
10.6243816412
 20
7.708935679
 10
10.6023052179
 20
7.7423657163
 10
10.5795383368
 20
7.775171054
 10
10.5561165457
 20
7.8073004704
 10
10.5320764148
 20
7.8387037993
 10
10.50745548
 20
7.8693320081
 10
10.482292184
 20
7.8991372745
 10
10.4566258163
 20
7.9280730611
 10
10.4304964518
 20
7.956094188
 10
10.4039448885
 20
7.9831569038
 10
10.3770125834
 20
8.009218953
 10
10.3497415882
 20
8.0342396429
 10
10.3221744833
 20
8.0581799068
 10
10.2943543114
 20
8.0810023646
 10
10.2663245105
 20
8.1026713819
 10
10.2381288457
 20
8.1231531251
 10
10.2098113413
 20
8.1424156143
 10
10.1814162116
 20
8.1604287734
 10
10.1529877923
 20
8.1771644771
 10
10.124570471
 20
8.1925965944
 10
10.096208618
 20
8.2067010301
 10
10.0679465169
 20
8.2194557617
 10
10.0398282956
 20
8.2308408743
 10
10.0118978574
 20
8.2408385912
 10
9.9841988124
 20
8.2494333022
 10
9.9567744093
 20
8.2566115878
 10
9.9296674681
 20
8.2623622399
 10
9.9139842072
 20
8.2650592239
  0
ARC
  5
157
330
1F
100
AcDbEntity
  8
0
  6
Continuous
 62
     7
370
     0
100
AcDbCircle
 10
10.1549990286
 20
6.9150780888
 30
0.0
 40
0.7246745362102075
100
AcDbArc
 50
340.0379154229
 51
0.9366186332
  0
ARC
  5
158
330
1F
100
AcDbEntity
  8
0
  6
Continuous
 62
     7
370
     0
100
AcDbCircle
 10
10.771635542
 20
4.315620498
 30
0.0
 40
3.622047244094488
100
AcDbArc
 50
164.0740187144
 51
179.9475329386
  0
LINE
  5
159
330
1F
100
AcDbEntity
  8
0
  6
Continuous
 62
     7
370
     0
100
AcDbLine
 10
7.3011646197
 20
5.3189372894
 30
0.0
 11
7.2886134046
 21
5.3094932409
 31
0.0
  0
LINE
  5
15A
330
1F
100
AcDbEntity
  8
0
  6
Continuous
 62
     7
370
     0
100
AcDbLine
 10
7.3011646197
 20
5.3189372894
 30
0.0
 11
7.3995898165
 21
5.3189372894
 31
0.0
  0
LINE
  5
15B
330
1F
100
AcDbEntity
  8
0
  6
Continuous
 62
     7
370
     0
100
AcDbLine
 10
7.4094323362
 20
5.3090947697
 30
0.0
 11
7.3995898165
 21
5.3189372894
 31
0.0
  0
LINE
  5
15C
330
1F
100
AcDbEntity
  8
0
  6
Continuous
 62
     7
370
     0
100
AcDbLine
 10
7.4094323362
 20
5.3090947697
 30
0.0
 11
7.4094323362
 21
3.3287798091
 31
0.0
  0
LINE
  5
15D
330
1F
100
AcDbEntity
  8
0
  6
Continuous
 62
     7
370
     0
100
AcDbLine
 10
7.3995898165
 20
3.3189372894
 30
0.0
 11
7.4094323362
 21
3.3287798091
 31
0.0
  0
LINE
  5
15E
330
1F
100
AcDbEntity
  8
0
  6
Continuous
 62
     7
370
     0
100
AcDbLine
 10
7.3995898165
 20
3.3189372894
 30
0.0
 11
7.3011646197
 21
3.3189372894
 31
0.0
  0
LINE
  5
15F
330
1F
100
AcDbEntity
  8
0
  6
Continuous
 62
     7
370
     0
100
AcDbLine
 10
7.2886134046
 20
3.328381338
 30
0.0
 11
7.3011646197
 21
3.3189372894
 31
0.0
  0
ARC
  5
160
330
1F
100
AcDbEntity
  8
0
  6
Continuous
 62
     7
370
     0
100
AcDbCircle
 10
10.771635542
 20
4.3222540808
 30
0.0
 40
3.622047244094488
100
AcDbArc
 50
180.0524670614
 51
195.9259812856
  0
LINE
  5
161
330
1F
100
AcDbEntity
  8
0
  6
Continuous
 62
     7
370
     0
100
AcDbLine
 10
7.2820668765
 20
5.3264372894
 30
0.0
 11
7.2647463684
 21
5.3364372894
 31
0.0
  0
LINE
  5
162
330
1F
100
AcDbEntity
  8
0
  6
Continuous
 62
     7
370
     0
100
AcDbLine
 10
7.2647463684
 20
3.3014372894
 30
0.0
 11
7.2820668765
 21
3.3114372894
 31
0.0
  0
LINE
  5
163
330
1F
100
AcDbEntity
  8
0
  6
Continuous
 62
     7
370
     0
100
AcDbLine
 10
7.2820668765
 20
3.3516167813
 30
0.0
 11
7.2720668765
 21
3.3689372894
 31
0.0
  0
LINE
  5
164
330
1F
100
AcDbEntity
  8
0
  6
Continuous
 62
     7
370
     0
100
AcDbLine
 10
7.2720668765
 20
3.3689372894
 30
0.0
 11
7.2720668765
 21
3.3883132937
 31
0.0
  0
LINE
  5
165
330
1F
100
AcDbEntity
  8
0
  6
Continuous
 62
     7
370
     0
100
AcDbLine
 10
7.2720668765
 20
5.2495612851
 30
0.0
 11
7.2720668765
 21
5.2689372894
 31
0.0
  0
LINE
  5
166
330
1F
100
AcDbEntity
  8
0
  6
Continuous
 62
     7
370
     0
100
AcDbLine
 10
7.2720668765
 20
5.2689372894
 30
0.0
 11
7.2820668765
 21
5.2862577975
 31
0.0
  0
LINE
  5
167
330
1F
100
AcDbEntity
  8
0
  6
Continuous
 62
     7
370
     0
100
AcDbLine
 10
7.1820668765
 20
5.2789372894
 30
0.0
 11
7.1993873846
 21
5.2689372894
 31
0.0
  0
LINE
  5
168
330
1F
100
AcDbEntity
  8
0
  6
Continuous
 62
     7
370
     0
100
AcDbLine
 10
7.1820668765
 20
5.2789372894
 30
0.0
 11
7.1820668765
 21
5.3191167813
 31
0.0
  0
LINE
  5
169
330
1F
100
AcDbEntity
  8
0
  6
Continuous
 62
     7
370
     0
100
AcDbLine
 10
7.1920668765
 20
5.3364372894
 30
0.0
 11
7.1820668765
 21
5.3191167813
 31
0.0
  0
LINE
  5
16A
330
1F
100
AcDbEntity
  8
0
  6
Continuous
 62
     7
370
     0
100
AcDbLine
 10
7.1920668765
 20
5.3364372894
 30
0.0
 11
7.2647463684
 21
5.3364372894
 31
0.0
  0
LINE
  5
16B
330
1F
100
AcDbEntity
  8
0
  6
Continuous
 62
     7
370
     0
100
AcDbLine
 10
7.2720668765
 20
5.2689372894
 30
0.0
 11
7.1993873846
 21
5.2689372894
 31
0.0
  0
LINE
  5
16C
330
1F
100
AcDbEntity
  8
0
  6
Continuous
 62
     7
370
     0
100
AcDbLine
 10
7.2820668765
 20
5.3264372894
 30
0.0
 11
7.2820668765
 21
5.2862577975
 31
0.0
  0
LINE
  5
16D
330
1F
100
AcDbEntity
  8
0
  6
Continuous
 62
     7
370
     0
100
AcDbLine
 10
7.2647463684
 20
3.3014372894
 30
0.0
 11
7.1920668765
 21
3.3014372894
 31
0.0
  0
LINE
  5
16E
330
1F
100
AcDbEntity
  8
0
  6
Continuous
 62
     7
370
     0
100
AcDbLine
 10
7.1820668765
 20
3.3187577975
 30
0.0
 11
7.1920668765
 21
3.3014372894
 31
0.0
  0
LINE
  5
16F
330
1F
100
AcDbEntity
  8
0
  6
Continuous
 62
     7
370
     0
100
AcDbLine
 10
7.1820668765
 20
3.3187577975
 30
0.0
 11
7.1820668765
 21
3.3589372894
 31
0.0
  0
LINE
  5
170
330
1F
100
AcDbEntity
  8
0
  6
Continuous
 62
     7
370
     0
100
AcDbLine
 10
7.1993873846
 20
3.3689372894
 30
0.0
 11
7.1820668765
 21
3.3589372894
 31
0.0
  0
LINE
  5
171
330
1F
100
AcDbEntity
  8
0
  6
Continuous
 62
     7
370
     0
100
AcDbLine
 10
7.1993873846
 20
3.3689372894
 30
0.0
 11
7.2720668765
 21
3.3689372894
 31
0.0
  0
LINE
  5
172
330
1F
100
AcDbEntity
  8
0
  6
Continuous
 62
     7
370
     0
100
AcDbLine
 10
7.2820668765
 20
3.3516167813
 30
0.0
 11
7.2820668765
 21
3.3114372894
 31
0.0
  0
LINE
  5
173
330
1F
100
AcDbEntity
  8
0
  6
Continuous
 62
     7
370
     0
100
AcDbLine
 10
7.1993873846
 20
5.2689372894
 30
0.0
 11
7.1993873846
 21
4.914176544
 31
0.0
  0
LINE
  5
174
330
1F
100
AcDbEntity
  8
0
  6
Continuous
 62
     7
370
     0
100
AcDbLine
 10
7.1993873846
 20
3.7236980349
 30
0.0
 11
7.1993873846
 21
3.3689372894
 31
0.0
  0
LINE
  5
175
330
1F
100
AcDbEntity
  8
0
  6
Continuous
 62
     7
370
     0
100
AcDbLine
 10
7.1820668765
 20
4.7995864411
 30
0.0
 11
7.1820668765
 21
5.2789372894
 31
0.0
  0
LINE
  5
176
330
1F
100
AcDbEntity
  8
0
  6
Continuous
 62
     7
370
     0
100
AcDbLine
 10
7.1820668765
 20
3.3589372894
 30
0.0
 11
7.1820668765
 21
3.8382881378
 31
0.0
  0
LINE
  5
177
330
1F
100
AcDbEntity
  8
0
  6
Continuous
 62
     7
370
     0
100
AcDbLine
 10
7.0594323362
 20
3.3014372894
 30
0.0
 11
7.0494323362
 21
3.2841167813
 31
0.0
  0
LINE
  5
178
330
1F
100
AcDbEntity
  8
0
  6
Continuous
 62
     7
370
     0
100
AcDbLine
 10
7.0594323362
 20
3.3014372894
 30
0.0
 11
7.3994323362
 21
3.3014372894
 31
0.0
  0
LINE
  5
179
330
1F
100
AcDbEntity
  8
0
  6
Continuous
 62
     7
370
     0
100
AcDbLine
 10
7.3994323362
 20
3.3014372894
 30
0.0
 11
7.3994323362
 21
3.2914372894
 31
0.0
  0
LINE
  5
17A
330
1F
100
AcDbEntity
  8
0
  6
Continuous
 62
     7
370
     0
100
AcDbLine
 10
7.3994323362
 20
3.2914372894
 30
0.0
 11
7.4094323362
 21
3.2914372894
 31
0.0
  0
LINE
  5
17B
330
1F
100
AcDbEntity
  8
0
  6
Continuous
 62
     7
370
     0
100
AcDbLine
 10
7.4094323362
 20
3.2914372894
 30
0.0
 11
7.4094323362
 21
3.3689372894
 31
0.0
  0
LINE
  5
17C
330
1F
100
AcDbEntity
  8
0
  6
Continuous
 62
     7
370
     0
100
AcDbLine
 10
7.4094323362
 20
3.3689372894
 30
0.0
 11
7.5594323362
 21
3.3689372894
 31
0.0
  0
LINE
  5
17D
330
1F
100
AcDbEntity
  8
0
  6
Continuous
 62
     7
370
     0
100
AcDbLine
 10
7.5594323362
 20
3.3689372894
 30
0.0
 11
7.5594323362
 21
3.3187577975
 31
0.0
  0
LINE
  5
17E
330
1F
100
AcDbEntity
  8
0
  6
Continuous
 62
     7
370
     0
100
AcDbLine
 10
7.5494323362
 20
3.3014372894
 30
0.0
 11
7.5594323362
 21
3.3187577975
 31
0.0
  0
LINE
  5
17F
330
1F
100
AcDbEntity
  8
0
  6
Continuous
 62
     7
370
     0
100
AcDbLine
 10
7.5494323362
 20
3.3014372894
 30
0.0
 11
7.4494323362
 21
3.3014372894
 31
0.0
  0
LINE
  5
180
330
1F
100
AcDbEntity
  8
0
  6
Continuous
 62
     7
370
     0
100
AcDbLine
 10
7.4494323362
 20
3.3014372894
 30
0.0
 11
7.4494323362
 21
3.3114372894
 31
0.0
  0
LINE
  5
181
330
1F
100
AcDbEntity
  8
0
  6
Continuous
 62
     7
370
     0
100
AcDbLine
 10
7.4494323362
 20
3.3114372894
 30
0.0
 11
7.4394323362
 21
3.3114372894
 31
0.0
  0
LINE
  5
182
330
1F
100
AcDbEntity
  8
0
  6
Continuous
 62
     7
370
     0
100
AcDbLine
 10
7.4394323362
 20
3.3114372894
 30
0.0
 11
7.4394323362
 21
3.2289372894
 31
0.0
  0
LINE
  5
183
330
1F
100
AcDbEntity
  8
0
  6
Continuous
 62
     7
370
     0
100
AcDbLine
 10
7.4294323362
 20
3.2189372894
 30
0.0
 11
7.4394323362
 21
3.2289372894
 31
0.0
  0
LINE
  5
184
330
1F
100
AcDbEntity
  8
0
  6
Continuous
 62
     7
370
     0
100
AcDbLine
 10
7.4294323362
 20
3.2189372894
 30
0.0
 11
7.2844323362
 21
3.2189372894
 31
0.0
  0
LINE
  5
185
330
1F
100
AcDbEntity
  8
0
  6
Continuous
 62
     7
370
     0
100
AcDbLine
 10
7.2844323362
 20
3.2189372894
 30
0.0
 11
7.263912902
 21
3.2189372894
 31
0.0
  0
LINE
  5
186
330
1F
100
AcDbEntity
  8
0
  6
Continuous
 62
     7
370
     0
100
AcDbLine
 10
7.263912902
 20
3.2189372894
 30
0.0
 11
7.2406462155
 21
3.2189372894
 31
0.0
  0
LINE
  5
187
330
1F
100
AcDbEntity
  8
0
  6
Continuous
 62
     7
370
     0
100
AcDbLine
 10
7.2406462155
 20
3.2189372894
 30
0.0
 11
7.2106344835
 21
3.2189372894
 31
0.0
  0
LINE
  5
188
330
1F
100
AcDbEntity
  8
0
  6
Continuous
 62
     7
370
     0
100
AcDbLine
 10
7.2106344835
 20
3.2189372894
 30
0.0
 11
7.0594323362
 21
3.2189372894
 31
0.0
  0
LINE
  5
189
330
1F
100
AcDbEntity
  8
0
  6
Continuous
 62
     7
370
     0
100
AcDbLine
 10
7.0494323362
 20
3.2289372894
 30
0.0
 11
7.0594323362
 21
3.2189372894
 31
0.0
  0
LINE
  5
18A
330
1F
100
AcDbEntity
  8
0
  6
Continuous
 62
     7
370
     0
100
AcDbLine
 10
7.0494323362
 20
3.2289372894
 30
0.0
 11
7.0494323362
 21
3.2841167813
 31
0.0
  0
LINE
  5
18B
330
1F
100
AcDbEntity
  8
0
  6
Continuous
 62
     7
370
     0
100
AcDbLine
 10
7.2044323362
 20
5.4189372894
 30
0.0
 11
7.2136631055
 21
5.4189372894
 31
0.0
  0
LINE
  5
18C
330
1F
100
AcDbEntity
  8
0
  6
Continuous
 62
     7
370
     0
100
AcDbLine
 10
7.2136631055
 20
5.4189372894
 30
0.0
 11
7.2382784901
 21
5.4189372894
 31
0.0
  0
LINE
  5
18D
330
1F
100
AcDbEntity
  8
0
  6
Continuous
 62
     7
370
     0
100
AcDbLine
 10
7.2382784901
 20
5.4189372894
 30
0.0
 11
7.2475092593
 21
5.4189372894
 31
0.0
  0
LINE
  5
18E
330
1F
100
AcDbEntity
  8
0
  6
Continuous
 62
     7
370
     0
100
AcDbLine
 10
7.2475092593
 20
5.4189372894
 30
0.0
 11
7.275201567
 21
5.4189372894
 31
0.0
  0
LINE
  5
18F
330
1F
100
AcDbEntity
  8
0
  6
Continuous
 62
     7
370
     0
100
AcDbLine
 10
7.275201567
 20
5.4189372894
 30
0.0
 11
7.2844323362
 21
5.4189372894
 31
0.0
  0
LINE
  5
190
330
1F
100
AcDbEntity
  8
0
  6
Continuous
 62
     7
370
     0
100
AcDbLine
 10
7.2844323362
 20
5.4189372894
 30
0.0
 11
7.3388687907
 21
5.4189372894
 31
0.0
  0
LINE
  5
191
330
1F
100
AcDbEntity
  8
0
  6
Continuous
 62
     7
370
     0
100
AcDbLine
 10
7.3388687907
 20
5.4189372894
 30
0.0
 11
7.3604090368
 21
5.4189372894
 31
0.0
  0
LINE
  5
192
330
1F
100
AcDbEntity
  8
0
  6
Continuous
 62
     7
370
     0
100
AcDbLine
 10
7.3604090368
 20
5.4189372894
 30
0.0
 11
7.4294323362
 21
5.4189372894
 31
0.0
  0
LINE
  5
193
330
1F
100
AcDbEntity
  8
0
  6
Continuous
 62
     7
370
     0
100
AcDbLine
 10
7.4394323362
 20
5.4089372894
 30
0.0
 11
7.4294323362
 21
5.4189372894
 31
0.0
  0
LINE
  5
194
330
1F
100
AcDbEntity
  8
0
  6
Continuous
 62
     7
370
     0
100
AcDbLine
 10
7.4394323362
 20
5.4089372894
 30
0.0
 11
7.4394323362
 21
5.3264372894
 31
0.0
  0
LINE
  5
195
330
1F
100
AcDbEntity
  8
0
  6
Continuous
 62
     7
370
     0
100
AcDbLine
 10
7.4394323362
 20
5.3264372894
 30
0.0
 11
7.4494323362
 21
5.3264372894
 31
0.0
  0
LINE
  5
196
330
1F
100
AcDbEntity
  8
0
  6
Continuous
 62
     7
370
     0
100
AcDbLine
 10
7.4494323362
 20
5.3264372894
 30
0.0
 11
7.4494323362
 21
5.3364372894
 31
0.0
  0
LINE
  5
197
330
1F
100
AcDbEntity
  8
0
  6
Continuous
 62
     7
370
     0
100
AcDbLine
 10
7.4494323362
 20
5.3364372894
 30
0.0
 11
7.5494323362
 21
5.3364372894
 31
0.0
  0
LINE
  5
198
330
1F
100
AcDbEntity
  8
0
  6
Continuous
 62
     7
370
     0
100
AcDbLine
 10
7.5594323362
 20
5.3191167813
 30
0.0
 11
7.5494323362
 21
5.3364372894
 31
0.0
  0
LINE
  5
199
330
1F
100
AcDbEntity
  8
0
  6
Continuous
 62
     7
370
     0
100
AcDbLine
 10
7.5594323362
 20
5.3191167813
 30
0.0
 11
7.5594323362
 21
5.2689372894
 31
0.0
  0
LINE
  5
19A
330
1F
100
AcDbEntity
  8
0
  6
Continuous
 62
     7
370
     0
100
AcDbLine
 10
7.5594323362
 20
5.2689372894
 30
0.0
 11
7.4094323362
 21
5.2689372894
 31
0.0
  0
LINE
  5
19B
330
1F
100
AcDbEntity
  8
0
  6
Continuous
 62
     7
370
     0
100
AcDbLine
 10
7.4094323362
 20
5.2689372894
 30
0.0
 11
7.4094323362
 21
5.3464372894
 31
0.0
  0
LINE
  5
19C
330
1F
100
AcDbEntity
  8
0
  6
Continuous
 62
     7
370
     0
100
AcDbLine
 10
7.4094323362
 20
5.3464372894
 30
0.0
 11
7.3994323362
 21
5.3464372894
 31
0.0
  0
LINE
  5
19D
330
1F
100
AcDbEntity
  8
0
  6
Continuous
 62
     7
370
     0
100
AcDbLine
 10
7.3994323362
 20
5.3464372894
 30
0.0
 11
7.3994323362
 21
5.3364372894
 31
0.0
  0
LINE
  5
19E
330
1F
100
AcDbEntity
  8
0
  6
Continuous
 62
     7
370
     0
100
AcDbLine
 10
7.3994323362
 20
5.3364372894
 30
0.0
 11
7.0594323362
 21
5.3364372894
 31
0.0
  0
LINE
  5
19F
330
1F
100
AcDbEntity
  8
0
  6
Continuous
 62
     7
370
     0
100
AcDbLine
 10
7.0494323362
 20
5.3537577975
 30
0.0
 11
7.0594323362
 21
5.3364372894
 31
0.0
  0
LINE
  5
1A0
330
1F
100
AcDbEntity
  8
0
  6
Continuous
 62
     7
370
     0
100
AcDbLine
 10
7.0494323362
 20
5.3537577975
 30
0.0
 11
7.0494323362
 21
5.4089372894
 31
0.0
  0
LINE
  5
1A1
330
1F
100
AcDbEntity
  8
0
  6
Continuous
 62
     7
370
     0
100
AcDbLine
 10
7.0594323362
 20
5.4189372894
 30
0.0
 11
7.0494323362
 21
5.4089372894
 31
0.0
  0
LINE
  5
1A2
330
1F
100
AcDbEntity
  8
0
  6
Continuous
 62
     7
370
     0
100
AcDbLine
 10
7.0594323362
 20
5.4189372894
 30
0.0
 11
7.2044323362
 21
5.4189372894
 31
0.0
  0
LINE
  5
1A3
330
1F
100
AcDbEntity
  8
0
  6
Continuous
 62
     7
370
     0
100
AcDbLine
 10
7.5594323362
 20
3.3689372894
 30
0.0
 11
7.5594323362
 21
5.2689372894
 31
0.0
  0
LINE
  5
1A4
330
1F
100
AcDbEntity
  8
0
  6
Continuous
 62
     7
370
     0
100
AcDbLine
 10
7.0594323362
 20
5.3364372894
 30
0.0
 11
7.0594323362
 21
3.3014372894
 31
0.0
  0
LINE
  5
1A5
330
1F
100
AcDbEntity
  8
0
  6
Continuous
 62
     7
370
     0
100
AcDbLine
 10
7.3994323362
 20
3.3014372894
 30
0.0
 11
7.3994323362
 21
3.3189372894
 31
0.0
  0
LINE
  5
1A6
330
1F
100
AcDbEntity
  8
0
  6
Continuous
 62
     7
370
     0
100
AcDbLine
 10
7.3994323362
 20
5.3189372894
 30
0.0
 11
7.3994323362
 21
5.3364372894
 31
0.0
  0
LINE
  5
1A7
330
1F
100
AcDbEntity
  8
0
  6
Continuous
 62
     7
370
     0
100
AcDbLine
 10
7.0494323362
 20
3.2841167813
 30
0.0
 11
7.0494323362
 21
5.3537577975
 31
0.0
  0
HATCH
  5
1A8
330
1F
100
AcDbEntity
  8
0
  6
Continuous
 62
     7
370
     0
100
AcDbHatch
 10
0.0
 20
0.0
 30
0.0
210
0.0
220
0.0
230
1.0
  2
ANSI31
 70
     0
 71
     0
 91
        1
 92
        0
 93
       24
 72
     1
 10
7.204432336226961
 20
5.418937289423173
 11
7.05943233622696
 21
5.418937289423173
 72
     1
 10
7.05943233622696
 20
5.418937289423173
 11
7.049432336226961
 21
5.408937289423173
 72
     1
 10
7.049432336226961
 20
5.408937289423173
 11
7.049432336226961
 21
5.353757797498861
 72
     1
 10
7.049432336226961
 20
5.353757797498861
 11
7.059432336226961
 21
5.336437289423173
 72
     1
 10
7.059432336226961
 20
5.336437289423173
 11
7.399432336226961
 21
5.336437289423173
 72
     1
 10
7.399432336226961
 20
5.336437289423173
 11
7.399432336226961
 21
5.346437289423172
 72
     1
 10
7.399432336226961
 20
5.346437289423172
 11
7.409432336226962
 21
5.346437289423172
 72
     1
 10
7.409432336226962
 20
5.346437289423172
 11
7.409432336226962
 21
5.268937289423174
 72
     1
 10
7.409432336226962
 20
5.268937289423174
 11
7.559432336226962
 21
5.268937289423174
 72
     1
 10
7.559432336226962
 20
5.268937289423174
 11
7.559432336226962
 21
5.319116781347484
 72
     1
 10
7.559432336226962
 20
5.319116781347484
 11
7.549432336226961
 21
5.336437289423173
 72
     1
 10
7.549432336226961
 20
5.336437289423173
 11
7.449432336226961
 21
5.336437289423173
 72
     1
 10
7.449432336226961
 20
5.336437289423173
 11
7.449432336226961
 21
5.326437289423173
 72
     1
 10
7.449432336226961
 20
5.326437289423173
 11
7.439432336226961
 21
5.326437289423173
 72
     1
 10
7.439432336226961
 20
5.326437289423173
 11
7.439432336226961
 21
5.408937289423173
 72
     1
 10
7.439432336226961
 20
5.408937289423173
 11
7.429432336226962
 21
5.418937289423173
 72
     1
 10
7.429432336226962
 20
5.418937289423173
 11
7.360409036755255
 21
5.418937289423173
 72
     1
 10
7.360409036755255
 20
5.418937289423173
 11
7.338868790719665
 21
5.418937289423173
 72
     1
 10
7.338868790719665
 20
5.418937289423173
 11
7.284432336226961
 21
5.418937289423173
 72
     1
 10
7.284432336226961
 20
5.418937289423173
 11
7.275201566996191
 21
5.418937289423173
 72
     1
 10
7.275201566996191
 20
5.418937289423173
 11
7.247509259303884
 21
5.418937289423173
 72
     1
 10
7.247509259303884
 20
5.418937289423173
 11
7.238278490073115
 21
5.418937289423173
 72
     1
 10
7.238278490073115
 20
5.418937289423173
 11
7.21366310545773
 21
5.418937289423173
 72
     1
 10
7.21366310545773
 20
5.418937289423173
 11
7.204432336226961
 21
5.418937289423173
 97
        0
 75
     0
 76
     1
 52
0.0
 41
1.0
 77
     0
 78
     1
 53
45.0
 43
0.0
 44
0.0
 45
-0.0883883476483184
 46
0.0883883476483184
 79
     0
 98
        1
 10
0.0
 20
0.0
  0
HATCH
  5
1A9
330
1F
100
AcDbEntity
  8
0
  6
Continuous
 62
     7
370
     0
100
AcDbHatch
 10
0.0
 20
0.0
 30
0.0
210
0.0
220
0.0
230
1.0
  2
ANSI31
 70
     0
 71
     0
 91
        1
 92
        0
 93
       20
 72
     1
 10
7.049432336226961
 20
3.284116781347484
 11
7.049432336226961
 21
3.228937289423172
 72
     1
 10
7.049432336226961
 20
3.228937289423172
 11
7.05943233622696
 21
3.218937289423173
 72
     1
 10
7.05943233622696
 20
3.218937289423173
 11
7.210634483451499
 21
3.218937289423173
 72
     1
 10
7.210634483451499
 20
3.218937289423173
 11
7.240646215518939
 21
3.218937289423173
 72
     1
 10
7.240646215518939
 20
3.218937289423173
 11
7.263912901957553
 21
3.218937289423173
 72
     1
 10
7.263912901957553
 20
3.218937289423173
 11
7.284432336226961
 21
3.218937289423173
 72
     1
 10
7.284432336226961
 20
3.218937289423173
 11
7.429432336226962
 21
3.218937289423172
 72
     1
 10
7.429432336226962
 20
3.218937289423172
 11
7.439432336226961
 21
3.228937289423172
 72
     1
 10
7.439432336226961
 20
3.228937289423172
 11
7.439432336226961
 21
3.311437289423173
 72
     1
 10
7.439432336226961
 20
3.311437289423173
 11
7.449432336226961
 21
3.311437289423173
 72
     1
 10
7.449432336226961
 20
3.311437289423173
 11
7.449432336226961
 21
3.301437289423173
 72
     1
 10
7.449432336226961
 20
3.301437289423173
 11
7.549432336226961
 21
3.301437289423173
 72
     1
 10
7.549432336226961
 20
3.301437289423173
 11
7.559432336226962
 21
3.318757797498862
 72
     1
 10
7.559432336226962
 20
3.318757797498862
 11
7.559432336226962
 21
3.368937289423173
 72
     1
 10
7.559432336226962
 20
3.368937289423173
 11
7.409432336226962
 21
3.368937289423173
 72
     1
 10
7.409432336226962
 20
3.368937289423173
 11
7.409432336226962
 21
3.291437289423173
 72
     1
 10
7.409432336226962
 20
3.291437289423173
 11
7.399432336226961
 21
3.291437289423173
 72
     1
 10
7.399432336226961
 20
3.291437289423173
 11
7.399432336226961
 21
3.301437289423173
 72
     1
 10
7.399432336226961
 20
3.301437289423173
 11
7.059432336226961
 21
3.301437289423173
 72
     1
 10
7.059432336226961
 20
3.301437289423173
 11
7.049432336226961
 21
3.284116781347484
 97
        0
 75
     0
 76
     1
 52
0.0
 41
1.0
 77
     0
 78
     1
 53
45.0
 43
0.0
 44
0.0
 45
-0.0883883476483184
 46
0.0883883476483184
 79
     0
 98
        1
 10
0.0
 20
0.0
  0
HATCH
  5
1AA
330
1F
100
AcDbEntity
  8
0
  6
Continuous
 62
     7
370
     0
100
AcDbHatch
 10
0.0
 20
0.0
 30
0.0
210
0.0
220
0.0
230
1.0
  2
ANSI31
 70
     0
 71
     0
 91
        1
 92
        0
 93
        8
 72
     1
 10
7.199387384568158
 20
5.268937289423174
 11
7.272066876492468
 21
5.268937289423174
 72
     1
 10
7.272066876492468
 20
5.268937289423174
 11
7.282066876492467
 21
5.286257797498862
 72
     1
 10
7.282066876492467
 20
5.286257797498862
 11
7.282066876492467
 21
5.326437289423173
 72
     1
 10
7.282066876492467
 20
5.326437289423173
 11
7.264746368416778
 21
5.336437289423173
 72
     1
 10
7.264746368416778
 20
5.336437289423173
 11
7.192066876492467
 21
5.336437289423173
 72
     1
 10
7.192066876492467
 20
5.336437289423173
 11
7.182066876492467
 21
5.319116781347485
 72
     1
 10
7.182066876492467
 20
5.319116781347485
 11
7.182066876492467
 21
5.278937289423173
 72
     1
 10
7.182066876492467
 20
5.278937289423173
 11
7.199387384568158
 21
5.268937289423174
 97
        0
 75
     0
 76
     1
 52
90.0
 41
0.25
 77
     0
 78
     1
 53
135.0000000000002
 43
0.0
 44
0.0
 45
-0.0220970869120795
 46
-0.0220970869120797
 79
     0
 98
        1
 10
0.0
 20
0.0
  0
HATCH
  5
1AB
330
1F
100
AcDbEntity
  8
0
  6
Continuous
 62
     7
370
     0
100
AcDbHatch
 10
0.0
 20
0.0
 30
0.0
210
0.0
220
0.0
230
1.0
  2
ANSI31
 70
     0
 71
     0
 91
        1
 92
        0
 93
        8
 72
     1
 10
7.282066876492467
 20
3.311437289423173
 11
7.282066876492467
 21
3.351616781347484
 72
     1
 10
7.282066876492467
 20
3.351616781347484
 11
7.272066876492468
 21
3.368937289423173
 72
     1
 10
7.272066876492468
 20
3.368937289423173
 11
7.199387384568158
 21
3.368937289423173
 72
     1
 10
7.199387384568158
 20
3.368937289423173
 11
7.182066876492467
 21
3.358937289423172
 72
     1
 10
7.182066876492467
 20
3.358937289423172
 11
7.182066876492467
 21
3.318757797498861
 72
     1
 10
7.182066876492467
 20
3.318757797498861
 11
7.192066876492467
 21
3.301437289423173
 72
     1
 10
7.192066876492467
 20
3.301437289423173
 11
7.264746368416778
 21
3.301437289423173
 72
     1
 10
7.264746368416778
 20
3.301437289423173
 11
7.282066876492467
 21
3.311437289423173
 97
        0
 75
     0
 76
     1
 52
90.0
 41
0.25
 77
     0
 78
     1
 53
135.0000000000002
 43
0.0
 44
0.0
 45
-0.0220970869120795
 46
-0.0220970869120797
 79
     0
 98
        1
 10
0.0
 20
0.0
  0
HATCH
  5
1AC
330
1F
100
AcDbEntity
  8
0
  6
Continuous
 62
     7
370
     0
100
AcDbHatch
 10
0.0
 20
0.0
 30
0.0
210
0.0
220
0.0
230
1.0
  2
ANSI31
 70
     0
 71
     0
 91
        1
 92
        0
 93
        9
 72
     2
 10
10.77163554200527
 20
4.322254080818127
 40
3.622047244094488
 50
180.0524670613638
 51
195.9259812856099
 73
     1
 72
     1
 10
7.288613404625009
 20
3.32838133797249
 11
7.301164619691528
 21
3.318937289423173
 72
     1
 10
7.301164619691528
 20
3.318937289423173
 11
7.399589816541924
 21
3.318937289423173
 72
     1
 10
7.399589816541924
 20
3.318937289423173
 11
7.409432336226962
 21
3.328779809108212
 72
     1
 10
7.409432336226962
 20
3.328779809108212
 11
7.409432336226962
 21
5.309094769738134
 72
     1
 10
7.409432336226962
 20
5.309094769738134
 11
7.399589816541924
 21
5.318937289423173
 72
     1
 10
7.399589816541924
 20
5.318937289423173
 11
7.301164619691528
 21
5.318937289423172
 72
     1
 10
7.301164619691528
 20
5.318937289423172
 11
7.288613404625009
 21
5.309493240873856
 72
     2
 10
10.77163554200527
 20
4.315620498028219
 40
3.622047244094488
 50
164.0740187143909
 51
179.947532938637
 73
     1
 97
        0
 75
     0
 76
     1
 52
0.0
 41
1.0
 77
     0
 78
     1
 53
45.0
 43
0.0
 44
0.0
 45
-0.0883883476483184
 46
0.0883883476483184
 79
     0
 98
        1
 10
0.0
 20
0.0
  0
DIMENSION
  5
1AD
330
1F
100
AcDbEntity
  8
0
  6
Continuous
 62
     7
370
     0
100
AcDbDimension
  2
_D_1
 10
8.4255740685
 20
3.3689372894
 30
0.0
 11
8.4255740685
 21
4.3189372894
 31
0.0
 70
   160
  1
%%c<>
 71
     2
 42
-1.0
  3
SLDDIMSTYLE1
100
AcDbAlignedDimension
 13
7.5594323362
 23
5.2689372894
 33
0.0
 14
7.5594323362
 24
3.3689372894
 34
0.0
 50
90.0
100
AcDbRotatedDimension
  0
DIMENSION
  5
1C1
330
1F
100
AcDbEntity
  8
0
  6
Continuous
 62
     7
370
     0
100
AcDbDimension
  2
_D_2
 10
7.5594323362
 20
5.5668437363
 30
0.0
 11
8.4255740685
 21
5.5668437363
 31
0.0
 70
   160
  1
<>
 71
     2
 42
-1.0
  3
SLDDIMSTYLE2
100
AcDbAlignedDimension
 13
7.4394323362
 23
5.4089372894
 33
0.0
 14
7.5594323362
 24
5.3191167813
 34
0.0
100
AcDbRotatedDimension
  0
DIMENSION
  5
1D6
330
1F
100
AcDbEntity
  8
0
  6
Continuous
 62
     7
370
     0
100
AcDbDimension
  2
_D_3
 10
7.0494323362
 20
6.0187579386
 30
0.0
 11
8.4255740685
 21
6.0187579386
 31
0.0
 70
   160
  1
<>
 71
     2
 42
-1.0
  3
SLDDIMSTYLE2
100
AcDbAlignedDimension
 13
7.5594323362
 23
5.3191167813
 33
0.0
 14
7.0494323362
 24
5.4089372894
 34
0.0
100
AcDbRotatedDimension
  0
INSERT
  5
1F1
102
{ACAD_REACTORS
330
1F3
102
}
330
1F
100
AcDbEntity
  8
0
  6
Continuous
 62
     7
370
     0
100
AcDbBlockReference
  2
SW_NOTE_5
 10
6.4126105358
 20
3.6829517265
 30
0.0
  0
LEADER
  5
1F3
330
1F
100
AcDbEntity
  8
0
  6
Continuous
 62
     7
370
     0
100
AcDbLeader
  3
SLDDIMSTYLE3
 73
     2
 76
     3
 10
7.1041361173
 20
3.3014372894
 30
0.0
 10
6.6626105358
 20
3.6829517265
 30
0.0
 10
6.4126105358
 20
3.6829517265
 30
0.0
340
1F1
  0
INSERT
  5
1FA
102
{ACAD_REACTORS
330
1FB
102
}
330
1F
100
AcDbEntity
  8
0
  6
Continuous
 62
     7
370
     0
100
AcDbBlockReference
  2
SW_NOTE_6
 10
8.3872186431
 20
2.6131990819
 30
0.0
  0
LEADER
  5
1FB
330
1F
100
AcDbEntity
  8
0
  6
Continuous
 62
     7
370
     0
100
AcDbLeader
  3
SLDDIMSTYLE3
 73
     2
 76
     3
 10
7.4891045397
 20
3.3014372894
 30
0.0
 10
8.1372186431
 20
2.6131990819
 30
0.0
 10
8.3872186431
 20
2.6131990819
 30
0.0
340
1FA
  0
INSERT
  5
201
102
{ACAD_REACTORS
330
202
102
}
330
1F
100
AcDbEntity
  8
0
  6
Continuous
 62
     7
370
     0
100
AcDbBlockReference
  2
SW_NOTE_7
 10
6.4213845524
 20
4.1504135847
 30
0.0
  0
LEADER
  5
202
330
1F
100
AcDbEntity
  8
0
  6
Continuous
 62
     7
370
     0
100
AcDbLeader
  3
SLDDIMSTYLE3
 73
     2
 76
     3
 10
7.1820668765
 20
3.5098341281
 30
0.0
 10
6.6674475445
 20
4.1504135847
 30
0.0
 10
6.4213845524
 20
4.1504135847
 30
0.0
340
201
  0
INSERT
  5
208
102
{ACAD_REACTORS
330
209
102
}
330
1F
100
AcDbEntity
  8
0
  6
Continuous
 62
     7
370
     0
100
AcDbBlockReference
  2
SW_NOTE_8
 10
6.576478802
 20
2.6710530502
 30
0.0
  0
LEADER
  5
209
330
1F
100
AcDbEntity
  8
0
  6
Continuous
 62
     7
370
     0
100
AcDbLeader
  3
SLDDIMSTYLE3
 73
     2
 76
     3
 10
7.2009786748
 20
3.2189372894
 30
0.0
 10
6.8225417941
 20
2.6710530502
 30
0.0
 10
6.576478802
 20
2.6710530502
 30
0.0
340
208
  0
INSERT
  5
20F
102
{ACAD_REACTORS
330
210
102
}
330
1F
100
AcDbEntity
  8
0
  6
Continuous
 62
     7
370
     0
100
AcDbBlockReference
  2
SW_NOTE_9
 10
8.2290568697
 20
3.0210093057
 30
0.0
  0
LEADER
  5
210
330
1F
100
AcDbEntity
  8
0
  6
Continuous
 62
     7
370
     0
100
AcDbLeader
  3
SLDDIMSTYLE3
 73
     2
 76
     3
 10
7.4141436918
 20
3.5593845191
 30
0.0
 10
7.9829938776
 20
3.0210093057
 30
0.0
 10
8.2290568697
 20
3.0210093057
 30
0.0
340
20F
  0
OLE2FRAME
  5
211
330
1F
100
AcDbEntity
  8
0
100
AcDbOle2Frame
 70
     2
  3
Paintbrush Picture
 10
9.0178120406
 20
1.3267570784
 30
0.0
 11
10.4397105087
 21
1.1242314806
 31
0.0
 71
     2
 72
     0
 73
     1
 90
     7296
310
8055C64EE7A81E092240C05F59A1653AF53F0000000000000000FD155DBC21E1
310
2440C05F59A1653AF53F0000000000000000FD155DBC21E12440A1732426DAFC
310
F13F0000000000000000C64EE7A81E092240A1732426DAFCF13F000000000000
310
00000000000001000000000100000100000001000000000001000000001C0000
310
D0CF11E0A1B11AE1000000000000000000000000000000003E000300FEFF0900
310
0600000000000000000000000100000001000000000000000010000002000000
310
01000000FEFFFFFF0000000000000000FFFFFFFFFFFFFFFFFFFFFFFFFFFFFFFF
310
FFFFFFFFFFFFFFFFFFFFFFFFFFFFFFFFFFFFFFFFFFFFFFFFFFFFFFFFFFFFFFFF
310
FFFFFFFFFFFFFFFFFFFFFFFFFFFFFFFFFFFFFFFFFFFFFFFFFFFFFFFFFFFFFFFF
310
FFFFFFFFFFFFFFFFFFFFFFFFFFFFFFFFFFFFFFFFFFFFFFFFFFFFFFFFFFFFFFFF
310
FFFFFFFFFFFFFFFFFFFFFFFFFFFFFFFFFFFFFFFFFFFFFFFFFFFFFFFFFFFFFFFF
310
FFFFFFFFFFFFFFFFFFFFFFFFFFFFFFFFFFFFFFFFFFFFFFFFFFFFFFFFFFFFFFFF
310
FFFFFFFFFFFFFFFFFFFFFFFFFFFFFFFFFFFFFFFFFFFFFFFFFFFFFFFFFFFFFFFF
310
FFFFFFFFFFFFFFFFFFFFFFFFFFFFFFFFFFFFFFFFFFFFFFFFFFFFFFFFFFFFFFFF
310
FFFFFFFFFFFFFFFFFFFFFFFFFFFFFFFFFFFFFFFFFFFFFFFFFFFFFFFFFFFFFFFF
310
FFFFFFFFFFFFFFFFFFFFFFFFFFFFFFFFFFFFFFFFFFFFFFFFFFFFFFFFFFFFFFFF
310
FFFFFFFFFFFFFFFFFFFFFFFFFFFFFFFFFFFFFFFFFFFFFFFFFFFFFFFFFFFFFFFF
310
FFFFFFFFFFFFFFFFFFFFFFFFFFFFFFFFFFFFFFFFFFFFFFFFFFFFFFFFFFFFFFFF
310
FFFFFFFFFFFFFFFFFFFFFFFFFFFFFFFFFFFFFFFFFFFFFFFFFFFFFFFFFFFFFFFF
310
FFFFFFFFFFFFFFFFFFFFFFFFFFFFFFFFFFFFFFFFFFFFFFFFFFFFFFFFFFFFFFFF
310
FDFFFFFFFEFFFFFFFEFFFFFFFEFFFFFF05000000060000000700000008000000
310
090000000A0000000B0000000C000000FEFFFFFFFFFFFFFFFFFFFFFFFFFFFFFF
310
FFFFFFFFFFFFFFFFFFFFFFFFFFFFFFFFFFFFFFFFFFFFFFFFFFFFFFFFFFFFFFFF
310
FFFFFFFFFFFFFFFFFFFFFFFFFFFFFFFFFFFFFFFFFFFFFFFFFFFFFFFFFFFFFFFF
310
FFFFFFFFFFFFFFFFFFFFFFFFFFFFFFFFFFFFFFFFFFFFFFFFFFFFFFFFFFFFFFFF
310
FFFFFFFFFFFFFFFFFFFFFFFFFFFFFFFFFFFFFFFFFFFFFFFFFFFFFFFFFFFFFFFF
310
FFFFFFFFFFFFFFFFFFFFFFFFFFFFFFFFFFFFFFFFFFFFFFFFFFFFFFFFFFFFFFFF
310
FFFFFFFFFFFFFFFFFFFFFFFFFFFFFFFFFFFFFFFFFFFFFFFFFFFFFFFFFFFFFFFF
310
FFFFFFFFFFFFFFFFFFFFFFFFFFFFFFFFFFFFFFFFFFFFFFFFFFFFFFFFFFFFFFFF
310
FFFFFFFFFFFFFFFFFFFFFFFFFFFFFFFFFFFFFFFFFFFFFFFFFFFFFFFFFFFFFFFF
310
FFFFFFFFFFFFFFFFFFFFFFFFFFFFFFFFFFFFFFFFFFFFFFFFFFFFFFFFFFFFFFFF
310
FFFFFFFFFFFFFFFFFFFFFFFFFFFFFFFFFFFFFFFFFFFFFFFFFFFFFFFFFFFFFFFF
310
FFFFFFFFFFFFFFFFFFFFFFFFFFFFFFFFFFFFFFFFFFFFFFFFFFFFFFFFFFFFFFFF
310
FFFFFFFFFFFFFFFFFFFFFFFFFFFFFFFFFFFFFFFFFFFFFFFFFFFFFFFFFFFFFFFF
310
FFFFFFFFFFFFFFFFFFFFFFFFFFFFFFFFFFFFFFFFFFFFFFFFFFFFFFFFFFFFFFFF
310
FFFFFFFFFFFFFFFFFFFFFFFFFFFFFFFFFFFFFFFFFFFFFFFFFFFFFFFFFFFFFFFF
310
52006F006F007400200045006E00740072007900000000000000000000000000
310
0000000000000000000000000000000000000000000000000000000000000000
310
16000500FFFFFFFFFFFFFFFF020000000A00030000000000C000000000000046
310
000000000000000000000000E0248B4B9E62D10103000000C000000000000000
310
01004F006C006500000000000000000000000000000000000000000000000000
310
0000000000000000000000000000000000000000000000000000000000000000
310
0A000200FFFFFFFFFFFFFFFFFFFFFFFF00000000000000000000000000000000
310
0000000000000000000000000000000000000000000000001400000000000000
310
010043006F006D0070004F0062006A0000000000000000000000000000000000
310
0000000000000000000000000000000000000000000000000000000000000000
310
120002010100000003000000FFFFFFFF00000000000000000000000000000000
310
0000000000000000000000000000000000000000010000004D00000000000000
310
01004F006C006500310030004E00610074006900760065000000000000000000
310
0000000000000000000000000000000000000000000000000000000000000000
310
1A000200FFFFFFFFFFFFFFFFFFFFFFFF00000000000000000000000000000000
310
000000000000000000000000000000000000000004000000E411000000000000
310
FEFFFFFF02000000FEFFFFFFFFFFFFFFFFFFFFFFFFFFFFFFFFFFFFFFFFFFFFFF
310
FFFFFFFFFFFFFFFFFFFFFFFFFFFFFFFFFFFFFFFFFFFFFFFFFFFFFFFFFFFFFFFF
310
FFFFFFFFFFFFFFFFFFFFFFFFFFFFFFFFFFFFFFFFFFFFFFFFFFFFFFFFFFFFFFFF
310
FFFFFFFFFFFFFFFFFFFFFFFFFFFFFFFFFFFFFFFFFFFFFFFFFFFFFFFFFFFFFFFF
310
FFFFFFFFFFFFFFFFFFFFFFFFFFFFFFFFFFFFFFFFFFFFFFFFFFFFFFFFFFFFFFFF
310
FFFFFFFFFFFFFFFFFFFFFFFFFFFFFFFFFFFFFFFFFFFFFFFFFFFFFFFFFFFFFFFF
310
FFFFFFFFFFFFFFFFFFFFFFFFFFFFFFFFFFFFFFFFFFFFFFFFFFFFFFFFFFFFFFFF
310
FFFFFFFFFFFFFFFFFFFFFFFFFFFFFFFFFFFFFFFFFFFFFFFFFFFFFFFFFFFFFFFF
310
FFFFFFFFFFFFFFFFFFFFFFFFFFFFFFFFFFFFFFFFFFFFFFFFFFFFFFFFFFFFFFFF
310
FFFFFFFFFFFFFFFFFFFFFFFFFFFFFFFFFFFFFFFFFFFFFFFFFFFFFFFFFFFFFFFF
310
FFFFFFFFFFFFFFFFFFFFFFFFFFFFFFFFFFFFFFFFFFFFFFFFFFFFFFFFFFFFFFFF
310
FFFFFFFFFFFFFFFFFFFFFFFFFFFFFFFFFFFFFFFFFFFFFFFFFFFFFFFFFFFFFFFF
310
FFFFFFFFFFFFFFFFFFFFFFFFFFFFFFFFFFFFFFFFFFFFFFFFFFFFFFFFFFFFFFFF
310
FFFFFFFFFFFFFFFFFFFFFFFFFFFFFFFFFFFFFFFFFFFFFFFFFFFFFFFFFFFFFFFF
310
FFFFFFFFFFFFFFFFFFFFFFFFFFFFFFFFFFFFFFFFFFFFFFFFFFFFFFFFFFFFFFFF
310
FFFFFFFFFFFFFFFFFFFFFFFFFFFFFFFFFFFFFFFFFFFFFFFFFFFFFFFFFFFFFFFF
310
0100000200000000000000000000000000000000000000000000000000000000
310
0000000000000000000000000000000000000000000000000000000000000000
310
0100FEFF030A0000FFFFFFFF0A00030000000000C00000000000004607000000
310
5042727573680007000000504272757368000700000050427275736800F439B2
310
7100000000000000000000000000000000000000000000000000000000000000
310
0000000000000000000000000000000000000000000000000000000000000000
310
0000000000000000000000000000000000000000000000000000000000000000
310
0000000000000000000000000000000000000000000000000000000000000000
310
0000000000000000000000000000000000000000000000000000000000000000
310
0000000000000000000000000000000000000000000000000000000000000000
310
0000000000000000000000000000000000000000000000000000000000000000
310
0000000000000000000000000000000000000000000000000000000000000000
310
0000000000000000000000000000000000000000000000000000000000000000
310
0000000000000000000000000000000000000000000000000000000000000000
310
0000000000000000000000000000000000000000000000000000000000000000
310
0000000000000000000000000000000000000000000000000000000000000000
310
E0110000424DDE11000000000000360400002800000096000000170000000100
310
08000000000000000000E7240000E72400000001000000010000000000FF0101
310
01FF020202FF030303FF040404FF050505FF060606FF070707FF080808FF0909
310
09FF0A0A0AFF0B0B0BFF0C0C0CFF0D0D0DFF0E0E0EFF0F0F0FFF101010FF1111
310
11FF121212FF131313FF141414FF151515FF161616FF171717FF181818FF1919
310
19FF1A1A1AFF1B1B1BFF1C1C1CFF1D1D1DFF1E1E1EFF1F1F1FFF202020FF2121
310
21FF222222FF232323FF242424FF252525FF262626FF272727FF282828FF2929
310
29FF2A2A2AFF2B2B2BFF2C2C2CFF2D2D2DFF2E2E2EFF2F2F2FFF303030FF3131
310
31FF323232FF333333FF343434FF353535FF363636FF373737FF383838FF3939
310
39FF3A3A3AFF3B3B3BFF3C3C3CFF3D3D3DFF3E3E3EFF3F3F3FFF404040FF4141
310
41FF424242FF434343FF444444FF454545FF464646FF474747FF484848FF4949
310
49FF4A4A4AFF4B4B4BFF4C4C4CFF4D4D4DFF4E4E4EFF4F4F4FFF505050FF5151
310
51FF525252FF535353FF545454FF555555FF565656FF575757FF585858FF5959
310
59FF5A5A5AFF5B5B5BFF5C5C5CFF5D5D5DFF5E5E5EFF5F5F5FFF606060FF6161
310
61FF626262FF636363FF646464FF656565FF666666FF676767FF686868FF6969
310
69FF6A6A6AFF6B6B6BFF6C6C6CFF6D6D6DFF6E6E6EFF6F6F6FFF707070FF7171
310
71FF727272FF737373FF747474FF757575FF767676FF777777FF787878FF7979
310
79FF7A7A7AFF7B7B7BFF7C7C7CFF7D7D7DFF7E7E7EFF7F7F7FFF808080FF8181
310
81FF828282FF838383FF848484FF858585FF868686FF878787FF888888FF8989
310
89FF8A8A8AFF8B8B8BFF8C8C8CFF8D8D8DFF8E8E8EFF8F8F8FFF909090FF9191
310
91FF929292FF939393FF949494FF959595FF969696FF979797FF989898FF9999
310
99FF9A9A9AFF9B9B9BFF9C9C9CFF9D9D9DFF9E9E9EFF9F9F9FFFA0A0A0FFA1A1
310
A1FFA2A2A2FFA3A3A3FFA4A4A4FFA5A5A5FFA6A6A6FFA7A7A7FFA8A8A8FFA9A9
310
A9FFAAAAAAFFABABABFFACACACFFADADADFFAEAEAEFFAFAFAFFFB0B0B0FFB1B1
310
B1FFB2B2B2FFB3B3B3FFB4B4B4FFB5B5B5FFB6B6B6FFB7B7B7FFB8B8B8FFB9B9
310
B9FFBABABAFFBBBBBBFFBCBCBCFFBDBDBDFFBEBEBEFFBFBFBFFFC0C0C0FFC1C1
310
C1FFC2C2C2FFC3C3C3FFC4C4C4FFC5C5C5FFC6C6C6FFC7C7C7FFC8C8C8FFC9C9
310
C9FFCACACAFFCBCBCBFFCCCCCCFFCDCDCDFFCECECEFFCFCFCFFFD0D0D0FFD1D1
310
D1FFD2D2D2FFD3D3D3FFD4D4D4FFD5D5D5FFD6D6D6FFD7D7D7FFD8D8D8FFD9D9
310
D9FFDADADAFFDBDBDBFFDCDCDCFFDDDDDDFFDEDEDEFFDFDFDFFFE0E0E0FFE1E1
310
E1FFE2E2E2FFE3E3E3FFE4E4E4FFE5E5E5FFE6E6E6FFE7E7E7FFE8E8E8FFE9E9
310
E9FFEAEAEAFFEBEBEBFFECECECFFEDEDEDFFEEEEEEFFEFEFEFFFF0F0F0FFF1F1
310
F1FFF2F2F2FFF3F3F3FFF4F4F4FFF5F5F5FFF6F6F6FFF7F7F7FFF8F8F8FFF9F9
310
F9FFFAFAFAFFFBFBFBFFFCFCFCFFFDFDFDFFFEFEFEFFFFFFFFFFFFFFFFFFFFFF
310
C94E4E4E4F4E4EFFFFFFFFFFC94E4E4E4E4E72FFFFFFFFFFFFFF734E4D4E4E4E
310
C9FFFFFFFFFFAA683516171616265B9BE9FFFFFFFFFF4E4E4E4D4E4EFFFFFFFF
310
FFFFFFFF4E4E4F4E4D4E4E4E4F4E4E4F4D4E4E4E4E4E4D4E4F4E4D4E4E4EAAFF
310
FFFFFFFFFFEA4E4F4F4E4E4E4E4E4D4D4F4F4E4E4E4E4E5B7FAAFFFFFFFFFFFF
310
C9744E1716171616164D8DEAFFFFFFFF0000FFFFFFFFFFFFBA161617161716FF
310
FFFFFFFFB917171616174FFFFFFFFFFFFFFF4E1716161616B9FFFFFFB9341717
310
1716171617171616268CFFFFFFFF161617161617FFFFFFFFFFFFFFB917161717
310
1617167F807F7F7F7F7F7F807F7F807F7F807F7F7F414EFFFFFFFFFFFF8C167F
310
7F807F7F7F7E7F7F807F807F7F807F4E3417258EFFFFEA4E162674AABAEAEBBA
310
AA74341680FFFFFF0000FFFFFFFFFFFFB9171717171617FFFFFFFFFFBB161616
310
16164EFFFFFFFFFFFFFF4E1717171717B9FFFF9C171617171716161616171616
310
171766FFFFFF161717161617FFFFFFFFFFFFFF8E16171717161616FFFFFFFFFF
310
FFFFFFFFFFFFFFFFFFFFFFFFFFAA16D9FFFFFFFFFF3467FFFFFFFFEAFFFFFFFF
310
FFFFFFFFFFFFFFFFFFCA671667EB26278DFFFFFFFFFFFFFFFFFFFF8C2541EAFF
310
0000FFFFFFFFFFFFB9171717171716FFFFFFFFFFBA16171617174EFFFFFFFFFF
310
FFFF4E1717161616BAFF9B1617161616171716171617161616161667FFFF1616
310
16161716FFFFFFFFFFFFFF7F16161617174017FFFFFFFFFFFFFFFFFFFFFFFFFF
310
FFFFFFFFFFFF344E7F7F7F7E7417DAFFFFFFFF80FFFFFFFFFFFFFFFFFFFFFFFF
310
FFFFFF9B163425CAFFFFFFFFFFFFFFFFFFFFFFFFCA2667FF0000FFFFFFFFFFFF
310
BA171717171617FFFFFFFFFFB916171716164EFFFFFFFFFFFFFF4F1716161717
310
B9C91716171616161716161617171616161617168DFF161716161717FFFFFFFF
310
FFFFFF7F17171716164F16FFFFFFFFFFFFFFFFFFFFFFFFFFFFFFFFFFFFFF9B16
310
17161617174EFFFFFFFFFF34FFFFFFFFD9BABABABABADAFFFFFFFFFF7F16AAFF
310
FFFFFFFFFFFFFFFFFFFFFFFFFF9C16BA0000FFFFFFFFFFFFB9161717161717FF
310
FFFFFFFFB917161716174DFFFFFFFFFFFFFF4E1616161616BA4E161617171716
310
419BEAEAAA4E16161617161726E9171717161616FFFFFFFFFFFFFF4F16161717
310
164E16FFFFFFFFFFBAB9B9B9B9B9BABABACAFFFFFFFFFFFFFFFFFFFFFFFFFFFF
310
FFFFBA16FFFFFFFF7F1617161617174DEAFFFFFFEA41FFFFFFFFFFAA4D16174E
310
9BFFFFFFFFFF34730000FFFFFFFFFFFFB9161617171617FFFFFFFFFFBA161616
310
16164EFFFFFFFFFFFFFF4F16161717169B1617161716175BFFFFFFFFFFFF7417
310
16171616168D171717161617FFFFFFFFFFFFEA2616171717167416FFFFFFFFFF
310
16171616171717171717EAFFFFFFFFFFFFFFFFFFFFFFFFFFFFFF6716FFFFFFFF
310
7F4EFFFFFFFFBA2573FFFFFFFFBAFFFFFFFFAA167FB9BB9B269BFFFFFFFF664F
310
0000FFFFFFFFFFFFB9171616161616FFFFFFFFFFBA16161717164EFFFFFFFFFF
310
FFFF4E16161616174E161617171626EAFFFFFFFFFFFFFF4E16161616164E1716
310
16161617FFFFFFFFFFFF671616161716347F16FFFFFFFFFF16B9FFFFFFFFFFFF
310
D9168DFFFFFFFFFFFFFFFFFFFFFFFFFFFFEA1716FFFFFFFF7F4EFFFFFFFFFF7F
310
4EFFFFFFFFFFFFFFFFFF5B66FFFFFFEA347FFFFFFFFF7F4D0000FFFFFFFFFFFF
310
B9171616171617FFFFFFFFFFBA17161716174EFFFFFFFFFFFFFF4D1716161617
310
17161716161673FFFFFFFFFFFFFFFF9B1617161717161616171616174F4E4E4E
310
4E341616171616167E7F16FFFFFFFFFF16BAFFFFFFFFFFFFFF5B41FFFFFFFF34
310
1616171616BAFFFFFF9B1716FFFFFFFF7F4EFFFFFFFFFF4E4EFFFFFFFF734E4E
310
4E4E267EDA9B67164EEAFFFFFFFF744D0000FFFFFFFFFFFFBA171717161617FF
310
FFFFFFFFBA1616171616347F7F7F7F80807F331616161717161717161716B9FF
310
FFFFFFFFFFFFFFE9161616161616171716161716171616161616171616171734
310
EA7F16FFFFFFFFFF16BAFFFFFFFFFFFFFFAA17C9FFFFFF7326BABA5B25FFFFFF
310
FF401716FFFFFFFF7F264F4E4E4E4217AAFFFFFFEA16677F73261616164173CA
310
FFFFFFFFFFFF417F0000FFFFFFFFFFFFBA171616171617FFFFFFFFFFBA161616
310
17171616161616161616161717161616161616161617EAFFFFFFFFFFFFFFFFFF
310
261717161716161617161616161617161617161616174EEAFF8016FFFFFFFFFF
310
17BAFFFFFFFFFFFFFFFF3467FFFFFFC916C9FF3467FFFFFFDA166716FFFFFFFF
310
9C4D4E4E4E4E67AAFFFFFFFF6834FF7F262567AAEAFFFFFFFFFFFFFFFF9B17D9
310
0000FFFFFFFFFFFFB9161616161616FFFFFFFFFFBA1617161717171616161616
310
1716171716161716161617171716FFFFFFFFFFFFFFFFFFFF4E17161716171616
310
1617171616161716171717161616169BFF7F17FFFFFFFFFF17B9FFFFFFFFFFFF
310
FFFF7326FFFFFFFF3473DA16AAFFFFFF7317AA16FFFFFFFFFFFFFFFFFFFFFFFF
310
FFFFEA6725BA4E167FEAFFFFFFFFFFFFFFFFFFFF9C167FFF0000FFFFFFFFFFFF
310
B9161717171716FFFFFFFFFFBA16161716171616171717161617161716161616
310
171617171617EAFFFFFFFFFFFFFFFFFF26161717161616161616161617171616
310
1616161616171616AA8016FFFFFFFFFF16BAFFFFFFFFFFFFFFFFDA179BFFFFFF
310
74348D26FFFFFFFF2566B917FFFFFFFFD8BAB9BAB9BADAFFFFEA41169B7425C9
310
FFFFFFFFFFFFFFFFFFFFAB4F1680FFFF0000FFFFFFFFFFFFBA161717171617FF
310
FFFFFFFFBA17161717161617171617161616161617171616171716171617BBFF
310
FFFFFFFFFFFFFFE9171616161617161617161716FFFFFFFFFFD9671616161617
310
348017FFFFFFFFFF16BAFFFFFFFFFFFFFFFFFF4E5AFFFFFFC916265AFFFFFFAA
310
16AABA16FFFFFFFF7F1617161616179BFFFFEB4127168DFFFFFFFFFFFFFFD99B
310
6734175AC9FFFFFF0000FFFFFFFFFFFFB9161617171617FFFFFFFFFFBB161616
310
1616347F807F7F7F7F8033171716171617171616161672FFFFFFFFFFFFFFFF9C
310
171617171617161716161617FFFFFFFFFFFFFF4117161616174E17FFFFFFFFFF
310
16BAFFFFFFFFFFFFFFFFFF9B16DAFFFFFF34169BFFFFFF5A26FFB917FFFFFFFF
310
7F4EFFFFFFEA5B26FFFFFFEA2616EAFFFFFFFFDA743416331617414E4E4E4ECA
310
0000FFFFFFFFFFFFBA161716161616FFFFFFFFFFBA17171616164EFFFFFFFFFF
310
FFFF4E16161717174E161717171626EBFFFFFFFFFFFFFF4E16161617165B1616
310
16171617FFFFFFFFFFFFFF6716161616161617FFFFFFFFFF16BAFFFFFFFFFFFF
310
FFFFFFEA268CFFFFFF7316EAFFFFEB1774FFB916FFFFFFFF7F4EFFFFFFFF7316
310
FFFFFFFF6826FFFFFFFFEB264D9CEABA257F807F7F6616BA0000FFFFFFFFFFFF
310
BA161716161616FFFFFFFFFFBA16171616164DFFFFFFFFFFFFFF4E1617161617
310
9B1617171717165BEBFFFFFFFFFF671616161617179B171616161616FFFFFFFF
310
FFFFFF3417161617171617FFFFFFFFFF17BAFFFFFFFFFFFFFFFFFFFF6734FFFF
310
FFEBCAFFFFFF8D17C9FFBA17FFFFFFFF7F357F808066174FFFFFFFFF7F16FFFF
310
FFFFD91673B99B415BFFFFFFFFBA16DA00009B7F7F7F807F671617161616167F
310
80807F7E6617161616164EFFFFFFFFFFFFFF4E1616161617B94E171716161616
310
349BC9D9AA4E16171616161634FF161617161717B9B9BAB9BA9B411716171716
310
163416FFFFFFFFFF16B9FFFFFFFFFFFFFFFFFFFFC917CAFFFFFFFFFFFFFF3342
310
FFFFBA17FFFFFFFF9B4E4E4F4E4E66EAFFFFFFFF5B16C9FFFFFFFFAA4E164E73
310
EAFFFFFFFF8D26FF00004E161716161616171617171616171717171617161616
310
17174EFFFFFFFFFFFFFF4E1717171616B9D92616171716171716171717171716
310
16171716AAFF161717171617161617171616161617161716166717FFFFFFFFFF
310
17B9FFFFFFFFFFFFFFFFFFFFFF3467FFFFFFFFFFFFCA168CFFFFBB17FFFFFFFF
310
FFFFFFFFFFFFFFFFFFFFFFEA26265BFFFFFFFFFFFFFFFFFFFFFFFFFFEA3467FF
310
00004D16161616161617161717161617161616171617171616164EFFFFFFFFFF
310
FFFF4D1617161616BAFF9B1616161616161716161616171717161766FFFF1616
310
16171617161617161716171616171717667F16FFFFFFFFFF17BAFFFFFFFFFFFF
310
FFFFFFFFFF8C26EAFFFFFFFFFF6617EAFFFFBA17FFFFFFFFFFFFFFFFFFFFFFFF
310
FFFFEA5A25BA269BFFFFFFFFFFFFFFFFFFFFFFFF6616DAFF00004E1616171616
310
1616161616161716161617171616171616174EFFFFFFFFFFFFFF4D1717171716
310
B9FFFF9C161616161616161716161717171667FFFFFF17161717171716161617
310
1716161616161641E97E16FFFFFFFFFF16B9FFFFFFFFFFFFFFFFFFFFFFEA169B
310
FFFFFFFFEA265BFFFFFFB916FFFFFFFFFFFFFFFFFFFFFFFFFF9B3416AAFF9B17
310
67EAFFFFFFFFFFFFFFFFEA5B169BFFFF00004D17161716161616161717171616
310
161717161716171716174EFFFFFFFFFFFFFF4D1616161616BAFFFFFFBB411616
310
161716161616171634ABFFFFFFFF161716161617171716171617171617267FFF
310
FF7F164E4E4E4E4F17BAFFFFFFFFFFFFFFFFFFFFFFFF66344D4E4E4F4117AAFF
310
FFFFBA174E4E4E4D4E4D4D4E4E4E4E4116174EBBFFFFFFCA342666ABEAFFFFEA
310
AA6725269CFFFFFF0000724F4E4D4D4D4E4D4D4E4E4E4D4E4E4E4E4E4E4E4E4D
310
4E4E74FFFFFFFFFFFFFF734E4E4E4D4ECAFFFFFFFFFFAA663416171717265B9B
310
FFFFFFFFFFFF7F8080807F80807F7F7F7F7F807FBAFFFFFFFF9B4E4E4F4D4D4E
310
4DC9FFFFFFFFFFFFFFFFFFFFFFFFBA4E4E4E4E4D4E4EFFFFFFFFC94E4E4E4F4E
310
4E4E4D4E4E5A807F9CD9FFFFFFFFFFFFFF9B5B2617171716174E8DEAFFFFFFFF
310
0000000000000000000000000000000000000000000000000000000000000000
  1
OLE
  0
ENDSEC
  0
SECTION
  2
OBJECTS
  0
DICTIONARY
  5
C
330
0
100
AcDbDictionary
281
     1
  3
ACAD_GROUP
350
D
  3
ACAD_LAYOUT
350
1A
  3
ACAD_MLINESTYLE
350
17
  3
ACAD_PLOTSETTINGS
350
19
  3
ACAD_PLOTSTYLENAME
350
E
  3
ACAD_SCALELIST
350
47
  0
DICTIONARY
  5
D
102
{ACAD_REACTORS
330
C
102
}
330
C
100
AcDbDictionary
281
     1
  0
DICTIONARY
  5
1A
102
{ACAD_REACTORS
330
C
102
}
330
C
100
AcDbDictionary
281
     1
  3
Layout1
350
1E
  3
Layout2
350
26
  3
Model
350
22
  0
DICTIONARY
  5
17
102
{ACAD_REACTORS
330
C
102
}
330
C
100
AcDbDictionary
281
     1
  3
Standard
350
18
  0
DICTIONARY
  5
19
102
{ACAD_REACTORS
330
C
102
}
330
C
100
AcDbDictionary
281
     1
  0
ACDBDICTIONARYWDFLT
  5
E
102
{ACAD_REACTORS
330
C
102
}
330
C
100
AcDbDictionary
281
     1
  3
Normal
350
F
100
AcDbDictionaryWithDefault
340
F
  0
DICTIONARY
  5
47
102
{ACAD_REACTORS
330
C
102
}
330
C
100
AcDbDictionary
281
     1
  3
A0
350
48
  3
A1
350
49
  3
A2
350
4A
  3
A3
350
4B
  3
A4
350
4C
  3
A5
350
4D
  3
A6
350
4E
  3
A7
350
4F
  3
A8
350
50
  3
A9
350
51
  3
B0
350
52
  3
B1
350
53
  3
B2
350
54
  3
B3
350
55
  3
B4
350
56
  3
B5
350
57
  3
B6
350
58
  3
B7
350
59
  3
B8
350
5A
  3
B9
350
5B
  3
C0
350
5C
  3
C1
350
5D
  3
C2
350
5E
  3
C3
350
5F
  3
C4
350
60
  3
C5
350
61
  3
C6
350
62
  3
C7
350
63
  3
C8
350
64
  3
C9
350
65
  3
D0
350
66
  3
D1
350
67
  3
D2
350
68
  0
LAYOUT
  5
1E
102
{ACAD_REACTORS
330
1A
102
}
330
1A
100
AcDbPlotSettings
  1

  2
none_device
  4

  6

 40
0.0
 41
0.0
 42
0.0
 43
0.0
 44
0.0
 45
0.0
 46
0.0
 47
0.0
 48
0.0
 49
0.0
140
0.0
141
0.0
142
1.0
143
1.0
 70
   688
 72
     0
 73
     0
 74
     5
  7

 75
    16
147
1.0
148
0.0
149
0.0
100
AcDbLayout
  1
Layout1
 70
     1
 71
     1
 10
0.0
 20
0.0
 11
12.0
 21
9.0
 12
0.0
 22
0.0
 32
0.0
 14
1.0000000000E+20
 24
1.0000000000E+20
 34
1.0000000000E+20
 15
-1.0000000000E+20
 25
-1.0000000000E+20
 35
-1.0000000000E+20
146
0.0
 13
0.0
 23
0.0
 33
0.0
 16
1.0
 26
0.0
 36
0.0
 17
0.0
 27
1.0
 37
0.0
 76
     0
330
1B
  0
LAYOUT
  5
26
102
{ACAD_REACTORS
330
1A
102
}
330
1A
100
AcDbPlotSettings
  1

  2
none_device
  4

  6

 40
0.0
 41
0.0
 42
0.0
 43
0.0
 44
0.0
 45
0.0
 46
0.0
 47
0.0
 48
0.0
 49
0.0
140
0.0
141
0.0
142
1.0
143
1.0
 70
   688
 72
     0
 73
     0
 74
     5
  7

 75
    16
147
1.0
148
0.0
149
0.0
100
AcDbLayout
  1
Layout2
 70
     1
 71
     2
 10
0.0
 20
0.0
 11
0.0
 21
0.0
 12
0.0
 22
0.0
 32
0.0
 14
0.0
 24
0.0
 34
0.0
 15
0.0
 25
0.0
 35
0.0
146
0.0
 13
0.0
 23
0.0
 33
0.0
 16
1.0
 26
0.0
 36
0.0
 17
0.0
 27
1.0
 37
0.0
 76
     0
330
23
  0
LAYOUT
  5
22
102
{ACAD_REACTORS
330
1A
102
}
330
1A
100
AcDbPlotSettings
  1

  2
none_device
  4
Letter_(8.50_x_11.00_Inches)
  6

 40
6.35
 41
6.35
 42
6.35000508
 43
6.35000508
 44
215.9
 45
279.4
 46
0.0
 47
0.0
 48
0.0
 49
0.0
140
0.0
141
0.0
142
1.0
143
1.0
 70
  1712
 72
     0
 73
     0
 74
     0
  7

 75
     0
147
1.0
148
0.0
149
0.0
100
AcDbLayout
  1
Model
 70
     1
 71
     0
 10
0.0
 20
0.0
 11
11.0
 21
8.5
 12
0.0
 22
0.0
 32
0.0
 14
0.0
 24
0.0
 34
0.0
 15
11.0
 25
8.5
 35
0.0
146
0.0
 13
0.0
 23
0.0
 33
0.0
 16
1.0
 26
0.0
 36
0.0
 17
0.0
 27
1.0
 37
0.0
 76
     0
330
1F
331
29
  0
MLINESTYLE
  5
18
102
{ACAD_REACTORS
330
17
102
}
330
17
100
AcDbMlineStyle
  2
Standard
 70
     0
  3

 62
   256
 51
90.0
 52
90.0
 71
     2
 49
0.5
 62
   256
  6
BYLAYER
 49
-0.5
 62
   256
  6
BYLAYER
  0
ACDBPLACEHOLDER
  5
F
102
{ACAD_REACTORS
330
E
102
}
330
E
  0
SCALE
  5
48
102
{ACAD_REACTORS
330
47
102
}
330
47
100
AcDbScale
 70
     0
300
1:1
140
1.0
141
1.0
290
     1
  0
SCALE
  5
49
102
{ACAD_REACTORS
330
47
102
}
330
47
100
AcDbScale
 70
     0
300
1:2
140
1.0
141
2.0
290
     0
  0
SCALE
  5
4A
102
{ACAD_REACTORS
330
47
102
}
330
47
100
AcDbScale
 70
     0
300
1:4
140
1.0
141
4.0
290
     0
  0
SCALE
  5
4B
102
{ACAD_REACTORS
330
47
102
}
330
47
100
AcDbScale
 70
     0
300
1:5
140
1.0
141
5.0
290
     0
  0
SCALE
  5
4C
102
{ACAD_REACTORS
330
47
102
}
330
47
100
AcDbScale
 70
     0
300
1:8
140
1.0
141
8.0
290
     0
  0
SCALE
  5
4D
102
{ACAD_REACTORS
330
47
102
}
330
47
100
AcDbScale
 70
     0
300
1:10
140
1.0
141
10.0
290
     0
  0
SCALE
  5
4E
102
{ACAD_REACTORS
330
47
102
}
330
47
100
AcDbScale
 70
     0
300
1:16
140
1.0
141
16.0
290
     0
  0
SCALE
  5
4F
102
{ACAD_REACTORS
330
47
102
}
330
47
100
AcDbScale
 70
     0
300
1:20
140
1.0
141
20.0
290
     0
  0
SCALE
  5
50
102
{ACAD_REACTORS
330
47
102
}
330
47
100
AcDbScale
 70
     0
300
1:30
140
1.0
141
30.0
290
     0
  0
SCALE
  5
51
102
{ACAD_REACTORS
330
47
102
}
330
47
100
AcDbScale
 70
     0
300
1:40
140
1.0
141
40.0
290
     0
  0
SCALE
  5
52
102
{ACAD_REACTORS
330
47
102
}
330
47
100
AcDbScale
 70
     0
300
1:50
140
1.0
141
50.0
290
     0
  0
SCALE
  5
53
102
{ACAD_REACTORS
330
47
102
}
330
47
100
AcDbScale
 70
     0
300
1:100
140
1.0
141
100.0
290
     0
  0
SCALE
  5
54
102
{ACAD_REACTORS
330
47
102
}
330
47
100
AcDbScale
 70
     0
300
2:1
140
2.0
141
1.0
290
     0
  0
SCALE
  5
55
102
{ACAD_REACTORS
330
47
102
}
330
47
100
AcDbScale
 70
     0
300
4:1
140
4.0
141
1.0
290
     0
  0
SCALE
  5
56
102
{ACAD_REACTORS
330
47
102
}
330
47
100
AcDbScale
 70
     0
300
8:1
140
8.0
141
1.0
290
     0
  0
SCALE
  5
57
102
{ACAD_REACTORS
330
47
102
}
330
47
100
AcDbScale
 70
     0
300
10:1
140
10.0
141
1.0
290
     0
  0
SCALE
  5
58
102
{ACAD_REACTORS
330
47
102
}
330
47
100
AcDbScale
 70
     0
300
100:1
140
100.0
141
1.0
290
     0
  0
SCALE
  5
59
102
{ACAD_REACTORS
330
47
102
}
330
47
100
AcDbScale
 70
     0
300
1/128" = 1'-0"
140
0.0078125
141
12.0
290
     0
  0
SCALE
  5
5A
102
{ACAD_REACTORS
330
47
102
}
330
47
100
AcDbScale
 70
     0
300
1/64" = 1'-0"
140
0.015625
141
12.0
290
     0
  0
SCALE
  5
5B
102
{ACAD_REACTORS
330
47
102
}
330
47
100
AcDbScale
 70
     0
300
1/32" = 1'-0"
140
0.03125
141
12.0
290
     0
  0
SCALE
  5
5C
102
{ACAD_REACTORS
330
47
102
}
330
47
100
AcDbScale
 70
     0
300
1/16" = 1'-0"
140
0.0625
141
12.0
290
     0
  0
SCALE
  5
5D
102
{ACAD_REACTORS
330
47
102
}
330
47
100
AcDbScale
 70
     0
300
3/32" = 1'-0"
140
0.09375
141
12.0
290
     0
  0
SCALE
  5
5E
102
{ACAD_REACTORS
330
47
102
}
330
47
100
AcDbScale
 70
     0
300
1/8" = 1'-0"
140
0.125
141
12.0
290
     0
  0
SCALE
  5
5F
102
{ACAD_REACTORS
330
47
102
}
330
47
100
AcDbScale
 70
     0
300
3/16" = 1'-0"
140
0.1875
141
12.0
290
     0
  0
SCALE
  5
60
102
{ACAD_REACTORS
330
47
102
}
330
47
100
AcDbScale
 70
     0
300
1/4" = 1'-0"
140
0.25
141
12.0
290
     0
  0
SCALE
  5
61
102
{ACAD_REACTORS
330
47
102
}
330
47
100
AcDbScale
 70
     0
300
3/8" = 1'-0"
140
0.375
141
12.0
290
     0
  0
SCALE
  5
62
102
{ACAD_REACTORS
330
47
102
}
330
47
100
AcDbScale
 70
     0
300
1/2" = 1'-0"
140
0.5
141
12.0
290
     0
  0
SCALE
  5
63
102
{ACAD_REACTORS
330
47
102
}
330
47
100
AcDbScale
 70
     0
300
3/4" = 1'-0"
140
0.75
141
12.0
290
     0
  0
SCALE
  5
64
102
{ACAD_REACTORS
330
47
102
}
330
47
100
AcDbScale
 70
     0
300
1" = 1'-0"
140
1.0
141
12.0
290
     0
  0
SCALE
  5
65
102
{ACAD_REACTORS
330
47
102
}
330
47
100
AcDbScale
 70
     0
300
1-1/2" = 1'-0"
140
1.5
141
12.0
290
     0
  0
SCALE
  5
66
102
{ACAD_REACTORS
330
47
102
}
330
47
100
AcDbScale
 70
     0
300
3" = 1'-0"
140
3.0
141
12.0
290
     0
  0
SCALE
  5
67
102
{ACAD_REACTORS
330
47
102
}
330
47
100
AcDbScale
 70
     0
300
6" = 1'-0"
140
6.0
141
12.0
290
     0
  0
SCALE
  5
68
102
{ACAD_REACTORS
330
47
102
}
330
47
100
AcDbScale
 70
     0
300
1'-0" = 1'-0"
140
12.0
141
12.0
290
     0
  0
ENDSEC
  0
EOF
