  0
SECTION
  2
HEADER
  9
$ACADVER
  1
AC1015
  9
$ACADMAINTVER
 70
     6
  9
$DWGCODEPAGE
  3
ANSI_1252
  9
$INSBASE
 10
0.0
 20
0.0
 30
0.0
  9
$EXTMIN
 10
0.0
 20
0.0
 30
0.0
  9
$EXTMAX
 10
279.4
 20
215.9
 30
0.0
  9
$LIMMIN
 10
0.0
 20
0.0
  9
$LIMMAX
 10
279.4
 20
215.9
  9
$ORTHOMODE
 70
     0
  9
$REGENMODE
 70
     1
  9
$FILLMODE
 70
     1
  9
$QTEXTMODE
 70
     0
  9
$MIRRTEXT
 70
     1
  9
$LTSCALE
 40
1.0
  9
$ATTMODE
 70
     1
  9
$TEXTSIZE
 40
2.8222222222
  9
$TRACEWID
 40
1.0
  9
$TEXTSTYLE
  7
Standard
  9
$CLAYER
  8
0
  9
$CELTYPE
  6
ByLayer
  9
$CECOLOR
 62
   256
  9
$CELTSCALE
 40
1.0
  9
$DISPSILH
 70
     0
  9
$DIMSCALE
 40
1.0
  9
$DIMASZ
 40
3.175
  9
$DIMEXO
 40
1.27
  9
$DIMDLI
 40
3.75
  9
$DIMRND
 40
0.0
  9
$DIMDLE
 40
0.0
  9
$DIMEXE
 40
1.778
  9
$DIMTP
 40
0.0
  9
$DIMTM
 40
0.0
  9
$DIMTXT
 40
2.8222222222
  9
$DIMCEN
 40
2.5
  9
$DIMTSZ
 40
0.0
  9
$DIMTOL
 70
     0
  9
$DIMLIM
 70
     0
  9
$DIMTIH
 70
     1
  9
$DIMTOH
 70
     1
  9
$DIMSE1
 70
     0
  9
$DIMSE2
 70
     0
  9
$DIMTAD
 70
     1
  9
$DIMZIN
 70
     1
  9
$DIMBLK
  1

  9
$DIMASO
 70
     1
  9
$DIMSHO
 70
     1
  9
$DIMPOST
  1

  9
$DIMAPOST
  1

  9
$DIMALT
 70
     0
  9
$DIMALTD
 70
     3
  9
$DIMALTF
 40
0.0393700787
  9
$DIMLFAC
 40
1.0
  9
$DIMTOFL
 70
     1
  9
$DIMTVP
 40
0.0
  9
$DIMTIX
 70
     0
  9
$DIMSOXD
 70
     0
  9
$DIMSAH
 70
     0
  9
$DIMBLK1
  1

  9
$DIMBLK2
  1

  9
$DIMSTYLE
  2
ISO-25
  9
$DIMCLRD
 70
     0
  9
$DIMCLRE
 70
     0
  9
$DIMCLRT
 70
     0
  9
$DIMTFAC
 40
1.0
  9
$DIMGAP
 40
2.54
  9
$DIMJUST
 70
     0
  9
$DIMSD1
 70
     0
  9
$DIMSD2
 70
     0
  9
$DIMTOLJ
 70
     0
  9
$DIMTZIN
 70
     1
  9
$DIMALTZ
 70
     0
  9
$DIMALTTZ
 70
     0
  9
$DIMUPT
 70
     0
  9
$DIMDEC
 70
     1
  9
$DIMTDEC
 70
     1
  9
$DIMALTU
 70
     2
  9
$DIMALTTD
 70
     3
  9
$DIMTXSTY
  7
Standard
  9
$DIMAUNIT
 70
     0
  9
$DIMADEC
 70
     0
  9
$DIMALTRND
 40
0.0
  9
$DIMAZIN
 70
     0
  9
$DIMDSEP
 70
    44
  9
$DIMATFIT
 70
     3
  9
$DIMFRAC
 70
     0
  9
$DIMLDRBLK
  1

  9
$DIMLUNIT
 70
     2
  9
$DIMLWD
 70
    -2
  9
$DIMLWE
 70
    -2
  9
$DIMTMOVE
 70
     0
  9
$LUNITS
 70
     2
  9
$LUPREC
 70
     1
  9
$SKETCHINC
 40
1.0
  9
$FILLETRAD
 40
10.0
  9
$AUNITS
 70
     0
  9
$AUPREC
 70
     0
  9
$MENU
  1
.
  9
$ELEVATION
 40
0.0
  9
$PELEVATION
 40
0.0
  9
$THICKNESS
 40
0.0
  9
$LIMCHECK
 70
     0
  9
$CHAMFERA
 40
10.0
  9
$CHAMFERB
 40
10.0
  9
$CHAMFERC
 40
20.0
  9
$CHAMFERD
 40
0.0
  9
$SKPOLY
 70
     0
  9
$TDCREATE
 40
2455757.482220116
  9
$TDUCREATE
 40
2455757.648886783
  9
$TDUPDATE
 40
2455757.482220127
  9
$TDUUPDATE
 40
2455757.648886794
  9
$TDINDWG
 40
0.0000000116
  9
$TDUSRTIMER
 40
0.0000000116
  9
$USRTIMER
 70
     1
  9
$ANGBASE
 50
0.0
  9
$ANGDIR
 70
     0
  9
$PDMODE
 70
     0
  9
$PDSIZE
 40
-1.0
  9
$PLINEWID
 40
0.0
  9
$SPLFRAME
 70
     0
  9
$SPLINETYPE
 70
     6
  9
$SPLINESEGS
 70
     8
  9
$HANDSEED
  5
22D
  9
$SURFTAB1
 70
     6
  9
$SURFTAB2
 70
     6
  9
$SURFTYPE
 70
     6
  9
$SURFU
 70
     6
  9
$SURFV
 70
     6
  9
$UCSBASE
  2

  9
$UCSNAME
  2

  9
$UCSORG
 10
0.0
 20
0.0
 30
0.0
  9
$UCSXDIR
 10
1.0
 20
0.0
 30
0.0
  9
$UCSYDIR
 10
0.0
 20
1.0
 30
0.0
  9
$UCSORTHOREF
  2

  9
$UCSORTHOVIEW
 70
     0
  9
$UCSORGTOP
 10
0.0
 20
0.0
 30
0.0
  9
$UCSORGBOTTOM
 10
0.0
 20
0.0
 30
0.0
  9
$UCSORGLEFT
 10
0.0
 20
0.0
 30
0.0
  9
$UCSORGRIGHT
 10
0.0
 20
0.0
 30
0.0
  9
$UCSORGFRONT
 10
0.0
 20
0.0
 30
0.0
  9
$UCSORGBACK
 10
0.0
 20
0.0
 30
0.0
  9
$PUCSBASE
  2

  9
$PUCSNAME
  2

  9
$PUCSORG
 10
0.0
 20
0.0
 30
0.0
  9
$PUCSXDIR
 10
1.0
 20
0.0
 30
0.0
  9
$PUCSYDIR
 10
0.0
 20
1.0
 30
0.0
  9
$PUCSORTHOREF
  2

  9
$PUCSORTHOVIEW
 70
     0
  9
$PUCSORGTOP
 10
0.0
 20
0.0
 30
0.0
  9
$PUCSORGBOTTOM
 10
0.0
 20
0.0
 30
0.0
  9
$PUCSORGLEFT
 10
0.0
 20
0.0
 30
0.0
  9
$PUCSORGRIGHT
 10
0.0
 20
0.0
 30
0.0
  9
$PUCSORGFRONT
 10
0.0
 20
0.0
 30
0.0
  9
$PUCSORGBACK
 10
0.0
 20
0.0
 30
0.0
  9
$USERI1
 70
     0
  9
$USERI2
 70
     0
  9
$USERI3
 70
     0
  9
$USERI4
 70
     0
  9
$USERI5
 70
     0
  9
$USERR1
 40
0.0
  9
$USERR2
 40
0.0
  9
$USERR3
 40
0.0
  9
$USERR4
 40
0.0
  9
$USERR5
 40
0.0
  9
$WORLDVIEW
 70
     1
  9
$SHADEDGE
 70
     3
  9
$SHADEDIF
 70
    70
  9
$TILEMODE
 70
     1
  9
$MAXACTVP
 70
    64
  9
$PINSBASE
 10
0.0
 20
0.0
 30
0.0
  9
$PLIMCHECK
 70
     0
  9
$PEXTMIN
 10
1.0000000000E+20
 20
1.0000000000E+20
 30
1.0000000000E+20
  9
$PEXTMAX
 10
-1.0000000000E+20
 20
-1.0000000000E+20
 30
-1.0000000000E+20
  9
$PLIMMIN
 10
0.0
 20
0.0
  9
$PLIMMAX
 10
420.0
 20
297.0
  9
$UNITMODE
 70
     0
  9
$VISRETAIN
 70
     1
  9
$PLINEGEN
 70
     0
  9
$PSLTSCALE
 70
     1
  9
$TREEDEPTH
 70
  3020
  9
$CMLSTYLE
  2
Standard
  9
$CMLJUST
 70
     0
  9
$CMLSCALE
 40
20.0
  9
$PROXYGRAPHICS
 70
     1
  9
$MEASUREMENT
 70
     1
  9
$CELWEIGHT
370
    -1
  9
$ENDCAPS
280
     0
  9
$JOINSTYLE
280
     0
  9
$LWDISPLAY
290
     1
  9
$INSUNITS
 70
     4
  9
$HYPERLINKBASE
  1

  9
$STYLESHEET
  1

  9
$XEDIT
290
     1
  9
$CEPSNTYPE
380
     0
  9
$PSTYLEMODE
290
     1
  9
$FINGERPRINTGUID
  2
{B36314A9-A530-4455-ADDD-960784111FEF}
  9
$VERSIONGUID
  2
{FAEB1C32-E019-11D5-929B-00C0DF256EC4}
  9
$EXTNAMES
290
     1
  9
$PSVPSCALE
 40
0.0
  9
$OLESTARTUP
290
     0
  0
ENDSEC
  0
SECTION
  2
CLASSES
  0
CLASS
  1
ACDBDICTIONARYWDFLT
  2
AcDbDictionaryWithDefault
  3
ObjectDBX Classes
 90
        0
280
     0
281
     0
  0
CLASS
  1
VISUALSTYLE
  2
AcDbVisualStyle
  3
ObjectDBX Classes
 90
     4095
280
     0
281
     0
  0
CLASS
  1
MATERIAL
  2
AcDbMaterial
  3
ObjectDBX Classes
 90
     1153
280
     0
281
     0
  0
CLASS
  1
ACDBPLACEHOLDER
  2
AcDbPlaceHolder
  3
ObjectDBX Classes
 90
        0
280
     0
281
     0
  0
CLASS
  1
LAYOUT
  2
AcDbLayout
  3
ObjectDBX Classes
 90
        0
280
     0
281
     0
  0
ENDSEC
  0
SECTION
  2
TABLES
  0
TABLE
  2
VPORT
  5
8
330
0
100
AcDbSymbolTable
 70
     1
  0
VPORT
  5
29
330
8
100
AcDbSymbolTableRecord
100
AcDbViewportTableRecord
  2
*Active
 70
     0
 10
0.0
 20
0.0
 11
1.0
 21
1.0
 12
139.7
 22
107.95
 13
0.0
 23
0.0
 14
10.0
 24
10.0
 15
10.0
 25
10.0
 16
0.0
 26
0.0
 36
1.0
 17
0.0
 27
0.0
 37
0.0
 40
215.9
 41
1.2941176471
 42
50.0
 43
0.0
 44
0.0
 50
0.0
 51
0.0
 71
     0
 72
  2000
 73
     1
 74
     3
 75
     0
 76
     0
 77
     0
 78
     0
281
     0
 65
     1
110
0.0
120
0.0
130
0.0
111
1.0
121
0.0
131
0.0
112
0.0
122
1.0
132
0.0
 79
     0
146
0.0
  0
ENDTAB
  0
TABLE
  2
LTYPE
  5
5
330
0
100
AcDbSymbolTable
 70
     6
  0
LTYPE
  5
14
330
5
100
AcDbSymbolTableRecord
100
AcDbLinetypeTableRecord
  2
ByBlock
 70
     0
  3

 72
    65
 73
     0
 40
0.0
  0
LTYPE
  5
15
330
5
100
AcDbSymbolTableRecord
100
AcDbLinetypeTableRecord
  2
ByLayer
 70
     0
  3

 72
    65
 73
     0
 40
0.0
  0
LTYPE
  5
16
330
5
100
AcDbSymbolTableRecord
100
AcDbLinetypeTableRecord
  2
Continuous
 70
     0
  3
Solid line
 72
    65
 73
     0
 40
0.0
  0
LTYPE
  5
3F
330
5
100
AcDbSymbolTableRecord
100
AcDbLinetypeTableRecord
  2
HIDDEN
 70
     0
  3
Hidden __ __ __ __ __ __ __ __ __ __ __ __ __ __
 72
    65
 73
     2
 40
1.905
 49
1.27
 74
     0
 49
-0.635
 74
     0
  0
LTYPE
  5
40
330
5
100
AcDbSymbolTableRecord
100
AcDbLinetypeTableRecord
  2
PHANTOM
 70
     0
  3
Phantom ______  __  __  ______  __  __  ______
 72
    65
 73
     6
 40
12.7
 49
6.35
 74
     0
 49
-1.27
 74
     0
 49
1.27
 74
     0
 49
-1.27
 74
     0
 49
1.27
 74
     0
 49
-1.27
 74
     0
  0
LTYPE
  5
41
330
5
100
AcDbSymbolTableRecord
100
AcDbLinetypeTableRecord
  2
CENTER
 70
     0
  3
Center ____ _ ____ _ ____ _ ____ _ ____ _ ____
 72
    65
 73
     4
 40
10.16
 49
6.35
 74
     0
 49
-1.27
 74
     0
 49
1.27
 74
     0
 49
-1.27
 74
     0
  0
LTYPE
  5
42
330
5
100
AcDbSymbolTableRecord
100
AcDbLinetypeTableRecord
  2
CENTERX2
 70
     0
  3
Center (2x) ________  __  ________  __  _____
 72
    65
 73
     4
 40
20.32
 49
12.7
 74
     0
 49
-2.54
 74
     0
 49
2.54
 74
     0
 49
-2.54
 74
     0
  0
LTYPE
  5
43
330
5
100
AcDbSymbolTableRecord
100
AcDbLinetypeTableRecord
  2
DOT2
 70
     0
  3
Dot (.5x) ........................................
 72
    65
 73
     2
 40
0.635
 49
0.0
 74
     0
 49
-0.635
 74
     0
  0
ENDTAB
  0
TABLE
  2
LAYER
  5
2
330
0
100
AcDbSymbolTable
 70
     2
  0
LAYER
  5
10
330
2
100
AcDbSymbolTableRecord
100
AcDbLayerTableRecord
  2
0
 70
     0
 62
     7
  6
Continuous
370
    -3
390
F
  0
LAYER
  5
44
330
2
100
AcDbSymbolTableRecord
100
AcDbLayerTableRecord
  2
FORMAT
 70
     0
 62
     7
  6
Continuous
370
    -3
390
F
  0
ENDTAB
  0
TABLE
  2
STYLE
  5
3
330
0
100
AcDbSymbolTable
 70
     5
  0
STYLE
  5
11
330
3
100
AcDbSymbolTableRecord
100
AcDbTextStyleTableRecord
  2
Standard
 70
     0
 40
0.0
 41
1.0
 50
0.0
 71
     0
 42
2.5
  3
txt
  4

  0
STYLE
  5
6B
330
3
100
AcDbSymbolTableRecord
100
AcDbTextStyleTableRecord
  2
SLDTEXTSTYLE0
 70
     0
 40
0.0
 41
0.75
 50
0.0
 71
     0
 42
0.2
  3
TXT
  4

  0
STYLE
  5
75
330
3
100
AcDbSymbolTableRecord
100
AcDbTextStyleTableRecord
  2
SLDTEXTSTYLE1
 70
     0
 40
0.0
 41
0.6
 50
0.0
 71
     0
 42
0.2
  3
TXT
  4

  0
STYLE
  5
9E
330
3
100
AcDbSymbolTableRecord
100
AcDbTextStyleTableRecord
  2
SLDTEXTSTYLE2
 70
     0
 40
0.0
 41
0.75
 50
0.0
 71
     0
 42
0.2
  3
TXT
  4
bigfont
  0
STYLE
  5
B2
330
3
100
AcDbSymbolTableRecord
100
AcDbTextStyleTableRecord
  2
SLDTEXTSTYLE3
 70
     0
 40
0.0
 41
0.7
 50
0.0
 71
     0
 42
0.2
  3
TXT
  4

  0
ENDTAB
  0
TABLE
  2
VIEW
  5
6
330
0
100
AcDbSymbolTable
 70
     0
  0
ENDTAB
  0
TABLE
  2
UCS
  5
7
330
0
100
AcDbSymbolTable
 70
     0
  0
ENDTAB
  0
TABLE
  2
APPID
  5
9
330
0
100
AcDbSymbolTable
 70
     1
  0
APPID
  5
12
330
9
100
AcDbSymbolTableRecord
100
AcDbRegAppTableRecord
  2
ACAD
 70
     0
  0
ENDTAB
  0
TABLE
  2
DIMSTYLE
  5
A
330
0
100
AcDbSymbolTable
 70
     5
100
AcDbDimStyleTable
  0
DIMSTYLE
105
27
330
A
100
AcDbSymbolTableRecord
100
AcDbDimStyleTableRecord
  2
ISO-25
 70
     0
 41
2.5
 42
0.625
 43
3.75
 44
1.25
 73
     0
 74
     0
 77
     1
 78
     8
140
2.5
141
2.5
143
0.0393700787
147
0.625
171
     3
172
     1
178
     0
271
     2
272
     2
274
     3
278
    44
283
     0
284
     8
340
11
  0
DIMSTYLE
105
BB
102
{ACAD_REACTORS
330
BA
102
}
330
A
100
AcDbSymbolTableRecord
100
AcDbDimStyleTableRecord
  2
SLDDIMSTYLE0
 70
     0
 41
3.175
 44
0.0
 45
0.000000001
 78
    12
 79
     3
140
2.1166666667
141
0.0
143
0.0393700787
147
0.5291666667
148
0.000000001
170
     1
173
     1
178
     0
271
     1
272
     1
276
     2
284
    12
340
6B
  0
DIMSTYLE
105
1F4
102
{ACAD_REACTORS
330
1F3
102
}
330
A
100
AcDbSymbolTableRecord
100
AcDbDimStyleTableRecord
  2
SLDDIMSTYLE1
 70
     0
 41
3.175
 44
0.0
 45
0.000000001
 78
     4
 79
     1
140
2.1166666667
141
0.0
143
0.0393700787
147
0.5291666667
148
0.000000001
170
     1
173
     1
178
     0
271
     1
272
     1
276
     2
284
    12
340
6B
  0
DIMSTYLE
105
205
102
{ACAD_REACTORS
330
204
102
}
330
A
100
AcDbSymbolTableRecord
100
AcDbDimStyleTableRecord
  2
SLDDIMSTYLE2
 70
     0
 41
3.175
 44
0.0
 45
0.000000001
 78
     4
 79
     1
140
2.1166666667
143
0.0393700787
147
0.5291666667
148
0.000000001
170
     1
172
     1
173
     1
178
     0
271
     1
272
     1
276
     2
284
    12
289
     0
340
6B
  0
DIMSTYLE
105
218
102
{ACAD_REACTORS
330
217
102
}
330
A
100
AcDbSymbolTableRecord
100
AcDbDimStyleTableRecord
  2
SLDDIMSTYLE3
 70
     0
 41
3.175
 44
0.0
 45
0.000000001
 78
    12
 79
     3
140
2.1166666667
143
0.0393700787
147
0.5291666667
148
0.000000001
170
     1
172
     1
173
     1
178
     0
271
     1
272
     1
276
     2
284
    12
289
     0
340
6B
  0
ENDTAB
  0
TABLE
  2
BLOCK_RECORD
  5
1
330
0
100
AcDbSymbolTable
 70
    12
  0
BLOCK_RECORD
  5
1F
330
1
100
AcDbSymbolTableRecord
100
AcDbBlockTableRecord
  2
*Model_Space
340
22
  0
BLOCK_RECORD
  5
1B
330
1
100
AcDbSymbolTableRecord
100
AcDbBlockTableRecord
  2
*Paper_Space
340
1E
  0
BLOCK_RECORD
  5
23
330
1
100
AcDbSymbolTableRecord
100
AcDbBlockTableRecord
  2
*Paper_Space0
340
26
  0
BLOCK_RECORD
  5
45
330
1
100
AcDbSymbolTableRecord
100
AcDbBlockTableRecord
  2
Third Angle Projection Block
340
0
102
{BLKREFS
331
6A
102
}
  0
BLOCK_RECORD
  5
7B
330
1
100
AcDbSymbolTableRecord
100
AcDbBlockTableRecord
  2
SW_NOTE_0
340
0
102
{BLKREFS
331
80
102
}
  0
BLOCK_RECORD
  5
81
330
1
100
AcDbSymbolTableRecord
100
AcDbBlockTableRecord
  2
SW_NOTE_1
340
0
102
{BLKREFS
331
86
102
}
  0
BLOCK_RECORD
  5
88
330
1
100
AcDbSymbolTableRecord
100
AcDbBlockTableRecord
  2
SW_NOTE_2
340
0
102
{BLKREFS
331
8D
102
}
  0
BLOCK_RECORD
  5
8F
330
1
100
AcDbSymbolTableRecord
100
AcDbBlockTableRecord
  2
SW_NOTE_3
340
0
102
{BLKREFS
331
95
102
}
  0
BLOCK_RECORD
  5
96
330
1
100
AcDbSymbolTableRecord
100
AcDbBlockTableRecord
  2
SW_NOTE_4
340
0
102
{BLKREFS
331
B5
102
}
  0
BLOCK_RECORD
  5
BC
330
1
100
AcDbSymbolTableRecord
100
AcDbBlockTableRecord
  2
*D7
340
0
  0
BLOCK_RECORD
  5
CB
330
1
100
AcDbSymbolTableRecord
100
AcDbBlockTableRecord
  2
SW_CENTERMARKSYMBOL_0
340
0
102
{BLKREFS
331
D2
102
}
  0
BLOCK_RECORD
  5
1F5
330
1
100
AcDbSymbolTableRecord
100
AcDbBlockTableRecord
  2
*D9
340
0
  0
BLOCK_RECORD
  5
206
330
1
100
AcDbSymbolTableRecord
100
AcDbBlockTableRecord
  2
*D10
340
0
  0
BLOCK_RECORD
  5
219
330
1
100
AcDbSymbolTableRecord
100
AcDbBlockTableRecord
  2
*D11
340
0
  0
ENDTAB
  0
ENDSEC
  0
SECTION
  2
BLOCKS
  0
BLOCK
  5
20
330
1F
100
AcDbEntity
  8
0
100
AcDbBlockBegin
  2
*Model_Space
 70
     0
 10
0.0
 20
0.0
 30
0.0
  3
*Model_Space
  1

  0
ENDBLK
  5
21
330
1F
100
AcDbEntity
  8
0
100
AcDbBlockEnd
  0
BLOCK
  5
1C
330
1B
100
AcDbEntity
 67
     1
  8
0
100
AcDbBlockBegin
  2
*Paper_Space
 70
     0
 10
0.0
 20
0.0
 30
0.0
  3
*Paper_Space
  1

  0
ENDBLK
  5
1D
330
1B
100
AcDbEntity
 67
     1
  8
0
100
AcDbBlockEnd
  0
BLOCK
  5
24
330
23
100
AcDbEntity
  8
0
100
AcDbBlockBegin
  2
*Paper_Space0
 70
     0
 10
0.0
 20
0.0
 30
0.0
  3
*Paper_Space0
  1

  0
ENDBLK
  5
25
330
23
100
AcDbEntity
  8
0
100
AcDbBlockEnd
  0
BLOCK
  5
46
330
45
100
AcDbEntity
  8
0
100
AcDbBlockBegin
  2
Third Angle Projection Block
 70
     0
 10
0.0
 20
0.0
 30
0.0
  3
Third Angle Projection Block
  1

  0
CIRCLE
  5
48
330
45
100
AcDbEntity
  8
0
  6
Continuous
 62
     7
370
    30
100
AcDbCircle
 10
101.4766388944
 20
18.9404083667
 30
0.0
 40
1.768227153674871
  0
CIRCLE
  5
49
330
45
100
AcDbEntity
  8
0
  6
Continuous
 62
     7
370
    30
100
AcDbCircle
 10
101.4766388944
 20
18.9404083667
 30
0.0
 40
3.901228248531818
  0
LINE
  5
4A
330
45
100
AcDbEntity
  8
0
  6
CENTERX2
 62
     7
370
     0
100
AcDbLine
 10
110.1367822585
 20
18.9404083667
 30
0.0
 11
119.4527334874
 21
18.9404083667
 31
0.0
  0
LINE
  5
4B
330
45
100
AcDbEntity
  8
0
  6
Continuous
 62
     7
370
    30
100
AcDbLine
 10
111.0016388944
 20
20.7086355204
 30
0.0
 11
111.0016388944
 21
17.172181213
 31
0.0
  0
LINE
  5
4C
330
45
100
AcDbEntity
  8
0
  6
Continuous
 62
     7
370
    30
100
AcDbLine
 10
111.0016388944
 20
17.172181213
 30
0.0
 11
118.6216388944
 21
15.1304083667
 31
0.0
  0
LINE
  5
4D
330
45
100
AcDbEntity
  8
0
  6
Continuous
 62
     7
370
    30
100
AcDbLine
 10
118.6216388944
 20
15.1304083667
 30
0.0
 11
118.6216388944
 21
22.7504083667
 31
0.0
  0
LINE
  5
4E
330
45
100
AcDbEntity
  8
0
  6
Continuous
 62
     7
370
    30
100
AcDbLine
 10
118.6216388944
 20
22.7504083667
 30
0.0
 11
111.0016388944
 21
20.7086355204
 31
0.0
  0
LINE
  5
4F
330
45
100
AcDbEntity
  8
0
  6
CENTERX2
 62
     7
370
     0
100
AcDbLine
 10
96.6025854619
 20
18.9404083667
 30
0.0
 11
106.3506923269
 21
18.9404083667
 31
0.0
  0
LINE
  5
50
330
45
100
AcDbEntity
  8
0
  6
CENTERX2
 62
     7
370
     0
100
AcDbLine
 10
101.4766388944
 20
23.8144617992
 30
0.0
 11
101.4766388944
 21
14.0663549342
 31
0.0
  0
POINT
  5
51
330
45
100
AcDbEntity
  8
0
  6
Continuous
 62
     7
370
     0
100
AcDbPoint
 10
101.4766388944
 20
18.9404083667
 30
0.0
  0
ENDBLK
  5
47
330
45
100
AcDbEntity
  8
0
100
AcDbBlockEnd
  0
BLOCK
  5
7C
330
7B
100
AcDbEntity
  8
0
100
AcDbBlockBegin
  2
SW_NOTE_0
 70
     0
 10
0.0
 20
0.0
 30
0.0
  3
SW_NOTE_0
  1

  0
MTEXT
  5
7E
330
7B
100
AcDbEntity
  8
0
  6
Continuous
 62
     0
370
     0
100
AcDbMText
 10
19.90725
 20
1.9645392354
 30
0.0
 40
1.524
 41
0.0
 71
     2
 72
     1
  1
VALUES IN PARENTHESIS ARE CALCULATED
  7
SLDTEXTSTYLE0
 73
     1
 44
1.0
  0
MTEXT
  5
7F
330
7B
100
AcDbEntity
  8
0
  6
Continuous
 62
     0
370
     0
100
AcDbMText
 10
19.8778795174
 20
-0.5594606586
 30
0.0
 40
1.524
 41
0.0
 71
     2
 72
     1
  1
AND MAY CONTAIN ROUNDOFF ERRORS
  7
SLDTEXTSTYLE0
 73
     1
 44
1.0
  0
ENDBLK
  5
7D
330
7B
100
AcDbEntity
  8
0
100
AcDbBlockEnd
  0
BLOCK
  5
82
330
81
100
AcDbEntity
  8
0
100
AcDbBlockBegin
  2
SW_NOTE_1
 70
     0
 10
0.0
 20
0.0
 30
0.0
  3
SW_NOTE_1
  1

  0
MTEXT
  5
84
330
81
100
AcDbEntity
  8
0
  6
Continuous
 62
     0
370
     0
100
AcDbMText
 10
0.0
 20
2.7285267159
 30
0.0
 40
2.1166666667
 41
0.0
 71
     1
 72
     1
  1
DRAWING
  7
SLDTEXTSTYLE0
 73
     1
 44
1.0
  0
MTEXT
  5
85
330
81
100
AcDbEntity
  8
0
  6
Continuous
 62
     0
370
     0
100
AcDbMText
 10
0.0
 20
-0.0936954723
 30
0.0
 40
2.1166666667
 41
0.0
 71
     1
 72
     1
  1
PROJECTION
  7
SLDTEXTSTYLE0
 73
     1
 44
1.0
  0
ENDBLK
  5
83
330
81
100
AcDbEntity
  8
0
100
AcDbBlockEnd
  0
BLOCK
  5
89
330
88
100
AcDbEntity
  8
0
100
AcDbBlockBegin
  2
SW_NOTE_2
 70
     0
 10
0.0
 20
0.0
 30
0.0
  3
SW_NOTE_2
  1

  0
MTEXT
  5
8B
330
88
100
AcDbEntity
  8
0
  6
Continuous
 62
     0
370
     0
100
AcDbMText
 10
25.052734375
 20
4.0927900738
 30
0.0
 40
3.175
 41
0.0
 71
     2
 72
     1
  1
FOR INFORMATION ONLY
  7
SLDTEXTSTYLE0
 73
     1
 44
1.0
  0
MTEXT
  5
8C
330
88
100
AcDbEntity
  8
0
  6
Continuous
 62
     0
370
     0
100
AcDbMText
 10
25.3768468589
 20
-0.1405432084
 30
0.0
 40
3.175
 41
0.0
 71
     2
 72
     1
  1
NOT FOR MANUFACTURING PURPOSES
  7
SLDTEXTSTYLE0
 73
     1
 44
1.0
  0
ENDBLK
  5
8A
330
88
100
AcDbEntity
  8
0
100
AcDbBlockEnd
  0
BLOCK
  5
90
330
8F
100
AcDbEntity
  8
0
100
AcDbBlockBegin
  2
SW_NOTE_3
 70
     0
 10
0.0
 20
0.0
 30
0.0
  3
SW_NOTE_3
  1

  0
MTEXT
  5
92
330
8F
100
AcDbEntity
  8
0
  6
Continuous
 62
     0
370
     0
100
AcDbMText
 10
1.9016927083
 20
3.4106583948
 30
0.0
 40
2.6458333333
 41
0.0
 71
     2
 72
     1
  1
%%c
  7
SLDTEXTSTYLE0
 73
     1
 44
1.0
  0
MTEXT
  5
93
330
8F
100
AcDbEntity
  8
0
  6
Continuous
 62
     0
370
     0
100
AcDbMText
 10
32.3124233385
 20
3.4106583948
 30
0.0
 40
2.6458333333
 41
0.0
 71
     2
 72
     1
  1
50.8mm, f= 100.0mm BROADBAND
  7
SLDTEXTSTYLE0
 73
     1
 44
1.0
  0
MTEXT
  5
94
330
8F
100
AcDbEntity
  8
0
  6
Continuous
 62
     0
370
     0
100
AcDbMText
 10
30.7935863187
 20
-0.1171193403
 30
0.0
 40
2.6458333333
 41
0.0
 71
     2
 72
     1
  1
MIRROR 750-1100nm
  7
SLDTEXTSTYLE0
 73
     1
 44
1.0
  0
ENDBLK
  5
91
330
8F
100
AcDbEntity
  8
0
100
AcDbBlockEnd
  0
BLOCK
  5
97
330
96
100
AcDbEntity
  8
0
100
AcDbBlockBegin
  2
SW_NOTE_4
 70
     0
 10
0.0
 20
0.0
 30
0.0
  3
SW_NOTE_4
  1

  0
MTEXT
  5
99
330
96
100
AcDbEntity
  8
0
  6
Continuous
 62
     0
370
     0
100
AcDbMText
 10
0.0
 20
3.0695925553
 30
0.0
 40
2.38125
 41
0.0
 71
     1
 72
     1
  1
NOTES/SPECIFICATIONS:
  7
SLDTEXTSTYLE0
 73
     1
 44
1.0
  0
MTEXT
  5
9A
330
96
100
AcDbEntity
  8
0
  6
Continuous
 62
     0
370
     0
100
AcDbMText
 10
9.9999997765
 20
-3.2804073679
 30
0.0
 40
2.38125
 41
0.0
 71
     1
 72
     1
  1
CLEAR APERTURE: >90% DIAMETER
  7
SLDTEXTSTYLE0
 73
     1
 44
1.0
  0
MTEXT
  5
9B
330
96
100
AcDbEntity
  8
0
  6
Continuous
 62
     0
370
     0
100
AcDbMText
 10
0.0
 20
-3.2804073679
 30
0.0
 40
2.38125
 41
0.0
 71
     1
 72
     1
  1
1.
  7
SLDTEXTSTYLE0
 73
     1
 44
1.0
  0
MTEXT
  5
9C
330
96
100
AcDbEntity
  8
0
  6
Continuous
 62
     0
370
     0
100
AcDbMText
 10
9.9999997765
 20
-6.5976282029
 30
0.0
 40
2.38125
 41
0.0
 71
     1
 72
     1
  1
SURFACE ACCURACY
  7
SLDTEXTSTYLE0
 73
     1
 44
1.0
  0
MTEXT
  5
9D
330
96
100
AcDbEntity
  8
0
  6
Continuous
 62
     0
370
     0
100
AcDbMText
 10
42.9582651705
 20
-6.6891910621
 30
0.0
 40
2.286
 41
0.0
 71
     1
 72
     1
  1
:
  7
SLDTEXTSTYLE0
 73
     1
 44
1.0
  0
MTEXT
  5
9F
330
96
100
AcDbEntity
  8
0
  6
Continuous
 62
     0
370
     0
100
AcDbMText
 10
44.6957833081
 20
-6.5976282029
 30
0.0
 40
2.38125
 41
0.0
 71
     1
 72
     1
  1
\M+183C9/
  7
SLDTEXTSTYLE2
 73
     1
 44
1.0
  0
MTEXT
  5
A0
330
96
100
AcDbEntity
  8
0
  6
Continuous
 62
     0
370
     0
100
AcDbMText
 10
47.7715637535
 20
-6.6891910621
 30
0.0
 40
2.286
 41
0.0
 71
     1
 72
     1
  1
4
  7
SLDTEXTSTYLE0
 73
     1
 44
1.0
  0
MTEXT
  5
A1
330
96
100
AcDbEntity
  8
0
  6
Continuous
 62
     0
370
     0
100
AcDbMText
 10
50.3052156419
 20
-6.5976282029
 30
0.0
 40
2.38125
 41
0.0
 71
     1
 72
     1
  1
AT 632.8nm OVER CLEAR APERTURE
  7
SLDTEXTSTYLE0
 73
     1
 44
1.0
  0
MTEXT
  5
A2
330
96
100
AcDbEntity
  8
0
  6
Continuous
 62
     0
370
     0
100
AcDbMText
 10
0.0
 20
-6.5976282029
 30
0.0
 40
2.38125
 41
0.0
 71
     1
 72
     1
  1
2.
  7
SLDTEXTSTYLE0
 73
     1
 44
1.0
  0
MTEXT
  5
A3
330
96
100
AcDbEntity
  8
0
  6
Continuous
 62
     0
370
     0
100
AcDbMText
 10
9.9999997765
 20
-9.7726281646
 30
0.0
 40
2.38125
 41
0.0
 71
     1
 72
     1
  1
SURFACE QUALITY: 20-10 SCRATCH-DIG
  7
SLDTEXTSTYLE0
 73
     1
 44
1.0
  0
MTEXT
  5
A4
330
96
100
AcDbEntity
  8
0
  6
Continuous
 62
     0
370
     0
100
AcDbMText
 10
0.0
 20
-9.7726281646
 30
0.0
 40
2.38125
 41
0.0
 71
     1
 72
     1
  1
3.
  7
SLDTEXTSTYLE0
 73
     1
 44
1.0
  0
MTEXT
  5
A5
330
96
100
AcDbEntity
  8
0
  6
Continuous
 62
     0
370
     0
100
AcDbMText
 10
9.9999997765
 20
-12.9476281262
 30
0.0
 40
2.38125
 41
0.0
 71
     1
 72
     1
  1
BACK SURFACE: FINE GROUND
  7
SLDTEXTSTYLE0
 73
     1
 44
1.0
  0
MTEXT
  5
A6
330
96
100
AcDbEntity
  8
0
  6
Continuous
 62
     0
370
     0
100
AcDbMText
 10
0.0
 20
-12.9476281262
 30
0.0
 40
2.38125
 41
0.0
 71
     1
 72
     1
  1
4.
  7
SLDTEXTSTYLE0
 73
     1
 44
1.0
  0
MTEXT
  5
A7
330
96
100
AcDbEntity
  8
0
  6
Continuous
 62
     0
370
     0
100
AcDbMText
 10
9.9999997765
 20
-16.1226280878
 30
0.0
 40
2.38125
 41
0.0
 71
     1
 72
     1
  1
THICKNESS TOLERANCE:
  7
SLDTEXTSTYLE0
 73
     1
 44
1.0
  0
MTEXT
  5
A8
330
96
100
AcDbEntity
  8
0
  6
Continuous
 62
     0
370
     0
100
AcDbMText
 10
46.741804108
 20
-16.1226280878
 30
0.0
 40
2.38125
 41
0.0
 71
     1
 72
     1
  1
%%p
  7
SLDTEXTSTYLE0
 73
     1
 44
1.0
  0
MTEXT
  5
A9
330
96
100
AcDbEntity
  8
0
  6
Continuous
 62
     0
370
     0
100
AcDbMText
 10
49.0119289607
 20
-16.1226280878
 30
0.0
 40
2.38125
 41
0.0
 71
     1
 72
     1
  1
0.2 mm
  7
SLDTEXTSTYLE0
 73
     1
 44
1.0
  0
MTEXT
  5
AA
330
96
100
AcDbEntity
  8
0
  6
Continuous
 62
     0
370
     0
100
AcDbMText
 10
0.0
 20
-16.1226280878
 30
0.0
 40
2.38125
 41
0.0
 71
     1
 72
     1
  1
5.
  7
SLDTEXTSTYLE0
 73
     1
 44
1.0
  0
MTEXT
  5
AB
330
96
100
AcDbEntity
  8
0
  6
Continuous
 62
     0
370
     0
100
AcDbMText
 10
9.9999997765
 20
-19.2976280495
 30
0.0
 40
2.38125
 41
0.0
 71
     1
 72
     1
  1
DIAMETER TOLERANCE: + 0.0/-0.2 mm
  7
SLDTEXTSTYLE0
 73
     1
 44
1.0
  0
MTEXT
  5
AC
330
96
100
AcDbEntity
  8
0
  6
Continuous
 62
     0
370
     0
100
AcDbMText
 10
0.0
 20
-19.2976280495
 30
0.0
 40
2.38125
 41
0.0
 71
     1
 72
     1
  1
6.
  7
SLDTEXTSTYLE0
 73
     1
 44
1.0
  0
MTEXT
  5
AD
330
96
100
AcDbEntity
  8
0
  6
Continuous
 62
     0
370
     0
100
AcDbMText
 10
9.9999997765
 20
-22.4726280111
 30
0.0
 40
2.38125
 41
0.0
 71
     1
 72
     1
  1
COATING: BROADBAND HR, DIELECTRIC
  7
SLDTEXTSTYLE0
 73
     1
 44
1.0
  0
MTEXT
  5
AE
330
96
100
AcDbEntity
  8
0
  6
Continuous
 62
     0
370
     0
100
AcDbMText
 10
0.0
 20
-22.4726280111
 30
0.0
 40
2.38125
 41
0.0
 71
     1
 72
     1
  1
7.
  7
SLDTEXTSTYLE0
 73
     1
 44
1.0
  0
MTEXT
  5
AF
330
96
100
AcDbEntity
  8
0
  6
Continuous
 62
     0
370
     0
100
AcDbMText
 10
10.0
 20
-25.6476279727
 30
0.0
 40
2.38125
 41
0.0
 71
     1
 72
     1
  1
Rs and Rp >99% OVER WAVELENGTH RANGE
  7
SLDTEXTSTYLE0
 73
     1
 44
1.0
  0
MTEXT
  5
B0
330
96
100
AcDbEntity
  8
0
  6
Continuous
 62
     0
370
     0
100
AcDbMText
 10
10.0
 20
-28.8226279343
 30
0.0
 40
2.38125
 41
0.0
 71
     1
 72
     1
  1
AOI: 0
  7
SLDTEXTSTYLE0
 73
     1
 44
1.0
  0
MTEXT
  5
B1
330
96
100
AcDbEntity
  8
0
  6
Continuous
 62
     0
370
     0
100
AcDbMText
 10
19.344201535
 20
-28.8226279343
 30
0.0
 40
2.38125
 41
0.0
 71
     1
 72
     1
  1
%%d
  7
SLDTEXTSTYLE0
 73
     1
 44
1.0
  0
MTEXT
  5
B3
330
96
100
AcDbEntity
  8
0
  6
Continuous
 62
     0
370
     0
100
AcDbMText
 10
21.7505871639
 20
-28.8226279343
 30
0.0
 40
2.38125
 41
0.0
 71
     1
 72
     1
  1
TO 45
  7
SLDTEXTSTYLE3
 73
     1
 44
1.0
  0
MTEXT
  5
B4
330
96
100
AcDbEntity
  8
0
  6
Continuous
 62
     0
370
     0
100
AcDbMText
 10
30.2459171414
 20
-28.8226279343
 30
0.0
 40
2.38125
 41
0.0
 71
     1
 72
     1
  1
%%d
  7
SLDTEXTSTYLE0
 73
     1
 44
1.0
  0
ENDBLK
  5
98
330
96
100
AcDbEntity
  8
0
100
AcDbBlockEnd
  0
BLOCK
  5
BD
330
BC
100
AcDbEntity
  8
0
100
AcDbBlockBegin
  2
*D7
 70
     1
 10
0.0
 20
0.0
 30
0.0
  3
*D7
  1

  0
SOLID
  5
BF
330
BC
100
AcDbEntity
  8
0
  6
Continuous
 62
     7
370
     0
100
AcDbTrace
 10
76.1377532724
 20
88.5607422181
 30
0.0
 11
78.0227152417
 21
85.9558223779
 31
0.0
 12
78.741381677
 22
86.6739968377
 32
0.0
 13
78.741381677
 23
86.6739968377
 33
0.0
  0
LINE
  5
C0
330
BC
100
AcDbEntity
  8
0
  6
Continuous
 62
     7
370
     0
100
AcDbLine
 10
91.7639376884
 20
77.4193577748
 30
0.0
 11
91.7639376884
 21
74.5611424636
 31
0.0
  0
LINE
  5
C1
330
BC
100
AcDbEntity
  8
0
  6
Continuous
 62
     7
370
     0
100
AcDbLine
 10
91.7639376884
 20
74.5611424636
 30
0.0
 11
92.1930057505
 21
74.5611424636
 31
0.0
  0
LINE
  5
C2
330
BC
100
AcDbEntity
  8
0
  6
Continuous
 62
     7
370
     0
100
AcDbLine
 10
91.7639376884
 20
77.4193577748
 30
0.0
 11
92.1930057505
 21
77.4193577748
 31
0.0
  0
LINE
  5
C3
330
BC
100
AcDbEntity
  8
0
  6
Continuous
 62
     7
370
     0
100
AcDbLine
 10
101.2371663355
 20
77.4193577748
 30
0.0
 11
101.2371663355
 21
74.5611424636
 31
0.0
  0
LINE
  5
C4
330
BC
100
AcDbEntity
  8
0
  6
Continuous
 62
     7
370
     0
100
AcDbLine
 10
101.2371663355
 20
74.5611424636
 30
0.0
 11
100.8080982733
 21
74.5611424636
 31
0.0
  0
LINE
  5
C5
330
BC
100
AcDbEntity
  8
0
  6
Continuous
 62
     7
370
     0
100
AcDbLine
 10
101.2371663355
 20
77.4193577748
 30
0.0
 11
100.8080982733
 21
77.4193577748
 31
0.0
  0
LINE
  5
C6
330
BC
100
AcDbEntity
  8
0
  6
Continuous
 62
     7
370
     0
100
AcDbLine
 10
76.1377532724
 20
88.5607422181
 30
0.0
 11
85.3393357061
 21
79.3528563677
 31
0.0
  0
LINE
  5
C7
330
BC
100
AcDbEntity
  8
0
  6
Continuous
 62
     7
370
     0
100
AcDbLine
 10
85.3393357061
 20
79.3528563677
 30
0.0
 11
89.1493357061
 21
79.3528563677
 31
0.0
  0
MTEXT
  5
C8
330
BC
100
AcDbEntity
  8
0
  6
Continuous
 62
     7
370
     0
100
AcDbMText
 10
90.905801564
 20
80.4000798429
 30
0.0
 40
2.1166666667
 41
0.0
 71
     1
 72
     1
  1
%%c
  7
SLDTEXTSTYLE0
 73
     1
 44
1.0
  0
MTEXT
  5
C9
330
BC
100
AcDbEntity
  8
0
  6
Continuous
 62
     7
370
     0
100
AcDbMText
 10
93.9321471877
 20
80.4000798429
 30
0.0
 40
2.1166666667
 41
0.0
 71
     1
 72
     1
  1
50.8mm
  7
SLDTEXTSTYLE0
 73
     1
 44
1.0
  0
MTEXT
  5
CA
330
BC
100
AcDbEntity
  8
0
  6
Continuous
 62
     7
370
     0
100
AcDbMText
 10
92.6220738127
 20
77.0374735944
 30
0.0
 40
2.1166666667
 41
0.0
 71
     1
 72
     1
  1
2.00in
  7
SLDTEXTSTYLE0
 73
     1
 44
1.0
  0
ENDBLK
  5
BE
330
BC
100
AcDbEntity
  8
0
100
AcDbBlockEnd
  0
BLOCK
  5
CC
330
CB
100
AcDbEntity
  8
0
100
AcDbBlockBegin
  2
SW_CENTERMARKSYMBOL_0
 70
     0
 10
0.0
 20
0.0
 30
0.0
  3
SW_CENTERMARKSYMBOL_0
  1

  0
LINE
  5
CE
330
CB
100
AcDbEntity
  8
0
  6
Continuous
 62
     0
370
     0
100
AcDbLine
 10
0.0
 20
0.0
 30
0.0
 11
0.0
 21
2.0
 31
0.0
  0
LINE
  5
CF
330
CB
100
AcDbEntity
  8
0
  6
Continuous
 62
     0
370
     0
100
AcDbLine
 10
0.0
 20
0.0
 30
0.0
 11
-2.0
 21
0.0
 31
0.0
  0
LINE
  5
D0
330
CB
100
AcDbEntity
  8
0
  6
Continuous
 62
     0
370
     0
100
AcDbLine
 10
0.0
 20
0.0
 30
0.0
 11
0.0
 21
-2.0
 31
0.0
  0
LINE
  5
D1
330
CB
100
AcDbEntity
  8
0
  6
Continuous
 62
     0
370
     0
100
AcDbLine
 10
0.0
 20
0.0
 30
0.0
 11
2.0
 21
0.0
 31
0.0
  0
ENDBLK
  5
CD
330
CB
100
AcDbEntity
  8
0
100
AcDbBlockEnd
  0
BLOCK
  5
1F6
330
1F5
100
AcDbEntity
  8
0
100
AcDbBlockBegin
  2
*D9
 70
     1
 10
0.0
 20
0.0
 30
0.0
  3
*D9
  1

  0
SOLID
  5
1F8
330
1F5
100
AcDbEntity
  8
0
  6
Continuous
 62
     7
370
     0
100
AcDbTrace
 10
134.6053486518
 20
91.4411331652
 30
0.0
 11
137.7329839427
 21
90.6950859234
 31
0.0
 12
137.809622194
 22
91.7081913367
 32
0.0
 13
137.809622194
 23
91.7081913367
 33
0.0
  0
LINE
  5
1F9
330
1F5
100
AcDbEntity
  8
0
  6
Continuous
 62
     7
370
     0
100
AcDbLine
 10
160.1201605181
 20
88.0507382509
 30
0.0
 11
160.1201605181
 21
85.1925229397
 31
0.0
  0
LINE
  5
1FA
330
1F5
100
AcDbEntity
  8
0
  6
Continuous
 62
     7
370
     0
100
AcDbLine
 10
160.1201605181
 20
85.1925229397
 30
0.0
 11
160.5492285803
 21
85.1925229397
 31
0.0
  0
LINE
  5
1FB
330
1F5
100
AcDbEntity
  8
0
  6
Continuous
 62
     7
370
     0
100
AcDbLine
 10
160.1201605181
 20
88.0507382509
 30
0.0
 11
160.5492285803
 21
88.0507382509
 31
0.0
  0
LINE
  5
1FC
330
1F5
100
AcDbEntity
  8
0
  6
Continuous
 62
     7
370
     0
100
AcDbLine
 10
169.5933891652
 20
88.0507382509
 30
0.0
 11
169.5933891652
 21
85.1925229397
 31
0.0
  0
LINE
  5
1FD
330
1F5
100
AcDbEntity
  8
0
  6
Continuous
 62
     7
370
     0
100
AcDbLine
 10
169.5933891652
 20
85.1925229397
 30
0.0
 11
169.1643211031
 21
85.1925229397
 31
0.0
  0
LINE
  5
1FE
330
1F5
100
AcDbEntity
  8
0
  6
Continuous
 62
     7
370
     0
100
AcDbLine
 10
169.5933891652
 20
88.0507382509
 30
0.0
 11
169.1643211031
 21
88.0507382509
 31
0.0
  0
LINE
  5
1FF
330
1F5
100
AcDbEntity
  8
0
  6
Continuous
 62
     7
370
     0
100
AcDbLine
 10
134.6053486518
 20
91.4411331652
 30
0.0
 11
153.8645243938
 21
89.9842368438
 31
0.0
  0
LINE
  5
200
330
1F5
100
AcDbEntity
  8
0
  6
Continuous
 62
     7
370
     0
100
AcDbLine
 10
153.8645243938
 20
89.9842368438
 30
0.0
 11
157.6745243938
 21
89.9842368438
 31
0.0
  0
MTEXT
  5
201
330
1F5
100
AcDbEntity
  8
0
  6
Continuous
 62
     7
370
     0
100
AcDbMText
 10
159.2620243938
 20
91.031460319
 30
0.0
 40
2.1166666667
 41
0.0
 71
     1
 72
     1
  1
R
  7
SLDTEXTSTYLE0
 73
     1
 44
1.0
  0
MTEXT
  5
202
330
1F5
100
AcDbEntity
  8
0
  6
Continuous
 62
     7
370
     0
100
AcDbMText
 10
160.9745831071
 20
91.031460319
 30
0.0
 40
2.1166666667
 41
0.0
 71
     1
 72
     1
  1
200.0mm
  7
SLDTEXTSTYLE0
 73
     1
 44
1.0
  0
MTEXT
  5
203
330
1F5
100
AcDbEntity
  8
0
  6
Continuous
 62
     7
370
     0
100
AcDbMText
 10
160.9782966424
 20
87.6688540705
 30
0.0
 40
2.1166666667
 41
0.0
 71
     1
 72
     1
  1
7.87in
  7
SLDTEXTSTYLE0
 73
     1
 44
1.0
  0
ENDBLK
  5
1F7
330
1F5
100
AcDbEntity
  8
0
100
AcDbBlockEnd
  0
BLOCK
  5
207
330
206
100
AcDbEntity
  8
0
100
AcDbBlockBegin
  2
*D10
 70
     1
 10
0.0
 20
0.0
 30
0.0
  3
*D10
  1

  0
SOLID
  5
209
330
206
100
AcDbEntity
  8
0
  6
Continuous
 62
     7
370
     0
100
AcDbTrace
 10
144.1751491848
 20
141.9274031008
 30
0.0
 11
147.3501491848
 21
141.4194031008
 31
0.0
 12
147.3501491848
 22
142.4354031008
 32
0.0
 13
147.3501491848
 23
142.4354031008
 33
0.0
  0
SOLID
  5
20A
330
206
100
AcDbEntity
  8
0
  6
Continuous
 62
     7
370
     0
100
AcDbTrace
 10
135.1751491848
 20
141.9274031008
 30
0.0
 11
132.0001491848
 21
142.4354031008
 31
0.0
 12
132.0001491848
 22
141.4194031008
 32
0.0
 13
132.0001491848
 23
141.4194031008
 33
0.0
  0
LINE
  5
20B
330
206
100
AcDbEntity
  8
0
  6
Continuous
 62
     7
370
     0
100
AcDbLine
 10
153.6621955063
 20
141.6752076321
 30
0.0
 11
153.6621955063
 21
138.8169923209
 31
0.0
  0
LINE
  5
20C
330
206
100
AcDbEntity
  8
0
  6
Continuous
 62
     7
370
     0
100
AcDbLine
 10
153.6621955063
 20
138.8169923209
 30
0.0
 11
154.0912635685
 21
138.8169923209
 31
0.0
  0
LINE
  5
20D
330
206
100
AcDbEntity
  8
0
  6
Continuous
 62
     7
370
     0
100
AcDbLine
 10
153.6621955063
 20
141.6752076321
 30
0.0
 11
154.0912635685
 21
141.6752076321
 31
0.0
  0
LINE
  5
20E
330
206
100
AcDbEntity
  8
0
  6
Continuous
 62
     7
370
     0
100
AcDbLine
 10
163.1354241534
 20
141.6752076321
 30
0.0
 11
163.1354241534
 21
138.8169923209
 31
0.0
  0
LINE
  5
20F
330
206
100
AcDbEntity
  8
0
  6
Continuous
 62
     7
370
     0
100
AcDbLine
 10
163.1354241534
 20
138.8169923209
 30
0.0
 11
162.7063560913
 21
138.8169923209
 31
0.0
  0
LINE
  5
210
330
206
100
AcDbEntity
  8
0
  6
Continuous
 62
     7
370
     0
100
AcDbLine
 10
163.1354241534
 20
141.6752076321
 30
0.0
 11
162.7063560913
 21
141.6752076321
 31
0.0
  0
LINE
  5
211
330
206
100
AcDbEntity
  8
0
  6
Continuous
 62
     7
370
     0
100
AcDbLine
 10
144.1751491848
 20
132.9974031008
 30
0.0
 11
144.1751491848
 21
143.7054031008
 31
0.0
  0
LINE
  5
212
330
206
100
AcDbEntity
  8
0
  6
Continuous
 62
     7
370
     0
100
AcDbLine
 10
135.1751491848
 20
107.7974031008
 30
0.0
 11
135.1751491848
 21
143.7054031008
 31
0.0
  0
LINE
  5
213
330
206
100
AcDbEntity
  8
0
  6
Continuous
 62
     7
370
     0
100
AcDbLine
 10
144.1751491848
 20
141.9274031008
 30
0.0
 11
150.9338665044
 21
141.9274031008
 31
0.0
  0
LINE
  5
214
330
206
100
AcDbEntity
  8
0
  6
Continuous
 62
     7
370
     0
100
AcDbLine
 10
135.1751491848
 20
141.9274031008
 30
0.0
 11
128.8251491848
 21
141.9274031008
 31
0.0
  0
MTEXT
  5
215
330
206
100
AcDbEntity
  8
0
  6
Continuous
 62
     7
370
     0
100
AcDbMText
 10
153.7992868525
 20
144.6559297002
 30
0.0
 40
2.1166666667
 41
0.0
 71
     1
 72
     1
  1
9.0mm
  7
SLDTEXTSTYLE0
 73
     1
 44
1.0
  0
MTEXT
  5
216
330
206
100
AcDbEntity
  8
0
  6
Continuous
 62
     7
370
     0
100
AcDbMText
 10
154.5203316306
 20
141.2933234517
 30
0.0
 40
2.1166666667
 41
0.0
 71
     1
 72
     1
  1
0.35in
  7
SLDTEXTSTYLE0
 73
     1
 44
1.0
  0
ENDBLK
  5
208
330
206
100
AcDbEntity
  8
0
100
AcDbBlockEnd
  0
BLOCK
  5
21A
330
219
100
AcDbEntity
  8
0
100
AcDbBlockBegin
  2
*D11
 70
     1
 10
0.0
 20
0.0
 30
0.0
  3
*D11
  1

  0
SOLID
  5
21C
330
219
100
AcDbEntity
  8
0
  6
Continuous
 62
     7
370
     0
100
AcDbTrace
 10
133.5810044954
 20
153.9274031008
 30
0.0
 11
130.4060044954
 21
154.4354031008
 31
0.0
 12
130.4060044954
 22
153.4194031008
 32
0.0
 13
130.4060044954
 23
153.4194031008
 33
0.0
  0
SOLID
  5
21D
330
219
100
AcDbEntity
  8
0
  6
Continuous
 62
     7
370
     0
100
AcDbTrace
 10
144.1751491848
 20
153.9274031008
 30
0.0
 11
147.3501491848
 21
153.4194031008
 31
0.0
 12
147.3501491848
 22
154.4354031008
 32
0.0
 13
147.3501491848
 23
154.4354031008
 33
0.0
  0
LINE
  5
21E
330
219
100
AcDbEntity
  8
0
  6
Continuous
 62
     7
370
     0
100
AcDbLine
 10
150.9754526893
 20
153.6752076321
 30
0.0
 11
150.9754526893
 21
150.8169923209
 31
0.0
  0
LINE
  5
21F
330
219
100
AcDbEntity
  8
0
  6
Continuous
 62
     7
370
     0
100
AcDbLine
 10
150.9754526893
 20
150.8169923209
 30
0.0
 11
151.4045207515
 21
150.8169923209
 31
0.0
  0
LINE
  5
220
330
219
100
AcDbEntity
  8
0
  6
Continuous
 62
     7
370
     0
100
AcDbLine
 10
150.9754526893
 20
153.6752076321
 30
0.0
 11
151.4045207515
 21
153.6752076321
 31
0.0
  0
LINE
  5
221
330
219
100
AcDbEntity
  8
0
  6
Continuous
 62
     7
370
     0
100
AcDbLine
 10
160.4486813364
 20
153.6752076321
 30
0.0
 11
160.4486813364
 21
150.8169923209
 31
0.0
  0
LINE
  5
222
330
219
100
AcDbEntity
  8
0
  6
Continuous
 62
     7
370
     0
100
AcDbLine
 10
160.4486813364
 20
150.8169923209
 30
0.0
 11
160.0196132742
 21
150.8169923209
 31
0.0
  0
LINE
  5
223
330
219
100
AcDbEntity
  8
0
  6
Continuous
 62
     7
370
     0
100
AcDbLine
 10
160.4486813364
 20
153.6752076321
 30
0.0
 11
160.0196132742
 21
153.6752076321
 31
0.0
  0
LINE
  5
224
330
219
100
AcDbEntity
  8
0
  6
Continuous
 62
     7
370
     0
100
AcDbLine
 10
133.5810044954
 20
132.9989224692
 30
0.0
 11
133.5810044954
 21
155.7054031008
 31
0.0
  0
LINE
  5
225
330
219
100
AcDbEntity
  8
0
  6
Continuous
 62
     7
370
     0
100
AcDbLine
 10
144.1751491848
 20
132.9974031008
 30
0.0
 11
144.1751491848
 21
155.7054031008
 31
0.0
  0
LINE
  5
226
330
219
100
AcDbEntity
  8
0
  6
Continuous
 62
     7
370
     0
100
AcDbLine
 10
133.5810044954
 20
153.9274031008
 30
0.0
 11
127.2310044954
 21
153.9274031008
 31
0.0
  0
LINE
  5
227
330
219
100
AcDbEntity
  8
0
  6
Continuous
 62
     7
370
     0
100
AcDbLine
 10
144.1751491848
 20
153.9274031008
 30
0.0
 11
148.2471236873
 21
153.9274031008
 31
0.0
  0
MTEXT
  5
228
330
219
100
AcDbEntity
  8
0
  6
Continuous
 62
     7
370
     0
100
AcDbMText
 10
150.3305353856
 20
156.6559297002
 30
0.0
 40
2.1166666667
 41
0.0
 71
     1
 72
     1
  1
10.6mm
  7
SLDTEXTSTYLE0
 73
     1
 44
1.0
  0
MTEXT
  5
229
330
219
100
AcDbEntity
  8
0
  6
Continuous
 62
     7
370
     0
100
AcDbMText
 10
162.1005674608
 20
156.6559297002
 30
0.0
 40
2.1166666667
 41
0.0
 71
     1
 72
     1
  1
REF
  7
SLDTEXTSTYLE0
 73
     1
 44
1.0
  0
MTEXT
  5
22A
330
219
100
AcDbEntity
  8
0
  6
Continuous
 62
     7
370
     0
100
AcDbMText
 10
151.8335888136
 20
153.2933234517
 30
0.0
 40
2.1166666667
 41
0.0
 71
     1
 72
     1
  1
0.42in
  7
SLDTEXTSTYLE0
 73
     1
 44
1.0
  0
ENDBLK
  5
21B
330
219
100
AcDbEntity
  8
0
100
AcDbBlockEnd
  0
ENDSEC
  0
SECTION
  2
ENTITIES
  0
LINE
  5
52
330
1F
100
AcDbEntity
  8
0
  6
Continuous
 62
     7
370
     0
100
AcDbLine
 10
1.5793501011
 20
214.6453799966
 30
0.0
 11
277.9892068491
 21
214.6453799966
 31
0.0
  0
LINE
  5
53
330
1F
100
AcDbEntity
  8
0
  6
Continuous
 62
     7
370
     0
100
AcDbLine
 10
1.5793501011
 20
214.6453799966
 30
0.0
 11
1.5793501011
 21
0.9031642596
 31
0.0
  0
LINE
  5
54
330
1F
100
AcDbEntity
  8
0
  6
Continuous
 62
     7
370
     0
100
AcDbLine
 10
277.9892068491
 20
0.9031642596
 30
0.0
 11
1.5793501011
 21
0.9031642596
 31
0.0
  0
LINE
  5
55
330
1F
100
AcDbEntity
  8
0
  6
Continuous
 62
     7
370
     0
100
AcDbLine
 10
277.9892068491
 20
0.9031642596
 30
0.0
 11
277.9892068491
 21
214.6453799966
 31
0.0
  0
LINE
  5
56
330
1F
100
AcDbEntity
  8
0
  6
Continuous
 62
     7
370
     0
100
AcDbLine
 10
215.7427640041
 20
12.2958890132
 30
0.0
 11
171.6327596684
 21
12.2958890132
 31
0.0
  0
LINE
  5
57
330
1F
100
AcDbEntity
  8
0
  6
Continuous
 62
     7
370
     0
100
AcDbLine
 10
171.6327596684
 20
12.2958890132
 30
0.0
 11
171.6327596684
 21
26.1661402506
 31
0.0
  0
LINE
  5
58
330
1F
100
AcDbEntity
  8
0
  6
Continuous
 62
     7
370
     0
100
AcDbLine
 10
171.6327596684
 20
0.9031642596
 30
0.0
 11
171.6327596684
 21
26.1661402506
 31
0.0
  0
LINE
  5
59
330
1F
100
AcDbEntity
  8
0
  6
Continuous
 62
     7
370
     0
100
AcDbLine
 10
215.7427640041
 20
17.1604579552
 30
0.0
 11
277.9892068491
 21
17.1604579552
 31
0.0
  0
LINE
  5
5A
330
1F
100
AcDbEntity
  8
0
  6
Continuous
 62
     7
370
     0
100
AcDbLine
 10
215.7427640041
 20
35.2394508358
 30
0.0
 11
215.7427640041
 21
0.9031642596
 31
0.0
  0
LINE
  5
5B
330
1F
100
AcDbEntity
  8
0
  6
Continuous
 62
     7
370
     0
100
AcDbLine
 10
215.7427640041
 20
26.1661402506
 30
0.0
 11
171.6327596684
 21
26.1661402506
 31
0.0
  0
LINE
  5
5C
330
1F
100
AcDbEntity
  8
0
  6
Continuous
 62
     7
370
     0
100
AcDbLine
 10
215.7427640041
 20
9.1409200612
 30
0.0
 11
277.9892068491
 21
9.1409200612
 31
0.0
  0
LINE
  5
5D
330
1F
100
AcDbEntity
  8
0
  6
Continuous
 62
     7
370
     0
100
AcDbLine
 10
215.7427640041
 20
16.9216824031
 30
0.0
 11
171.6327596684
 21
16.9216824031
 31
0.0
  0
LINE
  5
5E
330
1F
100
AcDbEntity
  8
0
  6
Continuous
 62
     7
370
     0
100
AcDbLine
 10
215.7427640041
 20
21.4874005542
 30
0.0
 11
171.6327596684
 21
21.4874005542
 31
0.0
  0
LINE
  5
5F
330
1F
100
AcDbEntity
  8
0
  6
Continuous
 62
     7
370
     0
100
AcDbLine
 10
186.1338100705
 20
26.1661402506
 30
0.0
 11
186.1338100705
 21
12.2958890132
 31
0.0
  0
LINE
  5
60
330
1F
100
AcDbEntity
  8
0
  6
Continuous
 62
     7
370
     0
100
AcDbLine
 10
198.2145906188
 20
26.1661402506
 30
0.0
 11
198.2145906188
 21
12.2958890132
 31
0.0
  0
LINE
  5
61
330
1F
100
AcDbEntity
  8
0
  6
Continuous
 62
     7
370
     0
100
AcDbLine
 10
253.7490408369
 20
9.1409200612
 30
0.0
 11
253.7490408369
 21
0.9031642596
 31
0.0
  0
LINE
  5
62
330
1F
100
AcDbEntity
  8
0
  6
Continuous
 62
     7
370
     0
100
AcDbLine
 10
171.6327596684
 20
12.2958890132
 30
0.0
 11
171.6327596684
 21
7.5627342528
 31
0.0
  0
LINE
  5
63
330
1F
100
AcDbEntity
  8
0
  6
Continuous
 62
     7
370
     0
100
AcDbLine
 10
171.6327596684
 20
7.5627342528
 30
0.0
 11
215.7427640041
 21
7.5627342528
 31
0.0
  0
LINE
  5
64
330
1F
100
AcDbEntity
  8
0
  6
Continuous
 62
     7
370
     0
100
AcDbLine
 10
171.6327596684
 20
7.5627342528
 30
0.0
 11
171.6327596684
 21
35.2394508358
 31
0.0
  0
LINE
  5
65
330
1F
100
AcDbEntity
  8
0
  6
Continuous
 62
     7
370
     0
100
AcDbLine
 10
171.6327596684
 20
35.2394508358
 30
0.0
 11
215.7427640041
 21
35.2394508358
 31
0.0
  0
LINE
  5
66
330
1F
100
AcDbEntity
  8
0
  6
Continuous
 62
     7
370
     0
100
AcDbLine
 10
270.1683598194
 20
17.1604579552
 30
0.0
 11
270.1683598194
 21
9.1409200612
 31
0.0
  0
LINE
  5
67
330
1F
100
AcDbEntity
  8
0
  6
Continuous
 62
     7
370
     0
100
AcDbLine
 10
215.7427640041
 20
35.2394508358
 30
0.0
 11
277.9892068491
 21
35.2394508358
 31
0.0
  0
LINE
  5
68
330
1F
100
AcDbEntity
  8
0
  6
Continuous
 62
     7
370
     0
100
AcDbLine
 10
277.9892068491
 20
35.2394508358
 30
0.0
 11
277.9892068491
 21
50.0331356147
 31
0.0
  0
LINE
  5
69
330
1F
100
AcDbEntity
  8
0
  6
Continuous
 62
     7
370
     0
100
AcDbLine
 10
215.7427640041
 20
24.8927335446
 30
0.0
 11
277.9892068491
 21
24.8927335446
 31
0.0
  0
INSERT
  5
6A
330
1F
100
AcDbEntity
  8
0
  6
Continuous
 62
     7
100
AcDbBlockReference
  2
Third Angle Projection Block
 10
117.7262204235
 20
15.5162339489
 30
0.0
 41
0.8
 42
0.8
 43
0.8
  0
MTEXT
  5
6C
330
1F
100
AcDbEntity
  8
0
  6
Continuous
 62
     7
370
     0
100
AcDbMText
 10
273.7514466724
 20
13.1125292762
 30
0.0
 40
3.175
 41
0.0
 71
     2
 72
     1
  1
A
  7
SLDTEXTSTYLE0
 73
     1
 44
1.0
  0
MTEXT
  5
6D
330
1F
100
AcDbEntity
  8
0
  6
Continuous
 62
     7
370
     0
100
AcDbMText
 10
234.5947305984
 20
5.1306563898
 30
0.0
 40
3.175
 41
0.0
 71
     2
 72
     1
  1
CM508-100-E03
  7
SLDTEXTSTYLE0
 73
     1
 44
1.0
  0
MTEXT
  5
6E
330
1F
100
AcDbEntity
  8
0
  6
Continuous
 62
     7
370
     0
100
AcDbMText
 10
216.4199766059
 20
16.8243178599
 30
0.0
 40
2.1166666667
 41
0.0
 71
     1
 72
     1
  1
MATERIAL
  7
SLDTEXTSTYLE0
 73
     1
 44
1.0
  0
MTEXT
  5
6F
330
1F
100
AcDbEntity
  8
0
  6
Continuous
 62
     7
370
     0
100
AcDbMText
 10
174.230946566
 20
20.054553926
 30
0.0
 40
1.8520833333
 41
0.0
 71
     1
 72
     1
  1
DRAWN
  7
SLDTEXTSTYLE0
 73
     1
 44
1.0
  0
MTEXT
  5
70
330
1F
100
AcDbEntity
  8
0
  6
Continuous
 62
     7
370
     0
100
AcDbMText
 10
172.3960124543
 20
15.5787169747
 30
0.0
 40
1.8520833333
 41
0.0
 71
     1
 72
     1
  1
APPROVAL
  7
SLDTEXTSTYLE0
 73
     1
 44
1.0
  0
MTEXT
  5
71
330
1F
100
AcDbEntity
  8
0
  6
Continuous
 62
     7
370
     0
100
AcDbMText
 10
271.321689486
 20
16.0237652193
 30
0.0
 40
2.1166666667
 41
0.0
 71
     1
 72
     1
  1
REV
  7
SLDTEXTSTYLE0
 73
     1
 44
1.0
  0
MTEXT
  5
72
330
1F
100
AcDbEntity
  8
0
  6
Continuous
 62
     7
370
     0
100
AcDbMText
 10
190.2958696448
 20
20.3177146903
 30
0.0
 40
2.1166666667
 41
0.0
 71
     1
 72
     1
  1
MG
  7
SLDTEXTSTYLE0
 73
     1
 44
1.0
  0
MTEXT
  5
73
330
1F
100
AcDbEntity
  8
0
  6
Continuous
 62
     7
370
     0
100
AcDbMText
 10
199.8662436873
 20
20.3177146903
 30
0.0
 40
2.1166666667
 41
0.0
 71
     1
 72
     1
  1
15/JUN/11
  7
SLDTEXTSTYLE0
 73
     1
 44
1.0
  0
MTEXT
  5
74
330
1F
100
AcDbEntity
  8
0
  6
Continuous
 62
     7
370
     0
100
AcDbMText
 10
203.6145073853
 20
24.8221395769
 30
0.0
 40
2.1166666667
 41
0.0
 71
     1
 72
     1
  1
DATE
  7
SLDTEXTSTYLE0
 73
     1
 44
1.0
  0
MTEXT
  5
76
330
1F
100
AcDbEntity
  8
0
  6
Continuous
 62
     7
370
     0
100
AcDbMText
 10
229.402906477
 20
27.7957480569
 30
0.0
 40
2.1166666667
 41
0.0
 71
     1
 72
     1
  1
w w w . t h o r  l a b s . c o m
  7
SLDTEXTSTYLE1
 73
     1
 44
1.0
  0
MTEXT
  5
77
330
1F
100
AcDbEntity
  8
0
  6
Continuous
 62
     7
370
     0
100
AcDbMText
 10
216.7004035316
 20
8.3494791871
 30
0.0
 40
2.1166666667
 41
0.0
 71
     1
 72
     1
  1
ITEM #
  7
SLDTEXTSTYLE0
 73
     1
 44
1.0
  0
MTEXT
  5
78
330
1F
100
AcDbEntity
  8
0
  6
Continuous
 62
     7
370
     0
100
AcDbMText
 10
254.5318000914
 20
8.3494791871
 30
0.0
 40
2.1166666667
 41
0.0
 71
     1
 72
     1
  1
APPROX WEIGHT
  7
SLDTEXTSTYLE0
 73
     1
 44
1.0
  0
MTEXT
  5
79
330
1F
100
AcDbEntity
  8
0
  6
Continuous
 62
     7
370
     0
100
AcDbMText
 10
243.7058359879
 20
13.1125292762
 30
0.0
 40
3.175
 41
0.0
 71
     2
 72
     1
  1
N-BK7
  7
SLDTEXTSTYLE0
 73
     1
 44
1.0
  0
MTEXT
  5
7A
330
1F
100
AcDbEntity
  8
0
  6
Continuous
 62
     7
370
     0
100
AcDbMText
 10
266.1678480997
 20
5.1306563898
 30
0.0
 40
3.175
 41
0.0
 71
     2
 72
     1
  1
0.05 kg
  7
SLDTEXTSTYLE0
 73
     1
 44
1.0
  0
INSERT
  5
80
330
1F
100
AcDbEntity
  8
0
  6
Continuous
 62
     7
370
     0
100
AcDbBlockReference
  2
SW_NOTE_0
 10
174.8430140051
 20
4.4558554801
 30
0.0
  0
INSERT
  5
86
330
1F
100
AcDbEntity
  8
0
  6
Continuous
 62
     7
370
     0
100
AcDbBlockReference
  2
SW_NOTE_1
 10
174.5483650337
 20
30.4835322715
 30
0.0
  0
MTEXT
  5
87
330
1F
100
AcDbEntity
  8
0
  6
Continuous
 62
     7
370
     0
100
AcDbMText
 10
187.9273588276
 20
24.8221395769
 30
0.0
 40
2.1166666667
 41
0.0
 71
     1
 72
     1
  1
NAME
  7
SLDTEXTSTYLE0
 73
     1
 44
1.0
  0
INSERT
  5
8D
330
1F
100
AcDbEntity
  8
0
  6
Continuous
 62
     7
370
     0
100
AcDbBlockReference
  2
SW_NOTE_2
 10
58.6204667508
 20
8.1776609732
 30
0.0
  0
MTEXT
  5
8E
330
1F
100
AcDbEntity
  8
0
  6
Continuous
 62
     7
370
     0
100
AcDbMText
 10
179.1174811218
 20
10.6680638482
 30
0.0
 40
1.5875
 41
0.0
 71
     1
 72
     1
  1
COPYRIGHT © 2010 BY THORLABS
  7
SLDTEXTSTYLE0
 73
     1
 44
1.0
  0
INSERT
  5
95
330
1F
100
AcDbEntity
  8
0
  6
Continuous
 62
     7
370
     0
100
AcDbBlockReference
  2
SW_NOTE_3
 10
216.0264972891
 20
20.5867261075
 30
0.0
  0
INSERT
  5
B5
330
1F
100
AcDbEntity
  8
0
  6
Continuous
 62
     7
370
     0
100
AcDbBlockReference
  2
SW_NOTE_4
 10
6.8445338208
 20
52.5785051551
 30
0.0
  0
MTEXT
  5
B6
330
1F
100
AcDbEntity
  8
0
  6
Continuous
 62
     7
370
     0
100
AcDbMText
 10
200.0493580251
 20
15.8763755536
 30
0.0
 40
2.1166666667
 41
0.0
 71
     1
 72
     1
  1
13/JUL/11
  7
SLDTEXTSTYLE0
 73
     1
 44
1.0
  0
MTEXT
  5
B7
330
1F
100
AcDbEntity
  8
0
  6
Continuous
 62
     7
370
     0
100
AcDbMText
 10
190.4789839826
 20
15.8763755536
 30
0.0
 40
2.1166666667
 41
0.0
 71
     1
 72
     1
  1
PM
  7
SLDTEXTSTYLE0
 73
     1
 44
1.0
  0
CIRCLE
  5
B8
330
1F
100
AcDbEntity
  8
0
  6
Continuous
 62
     7
370
     0
100
AcDbCircle
 10
58.1833917764
 20
106.5274031008
 30
0.0
 40
25.4
  0
CIRCLE
  5
B9
330
1F
100
AcDbEntity
  8
0
  6
Continuous
 62
     7
370
     0
100
AcDbCircle
 10
58.1833917764
 20
106.5274031008
 30
0.0
 40
25.20151936846451
  0
DIMENSION
  5
BA
330
1F
100
AcDbEntity
  8
0
  6
Continuous
 62
     7
370
     0
100
AcDbDimension
  2
*D7
 10
40.2290302804
 20
124.4940639834
 30
0.0
 11
97.6313235223
 21
79.3528563677
 31
0.0
 70
   163
  1
<>
 71
     1
 42
-1.0
  3
SLDDIMSTYLE0
100
AcDbDiametricDimension
 15
76.1377532724
 25
88.5607422181
 35
0.0
 40
0.0
  0
INSERT
  5
D2
330
1F
100
AcDbEntity
  8
0
  6
Continuous
 62
     7
370
     0
100
AcDbBlockReference
  2
SW_CENTERMARKSYMBOL_0
 10
58.1833917764
 20
106.5274031008
 30
0.0
  0
LINE
  5
D3
330
1F
100
AcDbEntity
  8
0
  6
PHANTOM
 62
     7
370
    30
100
AcDbLine
 10
58.1833917764
 20
139.1064318477
 30
0.0
 11
58.1833917764
 21
74.8915222669
 31
0.0
  0
LINE
  5
D4
330
1F
100
AcDbEntity
  8
0
  6
Continuous
 62
     7
370
    30
100
AcDbLine
 10
58.1833917764
 20
139.1064318477
 30
0.0
 11
49.2933917764
 21
139.1064318477
 31
0.0
  0
SOLID
  5
D5
330
1F
100
AcDbEntity
  8
0
  6
Continuous
 62
     7
370
    30
100
AcDbTrace
 10
49.2933917764
 20
139.1064318477
 30
0.0
 11
53.1033917764
 21
138.4714318477
 31
0.0
 12
53.1033917764
 22
139.7414318477
 32
0.0
 13
53.1033917764
 23
139.7414318477
 33
0.0
  0
LINE
  5
D6
330
1F
100
AcDbEntity
  8
0
  6
Continuous
 62
     7
370
    30
100
AcDbLine
 10
58.1833917764
 20
74.8915222669
 30
0.0
 11
49.2933917764
 21
74.8915222669
 31
0.0
  0
SOLID
  5
D7
330
1F
100
AcDbEntity
  8
0
  6
Continuous
 62
     7
370
    30
100
AcDbTrace
 10
49.2933917764
 20
74.8915222669
 30
0.0
 11
53.1033917764
 21
74.2565222669
 31
0.0
 12
53.1033917764
 22
75.5265222669
 32
0.0
 13
53.1033917764
 23
75.5265222669
 33
0.0
  0
MTEXT
  5
D8
330
1F
100
AcDbEntity
  8
0
  6
Continuous
 62
     7
100
AcDbMText
 10
47.5003731307
 20
140.2127559171
 30
0.0
 40
2.6458333333
 41
0.0
 71
     1
 72
     1
  1
A
  7
SLDTEXTSTYLE0
 73
     1
 44
1.0
  0
MTEXT
  5
D9
330
1F
100
AcDbEntity
  8
0
  6
Continuous
 62
     7
100
AcDbMText
 10
47.5003731307
 20
75.9978463364
 30
0.0
 40
2.6458333333
 41
0.0
 71
     1
 72
     1
  1
A
  7
SLDTEXTSTYLE0
 73
     1
 44
1.0
  0
LINE
  5
DA
330
1F
100
AcDbEntity
  8
0
  6
Continuous
 62
     7
370
     0
100
AcDbLine
 10
215.9756834612
 20
182.1092621175
 30
0.0
 11
215.9909805221
 21
181.9816551326
 31
0.0
  0
LINE
  5
DB
330
1F
100
AcDbEntity
  8
0
  6
Continuous
 62
     7
370
     0
100
AcDbLine
 10
230.9930222187
 20
155.9945409388
 30
0.0
 11
231.0958773481
 21
155.917480151
 31
0.0
  0
LINE
  5
DC
330
1F
100
AcDbEntity
  8
0
  6
Continuous
 62
     7
370
     0
100
AcDbLine
 10
228.2680861041
 20
201.0738722963
 30
0.0
 11
221.0418390428
 21
196.9022486633
 31
0.0
  0
LINE
  5
DD
330
1F
100
AcDbEntity
  8
0
  6
Continuous
 62
     7
370
     0
100
AcDbLine
 10
246.4397748518
 20
152.9069664543
 30
0.0
 11
253.6660219131
 21
157.0785900873
 31
0.0
  0
LINE
  5
DE
330
1F
100
AcDbEntity
  8
0
  6
Continuous
 62
     7
370
     0
100
AcDbLine
 10
258.9275662508
 20
168.7078481717
 30
0.0
 11
258.9275662508
 21
168.871129794
 31
0.0
  0
LINE
  5
DF
330
1F
100
AcDbEntity
  8
0
  6
Continuous
 62
     7
370
     0
100
AcDbLine
 10
241.1113714683
 20
199.7330283058
 30
0.0
 11
240.969973097
 21
199.8146823859
 31
0.0
  0
LWPOLYLINE
  5
E0
330
1F
100
AcDbEntity
  8
0
  6
Continuous
 62
     7
370
     0
100
AcDbPolyline
 90
       47
 70
   128
 43
0.0
 10
251.7013191894
 20
164.5362245387
 10
251.688455059
 20
163.758813446
 10
251.6498810956
 20
162.997368596
 10
251.585652556
 20
162.2529807511
 10
251.4958614469
 20
161.5267162397
 10
251.3806363933
 20
160.8196154288
 10
251.2401424539
 20
160.1326912335
 10
251.074580885
 20
159.466927666
 10
250.8841888519
 20
158.8232784262
 10
250.6692390893
 20
158.2026655355
 10
250.4300395108
 20
157.6059780159
 10
250.1669327673
 20
157.0340706165
 10
249.8802957569
 20
156.4877625891
 10
249.5705390842
 20
155.9678365147
 10
249.2381064727
 20
155.4750371824
 10
248.8834741289
 20
155.0100705225
 10
248.5071500603
 20
154.5736025953
 10
248.1096733474
 20
154.1662586369
 10
247.6916133717
 20
153.7886221635
 10
247.2535690003
 20
153.4412341358
 10
246.7961677273
 20
153.1245921838
 10
246.3200647758
 20
152.839149894
 10
245.8259421587
 20
152.5853161598
 10
245.3145077017
 20
152.3634545955
 10
244.78649403
 20
152.1738830157
 10
244.2426575178
 20
152.0168729798
 10
243.6837772059
 20
151.8926494032
 10
243.1106536849
 20
151.8013902351
 10
242.5241079487
 20
151.7432262032
 10
241.9249802184
 20
151.718240627
 10
241.3141287387
 20
151.7264692981
 10
240.6924285485
 20
151.767900429
 10
240.0607702273
 20
151.8424746699
 10
239.4200586196
 20
151.9500851941
 10
238.7712115386
 20
152.0905778505
 10
238.1151584515
 20
152.2637513846
 10
237.452839148
 20
152.4693577271
 10
236.7852023941
 20
152.707102349
 10
236.1132045731
 20
152.9766446831
 10
235.4378083153
 20
153.2775986129
 10
234.7599811194
 20
153.6095330247
 10
234.0806939663
 20
153.9719724256
 10
233.4009199283
 20
154.3643976248
 10
232.7216327752
 20
154.7862464767
 10
232.0438055793
 20
155.2369146872
 10
231.3684093215
 20
155.7157566782
 10
231.0958773481
 20
155.917480151
  0
LWPOLYLINE
  5
E1
330
1F
100
AcDbEntity
  8
0
  6
Continuous
 62
     7
370
     0
100
AcDbPolyline
 90
       89
 70
   128
 43
0.0
 10
215.9756834612
 20
182.1092621175
 10
215.8959613386
 20
182.856200939
 10
215.831732799
 20
183.6747454773
 10
215.7931588355
 20
184.4807268775
 10
215.7802947051
 20
185.272990579
 10
215.7931588355
 20
186.0504016716
 10
215.831732799
 20
186.8118465216
 10
215.8959613386
 20
187.5562343665
 10
215.9857524477
 20
188.2824988779
 10
216.1009775013
 20
188.9895996888
 10
216.2414714407
 20
189.6765238841
 10
216.4070330096
 20
190.3422874516
 10
216.5974250427
 20
190.9859366914
 10
216.8123748053
 20
191.6065495821
 10
217.0515743838
 20
192.2032371017
 10
217.3146811272
 20
192.7751445011
 10
217.6013181377
 20
193.3214525285
 10
217.9110748104
 20
193.8413786029
 10
218.2435074219
 20
194.3341779352
 10
218.5981397656
 20
194.7991445951
 10
218.9744638343
 20
195.2356125223
 10
219.3719405472
 20
195.6429564807
 10
219.7900005229
 20
196.0205929541
 10
220.2280448943
 20
196.3679809818
 10
220.6854461672
 20
196.6846229338
 10
221.1615491187
 20
196.9700652236
 10
221.6556717359
 20
197.2238989578
 10
222.1671061928
 20
197.4457605221
 10
222.6951198646
 20
197.635332102
 10
223.2389563767
 20
197.7923421378
 10
223.7978366886
 20
197.9165657144
 10
224.3709602097
 20
198.0078248825
 10
224.9575059459
 20
198.0659889144
 10
225.5566336762
 20
198.0909744906
 10
226.1674851559
 20
198.0827458195
 10
226.7891853461
 20
198.0413146887
 10
227.4208436672
 20
197.9667404477
 10
228.0615552749
 20
197.8591299235
 10
228.7104023559
 20
197.7186372671
 10
229.3664554431
 20
197.545463733
 10
230.0287747466
 20
197.3398573905
 10
230.6964115005
 20
197.1021127687
 10
231.3684093215
 20
196.8325704345
 10
232.0438055793
 20
196.5316165047
 10
232.7216327752
 20
196.1996820929
 10
233.4009199283
 20
195.837242692
 10
234.0806939663
 20
195.4448174928
 10
234.7599811194
 20
195.0229686409
 10
235.4378083153
 20
194.5723004304
 10
236.1132045731
 20
194.0934584394
 10
236.7852023941
 20
193.5871286043
 10
237.452839148
 20
193.0540362378
 10
238.1151584515
 20
192.4949449895
 10
238.7712115386
 20
191.9106557523
 10
239.4200586196
 20
191.3020055149
 10
240.0607702273
 20
190.6698661629
 10
240.6924285485
 20
190.0151432297
 10
241.3141287387
 20
189.3387745998
 10
241.9249802184
 20
188.6417291647
 10
242.5241079487
 20
187.9250054351
 10
243.1106536849
 20
187.189630111
 10
243.6837772059
 20
186.4366566105
 10
244.2426575178
 20
185.6671635607
 10
244.78649403
 20
184.8822532532
 10
245.3145077017
 20
184.0830500643
 10
245.8259421587
 20
183.270698845
 10
246.3200647758
 20
182.4463632804
 10
246.7961677273
 20
181.6112242235
 10
247.2535690003
 20
180.7664780027
 10
247.6916133717
 20
179.9133347091
 10
248.1096733474
 20
179.053016462
 10
248.5071500603
 20
178.1867556591
 10
248.8834741289
 20
177.3157932107
 10
249.2381064727
 20
176.4413767621
 10
249.5705390842
 20
175.5647589064
 10
249.8802957569
 20
174.6871953903
 10
250.1669327673
 20
173.8099433149
 10
250.4300395108
 20
172.9342593356
 10
250.6692390893
 20
172.0613978611
 10
250.8841888519
 20
171.1926092572
 10
251.074580885
 20
170.329138055
 10
251.2401424539
 20
169.4722211688
 10
251.3806363933
 20
168.6230861238
 10
251.4958614469
 20
167.7829492978
 10
251.585652556
 20
166.9530141786
 10
251.6498810956
 20
166.1344696403
 10
251.688455059
 20
165.3284882402
 10
251.7013191894
 20
164.5362245387
 10
251.7013191894
 20
164.5362245387
  0
LWPOLYLINE
  5
E2
330
1F
100
AcDbEntity
  8
0
  6
Continuous
 62
     7
370
     0
100
AcDbPolyline
 90
      166
 70
   128
 43
0.0
 10
251.4374490557
 20
164.5459367505
 10
251.4245302877
 20
165.3368162656
 10
251.3857927148
 20
166.1414647729
 10
251.3212925026
 20
166.9587156093
 10
251.2311231703
 20
167.7873838389
 10
251.1154154548
 20
168.6262679722
 10
250.9743371213
 20
169.4741517074
 10
250.8080927199
 20
170.329805694
 10
250.616923289
 20
171.1919893156
 10
250.4011060061
 20
172.0594524885
 10
250.1609537855
 20
172.9309374738
 10
249.896814825
 20
173.8051807017
 10
249.609072101
 20
174.6809146031
 10
249.2981428127
 20
175.5568694476
 10
248.964477778
 20
176.4317751843
 10
248.6085607793
 20
177.3043632836
 10
248.2309078621
 20
178.1733685762
 10
247.8320665871
 20
179.0375310875
 10
247.4126152361
 20
179.8955978645
 10
246.9731619734
 20
180.7463247923
 10
246.5143439641
 20
181.5884783982
 10
246.0368264506
 20
182.4208376401
 10
245.5413017876
 20
183.2421956765
 10
245.0284884385
 20
184.0513616169
 10
244.4991299337
 20
184.8471622481
 10
243.9539937922
 20
185.6284437351
 10
243.3938704095
 20
186.3940732945
 10
242.8195719109
 20
187.1429408367
 10
242.2319309742
 20
187.8739605752
 10
241.6317996228
 20
188.5860726014
 10
241.0200479896
 20
189.278244421
 10
240.3975630561
 20
189.9494724508
 10
239.7652473659
 20
190.5987834746
 10
239.1240177163
 20
191.2252360533
 10
238.474803829
 20
191.8279218906
 10
237.8185470021
 20
192.4059671496
 10
237.1561987451
 20
192.9585337201
 10
236.4887193999
 20
193.4848204332
 10
235.8170767475
 20
193.9840642236
 10
235.1422446057
 20
194.4555412356
 10
234.4652014166
 20
194.8985678724
 10
233.786928828
 20
195.3125017879
 10
233.1084102703
 20
195.6967428174
 10
232.4306295306
 20
196.0507338482
 10
231.7545693262
 20
196.3739616271
 10
231.0812098797
 20
196.6659575048
 10
230.411527498
 20
196.9262981151
 10
229.7464931564
 20
197.1546059891
 10
229.0870710913
 20
197.3505501021
 10
228.4342174015
 20
197.5138463539
 10
227.7888786625
 20
197.6442579806
 10
227.1519905538
 20
197.7415958978
 10
226.5244765022
 20
197.8057189748
 10
225.9072463431
 20
197.8365342392
 10
225.3011950013
 20
197.833997012
 10
224.7072011933
 20
197.7981109717
 10
224.1261261532
 20
197.7289281498
 10
223.5588123844
 20
197.6265488548
 10
223.0060824375
 20
197.4911215267
 10
222.4687377182
 20
197.3228425223
 10
221.9475573249
 20
197.1219558301
 10
221.4432969194
 20
196.8887527166
 10
220.9566876311
 20
196.6235713039
 10
220.4884349968
 20
196.3267960799
 10
220.0392179382
 20
195.9988573401
 10
219.6096877771
 20
195.6402305644
 10
219.200467291
 20
195.2514357273
 10
218.8121498107
 20
194.8330365443
 10
218.4452983593
 20
194.385639654
 10
218.1004448363
 20
193.9098937393
 10
217.7780892464
 20
193.4064885862
 10
217.4786989744
 20
192.876154084
 10
217.2027081076
 20
192.3196591672
 10
216.9505168063
 20
191.7378107
 10
216.7224907238
 20
191.1314523073
 10
216.5189604761
 20
190.5014631506
 10
216.3402211626
 20
189.848756654
 10
216.1865319383
 20
189.1742791796
 10
216.0581156378
 20
188.4790086551
 10
215.9551584525
 20
187.7639531565
 10
215.8778096604
 20
187.0301494458
 10
215.82618141
 20
186.2786614682
 10
215.8003485572
 20
185.5105788094
 10
215.8003485572
 20
184.727015116
 10
215.82618141
 20
183.9291064802
 10
215.8778096604
 20
183.1180097935
 10
215.9551584525
 20
182.2949010683
 10
216.0581156378
 20
181.4609737338
 10
216.1865319383
 20
180.6174369047
 10
216.3402211626
 20
179.765513629
 10
216.5189604761
 20
178.9064391137
 10
216.7224907238
 20
178.041458935
 10
216.9505168063
 20
177.1718272313
 10
217.2027081076
 20
176.2988048854
 10
217.4786989744
 20
175.4236576964
 10
217.7780892464
 20
174.547654544
 10
218.1004448363
 20
173.672065549
 10
218.4452983593
 20
172.7981602317
 10
218.8121498107
 20
171.9272056713
 10
219.200467291
 20
171.0604646687
 10
219.6096877771
 20
170.1991939154
 10
220.0392179382
 20
169.3446421717
 10
220.4884349968
 20
168.4980484559
 10
220.9566876311
 20
167.660640248
 10
221.4432969194
 20
166.8336317099
 10
221.9475573249
 20
166.0182219248
 10
222.4687377182
 20
165.2155931589
 10
223.0060824375
 20
164.4269091473
 10
223.5588123844
 20
163.6533134064
 10
224.1261261532
 20
162.8959275761
 10
224.7072011933
 20
162.1558497933
 10
225.3011950013
 20
161.4341531002
 10
225.9072463431
 20
160.7318838879
 10
226.5244765022
 20
160.0500603796
 10
227.1519905538
 20
159.3896711543
 10
227.7888786625
 20
158.7516737132
 10
228.4342174015
 20
158.1369930916
 10
229.0870710913
 20
157.5465205176
 10
229.7464931564
 20
156.98111212
 10
230.411527498
 20
156.441587687
 10
231.0812098797
 20
155.9287294774
 10
231.7545693262
 20
155.4432810865
 10
232.4306295306
 20
154.9859463682
 10
233.1084102703
 20
154.557388414
 10
233.786928828
 20
154.158228592
 10
234.4652014166
 20
153.7890456457
 10
235.1422446057
 20
153.4503748553
 10
235.8170767475
 20
153.1427072608
 10
236.4887193999
 20
152.866488951
 10
237.1561987451
 20
152.622120416
 10
237.8185470021
 20
152.4099559668
 10
238.474803829
 20
152.2303032215
 10
239.1240177163
 20
152.0834226595
 10
239.7652473659
 20
151.9695272435
 10
240.3975630561
 20
151.888782111
 10
241.0200479896
 20
151.8413043347
 10
241.6317996228
 20
151.8271627529
 10
242.2319309742
 20
151.8463778695
 10
242.8195719109
 20
151.8989218244
 10
243.3938704095
 20
151.9847184339
 10
243.9539937922
 20
152.1036433011
 10
244.4991299337
 20
152.2555239964
 10
245.0284884385
 20
152.4401403072
 10
245.5413017876
 20
152.6572245575
 10
246.0368264506
 20
152.906461996
 10
246.5143439641
 20
153.1874912522
 10
246.9731619734
 20
153.4999048605
 10
247.4126152361
 20
153.8432498511
 10
247.8320665871
 20
154.2170284065
 10
248.2309078621
 20
154.6206985836
 10
248.6085607793
 20
155.0536750991
 10
248.964477778
 20
155.5153301787
 10
249.2981428127
 20
156.0049944664
 10
249.609072101
 20
156.521957996
 10
249.896814825
 20
157.0654712197
 10
250.1609537855
 20
157.6347460954
 10
250.4011060061
 20
158.2289572287
 10
250.616923289
 20
158.8472430706
 10
250.8080927199
 20
159.4887071654
 10
250.9743371213
 20
160.1524194517
 10
251.1154154548
 20
160.8374176102
 10
251.2311231703
 20
161.5427084588
 10
251.3212925026
 20
162.2672693934
 10
251.3857927148
 20
163.0100498699
 10
251.4245302877
 20
163.7699729275
 10
251.4374490557
 20
164.5459367505
  0
LWPOLYLINE
  5
E3
330
1F
100
AcDbEntity
  8
0
  6
Continuous
 62
     7
370
     0
100
AcDbPolyline
 90
       85
 70
   128
 43
0.0
 10
253.6660219131
 20
157.0785900873
 10
254.0224147887
 20
157.2962158168
 10
254.4798160616
 20
157.6128577688
 10
254.917860433
 20
157.9602457965
 10
255.3359204087
 20
158.3378822699
 10
255.7333971216
 20
158.7452262283
 10
256.1097211903
 20
159.1816941555
 10
256.464353534
 20
159.6466608154
 10
256.7967861455
 20
160.1394601477
 10
257.1065428182
 20
160.6593862221
 10
257.3931798287
 20
161.2056942495
 10
257.6562865721
 20
161.7776016489
 10
257.8954861506
 20
162.3742891685
 10
258.1104359132
 20
162.9949020592
 10
258.3008279463
 20
163.638551299
 10
258.4663895152
 20
164.3043148665
 10
258.6068834546
 20
164.9912390618
 10
258.7221085082
 20
165.6983398727
 10
258.8118996173
 20
166.4246043841
 10
258.8761281569
 20
167.168992229
 10
258.9147021204
 20
167.930437079
 10
258.9275662508
 20
168.7078481717
 10
258.9147021204
 20
169.5001118732
 10
258.8761281569
 20
170.3060932733
 10
258.8118996173
 20
171.1246378116
 10
258.7221085082
 20
171.9545729308
 10
258.6068834546
 20
172.7947097568
 10
258.4663895152
 20
173.6438448018
 10
258.3008279463
 20
174.500761688
 10
258.1104359132
 20
175.3642328902
 10
257.8954861506
 20
176.2330214941
 10
257.6562865721
 20
177.1058829686
 10
257.3931798287
 20
177.9815669479
 10
257.1065428182
 20
178.8588190233
 10
256.7967861455
 20
179.7363825394
 10
256.464353534
 20
180.6130003951
 10
256.1097211903
 20
181.4874168437
 10
255.7333971216
 20
182.3583792921
 10
255.3359204087
 20
183.224640095
 10
254.917860433
 20
184.0849583421
 10
254.4798160616
 20
184.9381016357
 10
254.0224147887
 20
185.7828478565
 10
253.5463118372
 20
186.6179869134
 10
253.05218922
 20
187.442322478
 10
252.5407547631
 20
188.2546736973
 10
252.0127410913
 20
189.0538768862
 10
251.4689045792
 20
189.8387871937
 10
250.9100242673
 20
190.6082802435
 10
250.3369007462
 20
191.361253744
 10
249.75035501
 20
192.0966290681
 10
249.1512272797
 20
192.8133527977
 10
248.5403758
 20
193.5103982328
 10
247.9186756098
 20
194.1867668627
 10
247.2870172887
 20
194.8414897959
 10
246.646305681
 20
195.4736291479
 10
245.9974586
 20
196.0822793853
 10
245.3414055128
 20
196.6665686225
 10
244.6790862093
 20
197.2256598708
 10
244.0114494554
 20
197.7587522373
 10
243.3394516344
 20
198.2650820724
 10
242.6640553766
 20
198.7439240634
 10
241.9862281807
 20
199.1945922739
 10
241.3069410276
 20
199.6164411258
 10
240.6271669896
 20
200.008866325
 10
239.9478798365
 20
200.3713057259
 10
239.2700526406
 20
200.7032401377
 10
238.5946563829
 20
201.0041940675
 10
237.9226585618
 20
201.2737364017
 10
237.2550218079
 20
201.5114810235
 10
236.5927025044
 20
201.717087366
 10
235.9366494173
 20
201.8902609001
 10
235.2878023363
 20
202.0307535565
 10
234.6470907286
 20
202.1383640807
 10
234.0154324074
 20
202.2129383217
 10
233.3937322172
 20
202.2543694525
 10
232.7828807375
 20
202.2625981236
 10
232.1837530072
 20
202.2376125474
 10
231.597207271
 20
202.1794485155
 10
231.02408375
 20
202.0881893474
 10
230.4652034381
 20
201.9639657708
 10
229.9213669259
 20
201.806955735
 10
229.3933532542
 20
201.6173841551
 10
228.8819187972
 20
201.3955225908
 10
228.3877961801
 20
201.1416888566
 10
228.2680861041
 20
201.0738722963
  0
ARC
  5
E4
330
1F
100
AcDbEntity
  8
0
  6
Continuous
 62
     7
370
     0
100
AcDbCircle
 10
220.3262428224
 20
167.1605445265
 30
0.0
 40
38.63920641500562
100
AcDbArc
 50
2.5373543706
 51
57.4572690967
  0
SPLINE
  5
E5
330
1F
100
AcDbEntity
  8
0
  6
Continuous
 62
     7
370
     0
100
AcDbSpline
210
0.0
220
0.0
230
1.0
 70
     8
 71
     3
 72
    23
 73
    19
 74
     0
 42
0.00000001
 43
0.00000001
 40
0.0
 40
0.0
 40
0.0
 40
0.0
 40
0.0658282446781908
 40
0.1289383166014421
 40
0.1908583237191151
 40
0.2511862310452458
 40
0.3109740177800717
 40
0.3700498785126962
 40
0.42967230953493
 40
0.4895072568266747
 40
0.5499752717322416
 40
0.6100748076115783
 40
0.6709148653422593
 40
0.7329088543890384
 40
0.7967107088217865
 40
0.8618253836021725
 40
0.9298919770519397
 40
0.9999999999999999
 40
0.9999999999999999
 40
0.9999999999999999
 40
0.9999999999999999
 10
233.2993651140011
 20
105.1912696818362
 30
0.0
 10
233.3141197839329
 20
105.1875444195828
 30
0.0
 10
233.3430198755626
 20
105.1802477182019
 30
0.0
 10
233.3845269615619
 20
105.165129158455
 30
0.0
 10
233.4235482818113
 20
105.1474291292512
 30
0.0
 10
233.4606031857816
 20
105.1273817623367
 30
0.0
 10
233.4946158994686
 20
105.103672501992
 30
0.0
 10
233.5267588113663
 20
105.0777491134147
 30
0.0
 10
233.5558168443289
 20
105.0483631084025
 30
0.0
 10
233.5826318624357
 20
105.0165618560347
 30
0.0
 10
233.607030236368
 20
104.9826781619426
 30
0.0
 10
233.6275617072531
 20
104.9460529124818
 30
0.0
 10
233.6452797699657
 20
104.9076489199573
 30
0.0
 10
233.6603880494346
 20
104.8671876425711
 30
0.0
 10
233.6712448249982
 20
104.8243570928686
 30
0.0
 10
233.6790077623615
 20
104.7794890796934
 30
0.0
 10
233.6841306679678
 20
104.7327394890521
 30
0.0
 10
233.6847236399249
 20
104.7008057402679
 30
0.0
 10
233.6850245062683
 20
104.6846029669152
 30
0.0
  0
SPLINE
  5
E6
330
1F
100
AcDbEntity
  8
0
  6
Continuous
 62
     7
370
     0
100
AcDbSpline
210
0.0
220
0.0
230
1.0
 70
     8
 71
     3
 72
    15
 73
    11
 74
     0
 42
0.00000001
 43
0.00000001
 40
0.0
 40
0.0
 40
0.0
 40
0.0
 40
0.121951202249343
 40
0.2407868053279228
 40
0.3585498723707455
 40
0.4790658414002754
 40
0.6015185447735328
 40
0.7275505189308986
 40
0.8599320866628425
 40
1.0
 40
1.0
 40
1.0
 40
1.0
 10
233.5796575858623
 20
105.5987433193437
 30
0.0
 10
233.5787719412862
 20
105.5774128095095
 30
0.0
 10
233.577023278508
 20
105.535296739932
 30
0.0
 10
233.5635606407267
 20
105.4737155854693
 30
0.0
 10
233.5408114611912
 20
105.4153743663702
 30
0.0
 10
233.5100631122302
 20
105.3600683892199
 30
0.0
 10
233.4701900479587
 20
105.3089936912807
 30
0.0
 10
233.4213017875449
 20
105.2634814799656
 30
0.0
 10
233.3641804150906
 20
105.223096271954
 30
0.0
 10
233.321372777433
 20
105.2020762178196
 30
0.0
 10
233.2993651140011
 20
105.1912696818362
 30
0.0
  0
SPLINE
  5
E7
330
1F
100
AcDbEntity
  8
0
  6
Continuous
 62
     7
370
     0
100
AcDbSpline
210
0.0
220
0.0
230
1.0
 70
     8
 71
     3
 72
    19
 73
    15
 74
     0
 42
0.00000001
 43
0.00000001
 40
0.0
 40
0.0
 40
0.0
 40
0.0
 40
0.0920539892768598
 40
0.181007904784901
 40
0.2691300759875103
 40
0.3571374727068746
 40
0.44354901358482
 40
0.5264334456319731
 40
0.6074529357589966
 40
0.6883846385144212
 40
0.7678538499318547
 40
0.8455305897600626
 40
0.9225294439554589
 40
0.9999999999999999
 40
0.9999999999999999
 40
0.9999999999999999
 40
0.9999999999999999
 10
232.9952004492354
 20
106.1210504365124
 30
0.0
 10
233.0220090149446
 20
106.120181100659
 30
0.0
 10
233.0747233225748
 20
106.1184717053073
 30
0.0
 10
233.1521483560135
 20
106.1048954815366
 30
0.0
 10
233.2262049928442
 20
106.082616627063
 30
0.0
 10
233.2962973048251
 20
106.0517341621456
 30
0.0
 10
233.3612193896463
 20
106.0139966046492
 30
0.0
 10
233.4186700836486
 20
105.9687704402442
 30
0.0
 10
233.4678813486211
 20
105.9168380719885
 30
0.0
 10
233.5078973649354
 20
105.8587672705569
 30
0.0
 10
233.539584436332
 20
105.7969392207736
 30
0.0
 10
233.5630319166244
 20
105.7327590233151
 30
0.0
 10
233.5770421380167
 20
105.6663005601203
 30
0.0
 10
233.5787839968808
 20
105.6213081971939
 30
0.0
 10
233.5796575858623
 20
105.5987433193437
 30
0.0
  0
SPLINE
  5
E8
330
1F
100
AcDbEntity
  8
0
  6
Continuous
 62
     7
370
     0
100
AcDbSpline
210
0.0
220
0.0
230
1.0
 70
     8
 71
     3
 72
    23
 73
    19
 74
     0
 42
0.00000001
 43
0.00000001
 40
0.0
 40
0.0
 40
0.0
 40
0.0
 40
0.071036323012058
 40
0.139343339603417
 40
0.2049584727025958
 40
0.2683315830770486
 40
0.3301292609669972
 40
0.3906639764805662
 40
0.4508614486151503
 40
0.5105872658343568
 40
0.5703738539616984
 40
0.6294550091547371
 40
0.6879935230805727
 40
0.747580994103786
 40
0.8078387614769678
 40
0.870034038822401
 40
0.9338104563665486
 40
1.0
 40
1.0
 40
1.0
 40
1.0
 10
232.394279731295
 20
105.5942158344825
 30
0.0
 10
232.3984003641767
 20
105.6145835468019
 30
0.0
 10
232.4064833099526
 20
105.6545364178731
 30
0.0
 10
232.4229509027068
 20
105.7122392507229
 30
0.0
 10
232.4430329285274
 20
105.7664057786561
 30
0.0
 10
232.4671447752594
 20
105.8167876598765
 30
0.0
 10
232.494147322083
 20
105.863987845341
 30
0.0
 10
232.5252967189484
 20
105.9074464681998
 30
0.0
 10
232.5598626680734
 20
105.9474218961258
 30
0.0
 10
232.5979065669761
 20
105.983792197597
 30
0.0
 10
232.6389119477977
 20
106.0162749449453
 30
0.0
 10
232.6826722776043
 20
106.0442955765561
 30
0.0
 10
232.7288284316131
 20
106.0680470997865
 30
0.0
 10
232.7774236236819
 20
106.0871950298666
 30
0.0
 10
232.828419378338
 20
106.1027651982727
 30
0.0
 10
232.8819607759183
 20
106.1130804734344
 30
0.0
 10
232.9378054691913
 20
106.120058237197
 30
0.0
 10
232.9758334294843
 20
106.1207156346931
 30
0.0
 10
232.9952004492354
 20
106.1210504365124
 30
0.0
  0
LINE
  5
E9
330
1F
100
AcDbEntity
  8
0
  6
Continuous
 62
     7
370
     0
100
AcDbLine
 10
232.6576970323
 20
105.5678741044
 30
0.0
 11
232.3942797313
 21
105.5942158345
 31
0.0
  0
SPLINE
  5
EA
330
1F
100
AcDbEntity
  8
0
  6
Continuous
 62
     7
370
     0
100
AcDbSpline
210
0.0
220
0.0
230
1.0
 70
     8
 71
     3
 72
    19
 73
    15
 74
     0
 42
0.00000001
 43
0.00000001
 40
0.0
 40
0.0
 40
0.0
 40
0.0
 40
0.1277971582348374
 40
0.246795252716655
 40
0.3622843155839156
 40
0.4776524647273048
 40
0.5362368417287119
 40
0.5955904355162847
 40
0.6563437591396387
 40
0.7190851405078744
 40
0.7843491651281217
 40
0.8528755346365584
 40
0.9245512555167001
 40
1.0
 40
1.0
 40
1.0
 40
1.0
 10
233.003432239892
 20
105.8839748655989
 30
0.0
 10
232.9813868590194
 20
105.8831152798459
 30
0.0
 10
232.9388139613206
 20
105.8814552923619
 30
0.0
 10
232.8778616722541
 20
105.8660969648045
 30
0.0
 10
232.8226278933356
 20
105.8412451923518
 30
0.0
 10
232.7817354663491
 20
105.8121010012046
 30
0.0
 10
232.7526982474363
 20
105.7842375058904
 30
0.0
 10
232.732864288831
 20
105.760619980476
 30
0.0
 10
232.7151239368528
 20
105.7345393448167
 30
0.0
 10
232.6994269120725
 20
105.7060048952782
 30
0.0
 10
232.6859852855712
 20
105.6749018767304
 30
0.0
 10
232.6738680326148
 20
105.6416156092773
 30
0.0
 10
232.6644881545756
 20
105.6056131795438
 30
0.0
 10
232.6599991137192
 20
105.5806670449193
 30
0.0
 10
232.6576970323099
 20
105.567874104381
 30
0.0
  0
SPLINE
  5
EB
330
1F
100
AcDbEntity
  8
0
  6
Continuous
 62
     7
370
     0
100
AcDbSpline
210
0.0
220
0.0
230
1.0
 70
     8
 71
     3
 72
    23
 73
    19
 74
     0
 42
0.00000001
 43
0.00000001
 40
0.0
 40
0.0
 40
0.0
 40
0.0
 40
0.0650933507070886
 40
0.1273042315324059
 40
0.1881220215801464
 40
0.2471305161007633
 40
0.3060769160082417
 40
0.3656782273658526
 40
0.426103348162582
 40
0.4878414950797362
 40
0.5503167167998647
 40
0.611805223513785
 40
0.6727373158544525
 40
0.7348834089993249
 40
0.797680202933678
 40
0.8624746871088678
 40
0.929775403385968
 40
1.0
 40
1.0
 40
1.0
 40
1.0
 10
233.3162402848473
 20
105.5900999391541
 30
0.0
 10
233.3160456326188
 20
105.6005408796445
 30
0.0
 10
233.3156649477699
 20
105.6209604139159
 30
0.0
 10
233.3114239473379
 20
105.6508976071019
 30
0.0
 10
233.3044098534246
 20
105.6792640195925
 30
0.0
 10
233.294929607847
 20
105.706362526707
 30
0.0
 10
233.2825048044403
 20
105.732051109206
 30
0.0
 10
233.2670970730661
 20
105.7562983192741
 30
0.0
 10
233.2494932169314
 20
105.7795960309418
 30
0.0
 10
233.2287124878472
 20
105.8007403708862
 30
0.0
 10
233.2064581299697
 20
105.820591766014
 30
0.0
 10
233.1819186179263
 20
105.8373107119442
 30
0.0
 10
233.1562618498875
 20
105.8521630376519
 30
0.0
 10
233.1285829689023
 20
105.8633862469799
 30
0.0
 10
233.0995653022992
 20
105.8726135548834
 30
0.0
 10
233.0689608028035
 20
105.8790796785618
 30
0.0
 10
233.0367583001766
 20
105.8834221141628
 30
0.0
 10
233.0146972707448
 20
105.8837880219718
 30
0.0
 10
233.003432239892
 20
105.8839748655989
 30
0.0
  0
SPLINE
  5
EC
330
1F
100
AcDbEntity
  8
0
  6
Continuous
 62
     7
370
     0
100
AcDbSpline
210
0.0
220
0.0
230
1.0
 70
     8
 71
     3
 72
    19
 73
    15
 74
     0
 42
0.00000001
 43
0.00000001
 40
0.0
 40
0.0
 40
0.0
 40
0.0
 40
0.1297890756576308
 40
0.2546053700922405
 40
0.3784354924817365
 40
0.502919582675045
 40
0.5650179669759711
 40
0.6248477746307949
 40
0.6834480871906743
 40
0.7427645197557697
 40
0.8027569578129469
 40
0.8652203742489508
 40
0.9307788121001257
 40
1.0
 40
1.0
 40
1.0
 40
1.0
 10
232.930992482113
 20
105.2752339465347
 30
0.0
 10
232.9552181506048
 20
105.2761588732199
 30
0.0
 10
233.0027412973785
 20
105.2779732886458
 30
0.0
 10
233.0720208327827
 20
105.2930495612378
 30
0.0
 10
233.1376775133369
 20
105.3167866656704
 30
0.0
 10
233.1884015402933
 20
105.3451084751931
 30
0.0
 10
233.2260167647998
 20
105.371746675305
 30
0.0
 10
233.2497361690979
 20
105.395764791355
 30
0.0
 10
233.2711204356336
 20
105.4212528644985
 30
0.0
 10
233.2870748462632
 20
105.4504886075212
 30
0.0
 10
233.3008584727297
 20
105.4815522904483
 30
0.0
 10
233.3093939523596
 20
105.5156675946176
 30
0.0
 10
233.3156187220605
 20
105.5520052652524
 30
0.0
 10
233.3160293772843
 20
105.5771737231604
 30
0.0
 10
233.3162402848473
 20
105.5900999391541
 30
0.0
  0
SPLINE
  5
ED
330
1F
100
AcDbEntity
  8
0
  6
Continuous
 62
     7
370
     0
100
AcDbSpline
210
0.0
220
0.0
230
1.0
 70
     8
 71
     3
 72
     9
 73
     5
 74
     0
 42
0.00000001
 43
0.00000001
 40
0.0
 40
0.0
 40
0.0
 40
0.0
 40
0.5660412240200516
 40
0.9999999999999999
 40
0.9999999999999999
 40
0.9999999999999999
 40
0.9999999999999999
 10
232.8931262450921
 20
105.2781150732645
 30
0.0
 10
232.9002536819465
 20
105.2773362391384
 30
0.0
 10
232.9128454094602
 20
105.2759603073279
 30
0.0
 10
232.9255006356471
 20
105.2754537650162
 30
0.0
 10
232.930992482113
 20
105.2752339465347
 30
0.0
  0
LINE
  5
EE
330
1F
100
AcDbEntity
  8
0
  6
Continuous
 62
     7
370
     0
100
AcDbLine
 10
232.8659613359
 20
105.0410395024
 30
0.0
 11
232.8931262451
 21
105.2781150733
 31
0.0
  0
SPLINE
  5
EF
330
1F
100
AcDbEntity
  8
0
  6
Continuous
 62
     7
370
     0
100
AcDbSpline
210
0.0
220
0.0
230
1.0
 70
     8
 71
     3
 72
    11
 73
     7
 74
     0
 42
0.00000001
 43
0.00000001
 40
0.0
 40
0.0
 40
0.0
 40
0.0
 40
0.209402552629139
 40
0.4444010364151541
 40
0.7082720668673809
 40
1.0
 40
1.0
 40
1.0
 40
1.0
 10
233.0363594025189
 20
105.0690275905839
 30
0.0
 10
233.02426771868
 20
105.068707243793
 30
0.0
 10
232.9986063465402
 20
105.0680273932176
 30
0.0
 10
232.95810411386
 20
105.0620245702536
 30
0.0
 10
232.9132410308352
 20
105.0536192101784
 30
0.0
 10
232.8822393600603
 20
105.0453705960271
 30
0.0
 10
232.8659613359249
 20
105.0410395023511
 30
0.0
  0
SPLINE
  5
F0
330
1F
100
AcDbEntity
  8
0
  6
Continuous
 62
     7
370
     0
100
AcDbSpline
210
0.0
220
0.0
230
1.0
 70
     8
 71
     3
 72
    23
 73
    19
 74
     0
 42
0.00000001
 43
0.00000001
 40
0.0
 40
0.0
 40
0.0
 40
0.0
 40
0.0670509921880465
 40
0.1311799203918651
 40
0.1937216912651209
 40
0.2544994837594224
 40
0.314762713969885
 40
0.3751170680683986
 40
0.4360228218750032
 40
0.4982967466743274
 40
0.5605706714736507
 40
0.621619123462455
 40
0.6819734775609687
 40
0.7428529083782511
 40
0.8042715696802855
 40
0.8674725557694044
 40
0.9322728234051278
 40
1.0
 40
1.0
 40
1.0
 40
1.0
 10
233.4216072052533
 20
104.6866609145794
 30
0.0
 10
233.421298566169
 20
104.7002574525222
 30
0.0
 10
233.4206947384078
 20
104.7268579949859
 30
0.0
 10
233.4157307860542
 20
104.7659018840724
 30
0.0
 10
233.4070687986624
 20
104.8029650659407
 30
0.0
 10
233.3950612136791
 20
104.8382620385905
 30
0.0
 10
233.3797179844567
 20
104.8717409836318
 30
0.0
 10
233.3612758749306
 20
104.903678739851
 30
0.0
 10
233.3387196631183
 20
104.9333753909201
 30
0.0
 10
233.3133306576018
 20
104.9611499043289
 30
0.0
 10
233.2856386597116
 20
104.986738200164
 30
0.0
 10
233.2553340215011
 20
105.0085043392804
 30
0.0
 10
233.2234421526072
 20
105.027289226563
 30
0.0
 10
233.1895829750655
 20
105.0424572884476
 30
0.0
 10
233.1538970736232
 20
105.0544962659405
 30
0.0
 10
233.1164184678176
 20
105.0631489153674
 30
0.0
 10
233.0769669683864
 20
105.068115021928
 30
0.0
 10
233.0500930970188
 20
105.0687189550165
 30
0.0
 10
233.0363594025189
 20
105.0690275905839
 30
0.0
  0
SPLINE
  5
F1
330
1F
100
AcDbEntity
  8
0
  6
Continuous
 62
     7
370
     0
100
AcDbSpline
210
0.0
220
0.0
230
1.0
 70
     8
 71
     3
 72
    23
 73
    19
 74
     0
 42
0.00000001
 43
0.00000001
 40
0.0
 40
0.0
 40
0.0
 40
0.0
 40
0.0694611184111805
 40
0.1356576792112482
 40
0.1996202009683168
 40
0.2616514289943396
 40
0.3220529346075967
 40
0.3823401897046096
 40
0.4432232029819952
 40
0.5049299582480397
 40
0.5668204626337178
 40
0.6276001402177062
 40
0.6874756430229481
 40
0.7473511458281904
 40
0.8081741791096781
 40
0.870133448924472
 40
0.9337207833931579
 40
1.0
 40
1.0
 40
1.0
 40
1.0
 10
233.0166031049428
 20
104.2771293294077
 30
0.0
 10
233.0315824298979
 20
104.277342898229
 30
0.0
 10
233.060837076325
 20
104.2777599984903
 30
0.0
 10
233.103465921572
 20
104.2840180979123
 30
0.0
 10
233.1440347857641
 20
104.2926110644946
 30
0.0
 10
233.1819648576454
 20
104.306085327328
 30
0.0
 10
233.217784293106
 20
104.3225533679804
 30
0.0
 10
233.251289027205
 20
104.342904372468
 30
0.0
 10
233.2827083975442
 20
104.3668015446625
 30
0.0
 10
233.311422680082
 20
104.394407435215
 30
0.0
 10
233.3371017915237
 20
104.4247747944949
 30
0.0
 10
233.3599726481706
 20
104.4568504762342
 30
0.0
 10
233.3788837739438
 20
104.4909081726903
 30
0.0
 10
233.394823005201
 20
104.5264681712377
 30
0.0
 10
233.4065882424338
 20
104.5641051042519
 30
0.0
 10
233.4152013457219
 20
104.6033496583633
 30
0.0
 10
233.4208300533039
 20
104.6443793138735
 30
0.0
 10
233.4213445994219
 20
104.672373625056
 30
0.0
 10
233.4216072052533
 20
104.6866609145794
 30
0.0
  0
SPLINE
  5
F2
330
1F
100
AcDbEntity
  8
0
  6
Continuous
 62
     7
370
     0
100
AcDbSpline
210
0.0
220
0.0
230
1.0
 70
     8
 71
     3
 72
    23
 73
    19
 74
     0
 42
0.00000001
 43
0.00000001
 40
0.0
 40
0.0
 40
0.0
 40
0.0
 40
0.0825664818430907
 40
0.1597600173463227
 40
0.2331545001529426
 40
0.3013562791316534
 40
0.3657520143271568
 40
0.4264371723179331
 40
0.4841852540351054
 40
0.5395491542935734
 40
0.5931555898196882
 40
0.6470483404201371
 40
0.7014463748055865
 40
0.756999674377037
 40
0.813839623659105
 40
0.8730579525107801
 40
0.9349625940127594
 40
0.9999999999999999
 40
0.9999999999999999
 40
0.9999999999999999
 40
0.9999999999999999
 10
232.6313553022084
 20
104.6459135508286
 30
0.0
 10
232.6348669703028
 20
104.6300858793164
 30
0.0
 10
232.6416617875598
 20
104.5994605090826
 30
0.0
 10
232.6547358459838
 20
104.5555864842418
 30
0.0
 10
232.6685449226565
 20
104.5148615789253
 30
0.0
 10
232.6856639544502
 20
104.4781967106564
 30
0.0
 10
232.7023684086549
 20
104.4440924386352
 30
0.0
 10
232.7219986719843
 20
104.413957919306
 30
0.0
 10
232.7429739893347
 20
104.3870069025502
 30
0.0
 10
232.7656821242199
 20
104.3633394639674
 30
0.0
 10
232.7903847469321
 20
104.3429589090227
 30
0.0
 10
232.8167525165684
 20
104.325124824433
 30
0.0
 10
232.8453430878242
 20
104.3102309622749
 30
0.0
 10
232.8759375639197
 20
104.2984386534756
 30
0.0
 10
232.9082782656298
 20
104.2888926791129
 30
0.0
 10
232.9425409488929
 20
104.2818832433158
 30
0.0
 10
232.978906789148
 20
104.2777076350688
 30
0.0
 10
233.0038326206531
 20
104.2773252436026
 30
0.0
 10
233.0166031049428
 20
104.2771293294077
 30
0.0
  0
LINE
  5
F3
330
1F
100
AcDbEntity
  8
0
  6
Continuous
 62
     7
370
     0
100
AcDbLine
 10
232.3679380012
 20
104.6195718207
 30
0.0
 11
232.6313553022
 21
104.6459135508
 31
0.0
  0
SPLINE
  5
F4
330
1F
100
AcDbEntity
  8
0
  6
Continuous
 62
     7
370
     0
100
AcDbSpline
210
0.0
220
0.0
230
1.0
 70
     8
 71
     3
 72
    23
 73
    19
 74
     0
 42
0.00000001
 43
0.00000001
 40
0.0
 40
0.0
 40
0.0
 40
0.0
 40
0.067794399401336
 40
0.1334641369291907
 40
0.1969337335573705
 40
0.258480621611127
 40
0.3197865376803734
 40
0.3804313677830994
 40
0.4409901724489917
 40
0.5028674288973124
 40
0.5648063393097802
 40
0.6255263416925381
 40
0.6856036068581814
 40
0.7460408460006117
 40
0.8073467620698586
 40
0.8697170363588133
 40
0.9337895409055552
 40
0.9999999999999999
 40
0.9999999999999999
 40
0.9999999999999999
 40
0.9999999999999999
 10
233.0071365456876
 20
104.0400537584942
 30
0.0
 10
232.9855675822604
 20
104.0404600301444
 30
0.0
 10
232.9431056220738
 20
104.0412598409786
 30
0.0
 10
232.8809500801599
 20
104.0495925073586
 30
0.0
 10
232.8214018398279
 20
104.0614175176327
 30
0.0
 10
232.7649317750436
 20
104.0796471929234
 30
0.0
 10
232.7108839366781
 20
104.1018779866116
 30
0.0
 10
232.6601736981959
 20
104.1303189335054
 30
0.0
 10
232.6118892516085
 20
104.1629680384423
 30
0.0
 10
232.5669370758202
 20
104.2007580956011
 30
0.0
 10
232.5255668154581
 20
104.2424684399949
 30
0.0
 10
232.488659594706
 20
104.2874821404484
 30
0.0
 10
232.4569671129518
 20
104.3356992531295
 30
0.0
 10
232.4290239781424
 20
104.3863983578074
 30
0.0
 10
232.4064386982707
 20
104.4405351584945
 30
0.0
 10
232.3888524822369
 20
104.4976448548285
 30
0.0
 10
232.3754427562492
 20
104.5575154965028
 30
0.0
 10
232.3704668048079
 20
104.5986613105462
 30
0.0
 10
232.3679380011935
 20
104.6195718207271
 30
0.0
  0
SPLINE
  5
F5
330
1F
100
AcDbEntity
  8
0
  6
Continuous
 62
     7
370
     0
100
AcDbSpline
210
0.0
220
0.0
230
1.0
 70
     8
 71
     3
 72
    23
 73
    19
 74
     0
 42
0.00000001
 43
0.00000001
 40
0.0
 40
0.0
 40
0.0
 40
0.0
 40
0.0635034414546181
 40
0.1248046405781821
 40
0.1849202801139815
 40
0.2443762015685232
 40
0.3037746372808734
 40
0.3641325964146207
 40
0.4253755063553636
 40
0.4883879977208414
 40
0.5517433281320234
 40
0.6138598322814828
 40
0.6756404471380691
 40
0.7377369491926125
 40
0.8004171140764984
 40
0.8646584058363332
 40
0.9309845230655541
 40
1.0
 40
1.0
 40
1.0
 40
1.0
 10
233.6850245062683
 20
104.6846029669152
 30
0.0
 10
233.6845231541695
 20
104.6624822838481
 30
0.0
 10
233.6835378364128
 20
104.6190080431408
 30
0.0
 10
233.6741969930672
 20
104.555143394111
 30
0.0
 10
233.658931958705
 20
104.493952474462
 30
0.0
 10
233.6378071984236
 20
104.4352274913752
 30
0.0
 10
233.6110387846074
 20
104.3787287777321
 30
0.0
 10
233.5774488402626
 20
104.3252536262118
 30
0.0
 10
233.5380328950575
 20
104.2743673565884
 30
0.0
 10
233.4934071622217
 20
104.2265571858847
 30
0.0
 10
233.4445154006725
 20
104.1826181677166
 30
0.0
 10
233.391420818697
 20
104.1445711789624
 30
0.0
 10
233.3351738875228
 20
104.1122610768178
 30
0.0
 10
233.2756830750947
 20
104.0859123478596
 30
0.0
 10
233.2131060900265
 20
104.0652113579906
 30
0.0
 10
233.1473806809619
 20
104.0503722270106
 30
0.0
 10
233.0783034625115
 20
104.0416511171227
 30
0.0
 10
233.0311710392344
 20
104.040593218504
 30
0.0
 10
233.0071365456876
 20
104.0400537584942
 30
0.0
  0
LINE
  5
F6
330
1F
100
AcDbEntity
  8
0
  6
Continuous
 62
     7
370
     0
100
AcDbLine
 10
229.2859555793
 20
104.3034710595
 30
0.0
 11
230.497675164
 21
104.3034710595
 31
0.0
  0
LINE
  5
F7
330
1F
100
AcDbEntity
  8
0
  6
Continuous
 62
     7
370
     0
100
AcDbLine
 10
229.2859555793
 20
105.0146977722
 30
0.0
 11
229.2859555793
 21
104.3034710595
 31
0.0
  0
LINE
  5
F8
330
1F
100
AcDbEntity
  8
0
  6
Continuous
 62
     7
370
     0
100
AcDbLine
 10
230.3659665135
 20
105.0146977722
 30
0.0
 11
229.2859555793
 21
105.0146977722
 31
0.0
  0
LINE
  5
F9
330
1F
100
AcDbEntity
  8
0
  6
Continuous
 62
     7
370
     0
100
AcDbLine
 10
230.3659665135
 20
105.2517733432
 30
0.0
 11
230.3659665135
 21
105.0146977722
 31
0.0
  0
LINE
  5
FA
330
1F
100
AcDbEntity
  8
0
  6
Continuous
 62
     7
370
     0
100
AcDbLine
 10
229.2859555793
 20
105.2517733432
 30
0.0
 11
230.3659665135
 21
105.2517733432
 31
0.0
  0
LINE
  5
FB
330
1F
100
AcDbEntity
  8
0
  6
Continuous
 62
     7
370
     0
100
AcDbLine
 10
229.2859555793
 20
105.8839748656
 30
0.0
 11
229.2859555793
 21
105.2517733432
 31
0.0
  0
LINE
  5
FC
330
1F
100
AcDbEntity
  8
0
  6
Continuous
 62
     7
370
     0
100
AcDbLine
 10
230.4449917038
 20
105.8839748656
 30
0.0
 11
229.2859555793
 21
105.8839748656
 31
0.0
  0
LINE
  5
FD
330
1F
100
AcDbEntity
  8
0
  6
Continuous
 62
     7
370
     0
100
AcDbLine
 10
230.4449917038
 20
106.1210504365
 30
0.0
 11
230.4449917038
 21
105.8839748656
 31
0.0
  0
LINE
  5
FE
330
1F
100
AcDbEntity
  8
0
  6
Continuous
 62
     7
370
     0
100
AcDbLine
 10
228.9961965482
 20
106.1210504365
 30
0.0
 11
230.4449917038
 21
106.1210504365
 31
0.0
  0
LINE
  5
FF
330
1F
100
AcDbEntity
  8
0
  6
Continuous
 62
     7
370
     0
100
AcDbLine
 10
228.9961965482
 20
104.0663954886
 30
0.0
 11
228.9961965482
 21
106.1210504365
 31
0.0
  0
LINE
  5
100
330
1F
100
AcDbEntity
  8
0
  6
Continuous
 62
     7
370
     0
100
AcDbLine
 10
230.497675164
 20
104.0663954886
 30
0.0
 11
228.9961965482
 21
104.0663954886
 31
0.0
  0
LINE
  5
101
330
1F
100
AcDbEntity
  8
0
  6
Continuous
 62
     7
370
     0
100
AcDbLine
 10
230.497675164
 20
104.3034710595
 30
0.0
 11
230.497675164
 21
104.0663954886
 31
0.0
  0
SPLINE
  5
102
330
1F
100
AcDbEntity
  8
0
  6
Continuous
 62
     7
370
     0
100
AcDbSpline
210
0.0
220
0.0
230
1.0
 70
     8
 71
     3
 72
    31
 73
    27
 74
     0
 42
0.00000001
 43
0.00000001
 40
0.0
 40
0.0
 40
0.0
 40
0.0
 40
0.0628739462114324
 40
0.1228366299919129
 40
0.1796565674430314
 40
0.233960012230862
 40
0.2855950186955588
 40
0.3345131060783808
 40
0.3809048259061763
 40
0.4248945919393348
 40
0.4665290347654873
 40
0.5064882940692462
 40
0.5450315536447544
 40
0.5818311798231345
 40
0.6174482799494427
 40
0.652066912769046
 40
0.6858797142465105
 40
0.719174554791392
 40
0.7521816462063926
 40
0.7852401639180911
 40
0.8186564497770833
 40
0.852547740653311
 40
0.8876263422585189
 40
0.923635078068751
 40
0.9610218444769894
 40
1.0
 40
1.0
 40
1.0
 40
1.0
 10
227.6791100431273
 20
105.0797289184376
 30
0.0
 10
227.6788396788913
 20
105.0505039350947
 30
0.0
 10
227.6783114691379
 20
104.993407177507
 30
0.0
 10
227.6751737528616
 20
104.9099350666282
 30
0.0
 10
227.6692055333847
 20
104.8306271973456
 30
0.0
 10
227.6618615302789
 20
104.7553018984051
 30
0.0
 10
227.6507515918624
 20
104.6841602529032
 30
0.0
 10
227.6387800312722
 20
104.6168999988095
 30
0.0
 10
227.6239741679469
 20
104.5538265569132
 30
0.0
 10
227.6066992014978
 20
104.4949122837503
 30
0.0
 10
227.5872436665579
 20
104.4398456618606
 30
0.0
 10
227.5659076619169
 20
104.3882105283273
 30
0.0
 10
227.5422759881133
 20
104.3400421660879
 30
0.0
 10
227.5156452772819
 20
104.2958103851879
 30
0.0
 10
227.4872340050829
 20
104.2549280827898
 30
0.0
 10
227.4568340891544
 20
104.217241900187
 30
0.0
 10
227.4238010156889
 20
104.1832942504783
 30
0.0
 10
227.3881681635164
 20
104.1532756780608
 30
0.0
 10
227.3506578931951
 20
104.1262351745065
 30
0.0
 10
227.3105240358298
 20
104.1030826934439
 30
0.0
 10
227.2679422510587
 20
104.083901265023
 30
0.0
 10
227.2231970441825
 20
104.0675020966847
 30
0.0
 10
227.1758344105254
 20
104.0554857479881
 30
0.0
 10
227.1262278474087
 20
104.0462874208295
 30
0.0
 10
227.0741945780304
 20
104.0408707796816
 30
0.0
 10
227.0386893540358
 20
104.0403298563721
 30
0.0
 10
227.0205667905898
 20
104.0400537584942
 30
0.0
  0
SPLINE
  5
103
330
1F
100
AcDbEntity
  8
0
  6
Continuous
 62
     7
370
     0
100
AcDbSpline
210
0.0
220
0.0
230
1.0
 70
     8
 71
     3
 72
    27
 73
    23
 74
     0
 42
0.00000001
 43
0.00000001
 40
0.0
 40
0.0
 40
0.0
 40
0.0
 40
0.0567243372181507
 40
0.1114372357370107
 40
0.1643678222229013
 40
0.21643537246209
 40
0.2676414903219251
 40
0.3173597799690279
 40
0.3674730633322808
 40
0.4182103970528082
 40
0.4714042826470199
 40
0.5279657201290493
 40
0.5880611158232139
 40
0.6521342629937145
 40
0.6863448363353056
 40
0.7232636803169653
 40
0.762610250771542
 40
0.8047389366452182
 40
0.84943033879095
 40
0.8967112583864923
 40
0.9468896380534765
 40
1.0
 40
1.0
 40
1.0
 40
1.0
 10
227.0205667905898
 20
106.1210504365124
 30
0.0
 10
227.0469539796992
 20
106.1202746718276
 30
0.0
 10
227.098792671122
 20
106.1187506509876
 30
0.0
 10
227.1744774282999
 20
106.1063210135622
 30
0.0
 10
227.2458054339452
 20
106.0850582030547
 30
0.0
 10
227.3127303467719
 20
106.0563737544079
 30
0.0
 10
227.3741080957635
 20
106.0199389838301
 30
0.0
 10
227.4289210125967
 20
105.9756469691815
 30
0.0
 10
227.4765778514254
 20
105.9239627678692
 30
0.0
 10
227.5165585115978
 20
105.8642739390547
 30
0.0
 10
227.551505599316
 20
105.7982270992422
 30
0.0
 10
227.5825518248912
 20
105.7255258058496
 30
0.0
 10
227.6106167110658
 20
105.6462515288861
 30
0.0
 10
227.6305321652495
 20
105.5752899842107
 30
0.0
 10
227.6447378423663
 20
105.5140334609155
 30
0.0
 10
227.6541408719325
 20
105.463510813335
 30
0.0
 10
227.6619472715869
 20
105.4089965921661
 30
0.0
 10
227.6679280287169
 20
105.3506226819846
 30
0.0
 10
227.6728350988286
 20
105.288454554325
 30
0.0
 10
227.6766246041867
 20
105.2224535021219
 30
0.0
 10
227.6785481661608
 20
105.1524545669742
 30
0.0
 10
227.6789192396739
 20
105.1044252589451
 30
0.0
 10
227.6791100431273
 20
105.0797289184376
 30
0.0
  0
SPLINE
  5
104
330
1F
100
AcDbEntity
  8
0
  6
Continuous
 62
     7
370
     0
100
AcDbSpline
210
0.0
220
0.0
230
1.0
 70
     8
 71
     3
 72
    31
 73
    27
 74
     0
 42
0.00000001
 43
0.00000001
 40
0.0
 40
0.0
 40
0.0
 40
0.0
 40
0.0631144583947934
 40
0.12361464576949
 40
0.1809737111859576
 40
0.2352614550083221
 40
0.287100701833872
 40
0.3360307363034436
 40
0.3823823485850663
 40
0.4263340836597073
 40
0.4682106947981602
 40
0.5082496012618052
 40
0.546628336606585
 40
0.5836495392304464
 40
0.6189943150301618
 40
0.6535830186205961
 40
0.6871561361903314
 40
0.7204221919788074
 40
0.7532302188118167
 40
0.7862601560779002
 40
0.8195039834988841
 40
0.8535452747120184
 40
0.8883082803397299
 40
0.9239958607406952
 40
0.961350304754645
 40
1.0
 40
1.0
 40
1.0
 40
1.0
 10
226.3620235380525
 20
105.0797289184376
 30
0.0
 10
226.3622889310408
 20
105.1090918236398
 30
0.0
 10
226.362808724145
 20
105.166601389873
 30
0.0
 10
226.3660328319103
 20
105.2507482165192
 30
0.0
 10
226.3716618628152
 20
105.3306589735586
 30
0.0
 10
226.3800644563179
 20
105.4062642622325
 30
0.0
 10
226.3900147012603
 20
105.4777347385349
 30
0.0
 10
226.402950082459
 20
105.5449684067253
 30
0.0
 10
226.4175042668028
 20
105.6081161163698
 30
0.0
 10
226.4349666762261
 20
105.6671120462108
 30
0.0
 10
226.4541521475716
 20
105.722463453851
 30
0.0
 10
226.4759186768897
 20
105.7740815431363
 30
0.0
 10
226.5004089750838
 20
105.8219115867425
 30
0.0
 10
226.5264194962197
 20
105.8664496090481
 30
0.0
 10
226.555319487453
 20
105.9070028605073
 30
0.0
 10
226.5853646032621
 20
105.9447094313705
 30
0.0
 10
226.6187383432724
 20
105.9781864745562
 30
0.0
 10
226.654052955783
 20
106.0082953574194
 30
0.0
 10
226.6918284576187
 20
106.0348646918921
 30
0.0
 10
226.7318649788712
 20
106.0577908228255
 30
0.0
 10
226.7740084698981
 20
106.0780329433758
 30
0.0
 10
226.8190621390331
 20
106.0932712064379
 30
0.0
 10
226.8660906807638
 20
106.1056936212003
 30
0.0
 10
226.9154560964164
 20
106.1148317001214
 30
0.0
 10
226.9672127859176
 20
106.1202189060386
 30
0.0
 10
227.0025812079043
 20
106.1207701284046
 30
0.0
 10
227.0205667905898
 20
106.1210504365124
 30
0.0
  0
SPLINE
  5
105
330
1F
100
AcDbEntity
  8
0
  6
Continuous
 62
     7
370
     0
100
AcDbSpline
210
0.0
220
0.0
230
1.0
 70
     8
 71
     3
 72
    15
 73
    11
 74
     0
 42
0.00000001
 43
0.00000001
 40
0.0
 40
0.0
 40
0.0
 40
0.0
 40
0.0974206681772145
 40
0.2008855880393207
 40
0.3111719701726506
 40
0.4297979458253727
 40
0.5577399263645875
 40
0.6947152693641585
 40
0.8421299102060552
 40
1.0
 40
1.0
 40
1.0
 40
1.0
 10
226.5616444614779
 20
104.2380283237883
 30
0.0
 10
226.5453607045592
 20
104.2615178820363
 30
0.0
 10
226.511782900739
 20
104.3099543566542
 30
0.0
 10
226.4724829927295
 20
104.392543038937
 30
0.0
 10
226.4374267789894
 20
104.4834615824366
 30
0.0
 10
226.4099140785775
 20
104.5844937981985
 30
0.0
 10
226.3883647758084
 20
104.694835583997
 30
0.0
 10
226.3728007990122
 20
104.8147034539199
 30
0.0
 10
226.3639931204035
 20
104.9440456210931
 30
0.0
 10
226.3626948862257
 20
105.0334801623188
 30
0.0
 10
226.3620235380525
 20
105.0797289184376
 30
0.0
  0
SPLINE
  5
106
330
1F
100
AcDbEntity
  8
0
  6
Continuous
 62
     7
370
     0
100
AcDbSpline
210
0.0
220
0.0
230
1.0
 70
     8
 71
     3
 72
    15
 73
    11
 74
     0
 42
0.00000001
 43
0.00000001
 40
0.0
 40
0.0
 40
0.0
 40
0.0
 40
0.1379032299933934
 40
0.2688733426002937
 40
0.3951781273461133
 40
0.5170892381308883
 40
0.6367430265135479
 40
0.756221816463797
 40
0.8766283594636795
 40
1.0
 40
1.0
 40
1.0
 40
1.0
 10
227.0205667905898
 20
104.0400537584942
 30
0.0
 10
226.9968060086522
 20
104.0407315360554
 30
0.0
 10
226.9504790236882
 20
104.0420530157511
 30
0.0
 10
226.8828218781026
 20
104.0510316563135
 30
0.0
 10
226.8193220381793
 20
104.0668344852663
 30
0.0
 10
226.759443919133
 20
104.0880283071909
 30
0.0
 10
226.7038605673937
 20
104.1163762644716
 30
0.0
 10
226.6523065945586
 20
104.1508670900015
 30
0.0
 10
226.6037460607095
 20
104.1906983182956
 30
0.0
 10
226.5757916652237
 20
104.2221242431069
 30
0.0
 10
226.5616444614779
 20
104.2380283237883
 30
0.0
  0
SPLINE
  5
107
330
1F
100
AcDbEntity
  8
0
  6
Continuous
 62
     7
370
     0
100
AcDbSpline
210
0.0
220
0.0
230
1.0
 70
     8
 71
     3
 72
    15
 73
    11
 74
     0
 42
0.00000001
 43
0.00000001
 40
0.0
 40
0.0
 40
0.0
 40
0.0
 40
0.1426572507006138
 40
0.2811689939054436
 40
0.416977192367974
 40
0.5508524927475579
 40
0.678364170261812
 40
0.7950324430070947
 40
0.9019981783473519
 40
1.0
 40
1.0
 40
1.0
 40
1.0
 10
223.3854080365834
 20
105.6073866995332
 30
0.0
 10
223.4183244325027
 20
105.6243387093317
 30
0.0
 10
223.4832006997666
 20
105.6577501168578
 30
0.0
 10
223.5748568366282
 20
105.7154562107254
 30
0.0
 10
223.6604276999578
 20
105.7780119919925
 30
0.0
 10
223.7384967531897
 20
105.8454036107925
 30
0.0
 10
223.8084806847493
 20
105.9142899428158
 30
0.0
 10
223.8674571601647
 20
105.9837989576463
 30
0.0
 10
223.9168049218845
 20
106.0513827550603
 30
0.0
 10
223.9415636287877
 20
106.0985149587584
 30
0.0
 10
223.9534015918969
 20
106.1210504365124
 30
0.0
  0
LINE
  5
108
330
1F
100
AcDbEntity
  8
0
  6
Continuous
 62
     7
370
     0
100
AcDbLine
 10
223.3854080366
 20
105.3645488752
 30
0.0
 11
223.3854080366
 21
105.6073866995
 31
0.0
  0
SPLINE
  5
109
330
1F
100
AcDbEntity
  8
0
  6
Continuous
 62
     7
370
     0
100
AcDbSpline
210
0.0
220
0.0
230
1.0
 70
     8
 71
     3
 72
    15
 73
    11
 74
     0
 42
0.00000001
 43
0.00000001
 40
0.0
 40
0.0
 40
0.0
 40
0.0
 40
0.1116703001015866
 40
0.232094480856018
 40
0.3627434591045532
 40
0.5025575097108851
 40
0.6415251033312813
 40
0.7710984952996682
 40
0.8901617573732524
 40
1.0
 40
1.0
 40
1.0
 40
1.0
 10
223.8595591784104
 20
105.6674787713273
 30
0.0
 10
223.8443915869121
 20
105.6528514954273
 30
0.0
 10
223.8128674101936
 20
105.6224503054667
 30
0.0
 10
223.7595791197105
 20
105.5794250302082
 30
0.0
 10
223.7001025773574
 20
105.5358170899589
 30
0.0
 10
223.6352101238819
 20
105.4938831802602
 30
0.0
 10
223.569063245284
 20
105.4544069264839
 30
0.0
 10
223.5051408032961
 20
105.4189041053341
 30
0.0
 10
223.4445100103122
 20
105.3888601046499
 30
0.0
 10
223.4045721795025
 20
105.3724319262172
 30
0.0
 10
223.3854080365834
 20
105.3645488751601
 30
0.0
  0
LINE
  5
10A
330
1F
100
AcDbEntity
  8
0
  6
Continuous
 62
     7
370
     0
100
AcDbLine
 10
223.8595591784
 20
104.0663954886
 30
0.0
 11
223.8595591784
 21
105.6674787713
 31
0.0
  0
LINE
  5
10B
330
1F
100
AcDbEntity
  8
0
  6
Continuous
 62
     7
370
     0
100
AcDbLine
 10
224.1229764794
 20
104.0663954886
 30
0.0
 11
223.8595591784
 21
104.0663954886
 31
0.0
  0
LINE
  5
10C
330
1F
100
AcDbEntity
  8
0
  6
Continuous
 62
     7
370
     0
100
AcDbLine
 10
224.1229764794
 20
106.1210504365
 30
0.0
 11
224.1229764794
 21
104.0663954886
 31
0.0
  0
LINE
  5
10D
330
1F
100
AcDbEntity
  8
0
  6
Continuous
 62
     7
370
     0
100
AcDbLine
 10
223.9534015919
 20
106.1210504365
 30
0.0
 11
224.1229764794
 21
106.1210504365
 31
0.0
  0
SPLINE
  5
10E
330
1F
100
AcDbEntity
  8
0
  6
Continuous
 62
     7
370
     0
100
AcDbSpline
210
0.0
220
0.0
230
1.0
 70
     8
 71
     3
 72
    23
 73
    19
 74
     0
 42
0.00000001
 43
0.00000001
 40
0.0
 40
0.0
 40
0.0
 40
0.0
 40
0.0635999003471699
 40
0.1252966507935535
 40
0.1855687201945882
 40
0.2446982110006627
 40
0.303716806189989
 40
0.3629196509481438
 40
0.4233003138688771
 40
0.4851773095450755
 40
0.5470834132243567
 40
0.608524799634247
 40
0.6699648532447271
 40
0.7322993779782991
 40
0.7956502934901157
 40
0.8610554709467161
 40
0.929122115173219
 40
1.0
 40
1.0
 40
1.0
 40
1.0
 10
221.9892963412042
 20
104.6644350798062
 30
0.0
 10
221.9887728555542
 20
104.642862813906
 30
0.0
 10
221.9877415489275
 20
104.6003638060055
 30
0.0
 10
221.9786801645037
 20
104.5379802498666
 30
0.0
 10
221.9649698887423
 20
104.4780523317698
 30
0.0
 10
221.9449787238921
 20
104.4208332094245
 30
0.0
 10
221.9194450395455
 20
104.3662824340547
 30
0.0
 10
221.8878595633132
 20
104.3144792193472
 30
0.0
 10
221.8505326330413
 20
104.2654768543172
 30
0.0
 10
221.808565328475
 20
104.2191230241178
 30
0.0
 10
221.7616459070333
 20
104.1772211692247
 30
0.0
 10
221.7108877841755
 20
104.140296389533
 30
0.0
 10
221.6561005089099
 20
104.1093671786078
 30
0.0
 10
221.5979488382403
 20
104.0837579031578
 30
0.0
 10
221.5361543219412
 20
104.0639108096257
 30
0.0
 10
221.4707963925698
 20
104.050013636034
 30
0.0
 10
221.4018967990883
 20
104.0417384807395
 30
0.0
 10
221.3547853911275
 20
104.0406228566523
 30
0.0
 10
221.3307530886668
 20
104.0400537584942
 30
0.0
  0
SPLINE
  5
10F
330
1F
100
AcDbEntity
  8
0
  6
Continuous
 62
     7
370
     0
100
AcDbSpline
210
0.0
220
0.0
230
1.0
 70
     8
 71
     3
 72
    23
 73
    19
 74
     0
 42
0.00000001
 43
0.00000001
 40
0.0
 40
0.0
 40
0.0
 40
0.0
 40
0.0690130029109932
 40
0.1352355440560497
 40
0.1996111851157138
 40
0.2624185195032886
 40
0.3237234972102992
 40
0.3837653656042444
 40
0.4437730350956272
 40
0.5037949564977896
 40
0.5638225777168209
 40
0.6234843128834681
 40
0.6834691722744386
 40
0.7435907624559172
 40
0.8057272199738402
 40
0.8686162107352969
 40
0.933278202847215
 40
1.0
 40
1.0
 40
1.0
 40
1.0
 10
221.6056948966011
 20
105.1933276295003
 30
0.0
 10
221.6210338834319
 20
105.1881207702948
 30
0.0
 10
221.6510916427213
 20
105.1779175852748
 30
0.0
 10
221.6935843464631
 20
105.1580794491533
 30
0.0
 10
221.7335899498278
 20
105.1366892295217
 30
0.0
 10
221.7713340488274
 20
105.1135343037913
 30
0.0
 10
221.8054234157708
 20
105.0868926952964
 30
0.0
 10
221.8369953720825
 20
105.058339611954
 30
0.0
 10
221.8659171753062
 20
105.0274726846737
 30
0.0
 10
221.8917937843163
 20
104.9940293869874
 30
0.0
 10
221.9148963255205
 20
104.9587116365798
 30
0.0
 10
221.9346739346298
 20
104.9214333271775
 30
0.0
 10
221.9514706782377
 20
104.8827250667544
 30
0.0
 10
221.9658257537465
 20
104.8424073577601
 30
0.0
 10
221.9763110016883
 20
104.8001962070784
 30
0.0
 10
221.9836473891814
 20
104.7562855972506
 30
0.0
 10
221.9883021202076
 20
104.710906952581
 30
0.0
 10
221.9889614883974
 20
104.6800867680027
 30
0.0
 10
221.9892963412042
 20
104.6644350798062
 30
0.0
  0
SPLINE
  5
110
330
1F
100
AcDbEntity
  8
0
  6
Continuous
 62
     7
370
     0
100
AcDbSpline
210
0.0
220
0.0
230
1.0
 70
     8
 71
     3
 72
    15
 73
    11
 74
     0
 42
0.00000001
 43
0.00000001
 40
0.0
 40
0.0
 40
0.0
 40
0.0
 40
0.1248350921668871
 40
0.2447781332833286
 40
0.3609889778410595
 40
0.4779641722472781
 40
0.5969221175582977
 40
0.7215907566966706
 40
0.8550978657574203
 40
1.0
 40
1.0
 40
1.0
 40
1.0
 10
221.9102711508997
 20
105.5962737821467
 30
0.0
 10
221.9095183276672
 20
105.5736869800977
 30
0.0
 10
221.9080421829202
 20
105.5293985100337
 30
0.0
 10
221.8929996077944
 20
105.465556312307
 30
0.0
 10
221.8695544677265
 20
105.4059564209448
 30
0.0
 10
221.8356691656442
 20
105.3517347062802
 30
0.0
 10
221.7927546908146
 20
105.3023311794883
 30
0.0
 10
221.739501250109
 20
105.2593841518868
 30
0.0
 10
221.676717593392
 20
105.2219247390157
 30
0.0
 10
221.6300064102777
 20
105.2031165990904
 30
0.0
 10
221.6056948966011
 20
105.1933276295003
 30
0.0
  0
SPLINE
  5
111
330
1F
100
AcDbEntity
  8
0
  6
Continuous
 62
     7
370
     0
100
AcDbSpline
210
0.0
220
0.0
230
1.0
 70
     8
 71
     3
 72
    23
 73
    19
 74
     0
 42
0.00000001
 43
0.00000001
 40
0.0
 40
0.0
 40
0.0
 40
0.0
 40
0.0732007449685411
 40
0.1425867913224124
 40
0.2096247814680876
 40
0.2748829267682081
 40
0.3379306095315751
 40
0.4004618221882003
 40
0.4625006206857346
 40
0.5250054581372536
 40
0.5866888527108448
 40
0.6468127657705338
 40
0.7052153157505646
 40
0.7628810210075594
 40
0.8207275416930107
 40
0.8792954957245834
 40
0.9385111654136072
 40
1.0
 40
1.0
 40
1.0
 40
1.0
 10
221.3274603724041
 20
106.1210504365124
 30
0.0
 10
221.3488823388787
 20
106.1205677190908
 30
0.0
 10
221.3906099123447
 20
106.1196274400227
 30
0.0
 10
221.4516327859696
 20
106.1125476354909
 30
0.0
 10
221.5095187617847
 20
106.1006814420402
 30
0.0
 10
221.5642337595678
 20
106.0838463008414
 30
0.0
 10
221.6158640393554
 20
106.0623215591374
 30
0.0
 10
221.6640703389974
 20
106.0358648260487
 30
0.0
 10
221.7093489130838
 20
106.0049124572918
 30
0.0
 10
221.7505424568556
 20
105.9690953348614
 30
0.0
 10
221.7880236715691
 20
105.9302095874877
 30
0.0
 10
221.8204976037881
 20
105.8885497901108
 30
0.0
 10
221.8483494618653
 20
105.8450880459254
 30
0.0
 10
221.8713648379008
 20
105.799560314829
 30
0.0
 10
221.8883917001137
 20
105.7514481578697
 30
0.0
 10
221.9013699911592
 20
105.7016580303599
 30
0.0
 10
221.9088980015806
 20
105.6495983285409
 30
0.0
 10
221.9098077236862
 20
105.6142704017438
 30
0.0
 10
221.9102711508997
 20
105.5962737821467
 30
0.0
  0
SPLINE
  5
112
330
1F
100
AcDbEntity
  8
0
  6
Continuous
 62
     7
370
     0
100
AcDbSpline
210
0.0
220
0.0
230
1.0
 70
     8
 71
     3
 72
    23
 73
    19
 74
     0
 42
0.00000001
 43
0.00000001
 40
0.0
 40
0.0
 40
0.0
 40
0.0
 40
0.0621313717366117
 40
0.1219658247853498
 40
0.1805702366487599
 40
0.2385759705888211
 40
0.2960002420906481
 40
0.3543589964435931
 40
0.4137812280524368
 40
0.4750979653520683
 40
0.5372798973856026
 40
0.5989179536770425
 40
0.6612351129787322
 40
0.7243219805737479
 40
0.7892171825086325
 40
0.8563966620881328
 40
0.9265077687361053
 40
1.0
 40
1.0
 40
1.0
 40
1.0
 10
220.7512350264339
 20
105.602859214672
 30
0.0
 10
220.7516870287514
 20
105.6208591427554
 30
0.0
 10
220.7525743234291
 20
105.6561935642143
 30
0.0
 10
220.7602407513711
 20
105.708040845709
 30
0.0
 10
220.7725196402459
 20
105.7577235126269
 30
0.0
 10
220.7899462564939
 20
105.8051013407061
 30
0.0
 10
220.8117789505153
 20
105.8505642928786
 30
0.0
 10
220.8393281284887
 20
105.893279467664
 30
0.0
 10
220.8709941974487
 20
105.9344540823522
 30
0.0
 10
220.9080894924837
 20
105.9724237336962
 30
0.0
 10
220.9489678663201
 20
106.0072002594197
 30
0.0
 10
220.9932455246094
 20
106.0381479517292
 30
0.0
 10
221.0412612805927
 20
106.0634556404063
 30
0.0
 10
221.0922145748427
 20
106.0846150007351
 30
0.0
 10
221.1463573462364
 20
106.1011805425987
 30
0.0
 10
221.203880314772
 20
106.112462599478
 30
0.0
 10
221.264580699402
 20
106.1196388246355
 30
0.0
 10
221.3061740445089
 20
106.1205725709028
 30
0.0
 10
221.3274603724041
 20
106.1210504365124
 30
0.0
  0
SPLINE
  5
113
330
1F
100
AcDbEntity
  8
0
  6
Continuous
 62
     7
370
     0
100
AcDbSpline
210
0.0
220
0.0
230
1.0
 70
     8
 71
     3
 72
    15
 73
    11
 74
     0
 42
0.00000001
 43
0.00000001
 40
0.0
 40
0.0
 40
0.0
 40
0.0
 40
0.1453591950554982
 40
0.2787017789350159
 40
0.403602234418053
 40
0.5216687911804246
 40
0.6375206936077399
 40
0.7537041507630957
 40
0.8732127703640605
 40
1.0
 40
1.0
 40
1.0
 40
1.0
 10
221.0623967132578
 20
105.1933276295003
 30
0.0
 10
221.0374030628429
 20
105.2031052870906
 30
0.0
 10
220.9894819469476
 20
105.2218522990232
 30
0.0
 10
220.9248487162579
 20
105.259370346828
 30
0.0
 10
220.8701470177479
 20
105.3025299199858
 30
0.0
 10
220.8260485159658
 20
105.3523717833712
 30
0.0
 10
220.7924374403032
 20
105.4078655693755
 30
0.0
 10
220.7682361369897
 20
105.4683037342586
 30
0.0
 10
220.7540610091809
 20
105.5340229855577
 30
0.0
 10
220.7521953983826
 20
105.5794661548357
 30
0.0
 10
220.7512350264339
 20
105.602859214672
 30
0.0
  0
SPLINE
  5
114
330
1F
100
AcDbEntity
  8
0
  6
Continuous
 62
     7
370
     0
100
AcDbSpline
210
0.0
220
0.0
230
1.0
 70
     8
 71
     3
 72
    23
 73
    19
 74
     0
 42
0.00000001
 43
0.00000001
 40
0.0
 40
0.0
 40
0.0
 40
0.0
 40
0.0698340680322546
 40
0.1370265239564768
 40
0.2014822968650625
 40
0.2645399492437558
 40
0.3259725932884497
 40
0.3863863095292154
 40
0.4457607667910175
 40
0.5056119070745058
 40
0.5651144217391012
 40
0.6247503916637627
 40
0.684178951264583
 40
0.7442191416569949
 40
0.8051791454666242
 40
0.8683948608225701
 40
0.9332039334133251
 40
1.0
 40
1.0
 40
1.0
 40
1.0
 10
220.6722098361294
 20
104.6714321018645
 30
0.0
 10
220.6725671472355
 20
104.6879026499796
 30
0.0
 10
220.6732682534466
 20
104.7202207150654
 30
0.0
 10
220.67755107374
 20
104.76762252233
 30
0.0
 10
220.6860866523167
 20
104.8128014270589
 30
0.0
 10
220.6970810211782
 20
104.8560236682613
 30
0.0
 10
220.7110404295618
 20
104.8973973763066
 30
0.0
 10
220.7282620168317
 20
104.9365976432517
 30
0.0
 10
220.7491562390569
 20
104.9735297262677
 30
0.0
 10
220.772893445582
 20
105.0084339408727
 30
0.0
 10
220.7997731727642
 20
105.0410652465645
 30
0.0
 10
220.8293597624279
 20
105.071137884028
 30
0.0
 10
220.8617606865669
 20
105.098309797204
 30
0.0
 10
220.8962478388662
 20
105.1233745958298
 30
0.0
 10
220.9342667971499
 20
105.1445592682193
 30
0.0
 10
220.9744036484175
 20
105.1640001523275
 30
0.0
 10
221.0173484514878
 20
105.18057962174
 30
0.0
 10
221.0472302394392
 20
105.1890357363542
 30
0.0
 10
221.0623967132578
 20
105.1933276295003
 30
0.0
  0
SPLINE
  5
115
330
1F
100
AcDbEntity
  8
0
  6
Continuous
 62
     7
370
     0
100
AcDbSpline
210
0.0
220
0.0
230
1.0
 70
     8
 71
     3
 72
    23
 73
    19
 74
     0
 42
0.00000001
 43
0.00000001
 40
0.0
 40
0.0
 40
0.0
 40
0.0
 40
0.0704416310595481
 40
0.1380893247200285
 40
0.2031777335235316
 40
0.266138723805254
 40
0.3279287813674601
 40
0.3891903607612971
 40
0.4502535751031185
 40
0.5123465781279283
 40
0.5738427205586506
 40
0.6339325568070916
 40
0.6934598075975581
 40
0.7524794354833053
 40
0.8123859308429278
 40
0.8730704652319968
 40
0.9351843065837712
 40
1.0
 40
1.0
 40
1.0
 40
1.0
 10
221.3307530886668
 20
104.0400537584942
 30
0.0
 10
221.3067231900203
 20
104.0406351213709
 30
0.0
 10
221.2596164943452
 20
104.0417747884377
 30
0.0
 10
221.1906539506386
 20
104.049880770883
 30
0.0
 10
221.1253895322273
 20
104.0644079405019
 30
0.0
 10
221.0636753636648
 20
104.0842752083009
 30
0.0
 10
221.0051766665566
 20
104.109191109618
 30
0.0
 10
220.9507573401658
 20
104.1408172342746
 30
0.0
 10
220.899667666091
 20
104.1776952328584
 30
0.0
 10
220.8527156203024
 20
104.2198562626816
 30
0.0
 10
220.8103997147145
 20
104.2662051483838
 30
0.0
 10
220.7735648358085
 20
104.3159312025363
 30
0.0
 10
220.7421668658486
 20
104.3682691566855
 30
0.0
 10
220.7163270179275
 20
104.4235140525467
 30
0.0
 10
220.6966311615648
 20
104.4816663934718
 30
0.0
 10
220.6828083759538
 20
104.542507854867
 30
0.0
 10
220.6737305902931
 20
104.6059919446341
 30
0.0
 10
220.6727238970871
 20
104.6493113471092
 30
0.0
 10
220.6722098361294
 20
104.6714321018645
 30
0.0
  0
SPLINE
  5
116
330
1F
100
AcDbEntity
  8
0
  6
Continuous
 62
     7
370
     0
100
AcDbSpline
210
0.0
220
0.0
230
1.0
 70
     8
 71
     3
 72
    15
 73
    11
 74
     0
 42
0.00000001
 43
0.00000001
 40
0.0
 40
0.0
 40
0.0
 40
0.0
 40
0.1324616222426385
 40
0.2616495010354901
 40
0.3875466984163662
 40
0.5107816292933468
 40
0.6326753605997104
 40
0.7546603541381371
 40
0.8765227798028643
 40
1.0
 40
1.0
 40
1.0
 40
1.0
 10
218.8282887290247
 20
104.7710367688107
 30
0.0
 10
218.8278223233654
 20
104.7482427162238
 30
0.0
 10
218.8269010391024
 20
104.7032179582224
 30
0.0
 10
218.8193509240234
 20
104.6368656538929
 30
0.0
 10
218.8069139037845
 20
104.5729299860427
 30
0.0
 10
218.790264165527
 20
104.5112216214957
 30
0.0
 10
218.7677681347591
 20
104.4520910160264
 30
0.0
 10
218.7404825550666
 20
104.395347172984
 30
0.0
 10
218.7090071084317
 20
104.3403979895814
 30
0.0
 10
218.6837654336356
 20
104.3065249893906
 30
0.0
 10
218.6710615274814
 20
104.2894770153928
 30
0.0
  0
SPLINE
  5
117
330
1F
100
AcDbEntity
  8
0
  6
Continuous
 62
     7
370
     0
100
AcDbSpline
210
0.0
220
0.0
230
1.0
 70
     8
 71
     3
 72
    23
 73
    19
 74
     0
 42
0.00000001
 43
0.00000001
 40
0.0
 40
0.0
 40
0.0
 40
0.0
 40
0.0619974190757221
 40
0.1220879540822937
 40
0.1813753107870036
 40
0.2395080083953663
 40
0.2978356978967516
 40
0.3568799706531185
 40
0.4172818251154282
 40
0.4796404090798164
 40
0.5425000674783567
 40
0.6049624196481905
 40
0.6669910330782648
 40
0.7302162430101637
 40
0.794172863251256
 40
0.8604581431502615
 40
0.9285781799847829
 40
1.0
 40
1.0
 40
1.0
 40
1.0
 10
218.2253100634201
 20
105.4361654538735
 30
0.0
 10
218.2460552834891
 20
105.435621912651
 30
0.0
 10
218.2869076530389
 20
105.4345515481615
 30
0.0
 10
218.3471050341171
 20
105.4257571561569
 30
0.0
 10
218.4046638567177
 20
105.4108280927226
 30
0.0
 10
218.4600356074308
 20
105.3907208208035
 30
0.0
 10
218.5124901451029
 20
105.364065197022
 30
0.0
 10
218.5625587964714
 20
105.3317908966198
 30
0.0
 10
218.610039417068
 20
105.2936318915697
 30
0.0
 10
218.654663585284
 20
105.2503081635476
 30
0.0
 10
218.6951394805334
 20
105.2022142708878
 30
0.0
 10
218.7313667278225
 20
105.1509187300961
 30
0.0
 10
218.7609551645754
 20
105.0953947455965
 30
0.0
 10
218.7858410706368
 20
105.0370920581124
 30
0.0
 10
218.8046105538444
 20
104.9750536078538
 30
0.0
 10
218.8188572467023
 20
104.9101598471347
 30
0.0
 10
218.8264744804064
 20
104.8415994557985
 30
0.0
 10
218.827674514577
 20
104.7949257889716
 30
0.0
 10
218.8282887290247
 20
104.7710367688107
 30
0.0
  0
SPLINE
  5
118
330
1F
100
AcDbEntity
  8
0
  6
Continuous
 62
     7
370
     0
100
AcDbSpline
210
0.0
220
0.0
230
1.0
 70
     8
 71
     3
 72
    15
 73
    11
 74
     0
 42
0.00000001
 43
0.00000001
 40
0.0
 40
0.0
 40
0.0
 40
0.0
 40
0.1367294018595733
 40
0.2685149167908308
 40
0.3955294046848096
 40
0.5199999535658124
 40
0.640496476841269
 40
0.7612361017625323
 40
0.8801067171759528
 40
1.0
 40
1.0
 40
1.0
 40
1.0
 10
217.8589953791962
 20
105.2991061394392
 30
0.0
 10
217.8735300404166
 20
105.3100131529425
 30
0.0
 10
217.9020738158964
 20
105.3314328021435
 30
0.0
 10
217.9465969893446
 20
105.3594790093792
 30
0.0
 10
217.9917567974597
 20
105.3831200919334
 30
0.0
 10
218.0372903534975
 20
105.402480150557
 30
0.0
 10
218.0835593500977
 20
105.4175616021682
 30
0.0
 10
218.1302845787163
 20
105.4280394983367
 30
0.0
 10
218.1776251309045
 20
105.4351210771047
 30
0.0
 10
218.2093697633162
 20
105.435816335646
 30
0.0
 10
218.2253100634201
 20
105.4361654538735
 30
0.0
  0
LINE
  5
119
330
1F
100
AcDbEntity
  8
0
  6
Continuous
 62
     7
370
     0
100
AcDbLine
 10
217.9635391205
 20
105.8312914054
 30
0.0
 11
217.8589953792
 21
105.2991061394
 31
0.0
  0
LINE
  5
11A
330
1F
100
AcDbEntity
  8
0
  6
Continuous
 62
     7
370
     0
100
AcDbLine
 10
218.7229218086
 20
105.8312914054
 30
0.0
 11
217.9635391205
 21
105.8312914054
 31
0.0
  0
LINE
  5
11B
330
1F
100
AcDbEntity
  8
0
  6
Continuous
 62
     7
370
     0
100
AcDbLine
 10
218.7229218086
 20
106.0947087064
 30
0.0
 11
218.7229218086
 21
105.8312914054
 31
0.0
  0
LINE
  5
11C
330
1F
100
AcDbEntity
  8
0
  6
Continuous
 62
     7
370
     0
100
AcDbLine
 10
217.7482777949
 20
106.0947087064
 30
0.0
 11
218.7229218086
 21
106.0947087064
 31
0.0
  0
LINE
  5
11D
330
1F
100
AcDbEntity
  8
0
  6
Continuous
 62
     7
370
     0
100
AcDbLine
 10
217.5375439541
 20
105.0410395024
 30
0.0
 11
217.7482777949
 21
106.0947087064
 31
0.0
  0
LINE
  5
11E
330
1F
100
AcDbEntity
  8
0
  6
Continuous
 62
     7
370
     0
100
AcDbLine
 10
217.8009612551
 20
105.0146977722
 30
0.0
 11
217.5375439541
 21
105.0410395024
 31
0.0
  0
SPLINE
  5
11F
330
1F
100
AcDbEntity
  8
0
  6
Continuous
 62
     7
370
     0
100
AcDbSpline
210
0.0
220
0.0
230
1.0
 70
     8
 71
     3
 72
    15
 73
    11
 74
     0
 42
0.00000001
 43
0.00000001
 40
0.0
 40
0.0
 40
0.0
 40
0.0
 40
0.1478596367312535
 40
0.283561321939547
 40
0.4123693961385313
 40
0.5342363558879458
 40
0.6526916293119824
 40
0.768663059498123
 40
0.8836524018604034
 40
1.0
 40
1.0
 40
1.0
 40
1.0
 10
218.1524587161082
 20
105.1990898829601
 30
0.0
 10
218.1319739472427
 20
105.198490663431
 30
0.0
 10
218.0926887963555
 20
105.1973414959806
 30
0.0
 10
218.0362400744249
 20
105.187673962272
 30
0.0
 10
217.9848527591249
 20
105.172057293092
 30
0.0
 10
217.9391086558432
 20
105.1487825476084
 30
0.0
 10
217.8982385599675
 20
105.120977041119
 30
0.0
 10
217.861393417246
 20
105.089513849114
 30
0.0
 10
217.8282694020561
 20
105.0544142434879
 30
0.0
 10
217.8100995311724
 20
105.0279883144555
 30
0.0
 10
217.8009612550663
 20
105.0146977722496
 30
0.0
  0
SPLINE
  5
120
330
1F
100
AcDbEntity
  8
0
  6
Continuous
 62
     7
370
     0
100
AcDbSpline
210
0.0
220
0.0
230
1.0
 70
     8
 71
     3
 72
    23
 73
    19
 74
     0
 42
0.00000001
 43
0.00000001
 40
0.0
 40
0.0
 40
0.0
 40
0.0
 40
0.0728659334565352
 40
0.1418868719641258
 40
0.2074526264147115
 40
0.2704376800000974
 40
0.3316408722476697
 40
0.3901075774931577
 40
0.4480692869488365
 40
0.5055029519245378
 40
0.5624881528337237
 40
0.6190843288847292
 40
0.676415530692239
 40
0.735452360450793
 40
0.7962407694486783
 40
0.8604056780892031
 40
0.9283049272851063
 40
1.0
 40
1.0
 40
1.0
 40
1.0
 10
218.5648714280097
 20
104.755396366563
 30
0.0
 10
218.5645690374198
 20
104.772145974917
 30
0.0
 10
218.5639802128088
 20
104.8047613470564
 30
0.0
 10
218.5590213489325
 20
104.8522547517571
 30
0.0
 10
218.5506551617722
 20
104.8969129250202
 30
0.0
 10
218.5398300989362
 20
104.9392280778628
 30
0.0
 10
218.5249091151801
 20
104.9785389839071
 30
0.0
 10
218.507211988275
 20
105.0154156128557
 30
0.0
 10
218.4855322640328
 20
105.0490753340751
 30
0.0
 10
218.4614121402221
 20
105.0805661893863
 30
0.0
 10
218.4338639136731
 20
105.1087964722713
 30
0.0
 10
218.4025154124742
 20
105.1326333705391
 30
0.0
 10
218.3685964198184
 20
105.153495470432
 30
0.0
 10
218.3314237724455
 20
105.1704133319925
 30
0.0
 10
218.2909755812975
 20
105.1829826674076
 30
0.0
 10
218.247653789938
 20
105.1926536400055
 30
0.0
 10
218.2010088706111
 20
105.1977401755876
 30
0.0
 10
218.1689328361821
 20
105.1986318979846
 30
0.0
 10
218.1524587161082
 20
105.1990898829601
 30
0.0
  0
SPLINE
  5
121
330
1F
100
AcDbEntity
  8
0
  6
Continuous
 62
     7
370
     0
100
AcDbSpline
210
0.0
220
0.0
230
1.0
 70
     8
 71
     3
 72
    23
 73
    19
 74
     0
 42
0.00000001
 43
0.00000001
 40
0.0
 40
0.0
 40
0.0
 40
0.0
 40
0.0658010376094729
 40
0.1286767959489732
 40
0.188675874952434
 40
0.2475984367338953
 40
0.3048494201188281
 40
0.3617858992828997
 40
0.4195227063685901
 40
0.4786818154207407
 40
0.5387695030440196
 40
0.5987990560131542
 40
0.6601842815006791
 40
0.7229515306109661
 40
0.787992689104874
 40
0.8554037684344735
 40
0.9261530612840038
 40
1.0
 40
1.0
 40
1.0
 40
1.0
 10
218.1512239475097
 20
104.2771293294077
 30
0.0
 10
218.166885226602
 20
104.2775077513727
 30
0.0
 10
218.1975115402178
 20
104.2782477720129
 30
0.0
 10
218.2420670250017
 20
104.2845065692705
 30
0.0
 10
218.2841532888713
 20
104.2948266008523
 30
0.0
 10
218.3235689554554
 20
104.3092687184124
 30
0.0
 10
218.3607760970264
 20
104.3272292004623
 30
0.0
 10
218.3945403893418
 20
104.3504847530166
 30
0.0
 10
218.4267028477035
 20
104.3766262919942
 30
0.0
 10
218.4551938106298
 20
104.4077920235864
 30
0.0
 10
218.4811285916543
 20
104.4417211282783
 30
0.0
 10
218.5035122574476
 20
104.4787561893253
 30
0.0
 10
218.522356141544
 20
104.5183773903372
 30
0.0
 10
218.5382206323116
 20
104.5605771351989
 30
0.0
 10
218.5499354010263
 20
104.6055964964088
 30
0.0
 10
218.5585525596738
 20
104.6531959795502
 30
0.0
 10
218.5640844315373
 20
104.7034059055391
 30
0.0
 10
218.5646053758361
 20
104.7378204616533
 30
0.0
 10
218.5648714280097
 20
104.755396366563
 30
0.0
  0
SPLINE
  5
122
330
1F
100
AcDbEntity
  8
0
  6
Continuous
 62
     7
370
     0
100
AcDbSpline
210
0.0
220
0.0
230
1.0
 70
     8
 71
     3
 72
    23
 73
    19
 74
     0
 42
0.00000001
 43
0.00000001
 40
0.0
 40
0.0
 40
0.0
 40
0.0
 40
0.0773613371189762
 40
0.1504798322806804
 40
0.2199772368520745
 40
0.2866809968624412
 40
0.3496784941856625
 40
0.4106796250174853
 40
0.4694271135192907
 40
0.5267557014271297
 40
0.5831419808348373
 40
0.638824427778626
 40
0.6952634704038124
 40
0.7526958048985353
 40
0.8108491833348949
 40
0.8713563036360844
 40
0.934436430984128
 40
1.0
 40
1.0
 40
1.0
 40
1.0
 10
217.7746195249649
 20
104.6459135508286
 30
0.0
 10
217.7772277697949
 20
104.6310714316084
 30
0.0
 10
217.7823012116354
 20
104.6022012014117
 30
0.0
 10
217.7919692157866
 20
104.5604106868876
 30
0.0
 10
217.8045252011169
 20
104.5215861307976
 30
0.0
 10
217.8186332329692
 20
104.4853912903106
 30
0.0
 10
217.8354030089041
 20
104.4522088805446
 30
0.0
 10
217.8535732000662
 20
104.4215149686073
 30
0.0
 10
217.8750012271024
 20
104.3943990926889
 30
0.0
 10
217.8975299204687
 20
104.3694430669044
 30
0.0
 10
217.9222568828616
 20
104.347452394663
 30
0.0
 10
217.9494207109547
 20
104.3289134993255
 30
0.0
 10
217.9782635161366
 20
104.3127394357472
 30
0.0
 10
218.0091365929015
 20
104.2994968310553
 30
0.0
 10
218.0420872578355
 20
104.2898039418407
 30
0.0
 10
218.0766961370338
 20
104.2821385304683
 30
0.0
 10
218.113408882431
 20
104.2782759658304
 30
0.0
 10
218.1384577380464
 20
104.2775164291184
 30
0.0
 10
218.1512239475097
 20
104.2771293294077
 30
0.0
  0
LINE
  5
123
330
1F
100
AcDbEntity
  8
0
  6
Continuous
 62
     7
370
     0
100
AcDbLine
 10
217.5112022239
 20
104.6195718207
 30
0.0
 11
217.774619525
 21
104.6459135508
 31
0.0
  0
SPLINE
  5
124
330
1F
100
AcDbEntity
  8
0
  6
Continuous
 62
     7
370
     0
100
AcDbSpline
210
0.0
220
0.0
230
1.0
 70
     8
 71
     3
 72
    23
 73
    19
 74
     0
 42
0.00000001
 43
0.00000001
 40
0.0
 40
0.0
 40
0.0
 40
0.0
 40
0.0692980234597528
 40
0.135560844101282
 40
0.1996709556470566
 40
0.2617162384956093
 40
0.3226619299471026
 40
0.3829069237782244
 40
0.4430320330728902
 40
0.503500787350163
 40
0.5637242810171083
 40
0.6239800220534739
 40
0.6836293869955233
 40
0.7438482724857304
 40
0.80519184622951
 40
0.8676487429597675
 40
0.9327780842312613
 40
1.0
 40
1.0
 40
1.0
 40
1.0
 10
218.1495775893783
 20
104.0400537584942
 30
0.0
 10
218.1274665764763
 20
104.0405022767866
 30
0.0
 10
218.0842129968893
 20
104.0413796685977
 30
0.0
 10
218.0208820605741
 20
104.0490072974294
 30
0.0
 10
217.9606468511704
 20
104.0611706758216
 30
0.0
 10
217.9034884979725
 20
104.0786167257912
 30
0.0
 10
217.8492347982001
 20
104.100661442601
 30
0.0
 10
217.7985163804648
 20
104.1286657919884
 30
0.0
 10
217.7504530812788
 20
104.1607010234507
 30
0.0
 10
217.7061021330452
 20
104.1977541365638
 30
0.0
 10
217.6656926446366
 20
104.239082602631
 30
0.0
 10
217.6294849223429
 20
104.2838107605278
 30
0.0
 10
217.5979689552953
 20
104.3319677762771
 30
0.0
 10
217.5711599546292
 20
104.3832654889734
 30
0.0
 10
217.5488158905389
 20
104.4376547026845
 30
0.0
 10
217.5317217980866
 20
104.495506644561
 30
0.0
 10
217.5181818543248
 20
104.5562536979492
 30
0.0
 10
217.5135531617967
 20
104.5982444776975
 30
0.0
 10
217.5112022239499
 20
104.6195718207271
 30
0.0
  0
SPLINE
  5
125
330
1F
100
AcDbEntity
  8
0
  6
Continuous
 62
     7
370
     0
100
AcDbSpline
210
0.0
220
0.0
230
1.0
 70
     8
 71
     3
 72
    15
 73
    11
 74
     0
 42
0.00000001
 43
0.00000001
 40
0.0
 40
0.0
 40
0.0
 40
0.0
 40
0.1278926194654203
 40
0.2515785135038574
 40
0.3727928197023036
 40
0.4927776986078534
 40
0.6135900692425711
 40
0.7378086492801449
 40
0.8661799015391672
 40
1.0
 40
1.0
 40
1.0
 40
1.0
 10
218.6710615274814
 20
104.2894770153928
 30
0.0
 10
218.6549215708926
 20
104.2695766644677
 30
0.0
 10
218.6231725434382
 20
104.2304305376243
 30
0.0
 10
218.5681994489697
 20
104.1796212079771
 30
0.0
 10
218.50910259301
 20
104.1364402703793
 30
0.0
 10
218.4455302829914
 20
104.1013588879594
 30
0.0
 10
218.3779093004052
 20
104.073168026519
 30
0.0
 10
218.3054089400168
 20
104.054408066786
 30
0.0
 10
218.2289052439559
 20
104.0418100107339
 30
0.0
 10
218.1763839722953
 20
104.0406472308499
 30
0.0
 10
218.1495775893783
 20
104.0400537584942
 30
0.0
  0
SPLINE
  5
126
330
1F
100
AcDbEntity
  8
0
  6
Continuous
 62
     7
370
     0
100
AcDbSpline
210
0.0
220
0.0
230
1.0
 70
     8
 71
     3
 72
    27
 73
    23
 74
     0
 42
0.00000001
 43
0.00000001
 40
0.0
 40
0.0
 40
0.0
 40
0.0
 40
0.0467628351215619
 40
0.091968696607212
 40
0.1358043853805056
 40
0.1782315801839235
 40
0.2194414332265379
 40
0.2601769432685921
 40
0.3002796061140319
 40
0.3405476414666171
 40
0.3803111902076692
 40
0.4196419535698123
 40
0.4590173240985177
 40
0.4981819588897615
 40
0.5376702145628715
 40
0.5779133315743612
 40
0.6186488416164155
 40
0.6607616027603175
 40
0.7452991770631804
 40
0.8297447416906314
 40
0.9146020866092538
 40
1.0
 40
1.0
 40
1.0
 40
1.0
 10
214.0447951784062
 20
105.9103165957004
 30
0.0
 10
214.0266696007106
 20
105.910053611571
 30
0.0
 10
213.9910219383825
 20
105.9095363993972
 30
0.0
 10
213.9386512340664
 20
105.9038755695321
 30
0.0
 10
213.8883571425917
 20
105.8955377195285
 30
0.0
 10
213.8405145041022
 20
105.8830343966856
 30
0.0
 10
213.7948615202635
 20
105.8674460045186
 30
0.0
 10
213.7516691038975
 20
105.8480356981012
 30
0.0
 10
213.7105698410561
 20
105.8252845421551
 30
0.0
 10
213.6720224204512
 20
105.7990559132211
 30
0.0
 10
213.636350798298
 20
105.7695698865516
 30
0.0
 10
213.6025869500186
 20
105.7383985428784
 30
0.0
 10
213.5723519149261
 20
105.7040881219198
 30
0.0
 10
213.5444927405891
 20
105.6677699741504
 30
0.0
 10
213.5198206852022
 20
105.6288023315984
 30
0.0
 10
213.4976117023732
 20
105.5877159807288
 30
0.0
 10
213.4780073574339
 20
105.5441741866494
 30
0.0
 10
213.4566372902301
 20
105.4828924094312
 30
0.0
 10
213.4348476424781
 20
105.4039628976444
 30
0.0
 10
213.4159450961825
 20
105.3073787577006
 30
0.0
 10
213.4039046198474
 20
105.2092729412323
 30
0.0
 10
213.4025645103305
 20
105.1432851810723
 30
0.0
 10
213.4018923281166
 20
105.1101865438675
 30
0.0
  0
SPLINE
  5
127
330
1F
100
AcDbEntity
  8
0
  6
Continuous
 62
     7
370
     0
100
AcDbSpline
210
0.0
220
0.0
230
1.0
 70
     8
 71
     3
 72
    23
 73
    19
 74
     0
 42
0.00000001
 43
0.00000001
 40
0.0
 40
0.0
 40
0.0
 40
0.0
 40
0.0772311103286299
 40
0.1511651795217243
 40
0.2207847057253998
 40
0.2871495176777696
 40
0.3506324812950841
 40
0.4113067715078916
 40
0.4699644151376497
 40
0.5267072266832779
 40
0.5824983333641278
 40
0.6385087274080254
 40
0.6949179812139082
 40
0.7524203526591543
 40
0.8112509754155086
 40
0.8718561089908092
 40
0.9346441878526853
 40
1.0
 40
1.0
 40
1.0
 40
1.0
 10
214.5609284525824
 20
105.4880257350108
 30
0.0
 10
214.5552380375065
 20
105.5057973885829
 30
0.0
 10
214.5441001344925
 20
105.5405820134729
 30
0.0
 10
214.524323698185
 20
105.5901562858195
 30
0.0
 10
214.5029658063531
 20
105.6361774073601
 30
0.0
 10
214.4795176964606
 20
105.6783325472028
 30
0.0
 10
214.4539285515468
 20
105.7166318027517
 30
0.0
 10
214.4267876216402
 20
105.7515406445254
 30
0.0
 10
214.3974446372579
 20
105.7824074936482
 30
0.0
 10
214.3664964592233
 20
105.8099440629068
 30
0.0
 10
214.3331439147198
 20
105.8334025847668
 30
0.0
 10
214.2981689322282
 20
105.8541906956428
 30
0.0
 10
214.260834064661
 20
105.8713896873797
 30
0.0
 10
214.2216764015879
 20
105.8859364813982
 30
0.0
 10
214.1803299404883
 20
105.8970081591008
 30
0.0
 10
214.1369630496629
 20
105.9047975211171
 30
0.0
 10
214.091537625937
 20
105.9093056222309
 30
0.0
 10
214.06058275105
 20
105.9099751326848
 30
0.0
 10
214.0447951784062
 20
105.9103165957004
 30
0.0
  0
LINE
  5
128
330
1F
100
AcDbEntity
  8
0
  6
Continuous
 62
     7
370
     0
100
AcDbLine
 10
214.8506874837
 20
105.5501757545
 30
0.0
 11
214.5609284526
 21
105.488025735
 31
0.0
  0
SPLINE
  5
129
330
1F
100
AcDbEntity
  8
0
  6
Continuous
 62
     7
370
     0
100
AcDbSpline
210
0.0
220
0.0
230
1.0
 70
     8
 71
     3
 72
    23
 73
    19
 74
     0
 42
0.00000001
 43
0.00000001
 40
0.0
 40
0.0
 40
0.0
 40
0.0
 40
0.0686494919759957
 40
0.134937373785155
 40
0.1988418982006104
 40
0.2614093284183097
 40
0.3225167637069052
 40
0.3823768656987784
 40
0.4424709047536874
 40
0.5022278334792912
 40
0.5621014330908561
 40
0.62173160809488
 40
0.6818513124344153
 40
0.7420491672939588
 40
0.8039081304743815
 40
0.8671621602461707
 40
0.9323605979385298
 40
1.0
 40
1.0
 40
1.0
 40
1.0
 10
214.0587892225226
 20
106.1473921666139
 30
0.0
 10
214.0833651161321
 20
106.1469289231786
 30
0.0
 10
214.1316714683952
 20
106.1460183723385
 30
0.0
 10
214.2025524338169
 20
106.1385289120651
 30
0.0
 10
214.2704378920747
 20
106.1259848865193
 30
0.0
 10
214.3356220030749
 20
106.1095283112728
 30
0.0
 10
214.3974270598001
 20
106.0869958340995
 30
0.0
 10
214.4565240628359
 20
106.0602073084412
 30
0.0
 10
214.5123251140305
 20
106.0280241398426
 30
0.0
 10
214.5652643931732
 20
105.9913307799807
 30
0.0
 10
214.614480130082
 20
105.9500595577224
 30
0.0
 10
214.6606610466976
 20
105.9051964312762
 30
0.0
 10
214.7019241278396
 20
105.8556201497478
 30
0.0
 10
214.7399036423667
 20
105.8025305474889
 30
0.0
 10
214.7734046281028
 20
105.7451914528891
 30
0.0
 10
214.803659552428
 20
105.6841028012853
 30
0.0
 10
214.8296779067879
 20
105.6188104683986
 30
0.0
 10
214.843599022151
 20
105.5733325525615
 30
0.0
 10
214.8506874836988
 20
105.550175754469
 30
0.0
  0
SPLINE
  5
12A
330
1F
100
AcDbEntity
  8
0
  6
Continuous
 62
     7
370
     0
100
AcDbSpline
210
0.0
220
0.0
230
1.0
 70
     8
 71
     3
 72
    31
 73
    27
 74
     0
 42
0.00000001
 43
0.00000001
 40
0.0
 40
0.0
 40
0.0
 40
0.0
 40
0.0494014326173349
 40
0.0976047534771127
 40
0.1442547055445423
 40
0.1894721438466749
 40
0.2339150059350921
 40
0.2772371111508619
 40
0.3198588355644323
 40
0.3619566544332702
 40
0.4034857542265475
 40
0.4439336363338552
 40
0.4836491750513743
 40
0.5228932833172718
 40
0.5618583840947368
 40
0.6007948668981946
 40
0.6401043361891355
 40
0.6796434268265384
 40
0.7193997691904886
 40
0.7588541926680972
 40
0.7983154646830742
 40
0.8378024081343659
 40
0.8774685864444087
 40
0.9176827969423332
 40
0.9583928898538524
 40
0.9999999999999999
 40
0.9999999999999999
 40
0.9999999999999999
 40
0.9999999999999999
 10
213.1121332970001
 20
105.108951775269
 30
0.0
 10
213.1125981553743
 20
105.1350263110429
 30
0.0
 10
213.113516598112
 20
105.1865430080577
 30
0.0
 10
213.1187011924701
 20
105.2625573898898
 30
0.0
 10
213.1282234130418
 20
105.3359205675447
 30
0.0
 10
213.1414470077207
 20
105.4066807977483
 30
0.0
 10
213.1581801451711
 20
105.4748953861207
 30
0.0
 10
213.1788353276478
 20
105.5405975665158
 30
0.0
 10
213.2031512679631
 20
105.603703273697
 30
0.0
 10
213.2310538350561
 20
105.6642820943517
 30
0.0
 10
213.2627284086262
 20
105.7216578090935
 30
0.0
 10
213.2972296322494
 20
105.7759119821484
 30
0.0
 10
213.3353804925976
 20
105.8261537841289
 30
0.0
 10
213.3760498734099
 20
105.8733430984982
 30
0.0
 10
213.4202535197274
 20
105.9166941702079
 30
0.0
 10
213.4678564530433
 20
105.956305199587
 30
0.0
 10
213.5184479755137
 20
105.9925374894241
 30
0.0
 10
213.5720207026846
 20
106.0250546737448
 30
0.0
 10
213.6278743766278
 20
106.0535868016519
 30
0.0
 10
213.6851793905283
 20
106.0790006165984
 30
0.0
 10
213.744163670789
 20
106.0998306925172
 30
0.0
 10
213.8043595733754
 20
106.1171500632898
 30
0.0
 10
213.8658966946034
 20
106.1309378913178
 30
0.0
 10
213.9289188226341
 20
106.1401578549215
 30
0.0
 10
213.9933677239996
 20
106.1461662975549
 30
0.0
 10
214.0368242067432
 20
106.1469805858058
 30
0.0
 10
214.0587892225226
 20
106.1473921666139
 30
0.0
  0
SPLINE
  5
12B
330
1F
100
AcDbEntity
  8
0
  6
Continuous
 62
     7
370
     0
100
AcDbSpline
210
0.0
220
0.0
230
1.0
 70
     8
 71
     3
 72
    31
 73
    27
 74
     0
 42
0.00000001
 43
0.00000001
 40
0.0
 40
0.0
 40
0.0
 40
0.0
 40
0.0491959188678573
 40
0.0962478839423339
 40
0.1413486305545651
 40
0.18465611934875
 40
0.226058682310063
 40
0.2661730836384061
 40
0.3052898413966903
 40
0.3432450951047079
 40
0.3808772760868657
 40
0.4184957931350257
 40
0.4563187508918002
 40
0.494236737091876
 40
0.533023528957667
 40
0.572473194333944
 40
0.613078809089891
 40
0.6549344546107934
 40
0.6973967795046183
 40
0.7398840686663997
 40
0.7821947798191174
 40
0.8250615348667028
 40
0.8679874655774052
 40
0.9114105439600777
 40
0.9553719455228146
 40
1.0
 40
1.0
 40
1.0
 40
1.0
 10
214.0645514759823
 20
104.0400537584942
 30
0.0
 10
214.0379240861449
 20
104.0404406066577
 30
0.0
 10
213.9858297257642
 20
104.0411974441757
 30
0.0
 10
213.9095144911856
 20
104.0473533594649
 30
0.0
 10
213.8369312093124
 20
104.0580298365343
 30
0.0
 10
213.768215427771
 20
104.0728632734367
 30
0.0
 10
213.7031358574179
 20
104.0912038960259
 30
0.0
 10
213.6419623654926
 20
104.1142780244307
 30
0.0
 10
213.5848020994728
 20
104.1419191702871
 30
0.0
 10
213.531178266786
 20
104.1733542967409
 30
0.0
 10
213.4813186261363
 20
104.2090660159478
 30
0.0
 10
213.4340893518814
 20
104.2480905656666
 30
0.0
 10
213.3906370137656
 20
104.2915022486378
 30
0.0
 10
213.3498751389871
 20
104.3382760747676
 30
0.0
 10
213.3126915360054
 20
104.3890290558052
 30
0.0
 10
213.2777182119376
 20
104.443071691186
 30
0.0
 10
213.246662194582
 20
104.5013562098707
 30
0.0
 10
213.21837257193
 20
104.5628020153963
 30
0.0
 10
213.1935421654644
 20
104.6268142019729
 30
0.0
 10
213.1715759409453
 20
104.6921283520985
 30
0.0
 10
213.1536173515365
 20
104.7588746112642
 30
0.0
 10
213.1381561649332
 20
104.8264913213046
 30
0.0
 10
213.1269243620299
 20
104.8955474303514
 30
0.0
 10
213.1180066582705
 20
104.9655248062562
 30
0.0
 10
213.1131035254535
 20
105.0368524708715
 30
0.0
 10
213.1124583249045
 20
105.0847984063017
 30
0.0
 10
213.1121332970001
 20
105.108951775269
 30
0.0
  0
SPLINE
  5
12C
330
1F
100
AcDbEntity
  8
0
  6
Continuous
 62
     7
370
     0
100
AcDbSpline
210
0.0
220
0.0
230
1.0
 70
     8
 71
     3
 72
    23
 73
    19
 74
     0
 42
0.00000001
 43
0.00000001
 40
0.0
 40
0.0
 40
0.0
 40
0.0
 40
0.0715783870982365
 40
0.140016209075356
 40
0.206197439946981
 40
0.2701561038056543
 40
0.3320010402688309
 40
0.3927550109285565
 40
0.4525790344906381
 40
0.512252798847904
 40
0.5715322524285594
 40
0.630151752872219
 40
0.6887691695485558
 40
0.7481639008503594
 40
0.8087033721996509
 40
0.8702562984804197
 40
0.9339000275070017
 40
1.0
 40
1.0
 40
1.0
 40
1.0
 10
214.9033709439018
 20
104.7241155620675
 30
0.0
 10
214.8961116713254
 20
104.6969572530171
 30
0.0
 10
214.8819116331853
 20
104.6438322297764
 30
0.0
 10
214.8538364328745
 20
104.5678044409236
 30
0.0
 10
214.822325463618
 20
104.4964556040685
 30
0.0
 10
214.7866141266137
 20
104.4299736647122
 30
0.0
 10
214.7463115645652
 20
104.3687408527196
 30
0.0
 10
214.702485632546
 20
104.311970208334
 30
0.0
 10
214.6534004470887
 20
104.2608522656828
 30
0.0
 10
214.6008570022869
 20
104.2142072493341
 30
0.0
 10
214.5444461900693
 20
104.1730664693794
 30
0.0
 10
214.4848481315576
 20
104.1375406511526
 30
0.0
 10
214.4223509109519
 20
104.1073153912633
 30
0.0
 10
214.3567019339696
 20
104.0824599934392
 30
0.0
 10
214.287858639806
 20
104.0637541755348
 30
0.0
 10
214.2161755037031
 20
104.0501202795558
 30
0.0
 10
214.1414435023731
 20
104.041722593702
 30
0.0
 10
214.0905036077271
 20
104.0406170136613
 30
0.0
 10
214.0645514759823
 20
104.0400537584942
 30
0.0
  0
LINE
  5
12D
330
1F
100
AcDbEntity
  8
0
  6
Continuous
 62
     7
370
     0
100
AcDbLine
 10
214.6136119128
 20
104.7916162455
 30
0.0
 11
214.9033709439
 21
104.7241155621
 31
0.0
  0
SPLINE
  5
12E
330
1F
100
AcDbEntity
  8
0
  6
Continuous
 62
     7
370
     0
100
AcDbSpline
210
0.0
220
0.0
230
1.0
 70
     8
 71
     3
 72
    23
 73
    19
 74
     0
 42
0.00000001
 43
0.00000001
 40
0.0
 40
0.0
 40
0.0
 40
0.0
 40
0.0633358805656859
 40
0.1251107589802128
 40
0.1846884118917139
 40
0.2432104439678636
 40
0.3008880404131166
 40
0.3583701155312992
 40
0.4157614077031931
 40
0.4743866229897765
 40
0.533966264972407
 40
0.5940075641988068
 40
0.6550724073076799
 40
0.7186100426051375
 40
0.7843747830517759
 40
0.8529914722129185
 40
0.9249004292977553
 40
0.9999999999999999
 40
0.9999999999999999
 40
0.9999999999999999
 40
0.9999999999999999
 10
214.0373865668151
 20
104.2771293294077
 30
0.0
 10
214.0552426723491
 20
104.2775038094995
 30
0.0
 10
214.0905147944989
 20
104.2782435400928
 30
0.0
 10
214.1422282042821
 20
104.2847184435843
 30
0.0
 10
214.1920792184027
 20
104.2942600608024
 30
0.0
 10
214.2394638987926
 20
104.3089837396663
 30
0.0
 10
214.2850196229704
 20
104.3270111593695
 30
0.0
 10
214.3283731398127
 20
104.3492421206784
 30
0.0
 10
214.3693881092246
 20
104.3759794786335
 30
0.0
 10
214.408546957397
 20
104.4063372371381
 30
0.0
 10
214.4451275605702
 20
104.4408791785986
 30
0.0
 10
214.4786517168143
 20
104.4793270163659
 30
0.0
 10
214.5087266726616
 20
104.5218560285024
 30
0.0
 10
214.5366137249322
 20
104.5677836864473
 30
0.0
 10
214.5600439742114
 20
104.6184820189816
 30
0.0
 10
214.5817459173718
 20
104.6724399319828
 30
0.0
 10
214.5998295441234
 20
104.7305442716955
 30
0.0
 10
214.608951794686
 20
104.7709664850778
 30
0.0
 10
214.6136119127854
 20
104.7916162454525
 30
0.0
  0
SPLINE
  5
12F
330
1F
100
AcDbEntity
  8
0
  6
Continuous
 62
     7
370
     0
100
AcDbSpline
210
0.0
220
0.0
230
1.0
 70
     8
 71
     3
 72
    27
 73
    23
 74
     0
 42
0.00000001
 43
0.00000001
 40
0.0
 40
0.0
 40
0.0
 40
0.0
 40
0.1053432609984026
 40
0.2043754661654296
 40
0.2980686612490644
 40
0.3870699389029766
 40
0.4297257277325169
 40
0.4709012389537418
 40
0.5111216710274202
 40
0.5501787824700682
 40
0.5883543698960263
 40
0.6266830105708967
 40
0.6644516852874771
 40
0.7025148539501567
 40
0.7404811716294022
 40
0.777618121594641
 40
0.8147160450669567
 40
0.8515265100150813
 40
0.8880984508373161
 40
0.9251116757437154
 40
0.9621036957071507
 40
1.0
 40
1.0
 40
1.0
 40
1.0
 10
213.4018923281166
 20
105.1101865438675
 30
0.0
 10
213.402650454253
 20
105.068570546639
 30
0.0
 10
213.4041212876133
 20
104.9878317432937
 30
0.0
 10
213.4186347977141
 20
104.870827880828
 30
0.0
 10
213.4407626340944
 20
104.761694771135
 30
0.0
 10
213.4674677446196
 20
104.676549200893
 30
0.0
 10
213.494255653649
 20
104.6137442251432
 30
0.0
 10
213.5159203685069
 20
104.5697609948683
 30
0.0
 10
213.5406497762239
 20
104.529061047322
 30
0.0
 10
213.5678287662976
 20
104.4914132425485
 30
0.0
 10
213.597807432647
 20
104.4569273980842
 30
0.0
 10
213.6301681117575
 20
104.4254203226998
 30
0.0
 10
213.6649180321221
 20
104.3965888441529
 30
0.0
 10
213.7024689480323
 20
104.3717826163491
 30
0.0
 10
213.7413754775273
 20
104.3497568491225
 30
0.0
 10
213.7811466515532
 20
104.3301711162857
 30
0.0
 10
213.8218075104776
 20
104.3136063702996
 30
0.0
 10
213.863522103693
 20
104.3007385392005
 30
0.0
 10
213.9057046467224
 20
104.2896189441638
 30
0.0
 10
213.9488197368049
 20
104.2823551028001
 30
0.0
 10
213.9928550791928
 20
104.2782556195891
 30
0.0
 10
214.0224237227888
 20
104.2775077695904
 30
0.0
 10
214.0373865668151
 20
104.2771293294077
 30
0.0
  0
SPLINE
  5
130
330
1F
100
AcDbEntity
  8
0
  6
Continuous
 62
     7
370
     0
100
AcDbSpline
210
0.0
220
0.0
230
1.0
 70
     8
 71
     3
 72
    23
 73
    19
 74
     0
 42
0.00000001
 43
0.00000001
 40
0.0
 40
0.0
 40
0.0
 40
0.0
 40
0.0704642259291749
 40
0.137956965604269
 40
0.2035785636142838
 40
0.2676916802449431
 40
0.3301858648593746
 40
0.3915337640898192
 40
0.4526637734870356
 40
0.5131537880892133
 40
0.5734535531000283
 40
0.6329675593891928
 40
0.6923319074206212
 40
0.75147419157163
 40
0.8121874455294295
 40
0.872961717848316
 40
0.935420306759491
 40
1.0
 40
1.0
 40
1.0
 40
1.0
 10
228.6615742580065
 20
108.3074140349365
 30
0.0
 10
228.6767324427049
 20
108.3026688730739
 30
0.0
 10
228.7064095893349
 20
108.2933786534875
 30
0.0
 10
228.749073570614
 20
108.2763788546864
 30
0.0
 10
228.7891220192082
 20
108.2570221508261
 30
0.0
 10
228.8266421095341
 20
108.2352767333681
 30
0.0
 10
228.8613803230869
 20
108.2109412290354
 30
0.0
 10
228.8932386415566
 20
108.1839777001091
 30
0.0
 10
228.9224379567583
 20
108.1548034001732
 30
0.0
 10
228.9489261012525
 20
108.1234360756022
 30
0.0
 10
228.9721931572183
 20
108.0900775818237
 30
0.0
 10
228.9930607997844
 20
108.0554570037675
 30
0.0
 10
229.0102923912712
 20
108.0191574333815
 30
0.0
 10
229.0244164993121
 20
107.9812731134333
 30
0.0
 10
229.0354354033668
 20
107.9420381359648
 30
0.0
 10
229.0433481759092
 20
107.901301596237
 30
0.0
 10
229.0478582542379
 20
107.8591583165255
 30
0.0
 10
229.0485356535994
 20
107.8305295282417
 30
0.0
 10
229.048880008405
 20
107.8159761327305
 30
0.0
  0
SPLINE
  5
131
330
1F
100
AcDbEntity
  8
0
  6
Continuous
 62
     7
370
     0
100
AcDbSpline
210
0.0
220
0.0
230
1.0
 70
     8
 71
     3
 72
    15
 73
    11
 74
     0
 42
0.00000001
 43
0.00000001
 40
0.0
 40
0.0
 40
0.0
 40
0.0
 40
0.1158426906010177
 40
0.230568548482884
 40
0.3473546045205447
 40
0.468252746734463
 40
0.5923025714800847
 40
0.7199701656206966
 40
0.8556003811349102
 40
1.0
 40
1.0
 40
1.0
 40
1.0
 10
228.9698548181005
 20
108.7494611932023
 30
0.0
 10
228.9688961214021
 20
108.7274278135498
 30
0.0
 10
228.966987970745
 20
108.6835734767911
 30
0.0
 10
228.9518012263863
 20
108.6189733714223
 30
0.0
 10
228.9278318975534
 20
108.5562470713412
 30
0.0
 10
228.8939385879987
 20
108.4961571394862
 30
0.0
 10
228.8506186899832
 20
108.4398029074935
 30
0.0
 10
228.7969143870126
 20
108.3890910820691
 30
0.0
 10
228.7335974050352
 20
108.3439129819766
 30
0.0
 10
228.6860780121661
 20
108.3198317265017
 30
0.0
 10
228.6615742580065
 20
108.3074140349365
 30
0.0
  0
SPLINE
  5
132
330
1F
100
AcDbEntity
  8
0
  6
Continuous
 62
     7
370
     0
100
AcDbSpline
210
0.0
220
0.0
230
1.0
 70
     8
 71
     3
 72
    23
 73
    19
 74
     0
 42
0.00000001
 43
0.00000001
 40
0.0
 40
0.0
 40
0.0
 40
0.0
 40
0.058732037100865
 40
0.1146029008469815
 40
0.1676568100446119
 40
0.2179667070908431
 40
0.2657752056293756
 40
0.3111706510536959
 40
0.3537918046646694
 40
0.3947449080003074
 40
0.4728059510824632
 40
0.5491923665616071
 40
0.6247801075795555
 40
0.7026247640242252
 40
0.7797414321940389
 40
0.8540634639886253
 40
0.92715526641035
 40
1.0
 40
1.0
 40
1.0
 40
1.0
 10
228.2903204993885
 20
109.2820580486919
 30
0.0
 10
228.3093968958578
 20
109.281984867034
 30
0.0
 10
228.3466203684464
 20
109.2818420688153
 30
0.0
 10
228.4009743355635
 20
109.2782708332231
 30
0.0
 10
228.4524516011906
 20
109.2733861235543
 30
0.0
 10
228.5011629839327
 20
109.2670895829932
 30
0.0
 10
228.5468977101584
 20
109.2579534304999
 30
0.0
 10
228.5896131603039
 20
109.2468855924796
 30
0.0
 10
228.6295316246255
 20
109.2341191988978
 30
0.0
 10
228.6783258642464
 20
109.214671846365
 30
0.0
 10
228.7345558758647
 20
109.1847382370484
 30
0.0
 10
228.7947835601316
 20
109.1400725685316
 30
0.0
 10
228.8471839854413
 20
109.0864451226901
 30
0.0
 10
228.8903018294349
 20
109.024958219354
 30
0.0
 10
228.9258262825645
 20
108.9592786103744
 30
0.0
 10
228.9510127039526
 20
108.8906575546649
 30
0.0
 10
228.9671157473058
 20
108.8205890998226
 30
0.0
 10
228.9689428255763
 20
108.7731437205868
 30
0.0
 10
228.9698548181005
 20
108.7494611932023
 30
0.0
  0
LINE
  5
133
330
1F
100
AcDbEntity
  8
0
  6
Continuous
 62
     7
370
     0
100
AcDbLine
 10
227.5210596625
 20
109.2820580487
 30
0.0
 11
228.2903204994
 21
109.2820580487
 31
0.0
  0
LINE
  5
134
330
1F
100
AcDbEntity
  8
0
  6
Continuous
 62
     7
370
     0
100
AcDbLine
 10
227.5210596625
 20
107.2274031008
 30
0.0
 11
227.5210596625
 21
109.2820580487
 31
0.0
  0
LINE
  5
135
330
1F
100
AcDbEntity
  8
0
  6
Continuous
 62
     7
370
     0
100
AcDbLine
 10
228.2923784471
 20
107.2274031008
 30
0.0
 11
227.5210596625
 21
107.2274031008
 31
0.0
  0
SPLINE
  5
136
330
1F
100
AcDbEntity
  8
0
  6
Continuous
 62
     7
370
     0
100
AcDbSpline
210
0.0
220
0.0
230
1.0
 70
     8
 71
     3
 72
    23
 73
    19
 74
     0
 42
0.00000001
 43
0.00000001
 40
0.0
 40
0.0
 40
0.0
 40
0.0
 40
0.0642545754247028
 40
0.1273603868320974
 40
0.1894718420926419
 40
0.2517207629332009
 40
0.3120272840890018
 40
0.3686746571150508
 40
0.4226814918055483
 40
0.4740604252251505
 40
0.5257737722739171
 40
0.5796221048577144
 40
0.6373752855308656
 40
0.698400381820801
 40
0.7643573310122576
 40
0.8363147679791493
 40
0.9146777942540467
 40
1.0
 40
1.0
 40
1.0
 40
1.0
 10
229.048880008405
 20
107.8159761327305
 30
0.0
 10
229.0481702406449
 20
107.7926108598566
 30
0.0
 10
229.0467633945814
 20
107.7462980459909
 30
0.0
 10
229.0354648523159
 20
107.6781333723433
 30
0.0
 10
229.01637091495
 20
107.6125647012774
 30
0.0
 10
228.990089734025
 20
107.5506521989655
 30
0.0
 10
228.9587746490501
 20
107.4934049754501
 30
0.0
 10
228.9231839578164
 20
107.4423219496829
 30
0.0
 10
228.8842252965949
 20
107.3979287624772
 30
0.0
 10
228.8408016295308
 20
107.360586157125
 30
0.0
 10
228.7931930579065
 20
107.3288932130808
 30
0.0
 10
228.7400549142183
 20
107.3022056815507
 30
0.0
 10
228.6817980529827
 20
107.2786698362814
 30
0.0
 10
228.6172384359873
 20
107.2598685342617
 30
0.0
 10
228.5464054506203
 20
107.244932804444
 30
0.0
 10
228.4683378283453
 20
107.2352290364614
 30
0.0
 10
228.3829156300172
 20
107.228282439442
 30
0.0
 10
228.3234009426931
 20
107.2277044054885
 30
0.0
 10
228.2923784470527
 20
107.2274031007752
 30
0.0
  0
LINE
  5
137
330
1F
100
AcDbEntity
  8
0
  6
Continuous
 62
     7
370
     0
100
AcDbLine
 10
224.3337103202
 20
107.4644786717
 30
0.0
 11
225.308354334
 21
107.4644786717
 31
0.0
  0
LINE
  5
138
330
1F
100
AcDbEntity
  8
0
  6
Continuous
 62
     7
370
     0
100
AcDbLine
 10
224.3337103202
 20
109.2820580487
 30
0.0
 11
224.3337103202
 21
107.4644786717
 31
0.0
  0
LINE
  5
139
330
1F
100
AcDbEntity
  8
0
  6
Continuous
 62
     7
370
     0
100
AcDbLine
 10
224.0439512891
 20
109.2820580487
 30
0.0
 11
224.3337103202
 21
109.2820580487
 31
0.0
  0
LINE
  5
13A
330
1F
100
AcDbEntity
  8
0
  6
Continuous
 62
     7
370
     0
100
AcDbLine
 10
224.0439512891
 20
107.2274031008
 30
0.0
 11
224.0439512891
 21
109.2820580487
 31
0.0
  0
LINE
  5
13B
330
1F
100
AcDbEntity
  8
0
  6
Continuous
 62
     7
370
     0
100
AcDbLine
 10
225.308354334
 20
107.2274031008
 30
0.0
 11
224.0439512891
 21
107.2274031008
 31
0.0
  0
LINE
  5
13C
330
1F
100
AcDbEntity
  8
0
  6
Continuous
 62
     7
370
     0
100
AcDbLine
 10
225.308354334
 20
107.4644786717
 30
0.0
 11
225.308354334
 21
107.2274031008
 31
0.0
  0
SPLINE
  5
13D
330
1F
100
AcDbEntity
  8
0
  6
Continuous
 62
     7
370
     0
100
AcDbSpline
210
0.0
220
0.0
230
1.0
 70
     8
 71
     3
 72
    31
 73
    27
 74
     0
 42
0.00000001
 43
0.00000001
 40
0.0
 40
0.0
 40
0.0
 40
0.0
 40
0.0430989705688971
 40
0.0855867603450731
 40
0.1269076657436393
 40
0.1679674856215211
 40
0.2084495586010657
 40
0.2490254246415443
 40
0.289280534171679
 40
0.330009848982731
 40
0.3705977240995771
 40
0.4104659863326995
 40
0.4500332158929485
 40
0.4896882096042474
 40
0.5291164230741915
 40
0.5690368070925097
 40
0.6097030542359448
 40
0.6507589174942197
 40
0.6925092624061777
 40
0.7342191213706863
 40
0.7767069111468624
 40
0.8195518402403215
 40
0.8633507288313336
 40
0.9078385251300617
 40
0.9533337036124182
 40
1.0
 40
1.0
 40
1.0
 40
1.0
 10
220.6471028746264
 20
109.3083997787934
 30
0.0
 10
220.6703005996366
 20
109.3079947028432
 30
0.0
 10
220.7163670857913
 20
109.3071902952711
 30
0.0
 10
220.7844722741117
 20
109.3010698279184
 30
0.0
 10
220.8508273986164
 20
109.2901458540039
 30
0.0
 10
220.9153671161412
 20
109.2755065039528
 30
0.0
 10
220.9782671041902
 20
109.2563003133173
 30
0.0
 10
221.0395649254555
 20
109.2336279896956
 30
0.0
 10
221.0987239860051
 20
109.2055337882821
 30
0.0
 10
221.1561378552981
 20
109.1740795341322
 30
0.0
 10
221.2111288051314
 20
109.138896590804
 30
0.0
 10
221.2628091620911
 20
109.1000300647042
 30
0.0
 10
221.3110551353903
 20
109.0577739016495
 30
0.0
 10
221.3565147993143
 20
109.0128226777869
 30
0.0
 10
221.3976712288688
 20
108.9636593520486
 30
0.0
 10
221.4362247008047
 20
108.9117815235657
 30
0.0
 10
221.4710673584664
 20
108.8562693143733
 30
0.0
 10
221.5023228312683
 20
108.7975775530411
 30
0.0
 10
221.5302684001184
 20
108.7366127230865
 30
0.0
 10
221.5541532851447
 20
108.6731221501244
 30
0.0
 10
221.5746628000913
 20
108.6078674480032
 30
0.0
 10
221.5918309944135
 20
108.5404623785965
 30
0.0
 10
221.6041496370493
 20
108.470929985584
 30
0.0
 10
221.6139591053669
 20
108.3995698771771
 30
0.0
 10
221.6191220995592
 20
108.326148824539
 30
0.0
 10
221.6200448710824
 20
108.2765515951127
 30
0.0
 10
221.6205121197832
 20
108.2514378584709
 30
0.0
  0
SPLINE
  5
13E
330
1F
100
AcDbEntity
  8
0
  6
Continuous
 62
     7
370
     0
100
AcDbSpline
210
0.0
220
0.0
230
1.0
 70
     8
 71
     3
 72
    23
 73
    19
 74
     0
 42
0.00000001
 43
0.00000001
 40
0.0
 40
0.0
 40
0.0
 40
0.0
 40
0.0752263466908988
 40
0.1465747215268522
 40
0.2145002518264754
 40
0.2795299716530227
 40
0.3424029515883814
 40
0.4034960527288082
 40
0.4637616065030392
 40
0.5238643590795866
 40
0.5832517242549664
 40
0.6413020392831351
 40
0.6988977748564887
 40
0.7562952438113087
 40
0.814627804812969
 40
0.874324768339998
 40
0.9357832838625451
 40
1.0
 40
1.0
 40
1.0
 40
1.0
 10
219.6712240922726
 20
108.2275656655664
 30
0.0
 10
219.6719382112665
 20
108.268759726332
 30
0.0
 10
219.6733296359107
 20
108.3490242646339
 30
0.0
 10
219.686330466245
 20
108.4658997747459
 30
0.0
 10
219.7074404776924
 20
108.5758643415836
 30
0.0
 10
219.7376191069895
 20
108.6789093981276
 30
0.0
 10
219.7758706063504
 20
108.7751964166789
 30
0.0
 10
219.8223726109904
 20
108.8649434244636
 30
0.0
 10
219.8785238704646
 20
108.9471345499652
 30
0.0
 10
219.942045253743
 20
109.0225521993003
 30
0.0
 10
220.0129957212579
 20
109.0892269291338
 30
0.0
 10
220.0885378031624
 20
109.1484436418033
 30
0.0
 10
220.1696147830888
 20
109.1978373810677
 30
0.0
 10
220.2554775719617
 20
109.2386203258999
 30
0.0
 10
220.3464909637268
 20
109.2699322899873
 30
0.0
 10
220.4423994204373
 20
109.2918535140121
 30
0.0
 10
220.5431003686336
 20
109.3059948337684
 30
0.0
 10
220.6119318234976
 20
109.3075864864248
 30
0.0
 10
220.6471028746264
 20
109.3083997787934
 30
0.0
  0
SPLINE
  5
13F
330
1F
100
AcDbEntity
  8
0
  6
Continuous
 62
     7
370
     0
100
AcDbSpline
210
0.0
220
0.0
230
1.0
 70
     8
 71
     3
 72
    31
 73
    27
 74
     0
 42
0.00000001
 43
0.00000001
 40
0.0
 40
0.0
 40
0.0
 40
0.0
 40
0.0446969998899166
 40
0.0885335629185872
 40
0.1314091332352273
 40
0.1738139421467782
 40
0.2157145332694449
 40
0.2572471603264206
 40
0.2988479641797117
 40
0.3406041827148141
 40
0.3820294481091343
 40
0.4229697500404856
 40
0.4636322295306196
 40
0.5040475437003945
 40
0.5445912057564575
 40
0.5849639251690936
 40
0.6262652162680831
 40
0.6679794005009904
 40
0.7099427472053506
 40
0.7513818550852256
 40
0.7926185649779642
 40
0.8339484357458206
 40
0.8750080506311037
 40
0.9164455302232758
 40
0.9579066137283071
 40
1.0
 40
1.0
 40
1.0
 40
1.0
 10
220.6458681060279
 20
107.2010613706737
 30
0.0
 10
220.6222535480303
 20
107.2014107509853
 30
0.0
 10
220.5754790226389
 20
107.2021027858841
 30
0.0
 10
220.5063450143653
 20
107.2090104738139
 30
0.0
 10
220.4389309515602
 20
107.2195483923768
 30
0.0
 10
220.373432818903
 20
107.2347619631384
 30
0.0
 10
220.3099401169932
 20
107.2546091410945
 30
0.0
 10
220.2483777194334
 20
107.2786315373034
 30
0.0
 10
220.1885291047737
 20
107.3065080998894
 30
0.0
 10
220.1311368952774
 20
107.3390370261217
 30
0.0
 10
220.0763964305892
 20
107.3752056954992
 30
0.0
 10
220.024838275059
 20
107.4148343151581
 30
0.0
 10
219.9764909384567
 20
107.4575576721969
 30
0.0
 10
219.9321301976168
 20
107.5040819327311
 30
0.0
 10
219.8903193478059
 20
107.5527205742668
 30
0.0
 10
219.8527301746383
 20
107.6052814649583
 30
0.0
 10
219.8181350743766
 20
107.6605725788261
 30
0.0
 10
219.7875577727385
 20
107.7191268982611
 30
0.0
 10
219.7599357566605
 20
107.7792044108982
 30
0.0
 10
219.7366636114746
 20
107.8408243339141
 30
0.0
 10
219.7162119061501
 20
107.9030785534359
 30
0.0
 10
219.69992419309
 20
107.9663507784414
 30
0.0
 10
219.6869448678367
 20
108.03049505432
 30
0.0
 10
219.6782172121505
 20
108.0954046472369
 30
0.0
 10
219.6719140328522
 20
108.1611762289867
 30
0.0
 10
219.6714552298043
 20
108.2053244886279
 30
0.0
 10
219.6712240922726
 20
108.2275656655664
 30
0.0
  0
SPLINE
  5
140
330
1F
100
AcDbEntity
  8
0
  6
Continuous
 62
     7
370
     0
100
AcDbSpline
210
0.0
220
0.0
230
1.0
 70
     8
 71
     3
 72
    31
 73
    27
 74
     0
 42
0.00000001
 43
0.00000001
 40
0.0
 40
0.0
 40
0.0
 40
0.0
 40
0.0475595569054264
 40
0.0939621052432108
 40
0.1391115332408221
 40
0.1836263101269046
 40
0.2274570284004935
 40
0.2707025105518544
 40
0.3136105321155538
 40
0.3562604510849768
 40
0.3983661529550377
 40
0.4395565149792805
 40
0.4800453830214204
 40
0.5198884957050125
 40
0.5596577503171973
 40
0.5994212546627414
 40
0.6392077550883983
 40
0.6796683749857805
 40
0.7200198525128482
 40
0.7598588655624577
 40
0.7995598848323807
 40
0.8391991446364382
 40
0.8789560762302789
 40
0.9187942693024661
 40
0.959083362843275
 40
1.0
 40
1.0
 40
1.0
 40
1.0
 10
221.6205121197832
 20
108.2514378584709
 30
0.0
 10
221.6200840182316
 20
108.2259099957508
 30
0.0
 10
221.6192382297999
 20
108.1754753012411
 30
0.0
 10
221.6135152791844
 20
108.1009678264671
 30
0.0
 10
221.6034523428
 20
108.0285993067678
 30
0.0
 10
221.5901055709885
 20
107.9581539523063
 30
0.0
 10
221.5722213042318
 20
107.889778415657
 30
0.0
 10
221.5509686014969
 20
107.8232766599668
 30
0.0
 10
221.5252622568358
 20
107.7590447829708
 30
0.0
 10
221.4962297945845
 20
107.696927972548
 30
0.0
 10
221.4633795758579
 20
107.6377805504077
 30
0.0
 10
221.4271435555709
 20
107.5820161032317
 30
0.0
 10
221.3874960628316
 20
107.5301562633584
 30
0.0
 10
221.345039338455
 20
107.481564842925
 30
0.0
 10
221.2987819054717
 20
107.437110747414
 30
0.0
 10
221.2492933609343
 20
107.396378298412
 30
0.0
 10
221.1967639880201
 20
107.358983342637
 30
0.0
 10
221.1410173147468
 20
107.3259386524339
 30
0.0
 10
221.0830537912024
 20
107.2969738011307
 30
0.0
 10
221.0240204241392
 20
107.271276759664
 30
0.0
 10
220.9638733622537
 20
107.2493613000992
 30
0.0
 10
220.9024070413064
 20
107.2316009983828
 30
0.0
 10
220.8397891353864
 20
107.2181800360632
 30
0.0
 10
220.7761958587249
 20
107.2081302779197
 30
0.0
 10
220.71141874375
 20
107.2023435926702
 30
0.0
 10
220.6678305991092
 20
107.2014909743008
 30
0.0
 10
220.6458681060279
 20
107.2010613706737
 30
0.0
  0
LINE
  5
141
330
1F
100
AcDbEntity
  8
0
  6
Continuous
 62
     7
370
     0
100
AcDbLine
 10
217.4058353035
 20
109.0449824778
 30
0.0
 11
216.747292051
 21
109.0449824778
 31
0.0
  0
LINE
  5
142
330
1F
100
AcDbEntity
  8
0
  6
Continuous
 62
     7
370
     0
100
AcDbLine
 10
217.4058353035
 20
109.2820580487
 30
0.0
 11
217.4058353035
 21
109.0449824778
 31
0.0
  0
LINE
  5
143
330
1F
100
AcDbEntity
  8
0
  6
Continuous
 62
     7
370
     0
100
AcDbLine
 10
215.7989897674
 20
109.2820580487
 30
0.0
 11
217.4058353035
 21
109.2820580487
 31
0.0
  0
LINE
  5
144
330
1F
100
AcDbEntity
  8
0
  6
Continuous
 62
     7
370
     0
100
AcDbLine
 10
215.7989897674
 20
109.0449824778
 30
0.0
 11
215.7989897674
 21
109.2820580487
 31
0.0
  0
LINE
  5
145
330
1F
100
AcDbEntity
  8
0
  6
Continuous
 62
     7
370
     0
100
AcDbLine
 10
216.4575330199
 20
109.0449824778
 30
0.0
 11
215.7989897674
 21
109.0449824778
 31
0.0
  0
LINE
  5
146
330
1F
100
AcDbEntity
  8
0
  6
Continuous
 62
     7
370
     0
100
AcDbLine
 10
216.4575330199
 20
107.2274031008
 30
0.0
 11
216.4575330199
 21
109.0449824778
 31
0.0
  0
LINE
  5
147
330
1F
100
AcDbEntity
  8
0
  6
Continuous
 62
     7
370
     0
100
AcDbLine
 10
216.747292051
 20
107.2274031008
 30
0.0
 11
216.4575330199
 21
107.2274031008
 31
0.0
  0
LINE
  5
148
330
1F
100
AcDbEntity
  8
0
  6
Continuous
 62
     7
370
     0
100
AcDbLine
 10
216.747292051
 20
109.0449824778
 30
0.0
 11
216.747292051
 21
107.2274031008
 31
0.0
  0
CIRCLE
  5
149
330
1F
100
AcDbEntity
  8
0
  6
Continuous
 62
     7
370
     0
100
AcDbCircle
 10
223.3985789016
 20
106.5274031008
 30
0.0
 40
25.19999999999996
  0
LINE
  5
14A
330
1F
100
AcDbEntity
  8
0
  6
Continuous
 62
     7
370
     0
100
AcDbLine
 10
219.0126808397
 20
108.2020471145
 30
0.0
 11
218.0116950959
 21
108.2020471145
 31
0.0
  0
LINE
  5
14B
330
1F
100
AcDbEntity
  8
0
  6
Continuous
 62
     7
370
     0
100
AcDbLine
 10
219.0126808397
 20
107.2274031008
 30
0.0
 11
219.0126808397
 21
108.2020471145
 31
0.0
  0
LINE
  5
14C
330
1F
100
AcDbEntity
  8
0
  6
Continuous
 62
     7
370
     0
100
AcDbLine
 10
219.3024398709
 20
107.2274031008
 30
0.0
 11
219.0126808397
 21
107.2274031008
 31
0.0
  0
LINE
  5
14D
330
1F
100
AcDbEntity
  8
0
  6
Continuous
 62
     7
370
     0
100
AcDbLine
 10
219.3024398709
 20
109.2820580487
 30
0.0
 11
219.3024398709
 21
107.2274031008
 31
0.0
  0
LINE
  5
14E
330
1F
100
AcDbEntity
  8
0
  6
Continuous
 62
     7
370
     0
100
AcDbLine
 10
219.0126808397
 20
109.2820580487
 30
0.0
 11
219.3024398709
 21
109.2820580487
 31
0.0
  0
LINE
  5
14F
330
1F
100
AcDbEntity
  8
0
  6
Continuous
 62
     7
370
     0
100
AcDbLine
 10
219.0126808397
 20
108.4391226854
 30
0.0
 11
219.0126808397
 21
109.2820580487
 31
0.0
  0
LINE
  5
150
330
1F
100
AcDbEntity
  8
0
  6
Continuous
 62
     7
370
     0
100
AcDbLine
 10
218.0116950959
 20
108.4391226854
 30
0.0
 11
219.0126808397
 21
108.4391226854
 31
0.0
  0
LINE
  5
151
330
1F
100
AcDbEntity
  8
0
  6
Continuous
 62
     7
370
     0
100
AcDbLine
 10
218.0116950959
 20
109.2820580487
 30
0.0
 11
218.0116950959
 21
108.4391226854
 31
0.0
  0
LINE
  5
152
330
1F
100
AcDbEntity
  8
0
  6
Continuous
 62
     7
370
     0
100
AcDbLine
 10
217.7219360648
 20
109.2820580487
 30
0.0
 11
218.0116950959
 21
109.2820580487
 31
0.0
  0
LINE
  5
153
330
1F
100
AcDbEntity
  8
0
  6
Continuous
 62
     7
370
     0
100
AcDbLine
 10
217.7219360648
 20
107.2274031008
 30
0.0
 11
217.7219360648
 21
109.2820580487
 31
0.0
  0
LINE
  5
154
330
1F
100
AcDbEntity
  8
0
  6
Continuous
 62
     7
370
     0
100
AcDbLine
 10
218.0116950959
 20
107.2274031008
 30
0.0
 11
217.7219360648
 21
107.2274031008
 31
0.0
  0
LINE
  5
155
330
1F
100
AcDbEntity
  8
0
  6
Continuous
 62
     7
370
     0
100
AcDbLine
 10
218.0116950959
 20
108.2020471145
 30
0.0
 11
218.0116950959
 21
107.2274031008
 31
0.0
  0
LINE
  5
156
330
1F
100
AcDbEntity
  8
0
  6
Continuous
 62
     7
370
     0
100
AcDbLine
 10
222.5758114255
 20
108.1493636543
 30
0.0
 11
222.2790553723
 21
108.1493636543
 31
0.0
  0
SPLINE
  5
157
330
1F
100
AcDbEntity
  8
0
  6
Continuous
 62
     7
370
     0
100
AcDbSpline
210
0.0
220
0.0
230
1.0
 70
     8
 71
     3
 72
    11
 73
     7
 74
     0
 42
0.00000001
 43
0.00000001
 40
0.0
 40
0.0
 40
0.0
 40
0.0
 40
0.1774946570818496
 40
0.4052256231013751
 40
0.6783881083348569
 40
0.9999999999999999
 40
0.9999999999999999
 40
0.9999999999999999
 40
0.9999999999999999
 10
222.7186329933893
 20
108.1398970950723
 30
0.0
 10
222.7102814127375
 20
108.1414031689015
 30
0.0
 10
222.6912145037434
 20
108.1448415806031
 30
0.0
 10
222.6588389398503
 20
108.1470872127673
 30
0.0
 10
222.6196119723051
 20
108.1494706508735
 30
0.0
 10
222.591183520428
 20
108.1494012054812
 30
0.0
 10
222.5758114254953
 20
108.1493636543276
 30
0.0
  0
SPLINE
  5
158
330
1F
100
AcDbEntity
  8
0
  6
Continuous
 62
     7
370
     0
100
AcDbSpline
210
0.0
220
0.0
230
1.0
 70
     8
 71
     3
 72
    21
 73
    17
 74
     0
 42
0.00000001
 43
0.00000001
 40
0.0
 40
0.0
 40
0.0
 40
0.0
 40
0.0807814705861227
 40
0.1565412257955895
 40
0.227934986843486
 40
0.2943103173046012
 40
0.3568678635548113
 40
0.4147585592592751
 40
0.4676413968340161
 40
0.5167484215300129
 40
0.604729741894053
 40
0.6815706529393896
 40
0.7481095416219826
 40
0.8049410995352804
 40
0.9054060495000024
 40
1.0
 40
1.0
 40
1.0
 40
1.0
 10
223.1499788238013
 20
107.6612184683842
 30
0.0
 10
223.1407740372505
 20
107.6764394019981
 30
0.0
 10
223.1229366723278
 20
107.7059350720867
 30
0.0
 10
223.0971712377332
 20
107.7490120783381
 30
0.0
 10
223.0719090762315
 20
107.788671326198
 30
0.0
 10
223.048478853541
 20
107.826046298553
 30
0.0
 10
223.025929731964
 20
107.8604584712125
 30
0.0
 10
223.0044795887896
 20
107.8920273853598
 30
0.0
 10
222.9847187414833
 20
107.9211671839077
 30
0.0
 10
222.9602423773271
 20
107.9550934927567
 30
0.0
 10
222.9317559547074
 20
107.9926332683183
 30
0.0
 10
222.898514254035
 20
108.0312921483326
 30
0.0
 10
222.8668582991952
 20
108.0621143584045
 30
0.0
 10
222.827873406598
 20
108.0923388140676
 30
0.0
 10
222.7795847191691
 20
108.1206087119095
 30
0.0
 10
222.7385384233276
 20
108.1335979533375
 30
0.0
 10
222.7186329933893
 20
108.1398970950723
 30
0.0
  0
LINE
  5
159
330
1F
100
AcDbEntity
  8
0
  6
Continuous
 62
     7
370
     0
100
AcDbLine
 10
223.4059875132
 20
107.2274031008
 30
0.0
 11
223.1499788238
 21
107.6612184684
 31
0.0
  0
LINE
  5
15A
330
1F
100
AcDbEntity
  8
0
  6
Continuous
 62
     7
370
     0
100
AcDbLine
 10
223.7381402662
 20
107.2274031008
 30
0.0
 11
223.4059875132
 21
107.2274031008
 31
0.0
  0
LINE
  5
15B
330
1F
100
AcDbEntity
  8
0
  6
Continuous
 62
     7
370
     0
100
AcDbLine
 10
223.4010484388
 20
107.794573477
 30
0.0
 11
223.7381402662
 21
107.2274031008
 31
0.0
  0
SPLINE
  5
15C
330
1F
100
AcDbEntity
  8
0
  6
Continuous
 62
     7
370
     0
100
AcDbSpline
210
0.0
220
0.0
230
1.0
 70
     8
 71
     3
 72
    11
 73
     7
 74
     0
 42
0.00000001
 43
0.00000001
 40
0.0
 40
0.0
 40
0.0
 40
0.0
 40
0.2295275697008571
 40
0.4714659343032296
 40
0.7281863484998701
 40
1.0
 40
1.0
 40
1.0
 40
1.0
 10
223.1845523445595
 20
108.0744543593514
 30
0.0
 10
223.2039621544315
 20
108.0554270734727
 30
0.0
 10
223.2438312828236
 20
108.0163436765381
 30
0.0
 10
223.2987726735117
 20
107.9497732026163
 30
0.0
 10
223.3520402386804
 20
107.8756700500449
 30
0.0
 10
223.3844043008519
 20
107.8221154505473
 30
0.0
 10
223.4010484388312
 20
107.7945734770231
 30
0.0
  0
SPLINE
  5
15D
330
1F
100
AcDbEntity
  8
0
  6
Continuous
 62
     7
370
     0
100
AcDbSpline
210
0.0
220
0.0
230
1.0
 70
     8
 71
     3
 72
    11
 73
     7
 74
     0
 42
0.00000001
 43
0.00000001
 40
0.0
 40
0.0
 40
0.0
 40
0.0
 40
0.2930762433192213
 40
0.5565623371181898
 40
0.7919136092098108
 40
1.0
 40
1.0
 40
1.0
 40
1.0
 10
223.0248556058192
 20
108.1757053844291
 30
0.0
 10
223.0413974528261
 20
108.1673488081939
 30
0.0
 10
223.0728110158162
 20
108.1514793690779
 30
0.0
 10
223.1163034830339
 20
108.1265962263715
 30
0.0
 10
223.1531705419585
 20
108.1011717862523
 30
0.0
 10
223.1745294973555
 20
108.0829874793547
 30
0.0
 10
223.1845523445595
 20
108.0744543593514
 30
0.0
  0
SPLINE
  5
15E
330
1F
100
AcDbEntity
  8
0
  6
Continuous
 62
     7
370
     0
100
AcDbSpline
210
0.0
220
0.0
230
1.0
 70
     8
 71
     3
 72
    23
 73
    19
 74
     0
 42
0.00000001
 43
0.00000001
 40
0.0
 40
0.0
 40
0.0
 40
0.0
 40
0.0614130692946597
 40
0.1212950233845471
 40
0.1792240423087199
 40
0.2359380947348322
 40
0.292216833267361
 40
0.3481966394342069
 40
0.4044447389633588
 40
0.4620255339229974
 40
0.5203342118681488
 40
0.5803829016508381
 40
0.641825904813988
 40
0.7063632097966277
 40
0.7738513938275595
 40
0.8452662573568828
 40
0.920154675768406
 40
1.0
 40
1.0
 40
1.0
 40
1.0
 10
223.5698001472939
 20
108.7280585374948
 30
0.0
 10
223.5693980870181
 20
108.7104826888695
 30
0.0
 10
223.5686039904014
 20
108.6757691825346
 30
0.0
 10
223.5625211304376
 20
108.6247310364673
 30
0.0
 10
223.5515146864587
 20
108.5759661402481
 30
0.0
 10
223.5374010914615
 20
108.5290474196583
 30
0.0
 10
223.5180838855333
 20
108.4846396379737
 30
0.0
 10
223.4957057409242
 20
108.4418357527205
 30
0.0
 10
223.4679824013575
 20
108.4018117008258
 30
0.0
 10
223.4369430570094
 20
108.3635017059597
 30
0.0
 10
223.4013492526871
 20
108.3277262659318
 30
0.0
 10
223.3608878704541
 20
108.2957760706604
 30
0.0
 10
223.3159599947076
 20
108.2670368060577
 30
0.0
 10
223.2663540331886
 20
108.2423013996007
 30
0.0
 10
223.212641000386
 20
108.2196920637706
 30
0.0
 10
223.1541469452858
 20
108.2014859371823
 30
0.0
 10
223.0911079450167
 20
108.1866192387621
 30
0.0
 10
223.0474063797429
 20
108.1794202096667
 30
0.0
 10
223.0248556058192
 20
108.1757053844291
 30
0.0
  0
SPLINE
  5
15F
330
1F
100
AcDbEntity
  8
0
  6
Continuous
 62
     7
370
     0
100
AcDbSpline
210
0.0
220
0.0
230
1.0
 70
     8
 71
     3
 72
    27
 73
    23
 74
     0
 42
0.00000001
 43
0.00000001
 40
0.0
 40
0.0
 40
0.0
 40
0.0
 40
0.0621127506505295
 40
0.1202119588785538
 40
0.1743851213884739
 40
0.2254437557784867
 40
0.2723582126361769
 40
0.3163881629634409
 40
0.3568694790582284
 40
0.3939783235063669
 40
0.4295893718770922
 40
0.4646830409549871
 40
0.5000363461428401
 40
0.535482747753064
 40
0.5713634671484438
 40
0.6079085322052602
 40
0.645662298533116
 40
0.6845173397035776
 40
0.7625786223763463
 40
0.8404972886541806
 40
0.9190729926935233
 40
1.0
 40
1.0
 40
1.0
 40
1.0
 10
222.8807992693267
 20
109.2820580486919
 30
0.0
 10
222.9017914335132
 20
109.2818935663986
 30
0.0
 10
222.9424193102622
 20
109.2815752301719
 30
0.0
 10
223.0013381202957
 20
109.2793217712184
 30
0.0
 10
223.0563329228916
 20
109.2744639048622
 30
0.0
 10
223.1075048350916
 20
109.2692107994412
 30
0.0
 10
223.1548447651138
 20
109.2611479842304
 30
0.0
 10
223.1983038736417
 20
109.2519001173272
 30
0.0
 10
223.2379492593412
 20
109.240895015896
 30
0.0
 10
223.2739581610666
 20
109.2278971427218
 30
0.0
 10
223.3073665700894
 20
109.213191996434
 30
0.0
 10
223.3383336417426
 20
109.1950482200738
 30
0.0
 10
223.3681466372827
 20
109.1751665098608
 30
0.0
 10
223.3956990924381
 20
109.1518084674283
 30
0.0
 10
223.4217177059087
 20
109.1262335729687
 30
0.0
 10
223.4461783628259
 20
109.0980943179253
 30
0.0
 10
223.4687189426286
 20
109.0671465108329
 30
0.0
 10
223.4965200484128
 20
109.0228537808607
 30
0.0
 10
223.5263449667438
 20
108.9638651919045
 30
0.0
 10
223.5511938083903
 20
108.8883725795365
 30
0.0
 10
223.5672158969626
 20
108.8094045514834
 30
0.0
 10
223.5689303062168
 20
108.7554390522885
 30
0.0
 10
223.5698001472939
 20
108.7280585374948
 30
0.0
  0
LINE
  5
160
330
1F
100
AcDbEntity
  8
0
  6
Continuous
 62
     7
370
     0
100
AcDbLine
 10
221.9892963412
 20
109.2820580487
 30
0.0
 11
222.8807992693
 21
109.2820580487
 31
0.0
  0
LINE
  5
161
330
1F
100
AcDbEntity
  8
0
  6
Continuous
 62
     7
370
     0
100
AcDbLine
 10
221.9892963412
 20
107.2274031008
 30
0.0
 11
221.9892963412
 21
109.2820580487
 31
0.0
  0
LINE
  5
162
330
1F
100
AcDbEntity
  8
0
  6
Continuous
 62
     7
370
     0
100
AcDbLine
 10
222.2790553723
 20
107.2274031008
 30
0.0
 11
221.9892963412
 21
107.2274031008
 31
0.0
  0
LINE
  5
163
330
1F
100
AcDbEntity
  8
0
  6
Continuous
 62
     7
370
     0
100
AcDbLine
 10
222.2790553723
 20
108.1493636543
 30
0.0
 11
222.2790553723
 21
107.2274031008
 31
0.0
  0
LINE
  5
164
330
1F
100
AcDbEntity
  8
0
  6
Continuous
 62
     7
370
     0
100
AcDbLine
 10
226.7604422058
 20
107.8596046232
 30
0.0
 11
225.88457968
 21
107.8596046232
 31
0.0
  0
LINE
  5
165
330
1F
100
AcDbEntity
  8
0
  6
Continuous
 62
     7
370
     0
100
AcDbLine
 10
226.9942250605
 20
107.2274031008
 30
0.0
 11
226.7604422058
 21
107.8596046232
 31
0.0
  0
LINE
  5
166
330
1F
100
AcDbEntity
  8
0
  6
Continuous
 62
     7
370
     0
100
AcDbLine
 10
227.3016824415
 20
107.2274031008
 30
0.0
 11
226.9942250605
 21
107.2274031008
 31
0.0
  0
LINE
  5
167
330
1F
100
AcDbEntity
  8
0
  6
Continuous
 62
     7
370
     0
100
AcDbLine
 10
226.4859119874
 20
109.2820580487
 30
0.0
 11
227.3016824415
 21
107.2274031008
 31
0.0
  0
LINE
  5
168
330
1F
100
AcDbEntity
  8
0
  6
Continuous
 62
     7
370
     0
100
AcDbLine
 10
226.1591098984
 20
109.2820580487
 30
0.0
 11
226.4859119874
 21
109.2820580487
 31
0.0
  0
LINE
  5
169
330
1F
100
AcDbEntity
  8
0
  6
Continuous
 62
     7
370
     0
100
AcDbLine
 10
225.3433394443
 20
107.2274031008
 30
0.0
 11
226.1591098984
 21
109.2820580487
 31
0.0
  0
LINE
  5
16A
330
1F
100
AcDbEntity
  8
0
  6
Continuous
 62
     7
370
     0
100
AcDbLine
 10
225.6507968253
 20
107.2274031008
 30
0.0
 11
225.3433394443
 21
107.2274031008
 31
0.0
  0
LINE
  5
16B
330
1F
100
AcDbEntity
  8
0
  6
Continuous
 62
     7
370
     0
100
AcDbLine
 10
225.88457968
 20
107.8596046232
 30
0.0
 11
225.6507968253
 21
107.2274031008
 31
0.0
  0
SPLINE
  5
16C
330
1F
100
AcDbEntity
  8
0
  6
Continuous
 62
     7
370
     0
100
AcDbSpline
210
0.0
220
0.0
230
1.0
 70
     8
 71
     3
 72
    23
 73
    19
 74
     0
 42
0.00000001
 43
0.00000001
 40
0.0
 40
0.0
 40
0.0
 40
0.0
 40
0.0749313059818448
 40
0.1470775964339469
 40
0.2163644561730687
 40
0.2825027309006237
 40
0.3466877108244162
 40
0.4088355551310375
 40
0.4692619872876909
 40
0.5284320432534628
 40
0.5870013379727417
 40
0.644416393832067
 40
0.7021887902662974
 40
0.7597671795443349
 40
0.8184897928274489
 40
0.8776328274167843
 40
0.9380195662701677
 40
1.0
 40
1.0
 40
1.0
 40
1.0
 10
230.5627063101754
 20
108.3074140349365
 30
0.0
 10
230.5774792061759
 20
108.3006027811995
 30
0.0
 10
230.6064759253395
 20
108.2872334315635
 30
0.0
 10
230.6475536608915
 20
108.2644072782601
 30
0.0
 10
230.685883644702
 20
108.2407035468843
 30
0.0
 10
230.7211561961183
 20
108.2154840529439
 30
0.0
 10
230.7532572619365
 20
108.1886957478631
 30
0.0
 10
230.7825457695725
 20
108.1606455666832
 30
0.0
 10
230.8091986113337
 20
108.1314911559961
 30
0.0
 10
230.8321403475932
 20
108.1002994049122
 30
0.0
 10
230.8527396729935
 20
108.06833122452
 30
0.0
 10
230.8707654544066
 20
108.0351398184147
 30
0.0
 10
230.8852794674233
 20
108.000529994297
 30
0.0
 10
230.8980091621301
 20
107.9649189414649
 30
0.0
 10
230.9071654639353
 20
107.9279105614212
 30
0.0
 10
230.9143458513641
 20
107.8898786635219
 30
0.0
 10
230.9185340512693
 20
107.8506444867914
 30
0.0
 10
230.9189381598108
 20
107.824080463647
 30
0.0
 10
230.9191428456112
 20
107.8106254688036
 30
0.0
  0
SPLINE
  5
16D
330
1F
100
AcDbEntity
  8
0
  6
Continuous
 62
     7
370
     0
100
AcDbSpline
210
0.0
220
0.0
230
1.0
 70
     8
 71
     3
 72
    23
 73
    19
 74
     0
 42
0.00000001
 43
0.00000001
 40
0.0
 40
0.0
 40
0.0
 40
0.0
 40
0.0327432182311376
 40
0.0724096054938576
 40
0.1196114857927605
 40
0.1746729151985131
 40
0.2373450901947014
 40
0.3083524168429164
 40
0.3876300477623598
 40
0.4747836155862522
 40
0.5633323159904144
 40
0.6451362168299873
 40
0.7202025267224655
 40
0.7891341563324459
 40
0.8514970735699654
 40
0.9073306044315619
 40
0.9569686823424192
 40
0.9999999999999999
 40
0.9999999999999999
 40
0.9999999999999999
 40
0.9999999999999999
 10
229.7547560572186
 20
108.5831790219366
 30
0.0
 10
229.7618915342177
 20
108.5770972755886
 30
0.0
 10
229.7776712010445
 20
108.5636478690378
 30
0.0
 10
229.8070317036462
 20
108.5458491541896
 30
0.0
 10
229.8434343724848
 20
108.5278658211862
 30
0.0
 10
229.887122444235
 20
108.5099889965706
 30
0.0
 10
229.9380207520029
 20
108.4920016575547
 30
0.0
 10
229.9960471958119
 20
108.47348148008
 30
0.0
 10
230.0614227915416
 20
108.4550874812896
 30
0.0
 10
230.1321552198889
 20
108.4373618200406
 30
0.0
 10
230.2036114656171
 20
108.4195649002712
 30
0.0
 10
230.2715189221742
 20
108.4018358097671
 30
0.0
 10
230.3338694619431
 20
108.3850335107449
 30
0.0
 10
230.3905641612668
 20
108.3686456203407
 30
0.0
 10
230.4416617009255
 20
108.352718477584
 30
0.0
 10
230.4869844982464
 20
108.336918388304
 30
0.0
 10
230.5268992318009
 20
108.322386313961
 30
0.0
 10
230.5513517216305
 20
108.3121618131865
 30
0.0
 10
230.5627063101754
 20
108.3074140349365
 30
0.0
  0
SPLINE
  5
16E
330
1F
100
AcDbEntity
  8
0
  6
Continuous
 62
     7
370
     0
100
AcDbSpline
210
0.0
220
0.0
230
1.0
 70
     8
 71
     3
 72
    11
 73
     7
 74
     0
 42
0.00000001
 43
0.00000001
 40
0.0
 40
0.0
 40
0.0
 40
0.0
 40
0.2627412305282694
 40
0.5099565029432334
 40
0.753326718420451
 40
1.0
 40
1.0
 40
1.0
 40
1.0
 10
229.6810815308409
 20
108.7646900059172
 30
0.0
 10
229.6818303363816
 20
108.7470126578708
 30
0.0
 10
229.6832836988941
 20
108.712702555216
 30
0.0
 10
229.6981246550885
 20
108.6639582418355
 30
0.0
 10
229.7209501495504
 20
108.6195246418766
 30
0.0
 10
229.7434368984548
 20
108.5953485470534
 30
0.0
 10
229.7547560572186
 20
108.5831790219366
 30
0.0
  0
SPLINE
  5
16F
330
1F
100
AcDbEntity
  8
0
  6
Continuous
 62
     7
370
     0
100
AcDbSpline
210
0.0
220
0.0
230
1.0
 70
     8
 71
     3
 72
    23
 73
    19
 74
     0
 42
0.00000001
 43
0.00000001
 40
0.0
 40
0.0
 40
0.0
 40
0.0
 40
0.0915110363280375
 40
0.177142860314148
 40
0.257108485228235
 40
0.3311983993883849
 40
0.4005922945239581
 40
0.4656249598049642
 40
0.5269734913138602
 40
0.5854431157040231
 40
0.6413985080863308
 40
0.6950441672657243
 40
0.7467815514927477
 40
0.7969589345766993
 40
0.8475448623598797
 40
0.8974385414187385
 40
0.9476489188871287
 40
1.0
 40
1.0
 40
1.0
 40
1.0
 10
230.1161316670484
 20
109.0713242078799
 30
0.0
 10
230.0978719544481
 20
109.0711865747984
 30
0.0
 10
230.0625256416062
 20
109.0709201510018
 30
0.0
 10
230.0114285379954
 20
109.0660635780917
 30
0.0
 10
229.9640681277604
 20
109.0594001877902
 30
0.0
 10
229.9205257574331
 20
109.0495711204801
 30
0.0
 10
229.8809440661335
 20
109.0367048383694
 30
0.0
 10
229.8447356048257
 20
109.0218472349096
 30
0.0
 10
229.8129137057102
 20
109.0030187708434
 30
0.0
 10
229.7847365454153
 20
108.98204631073
 30
0.0
 10
229.7604301758797
 20
108.958841442147
 30
0.0
 10
229.7394816859216
 20
108.934389121056
 30
0.0
 10
229.7209543645577
 20
108.9094077742289
 30
0.0
 10
229.706558227181
 20
108.8825319048754
 30
0.0
 10
229.6948376075707
 20
108.8547793429835
 30
0.0
 10
229.6872765200565
 20
108.8256284312853
 30
0.0
 10
229.6819230934675
 20
108.7956183859141
 30
0.0
 10
229.6813659281752
 20
108.7751419301649
 30
0.0
 10
229.6810815308409
 20
108.7646900059172
 30
0.0
  0
SPLINE
  5
170
330
1F
100
AcDbEntity
  8
0
  6
Continuous
 62
     7
370
     0
100
AcDbSpline
210
0.0
220
0.0
230
1.0
 70
     8
 71
     3
 72
    23
 73
    19
 74
     0
 42
0.00000001
 43
0.00000001
 40
0.0
 40
0.0
 40
0.0
 40
0.0
 40
0.0671554674490462
 40
0.1314033464826141
 40
0.1927317719102091
 40
0.2512526591565257
 40
0.3077037298841914
 40
0.3626989162982003
 40
0.417778332785431
 40
0.4723043857981144
 40
0.5278725997916964
 40
0.5852299868117375
 40
0.6450565760102912
 40
0.707952356429442
 40
0.7744342720454286
 40
0.84494043137526
 40
0.9204035944750272
 40
1.0
 40
1.0
 40
1.0
 40
1.0
 10
230.5767003542918
 20
108.702539986459
 30
0.0
 10
230.5748592681074
 20
108.7172525977106
 30
0.0
 10
230.5712568080997
 20
108.746040817455
 30
0.0
 10
230.5623195830273
 20
108.7877160965246
 30
0.0
 10
230.5497913918912
 20
108.8264222203896
 30
0.0
 10
230.5351170405965
 20
108.8625201498584
 30
0.0
 10
230.51732865464
 20
108.8956344267373
 30
0.0
 10
230.4965925439017
 20
108.9260830205271
 30
0.0
 10
230.4726561865417
 20
108.9535071948391
 30
0.0
 10
230.446135490217
 20
108.9786316014935
 30
0.0
 10
230.416223435012
 20
109.0005079463215
 30
0.0
 10
230.3830737183663
 20
109.0194972852371
 30
0.0
 10
230.3466303825013
 20
109.0355389283679
 30
0.0
 10
230.3069255339286
 20
109.0486775572896
 30
0.0
 10
230.2639513118637
 20
109.0588647362339
 30
0.0
 10
230.2176099709386
 20
109.0663586195411
 30
0.0
 10
230.1679194228027
 20
109.0701965727068
 30
0.0
 10
230.1336983163664
 20
109.0709417087475
 30
0.0
 10
230.1161316670484
 20
109.0713242078799
 30
0.0
  0
LINE
  5
171
330
1F
100
AcDbEntity
  8
0
  6
Continuous
 62
     7
370
     0
100
AcDbLine
 10
230.8664593854
 20
108.7025399865
 30
0.0
 11
230.5767003543
 21
108.7025399865
 31
0.0
  0
SPLINE
  5
172
330
1F
100
AcDbEntity
  8
0
  6
Continuous
 62
     7
370
     0
100
AcDbSpline
210
0.0
220
0.0
230
1.0
 70
     8
 71
     3
 72
    23
 73
    19
 74
     0
 42
0.00000001
 43
0.00000001
 40
0.0
 40
0.0
 40
0.0
 40
0.0
 40
0.1004750608070148
 40
0.1956443031597846
 40
0.286083379069932
 40
0.3729828804699542
 40
0.4150256681909619
 40
0.4560516735090279
 40
0.4959387495188998
 40
0.5355660888033517
 40
0.5740871099085042
 40
0.6125192874870976
 40
0.651080960134445
 40
0.6895131377130386
 40
0.7662374603277348
 40
0.8423504388672227
 40
0.9199744947371038
 40
1.0
 40
1.0
 40
1.0
 40
1.0
 10
230.104607160129
 20
109.3083997787934
 30
0.0
 10
230.141140927947
 20
109.3075626632982
 30
0.0
 10
230.2122792132999
 20
109.3059326381316
 30
0.0
 10
230.3156451526563
 20
109.2923711256734
 30
0.0
 10
230.4120572766869
 20
109.2690824401823
 30
0.0
 10
230.4876669723018
 20
109.2430130933261
 30
0.0
 10
230.5435643360642
 20
109.2166214167588
 30
0.0
 10
230.5832753797182
 20
109.1960282595151
 30
0.0
 10
230.6201350809037
 20
109.172218818362
 30
0.0
 10
230.6544752512755
 20
109.1464532782332
 30
0.0
 10
230.6866148645436
 20
109.1187434061357
 30
0.0
 10
230.7157278604782
 20
109.0884300757914
 30
0.0
 10
230.7430784065619
 20
109.0565475231766
 30
0.0
 10
230.7752191095068
 20
109.0107741669475
 30
0.0
 10
230.8098736011732
 20
108.9501933889408
 30
0.0
 10
230.8398371263338
 20
108.8717085847807
 30
0.0
 10
230.8604224176245
 20
108.788874318006
 30
0.0
 10
230.8644267304711
 20
108.7316088686449
 30
0.0
 10
230.8664593854082
 20
108.702539986459
 30
0.0
  0
SPLINE
  5
173
330
1F
100
AcDbEntity
  8
0
  6
Continuous
 62
     7
370
     0
100
AcDbSpline
210
0.0
220
0.0
230
1.0
 70
     8
 71
     3
 72
    23
 73
    19
 74
     0
 42
0.00000001
 43
0.00000001
 40
0.0
 40
0.0
 40
0.0
 40
0.0
 40
0.0749954673898322
 40
0.1491654404266561
 40
0.2236642943382247
 40
0.3004120221906725
 40
0.3395704846106348
 40
0.3789205746932795
 40
0.4180957375990935
 40
0.4582296767501551
 40
0.4984267212184583
 40
0.5397075464534805
 40
0.5822159516458436
 40
0.6258238199943749
 40
0.7154812648736979
 40
0.8073840844133601
 40
0.9016341255073719
 40
1.0
 40
1.0
 40
1.0
 40
1.0
 10
229.3913224997245
 20
108.7457568874067
 30
0.0
 10
229.3923004042576
 20
108.7712293463326
 30
0.0
 10
229.3942454492776
 20
108.8218938822928
 30
0.0
 10
229.4114990645708
 20
108.8962409303675
 30
0.0
 10
229.4390189110492
 20
108.9677825661982
 30
0.0
 10
229.4703448540108
 20
109.0245805202905
 30
0.0
 10
229.5008945709619
 20
109.0675308789928
 30
0.0
 10
229.5262205183591
 20
109.0984629421839
 30
0.0
 10
229.554628521721
 20
109.127055476135
 30
0.0
 10
229.5852437132964
 20
109.1537076133337
 30
0.0
 10
229.6186133706574
 20
109.1780211400012
 30
0.0
 10
229.6539095892762
 20
109.2009953115268
 30
0.0
 10
229.6924098951196
 20
109.2207421632727
 30
0.0
 10
229.7465085504253
 20
109.2458754484258
 30
0.0
 10
229.8188795159812
 20
109.2709733839627
 30
0.0
 10
229.9099855097477
 20
109.2928430512598
 30
0.0
 10
230.0058715766758
 20
109.3057216436477
 30
0.0
 10
230.0712297724675
 20
109.3074944399901
 30
0.0
 10
230.104607160129
 20
109.3083997787934
 30
0.0
  0
SPLINE
  5
174
330
1F
100
AcDbEntity
  8
0
  6
Continuous
 62
     7
370
     0
100
AcDbSpline
210
0.0
220
0.0
230
1.0
 70
     8
 71
     3
 72
    15
 73
    11
 74
     0
 42
0.00000001
 43
0.00000001
 40
0.0
 40
0.0
 40
0.0
 40
0.0
 40
0.1448052410584837
 40
0.2795118010254855
 40
0.4063939211311608
 40
0.5275015404829171
 40
0.6453932904726504
 40
0.7618854106740862
 40
0.8789420729184871
 40
1.0
 40
1.0
 40
1.0
 40
1.0
 10
229.6946639854245
 20
108.3016517814768
 30
0.0
 10
229.6704814414266
 20
108.3147158883526
 30
0.0
 10
229.623802837967
 20
108.3399330145764
 30
0.0
 10
229.5609786075731
 20
108.3850213068234
 30
0.0
 10
229.5080428157235
 20
108.4350551123213
 30
0.0
 10
229.4652187881208
 20
108.4899618799497
 30
0.0
 10
229.4316592734272
 20
108.548813004445
 30
0.0
 10
229.4090168156026
 20
108.6117085332717
 30
0.0
 10
229.3935086011257
 20
108.6775067950803
 30
0.0
 10
229.3920593180831
 20
108.7227534160309
 30
0.0
 10
229.3913224997245
 20
108.7457568874067
 30
0.0
  0
SPLINE
  5
175
330
1F
100
AcDbEntity
  8
0
  6
Continuous
 62
     7
370
     0
100
AcDbSpline
210
0.0
220
0.0
230
1.0
 70
     8
 71
     3
 72
    23
 73
    19
 74
     0
 42
0.00000001
 43
0.00000001
 40
0.0
 40
0.0
 40
0.0
 40
0.0
 40
0.031200111153937
 40
0.0704867190162008
 40
0.1172148300204117
 40
0.1715755269954914
 40
0.2341219784876085
 40
0.3039626396728061
 40
0.3821556401561972
 40
0.4676462220680265
 40
0.5543353814021599
 40
0.6350744656665042
 40
0.7100366878785244
 40
0.7790924037748317
 40
0.8429656453505103
 40
0.9010012068505269
 40
0.953246256459026
 40
1.0
 40
1.0
 40
1.0
 40
1.0
 10
230.4104181830261
 20
108.0740427698186
 30
0.0
 10
230.4031795347521
 20
108.07701327219
 30
0.0
 10
230.3868261133035
 20
108.0837241766787
 30
0.0
 10
230.3587971163347
 20
108.0926082587553
 30
0.0
 10
230.3255371617903
 20
108.1040962833922
 30
0.0
 10
230.2862472059921
 20
108.1159270790688
 30
0.0
 10
230.2411375853438
 20
108.1284424062694
 30
0.0
 10
230.1902834028282
 20
108.1426078591846
 30
0.0
 10
230.1337130749326
 20
108.1576720429996
 30
0.0
 10
230.0730310338431
 20
108.1737062258045
 30
0.0
 10
230.0117606640607
 20
108.1900105308535
 30
0.0
 10
229.9532239836868
 20
108.206330104572
 30
0.0
 10
229.8993674549078
 20
108.2228965623562
 30
0.0
 10
229.8497499200461
 20
108.2388477740028
 30
0.0
 10
229.8046271800687
 20
108.2548647952053
 30
0.0
 10
229.7638711662879
 20
108.2705091143417
 30
0.0
 10
229.7274310658392
 20
108.2854633289367
 30
0.0
 10
229.7051748397059
 20
108.2964589335472
 30
0.0
 10
229.6946639854245
 20
108.3016517814768
 30
0.0
  0
SPLINE
  5
176
330
1F
100
AcDbEntity
  8
0
  6
Continuous
 62
     7
370
     0
100
AcDbSpline
210
0.0
220
0.0
230
1.0
 70
     8
 71
     3
 72
    15
 73
    11
 74
     0
 42
0.00000001
 43
0.00000001
 40
0.0
 40
0.0
 40
0.0
 40
0.0
 40
0.1177675192120368
 40
0.230176448544057
 40
0.3398429589695384
 40
0.4506252599208614
 40
0.5669428888721625
 40
0.6960213064547937
 40
0.8394383602270619
 40
1.0
 40
1.0
 40
1.0
 40
1.0
 10
230.6293838144948
 20
107.7966314246872
 30
0.0
 10
230.6286901193796
 20
107.8114839391157
 30
0.0
 10
230.6273342932652
 20
107.8405131574093
 30
0.0
 10
230.6184987499812
 20
107.8827760729968
 30
0.0
 10
230.6017055514404
 20
107.9214589166463
 30
0.0
 10
230.5799144464593
 20
107.958140541722
 30
0.0
 10
230.5495992987899
 20
107.991677940693
 30
0.0
 10
230.5112995308384
 20
108.0225796623142
 30
0.0
 10
230.4641713026061
 20
108.0505954623878
 30
0.0
 10
230.428997170476
 20
108.0659385475168
 30
0.0
 10
230.4104181830261
 20
108.0740427698186
 30
0.0
  0
SPLINE
  5
177
330
1F
100
AcDbEntity
  8
0
  6
Continuous
 62
     7
370
     0
100
AcDbSpline
210
0.0
220
0.0
230
1.0
 70
     8
 71
     3
 72
    19
 73
    15
 74
     0
 42
0.00000001
 43
0.00000001
 40
0.0
 40
0.0
 40
0.0
 40
0.0
 40
0.1055838864195047
 40
0.2058681332620123
 40
0.300946717742213
 40
0.3930019285950097
 40
0.4809485116065868
 40
0.5628738662802266
 40
0.6414613436333616
 40
0.7177416181792268
 40
0.7917717603087844
 40
0.8627163930302565
 40
0.9317768462002763
 40
1.0
 40
1.0
 40
1.0
 40
1.0
 10
230.1601717470619
 20
107.4381369415872
 30
0.0
 10
230.1833993289636
 20
107.4385668593889
 30
0.0
 10
230.2286886158847
 20
107.439405115853
 30
0.0
 10
230.2942046316338
 20
107.4494746527703
 30
0.0
 10
230.355855392825
 20
107.4637580203766
 30
0.0
 10
230.4124935145008
 20
107.4853638500911
 30
0.0
 10
230.4639100643931
 20
107.5116001018847
 30
0.0
 10
230.5085595777084
 20
107.5433334636742
 30
0.0
 10
230.5466789571074
 20
107.5791199786681
 30
0.0
 10
230.5765291942267
 20
107.6199022438397
 30
0.0
 10
230.5999789444767
 20
107.6626352378279
 30
0.0
 10
230.6171817604257
 20
107.706560348395
 30
0.0
 10
230.6274291253248
 20
107.7514337710381
 30
0.0
 10
230.6287349061116
 20
107.7816269233037
 30
0.0
 10
230.6293838144948
 20
107.7966314246872
 30
0.0
  0
SPLINE
  5
178
330
1F
100
AcDbEntity
  8
0
  6
Continuous
 62
     7
370
     0
100
AcDbSpline
210
0.0
220
0.0
230
1.0
 70
     8
 71
     3
 72
    19
 73
    15
 74
     0
 42
0.00000001
 43
0.00000001
 40
0.0
 40
0.0
 40
0.0
 40
0.0
 40
0.0937964706969321
 40
0.1801880710186105
 40
0.2603631916661885
 40
0.3348466760639744
 40
0.4070930058327154
 40
0.4814483792884674
 40
0.5592709137563653
 40
0.6422698113109349
 40
0.7285859445716477
 40
0.8159775452756136
 40
0.9060351298875359
 40
1.0
 40
1.0
 40
1.0
 40
1.0
 10
229.6020563405364
 20
107.9386298135156
 30
0.0
 10
229.6052435217753
 20
107.9126134370112
 30
0.0
 10
229.6113662685605
 20
107.8626345768003
 30
0.0
 10
229.6284860801197
 20
107.7917970661119
 30
0.0
 10
229.6505203822198
 20
107.7281068741112
 30
0.0
 10
229.6779745151915
 20
107.6707187195109
 30
0.0
 10
229.7140893810625
 20
107.620320682826
 30
0.0
 10
229.7576015821677
 20
107.574862423377
 30
0.0
 10
229.8104447822671
 20
107.5354983233136
 30
0.0
 10
229.8700927092137
 20
107.5004668533225
 30
0.0
 10
229.9365238533397
 20
107.4729616087333
 30
0.0
 10
230.00744502445
 20
107.4525715181692
 30
0.0
 10
230.0825179903842
 20
107.44049022704
 30
0.0
 10
230.1339233374833
 20
107.4389323957038
 30
0.0
 10
230.1601717470619
 20
107.4381369415872
 30
0.0
  0
LINE
  5
179
330
1F
100
AcDbEntity
  8
0
  6
Continuous
 62
     7
370
     0
100
AcDbLine
 10
229.3122973094
 20
107.9386298135
 30
0.0
 11
229.6020563405
 21
107.9386298135
 31
0.0
  0
SPLINE
  5
17A
330
1F
100
AcDbEntity
  8
0
  6
Continuous
 62
     7
370
     0
100
AcDbSpline
210
0.0
220
0.0
230
1.0
 70
     8
 71
     3
 72
    31
 73
    27
 74
     0
 42
0.00000001
 43
0.00000001
 40
0.0
 40
0.0
 40
0.0
 40
0.0
 40
0.0524925849212958
 40
0.1028254751380329
 40
0.1513973394924577
 40
0.1980330772483325
 40
0.2428758954632244
 40
0.2859991683849086
 40
0.3278486614843784
 40
0.3683945968796912
 40
0.4078519911389193
 40
0.4468375528599374
 40
0.4851660451611074
 40
0.5233414044713737
 40
0.5616022144094732
 40
0.5999198855663566
 40
0.6384964264110082
 40
0.6777905770472508
 40
0.7172899891758322
 40
0.7566052415928194
 40
0.7960678905323556
 40
0.8358862309537681
 40
0.8757136832726162
 40
0.9162634539474125
 40
0.9577596754778293
 40
1.0
 40
1.0
 40
1.0
 40
1.0
 10
230.1729310225798
 20
107.2010613706737
 30
0.0
 10
230.1505602773502
 20
107.2012459842674
 30
0.0
 10
230.1067391831733
 20
107.2016076159248
 30
0.0
 10
230.0423489795106
 20
107.2059870893932
 30
0.0
 10
229.9806426704879
 20
107.2123222129964
 30
0.0
 10
229.9216808122474
 20
107.2217584501276
 30
0.0
 10
229.8656483033569
 20
107.234138280856
 30
0.0
 10
229.8123440125306
 20
107.2490040649636
 30
0.0
 10
229.7616415935291
 20
107.2661250801857
 30
0.0
 10
229.7137182022481
 20
107.2862590973385
 30
0.0
 10
229.6686989387711
 20
107.3096526258936
 30
0.0
 10
229.6257743112337
 20
107.3348883242435
 30
0.0
 10
229.5856459512058
 20
107.3634941709838
 30
0.0
 10
229.5482293834899
 20
107.3950206688604
 30
0.0
 10
229.5125765518651
 20
107.4285570454471
 30
0.0
 10
229.4801651601028
 20
107.4654728988133
 30
0.0
 10
229.4498933036811
 20
107.5046886763923
 30
0.0
 10
229.4224526857645
 20
107.5465632959115
 30
0.0
 10
229.3979386712215
 20
107.5905488988189
 30
0.0
 10
229.3758935880321
 20
107.6359067942073
 30
0.0
 10
229.357320296989
 20
107.6829660181848
 30
0.0
 10
229.3423519917415
 20
107.7314887344576
 30
0.0
 10
229.329673079348
 20
107.7811502284053
 30
0.0
 10
229.3208805466308
 20
107.8323648386425
 30
0.0
 10
229.3144159804184
 20
107.8849717697854
 30
0.0
 10
229.3130077045117
 20
107.9206381522682
 30
0.0
 10
229.31229730942
 20
107.9386298135156
 30
0.0
  0
SPLINE
  5
17B
330
1F
100
AcDbEntity
  8
0
  6
Continuous
 62
     7
370
     0
100
AcDbSpline
210
0.0
220
0.0
230
1.0
 70
     8
 71
     3
 72
    23
 73
    19
 74
     0
 42
0.00000001
 43
0.00000001
 40
0.0
 40
0.0
 40
0.0
 40
0.0
 40
0.0748159666505558
 40
0.1485345605139196
 40
0.2238723272963846
 40
0.3012971209351247
 40
0.3408936290197579
 40
0.38034006206544
 40
0.4201265887284643
 40
0.4599499070829665
 40
0.5008311555562169
 40
0.5419071755971084
 40
0.5844387941530512
 40
0.6280801713306066
 40
0.7172666799070602
 40
0.8078600064218678
 40
0.9019246558363443
 40
1.0
 40
1.0
 40
1.0
 40
1.0
 10
230.9191428456112
 20
107.8106254688036
 30
0.0
 10
230.9180705601111
 20
107.7837729560064
 30
0.0
 10
230.915941716996
 20
107.7304617930875
 30
0.0
 10
230.89761161
 20
107.6518786733861
 30
0.0
 10
230.8688159813809
 20
107.575732069025
 30
0.0
 10
230.8350459740056
 20
107.5153055438895
 30
0.0
 10
230.803123110018
 20
107.4691484602706
 30
0.0
 10
230.776306398448
 20
107.4359728580514
 30
0.0
 10
230.7465682070912
 20
107.4052969583446
 30
0.0
 10
230.7146406600343
 20
107.3761597434199
 30
0.0
 10
230.680275869984
 20
107.3491557076901
 30
0.0
 10
230.6431841204432
 20
107.3242756557862
 30
0.0
 10
230.6037568972746
 20
107.3012605885964
 30
0.0
 10
230.5474558140666
 20
107.2732153814821
 30
0.0
 10
230.472678622244
 20
107.2438774317329
 30
0.0
 10
230.3774274915014
 20
107.2194457807192
 30
0.0
 10
230.2770443368172
 20
107.2035963645906
 30
0.0
 10
230.208115066281
 20
107.2019180462815
 30
0.0
 10
230.1729310225798
 20
107.2010613706737
 30
0.0
  0
LINE
  5
17C
330
1F
100
AcDbEntity
  8
0
  6
Continuous
 62
     7
370
     0
100
AcDbLine
 10
216.0541752777
 20
104.0663954886
 30
0.0
 11
215.5092307362
 21
105.8049496753
 31
0.0
  0
LINE
  5
17D
330
1F
100
AcDbEntity
  8
0
  6
Continuous
 62
     7
370
     0
100
AcDbLine
 10
216.3571051739
 20
104.0663954886
 30
0.0
 11
216.0541752777
 21
104.0663954886
 31
0.0
  0
LINE
  5
17E
330
1F
100
AcDbEntity
  8
0
  6
Continuous
 62
     7
370
     0
100
AcDbLine
 10
216.9053424316
 20
105.8049496753
 30
0.0
 11
216.3571051739
 21
104.0663954886
 31
0.0
  0
LINE
  5
17F
330
1F
100
AcDbEntity
  8
0
  6
Continuous
 62
     7
370
     0
100
AcDbLine
 10
216.9053424316
 20
104.0663954886
 30
0.0
 11
216.9053424316
 21
105.8049496753
 31
0.0
  0
LINE
  5
180
330
1F
100
AcDbEntity
  8
0
  6
Continuous
 62
     7
370
     0
100
AcDbLine
 10
217.1951014627
 20
104.0663954886
 30
0.0
 11
216.9053424316
 21
104.0663954886
 31
0.0
  0
LINE
  5
181
330
1F
100
AcDbEntity
  8
0
  6
Continuous
 62
     7
370
     0
100
AcDbLine
 10
217.1951014627
 20
106.1210504365
 30
0.0
 11
217.1951014627
 21
104.0663954886
 31
0.0
  0
LINE
  5
182
330
1F
100
AcDbEntity
  8
0
  6
Continuous
 62
     7
370
     0
100
AcDbLine
 10
216.7629324533
 20
106.1210504365
 30
0.0
 11
217.1951014627
 21
106.1210504365
 31
0.0
  0
LINE
  5
183
330
1F
100
AcDbEntity
  8
0
  6
Continuous
 62
     7
370
     0
100
AcDbLine
 10
216.3081260195
 20
104.703947675
 30
0.0
 11
216.7629324533
 21
106.1210504365
 31
0.0
  0
SPLINE
  5
184
330
1F
100
AcDbEntity
  8
0
  6
Continuous
 62
     7
370
     0
100
AcDbSpline
210
0.0
220
0.0
230
1.0
 70
     8
 71
     3
 72
    15
 73
    11
 74
     0
 42
0.00000001
 43
0.00000001
 40
0.0
 40
0.0
 40
0.0
 40
0.0
 40
0.0892047702332451
 40
0.1898334556643485
 40
0.2992325919749813
 40
0.4192609378429058
 40
0.5492073901909386
 40
0.6890743636843492
 40
0.8395791979483176
 40
1.0
 40
1.0
 40
1.0
 40
1.0
 10
216.2072865839258
 20
104.3775571754197
 30
0.0
 10
216.2101549214924
 20
104.3873019637915
 30
0.0
 10
216.2162589272631
 20
104.408039496622
 30
0.0
 10
216.226154496371
 20
104.4406457121845
 30
0.0
 10
216.2366836636427
 20
104.4767281587363
 30
0.0
 10
216.2492838494467
 20
104.5156666378643
 30
0.0
 10
216.2624180519186
 20
104.5580719720831
 30
0.0
 10
216.2762041067707
 20
104.6039089451324
 30
0.0
 10
216.2921060525813
 20
104.6527199298079
 30
0.0
 10
216.3026736902961
 20
104.6865125247263
 30
0.0
 10
216.3081260194706
 20
104.7039476749585
 30
0.0
  0
SPLINE
  5
185
330
1F
100
AcDbEntity
  8
0
  6
Continuous
 62
     7
370
     0
100
AcDbSpline
210
0.0
220
0.0
230
1.0
 70
     8
 71
     3
 72
    15
 73
    11
 74
     0
 42
0.00000001
 43
0.00000001
 40
0.0
 40
0.0
 40
0.0
 40
0.0
 40
0.1625255217041874
 40
0.3143148980392377
 40
0.4549784905465749
 40
0.5845192373662002
 40
0.7045671033090738
 40
0.8134949897289302
 40
0.911681259682607
 40
1.0
 40
1.0
 40
1.0
 40
1.0
 10
216.1146789390378
 20
104.6792523029883
 30
0.0
 10
216.1197339283397
 20
104.6629192428146
 30
0.0
 10
216.1295099833886
 20
104.6313320552187
 30
0.0
 10
216.144006713179
 20
104.585717249801
 30
0.0
 10
216.1571963069748
 20
104.5433285127556
 30
0.0
 10
216.1690756131042
 20
104.5040309184967
 30
0.0
 10
216.1802862677764
 20
104.468019577783
 30
0.0
 10
216.1899929282959
 20
104.4349989910035
 30
0.0
 10
216.1992728115456
 20
104.4053360902828
 30
0.0
 10
216.2047112377984
 20
104.3864843469718
 30
0.0
 10
216.2072865839258
 20
104.3775571754197
 30
0.0
  0
LINE
  5
186
330
1F
100
AcDbEntity
  8
0
  6
Continuous
 62
     7
370
     0
100
AcDbLine
 10
215.6553450204
 20
106.1210504365
 30
0.0
 11
216.114678939
 21
104.679252303
 31
0.0
  0
LINE
  5
187
330
1F
100
AcDbEntity
  8
0
  6
Continuous
 62
     7
370
     0
100
AcDbLine
 10
215.2194717051
 20
106.1210504365
 30
0.0
 11
215.6553450204
 21
106.1210504365
 31
0.0
  0
LINE
  5
188
330
1F
100
AcDbEntity
  8
0
  6
Continuous
 62
     7
370
     0
100
AcDbLine
 10
215.2194717051
 20
104.0663954886
 30
0.0
 11
215.2194717051
 21
106.1210504365
 31
0.0
  0
LINE
  5
189
330
1F
100
AcDbEntity
  8
0
  6
Continuous
 62
     7
370
     0
100
AcDbLine
 10
215.5092307362
 20
104.0663954886
 30
0.0
 11
215.2194717051
 21
104.0663954886
 31
0.0
  0
LINE
  5
18A
330
1F
100
AcDbEntity
  8
0
  6
Continuous
 62
     7
370
     0
100
AcDbLine
 10
215.5092307362
 20
105.8049496753
 30
0.0
 11
215.5092307362
 21
104.0663954886
 31
0.0
  0
SPLINE
  5
18B
330
1F
100
AcDbEntity
  8
0
  6
Continuous
 62
     7
370
     0
100
AcDbSpline
210
0.0
220
0.0
230
1.0
 70
     8
 71
     3
 72
    31
 73
    27
 74
     0
 42
0.00000001
 43
0.00000001
 40
0.0
 40
0.0
 40
0.0
 40
0.0
 40
0.0628739462114324
 40
0.1228366299919128
 40
0.1796565674430314
 40
0.233960012230862
 40
0.2855950186955588
 40
0.3345131060783808
 40
0.3809048259061764
 40
0.4248945919393347
 40
0.4665290347654873
 40
0.5064882940692464
 40
0.5450315536447543
 40
0.5818311798231344
 40
0.617448279949443
 40
0.652066912769046
 40
0.6858797142465105
 40
0.7191745547913924
 40
0.7521816462063929
 40
0.7852401639180909
 40
0.8186564497770833
 40
0.8525477406533113
 40
0.887626342258519
 40
0.923635078068751
 40
0.9610218444769891
 40
1.0
 40
1.0
 40
1.0
 40
1.0
 10
220.4087925351144
 20
105.0797289184376
 30
0.0
 10
220.4085221708784
 20
105.0505039350947
 30
0.0
 10
220.4079939611251
 20
104.993407177507
 30
0.0
 10
220.4048562448487
 20
104.9099350666282
 30
0.0
 10
220.3988880253718
 20
104.8306271973456
 30
0.0
 10
220.391544022266
 20
104.7553018984051
 30
0.0
 10
220.3804340838496
 20
104.6841602529032
 30
0.0
 10
220.3684625232594
 20
104.6168999988095
 30
0.0
 10
220.353656659934
 20
104.5538265569132
 30
0.0
 10
220.336381693485
 20
104.4949122837503
 30
0.0
 10
220.316926158545
 20
104.4398456618606
 30
0.0
 10
220.295590153904
 20
104.3882105283273
 30
0.0
 10
220.2719584801005
 20
104.3400421660879
 30
0.0
 10
220.2453277692691
 20
104.2958103851879
 30
0.0
 10
220.2169164970701
 20
104.2549280827898
 30
0.0
 10
220.1865165811415
 20
104.217241900187
 30
0.0
 10
220.1534835076761
 20
104.1832942504783
 30
0.0
 10
220.1178506555035
 20
104.1532756780608
 30
0.0
 10
220.0803403851823
 20
104.1262351745065
 30
0.0
 10
220.0402065278169
 20
104.1030826934439
 30
0.0
 10
219.9976247430458
 20
104.083901265023
 30
0.0
 10
219.9528795361697
 20
104.0675020966847
 30
0.0
 10
219.9055169025126
 20
104.0554857479881
 30
0.0
 10
219.8559103393958
 20
104.0462874208295
 30
0.0
 10
219.8038770700176
 20
104.0408707796816
 30
0.0
 10
219.768371846023
 20
104.0403298563721
 30
0.0
 10
219.750249282577
 20
104.0400537584942
 30
0.0
  0
SPLINE
  5
18C
330
1F
100
AcDbEntity
  8
0
  6
Continuous
 62
     7
370
     0
100
AcDbSpline
210
0.0
220
0.0
230
1.0
 70
     8
 71
     3
 72
    27
 73
    23
 74
     0
 42
0.00000001
 43
0.00000001
 40
0.0
 40
0.0
 40
0.0
 40
0.0
 40
0.0567243372181508
 40
0.1114372357370108
 40
0.1643678222229016
 40
0.21643537246209
 40
0.2676414903219249
 40
0.3173597799690281
 40
0.3674730633322806
 40
0.4182103970528083
 40
0.4714042826470201
 40
0.5279657201290494
 40
0.5880611158232139
 40
0.6521342629937146
 40
0.6863448363353056
 40
0.7232636803169652
 40
0.762610250771542
 40
0.8047389366452182
 40
0.8494303387909499
 40
0.8967112583864923
 40
0.9468896380534765
 40
1.0
 40
1.0
 40
1.0
 40
1.0
 10
219.750249282577
 20
106.1210504365124
 30
0.0
 10
219.7766364716864
 20
106.1202746718276
 30
0.0
 10
219.8284751631092
 20
106.1187506509876
 30
0.0
 10
219.9041599202871
 20
106.1063210135622
 30
0.0
 10
219.9754879259323
 20
106.0850582030547
 30
0.0
 10
220.0424128387591
 20
106.0563737544079
 30
0.0
 10
220.1037905877506
 20
106.0199389838301
 30
0.0
 10
220.1586035045839
 20
105.9756469691815
 30
0.0
 10
220.2062603434126
 20
105.9239627678692
 30
0.0
 10
220.2462410035849
 20
105.8642739390547
 30
0.0
 10
220.2811880913032
 20
105.7982270992422
 30
0.0
 10
220.3122343168783
 20
105.7255258058496
 30
0.0
 10
220.340299203053
 20
105.6462515288861
 30
0.0
 10
220.3602146572366
 20
105.5752899842107
 30
0.0
 10
220.3744203343535
 20
105.5140334609155
 30
0.0
 10
220.3838233639197
 20
105.463510813335
 30
0.0
 10
220.3916297635741
 20
105.4089965921661
 30
0.0
 10
220.397610520704
 20
105.3506226819846
 30
0.0
 10
220.4025175908157
 20
105.288454554325
 30
0.0
 10
220.4063070961738
 20
105.2224535021219
 30
0.0
 10
220.408230658148
 20
105.1524545669742
 30
0.0
 10
220.4086017316611
 20
105.1044252589451
 30
0.0
 10
220.4087925351144
 20
105.0797289184376
 30
0.0
  0
SPLINE
  5
18D
330
1F
100
AcDbEntity
  8
0
  6
Continuous
 62
     7
370
     0
100
AcDbSpline
210
0.0
220
0.0
230
1.0
 70
     8
 71
     3
 72
    31
 73
    27
 74
     0
 42
0.00000001
 43
0.00000001
 40
0.0
 40
0.0
 40
0.0
 40
0.0
 40
0.0631144583947934
 40
0.12361464576949
 40
0.1809737111859576
 40
0.2352614550083221
 40
0.287100701833872
 40
0.3360307363034435
 40
0.3823823485850663
 40
0.4263340836597072
 40
0.46821069479816
 40
0.508249601261805
 40
0.5466283366065848
 40
0.583649539230446
 40
0.6189943150301617
 40
0.6535830186205958
 40
0.6871561361903312
 40
0.7204221919788077
 40
0.7532302188118171
 40
0.7862601560778999
 40
0.8195039834988841
 40
0.8535452747120184
 40
0.8883082803397299
 40
0.9239958607406952
 40
0.961350304754645
 40
1.0
 40
1.0
 40
1.0
 40
1.0
 10
219.0917060300396
 20
105.0797289184376
 30
0.0
 10
219.091971423028
 20
105.1090918236398
 30
0.0
 10
219.0924912161321
 20
105.166601389873
 30
0.0
 10
219.0957153238975
 20
105.2507482165192
 30
0.0
 10
219.1013443548024
 20
105.3306589735586
 30
0.0
 10
219.109746948305
 20
105.4062642622325
 30
0.0
 10
219.1196971932475
 20
105.4777347385349
 30
0.0
 10
219.1326325744461
 20
105.5449684067253
 30
0.0
 10
219.14718675879
 20
105.6081161163698
 30
0.0
 10
219.1646491682133
 20
105.6671120462108
 30
0.0
 10
219.1838346395588
 20
105.722463453851
 30
0.0
 10
219.2056011688769
 20
105.7740815431363
 30
0.0
 10
219.230091467071
 20
105.8219115867425
 30
0.0
 10
219.2561019882069
 20
105.8664496090481
 30
0.0
 10
219.2850019794402
 20
105.9070028605073
 30
0.0
 10
219.3150470952493
 20
105.9447094313705
 30
0.0
 10
219.3484208352596
 20
105.9781864745562
 30
0.0
 10
219.3837354477701
 20
106.0082953574194
 30
0.0
 10
219.4215109496059
 20
106.0348646918921
 30
0.0
 10
219.4615474708584
 20
106.0577908228255
 30
0.0
 10
219.5036909618853
 20
106.0780329433758
 30
0.0
 10
219.5487446310202
 20
106.0932712064379
 30
0.0
 10
219.5957731727509
 20
106.1056936212003
 30
0.0
 10
219.6451385884036
 20
106.1148317001214
 30
0.0
 10
219.6968952779048
 20
106.1202189060386
 30
0.0
 10
219.7322636998915
 20
106.1207701284046
 30
0.0
 10
219.750249282577
 20
106.1210504365124
 30
0.0
  0
SPLINE
  5
18E
330
1F
100
AcDbEntity
  8
0
  6
Continuous
 62
     7
370
     0
100
AcDbSpline
210
0.0
220
0.0
230
1.0
 70
     8
 71
     3
 72
    15
 73
    11
 74
     0
 42
0.00000001
 43
0.00000001
 40
0.0
 40
0.0
 40
0.0
 40
0.0
 40
0.0974206681772145
 40
0.2008855880393207
 40
0.3111719701726504
 40
0.4297979458253726
 40
0.5577399263645875
 40
0.6947152693641585
 40
0.8421299102060552
 40
1.0
 40
1.0
 40
1.0
 40
1.0
 10
219.291326953465
 20
104.2380283237883
 30
0.0
 10
219.2750431965464
 20
104.2615178820363
 30
0.0
 10
219.2414653927262
 20
104.3099543566542
 30
0.0
 10
219.2021654847167
 20
104.392543038937
 30
0.0
 10
219.1671092709766
 20
104.4834615824366
 30
0.0
 10
219.1395965705646
 20
104.5844937981985
 30
0.0
 10
219.1180472677956
 20
104.694835583997
 30
0.0
 10
219.1024832909993
 20
104.8147034539199
 30
0.0
 10
219.0936756123906
 20
104.9440456210931
 30
0.0
 10
219.0923773782129
 20
105.0334801623188
 30
0.0
 10
219.0917060300396
 20
105.0797289184376
 30
0.0
  0
SPLINE
  5
18F
330
1F
100
AcDbEntity
  8
0
  6
Continuous
 62
     7
370
     0
100
AcDbSpline
210
0.0
220
0.0
230
1.0
 70
     8
 71
     3
 72
    15
 73
    11
 74
     0
 42
0.00000001
 43
0.00000001
 40
0.0
 40
0.0
 40
0.0
 40
0.0
 40
0.1379032299933934
 40
0.2688733426002937
 40
0.3951781273461133
 40
0.5170892381308875
 40
0.6367430265135471
 40
0.7562218164637977
 40
0.87662835946368
 40
1.0
 40
1.0
 40
1.0
 40
1.0
 10
219.750249282577
 20
104.0400537584942
 30
0.0
 10
219.7264885006393
 20
104.0407315360554
 30
0.0
 10
219.6801615156753
 20
104.0420530157511
 30
0.0
 10
219.6125043700898
 20
104.0510316563135
 30
0.0
 10
219.5490045301665
 20
104.0668344852663
 30
0.0
 10
219.4891264111201
 20
104.0880283071909
 30
0.0
 10
219.4335430593809
 20
104.1163762644716
 30
0.0
 10
219.3819890865458
 20
104.1508670900015
 30
0.0
 10
219.3334285526967
 20
104.1906983182956
 30
0.0
 10
219.3054741572109
 20
104.2221242431068
 30
0.0
 10
219.291326953465
 20
104.2380283237883
 30
0.0
  0
LINE
  5
190
330
1F
100
AcDbEntity
  8
0
  6
Continuous
 62
     7
370
     0
100
AcDbLine
 10
222.200030182
 20
104.9093308518
 30
0.0
 11
222.963940355
 21
104.9093308518
 31
0.0
  0
LINE
  5
191
330
1F
100
AcDbEntity
  8
0
  6
Continuous
 62
     7
370
     0
100
AcDbLine
 10
222.200030182
 20
104.6722552809
 30
0.0
 11
222.200030182
 21
104.9093308518
 31
0.0
  0
LINE
  5
192
330
1F
100
AcDbEntity
  8
0
  6
Continuous
 62
     7
370
     0
100
AcDbLine
 10
222.963940355
 20
104.6722552809
 30
0.0
 11
222.200030182
 21
104.6722552809
 31
0.0
  0
LINE
  5
193
330
1F
100
AcDbEntity
  8
0
  6
Continuous
 62
     7
370
     0
100
AcDbLine
 10
222.963940355
 20
104.9093308518
 30
0.0
 11
222.963940355
 21
104.6722552809
 31
0.0
  0
SPLINE
  5
194
330
1F
100
AcDbEntity
  8
0
  6
Continuous
 62
     7
370
     0
100
AcDbSpline
210
0.0
220
0.0
230
1.0
 70
     8
 71
     3
 72
    31
 73
    27
 74
     0
 42
0.00000001
 43
0.00000001
 40
0.0
 40
0.0
 40
0.0
 40
0.0
 40
0.0628739462114324
 40
0.1228366299919129
 40
0.1796565674430314
 40
0.233960012230862
 40
0.2855950186955588
 40
0.3345131060783807
 40
0.3809048259061762
 40
0.4248945919393347
 40
0.4665290347654872
 40
0.5064882940692462
 40
0.5450315536447543
 40
0.5818311798231344
 40
0.6174482799494428
 40
0.6520669127690459
 40
0.6858797142465104
 40
0.719174554791392
 40
0.7521816462063926
 40
0.7852401639180911
 40
0.8186564497770833
 40
0.852547740653311
 40
0.8876263422585189
 40
0.923635078068751
 40
0.9610218444769894
 40
1.0
 40
1.0
 40
1.0
 40
1.0
 10
226.0986062370375
 20
105.0797289184376
 30
0.0
 10
226.0983358728015
 20
105.0505039350947
 30
0.0
 10
226.0978076630481
 20
104.993407177507
 30
0.0
 10
226.0946699467718
 20
104.9099350666282
 30
0.0
 10
226.0887017272949
 20
104.8306271973456
 30
0.0
 10
226.0813577241891
 20
104.7553018984051
 30
0.0
 10
226.0702477857726
 20
104.6841602529032
 30
0.0
 10
226.0582762251824
 20
104.6168999988095
 30
0.0
 10
226.0434703618571
 20
104.5538265569132
 30
0.0
 10
226.0261953954081
 20
104.4949122837503
 30
0.0
 10
226.0067398604681
 20
104.4398456618606
 30
0.0
 10
225.9854038558271
 20
104.3882105283273
 30
0.0
 10
225.9617721820236
 20
104.3400421660879
 30
0.0
 10
225.9351414711922
 20
104.2958103851879
 30
0.0
 10
225.9067301989932
 20
104.2549280827898
 30
0.0
 10
225.8763302830646
 20
104.217241900187
 30
0.0
 10
225.8432972095992
 20
104.1832942504783
 30
0.0
 10
225.8076643574266
 20
104.1532756780608
 30
0.0
 10
225.7701540871053
 20
104.1262351745065
 30
0.0
 10
225.73002022974
 20
104.1030826934439
 30
0.0
 10
225.6874384449689
 20
104.083901265023
 30
0.0
 10
225.6426932380928
 20
104.0675020966847
 30
0.0
 10
225.5953306044357
 20
104.0554857479881
 30
0.0
 10
225.5457240413189
 20
104.0462874208295
 30
0.0
 10
225.4936907719407
 20
104.0408707796816
 30
0.0
 10
225.458185547946
 20
104.0403298563721
 30
0.0
 10
225.4400629845001
 20
104.0400537584942
 30
0.0
  0
SPLINE
  5
195
330
1F
100
AcDbEntity
  8
0
  6
Continuous
 62
     7
370
     0
100
AcDbSpline
210
0.0
220
0.0
230
1.0
 70
     8
 71
     3
 72
    27
 73
    23
 74
     0
 42
0.00000001
 43
0.00000001
 40
0.0
 40
0.0
 40
0.0
 40
0.0
 40
0.0567243372181508
 40
0.1114372357370108
 40
0.1643678222229013
 40
0.21643537246209
 40
0.2676414903219251
 40
0.3173597799690279
 40
0.3674730633322809
 40
0.4182103970528082
 40
0.4714042826470201
 40
0.5279657201290494
 40
0.5880611158232139
 40
0.6521342629937146
 40
0.6863448363353056
 40
0.7232636803169653
 40
0.762610250771542
 40
0.8047389366452182
 40
0.84943033879095
 40
0.8967112583864923
 40
0.9468896380534765
 40
1.0
 40
1.0
 40
1.0
 40
1.0
 10
225.4400629845001
 20
106.1210504365124
 30
0.0
 10
225.4664501736094
 20
106.1202746718276
 30
0.0
 10
225.5182888650322
 20
106.1187506509876
 30
0.0
 10
225.5939736222102
 20
106.1063210135622
 30
0.0
 10
225.6653016278554
 20
106.0850582030547
 30
0.0
 10
225.7322265406822
 20
106.0563737544079
 30
0.0
 10
225.7936042896737
 20
106.0199389838301
 30
0.0
 10
225.848417206507
 20
105.9756469691815
 30
0.0
 10
225.8960740453357
 20
105.9239627678692
 30
0.0
 10
225.936054705508
 20
105.8642739390547
 30
0.0
 10
225.9710017932263
 20
105.7982270992422
 30
0.0
 10
226.0020480188014
 20
105.7255258058496
 30
0.0
 10
226.0301129049761
 20
105.6462515288861
 30
0.0
 10
226.0500283591597
 20
105.5752899842107
 30
0.0
 10
226.0642340362765
 20
105.5140334609155
 30
0.0
 10
226.0736370658428
 20
105.463510813335
 30
0.0
 10
226.0814434654972
 20
105.4089965921661
 30
0.0
 10
226.0874242226271
 20
105.3506226819846
 30
0.0
 10
226.0923312927388
 20
105.288454554325
 30
0.0
 10
226.0961207980969
 20
105.2224535021219
 30
0.0
 10
226.0980443600711
 20
105.1524545669742
 30
0.0
 10
226.0984154335842
 20
105.1044252589451
 30
0.0
 10
226.0986062370375
 20
105.0797289184376
 30
0.0
  0
SPLINE
  5
196
330
1F
100
AcDbEntity
  8
0
  6
Continuous
 62
     7
370
     0
100
AcDbSpline
210
0.0
220
0.0
230
1.0
 70
     8
 71
     3
 72
    31
 73
    27
 74
     0
 42
0.00000001
 43
0.00000001
 40
0.0
 40
0.0
 40
0.0
 40
0.0
 40
0.0631144583947934
 40
0.12361464576949
 40
0.1809737111859576
 40
0.2352614550083222
 40
0.287100701833872
 40
0.3360307363034436
 40
0.3823823485850663
 40
0.4263340836597073
 40
0.4682106947981602
 40
0.5082496012618052
 40
0.546628336606585
 40
0.5836495392304463
 40
0.6189943150301618
 40
0.6535830186205961
 40
0.6871561361903314
 40
0.7204221919788075
 40
0.753230218811817
 40
0.7862601560779
 40
0.8195039834988841
 40
0.8535452747120184
 40
0.8883082803397299
 40
0.9239958607406952
 40
0.961350304754645
 40
1.0
 40
1.0
 40
1.0
 40
1.0
 10
224.7815197319627
 20
105.0797289184376
 30
0.0
 10
224.7817851249511
 20
105.1090918236398
 30
0.0
 10
224.7823049180552
 20
105.166601389873
 30
0.0
 10
224.7855290258206
 20
105.2507482165192
 30
0.0
 10
224.7911580567254
 20
105.3306589735586
 30
0.0
 10
224.7995606502281
 20
105.4062642622325
 30
0.0
 10
224.8095108951706
 20
105.4777347385349
 30
0.0
 10
224.8224462763692
 20
105.5449684067253
 30
0.0
 10
224.837000460713
 20
105.6081161163698
 30
0.0
 10
224.8544628701363
 20
105.6671120462108
 30
0.0
 10
224.8736483414819
 20
105.722463453851
 30
0.0
 10
224.8954148708
 20
105.7740815431363
 30
0.0
 10
224.9199051689941
 20
105.8219115867425
 30
0.0
 10
224.9459156901299
 20
105.8664496090481
 30
0.0
 10
224.9748156813633
 20
105.9070028605073
 30
0.0
 10
225.0048607971724
 20
105.9447094313705
 30
0.0
 10
225.0382345371827
 20
105.9781864745562
 30
0.0
 10
225.0735491496932
 20
106.0082953574194
 30
0.0
 10
225.111324651529
 20
106.0348646918921
 30
0.0
 10
225.1513611727815
 20
106.0577908228255
 30
0.0
 10
225.1935046638083
 20
106.0780329433758
 30
0.0
 10
225.2385583329433
 20
106.0932712064379
 30
0.0
 10
225.285586874674
 20
106.1056936212003
 30
0.0
 10
225.3349522903267
 20
106.1148317001214
 30
0.0
 10
225.3867089798279
 20
106.1202189060386
 30
0.0
 10
225.4220774018146
 20
106.1207701284046
 30
0.0
 10
225.4400629845001
 20
106.1210504365124
 30
0.0
  0
SPLINE
  5
197
330
1F
100
AcDbEntity
  8
0
  6
Continuous
 62
     7
370
     0
100
AcDbSpline
210
0.0
220
0.0
230
1.0
 70
     8
 71
     3
 72
    15
 73
    11
 74
     0
 42
0.00000001
 43
0.00000001
 40
0.0
 40
0.0
 40
0.0
 40
0.0
 40
0.0974206681772144
 40
0.2008855880393207
 40
0.3111719701726504
 40
0.4297979458253727
 40
0.5577399263645875
 40
0.6947152693641585
 40
0.8421299102060553
 40
1.0
 40
1.0
 40
1.0
 40
1.0
 10
224.9811406553881
 20
104.2380283237883
 30
0.0
 10
224.9648568984695
 20
104.2615178820363
 30
0.0
 10
224.9312790946493
 20
104.3099543566542
 30
0.0
 10
224.8919791866398
 20
104.392543038937
 30
0.0
 10
224.8569229728997
 20
104.4834615824366
 30
0.0
 10
224.8294102724877
 20
104.5844937981985
 30
0.0
 10
224.8078609697187
 20
104.694835583997
 30
0.0
 10
224.7922969929224
 20
104.8147034539199
 30
0.0
 10
224.7834893143137
 20
104.9440456210931
 30
0.0
 10
224.7821910801359
 20
105.0334801623188
 30
0.0
 10
224.7815197319627
 20
105.0797289184376
 30
0.0
  0
SPLINE
  5
198
330
1F
100
AcDbEntity
  8
0
  6
Continuous
 62
     7
370
     0
100
AcDbSpline
210
0.0
220
0.0
230
1.0
 70
     8
 71
     3
 72
    15
 73
    11
 74
     0
 42
0.00000001
 43
0.00000001
 40
0.0
 40
0.0
 40
0.0
 40
0.0
 40
0.1379032299933933
 40
0.2688733426002935
 40
0.3951781273461131
 40
0.5170892381308876
 40
0.6367430265135475
 40
0.7562218164637967
 40
0.8766283594636793
 40
1.0
 40
1.0
 40
1.0
 40
1.0
 10
225.4400629845001
 20
104.0400537584942
 30
0.0
 10
225.4163022025624
 20
104.0407315360554
 30
0.0
 10
225.3699752175984
 20
104.0420530157511
 30
0.0
 10
225.3023180720128
 20
104.0510316563135
 30
0.0
 10
225.2388182320896
 20
104.0668344852663
 30
0.0
 10
225.1789401130432
 20
104.0880283071909
 30
0.0
 10
225.123356761304
 20
104.1163762644716
 30
0.0
 10
225.0718027884689
 20
104.1508670900015
 30
0.0
 10
225.0232422546198
 20
104.1906983182956
 30
0.0
 10
224.995287859134
 20
104.2221242431069
 30
0.0
 10
224.9811406553881
 20
104.2380283237883
 30
0.0
  0
LINE
  5
199
330
1F
100
AcDbEntity
  8
0
  6
Continuous
 62
     7
370
     0
100
AcDbLine
 10
227.8898438839
 20
104.9093308518
 30
0.0
 11
228.6537540569
 21
104.9093308518
 31
0.0
  0
LINE
  5
19A
330
1F
100
AcDbEntity
  8
0
  6
Continuous
 62
     7
370
     0
100
AcDbLine
 10
227.8898438839
 20
104.6722552809
 30
0.0
 11
227.8898438839
 21
104.9093308518
 31
0.0
  0
LINE
  5
19B
330
1F
100
AcDbEntity
  8
0
  6
Continuous
 62
     7
370
     0
100
AcDbLine
 10
228.6537540569
 20
104.6722552809
 30
0.0
 11
227.8898438839
 21
104.6722552809
 31
0.0
  0
LINE
  5
19C
330
1F
100
AcDbEntity
  8
0
  6
Continuous
 62
     7
370
     0
100
AcDbLine
 10
228.6537540569
 20
104.9093308518
 30
0.0
 11
228.6537540569
 21
104.6722552809
 31
0.0
  0
SPLINE
  5
19D
330
1F
100
AcDbEntity
  8
0
  6
Continuous
 62
     7
370
     0
100
AcDbSpline
210
0.0
220
0.0
230
1.0
 70
     8
 71
     3
 72
    31
 73
    27
 74
     0
 42
0.00000001
 43
0.00000001
 40
0.0
 40
0.0
 40
0.0
 40
0.0
 40
0.0628739462114324
 40
0.1228366299919129
 40
0.1796565674430315
 40
0.2339600122308621
 40
0.285595018695559
 40
0.3345131060783808
 40
0.3809048259061764
 40
0.4248945919393348
 40
0.4665290347654876
 40
0.5064882940692463
 40
0.5450315536447548
 40
0.5818311798231349
 40
0.6174482799494435
 40
0.652066912769046
 40
0.685879714246511
 40
0.7191745547913925
 40
0.7521816462063932
 40
0.7852401639180917
 40
0.8186564497770835
 40
0.852547740653311
 40
0.8876263422585192
 40
0.9236350780687517
 40
0.9610218444769894
 40
1.0
 40
1.0
 40
1.0
 40
1.0
 10
232.1045207001785
 20
105.0797289184376
 30
0.0
 10
232.1042503359425
 20
105.0505039350947
 30
0.0
 10
232.1037221261892
 20
104.993407177507
 30
0.0
 10
232.1005844099128
 20
104.9099350666282
 30
0.0
 10
232.0946161904359
 20
104.8306271973456
 30
0.0
 10
232.0872721873301
 20
104.7553018984051
 30
0.0
 10
232.0761622489137
 20
104.6841602529032
 30
0.0
 10
232.0641906883234
 20
104.6168999988095
 30
0.0
 10
232.0493848249982
 20
104.5538265569132
 30
0.0
 10
232.0321098585491
 20
104.4949122837503
 30
0.0
 10
232.0126543236091
 20
104.4398456618606
 30
0.0
 10
231.9913183189682
 20
104.3882105283273
 30
0.0
 10
231.9676866451646
 20
104.3400421660879
 30
0.0
 10
231.9410559343332
 20
104.2958103851879
 30
0.0
 10
231.9126446621342
 20
104.2549280827898
 30
0.0
 10
231.8822447462056
 20
104.217241900187
 30
0.0
 10
231.8492116727402
 20
104.1832942504783
 30
0.0
 10
231.8135788205676
 20
104.1532756780608
 30
0.0
 10
231.7760685502464
 20
104.1262351745065
 30
0.0
 10
231.735934692881
 20
104.1030826934439
 30
0.0
 10
231.6933529081099
 20
104.083901265023
 30
0.0
 10
231.6486077012338
 20
104.0675020966847
 30
0.0
 10
231.6012450675767
 20
104.0554857479881
 30
0.0
 10
231.55163850446
 20
104.0462874208295
 30
0.0
 10
231.4996052350817
 20
104.0408707796816
 30
0.0
 10
231.4641000110871
 20
104.0403298563721
 30
0.0
 10
231.4459774476412
 20
104.0400537584942
 30
0.0
  0
SPLINE
  5
19E
330
1F
100
AcDbEntity
  8
0
  6
Continuous
 62
     7
370
     0
100
AcDbSpline
210
0.0
220
0.0
230
1.0
 70
     8
 71
     3
 72
    27
 73
    23
 74
     0
 42
0.00000001
 43
0.00000001
 40
0.0
 40
0.0
 40
0.0
 40
0.0
 40
0.0567243372181508
 40
0.1114372357370111
 40
0.1643678222229013
 40
0.2164353724620895
 40
0.2676414903219251
 40
0.3173597799690279
 40
0.3674730633322808
 40
0.4182103970528078
 40
0.4714042826470199
 40
0.5279657201290492
 40
0.5880611158232136
 40
0.6521342629937142
 40
0.6863448363353056
 40
0.7232636803169652
 40
0.7626102507715418
 40
0.8047389366452182
 40
0.8494303387909499
 40
0.8967112583864923
 40
0.9468896380534765
 40
1.0
 40
1.0
 40
1.0
 40
1.0
 10
231.4459774476412
 20
106.1210504365124
 30
0.0
 10
231.4723646367505
 20
106.1202746718276
 30
0.0
 10
231.5242033281733
 20
106.1187506509876
 30
0.0
 10
231.5998880853512
 20
106.1063210135622
 30
0.0
 10
231.6712160909964
 20
106.0850582030547
 30
0.0
 10
231.7381410038232
 20
106.0563737544079
 30
0.0
 10
231.7995187528147
 20
106.0199389838301
 30
0.0
 10
231.854331669648
 20
105.9756469691815
 30
0.0
 10
231.9019885084767
 20
105.9239627678692
 30
0.0
 10
231.941969168649
 20
105.8642739390547
 30
0.0
 10
231.9769162563673
 20
105.7982270992422
 30
0.0
 10
232.0079624819425
 20
105.7255258058496
 30
0.0
 10
232.036027368117
 20
105.6462515288861
 30
0.0
 10
232.0559428223007
 20
105.5752899842107
 30
0.0
 10
232.0701484994176
 20
105.5140334609155
 30
0.0
 10
232.0795515289838
 20
105.463510813335
 30
0.0
 10
232.0873579286382
 20
105.4089965921661
 30
0.0
 10
232.0933386857681
 20
105.3506226819846
 30
0.0
 10
232.0982457558798
 20
105.288454554325
 30
0.0
 10
232.1020352612379
 20
105.2224535021219
 30
0.0
 10
232.1039588232121
 20
105.1524545669742
 30
0.0
 10
232.1043298967252
 20
105.1044252589451
 30
0.0
 10
232.1045207001785
 20
105.0797289184376
 30
0.0
  0
SPLINE
  5
19F
330
1F
100
AcDbEntity
  8
0
  6
Continuous
 62
     7
370
     0
100
AcDbSpline
210
0.0
220
0.0
230
1.0
 70
     8
 71
     3
 72
    31
 73
    27
 74
     0
 42
0.00000001
 43
0.00000001
 40
0.0
 40
0.0
 40
0.0
 40
0.0
 40
0.0631144583947934
 40
0.1236146457694899
 40
0.1809737111859575
 40
0.235261455008322
 40
0.2871007018338719
 40
0.3360307363034434
 40
0.3823823485850662
 40
0.426334083659707
 40
0.4682106947981599
 40
0.5082496012618049
 40
0.5466283366065846
 40
0.5836495392304459
 40
0.6189943150301614
 40
0.6535830186205956
 40
0.687156136190331
 40
0.7204221919788075
 40
0.7532302188118168
 40
0.7862601560778997
 40
0.8195039834988835
 40
0.8535452747120178
 40
0.8883082803397293
 40
0.9239958607406945
 40
0.9613503047546453
 40
1.0
 40
1.0
 40
1.0
 40
1.0
 10
230.7874341951037
 20
105.0797289184376
 30
0.0
 10
230.7876995880921
 20
105.1090918236398
 30
0.0
 10
230.7882193811963
 20
105.166601389873
 30
0.0
 10
230.7914434889616
 20
105.2507482165192
 30
0.0
 10
230.7970725198665
 20
105.3306589735586
 30
0.0
 10
230.8054751133691
 20
105.4062642622325
 30
0.0
 10
230.8154253583116
 20
105.4777347385349
 30
0.0
 10
230.8283607395103
 20
105.5449684067253
 30
0.0
 10
230.8429149238541
 20
105.6081161163698
 30
0.0
 10
230.8603773332774
 20
105.6671120462108
 30
0.0
 10
230.8795628046229
 20
105.722463453851
 30
0.0
 10
230.901329333941
 20
105.7740815431363
 30
0.0
 10
230.9258196321351
 20
105.8219115867425
 30
0.0
 10
230.951830153271
 20
105.8664496090481
 30
0.0
 10
230.9807301445043
 20
105.9070028605073
 30
0.0
 10
231.0107752603134
 20
105.9447094313705
 30
0.0
 10
231.0441490003238
 20
105.9781864745562
 30
0.0
 10
231.0794636128342
 20
106.0082953574194
 30
0.0
 10
231.11723911467
 20
106.0348646918921
 30
0.0
 10
231.1572756359225
 20
106.0577908228255
 30
0.0
 10
231.1994191269494
 20
106.0780329433758
 30
0.0
 10
231.2444727960843
 20
106.0932712064379
 30
0.0
 10
231.2915013378151
 20
106.1056936212003
 30
0.0
 10
231.3408667534677
 20
106.1148317001214
 30
0.0
 10
231.3926234429689
 20
106.1202189060386
 30
0.0
 10
231.4279918649556
 20
106.1207701284046
 30
0.0
 10
231.4459774476412
 20
106.1210504365124
 30
0.0
  0
SPLINE
  5
1A0
330
1F
100
AcDbEntity
  8
0
  6
Continuous
 62
     7
370
     0
100
AcDbSpline
210
0.0
220
0.0
230
1.0
 70
     8
 71
     3
 72
    15
 73
    11
 74
     0
 42
0.00000001
 43
0.00000001
 40
0.0
 40
0.0
 40
0.0
 40
0.0
 40
0.0974206681772145
 40
0.2008855880393207
 40
0.3111719701726504
 40
0.4297979458253726
 40
0.5577399263645875
 40
0.6947152693641585
 40
0.8421299102060552
 40
1.0
 40
1.0
 40
1.0
 40
1.0
 10
230.9870551185291
 20
104.2380283237883
 30
0.0
 10
230.9707713616105
 20
104.2615178820363
 30
0.0
 10
230.9371935577902
 20
104.3099543566542
 30
0.0
 10
230.8978936497808
 20
104.392543038937
 30
0.0
 10
230.8628374360407
 20
104.4834615824366
 30
0.0
 10
230.8353247356288
 20
104.5844937981985
 30
0.0
 10
230.8137754328597
 20
104.694835583997
 30
0.0
 10
230.7982114560634
 20
104.8147034539199
 30
0.0
 10
230.7894037774547
 20
104.9440456210931
 30
0.0
 10
230.7881055432769
 20
105.0334801623188
 30
0.0
 10
230.7874341951037
 20
105.0797289184376
 30
0.0
  0
SPLINE
  5
1A1
330
1F
100
AcDbEntity
  8
0
  6
Continuous
 62
     7
370
     0
100
AcDbSpline
210
0.0
220
0.0
230
1.0
 70
     8
 71
     3
 72
    15
 73
    11
 74
     0
 42
0.00000001
 43
0.00000001
 40
0.0
 40
0.0
 40
0.0
 40
0.0
 40
0.1379032299933933
 40
0.2688733426002926
 40
0.3951781273461146
 40
0.5170892381308878
 40
0.6367430265135473
 40
0.7562218164637978
 40
0.87662835946368
 40
1.0
 40
1.0
 40
1.0
 40
1.0
 10
231.4459774476412
 20
104.0400537584942
 30
0.0
 10
231.4222166657034
 20
104.0407315360554
 30
0.0
 10
231.3758896807394
 20
104.0420530157511
 30
0.0
 10
231.3082325351539
 20
104.0510316563135
 30
0.0
 10
231.2447326952306
 20
104.0668344852663
 30
0.0
 10
231.1848545761843
 20
104.0880283071909
 30
0.0
 10
231.1292712244449
 20
104.1163762644716
 30
0.0
 10
231.0777172516099
 20
104.1508670900015
 30
0.0
 10
231.0291567177608
 20
104.1906983182956
 30
0.0
 10
231.001202322275
 20
104.2221242431069
 30
0.0
 10
230.9870551185291
 20
104.2380283237883
 30
0.0
  0
CIRCLE
  5
1A2
330
1F
100
AcDbEntity
  8
0
  6
Continuous
 62
     7
370
     0
100
AcDbCircle
 10
223.3985789016
 20
106.5274031008
 30
0.0
 40
25.40000000000001
  0
SPLINE
  5
1A3
330
1F
100
AcDbEntity
  8
0
  6
Continuous
 62
     7
370
     0
100
AcDbSpline
210
0.0
220
0.0
230
1.0
 70
     8
 71
     3
 72
    23
 73
    19
 74
     0
 42
0.00000001
 43
0.00000001
 40
0.0
 40
0.0
 40
0.0
 40
0.0
 40
0.1156291309254413
 40
0.2215410391198766
 40
0.3170478562190415
 40
0.4031508756396164
 40
0.4801812167162793
 40
0.5476493661481896
 40
0.6070358428421807
 40
0.6586524080635068
 40
0.7057228903536447
 40
0.7498040879796465
 40
0.7925868153452744
 40
0.8338739610102599
 40
0.8747683933034318
 40
0.9152226988916382
 40
0.9568807037304797
 40
1.0
 40
1.0
 40
1.0
 40
1.0
 10
231.8411033991636
 20
105.0805520975033
 30
0.0
 10
231.8408539475863
 20
105.1192485081197
 30
0.0
 10
231.8403760078043
 20
105.193389366479
 30
0.0
 10
231.8349744124659
 20
105.2993822716775
 30
0.0
 10
231.8265096271233
 20
105.3952441784376
 30
0.0
 10
231.8149311455042
 20
105.4810634625482
 30
0.0
 10
231.7995433455793
 20
105.5567469554113
 30
0.0
 10
231.7808800433424
 20
105.6224557768962
 30
0.0
 10
231.7586399281267
 20
105.6780497922663
 30
0.0
 10
231.7321965104989
 20
105.7240874445006
 30
0.0
 10
231.7027596957192
 20
105.7618508088336
 30
0.0
 10
231.6720101521029
 20
105.7945382865187
 30
0.0
 10
231.6391791379592
 20
105.8223379213597
 30
0.0
 10
231.6036849865097
 20
105.8446391985217
 30
0.0
 10
231.5666717410115
 20
105.8626310394392
 30
0.0
 10
231.5272889311605
 20
105.8750134825261
 30
0.0
 10
231.4859236588546
 20
105.8826208682499
 30
0.0
 10
231.4575352091309
 20
105.8835183764191
 30
0.0
 10
231.4430963209113
 20
105.8839748655989
 30
0.0
  0
SPLINE
  5
1A4
330
1F
100
AcDbEntity
  8
0
  6
Continuous
 62
     7
370
     0
100
AcDbSpline
210
0.0
220
0.0
230
1.0
 70
     8
 71
     3
 72
    23
 73
    19
 74
     0
 42
0.00000001
 43
0.00000001
 40
0.0
 40
0.0
 40
0.0
 40
0.0
 40
0.1184055081537694
 40
0.2266543328167019
 40
0.324092341928602
 40
0.4117048030053217
 40
0.4890259050064155
 40
0.5569093973430755
 40
0.6162333444927071
 40
0.6673492812770745
 40
0.7135123932013473
 40
0.7576965045209776
 40
0.7994925114422908
 40
0.8399760647439393
 40
0.8798857418167766
 40
0.919148659385742
 40
0.9592273564930833
 40
1.0
 40
1.0
 40
1.0
 40
1.0
 10
231.0508514961187
 20
105.0805520975033
 30
0.0
 10
231.0511130485516
 20
105.0410336096131
 30
0.0
 10
231.0516137177612
 20
104.965386482665
 30
0.0
 10
231.0568444956947
 20
104.8573115104717
 30
0.0
 10
231.0658490646057
 20
104.7598131332419
 30
0.0
 10
231.077753692855
 20
104.6730263438492
 30
0.0
 10
231.0934726221273
 20
104.596833745999
 30
0.0
 10
231.11320959696
 20
104.5314295018867
 30
0.0
 10
231.1354578619701
 20
104.4760286123091
 30
0.0
 10
231.1629896683289
 20
104.4313177286551
 30
0.0
 10
231.1931339553827
 20
104.3948718361228
 30
0.0
 10
231.2242558716521
 20
104.3635271898912
 30
0.0
 10
231.2570876082468
 20
104.3368849583066
 30
0.0
 10
231.2914149420533
 20
104.3146707704888
 30
0.0
 10
231.327770486358
 20
104.2978516469575
 30
0.0
 10
231.3657566993272
 20
104.2856611087696
 30
0.0
 10
231.4053818464363
 20
104.2786456412157
 30
0.0
 10
231.4323683721958
 20
104.2776376505356
 30
0.0
 10
231.4459774476412
 20
104.2771293294077
 30
0.0
  0
SPLINE
  5
1A5
330
1F
100
AcDbEntity
  8
0
  6
Continuous
 62
     7
370
     0
100
AcDbSpline
210
0.0
220
0.0
230
1.0
 70
     8
 71
     3
 72
    15
 73
    11
 74
     0
 42
0.00000001
 43
0.00000001
 40
0.0
 40
0.0
 40
0.0
 40
0.0
 40
0.0838881132795455
 40
0.1771540327539698
 40
0.2825136355617228
 40
0.3993998606601629
 40
0.5294908061912204
 40
0.6728021776758327
 40
0.82953576161967
 40
1.0
 40
1.0
 40
1.0
 40
1.0
 10
231.1698008711083
 20
105.7432112453691
 30
0.0
 10
231.1600104467836
 20
105.726842643928
 30
0.0
 10
231.1393351319662
 20
105.6922756040643
 30
0.0
 10
231.1162006568654
 20
105.6321966645749
 30
0.0
 10
231.0957645761077
 20
105.5635378724687
 30
0.0
 10
231.0789389061577
 20
105.4852428623617
 30
0.0
 10
231.0667667143261
 20
105.3974459416885
 30
0.0
 10
231.0571572395392
 20
105.300249069975
 30
0.0
 10
231.05216547507
 20
105.1935165487598
 30
0.0
 10
231.0513015734681
 20
105.1192458229608
 30
0.0
 10
231.0508514961187
 20
105.0805520975033
 30
0.0
  0
SPLINE
  5
1A6
330
1F
100
AcDbEntity
  8
0
  6
Continuous
 62
     7
370
     0
100
AcDbSpline
210
0.0
220
0.0
230
1.0
 70
     8
 71
     3
 72
    15
 73
    11
 74
     0
 42
0.00000001
 43
0.00000001
 40
0.0
 40
0.0
 40
0.0
 40
0.0
 40
0.1276647678962228
 40
0.2517385630080477
 40
0.3727533493873867
 40
0.4921467589723859
 40
0.6140696213092441
 40
0.737197324412108
 40
0.8656069906011162
 40
1.0
 40
1.0
 40
1.0
 40
1.0
 10
231.4430963209113
 20
105.8839748655989
 30
0.0
 10
231.4294881001909
 20
105.8836177035205
 30
0.0
 10
231.4026544327219
 20
105.8829134256696
 30
0.0
 10
231.363366429339
 20
105.8761911007148
 30
0.0
 10
231.3261336500761
 20
105.8649498750713
 30
0.0
 10
231.2905295276383
 20
105.8497225434408
 30
0.0
 10
231.2574428999517
 20
105.829229562742
 30
0.0
 10
231.2255616336442
 20
105.8053025490794
 30
0.0
 10
231.196378923879
 20
105.7761501535359
 30
0.0
 10
231.1787936790134
 20
105.7543562783142
 30
0.0
 10
231.1698008711083
 20
105.7432112453691
 30
0.0
  0
SPLINE
  5
1A7
330
1F
100
AcDbEntity
  8
0
  6
Continuous
 62
     7
370
     0
100
AcDbSpline
210
0.0
220
0.0
230
1.0
 70
     8
 71
     3
 72
    23
 73
    19
 74
     0
 42
0.00000001
 43
0.00000001
 40
0.0
 40
0.0
 40
0.0
 40
0.0
 40
0.0407818458722593
 40
0.0808695887215865
 40
0.1202681657882668
 40
0.1601868504553522
 40
0.2004597376386395
 40
0.2422651778979073
 40
0.2864592615494687
 40
0.3329520837492632
 40
0.3844305340495304
 40
0.4433891253601053
 40
0.5116814722136831
 40
0.5890200255490079
 40
0.6762451906507722
 40
0.7737051914728236
 40
0.881567767781983
 40
1.0
 40
1.0
 40
1.0
 40
1.0
 10
231.4459774476412
 20
104.2771293294077
 30
0.0
 10
231.4595831152181
 20
104.2776487574248
 30
0.0
 10
231.4865628832422
 20
104.2786787728452
 30
0.0
 10
231.5262795878701
 20
104.2855395425296
 30
0.0
 10
231.5641180052456
 20
104.2983576412463
 30
0.0
 10
231.6004193434856
 20
104.3151173597966
 30
0.0
 10
231.6349961786458
 20
104.3368252194545
 30
0.0
 10
231.6676666688066
 20
104.3635680847662
 30
0.0
 10
231.698952529082
 20
104.3948941195846
 30
0.0
 10
231.7289614087639
 20
104.4317636292348
 30
0.0
 10
231.7562834611129
 20
104.4766812261806
 30
0.0
 10
231.7789490762561
 20
104.5320369861456
 30
0.0
 10
231.7983784613377
 20
104.5975557725847
 30
0.0
 10
231.8141836434193
 20
104.6737095506341
 30
0.0
 10
231.8261373800332
 20
104.7603591236346
 30
0.0
 10
231.835087506307
 20
104.8575870845181
 30
0.0
 10
231.8403532898793
 20
104.9655229995292
 30
0.0
 10
231.840845696383
 20
105.041033431333
 30
0.0
 10
231.8411033991636
 20
105.0805520975033
 30
0.0
  0
SPLINE
  5
1A8
330
1F
100
AcDbEntity
  8
0
  6
Continuous
 62
     7
370
     0
100
AcDbSpline
210
0.0
220
0.0
230
1.0
 70
     8
 71
     3
 72
    19
 73
    15
 74
     0
 42
0.00000001
 43
0.00000001
 40
0.0
 40
0.0
 40
0.0
 40
0.0
 40
0.0801399024652513
 40
0.1562809906190945
 40
0.2294060490129022
 40
0.3017986969723053
 40
0.3727428627695779
 40
0.4426676099026292
 40
0.5133209646126979
 40
0.5865476923632091
 40
0.6683225082295051
 40
0.763676625525904
 40
0.8740807567185471
 40
1.0
 40
1.0
 40
1.0
 40
1.0
 10
228.7591209772886
 20
107.8200920280589
 30
0.0
 10
228.7585540270479
 20
107.8388005478315
 30
0.0
 10
228.7574484162034
 20
107.8752840711843
 30
0.0
 10
228.746939205977
 20
107.92800461092
 30
0.0
 10
228.7295797105298
 20
107.9769035670164
 30
0.0
 10
228.7051425992177
 20
108.0213037380675
 30
0.0
 10
228.6751692065822
 20
108.0612378692207
 30
0.0
 10
228.6389044280907
 20
108.0951129056253
 30
0.0
 10
228.5966194291975
 20
108.1219944222913
 30
0.0
 10
228.5481842508072
 20
108.1430912103295
 30
0.0
 10
228.4915732293838
 20
108.1581012116694
 30
0.0
 10
228.4252234470722
 20
108.1682845883967
 30
0.0
 10
228.3480736183384
 20
108.1748556773053
 30
0.0
 10
228.2929424831485
 20
108.1754100175319
 30
0.0
 10
228.2635671797542
 20
108.1757053844291
 30
0.0
  0
SPLINE
  5
1A9
330
1F
100
AcDbEntity
  8
0
  6
Continuous
 62
     7
370
     0
100
AcDbSpline
210
0.0
220
0.0
230
1.0
 70
     8
 71
     3
 72
    19
 73
    15
 74
     0
 42
0.00000001
 43
0.00000001
 40
0.0
 40
0.0
 40
0.0
 40
0.0
 40
0.0889709576989554
 40
0.1722707767733143
 40
0.2503120304637113
 40
0.3246551996215525
 40
0.3978444501802954
 40
0.473300880718533
 40
0.5518258887444479
 40
0.6347494834982531
 40
0.7217660118923852
 40
0.810392665561119
 40
0.9031752367994191
 40
1.0
 40
1.0
 40
1.0
 40
1.0
 10
228.4726546624348
 20
107.4743568204767
 30
0.0
 10
228.4869965998941
 20
107.4773713504059
 30
0.0
 10
228.5147662987986
 20
107.4832082597294
 30
0.0
 10
228.5539149113084
 20
107.4962356323975
 30
0.0
 10
228.5898092397143
 20
107.5111591821079
 30
0.0
 10
228.621822802749
 20
107.5301253558606
 30
0.0
 10
228.6514665940375
 20
107.5519825718846
 30
0.0
 10
228.6772292549295
 20
107.5792832806905
 30
0.0
 10
228.7009578885106
 20
107.610301508429
 30
0.0
 10
228.7215166604243
 20
107.6457983416915
 30
0.0
 10
228.7381414127323
 20
107.6850672968151
 30
0.0
 10
228.7508474264863
 20
107.7275016407759
 30
0.0
 10
228.7576155748906
 20
107.7729525898037
 30
0.0
 10
228.7586120949674
 20
107.8041571346441
 30
0.0
 10
228.7591209772886
 20
107.8200920280589
 30
0.0
  0
SPLINE
  5
1AA
330
1F
100
AcDbEntity
  8
0
  6
Continuous
 62
     7
370
     0
100
AcDbSpline
210
0.0
220
0.0
230
1.0
 70
     8
 71
     3
 72
    11
 73
     7
 74
     0
 42
0.00000001
 43
0.00000001
 40
0.0
 40
0.0
 40
0.0
 40
0.0
 40
0.3293954641291831
 40
0.6051903468528008
 40
0.8278865786947348
 40
1.0
 40
1.0
 40
1.0
 40
1.0
 10
228.2969059319139
 20
107.4644786716887
 30
0.0
 10
228.3162510826402
 20
107.4647009200864
 30
0.0
 10
228.3517934617949
 20
107.4651092517107
 30
0.0
 10
228.4004084925289
 20
107.4663902078889
 30
0.0
 10
228.4397044675796
 20
107.4695191046639
 30
0.0
 10
228.4626512404103
 20
107.472888127708
 30
0.0
 10
228.4726546624348
 20
107.4743568204767
 30
0.0
  0
LINE
  5
1AB
330
1F
100
AcDbEntity
  8
0
  6
Continuous
 62
     7
370
     0
100
AcDbLine
 10
227.8108186936
 20
107.4644786717
 30
0.0
 11
228.2969059319
 21
107.4644786717
 31
0.0
  0
LINE
  5
1AC
330
1F
100
AcDbEntity
  8
0
  6
Continuous
 62
     7
370
     0
100
AcDbLine
 10
227.8108186936
 20
108.1757053844
 30
0.0
 11
227.8108186936
 21
107.4644786717
 31
0.0
  0
LINE
  5
1AD
330
1F
100
AcDbEntity
  8
0
  6
Continuous
 62
     7
370
     0
100
AcDbLine
 10
228.2635671798
 20
108.1757053844
 30
0.0
 11
227.8108186936
 21
108.1757053844
 31
0.0
  0
SPLINE
  5
1AE
330
1F
100
AcDbEntity
  8
0
  6
Continuous
 62
     7
370
     0
100
AcDbSpline
210
0.0
220
0.0
230
1.0
 70
     8
 71
     3
 72
    23
 73
    19
 74
     0
 42
0.00000001
 43
0.00000001
 40
0.0
 40
0.0
 40
0.0
 40
0.0
 40
0.0760105192062331
 40
0.1481357362434481
 40
0.2177881778331534
 40
0.2867678984972345
 40
0.3540434632439188
 40
0.4186108400234788
 40
0.4836364388553445
 40
0.5502295626461511
 40
0.5869278113138159
 40
0.6291578250269659
 40
0.6772382242876698
 40
0.7300426397437305
 40
0.7888625661169236
 40
0.8537504514610937
 40
0.9241097665384561
 40
0.9999999999999999
 40
0.9999999999999999
 40
0.9999999999999999
 40
0.9999999999999999
 10
228.6800957869841
 20
108.7239426421664
 30
0.0
 10
228.6795638725771
 20
108.7408532643291
 30
0.0
 10
228.6785272327394
 20
108.7738101167565
 30
0.0
 10
228.669825568161
 20
108.8216691805364
 30
0.0
 10
228.6547676590666
 20
108.8661932511106
 30
0.0
 10
228.6343751266677
 20
108.9073725614865
 30
0.0
 10
228.6085527622874
 20
108.9440074725041
 30
0.0
 10
228.5777328696417
 20
108.9755049206089
 30
0.0
 10
228.5408128136677
 20
108.9993156046111
 30
0.0
 10
228.5063036202521
 20
109.0141687583557
 30
0.0
 10
228.4752653357477
 20
109.0234608074217
 30
0.0
 10
228.4475337186304
 20
109.0289585303657
 30
0.0
 10
228.4160777935153
 20
109.0338025710295
 30
0.0
 10
228.3807940475558
 20
109.0379208133321
 30
0.0
 10
228.3416691339128
 20
109.0411169487933
 30
0.0
 10
228.2985825019057
 20
109.0436560666096
 30
0.0
 10
228.2516367164152
 20
109.0447341143911
 30
0.0
 10
228.2191157614629
 20
109.0448976287015
 30
0.0
 10
228.2022403393617
 20
109.0449824777784
 30
0.0
  0
SPLINE
  5
1AF
330
1F
100
AcDbEntity
  8
0
  6
Continuous
 62
     7
370
     0
100
AcDbSpline
210
0.0
220
0.0
230
1.0
 70
     8
 71
     3
 72
    15
 73
    11
 74
     0
 42
0.00000001
 43
0.00000001
 40
0.0
 40
0.0
 40
0.0
 40
0.0
 40
0.1323768784386573
 40
0.2551949197670689
 40
0.3737221416536693
 40
0.4900113154474171
 40
0.6078124214239343
 40
0.7311098159015433
 40
0.859997377757584
 40
0.9999999999999999
 40
0.9999999999999999
 40
0.9999999999999999
 40
0.9999999999999999
 10
228.4812980426244
 20
108.4370647377798
 30
0.0
 10
228.4970322860534
 20
108.4425764444856
 30
0.0
 10
228.5273646147563
 20
108.4532018616064
 30
0.0
 10
228.56801277248
 20
108.477333252105
 30
0.0
 10
228.6026331878615
 20
108.5062908029308
 30
0.0
 10
228.6311330857797
 20
108.5405858331783
 30
0.0
 10
228.6530338451362
 20
108.5800348101346
 30
0.0
 10
228.669272626021
 20
108.6238196578256
 30
0.0
 10
228.6781637188665
 20
108.6725524478902
 30
0.0
 10
228.6794342576086
 20
108.7063469255272
 30
0.0
 10
228.6800957869841
 20
108.7239426421664
 30
0.0
  0
SPLINE
  5
1B0
330
1F
100
AcDbEntity
  8
0
  6
Continuous
 62
     7
370
     0
100
AcDbSpline
210
0.0
220
0.0
230
1.0
 70
     8
 71
     3
 72
    15
 73
    11
 74
     0
 42
0.00000001
 43
0.00000001
 40
0.0
 40
0.0
 40
0.0
 40
0.0
 40
0.1669801744060311
 40
0.3208066328848195
 40
0.4631345048703185
 40
0.5942480539785212
 40
0.7123671525397443
 40
0.8194549510427519
 40
0.9157522665813541
 40
1.0
 40
1.0
 40
1.0
 40
1.0
 10
228.2343443229228
 20
108.4127809553425
 30
0.0
 10
228.2482031360461
 20
108.4128357860435
 30
0.0
 10
228.2748290465151
 20
108.4129411282053
 30
0.0
 10
228.3132362880108
 20
108.4144099122908
 30
0.0
 10
228.3486843309272
 20
108.4156629954143
 30
0.0
 10
228.3810360574966
 20
108.4188081372279
 30
0.0
 10
228.4104517407867
 20
108.4218886639203
 30
0.0
 10
228.4368136628024
 20
108.4260355330447
 30
0.0
 10
228.4602509456862
 20
108.4307081139899
 30
0.0
 10
228.4746015979699
 20
108.4350422840646
 30
0.0
 10
228.4812980426244
 20
108.4370647377798
 30
0.0
  0
LINE
  5
1B1
330
1F
100
AcDbEntity
  8
0
  6
Continuous
 62
     7
370
     0
100
AcDbLine
 10
227.8108186936
 20
108.4127809553
 30
0.0
 11
228.2343443229
 21
108.4127809553
 31
0.0
  0
LINE
  5
1B2
330
1F
100
AcDbEntity
  8
0
  6
Continuous
 62
     7
370
     0
100
AcDbLine
 10
227.8108186936
 20
109.0449824778
 30
0.0
 11
227.8108186936
 21
108.4127809553
 31
0.0
  0
LINE
  5
1B3
330
1F
100
AcDbEntity
  8
0
  6
Continuous
 62
     7
370
     0
100
AcDbLine
 10
228.2022403394
 20
109.0449824778
 30
0.0
 11
227.8108186936
 21
109.0449824778
 31
0.0
  0
SPLINE
  5
1B4
330
1F
100
AcDbEntity
  8
0
  6
Continuous
 62
     7
370
     0
100
AcDbSpline
210
0.0
220
0.0
230
1.0
 70
     8
 71
     3
 72
    23
 73
    19
 74
     0
 42
0.00000001
 43
0.00000001
 40
0.0
 40
0.0
 40
0.0
 40
0.0
 40
0.0407818458722601
 40
0.0808695887215869
 40
0.1202681657882671
 40
0.1601868504553522
 40
0.2004597376386394
 40
0.2422651778979079
 40
0.2864592615494686
 40
0.3329520837492633
 40
0.3844305340495303
 40
0.4433891253601059
 40
0.5116814722136832
 40
0.5890200255490082
 40
0.6762451906507722
 40
0.7737051914728236
 40
0.8815677677819829
 40
1.0
 40
1.0
 40
1.0
 40
1.0
 10
227.0205667905898
 20
104.2771293294077
 30
0.0
 10
227.0341724581668
 20
104.2776487574248
 30
0.0
 10
227.0611522261909
 20
104.2786787728452
 30
0.0
 10
227.1008689308188
 20
104.2855395425296
 30
0.0
 10
227.1387073481943
 20
104.2983576412463
 30
0.0
 10
227.1750086864343
 20
104.3151173597966
 30
0.0
 10
227.2095855215945
 20
104.3368252194545
 30
0.0
 10
227.2422560117553
 20
104.3635680847662
 30
0.0
 10
227.2735418720307
 20
104.3948941195846
 30
0.0
 10
227.3035507517126
 20
104.4317636292348
 30
0.0
 10
227.3308728040616
 20
104.4766812261806
 30
0.0
 10
227.3535384192049
 20
104.5320369861456
 30
0.0
 10
227.3729678042864
 20
104.5975557725847
 30
0.0
 10
227.3887729863681
 20
104.6737095506341
 30
0.0
 10
227.4007267229819
 20
104.7603591236346
 30
0.0
 10
227.4096768492557
 20
104.8575870845181
 30
0.0
 10
227.4149426328281
 20
104.9655229995292
 30
0.0
 10
227.4154350393317
 20
105.041033431333
 30
0.0
 10
227.4156927421123
 20
105.0805520975033
 30
0.0
  0
SPLINE
  5
1B5
330
1F
100
AcDbEntity
  8
0
  6
Continuous
 62
     7
370
     0
100
AcDbSpline
210
0.0
220
0.0
230
1.0
 70
     8
 71
     3
 72
    23
 73
    19
 74
     0
 42
0.00000001
 43
0.00000001
 40
0.0
 40
0.0
 40
0.0
 40
0.0
 40
0.1184055081537695
 40
0.226654332816702
 40
0.324092341928602
 40
0.4117048030053218
 40
0.4890259050064158
 40
0.5569093973430759
 40
0.6162333444927074
 40
0.6673492812770749
 40
0.7135123932013476
 40
0.7576965045209783
 40
0.799492511442291
 40
0.8399760647439393
 40
0.8798857418167763
 40
0.9191486593857421
 40
0.9592273564930831
 40
1.0
 40
1.0
 40
1.0
 40
1.0
 10
226.6254408390674
 20
105.0805520975033
 30
0.0
 10
226.6257023915003
 20
105.0410336096131
 30
0.0
 10
226.62620306071
 20
104.965386482665
 30
0.0
 10
226.6314338386434
 20
104.8573115104717
 30
0.0
 10
226.6404384075543
 20
104.7598131332419
 30
0.0
 10
226.6523430358038
 20
104.6730263438492
 30
0.0
 10
226.668061965076
 20
104.596833745999
 30
0.0
 10
226.6877989399087
 20
104.5314295018867
 30
0.0
 10
226.7100472049189
 20
104.4760286123091
 30
0.0
 10
226.7375790112777
 20
104.4313177286551
 30
0.0
 10
226.7677232983314
 20
104.3948718361228
 30
0.0
 10
226.7988452146008
 20
104.3635271898912
 30
0.0
 10
226.8316769511956
 20
104.3368849583066
 30
0.0
 10
226.866004285002
 20
104.3146707704888
 30
0.0
 10
226.9023598293067
 20
104.2978516469575
 30
0.0
 10
226.9403460422759
 20
104.2856611087696
 30
0.0
 10
226.979971189385
 20
104.2786456412157
 30
0.0
 10
227.0069577151445
 20
104.2776376505357
 30
0.0
 10
227.0205667905898
 20
104.2771293294077
 30
0.0
  0
SPLINE
  5
1B6
330
1F
100
AcDbEntity
  8
0
  6
Continuous
 62
     7
370
     0
100
AcDbSpline
210
0.0
220
0.0
230
1.0
 70
     8
 71
     3
 72
    15
 73
    11
 74
     0
 42
0.00000001
 43
0.00000001
 40
0.0
 40
0.0
 40
0.0
 40
0.0
 40
0.0838881132795455
 40
0.1771540327539697
 40
0.2825136355617227
 40
0.3993998606601628
 40
0.5294908061912204
 40
0.6728021776758328
 40
0.8295357616196701
 40
1.0
 40
1.0
 40
1.0
 40
1.0
 10
226.744390214057
 20
105.7432112453691
 30
0.0
 10
226.7345997897323
 20
105.726842643928
 30
0.0
 10
226.713924474915
 20
105.6922756040643
 30
0.0
 10
226.6907899998142
 20
105.6321966645749
 30
0.0
 10
226.6703539190565
 20
105.5635378724687
 30
0.0
 10
226.6535282491064
 20
105.4852428623617
 30
0.0
 10
226.6413560572748
 20
105.3974459416885
 30
0.0
 10
226.6317465824879
 20
105.300249069975
 30
0.0
 10
226.6267548180187
 20
105.1935165487598
 30
0.0
 10
226.6258909164168
 20
105.1192458229608
 30
0.0
 10
226.6254408390674
 20
105.0805520975033
 30
0.0
  0
SPLINE
  5
1B7
330
1F
100
AcDbEntity
  8
0
  6
Continuous
 62
     7
370
     0
100
AcDbSpline
210
0.0
220
0.0
230
1.0
 70
     8
 71
     3
 72
    15
 73
    11
 74
     0
 42
0.00000001
 43
0.00000001
 40
0.0
 40
0.0
 40
0.0
 40
0.0
 40
0.1276647678962239
 40
0.2517385630080486
 40
0.3727533493873887
 40
0.4921467589723853
 40
0.6140696213092445
 40
0.7371973244121091
 40
0.8656069906011172
 40
1.0
 40
1.0
 40
1.0
 40
1.0
 10
227.01768566386
 20
105.8839748655989
 30
0.0
 10
227.0040774431397
 20
105.8836177035205
 30
0.0
 10
226.9772437756706
 20
105.8829134256696
 30
0.0
 10
226.9379557722877
 20
105.8761911007148
 30
0.0
 10
226.9007229930248
 20
105.8649498750713
 30
0.0
 10
226.8651188705871
 20
105.8497225434408
 30
0.0
 10
226.8320322429004
 20
105.829229562742
 30
0.0
 10
226.800150976593
 20
105.8053025490794
 30
0.0
 10
226.7709682668277
 20
105.7761501535359
 30
0.0
 10
226.7533830219621
 20
105.7543562783142
 30
0.0
 10
226.744390214057
 20
105.7432112453691
 30
0.0
  0
SPLINE
  5
1B8
330
1F
100
AcDbEntity
  8
0
  6
Continuous
 62
     7
370
     0
100
AcDbSpline
210
0.0
220
0.0
230
1.0
 70
     8
 71
     3
 72
    23
 73
    19
 74
     0
 42
0.00000001
 43
0.00000001
 40
0.0
 40
0.0
 40
0.0
 40
0.0
 40
0.1156291309254414
 40
0.2215410391198767
 40
0.3170478562190416
 40
0.4031508756396167
 40
0.4801812167162793
 40
0.5476493661481897
 40
0.6070358428421808
 40
0.6586524080635068
 40
0.7057228903536453
 40
0.7498040879796471
 40
0.7925868153452743
 40
0.8338739610102602
 40
0.8747683933034326
 40
0.9152226988916381
 40
0.9568807037304797
 40
1.0
 40
1.0
 40
1.0
 40
1.0
 10
227.4156927421123
 20
105.0805520975033
 30
0.0
 10
227.4154432905351
 20
105.1192485081197
 30
0.0
 10
227.414965350753
 20
105.193389366479
 30
0.0
 10
227.4095637554146
 20
105.2993822716775
 30
0.0
 10
227.401098970072
 20
105.3952441784376
 30
0.0
 10
227.3895204884529
 20
105.4810634625482
 30
0.0
 10
227.374132688528
 20
105.5567469554113
 30
0.0
 10
227.3554693862911
 20
105.6224557768962
 30
0.0
 10
227.3332292710754
 20
105.6780497922663
 30
0.0
 10
227.3067858534476
 20
105.7240874445006
 30
0.0
 10
227.2773490386679
 20
105.7618508088336
 30
0.0
 10
227.2465994950516
 20
105.7945382865187
 30
0.0
 10
227.213768480908
 20
105.8223379213597
 30
0.0
 10
227.1782743294584
 20
105.8446391985217
 30
0.0
 10
227.1412610839602
 20
105.8626310394392
 30
0.0
 10
227.1018782741092
 20
105.8750134825261
 30
0.0
 10
227.0605130018033
 20
105.8826208682499
 30
0.0
 10
227.0321245520796
 20
105.8835183764191
 30
0.0
 10
227.01768566386
 20
105.8839748655989
 30
0.0
  0
SPLINE
  5
1B9
330
1F
100
AcDbEntity
  8
0
  6
Continuous
 62
     7
370
     0
100
AcDbSpline
210
0.0
220
0.0
230
1.0
 70
     8
 71
     3
 72
    15
 73
    11
 74
     0
 42
0.00000001
 43
0.00000001
 40
0.0
 40
0.0
 40
0.0
 40
0.0
 40
0.1531481085926313
 40
0.2994334688329063
 40
0.4364263514567509
 40
0.5656705729563584
 40
0.6865083102878721
 40
0.7992685160630035
 40
0.9033947408013439
 40
1.0
 40
1.0
 40
1.0
 40
1.0
 10
226.473564301451
 20
108.6366856612052
 30
0.0
 10
226.4659115479508
 20
108.6575507365463
 30
0.0
 10
226.4509489699096
 20
108.6983458984603
 30
0.0
 10
226.4286352582131
 20
108.757617824904
 30
0.0
 10
226.4082498107786
 20
108.8139048790305
 30
0.0
 10
226.3882602055597
 20
108.8663999851072
 30
0.0
 10
226.3702152318816
 20
108.9158656873138
 30
0.0
 10
226.353582717112
 20
108.961967867237
 30
0.0
 10
226.3371333003453
 20
109.0043860926584
 30
0.0
 10
226.3272617739485
 20
109.0317926369747
 30
0.0
 10
226.3225109429002
 20
109.0449824777784
 30
0.0
  0
LINE
  5
1BA
330
1F
100
AcDbEntity
  8
0
  6
Continuous
 62
     7
370
     0
100
AcDbLine
 10
226.6731852249
 20
108.0966801941
 30
0.0
 11
226.4735643015
 21
108.6366856612
 31
0.0
  0
LINE
  5
1BB
330
1F
100
AcDbEntity
  8
0
  6
Continuous
 62
     7
370
     0
100
AcDbLine
 10
225.9718366609
 20
108.0966801941
 30
0.0
 11
226.6731852249
 21
108.0966801941
 31
0.0
  0
LINE
  5
1BC
330
1F
100
AcDbEntity
  8
0
  6
Continuous
 62
     7
370
     0
100
AcDbLine
 10
226.1821589122
 20
108.6654969285
 30
0.0
 11
225.9718366609
 21
108.0966801941
 31
0.0
  0
SPLINE
  5
1BD
330
1F
100
AcDbEntity
  8
0
  6
Continuous
 62
     7
370
     0
100
AcDbSpline
210
0.0
220
0.0
230
1.0
 70
     8
 71
     3
 72
    11
 73
     7
 74
     0
 42
0.00000001
 43
0.00000001
 40
0.0
 40
0.0
 40
0.0
 40
0.0
 40
0.2472940500353368
 40
0.4956077709090492
 40
0.746359172773196
 40
1.0
 40
1.0
 40
1.0
 40
1.0
 10
226.3225109429002
 20
109.0449824777784
 30
0.0
 10
226.3146521513521
 20
109.0124574919026
 30
0.0
 10
226.2989021639963
 20
108.9472734094451
 30
0.0
 10
226.2659255251318
 20
108.8517699840756
 30
0.0
 10
226.2282013955954
 20
108.7571399806381
 30
0.0
 10
226.1975649073347
 20
108.6961610523955
 30
0.0
 10
226.1821589122032
 20
108.6654969285037
 30
0.0
  0
SPLINE
  5
1BE
330
1F
100
AcDbEntity
  8
0
  6
Continuous
 62
     7
370
     0
100
AcDbSpline
210
0.0
220
0.0
230
1.0
 70
     8
 71
     3
 72
    23
 73
    19
 74
     0
 42
0.00000001
 43
0.00000001
 40
0.0
 40
0.0
 40
0.0
 40
0.0
 40
0.1156291309254413
 40
0.2215410391198767
 40
0.3170478562190416
 40
0.4031508756396165
 40
0.4801812167162793
 40
0.5476493661481897
 40
0.6070358428421808
 40
0.6586524080635069
 40
0.7057228903536454
 40
0.7498040879796471
 40
0.7925868153452743
 40
0.8338739610102602
 40
0.8747683933034326
 40
0.9152226988916381
 40
0.9568807037304797
 40
1.0
 40
1.0
 40
1.0
 40
1.0
 10
225.8351889360225
 20
105.0805520975033
 30
0.0
 10
225.8349394844453
 20
105.1192485081197
 30
0.0
 10
225.8344615446633
 20
105.193389366479
 30
0.0
 10
225.8290599493249
 20
105.2993822716775
 30
0.0
 10
225.8205951639823
 20
105.3952441784376
 30
0.0
 10
225.8090166823631
 20
105.4810634625482
 30
0.0
 10
225.7936288824383
 20
105.5567469554113
 30
0.0
 10
225.7749655802014
 20
105.6224557768962
 30
0.0
 10
225.7527254649857
 20
105.6780497922663
 30
0.0
 10
225.7262820473579
 20
105.7240874445006
 30
0.0
 10
225.6968452325781
 20
105.7618508088336
 30
0.0
 10
225.6660956889619
 20
105.7945382865187
 30
0.0
 10
225.6332646748182
 20
105.8223379213597
 30
0.0
 10
225.5977705233687
 20
105.8446391985217
 30
0.0
 10
225.5607572778705
 20
105.8626310394392
 30
0.0
 10
225.5213744680194
 20
105.8750134825261
 30
0.0
 10
225.4800091957136
 20
105.8826208682499
 30
0.0
 10
225.4516207459899
 20
105.8835183764191
 30
0.0
 10
225.4371818577703
 20
105.8839748655989
 30
0.0
  0
SPLINE
  5
1BF
330
1F
100
AcDbEntity
  8
0
  6
Continuous
 62
     7
370
     0
100
AcDbSpline
210
0.0
220
0.0
230
1.0
 70
     8
 71
     3
 72
    23
 73
    19
 74
     0
 42
0.00000001
 43
0.00000001
 40
0.0
 40
0.0
 40
0.0
 40
0.0
 40
0.0407818458722601
 40
0.0808695887215869
 40
0.1202681657882671
 40
0.1601868504553522
 40
0.2004597376386394
 40
0.2422651778979079
 40
0.2864592615494687
 40
0.3329520837492634
 40
0.3844305340495304
 40
0.4433891253601058
 40
0.5116814722136832
 40
0.5890200255490082
 40
0.6762451906507722
 40
0.7737051914728236
 40
0.8815677677819829
 40
1.0
 40
1.0
 40
1.0
 40
1.0
 10
225.4400629845001
 20
104.2771293294077
 30
0.0
 10
225.453668652077
 20
104.2776487574248
 30
0.0
 10
225.4806484201011
 20
104.2786787728452
 30
0.0
 10
225.5203651247291
 20
104.2855395425296
 30
0.0
 10
225.5582035421045
 20
104.2983576412463
 30
0.0
 10
225.5945048803445
 20
104.3151173597966
 30
0.0
 10
225.6290817155048
 20
104.3368252194545
 30
0.0
 10
225.6617522056656
 20
104.3635680847662
 30
0.0
 10
225.6930380659409
 20
104.3948941195846
 30
0.0
 10
225.7230469456229
 20
104.4317636292348
 30
0.0
 10
225.7503689979719
 20
104.4766812261806
 30
0.0
 10
225.7730346131151
 20
104.5320369861456
 30
0.0
 10
225.7924639981967
 20
104.5975557725847
 30
0.0
 10
225.8082691802783
 20
104.6737095506341
 30
0.0
 10
225.8202229168922
 20
104.7603591236346
 30
0.0
 10
225.829173043166
 20
104.8575870845181
 30
0.0
 10
225.8344388267383
 20
104.9655229995292
 30
0.0
 10
225.834931233242
 20
105.041033431333
 30
0.0
 10
225.8351889360225
 20
105.0805520975033
 30
0.0
  0
SPLINE
  5
1C0
330
1F
100
AcDbEntity
  8
0
  6
Continuous
 62
     7
370
     0
100
AcDbSpline
210
0.0
220
0.0
230
1.0
 70
     8
 71
     3
 72
    23
 73
    19
 74
     0
 42
0.00000001
 43
0.00000001
 40
0.0
 40
0.0
 40
0.0
 40
0.0
 40
0.1184055081537694
 40
0.2266543328167019
 40
0.324092341928602
 40
0.4117048030053217
 40
0.4890259050064157
 40
0.5569093973430758
 40
0.6162333444927071
 40
0.6673492812770747
 40
0.7135123932013474
 40
0.7576965045209783
 40
0.799492511442291
 40
0.8399760647439394
 40
0.8798857418167761
 40
0.919148659385742
 40
0.959227356493083
 40
1.0
 40
1.0
 40
1.0
 40
1.0
 10
225.0449370329777
 20
105.0805520975033
 30
0.0
 10
225.0451985854106
 20
105.0410336096131
 30
0.0
 10
225.0456992546202
 20
104.965386482665
 30
0.0
 10
225.0509300325536
 20
104.8573115104717
 30
0.0
 10
225.0599346014646
 20
104.7598131332419
 30
0.0
 10
225.071839229714
 20
104.6730263438492
 30
0.0
 10
225.0875581589863
 20
104.596833745999
 30
0.0
 10
225.107295133819
 20
104.5314295018867
 30
0.0
 10
225.1295433988291
 20
104.4760286123091
 30
0.0
 10
225.1570752051879
 20
104.4313177286551
 30
0.0
 10
225.1872194922417
 20
104.3948718361228
 30
0.0
 10
225.2183414085111
 20
104.3635271898912
 30
0.0
 10
225.2511731451058
 20
104.3368849583066
 30
0.0
 10
225.2855004789122
 20
104.3146707704888
 30
0.0
 10
225.321856023217
 20
104.2978516469575
 30
0.0
 10
225.3598422361861
 20
104.2856611087696
 30
0.0
 10
225.3994673832953
 20
104.2786456412157
 30
0.0
 10
225.4264539090547
 20
104.2776376505356
 30
0.0
 10
225.4400629845001
 20
104.2771293294077
 30
0.0
  0
SPLINE
  5
1C1
330
1F
100
AcDbEntity
  8
0
  6
Continuous
 62
     7
370
     0
100
AcDbSpline
210
0.0
220
0.0
230
1.0
 70
     8
 71
     3
 72
    15
 73
    11
 74
     0
 42
0.00000001
 43
0.00000001
 40
0.0
 40
0.0
 40
0.0
 40
0.0
 40
0.0838881132795455
 40
0.1771540327539697
 40
0.2825136355617227
 40
0.3993998606601629
 40
0.5294908061912204
 40
0.6728021776758328
 40
0.82953576161967
 40
1.0
 40
1.0
 40
1.0
 40
1.0
 10
225.1638864079673
 20
105.7432112453691
 30
0.0
 10
225.1540959836425
 20
105.726842643928
 30
0.0
 10
225.1334206688252
 20
105.6922756040643
 30
0.0
 10
225.1102861937244
 20
105.6321966645749
 30
0.0
 10
225.0898501129667
 20
105.5635378724687
 30
0.0
 10
225.0730244430167
 20
105.4852428623617
 30
0.0
 10
225.0608522511851
 20
105.3974459416885
 30
0.0
 10
225.0512427763981
 20
105.300249069975
 30
0.0
 10
225.046251011929
 20
105.1935165487598
 30
0.0
 10
225.0453871103271
 20
105.1192458229608
 30
0.0
 10
225.0449370329777
 20
105.0805520975033
 30
0.0
  0
SPLINE
  5
1C2
330
1F
100
AcDbEntity
  8
0
  6
Continuous
 62
     7
370
     0
100
AcDbSpline
210
0.0
220
0.0
230
1.0
 70
     8
 71
     3
 72
    15
 73
    11
 74
     0
 42
0.00000001
 43
0.00000001
 40
0.0
 40
0.0
 40
0.0
 40
0.0
 40
0.1276647678962239
 40
0.2517385630080486
 40
0.3727533493873887
 40
0.4921467589723853
 40
0.6140696213092445
 40
0.7371973244121091
 40
0.8656069906011172
 40
1.0
 40
1.0
 40
1.0
 40
1.0
 10
225.4371818577703
 20
105.8839748655989
 30
0.0
 10
225.4235736370499
 20
105.8836177035205
 30
0.0
 10
225.3967399695809
 20
105.8829134256696
 30
0.0
 10
225.3574519661979
 20
105.8761911007148
 30
0.0
 10
225.320219186935
 20
105.8649498750713
 30
0.0
 10
225.2846150644973
 20
105.8497225434408
 30
0.0
 10
225.2515284368106
 20
105.829229562742
 30
0.0
 10
225.2196471705032
 20
105.8053025490794
 30
0.0
 10
225.1904644607379
 20
105.7761501535359
 30
0.0
 10
225.1728792158723
 20
105.7543562783142
 30
0.0
 10
225.1638864079673
 20
105.7432112453691
 30
0.0
  0
SPLINE
  5
1C3
330
1F
100
AcDbEntity
  8
0
  6
Continuous
 62
     7
370
     0
100
AcDbSpline
210
0.0
220
0.0
230
1.0
 70
     8
 71
     3
 72
    23
 73
    19
 74
     0
 42
0.00000001
 43
0.00000001
 40
0.0
 40
0.0
 40
0.0
 40
0.0
 40
0.0603255293380428
 40
0.1181599905079977
 40
0.1741866762963808
 40
0.2295388181457999
 40
0.2834498146386372
 40
0.337826511950592
 40
0.3926321025334832
 40
0.4484655764151909
 40
0.5059654091573053
 40
0.5650585322290048
 40
0.6266544786228438
 40
0.6922320330373639
 40
0.7611310781257618
 40
0.8353098773394203
 40
0.9153255598322017
 40
1.0
 40
1.0
 40
1.0
 40
1.0
 10
223.2800411161775
 20
108.7218846945023
 30
0.0
 10
223.2796586885666
 20
108.7334177719024
 30
0.0
 10
223.2789096252203
 20
108.7560076825269
 30
0.0
 10
223.2749827874198
 20
108.78916339949
 30
0.0
 10
223.2673480824249
 20
108.8206689942638
 30
0.0
 10
223.2572664732141
 20
108.8506910089634
 30
0.0
 10
223.2437953975048
 20
108.8790095537944
 30
0.0
 10
223.2277923091284
 20
108.9058440661727
 30
0.0
 10
223.2086956843524
 20
108.9310458183972
 30
0.0
 10
223.1868215994791
 20
108.9546915788671
 30
0.0
 10
223.1617061749071
 20
108.9762069100643
 30
0.0
 10
223.1330184555438
 20
108.9947699743289
 30
0.0
 10
223.1009846997466
 20
109.0105445742979
 30
0.0
 10
223.0655676734868
 20
109.0230643513474
 30
0.0
 10
223.0268789468684
 20
109.0330781350175
 30
0.0
 10
222.9846982734942
 20
109.0397399823097
 30
0.0
 10
222.9392185545912
 20
109.0445604728061
 30
0.0
 10
222.9077037468336
 20
109.0448391814159
 30
0.0
 10
222.8915005971804
 20
109.0449824777784
 30
0.0
  0
SPLINE
  5
1C4
330
1F
100
AcDbEntity
  8
0
  6
Continuous
 62
     7
370
     0
100
AcDbSpline
210
0.0
220
0.0
230
1.0
 70
     8
 71
     3
 72
    19
 73
    15
 74
     0
 42
0.00000001
 43
0.00000001
 40
0.0
 40
0.0
 40
0.0
 40
0.0
 40
0.1288602680417313
 40
0.2408921848092289
 40
0.3380442015575112
 40
0.4201204852136088
 40
0.494058456868551
 40
0.5660947835833202
 40
0.6368049543510103
 40
0.7091484493607204
 40
0.7819418055941272
 40
0.8542853006038369
 40
0.9261704072165587
 40
1.0
 40
1.0
 40
1.0
 40
1.0
 10
222.8293505777222
 20
108.386439225241
 30
0.0
 10
222.85694446377
 20
108.3868709577578
 30
0.0
 10
222.9085286456009
 20
108.3876780412041
 30
0.0
 10
222.9806609633105
 20
108.3945696855275
 30
0.0
 10
223.0421337474503
 20
108.4055208010194
 30
0.0
 10
223.0941622272056
 20
108.4214942855177
 30
0.0
 10
223.1378743627072
 20
108.4436707864201
 30
0.0
 10
223.1758916374845
 20
108.4706969967808
 30
0.0
 10
223.2074844713785
 20
108.5045501387275
 30
0.0
 10
223.2337664456614
 20
108.5427462018922
 30
0.0
 10
223.2541959634305
 20
108.5847790627849
 30
0.0
 10
223.2689328431545
 20
108.6289284205446
 30
0.0
 10
223.2785783872478
 20
108.6748232283837
 30
0.0
 10
223.2795492214433
 20
108.7060585992536
 30
0.0
 10
223.2800411161775
 20
108.7218846945023
 30
0.0
  0
LINE
  5
1C5
330
1F
100
AcDbEntity
  8
0
  6
Continuous
 62
     7
370
     0
100
AcDbLine
 10
222.2790553723
 20
108.3864392252
 30
0.0
 11
222.8293505777
 21
108.3864392252
 31
0.0
  0
LINE
  5
1C6
330
1F
100
AcDbEntity
  8
0
  6
Continuous
 62
     7
370
     0
100
AcDbLine
 10
222.2790553723
 20
109.0449824778
 30
0.0
 11
222.2790553723
 21
108.3864392252
 31
0.0
  0
LINE
  5
1C7
330
1F
100
AcDbEntity
  8
0
  6
Continuous
 62
     7
370
     0
100
AcDbLine
 10
222.8915005972
 20
109.0449824778
 30
0.0
 11
222.2790553723
 21
109.0449824778
 31
0.0
  0
SPLINE
  5
1C8
330
1F
100
AcDbEntity
  8
0
  6
Continuous
 62
     7
370
     0
100
AcDbSpline
210
0.0
220
0.0
230
1.0
 70
     8
 71
     3
 72
    23
 73
    19
 74
     0
 42
0.00000001
 43
0.00000001
 40
0.0
 40
0.0
 40
0.0
 40
0.0
 40
0.0718367171319505
 40
0.1395582629178172
 40
0.2049233526537264
 40
0.2678265586039221
 40
0.3285473200936659
 40
0.3887551463289839
 40
0.4480299679797879
 40
0.5086005276974233
 40
0.5693212891871666
 40
0.6285118954019238
 40
0.687493275539241
 40
0.747078295388978
 40
0.8077025413165653
 40
0.8697098126206608
 40
0.933428331305089
 40
1.0
 40
1.0
 40
1.0
 40
1.0
 10
221.332811036331
 20
104.2771293294077
 30
0.0
 10
221.3477841498157
 20
104.2773829629935
 30
0.0
 10
221.3768726409361
 20
104.2778757007475
 30
0.0
 10
221.41927455338
 20
104.2835062866262
 30
0.0
 10
221.4592267413283
 20
104.2920497273082
 30
0.0
 10
221.4969122437668
 20
104.3037641848478
 30
0.0
 10
221.5317763720559
 20
104.3197903381985
 30
0.0
 10
221.5643868743331
 20
104.3385214303129
 30
0.0
 10
221.5944101870661
 20
104.3611593889712
 30
0.0
 10
221.6218378108536
 20
104.386995014054
 30
0.0
 10
221.6463903963835
 20
104.4155740572704
 30
0.0
 10
221.6674227907111
 20
104.4464046004327
 30
0.0
 10
221.6857695967074
 20
104.4786196099263
 30
0.0
 10
221.7007489250277
 20
104.51291433535
 30
0.0
 10
221.7115813936766
 20
104.5493594954072
 30
0.0
 10
221.7199401732291
 20
104.5872975404426
 30
0.0
 10
221.7249827776396
 20
104.6271197806224
 30
0.0
 10
221.7255759561144
 20
104.6542680160682
 30
0.0
 10
221.7258790401892
 20
104.6681393856018
 30
0.0
  0
SPLINE
  5
1C9
330
1F
100
AcDbEntity
  8
0
  6
Continuous
 62
     7
370
     0
100
AcDbSpline
210
0.0
220
0.0
230
1.0
 70
     8
 71
     3
 72
    19
 73
    15
 74
     0
 42
0.00000001
 43
0.00000001
 40
0.0
 40
0.0
 40
0.0
 40
0.0
 40
0.0798232712797873
 40
0.1598568116661124
 40
0.2397327021152788
 40
0.3213646023254474
 40
0.4025836963489389
 40
0.483265588546352
 40
0.5660170116609762
 40
0.6530713596602558
 40
0.7418556865073695
 40
0.8285909050739395
 40
0.9142807452008549
 40
1.0
 40
1.0
 40
1.0
 40
1.0
 10
220.9356271371443
 20
104.6763711762585
 30
0.0
 10
220.9360826450842
 20
104.6594688796322
 30
0.0
 10
220.9369948608554
 20
104.6256197626368
 30
0.0
 10
220.9449969565672
 20
104.5753466509382
 30
0.0
 10
220.9585748554828
 20
104.5260097164685
 30
0.0
 10
220.9759772966508
 20
104.4775623571039
 30
0.0
 10
221.0005245220815
 20
104.4319599930343
 30
0.0
 10
221.0330769037587
 20
104.3912565278581
 30
0.0
 10
221.0739240457287
 20
104.3570355085081
 30
0.0
 10
221.120573715417
 20
104.3281242926435
 30
0.0
 10
221.1714804990378
 20
104.3053686792685
 30
0.0
 10
221.2245268561082
 20
104.2894844879127
 30
0.0
 10
221.2783436876097
 20
104.2789890071262
 30
0.0
 10
221.3146531764596
 20
104.2777492928943
 30
0.0
 10
221.332811036331
 20
104.2771293294077
 30
0.0
  0
SPLINE
  5
1CA
330
1F
100
AcDbEntity
  8
0
  6
Continuous
 62
     7
370
     0
100
AcDbSpline
210
0.0
220
0.0
230
1.0
 70
     8
 71
     3
 72
    23
 73
    19
 74
     0
 42
0.00000001
 43
0.00000001
 40
0.0
 40
0.0
 40
0.0
 40
0.0
 40
0.0709524654154269
 40
0.1390889271416596
 40
0.2035598239190666
 40
0.2664237811295186
 40
0.3275165661984784
 40
0.387860871760897
 40
0.4478987850107175
 40
0.5088188285885848
 40
0.5694824568188304
 40
0.6290357116670979
 40
0.6883784585529112
 40
0.7480679615575833
 40
0.8086301697509071
 40
0.8702311456070246
 40
0.9336825804722019
 40
1.0
 40
1.0
 40
1.0
 40
1.0
 10
221.3249908352071
 20
105.0673812324526
 30
0.0
 10
221.3102923659882
 20
105.0671156410001
 30
0.0
 10
221.2814787891476
 20
105.0665949990468
 30
0.0
 10
221.2396206266397
 20
105.061054920861
 30
0.0
 10
221.1999938069111
 20
105.0525471982104
 30
0.0
 10
221.162946968406
 20
105.0400950135786
 30
0.0
 10
221.128016911058
 20
105.0245347433989
 30
0.0
 10
221.0958424938257
 20
105.0049688171337
 30
0.0
 10
221.0658497273732
 20
104.982258359635
 30
0.0
 10
221.0389547833696
 20
104.9558617726238
 30
0.0
 10
221.0146885741184
 20
104.9271879024491
 30
0.0
 10
220.9937078374557
 20
104.8964496017276
 30
0.0
 10
220.9751734830269
 20
104.8643599069797
 30
0.0
 10
220.9611081529387
 20
104.8298658382993
 30
0.0
 10
220.9492031101755
 20
104.7940825259107
 30
0.0
 10
220.941760575345
 20
104.756315454465
 30
0.0
 10
220.936469863092
 20
104.7169937240883
 30
0.0
 10
220.9359121515367
 20
104.6901099377376
 30
0.0
 10
220.9356271371443
 20
104.6763711762585
 30
0.0
  0
SPLINE
  5
1CB
330
1F
100
AcDbEntity
  8
0
  6
Continuous
 62
     7
370
     0
100
AcDbSpline
210
0.0
220
0.0
230
1.0
 70
     8
 71
     3
 72
    23
 73
    19
 74
     0
 42
0.00000001
 43
0.00000001
 40
0.0
 40
0.0
 40
0.0
 40
0.0
 40
0.0666161804351809
 40
0.130423869924064
 40
0.192670957570017
 40
0.2529685047960664
 40
0.3128803828057838
 40
0.3722002559180859
 40
0.4319271071459045
 40
0.4924217452545996
 40
0.5527712209075772
 40
0.6132624068156188
 40
0.6735564905563713
 40
0.7343197960333017
 40
0.7968580801403247
 40
0.8617690047507046
 40
0.9288631073150262
 40
1.0
 40
1.0
 40
1.0
 40
1.0
 10
221.7258790401892
 20
104.6681393856018
 30
0.0
 10
221.7255663035421
 20
104.682283033793
 30
0.0
 10
221.7249540150033
 20
104.7099740439935
 30
0.0
 10
221.7200395595288
 20
104.7506702999881
 30
0.0
 10
221.7112120732751
 20
104.7892758085189
 30
0.0
 10
221.699859889202
 20
104.8263737864177
 30
0.0
 10
221.6844744337907
 20
104.8613188350749
 30
0.0
 10
221.6660063486457
 20
104.8946120247521
 30
0.0
 10
221.643390447338
 20
104.9253758209473
 30
0.0
 10
221.6185903074865
 20
104.9546546594361
 30
0.0
 10
221.590524853992
 20
104.9811587760397
 30
0.0
 10
221.5595318089538
 20
105.0040142771881
 30
0.0
 10
221.5265934122296
 20
105.0241995554817
 30
0.0
 10
221.4907132474454
 20
105.0396833680589
 30
0.0
 10
221.4526818032552
 20
105.0520862550015
 30
0.0
 10
221.4123183987395
 20
105.0610983811528
 30
0.0
 10
221.3694584603764
 20
105.066607254177
 30
0.0
 10
221.3400995928625
 20
105.0671182579818
 30
0.0
 10
221.3249908352071
 20
105.0673812324526
 30
0.0
  0
SPLINE
  5
1CC
330
1F
100
AcDbEntity
  8
0
  6
Continuous
 62
     7
370
     0
100
AcDbSpline
210
0.0
220
0.0
230
1.0
 70
     8
 71
     3
 72
    19
 73
    15
 74
     0
 42
0.00000001
 43
0.00000001
 40
0.0
 40
0.0
 40
0.0
 40
0.0
 40
0.0768426979287827
 40
0.1498390532852208
 40
0.2183793964454711
 40
0.2849970207005652
 40
0.3476576708142682
 40
0.4098471591145119
 40
0.4699357615076958
 40
0.5304196066566044
 40
0.6487517360264009
 40
0.7637748930771634
 40
0.8787494877784697
 40
0.9999999999999999
 40
0.9999999999999999
 40
0.9999999999999999
 40
0.9999999999999999
 10
221.3332226258638
 20
105.304456803366
 30
0.0
 10
221.3454487119886
 20
105.3046312210034
 30
0.0
 10
221.3692889104681
 20
105.3049713258457
 30
0.0
 10
221.4037749568311
 20
105.3094099053519
 30
0.0
 10
221.4363641504653
 20
105.3153380460413
 30
0.0
 10
221.4665749187048
 20
105.3243212321139
 30
0.0
 10
221.4947560433243
 20
105.3360019939006
 30
0.0
 10
221.5204491705505
 20
105.350401489822
 30
0.0
 10
221.5444231622222
 20
105.3669506428283
 30
0.0
 10
221.5724521014519
 20
105.3926933305878
 30
0.0
 10
221.6025302551397
 20
105.4288754241511
 30
0.0
 10
221.6283086609911
 20
105.4782707656637
 30
0.0
 10
221.644372666247
 20
105.5323122025338
 30
0.0
 10
221.6460122686107
 20
105.569955213633
 30
0.0
 10
221.6468538498847
 20
105.5892767600885
 30
0.0
  0
SPLINE
  5
1CD
330
1F
100
AcDbEntity
  8
0
  6
Continuous
 62
     7
370
     0
100
AcDbSpline
210
0.0
220
0.0
230
1.0
 70
     8
 71
     3
 72
    19
 73
    15
 74
     0
 42
0.00000001
 43
0.00000001
 40
0.0
 40
0.0
 40
0.0
 40
0.0
 40
0.1273939413394725
 40
0.2461816112928119
 40
0.3612680043537856
 40
0.4771402680372256
 40
0.5363265834357716
 40
0.5956719150436505
 40
0.6566189532057533
 40
0.7188356214960805
 40
0.7835815527063729
 40
0.8515878166889452
 40
0.9239265274809916
 40
1.0
 40
1.0
 40
1.0
 40
1.0
 10
221.0146523274488
 20
105.6016244460735
 30
0.0
 10
221.0154341470024
 20
105.5806545821776
 30
0.0
 10
221.0169449692236
 20
105.54013150213
 30
0.0
 10
221.033375322704
 20
105.4825714358929
 30
0.0
 10
221.0590676273158
 20
105.4308663545576
 30
0.0
 10
221.0891873456178
 20
105.3933710265853
 30
0.0
 10
221.1180645912669
 20
105.3678235203325
 30
0.0
 10
221.1421666295456
 20
105.3507663581755
 30
0.0
 10
221.1685054964959
 20
105.3362851718822
 30
0.0
 10
221.1972720050511
 20
105.3250294806247
 30
0.0
 10
221.2277694290921
 20
105.3150576389858
 30
0.0
 10
221.26104958135
 20
105.3094841044472
 30
0.0
 10
221.2963302316581
 20
105.3049531520793
 30
0.0
 10
221.3207205685435
 20
105.3046250055171
 30
0.0
 10
221.3332226258638
 20
105.304456803366
 30
0.0
  0
SPLINE
  5
1CE
330
1F
100
AcDbEntity
  8
0
  6
Continuous
 62
     7
370
     0
100
AcDbSpline
210
0.0
220
0.0
230
1.0
 70
     8
 71
     3
 72
    19
 73
    15
 74
     0
 42
0.00000001
 43
0.00000001
 40
0.0
 40
0.0
 40
0.0
 40
0.0
 40
0.0762358674075228
 40
0.1486180999543649
 40
0.2182394281414515
 40
0.2842516902686069
 40
0.3482575207850553
 40
0.4106562042500674
 40
0.4728623729995139
 40
0.5341947480221281
 40
0.653476101422413
 40
0.7677667895221952
 40
0.8817126094674201
 40
1.0
 40
1.0
 40
1.0
 40
1.0
 10
221.3307530886668
 20
105.8839748655989
 30
0.0
 10
221.3186629671764
 20
105.8838063169584
 30
0.0
 10
221.2950938658438
 20
105.8834777396162
 30
0.0
 10
221.2607653752698
 20
105.8789262456354
 30
0.0
 10
221.228271604877
 20
105.8732096617476
 30
0.0
 10
221.1979123306343
 20
105.8640356024169
 30
0.0
 10
221.1698137462197
 20
105.8520472395836
 30
0.0
 10
221.1436823611306
 20
105.8374571448997
 30
0.0
 10
221.1193242064323
 20
105.820761544714
 30
0.0
 10
221.0905990303443
 20
105.7950466653143
 30
0.0
 10
221.0605141409863
 20
105.7588637522492
 30
0.0
 10
221.0340101995546
 20
105.7102573129391
 30
0.0
 10
221.0176299062114
 20
105.6572598894837
 30
0.0
 10
221.0156571471967
 20
105.620399295264
 30
0.0
 10
221.0146523274488
 20
105.6016244460735
 30
0.0
  0
SPLINE
  5
1CF
330
1F
100
AcDbEntity
  8
0
  6
Continuous
 62
     7
370
     0
100
AcDbSpline
210
0.0
220
0.0
230
1.0
 70
     8
 71
     3
 72
    19
 73
    15
 74
     0
 42
0.00000001
 43
0.00000001
 40
0.0
 40
0.0
 40
0.0
 40
0.0
 40
0.1233861213626085
 40
0.2414346864233538
 40
0.3574485461509667
 40
0.4767139204528327
 40
0.5378895868739915
 40
0.5992703938301226
 40
0.6603520522565615
 40
0.7230069362990812
 40
0.7878755372012023
 40
0.855360105861051
 40
0.9253732137563339
 40
0.9999999999999999
 40
0.9999999999999999
 40
0.9999999999999999
 40
0.9999999999999999
 10
221.6468538498847
 20
105.5892767600885
 30
0.0
 10
221.6458398626952
 20
105.6092737333159
 30
0.0
 10
221.6438557523558
 20
105.6484026313417
 30
0.0
 10
221.6278309863825
 20
105.7045739281631
 30
0.0
 10
221.600851889608
 20
105.7554483475806
 30
0.0
 10
221.5700320117122
 20
105.7926012155527
 30
0.0
 10
221.5415072418647
 20
105.8195162808996
 30
0.0
 10
221.5171028470761
 20
105.8366495225515
 30
0.0
 10
221.4908680313783
 20
105.8512314269438
 30
0.0
 10
221.4627029454719
 20
105.8631395149787
 30
0.0
 10
221.4325668608638
 20
105.8727435119321
 30
0.0
 10
221.4003781426345
 20
105.8790441965532
 30
0.0
 10
221.3662720481096
 20
105.8834630881259
 30
0.0
 10
221.3428418647148
 20
105.8838006836027
 30
0.0
 10
221.3307530886668
 20
105.8839748655989
 30
0.0
  0
SPLINE
  5
1D0
330
1F
100
AcDbEntity
  8
0
  6
Continuous
 62
     7
370
     0
100
AcDbSpline
210
0.0
220
0.0
230
1.0
 70
     8
 71
     3
 72
    23
 73
    19
 74
     0
 42
0.00000001
 43
0.00000001
 40
0.0
 40
0.0
 40
0.0
 40
0.0
 40
0.0610549117432832
 40
0.1195453450847434
 40
0.1768063562451032
 40
0.2329564830316854
 40
0.2885834899465033
 40
0.3446666617213001
 40
0.4016615108374461
 40
0.4605400973082778
 40
0.520477062322188
 40
0.5812128653554004
 40
0.6434307597220102
 40
0.7079608695212424
 40
0.7753707435336736
 40
0.8464136772813298
 40
0.9211518871893691
 40
1.0
 40
1.0
 40
1.0
 40
1.0
 10
220.6446333374294
 20
107.4381369415872
 30
0.0
 10
220.6690862575368
 20
107.4387489898884
 30
0.0
 10
220.7169650061765
 20
107.4399473787368
 30
0.0
 10
220.7872338641862
 20
107.4499786625538
 30
0.0
 10
220.8539971453793
 20
107.4670564956686
 30
0.0
 10
220.9179165931865
 20
107.4897909601441
 30
0.0
 10
220.97783660583
 20
107.5205240805307
 30
0.0
 10
221.0351585412322
 20
107.5565123963269
 30
0.0
 10
221.0883197960421
 20
107.60048908743
 30
0.0
 10
221.1386253286439
 20
107.649888125802
 30
0.0
 10
221.1837460026631
 20
107.7060392056867
 30
0.0
 10
221.2237811021142
 20
107.7675591470836
 30
0.0
 10
221.2563027989176
 20
107.8353705927195
 30
0.0
 10
221.2843808946951
 20
107.9079797492801
 30
0.0
 10
221.3049412946555
 20
107.9867589574486
 30
0.0
 10
221.3201366901478
 20
108.0708126559722
 30
0.0
 10
221.3292937571748
 20
108.1604112191581
 30
0.0
 10
221.3302580435421
 20
108.2219189702924
 30
0.0
 10
221.3307530886668
 20
108.253495806135
 30
0.0
  0
SPLINE
  5
1D1
330
1F
100
AcDbEntity
  8
0
  6
Continuous
 62
     7
370
     0
100
AcDbSpline
210
0.0
220
0.0
230
1.0
 70
     8
 71
     3
 72
    23
 73
    19
 74
     0
 42
0.00000001
 43
0.00000001
 40
0.0
 40
0.0
 40
0.0
 40
0.0
 40
0.0759644026221998
 40
0.1481252239748712
 40
0.2172006111446031
 40
0.2832999093723612
 40
0.347201868136241
 40
0.4092995407059241
 40
0.4704256161074027
 40
0.531588064052835
 40
0.5917391729173695
 40
0.6502577442905727
 40
0.7073030399522858
 40
0.7642084640229153
 40
0.8211475320101308
 40
0.8791188121552541
 40
0.9384228183936663
 40
1.0
 40
1.0
 40
1.0
 40
1.0
 10
219.960983123389
 20
108.2242729493037
 30
0.0
 10
219.9614271653724
 20
108.1946095087487
 30
0.0
 10
219.9622930159022
 20
108.1367678931446
 30
0.0
 10
219.9721988146188
 20
108.0524378934732
 30
0.0
 10
219.9872292820746
 20
107.9728682442344
 30
0.0
 10
220.0079471948739
 20
107.8978355742941
 30
0.0
 10
220.0357971432462
 20
107.8280819456737
 30
0.0
 10
220.0690953624575
 20
107.7629370937816
 30
0.0
 10
220.1089630113721
 20
107.7028340644153
 30
0.0
 10
220.1545204908607
 20
107.6479409894903
 30
0.0
 10
220.2046284955995
 20
107.5986291642116
 30
0.0
 10
220.2581739838685
 20
107.5555579079861
 30
0.0
 10
220.3151689924288
 20
107.5194887775385
 30
0.0
 10
220.3749816302303
 20
107.4897060104772
 30
0.0
 10
220.438041503506
 20
107.4664578450655
 30
0.0
 10
220.5041597472881
 20
107.4501335690459
 30
0.0
 10
220.5733849415257
 20
107.4399240595355
 30
0.0
 10
220.6205879871014
 20
107.438740069231
 30
0.0
 10
220.6446333374294
 20
107.4381369415872
 30
0.0
  0
SPLINE
  5
1D2
330
1F
100
AcDbEntity
  8
0
  6
Continuous
 62
     7
370
     0
100
AcDbSpline
210
0.0
220
0.0
230
1.0
 70
     8
 71
     3
 72
    23
 73
    19
 74
     0
 42
0.00000001
 43
0.00000001
 40
0.0
 40
0.0
 40
0.0
 40
0.0
 40
0.0559431333569181
 40
0.1103820356898404
 40
0.1640478588828493
 40
0.2167594775435857
 40
0.2696011346144468
 40
0.3230085051908684
 40
0.377581443672136
 40
0.4334493367080536
 40
0.4909218580498926
 40
0.5506247708713252
 40
0.613116872309818
 40
0.6798607463518505
 40
0.7513577440202
 40
0.828261101258994
 40
0.9107950320656292
 40
1.0
 40
1.0
 40
1.0
 40
1.0
 10
220.6487492327577
 20
109.0713242078799
 30
0.0
 10
220.625663312941
 20
109.0708657306218
 30
0.0
 10
220.5801122207472
 20
109.0699611039048
 30
0.0
 10
220.5130555903906
 20
109.0599047733745
 30
0.0
 10
220.448405728154
 20
109.044879241526
 30
0.0
 10
220.3860623043558
 20
109.0238727473677
 30
0.0
 10
220.3265585327225
 20
108.9960568477758
 30
0.0
 10
220.2695861292853
 20
108.9619444536728
 30
0.0
 10
220.2146393804797
 20
108.9224643916673
 30
0.0
 10
220.1625847181921
 20
108.8766547389963
 30
0.0
 10
220.114058387008
 20
108.8240306307017
 30
0.0
 10
220.0730342422803
 20
108.7619884195923
 30
0.0
 10
220.0384579722892
 20
108.6920091835243
 30
0.0
 10
220.0095874237882
 20
108.6142703036093
 30
0.0
 10
219.9875744807718
 20
108.5281697436016
 30
0.0
 10
219.9723607837354
 20
108.4340780346399
 30
0.0
 10
219.9627551658273
 20
108.3318960272285
 30
0.0
 10
219.961588904973
 20
108.2610644375942
 30
0.0
 10
219.960983123389
 20
108.2242729493037
 30
0.0
  0
SPLINE
  5
1D3
330
1F
100
AcDbEntity
  8
0
  6
Continuous
 62
     7
370
     0
100
AcDbSpline
210
0.0
220
0.0
230
1.0
 70
     8
 71
     3
 72
    31
 73
    27
 74
     0
 42
0.00000001
 43
0.00000001
 40
0.0
 40
0.0
 40
0.0
 40
0.0
 40
0.0508516157922844
 40
0.0997524678094164
 40
0.1474376477769318
 40
0.1940857839327043
 40
0.2391709270841438
 40
0.2833398222454338
 40
0.3265771497238438
 40
0.368936281499902
 40
0.4105718726814495
 40
0.4510505934949117
 40
0.4908768629924156
 40
0.5300443324843858
 40
0.5689366633103303
 40
0.6075778621311335
 40
0.6464200964505128
 40
0.6856793513063945
 40
0.7247985849801968
 40
0.7635130084045106
 40
0.8021725263787551
 40
0.8407403615726128
 40
0.8796493769005859
 40
0.9190706128663397
 40
0.9590978622172242
 40
1.0
 40
1.0
 40
1.0
 40
1.0
 10
221.3307530886668
 20
108.253495806135
 30
0.0
 10
221.3305781399104
 20
108.2738102870066
 30
0.0
 10
221.3302349537615
 20
108.3136599469954
 30
0.0
 10
221.3256900189442
 20
108.3723988017805
 30
0.0
 10
221.3198276362239
 20
108.4293105418593
 30
0.0
 10
221.3109020673931
 20
108.4843217307173
 30
0.0
 10
221.2986015010849
 20
108.5372045545127
 30
0.0
 10
221.2849745624659
 20
108.5883616112667
 30
0.0
 10
221.2679345522607
 20
108.6373520575935
 30
0.0
 10
221.2486002859143
 20
108.6843680153059
 30
0.0
 10
221.226965569254
 20
108.7291681133958
 30
0.0
 10
221.2025644862259
 20
108.7713746692003
 30
0.0
 10
221.1756806274721
 20
108.8108235929838
 30
0.0
 10
221.1470393508484
 20
108.848262796369
 30
0.0
 10
221.1150546644131
 20
108.8822432288567
 30
0.0
 10
221.0812666497988
 20
108.9142002396841
 30
0.0
 10
221.0449078134135
 20
108.9434735899817
 30
0.0
 10
221.006341003107
 20
108.9700709264283
 30
0.0
 10
220.9661133390919
 20
108.9940127209705
 30
0.0
 10
220.9243077504211
 20
109.014503790673
 30
0.0
 10
220.8815902596177
 20
109.0325026209521
 30
0.0
 10
220.8372458363183
 20
109.0462994797719
 30
0.0
 10
220.7918867915461
 20
109.0574268489041
 30
0.0
 10
220.7453297598789
 20
109.0658791221215
 30
0.0
 10
220.697401933981
 20
109.070256102548
 30
0.0
 10
220.6650832603447
 20
109.0709656160336
 30
0.0
 10
220.6487492327577
 20
109.0713242078799
 30
0.0
  0
SPLINE
  5
1D4
330
1F
100
AcDbEntity
  8
0
  6
Continuous
 62
     7
370
     0
100
AcDbSpline
210
0.0
220
0.0
230
1.0
 70
     8
 71
     3
 72
    23
 73
    19
 74
     0
 42
0.00000001
 43
0.00000001
 40
0.0
 40
0.0
 40
0.0
 40
0.0
 40
0.1156291309254414
 40
0.2215410391198768
 40
0.3170478562190417
 40
0.4031508756396167
 40
0.4801812167162795
 40
0.5476493661481898
 40
0.6070358428421809
 40
0.6586524080635072
 40
0.705722890353646
 40
0.749804087979647
 40
0.7925868153452743
 40
0.8338739610102607
 40
0.8747683933034329
 40
0.9152226988916381
 40
0.9568807037304801
 40
1.0
 40
1.0
 40
1.0
 40
1.0
 10
220.1453752340995
 20
105.0805520975033
 30
0.0
 10
220.1451257825222
 20
105.1192485081197
 30
0.0
 10
220.1446478427402
 20
105.193389366479
 30
0.0
 10
220.1392462474018
 20
105.2993822716775
 30
0.0
 10
220.1307814620592
 20
105.3952441784376
 30
0.0
 10
220.1192029804401
 20
105.4810634625482
 30
0.0
 10
220.1038151805152
 20
105.5567469554113
 30
0.0
 10
220.0851518782783
 20
105.6224557768962
 30
0.0
 10
220.0629117630626
 20
105.6780497922663
 30
0.0
 10
220.0364683454348
 20
105.7240874445006
 30
0.0
 10
220.007031530655
 20
105.7618508088336
 30
0.0
 10
219.9762819870388
 20
105.7945382865187
 30
0.0
 10
219.9434509728952
 20
105.8223379213597
 30
0.0
 10
219.9079568214456
 20
105.8446391985217
 30
0.0
 10
219.8709435759474
 20
105.8626310394392
 30
0.0
 10
219.8315607660964
 20
105.8750134825261
 30
0.0
 10
219.7901954937905
 20
105.8826208682499
 30
0.0
 10
219.7618070440668
 20
105.8835183764191
 30
0.0
 10
219.7473681558472
 20
105.8839748655989
 30
0.0
  0
SPLINE
  5
1D5
330
1F
100
AcDbEntity
  8
0
  6
Continuous
 62
     7
370
     0
100
AcDbSpline
210
0.0
220
0.0
230
1.0
 70
     8
 71
     3
 72
    23
 73
    19
 74
     0
 42
0.00000001
 43
0.00000001
 40
0.0
 40
0.0
 40
0.0
 40
0.0
 40
0.0407818458722597
 40
0.0808695887215869
 40
0.1202681657882671
 40
0.1601868504553522
 40
0.2004597376386391
 40
0.2422651778979079
 40
0.2864592615494684
 40
0.3329520837492633
 40
0.3844305340495303
 40
0.4433891253601058
 40
0.5116814722136833
 40
0.5890200255490083
 40
0.6762451906507723
 40
0.7737051914728237
 40
0.881567767781983
 40
1.0
 40
1.0
 40
1.0
 40
1.0
 10
219.750249282577
 20
104.2771293294077
 30
0.0
 10
219.763854950154
 20
104.2776487574248
 30
0.0
 10
219.7908347181781
 20
104.2786787728452
 30
0.0
 10
219.830551422806
 20
104.2855395425296
 30
0.0
 10
219.8683898401814
 20
104.2983576412463
 30
0.0
 10
219.9046911784214
 20
104.3151173597966
 30
0.0
 10
219.9392680135817
 20
104.3368252194545
 30
0.0
 10
219.9719385037425
 20
104.3635680847662
 30
0.0
 10
220.0032243640179
 20
104.3948941195846
 30
0.0
 10
220.0332332436998
 20
104.4317636292348
 30
0.0
 10
220.0605552960488
 20
104.4766812261806
 30
0.0
 10
220.083220911192
 20
104.5320369861456
 30
0.0
 10
220.1026502962736
 20
104.5975557725847
 30
0.0
 10
220.1184554783553
 20
104.6737095506341
 30
0.0
 10
220.1304092149691
 20
104.7603591236346
 30
0.0
 10
220.1393593412429
 20
104.8575870845181
 30
0.0
 10
220.1446251248152
 20
104.9655229995292
 30
0.0
 10
220.1451175313189
 20
105.041033431333
 30
0.0
 10
220.1453752340995
 20
105.0805520975033
 30
0.0
  0
SPLINE
  5
1D6
330
1F
100
AcDbEntity
  8
0
  6
Continuous
 62
     7
370
     0
100
AcDbSpline
210
0.0
220
0.0
230
1.0
 70
     8
 71
     3
 72
    23
 73
    19
 74
     0
 42
0.00000001
 43
0.00000001
 40
0.0
 40
0.0
 40
0.0
 40
0.0
 40
0.1184055081537695
 40
0.226654332816702
 40
0.3240923419286021
 40
0.4117048030053219
 40
0.4890259050064157
 40
0.5569093973430758
 40
0.6162333444927074
 40
0.6673492812770747
 40
0.7135123932013476
 40
0.7576965045209786
 40
0.7994925114422912
 40
0.8399760647439397
 40
0.8798857418167761
 40
0.9191486593857416
 40
0.9592273564930831
 40
1.0
 40
1.0
 40
1.0
 40
1.0
 10
219.3551233310546
 20
105.0805520975033
 30
0.0
 10
219.3553848834875
 20
105.0410336096131
 30
0.0
 10
219.3558855526971
 20
104.965386482665
 30
0.0
 10
219.3611163306306
 20
104.8573115104717
 30
0.0
 10
219.3701208995415
 20
104.7598131332419
 30
0.0
 10
219.3820255277909
 20
104.6730263438492
 30
0.0
 10
219.3977444570632
 20
104.596833745999
 30
0.0
 10
219.4174814318959
 20
104.5314295018867
 30
0.0
 10
219.439729696906
 20
104.4760286123091
 30
0.0
 10
219.4672615032648
 20
104.4313177286551
 30
0.0
 10
219.4974057903186
 20
104.3948718361228
 30
0.0
 10
219.528527706588
 20
104.3635271898912
 30
0.0
 10
219.5613594431827
 20
104.3368849583066
 30
0.0
 10
219.5956867769891
 20
104.3146707704888
 30
0.0
 10
219.6320423212939
 20
104.2978516469575
 30
0.0
 10
219.6700285342631
 20
104.2856611087696
 30
0.0
 10
219.7096536813722
 20
104.2786456412157
 30
0.0
 10
219.7366402071316
 20
104.2776376505357
 30
0.0
 10
219.750249282577
 20
104.2771293294077
 30
0.0
  0
SPLINE
  5
1D7
330
1F
100
AcDbEntity
  8
0
  6
Continuous
 62
     7
370
     0
100
AcDbSpline
210
0.0
220
0.0
230
1.0
 70
     8
 71
     3
 72
    15
 73
    11
 74
     0
 42
0.00000001
 43
0.00000001
 40
0.0
 40
0.0
 40
0.0
 40
0.0
 40
0.0838881132795455
 40
0.1771540327539698
 40
0.2825136355617228
 40
0.3993998606601629
 40
0.5294908061912204
 40
0.6728021776758327
 40
0.82953576161967
 40
1.0
 40
1.0
 40
1.0
 40
1.0
 10
219.4740727060442
 20
105.7432112453691
 30
0.0
 10
219.4642822817195
 20
105.726842643928
 30
0.0
 10
219.4436069669021
 20
105.6922756040643
 30
0.0
 10
219.4204724918013
 20
105.6321966645749
 30
0.0
 10
219.4000364110436
 20
105.5635378724687
 30
0.0
 10
219.3832107410936
 20
105.4852428623617
 30
0.0
 10
219.371038549262
 20
105.3974459416885
 30
0.0
 10
219.361429074475
 20
105.300249069975
 30
0.0
 10
219.3564373100059
 20
105.1935165487598
 30
0.0
 10
219.355573408404
 20
105.1192458229608
 30
0.0
 10
219.3551233310546
 20
105.0805520975033
 30
0.0
  0
SPLINE
  5
1D8
330
1F
100
AcDbEntity
  8
0
  6
Continuous
 62
     7
370
     0
100
AcDbSpline
210
0.0
220
0.0
230
1.0
 70
     8
 71
     3
 72
    15
 73
    11
 74
     0
 42
0.00000001
 43
0.00000001
 40
0.0
 40
0.0
 40
0.0
 40
0.0
 40
0.1276647678962251
 40
0.2517385630080496
 40
0.3727533493873896
 40
0.492146758972386
 40
0.614069621309245
 40
0.7371973244121095
 40
0.8656069906011175
 40
1.0
 40
1.0
 40
1.0
 40
1.0
 10
219.7473681558472
 20
105.8839748655989
 30
0.0
 10
219.7337599351268
 20
105.8836177035205
 30
0.0
 10
219.7069262676578
 20
105.8829134256696
 30
0.0
 10
219.6676382642749
 20
105.8761911007148
 30
0.0
 10
219.6304054850119
 20
105.8649498750713
 30
0.0
 10
219.5948013625742
 20
105.8497225434408
 30
0.0
 10
219.5617147348875
 20
105.829229562742
 30
0.0
 10
219.5298334685801
 20
105.8053025490794
 30
0.0
 10
219.5006507588148
 20
105.7761501535359
 30
0.0
 10
219.4830655139492
 20
105.7543562783142
 30
0.0
 10
219.4740727060442
 20
105.7432112453691
 30
0.0
  0
LINE
  5
1D9
330
1F
100
AcDbEntity
  8
0
  6
Continuous
 62
     7
370
     0
100
AcDbLine
 10
144.1748491848
 20
105.3699756538
 30
0.0
 11
144.1751491848
 21
105.3699756578
 31
0.0
  0
LINE
  5
1DA
330
1F
100
AcDbEntity
  8
0
  6
Continuous
 62
     7
370
     0
100
AcDbLine
 10
144.1751491848
 20
109.1485514553
 30
0.0
 11
144.1748491848
 21
109.1485514551
 31
0.0
  0
LINE
  5
1DB
330
1F
100
AcDbEntity
  8
0
  6
Continuous
 62
     7
370
     0
100
AcDbLine
 10
144.1748491848
 20
109.1485514551
 30
0.0
 11
144.1748491848
 21
108.3266279558
 31
0.0
  0
LINE
  5
1DC
330
1F
100
AcDbEntity
  8
0
  6
Continuous
 62
     7
370
     0
100
AcDbLine
 10
144.1748491848
 20
108.3266279558
 30
0.0
 11
144.1751491848
 21
108.3266279473
 31
0.0
  0
LINE
  5
1DD
330
1F
100
AcDbEntity
  8
0
  6
Continuous
 62
     7
370
     0
100
AcDbLine
 10
144.1751491848
 20
108.3266279473
 30
0.0
 11
144.1751491848
 21
107.7986596483
 31
0.0
  0
LINE
  5
1DE
330
1F
100
AcDbEntity
  8
0
  6
Continuous
 62
     7
370
     0
100
AcDbLine
 10
144.1751491848
 20
107.7986596483
 30
0.0
 11
144.1748491848
 21
107.7986596625
 31
0.0
  0
LINE
  5
1DF
330
1F
100
AcDbEntity
  8
0
  6
Continuous
 62
     7
370
     0
100
AcDbLine
 10
144.1748491848
 20
107.7986596625
 30
0.0
 11
144.1748491848
 21
107.2399572432
 31
0.0
  0
LINE
  5
1E0
330
1F
100
AcDbEntity
  8
0
  6
Continuous
 62
     7
370
     0
100
AcDbLine
 10
144.1748491848
 20
107.2399572432
 30
0.0
 11
144.1751491848
 21
107.2399572432
 31
0.0
  0
LINE
  5
1E1
330
1F
100
AcDbEntity
  8
0
  6
Continuous
 62
     7
370
     0
100
AcDbLine
 10
144.1751491848
 20
107.2399572432
 30
0.0
 11
144.1751491848
 21
105.614174049
 31
0.0
  0
LINE
  5
1E2
330
1F
100
AcDbEntity
  8
0
  6
Continuous
 62
     7
370
     0
100
AcDbLine
 10
144.1751491848
 20
105.614174049
 30
0.0
 11
144.1748491848
 21
105.614174044
 31
0.0
  0
LINE
  5
1E3
330
1F
100
AcDbEntity
  8
0
  6
Continuous
 62
     7
370
     0
100
AcDbLine
 10
144.1751491848
 20
105.3699756578
 30
0.0
 11
144.1751491848
 21
81.3274031008
 31
0.0
  0
LINE
  5
1E4
330
1F
100
AcDbEntity
  8
0
  6
Continuous
 62
     7
370
     0
100
AcDbLine
 10
144.1751491848
 20
81.3274031008
 30
0.0
 11
143.9751491848
 21
81.1274031008
 31
0.0
  0
LINE
  5
1E5
330
1F
100
AcDbEntity
  8
0
  6
Continuous
 62
     7
370
     0
100
AcDbLine
 10
143.9751491848
 20
81.1274031008
 30
0.0
 11
133.7556925857
 21
81.1274031008
 31
0.0
  0
LINE
  5
1E6
330
1F
100
AcDbEntity
  8
0
  6
Continuous
 62
     7
370
     0
100
AcDbLine
 10
133.7556925857
 20
81.1274031008
 30
0.0
 11
133.5810044954
 21
81.3258837323
 31
0.0
  0
ARC
  5
1E7
330
1F
100
AcDbEntity
  8
0
  6
Continuous
 62
     7
370
     0
100
AcDbCircle
 10
-64.8248508152
 20
106.5274031008
 30
0.0
 40
200.0
100
AcDbArc
 50
352.76105306
 51
7.23894694
  0
LINE
  5
1E8
330
1F
100
AcDbEntity
  8
0
  6
Continuous
 62
     7
370
     0
100
AcDbLine
 10
133.5810044954
 20
131.7289224692
 30
0.0
 11
133.7556925857
 21
131.9274031008
 31
0.0
  0
LINE
  5
1E9
330
1F
100
AcDbEntity
  8
0
  6
Continuous
 62
     7
370
     0
100
AcDbLine
 10
133.7556925857
 20
131.9274031008
 30
0.0
 11
143.9751491848
 21
131.9274031008
 31
0.0
  0
LINE
  5
1EA
330
1F
100
AcDbEntity
  8
0
  6
Continuous
 62
     7
370
     0
100
AcDbLine
 10
143.9751491848
 20
131.9274031008
 30
0.0
 11
144.1751491848
 21
131.7274031008
 31
0.0
  0
LINE
  5
1EB
330
1F
100
AcDbEntity
  8
0
  6
Continuous
 62
     7
370
     0
100
AcDbLine
 10
144.1751491848
 20
131.7274031008
 30
0.0
 11
144.1751491848
 21
109.1485514553
 31
0.0
  0
LINE
  5
1EC
330
1F
100
AcDbEntity
  8
0
  6
Continuous
 62
     7
370
     0
100
AcDbLine
 10
144.1748491848
 20
105.614174044
 30
0.0
 11
144.1748491848
 21
105.3699756538
 31
0.0
  0
LINE
  5
1ED
330
1F
100
AcDbEntity
  8
0
  6
Continuous
 62
     7
370
     0
100
AcDbLine
 10
144.1748491848
 20
107.794573477
 30
0.0
 11
144.1751491848
 21
107.794573477
 31
0.0
  0
LINE
  5
1EE
330
1F
100
AcDbEntity
  8
0
  6
Continuous
 62
     7
370
     0
100
AcDbLine
 10
144.1751491848
 20
107.7986596483
 30
0.0
 11
144.1751491848
 21
107.794573477
 31
0.0
  0
LINE
  5
1EF
330
1F
100
AcDbEntity
  8
0
  6
Continuous
 62
     7
370
     0
100
AcDbLine
 10
144.1748491848
 20
108.7280585375
 30
0.0
 11
144.1751491848
 21
108.7280585375
 31
0.0
  0
LINE
  5
1F0
330
1F
100
AcDbEntity
  8
0
  6
Continuous
 62
     7
370
     0
100
AcDbLine
 10
133.5810044954
 20
131.7289224692
 30
0.0
 11
133.5810044954
 21
81.3258837323
 31
0.0
  0
LINE
  5
1F1
330
1F
100
AcDbEntity
  8
0
  6
Continuous
 62
     7
370
     0
100
AcDbLine
 10
144.1751491848
 20
107.794573477
 30
0.0
 11
144.1751491848
 21
107.2399572432
 31
0.0
  0
HATCH
  5
1F2
330
1F
100
AcDbEntity
  8
0
  6
Continuous
 62
     7
370
     0
100
AcDbHatch
 10
0.0
 20
0.0
 30
0.0
210
0.0
220
0.0
230
1.0
  2
ANSI31
 70
     0
 71
     0
 91
        1
 92
        0
 93
       20
 72
     1
 10
144.1751491848439
 20
109.1485514552935
 11
144.1751491848439
 21
131.7274031007752
 72
     1
 10
144.1751491848439
 20
131.7274031007752
 11
143.9751491848439
 21
131.9274031007752
 72
     1
 10
143.9751491848439
 20
131.9274031007752
 11
133.7556925856522
 21
131.9274031007752
 72
     1
 10
133.7556925856522
 20
131.9274031007752
 11
133.5810044954191
 21
131.7289224692397
 72
     2
 10
-64.82485081515615
 20
106.5274031007752
 40
200.0
 50
352.7610530600284
 51
367.2389469399732
 73
     0
 72
     1
 10
133.5810044954191
 20
81.3258837323107
 11
133.7556925856522
 21
81.12740310077521
 72
     1
 10
133.7556925856522
 20
81.12740310077521
 11
143.9751491848439
 21
81.12740310077521
 72
     1
 10
143.9751491848439
 20
81.12740310077521
 11
144.1751491848439
 21
81.32740310077523
 72
     1
 10
144.1751491848439
 20
81.32740310077523
 11
144.1751491848439
 21
105.3699756577946
 72
     1
 10
144.1751491848439
 20
105.3699756577946
 11
144.1748491848439
 21
105.3699756538187
 72
     1
 10
144.1748491848439
 20
105.3699756538187
 11
144.1748491848439
 21
105.614174044046
 72
     1
 10
144.1748491848439
 20
105.614174044046
 11
144.1751491848439
 21
105.6141740490251
 72
     1
 10
144.1751491848439
 20
105.6141740490251
 11
144.1751491848439
 21
107.2399572432462
 72
     1
 10
144.1751491848439
 20
107.2399572432462
 11
144.1748491848439
 21
107.2399572432462
 72
     1
 10
144.1748491848439
 20
107.2399572432462
 11
144.1748491848432
 21
107.7986596624766
 72
     1
 10
144.1748491848432
 20
107.7986596624766
 11
144.1751491848439
 21
107.7986596483381
 72
     1
 10
144.1751491848439
 20
107.7986596483381
 11
144.1751491848439
 21
108.3266279473201
 72
     1
 10
144.1751491848439
 20
108.3266279473201
 11
144.1748491848439
 21
108.3266279557779
 72
     1
 10
144.1748491848439
 20
108.3266279557779
 11
144.1748491848439
 21
109.1485514550682
 72
     1
 10
144.1748491848439
 20
109.1485514550682
 11
144.1751491848439
 21
109.1485514552935
 97
        0
 75
     0
 76
     1
 52
0.0
 41
0.5
 77
     0
 78
     1
 53
45.0
 43
0.0
 44
0.0
 45
-1.122532015133644
 46
1.122532015133644
 79
     0
 98
        1
 10
0.0
 20
0.0
  0
DIMENSION
  5
1F3
330
1F
100
AcDbEntity
  8
0
  6
Continuous
 62
     7
370
     0
100
AcDbDimension
  2
*D9
 10
-64.8248508152
 20
106.5274031008
 30
0.0
 11
166.2818440276
 21
89.9842368438
 31
0.0
 70
   164
  1
<>
 71
     1
 42
-1.0
  3
SLDDIMSTYLE1
100
AcDbRadialDimension
 15
134.6053486518
 25
91.4411331652
 35
0.0
 40
0.0
  0
DIMENSION
  5
204
330
1F
100
AcDbEntity
  8
0
  6
Continuous
 62
     7
370
     0
100
AcDbDimension
  2
*D10
 10
135.1751491848
 20
141.9274031008
 30
0.0
 11
158.3988098299
 21
141.9274031008
 31
0.0
 70
   160
 71
     2
 42
-1.0
  3
SLDDIMSTYLE2
100
AcDbAlignedDimension
 13
144.1751491848
 23
131.7274031008
 33
0.0
 14
135.1751491848
 24
106.5274031008
 34
0.0
100
AcDbRotatedDimension
  0
DIMENSION
  5
217
330
1F
100
AcDbEntity
  8
0
  6
Continuous
 62
     7
370
     0
100
AcDbDimension
  2
*D11
 10
144.1751491848
 20
153.9274031008
 30
0.0
 11
158.3988098299
 21
153.9274031008
 31
0.0
 70
   160
  1
<> REF
 71
     2
 42
-1.0
  3
SLDDIMSTYLE3
100
AcDbAlignedDimension
 13
133.5810044954
 23
131.7289224692
 33
0.0
 14
144.1751491848
 24
131.7274031008
 34
0.0
100
AcDbRotatedDimension
  0
MTEXT
  5
22B
330
1F
100
AcDbEntity
  8
0
  6
Continuous
 62
     7
370
     0
100
AcDbMText
 10
138.6970327901
 20
74.542596401
 30
0.0
 40
2.1166666667
 41
0.0
 71
     2
 72
     1
  1
SECTION A-A
  7
SLDTEXTSTYLE0
 73
     1
 44
1.0
  0
OLE2FRAME
  5
22C
330
1F
100
AcDbEntity
  8
0
100
AcDbOle2Frame
 70
     2
  3
Paintbrush Picture
 10
229.0524258301
 20
33.6996297921
 30
0.0
 11
265.1686469208
 21
28.555479607
 31
0.0
 71
     2
 72
     0
 73
     1
 90
     7296
310
80557333EF78ADA16C40002412788DD94040000000000000000041161DC7B292
310
7040002412788DD94040000000000000000041161DC7B2927040F6DD59E9338E
310
3C4000000000000000007333EF78ADA16C40F6DD59E9338E3C40000000000000
310
00000000000001000000000100000100000001000000000001000000001C0000
310
D0CF11E0A1B11AE1000000000000000000000000000000003E000300FEFF0900
310
0600000000000000000000000100000001000000000000000010000002000000
310
01000000FEFFFFFF0000000000000000FFFFFFFFFFFFFFFFFFFFFFFFFFFFFFFF
310
FFFFFFFFFFFFFFFFFFFFFFFFFFFFFFFFFFFFFFFFFFFFFFFFFFFFFFFFFFFFFFFF
310
FFFFFFFFFFFFFFFFFFFFFFFFFFFFFFFFFFFFFFFFFFFFFFFFFFFFFFFFFFFFFFFF
310
FFFFFFFFFFFFFFFFFFFFFFFFFFFFFFFFFFFFFFFFFFFFFFFFFFFFFFFFFFFFFFFF
310
FFFFFFFFFFFFFFFFFFFFFFFFFFFFFFFFFFFFFFFFFFFFFFFFFFFFFFFFFFFFFFFF
310
FFFFFFFFFFFFFFFFFFFFFFFFFFFFFFFFFFFFFFFFFFFFFFFFFFFFFFFFFFFFFFFF
310
FFFFFFFFFFFFFFFFFFFFFFFFFFFFFFFFFFFFFFFFFFFFFFFFFFFFFFFFFFFFFFFF
310
FFFFFFFFFFFFFFFFFFFFFFFFFFFFFFFFFFFFFFFFFFFFFFFFFFFFFFFFFFFFFFFF
310
FFFFFFFFFFFFFFFFFFFFFFFFFFFFFFFFFFFFFFFFFFFFFFFFFFFFFFFFFFFFFFFF
310
FFFFFFFFFFFFFFFFFFFFFFFFFFFFFFFFFFFFFFFFFFFFFFFFFFFFFFFFFFFFFFFF
310
FFFFFFFFFFFFFFFFFFFFFFFFFFFFFFFFFFFFFFFFFFFFFFFFFFFFFFFFFFFFFFFF
310
FFFFFFFFFFFFFFFFFFFFFFFFFFFFFFFFFFFFFFFFFFFFFFFFFFFFFFFFFFFFFFFF
310
FFFFFFFFFFFFFFFFFFFFFFFFFFFFFFFFFFFFFFFFFFFFFFFFFFFFFFFFFFFFFFFF
310
FFFFFFFFFFFFFFFFFFFFFFFFFFFFFFFFFFFFFFFFFFFFFFFFFFFFFFFFFFFFFFFF
310
FDFFFFFFFEFFFFFFFEFFFFFFFEFFFFFF05000000060000000700000008000000
310
090000000A0000000B0000000C000000FEFFFFFFFFFFFFFFFFFFFFFFFFFFFFFF
310
FFFFFFFFFFFFFFFFFFFFFFFFFFFFFFFFFFFFFFFFFFFFFFFFFFFFFFFFFFFFFFFF
310
FFFFFFFFFFFFFFFFFFFFFFFFFFFFFFFFFFFFFFFFFFFFFFFFFFFFFFFFFFFFFFFF
310
FFFFFFFFFFFFFFFFFFFFFFFFFFFFFFFFFFFFFFFFFFFFFFFFFFFFFFFFFFFFFFFF
310
FFFFFFFFFFFFFFFFFFFFFFFFFFFFFFFFFFFFFFFFFFFFFFFFFFFFFFFFFFFFFFFF
310
FFFFFFFFFFFFFFFFFFFFFFFFFFFFFFFFFFFFFFFFFFFFFFFFFFFFFFFFFFFFFFFF
310
FFFFFFFFFFFFFFFFFFFFFFFFFFFFFFFFFFFFFFFFFFFFFFFFFFFFFFFFFFFFFFFF
310
FFFFFFFFFFFFFFFFFFFFFFFFFFFFFFFFFFFFFFFFFFFFFFFFFFFFFFFFFFFFFFFF
310
FFFFFFFFFFFFFFFFFFFFFFFFFFFFFFFFFFFFFFFFFFFFFFFFFFFFFFFFFFFFFFFF
310
FFFFFFFFFFFFFFFFFFFFFFFFFFFFFFFFFFFFFFFFFFFFFFFFFFFFFFFFFFFFFFFF
310
FFFFFFFFFFFFFFFFFFFFFFFFFFFFFFFFFFFFFFFFFFFFFFFFFFFFFFFFFFFFFFFF
310
FFFFFFFFFFFFFFFFFFFFFFFFFFFFFFFFFFFFFFFFFFFFFFFFFFFFFFFFFFFFFFFF
310
FFFFFFFFFFFFFFFFFFFFFFFFFFFFFFFFFFFFFFFFFFFFFFFFFFFFFFFFFFFFFFFF
310
FFFFFFFFFFFFFFFFFFFFFFFFFFFFFFFFFFFFFFFFFFFFFFFFFFFFFFFFFFFFFFFF
310
FFFFFFFFFFFFFFFFFFFFFFFFFFFFFFFFFFFFFFFFFFFFFFFFFFFFFFFFFFFFFFFF
310
52006F006F007400200045006E00740072007900000000000000000000000000
310
0000000000000000000000000000000000000000000000000000000000000000
310
16000500FFFFFFFFFFFFFFFF020000000A00030000000000C000000000000046
310
000000000000000000000000007D37823B42CC0103000000C000000000000000
310
01004F006C006500000000000000000000000000000000000000000000000000
310
0000000000000000000000000000000000000000000000000000000000000000
310
0A000200FFFFFFFFFFFFFFFFFFFFFFFF00000000000000000000000000000000
310
0000000000000000000000000000000000000000000000001400000000000000
310
010043006F006D0070004F0062006A0000000000000000000000000000000000
310
0000000000000000000000000000000000000000000000000000000000000000
310
120002010100000003000000FFFFFFFF00000000000000000000000000000000
310
0000000000000000000000000000000000000000010000004D00000000000000
310
01004F006C006500310030004E00610074006900760065000000000000000000
310
0000000000000000000000000000000000000000000000000000000000000000
310
1A000200FFFFFFFFFFFFFFFFFFFFFFFF00000000000000000000000000000000
310
000000000000000000000000000000000000000004000000E411000000000000
310
FEFFFFFF02000000FEFFFFFFFFFFFFFFFFFFFFFFFFFFFFFFFFFFFFFFFFFFFFFF
310
FFFFFFFFFFFFFFFFFFFFFFFFFFFFFFFFFFFFFFFFFFFFFFFFFFFFFFFFFFFFFFFF
310
FFFFFFFFFFFFFFFFFFFFFFFFFFFFFFFFFFFFFFFFFFFFFFFFFFFFFFFFFFFFFFFF
310
FFFFFFFFFFFFFFFFFFFFFFFFFFFFFFFFFFFFFFFFFFFFFFFFFFFFFFFFFFFFFFFF
310
FFFFFFFFFFFFFFFFFFFFFFFFFFFFFFFFFFFFFFFFFFFFFFFFFFFFFFFFFFFFFFFF
310
FFFFFFFFFFFFFFFFFFFFFFFFFFFFFFFFFFFFFFFFFFFFFFFFFFFFFFFFFFFFFFFF
310
FFFFFFFFFFFFFFFFFFFFFFFFFFFFFFFFFFFFFFFFFFFFFFFFFFFFFFFFFFFFFFFF
310
FFFFFFFFFFFFFFFFFFFFFFFFFFFFFFFFFFFFFFFFFFFFFFFFFFFFFFFFFFFFFFFF
310
FFFFFFFFFFFFFFFFFFFFFFFFFFFFFFFFFFFFFFFFFFFFFFFFFFFFFFFFFFFFFFFF
310
FFFFFFFFFFFFFFFFFFFFFFFFFFFFFFFFFFFFFFFFFFFFFFFFFFFFFFFFFFFFFFFF
310
FFFFFFFFFFFFFFFFFFFFFFFFFFFFFFFFFFFFFFFFFFFFFFFFFFFFFFFFFFFFFFFF
310
FFFFFFFFFFFFFFFFFFFFFFFFFFFFFFFFFFFFFFFFFFFFFFFFFFFFFFFFFFFFFFFF
310
FFFFFFFFFFFFFFFFFFFFFFFFFFFFFFFFFFFFFFFFFFFFFFFFFFFFFFFFFFFFFFFF
310
FFFFFFFFFFFFFFFFFFFFFFFFFFFFFFFFFFFFFFFFFFFFFFFFFFFFFFFFFFFFFFFF
310
FFFFFFFFFFFFFFFFFFFFFFFFFFFFFFFFFFFFFFFFFFFFFFFFFFFFFFFFFFFFFFFF
310
FFFFFFFFFFFFFFFFFFFFFFFFFFFFFFFFFFFFFFFFFFFFFFFFFFFFFFFFFFFFFFFF
310
0100000200000000000000000000000000000000000000000000000000000000
310
0000000000000000000000000000000000000000000000000000000000000000
310
0100FEFF030A0000FFFFFFFF0A00030000000000C00000000000004607000000
310
5042727573680007000000504272757368000700000050427275736800F439B2
310
7100000000000000000000000000000000000000000000000000000000000000
310
0000000000000000000000000000000000000000000000000000000000000000
310
0000000000000000000000000000000000000000000000000000000000000000
310
0000000000000000000000000000000000000000000000000000000000000000
310
0000000000000000000000000000000000000000000000000000000000000000
310
0000000000000000000000000000000000000000000000000000000000000000
310
0000000000000000000000000000000000000000000000000000000000000000
310
0000000000000000000000000000000000000000000000000000000000000000
310
0000000000000000000000000000000000000000000000000000000000000000
310
0000000000000000000000000000000000000000000000000000000000000000
310
0000000000000000000000000000000000000000000000000000000000000000
310
0000000000000000000000000000000000000000000000000000000000000000
310
E0110000424DDE11000000000000360400002800000096000000170000000100
310
08000000000000000000E7240000E72400000001000000010000000000FF0101
310
01FF020202FF030303FF040404FF050505FF060606FF070707FF080808FF0909
310
09FF0A0A0AFF0B0B0BFF0C0C0CFF0D0D0DFF0E0E0EFF0F0F0FFF101010FF1111
310
11FF121212FF131313FF141414FF151515FF161616FF171717FF181818FF1919
310
19FF1A1A1AFF1B1B1BFF1C1C1CFF1D1D1DFF1E1E1EFF1F1F1FFF202020FF2121
310
21FF222222FF232323FF242424FF252525FF262626FF272727FF282828FF2929
310
29FF2A2A2AFF2B2B2BFF2C2C2CFF2D2D2DFF2E2E2EFF2F2F2FFF303030FF3131
310
31FF323232FF333333FF343434FF353535FF363636FF373737FF383838FF3939
310
39FF3A3A3AFF3B3B3BFF3C3C3CFF3D3D3DFF3E3E3EFF3F3F3FFF404040FF4141
310
41FF424242FF434343FF444444FF454545FF464646FF474747FF484848FF4949
310
49FF4A4A4AFF4B4B4BFF4C4C4CFF4D4D4DFF4E4E4EFF4F4F4FFF505050FF5151
310
51FF525252FF535353FF545454FF555555FF565656FF575757FF585858FF5959
310
59FF5A5A5AFF5B5B5BFF5C5C5CFF5D5D5DFF5E5E5EFF5F5F5FFF606060FF6161
310
61FF626262FF636363FF646464FF656565FF666666FF676767FF686868FF6969
310
69FF6A6A6AFF6B6B6BFF6C6C6CFF6D6D6DFF6E6E6EFF6F6F6FFF707070FF7171
310
71FF727272FF737373FF747474FF757575FF767676FF777777FF787878FF7979
310
79FF7A7A7AFF7B7B7BFF7C7C7CFF7D7D7DFF7E7E7EFF7F7F7FFF808080FF8181
310
81FF828282FF838383FF848484FF858585FF868686FF878787FF888888FF8989
310
89FF8A8A8AFF8B8B8BFF8C8C8CFF8D8D8DFF8E8E8EFF8F8F8FFF909090FF9191
310
91FF929292FF939393FF949494FF959595FF969696FF979797FF989898FF9999
310
99FF9A9A9AFF9B9B9BFF9C9C9CFF9D9D9DFF9E9E9EFF9F9F9FFFA0A0A0FFA1A1
310
A1FFA2A2A2FFA3A3A3FFA4A4A4FFA5A5A5FFA6A6A6FFA7A7A7FFA8A8A8FFA9A9
310
A9FFAAAAAAFFABABABFFACACACFFADADADFFAEAEAEFFAFAFAFFFB0B0B0FFB1B1
310
B1FFB2B2B2FFB3B3B3FFB4B4B4FFB5B5B5FFB6B6B6FFB7B7B7FFB8B8B8FFB9B9
310
B9FFBABABAFFBBBBBBFFBCBCBCFFBDBDBDFFBEBEBEFFBFBFBFFFC0C0C0FFC1C1
310
C1FFC2C2C2FFC3C3C3FFC4C4C4FFC5C5C5FFC6C6C6FFC7C7C7FFC8C8C8FFC9C9
310
C9FFCACACAFFCBCBCBFFCCCCCCFFCDCDCDFFCECECEFFCFCFCFFFD0D0D0FFD1D1
310
D1FFD2D2D2FFD3D3D3FFD4D4D4FFD5D5D5FFD6D6D6FFD7D7D7FFD8D8D8FFD9D9
310
D9FFDADADAFFDBDBDBFFDCDCDCFFDDDDDDFFDEDEDEFFDFDFDFFFE0E0E0FFE1E1
310
E1FFE2E2E2FFE3E3E3FFE4E4E4FFE5E5E5FFE6E6E6FFE7E7E7FFE8E8E8FFE9E9
310
E9FFEAEAEAFFEBEBEBFFECECECFFEDEDEDFFEEEEEEFFEFEFEFFFF0F0F0FFF1F1
310
F1FFF2F2F2FFF3F3F3FFF4F4F4FFF5F5F5FFF6F6F6FFF7F7F7FFF8F8F8FFF9F9
310
F9FFFAFAFAFFFBFBFBFFFCFCFCFFFDFDFDFFFEFEFEFFFFFFFFFFFFFFFFFFFFFF
310
C94E4E4E4F4E4EFFFFFFFFFFC94E4E4E4E4E72FFFFFFFFFFFFFF734E4D4E4E4E
310
C9FFFFFFFFFFAA683516171616265B9BE9FFFFFFFFFF4E4E4E4D4E4EFFFFFFFF
310
FFFFFFFF4E4E4F4E4D4E4E4E4F4E4E4F4D4E4E4E4E4E4D4E4F4E4D4E4E4EAAFF
310
FFFFFFFFFFEA4E4F4F4E4E4E4E4E4D4D4F4F4E4E4E4E4E5B7FAAFFFFFFFFFFFF
310
C9744E1716171616164D8DEAFFFFFFFF0000FFFFFFFFFFFFBA161617161716FF
310
FFFFFFFFB917171616174FFFFFFFFFFFFFFF4E1716161616B9FFFFFFB9341717
310
1716171617171616268CFFFFFFFF161617161617FFFFFFFFFFFFFFB917161717
310
1617167F807F7F7F7F7F7F807F7F807F7F807F7F7F414EFFFFFFFFFFFF8C167F
310
7F807F7F7F7E7F7F807F807F7F807F4E3417258EFFFFEA4E162674AABAEAEBBA
310
AA74341680FFFFFF0000FFFFFFFFFFFFB9171717171617FFFFFFFFFFBB161616
310
16164EFFFFFFFFFFFFFF4E1717171717B9FFFF9C171617171716161616171616
310
171766FFFFFF161717161617FFFFFFFFFFFFFF8E16171717161616FFFFFFFFFF
310
FFFFFFFFFFFFFFFFFFFFFFFFFFAA16D9FFFFFFFFFF3467FFFFFFFFEAFFFFFFFF
310
FFFFFFFFFFFFFFFFFFCA671667EB26278DFFFFFFFFFFFFFFFFFFFF8C2541EAFF
310
0000FFFFFFFFFFFFB9171717171716FFFFFFFFFFBA16171617174EFFFFFFFFFF
310
FFFF4E1717161616BAFF9B1617161616171716171617161616161667FFFF1616
310
16161716FFFFFFFFFFFFFF7F16161617174017FFFFFFFFFFFFFFFFFFFFFFFFFF
310
FFFFFFFFFFFF344E7F7F7F7E7417DAFFFFFFFF80FFFFFFFFFFFFFFFFFFFFFFFF
310
FFFFFF9B163425CAFFFFFFFFFFFFFFFFFFFFFFFFCA2667FF0000FFFFFFFFFFFF
310
BA171717171617FFFFFFFFFFB916171716164EFFFFFFFFFFFFFF4F1716161717
310
B9C91716171616161716161617171616161617168DFF161716161717FFFFFFFF
310
FFFFFF7F17171716164F16FFFFFFFFFFFFFFFFFFFFFFFFFFFFFFFFFFFFFF9B16
310
17161617174EFFFFFFFFFF34FFFFFFFFD9BABABABABADAFFFFFFFFFF7F16AAFF
310
FFFFFFFFFFFFFFFFFFFFFFFFFF9C16BA0000FFFFFFFFFFFFB9161717161717FF
310
FFFFFFFFB917161716174DFFFFFFFFFFFFFF4E1616161616BA4E161617171716
310
419BEAEAAA4E16161617161726E9171717161616FFFFFFFFFFFFFF4F16161717
310
164E16FFFFFFFFFFBAB9B9B9B9B9BABABACAFFFFFFFFFFFFFFFFFFFFFFFFFFFF
310
FFFFBA16FFFFFFFF7F1617161617174DEAFFFFFFEA41FFFFFFFFFFAA4D16174E
310
9BFFFFFFFFFF34730000FFFFFFFFFFFFB9161617171617FFFFFFFFFFBA161616
310
16164EFFFFFFFFFFFFFF4F16161717169B1617161716175BFFFFFFFFFFFF7417
310
16171616168D171717161617FFFFFFFFFFFFEA2616171717167416FFFFFFFFFF
310
16171616171717171717EAFFFFFFFFFFFFFFFFFFFFFFFFFFFFFF6716FFFFFFFF
310
7F4EFFFFFFFFBA2573FFFFFFFFBAFFFFFFFFAA167FB9BB9B269BFFFFFFFF664F
310
0000FFFFFFFFFFFFB9171616161616FFFFFFFFFFBA16161717164EFFFFFFFFFF
310
FFFF4E16161616174E161617171626EAFFFFFFFFFFFFFF4E16161616164E1716
310
16161617FFFFFFFFFFFF671616161716347F16FFFFFFFFFF16B9FFFFFFFFFFFF
310
D9168DFFFFFFFFFFFFFFFFFFFFFFFFFFFFEA1716FFFFFFFF7F4EFFFFFFFFFF7F
310
4EFFFFFFFFFFFFFFFFFF5B66FFFFFFEA347FFFFFFFFF7F4D0000FFFFFFFFFFFF
310
B9171616171617FFFFFFFFFFBA17161716174EFFFFFFFFFFFFFF4D1716161617
310
17161716161673FFFFFFFFFFFFFFFF9B1617161717161616171616174F4E4E4E
310
4E341616171616167E7F16FFFFFFFFFF16BAFFFFFFFFFFFFFF5B41FFFFFFFF34
310
1616171616BAFFFFFF9B1716FFFFFFFF7F4EFFFFFFFFFF4E4EFFFFFFFF734E4E
310
4E4E267EDA9B67164EEAFFFFFFFF744D0000FFFFFFFFFFFFBA171717161617FF
310
FFFFFFFFBA1616171616347F7F7F7F80807F331616161717161717161716B9FF
310
FFFFFFFFFFFFFFE9161616161616171716161716171616161616171616171734
310
EA7F16FFFFFFFFFF16BAFFFFFFFFFFFFFFAA17C9FFFFFF7326BABA5B25FFFFFF
310
FF401716FFFFFFFF7F264F4E4E4E4217AAFFFFFFEA16677F73261616164173CA
310
FFFFFFFFFFFF417F0000FFFFFFFFFFFFBA171616171617FFFFFFFFFFBA161616
310
17171616161616161616161717161616161616161617EAFFFFFFFFFFFFFFFFFF
310
261717161716161617161616161617161617161616174EEAFF8016FFFFFFFFFF
310
17BAFFFFFFFFFFFFFFFF3467FFFFFFC916C9FF3467FFFFFFDA166716FFFFFFFF
310
9C4D4E4E4E4E67AAFFFFFFFF6834FF7F262567AAEAFFFFFFFFFFFFFFFF9B17D9
310
0000FFFFFFFFFFFFB9161616161616FFFFFFFFFFBA1617161717171616161616
310
1716171716161716161617171716FFFFFFFFFFFFFFFFFFFF4E17161716171616
310
1617171616161716171717161616169BFF7F17FFFFFFFFFF17B9FFFFFFFFFFFF
310
FFFF7326FFFFFFFF3473DA16AAFFFFFF7317AA16FFFFFFFFFFFFFFFFFFFFFFFF
310
FFFFEA6725BA4E167FEAFFFFFFFFFFFFFFFFFFFF9C167FFF0000FFFFFFFFFFFF
310
B9161717171716FFFFFFFFFFBA16161716171616171717161617161716161616
310
171617171617EAFFFFFFFFFFFFFFFFFF26161717161616161616161617171616
310
1616161616171616AA8016FFFFFFFFFF16BAFFFFFFFFFFFFFFFFDA179BFFFFFF
310
74348D26FFFFFFFF2566B917FFFFFFFFD8BAB9BAB9BADAFFFFEA41169B7425C9
310
FFFFFFFFFFFFFFFFFFFFAB4F1680FFFF0000FFFFFFFFFFFFBA161717171617FF
310
FFFFFFFFBA17161717161617171617161616161617171616171716171617BBFF
310
FFFFFFFFFFFFFFE9171616161617161617161716FFFFFFFFFFD9671616161617
310
348017FFFFFFFFFF16BAFFFFFFFFFFFFFFFFFF4E5AFFFFFFC916265AFFFFFFAA
310
16AABA16FFFFFFFF7F1617161616179BFFFFEB4127168DFFFFFFFFFFFFFFD99B
310
6734175AC9FFFFFF0000FFFFFFFFFFFFB9161617171617FFFFFFFFFFBB161616
310
1616347F807F7F7F7F8033171716171617171616161672FFFFFFFFFFFFFFFF9C
310
171617171617161716161617FFFFFFFFFFFFFF4117161616174E17FFFFFFFFFF
310
16BAFFFFFFFFFFFFFFFFFF9B16DAFFFFFF34169BFFFFFF5A26FFB917FFFFFFFF
310
7F4EFFFFFFEA5B26FFFFFFEA2616EAFFFFFFFFDA743416331617414E4E4E4ECA
310
0000FFFFFFFFFFFFBA161716161616FFFFFFFFFFBA17171616164EFFFFFFFFFF
310
FFFF4E16161717174E161717171626EBFFFFFFFFFFFFFF4E16161617165B1616
310
16171617FFFFFFFFFFFFFF6716161616161617FFFFFFFFFF16BAFFFFFFFFFFFF
310
FFFFFFEA268CFFFFFF7316EAFFFFEB1774FFB916FFFFFFFF7F4EFFFFFFFF7316
310
FFFFFFFF6826FFFFFFFFEB264D9CEABA257F807F7F6616BA0000FFFFFFFFFFFF
310
BA161716161616FFFFFFFFFFBA16171616164DFFFFFFFFFFFFFF4E1617161617
310
9B1617171717165BEBFFFFFFFFFF671616161617179B171616161616FFFFFFFF
310
FFFFFF3417161617171617FFFFFFFFFF17BAFFFFFFFFFFFFFFFFFFFF6734FFFF
310
FFEBCAFFFFFF8D17C9FFBA17FFFFFFFF7F357F808066174FFFFFFFFF7F16FFFF
310
FFFFD91673B99B415BFFFFFFFFBA16DA00009B7F7F7F807F671617161616167F
310
80807F7E6617161616164EFFFFFFFFFFFFFF4E1616161617B94E171716161616
310
349BC9D9AA4E16171616161634FF161617161717B9B9BAB9BA9B411716171716
310
163416FFFFFFFFFF16B9FFFFFFFFFFFFFFFFFFFFC917CAFFFFFFFFFFFFFF3342
310
FFFFBA17FFFFFFFF9B4E4E4F4E4E66EAFFFFFFFF5B16C9FFFFFFFFAA4E164E73
310
EAFFFFFFFF8D26FF00004E161716161616171617171616171717171617161616
310
17174EFFFFFFFFFFFFFF4E1717171616B9D92616171716171716171717171716
310
16171716AAFF161717171617161617171616161617161716166717FFFFFFFFFF
310
17B9FFFFFFFFFFFFFFFFFFFFFF3467FFFFFFFFFFFFCA168CFFFFBB17FFFFFFFF
310
FFFFFFFFFFFFFFFFFFFFFFEA26265BFFFFFFFFFFFFFFFFFFFFFFFFFFEA3467FF
310
00004D16161616161617161717161617161616171617171616164EFFFFFFFFFF
310
FFFF4D1617161616BAFF9B1616161616161716161616171717161766FFFF1616
310
16171617161617161716171616171717667F16FFFFFFFFFF17BAFFFFFFFFFFFF
310
FFFFFFFFFF8C26EAFFFFFFFFFF6617EAFFFFBA17FFFFFFFFFFFFFFFFFFFFFFFF
310
FFFFEA5A25BA269BFFFFFFFFFFFFFFFFFFFFFFFF6616DAFF00004E1616171616
310
1616161616161716161617171616171616174EFFFFFFFFFFFFFF4D1717171716
310
B9FFFF9C161616161616161716161717171667FFFFFF17161717171716161617
310
1716161616161641E97E16FFFFFFFFFF16B9FFFFFFFFFFFFFFFFFFFFFFEA169B
310
FFFFFFFFEA265BFFFFFFB916FFFFFFFFFFFFFFFFFFFFFFFFFF9B3416AAFF9B17
310
67EAFFFFFFFFFFFFFFFFEA5B169BFFFF00004D17161716161616161717171616
310
161717161716171716174EFFFFFFFFFFFFFF4D1616161616BAFFFFFFBB411616
310
161716161616171634ABFFFFFFFF161716161617171716171617171617267FFF
310
FF7F164E4E4E4E4F17BAFFFFFFFFFFFFFFFFFFFFFFFF66344D4E4E4F4117AAFF
310
FFFFBA174E4E4E4D4E4D4D4E4E4E4E4116174EBBFFFFFFCA342666ABEAFFFFEA
310
AA6725269CFFFFFF0000724F4E4D4D4D4E4D4D4E4E4E4D4E4E4E4E4E4E4E4E4D
310
4E4E74FFFFFFFFFFFFFF734E4E4E4D4ECAFFFFFFFFFFAA663416171717265B9B
310
FFFFFFFFFFFF7F8080807F80807F7F7F7F7F807FBAFFFFFFFF9B4E4E4F4D4D4E
310
4DC9FFFFFFFFFFFFFFFFFFFFFFFFBA4E4E4E4E4D4E4EFFFFFFFFC94E4E4E4F4E
310
4E4E4D4E4E5A807F9CD9FFFFFFFFFFFFFF9B5B2617171716174E8DEAFFFFFFFF
310
0000000000000000000000000000000000000000000000000000000000000000
  1
OLE
  0
ENDSEC
  0
SECTION
  2
OBJECTS
  0
DICTIONARY
  5
C
330
0
100
AcDbDictionary
281
     1
  3
ACAD_GROUP
350
D
  3
ACAD_LAYOUT
350
1A
  3
ACAD_MLINESTYLE
350
17
  3
ACAD_PLOTSETTINGS
350
19
  3
ACAD_PLOTSTYLENAME
350
E
  0
DICTIONARY
  5
D
102
{ACAD_REACTORS
330
C
102
}
330
C
100
AcDbDictionary
281
     1
  0
DICTIONARY
  5
1A
102
{ACAD_REACTORS
330
C
102
}
330
C
100
AcDbDictionary
281
     1
  3
Layout1
350
1E
  3
Layout2
350
26
  3
Model
350
22
  0
DICTIONARY
  5
17
102
{ACAD_REACTORS
330
C
102
}
330
C
100
AcDbDictionary
281
     1
  3
Standard
350
18
  0
DICTIONARY
  5
19
102
{ACAD_REACTORS
330
C
102
}
330
C
100
AcDbDictionary
281
     1
  0
ACDBDICTIONARYWDFLT
  5
E
102
{ACAD_REACTORS
330
C
102
}
330
C
100
AcDbDictionary
281
     1
  3
Normal
350
F
100
AcDbDictionaryWithDefault
340
F
  0
LAYOUT
  5
1E
102
{ACAD_REACTORS
330
1A
102
}
330
1A
100
AcDbPlotSettings
  1

  2
none_device
  4

  6

 40
0.0
 41
0.0
 42
0.0
 43
0.0
 44
0.0
 45
0.0
 46
0.0
 47
0.0
 48
0.0
 49
0.0
140
0.0
141
0.0
142
1.0
143
1.0
 70
   688
 72
     0
 73
     0
 74
     5
  7

 75
    16
147
1.0
148
0.0
149
0.0
100
AcDbLayout
  1
Layout1
 70
     1
 71
     1
 10
0.0
 20
0.0
 11
420.0
 21
297.0
 12
0.0
 22
0.0
 32
0.0
 14
1.0000000000E+20
 24
1.0000000000E+20
 34
1.0000000000E+20
 15
-1.0000000000E+20
 25
-1.0000000000E+20
 35
-1.0000000000E+20
146
0.0
 13
0.0
 23
0.0
 33
0.0
 16
1.0
 26
0.0
 36
0.0
 17
0.0
 27
1.0
 37
0.0
 76
     0
330
1B
  0
LAYOUT
  5
26
102
{ACAD_REACTORS
330
1A
102
}
330
1A
100
AcDbPlotSettings
  1

  2
none_device
  4

  6

 40
0.0
 41
0.0
 42
0.0
 43
0.0
 44
0.0
 45
0.0
 46
0.0
 47
0.0
 48
0.0
 49
0.0
140
0.0
141
0.0
142
1.0
143
1.0
 70
   688
 72
     0
 73
     0
 74
     5
  7

 75
    16
147
1.0
148
0.0
149
0.0
100
AcDbLayout
  1
Layout2
 70
     1
 71
     2
 10
0.0
 20
0.0
 11
0.0
 21
0.0
 12
0.0
 22
0.0
 32
0.0
 14
0.0
 24
0.0
 34
0.0
 15
0.0
 25
0.0
 35
0.0
146
0.0
 13
0.0
 23
0.0
 33
0.0
 16
1.0
 26
0.0
 36
0.0
 17
0.0
 27
1.0
 37
0.0
 76
     0
330
23
  0
LAYOUT
  5
22
102
{ACAD_REACTORS
330
1A
102
}
330
1A
100
AcDbPlotSettings
  1

  2
none_device
  4

  6

 40
0.0
 41
0.0
 42
0.0
 43
0.0
 44
0.0
 45
0.0
 46
0.0
 47
0.0
 48
0.0
 49
0.0
140
0.0
141
0.0
142
1.0
143
1.0
 70
  1712
 72
     0
 73
     0
 74
     0
  7

 75
     0
147
1.0
148
0.0
149
0.0
100
AcDbLayout
  1
Model
 70
     1
 71
     0
 10
0.0
 20
0.0
 11
279.4
 21
215.9
 12
0.0
 22
0.0
 32
0.0
 14
0.0
 24
0.0
 34
0.0
 15
279.4
 25
215.9
 35
0.0
146
0.0
 13
0.0
 23
0.0
 33
0.0
 16
1.0
 26
0.0
 36
0.0
 17
0.0
 27
1.0
 37
0.0
 76
     0
330
1F
331
29
  0
MLINESTYLE
  5
18
102
{ACAD_REACTORS
330
17
102
}
330
17
100
AcDbMlineStyle
  2
Standard
 70
     0
  3

 62
   256
 51
90.0
 52
90.0
 71
     2
 49
0.5
 62
   256
  6
BYLAYER
 49
-0.5
 62
   256
  6
BYLAYER
  0
ACDBPLACEHOLDER
  5
F
102
{ACAD_REACTORS
330
E
102
}
330
E
  0
ENDSEC
  0
EOF
