  0
SECTION
  2
HEADER
  9
$ACADVER
  1
AC1012
  9
$DWGCODEPAGE
  3
ansi_1252
  9
$INSBASE
 10
0.0
 20
0.0
 30
0.0
  9
$EXTMIN
 10
0.0
 20
0.0
 30
0.0
  9
$EXTMAX
 10
279.4
 20
215.9
 30
0.0
  9
$LIMMIN
 10
0.0
 20
0.0
  9
$LIMMAX
 10
279.4
 20
215.9
  9
$ORTHOMODE
 70
     0
  9
$REGENMODE
 70
     1
  9
$FILLMODE
 70
     1
  9
$QTEXTMODE
 70
     0
  9
$MIRRTEXT
 70
     1
  9
$DRAGMODE
 70
     2
  9
$LTSCALE
 40
1.0
  9
$OSMODE
 70
    37
  9
$ATTMODE
 70
     1
  9
$TEXTSIZE
 40
2.8222222222
  9
$TRACEWID
 40
1.0
  9
$TEXTSTYLE
  7
STANDARD
  9
$CLAYER
  8
0
  9
$CELTYPE
  6
BYLAYER
  9
$CECOLOR
 62
   256
  9
$CELTSCALE
 40
1.0
  9
$DELOBJ
 70
     1
  9
$DISPSILH
 70
     0
  9
$DIMSCALE
 40
1.0
  9
$DIMASZ
 40
3.175
  9
$DIMEXO
 40
1.27
  9
$DIMDLI
 40
3.75
  9
$DIMRND
 40
0.0
  9
$DIMDLE
 40
0.0
  9
$DIMEXE
 40
1.778
  9
$DIMTP
 40
0.0
  9
$DIMTM
 40
0.0
  9
$DIMTXT
 40
2.8222222222
  9
$DIMCEN
 40
2.5
  9
$DIMTSZ
 40
0.0
  9
$DIMTOL
 70
     0
  9
$DIMLIM
 70
     0
  9
$DIMTIH
 70
     1
  9
$DIMTOH
 70
     1
  9
$DIMSE1
 70
     0
  9
$DIMSE2
 70
     0
  9
$DIMTAD
 70
     0
  9
$DIMZIN
 70
     1
  9
$DIMBLK
  1

  9
$DIMASO
 70
     1
  9
$DIMSHO
 70
     1
  9
$DIMPOST
  1

  9
$DIMAPOST
  1

  9
$DIMALT
 70
     0
  9
$DIMALTD
 70
     3
  9
$DIMALTF
 40
0.0393700787
  9
$DIMLFAC
 40
1.0
  9
$DIMTOFL
 70
     1
  9
$DIMTVP
 40
0.0
  9
$DIMTIX
 70
     0
  9
$DIMSOXD
 70
     0
  9
$DIMSAH
 70
     0
  9
$DIMBLK1
  1

  9
$DIMBLK2
  1

  9
$DIMSTYLE
  2
ISO-25
  9
$DIMCLRD
 70
     0
  9
$DIMCLRE
 70
     0
  9
$DIMCLRT
 70
     0
  9
$DIMTFAC
 40
1.0
  9
$DIMGAP
 40
2.54
  9
$DIMJUST
 70
     0
  9
$DIMSD1
 70
     0
  9
$DIMSD2
 70
     0
  9
$DIMTOLJ
 70
     0
  9
$DIMTZIN
 70
     1
  9
$DIMALTZ
 70
     0
  9
$DIMALTTZ
 70
     0
  9
$DIMFIT
 70
     3
  9
$DIMUPT
 70
     0
  9
$DIMUNIT
 70
     2
  9
$DIMDEC
 70
     1
  9
$DIMTDEC
 70
     1
  9
$DIMALTU
 70
     2
  9
$DIMALTTD
 70
     3
  9
$DIMTXSTY
  7
STANDARD
  9
$DIMAUNIT
 70
     0
  9
$LUNITS
 70
     2
  9
$LUPREC
 70
     1
  9
$SKETCHINC
 40
1.0
  9
$FILLETRAD
 40
10.0
  9
$AUNITS
 70
     0
  9
$AUPREC
 70
     0
  9
$MENU
  1
.
  9
$ELEVATION
 40
0.0
  9
$PELEVATION
 40
0.0
  9
$THICKNESS
 40
0.0
  9
$LIMCHECK
 70
     0
  9
$CHAMFERA
 40
0.0
  9
$CHAMFERB
 40
0.0
  9
$CHAMFERC
 40
0.0
  9
$CHAMFERD
 40
0.0
  9
$SKPOLY
 70
     0
  9
$TDCREATE
 40
2459523.588894699
  9
$TDUPDATE
 40
2459523.58889831
  9
$TDINDWG
 40
0.0000000116
  9
$TDUSRTIMER
 40
0.0000000116
  9
$USRTIMER
 70
     1
  9
$ANGBASE
 50
0.0
  9
$ANGDIR
 70
     0
  9
$PDMODE
 70
     0
  9
$PDSIZE
 40
-1.0
  9
$PLINEWID
 40
0.0
  9
$COORDS
 70
     1
  9
$SPLFRAME
 70
     0
  9
$SPLINETYPE
 70
     6
  9
$SPLINESEGS
 70
     8
  9
$ATTDIA
 70
     0
  9
$ATTREQ
 70
     1
  9
$HANDLING
 70
     1
  9
$HANDSEED
  5
28C
  9
$SURFTAB1
 70
     6
  9
$SURFTAB2
 70
     6
  9
$SURFTYPE
 70
     6
  9
$SURFU
 70
     6
  9
$SURFV
 70
     6
  9
$UCSNAME
  2

  9
$UCSORG
 10
0.0
 20
0.0
 30
0.0
  9
$UCSXDIR
 10
1.0
 20
0.0
 30
0.0
  9
$UCSYDIR
 10
0.0
 20
1.0
 30
0.0
  9
$PUCSNAME
  2

  9
$PUCSORG
 10
0.0
 20
0.0
 30
0.0
  9
$PUCSXDIR
 10
1.0
 20
0.0
 30
0.0
  9
$PUCSYDIR
 10
0.0
 20
1.0
 30
0.0
  9
$USERI1
 70
     0
  9
$USERI2
 70
     0
  9
$USERI3
 70
     0
  9
$USERI4
 70
     0
  9
$USERI5
 70
     0
  9
$USERR1
 40
0.0
  9
$USERR2
 40
0.0
  9
$USERR3
 40
0.0
  9
$USERR4
 40
0.0
  9
$USERR5
 40
0.0
  9
$WORLDVIEW
 70
     1
  9
$SHADEDGE
 70
     3
  9
$SHADEDIF
 70
    70
  9
$TILEMODE
 70
     1
  9
$MAXACTVP
 70
    64
  9
$PINSBASE
 10
0.0
 20
0.0
 30
0.0
  9
$PLIMCHECK
 70
     0
  9
$PEXTMIN
 10
1.0000000000E+20
 20
1.0000000000E+20
 30
1.0000000000E+20
  9
$PEXTMAX
 10
-1.0000000000E+20
 20
-1.0000000000E+20
 30
-1.0000000000E+20
  9
$PLIMMIN
 10
0.0
 20
0.0
  9
$PLIMMAX
 10
420.0
 20
297.0
  9
$UNITMODE
 70
     0
  9
$VISRETAIN
 70
     1
  9
$PLINEGEN
 70
     0
  9
$PSLTSCALE
 70
     1
  9
$TREEDEPTH
 70
  3020
  9
$PICKSTYLE
 70
     1
  9
$CMLSTYLE
  2
STANDARD
  9
$CMLJUST
 70
     0
  9
$CMLSCALE
 40
20.0
  9
$SAVEIMAGES
 70
     1
  0
ENDSEC
  0
SECTION
  2
CLASSES
  0
CLASS
  1
ACDBDICTIONARYWDFLT
  2
AcDbDictionaryWithDefault
  3
ObjectDBX Classes
 90
    32768
280
     0
281
     0
  0
CLASS
  1
VISUALSTYLE
  2
AcDbVisualStyle
  3
ObjectDBX Classes
 90
     4095
280
     0
281
     0
  0
CLASS
  1
MATERIAL
  2
AcDbMaterial
  3
ObjectDBX Classes
 90
     1153
280
     0
281
     0
  0
CLASS
  1
SCALE
  2
AcDbScale
  3
ObjectDBX Classes
 90
     1153
280
     0
281
     0
  0
CLASS
  1
TABLESTYLE
  2
AcDbTableStyle
  3
ObjectDBX Classes
 90
     4095
280
     0
281
     0
  0
CLASS
  1
MLEADERSTYLE
  2
AcDbMLeaderStyle
  3
ACDB_MLEADERSTYLE_CLASS
 90
     4095
280
     0
281
     0
  0
CLASS
  1
SUN
  2
AcDbSun
  3
SCENEOE
 90
     1153
280
     0
281
     0
  0
CLASS
  1
XRECORD
  2
AcDbXrecord
  3
ObjectDBX Classes
 90
    32768
280
     0
281
     0
  0
ENDSEC
  0
SECTION
  2
TABLES
  0
TABLE
  2
VPORT
  5
8
330
0
100
AcDbSymbolTable
 70
     1
  0
VPORT
  5
29
330
8
100
AcDbSymbolTableRecord
100
AcDbViewportTableRecord
  2
*ACTIVE
 70
     0
 10
0.0
 20
0.0
 11
1.0
 21
1.0
 12
139.7
 22
107.95
 13
0.0
 23
0.0
 14
10.0
 24
10.0
 15
10.0
 25
10.0
 16
0.0
 26
0.0
 36
1.0
 17
0.0
 27
0.0
 37
0.0
 40
215.9
 41
1.2941176471
 42
50.0
 43
0.0
 44
0.0
 50
0.0
 51
0.0
 71
     0
 72
  2000
 73
     1
 74
     3
 75
     0
 76
     0
 77
     0
 78
     0
  0
ENDTAB
  0
TABLE
  2
LTYPE
  5
5
330
0
100
AcDbSymbolTable
 70
     8
  0
LTYPE
  5
14
330
5
100
AcDbSymbolTableRecord
100
AcDbLinetypeTableRecord
  2
BYBLOCK
 70
     0
  3

 72
    65
 73
     0
 40
0.0
  0
LTYPE
  5
15
330
5
100
AcDbSymbolTableRecord
100
AcDbLinetypeTableRecord
  2
BYLAYER
 70
     0
  3

 72
    65
 73
     0
 40
0.0
  0
LTYPE
  5
16
330
5
100
AcDbSymbolTableRecord
100
AcDbLinetypeTableRecord
  2
CONTINUOUS
 70
     0
  3
Solid line
 72
    65
 73
     0
 40
0.0
  0
LTYPE
  5
6E
330
5
100
AcDbSymbolTableRecord
100
AcDbLinetypeTableRecord
  2
SLD-SOLID
 70
     0
  3
SolidWorks Line Style
 72
    65
 73
     0
 40
0.0
  0
LTYPE
  5
6F
330
5
100
AcDbSymbolTableRecord
100
AcDbLinetypeTableRecord
  2
SLD-DASHED
 70
     0
  3
SolidWorks Line Style
 72
    65
 73
     2
 40
1.905
 49
1.27
 74
     0
 49
-0.635
 74
     0
  0
LTYPE
  5
70
330
5
100
AcDbSymbolTableRecord
100
AcDbLinetypeTableRecord
  2
SLD-PHANTOM
 70
     0
  3
SolidWorks Line Style
 72
    65
 73
     6
 40
12.7
 49
6.35
 74
     0
 49
-1.27
 74
     0
 49
1.27
 74
     0
 49
-1.27
 74
     0
 49
1.27
 74
     0
 49
-1.27
 74
     0
  0
LTYPE
  5
71
330
5
100
AcDbSymbolTableRecord
100
AcDbLinetypeTableRecord
  2
SLD-CHAIN
 70
     0
  3
SolidWorks Line Style
 72
    65
 73
     4
 40
10.16
 49
6.35
 74
     0
 49
-1.27
 74
     0
 49
1.27
 74
     0
 49
-1.27
 74
     0
  0
LTYPE
  5
72
330
5
100
AcDbSymbolTableRecord
100
AcDbLinetypeTableRecord
  2
SLD-CENTER
 70
     0
  3
SolidWorks Line Style
 72
    65
 73
     4
 40
19.05
 49
15.24
 74
     0
 49
-1.27
 74
     0
 49
1.27
 74
     0
 49
-1.27
 74
     0
  0
LTYPE
  5
73
330
5
100
AcDbSymbolTableRecord
100
AcDbLinetypeTableRecord
  2
SLD-STITCH
 70
     0
  3
SolidWorks Line Style
 72
    65
 73
     2
 40
0.635
 49
0.0
 74
     0
 49
-0.635
 74
     0
  0
LTYPE
  5
74
330
5
100
AcDbSymbolTableRecord
100
AcDbLinetypeTableRecord
  2
SLD-THIN-THICK-CHAIN
 70
     0
  3
SolidWorks Line Style
 72
    65
 73
     4
 40
10.16
 49
6.35
 74
     0
 49
-1.27
 74
     0
 49
1.27
 74
     0
 49
-1.27
 74
     0
  0
ENDTAB
  0
TABLE
  2
LAYER
  5
2
330
0
100
AcDbSymbolTable
 70
     2
  0
LAYER
  5
10
330
2
100
AcDbSymbolTableRecord
100
AcDbLayerTableRecord
  2
0
 70
     0
 62
     7
  6
CONTINUOUS
  0
LAYER
  5
75
330
2
100
AcDbSymbolTableRecord
100
AcDbLayerTableRecord
  2
FORMAT
 70
     0
 62
     7
  6
SLD-SOLID
  0
ENDTAB
  0
TABLE
  2
STYLE
  5
3
330
0
100
AcDbSymbolTable
 70
     6
  0
STYLE
  5
11
330
3
100
AcDbSymbolTableRecord
100
AcDbTextStyleTableRecord
  2
STANDARD
 70
     0
 40
0.0
 41
1.0
 50
0.0
 71
     0
 42
2.8222222222
  3
txt
  4

  0
STYLE
  5
9F
330
3
100
AcDbSymbolTableRecord
100
AcDbTextStyleTableRecord
  2
SLDTEXTSTYLE0
 70
     0
 40
0.0
 41
0.75
 50
0.0
 71
     0
 42
2.8222222222
  3
TXT
  4

  0
STYLE
  5
A5
330
3
100
AcDbSymbolTableRecord
100
AcDbTextStyleTableRecord
  2
SLDTEXTSTYLE1
 70
     0
 40
0.0
 41
0.75
 50
0.0
 71
     0
 42
2.8222222222
  3
TXT
  4
bigfont
  0
STYLE
  5
BF
330
3
100
AcDbSymbolTableRecord
100
AcDbTextStyleTableRecord
  2
SLDTEXTSTYLE2
 70
     0
 40
0.0
 41
0.7
 50
0.0
 71
     0
 42
2.8222222222
  3
TXT
  4

  0
STYLE
  5
C4
330
3
100
AcDbSymbolTableRecord
100
AcDbTextStyleTableRecord
  2
SLDTEXTSTYLE3
 70
     0
 40
0.0
 41
0.6875
 50
0.0
 71
     0
 42
2.8222222222
  3
TXT
  4

  0
STYLE
  5
D7
330
3
100
AcDbSymbolTableRecord
100
AcDbTextStyleTableRecord
  2
SLDTEXTSTYLE4
 70
     0
 40
0.0
 41
0.5525
 50
0.0
 71
     0
 42
2.8222222222
  3
TXT
  4

  0
ENDTAB
  0
TABLE
  2
VIEW
  5
6
330
0
100
AcDbSymbolTable
 70
     0
  0
ENDTAB
  0
TABLE
  2
UCS
  5
7
330
0
100
AcDbSymbolTable
 70
     0
  0
ENDTAB
  0
TABLE
  2
APPID
  5
9
330
0
100
AcDbSymbolTable
 70
     1
  0
APPID
  5
12
330
9
100
AcDbSymbolTableRecord
100
AcDbRegAppTableRecord
  2
ACAD
 70
     0
  0
ENDTAB
  0
TABLE
  2
DIMSTYLE
  5
A
330
0
100
AcDbSymbolTable
 70
     4
  0
DIMSTYLE
105
27
330
A
100
AcDbSymbolTableRecord
100
AcDbDimStyleTableRecord
  2
ISO-25
 70
     0
  3

  4

  5

  6

  7

 40
1.0
 41
2.5
 42
0.625
 43
3.75
 44
1.25
 45
0.0
 46
0.0
 47
0.0
 48
0.0
140
2.5
141
2.5
142
0.0
143
0.0393700787
144
1.0
145
0.0
146
1.0
147
0.625
 71
     0
 72
     0
 73
     0
 74
     0
 75
     0
 76
     0
 77
     1
 78
     8
170
     0
171
     3
172
     1
173
     0
174
     0
175
     0
176
     0
177
     0
178
     0
270
     2
271
     2
272
     2
273
     2
274
     3
340
11
275
     0
280
     0
281
     0
282
     0
283
     0
284
     8
285
     0
286
     0
287
     3
288
     0
  0
DIMSTYLE
105
10E
102
{ACAD_REACTORS
330
10D
330
120
102
}
330
A
100
AcDbSymbolTableRecord
100
AcDbDimStyleTableRecord
  2
SLDDIMSTYLE0
 70
     0
  3

  4

  5

  6

  7

 40
1.0
 41
3.175
 42
0.0625
 43
0.38
 44
0.0
 45
0.000000001
 46
0.0
 47
0.0
 48
0.0
140
2.1166666667
141
0.09
142
0.0
143
0.0393700787
144
1.0
145
0.0
146
1.0
147
0.5291666667
 71
     0
 72
     0
 73
     1
 74
     1
 75
     0
 76
     0
 77
     0
 78
    12
170
     1
171
     2
172
     0
173
     1
174
     0
175
     0
176
     0
177
     0
178
     0
270
     2
271
     1
272
     1
273
     2
274
     2
340
9F
275
     0
280
     0
281
     0
282
     0
283
     1
284
    12
285
     0
286
     0
287
     3
288
     0
  0
DIMSTYLE
105
258
102
{ACAD_REACTORS
330
257
102
}
330
A
100
AcDbSymbolTableRecord
100
AcDbDimStyleTableRecord
  2
SLDDIMSTYLE1
 70
     0
  3

  4

  5

  6

  7

 40
1.0
 41
3.175
 42
0.0625
 43
0.38
 44
0.0
 45
0.000000001
 46
0.0
 47
0.0
 48
0.0
140
2.1166666667
141
0.09
142
0.0
143
0.0393700787
144
1.0
145
0.0
146
1.0
147
0.5291666667
 71
     0
 72
     0
 73
     1
 74
     1
 75
     0
 76
     0
 77
     0
 78
     4
170
     1
171
     2
172
     1
173
     1
174
     0
175
     0
176
     0
177
     0
178
     0
270
     2
271
     1
272
     1
273
     2
274
     2
340
9F
275
     0
280
     0
281
     0
282
     0
283
     1
284
    12
285
     0
286
     0
288
     0
  0
DIMSTYLE
105
26B
330
A
100
AcDbSymbolTableRecord
100
AcDbDimStyleTableRecord
  2
SLDDIMSTYLE2
 70
     0
  3

  4

  5

  6

  7

 40
1.0
 41
3.175
 42
0.0625
 43
0.38
 44
0.0
 45
0.000000001
 46
0.0
 47
0.0
 48
0.0
140
0.18
141
0.09
142
0.0
143
25.4
144
1.0
145
0.0
146
3.175
147
0.0
 71
     0
 72
     0
 73
     1
 74
     1
 75
     0
 76
     0
 77
     0
 78
     0
170
     0
171
     2
172
     0
173
     1
174
     0
175
     0
176
     0
177
     0
178
     0
270
     2
271
     0
272
     0
273
     2
274
     2
340
11
275
     0
280
     0
281
     0
282
     0
283
     1
284
     0
285
     0
286
     0
287
     3
288
     0
  0
ENDTAB
  0
TABLE
  2
BLOCK_RECORD
  5
1
330
0
100
AcDbSymbolTable
 70
    11
  0
BLOCK_RECORD
  5
1F
330
1
100
AcDbSymbolTableRecord
100
AcDbBlockTableRecord
  2
*MODEL_SPACE
  0
BLOCK_RECORD
  5
1B
330
1
100
AcDbSymbolTableRecord
100
AcDbBlockTableRecord
  2
*PAPER_SPACE
  0
BLOCK_RECORD
  5
23
330
1
100
AcDbSymbolTableRecord
100
AcDbBlockTableRecord
  2
*PAPER_SPACE0
  0
BLOCK_RECORD
  5
76
330
1
100
AcDbSymbolTableRecord
100
AcDbBlockTableRecord
  2
THIRD_ANGLE_PROJECTION_BLO
  0
BLOCK_RECORD
  5
9C
330
1
100
AcDbSymbolTableRecord
100
AcDbBlockTableRecord
  2
SW_NOTE_0
  0
BLOCK_RECORD
  5
C8
330
1
100
AcDbSymbolTableRecord
100
AcDbBlockTableRecord
  2
SW_NOTE_1
  0
BLOCK_RECORD
  5
DD
330
1
100
AcDbSymbolTableRecord
100
AcDbBlockTableRecord
  2
SW_NOTE_2
  0
BLOCK_RECORD
  5
E3
330
1
100
AcDbSymbolTableRecord
100
AcDbBlockTableRecord
  2
SW_NOTE_3
  0
BLOCK_RECORD
  5
EA
330
1
100
AcDbSymbolTableRecord
100
AcDbBlockTableRecord
  2
SW_NOTE_4
  0
BLOCK_RECORD
  5
F1
330
1
100
AcDbSymbolTableRecord
100
AcDbBlockTableRecord
  2
SW_NOTE_5
  0
BLOCK_RECORD
  5
10F
330
1
100
AcDbSymbolTableRecord
100
AcDbBlockTableRecord
  2
_D
  0
BLOCK_RECORD
  5
121
330
1
100
AcDbSymbolTableRecord
100
AcDbBlockTableRecord
  2
_D_1
  0
BLOCK_RECORD
  5
259
330
1
100
AcDbSymbolTableRecord
100
AcDbBlockTableRecord
  2
_D_2
  0
ENDTAB
  0
ENDSEC
  0
SECTION
  2
BLOCKS
  0
BLOCK
  5
20
330
1F
100
AcDbEntity
  8
0
100
AcDbBlockBegin
  2
*MODEL_SPACE
 70
     0
 10
0.0
 20
0.0
 30
0.0
  3
*MODEL_SPACE
  1

  0
ENDBLK
  5
21
330
1F
100
AcDbEntity
  8
0
100
AcDbBlockEnd
  0
BLOCK
  5
1C
330
1B
100
AcDbEntity
 67
     1
  8
0
100
AcDbBlockBegin
  2
*PAPER_SPACE
 70
     0
 10
0.0
 20
0.0
 30
0.0
  3
*PAPER_SPACE
  1

  0
ENDBLK
  5
1D
330
1B
100
AcDbEntity
 67
     1
  8
0
100
AcDbBlockEnd
  0
BLOCK
  5
24
330
23
100
AcDbEntity
  8
0
100
AcDbBlockBegin
  2
*PAPER_SPACE0
 70
     0
 10
0.0
 20
0.0
 30
0.0
  3
*PAPER_SPACE0
  1

  0
ENDBLK
  5
25
330
23
100
AcDbEntity
  8
0
100
AcDbBlockEnd
  0
BLOCK
  5
77
330
76
100
AcDbEntity
  8
0
100
AcDbBlockBegin
  2
THIRD_ANGLE_PROJECTION_BLO
 70
     0
 10
0.0
 20
0.0
 30
0.0
  3
THIRD_ANGLE_PROJECTION_BLO
  1

  0
CIRCLE
  5
79
330
76
100
AcDbEntity
  8
0
  6
SLD-SOLID
 62
     7
100
AcDbCircle
 10
101.4766388944
 20
18.9404083667
 30
0.0
 40
1.768227153674871
  0
CIRCLE
  5
7A
330
76
100
AcDbEntity
  8
0
  6
SLD-SOLID
 62
     7
100
AcDbCircle
 10
101.4766388944
 20
18.9404083667
 30
0.0
 40
3.901228248531818
  0
LINE
  5
7B
330
76
100
AcDbEntity
  8
0
  6
SLD-CENTER
 62
     7
100
AcDbLine
 10
110.1367822585
 20
18.9404083667
 30
0.0
 11
119.4527334874
 21
18.9404083667
 31
0.0
  0
LINE
  5
7C
330
76
100
AcDbEntity
  8
0
  6
SLD-SOLID
 62
     7
100
AcDbLine
 10
111.0016388944
 20
20.7086355204
 30
0.0
 11
111.0016388944
 21
17.172181213
 31
0.0
  0
LINE
  5
7D
330
76
100
AcDbEntity
  8
0
  6
SLD-SOLID
 62
     7
100
AcDbLine
 10
111.0016388944
 20
17.172181213
 30
0.0
 11
118.6216388944
 21
15.1304083667
 31
0.0
  0
LINE
  5
7E
330
76
100
AcDbEntity
  8
0
  6
SLD-SOLID
 62
     7
100
AcDbLine
 10
118.6216388944
 20
15.1304083667
 30
0.0
 11
118.6216388944
 21
22.7504083667
 31
0.0
  0
LINE
  5
7F
330
76
100
AcDbEntity
  8
0
  6
SLD-SOLID
 62
     7
100
AcDbLine
 10
118.6216388944
 20
22.7504083667
 30
0.0
 11
111.0016388944
 21
20.7086355204
 31
0.0
  0
LINE
  5
80
330
76
100
AcDbEntity
  8
0
  6
SLD-CENTER
 62
     7
100
AcDbLine
 10
96.6025854619
 20
18.9404083667
 30
0.0
 11
106.3506923269
 21
18.9404083667
 31
0.0
  0
LINE
  5
81
330
76
100
AcDbEntity
  8
0
  6
SLD-CENTER
 62
     7
100
AcDbLine
 10
101.4766388944
 20
23.8144617992
 30
0.0
 11
101.4766388944
 21
14.0663549342
 31
0.0
  0
POINT
  5
82
330
76
100
AcDbEntity
  8
0
  6
CONTINUOUS
 62
     7
100
AcDbPoint
 10
101.4766388944
 20
18.9404083667
 30
0.0
  0
ENDBLK
  5
78
330
76
100
AcDbEntity
  8
0
100
AcDbBlockEnd
  0
BLOCK
  5
9D
330
9C
100
AcDbEntity
  8
0
100
AcDbBlockBegin
  2
SW_NOTE_0
 70
     0
 10
0.0
 20
0.0
 30
0.0
  3
SW_NOTE_0
  1

  0
MTEXT
  5
A0
330
9C
100
AcDbEntity
  8
0
  6
CONTINUOUS
 62
     0
100
AcDbMText
 10
0.0
 20
3.0695925553
 30
0.0
 40
2.38125
 41
0.0
 71
     1
 72
     1
  1
NOTES/SPECIFICATIONS:
  7
SLDTEXTSTYLE0
  0
MTEXT
  5
A1
330
9C
100
AcDbEntity
  8
0
  6
CONTINUOUS
 62
     0
100
AcDbMText
 10
9.9999997765
 20
-3.2804073679
 30
0.0
 40
2.38125
 41
0.0
 71
     1
 72
     1
  1
CLEAR APERTURE: >
  7
SLDTEXTSTYLE0
  0
MTEXT
  5
A2
330
9C
100
AcDbEntity
  8
0
  6
CONTINUOUS
 62
     0
100
AcDbMText
 10
39.5010411739
 20
-3.2804073679
 30
0.0
 40
2.38125
 41
0.0
 71
     1
 72
     1
  1
%%c
  7
SLDTEXTSTYLE0
  0
MTEXT
  5
A3
330
9C
100
AcDbEntity
  8
0
  6
CONTINUOUS
 62
     0
100
AcDbMText
 10
43.0954080075
 20
-3.2804073679
 30
0.0
 40
2.38125
 41
0.0
 71
     1
 72
     1
  1
45.72x45.72 mm
  7
SLDTEXTSTYLE0
  0
MTEXT
  5
A4
330
9C
100
AcDbEntity
  8
0
  6
CONTINUOUS
 62
     0
100
AcDbMText
 10
0.0
 20
-3.2804073679
 30
0.0
 40
2.38125
 41
0.0
 71
     1
 72
     1
  1
1.
  7
SLDTEXTSTYLE0
  0
MTEXT
  5
A6
330
9C
100
AcDbEntity
  8
0
  6
CONTINUOUS
 62
     0
100
AcDbMText
 10
9.9999997765
 20
-6.4554073296
 30
0.0
 40
2.38125
 41
0.0
 71
     1
 72
     1
  1
SURFACE FLATNESS(S1): \M+183C9/10 AT 633 nm OVER CLEAR APERTURE
  7
SLDTEXTSTYLE1
  0
MTEXT
  5
A7
330
9C
100
AcDbEntity
  8
0
  6
CONTINUOUS
 62
     0
100
AcDbMText
 10
0.0
 20
-6.4554073296
 30
0.0
 40
2.38125
 41
0.0
 71
     1
 72
     1
  1
2.
  7
SLDTEXTSTYLE0
  0
MTEXT
  5
A8
330
9C
100
AcDbEntity
  8
0
  6
CONTINUOUS
 62
     0
100
AcDbMText
 10
9.9999997765
 20
-9.6304072912
 30
0.0
 40
2.38125
 41
0.0
 71
     1
 72
     1
  1
SURFACE QUALITY (S1):  10-5 SCRATCH-DIG
  7
SLDTEXTSTYLE0
  0
MTEXT
  5
A9
330
9C
100
AcDbEntity
  8
0
  6
CONTINUOUS
 62
     0
100
AcDbMText
 10
0.0
 20
-9.6304072912
 30
0.0
 40
2.38125
 41
0.0
 71
     1
 72
     1
  1
3.
  7
SLDTEXTSTYLE0
  0
MTEXT
  5
AA
330
9C
100
AcDbEntity
  8
0
  6
CONTINUOUS
 62
     0
100
AcDbMText
 10
40.0
 20
-12.8054072528
 30
0.0
 40
2.38125
 41
0.0
 71
     1
 72
     1
  1
(S2): FINE GRIND
  7
SLDTEXTSTYLE0
  0
MTEXT
  5
AB
330
9C
100
AcDbEntity
  8
0
  6
CONTINUOUS
 62
     0
100
AcDbMText
 10
9.9999997765
 20
-15.9804072144
 30
0.0
 40
2.38125
 41
0.0
 71
     1
 72
     1
  1
PARALLELISM: \U+2264 3 arcmin
  7
SLDTEXTSTYLE1
  0
MTEXT
  5
AC
330
9C
100
AcDbEntity
  8
0
  6
CONTINUOUS
 62
     0
100
AcDbMText
 10
0.0
 20
-15.9804072144
 30
0.0
 40
2.38125
 41
0.0
 71
     1
 72
     1
  1
4.
  7
SLDTEXTSTYLE0
  0
MTEXT
  5
AD
330
9C
100
AcDbEntity
  8
0
  6
CONTINUOUS
 62
     0
100
AcDbMText
 10
9.9999997765
 20
-19.1554071761
 30
0.0
 40
2.38125
 41
0.0
 71
     1
 72
     1
  1
THICKNESS TOLERANCE:
  7
SLDTEXTSTYLE0
  0
MTEXT
  5
AE
330
9C
100
AcDbEntity
  8
0
  6
CONTINUOUS
 62
     0
100
AcDbMText
 10
46.741804108
 20
-19.1554071761
 30
0.0
 40
2.38125
 41
0.0
 71
     1
 72
     1
  1
%%p
  7
SLDTEXTSTYLE0
  0
MTEXT
  5
AF
330
9C
100
AcDbEntity
  8
0
  6
CONTINUOUS
 62
     0
100
AcDbMText
 10
49.0119289607
 20
-19.1554071761
 30
0.0
 40
2.38125
 41
0.0
 71
     1
 72
     1
  1
0.20 mm
  7
SLDTEXTSTYLE0
  0
MTEXT
  5
B0
330
9C
100
AcDbEntity
  8
0
  6
CONTINUOUS
 62
     0
100
AcDbMText
 10
0.0
 20
-19.1554071761
 30
0.0
 40
2.38125
 41
0.0
 71
     1
 72
     1
  1
5.
  7
SLDTEXTSTYLE0
  0
MTEXT
  5
B1
330
9C
100
AcDbEntity
  8
0
  6
CONTINUOUS
 62
     0
100
AcDbMText
 10
9.9999997765
 20
-22.3304071377
 30
0.0
 40
2.38125
 41
0.0
 71
     1
 72
     1
  1
DESIGN WAVELENGTH RANGE: 400-750 nm
  7
SLDTEXTSTYLE0
  0
MTEXT
  5
B2
330
9C
100
AcDbEntity
  8
0
  6
CONTINUOUS
 62
     0
100
AcDbMText
 10
0.0
 20
-22.3304071377
 30
0.0
 40
2.38125
 41
0.0
 71
     1
 72
     1
  1
6.
  7
SLDTEXTSTYLE0
  0
MTEXT
  5
B3
330
9C
100
AcDbEntity
  8
0
  6
CONTINUOUS
 62
     0
100
AcDbMText
 10
9.9999997765
 20
-25.5054070993
 30
0.0
 40
2.38125
 41
0.0
 71
     1
 72
     1
  1
COATING (S1): BROADBAND HR, DIELECTRIC
  7
SLDTEXTSTYLE0
  0
MTEXT
  5
B4
330
9C
100
AcDbEntity
  8
0
  6
CONTINUOUS
 62
     0
100
AcDbMText
 10
0.0
 20
-25.5054070993
 30
0.0
 40
2.38125
 41
0.0
 71
     1
 72
     1
  1
7.
  7
SLDTEXTSTYLE0
  0
MTEXT
  5
B5
330
9C
100
AcDbEntity
  8
0
  6
CONTINUOUS
 62
     0
100
AcDbMText
 10
10.0
 20
-28.680407061
 30
0.0
 40
2.38125
 41
0.0
 71
     1
 72
     1
  1
R
  7
SLDTEXTSTYLE0
  0
MTEXT
  5
B6
330
9C
100
AcDbEntity
  8
0
  6
CONTINUOUS
 62
     0
100
AcDbMText
 10
11.9270486664
 20
-29.4698892957
 30
0.0
 40
1.5875
 41
0.0
 71
     1
 72
     1
  1
s
  7
SLDTEXTSTYLE0
  0
MTEXT
  5
B7
330
9C
100
AcDbEntity
  8
0
  6
CONTINUOUS
 62
     0
100
AcDbMText
 10
13.6247917451
 20
-29.4698892957
 30
0.0
 40
1.5875
 41
0.0
 71
     1
 72
     1
  1
avg
  7
SLDTEXTSTYLE0
  0
MTEXT
  5
B8
330
9C
100
AcDbEntity
  8
0
  6
CONTINUOUS
 62
     0
100
AcDbMText
 10
17.6670371927
 20
-28.680407061
 30
0.0
 40
2.38125
 41
0.0
 71
     1
 72
     1
  1
: >99% FROM 400-750 nm
  7
SLDTEXTSTYLE0
  0
MTEXT
  5
B9
330
9C
100
AcDbEntity
  8
0
  6
CONTINUOUS
 62
     0
100
AcDbMText
 10
10.0
 20
-31.8554070226
 30
0.0
 40
2.38125
 41
0.0
 71
     1
 72
     1
  1
R
  7
SLDTEXTSTYLE0
  0
MTEXT
  5
BA
330
9C
100
AcDbEntity
  8
0
  6
CONTINUOUS
 62
     0
100
AcDbMText
 10
11.9270486664
 20
-32.6448892574
 30
0.0
 40
1.5875
 41
0.0
 71
     1
 72
     1
  1
p
  7
SLDTEXTSTYLE0
  0
MTEXT
  5
BB
330
9C
100
AcDbEntity
  8
0
  6
CONTINUOUS
 62
     0
100
AcDbMText
 10
14.2480323464
 20
-32.6448892574
 30
0.0
 40
1.5875
 41
0.0
 71
     1
 72
     1
  1
avg
  7
SLDTEXTSTYLE0
  0
MTEXT
  5
BC
330
9C
100
AcDbEntity
  8
0
  6
CONTINUOUS
 62
     0
100
AcDbMText
 10
18.290277794
 20
-31.8554070226
 30
0.0
 40
2.38125
 41
0.0
 71
     1
 72
     1
  1
: >99% FROM 400-750 nm
  7
SLDTEXTSTYLE0
  0
MTEXT
  5
BD
330
9C
100
AcDbEntity
  8
0
  6
CONTINUOUS
 62
     0
100
AcDbMText
 10
10.0
 20
-35.085528475
 30
0.0
 40
2.38125
 41
0.0
 71
     1
 72
     1
  1
AOI: 0
  7
SLDTEXTSTYLE0
  0
MTEXT
  5
BE
330
9C
100
AcDbEntity
  8
0
  6
CONTINUOUS
 62
     0
100
AcDbMText
 10
19.344201535
 20
-34.9601352636
 30
0.0
 40
0.79375
 41
0.0
 71
     1
 72
     1
  1
O
  7
SLDTEXTSTYLE0
  0
MTEXT
  5
C0
330
9C
100
AcDbEntity
  8
0
  6
CONTINUOUS
 62
     0
100
AcDbMText
 10
21.1573318899
 20
-35.085528475
 30
0.0
 40
2.38125
 41
0.0
 71
     1
 72
     1
  1
TO 45
  7
SLDTEXTSTYLE2
  0
MTEXT
  5
C1
330
9C
100
AcDbEntity
  8
0
  6
CONTINUOUS
 62
     0
100
AcDbMText
 10
29.6526627988
 20
-34.9601352636
 30
0.0
 40
0.79375
 41
0.0
 71
     1
 72
     1
  1
O
  7
SLDTEXTSTYLE0
  0
MTEXT
  5
C2
330
9C
100
AcDbEntity
  8
0
  6
CONTINUOUS
 62
     0
100
AcDbMText
 10
9.9999997765
 20
-38.7463326014
 30
0.0
 40
2.38125
 41
0.0
 71
     1
 72
     1
  1
DAMAGE THRESHOLD: 0.250 J/cm
  7
SLDTEXTSTYLE0
  0
MTEXT
  5
C3
330
9C
100
AcDbEntity
  8
0
  6
CONTINUOUS
 62
     0
100
AcDbMText
 10
61.3291654736
 20
-38.2019687082
 30
0.0
 40
1.0583333333
 41
0.0
 71
     1
 72
     1
  1
2
  7
SLDTEXTSTYLE0
  0
MTEXT
  5
C5
330
9C
100
AcDbEntity
  8
0
  6
CONTINUOUS
 62
     0
100
AcDbMText
 10
63.0041248113
 20
-38.7463326014
 30
0.0
 40
2.38125
 41
0.0
 71
     1
 72
     1
  1
10 nm PULSE, 10 Hz AT 532 nm
  7
SLDTEXTSTYLE3
  0
MTEXT
  5
C6
330
9C
100
AcDbEntity
  8
0
  6
CONTINUOUS
 62
     0
100
AcDbMText
 10
0.0
 20
-38.7463326014
 30
0.0
 40
2.38125
 41
0.0
 71
     1
 72
     1
  1
8.
  7
SLDTEXTSTYLE0
  0
ENDBLK
  5
9E
330
9C
100
AcDbEntity
  8
0
100
AcDbBlockEnd
  0
BLOCK
  5
C9
330
C8
100
AcDbEntity
  8
0
100
AcDbBlockBegin
  2
SW_NOTE_1
 70
     0
 10
0.0
 20
0.0
 30
0.0
  3
SW_NOTE_1
  1

  0
MTEXT
  5
CB
330
C8
100
AcDbEntity
  8
0
  6
CONTINUOUS
 62
     0
100
AcDbMText
 10
11.89434375
 20
2.9468088531
 30
0.0
 40
2.286
 41
0.0
 71
     2
 72
     1
  1
ISOMETRIC VIEW
  7
SLDTEXTSTYLE0
  0
MTEXT
  5
CC
330
C8
100
AcDbEntity
  8
0
  6
CONTINUOUS
 62
     0
100
AcDbMText
 10
11.6776502224
 20
-0.3391912552
 30
0.0
 40
2.286
 41
0.0
 71
     2
 72
     1
  1
SCALE: 1:2
  7
SLDTEXTSTYLE0
  0
ENDBLK
  5
CA
330
C8
100
AcDbEntity
  8
0
100
AcDbBlockEnd
  0
BLOCK
  5
DE
330
DD
100
AcDbEntity
  8
0
100
AcDbBlockBegin
  2
SW_NOTE_2
 70
     0
 10
0.0
 20
0.0
 30
0.0
  3
SW_NOTE_2
  1

  0
MTEXT
  5
E0
330
DD
100
AcDbEntity
  8
0
  6
CONTINUOUS
 62
     0
100
AcDbMText
 10
19.90725
 20
1.9645392354
 30
0.0
 40
1.524
 41
0.0
 71
     2
 72
     1
  1
VALUES IN PARENTHESIS ARE CALCULATED
  7
SLDTEXTSTYLE0
  0
MTEXT
  5
E1
330
DD
100
AcDbEntity
  8
0
  6
CONTINUOUS
 62
     0
100
AcDbMText
 10
19.8778795174
 20
-0.5594606586
 30
0.0
 40
1.524
 41
0.0
 71
     2
 72
     1
  1
AND MAY CONTAIN ROUNDOFF ERRORS
  7
SLDTEXTSTYLE0
  0
ENDBLK
  5
DF
330
DD
100
AcDbEntity
  8
0
100
AcDbBlockEnd
  0
BLOCK
  5
E4
330
E3
100
AcDbEntity
  8
0
100
AcDbBlockBegin
  2
SW_NOTE_3
 70
     0
 10
0.0
 20
0.0
 30
0.0
  3
SW_NOTE_3
  1

  0
MTEXT
  5
E6
330
E3
100
AcDbEntity
  8
0
  6
CONTINUOUS
 62
     0
100
AcDbMText
 10
0.0
 20
2.7285267159
 30
0.0
 40
2.1166666667
 41
0.0
 71
     1
 72
     1
  1
DRAWING
  7
SLDTEXTSTYLE0
  0
MTEXT
  5
E7
330
E3
100
AcDbEntity
  8
0
  6
CONTINUOUS
 62
     0
100
AcDbMText
 10
0.0
 20
-0.0936954723
 30
0.0
 40
2.1166666667
 41
0.0
 71
     1
 72
     1
  1
PROJECTION
  7
SLDTEXTSTYLE0
  0
ENDBLK
  5
E5
330
E3
100
AcDbEntity
  8
0
100
AcDbBlockEnd
  0
BLOCK
  5
EB
330
EA
100
AcDbEntity
  8
0
100
AcDbBlockBegin
  2
SW_NOTE_4
 70
     0
 10
0.0
 20
0.0
 30
0.0
  3
SW_NOTE_4
  1

  0
MTEXT
  5
ED
330
EA
100
AcDbEntity
  8
0
  6
CONTINUOUS
 62
     0
100
AcDbMText
 10
25.052734375
 20
4.0927900738
 30
0.0
 40
3.175
 41
0.0
 71
     2
 72
     1
  1
FOR INFORMATION ONLY
  7
SLDTEXTSTYLE0
  0
MTEXT
  5
EE
330
EA
100
AcDbEntity
  8
0
  6
CONTINUOUS
 62
     0
100
AcDbMText
 10
25.3768468589
 20
-0.1405432084
 30
0.0
 40
3.175
 41
0.0
 71
     2
 72
     1
  1
NOT FOR MANUFACTURING PURPOSES
  7
SLDTEXTSTYLE0
  0
ENDBLK
  5
EC
330
EA
100
AcDbEntity
  8
0
100
AcDbBlockEnd
  0
BLOCK
  5
F2
330
F1
100
AcDbEntity
  8
0
100
AcDbBlockBegin
  2
SW_NOTE_5
 70
     0
 10
0.0
 20
0.0
 30
0.0
  3
SW_NOTE_5
  1

  0
MTEXT
  5
F4
330
F1
100
AcDbEntity
  8
0
  6
CONTINUOUS
 62
     0
100
AcDbMText
 10
26.1276041667
 20
2.7285267159
 30
0.0
 40
2.1166666667
 41
0.0
 71
     2
 72
     1
  1
50.8 mm SQAURE BROADBAND MIRROR
  7
SLDTEXTSTYLE0
  0
MTEXT
  5
F5
330
F1
100
AcDbEntity
  8
0
  6
CONTINUOUS
 62
     0
100
AcDbMText
 10
26.6452601324
 20
-0.0936954723
 30
0.0
 40
2.1166666667
 41
0.0
 71
     2
 72
     1
  1
400-750 nm
  7
SLDTEXTSTYLE0
  0
ENDBLK
  5
F3
330
F1
100
AcDbEntity
  8
0
100
AcDbBlockEnd
  0
BLOCK
  5
110
330
10F
100
AcDbEntity
  8
0
100
AcDbBlockBegin
  2
_D
 70
     0
 10
0.0
 20
0.0
 30
0.0
  3
_D
  1

  0
SOLID
  5
112
330
10F
100
AcDbEntity
  8
0
  6
SLD-SOLID
 62
     7
100
AcDbTrace
 10
77.3993783888
 20
142.9077246991
 30
0.0
 11
74.2243783888
 21
143.4157246991
 31
0.0
 12
74.2243783888
 22
142.3997246991
 32
0.0
 13
74.2243783888
 23
142.3997246991
 33
0.0
  0
SOLID
  5
113
330
10F
100
AcDbEntity
  8
0
  6
SLD-SOLID
 62
     7
100
AcDbTrace
 10
26.5993783888
 20
142.9077246991
 30
0.0
 11
29.7743783888
 21
142.3997246991
 31
0.0
 12
29.7743783888
 22
143.4157246991
 32
0.0
 13
29.7743783888
 23
143.4157246991
 33
0.0
  0
LINE
  5
114
330
10F
100
AcDbEntity
  8
0
  6
SLD-SOLID
 62
     7
100
AcDbLine
 10
47.2865900726
 20
142.6567341813
 30
0.0
 11
47.2865900726
 21
139.8121749794
 31
0.0
  0
LINE
  5
115
330
10F
100
AcDbEntity
  8
0
  6
SLD-SOLID
 62
     7
100
AcDbLine
 10
47.2865900726
 20
139.8121749794
 30
0.0
 11
47.7087453778
 21
139.8121749794
 31
0.0
  0
LINE
  5
116
330
10F
100
AcDbEntity
  8
0
  6
SLD-SOLID
 62
     7
100
AcDbLine
 10
47.2865900726
 20
142.6567341813
 30
0.0
 11
47.7087453778
 21
142.6567341813
 31
0.0
  0
LINE
  5
117
330
10F
100
AcDbEntity
  8
0
  6
SLD-SOLID
 62
     7
100
AcDbLine
 10
56.7121667049
 20
142.6567341813
 30
0.0
 11
56.7121667049
 21
139.8121749794
 31
0.0
  0
LINE
  5
118
330
10F
100
AcDbEntity
  8
0
  6
SLD-SOLID
 62
     7
100
AcDbLine
 10
56.7121667049
 20
139.8121749794
 30
0.0
 11
56.2900113997
 21
139.8121749794
 31
0.0
  0
LINE
  5
119
330
10F
100
AcDbEntity
  8
0
  6
SLD-SOLID
 62
     7
100
AcDbLine
 10
56.7121667049
 20
142.6567341813
 30
0.0
 11
56.2900113997
 21
142.6567341813
 31
0.0
  0
LINE
  5
11A
330
10F
100
AcDbEntity
  8
0
  6
SLD-SOLID
 62
     7
100
AcDbLine
 10
77.3993783888
 20
133.9777246991
 30
0.0
 11
77.3993783888
 21
144.6857246991
 31
0.0
  0
LINE
  5
11B
330
10F
100
AcDbEntity
  8
0
  6
SLD-SOLID
 62
     7
100
AcDbLine
 10
26.5993783888
 20
133.9777246991
 30
0.0
 11
26.5993783888
 21
144.6857246991
 31
0.0
  0
LINE
  5
11C
330
10F
100
AcDbEntity
  8
0
  6
SLD-SOLID
 62
     7
100
AcDbLine
 10
77.3993783888
 20
142.9077246991
 30
0.0
 11
59.5661326205
 21
142.9077246991
 31
0.0
  0
LINE
  5
11D
330
10F
100
AcDbEntity
  8
0
  6
SLD-SOLID
 62
     7
100
AcDbLine
 10
26.5993783888
 20
142.9077246991
 30
0.0
 11
44.432624157
 21
142.9077246991
 31
0.0
  0
MTEXT
  5
11E
330
10F
100
AcDbEntity
  8
0
  6
SLD-SOLID
 62
     7
100
AcDbMText
 10
46.6264926863
 20
145.6362512985
 30
0.0
 40
2.1166666667
 41
0.0
 71
     1
 72
     1
  1
50.8mm
  7
SLDTEXTSTYLE0
  0
MTEXT
  5
11F
330
10F
100
AcDbEntity
  8
0
  6
SLD-SOLID
 62
     7
100
AcDbMText
 10
48.130900683
 20
142.289711061
 30
0.0
 40
2.1166666667
 41
0.0
 71
     1
 72
     1
  1
2.00in
  7
SLDTEXTSTYLE0
  0
ENDBLK
  5
111
330
10F
100
AcDbEntity
  8
0
100
AcDbBlockEnd
  0
BLOCK
  5
122
330
121
100
AcDbEntity
  8
0
100
AcDbBlockBegin
  2
_D_1
 70
     0
 10
0.0
 20
0.0
 30
0.0
  3
_D_1
  1

  0
SOLID
  5
124
330
121
100
AcDbEntity
  8
0
  6
SLD-SOLID
 62
     7
100
AcDbTrace
 10
87.3993783888
 20
82.1077246991
 30
0.0
 11
87.9073783888
 21
85.2827246991
 31
0.0
 12
86.8913783888
 22
85.2827246991
 32
0.0
 13
86.8913783888
 23
85.2827246991
 33
0.0
  0
SOLID
  5
125
330
121
100
AcDbEntity
  8
0
  6
SLD-SOLID
 62
     7
100
AcDbTrace
 10
87.3993783888
 20
132.9077246991
 30
0.0
 11
86.8913783888
 21
129.7327246991
 31
0.0
 12
87.9073783888
 22
129.7327246991
 32
0.0
 13
87.9073783888
 23
129.7327246991
 33
0.0
  0
LINE
  5
126
330
121
100
AcDbEntity
  8
0
  6
SLD-SOLID
 62
     7
100
AcDbLine
 10
82.6865900726
 20
107.2567341813
 30
0.0
 11
82.6865900726
 21
104.4121749794
 31
0.0
  0
LINE
  5
127
330
121
100
AcDbEntity
  8
0
  6
SLD-SOLID
 62
     7
100
AcDbLine
 10
82.6865900726
 20
104.4121749794
 30
0.0
 11
83.1087453778
 21
104.4121749794
 31
0.0
  0
LINE
  5
128
330
121
100
AcDbEntity
  8
0
  6
SLD-SOLID
 62
     7
100
AcDbLine
 10
82.6865900726
 20
107.2567341813
 30
0.0
 11
83.1087453778
 21
107.2567341813
 31
0.0
  0
LINE
  5
129
330
121
100
AcDbEntity
  8
0
  6
SLD-SOLID
 62
     7
100
AcDbLine
 10
92.1121667049
 20
107.2567341813
 30
0.0
 11
92.1121667049
 21
104.4121749794
 31
0.0
  0
LINE
  5
12A
330
121
100
AcDbEntity
  8
0
  6
SLD-SOLID
 62
     7
100
AcDbLine
 10
92.1121667049
 20
104.4121749794
 30
0.0
 11
91.6900113997
 21
104.4121749794
 31
0.0
  0
LINE
  5
12B
330
121
100
AcDbEntity
  8
0
  6
SLD-SOLID
 62
     7
100
AcDbLine
 10
92.1121667049
 20
107.2567341813
 30
0.0
 11
91.6900113997
 21
107.2567341813
 31
0.0
  0
LINE
  5
12C
330
121
100
AcDbEntity
  8
0
  6
SLD-SOLID
 62
     7
100
AcDbLine
 10
78.4693783888
 20
82.1077246991
 30
0.0
 11
89.1773783888
 21
82.1077246991
 31
0.0
  0
LINE
  5
12D
330
121
100
AcDbEntity
  8
0
  6
SLD-SOLID
 62
     7
100
AcDbLine
 10
78.4693783888
 20
132.9077246991
 30
0.0
 11
89.1773783888
 21
132.9077246991
 31
0.0
  0
LINE
  5
12E
330
121
100
AcDbEntity
  8
0
  6
SLD-SOLID
 62
     7
100
AcDbLine
 10
87.3993783888
 20
82.1077246991
 30
0.0
 11
87.3993783888
 21
104.1611844615
 31
0.0
  0
LINE
  5
12F
330
121
100
AcDbEntity
  8
0
  6
SLD-SOLID
 62
     7
100
AcDbLine
 10
87.3993783888
 20
132.9077246991
 30
0.0
 11
87.3993783888
 21
110.8542649366
 31
0.0
  0
MTEXT
  5
130
330
121
100
AcDbEntity
  8
0
  6
SLD-SOLID
 62
     7
100
AcDbMText
 10
82.0264926863
 20
110.2362512985
 30
0.0
 40
2.1166666667
 41
0.0
 71
     1
 72
     1
  1
50.8mm
  7
SLDTEXTSTYLE0
  0
MTEXT
  5
131
330
121
100
AcDbEntity
  8
0
  6
SLD-SOLID
 62
     7
100
AcDbMText
 10
83.530900683
 20
106.889711061
 30
0.0
 40
2.1166666667
 41
0.0
 71
     1
 72
     1
  1
2.00in
  7
SLDTEXTSTYLE0
  0
ENDBLK
  5
123
330
121
100
AcDbEntity
  8
0
100
AcDbBlockEnd
  0
BLOCK
  5
25A
330
259
100
AcDbEntity
  8
0
100
AcDbBlockBegin
  2
_D_2
 70
     0
 10
0.0
 20
0.0
 30
0.0
  3
_D_2
  1

  0
SOLID
  5
25C
330
259
100
AcDbEntity
  8
0
  6
SLD-SOLID
 62
     7
100
AcDbTrace
 10
145.959299885
 20
142.9077246991
 30
0.0
 11
149.134299885
 21
142.3997246991
 31
0.0
 12
149.134299885
 22
143.4157246991
 32
0.0
 13
149.134299885
 23
143.4157246991
 33
0.0
  0
SOLID
  5
25D
330
259
100
AcDbEntity
  8
0
  6
SLD-SOLID
 62
     7
100
AcDbTrace
 10
139.959299885
 20
142.9077246991
 30
0.0
 11
136.784299885
 21
143.4157246991
 31
0.0
 12
136.784299885
 22
142.3997246991
 32
0.0
 13
136.784299885
 23
142.3997246991
 33
0.0
  0
LINE
  5
25E
330
259
100
AcDbEntity
  8
0
  6
SLD-SOLID
 62
     7
100
AcDbLine
 10
154.1540725906
 20
142.6567341813
 30
0.0
 11
154.1540725906
 21
139.8121749794
 31
0.0
  0
LINE
  5
25F
330
259
100
AcDbEntity
  8
0
  6
SLD-SOLID
 62
     7
100
AcDbLine
 10
154.1540725906
 20
139.8121749794
 30
0.0
 11
154.5762278958
 21
139.8121749794
 31
0.0
  0
LINE
  5
260
330
259
100
AcDbEntity
  8
0
  6
SLD-SOLID
 62
     7
100
AcDbLine
 10
154.1540725906
 20
142.6567341813
 30
0.0
 11
154.5762278958
 21
142.6567341813
 31
0.0
  0
LINE
  5
261
330
259
100
AcDbEntity
  8
0
  6
SLD-SOLID
 62
     7
100
AcDbLine
 10
163.5796492229
 20
142.6567341813
 30
0.0
 11
163.5796492229
 21
139.8121749794
 31
0.0
  0
LINE
  5
262
330
259
100
AcDbEntity
  8
0
  6
SLD-SOLID
 62
     7
100
AcDbLine
 10
163.5796492229
 20
139.8121749794
 30
0.0
 11
163.1574939177
 21
139.8121749794
 31
0.0
  0
LINE
  5
263
330
259
100
AcDbEntity
  8
0
  6
SLD-SOLID
 62
     7
100
AcDbLine
 10
163.5796492229
 20
142.6567341813
 30
0.0
 11
163.1574939177
 21
142.6567341813
 31
0.0
  0
LINE
  5
264
330
259
100
AcDbEntity
  8
0
  6
SLD-SOLID
 62
     7
100
AcDbLine
 10
145.959299885
 20
133.9777246991
 30
0.0
 11
145.959299885
 21
144.6857246991
 31
0.0
  0
LINE
  5
265
330
259
100
AcDbEntity
  8
0
  6
SLD-SOLID
 62
     7
100
AcDbLine
 10
139.959299885
 20
133.9777246991
 30
0.0
 11
139.959299885
 21
144.6857246991
 31
0.0
  0
LINE
  5
266
330
259
100
AcDbEntity
  8
0
  6
SLD-SOLID
 62
     7
100
AcDbLine
 10
145.959299885
 20
142.9077246991
 30
0.0
 11
151.300106675
 21
142.9077246991
 31
0.0
  0
LINE
  5
267
330
259
100
AcDbEntity
  8
0
  6
SLD-SOLID
 62
     7
100
AcDbLine
 10
139.959299885
 20
142.9077246991
 30
0.0
 11
133.609299885
 21
142.9077246991
 31
0.0
  0
MTEXT
  5
268
330
259
100
AcDbEntity
  8
0
  6
SLD-SOLID
 62
     7
100
AcDbMText
 10
154.2768814067
 20
145.6362512985
 30
0.0
 40
2.1166666667
 41
0.0
 71
     1
 72
     1
  1
6.0mm
  7
SLDTEXTSTYLE0
  0
MTEXT
  5
269
330
259
100
AcDbEntity
  8
0
  6
SLD-SOLID
 62
     7
100
AcDbMText
 10
154.998383201
 20
142.289711061
 30
0.0
 40
2.1166666667
 41
0.0
 71
     1
 72
     1
  1
0.24in
  7
SLDTEXTSTYLE0
  0
ENDBLK
  5
25B
330
259
100
AcDbEntity
  8
0
100
AcDbBlockEnd
  0
ENDSEC
  0
SECTION
  2
ENTITIES
  0
LINE
  5
83
330
1F
100
AcDbEntity
  8
0
  6
SLD-SOLID
 62
     7
100
AcDbLine
 10
1.5793501011
 20
214.6453799966
 30
0.0
 11
277.9892068491
 21
214.6453799966
 31
0.0
  0
LINE
  5
84
330
1F
100
AcDbEntity
  8
0
  6
SLD-SOLID
 62
     7
100
AcDbLine
 10
1.5793501011
 20
214.6453799966
 30
0.0
 11
1.5793501011
 21
0.9031642596
 31
0.0
  0
LINE
  5
85
330
1F
100
AcDbEntity
  8
0
  6
SLD-SOLID
 62
     7
100
AcDbLine
 10
277.9892068491
 20
0.9031642596
 30
0.0
 11
1.5793501011
 21
0.9031642596
 31
0.0
  0
LINE
  5
86
330
1F
100
AcDbEntity
  8
0
  6
SLD-SOLID
 62
     7
100
AcDbLine
 10
277.9892068491
 20
0.9031642596
 30
0.0
 11
277.9892068491
 21
214.6453799966
 31
0.0
  0
LINE
  5
87
330
1F
100
AcDbEntity
  8
0
  6
SLD-SOLID
 62
     7
100
AcDbLine
 10
215.7427640041
 20
12.2958890132
 30
0.0
 11
171.6327596684
 21
12.2958890132
 31
0.0
  0
LINE
  5
88
330
1F
100
AcDbEntity
  8
0
  6
SLD-SOLID
 62
     7
100
AcDbLine
 10
171.6327596684
 20
12.2958890132
 30
0.0
 11
171.6327596684
 21
26.1661402506
 31
0.0
  0
LINE
  5
89
330
1F
100
AcDbEntity
  8
0
  6
SLD-SOLID
 62
     7
100
AcDbLine
 10
171.6327596684
 20
0.9031642596
 30
0.0
 11
171.6327596684
 21
26.1661402506
 31
0.0
  0
LINE
  5
8A
330
1F
100
AcDbEntity
  8
0
  6
SLD-SOLID
 62
     7
100
AcDbLine
 10
215.7427640041
 20
17.1604579552
 30
0.0
 11
277.9892068491
 21
17.1604579552
 31
0.0
  0
LINE
  5
8B
330
1F
100
AcDbEntity
  8
0
  6
SLD-SOLID
 62
     7
100
AcDbLine
 10
215.7427640041
 20
35.2394508358
 30
0.0
 11
215.7427640041
 21
0.9031642596
 31
0.0
  0
LINE
  5
8C
330
1F
100
AcDbEntity
  8
0
  6
SLD-SOLID
 62
     7
100
AcDbLine
 10
215.7427640041
 20
26.1661402506
 30
0.0
 11
171.6327596684
 21
26.1661402506
 31
0.0
  0
LINE
  5
8D
330
1F
100
AcDbEntity
  8
0
  6
SLD-SOLID
 62
     7
100
AcDbLine
 10
215.7427640041
 20
9.1409200612
 30
0.0
 11
277.9892068491
 21
9.1409200612
 31
0.0
  0
LINE
  5
8E
330
1F
100
AcDbEntity
  8
0
  6
SLD-SOLID
 62
     7
100
AcDbLine
 10
215.7427640041
 20
16.9216824031
 30
0.0
 11
171.6327596684
 21
16.9216824031
 31
0.0
  0
LINE
  5
8F
330
1F
100
AcDbEntity
  8
0
  6
SLD-SOLID
 62
     7
100
AcDbLine
 10
215.7427640041
 20
21.4874005542
 30
0.0
 11
171.6327596684
 21
21.4874005542
 31
0.0
  0
LINE
  5
90
330
1F
100
AcDbEntity
  8
0
  6
SLD-SOLID
 62
     7
100
AcDbLine
 10
186.1338100705
 20
26.1661402506
 30
0.0
 11
186.1338100705
 21
12.2958890132
 31
0.0
  0
LINE
  5
91
330
1F
100
AcDbEntity
  8
0
  6
SLD-SOLID
 62
     7
100
AcDbLine
 10
198.2145906188
 20
26.1661402506
 30
0.0
 11
198.2145906188
 21
12.2958890132
 31
0.0
  0
LINE
  5
92
330
1F
100
AcDbEntity
  8
0
  6
SLD-SOLID
 62
     7
100
AcDbLine
 10
253.7490408369
 20
9.1409200612
 30
0.0
 11
253.7490408369
 21
0.9031642596
 31
0.0
  0
LINE
  5
93
330
1F
100
AcDbEntity
  8
0
  6
SLD-SOLID
 62
     7
100
AcDbLine
 10
171.6327596684
 20
12.2958890132
 30
0.0
 11
171.6327596684
 21
7.5627342528
 31
0.0
  0
LINE
  5
94
330
1F
100
AcDbEntity
  8
0
  6
SLD-SOLID
 62
     7
100
AcDbLine
 10
171.6327596684
 20
7.5627342528
 30
0.0
 11
215.7427640041
 21
7.5627342528
 31
0.0
  0
LINE
  5
95
330
1F
100
AcDbEntity
  8
0
  6
SLD-SOLID
 62
     7
100
AcDbLine
 10
171.6327596684
 20
7.5627342528
 30
0.0
 11
171.6327596684
 21
35.2394508358
 31
0.0
  0
LINE
  5
96
330
1F
100
AcDbEntity
  8
0
  6
SLD-SOLID
 62
     7
100
AcDbLine
 10
171.6327596684
 20
35.2394508358
 30
0.0
 11
215.7427640041
 21
35.2394508358
 31
0.0
  0
LINE
  5
97
330
1F
100
AcDbEntity
  8
0
  6
SLD-SOLID
 62
     7
100
AcDbLine
 10
270.1683598194
 20
17.1604579552
 30
0.0
 11
270.1683598194
 21
9.1409200612
 31
0.0
  0
LINE
  5
98
330
1F
100
AcDbEntity
  8
0
  6
SLD-SOLID
 62
     7
100
AcDbLine
 10
215.7427640041
 20
35.2394508358
 30
0.0
 11
277.9892068491
 21
35.2394508358
 31
0.0
  0
LINE
  5
99
330
1F
100
AcDbEntity
  8
0
  6
SLD-SOLID
 62
     7
100
AcDbLine
 10
277.9892068491
 20
35.2394508358
 30
0.0
 11
277.9892068491
 21
50.0331356147
 31
0.0
  0
LINE
  5
9A
330
1F
100
AcDbEntity
  8
0
  6
SLD-SOLID
 62
     7
100
AcDbLine
 10
215.7427640041
 20
24.8927335446
 30
0.0
 11
277.9892068491
 21
24.8927335446
 31
0.0
  0
INSERT
  5
9B
330
1F
100
AcDbEntity
  8
0
  6
CONTINUOUS
 62
     7
100
AcDbBlockReference
  2
THIRD_ANGLE_PROJECTION_BLO
 10
117.7262204235
 20
15.5162339489
 30
0.0
 41
0.8
 42
0.8
 43
0.8
  0
INSERT
  5
C7
330
1F
100
AcDbEntity
  8
0
  6
CONTINUOUS
 62
     7
100
AcDbBlockReference
  2
SW_NOTE_0
 10
8.5758980417
 20
60.4908729131
 30
0.0
  0
INSERT
  5
CD
330
1F
100
AcDbEntity
  8
0
  6
CONTINUOUS
 62
     7
100
AcDbBlockReference
  2
SW_NOTE_1
 10
252.3437535911
 20
175.8435949721
 30
0.0
  0
MTEXT
  5
CE
330
1F
100
AcDbEntity
  8
0
  6
CONTINUOUS
 62
     7
100
AcDbMText
 10
273.8638944939
 20
13.1125292762
 30
0.0
 40
3.175
 41
0.0
 71
     2
 72
     1
  1
C
  7
SLDTEXTSTYLE0
  0
MTEXT
  5
CF
330
1F
100
AcDbEntity
  8
0
  6
CONTINUOUS
 62
     7
100
AcDbMText
 10
234.7159970722
 20
5.1306563898
 30
0.0
 40
3.175
 41
0.0
 71
     2
 72
     1
  1
BBSQ2-E02
  7
SLDTEXTSTYLE0
  0
MTEXT
  5
D0
330
1F
100
AcDbEntity
  8
0
  6
CONTINUOUS
 62
     7
100
AcDbMText
 10
216.4199766059
 20
16.8243178599
 30
0.0
 40
2.1166666667
 41
0.0
 71
     1
 72
     1
  1
MATERIAL
  7
SLDTEXTSTYLE0
  0
MTEXT
  5
D1
330
1F
100
AcDbEntity
  8
0
  6
CONTINUOUS
 62
     7
100
AcDbMText
 10
174.230946566
 20
20.054553926
 30
0.0
 40
1.8520833333
 41
0.0
 71
     1
 72
     1
  1
DRAWN
  7
SLDTEXTSTYLE0
  0
MTEXT
  5
D2
330
1F
100
AcDbEntity
  8
0
  6
CONTINUOUS
 62
     7
100
AcDbMText
 10
172.3960124543
 20
15.5787169747
 30
0.0
 40
1.8520833333
 41
0.0
 71
     1
 72
     1
  1
APPROVAL
  7
SLDTEXTSTYLE0
  0
MTEXT
  5
D3
330
1F
100
AcDbEntity
  8
0
  6
CONTINUOUS
 62
     7
100
AcDbMText
 10
271.321689486
 20
16.0237652193
 30
0.0
 40
2.1166666667
 41
0.0
 71
     1
 72
     1
  1
REV
  7
SLDTEXTSTYLE0
  0
MTEXT
  5
D4
330
1F
100
AcDbEntity
  8
0
  6
CONTINUOUS
 62
     7
100
AcDbMText
 10
190.5021465356
 20
20.3177146903
 30
0.0
 40
2.1166666667
 41
0.0
 71
     1
 72
     1
  1
RJ
  7
SLDTEXTSTYLE0
  0
MTEXT
  5
D5
330
1F
100
AcDbEntity
  8
0
  6
CONTINUOUS
 62
     7
100
AcDbMText
 10
199.8863327809
 20
20.3177146903
 30
0.0
 40
2.1166666667
 41
0.0
 71
     1
 72
     1
  1
06/DEC/10
  7
SLDTEXTSTYLE0
  0
MTEXT
  5
D6
330
1F
100
AcDbEntity
  8
0
  6
CONTINUOUS
 62
     7
100
AcDbMText
 10
203.6145073853
 20
24.8221395769
 30
0.0
 40
2.1166666667
 41
0.0
 71
     1
 72
     1
  1
DATE
  7
SLDTEXTSTYLE0
  0
MTEXT
  5
D8
330
1F
100
AcDbEntity
  8
0
  6
CONTINUOUS
 62
     7
100
AcDbMText
 10
229.402906477
 20
27.7957480569
 30
0.0
 40
2.1166666667
 41
0.0
 71
     1
 72
     1
  1
w w w . t h o r  l a b s . c o m
  7
SLDTEXTSTYLE4
  0
MTEXT
  5
D9
330
1F
100
AcDbEntity
  8
0
  6
CONTINUOUS
 62
     7
100
AcDbMText
 10
216.7004035316
 20
8.3494791871
 30
0.0
 40
2.1166666667
 41
0.0
 71
     1
 72
     1
  1
ITEM #
  7
SLDTEXTSTYLE0
  0
MTEXT
  5
DA
330
1F
100
AcDbEntity
  8
0
  6
CONTINUOUS
 62
     7
100
AcDbMText
 10
254.5318000914
 20
8.3494791871
 30
0.0
 40
2.1166666667
 41
0.0
 71
     1
 72
     1
  1
APPROX WEIGHT
  7
SLDTEXTSTYLE0
  0
MTEXT
  5
DB
330
1F
100
AcDbEntity
  8
0
  6
CONTINUOUS
 62
     7
100
AcDbMText
 10
243.6650463822
 20
13.1125292762
 30
0.0
 40
3.175
 41
0.0
 71
     2
 72
     1
  1
FUSED SILICA
  7
SLDTEXTSTYLE0
  0
MTEXT
  5
DC
330
1F
100
AcDbEntity
  8
0
  6
CONTINUOUS
 62
     7
100
AcDbMText
 10
266.1358773775
 20
5.1306563898
 30
0.0
 40
3.175
 41
0.0
 71
     2
 72
     1
  1
0.034 kg
  7
SLDTEXTSTYLE0
  0
INSERT
  5
E2
330
1F
100
AcDbEntity
  8
0
  6
CONTINUOUS
 62
     7
100
AcDbBlockReference
  2
SW_NOTE_2
 10
174.8430140051
 20
4.4558554801
 30
0.0
  0
INSERT
  5
E8
330
1F
100
AcDbEntity
  8
0
  6
CONTINUOUS
 62
     7
100
AcDbBlockReference
  2
SW_NOTE_3
 10
174.5483650337
 20
30.4835322715
 30
0.0
  0
MTEXT
  5
E9
330
1F
100
AcDbEntity
  8
0
  6
CONTINUOUS
 62
     7
100
AcDbMText
 10
187.9273588276
 20
24.8221395769
 30
0.0
 40
2.1166666667
 41
0.0
 71
     1
 72
     1
  1
NAME
  7
SLDTEXTSTYLE0
  0
INSERT
  5
EF
330
1F
100
AcDbEntity
  8
0
  6
CONTINUOUS
 62
     7
100
AcDbBlockReference
  2
SW_NOTE_4
 10
58.6204667508
 20
8.1776609732
 30
0.0
  0
MTEXT
  5
F0
330
1F
100
AcDbEntity
  8
0
  6
CONTINUOUS
 62
     7
100
AcDbMText
 10
179.1174811218
 20
10.6680638482
 30
0.0
 40
1.5875
 41
0.0
 71
     1
 72
     1
  1
COPYRIGHT © 2021 BY THORLABS
  7
SLDTEXTSTYLE0
  0
INSERT
  5
F6
330
1F
100
AcDbEntity
  8
0
  6
CONTINUOUS
 62
     7
100
AcDbBlockReference
  2
SW_NOTE_5
 10
220.3933477695
 20
20.4114101626
 30
0.0
  0
MTEXT
  5
F7
330
1F
100
AcDbEntity
  8
0
  6
CONTINUOUS
 62
     7
100
AcDbMText
 10
189.8676366983
 20
15.841877739
 30
0.0
 40
2.1166666667
 41
0.0
 71
     1
 72
     1
  1
BW
  7
SLDTEXTSTYLE0
  0
MTEXT
  5
F8
330
1F
100
AcDbEntity
  8
0
  6
CONTINUOUS
 62
     7
100
AcDbMText
 10
199.5631973751
 20
15.841877739
 30
0.0
 40
2.1166666667
 41
0.0
 71
     1
 72
     1
  1
04/NOV/21
  7
SLDTEXTSTYLE0
  0
LINE
  5
F9
330
1F
100
AcDbEntity
  8
0
  6
SLD-SOLID
 62
     7
100
AcDbLine
 10
26.799378356
 20
132.7077247319
 30
0.0
 11
26.799378356
 21
82.3077246663
 31
0.0
  0
LINE
  5
FA
330
1F
100
AcDbEntity
  8
0
  6
SLD-SOLID
 62
     7
100
AcDbLine
 10
26.799378356
 20
82.3077246663
 30
0.0
 11
26.5993786957
 21
82.3077246663
 31
0.0
  0
LINE
  5
FB
330
1F
100
AcDbEntity
  8
0
  6
SLD-SOLID
 62
     7
100
AcDbLine
 10
26.5993786957
 20
82.3077246663
 30
0.0
 11
26.5993786957
 21
132.7077247319
 31
0.0
  0
LINE
  5
FC
330
1F
100
AcDbEntity
  8
0
  6
SLD-SOLID
 62
     7
100
AcDbLine
 10
26.799378356
 20
132.7077247319
 30
0.0
 11
26.5993786957
 21
132.7077247319
 31
0.0
  0
LINE
  5
FD
330
1F
100
AcDbEntity
  8
0
  6
SLD-SOLID
 62
     7
100
AcDbLine
 10
77.1993784215
 20
82.107725006
 30
0.0
 11
26.799378356
 21
82.107725006
 31
0.0
  0
LINE
  5
FE
330
1F
100
AcDbEntity
  8
0
  6
SLD-SOLID
 62
     7
100
AcDbLine
 10
26.799378356
 20
82.107725006
 30
0.0
 11
26.799378356
 21
82.3077246663
 31
0.0
  0
LINE
  5
FF
330
1F
100
AcDbEntity
  8
0
  6
SLD-SOLID
 62
     7
100
AcDbLine
 10
26.799378356
 20
82.3077246663
 30
0.0
 11
77.1993784215
 21
82.3077246663
 31
0.0
  0
LINE
  5
100
330
1F
100
AcDbEntity
  8
0
  6
SLD-SOLID
 62
     7
100
AcDbLine
 10
77.1993784215
 20
82.107725006
 30
0.0
 11
77.1993784215
 21
82.3077246663
 31
0.0
  0
LINE
  5
101
330
1F
100
AcDbEntity
  8
0
  6
SLD-SOLID
 62
     7
100
AcDbLine
 10
26.799378356
 20
132.9077243921
 30
0.0
 11
26.5993786957
 21
132.7077247319
 31
0.0
  0
LINE
  5
102
330
1F
100
AcDbEntity
  8
0
  6
SLD-SOLID
 62
     7
100
AcDbLine
 10
26.799378356
 20
132.7077247319
 30
0.0
 11
26.799378356
 21
132.9077243921
 31
0.0
  0
LINE
  5
103
330
1F
100
AcDbEntity
  8
0
  6
SLD-SOLID
 62
     7
100
AcDbLine
 10
77.1993784215
 20
132.7077247319
 30
0.0
 11
77.1993784215
 21
132.9077243921
 31
0.0
  0
LINE
  5
104
330
1F
100
AcDbEntity
  8
0
  6
SLD-SOLID
 62
     7
100
AcDbLine
 10
77.3993780818
 20
132.7077247319
 30
0.0
 11
77.1993784215
 21
132.9077243921
 31
0.0
  0
LINE
  5
105
330
1F
100
AcDbEntity
  8
0
  6
SLD-SOLID
 62
     7
100
AcDbLine
 10
77.3993780818
 20
132.7077247319
 30
0.0
 11
77.1993784215
 21
132.7077247319
 31
0.0
  0
LINE
  5
106
330
1F
100
AcDbEntity
  8
0
  6
SLD-SOLID
 62
     7
100
AcDbLine
 10
26.799378356
 20
82.107725006
 30
0.0
 11
26.5993786957
 21
82.3077246663
 31
0.0
  0
LINE
  5
107
330
1F
100
AcDbEntity
  8
0
  6
SLD-SOLID
 62
     7
100
AcDbLine
 10
77.1993784215
 20
132.7077247319
 30
0.0
 11
26.799378356
 21
132.7077247319
 31
0.0
  0
LINE
  5
108
330
1F
100
AcDbEntity
  8
0
  6
SLD-SOLID
 62
     7
100
AcDbLine
 10
77.1993784215
 20
82.3077246663
 30
0.0
 11
77.1993784215
 21
132.7077247319
 31
0.0
  0
LINE
  5
109
330
1F
100
AcDbEntity
  8
0
  6
SLD-SOLID
 62
     7
100
AcDbLine
 10
77.3993780818
 20
132.7077247319
 30
0.0
 11
77.3993780818
 21
82.3077246663
 31
0.0
  0
LINE
  5
10A
330
1F
100
AcDbEntity
  8
0
  6
SLD-SOLID
 62
     7
100
AcDbLine
 10
77.3993780818
 20
82.3077246663
 30
0.0
 11
77.1993784215
 21
82.3077246663
 31
0.0
  0
LINE
  5
10B
330
1F
100
AcDbEntity
  8
0
  6
SLD-SOLID
 62
     7
100
AcDbLine
 10
26.799378356
 20
132.9077243921
 30
0.0
 11
77.1993784215
 21
132.9077243921
 31
0.0
  0
LINE
  5
10C
330
1F
100
AcDbEntity
  8
0
  6
SLD-SOLID
 62
     7
100
AcDbLine
 10
77.1993784215
 20
82.107725006
 30
0.0
 11
77.3993780818
 21
82.3077246663
 31
0.0
  0
DIMENSION
  5
10D
330
1F
100
AcDbEntity
  8
0
  6
SLD-SOLID
 62
     7
100
AcDbDimension
  2
_D
 10
26.5993783888
 20
142.9077246991
 30
0.0
 11
51.9993783888
 21
142.9077246991
 31
0.0
 70
   160
  1
<>
  3
SLDDIMSTYLE0
100
AcDbAlignedDimension
 13
77.3993783888
 23
132.7077246991
 33
0.0
 14
26.5993783888
 24
132.7077246991
 34
0.0
100
AcDbRotatedDimension
  0
DIMENSION
  5
120
330
1F
100
AcDbEntity
  8
0
  6
SLD-SOLID
 62
     7
100
AcDbDimension
  2
_D_1
 10
87.3993783888
 20
132.9077246991
 30
0.0
 11
87.3993783888
 21
107.5077246991
 31
0.0
 70
   160
  1
<>
  3
SLDDIMSTYLE0
100
AcDbAlignedDimension
 13
77.1993783888
 23
82.1077246991
 33
0.0
 14
77.1993783888
 24
132.9077246991
 34
0.0
 50
90.0
100
AcDbRotatedDimension
  0
LINE
  5
132
330
1F
100
AcDbEntity
  8
0
  6
SLD-SOLID
 62
     7
100
AcDbLine
 10
233.8683571227
 20
105.2751719602
 30
0.0
 11
234.9822431363
 21
105.2751719602
 31
0.0
  0
SPLINE
  5
133
330
1F
100
AcDbEntity
  8
0
  6
SLD-SOLID
 62
     7
100
AcDbSpline
210
0.0
220
0.0
230
1.0
 70
     8
 71
     3
 72
    13
 73
     9
 74
     0
 42
0.000000001
 43
0.00000001
 40
0.0
 40
0.0
 40
0.0
 40
0.0
 40
0.2582395637416162
 40
0.5175487639639188
 40
0.6446900248165454
 40
0.7675959250472247
 40
0.8859447929946763
 40
1.0
 40
1.0
 40
1.0
 40
1.0
 10
234.4775201090614
 20
105.811186552002
 30
0.0
 10
234.4269005811035
 20
105.7630290465783
 30
0.0
 10
234.3254518574941
 20
105.666514565813
 30
0.0
 10
234.1943774778441
 20
105.5513963592235
 30
0.0
 10
234.0894723757493
 20
105.4620551286395
 30
0.0
 10
234.0136833439346
 20
105.3973330873982
 30
0.0
 10
233.9398832535398
 20
105.3357439255644
 30
0.0
 10
233.891903731238
 20
105.2951123797661
 30
0.0
 10
233.8683571804761
 20
105.2751719403916
 30
0.0
  0
SPLINE
  5
134
330
1F
100
AcDbEntity
  8
0
  6
SLD-SOLID
 62
     7
100
AcDbSpline
210
0.0
220
0.0
230
1.0
 70
     8
 71
     3
 72
    13
 73
     9
 74
     0
 42
0.000000001
 43
0.00000001
 40
0.0
 40
0.0
 40
0.0
 40
0.0
 40
0.2212448953598618
 40
0.4529519161069233
 40
0.5754384810760172
 40
0.7076098863437056
 40
0.8489066837425789
 40
0.9999999999999999
 40
0.9999999999999999
 40
0.9999999999999999
 40
0.9999999999999999
 10
234.7847430403559
 20
106.1651431302526
 30
0.0
 10
234.7654530460272
 20
106.1363386502392
 30
0.0
 10
234.7259608811179
 20
106.0773675974006
 30
0.0
 10
234.6680074634089
 20
106.0081671324089
 30
0.0
 10
234.6168410583794
 20
105.9517647973364
 30
0.0
 10
234.5742526326314
 20
105.9066877937188
 30
0.0
 10
234.5273713747537
 20
105.859538564735
 30
0.0
 10
234.4945042679837
 20
105.8276599204725
 30
0.0
 10
234.4775201090614
 20
105.811186552002
 30
0.0
  0
SPLINE
  5
135
330
1F
100
AcDbEntity
  8
0
  6
SLD-SOLID
 62
     7
100
AcDbSpline
210
0.0
220
0.0
230
1.0
 70
     8
 71
     3
 72
    15
 73
    11
 74
     0
 42
0.000000001
 43
0.00000001
 40
0.0
 40
0.0
 40
0.0
 40
0.0
 40
0.1332757459911677
 40
0.2615460712952873
 40
0.3872648407613581
 40
0.5103862310987066
 40
0.6320331454766885
 40
0.7534802056093566
 40
0.8763617854949632
 40
0.9999999999999999
 40
0.9999999999999999
 40
0.9999999999999999
 40
0.9999999999999999
 10
234.9042186247482
 20
106.5784311211607
 30
0.0
 10
234.9038216677314
 20
106.5590443928757
 30
0.0
 10
234.9030426621632
 20
106.5209990412591
 30
0.0
 10
234.8970933777549
 20
106.4649394283411
 30
0.0
 10
234.8880588989198
 20
106.4107850637283
 30
0.0
 10
234.8742484286074
 20
106.3586568719123
 30
0.0
 10
234.8579166908872
 20
106.3079006851201
 30
0.0
 10
234.8366105593824
 20
106.2590759977347
 30
0.0
 10
234.8131109621442
 20
106.2109353705339
 30
0.0
 10
234.7942183431045
 20
106.1804384114312
 30
0.0
 10
234.7847430403559
 20
106.1651431302526
 30
0.0
  0
SPLINE
  5
136
330
1F
100
AcDbEntity
  8
0
  6
SLD-SOLID
 62
     7
100
AcDbSpline
210
0.0
220
0.0
230
1.0
 70
     8
 71
     3
 72
    23
 73
    19
 74
     0
 42
0.000000001
 43
0.00000001
 40
0.0
 40
0.0
 40
0.0
 40
0.0
 40
0.0774903736768201
 40
0.1512671456775254
 40
0.2212332874182806
 40
0.2882533529051207
 40
0.3521853770619222
 40
0.414085732377426
 40
0.4741366226200591
 40
0.5337591795054968
 40
0.5916985350171896
 40
0.6483613458826774
 40
0.7047506651460201
 40
0.7604985656920304
 40
0.8172976285300334
 40
0.8759030156436453
 40
0.9366034732482301
 40
1.0
 40
1.0
 40
1.0
 40
1.0
 10
234.2178435838006
 20
107.1477688549486
 30
0.0
 10
234.2438707742447
 20
107.1473325049936
 30
0.0
 10
234.2946778438415
 20
107.1464807164545
 30
0.0
 10
234.368668895522
 20
107.1389416103416
 30
0.0
 10
234.4385246403718
 20
107.1273287497649
 30
0.0
 10
234.5041016699668
 20
107.1109975532366
 30
0.0
 10
234.5650106434542
 20
107.088702226049
 30
0.0
 10
234.6216914574241
 20
107.0623903299862
 30
0.0
 10
234.6743388077345
 20
107.0313802870952
 30
0.0
 10
234.7219381252214
 20
106.9952587079499
 30
0.0
 10
234.7649707212387
 20
106.9554529856447
 30
0.0
 10
234.8021731264794
 20
106.9115459759995
 30
0.0
 10
234.8339772088407
 20
106.8644799630932
 30
0.0
 10
234.8598739531007
 20
106.8138516142718
 30
0.0
 10
234.8798583609673
 20
106.7598210428337
 30
0.0
 10
234.8939278574094
 20
106.7022835868506
 30
0.0
 10
234.9026826701679
 20
106.641417552193
 30
0.0
 10
234.9036992777849
 20
106.5997285033279
 30
0.0
 10
234.9042186247482
 20
106.5784311211607
 30
0.0
  0
SPLINE
  5
137
330
1F
100
AcDbEntity
  8
0
  6
SLD-SOLID
 62
     7
100
AcDbSpline
210
0.0
220
0.0
230
1.0
 70
     8
 71
     3
 72
    15
 73
    11
 74
     0
 42
0.000000001
 43
0.00000001
 40
0.0
 40
0.0
 40
0.0
 40
0.0
 40
0.0973331324348744
 40
0.2063980682039246
 40
0.3284147680574266
 40
0.4628059424578722
 40
0.6020031849050428
 40
0.737768546444896
 40
0.870469876734752
 40
1.0
 40
1.0
 40
1.0
 40
1.0
 10
233.6298123912303
 20
107.0201656797813
 30
0.0
 10
233.6477237476239
 20
107.0282793815554
 30
0.0
 10
233.6857053605246
 20
107.0454847496583
 30
0.0
 10
233.7483902142679
 20
107.0673443156388
 30
0.0
 10
233.8189921297276
 20
107.0888613093656
 30
0.0
 10
233.8964052749411
 20
107.108690602339
 30
0.0
 10
233.9772516649863
 20
107.1260711082064
 30
0.0
 10
234.0586332600851
 20
107.1387584560651
 30
0.0
 10
234.1387263436901
 20
107.146286782656
 30
0.0
 10
234.191684648187
 20
107.1472788298463
 30
0.0
 10
234.2178435838006
 20
107.1477688549486
 30
0.0
  0
LINE
  5
138
330
1F
100
AcDbEntity
  8
0
  6
SLD-SOLID
 62
     7
100
AcDbLine
 10
233.6298123494
 20
106.7316361936
 30
0.0
 11
233.6298123494
 21
107.0201656897
 31
0.0
  0
LINE
  5
139
330
1F
100
AcDbEntity
  8
0
  6
SLD-SOLID
 62
     7
100
AcDbLine
 10
233.6440355077
 20
106.7316361936
 30
0.0
 11
233.6298123494
 21
106.7316361936
 31
0.0
  0
SPLINE
  5
13A
330
1F
100
AcDbEntity
  8
0
  6
SLD-SOLID
 62
     7
100
AcDbSpline
210
0.0
220
0.0
230
1.0
 70
     8
 71
     3
 72
    15
 73
    11
 74
     0
 42
0.000000001
 43
0.00000001
 40
0.0
 40
0.0
 40
0.0
 40
0.0
 40
0.1078901801587781
 40
0.2212789351531521
 40
0.3407142358842429
 40
0.4663874033763466
 40
0.5959142156032916
 40
0.7271846728772217
 40
0.8621675426917218
 40
1.0
 40
1.0
 40
1.0
 40
1.0
 10
234.2109351316418
 20
106.9136942406289
 30
0.0
 10
234.1892334526642
 20
106.9131292356942
 30
0.0
 10
234.1447240783342
 20
106.9119704306005
 30
0.0
 10
234.0767368414562
 20
106.9027400560112
 30
0.0
 10
234.0058868935283
 20
106.8892090354397
 30
0.0
 10
233.9332592492949
 20
106.8689807520085
 30
0.0
 10
233.859488364357
 20
106.8443496503001
 30
0.0
 10
233.7864529608128
 20
106.8125410245086
 30
0.0
 10
233.7140677597874
 20
106.7754444131113
 30
0.0
 10
233.6675416933599
 20
106.7463402745756
 30
0.0
 10
233.6440356750865
 20
106.7316362072692
 30
0.0
  0
SPLINE
  5
13B
330
1F
100
AcDbEntity
  8
0
  6
SLD-SOLID
 62
     7
100
AcDbSpline
210
0.0
220
0.0
230
1.0
 70
     8
 71
     3
 72
    23
 73
    19
 74
     0
 42
0.000000001
 43
0.00000001
 40
0.0
 40
0.0
 40
0.0
 40
0.0
 40
0.0653364109978346
 40
0.1272011164539618
 40
0.1866235604894539
 40
0.244524969925698
 40
0.3011089622164855
 40
0.3565487453464373
 40
0.412904146918441
 40
0.4705036066125442
 40
0.5290584110465574
 40
0.5884999074548615
 40
0.6496095755670193
 40
0.7132605076245035
 40
0.7798568377482171
 40
0.8495634501606367
 40
0.9225582804174951
 40
1.0
 40
1.0
 40
1.0
 40
1.0
 10
234.6181274294687
 20
106.5694907713082
 30
0.0
 10
234.6178867915714
 20
106.5826538093344
 30
0.0
 10
234.6174183022754
 20
106.6082804562115
 30
0.0
 10
234.6117060821565
 20
106.6454877540312
 30
0.0
 10
234.603879866533
 20
106.6807326333891
 30
0.0
 10
234.5921120414496
 20
106.7138233684688
 30
0.0
 10
234.576455989653
 20
106.7443079286603
 30
0.0
 10
234.5580756087549
 20
106.7728701259426
 30
0.0
 10
234.5358956686597
 20
106.7988895651084
 30
0.0
 10
234.510669909681
 20
106.8228123882146
 30
0.0
 10
234.4827012851373
 20
106.8445746206669
 30
0.0
 10
234.4514253833322
 20
106.8626558415466
 30
0.0
 10
234.4179720643357
 20
106.8787162957165
 30
0.0
 10
234.3816537568553
 20
106.8918084780977
 30
0.0
 10
234.3424705118279
 20
106.9011821171413
 30
0.0
 10
234.3009961471385
 20
106.9087668162063
 30
0.0
 10
234.2567909833529
 20
106.9125891387353
 30
0.0
 10
234.2265186974572
 20
106.913318684894
 30
0.0
 10
234.2109351316418
 20
106.9136942406289
 30
0.0
  0
SPLINE
  5
13C
330
1F
100
AcDbEntity
  8
0
  6
SLD-SOLID
 62
     7
100
AcDbSpline
210
0.0
220
0.0
230
1.0
 70
     8
 71
     3
 72
    23
 73
    19
 74
     0
 42
0.000000001
 43
0.00000001
 40
0.0
 40
0.0
 40
0.0
 40
0.0
 40
0.0998658700287556
 40
0.1933654339854252
 40
0.2798874732247334
 40
0.3597613811718553
 40
0.4327879830217737
 40
0.4992408871976368
 40
0.5592394164261346
 40
0.61288563719282
 40
0.6629450015471169
 40
0.7120250352027365
 40
0.7599773124621196
 40
0.8080517613265396
 40
0.8553927239361976
 40
0.9034650690241088
 40
0.9513941406751361
 40
1.0
 40
1.0
 40
1.0
 40
1.0
 10
234.1491654417519
 20
105.8278481130907
 30
0.0
 10
234.1707947865198
 20
105.8487516574784
 30
0.0
 10
234.2126746363287
 20
105.8892261752612
 30
0.0
 10
234.2718085768718
 20
105.9493208134192
 30
0.0
 10
234.3258004462301
 20
106.0059908105909
 30
0.0
 10
234.3754227332697
 20
106.0583427201441
 30
0.0
 10
234.4182029005713
 20
106.1087101965811
 30
0.0
 10
234.4567044261266
 20
106.1548387418289
 30
0.0
 10
234.4896980790022
 20
106.1979186353533
 30
0.0
 10
234.5179439297215
 20
106.238355024675
 30
0.0
 10
234.5420774772443
 20
106.277578627258
 30
0.0
 10
234.5623782052832
 20
106.3170082351001
 30
0.0
 10
234.579559585708
 20
106.3572204165936
 30
0.0
 10
234.5939597926366
 20
106.3979929898801
 30
0.0
 10
234.6042538622169
 20
106.4400046120954
 30
0.0
 10
234.6127235523047
 20
106.482371718849
 30
0.0
 10
234.6170612010833
 20
106.5257824029708
 30
0.0
 10
234.617770362742
 20
106.5548533782065
 30
0.0
 10
234.6181274294687
 20
106.5694907713082
 30
0.0
  0
SPLINE
  5
13D
330
1F
100
AcDbEntity
  8
0
  6
SLD-SOLID
 62
     7
100
AcDbSpline
210
0.0
220
0.0
230
1.0
 70
     8
 71
     3
 72
    11
 73
     7
 74
     0
 42
0.000000001
 43
0.00000001
 40
0.0
 40
0.0
 40
0.0
 40
0.0
 40
0.2549530326516083
 40
0.5099677626423764
 40
0.7601175479723807
 40
1.0
 40
1.0
 40
1.0
 40
1.0
 10
233.5777958102703
 20
105.3271885213515
 30
0.0
 10
233.6269122190618
 20
105.3691123144775
 30
0.0
 10
233.7251569225664
 20
105.4529700460744
 30
0.0
 10
233.8725858973292
 20
105.5767684247754
 30
0.0
 10
234.0153802451113
 20
105.7002185233583
 30
0.0
 10
234.1051976719812
 20
105.7859033497073
 30
0.0
 10
234.1491654417519
 20
105.8278481130907
 30
0.0
  0
LINE
  5
13E
330
1F
100
AcDbEntity
  8
0
  6
SLD-SOLID
 62
     7
100
AcDbLine
 10
233.5777956553
 20
105.0410973024
 30
0.0
 11
233.5777956553
 21
105.3271884215
 31
0.0
  0
LINE
  5
13F
330
1F
100
AcDbEntity
  8
0
  6
SLD-SOLID
 62
     7
100
AcDbLine
 10
234.9822431363
 20
105.0410973024
 30
0.0
 11
233.5777956553
 21
105.0410973024
 31
0.0
  0
LINE
  5
140
330
1F
100
AcDbEntity
  8
0
  6
SLD-SOLID
 62
     7
100
AcDbLine
 10
234.9822431363
 20
105.2751719602
 30
0.0
 11
234.9822431363
 21
105.0410973024
 31
0.0
  0
LINE
  5
141
330
1F
100
AcDbEntity
  8
0
  6
SLD-SOLID
 62
     7
100
AcDbLine
 10
230.3527678389
 20
105.2751719602
 30
0.0
 11
231.4191077396
 21
105.2751719602
 31
0.0
  0
LINE
  5
142
330
1F
100
AcDbEntity
  8
0
  6
SLD-SOLID
 62
     7
100
AcDbLine
 10
230.3527678389
 20
106.0554206255
 30
0.0
 11
230.3527678389
 21
105.2751719602
 31
0.0
  0
LINE
  5
143
330
1F
100
AcDbEntity
  8
0
  6
SLD-SOLID
 62
     7
100
AcDbLine
 10
231.4191077396
 20
106.0554206255
 30
0.0
 11
230.3527678389
 21
106.0554206255
 31
0.0
  0
LINE
  5
144
330
1F
100
AcDbEntity
  8
0
  6
SLD-SOLID
 62
     7
100
AcDbLine
 10
231.4191077396
 20
106.2894952833
 30
0.0
 11
231.4191077396
 21
106.0554206255
 31
0.0
  0
LINE
  5
145
330
1F
100
AcDbEntity
  8
0
  6
SLD-SOLID
 62
     7
100
AcDbLine
 10
230.3527678389
 20
106.2894952833
 30
0.0
 11
231.4191077396
 21
106.2894952833
 31
0.0
  0
LINE
  5
146
330
1F
100
AcDbEntity
  8
0
  6
SLD-SOLID
 62
     7
100
AcDbLine
 10
230.3527678389
 20
106.8616776378
 30
0.0
 11
230.3527678389
 21
106.2894952833
 31
0.0
  0
LINE
  5
147
330
1F
100
AcDbEntity
  8
0
  6
SLD-SOLID
 62
     7
100
AcDbLine
 10
231.4191077396
 20
106.8616776378
 30
0.0
 11
230.3527678389
 21
106.8616776378
 31
0.0
  0
LINE
  5
148
330
1F
100
AcDbEntity
  8
0
  6
SLD-SOLID
 62
     7
100
AcDbLine
 10
231.4191077396
 20
107.0957522665
 30
0.0
 11
231.4191077396
 21
106.8616776378
 31
0.0
  0
LINE
  5
149
330
1F
100
AcDbEntity
  8
0
  6
SLD-SOLID
 62
     7
100
AcDbLine
 10
230.0926848341
 20
107.0957522665
 30
0.0
 11
231.4191077396
 21
107.0957522665
 31
0.0
  0
LINE
  5
14A
330
1F
100
AcDbEntity
  8
0
  6
SLD-SOLID
 62
     7
100
AcDbLine
 10
230.0926848341
 20
105.0410973024
 30
0.0
 11
230.0926848341
 21
107.0957522665
 31
0.0
  0
LINE
  5
14B
330
1F
100
AcDbEntity
  8
0
  6
SLD-SOLID
 62
     7
100
AcDbLine
 10
231.4191077396
 20
105.0410973024
 30
0.0
 11
230.0926848341
 21
105.0410973024
 31
0.0
  0
LINE
  5
14C
330
1F
100
AcDbEntity
  8
0
  6
SLD-SOLID
 62
     7
100
AcDbLine
 10
231.4191077396
 20
105.2751719602
 30
0.0
 11
231.4191077396
 21
105.0410973024
 31
0.0
  0
LINE
  5
14D
330
1F
100
AcDbEntity
  8
0
  6
SLD-SOLID
 62
     7
100
AcDbLine
 10
227.2362431188
 20
105.2751719602
 30
0.0
 11
228.3501294235
 21
105.2751719602
 31
0.0
  0
SPLINE
  5
14E
330
1F
100
AcDbEntity
  8
0
  6
SLD-SOLID
 62
     7
100
AcDbSpline
210
0.0
220
0.0
230
1.0
 70
     8
 71
     3
 72
    13
 73
     9
 74
     0
 42
0.000000001
 43
0.00000001
 40
0.0
 40
0.0
 40
0.0
 40
0.0
 40
0.2582395637416162
 40
0.5175487639639188
 40
0.6446900248165452
 40
0.7675959250472248
 40
0.8859447929946764
 40
1.0
 40
1.0
 40
1.0
 40
1.0
 10
227.8454060366722
 20
105.811186552002
 30
0.0
 10
227.7947865087143
 20
105.7630290465783
 30
0.0
 10
227.6933377851048
 20
105.666514565813
 30
0.0
 10
227.5622634054548
 20
105.5513963592235
 30
0.0
 10
227.4573583033601
 20
105.4620551286395
 30
0.0
 10
227.3815692715453
 20
105.3973330873982
 30
0.0
 10
227.3077691811505
 20
105.3357439255644
 30
0.0
 10
227.2597896588488
 20
105.2951123797661
 30
0.0
 10
227.2362431080869
 20
105.2751719403916
 30
0.0
  0
SPLINE
  5
14F
330
1F
100
AcDbEntity
  8
0
  6
SLD-SOLID
 62
     7
100
AcDbSpline
210
0.0
220
0.0
230
1.0
 70
     8
 71
     3
 72
    13
 73
     9
 74
     0
 42
0.000000001
 43
0.00000001
 40
0.0
 40
0.0
 40
0.0
 40
0.0
 40
0.2212448953598622
 40
0.4529519161069229
 40
0.5754384810760169
 40
0.7076098863437055
 40
0.848906683742578
 40
1.0
 40
1.0
 40
1.0
 40
1.0
 10
228.1526289679666
 20
106.1651431302526
 30
0.0
 10
228.1333389736379
 20
106.1363386502392
 30
0.0
 10
228.0938468087287
 20
106.0773675974006
 30
0.0
 10
228.0358933910197
 20
106.0081671324089
 30
0.0
 10
227.9847269859901
 20
105.9517647973364
 30
0.0
 10
227.9421385602421
 20
105.9066877937188
 30
0.0
 10
227.8952573023644
 20
105.859538564735
 30
0.0
 10
227.8623901955945
 20
105.8276599204725
 30
0.0
 10
227.8454060366722
 20
105.811186552002
 30
0.0
  0
SPLINE
  5
150
330
1F
100
AcDbEntity
  8
0
  6
SLD-SOLID
 62
     7
100
AcDbSpline
210
0.0
220
0.0
230
1.0
 70
     8
 71
     3
 72
    15
 73
    11
 74
     0
 42
0.000000001
 43
0.00000001
 40
0.0
 40
0.0
 40
0.0
 40
0.0
 40
0.1332757459911676
 40
0.2615460712952874
 40
0.3872648407613581
 40
0.510386231098707
 40
0.6320331454766884
 40
0.7534802056093571
 40
0.876361785494963
 40
1.0
 40
1.0
 40
1.0
 40
1.0
 10
228.272104552359
 20
106.5784311211607
 30
0.0
 10
228.2717075953421
 20
106.5590443928757
 30
0.0
 10
228.2709285897739
 20
106.5209990412591
 30
0.0
 10
228.2649793053657
 20
106.4649394283411
 30
0.0
 10
228.2559448265306
 20
106.4107850637283
 30
0.0
 10
228.2421343562182
 20
106.3586568719123
 30
0.0
 10
228.225802618498
 20
106.3079006851201
 30
0.0
 10
228.2044964869932
 20
106.2590759977347
 30
0.0
 10
228.180996889755
 20
106.2109353705339
 30
0.0
 10
228.1621042707153
 20
106.1804384114312
 30
0.0
 10
228.1526289679666
 20
106.1651431302526
 30
0.0
  0
SPLINE
  5
151
330
1F
100
AcDbEntity
  8
0
  6
SLD-SOLID
 62
     7
100
AcDbSpline
210
0.0
220
0.0
230
1.0
 70
     8
 71
     3
 72
    23
 73
    19
 74
     0
 42
0.000000001
 43
0.00000001
 40
0.0
 40
0.0
 40
0.0
 40
0.0
 40
0.0774903736768198
 40
0.1512671456775255
 40
0.2212332874182805
 40
0.2882533529051203
 40
0.3521853770619224
 40
0.4140857323774257
 40
0.4741366226200593
 40
0.5337591795054967
 40
0.5916985350171896
 40
0.6483613458826772
 40
0.7047506651460199
 40
0.7604985656920304
 40
0.8172976285300334
 40
0.8759030156436451
 40
0.9366034732482301
 40
1.0
 40
1.0
 40
1.0
 40
1.0
 10
227.5857295114114
 20
107.1477688549486
 30
0.0
 10
227.6117567018554
 20
107.1473325049936
 30
0.0
 10
227.6625637714522
 20
107.1464807164545
 30
0.0
 10
227.7365548231327
 20
107.1389416103416
 30
0.0
 10
227.8064105679826
 20
107.1273287497649
 30
0.0
 10
227.8719875975776
 20
107.1109975532366
 30
0.0
 10
227.9328965710649
 20
107.088702226049
 30
0.0
 10
227.9895773850349
 20
107.0623903299862
 30
0.0
 10
228.0422247353453
 20
107.0313802870952
 30
0.0
 10
228.0898240528322
 20
106.9952587079499
 30
0.0
 10
228.1328566488495
 20
106.9554529856447
 30
0.0
 10
228.1700590540902
 20
106.9115459759995
 30
0.0
 10
228.2018631364515
 20
106.8644799630932
 30
0.0
 10
228.2277598807115
 20
106.8138516142718
 30
0.0
 10
228.2477442885781
 20
106.7598210428337
 30
0.0
 10
228.2618137850201
 20
106.7022835868506
 30
0.0
 10
228.2705685977787
 20
106.641417552193
 30
0.0
 10
228.2715852053956
 20
106.5997285033279
 30
0.0
 10
228.272104552359
 20
106.5784311211607
 30
0.0
  0
SPLINE
  5
152
330
1F
100
AcDbEntity
  8
0
  6
SLD-SOLID
 62
     7
100
AcDbSpline
210
0.0
220
0.0
230
1.0
 70
     8
 71
     3
 72
    15
 73
    11
 74
     0
 42
0.000000001
 43
0.00000001
 40
0.0
 40
0.0
 40
0.0
 40
0.0
 40
0.0973331324348748
 40
0.206398068203925
 40
0.3284147680574267
 40
0.4628059424578725
 40
0.6020031849050436
 40
0.7377685464448958
 40
0.8704698767347521
 40
1.0
 40
1.0
 40
1.0
 40
1.0
 10
226.997698318841
 20
107.0201656797813
 30
0.0
 10
227.0156096752347
 20
107.0282793815554
 30
0.0
 10
227.0535912881354
 20
107.0454847496583
 30
0.0
 10
227.1162761418786
 20
107.0673443156388
 30
0.0
 10
227.1868780573383
 20
107.0888613093656
 30
0.0
 10
227.2642912025519
 20
107.108690602339
 30
0.0
 10
227.3451375925971
 20
107.1260711082064
 30
0.0
 10
227.4265191876958
 20
107.1387584560651
 30
0.0
 10
227.5066122713008
 20
107.146286782656
 30
0.0
 10
227.5595705757977
 20
107.1472788298463
 30
0.0
 10
227.5857295114114
 20
107.1477688549486
 30
0.0
  0
LINE
  5
153
330
1F
100
AcDbEntity
  8
0
  6
SLD-SOLID
 62
     7
100
AcDbLine
 10
226.99769832
 20
106.7316361936
 30
0.0
 11
226.99769832
 21
107.0201656897
 31
0.0
  0
LINE
  5
154
330
1F
100
AcDbEntity
  8
0
  6
SLD-SOLID
 62
     7
100
AcDbLine
 10
227.0119216021
 20
106.7316361936
 30
0.0
 11
226.99769832
 21
106.7316361936
 31
0.0
  0
SPLINE
  5
155
330
1F
100
AcDbEntity
  8
0
  6
SLD-SOLID
 62
     7
100
AcDbSpline
210
0.0
220
0.0
230
1.0
 70
     8
 71
     3
 72
    15
 73
    11
 74
     0
 42
0.000000001
 43
0.00000001
 40
0.0
 40
0.0
 40
0.0
 40
0.0
 40
0.107890180158777
 40
0.2212789351531518
 40
0.3407142358842425
 40
0.4663874033763461
 40
0.5959142156032917
 40
0.7271846728772223
 40
0.8621675426917214
 40
1.0
 40
1.0
 40
1.0
 40
1.0
 10
227.5788210592526
 20
106.9136942406289
 30
0.0
 10
227.5571193802749
 20
106.9131292356942
 30
0.0
 10
227.5126100059449
 20
106.9119704306005
 30
0.0
 10
227.444622769067
 20
106.9027400560112
 30
0.0
 10
227.3737728211391
 20
106.8892090354397
 30
0.0
 10
227.3011451769056
 20
106.8689807520085
 30
0.0
 10
227.2273742919677
 20
106.8443496503001
 30
0.0
 10
227.1543388884236
 20
106.8125410245086
 30
0.0
 10
227.0819536873981
 20
106.7754444131113
 30
0.0
 10
227.0354276209706
 20
106.7463402745756
 30
0.0
 10
227.0119216026973
 20
106.7316362072692
 30
0.0
  0
SPLINE
  5
156
330
1F
100
AcDbEntity
  8
0
  6
SLD-SOLID
 62
     7
100
AcDbSpline
210
0.0
220
0.0
230
1.0
 70
     8
 71
     3
 72
    23
 73
    19
 74
     0
 42
0.000000001
 43
0.00000001
 40
0.0
 40
0.0
 40
0.0
 40
0.0
 40
0.0653364109978345
 40
0.1272011164539617
 40
0.1866235604894537
 40
0.2445249699256979
 40
0.301108962216485
 40
0.3565487453464372
 40
0.4129041469184405
 40
0.470503606612544
 40
0.5290584110465578
 40
0.5884999074548616
 40
0.6496095755670188
 40
0.7132605076245031
 40
0.7798568377482172
 40
0.8495634501606355
 40
0.9225582804174942
 40
1.0
 40
1.0
 40
1.0
 40
1.0
 10
227.9860133570794
 20
106.5694907713082
 30
0.0
 10
227.9857727191822
 20
106.5826538093344
 30
0.0
 10
227.9853042298861
 20
106.6082804562115
 30
0.0
 10
227.9795920097673
 20
106.6454877540312
 30
0.0
 10
227.9717657941438
 20
106.6807326333891
 30
0.0
 10
227.9599979690603
 20
106.7138233684688
 30
0.0
 10
227.9443419172638
 20
106.7443079286603
 30
0.0
 10
227.9259615363657
 20
106.7728701259426
 30
0.0
 10
227.9037815962705
 20
106.7988895651084
 30
0.0
 10
227.8785558372918
 20
106.8228123882146
 30
0.0
 10
227.8505872127481
 20
106.8445746206669
 30
0.0
 10
227.819311310943
 20
106.8626558415466
 30
0.0
 10
227.7858579919464
 20
106.8787162957165
 30
0.0
 10
227.7495396844661
 20
106.8918084780977
 30
0.0
 10
227.7103564394387
 20
106.9011821171413
 30
0.0
 10
227.6688820747493
 20
106.9087668162063
 30
0.0
 10
227.6246769109637
 20
106.9125891387353
 30
0.0
 10
227.594404625068
 20
106.913318684894
 30
0.0
 10
227.5788210592526
 20
106.9136942406289
 30
0.0
  0
SPLINE
  5
157
330
1F
100
AcDbEntity
  8
0
  6
SLD-SOLID
 62
     7
100
AcDbSpline
210
0.0
220
0.0
230
1.0
 70
     8
 71
     3
 72
    23
 73
    19
 74
     0
 42
0.000000001
 43
0.00000001
 40
0.0
 40
0.0
 40
0.0
 40
0.0
 40
0.0998658700287555
 40
0.1933654339854248
 40
0.2798874732247333
 40
0.3597613811718556
 40
0.4327879830217737
 40
0.4992408871976366
 40
0.5592394164261346
 40
0.6128856371928201
 40
0.662945001547117
 40
0.7120250352027363
 40
0.7599773124621197
 40
0.8080517613265396
 40
0.8553927239361977
 40
0.9034650690241088
 40
0.951394140675136
 40
0.9999999999999999
 40
0.9999999999999999
 40
0.9999999999999999
 40
0.9999999999999999
 10
227.5170513693627
 20
105.8278481130907
 30
0.0
 10
227.5386807141305
 20
105.8487516574784
 30
0.0
 10
227.5805605639395
 20
105.8892261752612
 30
0.0
 10
227.6396945044825
 20
105.9493208134192
 30
0.0
 10
227.6936863738408
 20
106.0059908105909
 30
0.0
 10
227.7433086608805
 20
106.0583427201441
 30
0.0
 10
227.7860888281821
 20
106.1087101965811
 30
0.0
 10
227.8245903537374
 20
106.1548387418289
 30
0.0
 10
227.857584006613
 20
106.1979186353533
 30
0.0
 10
227.8858298573323
 20
106.238355024675
 30
0.0
 10
227.9099634048551
 20
106.277578627258
 30
0.0
 10
227.9302641328939
 20
106.3170082351001
 30
0.0
 10
227.9474455133188
 20
106.3572204165936
 30
0.0
 10
227.9618457202474
 20
106.3979929898801
 30
0.0
 10
227.9721397898277
 20
106.4400046120954
 30
0.0
 10
227.9806094799155
 20
106.482371718849
 30
0.0
 10
227.9849471286941
 20
106.5257824029708
 30
0.0
 10
227.9856562903527
 20
106.5548533782065
 30
0.0
 10
227.9860133570794
 20
106.5694907713082
 30
0.0
  0
SPLINE
  5
158
330
1F
100
AcDbEntity
  8
0
  6
SLD-SOLID
 62
     7
100
AcDbSpline
210
0.0
220
0.0
230
1.0
 70
     8
 71
     3
 72
    11
 73
     7
 74
     0
 42
0.000000001
 43
0.00000001
 40
0.0
 40
0.0
 40
0.0
 40
0.0
 40
0.2549530326516079
 40
0.5099677626423768
 40
0.7601175479723808
 40
1.0
 40
1.0
 40
1.0
 40
1.0
 10
226.9456817378811
 20
105.3271885213515
 30
0.0
 10
226.9947981466726
 20
105.3691123144775
 30
0.0
 10
227.0930428501771
 20
105.4529700460744
 30
0.0
 10
227.24047182494
 20
105.5767684247754
 30
0.0
 10
227.3832661727221
 20
105.7002185233583
 30
0.0
 10
227.473083599592
 20
105.7859033497073
 30
0.0
 10
227.5170513693627
 20
105.8278481130907
 30
0.0
  0
LINE
  5
159
330
1F
100
AcDbEntity
  8
0
  6
SLD-SOLID
 62
     7
100
AcDbLine
 10
226.9456817378
 20
105.0410973024
 30
0.0
 11
226.9456817378
 21
105.3271884215
 31
0.0
  0
LINE
  5
15A
330
1F
100
AcDbEntity
  8
0
  6
SLD-SOLID
 62
     7
100
AcDbLine
 10
228.3501294235
 20
105.0410973024
 30
0.0
 11
226.9456817378
 21
105.0410973024
 31
0.0
  0
LINE
  5
15B
330
1F
100
AcDbEntity
  8
0
  6
SLD-SOLID
 62
     7
100
AcDbLine
 10
228.3501294235
 20
105.2751719602
 30
0.0
 11
228.3501294235
 21
105.0410973024
 31
0.0
  0
SPLINE
  5
15C
330
1F
100
AcDbEntity
  8
0
  6
SLD-SOLID
 62
     7
100
AcDbSpline
210
0.0
220
0.0
230
1.0
 70
     8
 71
     3
 72
    15
 73
    11
 74
     0
 42
0.000000001
 43
0.00000001
 40
0.0
 40
0.0
 40
0.0
 40
0.0
 40
0.0932522940898439
 40
0.2030994356376327
 40
0.3310220938728501
 40
0.4754246486616945
 40
0.6236441625924206
 40
0.7602181276767058
 40
0.8859457116350388
 40
1.0
 40
1.0
 40
1.0
 40
1.0
 10
223.3727928331969
 20
106.2606423218587
 30
0.0
 10
223.3893121468612
 20
106.2572220728513
 30
0.0
 10
223.4252904926498
 20
106.2497729194558
 30
0.0
 10
223.4840873126122
 20
106.2384147488991
 30
0.0
 10
223.5520681092379
 20
106.2258229379042
 30
0.0
 10
223.6270487518382
 20
106.2129502864661
 30
0.0
 10
223.7036047258043
 20
106.1999862510003
 30
0.0
 10
223.7764875804212
 20
106.1856945177871
 30
0.0
 10
223.8430211161108
 20
106.1712098534898
 30
0.0
 10
223.8851236163727
 20
106.1607647183091
 30
0.0
 10
223.9051500289586
 20
106.1557964008614
 30
0.0
  0
SPLINE
  5
15D
330
1F
100
AcDbEntity
  8
0
  6
SLD-SOLID
 62
     7
100
AcDbSpline
210
0.0
220
0.0
230
1.0
 70
     8
 71
     3
 72
    19
 73
    15
 74
     0
 42
0.000000001
 43
0.00000001
 40
0.0
 40
0.0
 40
0.0
 40
0.0
 40
0.1268092702442913
 40
0.2428782053609817
 40
0.3498290754484311
 40
0.4530854512027858
 40
0.5058237602822869
 40
0.5624899981881457
 40
0.6231597597642975
 40
0.6883755208164098
 40
0.7578050229004751
 40
0.832834120266578
 40
0.9134179105045229
 40
0.9999999999999999
 40
0.9999999999999999
 40
0.9999999999999999
 40
0.9999999999999999
 10
223.0704464563674
 20
106.5784311211607
 30
0.0
 10
223.0711135290746
 20
106.5579045325093
 30
0.0
 10
223.0723911755876
 20
106.5185898908886
 30
0.0
 10
223.08512957801
 20
106.4631068332439
 30
0.0
 10
223.1059031287595
 20
106.4143076694493
 30
0.0
 10
223.1308351906654
 20
106.3793539208867
 30
0.0
 10
223.1555653182619
 20
106.3553900153885
 30
0.0
 10
223.1771576454215
 20
106.3382913807695
 30
0.0
 10
223.2021253601677
 20
106.3224711097024
 30
0.0
 10
223.2301977056244
 20
106.3079474699148
 30
0.0
 10
223.2613638675418
 20
106.2945751444151
 30
0.0
 10
223.2954923985496
 20
106.2819243173806
 30
0.0
 10
223.3330118838298
 20
106.2706541181812
 30
0.0
 10
223.3592190586805
 20
106.264058476273
 30
0.0
 10
223.3727928331969
 20
106.2606423218587
 30
0.0
  0
SPLINE
  5
15E
330
1F
100
AcDbEntity
  8
0
  6
SLD-SOLID
 62
     7
100
AcDbSpline
210
0.0
220
0.0
230
1.0
 70
     8
 71
     3
 72
    23
 73
    19
 74
     0
 42
0.000000001
 43
0.00000001
 40
0.0
 40
0.0
 40
0.0
 40
0.0
 40
0.0820152122453144
 40
0.1599519257716712
 40
0.2341869940922267
 40
0.3051246137515423
 40
0.3734499329597792
 40
0.4393407970318606
 40
0.5030894667964403
 40
0.5657336030606944
 40
0.625937360673197
 40
0.6822012886643631
 40
0.7364846002131625
 40
0.7890871215591241
 40
0.8410885332773576
 40
0.8925509432537753
 40
0.9454656063736531
 40
1.0
 40
1.0
 40
1.0
 40
1.0
 10
223.5633848368703
 20
106.9136942406289
 30
0.0
 10
223.5452266350511
 20
106.9133235212924
 30
0.0
 10
223.509813212711
 20
106.9126005179597
 30
0.0
 10
223.4580740846533
 20
106.9086831507272
 30
0.0
 10
223.4091372683606
 20
106.9015062919965
 30
0.0
 10
223.3630972775316
 20
106.8906447180994
 30
0.0
 10
223.3194210268642
 20
106.8780070747277
 30
0.0
 10
223.278686718544
 20
106.8616174529318
 30
0.0
 10
223.240653540498
 20
106.842395644094
 30
0.0
 10
223.2053958425019
 20
106.8207236111173
 30
0.0
 10
223.1739619186854
 20
106.7964467317402
 30
0.0
 10
223.1461701590331
 20
106.7706972159092
 30
0.0
 10
223.1229863818319
 20
106.742888343245
 30
0.0
 10
223.1034528532543
 20
106.7135019517053
 30
0.0
 10
223.0889683693283
 20
106.6819939764704
 30
0.0
 10
223.078212080969
 20
106.6490250971451
 30
0.0
 10
223.0714680724377
 20
106.6143315362297
 30
0.0
 10
223.0707904002258
 20
106.590517586551
 30
0.0
 10
223.0704464563674
 20
106.5784311211607
 30
0.0
  0
SPLINE
  5
15F
330
1F
100
AcDbEntity
  8
0
  6
SLD-SOLID
 62
     7
100
AcDbSpline
210
0.0
220
0.0
230
1.0
 70
     8
 71
     3
 72
    15
 73
    11
 74
     0
 42
0.000000001
 43
0.00000001
 40
0.0
 40
0.0
 40
0.0
 40
0.0
 40
0.1056104929821482
 40
0.2181470470918489
 40
0.3394654686690302
 40
0.4692629563420195
 40
0.6030470205796892
 40
0.7350948858466878
 40
0.8674791079275841
 40
1.0
 40
1.0
 40
1.0
 40
1.0
 10
224.2733298910655
 20
106.6796196263093
 30
0.0
 10
224.2522782459176
 20
106.6962414821842
 30
0.0
 10
224.2087943638168
 20
106.7305752749153
 30
0.0
 10
224.134136199501
 20
106.7740015135181
 30
0.0
 10
224.0507987344724
 20
106.8137376620855
 30
0.0
 10
223.9594238135986
 20
106.8484523903893
 30
0.0
 10
223.8632798903169
 20
106.877667565627
 30
0.0
 10
223.7642729145204
 20
106.8982703254653
 30
0.0
 10
223.664254334848
 20
106.911461967358
 30
0.0
 10
223.5970195654626
 20
106.9129498936547
 30
0.0
 10
223.5633848368703
 20
106.9136942406289
 30
0.0
  0
LINE
  5
160
330
1F
100
AcDbEntity
  8
0
  6
SLD-SOLID
 62
     7
100
AcDbLine
 10
224.2928360149
 20
106.6796196159
 30
0.0
 11
224.2733299292
 21
106.6796196159
 31
0.0
  0
LINE
  5
161
330
1F
100
AcDbEntity
  8
0
  6
SLD-SOLID
 62
     7
100
AcDbLine
 10
224.2928360149
 20
107.0039105019
 30
0.0
 11
224.2928360149
 21
106.6796196159
 31
0.0
  0
SPLINE
  5
162
330
1F
100
AcDbEntity
  8
0
  6
SLD-SOLID
 62
     7
100
AcDbSpline
210
0.0
220
0.0
230
1.0
 70
     8
 71
     3
 72
    15
 73
    11
 74
     0
 42
0.000000001
 43
0.00000001
 40
0.0
 40
0.0
 40
0.0
 40
0.0
 40
0.1438134946436347
 40
0.2825302617167642
 40
0.4154724990798206
 40
0.5436416713555685
 40
0.6664829494542226
 40
0.7833339323015184
 40
0.8944191683275445
 40
1.0
 40
1.0
 40
1.0
 40
1.0
 10
223.5658231141029
 20
107.1477688549486
 30
0.0
 10
223.6015990709911
 20
107.1473474314081
 30
0.0
 10
223.6718830904973
 20
107.1465195195109
 30
0.0
 10
223.7749907988938
 20
107.1386389070988
 30
0.0
 10
223.8736733383291
 20
107.1258618666742
 30
0.0
 10
223.9674175389056
 20
107.1073290071485
 30
0.0
 10
224.0562597762192
 20
107.08533637524
 30
0.0
 10
224.1400615303039
 20
107.0609963971603
 30
0.0
 10
224.2187239484626
 20
107.0344832323989
 30
0.0
 10
224.26855403343
 20
107.0139273353404
 30
0.0
 10
224.2928361089254
 20
107.0039104982313
 30
0.0
  0
SPLINE
  5
163
330
1F
100
AcDbEntity
  8
0
  6
SLD-SOLID
 62
     7
100
AcDbSpline
210
0.0
220
0.0
230
1.0
 70
     8
 71
     3
 72
    23
 73
    19
 74
     0
 42
0.000000001
 43
0.00000001
 40
0.0
 40
0.0
 40
0.0
 40
0.0
 40
0.058241483108126
 40
0.1146427594695282
 40
0.169859822040876
 40
0.2249312733524661
 40
0.2800824228986797
 40
0.3366222446972302
 40
0.395571159141462
 40
0.4568580256683302
 40
0.5202638826731388
 40
0.5834528927466011
 40
0.6479660969618363
 40
0.7138123028707999
 40
0.7814741194161736
 40
0.8513965712822175
 40
0.9243885405390578
 40
1.0
 40
1.0
 40
1.0
 40
1.0
 10
222.7843552610879
 20
106.5516100716033
 30
0.0
 10
222.7848766431244
 20
106.5729284503282
 30
0.0
 10
222.7859029335315
 20
106.6148916290457
 30
0.0
 10
222.7971076310139
 20
106.6761846531191
 30
0.0
 10
222.8138725825801
 20
106.7349103046109
 30
0.0
 10
222.8386080182471
 20
106.7903185708374
 30
0.0
 10
222.8697641056996
 20
106.8428765337769
 30
0.0
 10
222.907929790438
 20
106.892434470324
 30
0.0
 10
222.9532797236507
 20
106.9386791711722
 30
0.0
 10
223.005024485128
 20
106.9816157550811
 30
0.0
 10
223.0616560009854
 20
107.0206796902302
 30
0.0
 10
223.1228556414061
 20
107.0546044131911
 30
0.0
 10
223.1875470245217
 20
107.0835115794353
 30
0.0
 10
223.2561044297088
 20
107.1070658881295
 30
0.0
 10
223.328286560239
 20
107.1253868365288
 30
0.0
 10
223.4042715825248
 20
107.1381216869683
 30
0.0
 10
223.4838107790339
 20
107.1466546755812
 30
0.0
 10
223.5381662872135
 20
107.1473931228607
 30
0.0
 10
223.5658231141029
 20
107.1477688549486
 30
0.0
  0
SPLINE
  5
164
330
1F
100
AcDbEntity
  8
0
  6
SLD-SOLID
 62
     7
100
AcDbSpline
210
0.0
220
0.0
230
1.0
 70
     8
 71
     3
 72
    23
 73
    19
 74
     0
 42
0.000000001
 43
0.00000001
 40
0.0
 40
0.0
 40
0.0
 40
0.0
 40
0.0791403044728405
 40
0.154595234228795
 40
0.2255894056564565
 40
0.2928483715929996
 40
0.3573318591730975
 40
0.4184027772098032
 40
0.4775728648746412
 40
0.5343477861260596
 40
0.5903113859057569
 40
0.6453917384100366
 40
0.7008449670353333
 40
0.7572537956642007
 40
0.8147232371888097
 40
0.8742035410736735
 40
0.9356396770884149
 40
1.0
 40
1.0
 40
1.0
 40
1.0
 10
223.3264655657795
 20
105.9810531991992
 30
0.0
 10
223.3041826102074
 20
105.9860699560538
 30
0.0
 10
223.260654363015
 20
105.9958698513938
 30
0.0
 10
223.1982650608676
 20
106.0146165440726
 30
0.0
 10
223.1402912443732
 20
106.0357193376326
 30
0.0
 10
223.0867006996849
 20
106.0592924217111
 30
0.0
 10
223.0375762182467
 20
106.0855416230791
 30
0.0
 10
222.9928360770953
 20
106.1146257107724
 30
0.0
 10
222.9525439635102
 20
106.1461475738724
 30
0.0
 10
222.9168166017476
 20
106.1806787192183
 30
0.0
 10
222.8854220562904
 20
106.2176554540012
 30
0.0
 10
222.8583676124009
 20
106.2574625079481
 30
0.0
 10
222.8355038694982
 20
106.2999567664044
 30
0.0
 10
222.8168533029503
 20
106.3452003842321
 30
0.0
 10
222.8021534467192
 20
106.3930851286435
 30
0.0
 10
222.7916053663054
 20
106.4435332702658
 30
0.0
 10
222.7854739794508
 20
106.4967317200857
 30
0.0
 10
222.7847339016727
 20
106.533035985576
 30
0.0
 10
222.7843552610879
 20
106.5516100716033
 30
0.0
  0
SPLINE
  5
165
330
1F
100
AcDbEntity
  8
0
  6
SLD-SOLID
 62
     7
100
AcDbSpline
210
0.0
220
0.0
230
1.0
 70
     8
 71
     3
 72
    11
 73
     7
 74
     0
 42
0.000000001
 43
0.00000001
 40
0.0
 40
0.0
 40
0.0
 40
0.0
 40
0.2264437066147215
 40
0.4684934644352421
 40
0.72609020467842
 40
1.0
 40
1.0
 40
1.0
 40
1.0
 10
223.8116827350462
 20
105.8888050439031
 30
0.0
 10
223.7754895170433
 20
105.8978745690884
 30
0.0
 10
223.7006087162264
 20
105.9166386731494
 30
0.0
 10
223.5823657845252
 20
105.9350614766147
 30
0.0
 10
223.4565603571282
 20
105.9550773306788
 30
0.0
 10
223.3707088177527
 20
105.9722192029703
 30
0.0
 10
223.3264655657795
 20
105.9810531991992
 30
0.0
  0
SPLINE
  5
166
330
1F
100
AcDbEntity
  8
0
  6
SLD-SOLID
 62
     7
100
AcDbSpline
210
0.0
220
0.0
230
1.0
 70
     8
 71
     3
 72
    19
 73
    15
 74
     0
 42
0.000000001
 43
0.00000001
 40
0.0
 40
0.0
 40
0.0
 40
0.0
 40
0.0736826146611915
 40
0.1431112576246217
 40
0.207926863199303
 40
0.2695996622420426
 40
0.3273006387183211
 40
0.3823410054467735
 40
0.4358963298045674
 40
0.4880248830426844
 40
0.5971381218227616
 40
0.7166521932471878
 40
0.8505969534355429
 40
1.0
 40
1.0
 40
1.0
 40
1.0
 10
224.0847697850858
 20
105.5823948716861
 30
0.0
 10
224.0844718450599
 20
105.593506990084
 30
0.0
 10
224.0838931661954
 20
105.6150896829092
 30
0.0
 10
224.081269353085
 20
105.6463747260337
 30
0.0
 10
224.0760408797588
 20
105.6755275971449
 30
0.0
 10
224.068164251959
 20
105.7021973020252
 30
0.0
 10
224.0591041957538
 20
105.7269633930893
 30
0.0
 10
224.0470258599213
 20
105.7490271247078
 30
0.0
 10
224.0333479017422
 20
105.769120459277
 30
0.0
 10
224.0113224134793
 20
105.7929999107163
 30
0.0
 10
223.9781808651113
 20
105.8197574209863
 30
0.0
 10
223.9304805034941
 20
105.8468100170559
 30
0.0
 10
223.874563331438
 20
105.8710265308637
 30
0.0
 10
223.8333916527727
 20
105.8826671842291
 30
0.0
 10
223.8116827350462
 20
105.8888050439031
 30
0.0
  0
SPLINE
  5
167
330
1F
100
AcDbEntity
  8
0
  6
SLD-SOLID
 62
     7
100
AcDbSpline
210
0.0
220
0.0
230
1.0
 70
     8
 71
     3
 72
    23
 73
    19
 74
     0
 42
0.000000001
 43
0.00000001
 40
0.0
 40
0.0
 40
0.0
 40
0.0
 40
0.0854151544129915
 40
0.1659823341365553
 40
0.2425656174833746
 40
0.3148369819696938
 40
0.3832803096291426
 40
0.448899034306312
 40
0.5114550916688618
 40
0.5714779974050679
 40
0.6295665825924376
 40
0.6843880566524386
 40
0.7370366993053414
 40
0.7887815262452744
 40
0.840060781171776
 40
0.8917690048341222
 40
0.944877156962971
 40
1.0
 40
1.0
 40
1.0
 40
1.0
 10
223.5479424143979
 20
105.2231553594317
 30
0.0
 10
223.5685395095118
 20
105.2234889326972
 30
0.0
 10
223.6085646543113
 20
105.2241371463498
 30
0.0
 10
223.6669379935128
 20
105.2285323933524
 30
0.0
 10
223.7217464892126
 20
105.2362802138544
 30
0.0
 10
223.7731568376542
 20
105.2466322021013
 30
0.0
 10
223.8210110288683
 20
105.2604839459978
 30
0.0
 10
223.8653161968671
 20
105.2775179997814
 30
0.0
 10
223.9061826927525
 20
105.2974059733528
 30
0.0
 10
223.9433564015546
 20
105.3202440789215
 30
0.0
 10
223.9766442788529
 20
105.3455300868781
 30
0.0
 10
224.005186865454
 20
105.3735434299089
 30
0.0
 10
224.0301189079795
 20
105.4028601602205
 30
0.0
 10
224.0500505992452
 20
105.4348154428922
 30
0.0
 10
224.0657214287987
 20
105.4688071410071
 30
0.0
 10
224.0765123716253
 20
105.5049450818042
 30
0.0
 10
224.0838938294305
 20
105.5429471944945
 30
0.0
 10
224.0844741987278
 20
105.5690834726891
 30
0.0
 10
224.0847697850858
 20
105.5823948716861
 30
0.0
  0
SPLINE
  5
168
330
1F
100
AcDbEntity
  8
0
  6
SLD-SOLID
 62
     7
100
AcDbSpline
210
0.0
220
0.0
230
1.0
 70
     8
 71
     3
 72
    15
 73
    11
 74
     0
 42
0.000000001
 43
0.00000001
 40
0.0
 40
0.0
 40
0.0
 40
0.0
 40
0.1247846984405779
 40
0.2508991582111131
 40
0.3796498944864674
 40
0.5118057263052213
 40
0.6428226368571992
 40
0.7671691836151721
 40
0.8858586764781955
 40
0.9999999999999999
 40
0.9999999999999999
 40
0.9999999999999999
 40
0.9999999999999999
 10
222.8038614789479
 20
105.4832382642312
 30
0.0
 10
222.8304375253345
 20
105.4630398902244
 30
0.0
 10
222.8838728242958
 20
105.4224278993403
 30
0.0
 10
222.971711057252
 20
105.3711920043925
 30
0.0
 10
223.0649454990144
 20
105.3261258912353
 30
0.0
 10
223.1632591469566
 20
105.289611590818
 30
0.0
 10
223.2626221643943
 20
105.2599827203665
 30
0.0
 10
223.3605543701345
 20
105.2395965182122
 30
0.0
 10
223.4551434357681
 20
105.2253798573331
 30
0.0
 10
223.5174148964101
 20
105.2238871390342
 30
0.0
 10
223.5479424143979
 20
105.2231553594317
 30
0.0
  0
LINE
  5
169
330
1F
100
AcDbEntity
  8
0
  6
SLD-SOLID
 62
     7
100
AcDbLine
 10
222.7843551457
 20
105.483238271
 30
0.0
 11
222.803861697
 21
105.483238271
 31
0.0
  0
LINE
  5
16A
330
1F
100
AcDbEntity
  8
0
  6
SLD-SOLID
 62
     7
100
AcDbLine
 10
222.7843551457
 20
105.1491942839
 30
0.0
 11
222.7843551457
 21
105.483238271
 31
0.0
  0
SPLINE
  5
16B
330
1F
100
AcDbEntity
  8
0
  6
SLD-SOLID
 62
     7
100
AcDbSpline
210
0.0
220
0.0
230
1.0
 70
     8
 71
     3
 72
    15
 73
    11
 74
     0
 42
0.000000001
 43
0.00000001
 40
0.0
 40
0.0
 40
0.0
 40
0.0
 40
0.1383958837326365
 40
0.2698711435185703
 40
0.395273738971983
 40
0.5139802029772985
 40
0.6311187908923166
 40
0.7514363167928998
 40
0.8740333432057816
 40
1.0
 40
1.0
 40
1.0
 40
1.0
 10
223.5459105167041
 20
104.989080745112
 30
0.0
 10
223.5097271547359
 20
104.9894829715853
 30
0.0
 10
223.4391698158373
 20
104.9902673107967
 30
0.0
 10
223.3360865514857
 20
104.9982753688716
 30
0.0
 10
223.2386420443021
 20
105.0105831801771
 30
0.0
 10
223.1457993352149
 20
105.0282272107864
 30
0.0
 10
223.0556362931298
 20
105.0516348271817
 30
0.0
 10
222.9656629124779
 20
105.0793087847193
 30
0.0
 10
222.8746023726139
 20
105.1111882787145
 30
0.0
 10
222.8147082811509
 20
105.1364116357953
 30
0.0
 10
222.7843552610879
 20
105.1491942833793
 30
0.0
  0
SPLINE
  5
16C
330
1F
100
AcDbEntity
  8
0
  6
SLD-SOLID
 62
     7
100
AcDbSpline
210
0.0
220
0.0
230
1.0
 70
     8
 71
     3
 72
    15
 73
    11
 74
     0
 42
0.000000001
 43
0.00000001
 40
0.0
 40
0.0
 40
0.0
 40
0.0
 40
0.1093762626810183
 40
0.2197856263699316
 40
0.3337354138417859
 40
0.4504044938819243
 40
0.5731494752474398
 40
0.7052672342377317
 40
0.8470508712264783
 40
1.0
 40
1.0
 40
1.0
 40
1.0
 10
224.1579181020606
 20
105.1792663692467
 30
0.0
 10
224.1389295868516
 20
105.1648261914594
 30
0.0
 10
224.1007732025799
 20
105.1358094428331
 30
0.0
 10
224.0382949750143
 20
105.0982299088937
 30
0.0
 10
223.9712174271967
 20
105.066026725525
 30
0.0
 10
223.8994391230102
 20
105.037818333628
 30
0.0
 10
223.8213575128351
 20
105.0157952197048
 30
0.0
 10
223.736213381089
 20
105.0001774007056
 30
0.0
 10
223.6435124628659
 20
104.9908755859144
 30
0.0
 10
223.5792559184598
 20
104.9896939468974
 30
0.0
 10
223.5459105167041
 20
104.989080745112
 30
0.0
  0
SPLINE
  5
16D
330
1F
100
AcDbEntity
  8
0
  6
SLD-SOLID
 62
     7
100
AcDbSpline
210
0.0
220
0.0
230
1.0
 70
     8
 71
     3
 72
    15
 73
    11
 74
     0
 42
0.000000001
 43
0.00000001
 40
0.0
 40
0.0
 40
0.0
 40
0.0
 40
0.1197798184161029
 40
0.2402216975985298
 40
0.3641183838755971
 40
0.4915227685121449
 40
0.619675463346655
 40
0.7458916893167499
 40
0.8721818653816414
 40
1.0
 40
1.0
 40
1.0
 40
1.0
 10
224.3708609803653
 20
105.621407307406
 30
0.0
 10
224.3700748098522
 20
105.601188024289
 30
0.0
 10
224.3684981234142
 20
105.5606376997116
 30
0.0
 10
224.3581893485315
 20
105.4998273024749
 30
0.0
 10
224.3398811181107
 20
105.4396740003986
 30
0.0
 10
224.3156613478488
 20
105.3803031751942
 30
0.0
 10
224.2857125534248
 20
105.3230359850535
 30
0.0
 10
224.2484312331787
 20
105.2705676731796
 30
0.0
 10
224.2068995836896
 20
105.2213421667885
 30
0.0
 10
224.1743105820517
 20
105.1933477454398
 30
0.0
 10
224.1579181020606
 20
105.1792663692467
 30
0.0
  0
SPLINE
  5
16E
330
1F
100
AcDbEntity
  8
0
  6
SLD-SOLID
 62
     7
100
AcDbSpline
210
0.0
220
0.0
230
1.0
 70
     8
 71
     3
 72
    23
 73
    19
 74
     0
 42
0.000000001
 43
0.00000001
 40
0.0
 40
0.0
 40
0.0
 40
0.0
 40
0.0751654121666886
 40
0.1466391917970251
 40
0.2151310888912576
 40
0.280406779810049
 40
0.3423148361407453
 40
0.4018062055654704
 40
0.4598162295847399
 40
0.5153089454089109
 40
0.5702365576644101
 40
0.625373039819284
 40
0.6819983768009414
 40
0.7398028123742754
 40
0.8002366825241384
 40
0.8635457338940473
 40
0.929867499577657
 40
1.0
 40
1.0
 40
1.0
 40
1.0
 10
223.9051500289586
 20
106.1557964008614
 30
0.0
 10
223.923908662074
 20
106.1505911880106
 30
0.0
 10
223.9605046271591
 20
106.140436408258
 30
0.0
 10
224.0131020222328
 20
106.1219675815839
 30
0.0
 10
224.0622822331364
 20
106.1017753943005
 30
0.0
 10
224.1079002751161
 20
106.0796016030834
 30
0.0
 10
224.1494944458319
 20
106.0549056063712
 30
0.0
 10
224.1880921231611
 20
106.0289864495979
 30
0.0
 10
224.2228938010285
 20
106.0006674696534
 30
0.0
 10
224.2541562658603
 20
105.9702055019918
 30
0.0
 10
224.282288297494
 20
105.9377181401029
 30
0.0
 10
224.3057764551527
 20
105.9013908503096
 30
0.0
 10
224.3263089173966
 20
105.8624884523956
 30
0.0
 10
224.3423677052628
 20
105.8200705335962
 30
0.0
 10
224.3556702734859
 20
105.7749064495283
 30
0.0
 10
224.3640987725264
 20
105.7263576810141
 30
0.0
 10
224.3702500947147
 20
105.6749358999094
 30
0.0
 10
224.3706535956482
 20
105.6395793040902
 30
0.0
 10
224.3708609803653
 20
105.621407307406
 30
0.0
  0
LINE
  5
16F
330
1F
100
AcDbEntity
  8
0
  6
SLD-SOLID
 62
     7
100
AcDbLine
 10
220.1205374233
 20
106.2143150833
 30
0.0
 11
220.1205374233
 21
106.2033428228
 31
0.0
  0
SPLINE
  5
170
330
1F
100
AcDbEntity
  8
0
  6
SLD-SOLID
 62
     7
100
AcDbSpline
210
0.0
220
0.0
230
1.0
 70
     8
 71
     3
 72
    15
 73
    11
 74
     0
 42
0.000000001
 43
0.00000001
 40
0.0
 40
0.0
 40
0.0
 40
0.0
 40
0.135431350528543
 40
0.2625253862276895
 40
0.3850207899182446
 40
0.5055598721714757
 40
0.6263115760866943
 40
0.7470410464409225
 40
0.8712388643519938
 40
1.0
 40
1.0
 40
1.0
 40
1.0
 10
220.3915925369317
 20
106.6316668407369
 30
0.0
 10
220.3908339742352
 20
106.6078863664346
 30
0.0
 10
220.389363546863
 20
106.5617893720791
 30
0.0
 10
220.3751135667459
 20
106.4954232911836
 30
0.0
 10
220.3520473802153
 20
106.4344419479226
 30
0.0
 10
220.3188669550464
 20
106.3795699442338
 30
0.0
 10
220.2783032364927
 20
106.33050898304
 30
0.0
 10
220.2318738260053
 20
106.2860780665874
 30
0.0
 10
220.1791829257775
 20
106.2467266757353
 30
0.0
 10
220.1403195933248
 20
106.2252480843866
 30
0.0
 10
220.120537384586
 20
106.2143150544413
 30
0.0
  0
SPLINE
  5
171
330
1F
100
AcDbEntity
  8
0
  6
SLD-SOLID
 62
     7
100
AcDbSpline
210
0.0
220
0.0
230
1.0
 70
     8
 71
     3
 72
    15
 73
    11
 74
     0
 42
0.000000001
 43
0.00000001
 40
0.0
 40
0.0
 40
0.0
 40
0.0
 40
0.1334662010766523
 40
0.2576425233118423
 40
0.3770183226342612
 40
0.4931886150663831
 40
0.6107601423166085
 40
0.732890691486317
 40
0.862283368665848
 40
0.9999999999999999
 40
0.9999999999999999
 40
0.9999999999999999
 40
0.9999999999999999
 10
220.1798687972434
 20
107.0095998117738
 30
0.0
 10
220.1975376956133
 20
106.9993920964197
 30
0.0
 10
220.2316456534593
 20
106.979687170979
 30
0.0
 10
220.2761580382996
 20
106.9427771450652
 30
0.0
 10
220.3132282356019
 20
106.9019972430638
 30
0.0
 10
220.3425552098395
 20
106.8564577336986
 30
0.0
 10
220.3644842656684
 20
106.8065559688324
 30
0.0
 10
220.3804605484109
 20
106.7523754568375
 30
0.0
 10
220.389751168517
 20
106.6934842134917
 30
0.0
 10
220.3909661268375
 20
106.6526963240178
 30
0.0
 10
220.3915925369317
 20
106.6316668407369
 30
0.0
  0
SPLINE
  5
172
330
1F
100
AcDbEntity
  8
0
  6
SLD-SOLID
 62
     7
100
AcDbSpline
210
0.0
220
0.0
230
1.0
 70
     8
 71
     3
 72
    19
 73
    15
 74
     0
 42
0.000000001
 43
0.00000001
 40
0.0
 40
0.0
 40
0.0
 40
0.0
 40
0.096739674129717
 40
0.1868927902861626
 40
0.2704672167708685
 40
0.3489375065269757
 40
0.4201603335311133
 40
0.4855858843160354
 40
0.5445067203710997
 40
0.5977787975660718
 40
0.6978128734558183
 40
0.7975727576670734
 40
0.8987014769210815
 40
1.0
 40
1.0
 40
1.0
 40
1.0
 10
219.6381648720905
 20
107.0957522739886
 30
0.0
 10
219.6560458223293
 20
107.0956480253567
 30
0.0
 10
219.690590291423
 20
107.095446625901
 30
0.0
 10
219.7405782427084
 20
107.0946494219746
 30
0.0
 10
219.7871763363999
 20
107.0933837265495
 30
0.0
 10
219.8302740352363
 20
107.0919743000802
 30
0.0
 10
219.8699583728063
 20
107.0894087999585
 30
0.0
 10
219.9059968564899
 20
107.0866051461516
 30
0.0
 10
219.9386893644927
 20
107.0835100908247
 30
0.0
 10
219.9775421481836
 20
107.0780483036133
 30
0.0
 10
220.023549781079
 20
107.0693339737782
 30
0.0
 10
220.0771345420243
 20
107.0541670538891
 30
0.0
 10
220.1294658464655
 20
107.0343783307909
 30
0.0
 10
220.1630584207325
 20
107.0178639357512
 30
0.0
 10
220.1798687972434
 20
107.0095998117738
 30
0.0
  0
LINE
  5
173
330
1F
100
AcDbEntity
  8
0
  6
SLD-SOLID
 62
     7
100
AcDbLine
 10
219.0391610868
 20
107.0957522665
 30
0.0
 11
219.6381649494
 21
107.0957522665
 31
0.0
  0
LINE
  5
174
330
1F
100
AcDbEntity
  8
0
  6
SLD-SOLID
 62
     7
100
AcDbLine
 10
219.0391610868
 20
105.0410973024
 30
0.0
 11
219.0391610868
 21
107.0957522665
 31
0.0
  0
LINE
  5
175
330
1F
100
AcDbEntity
  8
0
  6
SLD-SOLID
 62
     7
100
AcDbLine
 10
219.760485322
 20
105.0410973024
 30
0.0
 11
219.0391610868
 21
105.0410973024
 31
0.0
  0
SPLINE
  5
176
330
1F
100
AcDbEntity
  8
0
  6
SLD-SOLID
 62
     7
100
AcDbSpline
210
0.0
220
0.0
230
1.0
 70
     8
 71
     3
 72
    15
 73
    11
 74
     0
 42
0.000000001
 43
0.00000001
 40
0.0
 40
0.0
 40
0.0
 40
0.0
 40
0.1134045825794923
 40
0.2253914394092186
 40
0.3358375342771752
 40
0.4475408704198453
 40
0.56524988226771
 40
0.6959983323304234
 40
0.8411895986933365
 40
1.0
 40
1.0
 40
1.0
 40
1.0
 10
220.361926830603
 20
105.2085256960367
 30
0.0
 10
220.3425428760393
 20
105.1941934723219
 30
0.0
 10
220.3040172951396
 20
105.1657081989798
 30
0.0
 10
220.2420627264051
 20
105.1299719306966
 30
0.0
 10
220.1771839361628
 20
105.1009311034193
 30
0.0
 10
220.108694141255
 20
105.0776681845353
 30
0.0
 10
220.0338661568088
 20
105.0610792916692
 30
0.0
 10
219.9509621646363
 20
105.049693209376
 30
0.0
 10
219.8588258816179
 20
105.0423075360976
 30
0.0
 10
219.7942299914358
 20
105.0415126003328
 30
0.0
 10
219.760485113254
 20
105.041097326072
 30
0.0
  0
SPLINE
  5
177
330
1F
100
AcDbEntity
  8
0
  6
SLD-SOLID
 62
     7
100
AcDbSpline
210
0.0
220
0.0
230
1.0
 70
     8
 71
     3
 72
    15
 73
    11
 74
     0
 42
0.000000001
 43
0.00000001
 40
0.0
 40
0.0
 40
0.0
 40
0.0
 40
0.1409007368762458
 40
0.2738791790272248
 40
0.4021896055308887
 40
0.5269778580158062
 40
0.6484963622640894
 40
0.7667002025346865
 40
0.8838344637388585
 40
1.0
 40
1.0
 40
1.0
 40
1.0
 10
220.5736505702915
 20
105.6693600929785
 30
0.0
 10
220.5729601636974
 20
105.6446665894977
 30
0.0
 10
220.5716181693589
 20
105.5966680011968
 30
0.0
 10
220.5608466998822
 20
105.5268450823365
 30
0.0
 10
220.5431226301118
 20
105.4614156514439
 30
0.0
 10
220.5177793160686
 20
105.4006640983761
 30
0.0
 10
220.4861603970527
 20
105.345064887499
 30
0.0
 10
220.4504953163571
 20
105.2935872268543
 30
0.0
 10
220.4089119380662
 20
105.2478481177151
 30
0.0
 10
220.3775451185361
 20
105.2215968357479
 30
0.0
 10
220.361926830603
 20
105.2085256960367
 30
0.0
  0
SPLINE
  5
178
330
1F
100
AcDbEntity
  8
0
  6
SLD-SOLID
 62
     7
100
AcDbSpline
210
0.0
220
0.0
230
1.0
 70
     8
 71
     3
 72
    23
 73
    19
 74
     0
 42
0.000000001
 43
0.00000001
 40
0.0
 40
0.0
 40
0.0
 40
0.0
 40
0.0687121495540446
 40
0.134823351671607
 40
0.1993489638344453
 40
0.2615086450846674
 40
0.3229213080872078
 40
0.3828706989830162
 40
0.4430075786583642
 40
0.5030460997279668
 40
0.56269900086607
 40
0.6221463198838911
 40
0.6816977001699636
 40
0.7416916727047259
 40
0.8036336469964673
 40
0.8663701867776599
 40
0.932043596906022
 40
1.0
 40
1.0
 40
1.0
 40
1.0
 10
220.120537384586
 20
106.2033428068951
 30
0.0
 10
220.1376661904515
 20
106.1995173276674
 30
0.0
 10
220.1712754288744
 20
106.1920111743222
 30
0.0
 10
220.219930390799
 20
106.1768426944794
 30
0.0
 10
220.265735548115
 20
106.158676832836
 30
0.0
 10
220.3088425318012
 20
106.13737313654
 30
0.0
 10
220.3490072100839
 20
106.1131132601676
 30
0.0
 10
220.3863651807184
 20
106.0855812816766
 30
0.0
 10
220.4208922272901
 20
106.0551078352427
 30
0.0
 10
220.4525801546483
 20
106.0217964771471
 30
0.0
 10
220.4811425803533
 20
105.9859939881846
 30
0.0
 10
220.5061251921423
 20
105.9477205547189
 30
0.0
 10
220.5267446260271
 20
105.9068477616828
 30
0.0
 10
220.5440451374783
 20
105.86379582383
 30
0.0
 10
220.5573490815362
 20
105.8184740849728
 30
0.0
 10
220.5666753129375
 20
105.7707211922238
 30
0.0
 10
220.5724390698929
 20
105.7208406277749
 30
0.0
 10
220.573242163353
 20
105.686714612737
 30
0.0
 10
220.5736505702915
 20
105.6693600929785
 30
0.0
  0
LINE
  5
179
330
1F
100
AcDbEntity
  8
0
  6
SLD-SOLID
 62
     7
100
AcDbLine
 10
232.1493717402
 20
109.1654163669
 30
0.0
 11
232.1493717402
 21
109.1544441064
 31
0.0
  0
SPLINE
  5
17A
330
1F
100
AcDbEntity
  8
0
  6
SLD-SOLID
 62
     7
100
AcDbSpline
210
0.0
220
0.0
230
1.0
 70
     8
 71
     3
 72
    15
 73
    11
 74
     0
 42
0.000000001
 43
0.00000001
 40
0.0
 40
0.0
 40
0.0
 40
0.0
 40
0.135431350528543
 40
0.2625253862276894
 40
0.3850207899182448
 40
0.5055598721714756
 40
0.6263115760866942
 40
0.7470410464409226
 40
0.8712388643519939
 40
1.0
 40
1.0
 40
1.0
 40
1.0
 10
232.4204268839122
 20
109.5827681102573
 30
0.0
 10
232.4196683212157
 20
109.5589876359551
 30
0.0
 10
232.4181978938435
 20
109.5128906415996
 30
0.0
 10
232.4039479137263
 20
109.446524560704
 30
0.0
 10
232.3808817271958
 20
109.3855432174431
 30
0.0
 10
232.3477013020269
 20
109.3306712137542
 30
0.0
 10
232.3071375834732
 20
109.2816102525605
 30
0.0
 10
232.2607081729858
 20
109.2371793361079
 30
0.0
 10
232.208017272758
 20
109.1978279452558
 30
0.0
 10
232.1691539403053
 20
109.176349353907
 30
0.0
 10
232.1493717315664
 20
109.1654163239618
 30
0.0
  0
SPLINE
  5
17B
330
1F
100
AcDbEntity
  8
0
  6
SLD-SOLID
 62
     7
100
AcDbSpline
210
0.0
220
0.0
230
1.0
 70
     8
 71
     3
 72
    15
 73
    11
 74
     0
 42
0.000000001
 43
0.00000001
 40
0.0
 40
0.0
 40
0.0
 40
0.0
 40
0.1334662010766524
 40
0.2576425233118425
 40
0.3770183226342614
 40
0.4931886150663834
 40
0.6107601423166088
 40
0.7328906914863175
 40
0.8622833686658484
 40
1.0
 40
1.0
 40
1.0
 40
1.0
 10
232.2087031442238
 20
109.9607010812942
 30
0.0
 10
232.2263720425938
 20
109.9504933659402
 30
0.0
 10
232.2604800004398
 20
109.9307884404995
 30
0.0
 10
232.3049923852801
 20
109.8938784145856
 30
0.0
 10
232.3420625825824
 20
109.8530985125843
 30
0.0
 10
232.37138955682
 20
109.807559003219
 30
0.0
 10
232.3933186126489
 20
109.7576572383529
 30
0.0
 10
232.4092948953914
 20
109.7034767263579
 30
0.0
 10
232.4185855154975
 20
109.6445854830121
 30
0.0
 10
232.419800473818
 20
109.6037975935382
 30
0.0
 10
232.4204268839122
 20
109.5827681102573
 30
0.0
  0
SPLINE
  5
17C
330
1F
100
AcDbEntity
  8
0
  6
SLD-SOLID
 62
     7
100
AcDbSpline
210
0.0
220
0.0
230
1.0
 70
     8
 71
     3
 72
    19
 73
    15
 74
     0
 42
0.000000001
 43
0.00000001
 40
0.0
 40
0.0
 40
0.0
 40
0.0
 40
0.096739674129717
 40
0.1868927902861626
 40
0.2704672167708685
 40
0.3489375065269757
 40
0.4201603335311133
 40
0.4855858843160354
 40
0.5445067203710997
 40
0.5977787975660718
 40
0.6978128734558183
 40
0.7975727576670734
 40
0.8987014769210815
 40
1.0
 40
1.0
 40
1.0
 40
1.0
 10
231.666999219071
 20
110.0468535435091
 30
0.0
 10
231.6848801693098
 20
110.0467492948771
 30
0.0
 10
231.7194246384035
 20
110.0465478954215
 30
0.0
 10
231.7694125896888
 20
110.045750691495
 30
0.0
 10
231.8160106833804
 20
110.0444849960699
 30
0.0
 10
231.8591083822167
 20
110.0430755696006
 30
0.0
 10
231.8987927197867
 20
110.0405100694789
 30
0.0
 10
231.9348312034704
 20
110.037706415672
 30
0.0
 10
231.9675237114731
 20
110.0346113603451
 30
0.0
 10
232.0063764951641
 20
110.0291495731337
 30
0.0
 10
232.0523841280595
 20
110.0204352432986
 30
0.0
 10
232.1059688890048
 20
110.0052683234096
 30
0.0
 10
232.158300193446
 20
109.9854796003113
 30
0.0
 10
232.191892767713
 20
109.9689652052717
 30
0.0
 10
232.2087031442238
 20
109.9607010812942
 30
0.0
  0
LINE
  5
17D
330
1F
100
AcDbEntity
  8
0
  6
SLD-SOLID
 62
     7
100
AcDbLine
 10
231.0679958694
 20
110.0468534627
 30
0.0
 11
231.6669992663
 21
110.0468534627
 31
0.0
  0
LINE
  5
17E
330
1F
100
AcDbEntity
  8
0
  6
SLD-SOLID
 62
     7
100
AcDbLine
 10
231.0679958694
 20
107.992198586
 30
0.0
 11
231.0679958694
 21
110.0468534627
 31
0.0
  0
LINE
  5
17F
330
1F
100
AcDbEntity
  8
0
  6
SLD-SOLID
 62
     7
100
AcDbLine
 10
231.7893196389
 20
107.992198586
 30
0.0
 11
231.0679958694
 21
107.992198586
 31
0.0
  0
SPLINE
  5
180
330
1F
100
AcDbEntity
  8
0
  6
SLD-SOLID
 62
     7
100
AcDbSpline
210
0.0
220
0.0
230
1.0
 70
     8
 71
     3
 72
    15
 73
    11
 74
     0
 42
0.000000001
 43
0.00000001
 40
0.0
 40
0.0
 40
0.0
 40
0.0
 40
0.1134045825794924
 40
0.2253914394092185
 40
0.3358375342771752
 40
0.4475408704198453
 40
0.5652498822677101
 40
0.6959983323304234
 40
0.8411895986933365
 40
1.0
 40
1.0
 40
1.0
 40
1.0
 10
232.3907611775835
 20
108.1596269655571
 30
0.0
 10
232.3713772230198
 20
108.1452947418423
 30
0.0
 10
232.3328516421201
 20
108.1168094685002
 30
0.0
 10
232.2708970733856
 20
108.0810732002171
 30
0.0
 10
232.2060182831433
 20
108.0520323729398
 30
0.0
 10
232.1375284882355
 20
108.0287694540558
 30
0.0
 10
232.0627005037893
 20
108.0121805611896
 30
0.0
 10
231.9797965116168
 20
108.0007944788964
 30
0.0
 10
231.8876602285984
 20
107.993408805618
 30
0.0
 10
231.8230643384163
 20
107.9926138698532
 30
0.0
 10
231.7893194602345
 20
107.9921985955924
 30
0.0
  0
SPLINE
  5
181
330
1F
100
AcDbEntity
  8
0
  6
SLD-SOLID
 62
     7
100
AcDbSpline
210
0.0
220
0.0
230
1.0
 70
     8
 71
     3
 72
    15
 73
    11
 74
     0
 42
0.000000001
 43
0.00000001
 40
0.0
 40
0.0
 40
0.0
 40
0.0
 40
0.1409007368762454
 40
0.2738791790272245
 40
0.4021896055308888
 40
0.5269778580158064
 40
0.6484963622640892
 40
0.7667002025346868
 40
0.883834463738859
 40
1.0
 40
1.0
 40
1.0
 40
1.0
 10
232.6024849172719
 20
108.6204613624989
 30
0.0
 10
232.6017945106778
 20
108.5957678590181
 30
0.0
 10
232.6004525163393
 20
108.5477692707172
 30
0.0
 10
232.5896810468627
 20
108.477946351857
 30
0.0
 10
232.5719569770923
 20
108.4125169209644
 30
0.0
 10
232.5466136630491
 20
108.3517653678965
 30
0.0
 10
232.5149947440332
 20
108.2961661570194
 30
0.0
 10
232.4793296633376
 20
108.2446884963748
 30
0.0
 10
232.4377462850467
 20
108.1989493872355
 30
0.0
 10
232.4063794655166
 20
108.1726981052683
 30
0.0
 10
232.3907611775835
 20
108.1596269655571
 30
0.0
  0
SPLINE
  5
182
330
1F
100
AcDbEntity
  8
0
  6
SLD-SOLID
 62
     7
100
AcDbSpline
210
0.0
220
0.0
230
1.0
 70
     8
 71
     3
 72
    23
 73
    19
 74
     0
 42
0.000000001
 43
0.00000001
 40
0.0
 40
0.0
 40
0.0
 40
0.0
 40
0.0687121495540446
 40
0.134823351671607
 40
0.1993489638344452
 40
0.2615086450846673
 40
0.3229213080872076
 40
0.3828706989830162
 40
0.4430075786583642
 40
0.5030460997279665
 40
0.56269900086607
 40
0.6221463198838909
 40
0.6816977001699632
 40
0.7416916727047259
 40
0.8036336469964673
 40
0.8663701867776599
 40
0.932043596906022
 40
1.0
 40
1.0
 40
1.0
 40
1.0
 10
232.1493717315664
 20
109.1544440764155
 30
0.0
 10
232.1665005374319
 20
109.1506185971878
 30
0.0
 10
232.2001097758549
 20
109.1431124438427
 30
0.0
 10
232.2487647377795
 20
109.1279439639999
 30
0.0
 10
232.2945698950955
 20
109.1097781023565
 30
0.0
 10
232.3376768787817
 20
109.0884744060605
 30
0.0
 10
232.3778415570644
 20
109.0642145296881
 30
0.0
 10
232.4151995276989
 20
109.0366825511971
 30
0.0
 10
232.4497265742706
 20
109.0062091047632
 30
0.0
 10
232.4814145016288
 20
108.9728977466676
 30
0.0
 10
232.5099769273338
 20
108.937095257705
 30
0.0
 10
232.5349595391228
 20
108.8988218242394
 30
0.0
 10
232.5555789730076
 20
108.8579490312033
 30
0.0
 10
232.5728794844588
 20
108.8148970933504
 30
0.0
 10
232.5861834285167
 20
108.7695753544932
 30
0.0
 10
232.595509659918
 20
108.7218224617443
 30
0.0
 10
232.6012734168734
 20
108.6719418972953
 30
0.0
 10
232.6020765103335
 20
108.6378158822575
 30
0.0
 10
232.6024849172719
 20
108.6204613624989
 30
0.0
  0
LINE
  5
183
330
1F
100
AcDbEntity
  8
0
  6
SLD-SOLID
 62
     7
100
AcDbLine
 10
227.8429677619
 20
108.2262731856
 30
0.0
 11
228.8572911432
 21
108.2262731856
 31
0.0
  0
LINE
  5
184
330
1F
100
AcDbEntity
  8
0
  6
SLD-SOLID
 62
     7
100
AcDbLine
 10
227.8429677619
 20
110.0468534627
 30
0.0
 11
227.8429677619
 21
108.2262731856
 31
0.0
  0
LINE
  5
185
330
1F
100
AcDbEntity
  8
0
  6
SLD-SOLID
 62
     7
100
AcDbLine
 10
227.5828848735
 20
110.0468534627
 30
0.0
 11
227.8429677619
 21
110.0468534627
 31
0.0
  0
LINE
  5
186
330
1F
100
AcDbEntity
  8
0
  6
SLD-SOLID
 62
     7
100
AcDbLine
 10
227.5828848735
 20
107.992198586
 30
0.0
 11
227.5828848735
 21
110.0468534627
 31
0.0
  0
LINE
  5
187
330
1F
100
AcDbEntity
  8
0
  6
SLD-SOLID
 62
     7
100
AcDbLine
 10
228.8572911432
 20
107.992198586
 30
0.0
 11
227.5828848735
 21
107.992198586
 31
0.0
  0
LINE
  5
188
330
1F
100
AcDbEntity
  8
0
  6
SLD-SOLID
 62
     7
100
AcDbLine
 10
228.8572911432
 20
108.2262731856
 30
0.0
 11
228.8572911432
 21
107.992198586
 31
0.0
  0
SPLINE
  5
189
330
1F
100
AcDbEntity
  8
0
  6
SLD-SOLID
 62
     7
100
AcDbSpline
210
0.0
220
0.0
230
1.0
 70
     8
 71
     3
 72
    15
 73
    11
 74
     0
 42
0.000000001
 43
0.00000001
 40
0.0
 40
0.0
 40
0.0
 40
0.0
 40
0.1182121234008071
 40
0.2364455537483778
 40
0.3565741460782605
 40
0.4798783288897372
 40
0.6058624841179886
 40
0.7341831899954775
 40
0.8649688982559041
 40
1.0
 40
1.0
 40
1.0
 40
1.0
 10
223.5495679325529
 20
109.8176554836544
 30
0.0
 10
223.5704847110562
 20
109.8395703625575
 30
0.0
 10
223.6123220381726
 20
109.8834040703744
 30
0.0
 10
223.6842096192959
 20
109.9402367114322
 30
0.0
 10
223.763690122032
 20
109.988109899809
 30
0.0
 10
223.8494710387209
 20
110.0283684847682
 30
0.0
 10
223.9410380777898
 20
110.0599735776604
 30
0.0
 10
224.0371337857153
 20
110.0826669981578
 30
0.0
 10
224.137337330457
 20
110.0963901504545
 30
0.0
 10
224.2054211642723
 20
110.0980347113019
 30
0.0
 10
224.240006768888
 20
110.098870124469
 30
0.0
  0
SPLINE
  5
18A
330
1F
100
AcDbEntity
  8
0
  6
SLD-SOLID
 62
     7
100
AcDbSpline
210
0.0
220
0.0
230
1.0
 70
     8
 71
     3
 72
    15
 73
    11
 74
     0
 42
0.000000001
 43
0.00000001
 40
0.0
 40
0.0
 40
0.0
 40
0.0
 40
0.1440471923994895
 40
0.2812270333765626
 40
0.4117342507947047
 40
0.537091668287313
 40
0.6580372759518907
 40
0.7747368868320137
 40
0.8883899708332799
 40
1.0
 40
1.0
 40
1.0
 40
1.0
 10
223.291516925447
 20
109.0187133104732
 30
0.0
 10
223.2922054075965
 20
109.0599307377706
 30
0.0
 10
223.2935495489796
 20
109.1404005796965
 30
0.0
 10
223.3066690216199
 20
109.2575835049996
 30
0.0
 10
223.3264436297696
 20
109.3683703960583
 30
0.0
 10
223.3555608111834
 20
109.4722995120292
 30
0.0
 10
223.3918534444782
 20
109.5697421680935
 30
0.0
 10
223.4363734873927
 20
109.6599817196011
 30
0.0
 10
223.4881572805891
 20
109.7432880763282
 30
0.0
 10
223.5292218621915
 20
109.7930166880437
 30
0.0
 10
223.5495679325529
 20
109.8176554836544
 30
0.0
  0
SPLINE
  5
18B
330
1F
100
AcDbEntity
  8
0
  6
SLD-SOLID
 62
     7
100
AcDbSpline
210
0.0
220
0.0
230
1.0
 70
     8
 71
     3
 72
    15
 73
    11
 74
     0
 42
0.000000001
 43
0.00000001
 40
0.0
 40
0.0
 40
0.0
 40
0.0
 40
0.1088718696517899
 40
0.2207986158587511
 40
0.3359826853622175
 40
0.4566219984155297
 40
0.5829933180737745
 40
0.7149675248572313
 40
0.8535609528352985
 40
1.0
 40
1.0
 40
1.0
 40
1.0
 10
223.5483487939366
 20
108.2226157940633
 30
0.0
 10
223.5284008417526
 20
108.2464326262203
 30
0.0
 10
223.4879452103251
 20
108.2947345759454
 30
0.0
 10
223.4372224786932
 20
108.3763169155658
 30
0.0
 10
223.3930352557683
 20
108.4651776629955
 30
0.0
 10
223.3561240216434
 20
108.5617720364706
 30
0.0
 10
223.3268605607457
 20
108.6659330319778
 30
0.0
 10
223.3065533642273
 20
108.7773634458552
 30
0.0
 10
223.2935533671714
 20
108.8956781092419
 30
0.0
 10
223.2922080824998
 20
108.9769558439789
 30
0.0
 10
223.291516925447
 20
109.0187133104732
 30
0.0
  0
SPLINE
  5
18C
330
1F
100
AcDbEntity
  8
0
  6
SLD-SOLID
 62
     7
100
AcDbSpline
210
0.0
220
0.0
230
1.0
 70
     8
 71
     3
 72
    15
 73
    11
 74
     0
 42
0.000000001
 43
0.00000001
 40
0.0
 40
0.0
 40
0.0
 40
0.0
 40
0.136830998653767
 40
0.2684341735000709
 40
0.395825940726395
 40
0.5205243981053196
 40
0.6425911018977783
 40
0.7618209262601465
 40
0.8809385364926475
 40
1.0
 40
1.0
 40
1.0
 40
1.0
 10
224.240006768888
 20
107.9401820146325
 30
0.0
 10
224.2048705361901
 20
107.9409524952886
 30
0.0
 10
224.1359405007672
 20
107.9424640192864
 30
0.0
 10
224.0351856623798
 20
107.9569438851999
 30
0.0
 10
223.9390398500144
 20
107.978847261618
 30
0.0
 10
223.84827437368
 20
108.0107780600453
 30
0.0
 10
223.7630954273425
 20
108.0508111571335
 30
0.0
 10
223.6844004081022
 20
108.0997339410402
 30
0.0
 10
223.6118913762823
 20
108.156393394642
 30
0.0
 10
223.5695263257683
 20
108.2005451302668
 30
0.0
 10
223.5483487939366
 20
108.2226157940633
 30
0.0
  0
SPLINE
  5
18D
330
1F
100
AcDbEntity
  8
0
  6
SLD-SOLID
 62
     7
100
AcDbSpline
210
0.0
220
0.0
230
1.0
 70
     8
 71
     3
 72
    15
 73
    11
 74
     0
 42
0.000000001
 43
0.00000001
 40
0.0
 40
0.0
 40
0.0
 40
0.0
 40
0.1211151901410055
 40
0.2399663885965587
 40
0.3588456273643499
 40
0.4785954980210012
 40
0.6007655911570846
 40
0.7278433201485333
 40
0.8602190781814272
 40
1.0
 40
1.0
 40
1.0
 40
1.0
 10
224.9320711233781
 20
108.2226157940633
 30
0.0
 10
224.9104680975042
 20
108.2001632707553
 30
0.0
 10
224.8676658685212
 20
108.1556779264577
 30
0.0
 10
224.7952602742959
 20
108.0981014083876
 30
0.0
 10
224.7173697207267
 20
108.0490277220768
 30
0.0
 10
224.6334591060607
 20
108.0090633040248
 30
0.0
 10
224.5436588966674
 20
107.977906078443
 30
0.0
 10
224.4478023071485
 20
107.9564321892937
 30
0.0
 10
224.3459364744336
 20
107.942513779898
 30
0.0
 10
224.2759514164004
 20
107.9409732419858
 30
0.0
 10
224.240006768888
 20
107.9401820146325
 30
0.0
  0
SPLINE
  5
18E
330
1F
100
AcDbEntity
  8
0
  6
SLD-SOLID
 62
     7
100
AcDbSpline
210
0.0
220
0.0
230
1.0
 70
     8
 71
     3
 72
    15
 73
    11
 74
     0
 42
0.000000001
 43
0.00000001
 40
0.0
 40
0.0
 40
0.0
 40
0.0
 40
0.1459024864097141
 40
0.284488707832862
 40
0.4169619031094048
 40
0.5443231627028047
 40
0.6659687343829642
 40
0.7811041852137092
 40
0.8925826574034774
 40
1.0
 40
1.0
 40
1.0
 40
1.0
 10
225.190122130484
 20
109.0187133104732
 30
0.0
 10
225.1894662027449
 20
108.97708788869
 30
0.0
 10
225.1881872386948
 20
108.895924347564
 30
0.0
 10
225.1746330705657
 20
108.7776228337585
 30
0.0
 10
225.1539209877319
 20
108.665798110765
 30
0.0
 10
225.1243023864426
 20
108.5609500681624
 30
0.0
 10
225.0870755666843
 20
108.4638392535736
 30
0.0
 10
225.042889577961
 20
108.3747701502328
 30
0.0
 10
224.9922589089053
 20
108.2937190791648
 30
0.0
 10
224.9518840295752
 20
108.2460219171775
 30
0.0
 10
224.9320711233781
 20
108.2226157940633
 30
0.0
  0
SPLINE
  5
18F
330
1F
100
AcDbEntity
  8
0
  6
SLD-SOLID
 62
     7
100
AcDbSpline
210
0.0
220
0.0
230
1.0
 70
     8
 71
     3
 72
    15
 73
    11
 74
     0
 42
0.000000001
 43
0.00000001
 40
0.0
 40
0.0
 40
0.0
 40
0.0
 40
0.1098046821590197
 40
0.2217224113507683
 40
0.3375439380582218
 40
0.4586265414293066
 40
0.5849915563545183
 40
0.7164831233994344
 40
0.8545697046422728
 40
1.0
 40
1.0
 40
1.0
 40
1.0
 10
224.9320711233781
 20
109.8176554836544
 30
0.0
 10
224.9523304845969
 20
109.7935954225902
 30
0.0
 10
224.9932390718587
 20
109.7450122961559
 30
0.0
 10
225.0440148297772
 20
109.662518789165
 30
0.0
 10
225.0887012469845
 20
109.5731594275777
 30
0.0
 10
225.1254106069616
 20
109.4757402816434
 30
0.0
 10
225.1547435893117
 20
109.3712162549055
 30
0.0
 10
225.1750889970988
 20
109.259656605881
 30
0.0
 10
225.188069913242
 20
109.1414770010656
 30
0.0
 10
225.1894263465293
 20
109.0603351253474
 30
0.0
 10
225.190122130484
 20
109.0187133104732
 30
0.0
  0
SPLINE
  5
190
330
1F
100
AcDbEntity
  8
0
  6
SLD-SOLID
 62
     7
100
AcDbSpline
210
0.0
220
0.0
230
1.0
 70
     8
 71
     3
 72
    15
 73
    11
 74
     0
 42
0.000000001
 43
0.00000001
 40
0.0
 40
0.0
 40
0.0
 40
0.0
 40
0.1395096289278317
 40
0.2721984508134785
 40
0.400263434375469
 40
0.5246770396869458
 40
0.645826861465457
 40
0.7650924343224667
 40
0.8820210912425185
 40
0.9999999999999999
 40
0.9999999999999999
 40
0.9999999999999999
 40
0.9999999999999999
 10
224.240006768888
 20
110.098870124469
 30
0.0
 10
224.2758189301031
 20
110.0981053122391
 30
0.0
 10
224.3456923494359
 20
110.0966130804431
 30
0.0
 10
224.4475876115544
 20
110.0822392668765
 30
0.0
 10
224.5440127875518
 20
110.0599069773712
 30
0.0
 10
224.6344325924592
 20
110.0274908744804
 30
0.0
 10
224.7191278213741
 20
109.9872380427793
 30
0.0
 10
224.7971488013863
 20
109.938797420839
 30
0.0
 10
224.8691121972974
 20
109.8828497739126
 30
0.0
 10
224.9110223557612
 20
109.8394515902754
 30
0.0
 10
224.9320711233781
 20
109.8176554836544
 30
0.0
  0
LINE
  5
191
330
1F
100
AcDbEntity
  8
0
  6
SLD-SOLID
 62
     7
100
AcDbLine
 10
219.2862400345
 20
110.0468534627
 30
0.0
 11
221.0027872145
 21
110.0468534627
 31
0.0
  0
LINE
  5
192
330
1F
100
AcDbEntity
  8
0
  6
SLD-SOLID
 62
     7
100
AcDbLine
 10
219.2862400345
 20
109.8127790377
 30
0.0
 11
219.2862400345
 21
110.0468534627
 31
0.0
  0
LINE
  5
193
330
1F
100
AcDbEntity
  8
0
  6
SLD-SOLID
 62
     7
100
AcDbLine
 10
220.0144723549
 20
109.8127790377
 30
0.0
 11
219.2862400345
 21
109.8127790377
 31
0.0
  0
LINE
  5
194
330
1F
100
AcDbEntity
  8
0
  6
SLD-SOLID
 62
     7
100
AcDbLine
 10
220.0144723549
 20
107.992198586
 30
0.0
 11
220.0144723549
 21
109.8127790377
 31
0.0
  0
LINE
  5
195
330
1F
100
AcDbEntity
  8
0
  6
SLD-SOLID
 62
     7
100
AcDbLine
 10
220.2745553598
 20
107.992198586
 30
0.0
 11
220.0144723549
 21
107.992198586
 31
0.0
  0
LINE
  5
196
330
1F
100
AcDbEntity
  8
0
  6
SLD-SOLID
 62
     7
100
AcDbLine
 10
220.2745553598
 20
109.8127790377
 30
0.0
 11
220.2745553598
 21
107.992198586
 31
0.0
  0
LINE
  5
197
330
1F
100
AcDbEntity
  8
0
  6
SLD-SOLID
 62
     7
100
AcDbLine
 10
221.0027872145
 20
109.8127790377
 30
0.0
 11
220.2745553598
 21
109.8127790377
 31
0.0
  0
LINE
  5
198
330
1F
100
AcDbEntity
  8
0
  6
SLD-SOLID
 62
     7
100
AcDbLine
 10
221.0027872145
 20
110.0468534627
 30
0.0
 11
221.0027872145
 21
109.8127790377
 31
0.0
  0
LINE
  5
199
330
1F
100
AcDbEntity
  8
0
  6
SLD-SOLID
 62
     7
100
AcDbLine
 10
201.7586858503
 20
82.3077246663
 30
0.0
 11
252.1586859159
 21
82.3077246663
 31
0.0
  0
LINE
  5
19A
330
1F
100
AcDbEntity
  8
0
  6
SLD-SOLID
 62
     7
100
AcDbLine
 10
201.7586858503
 20
132.7077247319
 30
0.0
 11
201.7586858503
 21
82.3077246663
 31
0.0
  0
LINE
  5
19B
330
1F
100
AcDbEntity
  8
0
  6
SLD-SOLID
 62
     7
100
AcDbLine
 10
252.1586859159
 20
132.7077247319
 30
0.0
 11
201.7586858503
 21
132.7077247319
 31
0.0
  0
LINE
  5
19C
330
1F
100
AcDbEntity
  8
0
  6
SLD-SOLID
 62
     7
100
AcDbLine
 10
252.1586859159
 20
82.3077246663
 30
0.0
 11
252.1586859159
 21
132.7077247319
 31
0.0
  0
LINE
  5
19D
330
1F
100
AcDbEntity
  8
0
  6
SLD-SOLID
 62
     7
100
AcDbLine
 10
222.5892928921
 20
110.0468534627
 30
0.0
 11
222.8493758969
 21
110.0468534627
 31
0.0
  0
LINE
  5
19E
330
1F
100
AcDbEntity
  8
0
  6
SLD-SOLID
 62
     7
100
AcDbLine
 10
222.5892928921
 20
109.2405965668
 30
0.0
 11
222.5892928921
 21
110.0468534627
 31
0.0
  0
LINE
  5
19F
330
1F
100
AcDbEntity
  8
0
  6
SLD-SOLID
 62
     7
100
AcDbLine
 10
221.5749699183
 20
109.2405965668
 30
0.0
 11
222.5892928921
 21
109.2405965668
 31
0.0
  0
LINE
  5
1A0
330
1F
100
AcDbEntity
  8
0
  6
SLD-SOLID
 62
     7
100
AcDbLine
 10
221.5749699183
 20
110.0468534627
 30
0.0
 11
221.5749699183
 21
109.2405965668
 31
0.0
  0
LINE
  5
1A1
330
1F
100
AcDbEntity
  8
0
  6
SLD-SOLID
 62
     7
100
AcDbLine
 10
221.3148869134
 20
110.0468534627
 30
0.0
 11
221.5749699183
 21
110.0468534627
 31
0.0
  0
LINE
  5
1A2
330
1F
100
AcDbEntity
  8
0
  6
SLD-SOLID
 62
     7
100
AcDbLine
 10
221.3148869134
 20
107.992198586
 30
0.0
 11
221.3148869134
 21
110.0468534627
 31
0.0
  0
LINE
  5
1A3
330
1F
100
AcDbEntity
  8
0
  6
SLD-SOLID
 62
     7
100
AcDbLine
 10
221.5749699183
 20
107.992198586
 30
0.0
 11
221.3148869134
 21
107.992198586
 31
0.0
  0
LINE
  5
1A4
330
1F
100
AcDbEntity
  8
0
  6
SLD-SOLID
 62
     7
100
AcDbLine
 10
221.5749699183
 20
109.006521909
 30
0.0
 11
221.5749699183
 21
107.992198586
 31
0.0
  0
LINE
  5
1A5
330
1F
100
AcDbEntity
  8
0
  6
SLD-SOLID
 62
     7
100
AcDbLine
 10
222.5892928921
 20
109.006521909
 30
0.0
 11
221.5749699183
 21
109.006521909
 31
0.0
  0
LINE
  5
1A6
330
1F
100
AcDbEntity
  8
0
  6
SLD-SOLID
 62
     7
100
AcDbLine
 10
222.5892928921
 20
107.992198586
 30
0.0
 11
222.5892928921
 21
109.006521909
 31
0.0
  0
LINE
  5
1A7
330
1F
100
AcDbEntity
  8
0
  6
SLD-SOLID
 62
     7
100
AcDbLine
 10
222.8493758969
 20
107.992198586
 30
0.0
 11
222.5892928921
 21
107.992198586
 31
0.0
  0
LINE
  5
1A8
330
1F
100
AcDbEntity
  8
0
  6
SLD-SOLID
 62
     7
100
AcDbLine
 10
222.8493758969
 20
110.0468534627
 30
0.0
 11
222.8493758969
 21
107.992198586
 31
0.0
  0
SPLINE
  5
1A9
330
1F
100
AcDbEntity
  8
0
  6
SLD-SOLID
 62
     7
100
AcDbSpline
210
0.0
220
0.0
230
1.0
 70
     8
 71
     3
 72
    23
 73
    19
 74
     0
 42
0.000000001
 43
0.00000001
 40
0.0
 40
0.0
 40
0.0
 40
0.0
 40
0.0703830305476864
 40
0.1379489199197071
 40
0.203488808444079
 40
0.2668116458442016
 40
0.3289395236564628
 40
0.3896346109119577
 40
0.4495664907690708
 40
0.5094054054689506
 40
0.5688230343965481
 40
0.6282063740288432
 40
0.6879203520712699
 40
0.748310414416668
 40
0.8093179049203321
 40
0.8712531512616701
 40
0.9346509967026075
 40
1.0
 40
1.0
 40
1.0
 40
1.0
 10
226.9586858831211
 20
109.4832051232637
 30
0.0
 10
226.9584266787193
 20
109.4649035480146
 30
0.0
 10
226.9579186447941
 20
109.4290329337656
 30
0.0
 10
226.9523645005733
 20
109.3763665273346
 30
0.0
 10
226.9439574737752
 20
109.3259785083073
 30
0.0
 10
226.9322358243706
 20
109.2776734314647
 30
0.0
 10
226.9167113793363
 20
109.2317926542408
 30
0.0
 10
226.8981209491182
 20
109.1880077722363
 30
0.0
 10
226.8755043241808
 20
109.1468315883673
 30
0.0
 10
226.8499349159424
 20
109.1078521438986
 30
0.0
 10
226.8214391183031
 20
109.071111946507
 30
0.0
 10
226.7898970575949
 20
109.0370270837359
 30
0.0
 10
226.7562222607144
 20
109.0046754634389
 30
0.0
 10
226.7195182758098
 20
108.9751145708121
 30
0.0
 10
226.6804413723775
 20
108.9477648135278
 30
0.0
 10
226.6387338633569
 20
108.9230835635594
 30
0.0
 10
226.5948332433722
 20
108.8999655276722
 30
0.0
 10
226.5639288988431
 20
108.8870830984733
 30
0.0
 10
226.5482425489843
 20
108.8805442672985
 30
0.0
  0
SPLINE
  5
1AA
330
1F
100
AcDbEntity
  8
0
  6
SLD-SOLID
 62
     7
100
AcDbSpline
210
0.0
220
0.0
230
1.0
 70
     8
 71
     3
 72
    15
 73
    11
 74
     0
 42
0.000000001
 43
0.00000001
 40
0.0
 40
0.0
 40
0.0
 40
0.0
 40
0.1204601605038171
 40
0.2373845007654841
 40
0.3534929525856132
 40
0.4690032709078607
 40
0.5878575309050471
 40
0.714821261204509
 40
0.8513778055921198
 40
1.0
 40
1.0
 40
1.0
 40
1.0
 10
226.7250176483402
 20
109.9355055498918
 30
0.0
 10
226.7426805714567
 20
109.9233239817927
 30
0.0
 10
226.7774879647769
 20
109.8993184064253
 30
0.0
 10
226.8236981200797
 20
109.8563508340531
 30
0.0
 10
226.8642133355056
 20
109.8092149612883
 30
0.0
 10
226.8983523491098
 20
109.7568484897509
 30
0.0
 10
226.9265011332505
 20
109.6987373466382
 30
0.0
 10
226.9448065846304
 20
109.6329661416757
 30
0.0
 10
226.9570996289592
 20
109.5604720151372
 30
0.0
 10
226.9581424251514
 20
109.5096771157062
 30
0.0
 10
226.9586858831211
 20
109.4832051232637
 30
0.0
  0
SPLINE
  5
1AB
330
1F
100
AcDbEntity
  8
0
  6
SLD-SOLID
 62
     7
100
AcDbSpline
210
0.0
220
0.0
230
1.0
 70
     8
 71
     3
 72
    15
 73
    11
 74
     0
 42
0.000000001
 43
0.00000001
 40
0.0
 40
0.0
 40
0.0
 40
0.0
 40
0.1610519726672529
 40
0.3088852512014139
 40
0.4423350676483691
 40
0.5631769465949304
 40
0.6760013357488854
 40
0.7853868612953502
 40
0.8934793501665296
 40
1.0
 40
1.0
 40
1.0
 40
1.0
 10
226.1991625251986
 20
110.0468535435091
 30
0.0
 10
226.2284263065184
 20
110.0465216028406
 30
0.0
 10
226.2845519800783
 20
110.0458849662626
 30
0.0
 10
226.3648556192097
 20
110.0416562638471
 30
0.0
 10
226.4375321853868
 20
110.0338738155793
 30
0.0
 10
226.5035061045167
 20
110.0236594835241
 30
0.0
 10
226.5641290757445
 20
110.0088139599656
 30
0.0
 10
226.6211206736868
 20
109.9897688340063
 30
0.0
 10
226.6749087401568
 20
109.9654749473977
 30
0.0
 10
226.708396434215
 20
109.945446452442
 30
0.0
 10
226.7250176483402
 20
109.9355055498918
 30
0.0
  0
LINE
  5
1AC
330
1F
100
AcDbEntity
  8
0
  6
SLD-SOLID
 62
     7
100
AcDbLine
 10
225.632263094
 20
110.0468534627
 30
0.0
 11
226.1991625212
 21
110.0468534627
 31
0.0
  0
LINE
  5
1AD
330
1F
100
AcDbEntity
  8
0
  6
SLD-SOLID
 62
     7
100
AcDbLine
 10
225.632263094
 20
107.992198586
 30
0.0
 11
225.632263094
 21
110.0468534627
 31
0.0
  0
LINE
  5
1AE
330
1F
100
AcDbEntity
  8
0
  6
SLD-SOLID
 62
     7
100
AcDbLine
 10
225.8923459824
 20
107.992198586
 30
0.0
 11
225.632263094
 21
107.992198586
 31
0.0
  0
LINE
  5
1AF
330
1F
100
AcDbEntity
  8
0
  6
SLD-SOLID
 62
     7
100
AcDbLine
 10
225.8923459824
 20
108.7984555983
 30
0.0
 11
225.8923459824
 21
107.992198586
 31
0.0
  0
LINE
  5
1B0
330
1F
100
AcDbEntity
  8
0
  6
SLD-SOLID
 62
     7
100
AcDbLine
 10
226.3214827774
 20
108.7984555983
 30
0.0
 11
225.8923459824
 21
108.7984555983
 31
0.0
  0
LINE
  5
1B1
330
1F
100
AcDbEntity
  8
0
  6
SLD-SOLID
 62
     7
100
AcDbLine
 10
227.0098897036
 20
107.992198586
 30
0.0
 11
226.3214827774
 21
108.7984555983
 31
0.0
  0
LINE
  5
1B2
330
1F
100
AcDbEntity
  8
0
  6
SLD-SOLID
 62
     7
100
AcDbLine
 10
227.322801956
 20
107.992198586
 30
0.0
 11
227.0098897036
 21
107.992198586
 31
0.0
  0
LINE
  5
1B3
330
1F
100
AcDbEntity
  8
0
  6
SLD-SOLID
 62
     7
100
AcDbLine
 10
226.5482425366
 20
108.8805442327
 30
0.0
 11
227.322801956
 21
107.992198586
 31
0.0
  0
LINE
  5
1B4
330
1F
100
AcDbEntity
  8
0
  6
SLD-SOLID
 62
     7
100
AcDbLine
 10
229.6363207072
 20
110.0468534627
 30
0.0
 11
230.0028750699
 21
110.0468534627
 31
0.0
  0
LINE
  5
1B5
330
1F
100
AcDbEntity
  8
0
  6
SLD-SOLID
 62
     7
100
AcDbLine
 10
228.8832993738
 20
107.992198586
 30
0.0
 11
229.6363207072
 21
110.0468534627
 31
0.0
  0
LINE
  5
1B6
330
1F
100
AcDbEntity
  8
0
  6
SLD-SOLID
 62
     7
100
AcDbLine
 10
229.1604502618
 20
107.992198586
 30
0.0
 11
228.8832993738
 21
107.992198586
 31
0.0
  0
LINE
  5
1B7
330
1F
100
AcDbEntity
  8
0
  6
SLD-SOLID
 62
     7
100
AcDbLine
 10
229.3632336452
 20
108.5643809405
 30
0.0
 11
229.1604502618
 21
107.992198586
 31
0.0
  0
LINE
  5
1B8
330
1F
100
AcDbEntity
  8
0
  6
SLD-SOLID
 62
     7
100
AcDbLine
 10
230.2759621318
 20
108.5643809405
 30
0.0
 11
229.3632336452
 21
108.5643809405
 31
0.0
  0
LINE
  5
1B9
330
1F
100
AcDbEntity
  8
0
  6
SLD-SOLID
 62
     7
100
AcDbLine
 10
230.4787455153
 20
107.992198586
 30
0.0
 11
230.2759621318
 21
108.5643809405
 31
0.0
  0
LINE
  5
1BA
330
1F
100
AcDbEntity
  8
0
  6
SLD-SOLID
 62
     7
100
AcDbLine
 10
230.7558964033
 20
107.992198586
 30
0.0
 11
230.4787455153
 21
107.992198586
 31
0.0
  0
LINE
  5
1BB
330
1F
100
AcDbEntity
  8
0
  6
SLD-SOLID
 62
     7
100
AcDbLine
 10
230.0028750699
 20
110.0468534627
 30
0.0
 11
230.7558964033
 21
107.992198586
 31
0.0
  0
SPLINE
  5
1BC
330
1F
100
AcDbEntity
  8
0
  6
SLD-SOLID
 62
     7
100
AcDbSpline
210
0.0
220
0.0
230
1.0
 70
     8
 71
     3
 72
    15
 73
    11
 74
     0
 42
0.000000001
 43
0.00000001
 40
0.0
 40
0.0
 40
0.0
 40
0.0
 40
0.0932522940898446
 40
0.2030994356376335
 40
0.3310220938728493
 40
0.4754246486616953
 40
0.6236441625924206
 40
0.7602181276767066
 40
0.8859457116350388
 40
1.0
 40
1.0
 40
1.0
 40
1.0
 10
233.4770136846605
 20
109.2117435913792
 30
0.0
 10
233.4935329983248
 20
109.2083233423717
 30
0.0
 10
233.5295113441133
 20
109.2008741889762
 30
0.0
 10
233.5883081640758
 20
109.1895160184196
 30
0.0
 10
233.6562889607015
 20
109.1769242074246
 30
0.0
 10
233.7312696033018
 20
109.1640515559865
 30
0.0
 10
233.8078255772679
 20
109.1510875205208
 30
0.0
 10
233.8807084318848
 20
109.1367957873075
 30
0.0
 10
233.9472419675744
 20
109.1223111230102
 30
0.0
 10
233.9893444678363
 20
109.1118659878296
 30
0.0
 10
234.0093708804222
 20
109.1068976703819
 30
0.0
  0
SPLINE
  5
1BD
330
1F
100
AcDbEntity
  8
0
  6
SLD-SOLID
 62
     7
100
AcDbSpline
210
0.0
220
0.0
230
1.0
 70
     8
 71
     3
 72
    19
 73
    15
 74
     0
 42
0.000000001
 43
0.00000001
 40
0.0
 40
0.0
 40
0.0
 40
0.0
 40
0.1268092702442908
 40
0.242878205360981
 40
0.3498290754484312
 40
0.4530854512027853
 40
0.505823760282287
 40
0.562489998188145
 40
0.6231597597642966
 40
0.68837552081641
 40
0.7578050229004751
 40
0.8328341202665781
 40
0.9134179105045231
 40
1.0
 40
1.0
 40
1.0
 40
1.0
 10
233.174667307831
 20
109.5295323906812
 30
0.0
 10
233.1753343805381
 20
109.5090058020298
 30
0.0
 10
233.1766120270512
 20
109.4696911604091
 30
0.0
 10
233.1893504294736
 20
109.4142081027644
 30
0.0
 10
233.2101239802231
 20
109.3654089389697
 30
0.0
 10
233.235056042129
 20
109.3304551904071
 30
0.0
 10
233.2597861697255
 20
109.306491284909
 30
0.0
 10
233.2813784968851
 20
109.28939265029
 30
0.0
 10
233.3063462116313
 20
109.2735723792228
 30
0.0
 10
233.334418557088
 20
109.2590487394353
 30
0.0
 10
233.3655847190054
 20
109.2456764139355
 30
0.0
 10
233.3997132500132
 20
109.2330255869011
 30
0.0
 10
233.4372327352934
 20
109.2217553877016
 30
0.0
 10
233.4634399101441
 20
109.2151597457935
 30
0.0
 10
233.4770136846605
 20
109.2117435913792
 30
0.0
  0
SPLINE
  5
1BE
330
1F
100
AcDbEntity
  8
0
  6
SLD-SOLID
 62
     7
100
AcDbSpline
210
0.0
220
0.0
230
1.0
 70
     8
 71
     3
 72
    23
 73
    19
 74
     0
 42
0.000000001
 43
0.00000001
 40
0.0
 40
0.0
 40
0.0
 40
0.0
 40
0.0820152122453144
 40
0.1599519257716705
 40
0.2341869940922274
 40
0.3051246137515417
 40
0.3734499329597793
 40
0.4393407970318606
 40
0.5030894667964403
 40
0.5657336030606944
 40
0.6259373606731968
 40
0.6822012886643629
 40
0.7364846002131629
 40
0.7890871215591242
 40
0.8410885332773579
 40
0.8925509432537755
 40
0.9454656063736527
 40
1.0
 40
1.0
 40
1.0
 40
1.0
 10
233.667605688334
 20
109.8647955101494
 30
0.0
 10
233.6494474865146
 20
109.8644247908129
 30
0.0
 10
233.6140340641746
 20
109.8637017874801
 30
0.0
 10
233.5622949361169
 20
109.8597844202477
 30
0.0
 10
233.5133581198242
 20
109.8526075615169
 30
0.0
 10
233.4673181289952
 20
109.8417459876198
 30
0.0
 10
233.4236418783278
 20
109.8291083442482
 30
0.0
 10
233.3829075700076
 20
109.8127187224522
 30
0.0
 10
233.3448743919616
 20
109.7934969136144
 30
0.0
 10
233.3096166939655
 20
109.7718248806377
 30
0.0
 10
233.278182770149
 20
109.7475480012606
 30
0.0
 10
233.2503910104967
 20
109.7217984854296
 30
0.0
 10
233.2272072332955
 20
109.6939896127654
 30
0.0
 10
233.2076737047179
 20
109.6646032212257
 30
0.0
 10
233.1931892207919
 20
109.6330952459909
 30
0.0
 10
233.1824329324326
 20
109.6001263666656
 30
0.0
 10
233.1756889239013
 20
109.5654328057501
 30
0.0
 10
233.1750112516894
 20
109.5416188560714
 30
0.0
 10
233.174667307831
 20
109.5295323906812
 30
0.0
  0
SPLINE
  5
1BF
330
1F
100
AcDbEntity
  8
0
  6
SLD-SOLID
 62
     7
100
AcDbSpline
210
0.0
220
0.0
230
1.0
 70
     8
 71
     3
 72
    15
 73
    11
 74
     0
 42
0.000000001
 43
0.00000001
 40
0.0
 40
0.0
 40
0.0
 40
0.0
 40
0.1056104929821477
 40
0.2181470470918488
 40
0.3394654686690295
 40
0.4692629563420195
 40
0.6030470205796892
 40
0.7350948858466879
 40
0.8674791079275841
 40
1.0
 40
1.0
 40
1.0
 40
1.0
 10
234.3775507425291
 20
109.6307208958298
 30
0.0
 10
234.3564990973812
 20
109.6473427517046
 30
0.0
 10
234.3130152152804
 20
109.6816765444358
 30
0.0
 10
234.2383570509646
 20
109.7251027830385
 30
0.0
 10
234.1550195859359
 20
109.7648389316059
 30
0.0
 10
234.0636446650622
 20
109.7995536599097
 30
0.0
 10
233.9675007417805
 20
109.8287688351475
 30
0.0
 10
233.8684937659839
 20
109.8493715949858
 30
0.0
 10
233.7684751863117
 20
109.8625632368785
 30
0.0
 10
233.7012404169262
 20
109.8640511631752
 30
0.0
 10
233.667605688334
 20
109.8647955101494
 30
0.0
  0
LINE
  5
1C0
330
1F
100
AcDbEntity
  8
0
  6
SLD-SOLID
 62
     7
100
AcDbLine
 10
234.3970568411
 20
109.6307208412
 30
0.0
 11
234.3775507554
 21
109.6307208412
 31
0.0
  0
LINE
  5
1C1
330
1F
100
AcDbEntity
  8
0
  6
SLD-SOLID
 62
     7
100
AcDbLine
 10
234.3970568411
 20
109.9550117855
 30
0.0
 11
234.3970568411
 21
109.6307208412
 31
0.0
  0
SPLINE
  5
1C2
330
1F
100
AcDbEntity
  8
0
  6
SLD-SOLID
 62
     7
100
AcDbSpline
210
0.0
220
0.0
230
1.0
 70
     8
 71
     3
 72
    15
 73
    11
 74
     0
 42
0.000000001
 43
0.00000001
 40
0.0
 40
0.0
 40
0.0
 40
0.0
 40
0.1438134946436347
 40
0.2825302617167642
 40
0.4154724990798206
 40
0.5436416713555685
 40
0.6664829494542226
 40
0.7833339323015184
 40
0.8944191683275445
 40
1.0
 40
1.0
 40
1.0
 40
1.0
 10
233.6700439655665
 20
110.098870124469
 30
0.0
 10
233.7058199224547
 20
110.0984487009285
 30
0.0
 10
233.7761039419609
 20
110.0976207890314
 30
0.0
 10
233.8792116503575
 20
110.0897401766193
 30
0.0
 10
233.9778941897927
 20
110.0769631361947
 30
0.0
 10
234.0716383903691
 20
110.058430276669
 30
0.0
 10
234.1604806276828
 20
110.0364376447605
 30
0.0
 10
234.2442823817675
 20
110.0120976666808
 30
0.0
 10
234.3229447999262
 20
109.9855845019194
 30
0.0
 10
234.3727748848936
 20
109.9650286048608
 30
0.0
 10
234.3970569603891
 20
109.9550117677517
 30
0.0
  0
SPLINE
  5
1C3
330
1F
100
AcDbEntity
  8
0
  6
SLD-SOLID
 62
     7
100
AcDbSpline
210
0.0
220
0.0
230
1.0
 70
     8
 71
     3
 72
    23
 73
    19
 74
     0
 42
0.000000001
 43
0.00000001
 40
0.0
 40
0.0
 40
0.0
 40
0.0
 40
0.0582414831081262
 40
0.1146427594695284
 40
0.169859822040876
 40
0.2249312733524663
 40
0.2800824228986797
 40
0.3366222446972302
 40
0.3955711591414621
 40
0.4568580256683302
 40
0.5202638826731385
 40
0.5834528927466012
 40
0.6479660969618364
 40
0.7138123028707999
 40
0.7814741194161741
 40
0.8513965712822176
 40
0.9243885405390578
 40
1.0
 40
1.0
 40
1.0
 40
1.0
 10
232.8885761125515
 20
109.5027113411237
 30
0.0
 10
232.889097494588
 20
109.5240297198486
 30
0.0
 10
232.8901237849951
 20
109.5659928985661
 30
0.0
 10
232.9013284824775
 20
109.6272859226395
 30
0.0
 10
232.9180934340437
 20
109.6860115741313
 30
0.0
 10
232.9428288697108
 20
109.7414198403578
 30
0.0
 10
232.9739849571632
 20
109.7939778032974
 30
0.0
 10
233.0121506419016
 20
109.8435357398444
 30
0.0
 10
233.0575005751143
 20
109.8897804406926
 30
0.0
 10
233.1092453365916
 20
109.9327170246015
 30
0.0
 10
233.165876852449
 20
109.9717809597507
 30
0.0
 10
233.2270764928697
 20
110.0057056827115
 30
0.0
 10
233.2917678759853
 20
110.0346128489558
 30
0.0
 10
233.3603252811725
 20
110.0581671576499
 30
0.0
 10
233.4325074117027
 20
110.0764881060492
 30
0.0
 10
233.5084924339884
 20
110.0892229564888
 30
0.0
 10
233.5880316304975
 20
110.0977559451016
 30
0.0
 10
233.6423871386771
 20
110.0984943923811
 30
0.0
 10
233.6700439655665
 20
110.098870124469
 30
0.0
  0
SPLINE
  5
1C4
330
1F
100
AcDbEntity
  8
0
  6
SLD-SOLID
 62
     7
100
AcDbSpline
210
0.0
220
0.0
230
1.0
 70
     8
 71
     3
 72
    23
 73
    19
 74
     0
 42
0.000000001
 43
0.00000001
 40
0.0
 40
0.0
 40
0.0
 40
0.0
 40
0.079140304472841
 40
0.1545952342287955
 40
0.2255894056564574
 40
0.2928483715929995
 40
0.3573318591730979
 40
0.4184027772098035
 40
0.4775728648746417
 40
0.5343477861260599
 40
0.590311385905757
 40
0.6453917384100367
 40
0.7008449670353334
 40
0.757253795664201
 40
0.8147232371888098
 40
0.8742035410736735
 40
0.9356396770884151
 40
1.0
 40
1.0
 40
1.0
 40
1.0
 10
233.4306864172431
 20
108.9321544687196
 30
0.0
 10
233.408403461671
 20
108.9371712255742
 30
0.0
 10
233.3648752144786
 20
108.9469711209142
 30
0.0
 10
233.3024859123313
 20
108.965717813593
 30
0.0
 10
233.2445120958368
 20
108.9868206071531
 30
0.0
 10
233.1909215511486
 20
109.0103936912315
 30
0.0
 10
233.1417970697102
 20
109.0366428925996
 30
0.0
 10
233.0970569285589
 20
109.0657269802929
 30
0.0
 10
233.0567648149738
 20
109.0972488433929
 30
0.0
 10
233.0210374532112
 20
109.1317799887388
 30
0.0
 10
232.989642907754
 20
109.1687567235217
 30
0.0
 10
232.9625884638645
 20
109.2085637774686
 30
0.0
 10
232.9397247209618
 20
109.2510580359249
 30
0.0
 10
232.9210741544139
 20
109.2963016537526
 30
0.0
 10
232.9063742981828
 20
109.344186398164
 30
0.0
 10
232.895826217769
 20
109.3946345397862
 30
0.0
 10
232.8896948309144
 20
109.4478329896062
 30
0.0
 10
232.8889547531363
 20
109.4841372550964
 30
0.0
 10
232.8885761125515
 20
109.5027113411237
 30
0.0
  0
SPLINE
  5
1C5
330
1F
100
AcDbEntity
  8
0
  6
SLD-SOLID
 62
     7
100
AcDbSpline
210
0.0
220
0.0
230
1.0
 70
     8
 71
     3
 72
    11
 73
     7
 74
     0
 42
0.000000001
 43
0.00000001
 40
0.0
 40
0.0
 40
0.0
 40
0.0
 40
0.2264437066147216
 40
0.4684934644352426
 40
0.7260902046784208
 40
1.0
 40
1.0
 40
1.0
 40
1.0
 10
233.9159035865098
 20
108.8399063134235
 30
0.0
 10
233.8797103685069
 20
108.8489758386089
 30
0.0
 10
233.80482956769
 20
108.8677399426698
 30
0.0
 10
233.6865866359888
 20
108.8861627461351
 30
0.0
 10
233.5607812085918
 20
108.9061786001993
 30
0.0
 10
233.4749296692163
 20
108.9233204724908
 30
0.0
 10
233.4306864172431
 20
108.9321544687196
 30
0.0
  0
SPLINE
  5
1C6
330
1F
100
AcDbEntity
  8
0
  6
SLD-SOLID
 62
     7
100
AcDbSpline
210
0.0
220
0.0
230
1.0
 70
     8
 71
     3
 72
    19
 73
    15
 74
     0
 42
0.000000001
 43
0.00000001
 40
0.0
 40
0.0
 40
0.0
 40
0.0
 40
0.0736826146611911
 40
0.1431112576246217
 40
0.207926863199303
 40
0.2695996622420426
 40
0.3273006387183207
 40
0.3823410054467731
 40
0.435896329804567
 40
0.488024883042684
 40
0.5971381218227615
 40
0.7166521932471874
 40
0.8505969534355429
 40
1.0
 40
1.0
 40
1.0
 40
1.0
 10
234.1889906365494
 20
108.5334961412065
 30
0.0
 10
234.1886926965236
 20
108.5446082596044
 30
0.0
 10
234.188114017659
 20
108.5661909524296
 30
0.0
 10
234.1854902045486
 20
108.5974759955542
 30
0.0
 10
234.1802617312224
 20
108.6266288666654
 30
0.0
 10
234.1723851034226
 20
108.6532985715457
 30
0.0
 10
234.1633250472175
 20
108.6780646626097
 30
0.0
 10
234.151246711385
 20
108.7001283942282
 30
0.0
 10
234.1375687532058
 20
108.7202217287975
 30
0.0
 10
234.1155432649429
 20
108.7441011802367
 30
0.0
 10
234.0824017165749
 20
108.7708586905068
 30
0.0
 10
234.0347013549577
 20
108.7979112865764
 30
0.0
 10
233.9787841829016
 20
108.8221278003841
 30
0.0
 10
233.9376125042363
 20
108.8337684537495
 30
0.0
 10
233.9159035865098
 20
108.8399063134235
 30
0.0
  0
SPLINE
  5
1C7
330
1F
100
AcDbEntity
  8
0
  6
SLD-SOLID
 62
     7
100
AcDbSpline
210
0.0
220
0.0
230
1.0
 70
     8
 71
     3
 72
    23
 73
    19
 74
     0
 42
0.000000001
 43
0.00000001
 40
0.0
 40
0.0
 40
0.0
 40
0.0
 40
0.0854151544129921
 40
0.1659823341365558
 40
0.242565617483375
 40
0.3148369819696941
 40
0.3832803096291429
 40
0.4488990343063123
 40
0.511455091668862
 40
0.571477997405068
 40
0.6295665825924376
 40
0.6843880566524392
 40
0.7370366993053414
 40
0.7887815262452743
 40
0.8400607811717762
 40
0.8917690048341219
 40
0.9448771569629707
 40
0.9999999999999999
 40
0.9999999999999999
 40
0.9999999999999999
 40
0.9999999999999999
 10
233.6521632658615
 20
108.1742566289521
 30
0.0
 10
233.6727603609754
 20
108.1745902022177
 30
0.0
 10
233.7127855057748
 20
108.1752384158703
 30
0.0
 10
233.7711588449764
 20
108.1796336628728
 30
0.0
 10
233.8259673406762
 20
108.1873814833749
 30
0.0
 10
233.8773776891178
 20
108.1977334716218
 30
0.0
 10
233.9252318803319
 20
108.2115852155182
 30
0.0
 10
233.9695370483307
 20
108.2286192693018
 30
0.0
 10
234.0104035442161
 20
108.2485072428733
 30
0.0
 10
234.0475772530183
 20
108.2713453484419
 30
0.0
 10
234.0808651303165
 20
108.2966313563986
 30
0.0
 10
234.1094077169175
 20
108.3246446994294
 30
0.0
 10
234.1343397594431
 20
108.353961429741
 30
0.0
 10
234.1542714507088
 20
108.3859167124126
 30
0.0
 10
234.1699422802623
 20
108.4199084105276
 30
0.0
 10
234.180733223089
 20
108.4560463513246
 30
0.0
 10
234.1881146808941
 20
108.494048464015
 30
0.0
 10
234.1886950501914
 20
108.5201847422096
 30
0.0
 10
234.1889906365494
 20
108.5334961412065
 30
0.0
  0
SPLINE
  5
1C8
330
1F
100
AcDbEntity
  8
0
  6
SLD-SOLID
 62
     7
100
AcDbSpline
210
0.0
220
0.0
230
1.0
 70
     8
 71
     3
 72
    15
 73
    11
 74
     0
 42
0.000000001
 43
0.00000001
 40
0.0
 40
0.0
 40
0.0
 40
0.0
 40
0.1247846984405782
 40
0.2508991582111133
 40
0.3796498944864672
 40
0.5118057263052217
 40
0.6428226368571995
 40
0.7671691836151726
 40
0.885858676478196
 40
1.0
 40
1.0
 40
1.0
 40
1.0
 10
232.9080823304114
 20
108.4343395337517
 30
0.0
 10
232.934658376798
 20
108.4141411597449
 30
0.0
 10
232.9880936757594
 20
108.3735291688607
 30
0.0
 10
233.0759319087156
 20
108.322293273913
 30
0.0
 10
233.169166350478
 20
108.2772271607557
 30
0.0
 10
233.2674799984202
 20
108.2407128603385
 30
0.0
 10
233.3668430158579
 20
108.2110839898869
 30
0.0
 10
233.464775221598
 20
108.1906977877326
 30
0.0
 10
233.5593642872317
 20
108.1764811268535
 30
0.0
 10
233.6216357478737
 20
108.1749884085547
 30
0.0
 10
233.6521632658615
 20
108.1742566289521
 30
0.0
  0
LINE
  5
1C9
330
1F
100
AcDbEntity
  8
0
  6
SLD-SOLID
 62
     7
100
AcDbLine
 10
232.8885759719
 20
108.4343395545
 30
0.0
 11
232.9080825232
 21
108.4343395545
 31
0.0
  0
LINE
  5
1CA
330
1F
100
AcDbEntity
  8
0
  6
SLD-SOLID
 62
     7
100
AcDbLine
 10
232.8885759719
 20
108.1002955674
 30
0.0
 11
232.8885759719
 21
108.4343395545
 31
0.0
  0
SPLINE
  5
1CB
330
1F
100
AcDbEntity
  8
0
  6
SLD-SOLID
 62
     7
100
AcDbSpline
210
0.0
220
0.0
230
1.0
 70
     8
 71
     3
 72
    15
 73
    11
 74
     0
 42
0.000000001
 43
0.00000001
 40
0.0
 40
0.0
 40
0.0
 40
0.0
 40
0.138395883732636
 40
0.2698711435185703
 40
0.3952737389719832
 40
0.5139802029772993
 40
0.6311187908923167
 40
0.7514363167928999
 40
0.8740333432057816
 40
1.0
 40
1.0
 40
1.0
 40
1.0
 10
233.6501313681677
 20
107.9401820146325
 30
0.0
 10
233.6139480061996
 20
107.9405842411058
 30
0.0
 10
233.5433906673009
 20
107.9413685803171
 30
0.0
 10
233.4403074029492
 20
107.9493766383921
 30
0.0
 10
233.3428628957657
 20
107.9616844496975
 30
0.0
 10
233.2500201866785
 20
107.9793284803068
 30
0.0
 10
233.1598571445934
 20
108.0027360967021
 30
0.0
 10
233.0698837639415
 20
108.0304100542398
 30
0.0
 10
232.9788232240775
 20
108.0622895482349
 30
0.0
 10
232.9189291326145
 20
108.0875129053158
 30
0.0
 10
232.8885761125515
 20
108.1002955528997
 30
0.0
  0
SPLINE
  5
1CC
330
1F
100
AcDbEntity
  8
0
  6
SLD-SOLID
 62
     7
100
AcDbSpline
210
0.0
220
0.0
230
1.0
 70
     8
 71
     3
 72
    15
 73
    11
 74
     0
 42
0.000000001
 43
0.00000001
 40
0.0
 40
0.0
 40
0.0
 40
0.0
 40
0.1093762626810184
 40
0.2197856263699316
 40
0.3337354138417866
 40
0.4504044938819237
 40
0.5731494752474399
 40
0.7052672342377319
 40
0.8470508712264784
 40
1.0
 40
1.0
 40
1.0
 40
1.0
 10
234.2621389535242
 20
108.1303676387672
 30
0.0
 10
234.2431504383152
 20
108.1159274609798
 30
0.0
 10
234.2049940540436
 20
108.0869107123536
 30
0.0
 10
234.1425158264779
 20
108.0493311784141
 30
0.0
 10
234.0754382786603
 20
108.0171279950455
 30
0.0
 10
234.0036599744739
 20
107.9889196031484
 30
0.0
 10
233.9255783642987
 20
107.9668964892252
 30
0.0
 10
233.8404342325526
 20
107.951278670226
 30
0.0
 10
233.7477333143295
 20
107.9419768554349
 30
0.0
 10
233.6834767699234
 20
107.9407952164179
 30
0.0
 10
233.6501313681677
 20
107.9401820146325
 30
0.0
  0
SPLINE
  5
1CD
330
1F
100
AcDbEntity
  8
0
  6
SLD-SOLID
 62
     7
100
AcDbSpline
210
0.0
220
0.0
230
1.0
 70
     8
 71
     3
 72
    15
 73
    11
 74
     0
 42
0.000000001
 43
0.00000001
 40
0.0
 40
0.0
 40
0.0
 40
0.0
 40
0.119779818416103
 40
0.2402216975985294
 40
0.3641183838755973
 40
0.491522768512145
 40
0.6196754633466552
 40
0.7458916893167501
 40
0.8721818653816417
 40
1.0
 40
1.0
 40
1.0
 40
1.0
 10
234.4750818318289
 20
108.5725085769265
 30
0.0
 10
234.4742956613159
 20
108.5522892938095
 30
0.0
 10
234.4727189748778
 20
108.511738969232
 30
0.0
 10
234.4624101999951
 20
108.4509285719953
 30
0.0
 10
234.4441019695743
 20
108.3907752699191
 30
0.0
 10
234.4198821993124
 20
108.3314044447146
 30
0.0
 10
234.3899334048884
 20
108.2741372545739
 30
0.0
 10
234.3526520846423
 20
108.2216689427001
 30
0.0
 10
234.3111204351532
 20
108.172443436309
 30
0.0
 10
234.2785314335153
 20
108.1444490149602
 30
0.0
 10
234.2621389535242
 20
108.1303676387672
 30
0.0
  0
SPLINE
  5
1CE
330
1F
100
AcDbEntity
  8
0
  6
SLD-SOLID
 62
     7
100
AcDbSpline
210
0.0
220
0.0
230
1.0
 70
     8
 71
     3
 72
    23
 73
    19
 74
     0
 42
0.000000001
 43
0.00000001
 40
0.0
 40
0.0
 40
0.0
 40
0.0
 40
0.0751654121666886
 40
0.1466391917970247
 40
0.2151310888912575
 40
0.2804067798100484
 40
0.3423148361407452
 40
0.4018062055654697
 40
0.4598162295847393
 40
0.5153089454089105
 40
0.57023655766441
 40
0.6253730398192836
 40
0.681998376800941
 40
0.7398028123742753
 40
0.800236682524138
 40
0.8635457338940474
 40
0.9298674995776568
 40
1.0
 40
1.0
 40
1.0
 40
1.0
 10
234.0093708804222
 20
109.1068976703819
 30
0.0
 10
234.0281295135376
 20
109.1016924575311
 30
0.0
 10
234.0647254786227
 20
109.0915376777784
 30
0.0
 10
234.1173228736964
 20
109.0730688511043
 30
0.0
 10
234.1665030846
 20
109.0528766638209
 30
0.0
 10
234.2121211265797
 20
109.0307028726038
 30
0.0
 10
234.2537152972956
 20
109.0060068758916
 30
0.0
 10
234.2923129746247
 20
108.9800877191184
 30
0.0
 10
234.3271146524922
 20
108.9517687391738
 30
0.0
 10
234.3583771173239
 20
108.9213067715123
 30
0.0
 10
234.3865091489576
 20
108.8888194096234
 30
0.0
 10
234.4099973066163
 20
108.85249211983
 30
0.0
 10
234.4305297688602
 20
108.813589721916
 30
0.0
 10
234.4465885567264
 20
108.7711718031167
 30
0.0
 10
234.4598911249495
 20
108.7260077190488
 30
0.0
 10
234.46831962399
 20
108.6774589505345
 30
0.0
 10
234.4744709461784
 20
108.6260371694298
 30
0.0
 10
234.4748744471117
 20
108.5906805736106
 30
0.0
 10
234.4750818318289
 20
108.5725085769265
 30
0.0
  0
LINE
  5
1CF
330
1F
100
AcDbEntity
  8
0
  6
SLD-SOLID
 62
     7
100
AcDbLine
 10
222.045150914
 20
106.2143150833
 30
0.0
 11
222.045150914
 21
106.2033428228
 31
0.0
  0
SPLINE
  5
1D0
330
1F
100
AcDbEntity
  8
0
  6
SLD-SOLID
 62
     7
100
AcDbSpline
210
0.0
220
0.0
230
1.0
 70
     8
 71
     3
 72
    15
 73
    11
 74
     0
 42
0.000000001
 43
0.00000001
 40
0.0
 40
0.0
 40
0.0
 40
0.0
 40
0.135431350528543
 40
0.2625253862276895
 40
0.3850207899182446
 40
0.5055598721714757
 40
0.6263115760866943
 40
0.7470410464409225
 40
0.8712388643519938
 40
1.0
 40
1.0
 40
1.0
 40
1.0
 10
222.3162060324486
 20
106.6316668407369
 30
0.0
 10
222.3154474697521
 20
106.6078863664346
 30
0.0
 10
222.3139770423799
 20
106.5617893720791
 30
0.0
 10
222.2997270622627
 20
106.4954232911836
 30
0.0
 10
222.2766608757322
 20
106.4344419479226
 30
0.0
 10
222.2434804505633
 20
106.3795699442338
 30
0.0
 10
222.2029167320096
 20
106.33050898304
 30
0.0
 10
222.1564873215221
 20
106.2860780665874
 30
0.0
 10
222.1037964212943
 20
106.2467266757353
 30
0.0
 10
222.0649330888417
 20
106.2252480843866
 30
0.0
 10
222.0451508801028
 20
106.2143150544413
 30
0.0
  0
SPLINE
  5
1D1
330
1F
100
AcDbEntity
  8
0
  6
SLD-SOLID
 62
     7
100
AcDbSpline
210
0.0
220
0.0
230
1.0
 70
     8
 71
     3
 72
    15
 73
    11
 74
     0
 42
0.000000001
 43
0.00000001
 40
0.0
 40
0.0
 40
0.0
 40
0.0
 40
0.1334662010766523
 40
0.2576425233118423
 40
0.3770183226342612
 40
0.4931886150663831
 40
0.6107601423166085
 40
0.732890691486317
 40
0.862283368665848
 40
0.9999999999999999
 40
0.9999999999999999
 40
0.9999999999999999
 40
0.9999999999999999
 10
222.1044822927602
 20
107.0095998117738
 30
0.0
 10
222.1221511911302
 20
106.9993920964197
 30
0.0
 10
222.1562591489762
 20
106.979687170979
 30
0.0
 10
222.2007715338165
 20
106.9427771450652
 30
0.0
 10
222.2378417311188
 20
106.9019972430638
 30
0.0
 10
222.2671687053564
 20
106.8564577336986
 30
0.0
 10
222.2890977611853
 20
106.8065559688324
 30
0.0
 10
222.3050740439278
 20
106.7523754568375
 30
0.0
 10
222.3143646640338
 20
106.6934842134917
 30
0.0
 10
222.3155796223544
 20
106.6526963240178
 30
0.0
 10
222.3162060324486
 20
106.6316668407369
 30
0.0
  0
SPLINE
  5
1D2
330
1F
100
AcDbEntity
  8
0
  6
SLD-SOLID
 62
     7
100
AcDbSpline
210
0.0
220
0.0
230
1.0
 70
     8
 71
     3
 72
    19
 73
    15
 74
     0
 42
0.000000001
 43
0.00000001
 40
0.0
 40
0.0
 40
0.0
 40
0.0
 40
0.096739674129717
 40
0.1868927902861626
 40
0.2704672167708685
 40
0.3489375065269757
 40
0.4201603335311133
 40
0.4855858843160354
 40
0.5445067203710997
 40
0.5977787975660718
 40
0.6978128734558183
 40
0.7975727576670734
 40
0.8987014769210815
 40
1.0
 40
1.0
 40
1.0
 40
1.0
 10
221.5627783676073
 20
107.0957522739886
 30
0.0
 10
221.5806593178462
 20
107.0956480253567
 30
0.0
 10
221.6152037869399
 20
107.095446625901
 30
0.0
 10
221.6651917382252
 20
107.0946494219746
 30
0.0
 10
221.7117898319167
 20
107.0933837265495
 30
0.0
 10
221.7548875307531
 20
107.0919743000802
 30
0.0
 10
221.7945718683231
 20
107.0894087999585
 30
0.0
 10
221.8306103520067
 20
107.0866051461516
 30
0.0
 10
221.8633028600095
 20
107.0835100908247
 30
0.0
 10
221.9021556437004
 20
107.0780483036133
 30
0.0
 10
221.9481632765958
 20
107.0693339737782
 30
0.0
 10
222.0017480375412
 20
107.0541670538891
 30
0.0
 10
222.0540793419824
 20
107.0343783307909
 30
0.0
 10
222.0876719162494
 20
107.0178639357512
 30
0.0
 10
222.1044822927602
 20
107.0095998117738
 30
0.0
  0
LINE
  5
1D3
330
1F
100
AcDbEntity
  8
0
  6
SLD-SOLID
 62
     7
100
AcDbLine
 10
220.9637750432
 20
107.0957522665
 30
0.0
 11
221.5627784401
 21
107.0957522665
 31
0.0
  0
LINE
  5
1D4
330
1F
100
AcDbEntity
  8
0
  6
SLD-SOLID
 62
     7
100
AcDbLine
 10
220.9637750432
 20
105.0410973024
 30
0.0
 11
220.9637750432
 21
107.0957522665
 31
0.0
  0
LINE
  5
1D5
330
1F
100
AcDbEntity
  8
0
  6
SLD-SOLID
 62
     7
100
AcDbLine
 10
221.6850988127
 20
105.0410973024
 30
0.0
 11
220.9637750432
 21
105.0410973024
 31
0.0
  0
SPLINE
  5
1D6
330
1F
100
AcDbEntity
  8
0
  6
SLD-SOLID
 62
     7
100
AcDbSpline
210
0.0
220
0.0
230
1.0
 70
     8
 71
     3
 72
    15
 73
    11
 74
     0
 42
0.000000001
 43
0.00000001
 40
0.0
 40
0.0
 40
0.0
 40
0.0
 40
0.1134045825794923
 40
0.2253914394092186
 40
0.3358375342771752
 40
0.4475408704198453
 40
0.56524988226771
 40
0.6959983323304234
 40
0.8411895986933365
 40
1.0
 40
1.0
 40
1.0
 40
1.0
 10
222.2865403261199
 20
105.2085256960367
 30
0.0
 10
222.2671563715562
 20
105.1941934723219
 30
0.0
 10
222.2286307906565
 20
105.1657081989798
 30
0.0
 10
222.1666762219219
 20
105.1299719306966
 30
0.0
 10
222.1017974316797
 20
105.1009311034193
 30
0.0
 10
222.0333076367719
 20
105.0776681845353
 30
0.0
 10
221.9584796523257
 20
105.0610792916692
 30
0.0
 10
221.8755756601532
 20
105.049693209376
 30
0.0
 10
221.7834393771348
 20
105.0423075360976
 30
0.0
 10
221.7188434869527
 20
105.0415126003328
 30
0.0
 10
221.6850986087709
 20
105.041097326072
 30
0.0
  0
SPLINE
  5
1D7
330
1F
100
AcDbEntity
  8
0
  6
SLD-SOLID
 62
     7
100
AcDbSpline
210
0.0
220
0.0
230
1.0
 70
     8
 71
     3
 72
    15
 73
    11
 74
     0
 42
0.000000001
 43
0.00000001
 40
0.0
 40
0.0
 40
0.0
 40
0.0
 40
0.1409007368762458
 40
0.2738791790272248
 40
0.4021896055308887
 40
0.5269778580158062
 40
0.6484963622640894
 40
0.7667002025346865
 40
0.8838344637388585
 40
1.0
 40
1.0
 40
1.0
 40
1.0
 10
222.4982640658083
 20
105.6693600929785
 30
0.0
 10
222.4975736592143
 20
105.6446665894977
 30
0.0
 10
222.4962316648757
 20
105.5966680011968
 30
0.0
 10
222.4854601953991
 20
105.5268450823365
 30
0.0
 10
222.4677361256286
 20
105.4614156514439
 30
0.0
 10
222.4423928115855
 20
105.4006640983761
 30
0.0
 10
222.4107738925696
 20
105.345064887499
 30
0.0
 10
222.375108811874
 20
105.2935872268543
 30
0.0
 10
222.333525433583
 20
105.2478481177151
 30
0.0
 10
222.302158614053
 20
105.2215968357479
 30
0.0
 10
222.2865403261199
 20
105.2085256960367
 30
0.0
  0
SPLINE
  5
1D8
330
1F
100
AcDbEntity
  8
0
  6
SLD-SOLID
 62
     7
100
AcDbSpline
210
0.0
220
0.0
230
1.0
 70
     8
 71
     3
 72
    23
 73
    19
 74
     0
 42
0.000000001
 43
0.00000001
 40
0.0
 40
0.0
 40
0.0
 40
0.0
 40
0.0687121495540446
 40
0.134823351671607
 40
0.1993489638344453
 40
0.2615086450846674
 40
0.3229213080872078
 40
0.3828706989830162
 40
0.4430075786583642
 40
0.5030460997279668
 40
0.56269900086607
 40
0.6221463198838911
 40
0.6816977001699636
 40
0.7416916727047259
 40
0.8036336469964673
 40
0.8663701867776599
 40
0.932043596906022
 40
1.0
 40
1.0
 40
1.0
 40
1.0
 10
222.0451508801028
 20
106.2033428068951
 30
0.0
 10
222.0622796859683
 20
106.1995173276674
 30
0.0
 10
222.0958889243913
 20
106.1920111743222
 30
0.0
 10
222.1445438863159
 20
106.1768426944794
 30
0.0
 10
222.1903490436319
 20
106.158676832836
 30
0.0
 10
222.2334560273181
 20
106.13737313654
 30
0.0
 10
222.2736207056008
 20
106.1131132601676
 30
0.0
 10
222.3109786762353
 20
106.0855812816766
 30
0.0
 10
222.345505722807
 20
106.0551078352427
 30
0.0
 10
222.3771936501651
 20
106.0217964771471
 30
0.0
 10
222.4057560758702
 20
105.9859939881846
 30
0.0
 10
222.4307386876592
 20
105.9477205547189
 30
0.0
 10
222.451358121544
 20
105.9068477616828
 30
0.0
 10
222.4686586329952
 20
105.86379582383
 30
0.0
 10
222.4819625770531
 20
105.8184740849728
 30
0.0
 10
222.4912888084544
 20
105.7707211922238
 30
0.0
 10
222.4970525654097
 20
105.7208406277749
 30
0.0
 10
222.4978556588699
 20
105.686714612737
 30
0.0
 10
222.4982640658083
 20
105.6693600929785
 30
0.0
  0
LINE
  5
1D9
330
1F
100
AcDbEntity
  8
0
  6
SLD-SOLID
 62
     7
100
AcDbLine
 10
226.5953825638
 20
104.7810145304
 30
0.0
 11
226.6335822435
 21
104.7810145304
 31
0.0
  0
SPLINE
  5
1DA
330
1F
100
AcDbEntity
  8
0
  6
SLD-SOLID
 62
     7
100
AcDbSpline
210
0.0
220
0.0
230
1.0
 70
     8
 71
     3
 72
    15
 73
    11
 74
     0
 42
0.000000001
 43
0.00000001
 40
0.0
 40
0.0
 40
0.0
 40
0.0
 40
0.1180260458129053
 40
0.2460120196536347
 40
0.3861254246280938
 40
0.5387801019104138
 40
0.6859928419595578
 40
0.8134270452387178
 40
0.917361719283178
 40
1.0
 40
1.0
 40
1.0
 40
1.0
 10
226.3434272614546
 20
104.7289978403125
 30
0.0
 10
226.3535936087529
 20
104.7292836798328
 30
0.0
 10
226.3747842164204
 20
104.7298794801682
 30
0.0
 10
226.4079033848353
 20
104.7332805463459
 30
0.0
 10
226.4437124204331
 20
104.7390132573056
 30
0.0
 10
226.4807562004208
 20
104.7470744140129
 30
0.0
 10
226.5165980053617
 20
104.7555125029671
 30
0.0
 10
226.5479379349145
 20
104.7645343173926
 30
0.0
 10
226.5738641510644
 20
104.7723362414183
 30
0.0
 10
226.5887771840132
 20
104.7783505285057
 30
0.0
 10
226.5953825754792
 20
104.7810144212724
 30
0.0
  0
SPLINE
  5
1DB
330
1F
100
AcDbEntity
  8
0
  6
SLD-SOLID
 62
     7
100
AcDbSpline
210
0.0
220
0.0
230
1.0
 70
     8
 71
     3
 72
    19
 73
    15
 74
     0
 42
0.000000001
 43
0.00000001
 40
0.0
 40
0.0
 40
0.0
 40
0.0
 40
0.1382536399707092
 40
0.2625818875452701
 40
0.3763710320188413
 40
0.482419154542603
 40
0.5348193035125065
 40
0.5882404164254444
 40
0.645221015713341
 40
0.7056580679421591
 40
0.7703020233223358
 40
0.8409061324764973
 40
0.916920369926868
 40
1.0
 40
1.0
 40
1.0
 40
1.0
 10
226.0093832806026
 20
105.0630418211644
 30
0.0
 10
226.0109931258662
 20
105.038031747422
 30
0.0
 10
226.0140506671219
 20
104.9905307024417
 30
0.0
 10
226.0291821054171
 20
104.9237708390958
 30
0.0
 10
226.0521481685843
 20
104.8655496915943
 30
0.0
 10
226.0787577683974
 20
104.8236323341899
 30
0.0
 10
226.1047833780236
 20
104.7952006143232
 30
0.0
 10
226.1287400232555
 20
104.777826094765
 30
0.0
 10
226.1554406833957
 20
104.7620403467402
 30
0.0
 10
226.1863516912851
 20
104.7503136585867
 30
0.0
 10
226.2203434865672
 20
104.7401064897066
 30
0.0
 10
226.2582263097221
 20
104.7343643058754
 30
0.0
 10
226.2995407155705
 20
104.7293087192665
 30
0.0
 10
226.3283716173258
 20
104.7291044899201
 30
0.0
 10
226.3434272614546
 20
104.7289978403125
 30
0.0
  0
SPLINE
  5
1DC
330
1F
100
AcDbEntity
  8
0
  6
SLD-SOLID
 62
     7
100
AcDbSpline
210
0.0
220
0.0
230
1.0
 70
     8
 71
     3
 72
    23
 73
    19
 74
     0
 42
0.000000001
 43
0.00000001
 40
0.0
 40
0.0
 40
0.0
 40
0.0
 40
0.0755411438013994
 40
0.148330943442821
 40
0.2185645796642544
 40
0.2862113773881361
 40
0.3522113397393868
 40
0.4162511969735729
 40
0.4789968050702688
 40
0.5406620787399432
 40
0.6008558499265478
 40
0.6594874724096383
 40
0.7169416124705639
 40
0.7736269126381349
 40
0.8297104942155993
 40
0.8860494333540183
 40
0.9427117086551209
 40
1.0
 40
1.0
 40
1.0
 40
1.0
 10
226.5815656711617
 20
106.0680184204915
 30
0.0
 10
226.5811271117062
 20
106.0369816910815
 30
0.0
 10
226.5802659659184
 20
105.9760386457012
 30
0.0
 10
226.5726193012288
 20
105.8865194435401
 30
0.0
 10
226.5611696183129
 20
105.8006971335537
 30
0.0
 10
226.5443817144069
 20
105.7185789457661
 30
0.0
 10
226.52302244276
 20
105.6401678949329
 30
0.0
 10
226.4965365823857
 20
105.5654501951784
 30
0.0
 10
226.4651374443466
 20
105.4946167174519
 30
0.0
 10
226.4295054310332
 20
105.4275987191713
 30
0.0
 10
226.3896884770503
 20
105.3649648481316
 30
0.0
 10
226.346126692445
 20
105.3070243297429
 30
0.0
 10
226.2988640561635
 20
105.2539628469981
 30
0.0
 10
226.2479371223198
 20
105.2059209470876
 30
0.0
 10
226.1935348795113
 20
105.1626014704437
 30
0.0
 10
226.1358149487573
 20
105.1238246234089
 30
0.0
 10
226.0742621566434
 20
105.0903049807086
 30
0.0
 10
226.0310886341443
 20
105.0721627639532
 30
0.0
 10
226.0093832806026
 20
105.0630418211644
 30
0.0
  0
SPLINE
  5
1DD
330
1F
100
AcDbEntity
  8
0
  6
SLD-SOLID
 62
     7
100
AcDbSpline
210
0.0
220
0.0
230
1.0
 70
     8
 71
     3
 72
    15
 73
    11
 74
     0
 42
0.000000001
 43
0.00000001
 40
0.0
 40
0.0
 40
0.0
 40
0.0
 40
0.1098547588818097
 40
0.2218235284571729
 40
0.3376978758856743
 40
0.4588356993060732
 40
0.5848022906294197
 40
0.7163538247597345
 40
0.8545033807620632
 40
1.0
 40
1.0
 40
1.0
 40
1.0
 10
226.3235146640559
 20
106.866554214134
 30
0.0
 10
226.343774194192
 20
106.8424942001138
 30
0.0
 10
226.3846831225388
 20
106.793911168673
 30
0.0
 10
226.435456254188
 20
106.7114169302566
 30
0.0
 10
226.4801531866485
 20
106.6220604972054
 30
0.0
 10
226.5167746203375
 20
106.5247519380662
 30
0.0
 10
226.5462549497578
 20
106.4204052617851
 30
0.0
 10
226.5665198280362
 20
106.3089581848748
 30
0.0
 10
226.5795168974005
 20
106.1907830677529
 30
0.0
 10
226.5808710546852
 20
106.1096405597149
 30
0.0
 10
226.5815656711617
 20
106.0680184204915
 30
0.0
  0
SPLINE
  5
1DE
330
1F
100
AcDbEntity
  8
0
  6
SLD-SOLID
 62
     7
100
AcDbSpline
210
0.0
220
0.0
230
1.0
 70
     8
 71
     3
 72
    15
 73
    11
 74
     0
 42
0.000000001
 43
0.00000001
 40
0.0
 40
0.0
 40
0.0
 40
0.0
 40
0.1395096289278314
 40
0.2721984508134785
 40
0.400263434375469
 40
0.5246770396869458
 40
0.645826861465457
 40
0.7650924343224664
 40
0.8820210912425186
 40
1.0
 40
1.0
 40
1.0
 40
1.0
 10
225.6314503095657
 20
107.1477688549486
 30
0.0
 10
225.6672624707809
 20
107.1470040427187
 30
0.0
 10
225.7371358901136
 20
107.1455118109226
 30
0.0
 10
225.8390311522321
 20
107.1311379973561
 30
0.0
 10
225.9354563282295
 20
107.1088057078508
 30
0.0
 10
226.0258761331369
 20
107.07638960496
 30
0.0
 10
226.1105713620519
 20
107.0361367732589
 30
0.0
 10
226.188592342064
 20
106.9876961513186
 30
0.0
 10
226.2605557379752
 20
106.9317485043922
 30
0.0
 10
226.3024658964389
 20
106.888350320755
 30
0.0
 10
226.3235146640559
 20
106.866554214134
 30
0.0
  0
SPLINE
  5
1DF
330
1F
100
AcDbEntity
  8
0
  6
SLD-SOLID
 62
     7
100
AcDbSpline
210
0.0
220
0.0
230
1.0
 70
     8
 71
     3
 72
    15
 73
    11
 74
     0
 42
0.000000001
 43
0.00000001
 40
0.0
 40
0.0
 40
0.0
 40
0.0
 40
0.1182121234008071
 40
0.2364455537483776
 40
0.3565741460782606
 40
0.4798783288897373
 40
0.6058624841179887
 40
0.7341831899954775
 40
0.8649688982559044
 40
1.0
 40
1.0
 40
1.0
 40
1.0
 10
224.9410114732306
 20
106.866554214134
 30
0.0
 10
224.9619282517339
 20
106.8884690930371
 30
0.0
 10
225.0037655788503
 20
106.9323028008539
 30
0.0
 10
225.0756531599736
 20
106.9891354419117
 30
0.0
 10
225.1551336627097
 20
107.0370086302886
 30
0.0
 10
225.2409145793986
 20
107.0772672152478
 30
0.0
 10
225.3324816184676
 20
107.1088723081399
 30
0.0
 10
225.428577326393
 20
107.1315657286373
 30
0.0
 10
225.5287808711348
 20
107.145288880934
 30
0.0
 10
225.59686470495
 20
107.1469334417815
 30
0.0
 10
225.6314503095657
 20
107.1477688549486
 30
0.0
  0
SPLINE
  5
1E0
330
1F
100
AcDbEntity
  8
0
  6
SLD-SOLID
 62
     7
100
AcDbSpline
210
0.0
220
0.0
230
1.0
 70
     8
 71
     3
 72
    15
 73
    11
 74
     0
 42
0.000000001
 43
0.00000001
 40
0.0
 40
0.0
 40
0.0
 40
0.0
 40
0.1440471923994897
 40
0.2812270333765628
 40
0.4117342507947048
 40
0.5370916682873128
 40
0.6580372759518903
 40
0.7747368868320134
 40
0.8883899708332798
 40
1.0
 40
1.0
 40
1.0
 40
1.0
 10
224.6829604661248
 20
106.0676120409528
 30
0.0
 10
224.6836489482743
 20
106.1088294682502
 30
0.0
 10
224.6849930896574
 20
106.1892993101761
 30
0.0
 10
224.6981125622977
 20
106.3064822354791
 30
0.0
 10
224.7178871704473
 20
106.4172691265378
 30
0.0
 10
224.7470043518612
 20
106.5211982425088
 30
0.0
 10
224.7832969851559
 20
106.6186408985731
 30
0.0
 10
224.8278170280705
 20
106.7088804500807
 30
0.0
 10
224.8796008212669
 20
106.7921868068078
 30
0.0
 10
224.9206654028692
 20
106.8419154185233
 30
0.0
 10
224.9410114732306
 20
106.866554214134
 30
0.0
  0
SPLINE
  5
1E1
330
1F
100
AcDbEntity
  8
0
  6
SLD-SOLID
 62
     7
100
AcDbSpline
210
0.0
220
0.0
230
1.0
 70
     8
 71
     3
 72
    15
 73
    11
 74
     0
 42
0.000000001
 43
0.00000001
 40
0.0
 40
0.0
 40
0.0
 40
0.0
 40
0.10887186965179
 40
0.2207986158587513
 40
0.3359826853622173
 40
0.4566219984155296
 40
0.5829933180737745
 40
0.7149675248572313
 40
0.8535609528352989
 40
1.0
 40
1.0
 40
1.0
 40
1.0
 10
224.9397923346144
 20
105.2715145245428
 30
0.0
 10
224.9198443824303
 20
105.2953313566998
 30
0.0
 10
224.8793887510029
 20
105.3436333064249
 30
0.0
 10
224.8286660193709
 20
105.4252156460453
 30
0.0
 10
224.784478796446
 20
105.5140763934751
 30
0.0
 10
224.7475675623211
 20
105.6106707669501
 30
0.0
 10
224.7183041014234
 20
105.7148317624574
 30
0.0
 10
224.697996904905
 20
105.8262621763347
 30
0.0
 10
224.6849969078491
 20
105.9445768397215
 30
0.0
 10
224.6836516231776
 20
106.0258545744584
 30
0.0
 10
224.6829604661248
 20
106.0676120409528
 30
0.0
  0
SPLINE
  5
1E2
330
1F
100
AcDbEntity
  8
0
  6
SLD-SOLID
 62
     7
100
AcDbSpline
210
0.0
220
0.0
230
1.0
 70
     8
 71
     3
 72
    15
 73
    11
 74
     0
 42
0.000000001
 43
0.00000001
 40
0.0
 40
0.0
 40
0.0
 40
0.0
 40
0.1368309986537671
 40
0.268434173500071
 40
0.3958259407263954
 40
0.5205243981053198
 40
0.6425911018977788
 40
0.7618209262601466
 40
0.8809385364926475
 40
1.0
 40
1.0
 40
1.0
 40
1.0
 10
225.6314503095657
 20
104.989080745112
 30
0.0
 10
225.5963140768679
 20
104.9898512257681
 30
0.0
 10
225.5273840414449
 20
104.991362749766
 30
0.0
 10
225.4266292030575
 20
105.0058426156795
 30
0.0
 10
225.3304833906921
 20
105.0277459920976
 30
0.0
 10
225.2397179143577
 20
105.0596767905249
 30
0.0
 10
225.1545389680203
 20
105.0997098876131
 30
0.0
 10
225.0758439487799
 20
105.1486326715198
 30
0.0
 10
225.00333491696
 20
105.2052921251216
 30
0.0
 10
224.960969866446
 20
105.2494438607464
 30
0.0
 10
224.9397923346144
 20
105.2715145245428
 30
0.0
  0
SPLINE
  5
1E3
330
1F
100
AcDbEntity
  8
0
  6
SLD-SOLID
 62
     7
100
AcDbSpline
210
0.0
220
0.0
230
1.0
 70
     8
 71
     3
 72
    11
 73
     7
 74
     0
 42
0.000000001
 43
0.00000001
 40
0.0
 40
0.0
 40
0.0
 40
0.0
 40
0.2640484710951687
 40
0.5191358345278282
 40
0.7631804784687047
 40
1.0
 40
1.0
 40
1.0
 40
1.0
 10
225.7493003758031
 20
104.998833854042
 30
0.0
 10
225.7390256408074
 20
104.9970539615504
 30
0.0
 10
225.7188248681827
 20
104.9935545814169
 30
0.0
 10
225.6887831678588
 20
104.9910418557852
 30
0.0
 10
225.6597848551263
 20
104.9892236423187
 30
0.0
 10
225.6408000741542
 20
104.9891278979856
 30
0.0
 10
225.6314503095657
 20
104.989080745112
 30
0.0
  0
SPLINE
  5
1E4
330
1F
100
AcDbEntity
  8
0
  6
SLD-SOLID
 62
     7
100
AcDbSpline
210
0.0
220
0.0
230
1.0
 70
     8
 71
     3
 72
    23
 73
    19
 74
     0
 42
0.000000001
 43
0.00000001
 40
0.0
 40
0.0
 40
0.0
 40
0.0
 40
0.0707149303533849
 40
0.1383906187789522
 40
0.2034230975047537
 40
0.2657923960789829
 40
0.3260210615618724
 40
0.385771241440172
 40
0.4443191053976501
 40
0.5025298156249327
 40
0.5610616686806399
 40
0.6188947832060195
 40
0.6774426471634981
 40
0.7367598775409787
 40
0.7981751251443641
 40
0.8622840553168474
 40
0.929529038003815
 40
0.9999999999999999
 40
0.9999999999999999
 40
0.9999999999999999
 40
0.9999999999999999
 10
226.3007574098859
 20
104.4949232259928
 30
0.0
 10
226.2809637143769
 20
104.4952944186485
 30
0.0
 10
226.2422270323816
 20
104.4960208505497
 30
0.0
 10
226.1855668688319
 20
104.502258504846
 30
0.0
 10
226.1318450765088
 20
104.5122606507419
 30
0.0
 10
226.0812224170944
 20
104.5264768129337
 30
0.0
 10
226.0335260704714
 20
104.5448592624936
 30
0.0
 10
225.9889853392812
 20
104.5676580382058
 30
0.0
 10
225.9471643526918
 20
104.5940964015992
 30
0.0
 10
225.9087912514907
 20
104.6248045674393
 30
0.0
 10
225.8738968490573
 20
104.6591331144143
 30
0.0
 10
225.8431418133492
 20
104.6973468587994
 30
0.0
 10
225.8166463112358
 20
104.7388862515068
 30
0.0
 10
225.7946026423248
 20
104.7840648966644
 30
0.0
 10
225.7767401449709
 20
104.8326928132626
 30
0.0
 10
225.7629004391904
 20
104.8849080440695
 30
0.0
 10
225.7535995361088
 20
104.940712992687
 30
0.0
 10
225.7507556352493
 20
104.9791600278775
 30
0.0
 10
225.7493003758031
 20
104.998833854042
 30
0.0
  0
SPLINE
  5
1E5
330
1F
100
AcDbEntity
  8
0
  6
SLD-SOLID
 62
     7
100
AcDbSpline
210
0.0
220
0.0
230
1.0
 70
     8
 71
     3
 72
    11
 73
     7
 74
     0
 42
0.000000001
 43
0.00000001
 40
0.0
 40
0.0
 40
0.0
 40
0.0
 40
0.2535118768429472
 40
0.5016981143043017
 40
0.74815192061437
 40
1.0
 40
1.0
 40
1.0
 40
1.0
 10
226.6335822521216
 20
104.5331229026353
 30
0.0
 10
226.6058864038342
 20
104.5269115986865
 30
0.0
 10
226.55107652655
 20
104.5146194744779
 30
0.0
 10
226.4680554968417
 20
104.5030613472483
 30
0.0
 10
226.3847164412461
 20
104.4964983646681
 30
0.0
 10
226.3289450014068
 20
104.4954520477866
 30
0.0
 10
226.3007574098859
 20
104.4949232259928
 30
0.0
  0
LINE
  5
1E6
330
1F
100
AcDbEntity
  8
0
  6
SLD-SOLID
 62
     7
100
AcDbLine
 10
226.6335822435
 20
104.7810145304
 30
0.0
 11
226.6335822435
 21
104.5331230038
 31
0.0
  0
LINE
  5
1E7
330
1F
100
AcDbEntity
  8
0
  6
SLD-SOLID
 62
     7
100
AcDbLine
 10
228.7402538143
 20
106.0554206255
 30
0.0
 11
229.5985274043
 21
106.0554206255
 31
0.0
  0
LINE
  5
1E8
330
1F
100
AcDbEntity
  8
0
  6
SLD-SOLID
 62
     7
100
AcDbLine
 10
228.7402538143
 20
105.8213460841
 30
0.0
 11
228.7402538143
 21
106.0554206255
 31
0.0
  0
LINE
  5
1E9
330
1F
100
AcDbEntity
  8
0
  6
SLD-SOLID
 62
     7
100
AcDbLine
 10
229.5985274043
 20
105.8213460841
 30
0.0
 11
228.7402538143
 21
105.8213460841
 31
0.0
  0
LINE
  5
1EA
330
1F
100
AcDbEntity
  8
0
  6
SLD-SOLID
 62
     7
100
AcDbLine
 10
229.5985274043
 20
106.0554206255
 30
0.0
 11
229.5985274043
 21
105.8213460841
 31
0.0
  0
SPLINE
  5
1EB
330
1F
100
AcDbEntity
  8
0
  6
SLD-SOLID
 62
     7
100
AcDbSpline
210
0.0
220
0.0
230
1.0
 70
     8
 71
     3
 72
    23
 73
    19
 74
     0
 42
0.000000001
 43
0.00000001
 40
0.0
 40
0.0
 40
0.0
 40
0.0
 40
0.0906329011836336
 40
0.1753653426288618
 40
0.2541102187879563
 40
0.3274215029633282
 40
0.3955560567886145
 40
0.4588739603350013
 40
0.5179348249732569
 40
0.5729694386300633
 40
0.6252987845255902
 40
0.6761318033419801
 40
0.7265933906285924
 40
0.7771870883272604
 40
0.8289458178959394
 40
0.8827904889383932
 40
0.9396206954251711
 40
1.0
 40
1.0
 40
1.0
 40
1.0
 10
231.7572154766733
 20
106.0672056614141
 30
0.0
 10
231.7577516403434
 20
106.1117855719169
 30
0.0
 10
231.7587890619031
 20
106.1980431139089
 30
0.0
 10
231.766998432925
 20
106.3228114831537
 30
0.0
 10
231.7800174723257
 20
106.4385986498403
 30
0.0
 10
231.799046322438
 20
106.5452934741322
 30
0.0
 10
231.8232323486525
 20
106.6431355669656
 30
0.0
 10
231.8526380049576
 20
106.7322277532629
 30
0.0
 10
231.8878822430588
 20
106.8122130307782
 30
0.0
 10
231.9286707615841
 20
106.8833806852365
 30
0.0
 10
231.9753257860856
 20
106.945896748761
 30
0.0
 10
232.0281542995326
 20
107.0002612938093
 30
0.0
 10
232.0875770015398
 20
107.0459211895029
 30
0.0
 10
232.1527562104901
 20
107.0837751489776
 30
0.0
 10
232.22418663791
 20
107.1127789609396
 30
0.0
 10
232.3017120323685
 20
107.1326747385509
 30
0.0
 10
232.3850352249716
 20
107.1457792094284
 30
0.0
 10
232.4427251027085
 20
107.1470923854737
 30
0.0
 10
232.4724434648721
 20
107.1477688549486
 30
0.0
  0
SPLINE
  5
1EC
330
1F
100
AcDbEntity
  8
0
  6
SLD-SOLID
 62
     7
100
AcDbSpline
210
0.0
220
0.0
230
1.0
 70
     8
 71
     3
 72
    23
 73
    19
 74
     0
 42
0.000000001
 43
0.00000001
 40
0.0
 40
0.0
 40
0.0
 40
0.0
 40
0.0609726139191509
 40
0.1183879945613573
 40
0.1728742277214827
 40
0.2246695210592742
 40
0.2754008809859205
 40
0.3256802771256844
 40
0.3765492057640267
 40
0.4289720610265039
 40
0.4841475253492291
 40
0.5428865512447378
 40
0.6061622082093611
 40
0.6740109616371234
 40
0.7471027693500151
 40
0.8256295092907744
 40
0.9098541721358143
 40
1.0
 40
1.0
 40
1.0
 40
1.0
 10
232.4724434648721
 20
104.989080745112
 30
0.0
 10
232.4424565060782
 20
104.9897673368808
 30
0.0
 10
232.3842320724116
 20
104.9911004636301
 30
0.0
 10
232.30004201547
 20
105.0040795503438
 30
0.0
 10
232.2220099486887
 20
105.0243871156768
 30
0.0
 10
232.1503888479438
 20
105.0536839363691
 30
0.0
 10
232.0847005643732
 20
105.0905943266084
 30
0.0
 10
232.0257521643926
 20
105.1368044342381
 30
0.0
 10
231.9727250475362
 20
105.1908447977329
 30
0.0
 10
231.9266539186325
 20
105.2539442649333
 30
0.0
 10
231.8864579823196
 20
105.3252938589648
 30
0.0
 10
231.8513101725319
 20
105.4051347964926
 30
0.0
 10
231.8224935909962
 20
105.4940249971698
 30
0.0
 10
231.798724573319
 20
105.5916055013015
 30
0.0
 10
231.7796100479929
 20
105.6978381566859
 30
0.0
 10
231.7664885196883
 20
105.8130751074715
 30
0.0
 10
231.75893144126
 20
105.937197514299
 30
0.0
 10
231.7578002687538
 20
106.0228995402871
 30
0.0
 10
231.7572154766733
 20
106.0672056614141
 30
0.0
  0
SPLINE
  5
1ED
330
1F
100
AcDbEntity
  8
0
  6
SLD-SOLID
 62
     7
100
AcDbSpline
210
0.0
220
0.0
230
1.0
 70
     8
 71
     3
 72
    23
 73
    19
 74
     0
 42
0.000000001
 43
0.00000001
 40
0.0
 40
0.0
 40
0.0
 40
0.0
 40
0.0914072369269556
 40
0.1766411179085062
 40
0.2561617773375919
 40
0.329702547505299
 40
0.3981326595607566
 40
0.4614147486825464
 40
0.5201907225520733
 40
0.5750949351457791
 40
0.6271223329766319
 40
0.6777301011362217
 40
0.7276094883997966
 40
0.7779011121402818
 40
0.8296305654851194
 40
0.8834447804353315
 40
0.9399298216911767
 40
1.0
 40
1.0
 40
1.0
 40
1.0
 10
233.187671453071
 20
106.0696439386465
 30
0.0
 10
233.1871390217321
 20
106.0246576433564
 30
0.0
 10
233.1861101177846
 20
105.9377232850082
 30
0.0
 10
233.177862827057
 20
105.8118740230904
 30
0.0
 10
233.1648964050832
 20
105.6952750457404
 30
0.0
 10
233.1459694390428
 20
105.5878346604876
 30
0.0
 10
233.1211891962894
 20
105.4898354276201
 30
0.0
 10
233.0919335006866
 20
105.4006590318811
 30
0.0
 10
233.0566244132189
 20
105.3208793804787
 30
0.0
 10
233.0155292738023
 20
105.2502077741512
 30
0.0
 10
232.9681823699295
 20
105.1885832603298
 30
0.0
 10
232.9156679751736
 20
105.134658205873
 30
0.0
 10
232.8564206194437
 20
105.089529005582
 30
0.0
 10
232.7910861139664
 20
105.0528074505186
 30
0.0
 10
232.7199135288469
 20
105.0236382207023
 30
0.0
 10
232.6425208207597
 20
105.0037039084494
 30
0.0
 10
232.5594097972903
 20
104.9912012371284
 30
0.0
 10
232.5020206556846
 20
104.9898019230121
 30
0.0
 10
232.4724434648721
 20
104.989080745112
 30
0.0
  0
SPLINE
  5
1EE
330
1F
100
AcDbEntity
  8
0
  6
SLD-SOLID
 62
     7
100
AcDbSpline
210
0.0
220
0.0
230
1.0
 70
     8
 71
     3
 72
    23
 73
    19
 74
     0
 42
0.000000001
 43
0.00000001
 40
0.0
 40
0.0
 40
0.0
 40
0.0
 40
0.0610360235752138
 40
0.1185111144595317
 40
0.1731258378212023
 40
0.2253349020485208
 40
0.2761557307410261
 40
0.3266572709749726
 40
0.3779751895595523
 40
0.4308974413397409
 40
0.4863702555085642
 40
0.5456756637640778
 40
0.6087552048826698
 40
0.6767411704922491
 40
0.749317240213279
 40
0.8273775877960802
 40
0.910863762528566
 40
1.0
 40
1.0
 40
1.0
 40
1.0
 10
232.4724434648721
 20
107.1477688549486
 30
0.0
 10
232.5024263673531
 20
107.1470685530226
 30
0.0
 10
232.5606429250449
 20
107.14570880583
 30
0.0
 10
232.6449234390893
 20
107.1329119668578
 30
0.0
 10
232.7229646112714
 20
107.11188531521
 30
0.0
 10
232.7949020522364
 20
107.0826662916218
 30
0.0
 10
232.8601278671427
 20
107.0443862148899
 30
0.0
 10
232.9193059693425
 20
106.9980427204675
 30
0.0
 10
232.9721695433283
 20
106.9431009737336
 30
0.0
 10
233.0181144790122
 20
106.8792922268647
 30
0.0
 10
233.0585592717029
 20
106.8074059176721
 30
0.0
 10
233.0933331648337
 20
106.7271397633022
 30
0.0
 10
233.1223675093809
 20
106.6381936538552
 30
0.0
 10
233.1467155180026
 20
106.5411337757336
 30
0.0
 10
233.165108438175
 20
106.4353020850862
 30
0.0
 10
233.1784313738932
 20
106.3210755532914
 30
0.0
 10
233.18593750083
 20
106.1981605383909
 30
0.0
 10
233.1870809931992
 20
106.1134074825372
 30
0.0
 10
233.187671453071
 20
106.0696439386465
 30
0.0
  0
LINE
  5
1EF
330
1F
100
AcDbEntity
  8
0
  6
SLD-SOLID
 62
     7
100
AcDbLine
 10
201.7586858503
 20
132.7077247319
 30
0.0
 11
201.5586861901
 21
132.7077247319
 31
0.0
  0
LINE
  5
1F0
330
1F
100
AcDbEntity
  8
0
  6
SLD-SOLID
 62
     7
100
AcDbLine
 10
201.7586858503
 20
132.9077243921
 30
0.0
 11
201.5586861901
 21
132.7077247319
 31
0.0
  0
LINE
  5
1F1
330
1F
100
AcDbEntity
  8
0
  6
SLD-SOLID
 62
     7
100
AcDbLine
 10
201.7586858503
 20
132.9077243921
 30
0.0
 11
201.7586858503
 21
132.7077247319
 31
0.0
  0
LINE
  5
1F2
330
1F
100
AcDbEntity
  8
0
  6
SLD-SOLID
 62
     7
100
AcDbLine
 10
201.7586858503
 20
82.3077246663
 30
0.0
 11
201.5586861901
 21
82.3077246663
 31
0.0
  0
LINE
  5
1F3
330
1F
100
AcDbEntity
  8
0
  6
SLD-SOLID
 62
     7
100
AcDbLine
 10
201.5586861901
 20
82.3077246663
 30
0.0
 11
201.5586861901
 21
132.7077247319
 31
0.0
  0
LINE
  5
1F4
330
1F
100
AcDbEntity
  8
0
  6
SLD-SOLID
 62
     7
100
AcDbLine
 10
201.7586858503
 20
132.9077243921
 30
0.0
 11
252.1586859159
 21
132.9077243921
 31
0.0
  0
LINE
  5
1F5
330
1F
100
AcDbEntity
  8
0
  6
SLD-SOLID
 62
     7
100
AcDbLine
 10
252.1586859159
 20
132.9077243921
 30
0.0
 11
252.1586859159
 21
132.7077247319
 31
0.0
  0
LINE
  5
1F6
330
1F
100
AcDbEntity
  8
0
  6
SLD-SOLID
 62
     7
100
AcDbLine
 10
201.7586858503
 20
82.3077246663
 30
0.0
 11
201.7586858503
 21
82.107725006
 31
0.0
  0
LINE
  5
1F7
330
1F
100
AcDbEntity
  8
0
  6
SLD-SOLID
 62
     7
100
AcDbLine
 10
201.5586861901
 20
82.3077246663
 30
0.0
 11
201.7586858503
 21
82.107725006
 31
0.0
  0
LINE
  5
1F8
330
1F
100
AcDbEntity
  8
0
  6
SLD-SOLID
 62
     7
100
AcDbLine
 10
252.3586855762
 20
132.7077247319
 30
0.0
 11
252.1586859159
 21
132.7077247319
 31
0.0
  0
LINE
  5
1F9
330
1F
100
AcDbEntity
  8
0
  6
SLD-SOLID
 62
     7
100
AcDbLine
 10
252.3586855762
 20
132.7077247319
 30
0.0
 11
252.1586859159
 21
132.9077243921
 31
0.0
  0
LINE
  5
1FA
330
1F
100
AcDbEntity
  8
0
  6
SLD-SOLID
 62
     7
100
AcDbLine
 10
252.1586859159
 20
82.3077246663
 30
0.0
 11
252.1586859159
 21
82.107725006
 31
0.0
  0
LINE
  5
1FB
330
1F
100
AcDbEntity
  8
0
  6
SLD-SOLID
 62
     7
100
AcDbLine
 10
252.1586859159
 20
82.107725006
 30
0.0
 11
201.7586858503
 21
82.107725006
 31
0.0
  0
LINE
  5
1FC
330
1F
100
AcDbEntity
  8
0
  6
SLD-SOLID
 62
     7
100
AcDbLine
 10
252.3586855762
 20
132.7077247319
 30
0.0
 11
252.3586855762
 21
82.3077246663
 31
0.0
  0
LINE
  5
1FD
330
1F
100
AcDbEntity
  8
0
  6
SLD-SOLID
 62
     7
100
AcDbLine
 10
252.3586855762
 20
82.3077246663
 30
0.0
 11
252.1586859159
 21
82.3077246663
 31
0.0
  0
LINE
  5
1FE
330
1F
100
AcDbEntity
  8
0
  6
SLD-SOLID
 62
     7
100
AcDbLine
 10
252.3586855762
 20
82.3077246663
 30
0.0
 11
252.1586859159
 21
82.107725006
 31
0.0
  0
SPLINE
  5
1FF
330
1F
100
AcDbEntity
  8
0
  6
SLD-SOLID
 62
     7
100
AcDbSpline
210
0.0
220
0.0
230
1.0
 70
     8
 71
     3
 72
    23
 73
    19
 74
     0
 42
0.000000001
 43
0.00000001
 40
0.0
 40
0.0
 40
0.0
 40
0.0
 40
0.0809888703979177
 40
0.1578866642454555
 40
0.2300425159408054
 40
0.2988473708066465
 40
0.364117444165082
 40
0.4268878897575072
 40
0.4869693325819693
 40
0.5457286938124095
 40
0.6028188634391741
 40
0.6582693192192547
 40
0.7131089500802867
 40
0.7677349198932854
 40
0.8229031265946571
 40
0.8795357212322894
 40
0.9383892794248829
 40
1.0
 40
1.0
 40
1.0
 40
1.0
 10
224.9040309352044
 20
109.0187133104732
 30
0.0
 10
224.9034696443426
 20
109.0515101934703
 30
0.0
 10
224.9023754156984
 20
109.1154472557926
 30
0.0
 10
224.8943534315262
 20
109.2083450702922
 30
0.0
 10
224.880554336016
 20
109.2955432198916
 30
0.0
 10
224.8613481765375
 20
109.3769285222102
 30
0.0
 10
224.8358611839186
 20
109.4525437830962
 30
0.0
 10
224.8058637434403
 20
109.5227107587037
 30
0.0
 10
224.7691275379081
 20
109.5865795049514
 30
0.0
 10
224.7279434365398
 20
109.6448658110894
 30
0.0
 10
224.681465631727
 20
109.6965539966121
 30
0.0
 10
224.6308213018081
 20
109.7418534695996
 30
0.0
 10
224.5755292103321
 20
109.7795706681491
 30
0.0
 10
224.5167718095462
 20
109.8113717299102
 30
0.0
 10
224.4535749725967
 20
109.835358144326
 30
0.0
 10
224.3864619048433
 20
109.8522029736254
 30
0.0
 10
224.31541751897
 20
109.8632740581444
 30
0.0
 10
224.2665998076978
 20
109.8642806796966
 30
0.0
 10
224.241632287043
 20
109.8647955101494
 30
0.0
  0
SPLINE
  5
200
330
1F
100
AcDbEntity
  8
0
  6
SLD-SOLID
 62
     7
100
AcDbSpline
210
0.0
220
0.0
230
1.0
 70
     8
 71
     3
 72
    23
 73
    19
 74
     0
 42
0.000000001
 43
0.00000001
 40
0.0
 40
0.0
 40
0.0
 40
0.0
 40
0.0621758982186109
 40
0.1212622118067597
 40
0.1781245096613923
 40
0.2335132525089258
 40
0.2883433983195866
 40
0.3430921151912617
 40
0.3984506443469744
 40
0.4554461690063619
 40
0.5141081180577329
 40
0.5739251649583389
 40
0.6365915487339191
 40
0.7016480629930028
 40
0.7703388521048486
 40
0.8423750827117619
 40
0.9191453942057234
 40
1.0
 40
1.0
 40
1.0
 40
1.0
 10
224.241632287043
 20
109.8647955101494
 30
0.0
 10
224.2163936184763
 20
109.8642866785148
 30
0.0
 10
224.1671704168639
 20
109.8632942996155
 30
0.0
 10
224.0955885287213
 20
109.8522009765644
 30
0.0
 10
224.0280685436726
 20
109.8353627219618
 30
0.0
 10
223.964481061327
 20
109.8113600197874
 30
0.0
 10
223.9053686517376
 20
109.7796866011432
 30
0.0
 10
223.8500143330623
 20
109.7418393030402
 30
0.0
 10
223.7993507539679
 20
109.6965619675839
 30
0.0
 10
223.7529142082598
 20
109.6448478210189
 30
0.0
 10
223.7116177477117
 20
109.5867003761332
 30
0.0
 10
223.675491069048
 20
109.5225723916779
 30
0.0
 10
223.6452265047932
 20
109.4526447568238
 30
0.0
 10
223.6204317899593
 20
109.3768344815306
 30
0.0
 10
223.6010412741421
 20
109.2955583214001
 30
0.0
 10
223.5872982893849
 20
109.2083406680157
 30
0.0
 10
223.5792601885074
 20
109.1154484555931
 30
0.0
 10
223.5781682413082
 20
109.0515106002532
 30
0.0
 10
223.5776081207266
 20
109.0187133104732
 30
0.0
  0
SPLINE
  5
201
330
1F
100
AcDbEntity
  8
0
  6
SLD-SOLID
 62
     7
100
AcDbSpline
210
0.0
220
0.0
230
1.0
 70
     8
 71
     3
 72
    23
 73
    19
 74
     0
 42
0.000000001
 43
0.00000001
 40
0.0
 40
0.0
 40
0.0
 40
0.0
 40
0.082012912966411
 40
0.1589601266669503
 40
0.2317952858540716
 40
0.3010215657275456
 40
0.3663082626841795
 40
0.4289232692690997
 40
0.4891865274402118
 40
0.5478120773723745
 40
0.6048736360705036
 40
0.6603684860675251
 40
0.7150329524914525
 40
0.7693604753325475
 40
0.8242303999589778
 40
0.8805533304733976
 40
0.9390421693280478
 40
1.0
 40
1.0
 40
1.0
 40
1.0
 10
223.5776081207266
 20
109.0187133104732
 30
0.0
 10
223.5781002404838
 20
108.9855034450744
 30
0.0
 10
223.5790540831911
 20
108.9211349911389
 30
0.0
 10
223.5879406167735
 20
108.8276379522848
 30
0.0
 10
223.6012594374085
 20
108.739908508049
 30
0.0
 10
223.6212248695433
 20
108.6582654838372
 30
0.0
 10
223.6463592643522
 20
108.5824241026027
 30
0.0
 10
223.6771934467339
 20
108.5126232368279
 30
0.0
 10
223.7138636542099
 20
108.4487836636678
 30
0.0
 10
223.7561871509254
 20
108.3912839886095
 30
0.0
 10
223.8035341079054
 20
108.3405099046873
 30
0.0
 10
223.854449508091
 20
108.2956914766025
 30
0.0
 10
223.9096475909738
 20
108.2581246298574
 30
0.0
 10
223.9686541146517
 20
108.2275275677744
 30
0.0
 10
224.0312758043962
 20
108.2032507458675
 30
0.0
 10
224.0979885884248
 20
108.1863301210799
 30
0.0
 10
224.1685613744952
 20
108.1759339653952
 30
0.0
 10
224.2169419699543
 20
108.1748233930338
 30
0.0
 10
224.241632287043
 20
108.1742566289521
 30
0.0
  0
SPLINE
  5
202
330
1F
100
AcDbEntity
  8
0
  6
SLD-SOLID
 62
     7
100
AcDbSpline
210
0.0
220
0.0
230
1.0
 70
     8
 71
     3
 72
    23
 73
    19
 74
     0
 42
0.000000001
 43
0.00000001
 40
0.0
 40
0.0
 40
0.0
 40
0.0
 40
0.0610171585840671
 40
0.1192314497396612
 40
0.1756091971961346
 40
0.230532524609871
 40
0.2849129223394754
 40
0.339354141931375
 40
0.3949030029315307
 40
0.4517927951807841
 40
0.5104754031059191
 40
0.5706306378896772
 40
0.6333065852522923
 40
0.6987640244427148
 40
0.7679791167092035
 40
0.8408851635554743
 40
0.9179072670196686
 40
1.0
 40
1.0
 40
1.0
 40
1.0
 10
224.241632287043
 20
108.1742566289521
 30
0.0
 10
224.2663238795542
 20
108.1748146116563
 30
0.0
 10
224.3145728383686
 20
108.1759049457245
 30
0.0
 10
224.3849965353453
 20
108.1863801520473
 30
0.0
 10
224.4515870697574
 20
108.2032409748179
 30
0.0
 10
224.5141889812285
 20
108.2275496447108
 30
0.0
 10
224.5731664733318
 20
108.2579950066001
 30
0.0
 10
224.6280183061948
 20
108.2958528163099
 30
0.0
 10
224.6789476782822
 20
108.3403525733746
 30
0.0
 10
224.725803263922
 20
108.391453306471
 30
0.0
 10
224.7682650561464
 20
108.4486469775022
 30
0.0
 10
224.8043917559866
 20
108.5127444558069
 30
0.0
 10
224.8351711953341
 20
108.5824943731983
 30
0.0
 10
224.8610638045704
 20
108.658119382524
 30
0.0
 10
224.8801978438514
 20
108.7399879209935
 30
0.0
 10
224.8937523692973
 20
108.8276240834435
 30
0.0
 10
224.9025701213731
 20
108.9211388103622
 30
0.0
 10
224.9035337609239
 20
108.9855047449112
 30
0.0
 10
224.9040309352044
 20
109.0187133104732
 30
0.0
  0
SPLINE
  5
203
330
1F
100
AcDbEntity
  8
0
  6
SLD-SOLID
 62
     7
100
AcDbSpline
210
0.0
220
0.0
230
1.0
 70
     8
 71
     3
 72
    15
 73
    11
 74
     0
 42
0.000000001
 43
0.00000001
 40
0.0
 40
0.0
 40
0.0
 40
0.0
 40
0.1356710519307709
 40
0.2660335683250638
 40
0.3888289124462851
 40
0.5089869504386766
 40
0.6268374756191906
 40
0.7465047924043874
 40
0.8703604505951892
 40
1.0
 40
1.0
 40
1.0
 40
1.0
 10
226.6725946878416
 20
109.4669499417138
 30
0.0
 10
226.6721716676076
 20
109.4813234666916
 30
0.0
 10
226.6713421790709
 20
109.5095081095086
 30
0.0
 10
226.6658428277417
 20
109.5504529708759
 30
0.0
 10
226.6557673835422
 20
109.5887670957465
 30
0.0
 10
226.6426820513582
 20
109.6247857672439
 30
0.0
 10
226.6244712104244
 20
109.6581871991647
 30
0.0
 10
226.6015324664175
 20
109.6889947581596
 30
0.0
 10
226.5732355549617
 20
109.7168901699884
 30
0.0
 10
226.5513218225319
 20
109.7324737826597
 30
0.0
 10
226.5401149582093
 20
109.7404433712921
 30
0.0
  0
SPLINE
  5
204
330
1F
100
AcDbEntity
  8
0
  6
SLD-SOLID
 62
     7
100
AcDbSpline
210
0.0
220
0.0
230
1.0
 70
     8
 71
     3
 72
    15
 73
    11
 74
     0
 42
0.000000001
 43
0.00000001
 40
0.0
 40
0.0
 40
0.0
 40
0.0
 40
0.1054324257577908
 40
0.2126926066359902
 40
0.3256640625299876
 40
0.442821963509667
 40
0.5669158351674671
 40
0.7017792760429933
 40
0.8456966330967292
 40
1.0
 40
1.0
 40
1.0
 40
1.0
 10
226.5401149582093
 20
109.7404433712921
 30
0.0
 10
226.5299589295802
 20
109.7469240013301
 30
0.0
 10
226.5094708094722
 20
109.7599976082923
 30
0.0
 10
226.4755035239193
 20
109.7753515996282
 30
0.0
 10
226.4390717404383
 20
109.7880092520317
 30
0.0
 10
226.3996024915345
 20
109.7969859667737
 30
0.0
 10
226.3573307817053
 20
109.8046238424945
 30
0.0
 10
226.3115239950587
 20
109.808966773248
 30
0.0
 10
226.2622093248632
 20
109.8126128213196
 30
0.0
 10
226.2281591601461
 20
109.8127222891031
 30
0.0
 10
226.2105411522836
 20
109.8127789291895
 30
0.0
  0
LINE
  5
205
330
1F
100
AcDbEntity
  8
0
  6
SLD-SOLID
 62
     7
100
AcDbLine
 10
226.2105411294
 20
109.8127790377
 30
0.0
 11
225.8923459824
 21
109.8127790377
 31
0.0
  0
LINE
  5
206
330
1F
100
AcDbEntity
  8
0
  6
SLD-SOLID
 62
     7
100
AcDbLine
 10
225.8923459824
 20
109.8127790377
 30
0.0
 11
225.8923459824
 21
109.0325302561
 31
0.0
  0
LINE
  5
207
330
1F
100
AcDbEntity
  8
0
  6
SLD-SOLID
 62
     7
100
AcDbLine
 10
225.8923459824
 20
109.0325302561
 30
0.0
 11
226.165839392
 21
109.0325302561
 31
0.0
  0
SPLINE
  5
208
330
1F
100
AcDbEntity
  8
0
  6
SLD-SOLID
 62
     7
100
AcDbSpline
210
0.0
220
0.0
230
1.0
 70
     8
 71
     3
 72
    15
 73
    11
 74
     0
 42
0.000000001
 43
0.00000001
 40
0.0
 40
0.0
 40
0.0
 40
0.0
 40
0.1513319284937301
 40
0.2930698672949625
 40
0.4247940391227074
 40
0.548705003524648
 40
0.6656715592400183
 40
0.7790172397877805
 40
0.8895904654055438
 40
1.0
 40
1.0
 40
1.0
 40
1.0
 10
226.1658394030211
 20
109.0325302147907
 30
0.0
 10
226.1865678382528
 20
109.0329111063966
 30
0.0
 10
226.226710588187
 20
109.0336487422247
 30
0.0
 10
226.2848458246261
 20
109.0373427091205
 30
0.0
 10
226.338749586151
 20
109.045069995188
 30
0.0
 10
226.3890756951494
 20
109.05403066875
 30
0.0
 10
226.4354794776135
 20
109.0686055345881
 30
0.0
 10
226.4785383777278
 20
109.0869712901007
 30
0.0
 10
226.5176030850363
 20
109.111297759797
 30
0.0
 10
226.5407443051446
 20
109.1308555304128
 30
0.0
 10
226.5523063443718
 20
109.140627172098
 30
0.0
  0
SPLINE
  5
209
330
1F
100
AcDbEntity
  8
0
  6
SLD-SOLID
 62
     7
100
AcDbSpline
210
0.0
220
0.0
230
1.0
 70
     8
 71
     3
 72
    15
 73
    11
 74
     0
 42
0.000000001
 43
0.00000001
 40
0.0
 40
0.0
 40
0.0
 40
0.0
 40
0.1170339869329161
 40
0.2303551988589828
 40
0.3426861898780817
 40
0.4547596653596036
 40
0.5726627487835118
 40
0.7022310727779928
 40
0.8446465788022212
 40
1.0
 40
1.0
 40
1.0
 40
1.0
 10
226.5523063443718
 20
109.140627172098
 30
0.0
 10
226.5621906620151
 20
109.1505528150077
 30
0.0
 10
226.5816457281544
 20
109.1700892206808
 30
0.0
 10
226.6059772455903
 20
109.2031955692535
 30
0.0
 10
226.6269567469325
 20
109.237750012285
 30
0.0
 10
226.6439271208517
 20
109.2750981272625
 30
0.0
 10
226.6570837904856
 20
109.3161066518492
 30
0.0
 10
226.6663269390841
 20
109.361879674856
 30
0.0
 10
226.6713172668642
 20
109.4127908642643
 30
0.0
 10
226.6721567228641
 20
109.4483814513269
 30
0.0
 10
226.6725946878416
 20
109.4669499417138
 30
0.0
  0
LINE
  5
20A
330
1F
100
AcDbEntity
  8
0
  6
SLD-SOLID
 62
     7
100
AcDbLine
 10
230.1906222503
 20
108.7984555983
 30
0.0
 11
229.8195977721
 21
109.8310660221
 31
0.0
  0
LINE
  5
20B
330
1F
100
AcDbEntity
  8
0
  6
SLD-SOLID
 62
     7
100
AcDbLine
 10
229.8195977721
 20
109.8310660221
 30
0.0
 11
229.4473541926
 21
108.7984555983
 31
0.0
  0
LINE
  5
20C
330
1F
100
AcDbEntity
  8
0
  6
SLD-SOLID
 62
     7
100
AcDbLine
 10
229.4473541926
 20
108.7984555983
 30
0.0
 11
230.1906222503
 21
108.7984555983
 31
0.0
  0
SPLINE
  5
20D
330
1F
100
AcDbEntity
  8
0
  6
SLD-SOLID
 62
     7
100
AcDbSpline
210
0.0
220
0.0
230
1.0
 70
     8
 71
     3
 72
    15
 73
    11
 74
     0
 42
0.000000001
 43
0.00000001
 40
0.0
 40
0.0
 40
0.0
 40
0.0
 40
0.146860154005017
 40
0.2816102318634016
 40
0.4075522463742784
 40
0.5266292304530837
 40
0.6425611015189946
 40
0.7563519253393437
 40
0.8765532127820475
 40
1.0
 40
1.0
 40
1.0
 40
1.0
 10
232.1343356886327
 20
109.5470067108474
 30
0.0
 10
232.134014921339
 20
109.5590766103835
 30
0.0
 10
232.1333998371961
 20
109.5822211265387
 30
0.0
 10
232.1289804528274
 20
109.6154932865887
 30
0.0
 10
232.121345829306
 20
109.6458367734866
 30
0.0
 10
232.1102475983793
 20
109.6734390302089
 30
0.0
 10
232.0960291745128
 20
109.6984425573397
 30
0.0
 10
232.0780648245649
 20
109.7210377692456
 30
0.0
 10
232.0561943873224
 20
109.7408921775745
 30
0.0
 10
232.0392791726476
 20
109.7516529015827
 30
0.0
 10
232.0307089062516
 20
109.7571049323808
 30
0.0
  0
SPLINE
  5
20E
330
1F
100
AcDbEntity
  8
0
  6
SLD-SOLID
 62
     7
100
AcDbSpline
210
0.0
220
0.0
230
1.0
 70
     8
 71
     3
 72
    15
 73
    11
 74
     0
 42
0.000000001
 43
0.00000001
 40
0.0
 40
0.0
 40
0.0
 40
0.0
 40
0.0970601489001738
 40
0.1980615496336306
 40
0.3053661453037026
 40
0.4191368020036264
 40
0.5437409762099218
 40
0.6816654513080895
 40
0.8340935330739949
 40
1.0
 40
1.0
 40
1.0
 40
1.0
 10
232.0307089062516
 20
109.7571049323808
 30
0.0
 10
232.0195998674078
 20
109.7630862562118
 30
0.0
 10
231.9969306929497
 20
109.7752917831996
 30
0.0
 10
231.9593966120111
 20
109.7884857756456
 30
0.0
 10
231.9186740649488
 20
109.7982582474986
 30
0.0
 10
231.8740997474502
 20
109.8039313624601
 30
0.0
 10
231.8254054027798
 20
109.8078799114723
 30
0.0
 10
231.7715940470735
 20
109.8105210784607
 30
0.0
 10
231.7123973261611
 20
109.8128115241315
 30
0.0
 10
231.6710657059342
 20
109.8127900965865
 30
0.0
 10
231.6495248989047
 20
109.8127789291895
 30
0.0
  0
LINE
  5
20F
330
1F
100
AcDbEntity
  8
0
  6
SLD-SOLID
 62
     7
100
AcDbLine
 10
231.6495248608
 20
109.8127790377
 30
0.0
 11
231.3280788742
 21
109.8127790377
 31
0.0
  0
LINE
  5
210
330
1F
100
AcDbEntity
  8
0
  6
SLD-SOLID
 62
     7
100
AcDbLine
 10
231.3280788742
 20
109.8127790377
 30
0.0
 11
231.3280788742
 21
109.2145882197
 31
0.0
  0
LINE
  5
211
330
1F
100
AcDbEntity
  8
0
  6
SLD-SOLID
 62
     7
100
AcDbLine
 10
231.3280788742
 20
109.2145882197
 30
0.0
 11
231.6767525419
 21
109.2145882197
 31
0.0
  0
SPLINE
  5
212
330
1F
100
AcDbEntity
  8
0
  6
SLD-SOLID
 62
     7
100
AcDbSpline
210
0.0
220
0.0
230
1.0
 70
     8
 71
     3
 72
    15
 73
    11
 74
     0
 42
0.000000001
 43
0.00000001
 40
0.0
 40
0.0
 40
0.0
 40
0.0
 40
0.1705461607113629
 40
0.3227980535782387
 40
0.4569528983495535
 40
0.5732999800301544
 40
0.6797865754272859
 40
0.7869133329702883
 40
0.8920952960122773
 40
1.0
 40
1.0
 40
1.0
 40
1.0
 10
231.676752328001
 20
109.2145882481504
 30
0.0
 10
231.6968027441566
 20
109.2147279318505
 30
0.0
 10
231.7347527940522
 20
109.2149923155592
 30
0.0
 10
231.7884389934316
 20
109.2173631844589
 30
0.0
 10
231.8356252705521
 20
109.2213547707388
 30
0.0
 10
231.8772858211608
 20
109.2267402985499
 30
0.0
 10
231.9151406118526
 20
109.2355383744683
 30
0.0
 10
231.9506549198029
 20
109.2476724330139
 30
0.0
 10
231.9850272798145
 20
109.263244783441
 30
0.0
 10
232.0064501033377
 20
109.2762661409247
 30
0.0
 10
232.0172983814729
 20
109.2828600106603
 30
0.0
  0
SPLINE
  5
213
330
1F
100
AcDbEntity
  8
0
  6
SLD-SOLID
 62
     7
100
AcDbSpline
210
0.0
220
0.0
230
1.0
 70
     8
 71
     3
 72
    15
 73
    11
 74
     0
 42
0.000000001
 43
0.00000001
 40
0.0
 40
0.0
 40
0.0
 40
0.0
 40
0.1228317447002775
 40
0.2397191858425425
 40
0.3553248851169349
 40
0.4719261308575469
 40
0.5926220243177089
 40
0.7207504018399241
 40
0.8561034390449856
 40
1.0
 40
1.0
 40
1.0
 40
1.0
 10
232.0172983814729
 20
109.2828600106603
 30
0.0
 10
232.0274365610391
 20
109.2900072699317
 30
0.0
 10
232.0472222944216
 20
109.3039559049343
 30
0.0
 10
232.0723222107938
 20
109.3297636968428
 30
0.0
 10
232.093064225987
 20
109.3583839623816
 30
0.0
 10
232.1083126441079
 20
109.3906927578654
 30
0.0
 10
232.1201408882902
 20
109.4256321976586
 30
0.0
 10
232.1286345059366
 20
109.4634885916998
 30
0.0
 10
232.1334490190432
 20
109.5043468507473
 30
0.0
 10
232.1340341646749
 20
109.5324996498071
 30
0.0
 10
232.1343356886327
 20
109.5470067108474
 30
0.0
  0
SPLINE
  5
214
330
1F
100
AcDbEntity
  8
0
  6
SLD-SOLID
 62
     7
100
AcDbSpline
210
0.0
220
0.0
230
1.0
 70
     8
 71
     3
 72
    15
 73
    11
 74
     0
 42
0.000000001
 43
0.00000001
 40
0.0
 40
0.0
 40
0.0
 40
0.0
 40
0.1511286081911614
 40
0.2874724646289028
 40
0.4096349574839746
 40
0.5194500515488306
 40
0.6272412738300438
 40
0.7408195775078311
 40
0.8641764089545709
 40
0.9999999999999999
 40
0.9999999999999999
 40
0.9999999999999999
 40
0.9999999999999999
 10
232.3163937219924
 20
108.6086763558752
 30
0.0
 10
232.3159311307701
 20
108.6280666977874
 30
0.0
 10
232.3150512031351
 20
108.6649504449893
 30
0.0
 10
232.3083811128544
 20
108.7172051630555
 30
0.0
 10
232.2967332778155
 20
108.7631193682644
 30
0.0
 10
232.2802801085008
 20
108.803684634067
 30
0.0
 10
232.2572189258824
 20
108.8396745635862
 30
0.0
 10
232.2268704558438
 20
108.8721124043882
 30
0.0
 10
232.1889802079571
 20
108.901659550409
 30
0.0
 10
232.1597915194967
 20
108.9176690117985
 30
0.0
 10
232.1444951771014
 20
108.9260587756384
 30
0.0
  0
SPLINE
  5
215
330
1F
100
AcDbEntity
  8
0
  6
SLD-SOLID
 62
     7
100
AcDbSpline
210
0.0
220
0.0
230
1.0
 70
     8
 71
     3
 72
    15
 73
    11
 74
     0
 42
0.000000001
 43
0.00000001
 40
0.0
 40
0.0
 40
0.0
 40
0.0
 40
0.0955161702706284
 40
0.1970565898426508
 40
0.3055517571330944
 40
0.4216157171813023
 40
0.5472795782555724
 40
0.6860150066494445
 40
0.8368737402452621
 40
1.0
 40
1.0
 40
1.0
 40
1.0
 10
232.1444951771014
 20
108.9260587756384
 30
0.0
 10
232.1330841659008
 20
108.9314601965044
 30
0.0
 10
232.1095424457138
 20
108.9426037083637
 30
0.0
 10
232.0709983589525
 20
108.9548547105986
 30
0.0
 10
232.0290489371437
 20
108.9647615275944
 30
0.0
 10
231.9831515137118
 20
108.9708612185624
 30
0.0
 10
231.9331001465561
 20
108.9751671824128
 30
0.0
 10
231.8783571962885
 20
108.9785116943166
 30
0.0
 10
231.8185850364269
 20
108.9798508906612
 30
0.0
 10
231.7771282294673
 20
108.9802870392709
 30
0.0
 10
231.7555899585183
 20
108.9805136338308
 30
0.0
  0
LINE
  5
216
330
1F
100
AcDbEntity
  8
0
  6
SLD-SOLID
 62
     7
100
AcDbLine
 10
231.7555899292
 20
108.9805136784
 30
0.0
 11
231.3280788742
 21
108.9805136784
 31
0.0
  0
LINE
  5
217
330
1F
100
AcDbEntity
  8
0
  6
SLD-SOLID
 62
     7
100
AcDbLine
 10
231.3280788742
 20
108.9805136784
 30
0.0
 11
231.3280788742
 21
108.2262731856
 31
0.0
  0
LINE
  5
218
330
1F
100
AcDbEntity
  8
0
  6
SLD-SOLID
 62
     7
100
AcDbLine
 10
231.3280788742
 20
108.2262731856
 30
0.0
 11
231.6881309755
 21
108.2262731856
 31
0.0
  0
SPLINE
  5
219
330
1F
100
AcDbEntity
  8
0
  6
SLD-SOLID
 62
     7
100
AcDbSpline
210
0.0
220
0.0
230
1.0
 70
     8
 71
     3
 72
    15
 73
    11
 74
     0
 42
0.000000001
 43
0.00000001
 40
0.0
 40
0.0
 40
0.0
 40
0.0
 40
0.1727545498319416
 40
0.3291788132110008
 40
0.4694868449241916
 40
0.5939622732543326
 40
0.706400099109239
 40
0.8112656049020815
 40
0.9085814076675979
 40
1.0
 40
1.0
 40
1.0
 40
1.0
 10
231.6881309550859
 20
108.226273209912
 30
0.0
 10
231.7165805344953
 20
108.2265236839233
 30
0.0
 10
231.7707903876971
 20
108.2270009549292
 30
0.0
 10
231.8480596726713
 20
108.2301036838363
 30
0.0
 10
231.9172331388926
 20
108.2356109077025
 30
0.0
 10
231.9788481082617
 20
108.2436622147485
 30
0.0
 10
232.0342030899865
 20
108.2543076640078
 30
0.0
 10
232.0838049507711
 20
108.2694556429099
 30
0.0
 10
232.128809192415
 20
108.2876370780245
 30
0.0
 10
232.1552553034916
 20
108.3040629693171
 30
0.0
 10
232.1680651903489
 20
108.3120192925881
 30
0.0
  0
SPLINE
  5
21A
330
1F
100
AcDbEntity
  8
0
  6
SLD-SOLID
 62
     7
100
AcDbSpline
210
0.0
220
0.0
230
1.0
 70
     8
 71
     3
 72
    15
 73
    11
 74
     0
 42
0.000000001
 43
0.00000001
 40
0.0
 40
0.0
 40
0.0
 40
0.0
 40
0.1299899983119072
 40
0.2523573263032184
 40
0.3686450647720558
 40
0.4799074241192084
 40
0.5945564336502938
 40
0.7178857443986448
 40
0.8526085068097672
 40
1.0
 40
1.0
 40
1.0
 40
1.0
 10
232.1680651903489
 20
108.3120192925881
 30
0.0
 10
232.180177112174
 20
108.3209923761122
 30
0.0
 10
232.2036907074341
 20
108.3384123576202
 30
0.0
 10
232.2348772770973
 20
108.3677936380939
 30
0.0
 10
232.2606862229821
 20
108.3992195185596
 30
0.0
 10
232.2816444481761
 20
108.4330202430502
 30
0.0
 10
232.2979052712217
 20
108.4702867848467
 30
0.0
 10
232.308375827067
 20
108.512310603009
 30
0.0
 10
232.3156227255821
 20
108.5588471205365
 30
0.0
 10
232.3161291427348
 20
108.5915766885907
 30
0.0
 10
232.3163937219924
 20
108.6086763558752
 30
0.0
  0
SPLINE
  5
21B
330
1F
100
AcDbEntity
  8
0
  6
SLD-SOLID
 62
     7
100
AcDbSpline
210
0.0
220
0.0
230
1.0
 70
     8
 71
     3
 72
    15
 73
    11
 74
     0
 42
0.000000001
 43
0.00000001
 40
0.0
 40
0.0
 40
0.0
 40
0.0
 40
0.1468601540050169
 40
0.2816102318634024
 40
0.4075522463742783
 40
0.5266292304530837
 40
0.6425611015189953
 40
0.7563519253393437
 40
0.8765532127820475
 40
1.0
 40
1.0
 40
1.0
 40
1.0
 10
220.1055013416522
 20
106.5959054413269
 30
0.0
 10
220.1051805743585
 20
106.607975340863
 30
0.0
 10
220.1045654902156
 20
106.6311198570183
 30
0.0
 10
220.1001461058469
 20
106.6643920170682
 30
0.0
 10
220.0925114823255
 20
106.6947355039662
 30
0.0
 10
220.0814132513988
 20
106.7223377606885
 30
0.0
 10
220.0671948275323
 20
106.7473412878193
 30
0.0
 10
220.0492304775844
 20
106.7699364997251
 30
0.0
 10
220.0273600403419
 20
106.789790908054
 30
0.0
 10
220.0104448256671
 20
106.8005516320622
 30
0.0
 10
220.0018745592711
 20
106.8060036628603
 30
0.0
  0
SPLINE
  5
21C
330
1F
100
AcDbEntity
  8
0
  6
SLD-SOLID
 62
     7
100
AcDbSpline
210
0.0
220
0.0
230
1.0
 70
     8
 71
     3
 72
    15
 73
    11
 74
     0
 42
0.000000001
 43
0.00000001
 40
0.0
 40
0.0
 40
0.0
 40
0.0
 40
0.0970601489001741
 40
0.1980615496336307
 40
0.3053661453037027
 40
0.4191368020036264
 40
0.5437409762099218
 40
0.6816654513080895
 40
0.8340935330739949
 40
1.0
 40
1.0
 40
1.0
 40
1.0
 10
220.0018745592711
 20
106.8060036628603
 30
0.0
 10
219.9907655204273
 20
106.8119849866914
 30
0.0
 10
219.9680963459693
 20
106.8241905136791
 30
0.0
 10
219.9305622650306
 20
106.8373845061251
 30
0.0
 10
219.8898397179683
 20
106.8471569779781
 30
0.0
 10
219.8452654004697
 20
106.8528300929397
 30
0.0
 10
219.7965710557993
 20
106.8567786419518
 30
0.0
 10
219.7427597000931
 20
106.8594198089403
 30
0.0
 10
219.6835629791806
 20
106.861710254611
 30
0.0
 10
219.6422313589537
 20
106.861688827066
 30
0.0
 10
219.6206905519243
 20
106.861677659669
 30
0.0
  0
SPLINE
  5
21D
330
1F
100
AcDbEntity
  8
0
  6
SLD-SOLID
 62
     7
100
AcDbSpline
210
0.0
220
0.0
230
1.0
 70
     8
 71
     3
 72
    15
 73
    11
 74
     0
 42
0.000000001
 43
0.00000001
 40
0.0
 40
0.0
 40
0.0
 40
0.0
 40
0.1705461607113629
 40
0.3227980535782387
 40
0.4569528983495535
 40
0.5732999800301544
 40
0.6797865754272859
 40
0.786913332970288
 40
0.892095296012277
 40
1.0
 40
1.0
 40
1.0
 40
1.0
 10
219.6479179810205
 20
106.26348697863
 30
0.0
 10
219.6679683971761
 20
106.26362666233
 30
0.0
 10
219.7059184470717
 20
106.2638910460388
 30
0.0
 10
219.7596046464511
 20
106.2662619149385
 30
0.0
 10
219.8067909235716
 20
106.2702535012184
 30
0.0
 10
219.8484514741803
 20
106.2756390290295
 30
0.0
 10
219.8863062648721
 20
106.2844371049479
 30
0.0
 10
219.9218205728224
 20
106.2965711634935
 30
0.0
 10
219.956192932834
 20
106.3121435139205
 30
0.0
 10
219.9776157563572
 20
106.3251648714042
 30
0.0
 10
219.9884640344924
 20
106.3317587411399
 30
0.0
  0
LINE
  5
21E
330
1F
100
AcDbEntity
  8
0
  6
SLD-SOLID
 62
     7
100
AcDbLine
 10
219.6206905439
 20
106.8616776378
 30
0.0
 11
219.2992445573
 21
106.8616776378
 31
0.0
  0
LINE
  5
21F
330
1F
100
AcDbEntity
  8
0
  6
SLD-SOLID
 62
     7
100
AcDbLine
 10
219.2992445573
 20
106.8616776378
 30
0.0
 11
219.2992445573
 21
106.2634869362
 31
0.0
  0
LINE
  5
220
330
1F
100
AcDbEntity
  8
0
  6
SLD-SOLID
 62
     7
100
AcDbLine
 10
219.2992445573
 20
106.2634869362
 30
0.0
 11
219.6479177594
 21
106.2634869362
 31
0.0
  0
SPLINE
  5
221
330
1F
100
AcDbEntity
  8
0
  6
SLD-SOLID
 62
     7
100
AcDbSpline
210
0.0
220
0.0
230
1.0
 70
     8
 71
     3
 72
    15
 73
    11
 74
     0
 42
0.000000001
 43
0.00000001
 40
0.0
 40
0.0
 40
0.0
 40
0.0
 40
0.1228317447002776
 40
0.2397191858425421
 40
0.3553248851169352
 40
0.4719261308575472
 40
0.5926220243177087
 40
0.7207504018399246
 40
0.8561034390449856
 40
1.0
 40
1.0
 40
1.0
 40
1.0
 10
219.9884640344924
 20
106.3317587411399
 30
0.0
 10
219.9986022140586
 20
106.3389060004113
 30
0.0
 10
220.0183879474411
 20
106.3528546354139
 30
0.0
 10
220.0434878638133
 20
106.3786624273224
 30
0.0
 10
220.0642298790065
 20
106.4072826928611
 30
0.0
 10
220.0794782971274
 20
106.4395914883449
 30
0.0
 10
220.0913065413097
 20
106.4745309281382
 30
0.0
 10
220.0998001589562
 20
106.5123873221793
 30
0.0
 10
220.1046146720627
 20
106.5532455812268
 30
0.0
 10
220.1051998176944
 20
106.5813983802867
 30
0.0
 10
220.1055013416522
 20
106.5959054413269
 30
0.0
  0
LINE
  5
222
330
1F
100
AcDbEntity
  8
0
  6
SLD-SOLID
 62
     7
100
AcDbLine
 10
219.7267556123
 20
106.0294123948
 30
0.0
 11
219.2992445573
 21
106.0294123948
 31
0.0
  0
LINE
  5
223
330
1F
100
AcDbEntity
  8
0
  6
SLD-SOLID
 62
     7
100
AcDbLine
 10
219.2992445573
 20
106.0294123948
 30
0.0
 11
219.2992445573
 21
105.2751719602
 31
0.0
  0
SPLINE
  5
224
330
1F
100
AcDbEntity
  8
0
  6
SLD-SOLID
 62
     7
100
AcDbSpline
210
0.0
220
0.0
230
1.0
 70
     8
 71
     3
 72
    15
 73
    11
 74
     0
 42
0.000000001
 43
0.00000001
 40
0.0
 40
0.0
 40
0.0
 40
0.0
 40
0.1511286081911614
 40
0.2874724646289033
 40
0.4096349574839744
 40
0.519450051548831
 40
0.6272412738300441
 40
0.740819577507831
 40
0.8641764089545707
 40
1.0
 40
1.0
 40
1.0
 40
1.0
 10
220.2875593750119
 20
105.6575750863547
 30
0.0
 10
220.2870967837896
 20
105.6769654282669
 30
0.0
 10
220.2862168561546
 20
105.7138491754688
 30
0.0
 10
220.2795467658739
 20
105.766103893535
 30
0.0
 10
220.267898930835
 20
105.8120180987439
 30
0.0
 10
220.2514457615203
 20
105.8525833645466
 30
0.0
 10
220.2283845789019
 20
105.8885732940658
 30
0.0
 10
220.1980361088633
 20
105.9210111348678
 30
0.0
 10
220.1601458609767
 20
105.9505582808885
 30
0.0
 10
220.1309571725162
 20
105.9665677422781
 30
0.0
 10
220.115660830121
 20
105.9749575061179
 30
0.0
  0
SPLINE
  5
225
330
1F
100
AcDbEntity
  8
0
  6
SLD-SOLID
 62
     7
100
AcDbSpline
210
0.0
220
0.0
230
1.0
 70
     8
 71
     3
 72
    15
 73
    11
 74
     0
 42
0.000000001
 43
0.00000001
 40
0.0
 40
0.0
 40
0.0
 40
0.0
 40
0.0955161702706284
 40
0.1970565898426509
 40
0.3055517571330945
 40
0.4216157171813024
 40
0.5472795782555724
 40
0.6860150066494445
 40
0.8368737402452621
 40
1.0
 40
1.0
 40
1.0
 40
1.0
 10
220.115660830121
 20
105.9749575061179
 30
0.0
 10
220.1042498189204
 20
105.980358926984
 30
0.0
 10
220.0807080987333
 20
105.9915024388432
 30
0.0
 10
220.042164011972
 20
106.0037534410781
 30
0.0
 10
220.0002145901632
 20
106.0136602580739
 30
0.0
 10
219.9543171667313
 20
106.0197599490419
 30
0.0
 10
219.9042657995757
 20
106.0240659128924
 30
0.0
 10
219.849522849308
 20
106.0274104247962
 30
0.0
 10
219.7897506894464
 20
106.0287496211407
 30
0.0
 10
219.7482938824868
 20
106.0291857697504
 30
0.0
 10
219.7267556115378
 20
106.0294123643104
 30
0.0
  0
LINE
  5
226
330
1F
100
AcDbEntity
  8
0
  6
SLD-SOLID
 62
     7
100
AcDbLine
 10
219.2992445573
 20
105.2751719602
 30
0.0
 11
219.6592966586
 21
105.2751719602
 31
0.0
  0
SPLINE
  5
227
330
1F
100
AcDbEntity
  8
0
  6
SLD-SOLID
 62
     7
100
AcDbSpline
210
0.0
220
0.0
230
1.0
 70
     8
 71
     3
 72
    15
 73
    11
 74
     0
 42
0.000000001
 43
0.00000001
 40
0.0
 40
0.0
 40
0.0
 40
0.0
 40
0.1727545498319415
 40
0.3291788132110008
 40
0.4694868449241915
 40
0.5939622732543325
 40
0.7064000991092388
 40
0.8112656049020814
 40
0.9085814076675977
 40
1.0
 40
1.0
 40
1.0
 40
1.0
 10
219.6592966081054
 20
105.2751719403916
 30
0.0
 10
219.6877461875148
 20
105.2754224144029
 30
0.0
 10
219.7419560407166
 20
105.2758996854088
 30
0.0
 10
219.8192253256908
 20
105.2790024143159
 30
0.0
 10
219.8883987919122
 20
105.2845096381821
 30
0.0
 10
219.9500137612812
 20
105.2925609452281
 30
0.0
 10
220.005368743006
 20
105.3032063944874
 30
0.0
 10
220.0549706037907
 20
105.3183543733894
 30
0.0
 10
220.0999748454345
 20
105.3365358085041
 30
0.0
 10
220.1264209565111
 20
105.3529616997966
 30
0.0
 10
220.1392308433684
 20
105.3609180230677
 30
0.0
  0
SPLINE
  5
228
330
1F
100
AcDbEntity
  8
0
  6
SLD-SOLID
 62
     7
100
AcDbSpline
210
0.0
220
0.0
230
1.0
 70
     8
 71
     3
 72
    15
 73
    11
 74
     0
 42
0.000000001
 43
0.00000001
 40
0.0
 40
0.0
 40
0.0
 40
0.0
 40
0.1299899983119069
 40
0.2523573263032184
 40
0.3686450647720556
 40
0.4799074241192082
 40
0.5945564336502942
 40
0.7178857443986447
 40
0.8526085068097677
 40
1.0
 40
1.0
 40
1.0
 40
1.0
 10
220.1392308433684
 20
105.3609180230677
 30
0.0
 10
220.1513427651935
 20
105.3698911065917
 30
0.0
 10
220.1748563604537
 20
105.3873110880998
 30
0.0
 10
220.2060429301168
 20
105.4166923685734
 30
0.0
 10
220.2318518760016
 20
105.4481182490392
 30
0.0
 10
220.2528101011956
 20
105.4819189735297
 30
0.0
 10
220.2690709242412
 20
105.5191855153263
 30
0.0
 10
220.2795414800866
 20
105.5612093334885
 30
0.0
 10
220.2867883786016
 20
105.607745851016
 30
0.0
 10
220.2872947957543
 20
105.6404754190703
 30
0.0
 10
220.2875593750119
 20
105.6575750863547
 30
0.0
  0
SPLINE
  5
229
330
1F
100
AcDbEntity
  8
0
  6
SLD-SOLID
 62
     7
100
AcDbSpline
210
0.0
220
0.0
230
1.0
 70
     8
 71
     3
 72
    15
 73
    11
 74
     0
 42
0.000000001
 43
0.00000001
 40
0.0
 40
0.0
 40
0.0
 40
0.0
 40
0.1468601540050169
 40
0.2816102318634024
 40
0.4075522463742783
 40
0.5266292304530837
 40
0.6425611015189953
 40
0.7563519253393437
 40
0.8765532127820475
 40
1.0
 40
1.0
 40
1.0
 40
1.0
 10
222.0301148371691
 20
106.5959054413269
 30
0.0
 10
222.0297940698754
 20
106.607975340863
 30
0.0
 10
222.0291789857324
 20
106.6311198570183
 30
0.0
 10
222.0247596013637
 20
106.6643920170682
 30
0.0
 10
222.0171249778424
 20
106.6947355039662
 30
0.0
 10
222.0060267469157
 20
106.7223377606885
 30
0.0
 10
221.9918083230492
 20
106.7473412878193
 30
0.0
 10
221.9738439731013
 20
106.7699364997251
 30
0.0
 10
221.9519735358588
 20
106.789790908054
 30
0.0
 10
221.935058321184
 20
106.8005516320622
 30
0.0
 10
221.926488054788
 20
106.8060036628603
 30
0.0
  0
SPLINE
  5
22A
330
1F
100
AcDbEntity
  8
0
  6
SLD-SOLID
 62
     7
100
AcDbSpline
210
0.0
220
0.0
230
1.0
 70
     8
 71
     3
 72
    15
 73
    11
 74
     0
 42
0.000000001
 43
0.00000001
 40
0.0
 40
0.0
 40
0.0
 40
0.0
 40
0.0970601489001741
 40
0.1980615496336307
 40
0.3053661453037027
 40
0.4191368020036264
 40
0.5437409762099218
 40
0.6816654513080895
 40
0.8340935330739949
 40
1.0
 40
1.0
 40
1.0
 40
1.0
 10
221.926488054788
 20
106.8060036628603
 30
0.0
 10
221.9153790159442
 20
106.8119849866914
 30
0.0
 10
221.8927098414861
 20
106.8241905136791
 30
0.0
 10
221.8551757605474
 20
106.8373845061251
 30
0.0
 10
221.8144532134852
 20
106.8471569779781
 30
0.0
 10
221.7698788959866
 20
106.8528300929397
 30
0.0
 10
221.7211845513162
 20
106.8567786419518
 30
0.0
 10
221.6673731956099
 20
106.8594198089403
 30
0.0
 10
221.6081764746975
 20
106.861710254611
 30
0.0
 10
221.5668448544706
 20
106.861688827066
 30
0.0
 10
221.5453040474411
 20
106.861677659669
 30
0.0
  0
LINE
  5
22B
330
1F
100
AcDbEntity
  8
0
  6
SLD-SOLID
 62
     7
100
AcDbLine
 10
221.5453040346
 20
106.8616776378
 30
0.0
 11
221.223858048
 21
106.8616776378
 31
0.0
  0
LINE
  5
22C
330
1F
100
AcDbEntity
  8
0
  6
SLD-SOLID
 62
     7
100
AcDbLine
 10
221.223858048
 20
106.8616776378
 30
0.0
 11
221.223858048
 21
106.2634869362
 31
0.0
  0
LINE
  5
22D
330
1F
100
AcDbEntity
  8
0
  6
SLD-SOLID
 62
     7
100
AcDbLine
 10
221.223858048
 20
106.2634869362
 30
0.0
 11
221.5725312501
 21
106.2634869362
 31
0.0
  0
SPLINE
  5
22E
330
1F
100
AcDbEntity
  8
0
  6
SLD-SOLID
 62
     7
100
AcDbSpline
210
0.0
220
0.0
230
1.0
 70
     8
 71
     3
 72
    15
 73
    11
 74
     0
 42
0.000000001
 43
0.00000001
 40
0.0
 40
0.0
 40
0.0
 40
0.0
 40
0.1705461607113629
 40
0.3227980535782387
 40
0.4569528983495535
 40
0.5732999800301544
 40
0.6797865754272859
 40
0.786913332970288
 40
0.892095296012277
 40
1.0
 40
1.0
 40
1.0
 40
1.0
 10
221.5725314765373
 20
106.26348697863
 30
0.0
 10
221.592581892693
 20
106.26362666233
 30
0.0
 10
221.6305319425886
 20
106.2638910460388
 30
0.0
 10
221.684218141968
 20
106.2662619149385
 30
0.0
 10
221.7314044190885
 20
106.2702535012184
 30
0.0
 10
221.7730649696972
 20
106.2756390290295
 30
0.0
 10
221.810919760389
 20
106.2844371049479
 30
0.0
 10
221.8464340683393
 20
106.2965711634935
 30
0.0
 10
221.8808064283509
 20
106.3121435139205
 30
0.0
 10
221.902229251874
 20
106.3251648714042
 30
0.0
 10
221.9130775300093
 20
106.3317587411399
 30
0.0
  0
SPLINE
  5
22F
330
1F
100
AcDbEntity
  8
0
  6
SLD-SOLID
 62
     7
100
AcDbSpline
210
0.0
220
0.0
230
1.0
 70
     8
 71
     3
 72
    15
 73
    11
 74
     0
 42
0.000000001
 43
0.00000001
 40
0.0
 40
0.0
 40
0.0
 40
0.0
 40
0.1228317447002776
 40
0.2397191858425421
 40
0.3553248851169352
 40
0.4719261308575472
 40
0.5926220243177087
 40
0.7207504018399246
 40
0.8561034390449856
 40
1.0
 40
1.0
 40
1.0
 40
1.0
 10
221.9130775300093
 20
106.3317587411399
 30
0.0
 10
221.9232157095755
 20
106.3389060004113
 30
0.0
 10
221.943001442958
 20
106.3528546354139
 30
0.0
 10
221.9681013593302
 20
106.3786624273224
 30
0.0
 10
221.9888433745234
 20
106.4072826928611
 30
0.0
 10
222.0040917926443
 20
106.4395914883449
 30
0.0
 10
222.0159200368266
 20
106.4745309281382
 30
0.0
 10
222.024413654473
 20
106.5123873221793
 30
0.0
 10
222.0292281675796
 20
106.5532455812268
 30
0.0
 10
222.0298133132113
 20
106.5813983802867
 30
0.0
 10
222.0301148371691
 20
106.5959054413269
 30
0.0
  0
SPLINE
  5
230
330
1F
100
AcDbEntity
  8
0
  6
SLD-SOLID
 62
     7
100
AcDbSpline
210
0.0
220
0.0
230
1.0
 70
     8
 71
     3
 72
    15
 73
    11
 74
     0
 42
0.000000001
 43
0.00000001
 40
0.0
 40
0.0
 40
0.0
 40
0.0
 40
0.0955161702706284
 40
0.1970565898426509
 40
0.3055517571330945
 40
0.4216157171813024
 40
0.5472795782555724
 40
0.6860150066494445
 40
0.8368737402452621
 40
1.0
 40
1.0
 40
1.0
 40
1.0
 10
222.0402743256378
 20
105.9749575061179
 30
0.0
 10
222.0288633144372
 20
105.980358926984
 30
0.0
 10
222.0053215942502
 20
105.9915024388432
 30
0.0
 10
221.9667775074889
 20
106.0037534410781
 30
0.0
 10
221.9248280856801
 20
106.0136602580739
 30
0.0
 10
221.8789306622482
 20
106.0197599490419
 30
0.0
 10
221.8288792950925
 20
106.0240659128924
 30
0.0
 10
221.7741363448249
 20
106.0274104247962
 30
0.0
 10
221.7143641849633
 20
106.0287496211407
 30
0.0
 10
221.6729073780037
 20
106.0291857697504
 30
0.0
 10
221.6513691070547
 20
106.0294123643104
 30
0.0
  0
LINE
  5
231
330
1F
100
AcDbEntity
  8
0
  6
SLD-SOLID
 62
     7
100
AcDbLine
 10
221.651369103
 20
106.0294123948
 30
0.0
 11
221.223858048
 21
106.0294123948
 31
0.0
  0
LINE
  5
232
330
1F
100
AcDbEntity
  8
0
  6
SLD-SOLID
 62
     7
100
AcDbLine
 10
221.223858048
 20
106.0294123948
 30
0.0
 11
221.223858048
 21
105.2751719602
 31
0.0
  0
SPLINE
  5
233
330
1F
100
AcDbEntity
  8
0
  6
SLD-SOLID
 62
     7
100
AcDbSpline
210
0.0
220
0.0
230
1.0
 70
     8
 71
     3
 72
    15
 73
    11
 74
     0
 42
0.000000001
 43
0.00000001
 40
0.0
 40
0.0
 40
0.0
 40
0.0
 40
0.1727545498319415
 40
0.3291788132110008
 40
0.4694868449241915
 40
0.5939622732543325
 40
0.7064000991092388
 40
0.8112656049020814
 40
0.9085814076675977
 40
1.0
 40
1.0
 40
1.0
 40
1.0
 10
221.5839101036223
 20
105.2751719403916
 30
0.0
 10
221.6123596830317
 20
105.2754224144029
 30
0.0
 10
221.6665695362335
 20
105.2758996854088
 30
0.0
 10
221.7438388212076
 20
105.2790024143159
 30
0.0
 10
221.813012287429
 20
105.2845096381821
 30
0.0
 10
221.8746272567981
 20
105.2925609452281
 30
0.0
 10
221.9299822385229
 20
105.3032063944874
 30
0.0
 10
221.9795840993075
 20
105.3183543733894
 30
0.0
 10
222.0245883409513
 20
105.3365358085041
 30
0.0
 10
222.0510344520279
 20
105.3529616997966
 30
0.0
 10
222.0638443388853
 20
105.3609180230677
 30
0.0
  0
SPLINE
  5
234
330
1F
100
AcDbEntity
  8
0
  6
SLD-SOLID
 62
     7
100
AcDbSpline
210
0.0
220
0.0
230
1.0
 70
     8
 71
     3
 72
    15
 73
    11
 74
     0
 42
0.000000001
 43
0.00000001
 40
0.0
 40
0.0
 40
0.0
 40
0.0
 40
0.1299899983119069
 40
0.2523573263032184
 40
0.3686450647720556
 40
0.4799074241192082
 40
0.5945564336502942
 40
0.7178857443986447
 40
0.8526085068097677
 40
1.0
 40
1.0
 40
1.0
 40
1.0
 10
222.0638443388853
 20
105.3609180230677
 30
0.0
 10
222.0759562607104
 20
105.3698911065917
 30
0.0
 10
222.0994698559705
 20
105.3873110880998
 30
0.0
 10
222.1306564256337
 20
105.4166923685734
 30
0.0
 10
222.1564653715185
 20
105.4481182490392
 30
0.0
 10
222.1774235967125
 20
105.4819189735297
 30
0.0
 10
222.193684419758
 20
105.5191855153263
 30
0.0
 10
222.2041549756034
 20
105.5612093334885
 30
0.0
 10
222.2114018741185
 20
105.607745851016
 30
0.0
 10
222.2119082912712
 20
105.6404754190703
 30
0.0
 10
222.2121728705288
 20
105.6575750863547
 30
0.0
  0
LINE
  5
235
330
1F
100
AcDbEntity
  8
0
  6
SLD-SOLID
 62
     7
100
AcDbLine
 10
221.223858048
 20
105.2751719602
 30
0.0
 11
221.5839101493
 21
105.2751719602
 31
0.0
  0
SPLINE
  5
236
330
1F
100
AcDbEntity
  8
0
  6
SLD-SOLID
 62
     7
100
AcDbSpline
210
0.0
220
0.0
230
1.0
 70
     8
 71
     3
 72
    15
 73
    11
 74
     0
 42
0.000000001
 43
0.00000001
 40
0.0
 40
0.0
 40
0.0
 40
0.0
 40
0.1511286081911614
 40
0.2874724646289033
 40
0.4096349574839744
 40
0.519450051548831
 40
0.6272412738300441
 40
0.740819577507831
 40
0.8641764089545707
 40
1.0
 40
1.0
 40
1.0
 40
1.0
 10
222.2121728705288
 20
105.6575750863547
 30
0.0
 10
222.2117102793065
 20
105.6769654282669
 30
0.0
 10
222.2108303516715
 20
105.7138491754688
 30
0.0
 10
222.2041602613907
 20
105.766103893535
 30
0.0
 10
222.1925124263519
 20
105.8120180987439
 30
0.0
 10
222.1760592570372
 20
105.8525833645466
 30
0.0
 10
222.1529980744187
 20
105.8885732940658
 30
0.0
 10
222.1226496043802
 20
105.9210111348678
 30
0.0
 10
222.0847593564935
 20
105.9505582808885
 30
0.0
 10
222.0555706680331
 20
105.9665677422781
 30
0.0
 10
222.0402743256378
 20
105.9749575061179
 30
0.0
  0
SPLINE
  5
237
330
1F
100
AcDbEntity
  8
0
  6
SLD-SOLID
 62
     7
100
AcDbSpline
210
0.0
220
0.0
230
1.0
 70
     8
 71
     3
 72
    23
 73
    19
 74
     0
 42
0.000000001
 43
0.00000001
 40
0.0
 40
0.0
 40
0.0
 40
0.0
 40
0.0621758982186105
 40
0.1212622118067595
 40
0.1781245096613921
 40
0.2335132525089257
 40
0.2883433983195862
 40
0.3430921151912614
 40
0.3984506443469742
 40
0.4554461690063616
 40
0.5141081180577328
 40
0.5739251649583388
 40
0.6365915487339191
 40
0.7016480629930028
 40
0.7703388521048484
 40
0.8423750827117618
 40
0.9191453942057234
 40
1.0
 40
1.0
 40
1.0
 40
1.0
 10
225.6330758277207
 20
106.9136942406289
 30
0.0
 10
225.6078371591541
 20
106.9131854089944
 30
0.0
 10
225.5586139575416
 20
106.912193030095
 30
0.0
 10
225.4870320693991
 20
106.901099707044
 30
0.0
 10
225.4195120843504
 20
106.8842614524414
 30
0.0
 10
225.3559246020047
 20
106.8602587502669
 30
0.0
 10
225.2968121924154
 20
106.8285853316227
 30
0.0
 10
225.24145787374
 20
106.7907380335198
 30
0.0
 10
225.1907942946456
 20
106.7454606980634
 30
0.0
 10
225.1443577489375
 20
106.6937465514984
 30
0.0
 10
225.1030612883894
 20
106.6355991066127
 30
0.0
 10
225.0669346097257
 20
106.5714711221574
 30
0.0
 10
225.0366700454709
 20
106.5015434873034
 30
0.0
 10
225.011875330637
 20
106.4257332120102
 30
0.0
 10
224.9924848148199
 20
106.3444570518797
 30
0.0
 10
224.9787418300626
 20
106.2572393984952
 30
0.0
 10
224.9707037291852
 20
106.1643471860726
 30
0.0
 10
224.9696117819859
 20
106.1004093307327
 30
0.0
 10
224.9690516614043
 20
106.0676120409528
 30
0.0
  0
SPLINE
  5
238
330
1F
100
AcDbEntity
  8
0
  6
SLD-SOLID
 62
     7
100
AcDbSpline
210
0.0
220
0.0
230
1.0
 70
     8
 71
     3
 72
    23
 73
    19
 74
     0
 42
0.000000001
 43
0.00000001
 40
0.0
 40
0.0
 40
0.0
 40
0.0
 40
0.0820129129664109
 40
0.1589601266669504
 40
0.2317952858540716
 40
0.3010215657275455
 40
0.3663082626841796
 40
0.4289232692690998
 40
0.4891865274402118
 40
0.5478120773723745
 40
0.6048736360705035
 40
0.6603684860675249
 40
0.7150329524914525
 40
0.7693604753325474
 40
0.8242303999589777
 40
0.8805533304733977
 40
0.939042169328048
 40
1.0
 40
1.0
 40
1.0
 40
1.0
 10
224.9690516614043
 20
106.0676120409528
 30
0.0
 10
224.9695437811615
 20
106.034402175554
 30
0.0
 10
224.9704976238688
 20
105.9700337216184
 30
0.0
 10
224.9793841574512
 20
105.8765366827644
 30
0.0
 10
224.9927029780863
 20
105.7888072385286
 30
0.0
 10
225.012668410221
 20
105.7071642143168
 30
0.0
 10
225.03780280503
 20
105.6313228330823
 30
0.0
 10
225.0686369874117
 20
105.5615219673075
 30
0.0
 10
225.1053071948876
 20
105.4976823941473
 30
0.0
 10
225.1476306916032
 20
105.4401827190891
 30
0.0
 10
225.1949776485832
 20
105.3894086351668
 30
0.0
 10
225.2458930487687
 20
105.344590207082
 30
0.0
 10
225.3010911316516
 20
105.307023360337
 30
0.0
 10
225.3600976553294
 20
105.276426298254
 30
0.0
 10
225.422719345074
 20
105.2521494763471
 30
0.0
 10
225.4894321291025
 20
105.2352288515595
 30
0.0
 10
225.560004915173
 20
105.2248326958748
 30
0.0
 10
225.608385510632
 20
105.2237221235133
 30
0.0
 10
225.6330758277207
 20
105.2231553594317
 30
0.0
  0
SPLINE
  5
239
330
1F
100
AcDbEntity
  8
0
  6
SLD-SOLID
 62
     7
100
AcDbSpline
210
0.0
220
0.0
230
1.0
 70
     8
 71
     3
 72
    23
 73
    19
 74
     0
 42
0.000000001
 43
0.00000001
 40
0.0
 40
0.0
 40
0.0
 40
0.0
 40
0.0610171585840675
 40
0.1192314497396616
 40
0.1756091971961347
 40
0.2305325246098713
 40
0.2849129223394756
 40
0.3393541419313754
 40
0.3949030029315309
 40
0.4517927951807843
 40
0.5104754031059193
 40
0.5706306378896772
 40
0.6333065852522927
 40
0.698764024442715
 40
0.7679791167092038
 40
0.8408851635554743
 40
0.9179072670196687
 40
1.0
 40
1.0
 40
1.0
 40
1.0
 10
225.6330758277207
 20
105.2231553594317
 30
0.0
 10
225.657767420232
 20
105.2237133421358
 30
0.0
 10
225.7060163790464
 20
105.224803676204
 30
0.0
 10
225.7764400760231
 20
105.2352788825269
 30
0.0
 10
225.8430306104351
 20
105.2521397052975
 30
0.0
 10
225.9056325219062
 20
105.2764483751904
 30
0.0
 10
225.9646100140095
 20
105.3068937370796
 30
0.0
 10
226.0194618468725
 20
105.3447515467894
 30
0.0
 10
226.07039121896
 20
105.3892513038541
 30
0.0
 10
226.1172468045998
 20
105.4403520369506
 30
0.0
 10
226.1597085968241
 20
105.4975457079818
 30
0.0
 10
226.1958352966643
 20
105.5616431862865
 30
0.0
 10
226.2266147360118
 20
105.6313931036779
 30
0.0
 10
226.2525073452481
 20
105.7070181130035
 30
0.0
 10
226.2716413845291
 20
105.788886651473
 30
0.0
 10
226.2851959099751
 20
105.8765228139231
 30
0.0
 10
226.2940136620508
 20
105.9700375408418
 30
0.0
 10
226.2949773016016
 20
106.0344034753908
 30
0.0
 10
226.2954744758822
 20
106.0676120409528
 30
0.0
  0
SPLINE
  5
23A
330
1F
100
AcDbEntity
  8
0
  6
SLD-SOLID
 62
     7
100
AcDbSpline
210
0.0
220
0.0
230
1.0
 70
     8
 71
     3
 72
    23
 73
    19
 74
     0
 42
0.000000001
 43
0.00000001
 40
0.0
 40
0.0
 40
0.0
 40
0.0
 40
0.0809888703979177
 40
0.1578866642454557
 40
0.2300425159408056
 40
0.2988473708066464
 40
0.364117444165082
 40
0.4268878897575074
 40
0.4869693325819693
 40
0.5457286938124096
 40
0.6028188634391743
 40
0.6582693192192548
 40
0.7131089500802867
 40
0.7677349198932855
 40
0.8229031265946569
 40
0.8795357212322894
 40
0.9383892794248827
 40
1.0
 40
1.0
 40
1.0
 40
1.0
 10
226.2954744758822
 20
106.0676120409528
 30
0.0
 10
226.2949131850203
 20
106.1004089239498
 30
0.0
 10
226.2938189563762
 20
106.1643459862722
 30
0.0
 10
226.285796972204
 20
106.2572438007717
 30
0.0
 10
226.2719978766938
 20
106.3444419503712
 30
0.0
 10
226.2527917172152
 20
106.4258272526898
 30
0.0
 10
226.2273047245964
 20
106.5014425135758
 30
0.0
 10
226.197307284118
 20
106.5716094891833
 30
0.0
 10
226.1605710785859
 20
106.6354782354309
 30
0.0
 10
226.1193869772175
 20
106.6937645415689
 30
0.0
 10
226.0729091724047
 20
106.7454527270916
 30
0.0
 10
226.0222648424859
 20
106.7907522000792
 30
0.0
 10
225.9669727510098
 20
106.8284693986287
 30
0.0
 10
225.9082153502239
 20
106.8602704603898
 30
0.0
 10
225.8450185132744
 20
106.8842568748056
 30
0.0
 10
225.777905445521
 20
106.9011017041049
 30
0.0
 10
225.7068610596477
 20
106.912172788624
 30
0.0
 10
225.6580433483756
 20
106.9131794101762
 30
0.0
 10
225.6330758277207
 20
106.9136942406289
 30
0.0
  0
SPLINE
  5
23B
330
1F
100
AcDbEntity
  8
0
  6
SLD-SOLID
 62
     7
100
AcDbSpline
210
0.0
220
0.0
230
1.0
 70
     8
 71
     3
 72
    15
 73
    11
 74
     0
 42
0.000000001
 43
0.00000001
 40
0.0
 40
0.0
 40
0.0
 40
0.0
 40
0.1641007877079224
 40
0.3141068989893869
 40
0.4507499698644465
 40
0.5734501429382803
 40
0.6864814603067122
 40
0.7948918672846367
 40
0.8993730472043223
 40
1.0
 40
1.0
 40
1.0
 40
1.0
 10
232.0433066719528
 20
106.0672056614141
 30
0.0
 10
232.0434222101218
 20
106.0326617523839
 30
0.0
 10
232.0436433628442
 20
105.966540923252
 30
0.0
 10
232.0464115476348
 20
105.8716821480365
 30
0.0
 10
232.0513788460023
 20
105.7856533412255
 30
0.0
 10
232.0574108937687
 20
105.7074824631727
 30
0.0
 10
232.0671627212289
 20
105.635643265806
 30
0.0
 10
232.0809297477975
 20
105.5683934739285
 30
0.0
 10
232.0988126924811
 20
105.5047394628593
 30
0.0
 10
232.1150103966032
 20
105.4646880077647
 30
0.0
 10
232.1229570615477
 20
105.4450385875888
 30
0.0
  0
SPLINE
  5
23C
330
1F
100
AcDbEntity
  8
0
  6
SLD-SOLID
 62
     7
100
AcDbSpline
210
0.0
220
0.0
230
1.0
 70
     8
 71
     3
 72
    15
 73
    11
 74
     0
 42
0.000000001
 43
0.00000001
 40
0.0
 40
0.0
 40
0.0
 40
0.0
 40
0.0984900299220154
 40
0.2018380275637325
 40
0.3116948969422743
 40
0.4274599879961246
 40
0.5528053385861433
 40
0.6899099414542642
 40
0.8389457546750263
 40
1.0
 40
1.0
 40
1.0
 40
1.0
 10
232.8190852114253
 20
105.4405684126626
 30
0.0
 10
232.8267062526903
 20
105.4601030169279
 30
0.0
 10
232.8423242389791
 20
105.5001357593006
 30
0.0
 10
232.8604849883444
 20
105.5640409123305
 30
0.0
 10
232.8744713306829
 20
105.6326844757257
 30
0.0
 10
232.8849307234047
 20
105.706673541432
 30
0.0
 10
232.8925325931187
 20
105.7868234784742
 30
0.0
 10
232.8975788327621
 20
105.8742577361243
 30
0.0
 10
232.9008681118327
 20
105.9693786985581
 30
0.0
 10
232.901336820422
 20
106.0353696357586
 30
0.0
 10
232.9015802577915
 20
106.0696439386465
 30
0.0
  0
SPLINE
  5
23D
330
1F
100
AcDbEntity
  8
0
  6
SLD-SOLID
 62
     7
100
AcDbSpline
210
0.0
220
0.0
230
1.0
 70
     8
 71
     3
 72
    15
 73
    11
 74
     0
 42
0.000000001
 43
0.00000001
 40
0.0
 40
0.0
 40
0.0
 40
0.0
 40
0.1596511372780683
 40
0.3085655703298847
 40
0.446193371006681
 40
0.5739690612705018
 40
0.6921583564928286
 40
0.8020565012233002
 40
0.9040987413505454
 40
0.9999999999999999
 40
0.9999999999999999
 40
0.9999999999999999
 40
0.9999999999999999
 10
232.9015802577915
 20
106.0696439386465
 30
0.0
 10
232.9013344206537
 20
106.1036473736912
 30
0.0
 10
232.9008592791803
 20
106.169367477579
 30
0.0
 10
232.8975706307578
 20
106.2643515213563
 30
0.0
 10
232.8924966696564
 20
106.3524634970257
 30
0.0
 10
232.8848489209716
 20
106.4338115889008
 30
0.0
 10
232.874795417096
 20
106.5089967542801
 30
0.0
 10
232.8599645881131
 20
106.5777600472893
 30
0.0
 10
232.8423467687551
 20
106.6410571786696
 30
0.0
 10
232.8258557663275
 20
106.6799003921084
 30
0.0
 10
232.8178660728091
 20
106.6987194646305
 30
0.0
  0
SPLINE
  5
23E
330
1F
100
AcDbEntity
  8
0
  6
SLD-SOLID
 62
     7
100
AcDbSpline
210
0.0
220
0.0
230
1.0
 70
     8
 71
     3
 72
    15
 73
    11
 74
     0
 42
0.000000001
 43
0.00000001
 40
0.0
 40
0.0
 40
0.0
 40
0.0
 40
0.1302336202016392
 40
0.2533235947621273
 40
0.3705049145481282
 40
0.4852872396224128
 40
0.6008722347763201
 40
0.7234306548017307
 40
0.8556410648324596
 40
1.0
 40
1.0
 40
1.0
 40
1.0
 10
232.8178660728091
 20
106.6987194646305
 30
0.0
 10
232.8094483036835
 20
106.7155910012625
 30
0.0
 10
232.7930745015004
 20
106.7484086277875
 30
0.0
 10
232.7626998300126
 20
106.7929210009413
 30
0.0
 10
232.7265959859635
 20
106.8297340886814
 30
0.0
 10
232.6869451750599
 20
106.8609810007948
 30
0.0
 10
232.6415118026415
 20
106.8849169478379
 30
0.0
 10
232.5904958450151
 20
106.9019265845495
 30
0.0
 10
232.5333992014846
 20
106.9121369673844
 30
0.0
 10
232.4933484637525
 20
106.9131601679191
 30
0.0
 10
232.4724434648721
 20
106.9136942406289
 30
0.0
  0
SPLINE
  5
23F
330
1F
100
AcDbEntity
  8
0
  6
SLD-SOLID
 62
     7
100
AcDbSpline
210
0.0
220
0.0
230
1.0
 70
     8
 71
     3
 72
    15
 73
    11
 74
     0
 42
0.000000001
 43
0.00000001
 40
0.0
 40
0.0
 40
0.0
 40
0.0
 40
0.1413728161521947
 40
0.271633327037034
 40
0.3941115680980365
 40
0.5104341139114749
 40
0.6257922686548112
 40
0.743398147937977
 40
0.8678883717593756
 40
1.0
 40
1.0
 40
1.0
 40
1.0
 10
232.4724434648721
 20
106.9136942406289
 30
0.0
 10
232.4518075028915
 20
106.9131600805144
 30
0.0
 10
232.412157624209
 20
106.912133746789
 30
0.0
 10
232.3553700231298
 20
106.9018143711847
 30
0.0
 10
232.3040869508855
 20
106.884856701293
 30
0.0
 10
232.2580565094183
 20
106.8609270502573
 30
0.0
 10
232.2171846133192
 20
106.830053458491
 30
0.0
 10
232.1816685954799
 20
106.7916693545268
 30
0.0
 10
232.1493914672893
 20
106.7473713184543
 30
0.0
 10
232.1330143493736
 20
106.7136451347343
 30
0.0
 10
232.1245825797027
 20
106.696281187398
 30
0.0
  0
SPLINE
  5
240
330
1F
100
AcDbEntity
  8
0
  6
SLD-SOLID
 62
     7
100
AcDbSpline
210
0.0
220
0.0
230
1.0
 70
     8
 71
     3
 72
    15
 73
    11
 74
     0
 42
0.000000001
 43
0.00000001
 40
0.0
 40
0.0
 40
0.0
 40
0.0
 40
0.1279442181211496
 40
0.2482369193370229
 40
0.3644446802024287
 40
0.4785790913491301
 40
0.5947180955730508
 40
0.7179626744033674
 40
0.8521394834580083
 40
0.9999999999999999
 40
0.9999999999999999
 40
0.9999999999999999
 40
0.9999999999999999
 10
232.1229570615477
 20
105.4450385875888
 30
0.0
 10
232.1308998437191
 20
105.4278612332049
 30
0.0
 10
232.1463104015867
 20
105.3945337910019
 30
0.0
 10
232.1764910019933
 20
105.349664633656
 30
0.0
 10
232.2111957242977
 20
105.3109889445638
 30
0.0
 10
232.2511606336256
 20
105.2785977196508
 30
0.0
 10
232.2972487580819
 20
105.2534436797425
 30
0.0
 10
232.3496962931596
 20
105.235549071654
 30
0.0
 10
232.4089073125214
 20
105.225104483543
 30
0.0
 10
232.4505906259304
 20
105.223825747765
 30
0.0
 10
232.4724434648721
 20
105.2231553594317
 30
0.0
  0
SPLINE
  5
241
330
1F
100
AcDbEntity
  8
0
  6
SLD-SOLID
 62
     7
100
AcDbSpline
210
0.0
220
0.0
230
1.0
 70
     8
 71
     3
 72
    15
 73
    11
 74
     0
 42
0.000000001
 43
0.00000001
 40
0.0
 40
0.0
 40
0.0
 40
0.0
 40
0.1414581697554178
 40
0.2727119044869397
 40
0.3952640915827985
 40
0.5124813484088725
 40
0.6279091504467647
 40
0.7455860340844482
 40
0.8690789999429572
 40
1.0
 40
1.0
 40
1.0
 40
1.0
 10
232.4724434648721
 20
105.2231553594317
 30
0.0
 10
232.4930764585457
 20
105.2237027369652
 30
0.0
 10
232.532854033851
 20
105.2247580055998
 30
0.0
 10
232.5898105161512
 20
105.2349544274308
 30
0.0
 10
232.6412816839038
 20
105.2521069642008
 30
0.0
 10
232.6875835596087
 20
105.2757873764146
 30
0.0
 10
232.728475124323
 20
105.3068371144743
 30
0.0
 10
232.7640527053656
 20
105.3449598063071
 30
0.0
 10
232.7955124406113
 20
105.3894771170371
 30
0.0
 10
232.8110761517718
 20
105.4232096881549
 30
0.0
 10
232.8190852114253
 20
105.4405684126626
 30
0.0
  0
SPLINE
  5
242
330
1F
100
AcDbEntity
  8
0
  6
SLD-SOLID
 62
     7
100
AcDbSpline
210
0.0
220
0.0
230
1.0
 70
     8
 71
     3
 72
    15
 73
    11
 74
     0
 42
0.000000001
 43
0.00000001
 40
0.0
 40
0.0
 40
0.0
 40
0.0
 40
0.092932701423152
 40
0.1955187970205157
 40
0.30914605086556
 40
0.4331371720548349
 40
0.5654292707948642
 40
0.7044741864873683
 40
0.8490924635745121
 40
1.0
 40
1.0
 40
1.0
 40
1.0
 10
232.1245825797027
 20
106.696281187398
 30
0.0
 10
232.1170314412639
 20
106.6779901485044
 30
0.0
 10
232.1011447890837
 20
106.6395080871206
 30
0.0
 10
232.0838310941453
 20
106.5759009027897
 30
0.0
 10
232.0697706473604
 20
106.504869711826
 30
0.0
 10
232.0595305147085
 20
106.4267834703644
 30
0.0
 10
232.052635121356
 20
106.3429448871445
 30
0.0
 10
232.0473589647694
 20
106.2545998026119
 30
0.0
 10
232.0440603725243
 20
106.1621876927288
 30
0.0
 10
232.0435614448018
 20
106.0993123674932
 30
0.0
 10
232.0433066719528
 20
106.0672056614141
 30
0.0
  0
LINE
  5
243
330
1F
100
AcDbEntity
  8
0
  6
SLD-SOLID
 62
     7
100
AcDbLine
 10
145.959299885
 20
82.3077246663
 30
0.0
 11
145.7592998901
 21
82.107725006
 31
0.0
  0
LINE
  5
244
330
1F
100
AcDbEntity
  8
0
  6
SLD-SOLID
 62
     7
100
AcDbLine
 10
145.7592998901
 20
82.3077246663
 30
0.0
 11
145.7592998901
 21
82.107725006
 31
0.0
  0
LINE
  5
245
330
1F
100
AcDbEntity
  8
0
  6
SLD-SOLID
 62
     7
100
AcDbLine
 10
145.959299885
 20
82.3077246663
 30
0.0
 11
145.7592998901
 21
82.3077246663
 31
0.0
  0
LINE
  5
246
330
1F
100
AcDbEntity
  8
0
  6
SLD-SOLID
 62
     7
100
AcDbLine
 10
145.7592998901
 20
82.3077246663
 30
0.0
 11
145.7592998901
 21
132.7077247319
 31
0.0
  0
LINE
  5
247
330
1F
100
AcDbEntity
  8
0
  6
SLD-SOLID
 62
     7
100
AcDbLine
 10
140.1592999588
 20
82.3077246663
 30
0.0
 11
145.7592998901
 21
82.3077246663
 31
0.0
  0
LINE
  5
248
330
1F
100
AcDbEntity
  8
0
  6
SLD-SOLID
 62
     7
100
AcDbLine
 10
140.1592999588
 20
132.7077247319
 30
0.0
 11
140.1592999588
 21
82.3077246663
 31
0.0
  0
LINE
  5
249
330
1F
100
AcDbEntity
  8
0
  6
SLD-SOLID
 62
     7
100
AcDbLine
 10
145.7592998901
 20
132.7077247319
 30
0.0
 11
140.1592999588
 21
132.7077247319
 31
0.0
  0
LINE
  5
24A
330
1F
100
AcDbEntity
  8
0
  6
SLD-SOLID
 62
     7
100
AcDbLine
 10
145.7592998901
 20
82.107725006
 30
0.0
 11
140.1592999588
 21
82.107725006
 31
0.0
  0
LINE
  5
24B
330
1F
100
AcDbEntity
  8
0
  6
SLD-SOLID
 62
     7
100
AcDbLine
 10
140.1592999588
 20
82.107725006
 30
0.0
 11
140.1592999588
 21
82.3077246663
 31
0.0
  0
LINE
  5
24C
330
1F
100
AcDbEntity
  8
0
  6
SLD-SOLID
 62
     7
100
AcDbLine
 10
145.959299885
 20
132.7077247319
 30
0.0
 11
145.959299885
 21
82.3077246663
 31
0.0
  0
LINE
  5
24D
330
1F
100
AcDbEntity
  8
0
  6
SLD-SOLID
 62
     7
100
AcDbLine
 10
145.959299885
 20
132.7077247319
 30
0.0
 11
145.7592998901
 21
132.7077247319
 31
0.0
  0
LINE
  5
24E
330
1F
100
AcDbEntity
  8
0
  6
SLD-SOLID
 62
     7
100
AcDbLine
 10
145.7592998901
 20
132.9077243921
 30
0.0
 11
145.7592998901
 21
132.7077247319
 31
0.0
  0
LINE
  5
24F
330
1F
100
AcDbEntity
  8
0
  6
SLD-SOLID
 62
     7
100
AcDbLine
 10
145.7592998901
 20
132.9077243921
 30
0.0
 11
145.959299885
 21
132.7077247319
 31
0.0
  0
LINE
  5
250
330
1F
100
AcDbEntity
  8
0
  6
SLD-SOLID
 62
     7
100
AcDbLine
 10
140.1592999588
 20
132.9077243921
 30
0.0
 11
145.7592998901
 21
132.9077243921
 31
0.0
  0
LINE
  5
251
330
1F
100
AcDbEntity
  8
0
  6
SLD-SOLID
 62
     7
100
AcDbLine
 10
140.1592999588
 20
132.7077247319
 30
0.0
 11
140.1592999588
 21
132.9077243921
 31
0.0
  0
LINE
  5
252
330
1F
100
AcDbEntity
  8
0
  6
SLD-SOLID
 62
     7
100
AcDbLine
 10
140.1592999588
 20
82.3077246663
 30
0.0
 11
139.9592998329
 21
82.3077246663
 31
0.0
  0
LINE
  5
253
330
1F
100
AcDbEntity
  8
0
  6
SLD-SOLID
 62
     7
100
AcDbLine
 10
139.9592998329
 20
82.3077246663
 30
0.0
 11
139.9592998329
 21
132.7077247319
 31
0.0
  0
LINE
  5
254
330
1F
100
AcDbEntity
  8
0
  6
SLD-SOLID
 62
     7
100
AcDbLine
 10
140.1592999588
 20
132.7077247319
 30
0.0
 11
139.9592998329
 21
132.7077247319
 31
0.0
  0
LINE
  5
255
330
1F
100
AcDbEntity
  8
0
  6
SLD-SOLID
 62
     7
100
AcDbLine
 10
140.1592999588
 20
82.107725006
 30
0.0
 11
139.9592998329
 21
82.3077246663
 31
0.0
  0
LINE
  5
256
330
1F
100
AcDbEntity
  8
0
  6
SLD-SOLID
 62
     7
100
AcDbLine
 10
139.9592998329
 20
132.7077247319
 30
0.0
 11
140.1592999588
 21
132.9077243921
 31
0.0
  0
DIMENSION
  5
257
330
1F
100
AcDbEntity
  8
0
  6
SLD-SOLID
 62
     7
100
AcDbDimension
  2
_D_2
 10
139.959299885
 20
142.9077246991
 30
0.0
 11
158.8668609068
 21
142.9077246991
 31
0.0
 70
   160
  1
<>
  3
SLDDIMSTYLE1
100
AcDbAlignedDimension
 13
145.959299885
 23
132.7077246991
 33
0.0
 14
139.959299885
 24
132.7077246991
 34
0.0
100
AcDbRotatedDimension
  0
MTEXT
  5
26A
330
1F
100
AcDbEntity
  8
0
  6
CONTINUOUS
 62
     7
100
AcDbMText
 10
106.5367795648
 20
124.3031047897
 30
0.0
 40
2.1166666667
 41
0.0
 71
     1
 72
     1
  1
S1
  7
SLDTEXTSTYLE0
  0
LEADER
  5
26C
330
1F
100
AcDbEntity
  8
0
  6
CONTINUOUS
 62
     7
100
AcDbLeader
  3
SLDDIMSTYLE2
 76
     3
 10
140.159299885
 20
106.6019016083
 30
0.0
 10
114.6625
 20
123.4375
 30
0.0
 10
108.3125
 20
123.4375
 30
0.0
1001
ACAD
1000
DSTYLE
1002
{
1070
     6
1000

1002
}
  0
MTEXT
  5
26D
330
1F
100
AcDbEntity
  8
0
  6
CONTINUOUS
 62
     7
100
AcDbMText
 10
171.7847417219
 20
94.9145598512
 30
0.0
 40
2.1166666667
 41
0.0
 71
     1
 72
     1
  1
S2
  7
SLDTEXTSTYLE0
  0
LEADER
  5
26E
330
1F
100
AcDbEntity
  8
0
  6
CONTINUOUS
 62
     7
100
AcDbLeader
  3
SLDDIMSTYLE2
 76
     3
 10
145.759299885
 20
107.141140965
 30
0.0
 10
163.4625
 20
95.3125
 30
0.0
 10
169.8125
 20
95.3125
 30
0.0
1001
ACAD
1000
DSTYLE
1002
{
1070
     6
1000

1002
}
  0
LINE
  5
26F
330
1F
100
AcDbEntity
  8
0
  6
SLD-SOLID
 62
     7
100
AcDbLine
 10
271.5978010502
 20
201.1633148855
 30
0.0
 11
271.6685117283
 21
201.2857893723
 31
0.0
  0
LINE
  5
270
330
1F
100
AcDbEntity
  8
0
  6
SLD-SOLID
 62
     7
100
AcDbLine
 10
271.7392224065
 20
201.1633148855
 30
0.0
 11
271.6685117283
 21
201.2857893723
 31
0.0
  0
LINE
  5
271
330
1F
100
AcDbEntity
  8
0
  6
SLD-SOLID
 62
     7
100
AcDbLine
 10
271.7392224065
 20
201.1633148855
 30
0.0
 11
271.5978010502
 21
201.1633148855
 31
0.0
  0
LINE
  5
272
330
1F
100
AcDbEntity
  8
0
  6
SLD-SOLID
 62
     7
100
AcDbLine
 10
271.7392224065
 20
201.1633148855
 30
0.0
 11
271.7392224065
 21
180.586486426
 31
0.0
  0
LINE
  5
273
330
1F
100
AcDbEntity
  8
0
  6
SLD-SOLID
 62
     7
100
AcDbLine
 10
271.7392224065
 20
180.586486426
 30
0.0
 11
271.5978010502
 21
180.586486426
 31
0.0
  0
LINE
  5
274
330
1F
100
AcDbEntity
  8
0
  6
SLD-SOLID
 62
     7
100
AcDbLine
 10
271.5978010502
 20
180.586486426
 30
0.0
 11
271.5978010502
 21
201.1633148855
 31
0.0
  0
LINE
  5
275
330
1F
100
AcDbEntity
  8
0
  6
SLD-SOLID
 62
     7
100
AcDbLine
 10
271.5978010502
 20
201.1633148855
 30
0.0
 11
253.7787101643
 21
211.4500570945
 31
0.0
  0
LINE
  5
276
330
1F
100
AcDbEntity
  8
0
  6
SLD-SOLID
 62
     7
100
AcDbLine
 10
253.7787101643
 20
211.4500570945
 30
0.0
 11
253.8494208424
 21
211.5725315813
 31
0.0
  0
LINE
  5
277
330
1F
100
AcDbEntity
  8
0
  6
SLD-SOLID
 62
     7
100
AcDbLine
 10
253.8494208424
 20
211.5725315813
 30
0.0
 11
271.6685117283
 21
201.2857893723
 31
0.0
  0
LINE
  5
278
330
1F
100
AcDbEntity
  8
0
  6
SLD-SOLID
 62
     7
100
AcDbLine
 10
271.6685117283
 20
201.2857893723
 30
0.0
 11
273.6484107157
 21
202.4287607289
 31
0.0
  0
LINE
  5
279
330
1F
100
AcDbEntity
  8
0
  6
SLD-SOLID
 62
     7
100
AcDbLine
 10
273.6484107157
 20
202.4287607289
 30
0.0
 11
273.7191213938
 21
202.3062862421
 31
0.0
  0
LINE
  5
27A
330
1F
100
AcDbEntity
  8
0
  6
SLD-SOLID
 62
     7
100
AcDbLine
 10
273.7191213938
 20
202.3062862421
 30
0.0
 11
271.7392224065
 21
201.1633148855
 31
0.0
  0
LINE
  5
27B
330
1F
100
AcDbEntity
  8
0
  6
SLD-SOLID
 62
     7
100
AcDbLine
 10
253.7787101643
 20
190.873228635
 30
0.0
 11
271.5978010502
 21
180.586486426
 31
0.0
  0
LINE
  5
27C
330
1F
100
AcDbEntity
  8
0
  6
SLD-SOLID
 62
     7
100
AcDbLine
 10
253.7787101643
 20
211.4500570945
 30
0.0
 11
253.7787101643
 21
190.873228635
 31
0.0
  0
LINE
  5
27D
330
1F
100
AcDbEntity
  8
0
  6
SLD-SOLID
 62
     7
100
AcDbLine
 10
273.7191213938
 20
181.7294577826
 30
0.0
 11
273.7191213938
 21
202.3062862421
 31
0.0
  0
LINE
  5
27E
330
1F
100
AcDbEntity
  8
0
  6
SLD-SOLID
 62
     7
100
AcDbLine
 10
271.7392224065
 20
180.586486426
 30
0.0
 11
273.7191213938
 21
181.7294577826
 31
0.0
  0
LINE
  5
27F
330
1F
100
AcDbEntity
  8
0
  6
SLD-SOLID
 62
     7
100
AcDbLine
 10
255.8293198298
 20
212.7155029378
 30
0.0
 11
253.8494208424
 21
211.5725315813
 31
0.0
  0
LINE
  5
280
330
1F
100
AcDbEntity
  8
0
  6
SLD-SOLID
 62
     7
100
AcDbLine
 10
273.6484107157
 20
202.4287607289
 30
0.0
 11
255.8293198298
 21
212.7155029378
 31
0.0
  0
LINE
  5
281
330
1F
100
AcDbEntity
  8
0
  6
SLD-SOLID
 62
     7
100
AcDbLine
 10
273.7191213938
 20
202.3879270533
 30
0.0
 11
273.7191213938
 21
202.3062862421
 31
0.0
  0
LINE
  5
282
330
1F
100
AcDbEntity
  8
0
  6
SLD-SOLID
 62
     7
100
AcDbLine
 10
273.6484107157
 20
202.4287607289
 30
0.0
 11
273.7191213938
 21
202.3879270533
 31
0.0
  0
LINE
  5
283
330
1F
100
AcDbEntity
  8
0
  6
SLD-SOLID
 62
     7
100
AcDbLine
 10
271.6685117283
 20
180.5456527504
 30
0.0
 11
271.5978010502
 21
180.586486426
 31
0.0
  0
LINE
  5
284
330
1F
100
AcDbEntity
  8
0
  6
SLD-SOLID
 62
     7
100
AcDbLine
 10
271.6685117283
 20
180.5456527504
 30
0.0
 11
271.7392224065
 21
180.586486426
 31
0.0
  0
LINE
  5
285
330
1F
100
AcDbEntity
  8
0
  6
SLD-SOLID
 62
     7
100
AcDbLine
 10
253.7787101643
 20
211.4500570945
 30
0.0
 11
253.7787101643
 21
211.5316979057
 31
0.0
  0
LINE
  5
286
330
1F
100
AcDbEntity
  8
0
  6
SLD-SOLID
 62
     7
100
AcDbLine
 10
253.8494208424
 20
211.5725315813
 30
0.0
 11
253.7787101643
 21
211.5316979057
 31
0.0
  0
LINE
  5
287
330
1F
100
AcDbEntity
  8
0
  6
SLD-SOLID
 62
     7
100
AcDbLine
 10
271.6685117283
 20
180.5456527504
 30
0.0
 11
253.8494208424
 21
190.8323949594
 31
0.0
  0
LINE
  5
288
330
1F
100
AcDbEntity
  8
0
  6
SLD-SOLID
 62
     7
100
AcDbLine
 10
253.8494208424
 20
190.8323949594
 30
0.0
 11
253.7787101643
 21
190.873228635
 31
0.0
  0
LINE
  5
289
330
1F
100
AcDbEntity
  8
0
  6
SLD-SOLID
 62
     7
100
AcDbLine
 10
273.6484107157
 20
181.688624107
 30
0.0
 11
271.6685117283
 21
180.5456527504
 31
0.0
  0
LINE
  5
28A
330
1F
100
AcDbEntity
  8
0
  6
SLD-SOLID
 62
     7
100
AcDbLine
 10
273.7191213938
 20
181.7294577826
 30
0.0
 11
273.6484107157
 21
181.688624107
 31
0.0
  0
OLE2FRAME
  5
28B
330
1F
100
AcDbEntity
  8
0
100
AcDbOle2Frame
 70
     2
  3
Paintbrush Picture
 10
229.0524258301
 20
33.6996297921
 30
0.0
 11
265.1686469208
 21
28.555479607
 31
0.0
 71
     2
 72
     0
 90
     7296
310
80557333EF78ADA16C40002412788DD94040000000000000000041161DC7B292
310
7040002412788DD94040000000000000000041161DC7B2927040F6DD59E9338E
310
3C4000000000000000007333EF78ADA16C40F6DD59E9338E3C40000000000000
310
00000000000001000000000100000100000001000000000001000000001C0000
310
D0CF11E0A1B11AE1000000000000000000000000000000003E000300FEFF0900
310
0600000000000000000000000100000001000000000000000010000002000000
310
01000000FEFFFFFF0000000000000000FFFFFFFFFFFFFFFFFFFFFFFFFFFFFFFF
310
FFFFFFFFFFFFFFFFFFFFFFFFFFFFFFFFFFFFFFFFFFFFFFFFFFFFFFFFFFFFFFFF
310
FFFFFFFFFFFFFFFFFFFFFFFFFFFFFFFFFFFFFFFFFFFFFFFFFFFFFFFFFFFFFFFF
310
FFFFFFFFFFFFFFFFFFFFFFFFFFFFFFFFFFFFFFFFFFFFFFFFFFFFFFFFFFFFFFFF
310
FFFFFFFFFFFFFFFFFFFFFFFFFFFFFFFFFFFFFFFFFFFFFFFFFFFFFFFFFFFFFFFF
310
FFFFFFFFFFFFFFFFFFFFFFFFFFFFFFFFFFFFFFFFFFFFFFFFFFFFFFFFFFFFFFFF
310
FFFFFFFFFFFFFFFFFFFFFFFFFFFFFFFFFFFFFFFFFFFFFFFFFFFFFFFFFFFFFFFF
310
FFFFFFFFFFFFFFFFFFFFFFFFFFFFFFFFFFFFFFFFFFFFFFFFFFFFFFFFFFFFFFFF
310
FFFFFFFFFFFFFFFFFFFFFFFFFFFFFFFFFFFFFFFFFFFFFFFFFFFFFFFFFFFFFFFF
310
FFFFFFFFFFFFFFFFFFFFFFFFFFFFFFFFFFFFFFFFFFFFFFFFFFFFFFFFFFFFFFFF
310
FFFFFFFFFFFFFFFFFFFFFFFFFFFFFFFFFFFFFFFFFFFFFFFFFFFFFFFFFFFFFFFF
310
FFFFFFFFFFFFFFFFFFFFFFFFFFFFFFFFFFFFFFFFFFFFFFFFFFFFFFFFFFFFFFFF
310
FFFFFFFFFFFFFFFFFFFFFFFFFFFFFFFFFFFFFFFFFFFFFFFFFFFFFFFFFFFFFFFF
310
FFFFFFFFFFFFFFFFFFFFFFFFFFFFFFFFFFFFFFFFFFFFFFFFFFFFFFFFFFFFFFFF
310
FDFFFFFFFEFFFFFFFEFFFFFFFEFFFFFF05000000060000000700000008000000
310
090000000A0000000B0000000C000000FEFFFFFFFFFFFFFFFFFFFFFFFFFFFFFF
310
FFFFFFFFFFFFFFFFFFFFFFFFFFFFFFFFFFFFFFFFFFFFFFFFFFFFFFFFFFFFFFFF
310
FFFFFFFFFFFFFFFFFFFFFFFFFFFFFFFFFFFFFFFFFFFFFFFFFFFFFFFFFFFFFFFF
310
FFFFFFFFFFFFFFFFFFFFFFFFFFFFFFFFFFFFFFFFFFFFFFFFFFFFFFFFFFFFFFFF
310
FFFFFFFFFFFFFFFFFFFFFFFFFFFFFFFFFFFFFFFFFFFFFFFFFFFFFFFFFFFFFFFF
310
FFFFFFFFFFFFFFFFFFFFFFFFFFFFFFFFFFFFFFFFFFFFFFFFFFFFFFFFFFFFFFFF
310
FFFFFFFFFFFFFFFFFFFFFFFFFFFFFFFFFFFFFFFFFFFFFFFFFFFFFFFFFFFFFFFF
310
FFFFFFFFFFFFFFFFFFFFFFFFFFFFFFFFFFFFFFFFFFFFFFFFFFFFFFFFFFFFFFFF
310
FFFFFFFFFFFFFFFFFFFFFFFFFFFFFFFFFFFFFFFFFFFFFFFFFFFFFFFFFFFFFFFF
310
FFFFFFFFFFFFFFFFFFFFFFFFFFFFFFFFFFFFFFFFFFFFFFFFFFFFFFFFFFFFFFFF
310
FFFFFFFFFFFFFFFFFFFFFFFFFFFFFFFFFFFFFFFFFFFFFFFFFFFFFFFFFFFFFFFF
310
FFFFFFFFFFFFFFFFFFFFFFFFFFFFFFFFFFFFFFFFFFFFFFFFFFFFFFFFFFFFFFFF
310
FFFFFFFFFFFFFFFFFFFFFFFFFFFFFFFFFFFFFFFFFFFFFFFFFFFFFFFFFFFFFFFF
310
FFFFFFFFFFFFFFFFFFFFFFFFFFFFFFFFFFFFFFFFFFFFFFFFFFFFFFFFFFFFFFFF
310
FFFFFFFFFFFFFFFFFFFFFFFFFFFFFFFFFFFFFFFFFFFFFFFFFFFFFFFFFFFFFFFF
310
52006F006F007400200045006E00740072007900000000000000000000000000
310
0000000000000000000000000000000000000000000000000000000000000000
310
16000500FFFFFFFFFFFFFFFF020000000A00030000000000C000000000000046
310
000000000000000000000000B0FF6BE7A6D1D70103000000C000000000000000
310
01004F006C006500000000000000000000000000000000000000000000000000
310
0000000000000000000000000000000000000000000000000000000000000000
310
0A000200FFFFFFFFFFFFFFFFFFFFFFFF00000000000000000000000000000000
310
0000000000000000000000000000000000000000000000001400000000000000
310
010043006F006D0070004F0062006A0000000000000000000000000000000000
310
0000000000000000000000000000000000000000000000000000000000000000
310
120002010100000003000000FFFFFFFF00000000000000000000000000000000
310
0000000000000000000000000000000000000000010000004D00000000000000
310
01004F006C006500310030004E00610074006900760065000000000000000000
310
0000000000000000000000000000000000000000000000000000000000000000
310
1A000200FFFFFFFFFFFFFFFFFFFFFFFF00000000000000000000000000000000
310
000000000000000000000000000000000000000004000000E411000000000000
310
FEFFFFFF02000000FEFFFFFFFFFFFFFFFFFFFFFFFFFFFFFFFFFFFFFFFFFFFFFF
310
FFFFFFFFFFFFFFFFFFFFFFFFFFFFFFFFFFFFFFFFFFFFFFFFFFFFFFFFFFFFFFFF
310
FFFFFFFFFFFFFFFFFFFFFFFFFFFFFFFFFFFFFFFFFFFFFFFFFFFFFFFFFFFFFFFF
310
FFFFFFFFFFFFFFFFFFFFFFFFFFFFFFFFFFFFFFFFFFFFFFFFFFFFFFFFFFFFFFFF
310
FFFFFFFFFFFFFFFFFFFFFFFFFFFFFFFFFFFFFFFFFFFFFFFFFFFFFFFFFFFFFFFF
310
FFFFFFFFFFFFFFFFFFFFFFFFFFFFFFFFFFFFFFFFFFFFFFFFFFFFFFFFFFFFFFFF
310
FFFFFFFFFFFFFFFFFFFFFFFFFFFFFFFFFFFFFFFFFFFFFFFFFFFFFFFFFFFFFFFF
310
FFFFFFFFFFFFFFFFFFFFFFFFFFFFFFFFFFFFFFFFFFFFFFFFFFFFFFFFFFFFFFFF
310
FFFFFFFFFFFFFFFFFFFFFFFFFFFFFFFFFFFFFFFFFFFFFFFFFFFFFFFFFFFFFFFF
310
FFFFFFFFFFFFFFFFFFFFFFFFFFFFFFFFFFFFFFFFFFFFFFFFFFFFFFFFFFFFFFFF
310
FFFFFFFFFFFFFFFFFFFFFFFFFFFFFFFFFFFFFFFFFFFFFFFFFFFFFFFFFFFFFFFF
310
FFFFFFFFFFFFFFFFFFFFFFFFFFFFFFFFFFFFFFFFFFFFFFFFFFFFFFFFFFFFFFFF
310
FFFFFFFFFFFFFFFFFFFFFFFFFFFFFFFFFFFFFFFFFFFFFFFFFFFFFFFFFFFFFFFF
310
FFFFFFFFFFFFFFFFFFFFFFFFFFFFFFFFFFFFFFFFFFFFFFFFFFFFFFFFFFFFFFFF
310
FFFFFFFFFFFFFFFFFFFFFFFFFFFFFFFFFFFFFFFFFFFFFFFFFFFFFFFFFFFFFFFF
310
FFFFFFFFFFFFFFFFFFFFFFFFFFFFFFFFFFFFFFFFFFFFFFFFFFFFFFFFFFFFFFFF
310
0100000200000000000000000000000000000000000000000000000000000000
310
0000000000000000000000000000000000000000000000000000000000000000
310
0100FEFF030A0000FFFFFFFF0A00030000000000C00000000000004607000000
310
5042727573680007000000504272757368000700000050427275736800F439B2
310
7100000000000000000000000000000000000000000000000000000000000000
310
0000000000000000000000000000000000000000000000000000000000000000
310
0000000000000000000000000000000000000000000000000000000000000000
310
0000000000000000000000000000000000000000000000000000000000000000
310
0000000000000000000000000000000000000000000000000000000000000000
310
0000000000000000000000000000000000000000000000000000000000000000
310
0000000000000000000000000000000000000000000000000000000000000000
310
0000000000000000000000000000000000000000000000000000000000000000
310
0000000000000000000000000000000000000000000000000000000000000000
310
0000000000000000000000000000000000000000000000000000000000000000
310
0000000000000000000000000000000000000000000000000000000000000000
310
0000000000000000000000000000000000000000000000000000000000000000
310
E0110000424DDE11000000000000360400002800000096000000170000000100
310
08000000000000000000E7240000E72400000001000000010000000000FF0101
310
01FF020202FF030303FF040404FF050505FF060606FF070707FF080808FF0909
310
09FF0A0A0AFF0B0B0BFF0C0C0CFF0D0D0DFF0E0E0EFF0F0F0FFF101010FF1111
310
11FF121212FF131313FF141414FF151515FF161616FF171717FF181818FF1919
310
19FF1A1A1AFF1B1B1BFF1C1C1CFF1D1D1DFF1E1E1EFF1F1F1FFF202020FF2121
310
21FF222222FF232323FF242424FF252525FF262626FF272727FF282828FF2929
310
29FF2A2A2AFF2B2B2BFF2C2C2CFF2D2D2DFF2E2E2EFF2F2F2FFF303030FF3131
310
31FF323232FF333333FF343434FF353535FF363636FF373737FF383838FF3939
310
39FF3A3A3AFF3B3B3BFF3C3C3CFF3D3D3DFF3E3E3EFF3F3F3FFF404040FF4141
310
41FF424242FF434343FF444444FF454545FF464646FF474747FF484848FF4949
310
49FF4A4A4AFF4B4B4BFF4C4C4CFF4D4D4DFF4E4E4EFF4F4F4FFF505050FF5151
310
51FF525252FF535353FF545454FF555555FF565656FF575757FF585858FF5959
310
59FF5A5A5AFF5B5B5BFF5C5C5CFF5D5D5DFF5E5E5EFF5F5F5FFF606060FF6161
310
61FF626262FF636363FF646464FF656565FF666666FF676767FF686868FF6969
310
69FF6A6A6AFF6B6B6BFF6C6C6CFF6D6D6DFF6E6E6EFF6F6F6FFF707070FF7171
310
71FF727272FF737373FF747474FF757575FF767676FF777777FF787878FF7979
310
79FF7A7A7AFF7B7B7BFF7C7C7CFF7D7D7DFF7E7E7EFF7F7F7FFF808080FF8181
310
81FF828282FF838383FF848484FF858585FF868686FF878787FF888888FF8989
310
89FF8A8A8AFF8B8B8BFF8C8C8CFF8D8D8DFF8E8E8EFF8F8F8FFF909090FF9191
310
91FF929292FF939393FF949494FF959595FF969696FF979797FF989898FF9999
310
99FF9A9A9AFF9B9B9BFF9C9C9CFF9D9D9DFF9E9E9EFF9F9F9FFFA0A0A0FFA1A1
310
A1FFA2A2A2FFA3A3A3FFA4A4A4FFA5A5A5FFA6A6A6FFA7A7A7FFA8A8A8FFA9A9
310
A9FFAAAAAAFFABABABFFACACACFFADADADFFAEAEAEFFAFAFAFFFB0B0B0FFB1B1
310
B1FFB2B2B2FFB3B3B3FFB4B4B4FFB5B5B5FFB6B6B6FFB7B7B7FFB8B8B8FFB9B9
310
B9FFBABABAFFBBBBBBFFBCBCBCFFBDBDBDFFBEBEBEFFBFBFBFFFC0C0C0FFC1C1
310
C1FFC2C2C2FFC3C3C3FFC4C4C4FFC5C5C5FFC6C6C6FFC7C7C7FFC8C8C8FFC9C9
310
C9FFCACACAFFCBCBCBFFCCCCCCFFCDCDCDFFCECECEFFCFCFCFFFD0D0D0FFD1D1
310
D1FFD2D2D2FFD3D3D3FFD4D4D4FFD5D5D5FFD6D6D6FFD7D7D7FFD8D8D8FFD9D9
310
D9FFDADADAFFDBDBDBFFDCDCDCFFDDDDDDFFDEDEDEFFDFDFDFFFE0E0E0FFE1E1
310
E1FFE2E2E2FFE3E3E3FFE4E4E4FFE5E5E5FFE6E6E6FFE7E7E7FFE8E8E8FFE9E9
310
E9FFEAEAEAFFEBEBEBFFECECECFFEDEDEDFFEEEEEEFFEFEFEFFFF0F0F0FFF1F1
310
F1FFF2F2F2FFF3F3F3FFF4F4F4FFF5F5F5FFF6F6F6FFF7F7F7FFF8F8F8FFF9F9
310
F9FFFAFAFAFFFBFBFBFFFCFCFCFFFDFDFDFFFEFEFEFFFFFFFFFFFFFFFFFFFFFF
310
C94E4E4E4F4E4EFFFFFFFFFFC94E4E4E4E4E72FFFFFFFFFFFFFF734E4D4E4E4E
310
C9FFFFFFFFFFAA683516171616265B9BE9FFFFFFFFFF4E4E4E4D4E4EFFFFFFFF
310
FFFFFFFF4E4E4F4E4D4E4E4E4F4E4E4F4D4E4E4E4E4E4D4E4F4E4D4E4E4EAAFF
310
FFFFFFFFFFEA4E4F4F4E4E4E4E4E4D4D4F4F4E4E4E4E4E5B7FAAFFFFFFFFFFFF
310
C9744E1716171616164D8DEAFFFFFFFF0000FFFFFFFFFFFFBA161617161716FF
310
FFFFFFFFB917171616174FFFFFFFFFFFFFFF4E1716161616B9FFFFFFB9341717
310
1716171617171616268CFFFFFFFF161617161617FFFFFFFFFFFFFFB917161717
310
1617167F807F7F7F7F7F7F807F7F807F7F807F7F7F414EFFFFFFFFFFFF8C167F
310
7F807F7F7F7E7F7F807F807F7F807F4E3417258EFFFFEA4E162674AABAEAEBBA
310
AA74341680FFFFFF0000FFFFFFFFFFFFB9171717171617FFFFFFFFFFBB161616
310
16164EFFFFFFFFFFFFFF4E1717171717B9FFFF9C171617171716161616171616
310
171766FFFFFF161717161617FFFFFFFFFFFFFF8E16171717161616FFFFFFFFFF
310
FFFFFFFFFFFFFFFFFFFFFFFFFFAA16D9FFFFFFFFFF3467FFFFFFFFEAFFFFFFFF
310
FFFFFFFFFFFFFFFFFFCA671667EB26278DFFFFFFFFFFFFFFFFFFFF8C2541EAFF
310
0000FFFFFFFFFFFFB9171717171716FFFFFFFFFFBA16171617174EFFFFFFFFFF
310
FFFF4E1717161616BAFF9B1617161616171716171617161616161667FFFF1616
310
16161716FFFFFFFFFFFFFF7F16161617174017FFFFFFFFFFFFFFFFFFFFFFFFFF
310
FFFFFFFFFFFF344E7F7F7F7E7417DAFFFFFFFF80FFFFFFFFFFFFFFFFFFFFFFFF
310
FFFFFF9B163425CAFFFFFFFFFFFFFFFFFFFFFFFFCA2667FF0000FFFFFFFFFFFF
310
BA171717171617FFFFFFFFFFB916171716164EFFFFFFFFFFFFFF4F1716161717
310
B9C91716171616161716161617171616161617168DFF161716161717FFFFFFFF
310
FFFFFF7F17171716164F16FFFFFFFFFFFFFFFFFFFFFFFFFFFFFFFFFFFFFF9B16
310
17161617174EFFFFFFFFFF34FFFFFFFFD9BABABABABADAFFFFFFFFFF7F16AAFF
310
FFFFFFFFFFFFFFFFFFFFFFFFFF9C16BA0000FFFFFFFFFFFFB9161717161717FF
310
FFFFFFFFB917161716174DFFFFFFFFFFFFFF4E1616161616BA4E161617171716
310
419BEAEAAA4E16161617161726E9171717161616FFFFFFFFFFFFFF4F16161717
310
164E16FFFFFFFFFFBAB9B9B9B9B9BABABACAFFFFFFFFFFFFFFFFFFFFFFFFFFFF
310
FFFFBA16FFFFFFFF7F1617161617174DEAFFFFFFEA41FFFFFFFFFFAA4D16174E
310
9BFFFFFFFFFF34730000FFFFFFFFFFFFB9161617171617FFFFFFFFFFBA161616
310
16164EFFFFFFFFFFFFFF4F16161717169B1617161716175BFFFFFFFFFFFF7417
310
16171616168D171717161617FFFFFFFFFFFFEA2616171717167416FFFFFFFFFF
310
16171616171717171717EAFFFFFFFFFFFFFFFFFFFFFFFFFFFFFF6716FFFFFFFF
310
7F4EFFFFFFFFBA2573FFFFFFFFBAFFFFFFFFAA167FB9BB9B269BFFFFFFFF664F
310
0000FFFFFFFFFFFFB9171616161616FFFFFFFFFFBA16161717164EFFFFFFFFFF
310
FFFF4E16161616174E161617171626EAFFFFFFFFFFFFFF4E16161616164E1716
310
16161617FFFFFFFFFFFF671616161716347F16FFFFFFFFFF16B9FFFFFFFFFFFF
310
D9168DFFFFFFFFFFFFFFFFFFFFFFFFFFFFEA1716FFFFFFFF7F4EFFFFFFFFFF7F
310
4EFFFFFFFFFFFFFFFFFF5B66FFFFFFEA347FFFFFFFFF7F4D0000FFFFFFFFFFFF
310
B9171616171617FFFFFFFFFFBA17161716174EFFFFFFFFFFFFFF4D1716161617
310
17161716161673FFFFFFFFFFFFFFFF9B1617161717161616171616174F4E4E4E
310
4E341616171616167E7F16FFFFFFFFFF16BAFFFFFFFFFFFFFF5B41FFFFFFFF34
310
1616171616BAFFFFFF9B1716FFFFFFFF7F4EFFFFFFFFFF4E4EFFFFFFFF734E4E
310
4E4E267EDA9B67164EEAFFFFFFFF744D0000FFFFFFFFFFFFBA171717161617FF
310
FFFFFFFFBA1616171616347F7F7F7F80807F331616161717161717161716B9FF
310
FFFFFFFFFFFFFFE9161616161616171716161716171616161616171616171734
310
EA7F16FFFFFFFFFF16BAFFFFFFFFFFFFFFAA17C9FFFFFF7326BABA5B25FFFFFF
310
FF401716FFFFFFFF7F264F4E4E4E4217AAFFFFFFEA16677F73261616164173CA
310
FFFFFFFFFFFF417F0000FFFFFFFFFFFFBA171616171617FFFFFFFFFFBA161616
310
17171616161616161616161717161616161616161617EAFFFFFFFFFFFFFFFFFF
310
261717161716161617161616161617161617161616174EEAFF8016FFFFFFFFFF
310
17BAFFFFFFFFFFFFFFFF3467FFFFFFC916C9FF3467FFFFFFDA166716FFFFFFFF
310
9C4D4E4E4E4E67AAFFFFFFFF6834FF7F262567AAEAFFFFFFFFFFFFFFFF9B17D9
310
0000FFFFFFFFFFFFB9161616161616FFFFFFFFFFBA1617161717171616161616
310
1716171716161716161617171716FFFFFFFFFFFFFFFFFFFF4E17161716171616
310
1617171616161716171717161616169BFF7F17FFFFFFFFFF17B9FFFFFFFFFFFF
310
FFFF7326FFFFFFFF3473DA16AAFFFFFF7317AA16FFFFFFFFFFFFFFFFFFFFFFFF
310
FFFFEA6725BA4E167FEAFFFFFFFFFFFFFFFFFFFF9C167FFF0000FFFFFFFFFFFF
310
B9161717171716FFFFFFFFFFBA16161716171616171717161617161716161616
310
171617171617EAFFFFFFFFFFFFFFFFFF26161717161616161616161617171616
310
1616161616171616AA8016FFFFFFFFFF16BAFFFFFFFFFFFFFFFFDA179BFFFFFF
310
74348D26FFFFFFFF2566B917FFFFFFFFD8BAB9BAB9BADAFFFFEA41169B7425C9
310
FFFFFFFFFFFFFFFFFFFFAB4F1680FFFF0000FFFFFFFFFFFFBA161717171617FF
310
FFFFFFFFBA17161717161617171617161616161617171616171716171617BBFF
310
FFFFFFFFFFFFFFE9171616161617161617161716FFFFFFFFFFD9671616161617
310
348017FFFFFFFFFF16BAFFFFFFFFFFFFFFFFFF4E5AFFFFFFC916265AFFFFFFAA
310
16AABA16FFFFFFFF7F1617161616179BFFFFEB4127168DFFFFFFFFFFFFFFD99B
310
6734175AC9FFFFFF0000FFFFFFFFFFFFB9161617171617FFFFFFFFFFBB161616
310
1616347F807F7F7F7F8033171716171617171616161672FFFFFFFFFFFFFFFF9C
310
171617171617161716161617FFFFFFFFFFFFFF4117161616174E17FFFFFFFFFF
310
16BAFFFFFFFFFFFFFFFFFF9B16DAFFFFFF34169BFFFFFF5A26FFB917FFFFFFFF
310
7F4EFFFFFFEA5B26FFFFFFEA2616EAFFFFFFFFDA743416331617414E4E4E4ECA
310
0000FFFFFFFFFFFFBA161716161616FFFFFFFFFFBA17171616164EFFFFFFFFFF
310
FFFF4E16161717174E161717171626EBFFFFFFFFFFFFFF4E16161617165B1616
310
16171617FFFFFFFFFFFFFF6716161616161617FFFFFFFFFF16BAFFFFFFFFFFFF
310
FFFFFFEA268CFFFFFF7316EAFFFFEB1774FFB916FFFFFFFF7F4EFFFFFFFF7316
310
FFFFFFFF6826FFFFFFFFEB264D9CEABA257F807F7F6616BA0000FFFFFFFFFFFF
310
BA161716161616FFFFFFFFFFBA16171616164DFFFFFFFFFFFFFF4E1617161617
310
9B1617171717165BEBFFFFFFFFFF671616161617179B171616161616FFFFFFFF
310
FFFFFF3417161617171617FFFFFFFFFF17BAFFFFFFFFFFFFFFFFFFFF6734FFFF
310
FFEBCAFFFFFF8D17C9FFBA17FFFFFFFF7F357F808066174FFFFFFFFF7F16FFFF
310
FFFFD91673B99B415BFFFFFFFFBA16DA00009B7F7F7F807F671617161616167F
310
80807F7E6617161616164EFFFFFFFFFFFFFF4E1616161617B94E171716161616
310
349BC9D9AA4E16171616161634FF161617161717B9B9BAB9BA9B411716171716
310
163416FFFFFFFFFF16B9FFFFFFFFFFFFFFFFFFFFC917CAFFFFFFFFFFFFFF3342
310
FFFFBA17FFFFFFFF9B4E4E4F4E4E66EAFFFFFFFF5B16C9FFFFFFFFAA4E164E73
310
EAFFFFFFFF8D26FF00004E161716161616171617171616171717171617161616
310
17174EFFFFFFFFFFFFFF4E1717171616B9D92616171716171716171717171716
310
16171716AAFF161717171617161617171616161617161716166717FFFFFFFFFF
310
17B9FFFFFFFFFFFFFFFFFFFFFF3467FFFFFFFFFFFFCA168CFFFFBB17FFFFFFFF
310
FFFFFFFFFFFFFFFFFFFFFFEA26265BFFFFFFFFFFFFFFFFFFFFFFFFFFEA3467FF
310
00004D16161616161617161717161617161616171617171616164EFFFFFFFFFF
310
FFFF4D1617161616BAFF9B1616161616161716161616171717161766FFFF1616
310
16171617161617161716171616171717667F16FFFFFFFFFF17BAFFFFFFFFFFFF
310
FFFFFFFFFF8C26EAFFFFFFFFFF6617EAFFFFBA17FFFFFFFFFFFFFFFFFFFFFFFF
310
FFFFEA5A25BA269BFFFFFFFFFFFFFFFFFFFFFFFF6616DAFF00004E1616171616
310
1616161616161716161617171616171616174EFFFFFFFFFFFFFF4D1717171716
310
B9FFFF9C161616161616161716161717171667FFFFFF17161717171716161617
310
1716161616161641E97E16FFFFFFFFFF16B9FFFFFFFFFFFFFFFFFFFFFFEA169B
310
FFFFFFFFEA265BFFFFFFB916FFFFFFFFFFFFFFFFFFFFFFFFFF9B3416AAFF9B17
310
67EAFFFFFFFFFFFFFFFFEA5B169BFFFF00004D17161716161616161717171616
310
161717161716171716174EFFFFFFFFFFFFFF4D1616161616BAFFFFFFBB411616
310
161716161616171634ABFFFFFFFF161716161617171716171617171617267FFF
310
FF7F164E4E4E4E4F17BAFFFFFFFFFFFFFFFFFFFFFFFF66344D4E4E4F4117AAFF
310
FFFFBA174E4E4E4D4E4D4D4E4E4E4E4116174EBBFFFFFFCA342666ABEAFFFFEA
310
AA6725269CFFFFFF0000724F4E4D4D4D4E4D4D4E4E4E4D4E4E4E4E4E4E4E4E4D
310
4E4E74FFFFFFFFFFFFFF734E4E4E4D4ECAFFFFFFFFFFAA663416171717265B9B
310
FFFFFFFFFFFF7F8080807F80807F7F7F7F7F807FBAFFFFFFFF9B4E4E4F4D4D4E
310
4DC9FFFFFFFFFFFFFFFFFFFFFFFFBA4E4E4E4E4D4E4EFFFFFFFFC94E4E4E4F4E
310
4E4E4D4E4E5A807F9CD9FFFFFFFFFFFFFF9B5B2617171716174E8DEAFFFFFFFF
310
0000000000000000000000000000000000000000000000000000000000000000
  1
OLE
  0
ENDSEC
  0
SECTION
  2
OBJECTS
  0
DICTIONARY
  5
C
330
0
100
AcDbDictionary
  3
ACAD_GROUP
350
D
  3
ACAD_MLINESTYLE
350
17
  3
ACAD_SCALELIST
350
47
1001
ACAD
1000
TREAT_AS_HARD
1070
     0
  0
DICTIONARY
  5
D
102
{ACAD_REACTORS
330
C
102
}
330
C
100
AcDbDictionary
1001
ACAD
1000
TREAT_AS_HARD
1070
     0
  0
DICTIONARY
  5
17
102
{ACAD_REACTORS
330
C
102
}
330
C
100
AcDbDictionary
  3
STANDARD
350
18
1001
ACAD
1000
TREAT_AS_HARD
1070
     0
  0
DICTIONARY
  5
47
102
{ACAD_REACTORS
330
C
102
}
330
C
100
AcDbDictionary
1001
ACAD
1000
TREAT_AS_HARD
1070
     0
  0
MLINESTYLE
  5
18
102
{ACAD_REACTORS
330
17
102
}
330
17
100
AcDbMlineStyle
  2
Standard
 70
     0
  3

 62
   256
 51
90.0
 52
90.0
 71
     2
 49
0.5
 62
   256
  6
BYLAYER
 49
-0.5
 62
   256
  6
BYLAYER
  0
ENDSEC
  0
EOF
