  0
SECTION
  2
HEADER
  9
$ACADVER
  1
AC1015
  9
$ACADMAINTVER
 70
     6
  9
$DWGCODEPAGE
  3
ANSI_1252
  9
$INSBASE
 10
0.0
 20
0.0
 30
0.0
  9
$EXTMIN
 10
0.0
 20
0.0
 30
0.0
  9
$EXTMAX
 10
11.0
 20
8.5
 30
0.0
  9
$LIMMIN
 10
0.0
 20
0.0
  9
$LIMMAX
 10
0.0
 20
0.0
  9
$ORTHOMODE
 70
     0
  9
$REGENMODE
 70
     1
  9
$FILLMODE
 70
     1
  9
$QTEXTMODE
 70
     0
  9
$MIRRTEXT
 70
     1
  9
$LTSCALE
 40
1.0
  9
$ATTMODE
 70
     1
  9
$TEXTSIZE
 40
0.1388888889
  9
$TRACEWID
 40
0.05
  9
$TEXTSTYLE
  7
Standard
  9
$CLAYER
  8
0
  9
$CELTYPE
  6
ByLayer
  9
$CECOLOR
 62
   256
  9
$CELTSCALE
 40
1.0
  9
$DISPSILH
 70
     0
  9
$DIMSCALE
 40
1.0
  9
$DIMASZ
 40
0.156
  9
$DIMEXO
 40
0.05
  9
$DIMDLI
 40
0.38
  9
$DIMRND
 40
0.0
  9
$DIMDLE
 40
0.0
  9
$DIMEXE
 40
0.125
  9
$DIMTP
 40
0.0
  9
$DIMTM
 40
0.0
  9
$DIMTXT
 40
0.1388888889
  9
$DIMCEN
 40
0.09
  9
$DIMTSZ
 40
0.0
  9
$DIMTOL
 70
     0
  9
$DIMLIM
 70
     0
  9
$DIMTIH
 70
     1
  9
$DIMTOH
 70
     1
  9
$DIMSE1
 70
     0
  9
$DIMSE2
 70
     0
  9
$DIMTAD
 70
     0
  9
$DIMZIN
 70
     0
  9
$DIMBLK
  1

  9
$DIMASO
 70
     1
  9
$DIMSHO
 70
     1
  9
$DIMPOST
  1

  9
$DIMAPOST
  1

  9
$DIMALT
 70
     0
  9
$DIMALTD
 70
     2
  9
$DIMALTF
 40
25.4
  9
$DIMLFAC
 40
0.5
  9
$DIMTOFL
 70
     0
  9
$DIMTVP
 40
0.0
  9
$DIMTIX
 70
     0
  9
$DIMSOXD
 70
     0
  9
$DIMSAH
 70
     0
  9
$DIMBLK1
  1

  9
$DIMBLK2
  1

  9
$DIMSTYLE
  2
Standard
  9
$DIMCLRD
 70
     0
  9
$DIMCLRE
 70
     0
  9
$DIMCLRT
 70
     0
  9
$DIMTFAC
 40
1.0
  9
$DIMGAP
 40
0.06
  9
$DIMJUST
 70
     0
  9
$DIMSD1
 70
     0
  9
$DIMSD2
 70
     0
  9
$DIMTOLJ
 70
     1
  9
$DIMTZIN
 70
     0
  9
$DIMALTZ
 70
     0
  9
$DIMALTTZ
 70
     0
  9
$DIMUPT
 70
     0
  9
$DIMDEC
 70
     4
  9
$DIMTDEC
 70
     4
  9
$DIMALTU
 70
     2
  9
$DIMALTTD
 70
     2
  9
$DIMTXSTY
  7
Standard
  9
$DIMAUNIT
 70
     0
  9
$DIMADEC
 70
     0
  9
$DIMALTRND
 40
0.0
  9
$DIMAZIN
 70
     0
  9
$DIMDSEP
 70
    46
  9
$DIMATFIT
 70
     3
  9
$DIMFRAC
 70
     0
  9
$DIMLDRBLK
  1

  9
$DIMLUNIT
 70
     2
  9
$DIMLWD
 70
    -2
  9
$DIMLWE
 70
    -2
  9
$DIMTMOVE
 70
     0
  9
$LUNITS
 70
     2
  9
$LUPREC
 70
     2
  9
$SKETCHINC
 40
0.1
  9
$FILLETRAD
 40
0.5
  9
$AUNITS
 70
     0
  9
$AUPREC
 70
     0
  9
$MENU
  1
.
  9
$ELEVATION
 40
0.0
  9
$PELEVATION
 40
0.0
  9
$THICKNESS
 40
0.0
  9
$LIMCHECK
 70
     0
  9
$CHAMFERA
 40
0.5
  9
$CHAMFERB
 40
0.5
  9
$CHAMFERC
 40
1.0
  9
$CHAMFERD
 40
0.0
  9
$SKPOLY
 70
     0
  9
$TDCREATE
 40
2454805.326139456
  9
$TDUCREATE
 40
2454805.534472789
  9
$TDUPDATE
 40
2454805.326139468
  9
$TDUUPDATE
 40
2454805.534472801
  9
$TDINDWG
 40
0.0000000116
  9
$TDUSRTIMER
 40
0.0000000116
  9
$USRTIMER
 70
     1
  9
$ANGBASE
 50
0.0
  9
$ANGDIR
 70
     0
  9
$PDMODE
 70
     0
  9
$PDSIZE
 40
-1.0
  9
$PLINEWID
 40
0.0
  9
$SPLFRAME
 70
     0
  9
$SPLINETYPE
 70
     6
  9
$SPLINESEGS
 70
     8
  9
$HANDSEED
  5
471
  9
$SURFTAB1
 70
     6
  9
$SURFTAB2
 70
     6
  9
$SURFTYPE
 70
     6
  9
$SURFU
 70
     6
  9
$SURFV
 70
     6
  9
$UCSBASE
  2

  9
$UCSNAME
  2

  9
$UCSORG
 10
0.0
 20
0.0
 30
0.0
  9
$UCSXDIR
 10
1.0
 20
0.0
 30
0.0
  9
$UCSYDIR
 10
0.0
 20
1.0
 30
0.0
  9
$UCSORTHOREF
  2

  9
$UCSORTHOVIEW
 70
     0
  9
$UCSORGTOP
 10
0.0
 20
0.0
 30
0.0
  9
$UCSORGBOTTOM
 10
0.0
 20
0.0
 30
0.0
  9
$UCSORGLEFT
 10
0.0
 20
0.0
 30
0.0
  9
$UCSORGRIGHT
 10
0.0
 20
0.0
 30
0.0
  9
$UCSORGFRONT
 10
0.0
 20
0.0
 30
0.0
  9
$UCSORGBACK
 10
0.0
 20
0.0
 30
0.0
  9
$PUCSBASE
  2

  9
$PUCSNAME
  2

  9
$PUCSORG
 10
0.0
 20
0.0
 30
0.0
  9
$PUCSXDIR
 10
1.0
 20
0.0
 30
0.0
  9
$PUCSYDIR
 10
0.0
 20
1.0
 30
0.0
  9
$PUCSORTHOREF
  2

  9
$PUCSORTHOVIEW
 70
     0
  9
$PUCSORGTOP
 10
0.0
 20
0.0
 30
0.0
  9
$PUCSORGBOTTOM
 10
0.0
 20
0.0
 30
0.0
  9
$PUCSORGLEFT
 10
0.0
 20
0.0
 30
0.0
  9
$PUCSORGRIGHT
 10
0.0
 20
0.0
 30
0.0
  9
$PUCSORGFRONT
 10
0.0
 20
0.0
 30
0.0
  9
$PUCSORGBACK
 10
0.0
 20
0.0
 30
0.0
  9
$USERI1
 70
     0
  9
$USERI2
 70
     0
  9
$USERI3
 70
     0
  9
$USERI4
 70
     0
  9
$USERI5
 70
     0
  9
$USERR1
 40
0.0
  9
$USERR2
 40
0.0
  9
$USERR3
 40
0.0
  9
$USERR4
 40
0.0
  9
$USERR5
 40
0.0
  9
$WORLDVIEW
 70
     1
  9
$SHADEDGE
 70
     3
  9
$SHADEDIF
 70
    70
  9
$TILEMODE
 70
     1
  9
$MAXACTVP
 70
    64
  9
$PINSBASE
 10
0.0
 20
0.0
 30
0.0
  9
$PLIMCHECK
 70
     0
  9
$PEXTMIN
 10
1.0000000000E+20
 20
1.0000000000E+20
 30
1.0000000000E+20
  9
$PEXTMAX
 10
-1.0000000000E+20
 20
-1.0000000000E+20
 30
-1.0000000000E+20
  9
$PLIMMIN
 10
0.0
 20
0.0
  9
$PLIMMAX
 10
12.0
 20
9.0
  9
$UNITMODE
 70
     0
  9
$VISRETAIN
 70
     1
  9
$PLINEGEN
 70
     0
  9
$PSLTSCALE
 70
     1
  9
$TREEDEPTH
 70
  3020
  9
$CMLSTYLE
  2
Standard
  9
$CMLJUST
 70
     0
  9
$CMLSCALE
 40
1.0
  9
$PROXYGRAPHICS
 70
     1
  9
$MEASUREMENT
 70
     0
  9
$CELWEIGHT
370
    -1
  9
$ENDCAPS
280
     0
  9
$JOINSTYLE
280
     0
  9
$LWDISPLAY
290
     1
  9
$INSUNITS
 70
     1
  9
$HYPERLINKBASE
  1

  9
$STYLESHEET
  1

  9
$XEDIT
290
     1
  9
$CEPSNTYPE
380
     0
  9
$PSTYLEMODE
290
     1
  9
$FINGERPRINTGUID
  2
{AEADA422-7599-4914-9E06-DF4CDE272F53}
  9
$VERSIONGUID
  2
{FAEB1C32-E019-11D5-929B-00C0DF256EC4}
  9
$EXTNAMES
290
     1
  9
$PSVPSCALE
 40
0.0
  9
$OLESTARTUP
290
     0
  0
ENDSEC
  0
SECTION
  2
CLASSES
  0
CLASS
  1
ACDBDICTIONARYWDFLT
  2
AcDbDictionaryWithDefault
  3
ObjectDBX Classes
 90
        0
280
     0
281
     0
  0
CLASS
  1
ACDBPLACEHOLDER
  2
AcDbPlaceHolder
  3
ObjectDBX Classes
 90
        0
280
     0
281
     0
  0
CLASS
  1
LAYOUT
  2
AcDbLayout
  3
ObjectDBX Classes
 90
        0
280
     0
281
     0
  0
ENDSEC
  0
SECTION
  2
TABLES
  0
TABLE
  2
VPORT
  5
8
330
0
100
AcDbSymbolTable
 70
     1
  0
VPORT
  5
29
330
8
100
AcDbSymbolTableRecord
100
AcDbViewportTableRecord
  2
*Active
 70
     0
 10
0.0
 20
0.0
 11
1.0
 21
1.0
 12
5.5
 22
4.25
 13
0.0
 23
0.0
 14
0.5
 24
0.5
 15
0.5
 25
0.5
 16
0.0
 26
0.0
 36
1.0
 17
0.0
 27
0.0
 37
0.0
 40
8.5
 41
1.2941176471
 42
50.0
 43
0.0
 44
0.0
 50
0.0
 51
0.0
 71
     0
 72
  2000
 73
     1
 74
     3
 75
     0
 76
     0
 77
     0
 78
     0
281
     0
 65
     1
110
0.0
120
0.0
130
0.0
111
1.0
121
0.0
131
0.0
112
0.0
122
1.0
132
0.0
 79
     0
146
0.0
  0
ENDTAB
  0
TABLE
  2
LTYPE
  5
5
330
0
100
AcDbSymbolTable
 70
     6
  0
LTYPE
  5
14
330
5
100
AcDbSymbolTableRecord
100
AcDbLinetypeTableRecord
  2
ByBlock
 70
     0
  3

 72
    65
 73
     0
 40
0.0
  0
LTYPE
  5
15
330
5
100
AcDbSymbolTableRecord
100
AcDbLinetypeTableRecord
  2
ByLayer
 70
     0
  3

 72
    65
 73
     0
 40
0.0
  0
LTYPE
  5
16
330
5
100
AcDbSymbolTableRecord
100
AcDbLinetypeTableRecord
  2
Continuous
 70
     0
  3
Solid line
 72
    65
 73
     0
 40
0.0
  0
LTYPE
  5
2A
330
5
100
AcDbSymbolTableRecord
100
AcDbLinetypeTableRecord
  2
HIDDEN
 70
     0
  3
Hidden __ __ __ __ __ __ __ __ __ __ __ __ __ __
 72
    65
 73
     2
 40
0.075
 49
0.05
 74
     0
 49
-0.025
 74
     0
  0
LTYPE
  5
2B
330
5
100
AcDbSymbolTableRecord
100
AcDbLinetypeTableRecord
  2
PHANTOM
 70
     0
  3
Phantom ______  __  __  ______  __  __  ______
 72
    65
 73
     6
 40
0.5
 49
0.25
 74
     0
 49
-0.05
 74
     0
 49
0.05
 74
     0
 49
-0.05
 74
     0
 49
0.05
 74
     0
 49
-0.05
 74
     0
  0
LTYPE
  5
2C
330
5
100
AcDbSymbolTableRecord
100
AcDbLinetypeTableRecord
  2
CENTER
 70
     0
  3
Center ____ _ ____ _ ____ _ ____ _ ____ _ ____
 72
    65
 73
     4
 40
0.4
 49
0.25
 74
     0
 49
-0.05
 74
     0
 49
0.05
 74
     0
 49
-0.05
 74
     0
  0
LTYPE
  5
2D
330
5
100
AcDbSymbolTableRecord
100
AcDbLinetypeTableRecord
  2
CENTERX2
 70
     0
  3
Center (2x) ________  __  ________  __  _____
 72
    65
 73
     4
 40
0.8
 49
0.5
 74
     0
 49
-0.1
 74
     0
 49
0.1
 74
     0
 49
-0.1
 74
     0
  0
LTYPE
  5
2E
330
5
100
AcDbSymbolTableRecord
100
AcDbLinetypeTableRecord
  2
DOT2
 70
     0
  3
Dot (.5x) ........................................
 72
    65
 73
     2
 40
0.025
 49
0.0
 74
     0
 49
-0.025
 74
     0
  0
ENDTAB
  0
TABLE
  2
LAYER
  5
2
330
0
100
AcDbSymbolTable
 70
     2
  0
LAYER
  5
10
330
2
100
AcDbSymbolTableRecord
100
AcDbLayerTableRecord
  2
0
 70
     0
 62
     7
  6
Continuous
370
    -3
390
F
  0
LAYER
  5
2F
330
2
100
AcDbSymbolTableRecord
100
AcDbLayerTableRecord
  2
FORMAT
 70
     0
 62
     7
  6
Continuous
370
    -3
390
F
  0
ENDTAB
  0
TABLE
  2
STYLE
  5
3
330
0
100
AcDbSymbolTable
 70
    21
  0
STYLE
  5
11
330
3
100
AcDbSymbolTableRecord
100
AcDbTextStyleTableRecord
  2
Standard
 70
     0
 40
0.0
 41
1.0
 50
0.0
 71
     0
 42
0.2
  3
txt
  4

  0
STYLE
  5
4D
330
3
100
AcDbSymbolTableRecord
100
AcDbTextStyleTableRecord
  2
SLDTEXTSTYLE0
 70
     0
 40
0.0
 41
0.75
 50
0.0
 71
     0
 42
0.2
  3
TXT
  4

  0
STYLE
  5
56
330
3
100
AcDbSymbolTableRecord
100
AcDbTextStyleTableRecord
  2
SLDTEXTSTYLE1
 70
     0
 40
0.0
 41
0.6428571429
 50
0.0
 71
     0
 42
0.2
  3
TXT
  4

  0
STYLE
  5
58
330
3
100
AcDbSymbolTableRecord
100
AcDbTextStyleTableRecord
  2
SLDTEXTSTYLE2
 70
     0
 40
0.0
 41
0.7211538462
 50
0.0
 71
     0
 42
0.2
  3
TXT
  4

  0
STYLE
  5
63
330
3
100
AcDbSymbolTableRecord
100
AcDbTextStyleTableRecord
  2
SLDTEXTSTYLE3
 70
     0
 40
0.0
 41
0.6375
 50
0.0
 71
     0
 42
0.2
  3
TXT
  4

  0
STYLE
  5
69
330
3
100
AcDbSymbolTableRecord
100
AcDbTextStyleTableRecord
  2
SLDTEXTSTYLE4
 70
     0
 40
0.0
 41
0.7016129032
 50
0.0
 71
     0
 42
0.2
  3
TXT
  4

  0
STYLE
  5
6B
330
3
100
AcDbSymbolTableRecord
100
AcDbTextStyleTableRecord
  2
SLDTEXTSTYLE5
 70
     0
 40
0.0
 41
0.6853448276
 50
0.0
 71
     0
 42
0.2
  3
TXT
  4

  0
STYLE
  5
6D
330
3
100
AcDbSymbolTableRecord
100
AcDbTextStyleTableRecord
  2
SLDTEXTSTYLE6
 70
     0
 40
0.0
 41
0.689516129
 50
0.0
 71
     0
 42
0.2
  3
TXT
  4

  0
STYLE
  5
6F
330
3
100
AcDbSymbolTableRecord
100
AcDbTextStyleTableRecord
  2
SLDTEXTSTYLE7
 70
     0
 40
0.0
 41
0.6666666667
 50
0.0
 71
     0
 42
0.2
  3
TXT
  4

  0
STYLE
  5
71
330
3
100
AcDbSymbolTableRecord
100
AcDbTextStyleTableRecord
  2
SLDTEXTSTYLE8
 70
     0
 40
0.0
 41
0.7010869565
 50
0.0
 71
     0
 42
0.2
  3
TXT
  4

  0
STYLE
  5
73
330
3
100
AcDbSymbolTableRecord
100
AcDbTextStyleTableRecord
  2
SLDTEXTSTYLE9
 70
     0
 40
0.0
 41
0.7083333333
 50
0.0
 71
     0
 42
0.2
  3
TXT
  4

  0
STYLE
  5
82
330
3
100
AcDbSymbolTableRecord
100
AcDbTextStyleTableRecord
  2
SLDTEXTSTYLE10
 70
     0
 40
0.0
 41
0.65625
 50
0.0
 71
     0
 42
0.2
  3
TXT
  4

  0
STYLE
  5
89
330
3
100
AcDbSymbolTableRecord
100
AcDbTextStyleTableRecord
  2
SLDTEXTSTYLE11
 70
     0
 40
0.0
 41
0.7105263158
 50
0.0
 71
     0
 42
0.2
  3
TXT
  4

  0
STYLE
  5
92
330
3
100
AcDbSymbolTableRecord
100
AcDbTextStyleTableRecord
  2
SLDTEXTSTYLE12
 70
     0
 40
0.0
 41
0.69375
 50
0.0
 71
     0
 42
0.2
  3
TXT
  4

  0
STYLE
  5
94
330
3
100
AcDbSymbolTableRecord
100
AcDbTextStyleTableRecord
  2
SLDTEXTSTYLE13
 70
     0
 40
0.0
 41
0.6988636364
 50
0.0
 71
     0
 42
0.2
  3
TXT
  4

  0
STYLE
  5
96
330
3
100
AcDbSymbolTableRecord
100
AcDbTextStyleTableRecord
  2
SLDTEXTSTYLE14
 70
     0
 40
0.0
 41
0.7115384615
 50
0.0
 71
     0
 42
0.2
  3
TXT
  4

  0
STYLE
  5
99
330
3
100
AcDbSymbolTableRecord
100
AcDbTextStyleTableRecord
  2
SLDTEXTSTYLE15
 70
     0
 40
0.0
 41
0.6796875
 50
0.0
 71
     0
 42
0.2
  3
TXT
  4

  0
STYLE
  5
A3
330
3
100
AcDbSymbolTableRecord
100
AcDbTextStyleTableRecord
  2
SLDTEXTSTYLE16
 70
     0
 40
0.0
 41
0.6995192308
 50
0.0
 71
     0
 42
0.2
  3
TXT
  4

  0
STYLE
  5
434
330
3
100
AcDbSymbolTableRecord
100
AcDbTextStyleTableRecord
  2
SLDTEXTSTYLE17
 70
     0
 40
0.0
 41
0.675
 50
0.0
 71
     0
 42
0.2
  3
TXT
  4

  0
STYLE
  5
436
330
3
100
AcDbSymbolTableRecord
100
AcDbTextStyleTableRecord
  2
SLDTEXTSTYLE18
 70
     0
 40
0.0
 41
0.625
 50
0.0
 71
     0
 42
0.2
  3
TXT
  4

  0
STYLE
  5
43C
330
3
100
AcDbSymbolTableRecord
100
AcDbTextStyleTableRecord
  2
SLDTEXTSTYLE19
 70
     0
 40
0.0
 41
0.6875
 50
0.0
 71
     0
 42
0.2
  3
TXT
  4

  0
ENDTAB
  0
TABLE
  2
VIEW
  5
6
330
0
100
AcDbSymbolTable
 70
     0
  0
ENDTAB
  0
TABLE
  2
UCS
  5
7
330
0
100
AcDbSymbolTable
 70
     0
  0
ENDTAB
  0
TABLE
  2
APPID
  5
9
330
0
100
AcDbSymbolTable
 70
     1
  0
APPID
  5
12
330
9
100
AcDbSymbolTableRecord
100
AcDbRegAppTableRecord
  2
ACAD
 70
     0
  0
ENDTAB
  0
TABLE
  2
DIMSTYLE
  5
A
330
0
100
AcDbSymbolTable
 70
     7
100
AcDbDimStyleTable
  0
DIMSTYLE
105
27
330
A
100
AcDbSymbolTableRecord
100
AcDbDimStyleTableRecord
  2
Standard
 70
     0
340
11
  0
DIMSTYLE
105
D6
102
{ACAD_REACTORS
330
D5
102
}
330
A
100
AcDbSymbolTableRecord
100
AcDbDimStyleTableRecord
  2
SLDDIMSTYLE0
 70
     0
 41
0.156
 44
0.0
 78
     4
140
0.1041666667
147
0.0260416667
170
     1
172
     1
173
     1
271
     2
272
     2
284
    12
340
4D
  0
DIMSTYLE
105
3B0
102
{ACAD_REACTORS
330
3AF
330
3C2
330
3D4
330
3E6
102
}
330
A
100
AcDbSymbolTableRecord
100
AcDbDimStyleTableRecord
  2
SLDDIMSTYLE1
 70
     0
 41
0.156
 44
0.0
 78
    12
140
0.1041666667
147
0.0260416667
170
     1
173
     1
271
     2
272
     2
284
    12
340
4D
  0
DIMSTYLE
105
3F9
102
{ACAD_REACTORS
330
3F8
102
}
330
A
100
AcDbSymbolTableRecord
100
AcDbDimStyleTableRecord
  2
SLDDIMSTYLE2
 70
     0
 41
0.156
 44
0.0
 78
    12
140
0.1041666667
147
0.0260416667
170
     1
173
     1
271
     3
272
     3
284
    12
340
4D
  0
DIMSTYLE
105
40C
102
{ACAD_REACTORS
330
40B
102
}
330
A
100
AcDbSymbolTableRecord
100
AcDbDimStyleTableRecord
  2
SLDDIMSTYLE3
 70
     0
 41
0.156
 44
0.0
 78
     8
140
0.1041666667
147
0.0260416667
170
     1
173
     1
271
     2
272
     2
284
    12
340
4D
  0
DIMSTYLE
105
41F
102
{ACAD_REACTORS
330
41E
102
}
330
A
100
AcDbSymbolTableRecord
100
AcDbDimStyleTableRecord
  2
SLDDIMSTYLE4
 70
     0
 41
0.156
 44
0.0
 78
     4
140
0.1041666667
147
0.0260416667
170
     1
173
     1
271
     2
272
     2
284
    12
340
4D
  0
DIMSTYLE
105
440
330
A
100
AcDbSymbolTableRecord
100
AcDbDimStyleTableRecord
  2
SLDDIMSTYLE5
 70
     0
 41
0.156
 44
0.0
140
0.156
147
0.039
173
     1
271
     0
272
     0
340
11
  0
ENDTAB
  0
TABLE
  2
BLOCK_RECORD
  5
1
330
0
100
AcDbSymbolTable
 70
    22
  0
BLOCK_RECORD
  5
1F
330
1
100
AcDbSymbolTableRecord
100
AcDbBlockTableRecord
  2
*Model_Space
340
22
  0
BLOCK_RECORD
  5
1B
330
1
100
AcDbSymbolTableRecord
100
AcDbBlockTableRecord
  2
*Paper_Space
340
1E
  0
BLOCK_RECORD
  5
23
330
1
100
AcDbSymbolTableRecord
100
AcDbBlockTableRecord
  2
*Paper_Space0
340
26
  0
BLOCK_RECORD
  5
66
330
1
100
AcDbSymbolTableRecord
100
AcDbBlockTableRecord
  2
SW_NOTE_0
340
0
102
{BLKREFS
331
75
102
}
1001
ACAD
1000
DesignCenter Data
1002
{
1070
     1
1070
     0
1002
}
  0
BLOCK_RECORD
  5
7F
330
1
100
AcDbSymbolTableRecord
100
AcDbBlockTableRecord
  2
SW_NOTE_1
340
0
102
{BLKREFS
331
85
102
}
1001
ACAD
1000
DesignCenter Data
1002
{
1070
     1
1070
     0
1002
}
  0
BLOCK_RECORD
  5
86
330
1
100
AcDbSymbolTableRecord
100
AcDbBlockTableRecord
  2
SW_NOTE_2
340
0
102
{BLKREFS
331
8C
102
}
1001
ACAD
1000
DesignCenter Data
1002
{
1070
     1
1070
     0
1002
}
  0
BLOCK_RECORD
  5
8E
330
1
100
AcDbSymbolTableRecord
100
AcDbBlockTableRecord
  2
SW_NOTE_3
340
0
102
{BLKREFS
331
9D
102
}
1001
ACAD
1000
DesignCenter Data
1002
{
1070
     1
1070
     0
1002
}
  0
BLOCK_RECORD
  5
9F
330
1
100
AcDbSymbolTableRecord
100
AcDbBlockTableRecord
  2
SW_NOTE_4
340
0
102
{BLKREFS
331
A5
102
}
1001
ACAD
1000
DesignCenter Data
1002
{
1070
     1
1070
     0
1002
}
  0
BLOCK_RECORD
  5
A6
330
1
100
AcDbSymbolTableRecord
100
AcDbBlockTableRecord
  2
SW_TABLEANNOTATION_0
340
0
102
{BLKREFS
331
C2
102
}
1001
ACAD
1000
DesignCenter Data
1002
{
1070
     1
1070
     0
1002
}
  0
BLOCK_RECORD
  5
D7
330
1
100
AcDbSymbolTableRecord
100
AcDbBlockTableRecord
  2
*D7
340
0
  0
BLOCK_RECORD
  5
3B1
330
1
100
AcDbSymbolTableRecord
100
AcDbBlockTableRecord
  2
*D8
340
0
  0
BLOCK_RECORD
  5
3C3
330
1
100
AcDbSymbolTableRecord
100
AcDbBlockTableRecord
  2
*D9
340
0
  0
BLOCK_RECORD
  5
3D5
330
1
100
AcDbSymbolTableRecord
100
AcDbBlockTableRecord
  2
*D10
340
0
  0
BLOCK_RECORD
  5
3E7
330
1
100
AcDbSymbolTableRecord
100
AcDbBlockTableRecord
  2
*D11
340
0
  0
BLOCK_RECORD
  5
3FA
330
1
100
AcDbSymbolTableRecord
100
AcDbBlockTableRecord
  2
*D12
340
0
  0
BLOCK_RECORD
  5
40D
330
1
100
AcDbSymbolTableRecord
100
AcDbBlockTableRecord
  2
*D13
340
0
  0
BLOCK_RECORD
  5
420
330
1
100
AcDbSymbolTableRecord
100
AcDbBlockTableRecord
  2
*D14
340
0
  0
BLOCK_RECORD
  5
431
330
1
100
AcDbSymbolTableRecord
100
AcDbBlockTableRecord
  2
SW_NOTE_5
340
0
102
{BLKREFS
331
438
102
}
1001
ACAD
1000
DesignCenter Data
1002
{
1070
     1
1070
     0
1002
}
  0
BLOCK_RECORD
  5
439
330
1
100
AcDbSymbolTableRecord
100
AcDbBlockTableRecord
  2
SW_NOTE_6
340
0
102
{BLKREFS
331
43F
102
}
1001
ACAD
1000
DesignCenter Data
1002
{
1070
     1
1070
     0
1002
}
  0
BLOCK_RECORD
  5
444
330
1
100
AcDbSymbolTableRecord
100
AcDbBlockTableRecord
  2
SW_NOTE_7
340
0
102
{BLKREFS
331
449
102
}
1001
ACAD
1000
DesignCenter Data
1002
{
1070
     1
1070
     0
1002
}
  0
BLOCK_RECORD
  5
44B
330
1
100
AcDbSymbolTableRecord
100
AcDbBlockTableRecord
  2
SW_NOTE_8
340
0
102
{BLKREFS
331
450
102
}
1001
ACAD
1000
DesignCenter Data
1002
{
1070
     1
1070
     0
1002
}
  0
BLOCK_RECORD
  5
452
330
1
100
AcDbSymbolTableRecord
100
AcDbBlockTableRecord
  2
SW_NOTE_9
340
0
102
{BLKREFS
331
457
102
}
1001
ACAD
1000
DesignCenter Data
1002
{
1070
     1
1070
     0
1002
}
  0
BLOCK_RECORD
  5
459
330
1
100
AcDbSymbolTableRecord
100
AcDbBlockTableRecord
  2
SW_NOTE_10
340
0
102
{BLKREFS
331
45E
102
}
1001
ACAD
1000
DesignCenter Data
1002
{
1070
     1
1070
     0
1002
}
  0
BLOCK_RECORD
  5
460
330
1
100
AcDbSymbolTableRecord
100
AcDbBlockTableRecord
  2
SW_NOTE_11
340
0
102
{BLKREFS
331
465
102
}
1001
ACAD
1000
DesignCenter Data
1002
{
1070
     1
1070
     0
1002
}
  0
ENDTAB
  0
ENDSEC
  0
SECTION
  2
BLOCKS
  0
BLOCK
  5
20
330
1F
100
AcDbEntity
  8
0
100
AcDbBlockBegin
  2
*Model_Space
 70
     0
 71
     0
 10
0.0
 20
0.0
 30
0.0
  3
*Model_Space
  1

  0
ENDBLK
  5
21
330
1F
100
AcDbEntity
  8
0
100
AcDbBlockEnd
  0
BLOCK
  5
1C
330
1B
100
AcDbEntity
 67
     1
  8
0
100
AcDbBlockBegin
  2
*Paper_Space
 70
     0
 71
     0
 10
0.0
 20
0.0
 30
0.0
  3
*Paper_Space
  1

  0
ENDBLK
  5
1D
330
1B
100
AcDbEntity
 67
     1
  8
0
100
AcDbBlockEnd
  0
BLOCK
  5
24
330
23
100
AcDbEntity
  8
0
100
AcDbBlockBegin
  2
*Paper_Space0
 70
     0
 71
     0
 10
0.0
 20
0.0
 30
0.0
  3
*Paper_Space0
  1

  0
ENDBLK
  5
25
330
23
100
AcDbEntity
  8
0
100
AcDbBlockEnd
  0
BLOCK
  5
67
330
66
100
AcDbEntity
  8
0
100
AcDbBlockBegin
  2
SW_NOTE_0
 70
     0
 71
     0
 10
0.0
 20
0.0
 30
0.0
  3
SW_NOTE_0
  1

  0
MTEXT
  5
6A
330
66
100
AcDbEntity
  8
0
  6
Continuous
 62
     0
370
     0
100
AcDbMText
 10
0.0
 20
0.076640625
 30
0.0
 40
0.06
 41
0.0
 71
     1
 72
     1
  1
THE INFORMATION CONTAINED IN THIS
  7
SLDTEXTSTYLE4
 73
     1
 44
1.0
  0
MTEXT
  5
6C
330
66
100
AcDbEntity
  8
0
  6
Continuous
 62
     0
370
     0
100
AcDbMText
 10
0.0
 20
-0.0227294496
 30
0.0
 40
0.06
 41
0.0
 71
     1
 72
     1
  1
DRAWING IS THE SOLE PROPERTY OF
  7
SLDTEXTSTYLE5
 73
     1
 44
1.0
  0
MTEXT
  5
6E
330
66
100
AcDbEntity
  8
0
  6
Continuous
 62
     0
370
     0
100
AcDbMText
 10
0.0
 20
-0.1220995241
 30
0.0
 40
0.06
 41
0.0
 71
     1
 72
     1
  1
THORLABS, INC.  ANY REPRODUCTION 
  7
SLDTEXTSTYLE6
 73
     1
 44
1.0
  0
MTEXT
  5
70
330
66
100
AcDbEntity
  8
0
  6
Continuous
 62
     0
370
     0
100
AcDbMText
 10
0.0
 20
-0.2214695987
 30
0.0
 40
0.06
 41
0.0
 71
     1
 72
     1
  1
IN PART OR AS A WHOLE WITHOUT
  7
SLDTEXTSTYLE7
 73
     1
 44
1.0
  0
MTEXT
  5
72
330
66
100
AcDbEntity
  8
0
  6
Continuous
 62
     0
370
     0
100
AcDbMText
 10
0.0
 20
-0.3208396733
 30
0.0
 40
0.06
 41
0.0
 71
     1
 72
     1
  1
THE WRITTEN PERMISSION OF
  7
SLDTEXTSTYLE8
 73
     1
 44
1.0
  0
MTEXT
  5
74
330
66
100
AcDbEntity
  8
0
  6
Continuous
 62
     0
370
     0
100
AcDbMText
 10
0.0
 20
-0.4202097478
 30
0.0
 40
0.06
 41
0.0
 71
     1
 72
     1
  1
THORLABS, INC. IS PROHIBITED.
  7
SLDTEXTSTYLE9
 73
     1
 44
1.0
  0
ENDBLK
  5
68
330
66
100
AcDbEntity
  8
0
100
AcDbBlockEnd
  0
BLOCK
  5
80
330
7F
100
AcDbEntity
  8
0
100
AcDbBlockBegin
  2
SW_NOTE_1
 70
     0
 71
     0
 10
0.0
 20
0.0
 30
0.0
  3
SW_NOTE_1
  1

  0
MTEXT
  5
83
330
7F
100
AcDbEntity
  8
0
  6
Continuous
 62
     0
370
     0
100
AcDbMText
 10
0.0
 20
0.1330566406
 30
0.0
 40
0.1041666667
 41
0.0
 71
     1
 72
     1
  1
PO BOX 366
  7
SLDTEXTSTYLE10
 73
     1
 44
1.0
  0
MTEXT
  5
84
330
7F
100
AcDbEntity
  8
0
  6
Continuous
 62
     0
370
     0
100
AcDbMText
 10
0.0
 20
-0.0058322466
 30
0.0
 40
0.1041666667
 41
0.0
 71
     1
 72
     1
  1
NEWTON NJ
  7
SLDTEXTSTYLE0
 73
     1
 44
1.0
  0
ENDBLK
  5
81
330
7F
100
AcDbEntity
  8
0
100
AcDbBlockEnd
  0
BLOCK
  5
87
330
86
100
AcDbEntity
  8
0
100
AcDbBlockBegin
  2
SW_NOTE_2
 70
     0
 71
     0
 10
0.0
 20
0.0
 30
0.0
  3
SW_NOTE_2
  1

  0
MTEXT
  5
8A
330
86
100
AcDbEntity
  8
0
  6
Continuous
 62
     0
370
     0
100
AcDbMText
 10
0.0
 20
0.1330566406
 30
0.0
 40
0.1041666667
 41
0.0
 71
     1
 72
     1
  1
MATCHED ACHROMAT PAIR
  7
SLDTEXTSTYLE11
 73
     1
 44
1.0
  0
MTEXT
  5
8B
330
86
100
AcDbEntity
  8
0
  6
Continuous
 62
     0
370
     0
100
AcDbMText
 10
0.0
 20
-0.0058322466
 30
0.0
 40
0.1041666667
 41
0.0
 71
     1
 72
     1
  1
F1=40mm, F2=50mm
  7
SLDTEXTSTYLE0
 73
     1
 44
1.0
  0
ENDBLK
  5
88
330
86
100
AcDbEntity
  8
0
100
AcDbBlockEnd
  0
BLOCK
  5
8F
330
8E
100
AcDbEntity
  8
0
100
AcDbBlockBegin
  2
SW_NOTE_3
 70
     0
 71
     0
 10
0.0
 20
0.0
 30
0.0
  3
SW_NOTE_3
  1

  0
LINE
  5
91
330
8E
100
AcDbEntity
  8
0
  6
Continuous
 62
     0
370
     0
100
AcDbLine
 10
1.0817708433
 20
-0.6526041506
 30
0.0
 11
1.4039930543
 21
-0.6526041506
 31
0.0
  0
MTEXT
  5
93
330
8E
100
AcDbEntity
  8
0
  6
Continuous
 62
     0
370
     0
100
AcDbMText
 10
0.0
 20
0.1197509766
 30
0.0
 40
0.09375
 41
0.0
 71
     1
 72
     1
  1
DESIGN WAVELENGTH:  486.1, 587.6 & 656.3nm
  7
SLDTEXTSTYLE12
 73
     1
 44
1.0
  0
MTEXT
  5
95
330
8E
100
AcDbEntity
  8
0
  6
Continuous
 62
     0
370
     0
100
AcDbMText
 10
0.0
 20
-0.0052490219
 30
0.0
 40
0.09375
 41
0.0
 71
     1
 72
     1
  1
COATING:  BBAR 400-700nm
  7
SLDTEXTSTYLE13
 73
     1
 44
1.0
  0
MTEXT
  5
97
330
8E
100
AcDbEntity
  8
0
  6
Continuous
 62
     0
370
     0
100
AcDbMText
 10
0.0
 20
-0.1302490204
 30
0.0
 40
0.09375
 41
0.0
 71
     1
 72
     1
  1
COATING RANGE: R(AVG)<0.5% FROM 400-700nm
  7
SLDTEXTSTYLE14
 73
     1
 44
1.0
  0
MTEXT
  5
98
330
8E
100
AcDbEntity
  8
0
  6
Continuous
 62
     0
370
     0
100
AcDbMText
 10
0.0
 20
-0.2552490189
 30
0.0
 40
0.09375
 41
0.0
 71
     1
 72
     1
  1
MAGNIFICATION: 1:1.25
  7
SLDTEXTSTYLE0
 73
     1
 44
1.0
  0
MTEXT
  5
9A
330
8E
100
AcDbEntity
  8
0
  6
Continuous
 62
     0
370
     0
100
AcDbMText
 10
0.0
 20
-0.6091552547
 30
0.0
 40
0.09375
 41
0.0
 71
     1
 72
     1
  1
Dimensions are in 
  7
SLDTEXTSTYLE15
 73
     1
 44
1.0
  0
MTEXT
  5
9B
330
8E
100
AcDbEntity
  8
0
  6
Continuous
 62
     0
370
     0
100
AcDbMText
 10
1.0817708433
 20
-0.5052490159
 30
0.0
 40
0.09375
 41
0.0
 71
     1
 72
     1
  1
[mm]
  7
SLDTEXTSTYLE0
 73
     1
 44
1.0
  0
MTEXT
  5
9C
330
8E
100
AcDbEntity
  8
0
  6
Continuous
 62
     0
370
     0
100
AcDbMText
 10
1.1922743109
 20
-0.6854573399
 30
0.0
 40
0.09375
 41
0.0
 71
     1
 72
     1
  1
in
  7
SLDTEXTSTYLE0
 73
     1
 44
1.0
  0
ENDBLK
  5
90
330
8E
100
AcDbEntity
  8
0
100
AcDbBlockEnd
  0
BLOCK
  5
A0
330
9F
100
AcDbEntity
  8
0
100
AcDbBlockBegin
  2
SW_NOTE_4
 70
     0
 71
     0
 10
0.0
 20
0.0
 30
0.0
  3
SW_NOTE_4
  1

  0
MTEXT
  5
A2
330
9F
100
AcDbEntity
  8
0
  6
Continuous
 62
     0
370
     0
100
AcDbMText
 10
0.0
 20
0.1149609375
 30
0.0
 40
0.09
 41
0.0
 71
     1
 72
     1
  1
NOTE:
  7
SLDTEXTSTYLE0
 73
     1
 44
1.0
  0
MTEXT
  5
A4
330
9F
100
AcDbEntity
  8
0
  6
Continuous
 62
     0
370
     0
100
AcDbMText
 10
0.0
 20
-0.0144091455
 30
0.0
 40
0.09
 41
0.0
 71
     1
 72
     1
  1
FOR INFORMATION ONLY.  NOT INTENDED FOR MANUFACTURING.
  7
SLDTEXTSTYLE16
 73
     1
 44
1.0
  0
ENDBLK
  5
A1
330
9F
100
AcDbEntity
  8
0
100
AcDbBlockEnd
  0
BLOCK
  5
A7
330
A6
100
AcDbEntity
  8
0
100
AcDbBlockBegin
  2
SW_TABLEANNOTATION_0
 70
     0
 71
     0
 10
0.0
 20
0.0
 30
0.0
  3
SW_TABLEANNOTATION_0
  1

  0
LINE
  5
A9
330
A6
100
AcDbEntity
  8
0
  6
Continuous
 62
     0
370
     0
100
AcDbLine
 10
0.0
 20
0.0
 30
0.0
 11
0.0
 21
-1.0877351438
 31
0.0
  0
LINE
  5
AA
330
A6
100
AcDbEntity
  8
0
  6
Continuous
 62
     0
370
     0
100
AcDbLine
 10
0.0
 20
-1.0877351438
 30
0.0
 11
5.3007222216
 21
-1.0877351438
 31
0.0
  0
LINE
  5
AB
330
A6
100
AcDbEntity
  8
0
  6
Continuous
 62
     0
370
     0
100
AcDbLine
 10
5.3007222216
 20
-1.0877351438
 30
0.0
 11
5.3007222216
 21
0.0
 31
0.0
  0
LINE
  5
AC
330
A6
100
AcDbEntity
  8
0
  6
Continuous
 62
     0
370
     0
100
AcDbLine
 10
5.3007222216
 20
0.0
 30
0.0
 11
0.0
 21
0.0
 31
0.0
  0
LINE
  5
AD
330
A6
100
AcDbEntity
  8
0
  6
Continuous
 62
     0
370
     0
100
AcDbLine
 10
1.7669074072
 20
0.0
 30
0.0
 11
1.7669074072
 21
-1.0877351438
 31
0.0
  0
LINE
  5
AE
330
A6
100
AcDbEntity
  8
0
  6
Continuous
 62
     0
370
     0
100
AcDbLine
 10
3.5338148144
 20
0.0
 30
0.0
 11
3.5338148144
 21
-1.0877351438
 31
0.0
  0
LINE
  5
AF
330
A6
100
AcDbEntity
  8
0
  6
Continuous
 62
     0
370
     0
100
AcDbLine
 10
0.0
 20
-0.2175470288
 30
0.0
 11
5.3007222216
 21
-0.2175470288
 31
0.0
  0
LINE
  5
B0
330
A6
100
AcDbEntity
  8
0
  6
Continuous
 62
     0
370
     0
100
AcDbLine
 10
0.0
 20
-0.4350940575
 30
0.0
 11
5.3007222216
 21
-0.4350940575
 31
0.0
  0
LINE
  5
B1
330
A6
100
AcDbEntity
  8
0
  6
Continuous
 62
     0
370
     0
100
AcDbLine
 10
0.0
 20
-0.6526410863
 30
0.0
 11
5.3007222216
 21
-0.6526410863
 31
0.0
  0
LINE
  5
B2
330
A6
100
AcDbEntity
  8
0
  6
Continuous
 62
     0
370
     0
100
AcDbLine
 10
0.0
 20
-0.870188115
 30
0.0
 11
5.3007222216
 21
-0.870188115
 31
0.0
  0
MTEXT
  5
B3
330
A6
100
AcDbEntity
  8
0
  6
Continuous
 62
     0
370
     0
100
AcDbMText
 10
0.6662347763
 20
-0.0391846857
 30
0.0
 40
0.1377952756
 41
0.0
 71
     1
 72
     1
  1
PART
  7
SLDTEXTSTYLE0
 73
     1
 44
1.0
  0
MTEXT
  5
B4
330
A6
100
AcDbEntity
  8
0
  6
Continuous
 62
     0
370
     0
100
AcDbMText
 10
2.2344873384
 20
-0.0391846857
 30
0.0
 40
0.1377952756
 41
0.0
 71
     1
 72
     1
  1
PART NO.
  7
SLDTEXTSTYLE0
 73
     1
 44
1.0
  0
MTEXT
  5
B5
330
A6
100
AcDbEntity
  8
0
  6
Continuous
 62
     0
370
     0
100
AcDbMText
 10
3.9896246982
 20
-0.0391846857
 30
0.0
 40
0.1377952756
 41
0.0
 71
     1
 72
     1
  1
MATERIAL
  7
SLDTEXTSTYLE0
 73
     1
 44
1.0
  0
MTEXT
  5
B6
330
A6
100
AcDbEntity
  8
0
  6
Continuous
 62
     0
370
     0
100
AcDbMText
 10
0.8155129793
 20
-0.2567317144
 30
0.0
 40
0.1377952756
 41
0.0
 71
     1
 72
     1
  1
A
  7
SLDTEXTSTYLE0
 73
     1
 44
1.0
  0
MTEXT
  5
B7
330
A6
100
AcDbEntity
  8
0
  6
Continuous
 62
     0
370
     0
100
AcDbMText
 10
2.0224357113
 20
-0.2567317144
 30
0.0
 40
0.1377952756
 41
0.0
 71
     1
 72
     1
  1
AC254-040-A1
  7
SLDTEXTSTYLE0
 73
     1
 44
1.0
  0
MTEXT
  5
B8
330
A6
100
AcDbEntity
  8
0
  6
Continuous
 62
     0
370
     0
100
AcDbMText
 10
4.0877081451
 20
-0.2567317144
 30
0.0
 40
0.1377952756
 41
0.0
 71
     1
 72
     1
  1
BK7-SF5
  7
SLDTEXTSTYLE0
 73
     1
 44
1.0
  0
MTEXT
  5
B9
330
A6
100
AcDbEntity
  8
0
  6
Continuous
 62
     0
370
     0
100
AcDbMText
 10
0.8307278706
 20
-0.4742787432
 30
0.0
 40
0.1377952756
 41
0.0
 71
     1
 72
     1
  1
B
  7
SLDTEXTSTYLE0
 73
     1
 44
1.0
  0
MTEXT
  5
BA
330
A6
100
AcDbEntity
  8
0
  6
Continuous
 62
     0
370
     0
100
AcDbMText
 10
2.0224357113
 20
-0.4742787432
 30
0.0
 40
0.1377952756
 41
0.0
 71
     1
 72
     1
  1
AC254-050-A1
  7
SLDTEXTSTYLE0
 73
     1
 44
1.0
  0
MTEXT
  5
BB
330
A6
100
AcDbEntity
  8
0
  6
Continuous
 62
     0
370
     0
100
AcDbMText
 10
3.9277125001
 20
-0.4742787432
 30
0.0
 40
0.1377952756
 41
0.0
 71
     1
 72
     1
  1
BAF10-SF10
  7
SLDTEXTSTYLE0
 73
     1
 44
1.0
  0
MTEXT
  5
BC
330
A6
100
AcDbEntity
  8
0
  6
Continuous
 62
     0
370
     0
100
AcDbMText
 10
0.8088145975
 20
-0.691825772
 30
0.0
 40
0.1377952756
 41
0.0
 71
     1
 72
     1
  1
C
  7
SLDTEXTSTYLE0
 73
     1
 44
1.0
  0
MTEXT
  5
BD
330
A6
100
AcDbEntity
  8
0
  6
Continuous
 62
     0
370
     0
100
AcDbMText
 10
2.088079873
 20
-0.691825772
 30
0.0
 40
0.1377952756
 41
0.0
 71
     1
 72
     1
  1
LENS MOUNT
  7
SLDTEXTSTYLE0
 73
     1
 44
1.0
  0
MTEXT
  5
BE
330
A6
100
AcDbEntity
  8
0
  6
Continuous
 62
     0
370
     0
100
AcDbMText
 10
3.5793966839
 20
-0.691825772
 30
0.0
 40
0.1377952756
 41
0.0
 71
     1
 72
     1
  1
6061-T6 ALUMINUM
  7
SLDTEXTSTYLE0
 73
     1
 44
1.0
  0
MTEXT
  5
BF
330
A6
100
AcDbEntity
  8
0
  6
Continuous
 62
     0
370
     0
100
AcDbMText
 10
0.8151302112
 20
-0.9093728007
 30
0.0
 40
0.1377952756
 41
0.0
 71
     1
 72
     1
  1
D
  7
SLDTEXTSTYLE0
 73
     1
 44
1.0
  0
MTEXT
  5
C0
330
A6
100
AcDbEntity
  8
0
  6
Continuous
 62
     0
370
     0
100
AcDbMText
 10
2.3577375412
 20
-0.9093728007
 30
0.0
 40
0.1377952756
 41
0.0
 71
     1
 72
     1
  1
SM1RR
  7
SLDTEXTSTYLE0
 73
     1
 44
1.0
  0
MTEXT
  5
C1
330
A6
100
AcDbEntity
  8
0
  6
Continuous
 62
     0
370
     0
100
AcDbMText
 10
3.5793966839
 20
-0.9093728007
 30
0.0
 40
0.1377952756
 41
0.0
 71
     1
 72
     1
  1
6061-T6 ALUMINUM
  7
SLDTEXTSTYLE0
 73
     1
 44
1.0
  0
ENDBLK
  5
A8
330
A6
100
AcDbEntity
  8
0
100
AcDbBlockEnd
  0
BLOCK
  5
D8
330
D7
100
AcDbEntity
  8
0
100
AcDbBlockBegin
  2
*D7
 70
     1
 71
     0
 10
0.0
 20
0.0
 30
0.0
  3
*D7
  1

  0
SOLID
  5
DA
330
D7
100
AcDbEntity
  8
0
  6
Continuous
 62
     7
370
     0
100
AcDbTrace
 10
2.8732097673
 20
4.7183594885
 30
0.0
 11
2.973645671
 21
4.8405258884
 31
0.0
 12
2.9285951681
 22
4.8664961058
 32
0.0
 13
2.9285951681
 23
4.8664961058
 33
0.0
  0
LINE
  5
DB
330
D7
100
AcDbEntity
  8
0
  6
Continuous
 62
     7
370
     0
100
AcDbLine
 10
3.4862320309
 20
5.3051301011
 30
0.0
 11
3.4862320309
 21
5.1644871828
 31
0.0
  0
LINE
  5
DC
330
D7
100
AcDbEntity
  8
0
  6
Continuous
 62
     7
370
     0
100
AcDbLine
 10
3.4862320309
 20
5.1644871828
 30
0.0
 11
3.5073331982
 21
5.1644871828
 31
0.0
  0
LINE
  5
DD
330
D7
100
AcDbEntity
  8
0
  6
Continuous
 62
     7
370
     0
100
AcDbLine
 10
3.4862320309
 20
5.3051301011
 30
0.0
 11
3.5073331982
 21
5.3051301011
 31
0.0
  0
LINE
  5
DE
330
D7
100
AcDbEntity
  8
0
  6
Continuous
 62
     7
370
     0
100
AcDbLine
 10
3.9168413695
 20
5.3051301011
 30
0.0
 11
3.9168413695
 21
5.1644871828
 31
0.0
  0
LINE
  5
DF
330
D7
100
AcDbEntity
  8
0
  6
Continuous
 62
     7
370
     0
100
AcDbLine
 10
3.9168413695
 20
5.1644871828
 30
0.0
 11
3.8957402021
 21
5.1644871828
 31
0.0
  0
LINE
  5
E0
330
D7
100
AcDbEntity
  8
0
  6
Continuous
 62
     7
370
     0
100
AcDbLine
 10
3.9168413695
 20
5.3051301011
 30
0.0
 11
3.8957402021
 21
5.3051301011
 31
0.0
  0
LINE
  5
E1
330
D7
100
AcDbEntity
  8
0
  6
Continuous
 62
     7
370
     0
100
AcDbLine
 10
2.8732097673
 20
4.7183594885
 30
0.0
 11
3.1232347547
 21
5.1520775135
 31
0.0
  0
LINE
  5
E2
330
D7
100
AcDbEntity
  8
0
  6
Continuous
 62
     7
370
     0
100
AcDbLine
 10
3.1232347547
 20
5.1520775135
 30
0.0
 11
3.3732347547
 21
5.1520775135
 31
0.0
  0
MTEXT
  5
E3
330
D7
100
AcDbEntity
  8
0
  6
Continuous
 62
     7
370
     0
100
AcDbMText
 10
3.4924677897
 20
5.119671895
 30
0.0
 40
0.1041666667
 41
0.0
 71
     1
 72
     1
  1
%%c
  7
SLDTEXTSTYLE0
 73
     1
 44
1.0
  0
MTEXT
  5
E4
330
D7
100
AcDbEntity
  8
0
  6
Continuous
 62
     7
370
     0
100
AcDbMText
 10
3.6413838208
 20
5.119671895
 30
0.0
 40
0.1041666667
 41
0.0
 71
     1
 72
     1
  1
1.20
  7
SLDTEXTSTYLE0
 73
     1
 44
1.0
  0
MTEXT
  5
E5
330
D7
100
AcDbEntity
  8
0
  6
Continuous
 62
     7
370
     0
100
AcDbMText
 10
3.5284343656
 20
5.2851341518
 30
0.0
 40
0.1041666667
 41
0.0
 71
     1
 72
     1
  1
30.48
  7
SLDTEXTSTYLE0
 73
     1
 44
1.0
  0
ENDBLK
  5
D9
330
D7
100
AcDbEntity
  8
0
100
AcDbBlockEnd
  0
BLOCK
  5
3B2
330
3B1
100
AcDbEntity
  8
0
100
AcDbBlockBegin
  2
*D8
 70
     1
 71
     0
 10
0.0
 20
0.0
 30
0.0
  3
*D8
  1

  0
SOLID
  5
3B4
330
3B1
100
AcDbEntity
  8
0
  6
Continuous
 62
     7
370
     0
100
AcDbTrace
 10
5.4993709166
 20
2.954102706
 30
0.0
 11
5.6553709166
 21
2.928102706
 31
0.0
 12
5.6553709166
 22
2.980102706
 32
0.0
 13
5.6553709166
 23
2.980102706
 33
0.0
  0
SOLID
  5
3B5
330
3B1
100
AcDbEntity
  8
0
  6
Continuous
 62
     7
370
     0
100
AcDbTrace
 10
6.60834883
 20
2.954102706
 30
0.0
 11
6.45234883
 21
2.980102706
 31
0.0
 12
6.45234883
 22
2.928102706
 32
0.0
 13
6.45234883
 23
2.928102706
 33
0.0
  0
LINE
  5
3B6
330
3B1
100
AcDbEntity
  8
0
  6
Continuous
 62
     7
370
     0
100
AcDbLine
 10
5.8753952562
 20
3.1071552935
 30
0.0
 11
5.8753952562
 21
2.9665123752
 31
0.0
  0
LINE
  5
3B7
330
3B1
100
AcDbEntity
  8
0
  6
Continuous
 62
     7
370
     0
100
AcDbLine
 10
5.8753952562
 20
2.9665123752
 30
0.0
 11
5.8964964235
 21
2.9665123752
 31
0.0
  0
LINE
  5
3B8
330
3B1
100
AcDbEntity
  8
0
  6
Continuous
 62
     7
370
     0
100
AcDbLine
 10
5.8753952562
 20
3.1071552935
 30
0.0
 11
5.8964964235
 21
3.1071552935
 31
0.0
  0
LINE
  5
3B9
330
3B1
100
AcDbEntity
  8
0
  6
Continuous
 62
     7
370
     0
100
AcDbLine
 10
6.3060045947
 20
3.1071552935
 30
0.0
 11
6.3060045947
 21
2.9665123752
 31
0.0
  0
LINE
  5
3BA
330
3B1
100
AcDbEntity
  8
0
  6
Continuous
 62
     7
370
     0
100
AcDbLine
 10
6.3060045947
 20
2.9665123752
 30
0.0
 11
6.2849034274
 21
2.9665123752
 31
0.0
  0
LINE
  5
3BB
330
3B1
100
AcDbEntity
  8
0
  6
Continuous
 62
     7
370
     0
100
AcDbLine
 10
6.3060045947
 20
3.1071552935
 30
0.0
 11
6.2849034274
 21
3.1071552935
 31
0.0
  0
LINE
  5
3BC
330
3B1
100
AcDbEntity
  8
0
  6
Continuous
 62
     7
370
     0
100
AcDbLine
 10
5.4993709166
 20
4.1485459941
 30
0.0
 11
5.4993709166
 21
2.829102706
 31
0.0
  0
LINE
  5
3BD
330
3B1
100
AcDbEntity
  8
0
  6
Continuous
 62
     7
370
     0
100
AcDbLine
 10
6.60834883
 20
3.5585459941
 30
0.0
 11
6.60834883
 21
2.829102706
 31
0.0
  0
LINE
  5
3BE
330
3B1
100
AcDbEntity
  8
0
  6
Continuous
 62
     7
370
     0
100
AcDbLine
 10
5.4993709166
 20
2.954102706
 30
0.0
 11
5.7495553729
 21
2.954102706
 31
0.0
  0
LINE
  5
3BF
330
3B1
100
AcDbEntity
  8
0
  6
Continuous
 62
     7
370
     0
100
AcDbLine
 10
6.60834883
 20
2.954102706
 30
0.0
 11
6.431844478
 21
2.954102706
 31
0.0
  0
MTEXT
  5
3C0
330
3B1
100
AcDbEntity
  8
0
  6
Continuous
 62
     7
370
     0
100
AcDbMText
 10
5.9560890305
 20
2.9216970875
 30
0.0
 40
0.1041666667
 41
0.0
 71
     1
 72
     1
  1
1.11
  7
SLDTEXTSTYLE0
 73
     1
 44
1.0
  0
MTEXT
  5
3C1
330
3B1
100
AcDbEntity
  8
0
  6
Continuous
 62
     7
370
     0
100
AcDbMText
 10
5.9175975908
 20
3.0871593443
 30
0.0
 40
0.1041666667
 41
0.0
 71
     1
 72
     1
  1
28.17
  7
SLDTEXTSTYLE0
 73
     1
 44
1.0
  0
ENDBLK
  5
3B3
330
3B1
100
AcDbEntity
  8
0
100
AcDbBlockEnd
  0
BLOCK
  5
3C4
330
3C3
100
AcDbEntity
  8
0
100
AcDbBlockBegin
  2
*D9
 70
     1
 71
     0
 10
0.0
 20
0.0
 30
0.0
  3
*D9
  1

  0
SOLID
  5
3C6
330
3C3
100
AcDbEntity
  8
0
  6
Continuous
 62
     7
370
     0
100
AcDbTrace
 10
9.6414710896
 20
2.954102706
 30
0.0
 11
9.4854710896
 21
2.980102706
 31
0.0
 12
9.4854710896
 22
2.928102706
 32
0.0
 13
9.4854710896
 23
2.928102706
 33
0.0
  0
SOLID
  5
3C7
330
3C3
100
AcDbEntity
  8
0
  6
Continuous
 62
     7
370
     0
100
AcDbTrace
 10
8.12358294
 20
2.954102706
 30
0.0
 11
8.27958294
 21
2.928102706
 31
0.0
 12
8.27958294
 22
2.980102706
 32
0.0
 13
8.27958294
 23
2.980102706
 33
0.0
  0
LINE
  5
3C8
330
3C3
100
AcDbEntity
  8
0
  6
Continuous
 62
     7
370
     0
100
AcDbLine
 10
8.6338857064
 20
3.1071552935
 30
0.0
 11
8.6338857064
 21
2.9665123752
 31
0.0
  0
LINE
  5
3C9
330
3C3
100
AcDbEntity
  8
0
  6
Continuous
 62
     7
370
     0
100
AcDbLine
 10
8.6338857064
 20
2.9665123752
 30
0.0
 11
8.6549868737
 21
2.9665123752
 31
0.0
  0
LINE
  5
3CA
330
3C3
100
AcDbEntity
  8
0
  6
Continuous
 62
     7
370
     0
100
AcDbLine
 10
8.6338857064
 20
3.1071552935
 30
0.0
 11
8.6549868737
 21
3.1071552935
 31
0.0
  0
LINE
  5
3CB
330
3C3
100
AcDbEntity
  8
0
  6
Continuous
 62
     7
370
     0
100
AcDbLine
 10
9.0644950449
 20
3.1071552935
 30
0.0
 11
9.0644950449
 21
2.9665123752
 31
0.0
  0
LINE
  5
3CC
330
3C3
100
AcDbEntity
  8
0
  6
Continuous
 62
     7
370
     0
100
AcDbLine
 10
9.0644950449
 20
2.9665123752
 30
0.0
 11
9.0433938776
 21
2.9665123752
 31
0.0
  0
LINE
  5
3CD
330
3C3
100
AcDbEntity
  8
0
  6
Continuous
 62
     7
370
     0
100
AcDbLine
 10
9.0644950449
 20
3.1071552935
 30
0.0
 11
9.0433938776
 21
3.1071552935
 31
0.0
  0
LINE
  5
3CE
330
3C3
100
AcDbEntity
  8
0
  6
Continuous
 62
     7
370
     0
100
AcDbLine
 10
9.6414710896
 20
4.1485459941
 30
0.0
 11
9.6414710896
 21
2.829102706
 31
0.0
  0
LINE
  5
3CF
330
3C3
100
AcDbEntity
  8
0
  6
Continuous
 62
     7
370
     0
100
AcDbLine
 10
8.12358294
 20
3.5585459941
 30
0.0
 11
8.12358294
 21
2.829102706
 31
0.0
  0
LINE
  5
3D0
330
3C3
100
AcDbEntity
  8
0
  6
Continuous
 62
     7
370
     0
100
AcDbLine
 10
9.6414710896
 20
2.954102706
 30
0.0
 11
9.1903349282
 21
2.954102706
 31
0.0
  0
LINE
  5
3D1
330
3C3
100
AcDbEntity
  8
0
  6
Continuous
 62
     7
370
     0
100
AcDbLine
 10
8.12358294
 20
2.954102706
 30
0.0
 11
8.5080458231
 21
2.954102706
 31
0.0
  0
MTEXT
  5
3D2
330
3C3
100
AcDbEntity
  8
0
  6
Continuous
 62
     7
370
     0
100
AcDbMText
 10
8.7145794807
 20
2.9216970875
 30
0.0
 40
0.1041666667
 41
0.0
 71
     1
 72
     1
  1
1.52
  7
SLDTEXTSTYLE0
 73
     1
 44
1.0
  0
MTEXT
  5
3D3
330
3C3
100
AcDbEntity
  8
0
  6
Continuous
 62
     7
370
     0
100
AcDbMText
 10
8.676088041
 20
3.0871593443
 30
0.0
 40
0.1041666667
 41
0.0
 71
     1
 72
     1
  1
38.55
  7
SLDTEXTSTYLE0
 73
     1
 44
1.0
  0
ENDBLK
  5
3C5
330
3C3
100
AcDbEntity
  8
0
100
AcDbBlockEnd
  0
BLOCK
  5
3D6
330
3D5
100
AcDbEntity
  8
0
100
AcDbBlockBegin
  2
*D10
 70
     1
 71
     0
 10
0.0
 20
0.0
 30
0.0
  3
*D10
  1

  0
SOLID
  5
3D8
330
3D5
100
AcDbEntity
  8
0
  6
Continuous
 62
     7
370
     0
100
AcDbTrace
 10
5.4993709166
 20
5.1074795339
 30
0.0
 11
5.6553709166
 21
5.0814795339
 31
0.0
 12
5.6553709166
 22
5.1334795339
 32
0.0
 13
5.6553709166
 23
5.1334795339
 33
0.0
  0
SOLID
  5
3D9
330
3D5
100
AcDbEntity
  8
0
  6
Continuous
 62
     7
370
     0
100
AcDbTrace
 10
6.8336489511
 20
5.1074795339
 30
0.0
 11
6.6776489511
 21
5.1334795339
 31
0.0
 12
6.6776489511
 22
5.0814795339
 32
0.0
 13
6.6776489511
 23
5.0814795339
 33
0.0
  0
LINE
  5
3DA
330
3D5
100
AcDbEntity
  8
0
  6
Continuous
 62
     7
370
     0
100
AcDbLine
 10
5.8937438112
 20
5.2605321214
 30
0.0
 11
5.8937438112
 21
5.1198892031
 31
0.0
  0
LINE
  5
3DB
330
3D5
100
AcDbEntity
  8
0
  6
Continuous
 62
     7
370
     0
100
AcDbLine
 10
5.8937438112
 20
5.1198892031
 30
0.0
 11
5.9148449786
 21
5.1198892031
 31
0.0
  0
LINE
  5
3DC
330
3D5
100
AcDbEntity
  8
0
  6
Continuous
 62
     7
370
     0
100
AcDbLine
 10
5.8937438112
 20
5.2605321214
 30
0.0
 11
5.9148449786
 21
5.2605321214
 31
0.0
  0
LINE
  5
3DD
330
3D5
100
AcDbEntity
  8
0
  6
Continuous
 62
     7
370
     0
100
AcDbLine
 10
6.3243531498
 20
5.2605321214
 30
0.0
 11
6.3243531498
 21
5.1198892031
 31
0.0
  0
LINE
  5
3DE
330
3D5
100
AcDbEntity
  8
0
  6
Continuous
 62
     7
370
     0
100
AcDbLine
 10
6.3243531498
 20
5.1198892031
 30
0.0
 11
6.3032519824
 21
5.1198892031
 31
0.0
  0
LINE
  5
3DF
330
3D5
100
AcDbEntity
  8
0
  6
Continuous
 62
     7
370
     0
100
AcDbLine
 10
6.3243531498
 20
5.2605321214
 30
0.0
 11
6.3032519824
 21
5.2605321214
 31
0.0
  0
LINE
  5
3E0
330
3D5
100
AcDbEntity
  8
0
  6
Continuous
 62
     7
370
     0
100
AcDbLine
 10
5.4993709166
 20
4.2485459941
 30
0.0
 11
5.4993709166
 21
5.2324795339
 31
0.0
  0
LINE
  5
3E1
330
3D5
100
AcDbEntity
  8
0
  6
Continuous
 62
     7
370
     0
100
AcDbLine
 10
6.8336489511
 20
4.2485459941
 30
0.0
 11
6.8336489511
 21
5.2324795339
 31
0.0
  0
LINE
  5
3E2
330
3D5
100
AcDbEntity
  8
0
  6
Continuous
 62
     7
370
     0
100
AcDbLine
 10
5.4993709166
 20
5.1074795339
 30
0.0
 11
5.767903928
 21
5.1074795339
 31
0.0
  0
LINE
  5
3E3
330
3D5
100
AcDbEntity
  8
0
  6
Continuous
 62
     7
370
     0
100
AcDbLine
 10
6.8336489511
 20
5.1074795339
 30
0.0
 11
6.450193033
 21
5.1074795339
 31
0.0
  0
MTEXT
  5
3E4
330
3D5
100
AcDbEntity
  8
0
  6
Continuous
 62
     7
370
     0
100
AcDbMText
 10
5.9744375856
 20
5.0750739154
 30
0.0
 40
0.1041666667
 41
0.0
 71
     1
 72
     1
  1
1.33
  7
SLDTEXTSTYLE0
 73
     1
 44
1.0
  0
MTEXT
  5
3E5
330
3D5
100
AcDbEntity
  8
0
  6
Continuous
 62
     7
370
     0
100
AcDbMText
 10
5.9359461459
 20
5.2405361722
 30
0.0
 40
0.1041666667
 41
0.0
 71
     1
 72
     1
  1
33.89
  7
SLDTEXTSTYLE0
 73
     1
 44
1.0
  0
ENDBLK
  5
3D7
330
3D5
100
AcDbEntity
  8
0
100
AcDbBlockEnd
  0
BLOCK
  5
3E8
330
3E7
100
AcDbEntity
  8
0
100
AcDbBlockBegin
  2
*D11
 70
     1
 71
     0
 10
0.0
 20
0.0
 30
0.0
  3
*D11
  1

  0
SOLID
  5
3EA
330
3E7
100
AcDbEntity
  8
0
  6
Continuous
 62
     7
370
     0
100
AcDbTrace
 10
9.6414710896
 20
5.0789138232
 30
0.0
 11
9.4854710896
 21
5.1049138232
 31
0.0
 12
9.4854710896
 22
5.0529138232
 32
0.0
 13
9.4854710896
 23
5.0529138232
 33
0.0
  0
SOLID
  5
3EB
330
3E7
100
AcDbEntity
  8
0
  6
Continuous
 62
     7
370
     0
100
AcDbTrace
 10
7.9353405144
 20
5.0789138232
 30
0.0
 11
8.0913405144
 21
5.0529138232
 31
0.0
 12
8.0913405144
 22
5.1049138232
 32
0.0
 13
8.0913405144
 23
5.1049138232
 33
0.0
  0
LINE
  5
3EC
330
3E7
100
AcDbEntity
  8
0
  6
Continuous
 62
     7
370
     0
100
AcDbLine
 10
8.6338857064
 20
5.2319664108
 30
0.0
 11
8.6338857064
 21
5.0913234925
 31
0.0
  0
LINE
  5
3ED
330
3E7
100
AcDbEntity
  8
0
  6
Continuous
 62
     7
370
     0
100
AcDbLine
 10
8.6338857064
 20
5.0913234925
 30
0.0
 11
8.6549868737
 21
5.0913234925
 31
0.0
  0
LINE
  5
3EE
330
3E7
100
AcDbEntity
  8
0
  6
Continuous
 62
     7
370
     0
100
AcDbLine
 10
8.6338857064
 20
5.2319664108
 30
0.0
 11
8.6549868737
 21
5.2319664108
 31
0.0
  0
LINE
  5
3EF
330
3E7
100
AcDbEntity
  8
0
  6
Continuous
 62
     7
370
     0
100
AcDbLine
 10
9.0644950449
 20
5.2319664108
 30
0.0
 11
9.0644950449
 21
5.0913234925
 31
0.0
  0
LINE
  5
3F0
330
3E7
100
AcDbEntity
  8
0
  6
Continuous
 62
     7
370
     0
100
AcDbLine
 10
9.0644950449
 20
5.0913234925
 30
0.0
 11
9.0433938776
 21
5.0913234925
 31
0.0
  0
LINE
  5
3F1
330
3E7
100
AcDbEntity
  8
0
  6
Continuous
 62
     7
370
     0
100
AcDbLine
 10
9.0644950449
 20
5.2319664108
 30
0.0
 11
9.0433938776
 21
5.2319664108
 31
0.0
  0
LINE
  5
3F2
330
3E7
100
AcDbEntity
  8
0
  6
Continuous
 62
     7
370
     0
100
AcDbLine
 10
9.6414710896
 20
4.2485459941
 30
0.0
 11
9.6414710896
 21
5.2039138232
 31
0.0
  0
LINE
  5
3F3
330
3E7
100
AcDbEntity
  8
0
  6
Continuous
 62
     7
370
     0
100
AcDbLine
 10
7.9353405144
 20
4.2485459941
 30
0.0
 11
7.9353405144
 21
5.2039138232
 31
0.0
  0
LINE
  5
3F4
330
3E7
100
AcDbEntity
  8
0
  6
Continuous
 62
     7
370
     0
100
AcDbLine
 10
9.6414710896
 20
5.0789138232
 30
0.0
 11
9.1903349282
 21
5.0789138232
 31
0.0
  0
LINE
  5
3F5
330
3E7
100
AcDbEntity
  8
0
  6
Continuous
 62
     7
370
     0
100
AcDbLine
 10
7.9353405144
 20
5.0789138232
 30
0.0
 11
8.5080458231
 21
5.0789138232
 31
0.0
  0
MTEXT
  5
3F6
330
3E7
100
AcDbEntity
  8
0
  6
Continuous
 62
     7
370
     0
100
AcDbMText
 10
8.7145794807
 20
5.0465082047
 30
0.0
 40
0.1041666667
 41
0.0
 71
     1
 72
     1
  1
1.71
  7
SLDTEXTSTYLE0
 73
     1
 44
1.0
  0
MTEXT
  5
3F7
330
3E7
100
AcDbEntity
  8
0
  6
Continuous
 62
     7
370
     0
100
AcDbMText
 10
8.676088041
 20
5.2119704616
 30
0.0
 40
0.1041666667
 41
0.0
 71
     1
 72
     1
  1
43.34
  7
SLDTEXTSTYLE0
 73
     1
 44
1.0
  0
ENDBLK
  5
3E9
330
3E7
100
AcDbEntity
  8
0
100
AcDbBlockEnd
  0
BLOCK
  5
3FB
330
3FA
100
AcDbEntity
  8
0
100
AcDbBlockBegin
  2
*D12
 70
     1
 71
     0
 10
0.0
 20
0.0
 30
0.0
  3
*D12
  1

  0
SOLID
  5
3FD
330
3FA
100
AcDbEntity
  8
0
  6
Continuous
 62
     7
370
     0
100
AcDbTrace
 10
6.60834883
 20
2.3647867611
 30
0.0
 11
6.76434883
 21
2.3387867611
 31
0.0
 12
6.76434883
 22
2.3907867611
 32
0.0
 13
6.76434883
 23
2.3907867611
 33
0.0
  0
SOLID
  5
3FE
330
3FA
100
AcDbEntity
  8
0
  6
Continuous
 62
     7
370
     0
100
AcDbTrace
 10
8.12358294
 20
2.3647867611
 30
0.0
 11
7.96758294
 21
2.3907867611
 31
0.0
 12
7.96758294
 22
2.3387867611
 32
0.0
 13
7.96758294
 23
2.3387867611
 33
0.0
  0
LINE
  5
3FF
330
3FA
100
AcDbEntity
  8
0
  6
Continuous
 62
     7
370
     0
100
AcDbLine
 10
7.153623122
 20
2.5178393486
 30
0.0
 11
7.153623122
 21
2.3771964303
 31
0.0
  0
LINE
  5
400
330
3FA
100
AcDbEntity
  8
0
  6
Continuous
 62
     7
370
     0
100
AcDbLine
 10
7.153623122
 20
2.3771964303
 30
0.0
 11
7.1747242893
 21
2.3771964303
 31
0.0
  0
LINE
  5
401
330
3FA
100
AcDbEntity
  8
0
  6
Continuous
 62
     7
370
     0
100
AcDbLine
 10
7.153623122
 20
2.5178393486
 30
0.0
 11
7.1747242893
 21
2.5178393486
 31
0.0
  0
LINE
  5
402
330
3FA
100
AcDbEntity
  8
0
  6
Continuous
 62
     7
370
     0
100
AcDbLine
 10
7.5842324605
 20
2.5178393486
 30
0.0
 11
7.5842324605
 21
2.3771964303
 31
0.0
  0
LINE
  5
403
330
3FA
100
AcDbEntity
  8
0
  6
Continuous
 62
     7
370
     0
100
AcDbLine
 10
7.5842324605
 20
2.3771964303
 30
0.0
 11
7.5631312932
 21
2.3771964303
 31
0.0
  0
LINE
  5
404
330
3FA
100
AcDbEntity
  8
0
  6
Continuous
 62
     7
370
     0
100
AcDbLine
 10
7.5842324605
 20
2.5178393486
 30
0.0
 11
7.5631312932
 21
2.5178393486
 31
0.0
  0
LINE
  5
405
330
3FA
100
AcDbEntity
  8
0
  6
Continuous
 62
     7
370
     0
100
AcDbLine
 10
6.60834883
 20
3.5585459941
 30
0.0
 11
6.60834883
 21
2.2397867611
 31
0.0
  0
LINE
  5
406
330
3FA
100
AcDbEntity
  8
0
  6
Continuous
 62
     7
370
     0
100
AcDbLine
 10
8.12358294
 20
3.5585459941
 30
0.0
 11
8.12358294
 21
2.2397867611
 31
0.0
  0
LINE
  5
407
330
3FA
100
AcDbEntity
  8
0
  6
Continuous
 62
     7
370
     0
100
AcDbLine
 10
6.60834883
 20
2.3647867611
 30
0.0
 11
7.0277832387
 21
2.3647867611
 31
0.0
  0
LINE
  5
408
330
3FA
100
AcDbEntity
  8
0
  6
Continuous
 62
     7
370
     0
100
AcDbLine
 10
8.12358294
 20
2.3647867611
 30
0.0
 11
7.7100723438
 21
2.3647867611
 31
0.0
  0
MTEXT
  5
409
330
3FA
100
AcDbEntity
  8
0
  6
Continuous
 62
     7
370
     0
100
AcDbMText
 10
7.1958254566
 20
2.3323811426
 30
0.0
 40
0.1041666667
 41
0.0
 71
     1
 72
     1
  1
1.515
  7
SLDTEXTSTYLE0
 73
     1
 44
1.0
  0
MTEXT
  5
40A
330
3FA
100
AcDbEntity
  8
0
  6
Continuous
 62
     7
370
     0
100
AcDbMText
 10
7.1958254566
 20
2.4978433994
 30
0.0
 40
0.1041666667
 41
0.0
 71
     1
 72
     1
  1
38.49
  7
SLDTEXTSTYLE0
 73
     1
 44
1.0
  0
ENDBLK
  5
3FC
330
3FA
100
AcDbEntity
  8
0
100
AcDbBlockEnd
  0
BLOCK
  5
40E
330
40D
100
AcDbEntity
  8
0
100
AcDbBlockBegin
  2
*D13
 70
     1
 71
     0
 10
0.0
 20
0.0
 30
0.0
  3
*D13
  1

  0
SOLID
  5
410
330
40D
100
AcDbEntity
  8
0
  6
Continuous
 62
     7
370
     0
100
AcDbTrace
 10
7.2864048566
 20
3.1903231784
 30
0.0
 11
7.1304048566
 21
3.2163231784
 31
0.0
 12
7.1304048566
 22
3.1643231784
 32
0.0
 13
7.1304048566
 23
3.1643231784
 33
0.0
  0
SOLID
  5
411
330
40D
100
AcDbEntity
  8
0
  6
Continuous
 62
     7
370
     0
100
AcDbTrace
 10
7.4432145301
 20
3.1903231784
 30
0.0
 11
7.5992145301
 21
3.1643231784
 31
0.0
 12
7.5992145301
 22
3.2163231784
 32
0.0
 13
7.5992145301
 23
3.2163231784
 33
0.0
  0
LINE
  5
412
330
40D
100
AcDbEntity
  8
0
  6
Continuous
 62
     7
370
     0
100
AcDbLine
 10
7.7415406933
 20
3.3433757659
 30
0.0
 11
7.7415406933
 21
3.2027328477
 31
0.0
  0
LINE
  5
413
330
40D
100
AcDbEntity
  8
0
  6
Continuous
 62
     7
370
     0
100
AcDbLine
 10
7.7415406933
 20
3.2027328477
 30
0.0
 11
7.7626418606
 21
3.2027328477
 31
0.0
  0
LINE
  5
414
330
40D
100
AcDbEntity
  8
0
  6
Continuous
 62
     7
370
     0
100
AcDbLine
 10
7.7415406933
 20
3.3433757659
 30
0.0
 11
7.7626418606
 21
3.3433757659
 31
0.0
  0
LINE
  5
415
330
40D
100
AcDbEntity
  8
0
  6
Continuous
 62
     7
370
     0
100
AcDbLine
 10
8.0951671524
 20
3.3433757659
 30
0.0
 11
8.0951671524
 21
3.2027328477
 31
0.0
  0
LINE
  5
416
330
40D
100
AcDbEntity
  8
0
  6
Continuous
 62
     7
370
     0
100
AcDbLine
 10
8.0951671524
 20
3.2027328477
 30
0.0
 11
8.0740659851
 21
3.2027328477
 31
0.0
  0
LINE
  5
417
330
40D
100
AcDbEntity
  8
0
  6
Continuous
 62
     7
370
     0
100
AcDbLine
 10
8.0951671524
 20
3.3433757659
 30
0.0
 11
8.0740659851
 21
3.3433757659
 31
0.0
  0
LINE
  5
418
330
40D
100
AcDbEntity
  8
0
  6
Continuous
 62
     7
370
     0
100
AcDbLine
 10
7.2864048566
 20
4.1485459941
 30
0.0
 11
7.2864048566
 21
3.0653231784
 31
0.0
  0
LINE
  5
419
330
40D
100
AcDbEntity
  8
0
  6
Continuous
 62
     7
370
     0
100
AcDbLine
 10
7.4432145301
 20
4.1485459941
 30
0.0
 11
7.4432145301
 21
3.0653231784
 31
0.0
  0
LINE
  5
41A
330
40D
100
AcDbEntity
  8
0
  6
Continuous
 62
     7
370
     0
100
AcDbLine
 10
7.2864048566
 20
3.1903231784
 30
0.0
 11
6.7864048566
 21
3.1903231784
 31
0.0
  0
LINE
  5
41B
330
40D
100
AcDbEntity
  8
0
  6
Continuous
 62
     7
370
     0
100
AcDbLine
 10
7.4432145301
 20
3.1903231784
 30
0.0
 11
7.61570081
 21
3.1903231784
 31
0.0
  0
MTEXT
  5
41C
330
40D
100
AcDbEntity
  8
0
  6
Continuous
 62
     7
370
     0
100
AcDbMText
 10
7.7837430279
 20
3.1579175599
 30
0.0
 40
0.1041666667
 41
0.0
 71
     1
 72
     1
  1
0.16
  7
SLDTEXTSTYLE0
 73
     1
 44
1.0
  0
MTEXT
  5
41D
330
40D
100
AcDbEntity
  8
0
  6
Continuous
 62
     7
370
     0
100
AcDbMText
 10
7.7837430279
 20
3.3233798167
 30
0.0
 40
0.1041666667
 41
0.0
 71
     1
 72
     1
  1
3.98
  7
SLDTEXTSTYLE0
 73
     1
 44
1.0
  0
ENDBLK
  5
40F
330
40D
100
AcDbEntity
  8
0
100
AcDbBlockEnd
  0
BLOCK
  5
421
330
420
100
AcDbEntity
  8
0
100
AcDbBlockBegin
  2
*D14
 70
     1
 71
     0
 10
0.0
 20
0.0
 30
0.0
  3
*D14
  1

  0
SOLID
  5
423
330
420
100
AcDbEntity
  8
0
  6
Continuous
 62
     7
370
     0
100
AcDbTrace
 10
6.8336489511
 20
5.4429892822
 30
0.0
 11
6.6776489511
 21
5.4689892822
 31
0.0
 12
6.6776489511
 22
5.4169892822
 32
0.0
 13
6.6776489511
 23
5.4169892822
 33
0.0
  0
SOLID
  5
424
330
420
100
AcDbEntity
  8
0
  6
Continuous
 62
     7
370
     0
100
AcDbTrace
 10
7.9353405144
 20
5.4429892822
 30
0.0
 11
8.0913405144
 21
5.4169892822
 31
0.0
 12
8.0913405144
 22
5.4689892822
 32
0.0
 13
8.0913405144
 23
5.4689892822
 33
0.0
  0
LINE
  5
425
330
420
100
AcDbEntity
  8
0
  6
Continuous
 62
     7
370
     0
100
AcDbLine
 10
7.153623122
 20
5.5960418697
 30
0.0
 11
7.153623122
 21
5.4553989514
 31
0.0
  0
LINE
  5
426
330
420
100
AcDbEntity
  8
0
  6
Continuous
 62
     7
370
     0
100
AcDbLine
 10
7.153623122
 20
5.4553989514
 30
0.0
 11
7.1747242893
 21
5.4553989514
 31
0.0
  0
LINE
  5
427
330
420
100
AcDbEntity
  8
0
  6
Continuous
 62
     7
370
     0
100
AcDbLine
 10
7.153623122
 20
5.5960418697
 30
0.0
 11
7.1747242893
 21
5.5960418697
 31
0.0
  0
LINE
  5
428
330
420
100
AcDbEntity
  8
0
  6
Continuous
 62
     7
370
     0
100
AcDbLine
 10
7.5842324605
 20
5.5960418697
 30
0.0
 11
7.5842324605
 21
5.4553989514
 31
0.0
  0
LINE
  5
429
330
420
100
AcDbEntity
  8
0
  6
Continuous
 62
     7
370
     0
100
AcDbLine
 10
7.5842324605
 20
5.4553989514
 30
0.0
 11
7.5631312932
 21
5.4553989514
 31
0.0
  0
LINE
  5
42A
330
420
100
AcDbEntity
  8
0
  6
Continuous
 62
     7
370
     0
100
AcDbLine
 10
7.5842324605
 20
5.5960418697
 30
0.0
 11
7.5631312932
 21
5.5960418697
 31
0.0
  0
LINE
  5
42B
330
420
100
AcDbEntity
  8
0
  6
Continuous
 62
     7
370
     0
100
AcDbLine
 10
6.8336489511
 20
4.2485459941
 30
0.0
 11
6.8336489511
 21
5.5679892822
 31
0.0
  0
LINE
  5
42C
330
420
100
AcDbEntity
  8
0
  6
Continuous
 62
     7
370
     0
100
AcDbLine
 10
7.9353405144
 20
4.2485459941
 30
0.0
 11
7.9353405144
 21
5.5679892822
 31
0.0
  0
LINE
  5
42D
330
420
100
AcDbEntity
  8
0
  6
Continuous
 62
     7
370
     0
100
AcDbLine
 10
6.8336489511
 20
5.4429892822
 30
0.0
 11
6.3336489511
 21
5.4429892822
 31
0.0
  0
LINE
  5
42E
330
420
100
AcDbEntity
  8
0
  6
Continuous
 62
     7
370
     0
100
AcDbLine
 10
7.9353405144
 20
5.4429892822
 30
0.0
 11
8.4353405144
 21
5.4429892822
 31
0.0
  0
MTEXT
  5
42F
330
420
100
AcDbEntity
  8
0
  6
Continuous
 62
     7
370
     0
100
AcDbMText
 10
7.2343168963
 20
5.4105836637
 30
0.0
 40
0.1041666667
 41
0.0
 71
     1
 72
     1
  1
1.10
  7
SLDTEXTSTYLE0
 73
     1
 44
1.0
  0
MTEXT
  5
430
330
420
100
AcDbEntity
  8
0
  6
Continuous
 62
     7
370
     0
100
AcDbMText
 10
7.1958254566
 20
5.5760459205
 30
0.0
 40
0.1041666667
 41
0.0
 71
     1
 72
     1
  1
27.98
  7
SLDTEXTSTYLE0
 73
     1
 44
1.0
  0
ENDBLK
  5
422
330
420
100
AcDbEntity
  8
0
100
AcDbBlockEnd
  0
BLOCK
  5
432
330
431
100
AcDbEntity
  8
0
100
AcDbBlockBegin
  2
SW_NOTE_5
 70
     0
 71
     0
 10
0.0
 20
0.0
 30
0.0
  3
SW_NOTE_5
  1

  0
MTEXT
  5
435
330
431
100
AcDbEntity
  8
0
  6
Continuous
 62
     0
370
     0
100
AcDbMText
 10
0.0
 20
0.1330566406
 30
0.0
 40
0.1041666667
 41
0.0
 71
     1
 72
     1
  1
SECTION A-A 
  7
SLDTEXTSTYLE17
 73
     1
 44
1.0
  0
MTEXT
  5
437
330
431
100
AcDbEntity
  8
0
  6
Continuous
 62
     0
370
     0
100
AcDbMText
 10
0.0841049551
 20
-0.0058322466
 30
0.0
 40
0.1041666667
 41
0.0
 71
     1
 72
     1
  1
SCALE 1 : 1
  7
SLDTEXTSTYLE18
 73
     1
 44
1.0
  0
ENDBLK
  5
433
330
431
100
AcDbEntity
  8
0
100
AcDbBlockEnd
  0
BLOCK
  5
43A
330
439
100
AcDbEntity
  8
0
100
AcDbBlockBegin
  2
SW_NOTE_6
 70
     0
 71
     0
 10
0.0
 20
0.0
 30
0.0
  3
SW_NOTE_6
  1

  0
MTEXT
  5
43D
330
439
100
AcDbEntity
  8
0
  6
Continuous
 62
     0
370
     0
100
AcDbMText
 10
0.0196909053
 20
0.0371003425
 30
0.0
 40
0.09
 41
0.0
 71
     1
 72
     1
  1
INTERNAL  SM1 THREAD
  7
SLDTEXTSTYLE19
 73
     1
 44
1.0
  0
MTEXT
  5
43E
330
439
100
AcDbEntity
  8
0
  6
Continuous
 62
     0
370
     0
100
AcDbMText
 10
0.4002534174
 20
-0.0922697405
 30
0.0
 40
0.09
 41
0.0
 71
     1
 72
     1
  1
(1.035-40)
  7
SLDTEXTSTYLE0
 73
     1
 44
1.0
  0
ENDBLK
  5
43B
330
439
100
AcDbEntity
  8
0
100
AcDbBlockEnd
  0
BLOCK
  5
445
330
444
100
AcDbEntity
  8
0
100
AcDbBlockBegin
  2
SW_NOTE_7
 70
     0
 71
     0
 10
0.0
 20
0.0
 30
0.0
  3
SW_NOTE_7
  1

  0
CIRCLE
  5
447
330
444
100
AcDbEntity
  8
0
  6
Continuous
 62
     0
370
     0
100
AcDbCircle
 10
-0.1948676964
 20
0.0284591404
 30
0.0
 40
0.1969348668812025
  0
MTEXT
  5
448
330
444
100
AcDbEntity
  8
0
  6
Continuous
 62
     0
370
     0
100
AcDbMText
 10
-0.2628084208
 20
0.0993190506
 30
0.0
 40
0.1377952756
 41
0.0
 71
     1
 72
     1
  1
A
  7
SLDTEXTSTYLE0
 73
     1
 44
1.0
  0
ENDBLK
  5
446
330
444
100
AcDbEntity
  8
0
100
AcDbBlockEnd
  0
BLOCK
  5
44C
330
44B
100
AcDbEntity
  8
0
100
AcDbBlockBegin
  2
SW_NOTE_8
 70
     0
 71
     0
 10
0.0
 20
0.0
 30
0.0
  3
SW_NOTE_8
  1

  0
CIRCLE
  5
44E
330
44B
100
AcDbEntity
  8
0
  6
Continuous
 62
     0
370
     0
100
AcDbCircle
 10
0.1954310139
 20
0.0242911632
 30
0.0
 40
0.1969348668812025
  0
MTEXT
  5
44F
330
44B
100
AcDbEntity
  8
0
  6
Continuous
 62
     0
370
     0
100
AcDbMText
 10
0.1427051809
 20
0.0951510734
 30
0.0
 40
0.1377952756
 41
0.0
 71
     1
 72
     1
  1
B
  7
SLDTEXTSTYLE0
 73
     1
 44
1.0
  0
ENDBLK
  5
44D
330
44B
100
AcDbEntity
  8
0
100
AcDbBlockEnd
  0
BLOCK
  5
453
330
452
100
AcDbEntity
  8
0
100
AcDbBlockBegin
  2
SW_NOTE_9
 70
     0
 71
     0
 10
0.0
 20
0.0
 30
0.0
  3
SW_NOTE_9
  1

  0
CIRCLE
  5
455
330
452
100
AcDbEntity
  8
0
  6
Continuous
 62
     0
370
     0
100
AcDbCircle
 10
-0.1846842277
 20
-0.0683745408
 30
0.0
 40
0.1969348668812025
  0
MTEXT
  5
456
330
452
100
AcDbEntity
  8
0
  6
Continuous
 62
     0
370
     0
100
AcDbMText
 10
-0.2593233338
 20
0.0024853694
 30
0.0
 40
0.1377952756
 41
0.0
 71
     1
 72
     1
  1
C
  7
SLDTEXTSTYLE0
 73
     1
 44
1.0
  0
ENDBLK
  5
454
330
452
100
AcDbEntity
  8
0
100
AcDbBlockEnd
  0
BLOCK
  5
45A
330
459
100
AcDbEntity
  8
0
100
AcDbBlockBegin
  2
SW_NOTE_10
 70
     0
 71
     0
 10
0.0
 20
0.0
 30
0.0
  3
SW_NOTE_10
  1

  0
CIRCLE
  5
45C
330
459
100
AcDbEntity
  8
0
  6
Continuous
 62
     0
370
     0
100
AcDbCircle
 10
0.1969347443
 20
-0.0002197168
 30
0.0
 40
0.1969348668812025
  0
MTEXT
  5
45D
330
459
100
AcDbEntity
  8
0
  6
Continuous
 62
     0
370
     0
100
AcDbMText
 10
0.1286112519
 20
0.0706401934
 30
0.0
 40
0.1377952756
 41
0.0
 71
     1
 72
     1
  1
D
  7
SLDTEXTSTYLE0
 73
     1
 44
1.0
  0
ENDBLK
  5
45B
330
459
100
AcDbEntity
  8
0
100
AcDbBlockEnd
  0
BLOCK
  5
461
330
460
100
AcDbEntity
  8
0
100
AcDbBlockBegin
  2
SW_NOTE_11
 70
     0
 71
     0
 10
0.0
 20
0.0
 30
0.0
  3
SW_NOTE_11
  1

  0
CIRCLE
  5
463
330
460
100
AcDbEntity
  8
0
  6
Continuous
 62
     0
370
     0
100
AcDbCircle
 10
-0.1957593698
 20
0.0214851325
 30
0.0
 40
0.1969348668812025
  0
MTEXT
  5
464
330
460
100
AcDbEntity
  8
0
  6
Continuous
 62
     0
370
     0
100
AcDbMText
 10
-0.2640828622
 20
0.0923450426
 30
0.0
 40
0.1377952756
 41
0.0
 71
     1
 72
     1
  1
D
  7
SLDTEXTSTYLE0
 73
     1
 44
1.0
  0
ENDBLK
  5
462
330
460
100
AcDbEntity
  8
0
100
AcDbBlockEnd
  0
ENDSEC
  0
SECTION
  2
ENTITIES
  0
LINE
  5
30
330
1F
100
AcDbEntity
  8
0
  6
Continuous
 62
     7
370
     0
100
AcDbLine
 10
0.329927
 20
8.1920731707
 30
0.0
 11
10.629927
 21
8.1920731707
 31
0.0
  0
LINE
  5
31
330
1F
100
AcDbEntity
  8
0
  6
Continuous
 62
     7
370
     0
100
AcDbLine
 10
0.329927
 20
8.1920731707
 30
0.0
 11
0.329927
 21
0.3920731707
 31
0.0
  0
LINE
  5
32
330
1F
100
AcDbEntity
  8
0
  6
Continuous
 62
     7
370
     0
100
AcDbLine
 10
10.629927
 20
0.3920731707
 30
0.0
 11
0.329927
 21
0.3920731707
 31
0.0
  0
LINE
  5
33
330
1F
100
AcDbEntity
  8
0
  6
Continuous
 62
     7
370
     0
100
AcDbLine
 10
10.629927
 20
0.3920731707
 30
0.0
 11
10.629927
 21
8.1920731707
 31
0.0
  0
LINE
  5
34
330
1F
100
AcDbEntity
  8
0
  6
Continuous
 62
     7
370
     0
100
AcDbLine
 10
7.8832069922
 20
1.2010186622
 30
0.0
 11
6.3491817542
 21
1.2010186622
 31
0.0
  0
LINE
  5
35
330
1F
100
AcDbEntity
  8
0
  6
Continuous
 62
     7
370
     0
100
AcDbLine
 10
6.3491817542
 20
0.3920731707
 30
0.0
 11
6.3491817542
 21
1.6988536355
 31
0.0
  0
LINE
  5
36
330
1F
100
AcDbEntity
  8
0
  6
Continuous
 62
     7
370
     0
100
AcDbLine
 10
7.8832069922
 20
1.270166923
 30
0.0
 11
10.629927
 21
1.270166923
 31
0.0
  0
LINE
  5
37
330
1F
100
AcDbEntity
  8
0
  6
Continuous
 62
     7
370
     0
100
AcDbLine
 10
7.8832069922
 20
1.9437769943
 30
0.0
 11
7.8832069922
 21
0.3920731707
 31
0.0
  0
LINE
  5
38
330
1F
100
AcDbEntity
  8
0
  6
Continuous
 62
     7
370
     0
100
AcDbLine
 10
7.8832069922
 20
1.323339557
 30
0.0
 11
6.3491817542
 21
1.323339557
 31
0.0
  0
LINE
  5
39
330
1F
100
AcDbEntity
  8
0
  6
Continuous
 62
     7
370
     0
100
AcDbLine
 10
7.8832069922
 20
1.6988536355
 30
0.0
 11
6.3491817542
 21
1.6988536355
 31
0.0
  0
LINE
  5
3A
330
1F
100
AcDbEntity
  8
0
  6
Continuous
 62
     7
370
     0
100
AcDbLine
 10
7.8832069922
 20
0.7890359178
 30
0.0
 11
10.629927
 21
0.7890359178
 31
0.0
  0
LINE
  5
3B
330
1F
100
AcDbEntity
  8
0
  6
Continuous
 62
     7
370
     0
100
AcDbLine
 10
7.8832069922
 20
1.4456604517
 30
0.0
 11
6.3491817542
 21
1.4456604517
 31
0.0
  0
LINE
  5
3C
330
1F
100
AcDbEntity
  8
0
  6
Continuous
 62
     7
370
     0
100
AcDbLine
 10
7.8832069922
 20
1.5679813464
 30
0.0
 11
6.3491817542
 21
1.5679813464
 31
0.0
  0
LINE
  5
3D
330
1F
100
AcDbEntity
  8
0
  6
Continuous
 62
     7
370
     0
100
AcDbLine
 10
6.9294188505
 20
1.6988536355
 30
0.0
 11
6.9294188505
 21
1.2010186622
 31
0.0
  0
LINE
  5
3E
330
1F
100
AcDbEntity
  8
0
  6
Continuous
 62
     7
370
     0
100
AcDbLine
 10
7.2989435727
 20
1.6988536355
 30
0.0
 11
7.2989435727
 21
1.2010186622
 31
0.0
  0
LINE
  5
3F
330
1F
100
AcDbEntity
  8
0
  6
Continuous
 62
     7
370
     0
100
AcDbLine
 10
8.9000563418
 20
0.7890359178
 30
0.0
 11
8.9000563418
 21
0.3920731707
 31
0.0
  0
LINE
  5
40
330
1F
100
AcDbEntity
  8
0
  6
Continuous
 62
     7
370
     0
100
AcDbLine
 10
9.3113942988
 20
0.96139916
 30
0.0
 11
9.3113942988
 21
0.7890359178
 31
0.0
  0
LINE
  5
41
330
1F
100
AcDbEntity
  8
0
  6
Continuous
 62
     7
370
     0
100
AcDbLine
 10
10.0324602448
 20
1.270166923
 30
0.0
 11
10.0324602448
 21
0.96139916
 31
0.0
  0
LINE
  5
42
330
1F
100
AcDbEntity
  8
0
  6
Continuous
 62
     7
370
     0
100
AcDbLine
 10
6.3491817542
 20
1.0381709011
 30
0.0
 11
7.8832069922
 21
1.0381709011
 31
0.0
  0
LINE
  5
43
330
1F
100
AcDbEntity
  8
0
  6
Continuous
 62
     7
370
     0
100
AcDbLine
 10
7.8832069922
 20
1.9437769943
 30
0.0
 11
10.629927
 21
1.9437769943
 31
0.0
  0
LINE
  5
44
330
1F
100
AcDbEntity
  8
0
  6
Continuous
 62
     7
370
     0
100
AcDbLine
 10
10.315241862
 20
1.2693980507
 30
0.0
 11
10.315241862
 21
0.96139916
 31
0.0
  0
LINE
  5
45
330
1F
100
AcDbEntity
  8
0
  6
Continuous
 62
     7
370
     0
100
AcDbLine
 10
7.8832069922
 20
0.96139916
 30
0.0
 11
10.629927
 21
0.96139916
 31
0.0
  0
LINE
  5
46
330
1F
100
AcDbEntity
  8
0
  6
Continuous
 62
     7
370
     0
100
AcDbLine
 10
10.629927
 20
1.9437769943
 30
0.0
 11
10.629927
 21
1.9698084888
 31
0.0
  0
LINE
  5
47
330
1F
100
AcDbEntity
  8
0
  6
Continuous
 62
     7
370
     0
100
AcDbLine
 10
7.8832069922
 20
1.6268095213
 30
0.0
 11
10.629927
 21
1.6268095213
 31
0.0
  0
LINE
  5
48
330
1F
100
AcDbEntity
  8
0
  6
Continuous
 62
     7
370
     0
100
AcDbLine
 10
6.692177
 20
0.3920731707
 30
0.0
 11
6.692177
 21
0.3072739649
 31
0.0
  0
LINE
  5
49
330
1F
100
AcDbEntity
  8
0
  6
Continuous
 62
     7
370
     0
100
AcDbLine
 10
2.754677
 20
0.3920731707
 30
0.0
 11
2.754677
 21
0.3072739649
 31
0.0
  0
LINE
  5
4A
330
1F
100
AcDbEntity
  8
0
  6
Continuous
 62
     7
370
     0
100
AcDbLine
 10
2.754677
 20
0.3920731707
 30
0.0
 11
2.7672319738
 21
0.3575
 31
0.0
  0
LINE
  5
4B
330
1F
100
AcDbEntity
  8
0
  6
Continuous
 62
     7
370
     0
100
AcDbLine
 10
2.7672319738
 20
0.3575
 30
0.0
 11
2.7414258825
 21
0.3575
 31
0.0
  0
LINE
  5
4C
330
1F
100
AcDbEntity
  8
0
  6
Continuous
 62
     7
370
     0
100
AcDbLine
 10
2.7414258825
 20
0.3575
 30
0.0
 11
2.754677
 21
0.3920731707
 31
0.0
  0
MTEXT
  5
4E
330
1F
100
AcDbEntity
  8
0
  6
Continuous
 62
     7
370
     0
100
AcDbMText
 10
10.4043270877
 20
1.1203120088
 30
0.0
 40
0.1041666667
 41
0.0
 71
     1
 72
     1
  1
C
  7
SLDTEXTSTYLE0
 73
     1
 44
1.0
  0
MTEXT
  5
4F
330
1F
100
AcDbEntity
  8
0
  6
Continuous
 62
     7
370
     0
100
AcDbMText
 10
1.7387909509
 20
0.3094873007
 30
0.0
 40
0.09375
 41
0.0
 71
     1
 72
     1
  1
5
  7
SLDTEXTSTYLE0
 73
     1
 44
1.0
  0
MTEXT
  5
50
330
1F
100
AcDbEntity
  8
0
  6
Continuous
 62
     7
370
     0
100
AcDbMText
 10
3.723800327
 20
0.3126246278
 30
0.0
 40
0.09375
 41
0.0
 71
     1
 72
     1
  1
4
  7
SLDTEXTSTYLE0
 73
     1
 44
1.0
  0
MTEXT
  5
51
330
1F
100
AcDbEntity
  8
0
  6
Continuous
 62
     7
370
     0
100
AcDbMText
 10
5.6324457277
 20
0.3105200602
 30
0.0
 40
0.09375
 41
0.0
 71
     1
 72
     1
  1
3
  7
SLDTEXTSTYLE0
 73
     1
 44
1.0
  0
MTEXT
  5
52
330
1F
100
AcDbEntity
  8
0
  6
Continuous
 62
     7
370
     0
100
AcDbMText
 10
7.6059721724
 20
0.3113400111
 30
0.0
 40
0.09375
 41
0.0
 71
     1
 72
     1
  1
2
  7
SLDTEXTSTYLE0
 73
     1
 44
1.0
  0
MTEXT
  5
53
330
1F
100
AcDbEntity
  8
0
  6
Continuous
 62
     7
370
     0
100
AcDbMText
 10
9.6619921328
 20
0.300272888
 30
0.0
 40
0.09375
 41
0.0
 71
     1
 72
     1
  1
1
  7
SLDTEXTSTYLE0
 73
     1
 44
1.0
  0
MTEXT
  5
54
330
1F
100
AcDbEntity
  8
0
  6
Continuous
 62
     7
370
     0
100
AcDbMText
 10
9.2959319359
 20
0.5941666803
 30
0.0
 40
0.09375
 41
0.0
 71
     1
 72
     1
  1
MAP104050-A1
  7
SLDTEXTSTYLE0
 73
     1
 44
1.0
  0
MTEXT
  5
55
330
1F
100
AcDbEntity
  8
0
  6
Continuous
 62
     7
370
     0
100
AcDbMText
 10
7.9301743649
 20
1.2499730493
 30
0.0
 40
0.0833333333
 41
0.0
 71
     1
 72
     1
  1
MATERIAL:
  7
SLDTEXTSTYLE0
 73
     1
 44
1.0
  0
MTEXT
  5
57
330
1F
100
AcDbEntity
  8
0
  6
Continuous
 62
     7
370
     0
100
AcDbMText
 10
8.9438302275
 20
0.7457341193
 30
0.0
 40
0.0833333333
 41
0.0
 71
     1
 72
     1
  1
PART  NO.
  7
SLDTEXTSTYLE1
 73
     1
 44
1.0
  0
MTEXT
  5
59
330
1F
100
AcDbEntity
  8
0
  6
Continuous
 62
     7
370
     0
100
AcDbMText
 10
6.3927073562
 20
1.1440291591
 30
0.0
 40
0.06
 41
0.0
 71
     1
 72
     1
  1
PROPRIETARY AND CONFIDENTIAL
  7
SLDTEXTSTYLE2
 73
     1
 44
1.0
  0
MTEXT
  5
5A
330
1F
100
AcDbEntity
  8
0
  6
Continuous
 62
     7
370
     0
100
AcDbMText
 10
6.4985660702
 20
1.5406501707
 30
0.0
 40
0.065
 41
0.0
 71
     1
 72
     1
  1
DRAWN
  7
SLDTEXTSTYLE0
 73
     1
 44
1.0
  0
MTEXT
  5
5B
330
1F
100
AcDbEntity
  8
0
  6
Continuous
 62
     7
370
     0
100
AcDbMText
 10
6.4369653776
 20
1.4183941661
 30
0.0
 40
0.065
 41
0.0
 71
     1
 72
     1
  1
ENG APPR.
  7
SLDTEXTSTYLE0
 73
     1
 44
1.0
  0
MTEXT
  5
5C
330
1F
100
AcDbEntity
  8
0
  6
Continuous
 62
     7
370
     0
100
AcDbMText
 10
6.4273055419
 20
1.298296273
 30
0.0
 40
0.065
 41
0.0
 71
     1
 72
     1
  1
MFG APPR.
  7
SLDTEXTSTYLE0
 73
     1
 44
1.0
  0
MTEXT
  5
5D
330
1F
100
AcDbEntity
  8
0
  6
Continuous
 62
     7
370
     0
100
AcDbMText
 10
6.9752663896
 20
1.6608078346
 30
0.0
 40
0.065
 41
0.0
 71
     1
 72
     1
  1
NAME
  7
SLDTEXTSTYLE0
 73
     1
 44
1.0
  0
MTEXT
  5
5E
330
1F
100
AcDbEntity
  8
0
  6
Continuous
 62
     7
370
     0
100
AcDbMText
 10
7.9386050459
 20
1.5661804433
 30
0.0
 40
0.1
 41
0.0
 71
     1
 72
     1
  1
TITLE:
  7
SLDTEXTSTYLE0
 73
     1
 44
1.0
  0
MTEXT
  5
5F
330
1F
100
AcDbEntity
  8
0
  6
Continuous
 62
     7
370
     0
100
AcDbMText
 10
10.0657693915
 20
1.2262994671
 30
0.0
 40
0.0833333333
 41
0.0
 71
     1
 72
     1
  1
SIZE
  7
SLDTEXTSTYLE0
 73
     1
 44
1.0
  0
MTEXT
  5
60
330
1F
100
AcDbEntity
  8
0
  6
Continuous
 62
     7
370
     0
100
AcDbMText
 10
10.1162261111
 20
1.1164461388
 30
0.0
 40
0.1041666667
 41
0.0
 71
     1
 72
     1
  1
A
  7
SLDTEXTSTYLE0
 73
     1
 44
1.0
  0
MTEXT
  5
61
330
1F
100
AcDbEntity
  8
0
  6
Continuous
 62
     7
370
     0
100
AcDbMText
 10
10.335100974
 20
1.2278993505
 30
0.0
 40
0.0833333333
 41
0.0
 71
     1
 72
     1
  1
REV.
  7
SLDTEXTSTYLE0
 73
     1
 44
1.0
  0
MTEXT
  5
62
330
1F
100
AcDbEntity
  8
0
  6
Continuous
 62
     7
370
     0
100
AcDbMText
 10
8.3227727705
 20
0.9309786574
 30
0.0
 40
0.0833333333
 41
0.0
 71
     1
 72
     1
  1
SCALE: 1:1
  7
SLDTEXTSTYLE0
 73
     1
 44
1.0
  0
MTEXT
  5
64
330
1F
100
AcDbEntity
  8
0
  6
Continuous
 62
     7
370
     0
100
AcDbMText
 10
9.6378279873
 20
0.926579063
 30
0.0
 40
0.0833333333
 41
0.0
 71
     1
 72
     1
  1
SHEET 1 OF 1
  7
SLDTEXTSTYLE3
 73
     1
 44
1.0
  0
MTEXT
  5
65
330
1F
100
AcDbEntity
  8
0
  6
Continuous
 62
     7
370
     0
100
AcDbMText
 10
8.0602667775
 20
0.6044052155
 30
0.0
 40
0.1041666667
 41
0.0
 71
     1
 72
     1
  1
13323-E01
  7
SLDTEXTSTYLE0
 73
     1
 44
1.0
  0
INSERT
  5
75
330
1F
100
AcDbEntity
  8
0
  6
Continuous
 62
     7
370
     0
100
AcDbBlockReference
  2
SW_NOTE_0
 10
6.3891646717
 20
0.9312082413
 30
0.0
  0
MTEXT
  5
76
330
1F
100
AcDbEntity
  8
0
  6
Continuous
 62
     7
370
     0
100
AcDbMText
 10
7.9076399399
 20
0.7468305835
 30
0.0
 40
0.0833333333
 41
0.0
 71
     1
 72
     1
  1
DWG.  NO.
  7
SLDTEXTSTYLE1
 73
     1
 44
1.0
  0
MTEXT
  5
77
330
1F
100
AcDbEntity
  8
0
  6
Continuous
 62
     7
370
     0
100
AcDbMText
 10
7.0592138229
 20
1.5434434118
 30
0.0
 40
0.065
 41
0.0
 71
     1
 72
     1
  1
AP
  7
SLDTEXTSTYLE0
 73
     1
 44
1.0
  0
MTEXT
  5
78
330
1F
100
AcDbEntity
  8
0
  6
Continuous
 62
     7
370
     0
100
AcDbMText
 10
7.0628716471
 20
1.4267005168
 30
0.0
 40
0.065
 41
0.0
 71
     1
 72
     1
  1
TO
  7
SLDTEXTSTYLE0
 73
     1
 44
1.0
  0
MTEXT
  5
79
330
1F
100
AcDbEntity
  8
0
  6
Continuous
 62
     7
370
     0
100
AcDbMText
 10
7.0636219211
 20
1.3041261123
 30
0.0
 40
0.065
 41
0.0
 71
     1
 72
     1
  1
TO
  7
SLDTEXTSTYLE0
 73
     1
 44
1.0
  0
MTEXT
  5
7A
330
1F
100
AcDbEntity
  8
0
  6
Continuous
 62
     7
370
     0
100
AcDbMText
 10
7.3775562039
 20
1.5451308061
 30
0.0
 40
0.065
 41
0.0
 71
     1
 72
     1
  1
04/14/06
  7
SLDTEXTSTYLE0
 73
     1
 44
1.0
  0
MTEXT
  5
7B
330
1F
100
AcDbEntity
  8
0
  6
Continuous
 62
     7
370
     0
100
AcDbMText
 10
7.4731545031
 20
1.6582684693
 30
0.0
 40
0.065
 41
0.0
 71
     1
 72
     1
  1
DATE
  7
SLDTEXTSTYLE0
 73
     1
 44
1.0
  0
MTEXT
  5
7C
330
1F
100
AcDbEntity
  8
0
  6
Continuous
 62
     7
370
     0
100
AcDbMText
 10
7.3821011998
 20
1.4184142209
 30
0.0
 40
0.065
 41
0.0
 71
     1
 72
     1
  1
04/14/06
  7
SLDTEXTSTYLE0
 73
     1
 44
1.0
  0
MTEXT
  5
7D
330
1F
100
AcDbEntity
  8
0
  6
Continuous
 62
     7
370
     0
100
AcDbMText
 10
7.3821011998
 20
1.2979456571
 30
0.0
 40
0.065
 41
0.0
 71
     1
 72
     1
  1
04/14/06
  7
SLDTEXTSTYLE0
 73
     1
 44
1.0
  0
MTEXT
  5
7E
330
1F
100
AcDbEntity
  8
0
  6
Continuous
 62
     7
370
     0
100
AcDbMText
 10
7.9182509893
 20
1.8945248266
 30
0.0
 40
0.1875
 41
0.0
 71
     1
 72
     1
  1
THORLABS INC.
  7
SLDTEXTSTYLE0
 73
     1
 44
1.0
  0
INSERT
  5
85
330
1F
100
AcDbEntity
  8
0
  6
Continuous
 62
     7
370
     0
100
AcDbBlockReference
  2
SW_NOTE_1
 10
9.7899715108
 20
1.7786954532
 30
0.0
  0
INSERT
  5
8C
330
1F
100
AcDbEntity
  8
0
  6
Continuous
 62
     7
370
     0
100
AcDbBlockReference
  2
SW_NOTE_2
 10
8.3951480707
 20
1.4042065723
 30
0.0
  0
MTEXT
  5
8D
330
1F
100
AcDbEntity
  8
0
  6
Continuous
 62
     7
370
     0
100
AcDbMText
 10
8.3691642187
 20
1.131481397
 30
0.0
 40
0.1041666667
 41
0.0
 71
     1
 72
     1
  1
SEE TABLE
  7
SLDTEXTSTYLE0
 73
     1
 44
1.0
  0
INSERT
  5
9D
330
1F
100
AcDbEntity
  8
0
  6
Continuous
 62
     7
370
     0
100
AcDbBlockReference
  2
SW_NOTE_3
 10
0.8014463909
 20
1.8689377886
 30
0.0
  0
MTEXT
  5
9E
330
1F
100
AcDbEntity
  8
0
  6
Continuous
 62
     7
370
     0
100
AcDbMText
 10
0.8204544462
 20
2.1752564847
 30
0.0
 40
0.09
 41
0.0
 71
     1
 72
     1
  1
SPECIFICATIONS:
  7
SLDTEXTSTYLE0
 73
     1
 44
1.0
  0
INSERT
  5
A5
330
1F
100
AcDbEntity
  8
0
  6
Continuous
 62
     7
370
     0
100
AcDbBlockReference
  2
SW_NOTE_4
 10
0.4948605893
 20
0.6089482603
 30
0.0
  0
INSERT
  5
C2
330
1F
100
AcDbEntity
  8
0
  6
Continuous
 62
     7
370
     0
100
AcDbBlockReference
  2
SW_TABLEANNOTATION_0
 10
0.3174104478
 20
8.1967910448
 30
0.0
  0
CIRCLE
  5
C3
330
1F
100
AcDbEntity
  8
0
  6
Continuous
 62
     7
370
     0
100
AcDbCircle
 10
2.5735534125
 20
4.1985459941
 30
0.0
 40
0.590000000000002
  0
CIRCLE
  5
C4
330
1F
100
AcDbEntity
  8
0
  6
Continuous
 62
     7
370
     0
100
AcDbCircle
 10
2.5735534125
 20
4.1985459941
 30
0.0
 40
0.6000000000000023
  0
CIRCLE
  5
C5
330
1F
100
AcDbEntity
  8
0
  6
Continuous
 62
     7
370
     0
100
AcDbCircle
 10
2.5735534125
 20
4.1985459941
 30
0.0
 40
0.5060000000000014
  0
CIRCLE
  5
C6
330
1F
100
AcDbEntity
  8
0
  6
Continuous
 62
     7
370
     0
100
AcDbCircle
 10
2.5735534125
 20
4.1985459941
 30
0.0
 40
0.5160000000000022
  0
ARC
  5
C7
330
1F
100
AcDbEntity
  8
0
  6
Continuous
 62
     7
370
     0
100
AcDbCircle
 10
2.5735534125
 20
4.1985459941
 30
0.0
 40
0.5001794919243125
100
AcDbArc
 50
264.5035033306
 51
82.7851823767
  0
SPLINE
  5
C8
330
1F
100
AcDbEntity
  8
0
  6
Continuous
 62
     7
370
     0
100
AcDbSpline
210
0.0
220
0.0
230
1.0
 70
    24
 71
     1
 72
     4
 73
     2
 74
     0
 42
0.00000001
 43
0.00000001
 40
0.0
 40
0.0
 40
1.0
 40
1.0
 10
2.636370852706007
 20
4.694765156281492
 30
0.0
 10
2.636962242540887
 20
4.700074501614148
 30
0.0
  0
SPLINE
  5
C9
330
1F
100
AcDbEntity
  8
0
  6
Continuous
 62
     7
370
     0
100
AcDbSpline
210
0.0
220
0.0
230
1.0
 70
    24
 71
     1
 72
     4
 73
     2
 74
     0
 42
0.00000001
 43
0.00000001
 40
0.0
 40
0.0
 40
1.0
 40
1.0
 10
2.525117991241889
 20
3.69594583972747
 30
0.0
 10
2.525643776001312
 20
3.700666306862897
 30
0.0
  0
LINE
  5
CA
330
1F
100
AcDbEntity
  8
0
  6
Continuous
 62
     7
370
     0
100
AcDbLine
 10
2.6363708527
 20
4.6947651563
 30
0.0
 11
2.6308153119
 21
4.6448878458
 31
0.0
  0
LINE
  5
CB
330
1F
100
AcDbEntity
  8
0
  6
Continuous
 62
     7
370
     0
100
AcDbLine
 10
2.525643776
 20
3.7006663069
 30
0.0
 11
2.531199326
 21
3.7505436173
 31
0.0
  0
ARC
  5
CC
330
1F
100
AcDbEntity
  8
0
  6
Continuous
 62
     7
370
     0
100
AcDbCircle
 10
2.5735534125
 20
4.1985459941
 30
0.0
 40
0.4499999999999998
100
AcDbArc
 50
264.5993167274
 51
82.6893689799
  0
LINE
  5
CD
330
1F
100
AcDbEntity
  8
0
  6
Continuous
 62
     7
370
     0
100
AcDbLine
 10
2.5107359691
 20
3.7023267927
 30
0.0
 11
2.516291519
 21
3.7522041032
 31
0.0
  0
ARC
  5
CE
330
1F
100
AcDbEntity
  8
0
  6
Continuous
 62
     7
370
     0
100
AcDbCircle
 10
2.5735534125
 20
4.1985459941
 30
0.0
 40
0.5001794919243142
100
AcDbArc
 50
84.5035033306
 51
262.7851823767
  0
LINE
  5
CF
330
1F
100
AcDbEntity
  8
0
  6
Continuous
 62
     7
370
     0
100
AcDbLine
 10
2.6214630549
 20
4.6964256971
 30
0.0
 11
2.6159074958
 21
4.6465483866
 31
0.0
  0
ARC
  5
D0
330
1F
100
AcDbEntity
  8
0
  6
Continuous
 62
     7
370
     0
100
AcDbCircle
 10
2.5735534125
 20
4.1985459941
 30
0.0
 40
0.4499999999999999
100
AcDbArc
 50
84.5993167274
 51
262.6893689799
  0
SPLINE
  5
D1
330
1F
100
AcDbEntity
  8
0
  6
Continuous
 62
     7
370
     0
100
AcDbSpline
210
0.0
220
0.0
230
1.0
 70
    24
 71
     1
 72
     4
 73
     2
 74
     0
 42
0.00000001
 43
0.00000001
 40
0.0
 40
0.0
 40
1.0
 40
1.0
 10
2.510735969050903
 20
3.702326792680823
 30
0.0
 10
2.510155652421437
 20
3.69711675786759
 30
0.0
  0
SPLINE
  5
D2
330
1F
100
AcDbEntity
  8
0
  6
Continuous
 62
     7
370
     0
100
AcDbSpline
210
0.0
220
0.0
230
1.0
 70
    24
 71
     1
 72
     4
 73
     2
 74
     0
 42
0.00000001
 43
0.00000001
 40
0.0
 40
0.0
 40
1.0
 40
1.0
 10
2.622060549686515
 20
4.701790041796082
 30
0.0
 10
2.621463054922159
 20
4.696425697098783
 30
0.0
  0
ARC
  5
D3
330
1F
100
AcDbEntity
  8
0
  6
Continuous
 62
     7
370
     0
100
AcDbCircle
 10
2.5735534125
 20
4.1985459941
 30
0.0
 40
0.4499999999999991
100
AcDbArc
 50
262.6893689799
 51
264.5993167274
  0
ARC
  5
D4
330
1F
100
AcDbEntity
  8
0
  6
Continuous
 62
     7
370
     0
100
AcDbCircle
 10
2.5735534125
 20
4.1985459941
 30
0.0
 40
0.4499999999999999
100
AcDbArc
 50
82.6893689799
 51
84.5993167274
  0
DIMENSION
  5
D5
330
1F
100
AcDbEntity
  8
0
  6
Continuous
 62
     7
370
     0
100
AcDbDimension
  2
*D7
 10
2.2738970576
 20
3.6787324996
 30
0.0
 11
3.6932417586
 21
5.1520775135
 31
0.0
 70
   163
  1
<>
 71
     1
 42
-1.0
  3
SLDDIMSTYLE0
100
AcDbDiametricDimension
 15
2.8732097673
 25
4.7183594885
 35
0.0
 40
0.0
  0
LINE
  5
E6
330
1F
100
AcDbEntity
  8
0
  6
PHANTOM
 62
     7
370
    30
100
AcDbLine
 10
2.5735534125
 20
5.0604005935
 30
0.0
 11
2.5735534125
 21
3.3881454006
 31
0.0
  0
LINE
  5
E7
330
1F
100
AcDbEntity
  8
0
  6
Continuous
 62
     7
370
    30
100
AcDbLine
 10
2.5735534125
 20
5.0604005935
 30
0.0
 11
2.1035534125
 21
5.0604005935
 31
0.0
  0
SOLID
  5
E8
330
1F
100
AcDbEntity
  8
0
  6
Continuous
 62
     7
370
    30
100
AcDbTrace
 10
2.1035534125
 20
5.0604005935
 30
0.0
 11
2.3435534125
 21
5.0004005935
 31
0.0
 12
2.3435534125
 22
5.1204005935
 32
0.0
 13
2.3435534125
 23
5.1204005935
 33
0.0
  0
LINE
  5
E9
330
1F
100
AcDbEntity
  8
0
  6
Continuous
 62
     7
370
    30
100
AcDbLine
 10
2.5735534125
 20
3.3881454006
 30
0.0
 11
2.1035534125
 21
3.3881454006
 31
0.0
  0
SOLID
  5
EA
330
1F
100
AcDbEntity
  8
0
  6
Continuous
 62
     7
370
    30
100
AcDbTrace
 10
2.1035534125
 20
3.3881454006
 30
0.0
 11
2.3435534125
 21
3.3281454006
 31
0.0
 12
2.3435534125
 22
3.4481454006
 32
0.0
 13
2.3435534125
 23
3.4481454006
 33
0.0
  0
MTEXT
  5
EB
330
1F
100
AcDbEntity
  8
0
  6
Continuous
 62
     7
100
AcDbMText
 10
1.915825786
 20
5.1762387258
 30
0.0
 40
0.1458333333
 41
0.0
 71
     1
 72
     1
  1
A
  7
SLDTEXTSTYLE0
 73
     1
 44
1.0
  0
MTEXT
  5
EC
330
1F
100
AcDbEntity
  8
0
  6
Continuous
 62
     7
100
AcDbMText
 10
1.915825786
 20
3.5039835329
 30
0.0
 40
0.1458333333
 41
0.0
 71
     1
 72
     1
  1
A
  7
SLDTEXTSTYLE0
 73
     1
 44
1.0
  0
LINE
  5
ED
330
1F
100
AcDbEntity
  8
0
  6
Continuous
 62
     7
370
     0
100
AcDbLine
 10
6.5826343559
 20
6.6922307372
 30
0.0
 11
6.5826343559
 21
6.6840666561
 31
0.0
  0
LINE
  5
EE
330
1F
100
AcDbEntity
  8
0
  6
Continuous
 62
     7
370
     0
100
AcDbLine
 10
6.9997595512
 20
5.9615063338
 30
0.0
 11
7.0068294697
 21
5.9574236297
 31
0.0
  0
LINE
  5
EF
330
1F
100
AcDbEntity
  8
0
  6
Continuous
 62
     7
370
     0
100
AcDbLine
 10
6.8861690294
 20
7.070414264
 30
0.0
 11
6.7069228048
 21
6.9669376211
 31
0.0
  0
LINE
  5
F0
330
1F
100
AcDbEntity
  8
0
  6
Continuous
 62
     7
370
     0
100
AcDbLine
 10
6.9024144961
 20
7.0797925722
 30
0.0
 11
6.8955808994
 21
7.0758476208
 31
0.0
  0
LINE
  5
F1
330
1F
100
AcDbEntity
  8
0
  6
Continuous
 62
     7
370
     0
100
AcDbLine
 10
7.0101722403
 20
7.1419997939
 30
0.0
 11
6.927647694
 21
7.0943593874
 31
0.0
  0
LINE
  5
F2
330
1F
100
AcDbEntity
  8
0
  6
Continuous
 62
     7
370
     0
100
AcDbLine
 10
7.7642129834
 20
7.5772982493
 30
0.0
 11
7.0216829775
 21
7.148644801
 31
0.0
  0
LINE
  5
F3
330
1F
100
AcDbEntity
  8
0
  6
Continuous
 62
     7
370
     0
100
AcDbLine
 10
7.3068740444
 20
5.9276789862
 30
0.0
 11
8.364164223
 21
6.5380396144
 31
0.0
  0
LINE
  5
F4
330
1F
100
AcDbEntity
  8
0
  6
Continuous
 62
     7
370
     0
100
AcDbLine
 10
6.8955808994
 20
7.0758476208
 30
0.0
 11
6.8861215704
 21
7.0703868665
 31
0.0
  0
LINE
  5
F5
330
1F
100
AcDbEntity
  8
0
  6
Continuous
 62
     7
370
     0
100
AcDbLine
 10
6.910672893
 20
7.0845600433
 30
0.0
 11
6.9024144961
 21
7.0797925722
 31
0.0
  0
LINE
  5
F6
330
1F
100
AcDbEntity
  8
0
  6
Continuous
 62
     7
370
     0
100
AcDbLine
 10
6.927647694
 20
7.0943593874
 30
0.0
 11
6.919913015
 21
7.0898942522
 31
0.0
  0
LINE
  5
F7
330
1F
100
AcDbEntity
  8
0
  6
Continuous
 62
     7
370
     0
100
AcDbLine
 10
6.919913015
 20
7.0898942522
 30
0.0
 11
6.910672893
 21
7.0845600433
 31
0.0
  0
LINE
  5
F8
330
1F
100
AcDbEntity
  8
0
  6
Continuous
 62
     7
370
     0
100
AcDbLine
 10
8.4884526719
 20
6.8127464983
 30
0.0
 11
8.4884526719
 21
6.8209105794
 31
0.0
  0
LINE
  5
F9
330
1F
100
AcDbEntity
  8
0
  6
Continuous
 62
     7
370
     0
100
AcDbLine
 10
8.0713274766
 20
7.5434709017
 30
0.0
 11
8.064257558
 21
7.5475536057
 31
0.0
  0
LINE
  5
FA
330
1F
100
AcDbEntity
  8
0
  6
Continuous
 62
     7
370
     0
100
AcDbLine
 10
7.0216829775
 20
7.148644801
 30
0.0
 11
7.0101722403
 21
7.1419997939
 31
0.0
  0
LWPOLYLINE
  5
FB
330
1F
100
AcDbEntity
  8
0
  6
Continuous
 62
     7
370
     0
100
AcDbPolyline
 90
       80
 70
   128
 43
0.0
 10
7.4168950916
 20
6.1906533337
 10
7.4163888723
 20
6.2292472315
 10
7.413249017
 20
6.2691939737
 10
7.4074953768
 20
6.310241004
 10
7.3991643282
 20
6.3521288099
 10
7.3883085426
 20
6.3945925633
 10
7.3749966539
 20
6.4373637945
 10
7.3593128241
 20
6.4801720902
 10
7.3413562115
 20
6.5227468025
 10
7.3212403435
 20
6.5648187603
 10
7.2990923991
 20
6.6061219712
 10
7.2750524047
 20
6.646395303
 10
7.2492723489
 20
6.6853841347
 10
7.2219152217
 20
6.7228419664
 10
7.1931539834
 20
6.7585319775
 10
7.1631704719
 20
6.7922285244
 10
7.1321542527
 20
6.8237185667
 10
7.1003014202
 20
6.8528030141
 10
7.0678133584
 20
6.8792979854
 10
7.0348954672
 20
6.9030359709
 10
7.001755864
 20
6.9238668913
 10
6.9686040683
 20
6.941659047
 10
6.9356496762
 20
6.9562999501
 10
6.9031010361
 20
6.9676970362
 10
6.8711639309
 20
6.9757782491
 10
6.8400402773
 20
6.980492497
 10
6.8099268491
 20
6.9818099747
 10
6.781014033
 20
6.9797223529
 10
6.7534846253
 20
6.9742428299
 10
6.7275126755
 20
6.9654060493
 10
6.7032623869
 20
6.95326788
 10
6.6808870775
 20
6.9379050633
 10
6.6605282113
 20
6.919414728
 10
6.6423145034
 20
6.8979137759
 10
6.626361107
 20
6.8735381429
 10
6.6127688844
 20
6.8464419397
 10
6.6016237701
 20
6.8167964772
 10
6.5929962271
 20
6.7847891834
 10
6.5869408015
 20
6.750622419
 10
6.5834957776
 20
6.714512197
 10
6.582682936
 20
6.6766868181
 10
6.5845074158
 20
6.6373854263
 10
6.5889576819
 20
6.5968564978
 10
6.5960055984
 20
6.5553562695
 10
6.6056066061
 20
6.5131471192
 10
6.6177000043
 20
6.4704959067
 10
6.6322093346
 20
6.4276722867
 10
6.6490428645
 20
6.384947004
 10
6.6680941668
 20
6.3425901816
 10
6.6892427932
 20
6.3008696128
 10
6.7123550352
 20
6.2600490686
 10
6.7372847698
 20
6.2203866297
 10
6.7638743831
 20
6.1821330546
 10
6.7919557671
 20
6.1455301949
 10
6.8213513823
 20
6.1108094655
 10
6.85187538
 20
6.0781903822
 10
6.8833347777
 20
6.0478791732
 10
6.915530679
 20
6.0200674759
 10
6.9482595311
 20
5.9949311246
 10
6.9813144115
 20
5.9726290396
 10
7.0144863368
 20
5.9533022217
 10
7.0475655833
 20
5.9370728613
 10
7.0803430133
 20
5.9240435657
 10
7.1126113974
 20
5.9142967103
 10
7.1441667245
 20
5.9078939178
 10
7.1748094917
 20
5.9048756688
 10
7.2043459654
 20
5.9052610455
 10
7.2325894067
 20
5.9090476116
 10
7.2593612513
 20
5.9162114271
 10
7.2844922391
 20
5.9267072001
 10
7.3078234839
 20
5.9404685729
 10
7.3292074779
 20
5.9574085416
 10
7.3485090248
 20
5.9774200065
 10
7.365606094
 20
6.0003764484
 10
7.3803905921
 20
6.0261327295
 10
7.392769047
 20
6.0545260102
 10
7.402663198
 20
6.085376779
 10
7.4100104911
 20
6.1184899875
 10
7.4147644744
 20
6.1536562833
 10
7.4168950916
 20
6.1906533337
  0
LWPOLYLINE
  5
FC
330
1F
100
AcDbEntity
  8
0
  6
Continuous
 62
     7
370
     0
100
AcDbPolyline
 90
       21
 70
   128
 43
0.0
 10
7.4310351041
 20
6.1904544772
 10
7.4289119704
 20
6.1532896528
 10
7.4241869829
 20
6.1179375512
 10
7.4168892726
 20
6.0846161298
 10
7.4070638324
 20
6.0535308263
 10
7.3947712395
 20
6.0248732918
 10
7.3800872816
 20
5.9988202097
 10
7.3631024903
 20
5.9755322058
 10
7.3439215826
 20
5.9551528584
 10
7.322662815
 20
5.937807813
 10
7.2994572549
 20
5.9236040076
 10
7.2744479723
 20
5.9126290133
 10
7.2477891578
 20
5.9049504946
 10
7.2196451719
 20
5.9006157922
 10
7.1901895315
 20
5.8996516308
 10
7.1596038404
 20
5.902063955
 10
7.1280766697
 20
5.907837892
 10
7.0958023948
 20
5.9169378433
 10
7.0629799974
 20
5.929307705
 10
7.0298118385
 20
5.9448712126
 10
7.0068294697
 20
5.9574236297
  0
LWPOLYLINE
  5
FD
330
1F
100
AcDbEntity
  8
0
  6
Continuous
 62
     7
370
     0
100
AcDbPolyline
 90
       42
 70
   128
 43
0.0
 10
6.5826343559
 20
6.6922307372
 10
6.5827617451
 20
6.7041621301
 10
6.5848848787
 20
6.7413269544
 10
6.5896098663
 20
6.776679056
 10
6.5969075765
 20
6.8100004775
 10
6.6067330167
 20
6.841085781
 10
6.6190256097
 20
6.8697433154
 10
6.6337095675
 20
6.8957963976
 10
6.6506943588
 20
6.9190844015
 10
6.6698752666
 20
6.9394637488
 10
6.6911340342
 20
6.9568087942
 10
6.7143395943
 20
6.9710125997
 10
6.7393488768
 20
6.981987594
 10
6.7660076913
 20
6.9896661127
 10
6.7941516773
 20
6.9940008151
 10
6.8236073177
 20
6.9949649764
 10
6.8541930087
 20
6.9925526522
 10
6.8857201794
 20
6.9867787153
 10
6.9179944543
 20
6.9776787639
 10
6.9508168517
 20
6.9653089022
 10
6.9839850107
 20
6.9497453947
 10
7.0172944384
 20
6.9310841953
 10
7.0505397713
 20
6.9094403567
 10
7.0835160408
 20
6.8849473204
 10
7.1160199372
 20
6.857756094
 10
7.1478510632
 20
6.8280343204
 10
7.1788131693
 20
6.7959652444
 10
7.2087153638
 20
6.7617465823
 10
7.2373732898
 20
6.7255893038
 10
7.2646102616
 20
6.6877163303
 10
7.2902583543
 20
6.6483611614
 10
7.3141594387
 20
6.6077664348
 10
7.3361661568
 20
6.5661824304
 10
7.3561428299
 20
6.5238655275
 10
7.373966295
 20
6.4810766239
 10
7.3895266647
 20
6.4380795273
 10
7.402728004
 20
6.3951393293
 10
7.4134889224
 20
6.3525207703
 10
7.4217430751
 20
6.3104866079
 10
7.4274395726
 20
6.2692959968
 10
7.4305432941
 20
6.2292028908
 10
7.4310351041
 20
6.1904544772
  0
SPLINE
  5
FE
330
1F
100
AcDbEntity
  8
0
  6
Continuous
 62
     7
370
     0
100
AcDbSpline
210
0.0
220
0.0
230
1.0
 70
    24
 71
     1
 72
     4
 73
     2
 74
     0
 42
0.00000001
 43
0.00000001
 40
0.0
 40
0.0
 40
1.0
 40
1.0
 10
8.12533271420116
 20
7.406833525379445
 30
0.0
 10
8.142999611437093
 20
7.402171827394246
 30
0.0
  0
ARC
  5
FF
330
1F
100
AcDbEntity
  8
0
  6
Continuous
 62
     7
370
     0
100
AcDbCircle
 10
8.1074920823
 20
7.3699119991
 30
0.0
 40
0.0410059416476553
100
AcDbArc
 50
64.2099773035
 51
112.8701570803
  0
SPLINE
  5
100
330
1F
100
AcDbEntity
  8
0
  6
Continuous
 62
     7
370
     0
100
AcDbSpline
210
0.0
220
0.0
230
1.0
 70
     8
 71
     3
 72
    13
 73
     9
 74
     0
 42
0.00000001
 43
0.00000001
 40
0.0
 40
0.0
 40
0.0
 40
0.0
 40
0.2505394783770419
 40
0.4996876272642729
 40
0.6251017812203863
 40
0.7498743002532345
 40
0.8749192415306648
 40
1.0
 40
1.0
 40
1.0
 40
1.0
 10
8.096827168451792
 20
7.377510774186004
 30
0.0
 10
8.094368954402198
 20
7.379999714496719
 30
0.0
 10
8.08946617758752
 20
7.384963773200443
 30
0.0
 10
8.085232993329836
 20
7.391999911697469
 30
0.0
 10
8.084558429345856
 20
7.397669850906213
 30
0.0
 10
8.08554878629994
 20
7.401634256240311
 30
0.0
 10
8.0877998169426
 20
7.405157335111392
 30
0.0
 10
8.090303396367627
 20
7.406848617622133
 30
0.0
 10
8.091555365332383
 20
7.407694379970598
 30
0.0
  0
ARC
  5
101
330
1F
100
AcDbEntity
  8
0
  6
Continuous
 62
     7
370
     0
100
AcDbCircle
 10
8.1241220695
 20
7.3982925147
 30
0.0
 40
0.0343058648354994
100
AcDbArc
 50
217.2848518775
 51
290.8770765365
  0
SPLINE
  5
102
330
1F
100
AcDbEntity
  8
0
  6
Continuous
 62
     7
370
     0
100
AcDbSpline
210
0.0
220
0.0
230
1.0
 70
    24
 71
     1
 72
     4
 73
     2
 74
     0
 42
0.00000001
 43
0.00000001
 40
0.0
 40
0.0
 40
1.0
 40
1.0
 10
8.122904787821327
 20
7.382106763857053
 30
0.0
 10
8.136347451741113
 20
7.366238928469746
 30
0.0
  0
ARC
  5
103
330
1F
100
AcDbEntity
  8
0
  6
Continuous
 62
     7
370
     0
100
AcDbCircle
 10
8.1164820479
 20
7.3940414734
 30
0.0
 40
0.013553187047063
100
AcDbArc
 50
226.9368347316
 51
298.2871992255
  0
SPLINE
  5
104
330
1F
100
AcDbEntity
  8
0
  6
Continuous
 62
     7
370
     0
100
AcDbSpline
210
0.0
220
0.0
230
1.0
 70
     8
 71
     3
 72
    12
 73
     8
 74
     0
 42
0.00000001
 43
0.00000001
 40
0.0
 40
0.0
 40
0.0
 40
0.0
 40
0.2494023648056361
 40
0.4991486310883241
 40
0.7488658669771241
 40
0.8743546734024622
 40
1.0
 40
1.0
 40
1.0
 40
1.0
 10
8.1071151312721
 20
7.393958258136859
 30
0.0
 10
8.106350549287823
 20
7.393372218309096
 30
0.0
 10
8.104820331035466
 20
7.392199330561943
 30
0.0
 10
8.104277347531703
 20
7.389490982921775
 30
0.0
 10
8.104903029704253
 20
7.387136912216555
 30
0.0
 10
8.106069385866629
 20
7.38535939628892
 30
0.0
 10
8.106841551252039
 20
7.384546298359549
 30
0.0
 10
8.107227874572049
 20
7.384139496011887
 30
0.0
  0
ARC
  5
105
330
1F
100
AcDbEntity
  8
0
  6
Continuous
 62
     7
370
     0
100
AcDbCircle
 10
8.1159110888
 20
7.3673216138
 30
0.0
 40
0.0280513759181664
100
AcDbArc
 50
59.2811110586
 51
108.2742657275
  0
ARC
  5
106
330
1F
100
AcDbEntity
  8
0
  6
Continuous
 62
     7
370
     0
100
AcDbCircle
 10
8.1580907379
 20
7.4498177805
 30
0.0
 40
0.0646835452530356
100
AcDbArc
 50
244.4967782268
 51
287.0596734226
  0
ARC
  5
107
330
1F
100
AcDbEntity
  8
0
  6
Continuous
 62
     7
370
     0
100
AcDbCircle
 10
7.5599664182
 20
6.8041110897
 30
0.0
 40
0.8495387908352287
100
AcDbArc
 50
43.4150157067
 51
47.6375155966
  0
LINE
  5
108
330
1F
100
AcDbEntity
  8
0
  6
Continuous
 62
     7
370
     0
100
AcDbLine
 10
8.1195335964
 20
7.4244039765
 30
0.0
 11
8.1324015624
 21
7.4318324951
 31
0.0
  0
ARC
  5
109
330
1F
100
AcDbEntity
  8
0
  6
Continuous
 62
     7
370
     0
100
AcDbCircle
 10
7.5610574751
 20
6.8114326383
 30
0.0
 40
0.829234248970821
100
AcDbArc
 50
45.4298052066
 51
47.6634540881
  0
LINE
  5
10A
330
1F
100
AcDbEntity
  8
0
  6
Continuous
 62
     7
370
     0
100
AcDbLine
 10
8.0388166113
 20
7.4476570354
 30
0.0
 11
8.0514090811
 21
7.4549265135
 31
0.0
  0
ARC
  5
10B
330
1F
100
AcDbEntity
  8
0
  6
Continuous
 62
     7
370
     0
100
AcDbCircle
 10
7.5835295344
 20
6.8539349747
 30
0.0
 40
0.7481926274259323
100
AcDbArc
 50
48.410966791
 51
52.517733133
  0
LINE
  5
10C
330
1F
100
AcDbEntity
  8
0
  6
Continuous
 62
     7
370
     0
100
AcDbLine
 10
8.0927596011
 20
7.4207965409
 30
0.0
 11
8.0801671313
 21
7.4135270628
 31
0.0
  0
ARC
  5
10D
330
1F
100
AcDbEntity
  8
0
  6
Continuous
 62
     7
370
     0
100
AcDbCircle
 10
7.5961220042
 20
6.8612044528
 30
0.0
 40
0.7481926274276017
100
AcDbArc
 50
48.410966791
 51
52.517733133
  0
ARC
  5
10E
330
1F
100
AcDbEntity
  8
0
  6
Continuous
 62
     7
370
     0
100
AcDbCircle
 10
7.9780527297
 20
7.4819793091
 30
0.0
 40
0.0512388814485517
100
AcDbArc
 50
64.6399205746
 51
127.2803115738
  0
SPLINE
  5
10F
330
1F
100
AcDbEntity
  8
0
  6
Continuous
 62
     7
370
     0
100
AcDbSpline
210
0.0
220
0.0
230
1.0
 70
    24
 71
     1
 72
     4
 73
     2
 74
     0
 42
0.00000001
 43
0.00000001
 40
0.0
 40
0.0
 40
1.0
 40
1.0
 10
7.935358945554231
 20
7.51434982516939
 30
0.0
 10
7.947016569759172
 20
7.52274914777663
 30
0.0
  0
SPLINE
  5
110
330
1F
100
AcDbEntity
  8
0
  6
Continuous
 62
     7
370
     0
100
AcDbSpline
210
0.0
220
0.0
230
1.0
 70
     8
 71
     3
 72
    12
 73
     8
 74
     0
 42
0.00000001
 43
0.00000001
 40
0.0
 40
0.0
 40
0.0
 40
0.0
 40
0.2503262674180373
 40
0.4997345046006469
 40
0.6249000363599445
 40
0.7501600021982613
 40
1.0
 40
1.0
 40
1.0
 40
1.0
 10
7.94084760970581
 20
7.494605030189706
 30
0.0
 10
7.938525962187457
 20
7.495931736364091
 30
0.0
 10
7.933891181409519
 20
7.49858028323712
 30
0.0
 10
7.930690006295709
 20
7.502874682583062
 30
0.0
 10
7.93042147132569
 20
7.506501289519196
 30
0.0
 10
7.931302902381935
 20
7.510156538711877
 30
0.0
 10
7.933737410879264
 20
7.51267342304444
 30
0.0
 10
7.935358945554231
 20
7.51434982516939
 30
0.0
  0
ARC
  5
111
330
1F
100
AcDbEntity
  8
0
  6
Continuous
 62
     7
370
     0
100
AcDbCircle
 10
7.9643868434
 20
7.5390851311
 30
0.0
 40
0.0503246947196272
100
AcDbArc
 50
242.1118401857
 51
305.4383484605
  0
SPLINE
  5
112
330
1F
100
AcDbEntity
  8
0
  6
Continuous
 62
     7
370
     0
100
AcDbSpline
210
0.0
220
0.0
230
1.0
 70
     8
 71
     3
 72
     9
 73
     5
 74
     0
 42
0.00000001
 43
0.00000001
 40
0.0
 40
0.0
 40
0.0
 40
0.0
 40
0.4987092906772053
 40
1.0
 40
1.0
 40
1.0
 40
1.0
 10
8.009832554441523
 20
7.512546183856792
 30
0.0
 10
8.00791771642604
 20
7.50983769351799
 30
0.0
 10
8.004078128812013
 20
7.504406693154784
 30
0.0
 10
7.997076361593877
 20
7.500194918175289
 30
0.0
 10
7.993566440738586
 20
7.49808359450831
 30
0.0
  0
SPLINE
  5
113
330
1F
100
AcDbEntity
  8
0
  6
Continuous
 62
     7
370
     0
100
AcDbSpline
210
0.0
220
0.0
230
1.0
 70
     8
 71
     3
 72
    11
 73
     7
 74
     0
 42
0.00000001
 43
0.00000001
 40
0.0
 40
0.0
 40
0.0
 40
0.0
 40
0.2504031889031629
 40
0.5003824607867539
 40
0.7500984159891406
 40
1.0
 40
1.0
 40
1.0
 40
1.0
 10
7.999998631373283
 20
7.528280501023606
 30
0.0
 10
8.001762038744
 20
7.527261481706682
 30
0.0
 10
8.005285868146471
 20
7.525225168209137
 30
0.0
 10
8.009204376214921
 20
7.521426401904245
 30
0.0
 10
8.01094431593216
 20
7.517006916150898
 30
0.0
 10
8.010203233386122
 20
7.514033462875572
 30
0.0
 10
8.009832554441523
 20
7.512546183856792
 30
0.0
  0
LINE
  5
114
330
1F
100
AcDbEntity
  8
0
  6
Continuous
 62
     7
370
     0
100
AcDbLine
 10
7.8541823003
 20
7.5601921587
 30
0.0
 11
7.8751774026
 21
7.5723123733
 31
0.0
  0
ARC
  5
115
330
1F
100
AcDbEntity
  8
0
  6
Continuous
 62
     7
370
     0
100
AcDbCircle
 10
7.8408410281
 20
7.5795965763
 30
0.0
 40
0.0235482688001388
100
AcDbArc
 50
266.8585248166
 51
304.5099967614
  0
SPLINE
  5
116
330
1F
100
AcDbEntity
  8
0
  6
Continuous
 62
     7
370
     0
100
AcDbSpline
210
0.0
220
0.0
230
1.0
 70
     8
 71
     3
 72
    11
 73
     7
 74
     0
 42
0.00000001
 43
0.00000001
 40
0.0
 40
0.0
 40
0.0
 40
0.0
 40
0.2494767938058597
 40
0.503530186895957
 40
0.7522417858368261
 40
0.9999999999999999
 40
0.9999999999999999
 40
0.9999999999999999
 40
0.9999999999999999
 10
7.838635412773926
 20
7.55872116507928
 30
0.0
 10
7.838341540044182
 20
7.55841839919291
 30
0.0
 10
7.837748403551307
 20
7.557807313243696
 30
0.0
 10
7.837659362236731
 20
7.557004185514455
 30
0.0
 10
7.838224973057279
 20
7.556379094092656
 30
0.0
 10
7.839109253647171
 20
7.556182034775118
 30
0.0
 10
7.839550544887824
 20
7.556083694325591
 30
0.0
  0
SPLINE
  5
117
330
1F
100
AcDbEntity
  8
0
  6
Continuous
 62
     7
370
     0
100
AcDbSpline
210
0.0
220
0.0
230
1.0
 70
    24
 71
     1
 72
     4
 73
     2
 74
     0
 42
0.00000001
 43
0.00000001
 40
0.0
 40
0.0
 40
1.0
 40
1.0
 10
7.842030218203658
 20
7.560889304712338
 30
0.0
 10
7.838635412773926
 20
7.55872116507928
 30
0.0
  0
LINE
  5
118
330
1F
100
AcDbEntity
  8
0
  6
Continuous
 62
     7
370
     0
100
AcDbLine
 10
7.8646897764
 20
7.5739703892
 30
0.0
 11
7.8420302182
 21
7.5608893047
 31
0.0
  0
ARC
  5
119
330
1F
100
AcDbEntity
  8
0
  6
Continuous
 62
     7
370
     0
100
AcDbCircle
 10
7.822747623
 20
7.276679985
 30
0.0
 40
0.3002344562260197
100
AcDbArc
 50
81.9696287312
 51
84.7898534922
  0
LINE
  5
11A
330
1F
100
AcDbEntity
  8
0
  6
Continuous
 62
     7
370
     0
100
AcDbLine
 10
7.8287754342
 20
7.5634145973
 30
0.0
 11
7.8500115956
 21
7.5756739724
 31
0.0
  0
ARC
  5
11B
330
1F
100
AcDbEntity
  8
0
  6
Continuous
 62
     7
370
     0
100
AcDbCircle
 10
7.8142032584
 20
7.5851135604
 30
0.0
 40
0.0261379667306865
100
AcDbArc
 50
270.8643892358
 51
303.8837665985
  0
SPLINE
  5
11C
330
1F
100
AcDbEntity
  8
0
  6
Continuous
 62
     7
370
     0
100
AcDbSpline
210
0.0
220
0.0
230
1.0
 70
     8
 71
     3
 72
    10
 73
     6
 74
     0
 42
0.00000001
 43
0.00000001
 40
0.0
 40
0.0
 40
0.0
 40
0.0
 40
0.4988594542991726
 40
0.749198759526649
 40
0.9999999999999999
 40
0.9999999999999999
 40
0.9999999999999999
 40
0.9999999999999999
 10
7.813113237809939
 20
7.560444591707874
 30
0.0
 10
7.813012836888138
 20
7.5600799559123
 30
0.0
 10
7.812862052442899
 20
7.559532337372913
 30
0.0
 10
7.813610033412358
 20
7.559100300823242
 30
0.0
 10
7.814268190422239
 20
7.559019170583769
 30
0.0
 10
7.814597572261168
 20
7.558978568072409
 30
0.0
  0
SPLINE
  5
11D
330
1F
100
AcDbEntity
  8
0
  6
Continuous
 62
     7
370
     0
100
AcDbSpline
210
0.0
220
0.0
230
1.0
 70
     8
 71
     3
 72
     9
 73
     5
 74
     0
 42
0.00000001
 43
0.00000001
 40
0.0
 40
0.0
 40
0.0
 40
0.0
 40
0.501578405701278
 40
0.9999999999999999
 40
0.9999999999999999
 40
0.9999999999999999
 40
0.9999999999999999
 10
7.816273610412644
 20
7.562892170422996
 30
0.0
 10
7.815551233152932
 20
7.562466660235787
 30
0.0
 10
7.814111025098716
 20
7.561618317918069
 30
0.0
 10
7.813445132874143
 20
7.56083500952565
 30
0.0
 10
7.813113237809939
 20
7.560444591707874
 30
0.0
  0
LINE
  5
11E
330
1F
100
AcDbEntity
  8
0
  6
Continuous
 62
     7
370
     0
100
AcDbLine
 10
7.839713741
 20
7.5764238698
 30
0.0
 11
7.8162736104
 21
7.5628921704
 31
0.0
  0
ARC
  5
11F
330
1F
100
AcDbEntity
  8
0
  6
Continuous
 62
     7
370
     0
100
AcDbCircle
 10
7.8248968701
 20
7.3058202901
 30
0.0
 40
0.2710089241953356
100
AcDbArc
 50
86.8659051479
 51
89.8854207012
  0
LINE
  5
120
330
1F
100
AcDbEntity
  8
0
  6
Continuous
 62
     7
370
     0
100
AcDbLine
 10
7.7995995867
 20
7.561911995
 30
0.0
 11
7.8254388296
 21
7.5768286724
 31
0.0
  0
SPLINE
  5
121
330
1F
100
AcDbEntity
  8
0
  6
Continuous
 62
     7
370
     0
100
AcDbSpline
210
0.0
220
0.0
230
1.0
 70
     8
 71
     3
 72
    13
 73
     9
 74
     0
 42
0.00000001
 43
0.00000001
 40
0.0
 40
0.0
 40
0.0
 40
0.0
 40
0.2493026324880659
 40
0.3767800005050027
 40
0.4994269650594815
 40
0.6183515801775552
 40
0.749738029033263
 40
1.0
 40
1.0
 40
1.0
 40
1.0
 10
7.796055161856531
 20
7.552219055062488
 30
0.0
 10
7.794347174856652
 20
7.552391391730446
 30
0.0
 10
7.7917658329099
 20
7.55265185031122
 30
0.0
 10
7.790480303198127
 20
7.553874909009747
 30
0.0
 10
7.790589523121755
 20
7.555114868725988
 30
0.0
 10
7.79183222851259
 20
7.556654724333344
 30
0.0
 10
7.794626973399647
 20
7.558923205647258
 30
0.0
 10
7.797630231512021
 20
7.560728314014792
 30
0.0
 10
7.799599586697284
 20
7.561911995000759
 30
0.0
  0
ARC
  5
122
330
1F
100
AcDbEntity
  8
0
  6
Continuous
 62
     7
370
     0
100
AcDbCircle
 10
7.7978481294
 20
7.6078948125
 30
0.0
 40
0.0557046200415703
100
AcDbArc
 50
268.1554991201
 51
289.1520790103
  0
SPLINE
  5
123
330
1F
100
AcDbEntity
  8
0
  6
Continuous
 62
     7
370
     0
100
AcDbSpline
210
0.0
220
0.0
230
1.0
 70
     8
 71
     3
 72
    12
 73
     8
 74
     0
 42
0.00000001
 43
0.00000001
 40
0.0
 40
0.0
 40
0.0
 40
0.0
 40
0.2503253654036854
 40
0.4999978777420956
 40
0.749482662908254
 40
0.8746982187917985
 40
1.0
 40
1.0
 40
1.0
 40
1.0
 10
7.820773980194075
 20
7.549937755364637
 30
0.0
 10
7.819642249249187
 20
7.55011946243629
 30
0.0
 10
7.817381738934118
 20
7.550482402684275
 30
0.0
 10
7.815088927998227
 20
7.551532528359902
 30
0.0
 10
7.814800506207553
 20
7.552947253200606
 30
0.0
 10
7.815341753674756
 20
7.554238349957739
 30
0.0
 10
7.815862868743372
 20
7.554928292176633
 30
0.0
 10
7.816123515958729
 20
7.555273382021359
 30
0.0
  0
ARC
  5
124
330
1F
100
AcDbEntity
  8
0
  6
Continuous
 62
     7
370
     0
100
AcDbCircle
 10
7.8264388268
 20
7.598451422
 30
0.0
 40
0.0488432834679799
100
AcDbArc
 50
263.3398437345
 51
287.4180373453
  0
LINE
  5
125
330
1F
100
AcDbEntity
  8
0
  6
Continuous
 62
     7
370
     0
100
AcDbLine
 10
7.8350561128
 20
7.5483820332
 30
0.0
 11
7.8410596331
 21
7.5518477916
 31
0.0
  0
ARC
  5
126
330
1F
100
AcDbEntity
  8
0
  6
Continuous
 62
     7
370
     0
100
AcDbCircle
 10
7.7761166124
 20
7.2185711161
 30
0.0
 40
0.3350359768218878
100
AcDbArc
 50
77.4253911729
 51
79.8678041033
  0
LINE
  5
127
330
1F
100
AcDbEntity
  8
0
  6
Continuous
 62
     7
370
     0
100
AcDbLine
 10
7.8901982987
 20
7.5693207524
 30
0.0
 11
7.8490575405
 21
7.5455706983
 31
0.0
  0
ARC
  5
128
330
1F
100
AcDbEntity
  8
0
  6
Continuous
 62
     7
370
     0
100
AcDbCircle
 10
7.8174056968
 20
7.2430355673
 30
0.0
 40
0.3343064236649905
100
AcDbArc
 50
77.4235464384
 51
80.0487242212
  0
SPLINE
  5
129
330
1F
100
AcDbEntity
  8
0
  6
Continuous
 62
     7
370
     0
100
AcDbSpline
210
0.0
220
0.0
230
1.0
 70
    24
 71
     1
 72
     4
 73
     2
 74
     0
 42
0.00000001
 43
0.00000001
 40
0.0
 40
0.0
 40
1.0
 40
1.0
 10
7.605724500807744
 20
6.880783469393896
 30
0.0
 10
7.612679475402148
 20
6.872047554744022
 30
0.0
  0
SPLINE
  5
12A
330
1F
100
AcDbEntity
  8
0
  6
Continuous
 62
     7
370
     0
100
AcDbSpline
210
0.0
220
0.0
230
1.0
 70
    24
 71
     1
 72
     4
 73
     2
 74
     0
 42
0.00000001
 43
0.00000001
 40
0.0
 40
0.0
 40
1.0
 40
1.0
 10
7.598557953633887
 20
6.88743787871805
 30
0.0
 10
7.605724500807744
 20
6.880783469393896
 30
0.0
  0
ARC
  5
12B
330
1F
100
AcDbEntity
  8
0
  6
Continuous
 62
     7
370
     0
100
AcDbCircle
 10
7.5878435077
 20
6.8710009059
 30
0.0
 40
0.0196207397130326
100
AcDbArc
 50
56.9016679797
 51
117.2227822865
  0
ARC
  5
12C
330
1F
100
AcDbEntity
  8
0
  6
Continuous
 62
     7
370
     0
100
AcDbCircle
 10
7.5870851544
 20
6.8753639841
 30
0.0
 40
0.0154506515455325
100
AcDbArc
 50
122.1294662831
 51
214.4396177885
  0
ARC
  5
12D
330
1F
100
AcDbEntity
  8
0
  6
Continuous
 62
     7
370
     0
100
AcDbCircle
 10
7.5586767042
 20
6.8489493185
 30
0.0
 40
0.023619678552514
100
AcDbArc
 50
48.451154418
 51
72.7849012668
  0
SPLINE
  5
12E
330
1F
100
AcDbEntity
  8
0
  6
Continuous
 62
     7
370
     0
100
AcDbSpline
210
0.0
220
0.0
230
1.0
 70
     8
 71
     3
 72
     9
 73
     5
 74
     0
 42
0.00000001
 43
0.00000001
 40
0.0
 40
0.0
 40
0.0
 40
0.0
 40
0.5001654445837099
 40
1.0
 40
1.0
 40
1.0
 40
1.0
 10
7.554499762322656
 20
6.870123136493462
 30
0.0
 10
7.556182696746392
 20
6.87090619625813
 30
0.0
 10
7.559547452232723
 20
6.872471797746895
 30
0.0
 10
7.563627720135879
 20
6.871831091887858
 30
0.0
 10
7.565667179029234
 20
6.871510844959654
 30
0.0
  0
SPLINE
  5
12F
330
1F
100
AcDbEntity
  8
0
  6
Continuous
 62
     7
370
     0
100
AcDbSpline
210
0.0
220
0.0
230
1.0
 70
     8
 71
     3
 72
    14
 73
    10
 74
     0
 42
0.00000001
 43
0.00000001
 40
0.0
 40
0.0
 40
0.0
 40
0.0
 40
0.2499004290088944
 40
0.3800976031651769
 40
0.4999571058496323
 40
0.6257216768230888
 40
0.7499966555365245
 40
0.8749516763669398
 40
1.0
 40
1.0
 40
1.0
 40
1.0
 10
7.55388121161014
 20
6.842258116105256
 30
0.0
 10
7.55235219845247
 20
6.84474886565051
 30
0.0
 10
7.550026575248288
 20
6.848537286246625
 30
0.0
 10
7.54829208712693
 20
6.853908232162633
 30
0.0
 10
7.547769958775416
 20
6.857943577606637
 30
0.0
 10
7.548150775900466
 20
6.86174310172066
 30
0.0
 10
7.549417533018258
 20
6.865207378006541
 30
0.0
 10
7.551523788227039
 20
6.868129775017348
 30
0.0
 10
7.553507524176586
 20
6.869458517369788
 30
0.0
 10
7.554499762322656
 20
6.870123136493462
 30
0.0
  0
ARC
  5
130
330
1F
100
AcDbEntity
  8
0
  6
Continuous
 62
     7
370
     0
100
AcDbCircle
 10
6.695493169
 20
6.2677277064
 30
0.0
 40
1.032915883978168
100
AcDbArc
 50
31.2230859894
 51
33.7949157973
  0
LINE
  5
131
330
1F
100
AcDbEntity
  8
0
  6
Continuous
 62
     7
370
     0
100
AcDbLine
 10
7.6355949536
 20
6.8359508409
 30
0.0
 11
7.5787968309
 21
6.8031619826
 31
0.0
  0
ARC
  5
132
330
1F
100
AcDbEntity
  8
0
  6
Continuous
 62
     7
370
     0
100
AcDbCircle
 10
6.7518604131
 20
6.3002468514
 30
0.0
 40
1.033424163794664
100
AcDbArc
 50
31.2234902525
 51
33.5941761235
  0
ARC
  5
133
330
1F
100
AcDbEntity
  8
0
  6
Continuous
 62
     7
370
     0
100
AcDbCircle
 10
6.8290999594
 20
6.3668179885
 30
0.0
 40
0.9050668371610755
100
AcDbArc
 50
42.6204868743
 51
42.7529797164
  0
ARC
  5
134
330
1F
100
AcDbEntity
  8
0
  6
Continuous
 62
     7
370
     0
100
AcDbCircle
 10
7.5008544737
 20
6.9881808611
 30
0.0
 40
0.0100022367248298
100
AcDbArc
 50
191.285322709
 51
224.1605064238
  0
SPLINE
  5
135
330
1F
100
AcDbEntity
  8
0
  6
Continuous
 62
     7
370
     0
100
AcDbSpline
210
0.0
220
0.0
230
1.0
 70
    24
 71
     1
 72
     4
 73
     2
 74
     0
 42
0.00000001
 43
0.00000001
 40
0.0
 40
0.0
 40
1.0
 40
1.0
 10
7.492487891596126
 20
6.991863242326253
 30
0.0
 10
7.491045632051373
 20
6.986223474054245
 30
0.0
  0
SPLINE
  5
136
330
1F
100
AcDbEntity
  8
0
  6
Continuous
 62
     7
370
     0
100
AcDbSpline
210
0.0
220
0.0
230
1.0
 70
    24
 71
     1
 72
     4
 73
     2
 74
     0
 42
0.00000001
 43
0.00000001
 40
0.0
 40
0.0
 40
1.0
 40
1.0
 10
7.501156587383374
 20
7.01094149509099
 30
0.0
 10
7.492487891596126
 20
6.991863242326253
 30
0.0
  0
ARC
  5
137
330
1F
100
AcDbEntity
  8
0
  6
Continuous
 62
     7
370
     0
100
AcDbCircle
 10
6.8855042956
 20
6.4121615955
 30
0.0
 40
0.8588161109921828
100
AcDbArc
 50
44.2040274653
 51
45.9602575375
  0
SPLINE
  5
138
330
1F
100
AcDbEntity
  8
0
  6
Continuous
 62
     7
370
     0
100
AcDbSpline
210
0.0
220
0.0
230
1.0
 70
    24
 71
     1
 72
     4
 73
     2
 74
     0
 42
0.00000001
 43
0.00000001
 40
0.0
 40
0.0
 40
1.0
 40
1.0
 10
7.474065903707315
 20
7.012177625264696
 30
0.0
 10
7.482516467638626
 20
7.029528244234088
 30
0.0
  0
SPLINE
  5
139
330
1F
100
AcDbEntity
  8
0
  6
Continuous
 62
     7
370
     0
100
AcDbSpline
210
0.0
220
0.0
230
1.0
 70
    24
 71
     1
 72
     4
 73
     2
 74
     0
 42
0.00000001
 43
0.00000001
 40
0.0
 40
0.0
 40
1.0
 40
1.0
 10
7.472503898131192
 20
7.003469560486201
 30
0.0
 10
7.474065903707315
 20
7.012177625264696
 30
0.0
  0
SPLINE
  5
13A
330
1F
100
AcDbEntity
  8
0
  6
Continuous
 62
     7
370
     0
100
AcDbSpline
210
0.0
220
0.0
230
1.0
 70
    24
 71
     1
 72
     4
 73
     2
 74
     0
 42
0.00000001
 43
0.00000001
 40
0.0
 40
0.0
 40
1.0
 40
1.0
 10
7.4746739205841
 20
6.997917473397396
 30
0.0
 10
7.472503898131192
 20
7.003469560486201
 30
0.0
  0
SPLINE
  5
13B
330
1F
100
AcDbEntity
  8
0
  6
Continuous
 62
     7
370
     0
100
AcDbSpline
210
0.0
220
0.0
230
1.0
 70
    24
 71
     1
 72
     4
 73
     2
 74
     0
 42
0.00000001
 43
0.00000001
 40
0.0
 40
0.0
 40
1.0
 40
1.0
 10
7.466669230382132
 20
7.002470023266679
 30
0.0
 10
7.4746739205841
 20
6.997917473397396
 30
0.0
  0
ARC
  5
13C
330
1F
100
AcDbEntity
  8
0
  6
Continuous
 62
     7
370
     0
100
AcDbCircle
 10
7.4571716994
 20
6.9800098207
 30
0.0
 40
0.0243857292658418
100
AcDbArc
 50
67.0784211726
 51
117.6791657984
  0
SPLINE
  5
13D
330
1F
100
AcDbEntity
  8
0
  6
Continuous
 62
     7
370
     0
100
AcDbSpline
210
0.0
220
0.0
230
1.0
 70
     8
 71
     3
 72
    14
 73
    10
 74
     0
 42
0.00000001
 43
0.00000001
 40
0.0
 40
0.0
 40
0.0
 40
0.0
 40
0.2503817225611567
 40
0.3755492991303602
 40
0.5004182237810986
 40
0.6251583274709217
 40
0.7499167264434171
 40
0.8736417210980034
 40
1.0
 40
1.0
 40
1.0
 40
1.0
 10
7.450647684577326
 20
6.97162051803337
 30
0.0
 10
7.44829226215289
 20
6.97415841862167
 30
0.0
 10
7.444759347563102
 20
6.977965033487361
 30
0.0
 10
7.440863202435365
 20
6.983342829891838
 30
0.0
 10
7.438859140804737
 20
6.987616598277063
 30
0.0
 10
7.438490351280212
 20
6.991909685283267
 30
0.0
 10
7.43963423981022
 20
6.995821351680919
 30
0.0
 10
7.442117289097479
 20
6.999174934834254
 30
0.0
 10
7.444593099183822
 20
7.000789252521828
 30
0.0
 10
7.445844038908616
 20
7.001604910449293
 30
0.0
  0
ARC
  5
13E
330
1F
100
AcDbEntity
  8
0
  6
Continuous
 62
     7
370
     0
100
AcDbCircle
 10
6.7911944451
 20
6.3434103514
 30
0.0
 40
0.9107835025406169
100
AcDbArc
 50
41.1199898536
 51
43.6100831631
  0
LINE
  5
13F
330
1F
100
AcDbEntity
  8
0
  6
Continuous
 62
     7
370
     0
100
AcDbLine
 10
7.5341167429
 20
6.9751651559
 30
0.0
 11
7.4773186203
 21
6.9423762977
 31
0.0
  0
ARC
  5
140
330
1F
100
AcDbEntity
  8
0
  6
Continuous
 62
     7
370
     0
100
AcDbCircle
 10
6.8412449677
 20
6.3701687
 30
0.0
 40
0.9198325981192009
100
AcDbArc
 50
41.126561938
 51
42.6168645091
  0
LINE
  5
141
330
1F
100
AcDbEntity
  8
0
  6
Continuous
 62
     7
370
     0
100
AcDbLine
 10
7.4950979295
 20
6.9796741572
 30
0.0
 11
7.5181477739
 21
6.9929805491
 31
0.0
  0
ARC
  5
142
330
1F
100
AcDbEntity
  8
0
  6
Continuous
 62
     7
370
     0
100
AcDbCircle
 10
7.3555742074
 20
7.0746760589
 30
0.0
 40
0.0463818428580849
100
AcDbArc
 50
57.7870360977
 51
127.5653238688
  0
SPLINE
  5
143
330
1F
100
AcDbEntity
  8
0
  6
Continuous
 62
     7
370
     0
100
AcDbSpline
210
0.0
220
0.0
230
1.0
 70
    24
 71
     1
 72
     4
 73
     2
 74
     0
 42
0.00000001
 43
0.00000001
 40
0.0
 40
0.0
 40
1.0
 40
1.0
 10
7.315645159202618
 20
7.102829502266389
 30
0.0
 10
7.327296795729576
 20
7.111441033240003
 30
0.0
  0
SPLINE
  5
144
330
1F
100
AcDbEntity
  8
0
  6
Continuous
 62
     7
370
     0
100
AcDbSpline
210
0.0
220
0.0
230
1.0
 70
     8
 71
     3
 72
    12
 73
     8
 74
     0
 42
0.00000001
 43
0.00000001
 40
0.0
 40
0.0
 40
0.0
 40
0.0
 40
0.250326267418037
 40
0.4997345046006496
 40
0.6249000363599438
 40
0.750160002198261
 40
1.0
 40
1.0
 40
1.0
 40
1.0
 10
7.321148778212081
 20
7.080298044113953
 30
0.0
 10
7.318830930054494
 20
7.081938733132777
 30
0.0
 10
7.314203734064562
 20
7.085214094214466
 30
0.0
 10
7.31099716326868
 20
7.090258111850503
 30
0.0
 10
7.310721739777042
 20
7.094352902860871
 30
0.0
 10
7.311595323247182
 20
7.098401652830188
 30
0.0
 10
7.314026106063708
 20
7.101059325990808
 30
0.0
 10
7.315645159202618
 20
7.102829502266389
 30
0.0
  0
ARC
  5
145
330
1F
100
AcDbEntity
  8
0
  6
Continuous
 62
     7
370
     0
100
AcDbCircle
 10
7.3471153145
 20
7.1178210137
 30
0.0
 40
0.045631505034557
100
AcDbArc
 50
235.316103491
 51
305.6998254291
  0
SPLINE
  5
146
330
1F
100
AcDbEntity
  8
0
  6
Continuous
 62
     7
370
     0
100
AcDbSpline
210
0.0
220
0.0
230
1.0
 70
     8
 71
     3
 72
     9
 73
     5
 74
     0
 42
0.00000001
 43
0.00000001
 40
0.0
 40
0.0
 40
0.0
 40
0.0
 40
0.4987092906772051
 40
1.0
 40
1.0
 40
1.0
 40
1.0
 10
7.390043230637717
 20
7.09577390184199
 30
0.0
 10
7.388117817981124
 20
7.09289219497561
 30
0.0
 10
7.384257026348428
 20
7.087113864953992
 30
0.0
 10
7.377253745136166
 20
7.082884486912456
 30
0.0
 10
7.373743065329681
 20
7.080764338994021
 30
0.0
  0
ARC
  5
147
330
1F
100
AcDbEntity
  8
0
  6
Continuous
 62
     7
370
     0
100
AcDbCircle
 10
7.3743086762
 20
7.0990126509
 30
0.0
 40
0.0160644233811284
100
AcDbArc
 50
348.3688742698
 51
68.1063003881
  0
LINE
  5
148
330
1F
100
AcDbEntity
  8
0
  6
Continuous
 62
     7
370
     0
100
AcDbLine
 10
7.2488448112
 20
7.1522078062
 30
0.0
 11
7.2610584738
 21
7.1592586035
 31
0.0
  0
ARC
  5
149
330
1F
100
AcDbEntity
  8
0
  6
Continuous
 62
     7
370
     0
100
AcDbCircle
 10
7.0881761171
 20
6.7305604754
 30
0.0
 40
0.4512215651272004
100
AcDbArc
 50
66.0218529038
 51
69.1406603116
  0
LINE
  5
14A
330
1F
100
AcDbEntity
  8
0
  6
Continuous
 62
     7
370
     0
100
AcDbLine
 10
7.2837608914
 20
7.1498926526
 30
0.0
 11
7.2715472288
 21
7.1428418553
 31
0.0
  0
ARC
  5
14B
330
1F
100
AcDbEntity
  8
0
  6
Continuous
 62
     7
370
     0
100
AcDbCircle
 10
7.1003897796
 20
6.7376112728
 30
0.0
 40
0.4512215651275025
100
AcDbArc
 50
66.0218529038
 51
69.1406603116
  0
ARC
  5
14C
330
1F
100
AcDbEntity
  8
0
  6
Continuous
 62
     7
370
     0
100
AcDbCircle
 10
7.1941890135
 20
7.1079257799
 30
0.0
 40
0.0811252210091392
100
AcDbArc
 50
86.9744183479
 51
125.4284256004
  0
SPLINE
  5
14D
330
1F
100
AcDbEntity
  8
0
  6
Continuous
 62
     7
370
     0
100
AcDbSpline
210
0.0
220
0.0
230
1.0
 70
    24
 71
     1
 72
     4
 73
     2
 74
     0
 42
0.00000001
 43
0.00000001
 40
0.0
 40
0.0
 40
1.0
 40
1.0
 10
7.135376702845531
 20
7.166278042224358
 30
0.0
 10
7.147161898983823
 20
7.174029879475777
 30
0.0
  0
SPLINE
  5
14E
330
1F
100
AcDbEntity
  8
0
  6
Continuous
 62
     7
370
     0
100
AcDbSpline
210
0.0
220
0.0
230
1.0
 70
     8
 71
     3
 72
    12
 73
     8
 74
     0
 42
0.00000001
 43
0.00000001
 40
0.0
 40
0.0
 40
0.0
 40
0.0
 40
0.2503262674180385
 40
0.4997345046006529
 40
0.6249000363599436
 40
0.7501600021982621
 40
1.0
 40
1.0
 40
1.0
 40
1.0
 10
7.139346911075344
 20
7.155092277319061
 30
0.0
 10
7.137182848936224
 20
7.155449748219611
 30
0.0
 10
7.132862660998407
 20
7.156163379055233
 30
0.0
 10
7.130073333983104
 20
7.158156597746953
 30
0.0
 10
7.130070688044883
 20
7.160349089799897
 30
0.0
 10
7.131180661511691
 20
7.162800813424818
 30
0.0
 10
7.133699199369511
 20
7.164887907348635
 30
0.0
 10
7.135376702845531
 20
7.166278042224358
 30
0.0
  0
ARC
  5
14F
330
1F
100
AcDbEntity
  8
0
  6
Continuous
 62
     7
370
     0
100
AcDbCircle
 10
7.1472820146
 20
7.2326314821
 30
0.0
 40
0.0779441732886801
100
AcDbArc
 50
264.1568823509
 51
303.9140184209
  0
SPLINE
  5
150
330
1F
100
AcDbEntity
  8
0
  6
Continuous
 62
     7
370
     0
100
AcDbSpline
210
0.0
220
0.0
230
1.0
 70
     8
 71
     3
 72
     9
 73
     5
 74
     0
 42
0.00000001
 43
0.00000001
 40
0.0
 40
0.0
 40
0.0
 40
0.0
 40
0.4987092906772051
 40
1.0
 40
1.0
 40
1.0
 40
1.0
 10
7.207243910186724
 20
7.180697322513336
 30
0.0
 10
7.205263013240645
 20
7.178531048792396
 30
0.0
 10
7.201290965831243
 20
7.174187288286153
 30
0.0
 10
7.19428356721648
 20
7.170031005203876
 30
0.0
 10
7.190770823394377
 20
7.167947499109413
 30
0.0
  0
SPLINE
  5
151
330
1F
100
AcDbEntity
  8
0
  6
Continuous
 62
     7
370
     0
100
AcDbSpline
210
0.0
220
0.0
230
1.0
 70
     8
 71
     3
 72
    11
 73
     7
 74
     0
 42
0.00000001
 43
0.00000001
 40
0.0
 40
0.0
 40
0.0
 40
0.0
 40
0.2504031889031667
 40
0.5003824607867529
 40
0.7500984159891404
 40
1.0
 40
1.0
 40
1.0
 40
1.0
 10
7.198470950560295
 20
7.18893791783888
 30
0.0
 10
7.200120800518388
 20
7.188649608266099
 30
0.0
 10
7.203417707341241
 20
7.188073477210704
 30
0.0
 10
7.207031958174794
 20
7.186401487068736
 30
0.0
 10
7.208519612105546
 20
7.183857103753457
 30
0.0
 10
7.207669249474758
 20
7.181750843781263
 30
0.0
 10
7.207243910186724
 20
7.180697322513336
 30
0.0
  0
LINE
  5
152
330
1F
100
AcDbEntity
  8
0
  6
Continuous
 62
     7
370
     0
100
AcDbLine
 10
7.0892329091
 20
7.175174264
 30
0.0
 11
7.1089882788
 21
7.1865787962
 31
0.0
  0
ARC
  5
153
330
1F
100
AcDbEntity
  8
0
  6
Continuous
 62
     7
370
     0
100
AcDbCircle
 10
7.0572154641
 20
7.225619246
 30
0.0
 40
0.0597479119897241
100
AcDbArc
 50
286.2895749815
 51
302.4033083658
  0
SPLINE
  5
154
330
1F
100
AcDbEntity
  8
0
  6
Continuous
 62
     7
370
     0
100
AcDbSpline
210
0.0
220
0.0
230
1.0
 70
     8
 71
     3
 72
    13
 73
     9
 74
     0
 42
0.00000001
 43
0.00000001
 40
0.0
 40
0.0
 40
0.0
 40
0.0
 40
0.2556326815349377
 40
0.3827690308565466
 40
0.5009930149485331
 40
0.6250249963057141
 40
0.7509663452183916
 40
1.0
 40
1.0
 40
1.0
 40
1.0
 10
7.076611532005373
 20
7.171287723355439
 30
0.0
 10
7.075764668083601
 20
7.170790225441991
 30
0.0
 10
7.074496624887177
 20
7.170045301932835
 30
0.0
 10
7.073141126116488
 20
7.169159938935948
 30
0.0
 10
7.072416038371932
 20
7.168600189313949
 30
0.0
 10
7.072141770105577
 20
7.168216927468182
 30
0.0
 10
7.072389551937509
 20
7.167963262027112
 30
0.0
 10
7.073341835498767
 20
7.16814748492193
 30
0.0
 10
7.073974279403861
 20
7.168269833612746
 30
0.0
  0
LINE
  5
155
330
1F
100
AcDbEntity
  8
0
  6
Continuous
 62
     7
370
     0
100
AcDbLine
 10
7.0992366532
 20
7.1843489278
 30
0.0
 11
7.076611532
 21
7.1712877234
 31
0.0
  0
ARC
  5
156
330
1F
100
AcDbEntity
  8
0
  6
Continuous
 62
     7
370
     0
100
AcDbCircle
 10
7.1512984355
 20
6.978410332
 30
0.0
 40
0.2124173590675812
100
AcDbArc
 50
104.1872670646
 51
107.7470013989
  0
LINE
  5
157
330
1F
100
AcDbEntity
  8
0
  6
Continuous
 62
     7
370
     0
100
AcDbLine
 10
7.0604013779
 20
7.1656235234
 30
0.0
 11
7.086550554
 21
7.1807191214
 31
0.0
  0
SPLINE
  5
158
330
1F
100
AcDbEntity
  8
0
  6
Continuous
 62
     7
370
     0
100
AcDbSpline
210
0.0
220
0.0
230
1.0
 70
     8
 71
     3
 72
    13
 73
     9
 74
     0
 42
0.00000001
 43
0.00000001
 40
0.0
 40
0.0
 40
0.0
 40
0.0
 40
0.2493827994174816
 40
0.3744361297780037
 40
0.499437836847424
 40
0.6245077693644085
 40
0.7497582852968255
 40
1.0
 40
1.0
 40
1.0
 40
1.0
 10
7.055630755992398
 20
7.159667698693352
 30
0.0
 10
7.054146208513627
 20
7.159316668093717
 30
0.0
 10
7.051917232763409
 20
7.158789612741592
 30
0.0
 10
7.051018887618444
 20
7.159081926969916
 30
0.0
 10
7.051309031789312
 20
7.159737944641822
 30
0.0
 10
7.052677206814591
 20
7.160858847237416
 30
0.0
 10
7.055524802444656
 20
7.162763787559014
 30
0.0
 10
7.058451151937682
 20
7.164479866062701
 30
0.0
 10
7.060401377948258
 20
7.165623523353829
 30
0.0
  0
ARC
  5
159
330
1F
100
AcDbEntity
  8
0
  6
Continuous
 62
     7
370
     0
100
AcDbCircle
 10
7.0218734814
 20
7.283275982
 30
0.0
 40
0.1281349339634983
100
AcDbArc
 50
285.2749304027
 51
294.7187511136
  0
LINE
  5
15A
330
1F
100
AcDbEntity
  8
0
  6
Continuous
 62
     7
370
     0
100
AcDbLine
 10
7.0687512067
 20
7.1630118895
 30
0.0
 11
7.0754549463
 21
7.166881876
 31
0.0
  0
ARC
  5
15B
330
1F
100
AcDbEntity
  8
0
  6
Continuous
 62
     7
370
     0
100
AcDbCircle
 10
7.1132692692
 20
6.9407813273
 30
0.0
 40
0.2266457161721578
100
AcDbArc
 50
98.1681603836
 51
101.3277681546
  0
LINE
  5
15C
330
1F
100
AcDbEntity
  8
0
  6
Continuous
 62
     7
370
     0
100
AcDbLine
 10
7.1222084563
 20
7.1888778534
 30
0.0
 11
7.0810676981
 21
7.1651277993
 31
0.0
  0
ARC
  5
15D
330
1F
100
AcDbEntity
  8
0
  6
Continuous
 62
     7
370
     0
100
AcDbCircle
 10
7.1543581806
 20
6.9648493123
 30
0.0
 40
0.2263236443729452
100
AcDbArc
 50
98.1666035889
 51
101.5641348382
  0
LINE
  5
15E
330
1F
100
AcDbEntity
  8
0
  6
Continuous
 62
     7
370
     0
100
AcDbLine
 10
7.5358045743
 20
6.6962537004
 30
0.0
 11
7.5516111658
 21
6.7053786515
 31
0.0
  0
ARC
  5
15F
330
1F
100
AcDbEntity
  8
0
  6
Continuous
 62
     7
370
     0
100
AcDbCircle
 10
6.6218701047
 20
6.2245618827
 30
0.0
 40
1.028479161532001
100
AcDbArc
 50
25.9757435844
 51
27.2987655073
  0
LINE
  5
160
330
1F
100
AcDbEntity
  8
0
  6
Continuous
 62
     7
370
     0
100
AcDbLine
 10
7.5622584321
 20
6.6841510379
 30
0.0
 11
7.5464518406
 21
6.6750260869
 31
0.0
  0
ARC
  5
161
330
1F
100
AcDbEntity
  8
0
  6
Continuous
 62
     7
370
     0
100
AcDbCircle
 10
6.6376766962
 20
6.2336868338
 30
0.0
 40
1.028479161529571
100
AcDbArc
 50
25.9757435844
 51
27.2987655073
  0
LINE
  5
162
330
1F
100
AcDbEntity
  8
0
  6
Continuous
 62
     7
370
     0
100
AcDbLine
 10
7.4791171018
 20
6.7928935263
 30
0.0
 11
7.4949236933
 21
6.8020184773
 31
0.0
  0
ARC
  5
163
330
1F
100
AcDbEntity
  8
0
  6
Continuous
 62
     7
370
     0
100
AcDbCircle
 10
6.6189321672
 20
6.2236262769
 30
0.0
 40
1.031495672790778
100
AcDbArc
 50
32.1760043103
 51
33.4964455116
  0
LINE
  5
164
330
1F
100
AcDbEntity
  8
0
  6
Continuous
 62
     7
370
     0
100
AcDbLine
 10
7.5078134708
 20
6.7820452021
 30
0.0
 11
7.4920068793
 21
6.772920251
 31
0.0
  0
ARC
  5
165
330
1F
100
AcDbEntity
  8
0
  6
Continuous
 62
     7
370
     0
100
AcDbCircle
 10
6.6347387587
 20
6.232751228
 30
0.0
 40
1.031495672775436
100
AcDbArc
 50
32.1760043103
 51
33.4964455116
  0
SPLINE
  5
166
330
1F
100
AcDbEntity
  8
0
  6
Continuous
 62
     7
370
     0
100
AcDbSpline
210
0.0
220
0.0
230
1.0
 70
    24
 71
     1
 72
     4
 73
     2
 74
     0
 42
0.00000001
 43
0.00000001
 40
0.0
 40
0.0
 40
1.0
 40
1.0
 10
7.40173056013615
 20
6.874913459372263
 30
0.0
 10
7.407736221761745
 20
6.872917193831582
 30
0.0
  0
ARC
  5
167
330
1F
100
AcDbEntity
  8
0
  6
Continuous
 62
     7
370
     0
100
AcDbCircle
 10
7.4097749383
 20
6.8901973104
 30
0.0
 40
0.0172715986938423
100
AcDbArc
 50
220.8075193269
 51
242.2407370919
  0
ARC
  5
168
330
1F
100
AcDbEntity
  8
0
  6
Continuous
 62
     7
370
     0
100
AcDbCircle
 10
7.4023892836
 20
6.8850227932
 30
0.0
 40
0.0083494198170671
100
AcDbArc
 50
110.7218456343
 51
227.0648177929
  0
ARC
  5
169
330
1F
100
AcDbEntity
  8
0
  6
Continuous
 62
     7
370
     0
100
AcDbCircle
 10
7.4065895921
 20
6.882422369
 30
0.0
 40
0.0126313251833866
100
AcDbArc
 50
40.7948406197
 51
124.50074165
  0
ARC
  5
16A
330
1F
100
AcDbEntity
  8
0
  6
Continuous
 62
     7
370
     0
100
AcDbCircle
 10
7.4101561369
 20
6.8847329721
 30
0.0
 40
0.0084416352390017
100
AcDbArc
 50
306.673791742
 51
44.7410983675
  0
SPLINE
  5
16B
330
1F
100
AcDbEntity
  8
0
  6
Continuous
 62
     7
370
     0
100
AcDbSpline
210
0.0
220
0.0
230
1.0
 70
    24
 71
     1
 72
     4
 73
     2
 74
     0
 42
0.00000001
 43
0.00000001
 40
0.0
 40
0.0
 40
1.0
 40
1.0
 10
7.430794709928794
 20
6.861813803140919
 30
0.0
 10
7.415197973893619
 20
6.877962367596291
 30
0.0
  0
SPLINE
  5
16C
330
1F
100
AcDbEntity
  8
0
  6
Continuous
 62
     7
370
     0
100
AcDbSpline
210
0.0
220
0.0
230
1.0
 70
     8
 71
     3
 72
    12
 73
     8
 74
     0
 42
0.00000001
 43
0.00000001
 40
0.0
 40
0.0
 40
0.0
 40
0.0
 40
0.2504240434342949
 40
0.499914545339767
 40
0.6247093935777962
 40
0.7503037755853704
 40
1.0
 40
1.0
 40
1.0
 40
1.0
 10
7.425617695315049
 20
6.896389807658007
 30
0.0
 10
7.427832829901766
 20
6.89360805736043
 30
0.0
 10
7.432254841401138
 20
6.888054926693776
 30
0.0
 10
7.435614499540226
 20
6.880079454223079
 30
0.0
 10
7.436051899160866
 20
6.873793383890171
 30
0.0
 10
7.435118906413845
 20
6.867760725586192
 30
0.0
 10
7.432522323188259
 20
6.864189731733658
 30
0.0
 10
7.430794709928794
 20
6.861813803140919
 30
0.0
  0
ARC
  5
16D
330
1F
100
AcDbEntity
  8
0
  6
Continuous
 62
     7
370
     0
100
AcDbCircle
 10
7.3977205344
 20
6.8776220688
 30
0.0
 40
0.0336226055934652
100
AcDbArc
 50
33.9305862675
 51
114.6949455135
  0
SPLINE
  5
16E
330
1F
100
AcDbEntity
  8
0
  6
Continuous
 62
     7
370
     0
100
AcDbSpline
210
0.0
220
0.0
230
1.0
 70
     8
 71
     3
 72
    13
 73
     9
 74
     0
 42
0.00000001
 43
0.00000001
 40
0.0
 40
0.0
 40
0.0
 40
0.0
 40
0.2497868956771823
 40
0.3752957420385155
 40
0.5002657264241478
 40
0.6270469575876148
 40
0.7507135917214851
 40
1.0
 40
1.0
 40
1.0
 40
1.0
 10
7.382784515612294
 20
6.878162834861977
 30
0.0
 10
7.380754405235648
 20
6.880829411673957
 30
0.0
 10
7.377704238099545
 20
6.884835846521716
 30
0.0
 10
7.375764423651971
 20
6.890655818070267
 30
0.0
 10
7.375322150513461
 20
6.894977892149824
 30
0.0
 10
7.375901427616232
 20
6.899057073879416
 30
0.0
 10
7.378019708417751
 20
6.904022575974602
 30
0.0
 10
7.381408403721061
 20
6.906508259049693
 30
0.0
 10
7.383673449410052
 20
6.908169720240356
 30
0.0
  0
SPLINE
  5
16F
330
1F
100
AcDbEntity
  8
0
  6
Continuous
 62
     7
370
     0
100
AcDbSpline
210
0.0
220
0.0
230
1.0
 70
    24
 71
     1
 72
     4
 73
     2
 74
     0
 42
0.00000001
 43
0.00000001
 40
0.0
 40
0.0
 40
1.0
 40
1.0
 10
7.394388812245982
 20
6.868789685587413
 30
0.0
 10
7.382784515612294
 20
6.878162834861977
 30
0.0
  0
SPLINE
  5
170
330
1F
100
AcDbEntity
  8
0
  6
Continuous
 62
     7
370
     0
100
AcDbSpline
210
0.0
220
0.0
230
1.0
 70
    24
 71
     1
 72
     4
 73
     2
 74
     0
 42
0.00000001
 43
0.00000001
 40
0.0
 40
0.0
 40
1.0
 40
1.0
 10
7.384667565447462
 20
6.86529652991152
 30
0.0
 10
7.394388812245982
 20
6.868789685587413
 30
0.0
  0
ARC
  5
171
330
1F
100
AcDbEntity
  8
0
  6
Continuous
 62
     7
370
     0
100
AcDbCircle
 10
6.6659442346
 20
6.2651707044
 30
0.0
 40
0.9363301942462267
100
AcDbArc
 50
39.8614983434
 51
41.9827871093
  0
LINE
  5
172
330
1F
100
AcDbEntity
  8
0
  6
Continuous
 62
     7
370
     0
100
AcDbLine
 10
7.3493688945
 20
6.8842193467
 30
0.0
 11
7.3619613643
 21
6.8914888247
 31
0.0
  0
ARC
  5
173
330
1F
100
AcDbEntity
  8
0
  6
Continuous
 62
     7
370
     0
100
AcDbCircle
 10
6.6471303733
 20
6.2524723862
 30
0.0
 40
0.9445862389471866
100
AcDbArc
 50
38.8619870688
 51
41.9751425802
  0
SPLINE
  5
174
330
1F
100
AcDbEntity
  8
0
  6
Continuous
 62
     7
370
     0
100
AcDbSpline
210
0.0
220
0.0
230
1.0
 70
    24
 71
     1
 72
     4
 73
     2
 74
     0
 42
0.00000001
 43
0.00000001
 40
0.0
 40
0.0
 40
1.0
 40
1.0
 10
7.417491152229437
 20
6.857384776560582
 30
0.0
 10
7.38264151606667
 20
6.845149804061393
 30
0.0
  0
SPLINE
  5
175
330
1F
100
AcDbEntity
  8
0
  6
Continuous
 62
     7
370
     0
100
AcDbSpline
210
0.0
220
0.0
230
1.0
 70
    24
 71
     1
 72
     4
 73
     2
 74
     0
 42
0.00000001
 43
0.00000001
 40
0.0
 40
0.0
 40
1.0
 40
1.0
 10
7.407736221761745
 20
6.872917193831582
 30
0.0
 10
7.417491152229437
 20
6.857384776560582
 30
0.0
  0
SPLINE
  5
176
330
1F
100
AcDbEntity
  8
0
  6
Continuous
 62
     7
370
     0
100
AcDbSpline
210
0.0
220
0.0
230
1.0
 70
     8
 71
     3
 72
    13
 73
     9
 74
     0
 42
0.00000001
 43
0.00000001
 40
0.0
 40
0.0
 40
0.0
 40
0.0
 40
0.2501705057672456
 40
0.3840880187047213
 40
0.4999102936424946
 40
0.614022711626667
 40
0.7498213084068664
 40
1.0
 40
1.0
 40
1.0
 40
1.0
 10
7.244318919205932
 20
7.02133332083148
 30
0.0
 10
7.243609080822708
 20
7.020886180926865
 30
0.0
 10
7.242519262431141
 20
7.02019968481286
 30
0.0
 10
7.241591275694494
 20
7.019053497295304
 30
0.0
 10
7.24135147675905
 20
7.018095752484641
 30
0.0
 10
7.241704058880462
 20
7.017115034360104
 30
0.0
 10
7.24267439829818
 20
7.015871273497899
 30
0.0
 10
7.24377086984475
 20
7.015046170056567
 30
0.0
 10
7.244481569217881
 20
7.014511363202383
 30
0.0
  0
SPLINE
  5
177
330
1F
100
AcDbEntity
  8
0
  6
Continuous
 62
     7
370
     0
100
AcDbSpline
210
0.0
220
0.0
230
1.0
 70
    24
 71
     1
 72
     4
 73
     2
 74
     0
 42
0.00000001
 43
0.00000001
 40
0.0
 40
0.0
 40
1.0
 40
1.0
 10
7.265654089117406
 20
7.011642158879456
 30
0.0
 10
7.244318919205932
 20
7.02133332083148
 30
0.0
  0
ARC
  5
178
330
1F
100
AcDbEntity
  8
0
  6
Continuous
 62
     7
370
     0
100
AcDbCircle
 10
7.2850057809
 20
7.044249819
 30
0.0
 40
0.0379176406000862
100
AcDbArc
 50
239.3121093422
 51
262.6866541848
  0
SPLINE
  5
179
330
1F
100
AcDbEntity
  8
0
  6
Continuous
 62
     7
370
     0
100
AcDbSpline
210
0.0
220
0.0
230
1.0
 70
     8
 71
     3
 72
     9
 73
     5
 74
     0
 42
0.00000001
 43
0.00000001
 40
0.0
 40
0.0
 40
0.0
 40
0.0
 40
0.500650695542923
 40
1.0
 40
1.0
 40
1.0
 40
1.0
 10
7.29060795686709
 20
7.008986797287172
 30
0.0
 10
7.289100414437239
 20
7.008236235777035
 30
0.0
 10
7.286089248282328
 20
7.006737063765855
 30
0.0
 10
7.282147393011417
 20
7.006672756845979
 30
0.0
 10
7.280179030323618
 20
7.006640645230266
 30
0.0
  0
SPLINE
  5
17A
330
1F
100
AcDbEntity
  8
0
  6
Continuous
 62
     7
370
     0
100
AcDbSpline
210
0.0
220
0.0
230
1.0
 70
     8
 71
     3
 72
    14
 73
    10
 74
     0
 42
0.00000001
 43
0.00000001
 40
0.0
 40
0.0
 40
0.0
 40
0.0
 40
0.2500047170986285
 40
0.3799563988613524
 40
0.5001514804938371
 40
0.6248780927844876
 40
0.7508658106720003
 40
0.8742378331937158
 40
1.0
 40
1.0
 40
1.0
 40
1.0
 10
7.287599783290687
 20
7.027052938002133
 30
0.0
 10
7.289292347822084
 20
7.025686517387568
 30
0.0
 10
7.291864702182648
 20
7.02360983554706
 30
0.0
 10
7.294191997224264
 20
7.02041784393786
 30
0.0
 10
7.295216527636311
 20
7.01788247134914
 30
0.0
 10
7.295372219063418
 20
7.015341299010318
 30
0.0
 10
7.294725498463183
 20
7.012878068559311
 30
0.0
 10
7.293128242405268
 20
7.010666686772013
 30
0.0
 10
7.291453408056641
 20
7.009550330482818
 30
0.0
 10
7.29060795686709
 20
7.008986797287172
 30
0.0
  0
SPLINE
  5
17B
330
1F
100
AcDbEntity
  8
0
  6
Continuous
 62
     7
370
     0
100
AcDbSpline
210
0.0
220
0.0
230
1.0
 70
    24
 71
     1
 72
     4
 73
     2
 74
     0
 42
0.00000001
 43
0.00000001
 40
0.0
 40
0.0
 40
1.0
 40
1.0
 10
7.276245052017533
 20
7.033053746176552
 30
0.0
 10
7.287599783290687
 20
7.027052938002133
 30
0.0
  0
SPLINE
  5
17C
330
1F
100
AcDbEntity
  8
0
  6
Continuous
 62
     7
370
     0
100
AcDbSpline
210
0.0
220
0.0
230
1.0
 70
    24
 71
     1
 72
     4
 73
     2
 74
     0
 42
0.00000001
 43
0.00000001
 40
0.0
 40
0.0
 40
1.0
 40
1.0
 10
7.265869603879402
 20
7.034893359344248
 30
0.0
 10
7.276245052017533
 20
7.033053746176552
 30
0.0
  0
SPLINE
  5
17D
330
1F
100
AcDbEntity
  8
0
  6
Continuous
 62
     7
370
     0
100
AcDbSpline
210
0.0
220
0.0
230
1.0
 70
     8
 71
     3
 72
     9
 73
     5
 74
     0
 42
0.00000001
 43
0.00000001
 40
0.0
 40
0.0
 40
0.0
 40
0.0
 40
0.4998463205888521
 40
1.0
 40
1.0
 40
1.0
 40
1.0
 10
7.269206874312543
 20
7.0389800384541
 30
0.0
 10
7.268852714022558
 20
7.038225055509271
 30
0.0
 10
7.268144175667076
 20
7.036714625375587
 30
0.0
 10
7.26662794981709
 20
7.035500572404659
 30
0.0
 10
7.265869603879402
 20
7.034893359344248
 30
0.0
  0
ARC
  5
17E
330
1F
100
AcDbEntity
  8
0
  6
Continuous
 62
     7
370
     0
100
AcDbCircle
 10
6.9092507111
 20
6.5170606164
 30
0.0
 40
0.6340097180663659
100
AcDbArc
 50
55.4068383552
 51
57.0106995047
  0
SPLINE
  5
17F
330
1F
100
AcDbEntity
  8
0
  6
Continuous
 62
     7
370
     0
100
AcDbSpline
210
0.0
220
0.0
230
1.0
 70
     8
 71
     3
 72
     9
 73
     5
 74
     0
 42
0.00000001
 43
0.00000001
 40
0.0
 40
0.0
 40
0.0
 40
0.0
 40
0.5000572978128508
 40
1.0
 40
1.0
 40
1.0
 40
1.0
 10
7.247669672111568
 20
7.042510210252191
 30
0.0
 10
7.249183871809064
 20
7.043404689886891
 30
0.0
 10
7.252211924202496
 20
7.04519344417287
 30
0.0
 10
7.253709265840812
 20
7.047631494857779
 30
0.0
 10
7.25445785086557
 20
7.048850380505261
 30
0.0
  0
LINE
  5
180
330
1F
100
AcDbEntity
  8
0
  6
Continuous
 62
     7
370
     0
100
AcDbLine
 10
7.2294984053
 20
7.0320201612
 30
0.0
 11
7.2476696721
 21
7.0425102103
 31
0.0
  0
ARC
  5
181
330
1F
100
AcDbEntity
  8
0
  6
Continuous
 62
     7
370
     0
100
AcDbCircle
 10
7.2335466231
 20
7.0220176619
 30
0.0
 40
0.0107906468480333
100
AcDbArc
 50
112.0341945058
 51
175.9086498691
  0
ARC
  5
182
330
1F
100
AcDbEntity
  8
0
  6
Continuous
 62
     7
370
     0
100
AcDbCircle
 10
7.2482335813
 20
7.0325527661
 30
0.0
 40
0.0272592647600426
100
AcDbArc
 50
200.9918469295
 51
246.0203837039
  0
SPLINE
  5
183
330
1F
100
AcDbEntity
  8
0
  6
Continuous
 62
     7
370
     0
100
AcDbSpline
210
0.0
220
0.0
230
1.0
 70
     8
 71
     3
 72
     9
 73
     5
 74
     0
 42
0.00000001
 43
0.00000001
 40
0.0
 40
0.0
 40
0.0
 40
0.0
 40
0.4989850375674114
 40
1.0
 40
1.0
 40
1.0
 40
1.0
 10
7.253711421753169
 20
6.998749734465154
 30
0.0
 10
7.250648605826822
 20
6.999992396847744
 30
0.0
 10
7.244510514109122
 20
7.002482776897311
 30
0.0
 10
7.239610220166022
 20
7.005922761807034
 30
0.0
 10
7.237155099580213
 20
7.007646245717347
 30
0.0
  0
ARC
  5
184
330
1F
100
AcDbEntity
  8
0
  6
Continuous
 62
     7
370
     0
100
AcDbCircle
 10
7.2615540751
 20
7.0244847945
 30
0.0
 40
0.0269035411561113
100
AcDbArc
 50
253.0516162241
 51
290.2354763539
  0
SPLINE
  5
185
330
1F
100
AcDbEntity
  8
0
  6
Continuous
 62
     7
370
     0
100
AcDbSpline
210
0.0
220
0.0
230
1.0
 70
    24
 71
     1
 72
     4
 73
     2
 74
     0
 42
0.00000001
 43
0.00000001
 40
0.0
 40
0.0
 40
1.0
 40
1.0
 10
7.257559969461668
 20
7.011414156710843
 30
0.0
 10
7.270859451155993
 20
6.999241765695432
 30
0.0
  0
SPLINE
  5
186
330
1F
100
AcDbEntity
  8
0
  6
Continuous
 62
     7
370
     0
100
AcDbSpline
210
0.0
220
0.0
230
1.0
 70
     8
 71
     3
 72
     9
 73
     5
 74
     0
 42
0.00000001
 43
0.00000001
 40
0.0
 40
0.0
 40
0.0
 40
0.0
 40
0.4984185104767914
 40
1.0
 40
1.0
 40
1.0
 40
1.0
 10
7.251486008629954
 20
7.011078640198121
 30
0.0
 10
7.252541692319839
 20
7.010974255866075
 30
0.0
 10
7.254659759100453
 20
7.010764824775832
 30
0.0
 10
7.256591196309456
 20
7.01119725680802
 30
0.0
 10
7.257559969461668
 20
7.011414156710843
 30
0.0
  0
SPLINE
  5
187
330
1F
100
AcDbEntity
  8
0
  6
Continuous
 62
     7
370
     0
100
AcDbSpline
210
0.0
220
0.0
230
1.0
 70
     8
 71
     3
 72
     9
 73
     5
 74
     0
 42
0.00000001
 43
0.00000001
 40
0.0
 40
0.0
 40
0.0
 40
0.0
 40
0.5011984280361729
 40
0.9999999999999999
 40
0.9999999999999999
 40
0.9999999999999999
 40
0.9999999999999999
 10
7.244481569217881
 20
7.014511363202383
 30
0.0
 10
7.24549965547538
 20
7.013801710035087
 30
0.0
 10
7.247530959247596
 20
7.012385797439196
 30
0.0
 10
7.250169767116722
 20
7.011513662484492
 30
0.0
 10
7.251486008629954
 20
7.011078640198121
 30
0.0
  0
ARC
  5
188
330
1F
100
AcDbEntity
  8
0
  6
Continuous
 62
     7
370
     0
100
AcDbCircle
 10
7.1658172196
 20
7.0874699378
 30
0.0
 40
0.0216226170978131
100
AcDbArc
 50
248.8127548242
 51
304.4169178219
  0
SPLINE
  5
189
330
1F
100
AcDbEntity
  8
0
  6
Continuous
 62
     7
370
     0
100
AcDbSpline
210
0.0
220
0.0
230
1.0
 70
     8
 71
     3
 72
    12
 73
     8
 74
     0
 42
0.00000001
 43
0.00000001
 40
0.0
 40
0.0
 40
0.0
 40
0.0
 40
0.2499205863329824
 40
0.377082137614706
 40
0.5003335730962826
 40
0.7497132612425832
 40
1.0
 40
1.0
 40
1.0
 40
1.0
 10
7.155870864248993
 20
7.073807542320336
 30
0.0
 10
7.155342315685859
 20
7.073227148240439
 30
0.0
 10
7.154544837475105
 20
7.072351445108024
 30
0.0
 10
7.154258107263292
 20
7.071117025814444
 30
0.0
 10
7.154439863075493
 20
7.069911913840661
 30
0.0
 10
7.155627441128202
 20
7.068545429995662
 30
0.0
 10
7.157209814798629
 20
7.067721586568121
 30
0.0
 10
7.158002437885036
 20
7.067308917087796
 30
0.0
  0
SPLINE
  5
18A
330
1F
100
AcDbEntity
  8
0
  6
Continuous
 62
     7
370
     0
100
AcDbSpline
210
0.0
220
0.0
230
1.0
 70
    24
 71
     1
 72
     4
 73
     2
 74
     0
 42
0.00000001
 43
0.00000001
 40
0.0
 40
0.0
 40
1.0
 40
1.0
 10
7.139185655736163
 20
7.078992283764519
 30
0.0
 10
7.155870864248993
 20
7.073807542320336
 30
0.0
  0
SPLINE
  5
18B
330
1F
100
AcDbEntity
  8
0
  6
Continuous
 62
     7
370
     0
100
AcDbSpline
210
0.0
220
0.0
230
1.0
 70
     8
 71
     3
 72
    12
 73
     8
 74
     0
 42
0.00000001
 43
0.00000001
 40
0.0
 40
0.0
 40
0.0
 40
0.0
 40
0.2504931653223371
 40
0.5001218721704449
 40
0.6252456824059345
 40
0.7504040889272297
 40
1.0
 40
1.0
 40
1.0
 40
1.0
 10
7.147657942258705
 20
7.060857563120875
 30
0.0
 10
7.145327200058642
 20
7.06203329495452
 30
0.0
 10
7.140673759110891
 20
7.064380701140458
 30
0.0
 10
7.136545828317647
 20
7.068010070700118
 30
0.0
 10
7.135434666860831
 20
7.071330474368966
 30
0.0
 10
7.135707174241546
 20
7.074793242495163
 30
0.0
 10
7.137795066419566
 20
7.077313636935966
 30
0.0
 10
7.139185655736163
 20
7.078992283764519
 30
0.0
  0
SPLINE
  5
18C
330
1F
100
AcDbEntity
  8
0
  6
Continuous
 62
     7
370
     0
100
AcDbSpline
210
0.0
220
0.0
230
1.0
 70
    24
 71
     1
 72
     4
 73
     2
 74
     0
 42
0.00000001
 43
0.00000001
 40
0.0
 40
0.0
 40
1.0
 40
1.0
 10
7.161328672146503
 20
7.056198993996532
 30
0.0
 10
7.147657942258705
 20
7.060857563120875
 30
0.0
  0
SPLINE
  5
18D
330
1F
100
AcDbEntity
  8
0
  6
Continuous
 62
     7
370
     0
100
AcDbSpline
210
0.0
220
0.0
230
1.0
 70
     8
 71
     3
 72
     9
 73
     5
 74
     0
 42
0.00000001
 43
0.00000001
 40
0.0
 40
0.0
 40
0.0
 40
0.0
 40
0.4972076013954494
 40
1.0
 40
1.0
 40
1.0
 40
1.0
 10
7.180531245207571
 20
7.056345786444206
 30
0.0
 10
7.17731545485402
 20
7.055895790365576
 30
0.0
 10
7.170847753345584
 20
7.054990743706257
 30
0.0
 10
7.164513491069624
 20
7.055794747167678
 30
0.0
 10
7.161328672146503
 20
7.056198993996532
 30
0.0
  0
SPLINE
  5
18E
330
1F
100
AcDbEntity
  8
0
  6
Continuous
 62
     7
370
     0
100
AcDbSpline
210
0.0
220
0.0
230
1.0
 70
     8
 71
     3
 72
     9
 73
     5
 74
     0
 42
0.00000001
 43
0.00000001
 40
0.0
 40
0.0
 40
0.0
 40
0.0
 40
0.5005315226334818
 40
1.0
 40
1.0
 40
1.0
 40
1.0
 10
7.193282952816568
 20
7.061296078210205
 30
0.0
 10
7.19140263636333
 20
7.06026745601956
 30
0.0
 10
7.187645996934619
 20
7.058212396259822
 30
0.0
 10
7.182901147786778
 20
7.056967548606276
 30
0.0
 10
7.180531245207571
 20
7.056345786444206
 30
0.0
  0
SPLINE
  5
18F
330
1F
100
AcDbEntity
  8
0
  6
Continuous
 62
     7
370
     0
100
AcDbSpline
210
0.0
220
0.0
230
1.0
 70
     8
 71
     3
 72
    14
 73
    10
 74
     0
 42
0.00000001
 43
0.00000001
 40
0.0
 40
0.0
 40
0.0
 40
0.0
 40
0.2500796953166882
 40
0.3795939076678455
 40
0.5000103126990977
 40
0.6249779831585901
 40
0.7499325412132962
 40
0.8625387534417159
 40
1.0
 40
1.0
 40
1.0
 40
1.0
 10
7.189572556991462
 20
7.086228275802173
 30
0.0
 10
7.192615799190652
 20
7.08467764643686
 30
0.0
 10
7.197235111433923
 20
7.082323958907856
 30
0.0
 10
7.201388909141632
 20
7.07820754607211
 30
0.0
 10
7.202956654860736
 20
7.074699132023616
 30
0.0
 10
7.202836429577549
 20
7.071053743025108
 30
0.0
 10
7.201344067488445
 20
7.067510811368495
 30
0.0
 10
7.197976346281977
 20
7.064197228519196
 30
0.0
 10
7.194947757790871
 20
7.062325152269562
 30
0.0
 10
7.193282952816568
 20
7.061296078210205
 30
0.0
  0
ARC
  5
190
330
1F
100
AcDbEntity
  8
0
  6
Continuous
 62
     7
370
     0
100
AcDbCircle
 10
7.1696921337
 20
7.0432057058
 30
0.0
 40
0.0473938050506658
100
AcDbArc
 50
65.1986775102
 51
112.002807406
  0
SPLINE
  5
191
330
1F
100
AcDbEntity
  8
0
  6
Continuous
 62
     7
370
     0
100
AcDbSpline
210
0.0
220
0.0
230
1.0
 70
    24
 71
     1
 72
     4
 73
     2
 74
     0
 42
0.00000001
 43
0.00000001
 40
0.0
 40
0.0
 40
1.0
 40
1.0
 10
7.165092476691814
 20
7.079798813857717
 30
0.0
 10
7.151935948757589
 20
7.087147606695913
 30
0.0
  0
ARC
  5
192
330
1F
100
AcDbEntity
  8
0
  6
Continuous
 62
     7
370
     0
100
AcDbCircle
 10
7.1723770662
 20
7.0614447119
 30
0.0
 40
0.0197468554809986
100
AcDbArc
 50
67.6315876811
 51
111.6477138041
  0
SPLINE
  5
193
330
1F
100
AcDbEntity
  8
0
  6
Continuous
 62
     7
370
     0
100
AcDbSpline
210
0.0
220
0.0
230
1.0
 70
     8
 71
     3
 72
    14
 73
    10
 74
     0
 42
0.00000001
 43
0.00000001
 40
0.0
 40
0.0
 40
0.0
 40
0.0
 40
0.2499126333276993
 40
0.3788826257059842
 40
0.5000564188326322
 40
0.624840734119352
 40
0.7500055571874071
 40
0.8749218735121094
 40
0.9999999999999999
 40
0.9999999999999999
 40
0.9999999999999999
 40
0.9999999999999999
 10
7.178038552202857
 20
7.069632432429928
 30
0.0
 10
7.179247696245907
 20
7.070390158205162
 30
0.0
 10
7.181080831545182
 20
7.071538916182955
 30
0.0
 10
7.182677505569081
 20
7.073327219807921
 30
0.0
 10
7.183358546421917
 20
7.074744819671122
 30
0.0
 10
7.183426338852501
 20
7.07616709724241
 30
0.0
 10
7.182863349447897
 20
7.077533841671984
 30
0.0
 10
7.181686420278363
 20
7.078760800303796
 30
0.0
 10
7.180490359144319
 20
7.079390620641578
 30
0.0
 10
7.179891941498997
 20
7.079705734637664
 30
0.0
  0
ARC
  5
194
330
1F
100
AcDbEntity
  8
0
  6
Continuous
 62
     7
370
     0
100
AcDbCircle
 10
7.0558535494
 20
7.161004772
 30
0.0
 40
0.0676363835628394
100
AcDbArc
 50
261.0646723844
 51
299.401101129
  0
SPLINE
  5
195
330
1F
100
AcDbEntity
  8
0
  6
Continuous
 62
     7
370
     0
100
AcDbSpline
210
0.0
220
0.0
230
1.0
 70
     8
 71
     3
 72
    13
 73
     9
 74
     0
 42
0.00000001
 43
0.00000001
 40
0.0
 40
0.0
 40
0.0
 40
0.0
 40
0.2502092620005235
 40
0.3753081960891705
 40
0.5003750810855505
 40
0.6255355602287042
 40
0.7507183164374133
 40
1.0
 40
1.0
 40
1.0
 40
1.0
 10
7.087904756947513
 20
7.119088457782905
 30
0.0
 10
7.090663022765921
 20
7.11851253433219
 30
0.0
 10
7.094800358691716
 20
7.11764866226908
 30
0.0
 10
7.09825619215575
 20
7.115348770864531
 30
0.0
 10
7.099148435959396
 20
7.113035365232105
 30
0.0
 10
7.098493475480271
 20
7.11039050096728
 30
0.0
 10
7.096051650699829
 20
7.106637427197677
 30
0.0
 10
7.091852811576294
 20
7.103901182118995
 30
0.0
 10
7.089057636455357
 20
7.102079658611262
 30
0.0
  0
ARC
  5
196
330
1F
100
AcDbEntity
  8
0
  6
Continuous
 62
     7
370
     0
100
AcDbCircle
 10
7.0782525889
 20
7.0571118119
 30
0.0
 40
0.0627237513913521
100
AcDbArc
 50
81.1479350424
 51
111.9511338779
  0
SPLINE
  5
197
330
1F
100
AcDbEntity
  8
0
  6
Continuous
 62
     7
370
     0
100
AcDbSpline
210
0.0
220
0.0
230
1.0
 70
    24
 71
     1
 72
     4
 73
     2
 74
     0
 42
0.00000001
 43
0.00000001
 40
0.0
 40
0.0
 40
1.0
 40
1.0
 10
7.067830686243749
 20
7.112690430380571
 30
0.0
 10
7.054805466795189
 20
7.115288280052192
 30
0.0
  0
SPLINE
  5
198
330
1F
100
AcDbEntity
  8
0
  6
Continuous
 62
     7
370
     0
100
AcDbSpline
210
0.0
220
0.0
230
1.0
 70
    24
 71
     1
 72
     4
 73
     2
 74
     0
 42
0.00000001
 43
0.00000001
 40
0.0
 40
0.0
 40
1.0
 40
1.0
 10
7.072998565604162
 20
7.11379974816912
 30
0.0
 10
7.067830686243749
 20
7.112690430380571
 30
0.0
  0
SPLINE
  5
199
330
1F
100
AcDbEntity
  8
0
  6
Continuous
 62
     7
370
     0
100
AcDbSpline
210
0.0
220
0.0
230
1.0
 70
     8
 71
     3
 72
     9
 73
     5
 74
     0
 42
0.00000001
 43
0.00000001
 40
0.0
 40
0.0
 40
0.0
 40
0.0
 40
0.499813390079233
 40
1.0
 40
1.0
 40
1.0
 40
1.0
 10
7.078316504643187
 20
7.113795668351957
 30
0.0
 10
7.077537379334088
 20
7.113888407523241
 30
0.0
 10
7.075978546928705
 20
7.114073955115855
 30
0.0
 10
7.073992139834523
 20
7.113891173223974
 30
0.0
 10
7.072998565604162
 20
7.11379974816912
 30
0.0
  0
SPLINE
  5
19A
330
1F
100
AcDbEntity
  8
0
  6
Continuous
 62
     7
370
     0
100
AcDbSpline
210
0.0
220
0.0
230
1.0
 70
     8
 71
     3
 72
    10
 73
     6
 74
     0
 42
0.00000001
 43
0.00000001
 40
0.0
 40
0.0
 40
0.0
 40
0.0
 40
0.2506462839715516
 40
0.5011586610055202
 40
1.0
 40
1.0
 40
1.0
 40
1.0
 10
7.081282943887202
 20
7.111248542739451
 30
0.0
 10
7.081320550743871
 20
7.111552213507997
 30
0.0
 10
7.08139574436587
 20
7.112159392809999
 30
0.0
 10
7.080718816931035
 20
7.113178504494501
 30
0.0
 10
7.079276589105572
 20
7.113549018724726
 30
0.0
 10
7.078316504643187
 20
7.113795668351957
 30
0.0
  0
SPLINE
  5
19B
330
1F
100
AcDbEntity
  8
0
  6
Continuous
 62
     7
370
     0
100
AcDbSpline
210
0.0
220
0.0
230
1.0
 70
     8
 71
     3
 72
     9
 73
     5
 74
     0
 42
0.00000001
 43
0.00000001
 40
0.0
 40
0.0
 40
0.0
 40
0.0
 40
0.5011623542816342
 40
1.0
 40
1.0
 40
1.0
 40
1.0
 10
7.077583374276788
 20
7.107618053538755
 30
0.0
 10
7.078476026533053
 20
7.108231511631656
 30
0.0
 10
7.080257190358783
 20
7.109455582210104
 30
0.0
 10
7.080941556361565
 20
7.110651816194798
 30
0.0
 10
7.081282943887202
 20
7.111248542739451
 30
0.0
  0
ARC
  5
19C
330
1F
100
AcDbEntity
  8
0
  6
Continuous
 62
     7
370
     0
100
AcDbCircle
 10
7.018251979
 20
6.8020252618
 30
0.0
 40
0.3112991629155355
100
AcDbArc
 50
79.0126156299
 51
84.5189857336
  0
LINE
  5
19D
330
1F
100
AcDbEntity
  8
0
  6
Continuous
 62
     7
370
     0
100
AcDbLine
 10
7.0461952767
 20
7.1108673714
 30
0.0
 11
7.0479860016
 21
7.1119011349
 31
0.0
  0
SPLINE
  5
19E
330
1F
100
AcDbEntity
  8
0
  6
Continuous
 62
     7
370
     0
100
AcDbSpline
210
0.0
220
0.0
230
1.0
 70
     8
 71
     3
 72
    13
 73
     9
 74
     0
 42
0.00000001
 43
0.00000001
 40
0.0
 40
0.0
 40
0.0
 40
0.0
 40
0.2500649107443448
 40
0.3783596976325292
 40
0.5001025157048022
 40
0.6229520872452152
 40
0.7501470080801868
 40
1.0
 40
1.0
 40
1.0
 40
1.0
 10
7.045348299054806
 20
7.094189204223269
 30
0.0
 10
7.042395392282762
 20
7.094764386647827
 30
0.0
 10
7.037927508683732
 20
7.095634664079362
 30
0.0
 10
7.034512997474814
 20
7.097737621139432
 30
0.0
 10
7.033695360122678
 20
7.099840187545524
 30
0.0
 10
7.034702441089665
 20
7.102353999766611
 30
0.0
 10
7.038352850641482
 20
7.106088365143576
 30
0.0
 10
7.043069657295638
 20
7.10896268596712
 30
0.0
 10
7.046195276653235
 20
7.11086737137501
 30
0.0
  0
LINE
  5
19F
330
1F
100
AcDbEntity
  8
0
  6
Continuous
 62
     7
370
     0
100
AcDbLine
 10
6.9961744619
 20
7.1013035287
 30
0.0
 11
6.9764879662
 21
7.0899387567
 31
0.0
  0
SPLINE
  5
1A0
330
1F
100
AcDbEntity
  8
0
  6
Continuous
 62
     7
370
     0
100
AcDbSpline
210
0.0
220
0.0
230
1.0
 70
     8
 71
     3
 72
    11
 73
     7
 74
     0
 42
0.00000001
 43
0.00000001
 40
0.0
 40
0.0
 40
0.0
 40
0.0
 40
0.4988199337615901
 40
0.7491888849042847
 40
0.8745696102450803
 40
0.9999999999999999
 40
0.9999999999999999
 40
0.9999999999999999
 40
0.9999999999999999
 10
7.001957523618387
 20
7.098433351269901
 30
0.0
 10
7.000134617976087
 20
7.098574199241722
 30
0.0
 10
6.9973967549658
 20
7.098785741980509
 30
0.0
 10
6.9962374620285
 20
7.099869151641851
 30
0.0
 10
6.996039120334836
 20
7.100638676879907
 30
0.0
 10
6.996129342057462
 20
7.101081882156281
 30
0.0
 10
6.99617446185141
 20
7.10130352867516
 30
0.0
  0
ARC
  5
1A1
330
1F
100
AcDbEntity
  8
0
  6
Continuous
 62
     7
370
     0
100
AcDbCircle
 10
6.9992527829
 20
7.1725805979
 30
0.0
 40
0.074196561968367
100
AcDbArc
 50
272.0891072031
 51
302.2261096897
  0
SPLINE
  5
1A2
330
1F
100
AcDbEntity
  8
0
  6
Continuous
 62
     7
370
     0
100
AcDbSpline
210
0.0
220
0.0
230
1.0
 70
     8
 71
     3
 72
    13
 73
     9
 74
     0
 42
0.00000001
 43
0.00000001
 40
0.0
 40
0.0
 40
0.0
 40
0.0
 40
0.1251722017704576
 40
0.2501710903368904
 40
0.3751630043242037
 40
0.5002554073255628
 40
0.7499099807477134
 40
1.0
 40
1.0
 40
1.0
 40
1.0
 10
7.045030274365297
 20
7.12325540154283
 30
0.0
 10
7.046141725496819
 20
7.123186137192931
 30
0.0
 10
7.048363088846636
 20
7.123047704396428
 30
0.0
 10
7.050456247533496
 20
7.122149516120746
 30
0.0
 10
7.05108107400456
 20
7.120660331260031
 30
0.0
 10
7.049908338922227
 20
7.11809234400744
 30
0.0
 10
7.04623414343801
 20
7.114379449447889
 30
0.0
 10
7.041292134777969
 20
7.111336698922218
 30
0.0
 10
7.038818977371061
 20
7.109813998029202
 30
0.0
  0
ARC
  5
1A3
330
1F
100
AcDbEntity
  8
0
  6
Continuous
 62
     7
370
     0
100
AcDbCircle
 10
7.044787869
 20
7.0868154913
 30
0.0
 40
0.0364407165422376
100
AcDbArc
 50
89.6188628974
 51
103.2522588885
  0
SPLINE
  5
1A4
330
1F
100
AcDbEntity
  8
0
  6
Continuous
 62
     7
370
     0
100
AcDbSpline
210
0.0
220
0.0
230
1.0
 70
    24
 71
     1
 72
     4
 73
     2
 74
     0
 42
0.00000001
 43
0.00000001
 40
0.0
 40
0.0
 40
1.0
 40
1.0
 10
7.026162931805731
 20
7.1191927210994
 30
0.0
 10
7.036434244057546
 20
7.122285799586952
 30
0.0
  0
LINE
  5
1A5
330
1F
100
AcDbEntity
  8
0
  6
Continuous
 62
     7
370
     0
100
AcDbLine
 10
7.0322468051
 20
7.1227048664
 30
0.0
 11
7.0261629318
 21
7.1191927211
 31
0.0
  0
ARC
  5
1A6
330
1F
100
AcDbEntity
  8
0
  6
Continuous
 62
     7
370
     0
100
AcDbCircle
 10
7.0381779309
 20
6.8724521868
 30
0.0
 40
0.2503229551474215
100
AcDbArc
 50
91.3576872411
 51
94.3286347217
  0
LINE
  5
1A7
330
1F
100
AcDbEntity
  8
0
  6
Continuous
 62
     7
370
     0
100
AcDbLine
 10
6.9624861624
 20
7.0892722467
 30
0.0
 11
7.019284285
 21
7.122061105
 31
0.0
  0
ARC
  5
1A8
330
1F
100
AcDbEntity
  8
0
  6
Continuous
 62
     7
370
     0
100
AcDbCircle
 10
6.9814080674
 20
6.8391733062
 30
0.0
 40
0.2508137128646228
100
AcDbArc
 50
91.1240179395
 51
94.326622857
  0
ARC
  5
1A9
330
1F
100
AcDbEntity
  8
0
  6
Continuous
 62
     7
370
     0
100
AcDbCircle
 10
7.6838464945
 20
5.6347810483
 30
0.0
 40
1.642952756428699
100
AcDbArc
 50
117.5268459032
 51
117.9971549383
  0
SPLINE
  5
1AA
330
1F
100
AcDbEntity
  8
0
  6
Continuous
 62
     7
370
     0
100
AcDbSpline
210
0.0
220
0.0
230
1.0
 70
     8
 71
     3
 72
     9
 73
     5
 74
     0
 42
0.00000001
 43
0.00000001
 40
0.0
 40
0.0
 40
0.0
 40
0.0
 40
0.5006506955429201
 40
1.0
 40
1.0
 40
1.0
 40
1.0
 10
6.93429306357432
 20
7.097143687365264
 30
0.0
 10
6.932806496523103
 20
7.096294362660322
 30
0.0
 10
6.929837226602077
 20
7.094597920984514
 30
0.0
 10
6.926299271396692
 20
7.092693364454171
 30
0.0
 10
6.924532595925685
 20
7.091742325475446
 30
0.0
  0
SPLINE
  5
1AB
330
1F
100
AcDbEntity
  8
0
  6
Continuous
 62
     7
370
     0
100
AcDbSpline
210
0.0
220
0.0
230
1.0
 70
     8
 71
     3
 72
    14
 73
    10
 74
     0
 42
0.00000001
 43
0.00000001
 40
0.0
 40
0.0
 40
0.0
 40
0.0
 40
0.2500047170985915
 40
0.3799563988636334
 40
0.500151480493725
 40
0.6248780927849639
 40
0.7508658106741692
 40
0.8742378331970604
 40
1.0
 40
1.0
 40
1.0
 40
1.0
 10
6.93510633576684
 20
7.098530019834713
 30
0.0
 10
6.936320797781305
 20
7.099162816519105
 30
0.0
 10
6.93816653340953
 20
7.100124538970606
 30
0.0
 10
6.939614074723075
 20
7.100757210197389
 30
0.0
 10
6.940044804868903
 20
7.100846171953473
 30
0.0
 10
6.939711576299869
 20
7.100502746889188
 30
0.0
 10
6.938683251318209
 20
7.099778622785887
 30
0.0
 10
6.936853665214933
 20
7.098637119294704
 30
0.0
 10
6.935152039142841
 20
7.097644671790289
 30
0.0
 10
6.93429306357432
 20
7.097143687365264
 30
0.0
  0
SPLINE
  5
1AC
330
1F
100
AcDbEntity
  8
0
  6
Continuous
 62
     7
370
     0
100
AcDbSpline
210
0.0
220
0.0
230
1.0
 70
     8
 71
     3
 72
     9
 73
     5
 74
     0
 42
0.00000001
 43
0.00000001
 40
0.0
 40
0.0
 40
0.0
 40
0.0
 40
0.4989850375674061
 40
1.0
 40
1.0
 40
1.0
 40
1.0
 10
6.899464516398569
 20
7.077653759315051
 30
0.0
 10
6.896996196041019
 20
7.076347257075919
 30
0.0
 10
6.892049513932906
 20
7.073728937605855
 30
0.0
 10
6.888511969861704
 20
7.071739115399382
 30
0.0
 10
6.886739607351767
 20
7.070742184701359
 30
0.0
  0
ARC
  5
1AD
330
1F
100
AcDbEntity
  8
0
  6
Continuous
 62
     7
370
     0
100
AcDbCircle
 10
6.5552114832
 20
7.7284572496
 30
0.0
 40
0.7362440721664054
100
AcDbArc
 50
297.8773260544
 51
299.2399688907
  0
SPLINE
  5
1AE
330
1F
100
AcDbEntity
  8
0
  6
Continuous
 62
     7
370
     0
100
AcDbSpline
210
0.0
220
0.0
230
1.0
 70
    24
 71
     1
 72
     4
 73
     2
 74
     0
 42
0.00000001
 43
0.00000001
 40
0.0
 40
0.0
 40
1.0
 40
1.0
 10
6.905420809947
 20
7.081431842050302
 30
0.0
 10
6.914843506793842
 20
7.086024263647685
 30
0.0
  0
SPLINE
  5
1AF
330
1F
100
AcDbEntity
  8
0
  6
Continuous
 62
     7
370
     0
100
AcDbSpline
210
0.0
220
0.0
230
1.0
 70
     8
 71
     3
 72
     9
 73
     5
 74
     0
 42
0.00000001
 43
0.00000001
 40
0.0
 40
0.0
 40
0.0
 40
0.0
 40
0.4984185104768453
 40
1.0
 40
1.0
 40
1.0
 40
1.0
 10
6.900017782986505
 20
7.078367784169678
 30
0.0
 10
6.900921566505238
 20
7.078878478120083
 30
0.0
 10
6.902734868980438
 20
7.079903106900255
 30
0.0
 10
6.904523610374298
 20
7.080921190274826
 30
0.0
 10
6.905420809947
 20
7.081431842050302
 30
0.0
  0
LINE
  5
1B0
330
1F
100
AcDbEntity
  8
0
  6
Continuous
 62
     7
370
     0
100
AcDbLine
 10
7.277189449
 20
6.8203396032
 30
0.0
 11
7.3003999995
 21
6.8337387688
 31
0.0
  0
ARC
  5
1B1
330
1F
100
AcDbEntity
  8
0
  6
Continuous
 62
     7
370
     0
100
AcDbCircle
 10
6.5783452486
 20
6.217678888
 30
0.0
 40
0.9228126320865381
100
AcDbArc
 50
40.7734251397
 51
42.6305777818
  0
LINE
  5
1B2
330
1F
100
AcDbEntity
  8
0
  6
Continuous
 62
     7
370
     0
100
AcDbLine
 10
7.245823961
 20
6.8360509517
 30
0.0
 11
7.2572914881
 21
6.8426710142
 31
0.0
  0
ARC
  5
1B3
330
1F
100
AcDbEntity
  8
0
  6
Continuous
 62
     7
370
     0
100
AcDbCircle
 10
6.5668777215
 20
6.2110588255
 30
0.0
 40
0.9228126320804201
100
AcDbArc
 50
40.7734251396
 51
42.6305777818
  0
LINE
  5
1B4
330
1F
100
AcDbEntity
  8
0
  6
Continuous
 62
     7
370
     0
100
AcDbLine
 10
7.2558040604
 20
6.8079940812
 30
0.0
 11
7.2657219218
 21
6.8137195407
 31
0.0
  0
ARC
  5
1B5
330
1F
100
AcDbEntity
  8
0
  6
Continuous
 62
     7
370
     0
100
AcDbCircle
 10
6.5591079766
 20
6.2072302194
 30
0.0
 40
0.9199470913777935
100
AcDbArc
 50
40.7713315962
 51
42.949767039
  0
LINE
  5
1B6
330
1F
100
AcDbEntity
  8
0
  6
Continuous
 62
     7
370
     0
100
AcDbLine
 10
7.2202623078
 20
6.8269983451
 30
0.0
 11
7.2324644914
 21
6.8340425158
 31
0.0
  0
ARC
  5
1B7
330
1F
100
AcDbEntity
  8
0
  6
Continuous
 62
     7
370
     0
100
AcDbCircle
 10
6.5374499645
 20
6.1916788149
 30
0.0
 40
0.9326647852584891
100
AcDbArc
 50
39.3006262992
 51
42.9365030153
  0
LINE
  5
1B8
330
1F
100
AcDbEntity
  8
0
  6
Continuous
 62
     7
370
     0
100
AcDbLine
 10
7.3159751428
 20
6.8152075979
 30
0.0
 11
7.2591770202
 21
6.7824187397
 31
0.0
  0
ARC
  5
1B9
330
1F
100
AcDbEntity
  8
0
  6
Continuous
 62
     7
370
     0
100
AcDbCircle
 10
6.5802865676
 20
6.2126844011
 30
0.0
 40
0.9509321123437228
100
AcDbArc
 50
39.3172083537
 51
40.7757865583
  0
ARC
  5
1BA
330
1F
100
AcDbEntity
  8
0
  6
Continuous
 62
     7
370
     0
100
AcDbCircle
 10
7.1955001048
 20
6.8049259017
 30
0.0
 40
0.0499484571294873
100
AcDbArc
 50
53.5098951747
 51
94.3067539278
  0
LINE
  5
1BB
330
1F
100
AcDbEntity
  8
0
  6
Continuous
 62
     7
370
     0
100
AcDbLine
 10
7.2381404905
 20
6.8525507209
 30
0.0
 11
7.2252036505
 21
6.8450824421
 31
0.0
  0
SPLINE
  5
1BC
330
1F
100
AcDbEntity
  8
0
  6
Continuous
 62
     7
370
     0
100
AcDbSpline
210
0.0
220
0.0
230
1.0
 70
    24
 71
     1
 72
     4
 73
     2
 74
     0
 42
0.00000001
 43
0.00000001
 40
0.0
 40
0.0
 40
1.0
 40
1.0
 10
7.21440325217768
 20
6.863531875505695
 30
0.0
 10
7.238140490479013
 20
6.852550720870499
 30
0.0
  0
LINE
  5
1BD
330
1F
100
AcDbEntity
  8
0
  6
Continuous
 62
     7
370
     0
100
AcDbLine
 10
7.2522495356
 20
6.8853800699
 30
0.0
 11
7.2144032522
 21
6.8635318755
 31
0.0
  0
ARC
  5
1BE
330
1F
100
AcDbEntity
  8
0
  6
Continuous
 62
     7
370
     0
100
AcDbCircle
 10
6.6608707164
 20
6.28817983
 30
0.0
 40
0.8404623931393828
100
AcDbArc
 50
45.2806209397
 51
46.7148629981
  0
LINE
  5
1BF
330
1F
100
AcDbEntity
  8
0
  6
Continuous
 62
     7
370
     0
100
AcDbLine
 10
7.1793542009
 20
6.8666494669
 30
0.0
 11
7.2371165601
 21
6.899994967
 31
0.0
  0
ARC
  5
1C0
330
1F
100
AcDbEntity
  8
0
  6
Continuous
 62
     7
370
     0
100
AcDbCircle
 10
6.6049243809
 20
6.2567334197
 30
0.0
 40
0.837834830299119
100
AcDbArc
 50
45.5403905999
 51
46.7162241039
  0
LINE
  5
1C1
330
1F
100
AcDbEntity
  8
0
  6
Continuous
 62
     7
370
     0
100
AcDbLine
 10
7.1335543906
 20
6.9250602792
 30
0.0
 11
7.1461468604
 21
6.9323297572
 31
0.0
  0
ARC
  5
1C2
330
1F
100
AcDbEntity
  8
0
  6
Continuous
 62
     7
370
     0
100
AcDbCircle
 10
6.6782673137
 20
6.3313382185
 30
0.0
 40
0.7481926274280799
100
AcDbArc
 50
48.410966791
 51
52.517733133
  0
LINE
  5
1C3
330
1F
100
AcDbEntity
  8
0
  6
Continuous
 62
     7
370
     0
100
AcDbLine
 10
7.1874973804
 20
6.8981997847
 30
0.0
 11
7.1749049106
 21
6.8909303066
 31
0.0
  0
ARC
  5
1C4
330
1F
100
AcDbEntity
  8
0
  6
Continuous
 62
     7
370
     0
100
AcDbCircle
 10
6.6908597835
 20
6.3386076966
 30
0.0
 40
0.7481926274271771
100
AcDbArc
 50
48.410966791
 51
52.517733133
  0
ARC
  5
1C5
330
1F
100
AcDbEntity
  8
0
  6
Continuous
 62
     7
370
     0
100
AcDbCircle
 10
7.0727905091
 20
6.9593825529
 30
0.0
 40
0.0512388814485471
100
AcDbArc
 50
64.6399205746
 51
127.2803115738
  0
SPLINE
  5
1C6
330
1F
100
AcDbEntity
  8
0
  6
Continuous
 62
     7
370
     0
100
AcDbSpline
210
0.0
220
0.0
230
1.0
 70
    24
 71
     1
 72
     4
 73
     2
 74
     0
 42
0.00000001
 43
0.00000001
 40
0.0
 40
0.0
 40
1.0
 40
1.0
 10
7.030096724866906
 20
6.991753068951327
 30
0.0
 10
7.041754349071847
 20
7.000152391558568
 30
0.0
  0
SPLINE
  5
1C7
330
1F
100
AcDbEntity
  8
0
  6
Continuous
 62
     7
370
     0
100
AcDbSpline
210
0.0
220
0.0
230
1.0
 70
     8
 71
     3
 72
    12
 73
     8
 74
     0
 42
0.00000001
 43
0.00000001
 40
0.0
 40
0.0
 40
0.0
 40
0.0
 40
0.2503262674180384
 40
0.4997345046006519
 40
0.6249000363599458
 40
0.7501600021982586
 40
1.0
 40
1.0
 40
1.0
 40
1.0
 10
7.035585389018485
 20
6.972008273971643
 30
0.0
 10
7.033263741500131
 20
6.973334980146029
 30
0.0
 10
7.028628960722194
 20
6.975983527019058
 30
0.0
 10
7.025427785608384
 20
6.980277926365
 30
0.0
 10
7.025159250638364
 20
6.983904533301134
 30
0.0
 10
7.026040681694608
 20
6.987559782493815
 30
0.0
 10
7.028475190191939
 20
6.990076666826377
 30
0.0
 10
7.030096724866905
 20
6.991753068951327
 30
0.0
  0
ARC
  5
1C8
330
1F
100
AcDbEntity
  8
0
  6
Continuous
 62
     7
370
     0
100
AcDbCircle
 10
7.0591246228
 20
7.0164883748
 30
0.0
 40
0.0503246947196228
100
AcDbArc
 50
242.1118401857
 51
305.4383484605
  0
SPLINE
  5
1C9
330
1F
100
AcDbEntity
  8
0
  6
Continuous
 62
     7
370
     0
100
AcDbSpline
210
0.0
220
0.0
230
1.0
 70
     8
 71
     3
 72
     9
 73
     5
 74
     0
 42
0.00000001
 43
0.00000001
 40
0.0
 40
0.0
 40
0.0
 40
0.0
 40
0.4987092906772062
 40
1.0
 40
1.0
 40
1.0
 40
1.0
 10
7.104570333754197
 20
6.98994942763873
 30
0.0
 10
7.102655495738713
 20
6.987240937299927
 30
0.0
 10
7.098815908124687
 20
6.981809936936721
 30
0.0
 10
7.091814140906552
 20
6.977598161957227
 30
0.0
 10
7.088304220051261
 20
6.975486838290249
 30
0.0
  0
SPLINE
  5
1CA
330
1F
100
AcDbEntity
  8
0
  6
Continuous
 62
     7
370
     0
100
AcDbSpline
210
0.0
220
0.0
230
1.0
 70
     8
 71
     3
 72
    11
 73
     7
 74
     0
 42
0.00000001
 43
0.00000001
 40
0.0
 40
0.0
 40
0.0
 40
0.0
 40
0.2504031889031612
 40
0.5003824607867561
 40
0.7500984159891482
 40
1.0
 40
1.0
 40
1.0
 40
1.0
 10
7.094736410685957
 20
7.005683744805544
 30
0.0
 10
7.096499818056675
 20
7.004664725488619
 30
0.0
 10
7.100023647459144
 20
7.002628411991076
 30
0.0
 10
7.103942155527595
 20
6.998829645686182
 30
0.0
 10
7.105682095244834
 20
6.994410159932835
 30
0.0
 10
7.104941012698795
 20
6.99143670665751
 30
0.0
 10
7.104570333754197
 20
6.98994942763873
 30
0.0
  0
LINE
  5
1CB
330
1F
100
AcDbEntity
  8
0
  6
Continuous
 62
     7
370
     0
100
AcDbLine
 10
6.9489200796
 20
7.0375954025
 30
0.0
 11
6.9699151819
 21
7.049715617
 31
0.0
  0
ARC
  5
1CC
330
1F
100
AcDbEntity
  8
0
  6
Continuous
 62
     7
370
     0
100
AcDbCircle
 10
6.9355788074
 20
7.05699982
 30
0.0
 40
0.0235482688002435
100
AcDbArc
 50
266.8585248167
 51
304.5099967613
  0
SPLINE
  5
1CD
330
1F
100
AcDbEntity
  8
0
  6
Continuous
 62
     7
370
     0
100
AcDbSpline
210
0.0
220
0.0
230
1.0
 70
     8
 71
     3
 72
    11
 73
     7
 74
     0
 42
0.00000001
 43
0.00000001
 40
0.0
 40
0.0
 40
0.0
 40
0.0
 40
0.24947679377563
 40
0.5035301868548662
 40
0.7522417857278207
 40
0.9999999999999999
 40
0.9999999999999999
 40
0.9999999999999999
 40
0.9999999999999999
 10
6.9333731920866
 20
7.036124408861218
 30
0.0
 10
6.933079319356882
 20
7.035821642974884
 30
0.0
 10
6.932486182864036
 20
7.03521055702572
 30
0.0
 10
6.932397141549358
 20
7.034407429296569
 30
0.0
 10
6.932962752369751
 20
7.033782337874695
 30
0.0
 10
6.933847032959674
 20
7.033585278557113
 30
0.0
 10
6.934288324200498
 20
7.033486938107528
 30
0.0
  0
SPLINE
  5
1CE
330
1F
100
AcDbEntity
  8
0
  6
Continuous
 62
     7
370
     0
100
AcDbSpline
210
0.0
220
0.0
230
1.0
 70
    24
 71
     1
 72
     4
 73
     2
 74
     0
 42
0.00000001
 43
0.00000001
 40
0.0
 40
0.0
 40
1.0
 40
1.0
 10
6.936767997516331
 20
7.038292548494275
 30
0.0
 10
6.9333731920866
 20
7.036124408861218
 30
0.0
  0
LINE
  5
1CF
330
1F
100
AcDbEntity
  8
0
  6
Continuous
 62
     7
370
     0
100
AcDbLine
 10
6.9594275557
 20
7.051373633
 30
0.0
 11
6.9367679975
 21
7.0382925485
 31
0.0
  0
ARC
  5
1D0
330
1F
100
AcDbEntity
  8
0
  6
Continuous
 62
     7
370
     0
100
AcDbCircle
 10
6.9174854023
 20
6.7540832287
 30
0.0
 40
0.3002344562269862
100
AcDbArc
 50
81.9696287312
 51
84.7898534922
  0
LINE
  5
1D1
330
1F
100
AcDbEntity
  8
0
  6
Continuous
 62
     7
370
     0
100
AcDbLine
 10
6.9235132135
 20
7.0408178411
 30
0.0
 11
6.944749375
 21
7.0530772161
 31
0.0
  0
ARC
  5
1D2
330
1F
100
AcDbEntity
  8
0
  6
Continuous
 62
     7
370
     0
100
AcDbCircle
 10
6.9089410377
 20
7.0625168041
 30
0.0
 40
0.0261379667305709
100
AcDbArc
 50
270.8643892357
 51
303.8837665986
  0
SPLINE
  5
1D3
330
1F
100
AcDbEntity
  8
0
  6
Continuous
 62
     7
370
     0
100
AcDbSpline
210
0.0
220
0.0
230
1.0
 70
     8
 71
     3
 72
    10
 73
     6
 74
     0
 42
0.00000001
 43
0.00000001
 40
0.0
 40
0.0
 40
0.0
 40
0.0
 40
0.4988594542991813
 40
0.7491987595266413
 40
1.0
 40
1.0
 40
1.0
 40
1.0
 10
6.907851017122614
 20
7.037847835489812
 30
0.0
 10
6.907750616200812
 20
7.037483199694238
 30
0.0
 10
6.907599831755573
 20
7.036935581154852
 30
0.0
 10
6.908347812725031
 20
7.036503544605179
 30
0.0
 10
6.909005969734913
 20
7.036422414365707
 30
0.0
 10
6.909335351573842
 20
7.036381811854348
 30
0.0
  0
SPLINE
  5
1D4
330
1F
100
AcDbEntity
  8
0
  6
Continuous
 62
     7
370
     0
100
AcDbSpline
210
0.0
220
0.0
230
1.0
 70
     8
 71
     3
 72
     9
 73
     5
 74
     0
 42
0.00000001
 43
0.00000001
 40
0.0
 40
0.0
 40
0.0
 40
0.0
 40
0.5015784057012929
 40
1.0
 40
1.0
 40
1.0
 40
1.0
 10
6.911011389725317
 20
7.040295414204934
 30
0.0
 10
6.910289012465606
 20
7.039869904017724
 30
0.0
 10
6.908848804411391
 20
7.039021561700007
 30
0.0
 10
6.908182912186816
 20
7.038238253307589
 30
0.0
 10
6.907851017122614
 20
7.037847835489812
 30
0.0
  0
LINE
  5
1D5
330
1F
100
AcDbEntity
  8
0
  6
Continuous
 62
     7
370
     0
100
AcDbLine
 10
6.9344515204
 20
7.0538271136
 30
0.0
 11
6.9110113897
 21
7.0402954142
 31
0.0
  0
ARC
  5
1D6
330
1F
100
AcDbEntity
  8
0
  6
Continuous
 62
     7
370
     0
100
AcDbCircle
 10
6.9196346494
 20
6.7832235339
 30
0.0
 40
0.2710089241954476
100
AcDbArc
 50
86.8659051479
 51
89.8854207012
  0
LINE
  5
1D7
330
1F
100
AcDbEntity
  8
0
  6
Continuous
 62
     7
370
     0
100
AcDbLine
 10
6.894337366
 20
7.0393152388
 30
0.0
 11
6.9201766089
 21
7.0542319162
 31
0.0
  0
SPLINE
  5
1D8
330
1F
100
AcDbEntity
  8
0
  6
Continuous
 62
     7
370
     0
100
AcDbSpline
210
0.0
220
0.0
230
1.0
 70
     8
 71
     3
 72
    13
 73
     9
 74
     0
 42
0.00000001
 43
0.00000001
 40
0.0
 40
0.0
 40
0.0
 40
0.0
 40
0.2493026324881296
 40
0.3767800005053048
 40
0.4994269650587287
 40
0.6183515801766354
 40
0.7497380290332016
 40
1.0
 40
1.0
 40
1.0
 40
1.0
 10
6.890792941169205
 20
7.029622298844425
 30
0.0
 10
6.889084954169288
 20
7.029794635512371
 30
0.0
 10
6.88650361222248
 20
7.030055094093123
 30
0.0
 10
6.885218082510971
 20
7.031278152791746
 30
0.0
 10
6.885327302434425
 20
7.032518112507923
 30
0.0
 10
6.886570007825134
 20
7.034057968115254
 30
0.0
 10
6.889364752712382
 20
7.036326449429201
 30
0.0
 10
6.892368010824722
 20
7.038131557796734
 30
0.0
 10
6.894337366009957
 20
7.039315238782696
 30
0.0
  0
ARC
  5
1D9
330
1F
100
AcDbEntity
  8
0
  6
Continuous
 62
     7
370
     0
100
AcDbCircle
 10
6.8925859087
 20
7.0852980562
 30
0.0
 40
0.0557046200415731
100
AcDbArc
 50
268.1554991201
 51
289.1520790103
  0
SPLINE
  5
1DA
330
1F
100
AcDbEntity
  8
0
  6
Continuous
 62
     7
370
     0
100
AcDbSpline
210
0.0
220
0.0
230
1.0
 70
     8
 71
     3
 72
    12
 73
     8
 74
     0
 42
0.00000001
 43
0.00000001
 40
0.0
 40
0.0
 40
0.0
 40
0.0
 40
0.2503253654036835
 40
0.4999978777420933
 40
0.749482662908263
 40
0.8746982187917918
 40
1.0
 40
1.0
 40
1.0
 40
1.0
 10
6.915511759506749
 20
7.027340999146577
 30
0.0
 10
6.914380028561862
 20
7.027522706218227
 30
0.0
 10
6.912119518246792
 20
7.027885646466212
 30
0.0
 10
6.909826707310901
 20
7.028935772141839
 30
0.0
 10
6.909538285520227
 20
7.030350496982543
 30
0.0
 10
6.910079532987431
 20
7.031641593739677
 30
0.0
 10
6.910600648056046
 20
7.03233153595857
 30
0.0
 10
6.910861295271403
 20
7.032676625803297
 30
0.0
  0
ARC
  5
1DB
330
1F
100
AcDbEntity
  8
0
  6
Continuous
 62
     7
370
     0
100
AcDbCircle
 10
6.9211766061
 20
7.0758546658
 30
0.0
 40
0.0488432834678764
100
AcDbArc
 50
263.3398437345
 51
287.4180373453
  0
LINE
  5
1DC
330
1F
100
AcDbEntity
  8
0
  6
Continuous
 62
     7
370
     0
100
AcDbLine
 10
6.9297938922
 20
7.025785277
 30
0.0
 11
6.9357974124
 21
7.0292510354
 31
0.0
  0
ARC
  5
1DD
330
1F
100
AcDbEntity
  8
0
  6
Continuous
 62
     7
370
     0
100
AcDbCircle
 10
6.8708543917
 20
6.6959743598
 30
0.0
 40
0.3350359768201897
100
AcDbArc
 50
77.4253911729
 51
79.8678041033
  0
LINE
  5
1DE
330
1F
100
AcDbEntity
  8
0
  6
Continuous
 62
     7
370
     0
100
AcDbLine
 10
6.984936078
 20
7.0467239962
 30
0.0
 11
6.9437953198
 21
7.0229739421
 31
0.0
  0
ARC
  5
1DF
330
1F
100
AcDbEntity
  8
0
  6
Continuous
 62
     7
370
     0
100
AcDbCircle
 10
6.9121434761
 20
6.7204388111
 30
0.0
 40
0.3343064236654561
100
AcDbArc
 50
77.4235464384
 51
80.0487242212
  0
LWPOLYLINE
  5
1E0
330
1F
100
AcDbEntity
  8
0
  6
Continuous
 62
     7
370
     0
100
AcDbPolyline
 90
       42
 70
   128
 43
0.0
 10
8.364164223
 20
6.5380396144
 10
8.3799529936
 20
6.5481684413
 10
8.4012117612
 20
6.5655134866
 10
8.420392669
 20
6.585892834
 10
8.4373774602
 20
6.6091808379
 10
8.4520614181
 20
6.63523392
 10
8.4643540111
 20
6.6638914545
 10
8.4741794512
 20
6.694976758
 10
8.4814771615
 20
6.7282981794
 10
8.486202149
 20
6.7636502811
 10
8.4883252827
 20
6.8008151054
 10
8.4878334727
 20
6.839563519
 10
8.4847297512
 20
6.8796566251
 10
8.4790332537
 20
6.9208472362
 10
8.470779101
 20
6.9628813985
 10
8.4600181827
 20
7.0054999575
 10
8.4468168433
 20
7.0484401556
 10
8.4312564737
 20
7.0914372521
 10
8.4134330085
 20
7.1342261558
 10
8.3934563355
 20
7.1765430586
 10
8.3714496173
 20
7.218127063
 10
8.3475485329
 20
7.2587217896
 10
8.3219004403
 20
7.2980769585
 10
8.2946634685
 20
7.335949932
 10
8.2660055425
 20
7.3721072106
 10
8.236103348
 20
7.4063258726
 10
8.2051412419
 20
7.4383949487
 10
8.1733101159
 20
7.4681167222
 10
8.1408062195
 20
7.4953079486
 10
8.10782995
 20
7.519800985
 10
8.0745846171
 20
7.5414448236
 10
8.0412751893
 20
7.5601060229
 10
8.0081070303
 20
7.5756695305
 10
7.9752846329
 20
7.5880393921
 10
7.943010358
 20
7.5971393435
 10
7.9114831873
 20
7.6029132804
 10
7.8808974963
 20
7.6053256046
 10
7.8514418559
 20
7.6043614433
 10
7.8232978699
 20
7.6000267409
 10
7.7966390555
 20
7.5923482222
 10
7.7716297729
 20
7.5813732279
 10
7.7642129834
 20
7.5772982493
  0
LINE
  5
1E1
330
1F
100
AcDbEntity
  8
0
  6
Continuous
 62
     7
370
     0
100
AcDbLine
 10
7.02584701
 20
7.0150726344
 30
0.0
 11
7.0468421123
 21
7.027192849
 31
0.0
  0
ARC
  5
1E2
330
1F
100
AcDbEntity
  8
0
  6
Continuous
 62
     7
370
     0
100
AcDbCircle
 10
7.015620172
 20
7.0293413463
 30
0.0
 40
0.0175551802703032
100
AcDbArc
 50
254.5047060154
 51
305.6303685014
  0
SPLINE
  5
1E3
330
1F
100
AcDbEntity
  8
0
  6
Continuous
 62
     7
370
     0
100
AcDbSpline
210
0.0
220
0.0
230
1.0
 70
     8
 71
     3
 72
    11
 73
     7
 74
     0
 42
0.00000001
 43
0.00000001
 40
0.0
 40
0.0
 40
0.0
 40
0.0
 40
0.2494767938061284
 40
0.5035301868816658
 40
0.7522417857678853
 40
1.0
 40
1.0
 40
1.0
 40
1.0
 10
7.009790438585141
 20
7.016159756546322
 30
0.0
 10
7.009506308265421
 20
7.015810229561611
 30
0.0
 10
7.008932835315074
 20
7.015104763593228
 30
0.0
 10
7.008898072335879
 20
7.014039025805287
 30
0.0
 10
7.00953126793195
 20
7.013083715773782
 30
0.0
 10
7.01046444905714
 20
7.012643793452133
 30
0.0
 10
7.010930143613028
 20
7.012424254688783
 30
0.0
  0
SPLINE
  5
1E4
330
1F
100
AcDbEntity
  8
0
  6
Continuous
 62
     7
370
     0
100
AcDbSpline
210
0.0
220
0.0
230
1.0
 70
    24
 71
     1
 72
     4
 73
     2
 74
     0
 42
0.00000001
 43
0.00000001
 40
0.0
 40
0.0
 40
1.0
 40
1.0
 10
7.013169945940121
 20
7.01840118494669
 30
0.0
 10
7.009790438585141
 20
7.016159756546322
 30
0.0
  0
LINE
  5
1E5
330
1F
100
AcDbEntity
  8
0
  6
Continuous
 62
     7
370
     0
100
AcDbLine
 10
7.0358295042
 20
7.0314822695
 30
0.0
 11
7.0131699459
 21
7.0184011849
 31
0.0
  0
ARC
  5
1E6
330
1F
100
AcDbEntity
  8
0
  6
Continuous
 62
     7
370
     0
100
AcDbCircle
 10
6.8908751703
 20
6.6440277694
 30
0.0
 40
0.4136819412189537
100
AcDbArc
 50
69.4881902972
 51
71.7657698601
  0
LINE
  5
1E7
330
1F
100
AcDbEntity
  8
0
  6
Continuous
 62
     7
370
     0
100
AcDbLine
 10
6.9990810825
 20
7.0246774145
 30
0.0
 11
7.0203172439
 21
7.0369367895
 31
0.0
  0
ARC
  5
1E8
330
1F
100
AcDbEntity
  8
0
  6
Continuous
 62
     7
370
     0
100
AcDbCircle
 10
6.9884269063
 20
7.0398375095
 30
0.0
 40
0.0185294347706109
100
AcDbArc
 50
257.9146722828
 51
305.0986918604
  0
SPLINE
  5
1E9
330
1F
100
AcDbEntity
  8
0
  6
Continuous
 62
     7
370
     0
100
AcDbSpline
210
0.0
220
0.0
230
1.0
 70
     8
 71
     3
 72
    10
 73
     6
 74
     0
 42
0.00000001
 43
0.00000001
 40
0.0
 40
0.0
 40
0.0
 40
0.0
 40
0.4988594542991712
 40
0.7491987595266277
 40
1.0
 40
1.0
 40
1.0
 40
1.0
 10
6.982827378935027
 20
7.024130295580036
 30
0.0
 10
6.982758770309595
 20
7.023639504308101
 30
0.0
 10
6.982655732276291
 20
7.022902422532963
 30
0.0
 10
6.983491183165746
 20
7.022119138117654
 30
0.0
 10
6.98419513311646
 20
7.021852291223794
 30
0.0
 10
6.984547432531035
 20
7.021718744791419
 30
0.0
  0
SPLINE
  5
1EA
330
1F
100
AcDbEntity
  8
0
  6
Continuous
 62
     7
370
     0
100
AcDbSpline
210
0.0
220
0.0
230
1.0
 70
     8
 71
     3
 72
     9
 73
     5
 74
     0
 42
0.00000001
 43
0.00000001
 40
0.0
 40
0.0
 40
0.0
 40
0.0
 40
0.5015784057012882
 40
0.9999999999999999
 40
0.9999999999999999
 40
0.9999999999999999
 40
0.9999999999999999
 10
6.985922393282661
 20
7.026835706843415
 30
0.0
 10
6.985200943019388
 20
7.026406611659
 30
0.0
 10
6.983762583123763
 20
7.025551121909963
 30
0.0
 10
6.983138456915028
 20
7.024602906577686
 30
0.0
 10
6.982827378935027
 20
7.024130295580036
 30
0.0
  0
LINE
  5
1EB
330
1F
100
AcDbEntity
  8
0
  6
Continuous
 62
     7
370
     0
100
AcDbLine
 10
7.0093625239
 20
7.0403674062
 30
0.0
 11
6.9859223933
 21
7.0268357068
 31
0.0
  0
ARC
  5
1EC
330
1F
100
AcDbEntity
  8
0
  6
Continuous
 62
     7
370
     0
100
AcDbCircle
 10
6.9037551594
 20
6.6851079956
 30
0.0
 40
0.3706240201026648
100
AcDbArc
 50
73.4444546178
 51
75.8951961904
  0
LINE
  5
1ED
330
1F
100
AcDbEntity
  8
0
  6
Continuous
 62
     7
370
     0
100
AcDbLine
 10
6.9682356289
 20
7.0296416121
 30
0.0
 11
6.9940748718
 21
7.0445582896
 31
0.0
  0
SPLINE
  5
1EE
330
1F
100
AcDbEntity
  8
0
  6
Continuous
 62
     7
370
     0
100
AcDbSpline
210
0.0
220
0.0
230
1.0
 70
     8
 71
     3
 72
    13
 73
     9
 74
     0
 42
0.00000001
 43
0.00000001
 40
0.0
 40
0.0
 40
0.0
 40
0.0
 40
0.2493026324883594
 40
0.3767800005183418
 40
0.4994269650587617
 40
0.6183515801745739
 40
0.7497380290329684
 40
1.0
 40
1.0
 40
1.0
 40
1.0
 10
6.965597233971821
 20
7.016579695686195
 30
0.0
 10
6.963761086555283
 20
7.017244456093132
 30
0.0
 10
6.960986051179002
 20
7.018249132313235
 30
0.0
 10
6.959465127471915
 20
7.020343024197742
 30
0.0
 10
6.959429300981833
 20
7.022112539208064
 30
0.0
 10
6.960567979645785
 20
7.024027714941779
 30
0.0
 10
6.963278493068686
 20
7.026597852259767
 30
0.0
 10
6.966272403418682
 20
7.028436160603649
 30
0.0
 10
6.968235628906243
 20
7.029641612127843
 30
0.0
  0
ARC
  5
1EF
330
1F
100
AcDbEntity
  8
0
  6
Continuous
 62
     7
370
     0
100
AcDbCircle
 10
6.9767603202
 20
7.056929647
 30
0.0
 40
0.0418656549712166
100
AcDbArc
 50
254.535535586
 51
283.4593313284
  0
SPLINE
  5
1F0
330
1F
100
AcDbEntity
  8
0
  6
Continuous
 62
     7
370
     0
100
AcDbSpline
210
0.0
220
0.0
230
1.0
 70
     8
 71
     3
 72
    12
 73
     8
 74
     0
 42
0.00000001
 43
0.00000001
 40
0.0
 40
0.0
 40
0.0
 40
0.0
 40
0.2503253654036858
 40
0.4999978777421014
 40
0.7494826629082548
 40
0.8746982187917897
 40
1.0
 40
1.0
 40
1.0
 40
1.0
 10
6.99181529669694
 20
7.007916759748963
 30
0.0
 10
6.990619483407093
 20
7.008397650350853
 30
0.0
 10
6.988230975530015
 20
7.009358177383274
 30
0.0
 10
6.985743494835068
 20
7.011283431524233
 30
0.0
 10
6.985319675541105
 20
7.013292387622525
 30
0.0
 10
6.985775059850856
 20
7.014955330154445
 30
0.0
 10
6.986261474499416
 20
7.015794224828202
 30
0.0
 10
6.986504765532993
 20
7.016213816534261
 30
0.0
  0
ARC
  5
1F1
330
1F
100
AcDbEntity
  8
0
  6
Continuous
 62
     7
370
     0
100
AcDbCircle
 10
7.0048855259
 20
7.0448575054
 30
0.0
 40
0.0391848131690021
100
AcDbArc
 50
250.5154026035
 51
281.6113000749
  0
LINE
  5
1F2
330
1F
100
AcDbEntity
  8
0
  6
Continuous
 62
     7
370
     0
100
AcDbLine
 10
7.0067687766
 20
7.0030088285
 30
0.0
 11
7.0127722969
 21
7.006474587
 31
0.0
  0
ARC
  5
1F3
330
1F
100
AcDbEntity
  8
0
  6
Continuous
 62
     7
370
     0
100
AcDbCircle
 10
6.8323223603
 20
6.5757060076
 30
0.0
 40
0.4615400881054045
100
AcDbArc
 50
65.8195218988
 51
67.792257187
  0
LINE
  5
1F4
330
1F
100
AcDbEntity
  8
0
  6
Continuous
 62
     7
370
     0
100
AcDbLine
 10
7.0625155838
 20
7.0205004992
 30
0.0
 11
7.0213748256
 21
6.996750445
 31
0.0
  0
ARC
  5
1F5
330
1F
100
AcDbEntity
  8
0
  6
Continuous
 62
     7
370
     0
100
AcDbCircle
 10
6.8738522319
 20
6.6003510525
 30
0.0
 40
0.4605642387008805
100
AcDbArc
 50
65.8180754969
 51
67.9383365805
  0
SPLINE
  5
1F6
330
1F
100
AcDbEntity
  8
0
  6
Continuous
 62
     7
370
     0
100
AcDbSpline
210
0.0
220
0.0
230
1.0
 70
    24
 71
     1
 72
     4
 73
     2
 74
     0
 42
0.00000001
 43
0.00000001
 40
0.0
 40
0.0
 40
1.0
 40
1.0
 10
7.124164946264586
 20
6.954017710259301
 30
0.0
 10
7.130574580001253
 20
6.95329487146361
 30
0.0
  0
ARC
  5
1F7
330
1F
100
AcDbEntity
  8
0
  6
Continuous
 62
     7
370
     0
100
AcDbCircle
 10
7.1283509851
 20
6.9714040502
 30
0.0
 40
0.0178831691168687
100
AcDbArc
 50
237.1106879698
 51
256.4627778654
  0
SPLINE
  5
1F8
330
1F
100
AcDbEntity
  8
0
  6
Continuous
 62
     7
370
     0
100
AcDbSpline
210
0.0
220
0.0
230
1.0
 70
     8
 71
     3
 72
    14
 73
    10
 74
     0
 42
0.00000001
 43
0.00000001
 40
0.0
 40
0.0
 40
0.0
 40
0.0
 40
0.2500538291746093
 40
0.3811582947675904
 40
0.5001174285993134
 40
0.6244839575483365
 40
0.7452085715046018
 40
0.8651112779880549
 40
1.0
 40
1.0
 40
1.0
 40
1.0
 10
7.12052484844655
 20
6.967345097669059
 30
0.0
 10
7.119377966298711
 20
6.966619634670193
 30
0.0
 10
7.117629768139887
 20
6.965513807814923
 30
0.0
 10
7.115981475989296
 20
6.96374094283513
 30
0.0
 10
7.11525145458667
 20
6.962258142838184
 30
0.0
 10
7.115173850680241
 20
6.96071989042918
 30
0.0
 10
7.115713448319616
 20
6.959184703926947
 30
0.0
 10
7.116893434169946
 20
6.957709862258731
 30
0.0
 10
7.11803549109223
 20
6.956845026012847
 30
0.0
 10
7.118640105618008
 20
6.956387174441287
 30
0.0
  0
ARC
  5
1F9
330
1F
100
AcDbEntity
  8
0
  6
Continuous
 62
     7
370
     0
100
AcDbCircle
 10
7.1298232153
 20
6.9539004675
 30
0.0
 40
0.0163467949691568
100
AcDbArc
 50
59.773760781
 51
124.6679090726
  0
ARC
  5
1FA
330
1F
100
AcDbEntity
  8
0
  6
Continuous
 62
     7
370
     0
100
AcDbCircle
 10
7.1354279691
 20
6.9631155635
 30
0.0
 40
0.0055667516826726
100
AcDbArc
 50
297.300763311
 51
61.8711388681
  0
SPLINE
  5
1FB
330
1F
100
AcDbEntity
  8
0
  6
Continuous
 62
     7
370
     0
100
AcDbSpline
210
0.0
220
0.0
230
1.0
 70
    24
 71
     1
 72
     4
 73
     2
 74
     0
 42
0.00000001
 43
0.00000001
 40
0.0
 40
0.0
 40
1.0
 40
1.0
 10
7.155556104834402
 20
6.947723609158802
 30
0.0
 10
7.137981223181346
 20
6.958168886050914
 30
0.0
  0
SPLINE
  5
1FC
330
1F
100
AcDbEntity
  8
0
  6
Continuous
 62
     7
370
     0
100
AcDbSpline
210
0.0
220
0.0
230
1.0
 70
     8
 71
     3
 72
    12
 73
     8
 74
     0
 42
0.00000001
 43
0.00000001
 40
0.0
 40
0.0
 40
0.0
 40
0.0
 40
0.2504240434344574
 40
0.4999145453400922
 40
0.624709393586549
 40
0.7503037755852082
 40
1.0
 40
1.0
 40
1.0
 40
1.0
 10
7.147500289129963
 20
6.973680044862198
 30
0.0
 10
7.150006424437651
 20
6.971857223931524
 30
0.0
 10
7.155009352573948
 20
6.968218377260506
 30
0.0
 10
7.15913101946725
 20
6.962515068814575
 30
0.0
 10
7.160085471636806
 20
6.957707820861556
 30
0.0
 10
7.159595410805446
 20
6.952906319149925
 30
0.0
 10
7.157169897958473
 20
6.949794217775155
 30
0.0
 10
7.155556104834402
 20
6.947723609158802
 30
0.0
  0
ARC
  5
1FD
330
1F
100
AcDbEntity
  8
0
  6
Continuous
 62
     7
370
     0
100
AcDbCircle
 10
7.1230076484
 20
6.9394744775
 30
0.0
 40
0.0420703017750701
100
AcDbArc
 50
54.3957258836
 51
118.0316165492
  0
SPLINE
  5
1FE
330
1F
100
AcDbEntity
  8
0
  6
Continuous
 62
     7
370
     0
100
AcDbSpline
210
0.0
220
0.0
230
1.0
 70
     8
 71
     3
 72
    13
 73
     9
 74
     0
 42
0.00000001
 43
0.00000001
 40
0.0
 40
0.0
 40
0.0
 40
0.0
 40
0.2497868956771735
 40
0.3752957420466493
 40
0.5002657264246425
 40
0.6270469575975202
 40
0.7507135917214944
 40
1.0
 40
1.0
 40
1.0
 40
1.0
 10
7.104215757735604
 20
6.953898491315986
 30
0.0
 10
7.101927528203577
 20
6.9556356838489
 30
0.0
 10
7.098489546407666
 20
6.958245752559473
 30
0.0
 10
7.096109665775659
 20
6.962349612472852
 30
0.0
 10
7.095383903160116
 20
6.965530636060502
 30
0.0
 10
7.095736928288022
 20
6.968668677989314
 30
0.0
 10
7.097633599388701
 20
6.972687490582686
 30
0.0
 10
7.100991728582223
 20
6.975038200962208
 30
0.0
 10
7.103236343506922
 20
6.976609444740351
 30
0.0
  0
SPLINE
  5
1FF
330
1F
100
AcDbEntity
  8
0
  6
Continuous
 62
     7
370
     0
100
AcDbSpline
210
0.0
220
0.0
230
1.0
 70
    24
 71
     1
 72
     4
 73
     2
 74
     0
 42
0.00000001
 43
0.00000001
 40
0.0
 40
0.0
 40
1.0
 40
1.0
 10
7.116961514883822
 20
6.948334904979677
 30
0.0
 10
7.104215757735604
 20
6.953898491315986
 30
0.0
  0
SPLINE
  5
200
330
1F
100
AcDbEntity
  8
0
  6
Continuous
 62
     7
370
     0
100
AcDbSpline
210
0.0
220
0.0
230
1.0
 70
    24
 71
     1
 72
     4
 73
     2
 74
     0
 42
0.00000001
 43
0.00000001
 40
0.0
 40
0.0
 40
1.0
 40
1.0
 10
7.107084915829574
 20
6.944346101723164
 30
0.0
 10
7.116961514883822
 20
6.948334904979677
 30
0.0
  0
ARC
  5
201
330
1F
100
AcDbEntity
  8
0
  6
Continuous
 62
     7
370
     0
100
AcDbCircle
 10
6.7514509294
 20
6.4306282298
 30
0.0
 40
0.6248052370771168
100
AcDbArc
 50
55.3061167503
 51
58.0841321121
  0
LINE
  5
202
330
1F
100
AcDbEntity
  8
0
  6
Continuous
 62
     7
370
     0
100
AcDbLine
 10
7.0691763902
 20
6.9537092481
 30
0.0
 11
7.08176886
 21
6.9609787261
 31
0.0
  0
ARC
  5
203
330
1F
100
AcDbEntity
  8
0
  6
Continuous
 62
     7
370
     0
100
AcDbCircle
 10
6.732154018
 20
6.4130591057
 30
0.0
 40
0.6370923448206579
100
AcDbArc
 50
54.0139232535
 51
58.0620309768
  0
SPLINE
  5
204
330
1F
100
AcDbEntity
  8
0
  6
Continuous
 62
     7
370
     0
100
AcDbSpline
210
0.0
220
0.0
230
1.0
 70
    24
 71
     1
 72
     4
 73
     2
 74
     0
 42
0.00000001
 43
0.00000001
 40
0.0
 40
0.0
 40
1.0
 40
1.0
 10
7.141985502653613
 20
6.942572754629412
 30
0.0
 10
7.10650224148266
 20
6.928568623926198
 30
0.0
  0
SPLINE
  5
205
330
1F
100
AcDbEntity
  8
0
  6
Continuous
 62
     7
370
     0
100
AcDbSpline
210
0.0
220
0.0
230
1.0
 70
    24
 71
     1
 72
     4
 73
     2
 74
     0
 42
0.00000001
 43
0.00000001
 40
0.0
 40
0.0
 40
1.0
 40
1.0
 10
7.130574580001253
 20
6.95329487146361
 30
0.0
 10
7.141985502653613
 20
6.942572754629412
 30
0.0
  0
LINE
  5
206
330
1F
100
AcDbEntity
  8
0
  6
Continuous
 62
     7
370
     0
100
AcDbLine
 10
7.1526210199
 20
6.93606721
 30
0.0
 11
7.1651675737
 21
6.9433101813
 31
0.0
  0
ARC
  5
207
330
1F
100
AcDbEntity
  8
0
  6
Continuous
 62
     7
370
     0
100
AcDbCircle
 10
6.697333943
 20
6.3423451493
 30
0.0
 40
0.748192627428178
100
AcDbArc
 50
48.410966791
 51
52.517733133
  0
LINE
  5
208
330
1F
100
AcDbEntity
  8
0
  6
Continuous
 62
     7
370
     0
100
AcDbLine
 10
7.2065180937
 20
6.9091802087
 30
0.0
 11
7.1939715399
 21
6.9019372374
 31
0.0
  0
ARC
  5
209
330
1F
100
AcDbEntity
  8
0
  6
Continuous
 62
     7
370
     0
100
AcDbCircle
 10
6.7098804967
 20
6.3495881206
 30
0.0
 40
0.7481926274278848
100
AcDbArc
 50
48.410966791
 51
52.517733133
  0
LINE
  5
20A
330
1F
100
AcDbEntity
  8
0
  6
Continuous
 62
     7
370
     0
100
AcDbLine
 10
6.9525205005
 20
7.1017669575
 30
0.0
 11
6.9735959559
 21
7.1139335589
 31
0.0
  0
ARC
  5
20B
330
1F
100
AcDbEntity
  8
0
  6
Continuous
 62
     7
370
     0
100
AcDbCircle
 10
7.0108625259
 20
6.8997493127
 30
0.0
 40
0.2102734427385991
100
AcDbArc
 50
106.1085419527
 51
108.2821882194
  0
ARC
  5
20C
330
1F
100
AcDbEntity
  8
0
  6
Continuous
 62
     7
370
     0
100
AcDbCircle
 10
7.0152503609
 20
6.9099989014
 30
0.0
 40
0.2020525559996563
100
AcDbArc
 50
110.3758500858
 51
121.2397041542
  0
SPLINE
  5
20D
330
1F
100
AcDbEntity
  8
0
  6
Continuous
 62
     7
370
     0
100
AcDbSpline
210
0.0
220
0.0
230
1.0
 70
     8
 71
     3
 72
    13
 73
     9
 74
     0
 42
0.00000001
 43
0.00000001
 40
0.0
 40
0.0
 40
0.0
 40
0.0
 40
0.2501206955156189
 40
0.3808254451890052
 40
0.5003377339300877
 40
0.6236969560619449
 40
0.7504281227973353
 40
1.0
 40
1.0
 40
1.0
 40
1.0
 10
6.907655236593917
 20
7.078276966602004
 30
0.0
 10
6.905854557497136
 20
7.077677954639062
 30
0.0
 10
6.903112903443838
 20
7.076765918963683
 30
0.0
 10
6.901216002515361
 20
7.076369941637652
 30
0.0
 10
6.900883250873998
 20
7.076606536033906
 30
0.0
 10
6.901811890008787
 20
7.077449993174257
 30
0.0
 10
6.904576555190185
 20
7.079311399526831
 30
0.0
 10
6.908115102858336
 20
7.081381758493127
 30
0.0
 10
6.910461940063981
 20
7.082754862915282
 30
0.0
  0
ARC
  5
20E
330
1F
100
AcDbEntity
  8
0
  6
Continuous
 62
     7
370
     0
100
AcDbCircle
 10
6.9760943506
 20
6.8760431209
 30
0.0
 40
0.2135004465865625
100
AcDbArc
 50
102.1635701929
 51
108.696627772
  0
LINE
  5
20F
330
1F
100
AcDbEntity
  8
0
  6
Continuous
 62
     7
370
     0
100
AcDbLine
 10
6.987907226
 20
7.1175393538
 30
0.0
 11
6.9311091034
 21
7.0847504955
 31
0.0
  0
ARC
  5
210
330
1F
100
AcDbEntity
  8
0
  6
Continuous
 62
     7
370
     0
100
AcDbCircle
 10
7.033489426
 20
6.9064218853
 30
0.0
 40
0.215982227139162
100
AcDbArc
 50
102.1836615848
 51
106.0995675248
  0
LINE
  5
211
330
1F
100
AcDbEntity
  8
0
  6
Continuous
 62
     7
370
     0
100
AcDbLine
 10
7.1239075106
 20
7.0925312979
 30
0.0
 11
7.1436628803
 21
7.1039358301
 31
0.0
  0
ARC
  5
212
330
1F
100
AcDbEntity
  8
0
  6
Continuous
 62
     7
370
     0
100
AcDbCircle
 10
7.1116811936
 20
7.1089361541
 30
0.0
 40
0.0204597686815599
100
AcDbArc
 50
258.6487421104
 51
306.6966637593
  0
SPLINE
  5
213
330
1F
100
AcDbEntity
  8
0
  6
Continuous
 62
     7
370
     0
100
AcDbSpline
210
0.0
220
0.0
230
1.0
 70
     8
 71
     3
 72
    13
 73
     9
 74
     0
 42
0.00000001
 43
0.00000001
 40
0.0
 40
0.0
 40
0.0
 40
0.0
 40
0.2556326815366323
 40
0.3827690308494859
 40
0.5009930149483354
 40
0.6250249962929298
 40
0.7509663452183617
 40
1.0
 40
1.0
 40
1.0
 40
1.0
 10
7.109418515834149
 20
7.094658748705441
 30
0.0
 10
7.108576971087198
 20
7.094144656793627
 30
0.0
 10
7.107316892503857
 20
7.093374886427529
 30
0.0
 10
7.106024374745852
 20
7.09229261426024
 30
0.0
 10
7.105385111158141
 20
7.091464030849452
 30
0.0
 10
7.105245666361411
 20
7.090656865565955
 30
0.0
 10
7.105727441275882
 20
7.089664328574465
 30
0.0
 10
7.10688527605376
 20
7.089190971865087
 30
0.0
 10
7.107654233513639
 20
7.088876599573103
 30
0.0
  0
LINE
  5
214
330
1F
100
AcDbEntity
  8
0
  6
Continuous
 62
     7
370
     0
100
AcDbLine
 10
7.132043637
 20
7.1077199532
 30
0.0
 11
7.1094185158
 21
7.0946587487
 31
0.0
  0
ARC
  5
215
330
1F
100
AcDbEntity
  8
0
  6
Continuous
 62
     7
370
     0
100
AcDbCircle
 10
7.0208353899
 20
6.7477296402
 30
0.0
 40
0.3767761930176064
100
AcDbArc
 50
72.8330294775
 51
75.262299525
  0
LINE
  5
216
330
1F
100
AcDbEntity
  8
0
  6
Continuous
 62
     7
370
     0
100
AcDbLine
 10
7.0905359483
 20
7.0970145137
 30
0.0
 11
7.1166851244
 21
7.1121101118
 31
0.0
  0
SPLINE
  5
217
330
1F
100
AcDbEntity
  8
0
  6
Continuous
 62
     7
370
     0
100
AcDbSpline
210
0.0
220
0.0
230
1.0
 70
     8
 71
     3
 72
    13
 73
     9
 74
     0
 42
0.00000001
 43
0.00000001
 40
0.0
 40
0.0
 40
0.0
 40
0.0
 40
0.2492945499288146
 40
0.3757665645010237
 40
0.4994575090412202
 40
0.6241755381055989
 40
0.7497536491744142
 40
0.9999999999999999
 40
0.9999999999999999
 40
0.9999999999999999
 40
0.9999999999999999
 10
7.088017576283547
 20
7.084031107180545
 30
0.0
 10
7.086219158678238
 20
7.084708528402681
 30
0.0
 10
7.083508368549541
 20
7.085729618697014
 30
0.0
 10
7.082033853534345
 20
7.087830957318488
 30
0.0
 10
7.082010838802943
 20
7.089620549976012
 30
0.0
 10
7.083107036174175
 20
7.091519941434377
 30
0.0
 10
7.085719037325462
 20
7.094054714312102
 30
0.0
 10
7.088610583996228
 20
7.095831454249131
 30
0.0
 10
7.090535948297833
 20
7.097014513710898
 30
0.0
  0
ARC
  5
218
330
1F
100
AcDbEntity
  8
0
  6
Continuous
 62
     7
370
     0
100
AcDbCircle
 10
7.0995783296
 20
7.124816816
 30
0.0
 40
0.0423925118220614
100
AcDbArc
 50
254.1745609859
 51
281.1704812432
  0
LINE
  5
219
330
1F
100
AcDbEntity
  8
0
  6
Continuous
 62
     7
370
     0
100
AcDbLine
 10
7.0868647577
 20
7.0711469718
 30
0.0
 11
7.1077909859
 21
7.0832274263
 31
0.0
  0
ARC
  5
21A
330
1F
100
AcDbEntity
  8
0
  6
Continuous
 62
     7
370
     0
100
AcDbCircle
 10
6.9501564569
 20
6.6723621708
 30
0.0
 40
0.4215666934843693
100
AcDbArc
 50
68.8334695706
 51
71.0776590468
  0
LINE
  5
21B
330
1F
100
AcDbEntity
  8
0
  6
Continuous
 62
     7
370
     0
100
AcDbLine
 10
7.1591738338
 20
7.0982766777
 30
0.0
 11
7.1023757111
 21
7.0654878195
 31
0.0
  0
ARC
  5
21C
330
1F
100
AcDbEntity
  8
0
  6
Continuous
 62
     7
370
     0
100
AcDbCircle
 10
7.0069545795
 20
6.705151029
 30
0.0
 40
0.4215666934798096
100
AcDbArc
 50
68.8334695706
 51
71.0776590468
  0
ARC
  5
21D
330
1F
100
AcDbEntity
  8
0
  6
Continuous
 62
     7
370
     0
100
AcDbCircle
 10
6.8849295323
 20
6.5193040214
 30
0.0
 40
0.6030486411211384
100
AcDbArc
 50
57.5538478718
 51
58.2048183691
  0
LINE
  5
21E
330
1F
100
AcDbEntity
  8
0
  6
Continuous
 62
     7
370
     0
100
AcDbLine
 10
7.2199711526
 20
7.0348543239
 30
0.0
 11
7.2084691884
 21
7.0282143813
 31
0.0
  0
ARC
  5
21F
330
1F
100
AcDbEntity
  8
0
  6
Continuous
 62
     7
370
     0
100
AcDbCircle
 10
6.8964314965
 20
6.525943964
 30
0.0
 40
0.6030486410955459
100
AcDbArc
 50
57.5538478718
 51
58.2048183691
  0
LINE
  5
220
330
1F
100
AcDbEntity
  8
0
  6
Continuous
 62
     7
370
     0
100
AcDbLine
 10
7.2286548759
 20
7.0468602017
 30
0.0
 11
7.2141683701
 21
7.0384973199
 31
0.0
  0
SPLINE
  5
221
330
1F
100
AcDbEntity
  8
0
  6
Continuous
 62
     7
370
     0
100
AcDbSpline
210
0.0
220
0.0
230
1.0
 70
     8
 71
     3
 72
    13
 73
     9
 74
     0
 42
0.00000001
 43
0.00000001
 40
0.0
 40
0.0
 40
0.0
 40
0.0
 40
0.2500979381482955
 40
0.3777541129313768
 40
0.4995112558106795
 40
0.6243482411510922
 40
0.7495213959044675
 40
0.9999999999999999
 40
0.9999999999999999
 40
0.9999999999999999
 40
0.9999999999999999
 10
7.23059836892688
 20
7.064636142723532
 30
0.0
 10
7.232665382054281
 20
7.063363934216286
 30
0.0
 10
7.235787449817575
 20
7.061442359013881
 30
0.0
 10
7.238261424890788
 20
7.058145670498474
 30
0.0
 10
7.238446597465638
 20
7.05543968601499
 30
0.0
 10
7.237108930023835
 20
7.052903452512163
 30
0.0
 10
7.233827713019314
 20
7.049970495067291
 30
0.0
 10
7.23072422935921
 20
7.048104450485888
 30
0.0
 10
7.228654875930923
 20
7.046860201707813
 30
0.0
  0
SPLINE
  5
222
330
1F
100
AcDbEntity
  8
0
  6
Continuous
 62
     7
370
     0
100
AcDbSpline
210
0.0
220
0.0
230
1.0
 70
    24
 71
     1
 72
     4
 73
     2
 74
     0
 42
0.00000001
 43
0.00000001
 40
0.0
 40
0.0
 40
1.0
 40
1.0
 10
7.218396964211955
 20
7.070090863214626
 30
0.0
 10
7.23059836892688
 20
7.064636142723532
 30
0.0
  0
SPLINE
  5
223
330
1F
100
AcDbEntity
  8
0
  6
Continuous
 62
     7
370
     0
100
AcDbSpline
210
0.0
220
0.0
230
1.0
 70
    24
 71
     1
 72
     4
 73
     2
 74
     0
 42
0.00000001
 43
0.00000001
 40
0.0
 40
0.0
 40
1.0
 40
1.0
 10
7.20866251451792
 20
7.063160902428395
 30
0.0
 10
7.218396964211955
 20
7.070090863214626
 30
0.0
  0
SPLINE
  5
224
330
1F
100
AcDbEntity
  8
0
  6
Continuous
 62
     7
370
     0
100
AcDbSpline
210
0.0
220
0.0
230
1.0
 70
    24
 71
     1
 72
     4
 73
     2
 74
     0
 42
0.00000001
 43
0.00000001
 40
0.0
 40
0.0
 40
1.0
 40
1.0
 10
7.214562236095034
 20
7.060998859973331
 30
0.0
 10
7.20866251451792
 20
7.063160902428395
 30
0.0
  0
ARC
  5
225
330
1F
100
AcDbEntity
  8
0
  6
Continuous
 62
     7
370
     0
100
AcDbCircle
 10
7.2140368993
 20
7.0591102484
 30
0.0
 40
0.0019603143986579
100
AcDbArc
 50
347.5560366431
 51
74.4555424123
  0
SPLINE
  5
226
330
1F
100
AcDbEntity
  8
0
  6
Continuous
 62
     7
370
     0
100
AcDbSpline
210
0.0
220
0.0
230
1.0
 70
     8
 71
     3
 72
     9
 73
     5
 74
     0
 42
0.00000001
 43
0.00000001
 40
0.0
 40
0.0
 40
0.0
 40
0.0
 40
0.5014428105295798
 40
1.0
 40
1.0
 40
1.0
 40
1.0
 10
7.212966618556181
 20
7.056382315101357
 30
0.0
 10
7.213566414596043
 20
7.056724290495545
 30
0.0
 10
7.214762555067634
 20
7.057406273339861
 30
0.0
 10
7.215555721573804
 20
7.058261467486616
 30
0.0
 10
7.215951160437903
 20
7.058687830676874
 30
0.0
  0
LINE
  5
227
330
1F
100
AcDbEntity
  8
0
  6
Continuous
 62
     7
370
     0
100
AcDbLine
 10
7.1983653227
 20
7.0479531664
 30
0.0
 11
7.2129666186
 21
7.0563823151
 31
0.0
  0
ARC
  5
228
330
1F
100
AcDbEntity
  8
0
  6
Continuous
 62
     7
370
     0
100
AcDbCircle
 10
6.9202157237
 20
6.5658109904
 30
0.0
 40
0.5566222033949588
100
AcDbArc
 50
60.0191941691
 51
61.0451468152
  0
LINE
  5
229
330
1F
100
AcDbEntity
  8
0
  6
Continuous
 62
     7
370
     0
100
AcDbLine
 10
7.1781858698
 20
7.0462162809
 30
0.0
 11
7.189687834
 21
7.0528562235
 31
0.0
  0
ARC
  5
22A
330
1F
100
AcDbEntity
  8
0
  6
Continuous
 62
     7
370
     0
100
AcDbCircle
 10
6.9087137595
 20
6.5591710478
 30
0.0
 40
0.5566222034152417
100
AcDbArc
 50
60.0191941692
 51
61.0451468152
  0
LINE
  5
22B
330
1F
100
AcDbEntity
  8
0
  6
Continuous
 62
     7
370
     0
100
AcDbLine
 10
7.171205994
 20
7.0322744197
 30
0.0
 11
7.1868633585
 21
7.0413132238
 31
0.0
  0
SPLINE
  5
22C
330
1F
100
AcDbEntity
  8
0
  6
Continuous
 62
     7
370
     0
100
AcDbSpline
210
0.0
220
0.0
230
1.0
 70
    24
 71
     1
 72
     4
 73
     2
 74
     0
 42
0.00000001
 43
0.00000001
 40
0.0
 40
0.0
 40
1.0
 40
1.0
 10
7.195113219849314
 20
7.027497015808901
 30
0.0
 10
7.171205994043897
 20
7.032274419721397
 30
0.0
  0
LINE
  5
22D
330
1F
100
AcDbEntity
  8
0
  6
Continuous
 62
     7
370
     0
100
AcDbLine
 10
7.2026664059
 20
7.0318573773
 30
0.0
 11
7.1951132198
 21
7.0274970158
 31
0.0
  0
LINE
  5
22E
330
1F
100
AcDbEntity
  8
0
  6
Continuous
 62
     7
370
     0
100
AcDbLine
 10
7.3142188702
 20
6.9419583178
 30
0.0
 11
7.3575291605
 21
6.9669608162
 31
0.0
  0
SPLINE
  5
22F
330
1F
100
AcDbEntity
  8
0
  6
Continuous
 62
     7
370
     0
100
AcDbSpline
210
0.0
220
0.0
230
1.0
 70
    24
 71
     1
 72
     4
 73
     2
 74
     0
 42
0.00000001
 43
0.00000001
 40
0.0
 40
0.0
 40
1.0
 40
1.0
 10
7.346936505428986
 20
6.976816608682736
 30
0.0
 10
7.314218870175679
 20
6.941958317811794
 30
0.0
  0
ARC
  5
230
330
1F
100
AcDbEntity
  8
0
  6
Continuous
 62
     7
370
     0
100
AcDbCircle
 10
6.8099520063
 20
6.3893810748
 30
0.0
 40
0.7958849532403568
100
AcDbArc
 50
47.5690523379
 51
48.7772959675
  0
SPLINE
  5
231
330
1F
100
AcDbEntity
  8
0
  6
Continuous
 62
     7
370
     0
100
AcDbSpline
210
0.0
220
0.0
230
1.0
 70
    24
 71
     1
 72
     4
 73
     2
 74
     0
 42
0.00000001
 43
0.00000001
 40
0.0
 40
0.0
 40
1.0
 40
1.0
 10
7.280316096306638
 20
6.972297191980724
 30
0.0
 10
7.334430290003687
 20
6.98800899654776
 30
0.0
  0
LINE
  5
232
330
1F
100
AcDbEntity
  8
0
  6
Continuous
 62
     7
370
     0
100
AcDbLine
 10
7.3236263867
 20
6.9972996904
 30
0.0
 11
7.2803160963
 21
6.972297192
 31
0.0
  0
ARC
  5
233
330
1F
100
AcDbEntity
  8
0
  6
Continuous
 62
     7
370
     0
100
AcDbCircle
 10
6.8417154891
 20
6.4263671014
 30
0.0
 40
0.7471292621476094
100
AcDbArc
 50
49.8330677509
 51
51.2260368901
  0
LINE
  5
234
330
1F
100
AcDbEntity
  8
0
  6
Continuous
 62
     7
370
     0
100
AcDbLine
 10
7.2528067625
 20
6.9760571247
 30
0.0
 11
7.3096048851
 21
7.008845983
 31
0.0
  0
ARC
  5
235
330
1F
100
AcDbEntity
  8
0
  6
Continuous
 62
     7
370
     0
100
AcDbCircle
 10
6.7794541025
 20
6.3869220776
 30
0.0
 40
0.7557399317138717
100
AcDbArc
 50
49.0000791751
 51
51.2191481697
  0
SPLINE
  5
236
330
1F
100
AcDbEntity
  8
0
  6
Continuous
 62
     7
370
     0
100
AcDbSpline
210
0.0
220
0.0
230
1.0
 70
    24
 71
     1
 72
     4
 73
     2
 74
     0
 42
0.00000001
 43
0.00000001
 40
0.0
 40
0.0
 40
1.0
 40
1.0
 10
7.318406370263387
 20
6.969674030453777
 30
0.0
 10
7.27526332012408
 20
6.957286929403959
 30
0.0
  0
SPLINE
  5
237
330
1F
100
AcDbEntity
  8
0
  6
Continuous
 62
     7
370
     0
100
AcDbSpline
210
0.0
220
0.0
230
1.0
 70
    24
 71
     1
 72
     4
 73
     2
 74
     0
 42
0.00000001
 43
0.00000001
 40
0.0
 40
0.0
 40
1.0
 40
1.0
 10
7.292406655484511
 20
6.941946585929861
 30
0.0
 10
7.318406370263387
 20
6.969674030453777
 30
0.0
  0
ARC
  5
238
330
1F
100
AcDbEntity
  8
0
  6
Continuous
 62
     7
370
     0
100
AcDbCircle
 10
6.7271689954
 20
6.3284252091
 30
0.0
 40
0.834207463549675
100
AcDbArc
 50
45.2607296959
 51
47.345608759
  0
LINE
  5
239
330
1F
100
AcDbEntity
  8
0
  6
Continuous
 62
     7
370
     0
100
AcDbLine
 10
7.3711504996
 20
6.9537659795
 30
0.0
 11
7.314352377
 21
6.9209771213
 31
0.0
  0
ARC
  5
23A
330
1F
100
AcDbEntity
  8
0
  6
Continuous
 62
     7
370
     0
100
AcDbCircle
 10
6.7783812071
 20
6.3554645835
 30
0.0
 40
0.8422232450900613
100
AcDbArc
 50
45.2661167852
 51
46.5562701876
  0
SPLINE
  5
23B
330
1F
100
AcDbEntity
  8
0
  6
Continuous
 62
     7
370
     0
100
AcDbSpline
210
0.0
220
0.0
230
1.0
 70
    24
 71
     1
 72
     4
 73
     2
 74
     0
 42
0.00000001
 43
0.00000001
 40
0.0
 40
0.0
 40
1.0
 40
1.0
 10
7.441980435675324
 20
6.835555230284283
 30
0.0
 10
7.458423491363389
 20
6.82876728969332
 30
0.0
  0
ARC
  5
23C
330
1F
100
AcDbEntity
  8
0
  6
Continuous
 62
     7
370
     0
100
AcDbCircle
 10
7.4223463582
 20
6.8084660832
 30
0.0
 40
0.0334562235063826
100
AcDbArc
 50
54.0655889674
 51
112.0130837096
  0
SPLINE
  5
23D
330
1F
100
AcDbEntity
  8
0
  6
Continuous
 62
     7
370
     0
100
AcDbSpline
210
0.0
220
0.0
230
1.0
 70
     8
 71
     3
 72
    13
 73
     9
 74
     0
 42
0.00000001
 43
0.00000001
 40
0.0
 40
0.0
 40
0.0
 40
0.0
 40
0.2505394783770843
 40
0.4996876272643622
 40
0.6251017812251782
 40
0.749874300253187
 40
0.8749192415306383
 40
1.0
 40
1.0
 40
1.0
 40
1.0
 10
7.412417800135279
 20
6.804386133863598
 30
0.0
 10
7.410283097291773
 20
6.807430741907861
 30
0.0
 10
7.406025546323379
 20
6.813503050269969
 30
0.0
 10
7.402547836352151
 20
6.821948497179252
 30
0.0
 10
7.40234771174366
 20
6.828536942993988
 30
0.0
 10
7.403600746738525
 20
6.83302184409424
 30
0.0
 10
7.406022576957055
 20
6.836888913509589
 30
0.0
 10
7.408544973927366
 20
6.838618415746778
 30
0.0
 10
7.409806353012069
 20
6.839483290694937
 30
0.0
  0
ARC
  5
23E
330
1F
100
AcDbEntity
  8
0
  6
Continuous
 62
     7
370
     0
100
AcDbCircle
 10
7.4394830901
 20
6.8167473636
 30
0.0
 40
0.0297544940867942
100
AcDbArc
 50
204.5470764562
 51
288.6168207037
  0
SPLINE
  5
23F
330
1F
100
AcDbEntity
  8
0
  6
Continuous
 62
     7
370
     0
100
AcDbSpline
210
0.0
220
0.0
230
1.0
 70
    24
 71
     1
 72
     4
 73
     2
 74
     0
 42
0.00000001
 43
0.00000001
 40
0.0
 40
0.0
 40
1.0
 40
1.0
 10
7.43761203748005
 20
6.8075320762625
 30
0.0
 10
7.448981841498976
 20
6.788549781417387
 30
0.0
  0
ARC
  5
240
330
1F
100
AcDbEntity
  8
0
  6
Continuous
 62
     7
370
     0
100
AcDbCircle
 10
7.4322536925
 20
6.8176252847
 30
0.0
 40
0.0114273670861831
100
AcDbArc
 50
214.804036737
 51
297.9632152114
  0
SPLINE
  5
241
330
1F
100
AcDbEntity
  8
0
  6
Continuous
 62
     7
370
     0
100
AcDbSpline
210
0.0
220
0.0
230
1.0
 70
     8
 71
     3
 72
    12
 73
     8
 74
     0
 42
0.00000001
 43
0.00000001
 40
0.0
 40
0.0
 40
0.0
 40
0.0
 40
0.2494023648056226
 40
0.4991486310883294
 40
0.7488658669771017
 40
0.8743546734024528
 40
1.0
 40
1.0
 40
1.0
 40
1.0
 10
7.423571585469053
 20
6.822336295615767
 30
0.0
 10
7.422795251225941
 20
6.821729221158331
 30
0.0
 10
7.4212415122507
 20
6.820514235147136
 30
0.0
 10
7.420503177866531
 20
6.817459285969139
 30
0.0
 10
7.42090565425563
 20
6.814715856639613
 30
0.0
 10
7.421869244666201
 20
6.812589620345116
 30
0.0
 10
7.422536661933924
 20
6.811598659460874
 30
0.0
 10
7.422870578552786
 20
6.811102870208942
 30
0.0
  0
SPLINE
  5
242
330
1F
100
AcDbEntity
  8
0
  6
Continuous
 62
     7
370
     0
100
AcDbSpline
210
0.0
220
0.0
230
1.0
 70
     8
 71
     3
 72
    12
 73
     8
 74
     0
 42
0.00000001
 43
0.00000001
 40
0.0
 40
0.0
 40
0.0
 40
0.0
 40
0.5004590000213521
 40
0.7499685526057098
 40
0.8749070349480972
 40
0.9374264460328721
 40
1.0
 40
1.0
 40
1.0
 40
1.0
 10
7.445380781012672
 20
6.817563119672611
 30
0.0
 10
7.441743754919337
 20
6.819192722221957
 30
0.0
 10
7.436293447911388
 20
6.821634781741725
 30
0.0
 10
7.429650067795961
 20
6.823358915488041
 30
0.0
 10
7.426422913222952
 20
6.823296356198426
 30
0.0
 10
7.424716280476913
 20
6.822883333063198
 30
0.0
 10
7.423953260555396
 20
6.822518694039406
 30
0.0
 10
7.423571585469053
 20
6.822336295615767
 30
0.0
  0
ARC
  5
243
330
1F
100
AcDbEntity
  8
0
  6
Continuous
 62
     7
370
     0
100
AcDbCircle
 10
7.4753579703
 20
6.8603369525
 30
0.0
 40
0.0522324865142547
100
AcDbArc
 50
234.976072186
 51
285.7570022671
  0
ARC
  5
244
330
1F
100
AcDbEntity
  8
0
  6
Continuous
 62
     7
370
     0
100
AcDbCircle
 10
6.6555203983
 20
6.2469528311
 30
0.0
 40
1.00632504344797
100
AcDbArc
 50
34.0264173061
 51
37.797947935
  0
LINE
  5
245
330
1F
100
AcDbEntity
  8
0
  6
Continuous
 62
     7
370
     0
100
AcDbLine
 10
7.4378272993
 20
6.8562795509
 30
0.0
 11
7.4506952653
 21
6.8637080695
 31
0.0
  0
ARC
  5
246
330
1F
100
AcDbEntity
  8
0
  6
Continuous
 62
     7
370
     0
100
AcDbCircle
 10
6.6504880496
 20
6.2453972216
 30
0.0
 40
0.9965341511460508
100
AcDbArc
 50
35.8311805875
 51
37.807241772
  0
ARC
  5
247
330
1F
100
AcDbEntity
  8
0
  6
Continuous
 62
     7
370
     0
100
AcDbCircle
 10
7.4715168874
 20
6.6729438045
 30
0.0
 40
0.0372953837235831
100
AcDbArc
 50
36.0524266339
 51
87.5307714834
  0
LINE
  5
248
330
1F
100
AcDbEntity
  8
0
  6
Continuous
 62
     7
370
     0
100
AcDbLine
 10
7.5146062553
 20
6.7023613591
 30
0.0
 11
7.5016694153
 21
6.6948930803
 31
0.0
  0
SPLINE
  5
249
330
1F
100
AcDbEntity
  8
0
  6
Continuous
 62
     7
370
     0
100
AcDbSpline
210
0.0
220
0.0
230
1.0
 70
    24
 71
     1
 72
     4
 73
     2
 74
     0
 42
0.00000001
 43
0.00000001
 40
0.0
 40
0.0
 40
1.0
 40
1.0
 10
7.495067439594428
 20
6.718130408362945
 30
0.0
 10
7.514606255309722
 20
6.702361359094459
 30
0.0
  0
LINE
  5
24A
330
1F
100
AcDbEntity
  8
0
  6
Continuous
 62
     7
370
     0
100
AcDbLine
 10
7.532913723
 20
6.7399786027
 30
0.0
 11
7.4950674396
 21
6.7181304084
 31
0.0
  0
ARC
  5
24B
330
1F
100
AcDbEntity
  8
0
  6
Continuous
 62
     7
370
     0
100
AcDbCircle
 10
6.6282863375
 20
6.2287401094
 30
0.0
 40
1.039093597176713
100
AcDbArc
 50
29.4724021803
 51
30.7174786763
  0
LINE
  5
24C
330
1F
100
AcDbEntity
  8
0
  6
Continuous
 62
     7
370
     0
100
AcDbLine
 10
7.4638290915
 20
6.7261690231
 30
0.0
 11
7.5215914507
 21
6.7595145233
 31
0.0
  0
ARC
  5
24D
330
1F
100
AcDbEntity
  8
0
  6
Continuous
 62
     7
370
     0
100
AcDbCircle
 10
6.5705321817
 20
6.1953994079
 30
0.0
 40
1.039084093599901
100
AcDbArc
 50
29.6988529469
 51
30.7174822588
  0
LINE
  5
24E
330
1F
100
AcDbEntity
  8
0
  6
Continuous
 62
     7
370
     0
100
AcDbLine
 10
7.5104704076
 20
6.6816285973
 30
0.0
 11
7.5262769992
 21
6.6907535484
 31
0.0
  0
ARC
  5
24F
330
1F
100
AcDbEntity
  8
0
  6
Continuous
 62
     7
370
     0
100
AcDbCircle
 10
6.596535938
 20
6.2099367796
 30
0.0
 40
1.028479161535267
100
AcDbArc
 50
25.9757435844
 51
27.2987655073
  0
LINE
  5
250
330
1F
100
AcDbEntity
  8
0
  6
Continuous
 62
     7
370
     0
100
AcDbLine
 10
7.5369242655
 20
6.6695259348
 30
0.0
 11
7.5211176739
 21
6.6604009838
 31
0.0
  0
ARC
  5
251
330
1F
100
AcDbEntity
  8
0
  6
Continuous
 62
     7
370
     0
100
AcDbCircle
 10
6.6123425295
 20
6.2190617306
 30
0.0
 40
1.028479161528762
100
AcDbArc
 50
25.9757435844
 51
27.2987655073
  0
ARC
  5
252
330
1F
100
AcDbEntity
  8
0
  6
Continuous
 62
     7
370
     0
100
AcDbCircle
 10
7.5209755595
 20
6.5785661669
 30
0.0
 40
0.0318735208667004
100
AcDbArc
 50
29.2511406328
 51
86.1550436523
  0
LINE
  5
253
330
1F
100
AcDbEntity
  8
0
  6
Continuous
 62
     7
370
     0
100
AcDbLine
 10
7.5617216091
 20
6.6016090786
 30
0.0
 11
7.5487847691
 21
6.5941407998
 31
0.0
  0
SPLINE
  5
254
330
1F
100
AcDbEntity
  8
0
  6
Continuous
 62
     7
370
     0
100
AcDbSpline
210
0.0
220
0.0
230
1.0
 70
    24
 71
     1
 72
     4
 73
     2
 74
     0
 42
0.00000001
 43
0.00000001
 40
0.0
 40
0.0
 40
1.0
 40
1.0
 10
7.544634741016469
 20
6.618143881009051
 30
0.0
 10
7.561721609077888
 20
6.601609078564636
 30
0.0
  0
LINE
  5
255
330
1F
100
AcDbEntity
  8
0
  6
Continuous
 62
     7
370
     0
100
AcDbLine
 10
7.5824810244
 20
6.6399920754
 30
0.0
 11
7.544634741
 21
6.618143881
 31
0.0
  0
ARC
  5
256
330
1F
100
AcDbEntity
  8
0
  6
Continuous
 62
     7
370
     0
100
AcDbCircle
 10
6.6593918894
 20
6.2438718456
 30
0.0
 40
1.00449230345161
100
AcDbArc
 50
23.2253600766
 51
24.498868231
  0
LINE
  5
257
330
1F
100
AcDbEntity
  8
0
  6
Continuous
 62
     7
370
     0
100
AcDbLine
 10
7.5156868514
 20
6.6270644606
 30
0.0
 11
7.5734492105
 21
6.6604099608
 31
0.0
  0
ARC
  5
258
330
1F
100
AcDbEntity
  8
0
  6
Continuous
 62
     7
370
     0
100
AcDbCircle
 10
6.6004637906
 20
6.2100045714
 30
0.0
 40
1.005769457714517
100
AcDbArc
 50
23.4573768733
 51
24.498378035
  0
LINE
  5
259
330
1F
100
AcDbEntity
  8
0
  6
Continuous
 62
     7
370
     0
100
AcDbLine
 10
7.0460456163
 20
7.1612476587
 30
0.0
 11
7.0670407186
 21
7.1733678733
 31
0.0
  0
ARC
  5
25A
330
1F
100
AcDbEntity
  8
0
  6
Continuous
 62
     7
370
     0
100
AcDbCircle
 10
6.9539768616
 20
7.3175629871
 30
0.0
 40
0.1814142703370757
100
AcDbArc
 50
295.6913004336
 51
300.4978201349
  0
SPLINE
  5
25B
330
1F
100
AcDbEntity
  8
0
  6
Continuous
 62
     7
370
     0
100
AcDbSpline
210
0.0
220
0.0
230
1.0
 70
     8
 71
     3
 72
    11
 73
     7
 74
     0
 42
0.00000001
 43
0.00000001
 40
0.0
 40
0.0
 40
0.0
 40
0.0
 40
0.2494767937861646
 40
0.5035301868799067
 40
0.7522417857899054
 40
1.0
 40
1.0
 40
1.0
 40
1.0
 10
7.032635954754919
 20
7.154430273771154
 30
0.0
 10
7.03230230047233
 20
7.154224881730326
 30
0.0
 10
7.031628871089521
 20
7.153810329774886
 30
0.0
 10
7.031317146595064
 20
7.153554416366362
 30
0.0
 10
7.031603864580811
 20
7.153617976283553
 30
0.0
 10
7.032284381630007
 20
7.153928066204355
 30
0.0
 10
7.032623986746758
 20
7.154082813427636
 30
0.0
  0
SPLINE
  5
25C
330
1F
100
AcDbEntity
  8
0
  6
Continuous
 62
     7
370
     0
100
AcDbSpline
210
0.0
220
0.0
230
1.0
 70
    24
 71
     1
 72
     4
 73
     2
 74
     0
 42
0.00000001
 43
0.00000001
 40
0.0
 40
0.0
 40
1.0
 40
1.0
 10
7.036093158173105
 20
7.156445823209721
 30
0.0
 10
7.032635954754919
 20
7.154430273771154
 30
0.0
  0
LINE
  5
25D
330
1F
100
AcDbEntity
  8
0
  6
Continuous
 62
     7
370
     0
100
AcDbLine
 10
7.0587527164
 20
7.1695269077
 30
0.0
 11
7.0360931582
 21
7.1564458232
 31
0.0
  0
ARC
  5
25E
330
1F
100
AcDbEntity
  8
0
  6
Continuous
 62
     7
370
     0
100
AcDbCircle
 10
7.1470703485
 20
6.9897457292
 30
0.0
 40
0.2003029612963496
100
AcDbArc
 50
116.1626115509
 51
119.8564314737
  0
LINE
  5
25F
330
1F
100
AcDbEntity
  8
0
  6
Continuous
 62
     7
370
     0
100
AcDbLine
 10
7.0261176853
 20
7.1512042161
 30
0.0
 11
7.0473538467
 21
7.1634635912
 31
0.0
  0
SPLINE
  5
260
330
1F
100
AcDbEntity
  8
0
  6
Continuous
 62
     7
370
     0
100
AcDbSpline
210
0.0
220
0.0
230
1.0
 70
     8
 71
     3
 72
    12
 73
     8
 74
     0
 42
0.00000001
 43
0.00000001
 40
0.0
 40
0.0
 40
0.0
 40
0.0
 40
0.2503253654036894
 40
0.4999978777421096
 40
0.7494826629082579
 40
0.8746982187917958
 40
1.0
 40
1.0
 40
1.0
 40
1.0
 10
7.015236147855511
 20
7.144522458509302
 30
0.0
 10
7.014361879042356
 20
7.144082616336749
 30
0.0
 10
7.012615621524873
 20
7.143204079107957
 30
0.0
 10
7.011088023929393
 20
7.142442174396467
 30
0.0
 10
7.011324588405103
 20
7.142629174782772
 30
0.0
 10
7.012196258378748
 20
7.143152961180605
 30
0.0
 10
7.012850245641243
 20
7.143535792739169
 30
0.0
 10
7.013177351820119
 20
7.143727274401667
 30
0.0
  0
ARC
  5
261
330
1F
100
AcDbEntity
  8
0
  6
Continuous
 62
     7
370
     0
100
AcDbCircle
 10
6.5390287819
 20
8.099984828
 30
0.0
 40
1.067558801599599
100
AcDbArc
 50
296.4919020314
 51
297.544951819
  0
LINE
  5
262
330
1F
100
AcDbEntity
  8
0
  6
Continuous
 62
     7
370
     0
100
AcDbLine
 10
7.0267118317
 20
7.1499698815
 30
0.0
 11
7.032715352
 21
7.1534356399
 31
0.0
  0
ARC
  5
263
330
1F
100
AcDbEntity
  8
0
  6
Continuous
 62
     7
370
     0
100
AcDbCircle
 10
7.107599432
 20
6.9622758412
 30
0.0
 40
0.2043816445461207
100
AcDbArc
 50
109.918149565
 51
113.3138459309
  0
LINE
  5
264
330
1F
100
AcDbEntity
  8
0
  6
Continuous
 62
     7
370
     0
100
AcDbLine
 10
7.0791119854
 20
7.1781814826
 30
0.0
 11
7.0379712272
 21
7.1544314285
 31
0.0
  0
ARC
  5
265
330
1F
100
AcDbEntity
  8
0
  6
Continuous
 62
     7
370
     0
100
AcDbCircle
 10
7.1486956941
 20
6.9861412479
 30
0.0
 40
0.2042580336259016
100
AcDbArc
 50
109.9174381069
 51
113.5634156834
  0
ARC
  5
266
330
1F
100
AcDbEntity
  8
0
  6
Continuous
 62
     7
370
     0
100
AcDbCircle
 10
7.1632990189
 20
7.0802432298
 30
0.0
 40
0.112279174641806
100
AcDbArc
 50
96.6731752151
 51
124.1924512966
  0
SPLINE
  5
267
330
1F
100
AcDbEntity
  8
0
  6
Continuous
 62
     7
370
     0
100
AcDbSpline
210
0.0
220
0.0
230
1.0
 70
    24
 71
     1
 72
     4
 73
     2
 74
     0
 42
0.00000001
 43
0.00000001
 40
0.0
 40
0.0
 40
1.0
 40
1.0
 10
7.088324863216904
 20
7.165620269995367
 30
0.0
 10
7.100200996543765
 20
7.17311546804196
 30
0.0
  0
SPLINE
  5
268
330
1F
100
AcDbEntity
  8
0
  6
Continuous
 62
     7
370
     0
100
AcDbSpline
210
0.0
220
0.0
230
1.0
 70
     8
 71
     3
 72
    12
 73
     8
 74
     0
 42
0.00000001
 43
0.00000001
 40
0.0
 40
0.0
 40
0.0
 40
0.0
 40
0.2503262674180374
 40
0.4997345046006518
 40
0.6249000363599476
 40
0.7501600021982606
 40
1.0
 40
1.0
 40
1.0
 40
1.0
 10
7.091149202812977
 20
7.157847829440111
 30
0.0
 10
7.089110089913747
 20
7.157816987886592
 30
0.0
 10
7.085039342225016
 20
7.157755417885861
 30
0.0
 10
7.082559297507911
 20
7.15883137664752
 30
0.0
 10
7.082752486647666
 20
7.160453369426395
 30
0.0
 10
7.084028617015408
 20
7.162426994522667
 30
0.0
 10
7.086607299598375
 20
7.164343654662209
 30
0.0
 10
7.088324863216904
 20
7.165620269995367
 30
0.0
  0
ARC
  5
269
330
1F
100
AcDbEntity
  8
0
  6
Continuous
 62
     7
370
     0
100
AcDbCircle
 10
7.084331187
 20
7.262772495
 30
0.0
 40
0.1051459499281604
100
AcDbArc
 50
273.7178588878
 51
302.8983255973
  0
SPLINE
  5
26A
330
1F
100
AcDbEntity
  8
0
  6
Continuous
 62
     7
370
     0
100
AcDbSpline
210
0.0
220
0.0
230
1.0
 70
     8
 71
     3
 72
     9
 73
     5
 74
     0
 42
0.00000001
 43
0.00000001
 40
0.0
 40
0.0
 40
0.0
 40
0.0
 40
0.4987092906772059
 40
1.0
 40
1.0
 40
1.0
 40
1.0
 10
7.158111148194267
 20
7.186542946565257
 30
0.0
 10
7.156067750572174
 20
7.184596648550015
 30
0.0
 10
7.151970378294796
 20
7.180693978093246
 30
0.0
 10
7.144956961303516
 20
7.176560348088183
 30
0.0
 10
7.141441200525179
 20
7.174488197770868
 30
0.0
  0
SPLINE
  5
26B
330
1F
100
AcDbEntity
  8
0
  6
Continuous
 62
     7
370
     0
100
AcDbSpline
210
0.0
220
0.0
230
1.0
 70
     8
 71
     3
 72
    11
 73
     7
 74
     0
 42
0.00000001
 43
0.00000001
 40
0.0
 40
0.0
 40
0.0
 40
0.0
 40
0.2504031889031624
 40
0.5003824607867524
 40
0.7500984159891428
 40
1.0
 40
1.0
 40
1.0
 40
1.0
 10
7.150251534269512
 20
7.191761731459342
 30
0.0
 10
7.151808941350803
 20
7.191766823242595
 30
0.0
 10
7.154921118920092
 20
7.191776998189028
 30
0.0
 10
7.1582751012639
 20
7.190962230478761
 30
0.0
 10
7.159538632024489
 20
7.189175611508758
 30
0.0
 10
7.158587093983065
 20
7.187420718885089
 30
0.0
 10
7.158111148194267
 20
7.186542946565257
 30
0.0
  0
SPLINE
  5
26C
330
1F
100
AcDbEntity
  8
0
  6
Continuous
 62
     7
370
     0
100
AcDbSpline
210
0.0
220
0.0
230
1.0
 70
     8
 71
     3
 72
     9
 73
     5
 74
     0
 42
0.00000001
 43
0.00000001
 40
0.0
 40
0.0
 40
0.0
 40
0.0
 40
0.50008834790885
 40
1.0
 40
1.0
 40
1.0
 40
1.0
 10
7.261052287968274
 20
7.172941955847667
 30
0.0
 10
7.25173898804276
 20
7.168804962619976
 30
0.0
 10
7.233115678852577
 20
7.160532437885117
 30
0.0
 10
7.210750317800419
 20
7.155825320636022
 30
0.0
 10
7.19956961320722
 20
7.153472177875442
 30
0.0
  0
ARC
  5
26D
330
1F
100
AcDbEntity
  8
0
  6
Continuous
 62
     7
370
     0
100
AcDbCircle
 10
7.1347928453
 20
6.8004004866
 30
0.0
 40
0.3933555556768867
100
AcDbArc
 50
71.2777713953
 51
73.6211827126
  0
SPLINE
  5
26E
330
1F
100
AcDbEntity
  8
0
  6
Continuous
 62
     7
370
     0
100
AcDbSpline
210
0.0
220
0.0
230
1.0
 70
    24
 71
     1
 72
     4
 73
     2
 74
     0
 42
0.00000001
 43
0.00000001
 40
0.0
 40
0.0
 40
1.0
 40
1.0
 10
7.225462826344751
 20
7.168640809858677
 30
0.0
 10
7.245713908508727
 20
7.177793002301172
 30
0.0
  0
SPLINE
  5
26F
330
1F
100
AcDbEntity
  8
0
  6
Continuous
 62
     7
370
     0
100
AcDbSpline
210
0.0
220
0.0
230
1.0
 70
    24
 71
     1
 72
     4
 73
     2
 74
     0
 42
0.00000001
 43
0.00000001
 40
0.0
 40
0.0
 40
1.0
 40
1.0
 10
7.200921705531457
 20
7.160822577872042
 30
0.0
 10
7.225462826344751
 20
7.168640809858677
 30
0.0
  0
SPLINE
  5
270
330
1F
100
AcDbEntity
  8
0
  6
Continuous
 62
     7
370
     0
100
AcDbSpline
210
0.0
220
0.0
230
1.0
 70
    24
 71
     1
 72
     4
 73
     2
 74
     0
 42
0.00000001
 43
0.00000001
 40
0.0
 40
0.0
 40
1.0
 40
1.0
 10
7.179531325858559
 20
7.15643394077385
 30
0.0
 10
7.200921705531457
 20
7.160822577872042
 30
0.0
  0
LINE
  5
271
330
1F
100
AcDbEntity
  8
0
  6
Continuous
 62
     7
370
     0
100
AcDbLine
 10
7.1688788081
 20
7.1502843732
 30
0.0
 11
7.1795313259
 21
7.1564339408
 31
0.0
  0
ARC
  5
272
330
1F
100
AcDbEntity
  8
0
  6
Continuous
 62
     7
370
     0
100
AcDbCircle
 10
7.080911963
 20
6.7759789464
 30
0.0
 40
0.3845032098317528
100
AcDbArc
 50
69.8046960405
 51
76.7747133815
  0
LINE
  5
273
330
1F
100
AcDbEntity
  8
0
  6
Continuous
 62
     7
370
     0
100
AcDbLine
 10
7.2269777786
 20
7.1445369929
 30
0.0
 11
7.2136506524
 21
7.1368434067
 31
0.0
  0
ARC
  5
274
330
1F
100
AcDbEntity
  8
0
  6
Continuous
 62
     7
370
     0
100
AcDbCircle
 10
7.0897349894
 20
6.7700567186
 30
0.0
 40
0.3988371333877792
100
AcDbArc
 50
69.8726853597
 51
74.0149125572
  0
ARC
  5
275
330
1F
100
AcDbEntity
  8
0
  6
Continuous
 62
     7
370
     0
100
AcDbCircle
 10
7.305833599
 20
7.0982115798
 30
0.0
 40
0.0518068740644884
100
AcDbArc
 50
65.3472433337
 51
127.2441956857
  0
SPLINE
  5
276
330
1F
100
AcDbEntity
  8
0
  6
Continuous
 62
     7
370
     0
100
AcDbSpline
210
0.0
220
0.0
230
1.0
 70
    24
 71
     1
 72
     4
 73
     2
 74
     0
 42
0.00000001
 43
0.00000001
 40
0.0
 40
0.0
 40
1.0
 40
1.0
 10
7.262820051597947
 20
7.131075441086541
 30
0.0
 10
7.274479387333675
 20
7.13945313185414
 30
0.0
  0
SPLINE
  5
277
330
1F
100
AcDbEntity
  8
0
  6
Continuous
 62
     7
370
     0
100
AcDbSpline
210
0.0
220
0.0
230
1.0
 70
     8
 71
     3
 72
    12
 73
     8
 74
     0
 42
0.00000001
 43
0.00000001
 40
0.0
 40
0.0
 40
0.0
 40
0.0
 40
0.2503262674180363
 40
0.4997345046006487
 40
0.6249000363599417
 40
0.7501600021982565
 40
1.0
 40
1.0
 40
1.0
 40
1.0
 10
7.268292353335095
 20
7.111615278073831
 30
0.0
 10
7.265972022902436
 20
7.112909864830041
 30
0.0
 10
7.261339871465695
 20
7.115494290659377
 30
0.0
 10
7.258143229670008
 20
7.119712135659999
 30
0.0
 10
7.257877863842422
 20
7.123290960974757
 30
0.0
 10
7.258762156076334
 20
7.126906068897388
 30
0.0
 10
7.261197776386324
 20
7.129408599465195
 30
0.0
 10
7.262820051597947
 20
7.131075441086541
 30
0.0
  0
ARC
  5
278
330
1F
100
AcDbEntity
  8
0
  6
Continuous
 62
     7
370
     0
100
AcDbCircle
 10
7.2915347028
 20
7.1568635054
 30
0.0
 40
0.0508685451734562
100
AcDbArc
 50
242.8121023427
 51
305.4070650442
  0
SPLINE
  5
279
330
1F
100
AcDbEntity
  8
0
  6
Continuous
 62
     7
370
     0
100
AcDbSpline
210
0.0
220
0.0
230
1.0
 70
     8
 71
     3
 72
     9
 73
     5
 74
     0
 42
0.00000001
 43
0.00000001
 40
0.0
 40
0.0
 40
0.0
 40
0.0
 40
0.498709290677206
 40
0.9999999999999999
 40
0.9999999999999999
 40
0.9999999999999999
 40
0.9999999999999999
 10
7.337272780427031
 20
7.129809165024232
 30
0.0
 10
7.335358029792439
 20
7.127118469865581
 30
0.0
 10
7.331518617392496
 20
7.121723151974074
 30
0.0
 10
7.32451690123391
 20
7.117513189345272
 30
0.0
 10
7.321007005974296
 20
7.115402774192856
 30
0.0
  0
SPLINE
  5
27A
330
1F
100
AcDbEntity
  8
0
  6
Continuous
 62
     7
370
     0
100
AcDbSpline
210
0.0
220
0.0
230
1.0
 70
     8
 71
     3
 72
    11
 73
     7
 74
     0
 42
0.00000001
 43
0.00000001
 40
0.0
 40
0.0
 40
0.0
 40
0.0
 40
0.2504031889031609
 40
0.5003824607867516
 40
0.750098415989142
 40
1.0
 40
1.0
 40
1.0
 40
1.0
 10
7.327443169317736
 20
7.145296382774985
 30
0.0
 10
7.3292057794164
 20
7.144301537250914
 30
0.0
 10
7.332728015624492
 20
7.142313530414348
 30
0.0
 10
7.336645182531734
 20
7.13858491751666
 30
0.0
 10
7.338384535300813
 20
7.134227158299385
 30
0.0
 10
7.337643457165465
 20
7.131282194175057
 30
0.0
 10
7.337272780427031
 20
7.129809165024232
 30
0.0
  0
LINE
  5
27B
330
1F
100
AcDbEntity
  8
0
  6
Continuous
 62
     7
370
     0
100
AcDbLine
 10
7.4036564854
 20
7.0822791258
 30
0.0
 11
7.4142745661
 21
7.0884088133
 31
0.0
  0
ARC
  5
27C
330
1F
100
AcDbEntity
  8
0
  6
Continuous
 62
     7
370
     0
100
AcDbCircle
 10
6.9812036823
 20
6.5286355837
 30
0.0
 40
0.69641046986218
100
AcDbArc
 50
52.6548784049
 51
53.3806946054
  0
LINE
  5
27D
330
1F
100
AcDbEntity
  8
0
  6
Continuous
 62
     7
370
     0
100
AcDbLine
 10
7.3843726649
 20
7.080522092
 30
0.0
 11
7.3966092855
 21
7.0875861427
 31
0.0
  0
ARC
  5
27E
330
1F
100
AcDbEntity
  8
0
  6
Continuous
 62
     7
370
     0
100
AcDbCircle
 10
6.9689670617
 20
6.521571533
 30
0.0
 40
0.6964104698630427
100
AcDbArc
 50
52.6548784049
 51
53.3806946054
  0
LINE
  5
27F
330
1F
100
AcDbEntity
  8
0
  6
Continuous
 62
     7
370
     0
100
AcDbLine
 10
7.356512207
 20
7.0550633132
 30
0.0
 11
7.3914198648
 21
7.0752150751
 31
0.0
  0
ARC
  5
280
330
1F
100
AcDbEntity
  8
0
  6
Continuous
 62
     7
370
     0
100
AcDbCircle
 10
6.9211210268
 20
6.4845302118
 30
0.0
 40
0.7176862124138674
100
AcDbArc
 50
51.2792558255
 51
52.6516448229
  0
SPLINE
  5
281
330
1F
100
AcDbEntity
  8
0
  6
Continuous
 62
     7
370
     0
100
AcDbSpline
210
0.0
220
0.0
230
1.0
 70
    24
 71
     1
 72
     4
 73
     2
 74
     0
 42
0.00000001
 43
0.00000001
 40
0.0
 40
0.0
 40
1.0
 40
1.0
 10
7.43223356915082
 20
7.040602222561955
 30
0.0
 10
7.37005181927739
 20
7.044471854384307
 30
0.0
  0
LINE
  5
282
330
1F
100
AcDbEntity
  8
0
  6
Continuous
 62
     7
370
     0
100
AcDbLine
 10
7.4452048461
 20
7.0480903814
 30
0.0
 11
7.4322335692
 21
7.0406022226
 31
0.0
  0
ARC
  5
283
330
1F
100
AcDbEntity
  8
0
  6
Continuous
 62
     7
370
     0
100
AcDbCircle
 10
6.9414670718
 20
6.4786009969
 30
0.0
 40
0.760309084734376
100
AcDbArc
 50
48.5058625569
 51
51.2660651141
  0
LINE
  5
284
330
1F
100
AcDbEntity
  8
0
  6
Continuous
 62
     7
370
     0
100
AcDbLine
 10
7.4278141784
 20
7.0778173545
 30
0.0
 11
7.4171960977
 21
7.071687667
 31
0.0
  0
ARC
  5
285
330
1F
100
AcDbEntity
  8
0
  6
Continuous
 62
     7
370
     0
100
AcDbCircle
 10
6.9788833859
 20
6.517875712
 30
0.0
 40
0.717686212424374
100
AcDbArc
 50
51.2792558255
 51
52.6516448229
  0
SPLINE
  5
286
330
1F
100
AcDbEntity
  8
0
  6
Continuous
 62
     7
370
     0
100
AcDbSpline
210
0.0
220
0.0
230
1.0
 70
    24
 71
     1
 72
     4
 73
     2
 74
     0
 42
0.00000001
 43
0.00000001
 40
0.0
 40
0.0
 40
1.0
 40
1.0
 10
7.501320626226959
 20
6.913770358410036
 30
0.0
 10
7.539352279277278
 20
6.969117935131901
 30
0.0
  0
ARC
  5
287
330
1F
100
AcDbEntity
  8
0
  6
Continuous
 62
     7
370
     0
100
AcDbCircle
 10
6.7383604454
 20
6.2986147486
 30
0.0
 40
0.9800636009192065
100
AcDbArc
 50
37.3259858046
 51
38.8783594218
  0
SPLINE
  5
288
330
1F
100
AcDbEntity
  8
0
  6
Continuous
 62
     7
370
     0
100
AcDbSpline
210
0.0
220
0.0
230
1.0
 70
    24
 71
     1
 72
     4
 73
     2
 74
     0
 42
0.00000001
 43
0.00000001
 40
0.0
 40
0.0
 40
1.0
 40
1.0
 10
7.592217351508364
 20
6.901701874176639
 30
0.0
 10
7.517705609935186
 20
6.892875445875038
 30
0.0
  0
ARC
  5
289
330
1F
100
AcDbEntity
  8
0
  6
Continuous
 62
     7
370
     0
100
AcDbCircle
 10
6.7775245147
 20
6.3180005467
 30
0.0
 40
1.002213379510304
100
AcDbArc
 50
35.6203853921
 51
37.0526112021
  0
SPLINE
  5
28A
330
1F
100
AcDbEntity
  8
0
  6
Continuous
 62
     7
370
     0
100
AcDbSpline
210
0.0
220
0.0
230
1.0
 70
    24
 71
     1
 72
     4
 73
     2
 74
     0
 42
0.00000001
 43
0.00000001
 40
0.0
 40
0.0
 40
1.0
 40
1.0
 10
7.565677300554369
 20
6.919525868894728
 30
0.0
 10
7.577373537898647
 20
6.921882321661766
 30
0.0
  0
ARC
  5
28B
330
1F
100
AcDbEntity
  8
0
  6
Continuous
 62
     7
370
     0
100
AcDbCircle
 10
6.7855868075
 20
6.3258352345
 30
0.0
 40
0.9803110458726935
100
AcDbArc
 50
37.2730775134
 51
38.8940453895
  0
SPLINE
  5
28C
330
1F
100
AcDbEntity
  8
0
  6
Continuous
 62
     7
370
     0
100
AcDbSpline
210
0.0
220
0.0
230
1.0
 70
    24
 71
     1
 72
     4
 73
     2
 74
     0
 42
0.00000001
 43
0.00000001
 40
0.0
 40
0.0
 40
1.0
 40
1.0
 10
7.555525130104202
 20
6.94976170032155
 30
0.0
 10
7.548571135994575
 20
6.941355064556966
 30
0.0
  0
ARC
  5
28D
330
1F
100
AcDbEntity
  8
0
  6
Continuous
 62
     7
370
     0
100
AcDbCircle
 10
6.8157243805
 20
6.348065409
 30
0.0
 40
0.9535950797252499
100
AcDbArc
 50
39.1222196515
 51
40.6377918624
  0
SPLINE
  5
28E
330
1F
100
AcDbEntity
  8
0
  6
Continuous
 62
     7
370
     0
100
AcDbSpline
210
0.0
220
0.0
230
1.0
 70
    24
 71
     1
 72
     4
 73
     2
 74
     0
 42
0.00000001
 43
0.00000001
 40
0.0
 40
0.0
 40
1.0
 40
1.0
 10
7.651621726753304
 20
6.806745538544399
 30
0.0
 10
7.657805829435882
 20
6.797480573972264
 30
0.0
  0
SPLINE
  5
28F
330
1F
100
AcDbEntity
  8
0
  6
Continuous
 62
     7
370
     0
100
AcDbSpline
210
0.0
220
0.0
230
1.0
 70
    24
 71
     1
 72
     4
 73
     2
 74
     0
 42
0.00000001
 43
0.00000001
 40
0.0
 40
0.0
 40
1.0
 40
1.0
 10
7.645096668012342
 20
6.813868614653928
 30
0.0
 10
7.651621726753304
 20
6.806745538544399
 30
0.0
  0
ARC
  5
290
330
1F
100
AcDbEntity
  8
0
  6
Continuous
 62
     7
370
     0
100
AcDbCircle
 10
7.634381284
 20
6.7997872279
 30
0.0
 40
0.0176947706225688
100
AcDbArc
 50
52.7302858819
 51
117.7951332605
  0
ARC
  5
291
330
1F
100
AcDbEntity
  8
0
  6
Continuous
 62
     7
370
     0
100
AcDbCircle
 10
7.6354926041
 20
6.8010608966
 30
0.0
 40
0.0171589017546094
100
AcDbArc
 50
123.0684576453
 51
208.9399424827
  0
ARC
  5
292
330
1F
100
AcDbEntity
  8
0
  6
Continuous
 62
     7
370
     0
100
AcDbCircle
 10
7.6048370577
 20
6.7777866917
 30
0.0
 40
0.0216500206719469
100
AcDbArc
 50
43.7495158298
 51
69.5934151347
  0
SPLINE
  5
293
330
1F
100
AcDbEntity
  8
0
  6
Continuous
 62
     7
370
     0
100
AcDbSpline
210
0.0
220
0.0
230
1.0
 70
     8
 71
     3
 72
     9
 73
     5
 74
     0
 42
0.00000001
 43
0.00000001
 40
0.0
 40
0.0
 40
0.0
 40
0.0
 40
0.5001654445837002
 40
1.0
 40
1.0
 40
1.0
 40
1.0
 10
7.601514483207838
 20
6.796919212209147
 30
0.0
 10
7.60318649502906
 20
6.797693548509288
 30
0.0
 10
7.606529412536312
 20
6.799241708840085
 30
0.0
 10
7.61043422276077
 20
6.798465816484725
 30
0.0
 10
7.612385981843299
 20
6.798077998674233
 30
0.0
  0
SPLINE
  5
294
330
1F
100
AcDbEntity
  8
0
  6
Continuous
 62
     7
370
     0
100
AcDbSpline
210
0.0
220
0.0
230
1.0
 70
     8
 71
     3
 72
    14
 73
    10
 74
     0
 42
0.00000001
 43
0.00000001
 40
0.0
 40
0.0
 40
0.0
 40
0.0
 40
0.2499004290088903
 40
0.3800976031629375
 40
0.4999571058495302
 40
0.6257216768208286
 40
0.7499966555365399
 40
0.8749516763669412
 40
1.0
 40
1.0
 40
1.0
 40
1.0
 10
7.599260235630195
 20
6.767860563003858
 30
0.0
 10
7.597934983202633
 20
6.770491631327426
 30
0.0
 10
7.595919279294879
 20
6.774493476252271
 30
0.0
 10
7.594564096194879
 20
6.780140173548835
 30
0.0
 10
7.594298584472278
 20
6.784366110213994
 30
0.0
 10
7.594889929331956
 20
6.7883254234704
 30
0.0
 10
7.596316668306898
 20
6.791913130754274
 30
0.0
 10
7.598522470280117
 20
6.794913260211279
 30
0.0
 10
7.600516897454391
 20
6.796250395200827
 30
0.0
 10
7.601514483207838
 20
6.796919212209147
 30
0.0
  0
ARC
  5
295
330
1F
100
AcDbEntity
  8
0
  6
Continuous
 62
     7
370
     0
100
AcDbCircle
 10
6.6948319795
 20
6.2670107142
 30
0.0
 40
1.03384768777335
100
AcDbArc
 50
26.4063081647
 51
28.9765922034
  0
LINE
  5
296
330
1F
100
AcDbEntity
  8
0
  6
Continuous
 62
     7
370
     0
100
AcDbLine
 10
7.6776090182
 20
6.7595865758
 30
0.0
 11
7.6208108956
 21
6.7267977176
 31
0.0
  0
ARC
  5
297
330
1F
100
AcDbEntity
  8
0
  6
Continuous
 62
     7
370
     0
100
AcDbCircle
 10
6.7519844849
 20
6.299981954
 30
0.0
 40
1.033449169110138
100
AcDbArc
 50
26.405989578
 51
28.7766372035
  0
LINE
  5
298
330
1F
100
AcDbEntity
  8
0
  6
Continuous
 62
     7
370
     0
100
AcDbLine
 10
7.9311092307
 20
7.5376693906
 30
0.0
 11
7.952104333
 21
7.5497896052
 31
0.0
  0
ARC
  5
299
330
1F
100
AcDbEntity
  8
0
  6
Continuous
 62
     7
370
     0
100
AcDbCircle
 10
7.9208823927
 20
7.5519381025
 30
0.0
 40
0.0175551802699375
100
AcDbArc
 50
254.5047060148
 51
305.6303685019
  0
SPLINE
  5
29A
330
1F
100
AcDbEntity
  8
0
  6
Continuous
 62
     7
370
     0
100
AcDbSpline
210
0.0
220
0.0
230
1.0
 70
     8
 71
     3
 72
    11
 73
     7
 74
     0
 42
0.00000001
 43
0.00000001
 40
0.0
 40
0.0
 40
0.0
 40
0.0
 40
0.2494767938177458
 40
0.5035301868961785
 40
0.7522417857853977
 40
0.9999999999999999
 40
0.9999999999999999
 40
0.9999999999999999
 40
0.9999999999999999
 10
7.915052659272466
 20
7.538756512764384
 30
0.0
 10
7.91476852895275
 20
7.538406985779656
 30
0.0
 10
7.914195056002417
 20
7.537701519811253
 30
0.0
 10
7.914160293023174
 20
7.536635782023282
 30
0.0
 10
7.914793488619364
 20
7.535680471991822
 30
0.0
 10
7.915726669744508
 20
7.535240549670182
 30
0.0
 10
7.916192364300353
 20
7.535021010906846
 30
0.0
  0
SPLINE
  5
29B
330
1F
100
AcDbEntity
  8
0
  6
Continuous
 62
     7
370
     0
100
AcDbSpline
210
0.0
220
0.0
230
1.0
 70
    24
 71
     1
 72
     4
 73
     2
 74
     0
 42
0.00000001
 43
0.00000001
 40
0.0
 40
0.0
 40
1.0
 40
1.0
 10
7.918432166627447
 20
7.540997941164751
 30
0.0
 10
7.915052659272466
 20
7.538756512764384
 30
0.0
  0
LINE
  5
29C
330
1F
100
AcDbEntity
  8
0
  6
Continuous
 62
     7
370
     0
100
AcDbLine
 10
7.9410917248
 20
7.5540790257
 30
0.0
 11
7.9184321666
 21
7.5409979412
 31
0.0
  0
ARC
  5
29D
330
1F
100
AcDbEntity
  8
0
  6
Continuous
 62
     7
370
     0
100
AcDbCircle
 10
7.796137391
 20
7.1666245256
 30
0.0
 40
0.4136819412193107
100
AcDbArc
 50
69.4881902972
 51
71.7657698601
  0
LINE
  5
29E
330
1F
100
AcDbEntity
  8
0
  6
Continuous
 62
     7
370
     0
100
AcDbLine
 10
7.9043433032
 20
7.5472741707
 30
0.0
 11
7.9255794646
 21
7.5595335457
 31
0.0
  0
ARC
  5
29F
330
1F
100
AcDbEntity
  8
0
  6
Continuous
 62
     7
370
     0
100
AcDbCircle
 10
7.893689127
 20
7.5624342658
 30
0.0
 40
0.0185294347706914
100
AcDbArc
 50
257.9146722829
 51
305.0986918602
  0
SPLINE
  5
2A0
330
1F
100
AcDbEntity
  8
0
  6
Continuous
 62
     7
370
     0
100
AcDbSpline
210
0.0
220
0.0
230
1.0
 70
     8
 71
     3
 72
    10
 73
     6
 74
     0
 42
0.00000001
 43
0.00000001
 40
0.0
 40
0.0
 40
0.0
 40
0.0
 40
0.498859454299156
 40
0.7491987595266304
 40
1.0
 40
1.0
 40
1.0
 40
1.0
 10
7.888089599622353
 20
7.546727051798098
 30
0.0
 10
7.88802099099692
 20
7.546236260526164
 30
0.0
 10
7.887917952963617
 20
7.545499178751025
 30
0.0
 10
7.888753403853071
 20
7.544715894335717
 30
0.0
 10
7.889457353803786
 20
7.544449047441855
 30
0.0
 10
7.889809653218361
 20
7.544315501009481
 30
0.0
  0
SPLINE
  5
2A1
330
1F
100
AcDbEntity
  8
0
  6
Continuous
 62
     7
370
     0
100
AcDbSpline
210
0.0
220
0.0
230
1.0
 70
     8
 71
     3
 72
     9
 73
     5
 74
     0
 42
0.00000001
 43
0.00000001
 40
0.0
 40
0.0
 40
0.0
 40
0.0
 40
0.5015784057013092
 40
1.0
 40
1.0
 40
1.0
 40
1.0
 10
7.891184613969987
 20
7.549432463061478
 30
0.0
 10
7.890463163706714
 20
7.549003367877063
 30
0.0
 10
7.889024803811088
 20
7.548147878128026
 30
0.0
 10
7.888400677602353
 20
7.547199662795749
 30
0.0
 10
7.888089599622353
 20
7.546727051798098
 30
0.0
  0
LINE
  5
2A2
330
1F
100
AcDbEntity
  8
0
  6
Continuous
 62
     7
370
     0
100
AcDbLine
 10
7.9146247446
 20
7.5629641624
 30
0.0
 11
7.891184614
 21
7.5494324631
 31
0.0
  0
ARC
  5
2A3
330
1F
100
AcDbEntity
  8
0
  6
Continuous
 62
     7
370
     0
100
AcDbCircle
 10
7.80901738
 20
7.2077047518
 30
0.0
 40
0.3706240201027038
100
AcDbArc
 50
73.4444546178
 51
75.8951961904
  0
LINE
  5
2A4
330
1F
100
AcDbEntity
  8
0
  6
Continuous
 62
     7
370
     0
100
AcDbLine
 10
7.8734978496
 20
7.5522383683
 30
0.0
 11
7.8993370925
 21
7.5671550458
 31
0.0
  0
SPLINE
  5
2A5
330
1F
100
AcDbEntity
  8
0
  6
Continuous
 62
     7
370
     0
100
AcDbSpline
210
0.0
220
0.0
230
1.0
 70
     8
 71
     3
 72
    13
 73
     9
 74
     0
 42
0.00000001
 43
0.00000001
 40
0.0
 40
0.0
 40
0.0
 40
0.0
 40
0.2493026324881912
 40
0.3767800005121212
 40
0.4994269650593208
 40
0.6183515801767584
 40
0.7497380290331283
 40
1.0
 40
1.0
 40
1.0
 40
1.0
 10
7.870859454659146
 20
7.539176451904257
 30
0.0
 10
7.869023307242648
 20
7.539841212311205
 30
0.0
 10
7.86624827186647
 20
7.540845888531309
 30
0.0
 10
7.864727348159067
 20
7.542939780415731
 30
0.0
 10
7.864691521669172
 20
7.544709295426108
 30
0.0
 10
7.86583020033316
 20
7.546624471159848
 30
0.0
 10
7.868540713756006
 20
7.54919460847784
 30
0.0
 10
7.871534624105999
 20
7.551032916821711
 30
0.0
 10
7.873497849593569
 20
7.552238368345906
 30
0.0
  0
ARC
  5
2A6
330
1F
100
AcDbEntity
  8
0
  6
Continuous
 62
     7
370
     0
100
AcDbCircle
 10
7.8820225409
 20
7.5795264032
 30
0.0
 40
0.041865654971221
100
AcDbArc
 50
254.535535586
 51
283.4593313284
  0
SPLINE
  5
2A7
330
1F
100
AcDbEntity
  8
0
  6
Continuous
 62
     7
370
     0
100
AcDbSpline
210
0.0
220
0.0
230
1.0
 70
     8
 71
     3
 72
    12
 73
     8
 74
     0
 42
0.00000001
 43
0.00000001
 40
0.0
 40
0.0
 40
0.0
 40
0.0
 40
0.2503253654036832
 40
0.499997877742098
 40
0.7494826629082549
 40
0.8746982187918004
 40
1.0
 40
1.0
 40
1.0
 40
1.0
 10
7.897077517384266
 20
7.530513515967026
 30
0.0
 10
7.895881704094419
 20
7.530994406568915
 30
0.0
 10
7.89349319621734
 20
7.531954933601336
 30
0.0
 10
7.891005715522394
 20
7.533880187742295
 30
0.0
 10
7.890581896228429
 20
7.535889143840588
 30
0.0
 10
7.891037280538184
 20
7.537552086372507
 30
0.0
 10
7.89152369518674
 20
7.538390981046263
 30
0.0
 10
7.891766986220319
 20
7.538810572752324
 30
0.0
  0
ARC
  5
2A8
330
1F
100
AcDbEntity
  8
0
  6
Continuous
 62
     7
370
     0
100
AcDbCircle
 10
7.9101477466
 20
7.5674542616
 30
0.0
 40
0.039184813168989
100
AcDbArc
 50
250.5154026035
 51
281.6113000749
  0
LINE
  5
2A9
330
1F
100
AcDbEntity
  8
0
  6
Continuous
 62
     7
370
     0
100
AcDbLine
 10
7.9120309973
 20
7.5256055847
 30
0.0
 11
7.9180345176
 21
7.5290713432
 31
0.0
  0
ARC
  5
2AA
330
1F
100
AcDbEntity
  8
0
  6
Continuous
 62
     7
370
     0
100
AcDbCircle
 10
7.737584581
 20
7.0983027638
 30
0.0
 40
0.4615400881083839
100
AcDbArc
 50
65.8195218988
 51
67.792257187
  0
LINE
  5
2AB
330
1F
100
AcDbEntity
  8
0
  6
Continuous
 62
     7
370
     0
100
AcDbLine
 10
7.9677778045
 20
7.5430972554
 30
0.0
 11
7.9266370463
 21
7.5193472013
 31
0.0
  0
ARC
  5
2AC
330
1F
100
AcDbEntity
  8
0
  6
Continuous
 62
     7
370
     0
100
AcDbCircle
 10
7.7791144526
 20
7.1229478087
 30
0.0
 40
0.4605642387001324
100
AcDbArc
 50
65.8180754969
 51
67.9383365805
  0
LINE
  5
2AD
330
1F
100
AcDbEntity
  8
0
  6
Continuous
 62
     7
370
     0
100
AcDbLine
 10
8.02360049
 20
7.5010972797
 30
0.0
 11
8.0342185707
 21
7.5072269673
 31
0.0
  0
ARC
  5
2AE
330
1F
100
AcDbEntity
  8
0
  6
Continuous
 62
     7
370
     0
100
AcDbCircle
 10
7.7047537461
 20
6.9954194271
 30
0.0
 40
0.5978071065992304
100
AcDbArc
 50
57.7672019816
 51
58.5707833649
  0
LINE
  5
2AF
330
1F
100
AcDbEntity
  8
0
  6
Continuous
 62
     7
370
     0
100
AcDbLine
 10
8.00424054
 20
7.4984552192
 30
0.0
 11
8.0164771606
 21
7.5055192699
 31
0.0
  0
ARC
  5
2B0
330
1F
100
AcDbEntity
  8
0
  6
Continuous
 62
     7
370
     0
100
AcDbCircle
 10
7.6925171255
 20
6.9883553764
 30
0.0
 40
0.5978071066204833
100
AcDbArc
 50
57.7672019817
 51
58.5707833649
  0
LINE
  5
2B1
330
1F
100
AcDbEntity
  8
0
  6
Continuous
 62
     7
370
     0
100
AcDbLine
 10
7.9764562116
 20
7.4738814671
 30
0.0
 11
8.0113638694
 21
7.494033229
 31
0.0
  0
ARC
  5
2B2
330
1F
100
AcDbEntity
  8
0
  6
Continuous
 62
     7
370
     0
100
AcDbCircle
 10
7.646229246
 20
6.9502394539
 30
0.0
 40
0.6190725376031857
100
AcDbArc
 50
56.2485190594
 51
57.7630355403
  0
SPLINE
  5
2B3
330
1F
100
AcDbEntity
  8
0
  6
Continuous
 62
     7
370
     0
100
AcDbSpline
210
0.0
220
0.0
230
1.0
 70
    24
 71
     1
 72
     4
 73
     2
 74
     0
 42
0.00000001
 43
0.00000001
 40
0.0
 40
0.0
 40
1.0
 40
1.0
 10
8.052910640673579
 20
7.464492803453
 30
0.0
 10
7.990180824474947
 20
7.464970566673125
 30
0.0
  0
LINE
  5
2B4
330
1F
100
AcDbEntity
  8
0
  6
Continuous
 62
     7
370
     0
100
AcDbLine
 10
8.0658819177
 20
7.4719809623
 30
0.0
 11
8.0529106407
 21
7.4644928035
 31
0.0
  0
ARC
  5
2B5
330
1F
100
AcDbEntity
  8
0
  6
Continuous
 62
     7
370
     0
100
AcDbCircle
 10
7.6690351942
 20
6.9413904236
 30
0.0
 40
0.662581045376177
100
AcDbArc
 50
53.2059349309
 51
56.2313190898
  0
LINE
  5
2B6
330
1F
100
AcDbEntity
  8
0
  6
Continuous
 62
     7
370
     0
100
AcDbLine
 10
8.0479431836
 20
7.4983160668
 30
0.0
 11
8.0373251029
 21
7.4921863793
 31
0.0
  0
ARC
  5
2B7
330
1F
100
AcDbEntity
  8
0
  6
Continuous
 62
     7
370
     0
100
AcDbCircle
 10
7.7039916051
 20
6.983584954
 30
0.0
 40
0.6190725376047824
100
AcDbArc
 50
56.2485190594
 51
57.7630355403
  0
LINE
  5
2B8
330
1F
100
AcDbEntity
  8
0
  6
Continuous
 62
     7
370
     0
100
AcDbLine
 10
8.0578832406
 20
7.4586639662
 30
0.0
 11
8.0704297944
 21
7.4659069375
 31
0.0
  0
ARC
  5
2B9
330
1F
100
AcDbEntity
  8
0
  6
Continuous
 62
     7
370
     0
100
AcDbCircle
 10
7.6025961636
 20
6.8649419055
 30
0.0
 40
0.7481926274278698
100
AcDbArc
 50
48.410966791
 51
52.517733133
  0
LINE
  5
2BA
330
1F
100
AcDbEntity
  8
0
  6
Continuous
 62
     7
370
     0
100
AcDbLine
 10
8.1117803143
 20
7.4317769649
 30
0.0
 11
8.0992337606
 21
7.4245339936
 31
0.0
  0
ARC
  5
2BB
330
1F
100
AcDbEntity
  8
0
  6
Continuous
 62
     7
370
     0
100
AcDbCircle
 10
7.6151427174
 20
6.8721848768
 30
0.0
 40
0.7481926274267146
100
AcDbArc
 50
48.410966791
 51
52.517733133
  0
LINE
  5
2BC
330
1F
100
AcDbEntity
  8
0
  6
Continuous
 62
     7
370
     0
100
AcDbLine
 10
8.1824516697
 20
7.3429363594
 30
0.0
 11
8.2056622202
 21
7.356335525
 31
0.0
  0
ARC
  5
2BD
330
1F
100
AcDbEntity
  8
0
  6
Continuous
 62
     7
370
     0
100
AcDbCircle
 10
7.4836074693
 20
6.7402756442
 30
0.0
 40
0.9228126320821687
100
AcDbArc
 50
40.7734251396
 51
42.6305777818
  0
LINE
  5
2BE
330
1F
100
AcDbEntity
  8
0
  6
Continuous
 62
     7
370
     0
100
AcDbLine
 10
8.1510861816
 20
7.3586477079
 30
0.0
 11
8.1625537088
 21
7.3652677704
 31
0.0
  0
ARC
  5
2BF
330
1F
100
AcDbEntity
  8
0
  6
Continuous
 62
     7
370
     0
100
AcDbCircle
 10
7.4721399422
 20
6.7336555817
 30
0.0
 40
0.9228126320838113
100
AcDbArc
 50
40.7734251396
 51
42.6305777818
  0
LINE
  5
2C0
330
1F
100
AcDbEntity
  8
0
  6
Continuous
 62
     7
370
     0
100
AcDbLine
 10
8.1610662811
 20
7.3305908374
 30
0.0
 11
8.1709841425
 21
7.3363162969
 31
0.0
  0
ARC
  5
2C1
330
1F
100
AcDbEntity
  8
0
  6
Continuous
 62
     7
370
     0
100
AcDbCircle
 10
7.4643701973
 20
6.7298269756
 30
0.0
 40
0.9199470913751793
100
AcDbArc
 50
40.7713315962
 51
42.949767039
  0
LINE
  5
2C2
330
1F
100
AcDbEntity
  8
0
  6
Continuous
 62
     7
370
     0
100
AcDbLine
 10
8.1255245285
 20
7.3495951013
 30
0.0
 11
8.1377267121
 21
7.356639272
 31
0.0
  0
ARC
  5
2C3
330
1F
100
AcDbEntity
  8
0
  6
Continuous
 62
     7
370
     0
100
AcDbCircle
 10
7.4427121852
 20
6.7142755711
 30
0.0
 40
0.9326647852592556
100
AcDbArc
 50
39.3006262992
 51
42.9365030153
  0
LINE
  5
2C4
330
1F
100
AcDbEntity
  8
0
  6
Continuous
 62
     7
370
     0
100
AcDbLine
 10
8.2212373635
 20
7.3378043542
 30
0.0
 11
8.1644392409
 21
7.3050154959
 31
0.0
  0
ARC
  5
2C5
330
1F
100
AcDbEntity
  8
0
  6
Continuous
 62
     7
370
     0
100
AcDbCircle
 10
7.4855487883
 20
6.7352811574
 30
0.0
 40
0.950932112351434
100
AcDbArc
 50
39.3172083537
 51
40.7757865583
  0
LWPOLYLINE
  5
2C6
330
1F
100
AcDbEntity
  8
0
  6
Continuous
 62
     7
370
     0
100
AcDbPolyline
 90
       75
 70
   128
 43
0.0
 10
7.3645849011
 20
6.2223319723
 10
7.3625126444
 20
6.1878444734
 10
7.3578272319
 20
6.1551970062
 10
7.3505624221
 20
6.1246247964
 10
7.3407705581
 20
6.0963481174
 10
7.3285221905
 20
6.0705707034
 10
7.3139055691
 20
6.0474782813
 10
7.297026007
 20
6.0272372324
 10
7.2780051218
 20
6.0099933941
 10
7.2569799595
 20
5.9958710085
 10
7.2341020067
 20
5.9849718277
 10
7.2095360998
 20
5.9773743807
 10
7.1834592365
 20
5.9731334071
 10
7.1560593013
 20
5.9722794634
 10
7.1275337114
 20
5.9748187021
 10
7.0980879943
 20
5.980732828
 10
7.067934307
 20
5.9899792298
 10
7.0372899076
 20
6.0024912868
 10
7.0063755896
 20
6.0181788494
 10
6.9754140915
 20
6.0369288883
 10
6.9446284915
 20
6.0586063092
 10
6.9142406006
 20
6.0830549256
 10
6.8844693643
 20
6.1100985848
 10
6.8555292849
 20
6.1395424365
 10
6.8276288765
 20
6.1711743372
 10
6.800969162
 20
6.2047663782
 10
6.7757422254
 20
6.2400765281
 10
6.7521298273
 20
6.2768503766
 10
6.7303020955
 20
6.3148229671
 10
6.7104162995
 20
6.3537207063
 10
6.6926157167
 20
6.3932633351
 10
6.6770286009
 20
6.433165948
 10
6.6637672575
 20
6.4731410456
 10
6.6529272348
 20
6.5129006065
 10
6.6445866354
 20
6.5521581622
 10
6.6388055536
 20
6.5906308611
 10
6.6356256421
 20
6.6280415065
 10
6.6350698124
 20
6.6641205538
 10
6.6371420691
 20
6.6986080527
 10
6.6418274816
 20
6.7312555199
 10
6.6490922914
 20
6.7618277297
 10
6.6588841554
 20
6.7901044087
 10
6.671132523
 20
6.8158818227
 10
6.6857491444
 20
6.8389742448
 10
6.7026287065
 20
6.8592152937
 10
6.7216495917
 20
6.876459132
 10
6.742674754
 20
6.8905815177
 10
6.7655527068
 20
6.9014806984
 10
6.7901186137
 20
6.9090781454
 10
6.816195477
 20
6.913319119
 10
6.8435954122
 20
6.9141730628
 10
6.8721210021
 20
6.911633824
 10
6.9015667192
 20
6.9057196981
 10
6.9317204065
 20
6.8964732964
 10
6.9623648059
 20
6.8839612394
 10
6.9932791239
 20
6.8682736768
 10
7.024240622
 20
6.8495236378
 10
7.055026222
 20
6.8278462169
 10
7.0854141129
 20
6.8033976005
 10
7.1151853492
 20
6.7763539413
 10
7.1441254286
 20
6.7469100896
 10
7.172025837
 20
6.715278189
 10
7.1986855515
 20
6.6816861479
 10
7.2239124881
 20
6.646375998
 10
7.2475248862
 20
6.6096021495
 10
7.269352618
 20
6.571629559
 10
7.289238414
 20
6.5327318198
 10
7.3070389968
 20
6.493189191
 10
7.3226261126
 20
6.4532865782
 10
7.335887456
 20
6.4133114805
 10
7.3467274787
 20
6.3735519196
 10
7.3550680781
 20
6.3342943639
 10
7.3608491599
 20
6.295821665
 10
7.3640290714
 20
6.2584110196
 10
7.3645849011
 20
6.2223319723
  0
LWPOLYLINE
  5
2C7
330
1F
100
AcDbEntity
  8
0
  6
Continuous
 62
     7
370
     0
100
AcDbPolyline
 90
       47
 70
   128
 43
0.0
 10
6.8771266787
 20
6.9108559191
 10
6.849905557
 20
6.9122085224
 10
6.8230887499
 20
6.9102278016
 10
6.7976711295
 20
6.9048419108
 10
6.7738408789
 20
6.8960907254
 10
6.7517744289
 20
6.8840390359
 10
6.7316351518
 20
6.868776069
 10
6.7135721518
 20
6.8504148262
 10
6.697719161
 20
6.8290912478
 10
6.6841935494
 20
6.8049632061
 10
6.6730954559
 20
6.7782093366
 10
6.664507047
 20
6.7490277158
 10
6.6584919081
 20
6.717634394
 10
6.6550945733
 20
6.6842617964
 10
6.6543401952
 20
6.6491570021
 10
6.656234359
 20
6.6125799148
 10
6.660763041
 20
6.5748013382
 10
6.6678927124
 20
6.5361009719
 10
6.6775705875
 20
6.4967653398
 10
6.6897250149
 20
6.4570856691
 10
6.7042660073
 20
6.4173557343
 10
6.7210859084
 20
6.3778696819
 10
6.7400601895
 20
6.3389198527
 10
6.7610483716
 20
6.3007946178
 10
6.7838950656
 20
6.263776243
 10
6.8084311226
 20
6.2281387994
 10
6.8344748861
 20
6.1941461341
 10
6.8618335374
 20
6.162049917
 10
6.8903045223
 20
6.1320877773
 10
6.9196770519
 20
6.1044815441
 10
6.9497336621
 20
6.0794356043
 10
6.9802518244
 20
6.0571353893
 10
7.0110055928
 20
6.0377460021
 10
7.0417672773
 20
6.0214109949
 10
7.0723091292
 20
6.0082513064
 10
7.1024050272
 20
5.9983643664
 10
7.1318321518
 20
5.9918233742
 10
7.1603726349
 20
5.9886767571
 10
7.1878151728
 20
5.9889478116
 10
7.2139565905
 20
5.9926345308
 10
7.2386033461
 20
5.9997096197
 10
7.2615729637
 20
6.0101206966
 10
7.2826953841
 20
6.0237906816
 10
7.3018142245
 20
6.040618367
 10
7.3187879356
 20
6.0604791664
 10
7.33349085
 20
6.0832260374
 10
7.3434242657
 20
6.1031172868
  0
SPLINE
  5
2C8
330
1F
100
AcDbEntity
  8
0
  6
Continuous
 62
     7
370
     0
100
AcDbSpline
210
0.0
220
0.0
230
1.0
 70
     8
 71
     3
 72
    14
 73
    10
 74
     0
 42
0.00000001
 43
0.00000001
 40
0.0
 40
0.0
 40
0.0
 40
0.0
 40
0.5001598129721978
 40
0.6334839770305709
 40
0.7547008492912487
 40
0.816082388886142
 40
0.8744466572149299
 40
0.9383930382602738
 40
1.0
 40
1.0
 40
1.0
 40
1.0
 10
7.07269366260907
 20
6.984524814695532
 30
0.0
 10
7.076380218799161
 20
6.98670096583646
 30
0.0
 10
7.081049474937451
 20
6.989457198631701
 30
0.0
 10
7.085183817970158
 20
6.993346719496633
 30
0.0
 10
7.086228492010109
 20
6.995159144856018
 30
0.0
 10
7.086420438551273
 20
6.996588730557889
 30
0.0
 10
7.086098089668234
 20
6.997656424499907
 30
0.0
 10
7.085325316228909
 20
6.998650249917764
 30
0.0
 10
7.084446304385937
 20
6.999182304800274
 30
0.0
 10
7.084014987721819
 20
6.999443375386395
 30
0.0
  0
ARC
  5
2C9
330
1F
100
AcDbEntity
  8
0
  6
Continuous
 62
     7
370
     0
100
AcDbCircle
 10
7.0767580362
 20
6.9737033503
 30
0.0
 40
0.0267434522367002
100
AcDbArc
 50
74.2551268897
 51
134.3672986773
  0
SPLINE
  5
2CA
330
1F
100
AcDbEntity
  8
0
  6
Continuous
 62
     7
370
     0
100
AcDbSpline
210
0.0
220
0.0
230
1.0
 70
     8
 71
     3
 72
    14
 73
    10
 74
     0
 42
0.00000001
 43
0.00000001
 40
0.0
 40
0.0
 40
0.0
 40
0.0
 40
0.5003034315360624
 40
0.6254176539424309
 40
0.7501401738686495
 40
0.8143424488264251
 40
0.875038356694761
 40
0.9374874297320029
 40
1.0
 40
1.0
 40
1.0
 40
1.0
 10
7.058057531655873
 20
6.992821492606262
 30
0.0
 10
7.05428764290875
 20
6.990599412550278
 30
0.0
 10
7.049574992890319
 20
6.987821642085625
 30
0.0
 10
7.045270304570205
 20
6.983955916797139
 30
0.0
 10
7.04416742257741
 20
6.982146480959867
 30
0.0
 10
7.044037520934998
 20
6.980660662347633
 30
0.0
 10
7.044419180969954
 20
6.979574351959245
 30
0.0
 10
7.045257873477775
 20
6.978577447081108
 30
0.0
 10
7.046163363873834
 20
6.978043938343276
 30
0.0
 10
7.046616339126988
 20
6.977777048427457
 30
0.0
  0
ARC
  5
2CB
330
1F
100
AcDbEntity
  8
0
  6
Continuous
 62
     7
370
     0
100
AcDbCircle
 10
7.0538757036
 20
7.0034855233
 30
0.0
 40
0.0267137427373881
100
AcDbArc
 50
254.2317833771
 51
314.7835045889
  0
ARC
  5
2CC
330
1F
100
AcDbEntity
  8
0
  6
Continuous
 62
     7
370
     0
100
AcDbCircle
 10
6.7154729524
 20
6.2789841677
 30
0.0
 40
1.035712748908409
100
AcDbArc
 50
27.7912165387
 51
28.3877565987
  0
SPLINE
  5
2CD
330
1F
100
AcDbEntity
  8
0
  6
Continuous
 62
     7
370
     0
100
AcDbSpline
210
0.0
220
0.0
230
1.0
 70
     8
 71
     3
 72
    12
 73
     8
 74
     0
 42
0.00000001
 43
0.00000001
 40
0.0
 40
0.0
 40
0.0
 40
0.0
 40
0.2508758277602188
 40
0.5006089009257133
 40
0.6255741322471757
 40
0.7506852523712112
 40
1.0
 40
1.0
 40
1.0
 40
1.0
 10
7.626641437785422
 20
6.771399530498897
 30
0.0
 10
7.626028141982737
 20
6.772472044387791
 30
0.0
 10
7.624804343976905
 20
6.774612186799835
 30
0.0
 10
7.622742271658134
 20
6.776986434545504
 30
0.0
 10
7.620680651612338
 20
6.778026307910757
 30
0.0
 10
7.618518865850318
 20
6.778362261955144
 30
0.0
 10
7.617112557676928
 20
6.777729044549364
 30
0.0
 10
7.616176155046841
 20
6.777307411186627
 30
0.0
  0
SPLINE
  5
2CE
330
1F
100
AcDbEntity
  8
0
  6
Continuous
 62
     7
370
     0
100
AcDbSpline
210
0.0
220
0.0
230
1.0
 70
     8
 71
     3
 72
    13
 73
     9
 74
     0
 42
0.00000001
 43
0.00000001
 40
0.0
 40
0.0
 40
0.0
 40
0.0
 40
0.1252642250000332
 40
0.2502628772394728
 40
0.3767307195428176
 40
0.5001238771616543
 40
0.7494666677386611
 40
1.0
 40
1.0
 40
1.0
 40
1.0
 10
7.616176155046841
 20
6.777307411186627
 30
0.0
 10
7.615763994424578
 20
6.777035302313578
 30
0.0
 10
7.614940547002041
 20
6.776491661465669
 30
0.0
 10
7.613995192627616
 20
6.775268715237689
 30
0.0
 10
7.613415241208093
 20
6.773758955105931
 30
0.0
 10
7.613282787272643
 20
6.771463530699087
 30
0.0
 10
7.61416366368148
 20
6.768532530874559
 30
0.0
 10
7.615251689679816
 20
6.766396802352016
 30
0.0
 10
7.615796998340294
 20
6.765326394786798
 30
0.0
  0
ARC
  5
2CF
330
1F
100
AcDbEntity
  8
0
  6
Continuous
 62
     7
370
     0
100
AcDbCircle
 10
6.7046918382
 20
6.2727609947
 30
0.0
 40
1.035728384404329
100
AcDbArc
 50
27.7912195663
 51
28.3967239911
  0
LINE
  5
2D0
330
1F
100
AcDbEntity
  8
0
  6
Continuous
 62
     7
370
     0
100
AcDbLine
 10
7.6209514779
 20
6.7556704674
 30
0.0
 11
7.6317187857
 21
6.7618863019
 31
0.0
  0
ARC
  5
2D1
330
1F
100
AcDbEntity
  8
0
  6
Continuous
 62
     7
370
     0
100
AcDbCircle
 10
6.7376317906
 20
6.2917832929
 30
0.0
 40
1.035889837016672
100
AcDbArc
 50
27.7912534992
 51
28.4908738947
  0
SPLINE
  5
2D2
330
1F
100
AcDbEntity
  8
0
  6
Continuous
 62
     7
370
     0
100
AcDbSpline
210
0.0
220
0.0
230
1.0
 70
     8
 71
     3
 72
    13
 73
     9
 74
     0
 42
0.00000001
 43
0.00000001
 40
0.0
 40
0.0
 40
0.0
 40
0.0
 40
0.2576868080724474
 40
0.4999433752798689
 40
0.6237499127122679
 40
0.7488287378893457
 40
0.8752064661084246
 40
1.0
 40
1.0
 40
1.0
 40
1.0
 10
7.64806822446658
 20
6.785922194688132
 30
0.0
 10
7.647363413949646
 20
6.787131508010142
 30
0.0
 10
7.645995996845897
 20
6.789477721184571
 30
0.0
 10
7.643734325097442
 20
6.79206328201475
 30
0.0
 10
7.641520708146693
 20
6.793273032903983
 30
0.0
 10
7.639746580077381
 20
6.793632633124737
 30
0.0
 10
7.638013163926929
 20
6.793468635066986
 30
0.0
 10
7.637009413886376
 20
6.792967641753083
 30
0.0
 10
7.6365107043061
 20
6.792718725035571
 30
0.0
  0
SPLINE
  5
2D3
330
1F
100
AcDbEntity
  8
0
  6
Continuous
 62
     7
370
     0
100
AcDbSpline
210
0.0
220
0.0
230
1.0
 70
     8
 71
     3
 72
    13
 73
     9
 74
     0
 42
0.00000001
 43
0.00000001
 40
0.0
 40
0.0
 40
0.0
 40
0.0
 40
0.1296897594762947
 40
0.24960828340746
 40
0.3753937891383292
 40
0.4998958881043847
 40
0.7495309619035659
 40
0.9999999999999999
 40
0.9999999999999999
 40
0.9999999999999999
 40
0.9999999999999999
 10
7.6365107043061
 20
6.792718725035571
 30
0.0
 10
7.636039099588011
 20
6.792397830402343
 30
0.0
 10
7.635131422338823
 20
6.791780218349718
 30
0.0
 10
7.634186863592005
 20
6.790321040311099
 30
0.0
 10
7.633677804635182
 20
6.788592616990273
 30
0.0
 10
7.633706118374762
 20
6.786007173007767
 30
0.0
 10
7.634757687890011
 20
6.782782064884177
 30
0.0
 10
7.635975707682327
 20
6.780407736674553
 30
0.0
 10
7.636585733152039
 20
6.779218592877004
 30
0.0
  0
ARC
  5
2D4
330
1F
100
AcDbEntity
  8
0
  6
Continuous
 62
     7
370
     0
100
AcDbCircle
 10
6.7261236965
 20
6.2851395706
 30
0.0
 40
1.035883777484649
100
AcDbArc
 50
27.7912521368
 51
28.4872874863
  0
LINE
  5
2D5
330
1F
100
AcDbEntity
  8
0
  6
Continuous
 62
     7
370
     0
100
AcDbLine
 10
7.6425205305
 20
6.7681220165
 30
0.0
 11
7.6540339737
 21
6.7747685858
 31
0.0
  0
ARC
  5
2D6
330
1F
100
AcDbEntity
  8
0
  6
Continuous
 62
     7
370
     0
100
AcDbCircle
 10
6.7192278372
 20
6.2815505956
 30
0.0
 40
1.031173571258569
100
AcDbArc
 50
32.6085956097
 51
33.2068850286
  0
SPLINE
  5
2D7
330
1F
100
AcDbEntity
  8
0
  6
Continuous
 62
     7
370
     0
100
AcDbSpline
210
0.0
220
0.0
230
1.0
 70
     8
 71
     3
 72
    12
 73
     8
 74
     0
 42
0.00000001
 43
0.00000001
 40
0.0
 40
0.0
 40
0.0
 40
0.0
 40
0.2508758277601909
 40
0.5006089009256631
 40
0.6255741322632166
 40
0.7506852523712529
 40
1.0
 40
1.0
 40
1.0
 40
1.0
 10
7.582009226498626
 20
6.846287001673067
 30
0.0
 10
7.581308401612905
 20
6.847303626982526
 30
0.0
 10
7.579909944141274
 20
6.84933224681157
 30
0.0
 10
7.577631117401465
 20
6.851563752256733
 30
0.0
 10
7.575434439023995
 20
6.852513474040252
 30
0.0
 10
7.573176968596527
 20
6.852785011716269
 30
0.0
 10
7.57175990141996
 20
6.85214447964027
 30
0.0
 10
7.570816334813212
 20
6.851717975740201
 30
0.0
  0
SPLINE
  5
2D8
330
1F
100
AcDbEntity
  8
0
  6
Continuous
 62
     7
370
     0
100
AcDbSpline
210
0.0
220
0.0
230
1.0
 70
     8
 71
     3
 72
    13
 73
     9
 74
     0
 42
0.00000001
 43
0.00000001
 40
0.0
 40
0.0
 40
0.0
 40
0.0
 40
0.1252642250000799
 40
0.2502628772395696
 40
0.376730719547507
 40
0.5001238771614248
 40
0.7494666677385647
 40
1.0
 40
1.0
 40
1.0
 40
1.0
 10
7.570816334813212
 20
6.851717975740201
 30
0.0
 10
7.570406234742737
 20
6.85144726276153
 30
0.0
 10
7.5695869040552
 20
6.850906410742939
 30
0.0
 10
7.56868240926752
 20
6.84971108471638
 30
0.0
 10
7.568173453811363
 20
6.848249082379895
 30
0.0
 10
7.568175404023267
 20
6.846043337661289
 30
0.0
 10
7.569265438013478
 20
6.843250049681392
 30
0.0
 10
7.570523000545772
 20
6.841222667884936
 30
0.0
 10
7.57115327936356
 20
6.840206562706022
 30
0.0
  0
ARC
  5
2D9
330
1F
100
AcDbEntity
  8
0
  6
Continuous
 62
     7
370
     0
100
AcDbCircle
 10
6.7084815511
 20
6.2753483135
 30
0.0
 40
1.031148559856752
100
AcDbArc
 50
32.6085907389
 51
33.2158867431
  0
LINE
  5
2DA
330
1F
100
AcDbEntity
  8
0
  6
Continuous
 62
     7
370
     0
100
AcDbLine
 10
7.5770918195
 20
6.8310312754
 30
0.0
 11
7.5878591273
 21
6.8372471098
 31
0.0
  0
ARC
  5
2DB
330
1F
100
AcDbEntity
  8
0
  6
Continuous
 62
     7
370
     0
100
AcDbCircle
 10
6.7417869861
 20
6.2945902533
 30
0.0
 40
1.03088325726133
100
AcDbArc
 50
32.608534616
 51
33.310418386
  0
SPLINE
  5
2DC
330
1F
100
AcDbEntity
  8
0
  6
Continuous
 62
     7
370
     0
100
AcDbSpline
210
0.0
220
0.0
230
1.0
 70
     8
 71
     3
 72
    13
 73
     9
 74
     0
 42
0.00000001
 43
0.00000001
 40
0.0
 40
0.0
 40
0.0
 40
0.0
 40
0.2576868080717308
 40
0.4999433752793113
 40
0.6237499127065131
 40
0.7488287379042573
 40
0.8752064661318751
 40
1.0
 40
1.0
 40
1.0
 40
1.0
 10
7.603303872218451
 20
6.860725347584655
 30
0.0
 10
7.602500263054487
 20
6.86187076740455
 30
0.0
 10
7.600941164702329
 20
6.864093019506456
 30
0.0
 10
7.598443970256783
 20
6.866521049019087
 30
0.0
 10
7.59608044552508
 20
6.867629047010172
 30
0.0
 10
7.594223161374468
 20
6.867931680555503
 30
0.0
 10
7.592439557546609
 20
6.867733094676865
 30
0.0
 10
7.59143110515414
 20
6.867228851671924
 30
0.0
 10
7.590930059227373
 20
6.866978320357195
 30
0.0
  0
SPLINE
  5
2DD
330
1F
100
AcDbEntity
  8
0
  6
Continuous
 62
     7
370
     0
100
AcDbSpline
210
0.0
220
0.0
230
1.0
 70
     8
 71
     3
 72
    13
 73
     9
 74
     0
 42
0.00000001
 43
0.00000001
 40
0.0
 40
0.0
 40
0.0
 40
0.0
 40
0.129689759473111
 40
0.2496082833904831
 40
0.3753937891277116
 40
0.4998958881047307
 40
0.7495309619037267
 40
1.0
 40
1.0
 40
1.0
 40
1.0
 10
7.590930059227373
 20
6.866978320357195
 30
0.0
 10
7.590461369701971
 20
6.866659440718394
 30
0.0
 10
7.589559303198389
 20
6.86604570683861
 30
0.0
 10
7.588669570556801
 20
6.864624297878295
 30
0.0
 10
7.588246734289485
 20
6.86295490624365
 30
0.0
 10
7.588431885494651
 20
6.860475803325062
 30
0.0
 10
7.589715517997681
 20
6.857405658427389
 30
0.0
 10
7.5911217042518
 20
6.855152932173525
 30
0.0
 10
7.591825969843856
 20
6.854024690744432
 30
0.0
  0
ARC
  5
2DE
330
1F
100
AcDbEntity
  8
0
  6
Continuous
 62
     7
370
     0
100
AcDbCircle
 10
6.7302649761
 20
6.2879381542
 30
0.0
 40
1.030893453702392
100
AcDbArc
 50
32.6085369225
 51
33.3068167206
  0
LINE
  5
2DF
330
1F
100
AcDbEntity
  8
0
  6
Continuous
 62
     7
370
     0
100
AcDbLine
 10
7.5986608721
 20
6.8434828244
 30
0.0
 11
7.6101743153
 21
6.8501293937
 31
0.0
  0
SPLINE
  5
2E0
330
1F
100
AcDbEntity
  8
0
  6
Continuous
 62
     7
370
     0
100
AcDbSpline
210
0.0
220
0.0
230
1.0
 70
    24
 71
     1
 72
     4
 73
     2
 74
     0
 42
0.00000001
 43
0.00000001
 40
0.0
 40
0.0
 40
1.0
 40
1.0
 10
7.524463536888664
 20
6.91168642581546
 30
0.0
 10
7.550182245707027
 20
6.916632695839898
 30
0.0
  0
ARC
  5
2E1
330
1F
100
AcDbEntity
  8
0
  6
Continuous
 62
     7
370
     0
100
AcDbCircle
 10
6.7732947201
 20
6.3187575033
 30
0.0
 40
0.9803106514374036
100
AcDbArc
 50
37.5810724594
 51
38.5953554165
  0
SPLINE
  5
2E2
330
1F
100
AcDbEntity
  8
0
  6
Continuous
 62
     7
370
     0
100
AcDbSpline
210
0.0
220
0.0
230
1.0
 70
    24
 71
     1
 72
     4
 73
     2
 74
     0
 42
0.00000001
 43
0.00000001
 40
0.0
 40
0.0
 40
1.0
 40
1.0
 10
7.53947713896954
 20
6.930291209904271
 30
0.0
 10
7.524463536888664
 20
6.91168642581546
 30
0.0
  0
SPLINE
  5
2E3
330
1F
100
AcDbEntity
  8
0
  6
Continuous
 62
     7
370
     0
100
AcDbSpline
210
0.0
220
0.0
230
1.0
 70
     8
 71
     3
 72
     9
 73
     5
 74
     0
 42
0.00000001
 43
0.00000001
 40
0.0
 40
0.0
 40
0.0
 40
0.0
 40
0.4999994477952499
 40
1.0
 40
1.0
 40
1.0
 40
1.0
 10
7.252262391488093
 20
7.025918989771264
 30
0.0
 10
7.253755644694841
 20
7.025360464489475
 30
0.0
 10
7.256742154406667
 20
7.024243412692216
 30
0.0
 10
7.259620323952072
 20
7.022977949750396
 30
0.0
 10
7.261059410314113
 20
7.022345217580692
 30
0.0
  0
ARC
  5
2E4
330
1F
100
AcDbEntity
  8
0
  6
Continuous
 62
     7
370
     0
100
AcDbCircle
 10
7.2782876891
 20
7.0588533953
 30
0.0
 40
0.0403690553246073
100
AcDbArc
 50
244.7372858473
 51
257.5851155659
  0
ARC
  5
2E5
330
1F
100
AcDbEntity
  8
0
  6
Continuous
 62
     7
370
     0
100
AcDbCircle
 10
7.2706198492
 20
7.0262252063
 30
0.0
 40
0.0068716834554959
100
AcDbArc
 50
261.5390727366
 51
297.7656735324
  0
SPLINE
  5
2E6
330
1F
100
AcDbEntity
  8
0
  6
Continuous
 62
     7
370
     0
100
AcDbSpline
210
0.0
220
0.0
230
1.0
 70
     8
 71
     3
 72
    13
 73
     9
 74
     0
 42
0.00000001
 43
0.00000001
 40
0.0
 40
0.0
 40
0.0
 40
0.0
 40
0.248584528458533
 40
0.3735388535782286
 40
0.4967972082274419
 40
0.6212572301490865
 40
0.7502093099309205
 40
1.0
 40
1.0
 40
1.0
 40
1.0
 10
7.27382106821773
 20
7.020144726915868
 30
0.0
 10
7.274387654403249
 20
7.020554134003564
 30
0.0
 10
7.275239042683543
 20
7.021169335018418
 30
0.0
 10
7.275595390632965
 20
7.022284165105661
 30
0.0
 10
7.27557479519892
 20
7.023146915776138
 30
0.0
 10
7.275240907784904
 20
7.024013935057123
 30
0.0
 10
7.274464273768802
 20
7.025113608643801
 30
0.0
 10
7.273563372880123
 20
7.025817960394489
 30
0.0
 10
7.272969205353823
 20
7.026282498661253
 30
0.0
  0
ARC
  5
2E7
330
1F
100
AcDbEntity
  8
0
  6
Continuous
 62
     7
370
     0
100
AcDbCircle
 10
7.2630483644
 20
7.0130381263
 30
0.0
 40
0.0165480054386728
100
AcDbArc
 50
53.1645556388
 51
119.9922756335
  0
LINE
  5
2E8
330
1F
100
AcDbEntity
  8
0
  6
Continuous
 62
     7
370
     0
100
AcDbLine
 10
7.2547762938
 20
7.0273702347
 30
0.0
 11
7.2522623915
 21
7.0259189898
 31
0.0
  0
ARC
  5
2E9
330
1F
100
AcDbEntity
  8
0
  6
Continuous
 62
     7
370
     0
100
AcDbCircle
 10
6.8218023044
 20
6.3637973293
 30
0.0
 40
0.9003888997764692
100
AcDbArc
 50
42.6198226606
 51
43.2550329714
  0
SPLINE
  5
2EA
330
1F
100
AcDbEntity
  8
0
  6
Continuous
 62
     7
370
     0
100
AcDbSpline
210
0.0
220
0.0
230
1.0
 70
    24
 71
     1
 72
     4
 73
     2
 74
     0
 42
0.00000001
 43
0.00000001
 40
0.0
 40
0.0
 40
1.0
 40
1.0
 10
7.477565245647501
 20
6.980786094006008
 30
0.0
 10
7.472489296508587
 20
6.984868776016986
 30
0.0
  0
ARC
  5
2EB
330
1F
100
AcDbEntity
  8
0
  6
Continuous
 62
     7
370
     0
100
AcDbCircle
 10
7.4674317545
 20
6.978530029
 30
0.0
 40
0.0081091580398898
100
AcDbArc
 50
51.4144299633
 51
116.9860442902
  0
SPLINE
  5
2EC
330
1F
100
AcDbEntity
  8
0
  6
Continuous
 62
     7
370
     0
100
AcDbSpline
210
0.0
220
0.0
230
1.0
 70
     8
 71
     3
 72
    13
 73
     9
 74
     0
 42
0.00000001
 43
0.00000001
 40
0.0
 40
0.0
 40
0.0
 40
0.0
 40
0.1252323796024638
 40
0.250169275991504
 40
0.3766784429474433
 40
0.4998070571085668
 40
0.7494738685101442
 40
1.0
 40
1.0
 40
1.0
 40
1.0
 10
7.463752033806282
 20
6.985756238264383
 30
0.0
 10
7.463292604353291
 20
6.985454696936816
 30
0.0
 10
7.462374829461617
 20
6.984852325762217
 30
0.0
 10
7.461431981210475
 20
6.983591911445045
 30
0.0
 10
7.461020349293271
 20
6.982086316581341
 30
0.0
 10
7.461437027974632
 20
6.979891395167519
 30
0.0
 10
7.463156491998907
 20
6.977279220483004
 30
0.0
 10
7.464872258493483
 20
6.975376298527959
 30
0.0
 10
7.465731615564659
 20
6.974423202962139
 30
0.0
  0
ARC
  5
2ED
330
1F
100
AcDbEntity
  8
0
  6
Continuous
 62
     7
370
     0
100
AcDbCircle
 10
6.810437598
 20
6.3573007149
 30
0.0
 40
0.900139108567856
100
AcDbArc
 50
42.6197626607
 51
43.2816854409
  0
LINE
  5
2EE
330
1F
100
AcDbEntity
  8
0
  6
Continuous
 62
     7
370
     0
100
AcDbLine
 10
7.4728171785
 20
6.9668117534
 30
0.0
 11
7.4843650587
 21
6.9734782027
 31
0.0
  0
SPLINE
  5
2EF
330
1F
100
AcDbEntity
  8
0
  6
Continuous
 62
     7
370
     0
100
AcDbSpline
210
0.0
220
0.0
230
1.0
 70
    24
 71
     1
 72
     4
 73
     2
 74
     0
 42
0.00000001
 43
0.00000001
 40
0.0
 40
0.0
 40
1.0
 40
1.0
 10
7.387098143466709
 20
7.054312487875028
 30
0.0
 10
7.419812486073888
 20
7.052397453162345
 30
0.0
  0
ARC
  5
2F0
330
1F
100
AcDbEntity
  8
0
  6
Continuous
 62
     7
370
     0
100
AcDbCircle
 10
6.9377513758
 20
6.4818985607
 30
0.0
 40
0.7468948388552537
100
AcDbArc
 50
49.802802623
 51
51.2786090827
  0
LINE
  5
2F1
330
1F
100
AcDbEntity
  8
0
  6
Continuous
 62
     7
370
     0
100
AcDbLine
 10
7.4049594771
 20
7.0646236163
 30
0.0
 11
7.3870981435
 21
7.0543124879
 31
0.0
  0
SPLINE
  5
2F2
330
1F
100
AcDbEntity
  8
0
  6
Continuous
 62
     7
370
     0
100
AcDbSpline
210
0.0
220
0.0
230
1.0
 70
     8
 71
     3
 72
    14
 73
    10
 74
     0
 42
0.00000001
 43
0.00000001
 40
0.0
 40
0.0
 40
0.0
 40
0.0
 40
0.5001598129721758
 40
0.6334839770292713
 40
0.7547008492882341
 40
0.8160823888835865
 40
0.8744466572110232
 40
0.9383930382628226
 40
0.9999999999999999
 40
0.9999999999999999
 40
0.9999999999999999
 40
0.9999999999999999
 10
7.358231699606018
 20
7.09178982388066
 30
0.0
 10
7.361918471213537
 20
7.093971344621834
 30
0.0
 10
7.366588000191587
 20
7.096734378354749
 30
0.0
 10
7.370727685508948
 20
7.100794835667057
 30
0.0
 10
7.371776386372455
 20
7.102745326669757
 30
0.0
 10
7.371972335897373
 20
7.104326197517101
 30
0.0
 10
7.371653494460568
 20
7.105538278696171
 30
0.0
 10
7.370884379208761
 20
7.106698621756212
 30
0.0
 10
7.370007576977284
 20
7.107351693444024
 30
0.0
 10
7.369577344533243
 20
7.107672144987478
 30
0.0
  0
SPLINE
  5
2F3
330
1F
100
AcDbEntity
  8
0
  6
Continuous
 62
     7
370
     0
100
AcDbSpline
210
0.0
220
0.0
230
1.0
 70
     8
 71
     3
 72
    14
 73
    10
 74
     0
 42
0.00000001
 43
0.00000001
 40
0.0
 40
0.0
 40
0.0
 40
0.0
 40
0.0625270621852648
 40
0.1249759676500081
 40
0.1874784178578923
 40
0.2499337956408301
 40
0.3634906992466564
 40
0.4998436771421935
 40
1.0
 40
1.0
 40
1.0
 40
1.0
 10
7.369577344533243
 20
7.107672144987478
 30
0.0
 10
7.369093964871507
 20
7.107962932050471
 30
0.0
 10
7.368127809756323
 20
7.108544142702429
 30
0.0
 10
7.366331918479248
 20
7.109114891896741
 30
0.0
 10
7.364423022892379
 20
7.109443051697844
 30
0.0
 10
7.361932228987074
 20
7.109505736908896
 30
0.0
 10
7.358791783435692
 20
7.109034695889613
 30
0.0
 10
7.352003313837082
 20
7.106902460225149
 30
0.0
 10
7.347314050909406
 20
7.104179296353858
 30
0.0
 10
7.343629321558171
 20
7.102039488456639
 30
0.0
  0
SPLINE
  5
2F4
330
1F
100
AcDbEntity
  8
0
  6
Continuous
 62
     7
370
     0
100
AcDbSpline
210
0.0
220
0.0
230
1.0
 70
     8
 71
     3
 72
    14
 73
    10
 74
     0
 42
0.00000001
 43
0.00000001
 40
0.0
 40
0.0
 40
0.0
 40
0.0
 40
0.5003034315361817
 40
0.6254176539425692
 40
0.7501401738688216
 40
0.8143424488258725
 40
0.8750383566947336
 40
0.9374874297319882
 40
1.0
 40
1.0
 40
1.0
 40
1.0
 10
7.343629321558171
 20
7.102039488456639
 30
0.0
 10
7.33985945796759
 20
7.099811850838612
 30
0.0
 10
7.335146839396765
 20
7.097027132995234
 30
0.0
 10
7.330841574366484
 20
7.092996258043651
 30
0.0
 10
7.329737951277875
 20
7.091047013656552
 30
0.0
 10
7.329606681001666
 20
7.08939389777309
 30
0.0
 10
7.329986718326055
 20
7.088153309634958
 30
0.0
 10
7.330823161307912
 20
7.086982298786726
 30
0.0
 10
7.33172659401099
 20
7.086325473578984
 30
0.0
 10
7.332178539894862
 20
7.085996894097578
 30
0.0
  0
SPLINE
  5
2F5
330
1F
100
AcDbEntity
  8
0
  6
Continuous
 62
     7
370
     0
100
AcDbSpline
210
0.0
220
0.0
230
1.0
 70
     8
 71
     3
 72
    14
 73
    10
 74
     0
 42
0.00000001
 43
0.00000001
 40
0.0
 40
0.0
 40
0.0
 40
0.0
 40
0.0625005409549633
 40
0.1249727346346926
 40
0.1854844482499343
 40
0.249874064727076
 40
0.3606505595097583
 40
0.4996888686474952
 40
1.0
 40
1.0
 40
1.0
 40
1.0
 10
7.332178539894862
 20
7.085996894097578
 30
0.0
 10
7.33266404761642
 20
7.085700947407793
 30
0.0
 10
7.333634842856304
 20
7.085109188255577
 30
0.0
 10
7.335413536906222
 20
7.084500606077945
 30
0.0
 10
7.337352199032508
 20
7.084166628595097
 30
0.0
 10
7.339837260499212
 20
7.084135774348732
 30
0.0
 10
7.342981076374715
 20
7.084669416317512
 30
0.0
 10
7.349677634747615
 20
7.086941984429316
 30
0.0
 10
7.354476464080014
 20
7.089661621764661
 30
0.0
 10
7.358231699606018
 20
7.09178982388066
 30
0.0
  0
SPLINE
  5
2F6
330
1F
100
AcDbEntity
  8
0
  6
Continuous
 62
     7
370
     0
100
AcDbSpline
210
0.0
220
0.0
230
1.0
 70
     8
 71
     3
 72
    14
 73
    10
 74
     0
 42
0.00000001
 43
0.00000001
 40
0.0
 40
0.0
 40
0.0
 40
0.0
 40
0.5001598129720343
 40
0.6334839770240935
 40
0.7547008492857722
 40
0.8160823888814744
 40
0.8744466572126997
 40
0.9383930382649835
 40
1.0
 40
1.0
 40
1.0
 40
1.0
 10
7.305397571740364
 20
7.124236764126143
 30
0.0
 10
7.309084136011625
 20
7.126412364631393
 30
0.0
 10
7.313753402385181
 20
7.129167900011757
 30
0.0
 10
7.317888148152055
 20
7.133039905408615
 30
0.0
 10
7.318933175144854
 20
7.134838186068764
 30
0.0
 10
7.319125547737254
 20
7.136252276400607
 30
0.0
 10
7.318803635530751
 20
7.137305184284993
 30
0.0
 10
7.318031402837065
 20
7.138281960822116
 30
0.0
 10
7.317152827085146
 20
7.138801629427787
 30
0.0
 10
7.316721724403783
 20
7.139056622271415
 30
0.0
  0
ARC
  5
2F7
330
1F
100
AcDbEntity
  8
0
  6
Continuous
 62
     7
370
     0
100
AcDbCircle
 10
7.309643523
 20
7.1129257235
 30
0.0
 40
0.0270725840492902
100
AcDbArc
 50
74.8437196076
 51
134.2023636269
  0
SPLINE
  5
2F8
330
1F
100
AcDbEntity
  8
0
  6
Continuous
 62
     7
370
     0
100
AcDbSpline
210
0.0
220
0.0
230
1.0
 70
     8
 71
     3
 72
    14
 73
    10
 74
     0
 42
0.00000001
 43
0.00000001
 40
0.0
 40
0.0
 40
0.0
 40
0.0
 40
0.5003034315362136
 40
0.6254176539426117
 40
0.7501401738688651
 40
0.8143424488268379
 40
0.8750383566947249
 40
0.9374874297319844
 40
1.0
 40
1.0
 40
1.0
 40
1.0
 10
7.290768661484225
 20
7.13233356753164
 30
0.0
 10
7.286998740553031
 20
7.130112055171092
 30
0.0
 10
7.282286050302043
 20
7.127334994369267
 30
0.0
 10
7.277980532728964
 20
7.123486150658616
 30
0.0
 10
7.276876973003809
 20
7.121691008291412
 30
0.0
 10
7.276746306632941
 20
7.120222297788467
 30
0.0
 10
7.277127296070393
 20
7.119151767329758
 30
0.0
 10
7.277965271948446
 20
7.118172674197446
 30
0.0
 10
7.27887029935049
 20
7.117651785379879
 30
0.0
 10
7.279323042989005
 20
7.117391208630497
 30
0.0
  0
ARC
  5
2F9
330
1F
100
AcDbEntity
  8
0
  6
Continuous
 62
     7
370
     0
100
AcDbCircle
 10
7.2864078831
 20
7.1434866035
 30
0.0
 40
0.0270400552911589
100
AcDbArc
 50
254.8104729831
 51
314.610212111
  0
ARC
  5
2FA
330
1F
100
AcDbEntity
  8
0
  6
Continuous
 62
     7
370
     0
100
AcDbCircle
 10
7.0567006949
 20
7.1206536832
 30
0.0
 40
0.0211370971045103
100
AcDbArc
 50
262.8331562546
 51
286.5527351228
  0
ARC
  5
2FB
330
1F
100
AcDbEntity
  8
0
  6
Continuous
 62
     7
370
     0
100
AcDbCircle
 10
7.0525873881
 20
7.1366313256
 30
0.0
 40
0.0376293953805909
100
AcDbArc
 50
285.6251806272
 51
297.5410538362
  0
ARC
  5
2FC
330
1F
100
AcDbEntity
  8
0
  6
Continuous
 62
     7
370
     0
100
AcDbCircle
 10
7.0090218715
 20
6.7877574877
 30
0.0
 40
0.3213446541544893
100
AcDbArc
 50
79.0636935737
 51
81.7120237799
  0
SPLINE
  5
2FD
330
1F
100
AcDbEntity
  8
0
  6
Continuous
 62
     7
370
     0
100
AcDbSpline
210
0.0
220
0.0
230
1.0
 70
     8
 71
     3
 72
    13
 73
     9
 74
     0
 42
0.00000001
 43
0.00000001
 40
0.0
 40
0.0
 40
0.0
 40
0.0
 40
0.2503831206489241
 40
0.4995031561263282
 40
0.6232338939558771
 40
0.7495671229800712
 40
0.8746833959388284
 40
0.9999999999999999
 40
0.9999999999999999
 40
0.9999999999999999
 40
0.9999999999999999
 10
7.055343234637931
 20
7.105746037945801
 30
0.0
 10
7.054416832006559
 20
7.105111916281365
 30
0.0
 10
7.05256870008371
 20
7.103846871848928
 30
0.0
 10
7.051103674900258
 20
7.102238477313862
 30
0.0
 10
7.05105358050199
 20
7.101144720223287
 30
0.0
 10
7.051590444493864
 20
7.100477085742114
 30
0.0
 10
7.052615527448414
 20
7.099978558606408
 30
0.0
 10
7.05358068506634
 20
7.099780724871477
 30
0.0
 10
7.05406364990906
 20
7.09968172887652
 30
0.0
  0
SPLINE
  5
2FE
330
1F
100
AcDbEntity
  8
0
  6
Continuous
 62
     7
370
     0
100
AcDbSpline
210
0.0
220
0.0
230
1.0
 70
     8
 71
     3
 72
    13
 73
     9
 74
     0
 42
0.00000001
 43
0.00000001
 40
0.0
 40
0.0
 40
0.0
 40
0.0
 40
0.2502837930806096
 40
0.499633529826202
 40
0.6262055894795876
 40
0.7498197801867975
 40
0.8748231480904313
 40
0.9999999999999999
 40
0.9999999999999999
 40
0.9999999999999999
 40
0.9999999999999999
 10
7.012498963388214
 20
7.110784275123286
 30
0.0
 10
7.011408676547537
 20
7.110132366955817
 30
0.0
 10
7.009232171804558
 20
7.10883098353492
 30
0.0
 10
7.007338661241745
 20
7.107261623415585
 30
0.0
 10
7.00688012462618
 20
7.106266231363868
 30
0.0
 10
7.007138015125319
 20
7.105708526254986
 30
0.0
 10
7.007927551030646
 20
7.105349236221017
 30
0.0
 10
7.008877051837958
 20
7.105308602682784
 30
0.0
 10
7.009352131450702
 20
7.105288271825285
 30
0.0
  0
ARC
  5
2FF
330
1F
100
AcDbEntity
  8
0
  6
Continuous
 62
     7
370
     0
100
AcDbCircle
 10
7.0059017354
 20
7.1397013104
 30
0.0
 40
0.0345855816620898
100
AcDbArc
 50
275.7255809083
 51
303.7484656186
  0
SPLINE
  5
300
330
1F
100
AcDbEntity
  8
0
  6
Continuous
 62
     7
370
     0
100
AcDbSpline
210
0.0
220
0.0
230
1.0
 70
     8
 71
     3
 72
    13
 73
     9
 74
     0
 42
0.00000001
 43
0.00000001
 40
0.0
 40
0.0
 40
0.0
 40
0.0
 40
0.2503895108604047
 40
0.4999174635822791
 40
0.6260458464254507
 40
0.7500378636041956
 40
0.8749142295199109
 40
1.0
 40
1.0
 40
1.0
 40
1.0
 10
7.025115684912803
 20
7.110943935690506
 30
0.0
 10
7.026188522336945
 20
7.111581629173997
 30
0.0
 10
7.028330505689483
 20
7.112854821919623
 30
0.0
 10
7.03030612997486
 20
7.114434613018816
 30
0.0
 10
7.030959850655189
 20
7.115505905437377
 30
0.0
 10
7.030868192224784
 20
7.116138761506343
 30
0.0
 10
7.03022287928738
 20
7.116571351326517
 30
0.0
 10
7.029309447233334
 20
7.116621868508874
 30
0.0
 10
7.02885234859468
 20
7.116647148260315
 30
0.0
  0
ARC
  5
301
330
1F
100
AcDbEntity
  8
0
  6
Continuous
 62
     7
370
     0
100
AcDbCircle
 10
7.032442704
 20
7.0808937379
 30
0.0
 40
0.0359332297724358
100
AcDbArc
 50
95.7344147906
 51
123.7122445201
  0
SPLINE
  5
302
330
1F
100
AcDbEntity
  8
0
  6
Continuous
 62
     7
370
     0
100
AcDbSpline
210
0.0
220
0.0
230
1.0
 70
     8
 71
     3
 72
    14
 73
    10
 74
     0
 42
0.00000001
 43
0.00000001
 40
0.0
 40
0.0
 40
0.0
 40
0.0
 40
0.5001598129721061
 40
0.6334839770248523
 40
0.7547008492878114
 40
0.8160823888832209
 40
0.8744466572125893
 40
0.9383930382647628
 40
0.9999999999999999
 40
0.9999999999999999
 40
0.9999999999999999
 40
0.9999999999999999
 10
7.175972757587733
 20
7.170783635847398
 30
0.0
 10
7.179661638299895
 20
7.172943078221903
 30
0.0
 10
7.184333838592086
 20
7.175678148309657
 30
0.0
 10
7.188545911945927
 20
7.179037103325095
 30
0.0
 10
7.189654078401776
 20
7.180421245147275
 30
0.0
 10
7.189916604696339
 20
7.181381902845057
 30
0.0
 10
7.189662388205646
 20
7.182002327141388
 30
0.0
 10
7.188969142434425
 20
7.182480672177297
 30
0.0
 10
7.188149032900411
 20
7.182638499232604
 30
0.0
 10
7.187746618631231
 20
7.182715942374628
 30
0.0
  0
ARC
  5
303
330
1F
100
AcDbEntity
  8
0
  6
Continuous
 62
     7
370
     0
100
AcDbCircle
 10
7.189739632
 20
7.1391434201
 30
0.0
 40
0.0436180788156478
100
AcDbArc
 50
92.6188917021
 51
128.9966051715
  0
SPLINE
  5
304
330
1F
100
AcDbEntity
  8
0
  6
Continuous
 62
     7
370
     0
100
AcDbSpline
210
0.0
220
0.0
230
1.0
 70
     8
 71
     3
 72
    14
 73
    10
 74
     0
 42
0.00000001
 43
0.00000001
 40
0.0
 40
0.0
 40
0.0
 40
0.0
 40
0.5003034315361566
 40
0.6254176539425407
 40
0.7501401738687881
 40
0.8143424488249231
 40
0.8750383566947442
 40
0.9374874297319926
 40
0.9999999999999999
 40
0.9999999999999999
 40
0.9999999999999999
 40
0.9999999999999999
 10
7.162291894064
 20
7.173042660261324
 30
0.0
 10
7.15851898849047
 20
7.170837653983811
 30
0.0
 10
7.153802567207691
 20
7.168081227051507
 30
0.0
 10
7.149411491006095
 20
7.164724043238765
 30
0.0
 10
7.148236099439065
 20
7.163345340679
 30
0.0
 10
7.148020618020992
 20
7.162375371765359
 30
0.0
 10
7.148324246205005
 20
7.16176508581761
 30
0.0
 10
7.149075907869555
 20
7.161305756066164
 30
0.0
 10
7.149920899184481
 20
7.161153414714521
 30
0.0
 10
7.150343609526256
 20
7.161077205333807
 30
0.0
  0
ARC
  5
305
330
1F
100
AcDbEntity
  8
0
  6
Continuous
 62
     7
370
     0
100
AcDbCircle
 10
7.14862058
 20
7.2043159416
 30
0.0
 40
0.0432730533714382
100
AcDbArc
 50
272.2819841559
 51
309.2039978314
  0
ARC
  5
306
330
1F
100
AcDbEntity
  8
0
  6
Continuous
 62
     7
370
     0
100
AcDbCircle
 10
6.9996457208
 20
6.8921547909
 30
0.0
 40
0.2112696629152282
100
AcDbArc
 50
106.1110119217
 51
107.0817910236
  0
ARC
  5
307
330
1F
100
AcDbEntity
  8
0
  6
Continuous
 62
     7
370
     0
100
AcDbCircle
 10
6.957905021
 20
7.0300703338
 30
0.0
 40
0.0671800826856672
100
AcDbArc
 50
107.603300251
 51
120.231657319
  0
SPLINE
  5
308
330
1F
100
AcDbEntity
  8
0
  6
Continuous
 62
     7
370
     0
100
AcDbSpline
210
0.0
220
0.0
230
1.0
 70
     8
 71
     3
 72
    13
 73
     9
 74
     0
 42
0.00000001
 43
0.00000001
 40
0.0
 40
0.0
 40
0.0
 40
0.0
 40
0.1297148784716355
 40
0.2501166036172517
 40
0.3795473458351591
 40
0.5003189319528023
 40
0.7495371040294219
 40
1.0
 40
1.0
 40
1.0
 40
1.0
 10
6.924080023826949
 20
7.088113706143721
 30
0.0
 10
6.923579612403062
 20
7.087819311419899
 30
0.0
 10
6.922614717649054
 20
7.087251658662461
 30
0.0
 10
6.921570463367559
 20
7.086553921712339
 30
0.0
 10
6.920923081681637
 20
7.086033196195898
 30
0.0
 10
6.920801159565386
 20
7.085673403841539
 30
0.0
 10
6.922071221942796
 20
7.085924558785545
 30
0.0
 10
6.923595648053515
 20
7.086385918905333
 30
0.0
 10
6.924359759809592
 20
7.086617173597729
 30
0.0
  0
ARC
  5
309
330
1F
100
AcDbEntity
  8
0
  6
Continuous
 62
     7
370
     0
100
AcDbCircle
 10
6.9869347129
 20
6.8849681593
 30
0.0
 40
0.21113490878058
100
AcDbArc
 50
106.1107885192
 51
107.239962542
  0
LINE
  5
30A
330
1F
100
AcDbEntity
  8
0
  6
Continuous
 62
     7
370
     0
100
AcDbLine
 10
6.9283457135
 20
7.08781115
 30
0.0
 11
6.9410185363
 21
7.0951270149
 31
0.0
  0
SPLINE
  5
30B
330
1F
100
AcDbEntity
  8
0
  6
Continuous
 62
     7
370
     0
100
AcDbSpline
210
0.0
220
0.0
230
1.0
 70
     8
 71
     3
 72
    14
 73
    10
 74
     0
 42
0.00000001
 43
0.00000001
 40
0.0
 40
0.0
 40
0.0
 40
0.0
 40
0.5001598129722092
 40
0.6334839770336956
 40
0.7547008492881576
 40
0.8160823888835126
 40
0.8744466572116107
 40
0.9383930382651273
 40
0.9999999999999999
 40
0.9999999999999999
 40
0.9999999999999999
 40
0.9999999999999999
 10
7.127377070085664
 20
7.174815330982177
 30
0.0
 10
7.131067973521539
 20
7.176968030516901
 30
0.0
 10
7.135742735721067
 20
7.179694560372451
 30
0.0
 10
7.140020350009055
 20
7.1828398913506
 30
0.0
 10
7.141181672532332
 20
7.184051684224631
 30
0.0
 10
7.141502754992715
 20
7.184823768724238
 30
0.0
 10
7.141304662188889
 20
7.185264430302328
 30
0.0
 10
7.140676435659594
 20
7.185535722678363
 30
0.0
 10
7.139903919435096
 20
7.185543378743186
 30
0.0
 10
7.139524858420667
 20
7.185547135448362
 30
0.0
  0
ARC
  5
30C
330
1F
100
AcDbEntity
  8
0
  6
Continuous
 62
     7
370
     0
100
AcDbCircle
 10
7.1505064477
 20
7.1260224491
 30
0.0
 40
0.0605291961098561
100
AcDbArc
 50
100.4528498826
 51
126.5430897699
  0
SPLINE
  5
30D
330
1F
100
AcDbEntity
  8
0
  6
Continuous
 62
     7
370
     0
100
AcDbSpline
210
0.0
220
0.0
230
1.0
 70
     8
 71
     3
 72
    14
 73
    10
 74
     0
 42
0.00000001
 43
0.00000001
 40
0.0
 40
0.0
 40
0.0
 40
0.0
 40
0.5003034315362197
 40
0.6254176539426226
 40
0.750140173868886
 40
0.8143424488273964
 40
0.8750383566947215
 40
0.9374874297319801
 40
1.0
 40
1.0
 40
1.0
 40
1.0
 10
7.11446571998026
 20
7.174652167731094
 30
0.0
 10
7.110690532692626
 20
7.172453971960896
 30
0.0
 10
7.105971259092251
 20
7.169706058684981
 30
0.0
 10
7.101513383408328
 20
7.166552155930159
 30
0.0
 10
7.100281634091679
 20
7.165345713903556
 30
0.0
 10
7.099999079485544
 20
7.164582201807296
 30
0.0
 10
7.100241127788068
 20
7.164162550340081
 30
0.0
 10
7.100923612381721
 20
7.163918639781825
 30
0.0
 10
7.10171995890708
 20
7.163919191517317
 30
0.0
 10
7.102118334495039
 20
7.163919467525242
 30
0.0
  0
ARC
  5
30E
330
1F
100
AcDbEntity
  8
0
  6
Continuous
 62
     7
370
     0
100
AcDbCircle
 10
7.0917943204
 20
7.222577813
 30
0.0
 40
0.0595599425993353
100
AcDbArc
 50
279.9819668925
 51
306.6858796618
  0
ARC
  5
30F
330
1F
100
AcDbEntity
  8
0
  6
Continuous
 62
     7
370
     0
100
AcDbCircle
 10
7.2065350803
 20
6.5704941222
 30
0.0
 40
0.5931260339367515
100
AcDbArc
 50
119.1425650439
 51
119.9028623324
  0
ARC
  5
310
330
1F
100
AcDbEntity
  8
0
  6
Continuous
 62
     7
370
     0
100
AcDbCircle
 10
6.7264705765
 20
7.42958045
 30
0.0
 40
0.3909941638952576
100
AcDbArc
 50
299.2791173724
 51
299.9284693183
  0
SPLINE
  5
311
330
1F
100
AcDbEntity
  8
0
  6
Continuous
 62
     7
370
     0
100
AcDbSpline
210
0.0
220
0.0
230
1.0
 70
     8
 71
     3
 72
    13
 73
     9
 74
     0
 42
0.00000001
 43
0.00000001
 40
0.0
 40
0.0
 40
0.0
 40
0.0
 40
0.2485845284607465
 40
0.3735388535797891
 40
0.4967972082222593
 40
0.6212572301447228
 40
0.7502093099395591
 40
1.0
 40
1.0
 40
1.0
 40
1.0
 10
6.921544768795489
 20
7.090725767789018
 30
0.0
 10
6.922128458783363
 20
7.091064643840459
 30
0.0
 10
6.923005548320135
 20
7.091573860453998
 30
0.0
 10
6.923552162432921
 20
7.0919084506236
 30
0.0
 10
6.923715675334711
 20
7.092019515568402
 30
0.0
 10
6.923606406577974
 20
7.091974239012091
 30
0.0
 10
6.923160172233119
 20
7.091739067556597
 30
0.0
 10
6.92252500170704
 20
7.091383303831849
 30
0.0
 10
6.922106090254088
 20
7.091148668418644
 30
0.0
  0
ARC
  5
312
330
1F
100
AcDbEntity
  8
0
  6
Continuous
 62
     7
370
     0
100
AcDbCircle
 10
7.5863670279
 20
6.7818284078
 30
0.0
 40
0.9029318497755178
100
AcDbArc
 50
2.4807445549
 51
57.5138789124
  0
SPLINE
  5
313
330
1F
100
AcDbEntity
  8
0
  6
Continuous
 62
     7
370
     0
100
AcDbSpline
210
0.0
220
0.0
230
1.0
 70
    24
 71
     1
 72
     4
 73
     2
 74
     0
 42
0.00000001
 43
0.00000001
 40
0.0
 40
0.0
 40
1.0
 40
1.0
 10
8.007227148664265
 20
7.474811200163844
 30
0.0
 10
8.040203957448448
 20
7.474709286590492
 30
0.0
  0
ARC
  5
314
330
1F
100
AcDbEntity
  8
0
  6
Continuous
 62
     7
370
     0
100
AcDbCircle
 10
7.6646475153
 20
6.9457323022
 30
0.0
 40
0.648736688720185
100
AcDbArc
 50
54.6264879994
 51
56.2476446684
  0
LINE
  5
315
330
1F
100
AcDbEntity
  8
0
  6
Continuous
 62
     7
370
     0
100
AcDbLine
 10
8.0250884823
 20
7.4851223286
 30
0.0
 11
8.0072271487
 21
7.4748112002
 31
0.0
  0
SPLINE
  5
316
330
1F
100
AcDbEntity
  8
0
  6
Continuous
 62
     7
370
     0
100
AcDbSpline
210
0.0
220
0.0
230
1.0
 70
     8
 71
     3
 72
    14
 73
    10
 74
     0
 42
0.00000001
 43
0.00000001
 40
0.0
 40
0.0
 40
0.0
 40
0.0
 40
0.5001598129718902
 40
0.6334839770223021
 40
0.7547008492889151
 40
0.8160823888840997
 40
0.874446657212486
 40
0.9383930382622164
 40
1.0
 40
1.0
 40
1.0
 40
1.0
 10
7.977955883296395
 20
7.507121570913594
 30
0.0
 10
7.981642439486533
 20
7.509297722054512
 30
0.0
 10
7.986311695624823
 20
7.512053954849704
 30
0.0
 10
7.990446038657342
 20
7.515943475714665
 30
0.0
 10
7.991490712697501
 20
7.517755901074003
 30
0.0
 10
7.99168265923867
 20
7.519185486775919
 30
0.0
 10
7.991360310355499
 20
7.520253180717942
 30
0.0
 10
7.990587536916304
 20
7.521247006135849
 30
0.0
 10
7.98970852507327
 20
7.521779061018353
 30
0.0
 10
7.989277208409145
 20
7.522040131604457
 30
0.0
  0
ARC
  5
317
330
1F
100
AcDbEntity
  8
0
  6
Continuous
 62
     7
370
     0
100
AcDbCircle
 10
7.9820202569
 20
7.4963001065
 30
0.0
 40
0.0267434522366932
100
AcDbArc
 50
74.2551268897
 51
134.3672986773
  0
SPLINE
  5
318
330
1F
100
AcDbEntity
  8
0
  6
Continuous
 62
     7
370
     0
100
AcDbSpline
210
0.0
220
0.0
230
1.0
 70
     8
 71
     3
 72
    14
 73
    10
 74
     0
 42
0.00000001
 43
0.00000001
 40
0.0
 40
0.0
 40
0.0
 40
0.0
 40
0.5003034315362155
 40
0.6254176539426202
 40
0.7501401738688871
 40
0.8143424488202652
 40
0.8750383566947225
 40
0.93748742973198
 40
0.9999999999999999
 40
0.9999999999999999
 40
0.9999999999999999
 40
0.9999999999999999
 10
7.963319752343199
 20
7.515418248824324
 30
0.0
 10
7.959549863596068
 20
7.51319616876834
 30
0.0
 10
7.954837213577629
 20
7.510418398303687
 30
0.0
 10
7.950532525257544
 20
7.506552673015202
 30
0.0
 10
7.949429643264716
 20
7.504743237177965
 30
0.0
 10
7.949299741622395
 20
7.50325741856574
 30
0.0
 10
7.949681401657232
 20
7.502171108177337
 30
0.0
 10
7.950520094165106
 20
7.50117420329917
 30
0.0
 10
7.951425584561163
 20
7.500640694561339
 30
0.0
 10
7.951878559814315
 20
7.50037380464552
 30
0.0
  0
ARC
  5
319
330
1F
100
AcDbEntity
  8
0
  6
Continuous
 62
     7
370
     0
100
AcDbCircle
 10
7.9591379243
 20
7.5260822795
 30
0.0
 40
0.026713742737383
100
AcDbArc
 50
254.2317833771
 51
314.7835045889
  0
ARC
  5
31A
330
1F
100
AcDbEntity
  8
0
  6
Continuous
 62
     7
370
     0
100
AcDbCircle
 10
7.2660730519
 20
6.3522062493
 30
0.0
 40
0.3007379117840243
100
AcDbArc
 50
230.6902133087
 51
279.3501459707
  0
SPLINE
  5
31B
330
1F
100
AcDbEntity
  8
0
  6
Continuous
 62
     7
370
     0
100
AcDbSpline
210
0.0
220
0.0
230
1.0
 70
    24
 71
     1
 72
     4
 73
     2
 74
     0
 42
0.00000001
 43
0.00000001
 40
0.0
 40
0.0
 40
1.0
 40
1.0
 10
7.077472214700159
 20
6.116426508495316
 30
0.0
 10
7.075551662301259
 20
6.11951570014554
 30
0.0
  0
LWPOLYLINE
  5
31C
330
1F
100
AcDbEntity
  8
0
  6
Continuous
 62
     7
370
     0
100
AcDbPolyline
 90
       12
 70
   128
 43
0.0
 10
7.0794800319
 20
6.1579747648
 10
7.1085250963
 20
6.1395777492
 10
7.1375777089
 20
6.1242451323
 10
7.1663952316
 20
6.1121049673
 10
7.1947369898
 20
6.1032586449
 10
7.2223662822
 20
6.0977800466
 10
7.249052358
 20
6.0957149281
 10
7.2745723435
 20
6.0970805365
 10
7.2987131041
 20
6.1018654666
 10
7.3212730239
 20
6.1100297564
 10
7.3420636898
 20
6.1215052202
 10
7.3516201243
 20
6.1283618881
  0
LINE
  5
31D
330
1F
100
AcDbEntity
  8
0
  6
Continuous
 62
     7
370
     0
100
AcDbLine
 10
7.0755516623
 20
6.1195157001
 30
0.0
 11
7.0794800319
 21
6.1579747648
 31
0.0
  0
LINE
  5
31E
330
1F
100
AcDbEntity
  8
0
  6
Continuous
 62
     7
370
     0
100
AcDbLine
 10
7.0794800319
 20
6.1579747648
 30
0.0
 11
7.0971577015
 21
6.1681798662
 31
0.0
  0
ARC
  5
31F
330
1F
100
AcDbEntity
  8
0
  6
Continuous
 62
     7
370
     0
100
AcDbCircle
 10
7.3779540765
 20
6.5771461798
 30
0.0
 40
0.4960847205005077
100
AcDbArc
 50
234.0361808878
 51
235.5264975878
  0
LINE
  5
320
330
1F
100
AcDbEntity
  8
0
  6
Continuous
 62
     7
370
     0
100
AcDbLine
 10
7.0689386196
 20
6.1654160561
 30
0.0
 11
7.0866162891
 21
6.1756211575
 31
0.0
  0
LWPOLYLINE
  5
321
330
1F
100
AcDbEntity
  8
0
  6
Continuous
 62
     7
370
     0
100
AcDbPolyline
 90
       27
 70
   128
 43
0.0
 10
6.9030865555
 20
6.9053290042
 10
6.8975847594
 20
6.9029660084
 10
6.8767940935
 20
6.8914905445
 10
6.8579463185
 20
6.876799746
 10
6.8411988449
 20
6.8590163056
 10
6.8266915423
 20
6.8382887449
 10
6.814545571
 20
6.8147901738
 10
6.8048623701
 20
6.7887168448
 10
6.7977228108
 20
6.7602865139
 10
6.7931865202
 20
6.7297366221
 10
6.791291384
 20
6.6973223123
 10
6.7920532298
 20
6.6633142983
 10
6.7954656949
 20
6.6279966041
 10
6.8015002795
 20
6.5916641917
 10
6.8101065846
 20
6.5546204978
 10
6.8212127333
 20
6.5171748992
 10
6.8347259704
 20
6.4796401297
 10
6.8505334379
 20
6.4423296675
 10
6.8685031168
 20
6.4055551175
 10
6.8884849301
 20
6.369623609
 10
6.9103119962
 20
6.3348352303
 10
6.9338020226
 20
6.3014805228
 10
6.9587588279
 20
6.2698380542
 10
6.9849739811
 20
6.2401720923
 10
7.0122285416
 20
6.2127303976
 10
7.0402948881
 20
6.1877421543
 10
7.0689386196
 20
6.1654160561
  0
LWPOLYLINE
  5
322
330
1F
100
AcDbEntity
  8
0
  6
Continuous
 62
     7
370
     0
100
AcDbPolyline
 90
       33
 70
   128
 43
0.0
 10
6.9086551015
 20
6.9038280727
 10
6.9055083958
 20
6.9005576427
 10
6.8899698197
 20
6.8813000655
 10
6.8767184953
 20
6.8592073601
 10
6.8658642274
 20
6.8344625934
 10
6.8574969577
 20
6.8072708084
 10
6.8516860201
 20
6.7778573248
 10
6.8484795659
 20
6.746465872
 10
6.8479041647
 20
6.7133565694
 10
6.8499645845
 20
6.6788037712
 10
6.8546437521
 20
6.6430937927
 10
6.8619028943
 20
6.6065225381
 10
6.8716818597
 20
6.5693930483
 10
6.8838996166
 20
6.5320129899
 10
6.8984549249
 20
6.4946921059
 10
6.9152271746
 20
6.4577396489
 10
6.9340773857
 20
6.4214618185
 10
6.9548493594
 20
6.3861592244
 10
6.9773709725
 20
6.3521243948
 10
7.0014556039
 20
6.3196393532
 10
7.0269036807
 20
6.2889732807
 10
7.0535043321
 20
6.2603802862
 10
7.0810371368
 20
6.2340973003
 10
7.1092739493
 20
6.2103421119
 10
7.1379807905
 20
6.1893115641
 10
7.1669197864
 20
6.1711799226
 10
7.1958511394
 20
6.1560974319
 10
7.2245351152
 20
6.1441890703
 10
7.2527340293
 20
6.1355535142
 10
7.2802142167
 20
6.1302623206
 10
7.3067479678
 20
6.1283593339
 10
7.3321154157
 20
6.1298603229
 10
7.3531050755
 20
6.1339347168
  0
LWPOLYLINE
  5
323
330
1F
100
AcDbEntity
  8
0
  6
Continuous
 62
     7
370
     0
100
AcDbPolyline
 90
       25
 70
   128
 43
0.0
 10
6.8216120742
 20
6.9100137812
 10
6.8066383058
 20
6.8923599051
 10
6.7919902164
 20
6.8698442115
 10
6.7797121503
 20
6.8446157444
 10
6.7698957765
 20
6.8168628614
 10
6.7626143849
 20
6.786792768
 10
6.757922339
 20
6.7546299699
 10
6.7558546699
 20
6.7206145972
 10
6.7564268151
 20
6.6850006115
 10
6.7596345028
 20
6.6480539098
 10
6.7654537842
 20
6.6100503391
 10
6.7738412121
 20
6.5712736372
 10
6.7847341652
 20
6.5320133142
 10
6.7980513159
 20
6.4925624909
 10
6.8136932371
 20
6.4532157103
 10
6.8315431451
 20
6.4142667389
 10
6.851467771
 20
6.3760063727
 10
6.8733183558
 20
6.3387202669
 10
6.8969317613
 20
6.3026868026
 10
6.9221316879
 20
6.2681750086
 10
6.9487299908
 20
6.2354425528
 10
6.976528085
 20
6.2047338184
 10
7.0053184275
 20
6.1762780793
 10
7.0348860673
 20
6.1502877884
 10
7.0650102499
 20
6.1269569915
  0
SPLINE
  5
324
330
1F
100
AcDbEntity
  8
0
  6
Continuous
 62
     7
370
     0
100
AcDbSpline
210
0.0
220
0.0
230
1.0
 70
    24
 71
     1
 72
     4
 73
     2
 74
     0
 42
0.00000001
 43
0.00000001
 40
0.0
 40
0.0
 40
1.0
 40
1.0
 10
7.065010249918489
 20
6.126956991468477
 30
0.0
 10
7.06693080231739
 20
6.123867799818254
 30
0.0
  0
LINE
  5
325
330
1F
100
AcDbEntity
  8
0
  6
Continuous
 62
     7
370
     0
100
AcDbLine
 10
7.0650102499
 20
6.1269569915
 30
0.0
 11
7.0689386196
 21
6.1654160561
 31
0.0
  0
LINE
  5
326
330
1F
100
AcDbEntity
  8
0
  6
Continuous
 62
     7
370
     0
100
AcDbLine
 10
7.0851480356
 20
6.1612468336
 30
0.0
 11
7.0866162891
 21
6.1756211575
 31
0.0
  0
SPLINE
  5
327
330
1F
100
AcDbEntity
  8
0
  6
Continuous
 62
     7
370
     0
100
AcDbSpline
210
0.0
220
0.0
230
1.0
 70
    24
 71
     1
 72
     4
 73
     2
 74
     0
 42
0.00000001
 43
0.00000001
 40
0.0
 40
0.0
 40
1.0
 40
1.0
 10
6.9125989298769
 20
7.085460528344071
 30
0.0
 10
6.902471969046689
 20
7.079692407100588
 30
0.0
  0
SPLINE
  5
328
330
1F
100
AcDbEntity
  8
0
  6
Continuous
 62
     7
370
     0
100
AcDbSpline
210
0.0
220
0.0
230
1.0
 70
    24
 71
     1
 72
     4
 73
     2
 74
     0
 42
0.00000001
 43
0.00000001
 40
0.0
 40
0.0
 40
1.0
 40
1.0
 10
6.927656989708885
 20
7.094343105475112
 30
0.0
 10
6.93510633576684
 20
7.098530019834713
 30
0.0
  0
SPLINE
  5
329
330
1F
100
AcDbEntity
  8
0
  6
Continuous
 62
     7
370
     0
100
AcDbSpline
210
0.0
220
0.0
230
1.0
 70
    24
 71
     1
 72
     4
 73
     2
 74
     0
 42
0.00000001
 43
0.00000001
 40
0.0
 40
0.0
 40
1.0
 40
1.0
 10
6.886739607351767
 20
7.070742184701359
 30
0.0
 10
6.886175504262193
 20
7.070403186689471
 30
0.0
  0
SPLINE
  5
32A
330
1F
100
AcDbEntity
  8
0
  6
Continuous
 62
     7
370
     0
100
AcDbSpline
210
0.0
220
0.0
230
1.0
 70
     8
 71
     3
 72
     9
 73
     5
 74
     0
 42
0.00000001
 43
0.00000001
 40
0.0
 40
0.0
 40
0.0
 40
0.0
 40
0.3781925508244783
 40
1.0
 40
1.0
 40
1.0
 40
1.0
 10
6.895582682449901
 20
7.075844529071076
 30
0.0
 10
6.896031795522918
 20
7.076104261895138
 30
0.0
 10
6.897219320427991
 20
7.076791035929937
 30
0.0
 10
6.898944841271996
 20
7.077763252601246
 30
0.0
 10
6.900017782986505
 20
7.078367784169678
 30
0.0
  0
SPLINE
  5
32B
330
1F
100
AcDbEntity
  8
0
  6
Continuous
 62
     7
370
     0
100
AcDbSpline
210
0.0
220
0.0
230
1.0
 70
     8
 71
     3
 72
     9
 73
     5
 74
     0
 42
0.00000001
 43
0.00000001
 40
0.0
 40
0.0
 40
0.0
 40
0.0
 40
0.2712131845614547
 40
1.0
 40
1.0
 40
1.0
 40
1.0
 10
7.021683160573502
 20
7.148644483907098
 30
0.0
 10
7.022123382187381
 20
7.148898690341219
 30
0.0
 10
7.023746539315936
 20
7.149835984132931
 30
0.0
 10
7.025118105737522
 20
7.150627424678656
 30
0.0
 10
7.026117685262072
 20
7.151204216113584
 30
0.0
  0
SPLINE
  5
32C
330
1F
100
AcDbEntity
  8
0
  6
Continuous
 62
     7
370
     0
100
AcDbSpline
210
0.0
220
0.0
230
1.0
 70
    24
 71
     1
 72
     4
 73
     2
 74
     0
 42
0.00000001
 43
0.00000001
 40
0.0
 40
0.0
 40
1.0
 40
1.0
 10
7.013177351820117
 20
7.143727274401667
 30
0.0
 10
7.01017937853646
 20
7.141987475722068
 30
0.0
  0
SPLINE
  5
32D
330
1F
100
AcDbEntity
  8
0
  6
Continuous
 62
     7
370
     0
100
AcDbSpline
210
0.0
220
0.0
230
1.0
 70
    24
 71
     1
 72
     4
 73
     2
 74
     0
 42
0.00000001
 43
0.00000001
 40
0.0
 40
0.0
 40
1.0
 40
1.0
 10
6.910673361590616
 20
7.084559235422968
 30
0.0
 10
6.910843337681396
 20
7.084658381445391
 30
0.0
  0
SPLINE
  5
32E
330
1F
100
AcDbEntity
  8
0
  6
Continuous
 62
     7
370
     0
100
AcDbSpline
210
0.0
220
0.0
230
1.0
 70
    24
 71
     1
 72
     4
 73
     2
 74
     0
 42
0.00000001
 43
0.00000001
 40
0.0
 40
0.0
 40
1.0
 40
1.0
 10
6.922106090254088
 20
7.091148668418644
 30
0.0
 10
6.919915282763044
 20
7.089890315599974
 30
0.0
  0
LINE
  5
32F
330
1F
100
AcDbEntity
  8
0
  6
Continuous
 62
     7
370
     0
100
AcDbLine
 10
6.8336489511
 20
4.1985459941
 30
0.0
 11
5.4993709166
 21
4.1985459941
 31
0.0
  0
LINE
  5
330
330
1F
100
AcDbEntity
  8
0
  6
Continuous
 62
     7
370
     0
100
AcDbLine
 10
5.4993709166
 20
4.1985459941
 30
0.0
 11
6.8381695882
 21
4.5203962413
 31
0.0
  0
LINE
  5
331
330
1F
100
AcDbEntity
  8
0
  6
Continuous
 62
     7
370
     0
100
AcDbLine
 10
5.4993709166
 20
4.1985459941
 30
0.0
 11
6.8379758055
 21
3.8836682234
 31
0.0
  0
LINE
  5
332
330
1F
100
AcDbEntity
  8
0
  6
Continuous
 62
     7
370
     0
100
AcDbLine
 10
7.9353405144
 20
4.1985459941
 30
0.0
 11
9.6414710896
 21
4.1985459941
 31
0.0
  0
LINE
  5
333
330
1F
100
AcDbEntity
  8
0
  6
Continuous
 62
     7
370
     0
100
AcDbLine
 10
9.6414710896
 20
4.1985459941
 30
0.0
 11
7.9124168657
 21
4.5203962413
 31
0.0
  0
LINE
  5
334
330
1F
100
AcDbEntity
  8
0
  6
Continuous
 62
     7
370
     0
100
AcDbLine
 10
9.6414710896
 20
4.1985459941
 30
0.0
 11
7.9134041232
 21
3.8836682234
 31
0.0
  0
LINE
  5
335
330
1F
100
AcDbEntity
  8
0
  6
Continuous
 62
     7
370
     0
100
AcDbLine
 10
6.7524188831
 20
3.5985459941
 30
0.0
 11
6.8495825962
 21
3.5985459941
 31
0.0
  0
LINE
  5
336
330
1F
100
AcDbEntity
  8
0
  6
Continuous
 62
     7
370
     0
100
AcDbLine
 10
6.9312709079
 20
3.5985459941
 30
0.0
 11
8.11358294
 21
3.5985459941
 31
0.0
  0
LINE
  5
337
330
1F
100
AcDbEntity
  8
0
  6
Continuous
 62
     7
370
     0
100
AcDbLine
 10
8.11358294
 20
4.7985459941
 30
0.0
 11
8.0376599425
 21
4.7985459941
 31
0.0
  0
LINE
  5
338
330
1F
100
AcDbEntity
  8
0
  6
Continuous
 62
     7
370
     0
100
AcDbLine
 10
7.9687433728
 20
4.7985459941
 30
0.0
 11
7.0834065468
 21
4.7985459941
 31
0.0
  0
LINE
  5
339
330
1F
100
AcDbEntity
  8
0
  6
Continuous
 62
     7
370
     0
100
AcDbLine
 10
7.03378057
 20
4.7985459941
 30
0.0
 11
6.932534807
 21
4.7985459941
 31
0.0
  0
LINE
  5
33A
330
1F
100
AcDbEntity
  8
0
  6
Continuous
 62
     7
370
     0
100
AcDbLine
 10
6.8510648782
 20
4.7985459941
 30
0.0
 11
6.7574258325
 21
4.7985459941
 31
0.0
  0
LINE
  5
33B
330
1F
100
AcDbEntity
  8
0
  6
Continuous
 62
     7
370
     0
100
AcDbLine
 10
6.6885092628
 20
4.7985459941
 30
0.0
 11
6.61834883
 21
4.7985459941
 31
0.0
  0
LINE
  5
33C
330
1F
100
AcDbEntity
  8
0
  6
Continuous
 62
     7
370
     0
100
AcDbLine
 10
6.61834883
 20
3.5985459941
 30
0.0
 11
6.6856056566
 21
3.5985459941
 31
0.0
  0
LINE
  5
33D
330
1F
100
AcDbEntity
  8
0
  6
Continuous
 62
     7
370
     0
100
AcDbLine
 10
8.12358294
 20
3.6085459941
 30
0.0
 11
8.11358294
 21
3.5985459941
 31
0.0
  0
LINE
  5
33E
330
1F
100
AcDbEntity
  8
0
  6
Continuous
 62
     7
370
     0
100
AcDbLine
 10
8.11358294
 20
4.7985459941
 30
0.0
 11
8.12358294
 21
4.7885459941
 31
0.0
  0
LINE
  5
33F
330
1F
100
AcDbEntity
  8
0
  6
Continuous
 62
     7
370
     0
100
AcDbLine
 10
6.60834883
 20
4.7885459941
 30
0.0
 11
6.61834883
 21
4.7985459941
 31
0.0
  0
LINE
  5
340
330
1F
100
AcDbEntity
  8
0
  6
Continuous
 62
     7
370
     0
100
AcDbLine
 10
6.61834883
 20
3.5985459941
 30
0.0
 11
6.60834883
 21
3.6085459941
 31
0.0
  0
LINE
  5
341
330
1F
100
AcDbEntity
  8
0
  6
Continuous
 62
     7
370
     0
100
AcDbLine
 10
7.562396
 20
3.6735459941
 30
0.0
 11
7.582396
 21
3.6735459941
 31
0.0
  0
LINE
  5
342
330
1F
100
AcDbEntity
  8
0
  6
Continuous
 62
     7
370
     0
100
AcDbLine
 10
7.582396
 20
4.7235459941
 30
0.0
 11
7.562396
 21
4.7235459941
 31
0.0
  0
LINE
  5
343
330
1F
100
AcDbEntity
  8
0
  6
Continuous
 62
     7
370
     0
100
AcDbLine
 10
7.18740479
 20
4.7235459941
 30
0.0
 11
7.20740479
 21
4.7235459941
 31
0.0
  0
LINE
  5
344
330
1F
100
AcDbEntity
  8
0
  6
Continuous
 62
     7
370
     0
100
AcDbLine
 10
7.20740479
 20
3.6735459941
 30
0.0
 11
7.18740479
 21
3.6735459941
 31
0.0
  0
LINE
  5
345
330
1F
100
AcDbEntity
  8
0
  6
Continuous
 62
     7
370
     0
100
AcDbLine
 10
8.12358294
 20
4.7145459941
 30
0.0
 11
8.1062624319
 21
4.7045459941
 31
0.0
  0
LINE
  5
346
330
1F
100
AcDbEntity
  8
0
  6
Continuous
 62
     7
370
     0
100
AcDbLine
 10
8.1062624319
 20
3.6925459941
 30
0.0
 11
8.12358294
 21
3.6825459941
 31
0.0
  0
LINE
  5
347
330
1F
100
AcDbEntity
  8
0
  6
Continuous
 62
     7
370
     0
100
AcDbLine
 10
8.1062624319
 20
3.6925459941
 30
0.0
 11
8.1062624319
 21
4.7045459941
 31
0.0
  0
LINE
  5
348
330
1F
100
AcDbEntity
  8
0
  6
Continuous
 62
     7
370
     0
100
AcDbLine
 10
8.12358294
 20
4.7145459941
 30
0.0
 11
8.12358294
 21
3.6825459941
 31
0.0
  0
LINE
  5
349
330
1F
100
AcDbEntity
  8
0
  6
Continuous
 62
     7
370
     0
100
AcDbLine
 10
6.60834883
 20
3.6825459941
 30
0.0
 11
6.625669338
 21
3.6925459941
 31
0.0
  0
LINE
  5
34A
330
1F
100
AcDbEntity
  8
0
  6
Continuous
 62
     7
370
     0
100
AcDbLine
 10
6.625669338
 20
4.7045459941
 30
0.0
 11
6.60834883
 21
4.7145459941
 31
0.0
  0
LINE
  5
34B
330
1F
100
AcDbEntity
  8
0
  6
Continuous
 62
     7
370
     0
100
AcDbLine
 10
6.625669338
 20
4.7045459941
 30
0.0
 11
6.625669338
 21
3.6925459941
 31
0.0
  0
LINE
  5
34C
330
1F
100
AcDbEntity
  8
0
  6
Continuous
 62
     7
370
     0
100
AcDbLine
 10
6.60834883
 20
3.6825459941
 30
0.0
 11
6.60834883
 21
4.7145459941
 31
0.0
  0
LINE
  5
34D
330
1F
100
AcDbEntity
  8
0
  6
Continuous
 62
     7
370
     0
100
AcDbLine
 10
7.82258294
 20
3.6925459941
 30
0.0
 11
7.82258294
 21
3.6985459941
 31
0.0
  0
LINE
  5
34E
330
1F
100
AcDbEntity
  8
0
  6
Continuous
 62
     7
370
     0
100
AcDbLine
 10
7.82258294
 20
4.6985459941
 30
0.0
 11
7.82258294
 21
4.7045459941
 31
0.0
  0
LINE
  5
34F
330
1F
100
AcDbEntity
  8
0
  6
Continuous
 62
     7
370
     0
100
AcDbLine
 10
7.82258294
 20
4.7045459941
 30
0.0
 11
8.1062624319
 21
4.7045459941
 31
0.0
  0
LINE
  5
350
330
1F
100
AcDbEntity
  8
0
  6
Continuous
 62
     7
370
     0
100
AcDbLine
 10
8.1062624319
 20
3.6925459941
 30
0.0
 11
7.82258294
 21
3.6925459941
 31
0.0
  0
LINE
  5
351
330
1F
100
AcDbEntity
  8
0
  6
Continuous
 62
     7
370
     0
100
AcDbLine
 10
7.8214282394
 20
4.7025459941
 30
0.0
 11
7.8214282394
 21
4.6985459941
 31
0.0
  0
LINE
  5
352
330
1F
100
AcDbEntity
  8
0
  6
Continuous
 62
     7
370
     0
100
AcDbLine
 10
7.8214282394
 20
3.6985459941
 30
0.0
 11
7.8214282394
 21
3.6945459941
 31
0.0
  0
LINE
  5
353
330
1F
100
AcDbEntity
  8
0
  6
Continuous
 62
     7
370
     0
100
AcDbLine
 10
7.8214282394
 20
4.7025459941
 30
0.0
 11
7.82258294
 21
4.7045459941
 31
0.0
  0
LINE
  5
354
330
1F
100
AcDbEntity
  8
0
  6
Continuous
 62
     7
370
     0
100
AcDbLine
 10
7.82258294
 20
3.6925459941
 30
0.0
 11
7.8214282394
 21
3.6945459941
 31
0.0
  0
LINE
  5
355
330
1F
100
AcDbEntity
  8
0
  6
Continuous
 62
     7
370
     0
100
AcDbLine
 10
6.90834883
 20
4.7045459941
 30
0.0
 11
6.90834883
 21
4.6985459941
 31
0.0
  0
LINE
  5
356
330
1F
100
AcDbEntity
  8
0
  6
Continuous
 62
     7
370
     0
100
AcDbLine
 10
6.90834883
 20
3.6985459941
 30
0.0
 11
6.90834883
 21
3.6925459941
 31
0.0
  0
LINE
  5
357
330
1F
100
AcDbEntity
  8
0
  6
Continuous
 62
     7
370
     0
100
AcDbLine
 10
6.90834883
 20
3.6925459941
 30
0.0
 11
6.625669338
 21
3.6925459941
 31
0.0
  0
LINE
  5
358
330
1F
100
AcDbEntity
  8
0
  6
Continuous
 62
     7
370
     0
100
AcDbLine
 10
6.625669338
 20
4.7045459941
 30
0.0
 11
6.90834883
 21
4.7045459941
 31
0.0
  0
LINE
  5
359
330
1F
100
AcDbEntity
  8
0
  6
Continuous
 62
     7
370
     0
100
AcDbLine
 10
6.9095035305
 20
3.6945459941
 30
0.0
 11
6.9095035305
 21
3.6985459941
 31
0.0
  0
LINE
  5
35A
330
1F
100
AcDbEntity
  8
0
  6
Continuous
 62
     7
370
     0
100
AcDbLine
 10
6.9095035305
 20
4.6985459941
 30
0.0
 11
6.9095035305
 21
4.7025459941
 31
0.0
  0
LINE
  5
35B
330
1F
100
AcDbEntity
  8
0
  6
Continuous
 62
     7
370
     0
100
AcDbLine
 10
6.9095035305
 20
3.6945459941
 30
0.0
 11
6.90834883
 21
3.6925459941
 31
0.0
  0
LINE
  5
35C
330
1F
100
AcDbEntity
  8
0
  6
Continuous
 62
     7
370
     0
100
AcDbLine
 10
6.90834883
 20
4.7045459941
 30
0.0
 11
6.9095035305
 21
4.7025459941
 31
0.0
  0
LINE
  5
35D
330
1F
100
AcDbEntity
  8
0
  6
Continuous
 62
     7
370
     0
100
AcDbLine
 10
7.582396
 20
3.6945459941
 30
0.0
 11
7.8214282394
 21
3.6945459941
 31
0.0
  0
LINE
  5
35E
330
1F
100
AcDbEntity
  8
0
  6
Continuous
 62
     7
370
     0
100
AcDbLine
 10
7.8214282394
 20
4.7025459941
 30
0.0
 11
7.582396
 21
4.7025459941
 31
0.0
  0
LINE
  5
35F
330
1F
100
AcDbEntity
  8
0
  6
Continuous
 62
     7
370
     0
100
AcDbLine
 10
7.582396
 20
3.6945459941
 30
0.0
 11
7.582396
 21
3.7087271491
 31
0.0
  0
LINE
  5
360
330
1F
100
AcDbEntity
  8
0
  6
Continuous
 62
     7
370
     0
100
AcDbLine
 10
7.582396
 20
4.688364839
 30
0.0
 11
7.582396
 21
4.7025459941
 31
0.0
  0
LINE
  5
361
330
1F
100
AcDbEntity
  8
0
  6
Continuous
 62
     7
370
     0
100
AcDbLine
 10
7.18740479
 20
4.7025459941
 30
0.0
 11
6.9095035305
 21
4.7025459941
 31
0.0
  0
LINE
  5
362
330
1F
100
AcDbEntity
  8
0
  6
Continuous
 62
     7
370
     0
100
AcDbLine
 10
6.9095035305
 20
3.6945459941
 30
0.0
 11
7.18740479
 21
3.6945459941
 31
0.0
  0
LINE
  5
363
330
1F
100
AcDbEntity
  8
0
  6
Continuous
 62
     7
370
     0
100
AcDbLine
 10
7.18740479
 20
4.7025459941
 30
0.0
 11
7.18740479
 21
4.6985459941
 31
0.0
  0
LINE
  5
364
330
1F
100
AcDbEntity
  8
0
  6
Continuous
 62
     7
370
     0
100
AcDbLine
 10
7.18740479
 20
3.6985459941
 30
0.0
 11
7.18740479
 21
3.6945459941
 31
0.0
  0
LINE
  5
365
330
1F
100
AcDbEntity
  8
0
  6
Continuous
 62
     7
370
     0
100
AcDbLine
 10
7.562396
 20
4.6495459941
 30
0.0
 11
7.20740479
 21
4.6495459941
 31
0.0
  0
LINE
  5
366
330
1F
100
AcDbEntity
  8
0
  6
Continuous
 62
     7
370
     0
100
AcDbLine
 10
7.20740479
 20
3.7475459941
 30
0.0
 11
7.562396
 21
3.7475459941
 31
0.0
  0
LINE
  5
367
330
1F
100
AcDbEntity
  8
0
  6
Continuous
 62
     7
370
     0
100
AcDbLine
 10
7.20740479
 20
4.6495459941
 30
0.0
 11
7.20740479
 21
4.6470431687
 31
0.0
  0
LINE
  5
368
330
1F
100
AcDbEntity
  8
0
  6
Continuous
 62
     7
370
     0
100
AcDbLine
 10
7.20740479
 20
3.7500488194
 30
0.0
 11
7.20740479
 21
3.7475459941
 31
0.0
  0
LINE
  5
369
330
1F
100
AcDbEntity
  8
0
  6
Continuous
 62
     7
370
     0
100
AcDbLine
 10
6.7574258325
 20
4.7985459941
 30
0.0
 11
6.6885092628
 21
4.7985459941
 31
0.0
  0
LINE
  5
36A
330
1F
100
AcDbEntity
  8
0
  6
Continuous
 62
     7
370
     0
100
AcDbLine
 10
6.932534807
 20
4.7985459941
 30
0.0
 11
6.8510648782
 21
4.7985459941
 31
0.0
  0
LINE
  5
36B
330
1F
100
AcDbEntity
  8
0
  6
Continuous
 62
     7
370
     0
100
AcDbLine
 10
7.0834065468
 20
4.7985459941
 30
0.0
 11
7.03378057
 21
4.7985459941
 31
0.0
  0
LINE
  5
36C
330
1F
100
AcDbEntity
  8
0
  6
Continuous
 62
     7
370
     0
100
AcDbLine
 10
8.0376599425
 20
4.7985459941
 30
0.0
 11
7.9687433728
 21
4.7985459941
 31
0.0
  0
LINE
  5
36D
330
1F
100
AcDbEntity
  8
0
  6
Continuous
 62
     7
370
     0
100
AcDbLine
 10
7.20740479
 20
4.6495459941
 30
0.0
 11
7.20740479
 21
4.7235459941
 31
0.0
  0
LINE
  5
36E
330
1F
100
AcDbEntity
  8
0
  6
Continuous
 62
     7
370
     0
100
AcDbLine
 10
7.18740479
 20
4.7025459941
 30
0.0
 11
7.18740479
 21
4.7235459941
 31
0.0
  0
LINE
  5
36F
330
1F
100
AcDbEntity
  8
0
  6
Continuous
 62
     7
370
     0
100
AcDbLine
 10
7.582396
 20
4.7235459941
 30
0.0
 11
7.582396
 21
4.7025459941
 31
0.0
  0
LINE
  5
370
330
1F
100
AcDbEntity
  8
0
  6
Continuous
 62
     7
370
     0
100
AcDbLine
 10
7.562396
 20
4.6495459941
 30
0.0
 11
7.562396
 21
4.7235459941
 31
0.0
  0
LINE
  5
371
330
1F
100
AcDbEntity
  8
0
  6
Continuous
 62
     7
370
     0
100
AcDbLine
 10
6.60834883
 20
4.7145459941
 30
0.0
 11
6.60834883
 21
4.7885459941
 31
0.0
  0
LINE
  5
372
330
1F
100
AcDbEntity
  8
0
  6
Continuous
 62
     7
370
     0
100
AcDbLine
 10
8.12358294
 20
4.7885459941
 30
0.0
 11
8.12358294
 21
4.7145459941
 31
0.0
  0
LINE
  5
373
330
1F
100
AcDbEntity
  8
0
  6
Continuous
 62
     7
370
     0
100
AcDbLine
 10
6.8495825962
 20
3.5985459941
 30
0.0
 11
6.9312709079
 21
3.5985459941
 31
0.0
  0
LINE
  5
374
330
1F
100
AcDbEntity
  8
0
  6
Continuous
 62
     7
370
     0
100
AcDbLine
 10
6.6856056566
 20
3.5985459941
 30
0.0
 11
6.7524188831
 21
3.5985459941
 31
0.0
  0
LINE
  5
375
330
1F
100
AcDbEntity
  8
0
  6
Continuous
 62
     7
370
     0
100
AcDbLine
 10
7.20740479
 20
3.6735459941
 30
0.0
 11
7.20740479
 21
3.7475459941
 31
0.0
  0
LINE
  5
376
330
1F
100
AcDbEntity
  8
0
  6
Continuous
 62
     7
370
     0
100
AcDbLine
 10
7.18740479
 20
3.6735459941
 30
0.0
 11
7.18740479
 21
3.6945459941
 31
0.0
  0
LINE
  5
377
330
1F
100
AcDbEntity
  8
0
  6
Continuous
 62
     7
370
     0
100
AcDbLine
 10
7.582396
 20
3.6945459941
 30
0.0
 11
7.582396
 21
3.6735459941
 31
0.0
  0
LINE
  5
378
330
1F
100
AcDbEntity
  8
0
  6
Continuous
 62
     7
370
     0
100
AcDbLine
 10
7.562396
 20
3.6735459941
 30
0.0
 11
7.562396
 21
3.7475459941
 31
0.0
  0
LINE
  5
379
330
1F
100
AcDbEntity
  8
0
  6
Continuous
 62
     7
370
     0
100
AcDbLine
 10
6.60834883
 20
3.6085459941
 30
0.0
 11
6.60834883
 21
3.6825459941
 31
0.0
  0
LINE
  5
37A
330
1F
100
AcDbEntity
  8
0
  6
Continuous
 62
     7
370
     0
100
AcDbLine
 10
8.12358294
 20
3.6825459941
 30
0.0
 11
8.12358294
 21
3.6085459941
 31
0.0
  0
LINE
  5
37B
330
1F
100
AcDbEntity
  8
0
  6
Continuous
 62
     7
370
     0
100
AcDbLine
 10
7.9059034489
 20
3.6810459941
 30
0.0
 11
7.9585829408
 21
3.6810459941
 31
0.0
  0
LINE
  5
37C
330
1F
100
AcDbEntity
  8
0
  6
Continuous
 62
     7
370
     0
100
AcDbLine
 10
7.9585829408
 20
4.7160459941
 30
0.0
 11
7.9059034489
 21
4.7160459941
 31
0.0
  0
LINE
  5
37D
330
1F
100
AcDbEntity
  8
0
  6
Continuous
 62
     7
370
     0
100
AcDbLine
 10
7.8885829408
 20
4.7060459941
 30
0.0
 11
7.9059034489
 21
4.7160459941
 31
0.0
  0
LINE
  5
37E
330
1F
100
AcDbEntity
  8
0
  6
Continuous
 62
     7
370
     0
100
AcDbLine
 10
7.9059034489
 20
3.6810459941
 30
0.0
 11
7.8885829408
 21
3.6910459941
 31
0.0
  0
LINE
  5
37F
330
1F
100
AcDbEntity
  8
0
  6
Continuous
 62
     7
370
     0
100
AcDbLine
 10
7.9685829408
 20
3.7491553876
 30
0.0
 11
7.9435829408
 21
3.7491553876
 31
0.0
  0
LINE
  5
380
330
1F
100
AcDbEntity
  8
0
  6
Continuous
 62
     7
370
     0
100
AcDbLine
 10
7.9435829408
 20
3.7486247851
 30
0.0
 11
7.9435829408
 21
3.7491553876
 31
0.0
  0
LINE
  5
381
330
1F
100
AcDbEntity
  8
0
  6
Continuous
 62
     7
370
     0
100
AcDbLine
 10
7.9685829408
 20
3.7486247851
 30
0.0
 11
7.9435829408
 21
3.7486247851
 31
0.0
  0
LINE
  5
382
330
1F
100
AcDbEntity
  8
0
  6
Continuous
 62
     7
370
     0
100
AcDbLine
 10
7.9685829408
 20
3.7485459941
 30
0.0
 11
7.9685829408
 21
3.7486247851
 31
0.0
  0
LINE
  5
383
330
1F
100
AcDbEntity
  8
0
  6
Continuous
 62
     7
370
     0
100
AcDbLine
 10
7.8885829408
 20
3.7485459941
 30
0.0
 11
7.9685829408
 21
3.7485459941
 31
0.0
  0
LINE
  5
384
330
1F
100
AcDbEntity
  8
0
  6
Continuous
 62
     7
370
     0
100
AcDbLine
 10
7.9685829408
 20
4.6485459941
 30
0.0
 11
7.8885829408
 21
4.6485459941
 31
0.0
  0
LINE
  5
385
330
1F
100
AcDbEntity
  8
0
  6
Continuous
 62
     7
370
     0
100
AcDbLine
 10
7.9685829408
 20
3.7491553876
 30
0.0
 11
7.9685829408
 21
4.6485459941
 31
0.0
  0
LINE
  5
386
330
1F
100
AcDbEntity
  8
0
  6
Continuous
 62
     7
370
     0
100
AcDbLine
 10
7.9585829408
 20
4.7160459941
 30
0.0
 11
7.9685829408
 21
4.698725486
 31
0.0
  0
LINE
  5
387
330
1F
100
AcDbEntity
  8
0
  6
Continuous
 62
     7
370
     0
100
AcDbLine
 10
7.9685829408
 20
3.7485459941
 30
0.0
 11
7.9685829408
 21
3.6983665021
 31
0.0
  0
LINE
  5
388
330
1F
100
AcDbEntity
  8
0
  6
Continuous
 62
     7
370
     0
100
AcDbLine
 10
7.9685829408
 20
3.6983665021
 30
0.0
 11
7.9585829408
 21
3.6810459941
 31
0.0
  0
LINE
  5
389
330
1F
100
AcDbEntity
  8
0
  6
Continuous
 62
     7
370
     0
100
AcDbLine
 10
7.8885829408
 20
3.7485459941
 30
0.0
 11
7.8885829408
 21
3.6910459941
 31
0.0
  0
LINE
  5
38A
330
1F
100
AcDbEntity
  8
0
  6
Continuous
 62
     7
370
     0
100
AcDbLine
 10
7.9685829408
 20
4.698725486
 30
0.0
 11
7.9685829408
 21
4.6485459941
 31
0.0
  0
LINE
  5
38B
330
1F
100
AcDbEntity
  8
0
  6
Continuous
 62
     7
370
     0
100
AcDbLine
 10
7.8885829408
 20
4.7060459941
 30
0.0
 11
7.8885829408
 21
4.6485459941
 31
0.0
  0
LINE
  5
38C
330
1F
100
AcDbEntity
  8
0
  6
Continuous
 62
     7
370
     0
100
AcDbLine
 10
7.9685829408
 20
3.7486247851
 30
0.0
 11
7.9685829408
 21
3.7491553876
 31
0.0
  0
LINE
  5
38D
330
1F
100
AcDbEntity
  8
0
  6
Continuous
 62
     7
370
     0
100
AcDbLine
 10
6.8433488071
 20
3.6910459941
 30
0.0
 11
6.826028299
 21
3.6810459941
 31
0.0
  0
LINE
  5
38E
330
1F
100
AcDbEntity
  8
0
  6
Continuous
 62
     7
370
     0
100
AcDbLine
 10
6.826028299
 20
4.7160459941
 30
0.0
 11
6.8433488071
 21
4.7060459941
 31
0.0
  0
LINE
  5
38F
330
1F
100
AcDbEntity
  8
0
  6
Continuous
 62
     7
370
     0
100
AcDbLine
 10
6.826028299
 20
4.7160459941
 30
0.0
 11
6.7733488071
 21
4.7160459941
 31
0.0
  0
LINE
  5
390
330
1F
100
AcDbEntity
  8
0
  6
Continuous
 62
     7
370
     0
100
AcDbLine
 10
6.7733488071
 20
3.6810459941
 30
0.0
 11
6.826028299
 21
3.6810459941
 31
0.0
  0
LINE
  5
391
330
1F
100
AcDbEntity
  8
0
  6
Continuous
 62
     7
370
     0
100
AcDbLine
 10
6.7633488071
 20
3.750543615
 30
0.0
 11
6.7883488071
 21
3.750543615
 31
0.0
  0
LINE
  5
392
330
1F
100
AcDbEntity
  8
0
  6
Continuous
 62
     7
370
     0
100
AcDbLine
 10
6.7883488071
 20
3.7522041119
 30
0.0
 11
6.7883488071
 21
3.750543615
 31
0.0
  0
LINE
  5
393
330
1F
100
AcDbEntity
  8
0
  6
Continuous
 62
     7
370
     0
100
AcDbLine
 10
6.7633488071
 20
3.7522041119
 30
0.0
 11
6.7883488071
 21
3.7522041119
 31
0.0
  0
LINE
  5
394
330
1F
100
AcDbEntity
  8
0
  6
Continuous
 62
     7
370
     0
100
AcDbLine
 10
6.7633488071
 20
4.6485459941
 30
0.0
 11
6.7633488071
 21
3.7522041119
 31
0.0
  0
LINE
  5
395
330
1F
100
AcDbEntity
  8
0
  6
Continuous
 62
     7
370
     0
100
AcDbLine
 10
6.8433488071
 20
4.6485459941
 30
0.0
 11
6.7633488071
 21
4.6485459941
 31
0.0
  0
LINE
  5
396
330
1F
100
AcDbEntity
  8
0
  6
Continuous
 62
     7
370
     0
100
AcDbLine
 10
6.7633488071
 20
3.7485459941
 30
0.0
 11
6.8433488071
 21
3.7485459941
 31
0.0
  0
LINE
  5
397
330
1F
100
AcDbEntity
  8
0
  6
Continuous
 62
     7
370
     0
100
AcDbLine
 10
6.7633488071
 20
3.750543615
 30
0.0
 11
6.7633488071
 21
3.7485459941
 31
0.0
  0
LINE
  5
398
330
1F
100
AcDbEntity
  8
0
  6
Continuous
 62
     7
370
     0
100
AcDbLine
 10
6.7633488071
 20
4.698725486
 30
0.0
 11
6.7733488071
 21
4.7160459941
 31
0.0
  0
LINE
  5
399
330
1F
100
AcDbEntity
  8
0
  6
Continuous
 62
     7
370
     0
100
AcDbLine
 10
6.7633488071
 20
4.6485459941
 30
0.0
 11
6.7633488071
 21
4.698725486
 31
0.0
  0
LINE
  5
39A
330
1F
100
AcDbEntity
  8
0
  6
Continuous
 62
     7
370
     0
100
AcDbLine
 10
6.8433488071
 20
4.6485459941
 30
0.0
 11
6.8433488071
 21
4.7060459941
 31
0.0
  0
LINE
  5
39B
330
1F
100
AcDbEntity
  8
0
  6
Continuous
 62
     7
370
     0
100
AcDbLine
 10
6.7733488071
 20
3.6810459941
 30
0.0
 11
6.7633488071
 21
3.6983665021
 31
0.0
  0
LINE
  5
39C
330
1F
100
AcDbEntity
  8
0
  6
Continuous
 62
     7
370
     0
100
AcDbLine
 10
6.7633488071
 20
3.6983665021
 30
0.0
 11
6.7633488071
 21
3.7485459941
 31
0.0
  0
LINE
  5
39D
330
1F
100
AcDbEntity
  8
0
  6
Continuous
 62
     7
370
     0
100
AcDbLine
 10
6.8433488071
 20
3.6910459941
 30
0.0
 11
6.8433488071
 21
3.7485459941
 31
0.0
  0
LINE
  5
39E
330
1F
100
AcDbEntity
  8
0
  6
Continuous
 62
     7
370
     0
100
AcDbLine
 10
6.7633488071
 20
3.750543615
 30
0.0
 11
6.7633488071
 21
3.7522041119
 31
0.0
  0
ARC
  5
39F
330
1F
100
AcDbEntity
  8
0
  6
Continuous
 62
     7
370
     0
100
AcDbCircle
 10
7.8092395023
 20
4.1985459941
 30
0.0
 40
0.8771653543307087
100
AcDbArc
 50
145.2485222972
 51
214.7514777028
  0
LINE
  5
3A0
330
1F
100
AcDbEntity
  8
0
  6
Continuous
 62
     7
370
     0
100
AcDbLine
 10
6.8445621767
 20
3.6985459941
 30
0.0
 11
7.08853217
 21
3.6985459941
 31
0.0
  0
ARC
  5
3A1
330
1F
100
AcDbEntity
  8
0
  6
Continuous
 62
     7
370
     0
100
AcDbCircle
 10
18.29309777
 20
4.1985459941
 30
0.0
 40
11.45944881889772
100
AcDbArc
 50
177.4992700088
 51
182.5007299912
  0
LINE
  5
3A2
330
1F
100
AcDbEntity
  8
0
  6
Continuous
 62
     7
370
     0
100
AcDbLine
 10
7.08853217
 20
4.6985459941
 30
0.0
 11
6.8445621767
 21
4.6985459941
 31
0.0
  0
ARC
  5
3A3
330
1F
100
AcDbEntity
  8
0
  6
Continuous
 62
     7
370
     0
100
AcDbCircle
 10
5.9738064315
 20
4.1985459941
 30
0.0
 40
1.312598425196856
100
AcDbArc
 50
337.609082359
 51
22.390917641
  0
LINE
  5
3A4
330
1F
100
AcDbEntity
  8
0
  6
Continuous
 62
     7
370
     0
100
AcDbLine
 10
7.08853217
 20
3.6985459941
 30
0.0
 11
7.187443373
 21
3.6985459941
 31
0.0
  0
ARC
  5
3A5
330
1F
100
AcDbEntity
  8
0
  6
Continuous
 62
     7
370
     0
100
AcDbCircle
 10
7.8092395023
 20
4.1985459941
 30
0.0
 40
0.8771653543307085
100
AcDbArc
 50
145.2485222972
 51
214.7514777028
  0
LINE
  5
3A6
330
1F
100
AcDbEntity
  8
0
  6
Continuous
 62
     7
370
     0
100
AcDbLine
 10
7.187443373
 20
4.6985459941
 30
0.0
 11
7.08853217
 21
4.6985459941
 31
0.0
  0
ARC
  5
3A7
330
1F
100
AcDbEntity
  8
0
  6
Continuous
 62
     7
370
     0
100
AcDbCircle
 10
7.0459704356
 20
4.1985459941
 30
0.0
 40
0.7909448818897638
100
AcDbArc
 50
320.7906836425
 51
39.2093163575
  0
LINE
  5
3A8
330
1F
100
AcDbEntity
  8
0
  6
Continuous
 62
     7
370
     0
100
AcDbLine
 10
7.5887812608
 20
3.6985459941
 30
0.0
 11
7.6588275203
 21
3.6985459941
 31
0.0
  0
ARC
  5
3A9
330
1F
100
AcDbEntity
  8
0
  6
Continuous
 62
     7
370
     0
100
AcDbCircle
 10
8.3747105931
 20
4.1985459941
 30
0.0
 40
0.9314960629921256
100
AcDbArc
 50
147.5359091707
 51
212.4640908293
  0
LINE
  5
3AA
330
1F
100
AcDbEntity
  8
0
  6
Continuous
 62
     7
370
     0
100
AcDbLine
 10
7.6588275203
 20
4.6985459941
 30
0.0
 11
7.5887812608
 21
4.6985459941
 31
0.0
  0
ARC
  5
3AB
330
1F
100
AcDbEntity
  8
0
  6
Continuous
 62
     7
370
     0
100
AcDbCircle
 10
5.6644743726
 20
4.1985459941
 30
0.0
 40
2.270866141732283
100
AcDbArc
 50
347.2803766009
 51
12.7196233991
  0
LINE
  5
3AC
330
1F
100
AcDbEntity
  8
0
  6
Continuous
 62
     7
370
     0
100
AcDbLine
 10
7.6588275203
 20
3.6985459941
 30
0.0
 11
7.879611622
 21
3.6985459941
 31
0.0
  0
ARC
  5
3AD
330
1F
100
AcDbEntity
  8
0
  6
Continuous
 62
     7
370
     0
100
AcDbCircle
 10
7.0459704356
 20
4.1985459941
 30
0.0
 40
0.7909448818897638
100
AcDbArc
 50
320.7906836425
 51
39.2093163575
  0
LINE
  5
3AE
330
1F
100
AcDbEntity
  8
0
  6
Continuous
 62
     7
370
     0
100
AcDbLine
 10
7.879611622
 20
4.6985459941
 30
0.0
 11
7.6588275203
 21
4.6985459941
 31
0.0
  0
DIMENSION
  5
3AF
330
1F
100
AcDbEntity
  8
0
  6
Continuous
 62
     7
370
     0
100
AcDbDimension
  2
*D8
 10
6.60834883
 20
2.954102706
 30
0.0
 11
6.0906999254
 21
2.954102706
 31
0.0
 70
   160
 71
     1
 42
-1.0
  3
SLDDIMSTYLE1
100
AcDbAlignedDimension
 13
5.4993709166
 23
4.1985459941
 33
0.0
 14
6.60834883
 24
3.6085459941
 34
0.0
100
AcDbRotatedDimension
  0
DIMENSION
  5
3C2
330
1F
100
AcDbEntity
  8
0
  6
Continuous
 62
     7
370
     0
100
AcDbDimension
  2
*D9
 10
8.12358294
 20
2.954102706
 30
0.0
 11
8.8491903757
 21
2.954102706
 31
0.0
 70
   160
 71
     1
 42
-1.0
  3
SLDDIMSTYLE1
100
AcDbAlignedDimension
 13
9.6414710896
 23
4.1985459941
 33
0.0
 14
8.12358294
 24
3.6085459941
 34
0.0
100
AcDbRotatedDimension
  0
DIMENSION
  5
3D4
330
1F
100
AcDbEntity
  8
0
  6
Continuous
 62
     7
370
     0
100
AcDbDimension
  2
*D10
 10
6.8336489511
 20
5.1074795339
 30
0.0
 11
6.1090484805
 21
5.1074795339
 31
0.0
 70
   160
 71
     1
 42
-1.0
  3
SLDDIMSTYLE1
100
AcDbAlignedDimension
 13
5.4993709166
 23
4.1985459941
 33
0.0
 14
6.8336489511
 24
4.1985459941
 34
0.0
100
AcDbRotatedDimension
  0
DIMENSION
  5
3E6
330
1F
100
AcDbEntity
  8
0
  6
Continuous
 62
     7
370
     0
100
AcDbDimension
  2
*D11
 10
7.9353405144
 20
5.0789138232
 30
0.0
 11
8.8491903757
 21
5.0789138232
 31
0.0
 70
   160
 71
     1
 42
-1.0
  3
SLDDIMSTYLE1
100
AcDbAlignedDimension
 13
9.6414710896
 23
4.1985459941
 33
0.0
 14
7.9353405144
 24
4.1985459941
 34
0.0
100
AcDbRotatedDimension
  0
DIMENSION
  5
3F8
330
1F
100
AcDbEntity
  8
0
  6
Continuous
 62
     7
370
     0
100
AcDbDimension
  2
*D12
 10
8.12358294
 20
2.3647867611
 30
0.0
 11
7.3689277912
 21
2.3647867611
 31
0.0
 70
   160
 71
     1
 42
-1.0
  3
SLDDIMSTYLE2
100
AcDbAlignedDimension
 13
6.60834883
 23
3.6085459941
 33
0.0
 14
8.12358294
 24
3.6085459941
 34
0.0
100
AcDbRotatedDimension
  0
DIMENSION
  5
40B
330
1F
100
AcDbEntity
  8
0
  6
Continuous
 62
     7
370
     0
100
AcDbDimension
  2
*D13
 10
7.4432145301
 20
3.1903231784
 30
0.0
 11
7.9183539229
 21
3.1903231784
 31
0.0
 70
   160
 71
     1
 42
-1.0
  3
SLDDIMSTYLE3
100
AcDbAlignedDimension
 13
7.2864048566
 23
4.1985459941
 33
0.0
 14
7.4432145301
 24
4.1985459941
 34
0.0
100
AcDbRotatedDimension
  0
DIMENSION
  5
41E
330
1F
100
AcDbEntity
  8
0
  6
Continuous
 62
     7
370
     0
100
AcDbDimension
  2
*D14
 10
7.9353405144
 20
5.4429892822
 30
0.0
 11
7.3689277912
 21
5.4429892822
 31
0.0
 70
   160
 71
     1
 42
-1.0
  3
SLDDIMSTYLE4
100
AcDbAlignedDimension
 13
6.8336489511
 23
4.1985459941
 33
0.0
 14
7.9353405144
 24
4.1985459941
 34
0.0
100
AcDbRotatedDimension
  0
INSERT
  5
438
330
1F
100
AcDbEntity
  8
0
  6
Continuous
 62
     7
370
     0
100
AcDbBlockReference
  2
SW_NOTE_5
 10
6.9305366119
 20
2.7947259516
 30
0.0
  0
INSERT
  5
43F
102
{ACAD_REACTORS
330
441
102
}
330
1F
100
AcDbEntity
  8
0
  6
Continuous
 62
     7
370
     0
100
AcDbBlockReference
  2
SW_NOTE_6
 10
8.2981211863
 20
3.4172678988
 30
0.0
  0
LEADER
  5
441
330
1F
100
AcDbEntity
  8
0
  6
Continuous
 62
     7
370
     0
100
AcDbLeader
  3
SLDDIMSTYLE5
 73
     2
 76
     3
 10
6.7188070146
 20
3.6925459941
 30
0.0
 10
8.0481211863
 20
3.4172678988
 30
0.0
 10
8.2981211863
 20
3.4172678988
 30
0.0
340
43F
  0
LWPOLYLINE
  5
442
330
1F
100
AcDbEntity
  8
0
  6
Continuous
 62
     7
370
     0
100
AcDbPolyline
 90
        3
 70
   128
 43
0.0
 10
8.2981211863
 20
3.4172678988
 10
8.0481211863
 20
3.4172678988
 10
8.0109224
 20
3.6925459941
  0
SOLID
  5
443
330
1F
100
AcDbEntity
  8
0
  6
Continuous
 62
     7
370
     0
100
AcDbTrace
 10
8.0109224
 20
3.6925459941
 30
0.0
 11
8.0060472493
 21
3.5344693263
 31
0.0
 12
8.0575788794
 22
3.541432881
 32
0.0
 13
8.0575788794
 23
3.541432881
 33
0.0
  0
INSERT
  5
449
102
{ACAD_REACTORS
330
44A
102
}
330
1F
100
AcDbEntity
  8
0
  6
Continuous
 62
     7
370
     0
100
AcDbBlockReference
  2
SW_NOTE_7
 10
6.1670972684
 20
4.6661130151
 30
0.0
  0
LEADER
  5
44A
330
1F
100
AcDbEntity
  8
0
  6
Continuous
 62
     7
370
     0
100
AcDbLeader
  3
SLDDIMSTYLE5
 73
     2
 76
     2
 10
7.0029799746
 20
4.5440378648
 30
0.0
 10
6.1670972684
 20
4.6661130151
 30
0.0
340
449
  0
INSERT
  5
450
330
1F
100
AcDbEntity
  8
0
  6
Continuous
 62
     7
370
     0
100
AcDbBlockReference
  2
SW_NOTE_8
 10
8.7063682079
 20
4.6702809923
 30
0.0
  0
LEADER
  5
451
330
1F
100
AcDbEntity
  8
0
  6
Continuous
 62
     7
370
     0
100
AcDbLeader
  3
SLDDIMSTYLE5
 76
     2
 10
7.7536172967
 20
4.5518584991
 30
0.0
 10
8.7063682079
 20
4.6702809923
 30
0.0
  0
INSERT
  5
457
330
1F
100
AcDbEntity
  8
0
  6
Continuous
 62
     7
370
     0
100
AcDbBlockReference
  2
SW_NOTE_9
 10
5.9627830604
 20
3.3695420271
 30
0.0
  0
LEADER
  5
458
330
1F
100
AcDbEntity
  8
0
  6
Continuous
 62
     7
370
     0
100
AcDbLeader
  3
SLDDIMSTYLE5
 76
     2
 10
6.60834883
 20
3.6085459941
 30
0.0
 10
5.9627830604
 20
3.3695420271
 30
0.0
  0
INSERT
  5
45E
330
1F
100
AcDbEntity
  8
0
  6
Continuous
 62
     7
370
     0
100
AcDbBlockReference
  2
SW_NOTE_10
 10
8.9758325709
 20
3.7474222225
 30
0.0
  0
LEADER
  5
45F
330
1F
100
AcDbEntity
  8
0
  6
Continuous
 62
     7
370
     0
100
AcDbLeader
  3
SLDDIMSTYLE5
 76
     2
 10
7.9685829408
 20
3.7485459941
 30
0.0
 10
8.9758325709
 20
3.7474222225
 30
0.0
  0
INSERT
  5
465
102
{ACAD_REACTORS
330
466
102
}
330
1F
100
AcDbEntity
  8
0
  6
Continuous
 62
     7
370
     0
100
AcDbBlockReference
  2
SW_NOTE_11
 10
6.0378893309
 20
3.8281671787
 30
0.0
  0
LEADER
  5
466
330
1F
100
AcDbEntity
  8
0
  6
Continuous
 62
     7
370
     0
100
AcDbLeader
  3
SLDDIMSTYLE5
 73
     2
 76
     2
 10
6.7633488071
 20
3.7485459941
 30
0.0
 10
6.0378893309
 20
3.8281671787
 30
0.0
340
465
  0
HATCH
  5
467
330
1F
100
AcDbEntity
  8
0
  6
Continuous
 62
     7
370
     0
100
AcDbHatch
 10
0.0
 20
0.0
 30
0.0
210
0.0
220
0.0
230
1.0
  2
ANSI31
 70
     0
 71
     0
 91
        1
 92
        0
 93
       28
 72
     1
 10
8.10626243189261
 20
4.704545994065282
 11
8.1235829399683
 21
4.714545994065283
 72
     1
 10
8.1235829399683
 20
4.714545994065283
 11
8.1235829399683
 21
4.788545994065283
 72
     1
 10
8.1235829399683
 20
4.788545994065283
 11
8.113582939968298
 21
4.798545994065283
 72
     1
 10
8.113582939968298
 20
4.798545994065283
 11
8.037659942511734
 21
4.798545994065283
 72
     1
 10
8.037659942511734
 20
4.798545994065283
 11
7.968743372799381
 21
4.798545994065283
 72
     1
 10
7.968743372799381
 20
4.798545994065283
 11
7.083406546766902
 21
4.798545994065283
 72
     1
 10
7.083406546766902
 20
4.798545994065283
 11
7.033780569954527
 21
4.798545994065283
 72
     1
 10
7.033780569954527
 20
4.798545994065283
 11
6.932534807046508
 21
4.798545994065283
 72
     1
 10
6.932534807046508
 20
4.798545994065283
 11
6.851064878220683
 21
4.798545994065283
 72
     1
 10
6.851064878220683
 20
4.798545994065283
 11
6.757425832511734
 21
4.798545994065283
 72
     1
 10
6.757425832511734
 20
4.798545994065283
 11
6.688509262799401
 21
4.798545994065283
 72
     1
 10
6.688509262799401
 20
4.798545994065283
 11
6.618348829968299
 21
4.798545994065283
 72
     1
 10
6.618348829968299
 20
4.798545994065283
 11
6.608348829968298
 21
4.788545994065282
 72
     1
 10
6.608348829968298
 20
4.788545994065282
 11
6.608348829968298
 21
4.714545994065283
 72
     1
 10
6.608348829968298
 20
4.714545994065283
 11
6.625669338043988
 21
4.704545994065282
 72
     1
 10
6.625669338043988
 20
4.704545994065282
 11
6.908348829968299
 21
4.704545994065282
 72
     1
 10
6.908348829968299
 20
4.704545994065282
 11
6.909503530506678
 21
4.702545994065282
 72
     1
 10
6.909503530506678
 20
4.702545994065282
 11
7.187404789968299
 21
4.702545994065282
 72
     1
 10
7.187404789968299
 20
4.702545994065282
 11
7.187404789968299
 21
4.723545994065286
 72
     1
 10
7.187404789968299
 20
4.723545994065286
 11
7.207404789968297
 21
4.723545994065283
 72
     1
 10
7.207404789968297
 20
4.723545994065283
 11
7.207404789968297
 21
4.649545994065282
 72
     1
 10
7.207404789968297
 20
4.649545994065282
 11
7.562395999968298
 21
4.649545994065282
 72
     1
 10
7.562395999968298
 20
4.649545994065282
 11
7.562395999968298
 21
4.723545994065286
 72
     1
 10
7.562395999968298
 20
4.723545994065286
 11
7.582395999968298
 21
4.723545994065283
 72
     1
 10
7.582395999968298
 20
4.723545994065283
 11
7.582395999968298
 21
4.702545994065282
 72
     1
 10
7.582395999968298
 20
4.702545994065282
 11
7.821428239429919
 21
4.702545994065282
 72
     1
 10
7.821428239429919
 20
4.702545994065282
 11
7.8225829399683
 21
4.704545994065284
 72
     1
 10
7.8225829399683
 20
4.704545994065284
 11
8.10626243189261
 21
4.704545994065282
 97
        0
 75
     0
 76
     1
 52
0.0
 41
1.0
 77
     0
 78
     1
 53
45.0
 43
0.0
 44
0.0
 45
-0.0883883476483184
 46
0.0883883476483184
 79
     0
 98
        1
 10
0.0
 20
0.0
  0
HATCH
  5
468
330
1F
100
AcDbEntity
  8
0
  6
Continuous
 62
     7
370
     0
100
AcDbHatch
 10
0.0
 20
0.0
 30
0.0
210
0.0
220
0.0
230
1.0
  2
ANSI31
 70
     0
 71
     0
 91
        1
 92
        0
 93
       24
 72
     1
 10
8.10626243189261
 20
3.692545994065282
 11
7.822582939968298
 21
3.692545994065282
 72
     1
 10
7.822582939968298
 20
3.692545994065282
 11
7.821428239429919
 21
3.694545994065282
 72
     1
 10
7.821428239429919
 20
3.694545994065282
 11
7.582395999968298
 21
3.694545994065282
 72
     1
 10
7.582395999968298
 20
3.694545994065282
 11
7.582395999968298
 21
3.673545994065281
 72
     1
 10
7.582395999968298
 20
3.673545994065281
 11
7.562395999968298
 21
3.673545994065279
 72
     1
 10
7.562395999968298
 20
3.673545994065279
 11
7.562395999968298
 21
3.747545994065281
 72
     1
 10
7.562395999968298
 20
3.747545994065281
 11
7.207404789968297
 21
3.747545994065281
 72
     1
 10
7.207404789968297
 20
3.747545994065281
 11
7.207404789968297
 21
3.673545994065281
 72
     1
 10
7.207404789968297
 20
3.673545994065281
 11
7.187404789968299
 21
3.673545994065279
 72
     1
 10
7.187404789968299
 20
3.673545994065279
 11
7.187404789968299
 21
3.694545994065282
 72
     1
 10
7.187404789968299
 20
3.694545994065282
 11
6.909503530506678
 21
3.694545994065282
 72
     1
 10
6.909503530506678
 20
3.694545994065282
 11
6.908348829968299
 21
3.692545994065282
 72
     1
 10
6.908348829968299
 20
3.692545994065282
 11
6.625669338043988
 21
3.692545994065282
 72
     1
 10
6.625669338043988
 20
3.692545994065282
 11
6.608348829968298
 21
3.682545994065281
 72
     1
 10
6.608348829968298
 20
3.682545994065281
 11
6.608348829968298
 21
3.608545994065282
 72
     1
 10
6.608348829968298
 20
3.608545994065282
 11
6.618348829968299
 21
3.598545994065281
 72
     1
 10
6.618348829968299
 20
3.598545994065281
 11
6.685605656552731
 21
3.598545994065281
 72
     1
 10
6.685605656552731
 20
3.598545994065281
 11
6.752418883056708
 21
3.598545994065281
 72
     1
 10
6.752418883056708
 20
3.598545994065281
 11
6.849582596202064
 21
3.598545994065281
 72
     1
 10
6.849582596202064
 20
3.598545994065281
 11
6.931270907890376
 21
3.598545994065281
 72
     1
 10
6.931270907890376
 20
3.598545994065281
 11
8.113582939968298
 21
3.598545994065281
 72
     1
 10
8.113582939968298
 20
3.598545994065281
 11
8.1235829399683
 21
3.608545994065282
 72
     1
 10
8.1235829399683
 20
3.608545994065282
 11
8.1235829399683
 21
3.682545994065282
 72
     1
 10
8.1235829399683
 20
3.682545994065282
 11
8.10626243189261
 21
3.692545994065282
 97
        0
 75
     0
 76
     1
 52
0.0
 41
1.0
 77
     0
 78
     1
 53
45.0
 43
0.0
 44
0.0
 45
-0.0883883476483184
 46
0.0883883476483184
 79
     0
 98
        1
 10
0.0
 20
0.0
  0
HATCH
  5
469
330
1F
100
AcDbEntity
  8
0
  6
Continuous
 62
     7
370
     0
100
AcDbHatch
 10
0.0
 20
0.0
 30
0.0
210
0.0
220
0.0
230
1.0
  2
ANSI31
 70
     0
 71
     0
 91
        1
 92
        0
 93
        6
 72
     1
 10
7.968582940810586
 20
3.748545994065282
 11
7.888582940810587
 21
3.748545994065282
 72
     1
 10
7.888582940810587
 20
3.748545994065282
 11
7.888582940810587
 21
3.691045994065282
 72
     1
 10
7.888582940810587
 20
3.691045994065282
 11
7.905903448886275
 21
3.681045994065282
 72
     1
 10
7.905903448886275
 20
3.681045994065282
 11
7.958582940810587
 21
3.681045994065282
 72
     1
 10
7.958582940810587
 20
3.681045994065282
 11
7.968582940810586
 21
3.698366502140971
 72
     1
 10
7.968582940810586
 20
3.698366502140971
 11
7.968582940810586
 21
3.748545994065282
 97
        0
 75
     0
 76
     1
 52
0.0
 41
1.0
 77
     0
 78
     1
 53
45.0
 43
0.0
 44
0.0
 45
-0.0883883476483184
 46
0.0883883476483184
 79
     0
 98
        1
 10
0.0
 20
0.0
  0
HATCH
  5
46A
330
1F
100
AcDbEntity
  8
0
  6
Continuous
 62
     7
370
     0
100
AcDbHatch
 10
0.0
 20
0.0
 30
0.0
210
0.0
220
0.0
230
1.0
  2
ANSI31
 70
     0
 71
     0
 91
        1
 92
        0
 93
        6
 72
     1
 10
7.968582940810586
 20
4.648545994065281
 11
7.968582940810586
 21
4.698725485989594
 72
     1
 10
7.968582940810586
 20
4.698725485989594
 11
7.958582940810587
 21
4.716045994065282
 72
     1
 10
7.958582940810587
 20
4.716045994065282
 11
7.905903448886275
 21
4.716045994065282
 72
     1
 10
7.905903448886275
 20
4.716045994065282
 11
7.888582940810587
 21
4.706045994065282
 72
     1
 10
7.888582940810587
 20
4.706045994065282
 11
7.888582940810587
 21
4.648545994065281
 72
     1
 10
7.888582940810587
 20
4.648545994065281
 11
7.968582940810586
 21
4.648545994065281
 97
        0
 75
     0
 76
     1
 52
0.0
 41
1.0
 77
     0
 78
     1
 53
45.0
 43
0.0
 44
0.0
 45
-0.0883883476483184
 46
0.0883883476483184
 79
     0
 98
        1
 10
0.0
 20
0.0
  0
HATCH
  5
46B
330
1F
100
AcDbEntity
  8
0
  6
Continuous
 62
     7
370
     0
100
AcDbHatch
 10
0.0
 20
0.0
 30
0.0
210
0.0
220
0.0
230
1.0
  2
ANSI31
 70
     0
 71
     0
 91
        1
 92
        0
 93
        6
 72
     1
 10
6.763348807084443
 20
4.648545994065282
 11
6.843348807084443
 21
4.648545994065282
 72
     1
 10
6.843348807084443
 20
4.648545994065282
 11
6.843348807084443
 21
4.706045994065283
 72
     1
 10
6.843348807084443
 20
4.706045994065283
 11
6.826028299008754
 21
4.716045994065282
 72
     1
 10
6.826028299008754
 20
4.716045994065282
 11
6.773348807084443
 21
4.716045994065282
 72
     1
 10
6.773348807084443
 20
4.716045994065282
 11
6.763348807084443
 21
4.698725485989594
 72
     1
 10
6.763348807084443
 20
4.698725485989594
 11
6.763348807084443
 21
4.648545994065282
 97
        0
 75
     0
 76
     1
 52
0.0
 41
1.0
 77
     0
 78
     1
 53
45.0
 43
0.0
 44
0.0
 45
-0.0883883476483184
 46
0.0883883476483184
 79
     0
 98
        1
 10
0.0
 20
0.0
  0
HATCH
  5
46C
330
1F
100
AcDbEntity
  8
0
  6
Continuous
 62
     7
370
     0
100
AcDbHatch
 10
0.0
 20
0.0
 30
0.0
210
0.0
220
0.0
230
1.0
  2
ANSI31
 70
     0
 71
     0
 91
        1
 92
        0
 93
        6
 72
     1
 10
6.763348807084443
 20
3.748545994065282
 11
6.763348807084443
 21
3.698366502140971
 72
     1
 10
6.763348807084443
 20
3.698366502140971
 11
6.773348807084442
 21
3.681045994065282
 72
     1
 10
6.773348807084442
 20
3.681045994065282
 11
6.826028299008754
 21
3.681045994065282
 72
     1
 10
6.826028299008754
 20
3.681045994065282
 11
6.843348807084443
 21
3.691045994065282
 72
     1
 10
6.843348807084443
 20
3.691045994065282
 11
6.843348807084443
 21
3.748545994065282
 72
     1
 10
6.843348807084443
 20
3.748545994065282
 11
6.763348807084443
 21
3.748545994065282
 97
        0
 75
     0
 76
     1
 52
0.0
 41
1.0
 77
     0
 78
     1
 53
45.0
 43
0.0
 44
0.0
 45
-0.0883883476483184
 46
0.0883883476483184
 79
     0
 98
        1
 10
0.0
 20
0.0
  0
HATCH
  5
46D
330
1F
100
AcDbEntity
  8
0
  6
Continuous
 62
     7
370
     0
100
AcDbHatch
 10
0.0
 20
0.0
 30
0.0
210
0.0
220
0.0
230
1.0
  2
ANSI31
 70
     0
 71
     0
 91
        1
 92
        0
 93
        4
 72
     1
 10
7.879611622022772
 20
4.698545994065282
 11
7.658827520253153
 21
4.698545994065282
 72
     2
 10
7.045970435617908
 20
4.198545994065282
 40
0.7909448818897639
 50
320.7906836425316
 51
399.20931635747
 73
     0
 72
     1
 10
7.658827520253153
 20
3.698545994065282
 11
7.879611622022772
 21
3.698545994065282
 72
     2
 10
5.664474372625781
 20
4.198545994065282
 40
2.270866141732284
 50
347.2803766008738
 51
372.7196233991279
 73
     1
 97
        0
 75
     0
 76
     1
 52
0.0
 41
1.0
 77
     0
 78
     1
 53
45.0
 43
0.0
 44
0.0
 45
-0.0883883476483184
 46
0.0883883476483184
 79
     0
 98
        1
 10
0.0
 20
0.0
  0
HATCH
  5
46E
330
1F
100
AcDbEntity
  8
0
  6
Continuous
 62
     7
370
     0
100
AcDbHatch
 10
0.0
 20
0.0
 30
0.0
210
0.0
220
0.0
230
1.0
  2
ANSI31
 70
     0
 71
     0
 91
        1
 92
        0
 93
        4
 72
     1
 10
7.658827520253153
 20
4.698545994065282
 11
7.588781260798027
 21
4.698545994065282
 72
     2
 10
8.374710593098222
 20
4.198545994065282
 40
0.9314960629921262
 50
147.5359091707225
 51
212.4640908292783
 73
     1
 72
     1
 10
7.588781260798027
 20
3.698545994065282
 11
7.658827520253153
 21
3.698545994065282
 72
     2
 10
7.045970435617908
 20
4.198545994065282
 40
0.7909448818897639
 50
320.7906836425316
 51
399.20931635747
 73
     1
 97
        0
 75
     0
 76
     1
 52
0.0
 41
1.0
 77
     0
 78
     1
 53
45.0
 43
0.0
 44
0.0
 45
-0.0883883476483184
 46
0.0883883476483184
 79
     0
 98
        1
 10
0.0
 20
0.0
  0
HATCH
  5
46F
330
1F
100
AcDbEntity
  8
0
  6
Continuous
 62
     7
370
     0
100
AcDbHatch
 10
0.0
 20
0.0
 30
0.0
210
0.0
220
0.0
230
1.0
  2
ANSI31
 70
     0
 71
     0
 91
        1
 92
        0
 93
        4
 72
     1
 10
7.187443372974786
 20
4.698545994065277
 11
7.088532170012998
 21
4.698545994065282
 72
     2
 10
7.809239502317947
 20
4.198545994065282
 40
0.8771653543307086
 50
145.24852229721
 51
214.7514777027909
 73
     1
 72
     1
 10
7.088532170012998
 20
3.698545994065282
 11
7.187443372974786
 21
3.698545994065287
 72
     2
 10
5.973806431451799
 20
4.198545994065282
 40
1.312598425196854
 50
337.609082358963
 51
382.3909176410387
 73
     1
 97
        0
 75
     0
 76
     1
 52
0.0
 41
1.0
 77
     0
 78
     1
 53
45.0
 43
0.0
 44
0.0
 45
-0.0883883476483184
 46
0.0883883476483184
 79
     0
 98
        1
 10
0.0
 20
0.0
  0
HATCH
  5
470
330
1F
100
AcDbEntity
  8
0
  6
Continuous
 62
     7
370
     0
100
AcDbHatch
 10
0.0
 20
0.0
 30
0.0
210
0.0
220
0.0
230
1.0
  2
ANSI31
 70
     0
 71
     0
 91
        1
 92
        0
 93
        4
 72
     1
 10
7.088532170012998
 20
4.698545994065283
 11
6.844562176652489
 21
4.698545994065282
 72
     2
 10
18.29309777003456
 20
4.198545994065282
 40
11.45944881889772
 50
177.4992700087731
 51
182.5007299912278
 73
     1
 72
     1
 10
6.844562176652489
 20
3.698545994065282
 11
7.088532170012998
 21
3.698545994065281
 72
     2
 10
7.809239502317947
 20
4.198545994065282
 40
0.8771653543307086
 50
145.24852229721
 51
214.7514777027909
 73
     0
 97
        0
 75
     0
 76
     1
 52
0.0
 41
1.0
 77
     0
 78
     1
 53
45.0
 43
0.0
 44
0.0
 45
-0.0883883476483184
 46
0.0883883476483184
 79
     0
 98
        1
 10
0.0
 20
0.0
  0
ENDSEC
  0
SECTION
  2
OBJECTS
  0
DICTIONARY
  5
C
330
0
100
AcDbDictionary
281
     1
  3
ACAD_GROUP
350
D
  3
ACAD_LAYOUT
350
1A
  3
ACAD_MLINESTYLE
350
17
  3
ACAD_PLOTSETTINGS
350
19
  3
ACAD_PLOTSTYLENAME
350
E
  0
DICTIONARY
  5
D
102
{ACAD_REACTORS
330
C
102
}
330
C
100
AcDbDictionary
281
     1
  0
DICTIONARY
  5
1A
102
{ACAD_REACTORS
330
C
102
}
330
C
100
AcDbDictionary
281
     1
  3
Layout1
350
1E
  3
Layout2
350
26
  3
Model
350
22
  0
DICTIONARY
  5
17
102
{ACAD_REACTORS
330
C
102
}
330
C
100
AcDbDictionary
281
     1
  3
Standard
350
18
  0
DICTIONARY
  5
19
102
{ACAD_REACTORS
330
C
102
}
330
C
100
AcDbDictionary
281
     1
  0
ACDBDICTIONARYWDFLT
  5
E
102
{ACAD_REACTORS
330
C
102
}
330
C
100
AcDbDictionary
281
     1
  3
Normal
350
F
100
AcDbDictionaryWithDefault
340
F
  0
LAYOUT
  5
1E
102
{ACAD_REACTORS
330
1A
102
}
330
1A
100
AcDbPlotSettings
  1

  2
none_device
  4

  6

 40
0.0
 41
0.0
 42
0.0
 43
0.0
 44
0.0
 45
0.0
 46
0.0
 47
0.0
 48
0.0
 49
0.0
140
0.0
141
0.0
142
1.0
143
1.0
 70
   688
 72
     0
 73
     0
 74
     5
  7

 75
    16
147
1.0
148
0.0
149
0.0
100
AcDbLayout
  1
Layout1
 70
     1
 71
     1
 10
0.0
 20
0.0
 11
12.0
 21
9.0
 12
0.0
 22
0.0
 32
0.0
 14
1.0000000000E+20
 24
1.0000000000E+20
 34
1.0000000000E+20
 15
-1.0000000000E+20
 25
-1.0000000000E+20
 35
-1.0000000000E+20
146
0.0
 13
0.0
 23
0.0
 33
0.0
 16
1.0
 26
0.0
 36
0.0
 17
0.0
 27
1.0
 37
0.0
 76
     0
330
1B
  0
LAYOUT
  5
26
102
{ACAD_REACTORS
330
1A
102
}
330
1A
100
AcDbPlotSettings
  1

  2
none_device
  4

  6

 40
0.0
 41
0.0
 42
0.0
 43
0.0
 44
0.0
 45
0.0
 46
0.0
 47
0.0
 48
0.0
 49
0.0
140
0.0
141
0.0
142
1.0
143
1.0
 70
   688
 72
     0
 73
     0
 74
     5
  7

 75
    16
147
1.0
148
0.0
149
0.0
100
AcDbLayout
  1
Layout2
 70
     1
 71
     2
 10
0.0
 20
0.0
 11
0.0
 21
0.0
 12
0.0
 22
0.0
 32
0.0
 14
0.0
 24
0.0
 34
0.0
 15
0.0
 25
0.0
 35
0.0
146
0.0
 13
0.0
 23
0.0
 33
0.0
 16
1.0
 26
0.0
 36
0.0
 17
0.0
 27
1.0
 37
0.0
 76
     0
330
23
  0
LAYOUT
  5
22
102
{ACAD_REACTORS
330
1A
102
}
330
1A
100
AcDbPlotSettings
  1

  2
none_device
  4

  6

 40
0.0
 41
0.0
 42
0.0
 43
0.0
 44
0.0
 45
0.0
 46
0.0
 47
0.0
 48
0.0
 49
0.0
140
0.0
141
0.0
142
1.0
143
1.0
 70
  1712
 72
     0
 73
     0
 74
     0
  7

 75
     0
147
1.0
148
0.0
149
0.0
100
AcDbLayout
  1
Model
 70
     1
 71
     0
 10
0.0
 20
0.0
 11
0.0
 21
0.0
 12
0.0
 22
0.0
 32
0.0
 14
0.0
 24
0.0
 34
0.0
 15
11.0
 25
8.5
 35
0.0
146
0.0
 13
0.0
 23
0.0
 33
0.0
 16
1.0
 26
0.0
 36
0.0
 17
0.0
 27
1.0
 37
0.0
 76
     0
330
1F
  0
MLINESTYLE
  5
18
102
{ACAD_REACTORS
330
17
102
}
330
17
100
AcDbMlineStyle
  2
Standard
 70
     0
  3

 62
   256
 51
90.0
 52
90.0
 71
     2
 49
0.5
 62
   256
  6
BYLAYER
 49
-0.5
 62
   256
  6
BYLAYER
  0
ACDBPLACEHOLDER
  5
F
102
{ACAD_REACTORS
330
E
102
}
330
E
  0
ENDSEC
  0
EOF
