  0
SECTION
  2
HEADER
  9
$ACADVER
  1
AC1015
  9
$ACADMAINTVER
 70
     6
  9
$DWGCODEPAGE
  3
ANSI_1252
  9
$INSBASE
 10
0.0
 20
0.0
 30
0.0
  9
$EXTMIN
 10
0.0
 20
0.0
 30
0.0
  9
$EXTMAX
 10
17.0
 20
11.0
 30
0.0
  9
$LIMMIN
 10
0.0
 20
0.0
  9
$LIMMAX
 10
0.0
 20
0.0
  9
$ORTHOMODE
 70
     0
  9
$REGENMODE
 70
     1
  9
$FILLMODE
 70
     1
  9
$QTEXTMODE
 70
     0
  9
$MIRRTEXT
 70
     1
  9
$LTSCALE
 40
1.0
  9
$ATTMODE
 70
     1
  9
$TEXTSIZE
 40
0.1388888889
  9
$TRACEWID
 40
0.05
  9
$TEXTSTYLE
  7
Standard
  9
$CLAYER
  8
0
  9
$CELTYPE
  6
ByLayer
  9
$CECOLOR
 62
   256
  9
$CELTSCALE
 40
1.0
  9
$DISPSILH
 70
     0
  9
$DIMSCALE
 40
1.0
  9
$DIMASZ
 40
0.156
  9
$DIMEXO
 40
0.05
  9
$DIMDLI
 40
0.38
  9
$DIMRND
 40
0.0
  9
$DIMDLE
 40
0.0
  9
$DIMEXE
 40
0.125
  9
$DIMTP
 40
0.0
  9
$DIMTM
 40
0.0
  9
$DIMTXT
 40
0.1388888889
  9
$DIMCEN
 40
0.09
  9
$DIMTSZ
 40
0.0
  9
$DIMTOL
 70
     0
  9
$DIMLIM
 70
     0
  9
$DIMTIH
 70
     1
  9
$DIMTOH
 70
     1
  9
$DIMSE1
 70
     0
  9
$DIMSE2
 70
     0
  9
$DIMTAD
 70
     0
  9
$DIMZIN
 70
     0
  9
$DIMBLK
  1

  9
$DIMASO
 70
     1
  9
$DIMSHO
 70
     1
  9
$DIMPOST
  1

  9
$DIMAPOST
  1

  9
$DIMALT
 70
     0
  9
$DIMALTD
 70
     2
  9
$DIMALTF
 40
25.4
  9
$DIMLFAC
 40
2.0
  9
$DIMTOFL
 70
     0
  9
$DIMTVP
 40
0.0
  9
$DIMTIX
 70
     0
  9
$DIMSOXD
 70
     0
  9
$DIMSAH
 70
     0
  9
$DIMBLK1
  1

  9
$DIMBLK2
  1

  9
$DIMSTYLE
  2
Standard
  9
$DIMCLRD
 70
     0
  9
$DIMCLRE
 70
     0
  9
$DIMCLRT
 70
     0
  9
$DIMTFAC
 40
1.0
  9
$DIMGAP
 40
0.06
  9
$DIMJUST
 70
     0
  9
$DIMSD1
 70
     0
  9
$DIMSD2
 70
     0
  9
$DIMTOLJ
 70
     1
  9
$DIMTZIN
 70
     0
  9
$DIMALTZ
 70
     0
  9
$DIMALTTZ
 70
     0
  9
$DIMUPT
 70
     0
  9
$DIMDEC
 70
     4
  9
$DIMTDEC
 70
     4
  9
$DIMALTU
 70
     2
  9
$DIMALTTD
 70
     2
  9
$DIMTXSTY
  7
Standard
  9
$DIMAUNIT
 70
     0
  9
$DIMADEC
 70
     0
  9
$DIMALTRND
 40
0.0
  9
$DIMAZIN
 70
     0
  9
$DIMDSEP
 70
    46
  9
$DIMATFIT
 70
     3
  9
$DIMFRAC
 70
     0
  9
$DIMLDRBLK
  1

  9
$DIMLUNIT
 70
     2
  9
$DIMLWD
 70
    -2
  9
$DIMLWE
 70
    -2
  9
$DIMTMOVE
 70
     0
  9
$LUNITS
 70
     2
  9
$LUPREC
 70
     2
  9
$SKETCHINC
 40
0.1
  9
$FILLETRAD
 40
0.5
  9
$AUNITS
 70
     0
  9
$AUPREC
 70
     0
  9
$MENU
  1
.
  9
$ELEVATION
 40
0.0
  9
$PELEVATION
 40
0.0
  9
$THICKNESS
 40
0.0
  9
$LIMCHECK
 70
     0
  9
$CHAMFERA
 40
0.5
  9
$CHAMFERB
 40
0.5
  9
$CHAMFERC
 40
1.0
  9
$CHAMFERD
 40
0.0
  9
$SKPOLY
 70
     0
  9
$TDCREATE
 40
2454805.310834942
  9
$TDUCREATE
 40
2454805.519168275
  9
$TDUPDATE
 40
2454805.310834954
  9
$TDUUPDATE
 40
2454805.519168287
  9
$TDINDWG
 40
0.0000000116
  9
$TDUSRTIMER
 40
0.0000000116
  9
$USRTIMER
 70
     1
  9
$ANGBASE
 50
0.0
  9
$ANGDIR
 70
     0
  9
$PDMODE
 70
     0
  9
$PDSIZE
 40
-1.0
  9
$PLINEWID
 40
0.0
  9
$SPLFRAME
 70
     0
  9
$SPLINETYPE
 70
     6
  9
$SPLINESEGS
 70
     8
  9
$HANDSEED
  5
4A3
  9
$SURFTAB1
 70
     6
  9
$SURFTAB2
 70
     6
  9
$SURFTYPE
 70
     6
  9
$SURFU
 70
     6
  9
$SURFV
 70
     6
  9
$UCSBASE
  2

  9
$UCSNAME
  2

  9
$UCSORG
 10
0.0
 20
0.0
 30
0.0
  9
$UCSXDIR
 10
1.0
 20
0.0
 30
0.0
  9
$UCSYDIR
 10
0.0
 20
1.0
 30
0.0
  9
$UCSORTHOREF
  2

  9
$UCSORTHOVIEW
 70
     0
  9
$UCSORGTOP
 10
0.0
 20
0.0
 30
0.0
  9
$UCSORGBOTTOM
 10
0.0
 20
0.0
 30
0.0
  9
$UCSORGLEFT
 10
0.0
 20
0.0
 30
0.0
  9
$UCSORGRIGHT
 10
0.0
 20
0.0
 30
0.0
  9
$UCSORGFRONT
 10
0.0
 20
0.0
 30
0.0
  9
$UCSORGBACK
 10
0.0
 20
0.0
 30
0.0
  9
$PUCSBASE
  2

  9
$PUCSNAME
  2

  9
$PUCSORG
 10
0.0
 20
0.0
 30
0.0
  9
$PUCSXDIR
 10
1.0
 20
0.0
 30
0.0
  9
$PUCSYDIR
 10
0.0
 20
1.0
 30
0.0
  9
$PUCSORTHOREF
  2

  9
$PUCSORTHOVIEW
 70
     0
  9
$PUCSORGTOP
 10
0.0
 20
0.0
 30
0.0
  9
$PUCSORGBOTTOM
 10
0.0
 20
0.0
 30
0.0
  9
$PUCSORGLEFT
 10
0.0
 20
0.0
 30
0.0
  9
$PUCSORGRIGHT
 10
0.0
 20
0.0
 30
0.0
  9
$PUCSORGFRONT
 10
0.0
 20
0.0
 30
0.0
  9
$PUCSORGBACK
 10
0.0
 20
0.0
 30
0.0
  9
$USERI1
 70
     0
  9
$USERI2
 70
     0
  9
$USERI3
 70
     0
  9
$USERI4
 70
     0
  9
$USERI5
 70
     0
  9
$USERR1
 40
0.0
  9
$USERR2
 40
0.0
  9
$USERR3
 40
0.0
  9
$USERR4
 40
0.0
  9
$USERR5
 40
0.0
  9
$WORLDVIEW
 70
     1
  9
$SHADEDGE
 70
     3
  9
$SHADEDIF
 70
    70
  9
$TILEMODE
 70
     1
  9
$MAXACTVP
 70
    64
  9
$PINSBASE
 10
0.0
 20
0.0
 30
0.0
  9
$PLIMCHECK
 70
     0
  9
$PEXTMIN
 10
1.0000000000E+20
 20
1.0000000000E+20
 30
1.0000000000E+20
  9
$PEXTMAX
 10
-1.0000000000E+20
 20
-1.0000000000E+20
 30
-1.0000000000E+20
  9
$PLIMMIN
 10
0.0
 20
0.0
  9
$PLIMMAX
 10
12.0
 20
9.0
  9
$UNITMODE
 70
     0
  9
$VISRETAIN
 70
     1
  9
$PLINEGEN
 70
     0
  9
$PSLTSCALE
 70
     1
  9
$TREEDEPTH
 70
  3020
  9
$CMLSTYLE
  2
Standard
  9
$CMLJUST
 70
     0
  9
$CMLSCALE
 40
1.0
  9
$PROXYGRAPHICS
 70
     1
  9
$MEASUREMENT
 70
     0
  9
$CELWEIGHT
370
    -1
  9
$ENDCAPS
280
     0
  9
$JOINSTYLE
280
     0
  9
$LWDISPLAY
290
     1
  9
$INSUNITS
 70
     1
  9
$HYPERLINKBASE
  1

  9
$STYLESHEET
  1

  9
$XEDIT
290
     1
  9
$CEPSNTYPE
380
     0
  9
$PSTYLEMODE
290
     1
  9
$FINGERPRINTGUID
  2
{FC496BC2-988E-4BA4-8FA1-509F0212807A}
  9
$VERSIONGUID
  2
{FAEB1C32-E019-11D5-929B-00C0DF256EC4}
  9
$EXTNAMES
290
     1
  9
$PSVPSCALE
 40
0.0
  9
$OLESTARTUP
290
     0
  0
ENDSEC
  0
SECTION
  2
CLASSES
  0
CLASS
  1
ACDBDICTIONARYWDFLT
  2
AcDbDictionaryWithDefault
  3
ObjectDBX Classes
 90
        0
280
     0
281
     0
  0
CLASS
  1
ACDBPLACEHOLDER
  2
AcDbPlaceHolder
  3
ObjectDBX Classes
 90
        0
280
     0
281
     0
  0
CLASS
  1
LAYOUT
  2
AcDbLayout
  3
ObjectDBX Classes
 90
        0
280
     0
281
     0
  0
ENDSEC
  0
SECTION
  2
TABLES
  0
TABLE
  2
VPORT
  5
8
330
0
100
AcDbSymbolTable
 70
     1
  0
VPORT
  5
29
330
8
100
AcDbSymbolTableRecord
100
AcDbViewportTableRecord
  2
*Active
 70
     0
 10
0.0
 20
0.0
 11
1.0
 21
1.0
 12
8.5
 22
5.5
 13
0.0
 23
0.0
 14
0.5
 24
0.5
 15
0.5
 25
0.5
 16
0.0
 26
0.0
 36
1.0
 17
0.0
 27
0.0
 37
0.0
 40
11.0
 41
1.5454545455
 42
50.0
 43
0.0
 44
0.0
 50
0.0
 51
0.0
 71
     0
 72
  2000
 73
     1
 74
     3
 75
     0
 76
     0
 77
     0
 78
     0
281
     0
 65
     1
110
0.0
120
0.0
130
0.0
111
1.0
121
0.0
131
0.0
112
0.0
122
1.0
132
0.0
 79
     0
146
0.0
  0
ENDTAB
  0
TABLE
  2
LTYPE
  5
5
330
0
100
AcDbSymbolTable
 70
     6
  0
LTYPE
  5
14
330
5
100
AcDbSymbolTableRecord
100
AcDbLinetypeTableRecord
  2
ByBlock
 70
     0
  3

 72
    65
 73
     0
 40
0.0
  0
LTYPE
  5
15
330
5
100
AcDbSymbolTableRecord
100
AcDbLinetypeTableRecord
  2
ByLayer
 70
     0
  3

 72
    65
 73
     0
 40
0.0
  0
LTYPE
  5
16
330
5
100
AcDbSymbolTableRecord
100
AcDbLinetypeTableRecord
  2
Continuous
 70
     0
  3
Solid line
 72
    65
 73
     0
 40
0.0
  0
LTYPE
  5
2A
330
5
100
AcDbSymbolTableRecord
100
AcDbLinetypeTableRecord
  2
HIDDEN
 70
     0
  3
Hidden __ __ __ __ __ __ __ __ __ __ __ __ __ __
 72
    65
 73
     2
 40
0.075
 49
0.05
 74
     0
 49
-0.025
 74
     0
  0
LTYPE
  5
2B
330
5
100
AcDbSymbolTableRecord
100
AcDbLinetypeTableRecord
  2
PHANTOM
 70
     0
  3
Phantom ______  __  __  ______  __  __  ______
 72
    65
 73
     6
 40
0.5
 49
0.25
 74
     0
 49
-0.05
 74
     0
 49
0.05
 74
     0
 49
-0.05
 74
     0
 49
0.05
 74
     0
 49
-0.05
 74
     0
  0
LTYPE
  5
2C
330
5
100
AcDbSymbolTableRecord
100
AcDbLinetypeTableRecord
  2
CENTER
 70
     0
  3
Center ____ _ ____ _ ____ _ ____ _ ____ _ ____
 72
    65
 73
     4
 40
0.4
 49
0.25
 74
     0
 49
-0.05
 74
     0
 49
0.05
 74
     0
 49
-0.05
 74
     0
  0
LTYPE
  5
2D
330
5
100
AcDbSymbolTableRecord
100
AcDbLinetypeTableRecord
  2
CENTERX2
 70
     0
  3
Center (2x) ________  __  ________  __  _____
 72
    65
 73
     4
 40
0.8
 49
0.5
 74
     0
 49
-0.1
 74
     0
 49
0.1
 74
     0
 49
-0.1
 74
     0
  0
LTYPE
  5
2E
330
5
100
AcDbSymbolTableRecord
100
AcDbLinetypeTableRecord
  2
DOT2
 70
     0
  3
Dot (.5x) ........................................
 72
    65
 73
     2
 40
0.025
 49
0.0
 74
     0
 49
-0.025
 74
     0
  0
ENDTAB
  0
TABLE
  2
LAYER
  5
2
330
0
100
AcDbSymbolTable
 70
     2
  0
LAYER
  5
10
330
2
100
AcDbSymbolTableRecord
100
AcDbLayerTableRecord
  2
0
 70
     0
 62
     7
  6
Continuous
370
    -3
390
F
  0
LAYER
  5
2F
330
2
100
AcDbSymbolTableRecord
100
AcDbLayerTableRecord
  2
FORMAT
 70
     0
 62
     7
  6
Continuous
370
    -3
390
F
  0
ENDTAB
  0
TABLE
  2
STYLE
  5
3
330
0
100
AcDbSymbolTable
 70
    20
  0
STYLE
  5
11
330
3
100
AcDbSymbolTableRecord
100
AcDbTextStyleTableRecord
  2
Standard
 70
     0
 40
0.0
 41
1.0
 50
0.0
 71
     0
 42
0.2
  3
txt
  4

  0
STYLE
  5
6B
330
3
100
AcDbSymbolTableRecord
100
AcDbTextStyleTableRecord
  2
SLDTEXTSTYLE0
 70
     0
 40
0.0
 41
0.75
 50
0.0
 71
     0
 42
0.2
  3
TXT
  4

  0
STYLE
  5
87
330
3
100
AcDbSymbolTableRecord
100
AcDbTextStyleTableRecord
  2
SLDTEXTSTYLE1
 70
     0
 40
0.0
 41
0.7016129032
 50
0.0
 71
     0
 42
0.2
  3
TXT
  4

  0
STYLE
  5
89
330
3
100
AcDbSymbolTableRecord
100
AcDbTextStyleTableRecord
  2
SLDTEXTSTYLE2
 70
     0
 40
0.0
 41
0.6853448276
 50
0.0
 71
     0
 42
0.2
  3
TXT
  4

  0
STYLE
  5
8B
330
3
100
AcDbSymbolTableRecord
100
AcDbTextStyleTableRecord
  2
SLDTEXTSTYLE3
 70
     0
 40
0.0
 41
0.7
 50
0.0
 71
     0
 42
0.2
  3
TXT
  4

  0
STYLE
  5
8D
330
3
100
AcDbSymbolTableRecord
100
AcDbTextStyleTableRecord
  2
SLDTEXTSTYLE4
 70
     0
 40
0.0
 41
0.6513157895
 50
0.0
 71
     0
 42
0.2
  3
TXT
  4

  0
STYLE
  5
90
330
3
100
AcDbSymbolTableRecord
100
AcDbTextStyleTableRecord
  2
SLDTEXTSTYLE5
 70
     0
 40
0.0
 41
0.7083333333
 50
0.0
 71
     0
 42
0.2
  3
TXT
  4

  0
STYLE
  5
93
330
3
100
AcDbSymbolTableRecord
100
AcDbTextStyleTableRecord
  2
SLDTEXTSTYLE6
 70
     0
 40
0.0
 41
0.7211538462
 50
0.0
 71
     0
 42
0.2
  3
TXT
  4

  0
STYLE
  5
9C
330
3
100
AcDbSymbolTableRecord
100
AcDbTextStyleTableRecord
  2
SLDTEXTSTYLE7
 70
     0
 40
0.0
 41
0.6428571429
 50
0.0
 71
     0
 42
0.2
  3
TXT
  4

  0
STYLE
  5
A0
330
3
100
AcDbSymbolTableRecord
100
AcDbTextStyleTableRecord
  2
SLDTEXTSTYLE8
 70
     0
 40
0.0
 41
0.6375
 50
0.0
 71
     0
 42
0.2
  3
TXT
  4

  0
STYLE
  5
B2
330
3
100
AcDbSymbolTableRecord
100
AcDbTextStyleTableRecord
  2
SLDTEXTSTYLE9
 70
     0
 40
0.0
 41
0.7105263158
 50
0.0
 71
     0
 42
0.2
  3
TXT
  4

  0
STYLE
  5
B4
330
3
100
AcDbSymbolTableRecord
100
AcDbTextStyleTableRecord
  2
SLDTEXTSTYLE10
 70
     0
 40
0.0
 41
0.6875
 50
0.0
 71
     0
 42
0.2
  3
TXT
  4

  0
STYLE
  5
BB
330
3
100
AcDbSymbolTableRecord
100
AcDbTextStyleTableRecord
  2
SLDTEXTSTYLE11
 70
     0
 40
0.0
 41
0.65625
 50
0.0
 71
     0
 42
0.2
  3
TXT
  4

  0
STYLE
  5
C4
330
3
100
AcDbSymbolTableRecord
100
AcDbTextStyleTableRecord
  2
SLDTEXTSTYLE12
 70
     0
 40
0.0
 41
0.703125
 50
0.0
 71
     0
 42
0.2
  3
TXT
  4

  0
STYLE
  5
C6
330
3
100
AcDbSymbolTableRecord
100
AcDbTextStyleTableRecord
  2
SLDTEXTSTYLE13
 70
     0
 40
0.0
 41
0.7142857143
 50
0.0
 71
     0
 42
0.2
  3
TXT
  4

  0
STYLE
  5
C8
330
3
100
AcDbSymbolTableRecord
100
AcDbTextStyleTableRecord
  2
SLDTEXTSTYLE14
 70
     0
 40
0.0
 41
0.7115384615
 50
0.0
 71
     0
 42
0.2
  3
TXT
  4

  0
STYLE
  5
CB
330
3
100
AcDbSymbolTableRecord
100
AcDbTextStyleTableRecord
  2
SLDTEXTSTYLE15
 70
     0
 40
0.0
 41
0.6796875
 50
0.0
 71
     0
 42
0.2
  3
TXT
  4

  0
STYLE
  5
D0
330
3
100
AcDbSymbolTableRecord
100
AcDbTextStyleTableRecord
  2
SLDTEXTSTYLE16
 70
     0
 40
0.0
 41
0.705
 50
0.0
 71
     0
 42
0.2
  3
TXT
  4

  0
STYLE
  5
46C
330
3
100
AcDbSymbolTableRecord
100
AcDbTextStyleTableRecord
  2
SLDTEXTSTYLE17
 70
     0
 40
0.0
 41
0.675
 50
0.0
 71
     0
 42
0.2
  3
TXT
  4

  0
STYLE
  5
46E
330
3
100
AcDbSymbolTableRecord
100
AcDbTextStyleTableRecord
  2
SLDTEXTSTYLE18
 70
     0
 40
0.0
 41
0.625
 50
0.0
 71
     0
 42
0.2
  3
TXT
  4

  0
ENDTAB
  0
TABLE
  2
VIEW
  5
6
330
0
100
AcDbSymbolTable
 70
     0
  0
ENDTAB
  0
TABLE
  2
UCS
  5
7
330
0
100
AcDbSymbolTable
 70
     0
  0
ENDTAB
  0
TABLE
  2
APPID
  5
9
330
0
100
AcDbSymbolTable
 70
     1
  0
APPID
  5
12
330
9
100
AcDbSymbolTableRecord
100
AcDbRegAppTableRecord
  2
ACAD
 70
     0
  0
ENDTAB
  0
TABLE
  2
DIMSTYLE
  5
A
330
0
100
AcDbSymbolTable
 70
     6
100
AcDbDimStyleTable
  0
DIMSTYLE
105
27
330
A
100
AcDbSymbolTableRecord
100
AcDbDimStyleTableRecord
  2
Standard
 70
     0
340
11
  0
DIMSTYLE
105
FF
102
{ACAD_REACTORS
330
FE
102
}
330
A
100
AcDbSymbolTableRecord
100
AcDbDimStyleTableRecord
  2
SLDDIMSTYLE0
 70
     0
 41
0.156
 44
0.0
 78
     4
140
0.1041666667
147
0.0260416667
170
     1
172
     1
173
     1
271
     2
272
     2
284
    12
340
6B
  0
DIMSTYLE
105
3E9
102
{ACAD_REACTORS
330
3E8
330
3FB
330
40D
330
41F
102
}
330
A
100
AcDbSymbolTableRecord
100
AcDbDimStyleTableRecord
  2
SLDDIMSTYLE1
 70
     0
 41
0.156
 44
0.0
 78
    12
140
0.1041666667
147
0.0260416667
170
     1
173
     1
271
     2
272
     2
284
    12
340
6B
  0
DIMSTYLE
105
432
102
{ACAD_REACTORS
330
431
102
}
330
A
100
AcDbSymbolTableRecord
100
AcDbDimStyleTableRecord
  2
SLDDIMSTYLE2
 70
     0
 41
0.156
 44
0.0
 78
    12
140
0.1041666667
147
0.0260416667
170
     1
173
     1
271
     3
272
     3
284
    12
340
6B
  0
DIMSTYLE
105
445
102
{ACAD_REACTORS
330
444
330
457
102
}
330
A
100
AcDbSymbolTableRecord
100
AcDbDimStyleTableRecord
  2
SLDDIMSTYLE3
 70
     0
 41
0.156
 44
0.0
 78
     8
140
0.1041666667
147
0.0260416667
170
     1
173
     1
271
     2
272
     2
284
    12
340
6B
  0
DIMSTYLE
105
477
330
A
100
AcDbSymbolTableRecord
100
AcDbDimStyleTableRecord
  2
SLDDIMSTYLE4
 70
     0
 41
0.156
 44
0.0
140
0.156
147
0.039
173
     1
271
     0
272
     0
340
11
  0
ENDTAB
  0
TABLE
  2
BLOCK_RECORD
  5
1
330
0
100
AcDbSymbolTable
 70
    21
  0
BLOCK_RECORD
  5
1F
330
1
100
AcDbSymbolTableRecord
100
AcDbBlockTableRecord
  2
*Model_Space
340
22
  0
BLOCK_RECORD
  5
1B
330
1
100
AcDbSymbolTableRecord
100
AcDbBlockTableRecord
  2
*Paper_Space
340
1E
  0
BLOCK_RECORD
  5
23
330
1
100
AcDbSymbolTableRecord
100
AcDbBlockTableRecord
  2
*Paper_Space0
340
26
  0
BLOCK_RECORD
  5
84
330
1
100
AcDbSymbolTableRecord
100
AcDbBlockTableRecord
  2
SW_NOTE_0
340
0
102
{BLKREFS
331
92
102
}
1001
ACAD
1000
DesignCenter Data
1002
{
1070
     1
1070
     0
1002
}
  0
BLOCK_RECORD
  5
AF
330
1
100
AcDbSymbolTableRecord
100
AcDbBlockTableRecord
  2
SW_NOTE_1
340
0
102
{BLKREFS
331
B6
102
}
1001
ACAD
1000
DesignCenter Data
1002
{
1070
     1
1070
     0
1002
}
  0
BLOCK_RECORD
  5
B8
330
1
100
AcDbSymbolTableRecord
100
AcDbBlockTableRecord
  2
SW_NOTE_2
340
0
102
{BLKREFS
331
BE
102
}
1001
ACAD
1000
DesignCenter Data
1002
{
1070
     1
1070
     0
1002
}
  0
BLOCK_RECORD
  5
BF
330
1
100
AcDbSymbolTableRecord
100
AcDbBlockTableRecord
  2
SW_NOTE_3
340
0
102
{BLKREFS
331
D2
102
}
1001
ACAD
1000
DesignCenter Data
1002
{
1070
     1
1070
     0
1002
}
  0
BLOCK_RECORD
  5
D3
330
1
100
AcDbSymbolTableRecord
100
AcDbBlockTableRecord
  2
SW_TABLEANNOTATION_0
340
0
102
{BLKREFS
331
EB
102
}
1001
ACAD
1000
DesignCenter Data
1002
{
1070
     1
1070
     0
1002
}
  0
BLOCK_RECORD
  5
100
330
1
100
AcDbSymbolTableRecord
100
AcDbBlockTableRecord
  2
*D6
340
0
  0
BLOCK_RECORD
  5
3EA
330
1
100
AcDbSymbolTableRecord
100
AcDbBlockTableRecord
  2
*D7
340
0
  0
BLOCK_RECORD
  5
3FC
330
1
100
AcDbSymbolTableRecord
100
AcDbBlockTableRecord
  2
*D8
340
0
  0
BLOCK_RECORD
  5
40E
330
1
100
AcDbSymbolTableRecord
100
AcDbBlockTableRecord
  2
*D9
340
0
  0
BLOCK_RECORD
  5
420
330
1
100
AcDbSymbolTableRecord
100
AcDbBlockTableRecord
  2
*D10
340
0
  0
BLOCK_RECORD
  5
433
330
1
100
AcDbSymbolTableRecord
100
AcDbBlockTableRecord
  2
*D11
340
0
  0
BLOCK_RECORD
  5
446
330
1
100
AcDbSymbolTableRecord
100
AcDbBlockTableRecord
  2
*D12
340
0
  0
BLOCK_RECORD
  5
458
330
1
100
AcDbSymbolTableRecord
100
AcDbBlockTableRecord
  2
*D13
340
0
  0
BLOCK_RECORD
  5
469
330
1
100
AcDbSymbolTableRecord
100
AcDbBlockTableRecord
  2
SW_NOTE_4
340
0
102
{BLKREFS
331
470
102
}
1001
ACAD
1000
DesignCenter Data
1002
{
1070
     1
1070
     0
1002
}
  0
BLOCK_RECORD
  5
471
330
1
100
AcDbSymbolTableRecord
100
AcDbBlockTableRecord
  2
SW_NOTE_5
340
0
102
{BLKREFS
331
476
102
}
1001
ACAD
1000
DesignCenter Data
1002
{
1070
     1
1070
     0
1002
}
  0
BLOCK_RECORD
  5
47A
330
1
100
AcDbSymbolTableRecord
100
AcDbBlockTableRecord
  2
SW_NOTE_6
340
0
102
{BLKREFS
331
47F
102
}
1001
ACAD
1000
DesignCenter Data
1002
{
1070
     1
1070
     0
1002
}
  0
BLOCK_RECORD
  5
481
330
1
100
AcDbSymbolTableRecord
100
AcDbBlockTableRecord
  2
SW_NOTE_7
340
0
102
{BLKREFS
331
486
102
}
1001
ACAD
1000
DesignCenter Data
1002
{
1070
     1
1070
     0
1002
}
  0
BLOCK_RECORD
  5
488
330
1
100
AcDbSymbolTableRecord
100
AcDbBlockTableRecord
  2
SW_NOTE_8
340
0
102
{BLKREFS
331
48D
102
}
1001
ACAD
1000
DesignCenter Data
1002
{
1070
     1
1070
     0
1002
}
  0
BLOCK_RECORD
  5
48F
330
1
100
AcDbSymbolTableRecord
100
AcDbBlockTableRecord
  2
SW_NOTE_9
340
0
102
{BLKREFS
331
494
102
}
1001
ACAD
1000
DesignCenter Data
1002
{
1070
     1
1070
     0
1002
}
  0
BLOCK_RECORD
  5
496
330
1
100
AcDbSymbolTableRecord
100
AcDbBlockTableRecord
  2
SW_NOTE_10
340
0
102
{BLKREFS
331
49B
102
}
1001
ACAD
1000
DesignCenter Data
1002
{
1070
     1
1070
     0
1002
}
  0
ENDTAB
  0
ENDSEC
  0
SECTION
  2
BLOCKS
  0
BLOCK
  5
20
330
1F
100
AcDbEntity
  8
0
100
AcDbBlockBegin
  2
*Model_Space
 70
     0
 71
     0
 10
0.0
 20
0.0
 30
0.0
  3
*Model_Space
  1

  0
ENDBLK
  5
21
330
1F
100
AcDbEntity
  8
0
100
AcDbBlockEnd
  0
BLOCK
  5
1C
330
1B
100
AcDbEntity
 67
     1
  8
0
100
AcDbBlockBegin
  2
*Paper_Space
 70
     0
 71
     0
 10
0.0
 20
0.0
 30
0.0
  3
*Paper_Space
  1

  0
ENDBLK
  5
1D
330
1B
100
AcDbEntity
 67
     1
  8
0
100
AcDbBlockEnd
  0
BLOCK
  5
24
330
23
100
AcDbEntity
  8
0
100
AcDbBlockBegin
  2
*Paper_Space0
 70
     0
 71
     0
 10
0.0
 20
0.0
 30
0.0
  3
*Paper_Space0
  1

  0
ENDBLK
  5
25
330
23
100
AcDbEntity
  8
0
100
AcDbBlockEnd
  0
BLOCK
  5
85
330
84
100
AcDbEntity
  8
0
100
AcDbBlockBegin
  2
SW_NOTE_0
 70
     0
 71
     0
 10
0.0
 20
0.0
 30
0.0
  3
SW_NOTE_0
  1

  0
MTEXT
  5
88
330
84
100
AcDbEntity
  8
0
  6
Continuous
 62
     0
370
     0
100
AcDbMText
 10
0.0
 20
0.1330566406
 30
0.0
 40
0.1041666667
 41
0.0
 71
     1
 72
     1
  1
THE INFORMATION CONTAINED IN THIS
  7
SLDTEXTSTYLE1
 73
     1
 44
1.0
  0
MTEXT
  5
8A
330
84
100
AcDbEntity
  8
0
  6
Continuous
 62
     0
370
     0
100
AcDbMText
 10
0.0
 20
-0.0058322466
 30
0.0
 40
0.1041666667
 41
0.0
 71
     1
 72
     1
  1
DRAWING IS THE SOLE PROPERTY OF
  7
SLDTEXTSTYLE2
 73
     1
 44
1.0
  0
MTEXT
  5
8C
330
84
100
AcDbEntity
  8
0
  6
Continuous
 62
     0
370
     0
100
AcDbMText
 10
0.0
 20
-0.1447211338
 30
0.0
 40
0.1041666667
 41
0.0
 71
     1
 72
     1
  1
THORLABS, INC.  ANY REPRODUCTION
  7
SLDTEXTSTYLE3
 73
     1
 44
1.0
  0
MTEXT
  5
8E
330
84
100
AcDbEntity
  8
0
  6
Continuous
 62
     0
370
     0
100
AcDbMText
 10
0.0
 20
-0.283610021
 30
0.0
 40
0.1041666667
 41
0.0
 71
     1
 72
     1
  1
IN PART OR AS A WHOLE
  7
SLDTEXTSTYLE4
 73
     1
 44
1.0
  0
MTEXT
  5
8F
330
84
100
AcDbEntity
  8
0
  6
Continuous
 62
     0
370
     0
100
AcDbMText
 10
0.0
 20
-0.4224989082
 30
0.0
 40
0.1041666667
 41
0.0
 71
     1
 72
     1
  1
WITHOUT THE WRITTEN PERMISSION OF
  7
SLDTEXTSTYLE1
 73
     1
 44
1.0
  0
MTEXT
  5
91
330
84
100
AcDbEntity
  8
0
  6
Continuous
 62
     0
370
     0
100
AcDbMText
 10
0.0
 20
-0.5613877954
 30
0.0
 40
0.1041666667
 41
0.0
 71
     1
 72
     1
  1
THORLABS, INC. IS PROHIBITED.
  7
SLDTEXTSTYLE5
 73
     1
 44
1.0
  0
ENDBLK
  5
86
330
84
100
AcDbEntity
  8
0
100
AcDbBlockEnd
  0
BLOCK
  5
B0
330
AF
100
AcDbEntity
  8
0
100
AcDbBlockBegin
  2
SW_NOTE_1
 70
     0
 71
     0
 10
0.0
 20
0.0
 30
0.0
  3
SW_NOTE_1
  1

  0
MTEXT
  5
B3
330
AF
100
AcDbEntity
  8
0
  6
Continuous
 62
     0
370
     0
100
AcDbMText
 10
0.0
 20
0.1729736328
 30
0.0
 40
0.1354166667
 41
0.0
 71
     1
 72
     1
  1
MATCHED ACHROMAT PAIR
  7
SLDTEXTSTYLE9
 73
     1
 44
1.0
  0
MTEXT
  5
B5
330
AF
100
AcDbEntity
  8
0
  6
Continuous
 62
     0
370
     0
100
AcDbMText
 10
0.0
 20
-0.0075819297
 30
0.0
 40
0.1354166667
 41
0.0
 71
     1
 72
     1
  1
 F1= 100mm, F2=100mm
  7
SLDTEXTSTYLE10
 73
     1
 44
1.0
  0
ENDBLK
  5
B1
330
AF
100
AcDbEntity
  8
0
100
AcDbBlockEnd
  0
BLOCK
  5
B9
330
B8
100
AcDbEntity
  8
0
100
AcDbBlockBegin
  2
SW_NOTE_2
 70
     0
 71
     0
 10
0.0
 20
0.0
 30
0.0
  3
SW_NOTE_2
  1

  0
MTEXT
  5
BC
330
B8
100
AcDbEntity
  8
0
  6
Continuous
 62
     0
370
     0
100
AcDbMText
 10
0.0
 20
0.1596679688
 30
0.0
 40
0.125
 41
0.0
 71
     1
 72
     1
  1
PO BOX 366
  7
SLDTEXTSTYLE11
 73
     1
 44
1.0
  0
MTEXT
  5
BD
330
B8
100
AcDbEntity
  8
0
  6
Continuous
 62
     0
370
     0
100
AcDbMText
 10
0.0
 20
-0.0069986959
 30
0.0
 40
0.125
 41
0.0
 71
     1
 72
     1
  1
NEWTON NJ
  7
SLDTEXTSTYLE0
 73
     1
 44
1.0
  0
ENDBLK
  5
BA
330
B8
100
AcDbEntity
  8
0
100
AcDbBlockEnd
  0
BLOCK
  5
C0
330
BF
100
AcDbEntity
  8
0
100
AcDbBlockBegin
  2
SW_NOTE_3
 70
     0
 71
     0
 10
0.0
 20
0.0
 30
0.0
  3
SW_NOTE_3
  1

  0
LINE
  5
C2
330
BF
100
AcDbEntity
  8
0
  6
Continuous
 62
     0
370
     0
100
AcDbLine
 10
1.3443287902
 20
-0.864004615
 30
0.0
 11
1.7023534976
 21
-0.864004615
 31
0.0
  0
MTEXT
  5
C3
330
BF
100
AcDbEntity
  8
0
  6
Continuous
 62
     0
370
     0
100
AcDbMText
 10
0.0
 20
0.1330566406
 30
0.0
 40
0.1041666667
 41
0.0
 71
     1
 72
     1
  1
SPECIFICATIONS:
  7
SLDTEXTSTYLE0
 73
     1
 44
1.0
  0
MTEXT
  5
C5
330
BF
100
AcDbEntity
  8
0
  6
Continuous
 62
     0
370
     0
100
AcDbMText
 10
0.0
 20
-0.1447211338
 30
0.0
 40
0.1041666667
 41
0.0
 71
     1
 72
     1
  1
DESIGN WAVELENGTH: 486.1, 587.6, & 656.3nm
  7
SLDTEXTSTYLE12
 73
     1
 44
1.0
  0
MTEXT
  5
C7
330
BF
100
AcDbEntity
  8
0
  6
Continuous
 62
     0
370
     0
100
AcDbMText
 10
0.0
 20
-0.283610021
 30
0.0
 40
0.1041666667
 41
0.0
 71
     1
 72
     1
  1
COATING: BBAR 400-700nm
  7
SLDTEXTSTYLE13
 73
     1
 44
1.0
  0
MTEXT
  5
C9
330
BF
100
AcDbEntity
  8
0
  6
Continuous
 62
     0
370
     0
100
AcDbMText
 10
0.0
 20
-0.4224989082
 30
0.0
 40
0.1041666667
 41
0.0
 71
     1
 72
     1
  1
COATING RANGE: R(AVG)<0.5% FROM 400-700nm
  7
SLDTEXTSTYLE14
 73
     1
 44
1.0
  0
MTEXT
  5
CA
330
BF
100
AcDbEntity
  8
0
  6
Continuous
 62
     0
370
     0
100
AcDbMText
 10
0.0
 20
-0.5613877954
 30
0.0
 40
0.1041666667
 41
0.0
 71
     1
 72
     1
  1
MAGNIFICATION: 1:2
  7
SLDTEXTSTYLE0
 73
     1
 44
1.0
  0
MTEXT
  5
CC
330
BF
100
AcDbEntity
  8
0
  6
Continuous
 62
     0
370
     0
100
AcDbMText
 10
0.0
 20
-0.8157280673
 30
0.0
 40
0.1041666667
 41
0.0
 71
     1
 72
     1
  1
DIMENSIONS ARE IN 
  7
SLDTEXTSTYLE15
 73
     1
 44
1.0
  0
MTEXT
  5
CD
330
BF
100
AcDbEntity
  8
0
  6
Continuous
 62
     0
370
     0
100
AcDbMText
 10
1.3443287902
 20
-0.7002766826
 30
0.0
 40
0.1041666667
 41
0.0
 71
     1
 72
     1
  1
[mm]
  7
SLDTEXTSTYLE0
 73
     1
 44
1.0
  0
MTEXT
  5
CE
330
BF
100
AcDbEntity
  8
0
  6
Continuous
 62
     0
370
     0
100
AcDbMText
 10
1.4671104351
 20
-0.9005081579
 30
0.0
 40
0.1041666667
 41
0.0
 71
     1
 72
     1
  1
in
  7
SLDTEXTSTYLE0
 73
     1
 44
1.0
  0
MTEXT
  5
CF
330
BF
100
AcDbEntity
  8
0
  6
Continuous
 62
     0
370
     0
100
AcDbMText
 10
0.0
 20
-1.0393970451
 30
0.0
 40
0.1041666667
 41
0.0
 71
     1
 72
     1
  1
NOTE:
  7
SLDTEXTSTYLE0
 73
     1
 44
1.0
  0
MTEXT
  5
D1
330
BF
100
AcDbEntity
  8
0
  6
Continuous
 62
     0
370
     0
100
AcDbMText
 10
0.0
 20
-1.1782859323
 30
0.0
 40
0.1041666667
 41
0.0
 71
     1
 72
     1
  1
FOR INFORMATION ONLY, NOT INTENDED FOR MANUFACTURING
  7
SLDTEXTSTYLE16
 73
     1
 44
1.0
  0
ENDBLK
  5
C1
330
BF
100
AcDbEntity
  8
0
100
AcDbBlockEnd
  0
BLOCK
  5
D4
330
D3
100
AcDbEntity
  8
0
100
AcDbBlockBegin
  2
SW_TABLEANNOTATION_0
 70
     0
 71
     0
 10
0.0
 20
0.0
 30
0.0
  3
SW_TABLEANNOTATION_0
  1

  0
LINE
  5
D6
330
D3
100
AcDbEntity
  8
0
  6
Continuous
 62
     0
370
     0
100
AcDbLine
 10
0.0
 20
0.0
 30
0.0
 11
0.0
 21
-0.870188115
 31
0.0
  0
LINE
  5
D7
330
D3
100
AcDbEntity
  8
0
  6
Continuous
 62
     0
370
     0
100
AcDbLine
 10
0.0
 20
-0.870188115
 30
0.0
 11
5.3007222216
 21
-0.870188115
 31
0.0
  0
LINE
  5
D8
330
D3
100
AcDbEntity
  8
0
  6
Continuous
 62
     0
370
     0
100
AcDbLine
 10
5.3007222216
 20
-0.870188115
 30
0.0
 11
5.3007222216
 21
0.0
 31
0.0
  0
LINE
  5
D9
330
D3
100
AcDbEntity
  8
0
  6
Continuous
 62
     0
370
     0
100
AcDbLine
 10
5.3007222216
 20
0.0
 30
0.0
 11
0.0
 21
0.0
 31
0.0
  0
LINE
  5
DA
330
D3
100
AcDbEntity
  8
0
  6
Continuous
 62
     0
370
     0
100
AcDbLine
 10
1.7669074072
 20
0.0
 30
0.0
 11
1.7669074072
 21
-0.870188115
 31
0.0
  0
LINE
  5
DB
330
D3
100
AcDbEntity
  8
0
  6
Continuous
 62
     0
370
     0
100
AcDbLine
 10
3.5338148144
 20
0.0
 30
0.0
 11
3.5338148144
 21
-0.870188115
 31
0.0
  0
LINE
  5
DC
330
D3
100
AcDbEntity
  8
0
  6
Continuous
 62
     0
370
     0
100
AcDbLine
 10
0.0
 20
-0.2175470288
 30
0.0
 11
5.3007222216
 21
-0.2175470288
 31
0.0
  0
LINE
  5
DD
330
D3
100
AcDbEntity
  8
0
  6
Continuous
 62
     0
370
     0
100
AcDbLine
 10
0.0
 20
-0.4350940575
 30
0.0
 11
5.3007222216
 21
-0.4350940575
 31
0.0
  0
LINE
  5
DE
330
D3
100
AcDbEntity
  8
0
  6
Continuous
 62
     0
370
     0
100
AcDbLine
 10
0.0
 20
-0.6526410863
 30
0.0
 11
5.3007222216
 21
-0.6526410863
 31
0.0
  0
MTEXT
  5
DF
330
D3
100
AcDbEntity
  8
0
  6
Continuous
 62
     0
370
     0
100
AcDbMText
 10
0.6662347763
 20
-0.0387177596
 30
0.0
 40
0.1377952756
 41
0.0
 71
     1
 72
     1
  1
PART
  7
SLDTEXTSTYLE0
 73
     1
 44
1.0
  0
MTEXT
  5
E0
330
D3
100
AcDbEntity
  8
0
  6
Continuous
 62
     0
370
     0
100
AcDbMText
 10
2.2344873384
 20
-0.0387177596
 30
0.0
 40
0.1377952756
 41
0.0
 71
     1
 72
     1
  1
PART NO.
  7
SLDTEXTSTYLE0
 73
     1
 44
1.0
  0
MTEXT
  5
E1
330
D3
100
AcDbEntity
  8
0
  6
Continuous
 62
     0
370
     0
100
AcDbMText
 10
3.9896246982
 20
-0.0387177596
 30
0.0
 40
0.1377952756
 41
0.0
 71
     1
 72
     1
  1
MATERIAL
  7
SLDTEXTSTYLE0
 73
     1
 44
1.0
  0
MTEXT
  5
E2
330
D3
100
AcDbEntity
  8
0
  6
Continuous
 62
     0
370
     0
100
AcDbMText
 10
0.8155129793
 20
-0.2562647884
 30
0.0
 40
0.1377952756
 41
0.0
 71
     1
 72
     1
  1
A
  7
SLDTEXTSTYLE0
 73
     1
 44
1.0
  0
MTEXT
  5
E3
330
D3
100
AcDbEntity
  8
0
  6
Continuous
 62
     0
370
     0
100
AcDbMText
 10
2.0224357113
 20
-0.2562647884
 30
0.0
 40
0.1377952756
 41
0.0
 71
     1
 72
     1
  1
AC254-100-A1
  7
SLDTEXTSTYLE0
 73
     1
 44
1.0
  0
MTEXT
  5
E4
330
D3
100
AcDbEntity
  8
0
  6
Continuous
 62
     0
370
     0
100
AcDbMText
 10
4.0877081451
 20
-0.2562647884
 30
0.0
 40
0.1377952756
 41
0.0
 71
     1
 72
     1
  1
BK7-SF5
  7
SLDTEXTSTYLE0
 73
     1
 44
1.0
  0
MTEXT
  5
E5
330
D3
100
AcDbEntity
  8
0
  6
Continuous
 62
     0
370
     0
100
AcDbMText
 10
0.8307278706
 20
-0.4738118171
 30
0.0
 40
0.1377952756
 41
0.0
 71
     1
 72
     1
  1
B
  7
SLDTEXTSTYLE0
 73
     1
 44
1.0
  0
MTEXT
  5
E6
330
D3
100
AcDbEntity
  8
0
  6
Continuous
 62
     0
370
     0
100
AcDbMText
 10
2.088079873
 20
-0.4738118171
 30
0.0
 40
0.1377952756
 41
0.0
 71
     1
 72
     1
  1
LENS MOUNT
  7
SLDTEXTSTYLE0
 73
     1
 44
1.0
  0
MTEXT
  5
E7
330
D3
100
AcDbEntity
  8
0
  6
Continuous
 62
     0
370
     0
100
AcDbMText
 10
3.5793966839
 20
-0.4738118171
 30
0.0
 40
0.1377952756
 41
0.0
 71
     1
 72
     1
  1
6061-T6 ALUMINUM
  7
SLDTEXTSTYLE0
 73
     1
 44
1.0
  0
MTEXT
  5
E8
330
D3
100
AcDbEntity
  8
0
  6
Continuous
 62
     0
370
     0
100
AcDbMText
 10
0.8088145975
 20
-0.6913588459
 30
0.0
 40
0.1377952756
 41
0.0
 71
     1
 72
     1
  1
C
  7
SLDTEXTSTYLE0
 73
     1
 44
1.0
  0
MTEXT
  5
E9
330
D3
100
AcDbEntity
  8
0
  6
Continuous
 62
     0
370
     0
100
AcDbMText
 10
2.3577375412
 20
-0.6913588459
 30
0.0
 40
0.1377952756
 41
0.0
 71
     1
 72
     1
  1
SM1RR
  7
SLDTEXTSTYLE0
 73
     1
 44
1.0
  0
MTEXT
  5
EA
330
D3
100
AcDbEntity
  8
0
  6
Continuous
 62
     0
370
     0
100
AcDbMText
 10
3.5793966839
 20
-0.6913588459
 30
0.0
 40
0.1377952756
 41
0.0
 71
     1
 72
     1
  1
6061-T6 ALUMINUM
  7
SLDTEXTSTYLE0
 73
     1
 44
1.0
  0
ENDBLK
  5
D5
330
D3
100
AcDbEntity
  8
0
100
AcDbBlockEnd
  0
BLOCK
  5
101
330
100
100
AcDbEntity
  8
0
100
AcDbBlockBegin
  2
*D6
 70
     1
 71
     0
 10
0.0
 20
0.0
 30
0.0
  3
*D6
  1

  0
SOLID
  5
103
330
100
100
AcDbEntity
  8
0
  6
Continuous
 62
     7
370
     0
100
AcDbTrace
 10
3.6054812186
 20
5.8093113074
 30
0.0
 11
3.7316627438
 21
5.9046539668
 31
0.0
 12
3.6939201772
 22
5.9404240474
 32
0.0
 13
3.6939201772
 23
5.9404240474
 33
0.0
  0
LINE
  5
104
330
100
100
AcDbEntity
  8
0
  6
Continuous
 62
     7
370
     0
100
AcDbLine
 10
4.3744654551
 20
6.3903612066
 30
0.0
 11
4.3744654551
 21
6.2498532299
 31
0.0
  0
LINE
  5
105
330
100
100
AcDbEntity
  8
0
  6
Continuous
 62
     7
370
     0
100
AcDbLine
 10
4.3744654551
 20
6.2498532299
 30
0.0
 11
4.3955500854
 21
6.2498532299
 31
0.0
  0
LINE
  5
106
330
100
100
AcDbEntity
  8
0
  6
Continuous
 62
     7
370
     0
100
AcDbLine
 10
4.3744654551
 20
6.3903612066
 30
0.0
 11
4.3955500854
 21
6.3903612066
 31
0.0
  0
LINE
  5
107
330
100
100
AcDbEntity
  8
0
  6
Continuous
 62
     7
370
     0
100
AcDbLine
 10
4.8049292683
 20
6.3903612066
 30
0.0
 11
4.8049292683
 21
6.2498532299
 31
0.0
  0
LINE
  5
108
330
100
100
AcDbEntity
  8
0
  6
Continuous
 62
     7
370
     0
100
AcDbLine
 10
4.8049292683
 20
6.2498532299
 30
0.0
 11
4.7838446379
 21
6.2498532299
 31
0.0
  0
LINE
  5
109
330
100
100
AcDbEntity
  8
0
  6
Continuous
 62
     7
370
     0
100
AcDbLine
 10
4.8049292683
 20
6.3903612066
 30
0.0
 11
4.7838446379
 21
6.3903612066
 31
0.0
  0
LINE
  5
10A
330
100
100
AcDbEntity
  8
0
  6
Continuous
 62
     7
370
     0
100
AcDbLine
 10
3.6054812186
 20
5.8093113074
 30
0.0
 11
4.0112498908
 21
6.2374554673
 31
0.0
  0
LINE
  5
10B
330
100
100
AcDbEntity
  8
0
  6
Continuous
 62
     7
370
     0
100
AcDbLine
 10
4.0112498908
 20
6.2374554673
 30
0.0
 11
4.2612498908
 21
6.2374554673
 31
0.0
  0
MTEXT
  5
10C
330
100
100
AcDbEntity
  8
0
  6
Continuous
 62
     7
370
     0
100
AcDbMText
 10
4.3807065056
 20
6.2052086037
 30
0.0
 40
0.1041666667
 41
0.0
 71
     1
 72
     1
  1
%%c
  7
SLDTEXTSTYLE0
 73
     1
 44
1.0
  0
MTEXT
  5
10D
330
100
100
AcDbEntity
  8
0
  6
Continuous
 62
     7
370
     0
100
AcDbMText
 10
4.5294796574
 20
6.2052086037
 30
0.0
 40
0.1041666667
 41
0.0
 71
     1
 72
     1
  1
1.20
  7
SLDTEXTSTYLE0
 73
     1
 44
1.0
  0
MTEXT
  5
10E
330
100
100
AcDbEntity
  8
0
  6
Continuous
 62
     7
370
     0
100
AcDbMText
 10
4.4166347158
 20
6.3705121056
 30
0.0
 40
0.1041666667
 41
0.0
 71
     1
 72
     1
  1
30.48
  7
SLDTEXTSTYLE0
 73
     1
 44
1.0
  0
ENDBLK
  5
102
330
100
100
AcDbEntity
  8
0
100
AcDbBlockEnd
  0
BLOCK
  5
3EB
330
3EA
100
AcDbEntity
  8
0
100
AcDbBlockBegin
  2
*D7
 70
     1
 71
     0
 10
0.0
 20
0.0
 30
0.0
  3
*D7
  1

  0
SOLID
  5
3ED
330
3EA
100
AcDbEntity
  8
0
  6
Continuous
 62
     7
370
     0
100
AcDbTrace
 10
7.0827367344
 20
3.9468406265
 30
0.0
 11
7.2387367344
 21
3.9208406265
 31
0.0
 12
7.2387367344
 22
3.9728406265
 32
0.0
 13
7.2387367344
 23
3.9728406265
 33
0.0
  0
SOLID
  5
3EE
330
3EA
100
AcDbEntity
  8
0
  6
Continuous
 62
     7
370
     0
100
AcDbTrace
 10
10.7053745297
 20
3.9468406265
 30
0.0
 11
10.5493745297
 21
3.9728406265
 31
0.0
 12
10.5493745297
 22
3.9208406265
 32
0.0
 13
10.5493745297
 23
3.9208406265
 33
0.0
  0
LINE
  5
3EF
330
3EA
100
AcDbEntity
  8
0
  6
Continuous
 62
     7
370
     0
100
AcDbLine
 10
8.7578591585
 20
4.0997463658
 30
0.0
 11
8.7578591585
 21
3.9592383892
 31
0.0
  0
LINE
  5
3F0
330
3EA
100
AcDbEntity
  8
0
  6
Continuous
 62
     7
370
     0
100
AcDbLine
 10
8.7578591585
 20
3.9592383892
 30
0.0
 11
8.7789437888
 21
3.9592383892
 31
0.0
  0
LINE
  5
3F1
330
3EA
100
AcDbEntity
  8
0
  6
Continuous
 62
     7
370
     0
100
AcDbLine
 10
8.7578591585
 20
4.0997463658
 30
0.0
 11
8.7789437888
 21
4.0997463658
 31
0.0
  0
LINE
  5
3F2
330
3EA
100
AcDbEntity
  8
0
  6
Continuous
 62
     7
370
     0
100
AcDbLine
 10
9.1883229717
 20
4.0997463658
 30
0.0
 11
9.1883229717
 21
3.9592383892
 31
0.0
  0
LINE
  5
3F3
330
3EA
100
AcDbEntity
  8
0
  6
Continuous
 62
     7
370
     0
100
AcDbLine
 10
9.1883229717
 20
3.9592383892
 30
0.0
 11
9.1672383414
 21
3.9592383892
 31
0.0
  0
LINE
  5
3F4
330
3EA
100
AcDbEntity
  8
0
  6
Continuous
 62
     7
370
     0
100
AcDbLine
 10
9.1883229717
 20
4.0997463658
 30
0.0
 11
9.1672383414
 21
4.0997463658
 31
0.0
  0
LINE
  5
3F5
330
3EA
100
AcDbEntity
  8
0
  6
Continuous
 62
     7
370
     0
100
AcDbLine
 10
7.0827367344
 20
5.3238201547
 30
0.0
 11
7.0827367344
 21
3.8218406265
 31
0.0
  0
LINE
  5
3F6
330
3EA
100
AcDbEntity
  8
0
  6
Continuous
 62
     7
370
     0
100
AcDbLine
 10
10.7053745297
 20
4.7338201547
 30
0.0
 11
10.7053745297
 21
3.8218406265
 31
0.0
  0
LINE
  5
3F7
330
3EA
100
AcDbEntity
  8
0
  6
Continuous
 62
     7
370
     0
100
AcDbLine
 10
7.0827367344
 20
3.9468406265
 30
0.0
 11
8.6320490417
 21
3.9468406265
 31
0.0
  0
LINE
  5
3F8
330
3EA
100
AcDbEntity
  8
0
  6
Continuous
 62
     7
370
     0
100
AcDbLine
 10
10.7053745297
 20
3.9468406265
 30
0.0
 11
9.3141330884
 21
3.9468406265
 31
0.0
  0
MTEXT
  5
3F9
330
3EA
100
AcDbEntity
  8
0
  6
Continuous
 62
     7
370
     0
100
AcDbMText
 10
8.8384867849
 20
3.9145937629
 30
0.0
 40
0.1041666667
 41
0.0
 71
     1
 72
     1
  1
3.62
  7
SLDTEXTSTYLE0
 73
     1
 44
1.0
  0
MTEXT
  5
3FA
330
3EA
100
AcDbEntity
  8
0
  6
Continuous
 62
     7
370
     0
100
AcDbMText
 10
8.8000284192
 20
4.0798972649
 30
0.0
 40
0.1041666667
 41
0.0
 71
     1
 72
     1
  1
92.02
  7
SLDTEXTSTYLE0
 73
     1
 44
1.0
  0
ENDBLK
  5
3EC
330
3EA
100
AcDbEntity
  8
0
100
AcDbBlockEnd
  0
BLOCK
  5
3FD
330
3FC
100
AcDbEntity
  8
0
100
AcDbBlockBegin
  2
*D8
 70
     1
 71
     0
 10
0.0
 20
0.0
 30
0.0
  3
*D8
  1

  0
SOLID
  5
3FF
330
3FC
100
AcDbEntity
  8
0
  6
Continuous
 62
     7
370
     0
100
AcDbTrace
 10
7.0827367344
 20
6.303061375
 30
0.0
 11
7.2387367344
 21
6.277061375
 31
0.0
 12
7.2387367344
 22
6.329061375
 32
0.0
 13
7.2387367344
 23
6.329061375
 33
0.0
  0
SOLID
  5
400
330
3FC
100
AcDbEntity
  8
0
  6
Continuous
 62
     7
370
     0
100
AcDbTrace
 10
10.9265906811
 20
6.303061375
 30
0.0
 11
10.7705906811
 21
6.329061375
 31
0.0
 12
10.7705906811
 22
6.277061375
 32
0.0
 13
10.7705906811
 23
6.277061375
 33
0.0
  0
LINE
  5
401
330
3FC
100
AcDbEntity
  8
0
  6
Continuous
 62
     7
370
     0
100
AcDbLine
 10
8.7578591585
 20
6.4559671143
 30
0.0
 11
8.7578591585
 21
6.3154591376
 31
0.0
  0
LINE
  5
402
330
3FC
100
AcDbEntity
  8
0
  6
Continuous
 62
     7
370
     0
100
AcDbLine
 10
8.7578591585
 20
6.3154591376
 30
0.0
 11
8.7789437888
 21
6.3154591376
 31
0.0
  0
LINE
  5
403
330
3FC
100
AcDbEntity
  8
0
  6
Continuous
 62
     7
370
     0
100
AcDbLine
 10
8.7578591585
 20
6.4559671143
 30
0.0
 11
8.7789437888
 21
6.4559671143
 31
0.0
  0
LINE
  5
404
330
3FC
100
AcDbEntity
  8
0
  6
Continuous
 62
     7
370
     0
100
AcDbLine
 10
9.1883229717
 20
6.4559671143
 30
0.0
 11
9.1883229717
 21
6.3154591376
 31
0.0
  0
LINE
  5
405
330
3FC
100
AcDbEntity
  8
0
  6
Continuous
 62
     7
370
     0
100
AcDbLine
 10
9.1883229717
 20
6.3154591376
 30
0.0
 11
9.1672383414
 21
6.3154591376
 31
0.0
  0
LINE
  5
406
330
3FC
100
AcDbEntity
  8
0
  6
Continuous
 62
     7
370
     0
100
AcDbLine
 10
9.1883229717
 20
6.4559671143
 30
0.0
 11
9.1672383414
 21
6.4559671143
 31
0.0
  0
LINE
  5
407
330
3FC
100
AcDbEntity
  8
0
  6
Continuous
 62
     7
370
     0
100
AcDbLine
 10
7.0827367344
 20
5.4238201547
 30
0.0
 11
7.0827367344
 21
6.428061375
 31
0.0
  0
LINE
  5
408
330
3FC
100
AcDbEntity
  8
0
  6
Continuous
 62
     7
370
     0
100
AcDbLine
 10
10.9265906811
 20
5.4238201547
 30
0.0
 11
10.9265906811
 21
6.428061375
 31
0.0
  0
LINE
  5
409
330
3FC
100
AcDbEntity
  8
0
  6
Continuous
 62
     7
370
     0
100
AcDbLine
 10
7.0827367344
 20
6.303061375
 30
0.0
 11
8.6320490417
 21
6.303061375
 31
0.0
  0
LINE
  5
40A
330
3FC
100
AcDbEntity
  8
0
  6
Continuous
 62
     7
370
     0
100
AcDbLine
 10
10.9265906811
 20
6.303061375
 30
0.0
 11
9.3141330884
 21
6.303061375
 31
0.0
  0
MTEXT
  5
40B
330
3FC
100
AcDbEntity
  8
0
  6
Continuous
 62
     7
370
     0
100
AcDbMText
 10
8.8384867849
 20
6.2708145114
 30
0.0
 40
0.1041666667
 41
0.0
 71
     1
 72
     1
  1
3.84
  7
SLDTEXTSTYLE0
 73
     1
 44
1.0
  0
MTEXT
  5
40C
330
3FC
100
AcDbEntity
  8
0
  6
Continuous
 62
     7
370
     0
100
AcDbMText
 10
8.8000284192
 20
6.4361180133
 30
0.0
 40
0.1041666667
 41
0.0
 71
     1
 72
     1
  1
97.63
  7
SLDTEXTSTYLE0
 73
     1
 44
1.0
  0
ENDBLK
  5
3FE
330
3FC
100
AcDbEntity
  8
0
100
AcDbBlockEnd
  0
BLOCK
  5
40F
330
40E
100
AcDbEntity
  8
0
100
AcDbBlockBegin
  2
*D9
 70
     1
 71
     0
 10
0.0
 20
0.0
 30
0.0
  3
*D9
  1

  0
SOLID
  5
411
330
40E
100
AcDbEntity
  8
0
  6
Continuous
 62
     7
370
     0
100
AcDbTrace
 10
15.4078942147
 20
6.303061375
 30
0.0
 11
15.2518942147
 21
6.329061375
 31
0.0
 12
15.2518942147
 22
6.277061375
 32
0.0
 13
15.2518942147
 23
6.277061375
 33
0.0
  0
SOLID
  5
412
330
40E
100
AcDbEntity
  8
0
  6
Continuous
 62
     7
370
     0
100
AcDbTrace
 10
11.5958120673
 20
6.303061375
 30
0.0
 11
11.7518120673
 21
6.277061375
 31
0.0
 12
11.7518120673
 22
6.329061375
 32
0.0
 13
11.7518120673
 23
6.329061375
 33
0.0
  0
LINE
  5
413
330
40E
100
AcDbEntity
  8
0
  6
Continuous
 62
     7
370
     0
100
AcDbLine
 10
13.5266422697
 20
6.4559671143
 30
0.0
 11
13.5266422697
 21
6.3154591376
 31
0.0
  0
LINE
  5
414
330
40E
100
AcDbEntity
  8
0
  6
Continuous
 62
     7
370
     0
100
AcDbLine
 10
13.5266422697
 20
6.3154591376
 30
0.0
 11
13.5477269
 21
6.3154591376
 31
0.0
  0
LINE
  5
415
330
40E
100
AcDbEntity
  8
0
  6
Continuous
 62
     7
370
     0
100
AcDbLine
 10
13.5266422697
 20
6.4559671143
 30
0.0
 11
13.5477269
 21
6.4559671143
 31
0.0
  0
LINE
  5
416
330
40E
100
AcDbEntity
  8
0
  6
Continuous
 62
     7
370
     0
100
AcDbLine
 10
13.9571060829
 20
6.4559671143
 30
0.0
 11
13.9571060829
 21
6.3154591376
 31
0.0
  0
LINE
  5
417
330
40E
100
AcDbEntity
  8
0
  6
Continuous
 62
     7
370
     0
100
AcDbLine
 10
13.9571060829
 20
6.3154591376
 30
0.0
 11
13.9360214525
 21
6.3154591376
 31
0.0
  0
LINE
  5
418
330
40E
100
AcDbEntity
  8
0
  6
Continuous
 62
     7
370
     0
100
AcDbLine
 10
13.9571060829
 20
6.4559671143
 30
0.0
 11
13.9360214525
 21
6.4559671143
 31
0.0
  0
LINE
  5
419
330
40E
100
AcDbEntity
  8
0
  6
Continuous
 62
     7
370
     0
100
AcDbLine
 10
15.4078942147
 20
5.4238201547
 30
0.0
 11
15.4078942147
 21
6.428061375
 31
0.0
  0
LINE
  5
41A
330
40E
100
AcDbEntity
  8
0
  6
Continuous
 62
     7
370
     0
100
AcDbLine
 10
11.5958120673
 20
5.4238201547
 30
0.0
 11
11.5958120673
 21
6.428061375
 31
0.0
  0
LINE
  5
41B
330
40E
100
AcDbEntity
  8
0
  6
Continuous
 62
     7
370
     0
100
AcDbLine
 10
15.4078942147
 20
6.303061375
 30
0.0
 11
14.0829161996
 21
6.303061375
 31
0.0
  0
LINE
  5
41C
330
40E
100
AcDbEntity
  8
0
  6
Continuous
 62
     7
370
     0
100
AcDbLine
 10
11.5958120673
 20
6.303061375
 30
0.0
 11
13.4008321529
 21
6.303061375
 31
0.0
  0
MTEXT
  5
41D
330
40E
100
AcDbEntity
  8
0
  6
Continuous
 62
     7
370
     0
100
AcDbMText
 10
13.6072698961
 20
6.2708145114
 30
0.0
 40
0.1041666667
 41
0.0
 71
     1
 72
     1
  1
3.81
  7
SLDTEXTSTYLE0
 73
     1
 44
1.0
  0
MTEXT
  5
41E
330
40E
100
AcDbEntity
  8
0
  6
Continuous
 62
     7
370
     0
100
AcDbMText
 10
13.5688115304
 20
6.4361180133
 30
0.0
 40
0.1041666667
 41
0.0
 71
     1
 72
     1
  1
96.83
  7
SLDTEXTSTYLE0
 73
     1
 44
1.0
  0
ENDBLK
  5
410
330
40E
100
AcDbEntity
  8
0
100
AcDbBlockEnd
  0
BLOCK
  5
421
330
420
100
AcDbEntity
  8
0
100
AcDbBlockBegin
  2
*D10
 70
     1
 71
     0
 10
0.0
 20
0.0
 30
0.0
  3
*D10
  1

  0
SOLID
  5
423
330
420
100
AcDbEntity
  8
0
  6
Continuous
 62
     7
370
     0
100
AcDbTrace
 10
15.4078942147
 20
3.9468406265
 30
0.0
 11
15.2518942147
 21
3.9728406265
 31
0.0
 12
15.2518942147
 22
3.9208406265
 32
0.0
 13
15.2518942147
 23
3.9208406265
 33
0.0
  0
SOLID
  5
424
330
420
100
AcDbEntity
  8
0
  6
Continuous
 62
     7
370
     0
100
AcDbTrace
 10
11.7903745297
 20
3.9468406265
 30
0.0
 11
11.9463745297
 21
3.9208406265
 31
0.0
 12
11.9463745297
 22
3.9728406265
 32
0.0
 13
11.9463745297
 23
3.9728406265
 33
0.0
  0
LINE
  5
425
330
420
100
AcDbEntity
  8
0
  6
Continuous
 62
     7
370
     0
100
AcDbLine
 10
13.3074260876
 20
4.0997463658
 30
0.0
 11
13.3074260876
 21
3.9592383892
 31
0.0
  0
LINE
  5
426
330
420
100
AcDbEntity
  8
0
  6
Continuous
 62
     7
370
     0
100
AcDbLine
 10
13.3074260876
 20
3.9592383892
 30
0.0
 11
13.328510718
 21
3.9592383892
 31
0.0
  0
LINE
  5
427
330
420
100
AcDbEntity
  8
0
  6
Continuous
 62
     7
370
     0
100
AcDbLine
 10
13.3074260876
 20
4.0997463658
 30
0.0
 11
13.328510718
 21
4.0997463658
 31
0.0
  0
LINE
  5
428
330
420
100
AcDbEntity
  8
0
  6
Continuous
 62
     7
370
     0
100
AcDbLine
 10
13.7378899008
 20
4.0997463658
 30
0.0
 11
13.7378899008
 21
3.9592383892
 31
0.0
  0
LINE
  5
429
330
420
100
AcDbEntity
  8
0
  6
Continuous
 62
     7
370
     0
100
AcDbLine
 10
13.7378899008
 20
3.9592383892
 30
0.0
 11
13.7168052705
 21
3.9592383892
 31
0.0
  0
LINE
  5
42A
330
420
100
AcDbEntity
  8
0
  6
Continuous
 62
     7
370
     0
100
AcDbLine
 10
13.7378899008
 20
4.0997463658
 30
0.0
 11
13.7168052705
 21
4.0997463658
 31
0.0
  0
LINE
  5
42B
330
420
100
AcDbEntity
  8
0
  6
Continuous
 62
     7
370
     0
100
AcDbLine
 10
15.4078942147
 20
5.3238201547
 30
0.0
 11
15.4078942147
 21
3.8218406265
 31
0.0
  0
LINE
  5
42C
330
420
100
AcDbEntity
  8
0
  6
Continuous
 62
     7
370
     0
100
AcDbLine
 10
11.7903745297
 20
4.7338201547
 30
0.0
 11
11.7903745297
 21
3.8218406265
 31
0.0
  0
LINE
  5
42D
330
420
100
AcDbEntity
  8
0
  6
Continuous
 62
     7
370
     0
100
AcDbLine
 10
15.4078942147
 20
3.9468406265
 30
0.0
 11
13.8637000176
 21
3.9468406265
 31
0.0
  0
LINE
  5
42E
330
420
100
AcDbEntity
  8
0
  6
Continuous
 62
     7
370
     0
100
AcDbLine
 10
11.7903745297
 20
3.9468406265
 30
0.0
 11
13.1816159709
 21
3.9468406265
 31
0.0
  0
MTEXT
  5
42F
330
420
100
AcDbEntity
  8
0
  6
Continuous
 62
     7
370
     0
100
AcDbMText
 10
13.3880537141
 20
3.9145937629
 30
0.0
 40
0.1041666667
 41
0.0
 71
     1
 72
     1
  1
3.62
  7
SLDTEXTSTYLE0
 73
     1
 44
1.0
  0
MTEXT
  5
430
330
420
100
AcDbEntity
  8
0
  6
Continuous
 62
     7
370
     0
100
AcDbMText
 10
13.3495953483
 20
4.0798972649
 30
0.0
 40
0.1041666667
 41
0.0
 71
     1
 72
     1
  1
91.89
  7
SLDTEXTSTYLE0
 73
     1
 44
1.0
  0
ENDBLK
  5
422
330
420
100
AcDbEntity
  8
0
100
AcDbBlockEnd
  0
BLOCK
  5
434
330
433
100
AcDbEntity
  8
0
100
AcDbBlockBegin
  2
*D11
 70
     1
 71
     0
 10
0.0
 20
0.0
 30
0.0
  3
*D11
  1

  0
SOLID
  5
436
330
433
100
AcDbEntity
  8
0
  6
Continuous
 62
     7
370
     0
100
AcDbTrace
 10
10.7053745297
 20
3.2687934462
 30
0.0
 11
10.5493745297
 21
3.2947934462
 31
0.0
 12
10.5493745297
 22
3.2427934462
 32
0.0
 13
10.5493745297
 23
3.2427934462
 33
0.0
  0
SOLID
  5
437
330
433
100
AcDbEntity
  8
0
  6
Continuous
 62
     7
370
     0
100
AcDbTrace
 10
11.7903745297
 20
3.2687934462
 30
0.0
 11
11.9463745297
 21
3.2427934462
 31
0.0
 12
11.9463745297
 22
3.2947934462
 32
0.0
 13
11.9463745297
 23
3.2947934462
 33
0.0
  0
LINE
  5
438
330
433
100
AcDbEntity
  8
0
  6
Continuous
 62
     7
370
     0
100
AcDbLine
 10
10.9823127062
 20
3.4216991855
 30
0.0
 11
10.9823127062
 21
3.2811912089
 31
0.0
  0
LINE
  5
439
330
433
100
AcDbEntity
  8
0
  6
Continuous
 62
     7
370
     0
100
AcDbLine
 10
10.9823127062
 20
3.2811912089
 30
0.0
 11
11.0033973366
 21
3.2811912089
 31
0.0
  0
LINE
  5
43A
330
433
100
AcDbEntity
  8
0
  6
Continuous
 62
     7
370
     0
100
AcDbLine
 10
10.9823127062
 20
3.4216991855
 30
0.0
 11
11.0033973366
 21
3.4216991855
 31
0.0
  0
LINE
  5
43B
330
433
100
AcDbEntity
  8
0
  6
Continuous
 62
     7
370
     0
100
AcDbLine
 10
11.4127765194
 20
3.4216991855
 30
0.0
 11
11.4127765194
 21
3.2811912089
 31
0.0
  0
LINE
  5
43C
330
433
100
AcDbEntity
  8
0
  6
Continuous
 62
     7
370
     0
100
AcDbLine
 10
11.4127765194
 20
3.2811912089
 30
0.0
 11
11.3916918891
 21
3.2811912089
 31
0.0
  0
LINE
  5
43D
330
433
100
AcDbEntity
  8
0
  6
Continuous
 62
     7
370
     0
100
AcDbLine
 10
11.4127765194
 20
3.4216991855
 30
0.0
 11
11.3916918891
 21
3.4216991855
 31
0.0
  0
LINE
  5
43E
330
433
100
AcDbEntity
  8
0
  6
Continuous
 62
     7
370
     0
100
AcDbLine
 10
10.7053745297
 20
4.7338201547
 30
0.0
 11
10.7053745297
 21
3.1437934462
 31
0.0
  0
LINE
  5
43F
330
433
100
AcDbEntity
  8
0
  6
Continuous
 62
     7
370
     0
100
AcDbLine
 10
11.7903745297
 20
4.7338201547
 30
0.0
 11
11.7903745297
 21
3.1437934462
 31
0.0
  0
LINE
  5
440
330
433
100
AcDbEntity
  8
0
  6
Continuous
 62
     7
370
     0
100
AcDbLine
 10
10.7053745297
 20
3.2687934462
 30
0.0
 11
10.2053745297
 21
3.2687934462
 31
0.0
  0
LINE
  5
441
330
433
100
AcDbEntity
  8
0
  6
Continuous
 62
     7
370
     0
100
AcDbLine
 10
11.7903745297
 20
3.2687934462
 30
0.0
 11
12.2903745297
 21
3.2687934462
 31
0.0
  0
MTEXT
  5
442
330
433
100
AcDbEntity
  8
0
  6
Continuous
 62
     7
370
     0
100
AcDbMText
 10
11.0244819669
 20
3.2365465826
 30
0.0
 40
0.1041666667
 41
0.0
 71
     1
 72
     1
  1
1.085
  7
SLDTEXTSTYLE0
 73
     1
 44
1.0
  0
MTEXT
  5
443
330
433
100
AcDbEntity
  8
0
  6
Continuous
 62
     7
370
     0
100
AcDbMText
 10
11.0244819669
 20
3.4018500846
 30
0.0
 40
0.1041666667
 41
0.0
 71
     1
 72
     1
  1
27.56
  7
SLDTEXTSTYLE0
 73
     1
 44
1.0
  0
ENDBLK
  5
435
330
433
100
AcDbEntity
  8
0
100
AcDbBlockEnd
  0
BLOCK
  5
447
330
446
100
AcDbEntity
  8
0
100
AcDbBlockBegin
  2
*D12
 70
     1
 71
     0
 10
0.0
 20
0.0
 30
0.0
  3
*D12
  1

  0
SOLID
  5
449
330
446
100
AcDbEntity
  8
0
  6
Continuous
 62
     7
370
     0
100
AcDbTrace
 10
11.1824961929
 20
3.5824661896
 30
0.0
 11
11.0264961929
 21
3.6084661896
 31
0.0
 12
11.0264961929
 22
3.5564661896
 32
0.0
 13
11.0264961929
 23
3.5564661896
 33
0.0
  0
SOLID
  5
44A
330
446
100
AcDbEntity
  8
0
  6
Continuous
 62
     7
370
     0
100
AcDbTrace
 10
11.3399065555
 20
3.5824661896
 30
0.0
 11
11.4959065555
 21
3.5564661896
 31
0.0
 12
11.4959065555
 22
3.6084661896
 32
0.0
 13
11.4959065555
 23
3.6084661896
 33
0.0
  0
LINE
  5
44B
330
446
100
AcDbEntity
  8
0
  6
Continuous
 62
     7
370
     0
100
AcDbLine
 10
12.0107074867
 20
3.7353719289
 30
0.0
 11
12.0107074867
 21
3.5948639522
 31
0.0
  0
LINE
  5
44C
330
446
100
AcDbEntity
  8
0
  6
Continuous
 62
     7
370
     0
100
AcDbLine
 10
12.0107074867
 20
3.5948639522
 30
0.0
 11
12.0317921171
 21
3.5948639522
 31
0.0
  0
LINE
  5
44D
330
446
100
AcDbEntity
  8
0
  6
Continuous
 62
     7
370
     0
100
AcDbLine
 10
12.0107074867
 20
3.7353719289
 30
0.0
 11
12.0317921171
 21
3.7353719289
 31
0.0
  0
LINE
  5
44E
330
446
100
AcDbEntity
  8
0
  6
Continuous
 62
     7
370
     0
100
AcDbLine
 10
12.1719627397
 20
3.7353719289
 30
0.0
 11
12.1719627397
 21
3.5948639522
 31
0.0
  0
LINE
  5
44F
330
446
100
AcDbEntity
  8
0
  6
Continuous
 62
     7
370
     0
100
AcDbLine
 10
12.1719627397
 20
3.5948639522
 30
0.0
 11
12.1508781093
 21
3.5948639522
 31
0.0
  0
LINE
  5
450
330
446
100
AcDbEntity
  8
0
  6
Continuous
 62
     7
370
     0
100
AcDbLine
 10
12.1719627397
 20
3.7353719289
 30
0.0
 11
12.1508781093
 21
3.7353719289
 31
0.0
  0
LINE
  5
451
330
446
100
AcDbEntity
  8
0
  6
Continuous
 62
     7
370
     0
100
AcDbLine
 10
11.1824961929
 20
5.3238201547
 30
0.0
 11
11.1824961929
 21
3.4574661896
 31
0.0
  0
LINE
  5
452
330
446
100
AcDbEntity
  8
0
  6
Continuous
 62
     7
370
     0
100
AcDbLine
 10
11.3399065555
 20
5.3238201547
 30
0.0
 11
11.3399065555
 21
3.4574661896
 31
0.0
  0
LINE
  5
453
330
446
100
AcDbEntity
  8
0
  6
Continuous
 62
     7
370
     0
100
AcDbLine
 10
11.1824961929
 20
3.5824661896
 30
0.0
 11
10.6824961929
 21
3.5824661896
 31
0.0
  0
LINE
  5
454
330
446
100
AcDbEntity
  8
0
  6
Continuous
 62
     7
370
     0
100
AcDbLine
 10
11.3399065555
 20
3.5824661896
 30
0.0
 11
11.873089977
 21
3.5824661896
 31
0.0
  0
MTEXT
  5
455
330
446
100
AcDbEntity
  8
0
  6
Continuous
 62
     7
370
     0
100
AcDbMText
 10
11.956730833
 20
3.550219326
 30
0.0
 40
0.1041666667
 41
0.0
 71
     1
 72
     1
  1
0.16
  7
SLDTEXTSTYLE0
 73
     1
 44
1.0
  0
MTEXT
  5
456
330
446
100
AcDbEntity
  8
0
  6
Continuous
 62
     7
370
     0
100
AcDbMText
 10
12.0528767474
 20
3.7155228279
 30
0.0
 40
0.1041666667
 41
0.0
 71
     1
 72
     1
  1
4
  7
SLDTEXTSTYLE0
 73
     1
 44
1.0
  0
ENDBLK
  5
448
330
446
100
AcDbEntity
  8
0
100
AcDbBlockEnd
  0
BLOCK
  5
459
330
458
100
AcDbEntity
  8
0
100
AcDbBlockBegin
  2
*D13
 70
     1
 71
     0
 10
0.0
 20
0.0
 30
0.0
  3
*D13
  1

  0
SOLID
  5
45B
330
458
100
AcDbEntity
  8
0
  6
Continuous
 62
     7
370
     0
100
AcDbTrace
 10
10.9265906811
 20
6.6927331749
 30
0.0
 11
11.0825906811
 21
6.6667331749
 31
0.0
 12
11.0825906811
 22
6.7187331749
 32
0.0
 13
11.0825906811
 23
6.7187331749
 33
0.0
  0
SOLID
  5
45C
330
458
100
AcDbEntity
  8
0
  6
Continuous
 62
     7
370
     0
100
AcDbTrace
 10
11.5958120673
 20
6.6927331749
 30
0.0
 11
11.4398120673
 21
6.7187331749
 31
0.0
 12
11.4398120673
 22
6.6667331749
 32
0.0
 13
11.4398120673
 23
6.6667331749
 33
0.0
  0
LINE
  5
45D
330
458
100
AcDbEntity
  8
0
  6
Continuous
 62
     7
370
     0
100
AcDbLine
 10
9.7988869626
 20
6.8456389142
 30
0.0
 11
9.7988869626
 21
6.7051309375
 31
0.0
  0
LINE
  5
45E
330
458
100
AcDbEntity
  8
0
  6
Continuous
 62
     7
370
     0
100
AcDbLine
 10
9.7988869626
 20
6.7051309375
 30
0.0
 11
9.819971593
 21
6.7051309375
 31
0.0
  0
LINE
  5
45F
330
458
100
AcDbEntity
  8
0
  6
Continuous
 62
     7
370
     0
100
AcDbLine
 10
9.7988869626
 20
6.8456389142
 30
0.0
 11
9.819971593
 21
6.8456389142
 31
0.0
  0
LINE
  5
460
330
458
100
AcDbEntity
  8
0
  6
Continuous
 62
     7
370
     0
100
AcDbLine
 10
10.0370589471
 20
6.8456389142
 30
0.0
 11
10.0370589471
 21
6.7051309375
 31
0.0
  0
LINE
  5
461
330
458
100
AcDbEntity
  8
0
  6
Continuous
 62
     7
370
     0
100
AcDbLine
 10
10.0370589471
 20
6.7051309375
 30
0.0
 11
10.0159743167
 21
6.7051309375
 31
0.0
  0
LINE
  5
462
330
458
100
AcDbEntity
  8
0
  6
Continuous
 62
     7
370
     0
100
AcDbLine
 10
10.0370589471
 20
6.8456389142
 30
0.0
 11
10.0159743167
 21
6.8456389142
 31
0.0
  0
LINE
  5
463
330
458
100
AcDbEntity
  8
0
  6
Continuous
 62
     7
370
     0
100
AcDbLine
 10
10.9265906811
 20
5.4238201547
 30
0.0
 11
10.9265906811
 21
6.8177331749
 31
0.0
  0
LINE
  5
464
330
458
100
AcDbEntity
  8
0
  6
Continuous
 62
     7
370
     0
100
AcDbLine
 10
11.5958120673
 20
5.4238201547
 30
0.0
 11
11.5958120673
 21
6.8177331749
 31
0.0
  0
LINE
  5
465
330
458
100
AcDbEntity
  8
0
  6
Continuous
 62
     7
370
     0
100
AcDbLine
 10
10.9265906811
 20
6.6927331749
 30
0.0
 11
10.1628690638
 21
6.6927331749
 31
0.0
  0
LINE
  5
466
330
458
100
AcDbEntity
  8
0
  6
Continuous
 62
     7
370
     0
100
AcDbLine
 10
11.5958120673
 20
6.6927331749
 30
0.0
 11
10.9265906811
 21
6.6927331749
 31
0.0
  0
MTEXT
  5
467
330
458
100
AcDbEntity
  8
0
  6
Continuous
 62
     7
370
     0
100
AcDbMText
 10
9.7833686747
 20
6.6604863113
 30
0.0
 40
0.1041666667
 41
0.0
 71
     1
 72
     1
  1
0.67
  7
SLDTEXTSTYLE0
 73
     1
 44
1.0
  0
MTEXT
  5
468
330
458
100
AcDbEntity
  8
0
  6
Continuous
 62
     7
370
     0
100
AcDbMText
 10
9.8410562233
 20
6.8257898132
 30
0.0
 40
0.1041666667
 41
0.0
 71
     1
 72
     1
  1
17
  7
SLDTEXTSTYLE0
 73
     1
 44
1.0
  0
ENDBLK
  5
45A
330
458
100
AcDbEntity
  8
0
100
AcDbBlockEnd
  0
BLOCK
  5
46A
330
469
100
AcDbEntity
  8
0
100
AcDbBlockBegin
  2
SW_NOTE_4
 70
     0
 71
     0
 10
0.0
 20
0.0
 30
0.0
  3
SW_NOTE_4
  1

  0
MTEXT
  5
46D
330
469
100
AcDbEntity
  8
0
  6
Continuous
 62
     0
370
     0
100
AcDbMText
 10
0.0
 20
0.1760119341
 30
0.0
 40
0.1377952756
 41
0.0
 71
     1
 72
     1
  1
SECTION A-A 
  7
SLDTEXTSTYLE17
 73
     1
 44
1.0
  0
MTEXT
  5
46F
330
469
100
AcDbEntity
  8
0
  6
Continuous
 62
     0
370
     0
100
AcDbMText
 10
0.1110016977
 20
-0.002165016
 30
0.0
 40
0.1377952756
 41
0.0
 71
     1
 72
     1
  1
SCALE 1 : 1
  7
SLDTEXTSTYLE18
 73
     1
 44
1.0
  0
ENDBLK
  5
46B
330
469
100
AcDbEntity
  8
0
100
AcDbBlockEnd
  0
BLOCK
  5
472
330
471
100
AcDbEntity
  8
0
100
AcDbBlockBegin
  2
SW_NOTE_5
 70
     0
 71
     0
 10
0.0
 20
0.0
 30
0.0
  3
SW_NOTE_5
  1

  0
MTEXT
  5
474
330
471
100
AcDbEntity
  8
0
  6
Continuous
 62
     0
370
     0
100
AcDbMText
 10
-1.3413371137
 20
0.1665748867
 30
0.0
 40
0.09
 41
0.0
 71
     1
 72
     1
  1
INTERNAL  SM1 THREAD
  7
SLDTEXTSTYLE10
 73
     1
 44
1.0
  0
MTEXT
  5
475
330
471
100
AcDbEntity
  8
0
  6
Continuous
 62
     0
370
     0
100
AcDbMText
 10
-0.9607746017
 20
0.0372048037
 30
0.0
 40
0.09
 41
0.0
 71
     1
 72
     1
  1
(1.035-40)
  7
SLDTEXTSTYLE0
 73
     1
 44
1.0
  0
ENDBLK
  5
473
330
471
100
AcDbEntity
  8
0
100
AcDbBlockEnd
  0
BLOCK
  5
47B
330
47A
100
AcDbEntity
  8
0
100
AcDbBlockBegin
  2
SW_NOTE_6
 70
     0
 71
     0
 10
0.0
 20
0.0
 30
0.0
  3
SW_NOTE_6
  1

  0
CIRCLE
  5
47D
330
47A
100
AcDbEntity
  8
0
  6
Continuous
 62
     0
370
     0
100
AcDbCircle
 10
0.1936603581
 20
0.0352047497
 30
0.0
 40
0.1968342162403354
  0
MTEXT
  5
47E
330
47A
100
AcDbEntity
  8
0
  6
Continuous
 62
     0
370
     0
100
AcDbMText
 10
0.1257196337
 20
0.1061479625
 30
0.0
 40
0.1377952756
 41
0.0
 71
     1
 72
     1
  1
A
  7
SLDTEXTSTYLE0
 73
     1
 44
1.0
  0
ENDBLK
  5
47C
330
47A
100
AcDbEntity
  8
0
100
AcDbBlockEnd
  0
BLOCK
  5
482
330
481
100
AcDbEntity
  8
0
100
AcDbBlockBegin
  2
SW_NOTE_7
 70
     0
 71
     0
 10
0.0
 20
0.0
 30
0.0
  3
SW_NOTE_7
  1

  0
CIRCLE
  5
484
330
481
100
AcDbEntity
  8
0
  6
Continuous
 62
     0
370
     0
100
AcDbCircle
 10
-0.1941635423
 20
0.0323145092
 30
0.0
 40
0.1968342162403364
  0
MTEXT
  5
485
330
481
100
AcDbEntity
  8
0
  6
Continuous
 62
     0
370
     0
100
AcDbMText
 10
-0.2621042667
 20
0.1032577221
 30
0.0
 40
0.1377952756
 41
0.0
 71
     1
 72
     1
  1
A
  7
SLDTEXTSTYLE0
 73
     1
 44
1.0
  0
ENDBLK
  5
483
330
481
100
AcDbEntity
  8
0
100
AcDbBlockEnd
  0
BLOCK
  5
489
330
488
100
AcDbEntity
  8
0
100
AcDbBlockBegin
  2
SW_NOTE_8
 70
     0
 71
     0
 10
0.0
 20
0.0
 30
0.0
  3
SW_NOTE_8
  1

  0
CIRCLE
  5
48B
330
488
100
AcDbEntity
  8
0
  6
Continuous
 62
     0
370
     0
100
AcDbCircle
 10
0.1906875413
 20
-0.048805433
 30
0.0
 40
0.1968342162403359
  0
MTEXT
  5
48C
330
488
100
AcDbEntity
  8
0
  6
Continuous
 62
     0
370
     0
100
AcDbMText
 10
0.1379617083
 20
0.0221377799
 30
0.0
 40
0.1377952756
 41
0.0
 71
     1
 72
     1
  1
B
  7
SLDTEXTSTYLE0
 73
     1
 44
1.0
  0
ENDBLK
  5
48A
330
488
100
AcDbEntity
  8
0
100
AcDbBlockEnd
  0
BLOCK
  5
490
330
48F
100
AcDbEntity
  8
0
100
AcDbBlockBegin
  2
SW_NOTE_9
 70
     0
 71
     0
 10
0.0
 20
0.0
 30
0.0
  3
SW_NOTE_9
  1

  0
CIRCLE
  5
492
330
48F
100
AcDbEntity
  8
0
  6
Continuous
 62
     0
370
     0
100
AcDbCircle
 10
0.1968314266
 20
-0.0010479371
 30
0.0
 40
0.1968342162403359
  0
MTEXT
  5
493
330
48F
100
AcDbEntity
  8
0
  6
Continuous
 62
     0
370
     0
100
AcDbMText
 10
0.1221923205
 20
0.0698952757
 30
0.0
 40
0.1377952756
 41
0.0
 71
     1
 72
     1
  1
C
  7
SLDTEXTSTYLE0
 73
     1
 44
1.0
  0
ENDBLK
  5
491
330
48F
100
AcDbEntity
  8
0
100
AcDbBlockEnd
  0
BLOCK
  5
497
330
496
100
AcDbEntity
  8
0
100
AcDbBlockBegin
  2
SW_NOTE_10
 70
     0
 71
     0
 10
0.0
 20
0.0
 30
0.0
  3
SW_NOTE_10
  1

  0
CIRCLE
  5
499
330
496
100
AcDbEntity
  8
0
  6
Continuous
 62
     0
370
     0
100
AcDbCircle
 10
-0.1968303996
 20
-0.0012257521
 30
0.0
 40
0.1968342162403369
  0
MTEXT
  5
49A
330
496
100
AcDbEntity
  8
0
  6
Continuous
 62
     0
370
     0
100
AcDbMText
 10
-0.2714695057
 20
0.0697174607
 30
0.0
 40
0.1377952756
 41
0.0
 71
     1
 72
     1
  1
C
  7
SLDTEXTSTYLE0
 73
     1
 44
1.0
  0
ENDBLK
  5
498
330
496
100
AcDbEntity
  8
0
100
AcDbBlockEnd
  0
ENDSEC
  0
SECTION
  2
ENTITIES
  0
LINE
  5
30
330
1F
100
AcDbEntity
  8
0
  6
Continuous
 62
     7
370
     0
100
AcDbLine
 10
0.6262516046
 20
10.6420731707
 30
0.0
 11
16.3762516046
 21
10.6420731707
 31
0.0
  0
LINE
  5
31
330
1F
100
AcDbEntity
  8
0
  6
Continuous
 62
     7
370
     0
100
AcDbLine
 10
0.6262516046
 20
10.6420731707
 30
0.0
 11
0.6262516046
 21
0.3920731707
 31
0.0
  0
LINE
  5
32
330
1F
100
AcDbEntity
  8
0
  6
Continuous
 62
     7
370
     0
100
AcDbLine
 10
16.3762516046
 20
0.3920731707
 30
0.0
 11
0.6262516046
 21
0.3920731707
 31
0.0
  0
LINE
  5
33
330
1F
100
AcDbEntity
  8
0
  6
Continuous
 62
     7
370
     0
100
AcDbLine
 10
16.3762516046
 20
0.3920731707
 30
0.0
 11
16.3762516046
 21
10.6420731707
 31
0.0
  0
LINE
  5
34
330
1F
100
AcDbEntity
  8
0
  6
Continuous
 62
     7
370
     0
100
AcDbLine
 10
16.3762516046
 20
8.0752921748
 30
0.0
 11
16.5012516046
 21
8.0752921748
 31
0.0
  0
LINE
  5
35
330
1F
100
AcDbEntity
  8
0
  6
Continuous
 62
     7
370
     0
100
AcDbLine
 10
16.3762516046
 20
5.5127921748
 30
0.0
 11
16.5012516046
 21
5.5127921748
 31
0.0
  0
LINE
  5
36
330
1F
100
AcDbEntity
  8
0
  6
Continuous
 62
     7
370
     0
100
AcDbLine
 10
16.3762516046
 20
5.5127921748
 30
0.0
 11
16.4434330337
 21
5.5368018253
 31
0.0
  0
LINE
  5
37
330
1F
100
AcDbEntity
  8
0
  6
Continuous
 62
     7
370
     0
100
AcDbLine
 10
16.3762516046
 20
5.5127921748
 30
0.0
 11
16.4434330337
 21
5.4902136493
 31
0.0
  0
LINE
  5
38
330
1F
100
AcDbEntity
  8
0
  6
Continuous
 62
     7
370
     0
100
AcDbLine
 10
16.4434330337
 20
5.5368018253
 30
0.0
 11
16.4434330337
 21
5.4902136493
 31
0.0
  0
LINE
  5
39
330
1F
100
AcDbEntity
  8
0
  6
Continuous
 62
     7
370
     0
100
AcDbLine
 10
16.3762516046
 20
5.5127921748
 30
0.0
 11
16.4434330337
 21
5.5218303331
 31
0.0
  0
LINE
  5
3A
330
1F
100
AcDbEntity
  8
0
  6
Continuous
 62
     7
370
     0
100
AcDbLine
 10
16.3762516046
 20
5.5127921748
 30
0.0
 11
16.4434330337
 21
5.5024840548
 31
0.0
  0
LINE
  5
3B
330
1F
100
AcDbEntity
  8
0
  6
Continuous
 62
     7
370
     0
100
AcDbLine
 10
16.3762516046
 20
2.9502921748
 30
0.0
 11
16.5012516046
 21
2.9502921748
 31
0.0
  0
LINE
  5
3C
330
1F
100
AcDbEntity
  8
0
  6
Continuous
 62
     7
370
     0
100
AcDbLine
 10
0.6262516046
 20
2.9545731707
 30
0.0
 11
0.5012516046
 21
2.9545731707
 31
0.0
  0
LINE
  5
3D
330
1F
100
AcDbEntity
  8
0
  6
Continuous
 62
     7
370
     0
100
AcDbLine
 10
0.6262516046
 20
5.5170731707
 30
0.0
 11
0.5590701755
 21
5.5067650507
 31
0.0
  0
LINE
  5
3E
330
1F
100
AcDbEntity
  8
0
  6
Continuous
 62
     7
370
     0
100
AcDbLine
 10
0.6262516046
 20
5.5170731707
 30
0.0
 11
0.5590701755
 21
5.5261113291
 31
0.0
  0
LINE
  5
3F
330
1F
100
AcDbEntity
  8
0
  6
Continuous
 62
     7
370
     0
100
AcDbLine
 10
0.5590701755
 20
5.5410828212
 30
0.0
 11
0.5590701755
 21
5.4944946453
 31
0.0
  0
LINE
  5
40
330
1F
100
AcDbEntity
  8
0
  6
Continuous
 62
     7
370
     0
100
AcDbLine
 10
0.6262516046
 20
5.5170731707
 30
0.0
 11
0.5590701755
 21
5.4944946453
 31
0.0
  0
LINE
  5
41
330
1F
100
AcDbEntity
  8
0
  6
Continuous
 62
     7
370
     0
100
AcDbLine
 10
0.6262516046
 20
5.5170731707
 30
0.0
 11
0.5590701755
 21
5.5410828212
 31
0.0
  0
LINE
  5
42
330
1F
100
AcDbEntity
  8
0
  6
Continuous
 62
     7
370
     0
100
AcDbLine
 10
0.6262516046
 20
5.5170731707
 30
0.0
 11
0.5012516046
 21
5.5170731707
 31
0.0
  0
LINE
  5
43
330
1F
100
AcDbEntity
  8
0
  6
Continuous
 62
     7
370
     0
100
AcDbLine
 10
0.6262516046
 20
8.0795731707
 30
0.0
 11
0.5012516046
 21
8.0795731707
 31
0.0
  0
LINE
  5
44
330
1F
100
AcDbEntity
  8
0
  6
Continuous
 62
     7
370
     0
100
AcDbLine
 10
10.182308474
 20
0.3920731707
 30
0.0
 11
10.182308474
 21
2.1684917101
 31
0.0
  0
LINE
  5
45
330
1F
100
AcDbEntity
  8
0
  6
Continuous
 62
     7
370
     0
100
AcDbLine
 10
10.182308474
 20
2.1684917101
 30
0.0
 11
12.7491798875
 21
2.1684917101
 31
0.0
  0
LINE
  5
46
330
1F
100
AcDbEntity
  8
0
  6
Continuous
 62
     7
370
     0
100
AcDbLine
 10
10.182308474
 20
1.9697825005
 30
0.0
 11
16.3762516046
 21
1.9697825005
 31
0.0
  0
LINE
  5
47
330
1F
100
AcDbEntity
  8
0
  6
Continuous
 62
     7
370
     0
100
AcDbLine
 10
10.182308474
 20
1.8024484292
 30
0.0
 11
12.7491798875
 21
1.8024484292
 31
0.0
  0
LINE
  5
48
330
1F
100
AcDbEntity
  8
0
  6
Continuous
 62
     7
370
     0
100
AcDbLine
 10
12.7491798875
 20
0.3920731707
 30
0.0
 11
12.7491798875
 21
2.3625790021
 31
0.0
  0
LINE
  5
49
330
1F
100
AcDbEntity
  8
0
  6
Continuous
 62
     7
370
     0
100
AcDbLine
 10
11.9873869055
 20
2.1684917101
 30
0.0
 11
11.9873869055
 21
1.490469794
 31
0.0
  0
LINE
  5
4A
330
1F
100
AcDbEntity
  8
0
  6
Continuous
 62
     7
370
     0
100
AcDbLine
 10
10.182308474
 20
1.6492239749
 30
0.0
 11
12.7491798875
 21
1.6492239749
 31
0.0
  0
LINE
  5
4B
330
1F
100
AcDbEntity
  8
0
  6
Continuous
 62
     7
370
     0
100
AcDbLine
 10
10.182308474
 20
1.490469794
 30
0.0
 11
16.3762516046
 21
1.490469794
 31
0.0
  0
LINE
  5
4C
330
1F
100
AcDbEntity
  8
0
  6
Continuous
 62
     7
370
     0
100
AcDbLine
 10
10.182308474
 20
1.3275472385
 30
0.0
 11
12.7491798875
 21
1.3275472385
 31
0.0
  0
LINE
  5
4D
330
1F
100
AcDbEntity
  8
0
  6
Continuous
 62
     7
370
     0
100
AcDbLine
 10
11.2521368269
 20
2.1684917101
 30
0.0
 11
11.2521368269
 21
1.490469794
 31
0.0
  0
LINE
  5
4E
330
1F
100
AcDbEntity
  8
0
  6
Continuous
 62
     7
370
     0
100
AcDbLine
 10
14.0901904116
 20
0.3920731707
 30
0.0
 11
14.0901904116
 21
0.8572133274
 31
0.0
  0
LINE
  5
4F
330
1F
100
AcDbEntity
  8
0
  6
Continuous
 62
     7
370
     0
100
AcDbLine
 10
12.7491798875
 20
0.8572133274
 30
0.0
 11
16.3762516046
 21
0.8572133274
 31
0.0
  0
LINE
  5
50
330
1F
100
AcDbEntity
  8
0
  6
Continuous
 62
     7
370
     0
100
AcDbLine
 10
12.7394849349
 20
1.0773568959
 30
0.0
 11
16.3762516046
 21
1.0773568959
 31
0.0
  0
LINE
  5
51
330
1F
100
AcDbEntity
  8
0
  6
Continuous
 62
     7
370
     0
100
AcDbLine
 10
14.3778934702
 20
1.0773568959
 30
0.0
 11
14.3778934702
 21
0.8572133274
 31
0.0
  0
LINE
  5
52
330
1F
100
AcDbEntity
  8
0
  6
Continuous
 62
     7
370
     0
100
AcDbLine
 10
15.4872706427
 20
1.490469794
 30
0.0
 11
15.4872706427
 21
1.0773568959
 31
0.0
  0
LINE
  5
53
330
1F
100
AcDbEntity
  8
0
  6
Continuous
 62
     7
370
     0
100
AcDbLine
 10
15.9241321453
 20
1.490469794
 30
0.0
 11
15.9241321453
 21
1.0773568959
 31
0.0
  0
LINE
  5
54
330
1F
100
AcDbEntity
  8
0
  6
Continuous
 62
     7
370
     0
100
AcDbLine
 10
12.7491798875
 20
2.3625790021
 30
0.0
 11
16.3762516046
 21
2.3625790021
 31
0.0
  0
LINE
  5
55
330
1F
100
AcDbEntity
  8
0
  6
Continuous
 62
     7
370
     0
100
AcDbLine
 10
14.4072516046
 20
0.3920731707
 30
0.0
 11
14.4072516046
 21
0.3072739649
 31
0.0
  0
LINE
  5
56
330
1F
100
AcDbEntity
  8
0
  6
Continuous
 62
     7
370
     0
100
AcDbLine
 10
12.4385016046
 20
0.3920731707
 30
0.0
 11
12.4385016046
 21
0.3072739649
 31
0.0
  0
LINE
  5
57
330
1F
100
AcDbEntity
  8
0
  6
Continuous
 62
     7
370
     0
100
AcDbLine
 10
10.4697516046
 20
0.3920731707
 30
0.0
 11
10.4697516046
 21
0.3072739649
 31
0.0
  0
LINE
  5
58
330
1F
100
AcDbEntity
  8
0
  6
Continuous
 62
     7
370
     0
100
AcDbLine
 10
8.5010016046
 20
0.3920731707
 30
0.0
 11
8.5010016046
 21
0.3072739649
 31
0.0
  0
LINE
  5
59
330
1F
100
AcDbEntity
  8
0
  6
Continuous
 62
     7
370
     0
100
AcDbLine
 10
6.5322516046
 20
0.3920731707
 30
0.0
 11
6.5322516046
 21
0.3072739649
 31
0.0
  0
LINE
  5
5A
330
1F
100
AcDbEntity
  8
0
  6
Continuous
 62
     7
370
     0
100
AcDbLine
 10
4.5635016046
 20
0.3920731707
 30
0.0
 11
4.5635016046
 21
0.3072739649
 31
0.0
  0
LINE
  5
5B
330
1F
100
AcDbEntity
  8
0
  6
Continuous
 62
     7
370
     0
100
AcDbLine
 10
2.5947516046
 20
0.3920731707
 30
0.0
 11
2.5947516046
 21
0.3072739649
 31
0.0
  0
LINE
  5
5C
330
1F
100
AcDbEntity
  8
0
  6
Continuous
 62
     7
370
     0
100
AcDbLine
 10
2.5947516046
 20
10.6420731707
 30
0.0
 11
2.5947516046
 21
10.7268723765
 31
0.0
  0
LINE
  5
5D
330
1F
100
AcDbEntity
  8
0
  6
Continuous
 62
     7
370
     0
100
AcDbLine
 10
4.5635016046
 20
10.6420731707
 30
0.0
 11
4.5635016046
 21
10.7268723765
 31
0.0
  0
LINE
  5
5E
330
1F
100
AcDbEntity
  8
0
  6
Continuous
 62
     7
370
     0
100
AcDbLine
 10
6.5322516046
 20
10.6420731707
 30
0.0
 11
6.5322516046
 21
10.7268723765
 31
0.0
  0
LINE
  5
5F
330
1F
100
AcDbEntity
  8
0
  6
Continuous
 62
     7
370
     0
100
AcDbLine
 10
8.5010016046
 20
10.6420731707
 30
0.0
 11
8.5010016046
 21
10.7268723765
 31
0.0
  0
LINE
  5
60
330
1F
100
AcDbEntity
  8
0
  6
Continuous
 62
     7
370
     0
100
AcDbLine
 10
10.4697516046
 20
10.6420731707
 30
0.0
 11
10.4697516046
 21
10.7268723765
 31
0.0
  0
LINE
  5
61
330
1F
100
AcDbEntity
  8
0
  6
Continuous
 62
     7
370
     0
100
AcDbLine
 10
12.4385016046
 20
10.6420731707
 30
0.0
 11
12.4385016046
 21
10.7268723765
 31
0.0
  0
LINE
  5
62
330
1F
100
AcDbEntity
  8
0
  6
Continuous
 62
     7
370
     0
100
AcDbLine
 10
14.4072516046
 20
10.6420731707
 30
0.0
 11
14.4072516046
 21
10.7268723765
 31
0.0
  0
LINE
  5
63
330
1F
100
AcDbEntity
  8
0
  6
Continuous
 62
     7
370
     0
100
AcDbLine
 10
8.5010016046
 20
10.6420731707
 30
0.0
 11
8.4877504872
 21
10.6840054626
 31
0.0
  0
LINE
  5
64
330
1F
100
AcDbEntity
  8
0
  6
Continuous
 62
     7
370
     0
100
AcDbLine
 10
8.5010016046
 20
10.6420731707
 30
0.0
 11
8.5135565785
 21
10.6840054626
 31
0.0
  0
LINE
  5
65
330
1F
100
AcDbEntity
  8
0
  6
Continuous
 62
     7
370
     0
100
AcDbLine
 10
8.5135565785
 20
10.6840054626
 30
0.0
 11
8.4877504872
 21
10.6840054626
 31
0.0
  0
LINE
  5
66
330
1F
100
AcDbEntity
  8
0
  6
Continuous
 62
     7
370
     0
100
AcDbLine
 10
8.4939630647
 20
10.6840054626
 30
0.0
 11
8.5010016046
 21
10.6420731707
 31
0.0
  0
LINE
  5
67
330
1F
100
AcDbEntity
  8
0
  6
Continuous
 62
     7
370
     0
100
AcDbLine
 10
8.5059103292
 20
10.6840054626
 30
0.0
 11
8.5010016046
 21
10.6420731707
 31
0.0
  0
LINE
  5
68
330
1F
100
AcDbEntity
  8
0
  6
Continuous
 62
     7
370
     0
100
AcDbLine
 10
8.5010016046
 20
0.3920731707
 30
0.0
 11
8.5135565785
 21
0.3575
 31
0.0
  0
LINE
  5
69
330
1F
100
AcDbEntity
  8
0
  6
Continuous
 62
     7
370
     0
100
AcDbLine
 10
8.5135565785
 20
0.3575
 30
0.0
 11
8.4877504872
 21
0.3575
 31
0.0
  0
LINE
  5
6A
330
1F
100
AcDbEntity
  8
0
  6
Continuous
 62
     7
370
     0
100
AcDbLine
 10
8.4877504872
 20
0.3575
 30
0.0
 11
8.5010016046
 21
0.3920731707
 31
0.0
  0
MTEXT
  5
6C
330
1F
100
AcDbEntity
  8
0
  6
Continuous
 62
     7
370
     0
100
AcDbMText
 10
16.4913158734
 20
9.4899010903
 30
0.0
 40
0.09375
 41
0.0
 71
     1
 72
     1
  1
D
  7
SLDTEXTSTYLE0
 73
     1
 44
1.0
  0
MTEXT
  5
6D
330
1F
100
AcDbEntity
  8
0
  6
Continuous
 62
     7
370
     0
100
AcDbMText
 10
16.4711826244
 20
6.903980486
 30
0.0
 40
0.09375
 41
0.0
 71
     1
 72
     1
  1
C
  7
SLDTEXTSTYLE0
 73
     1
 44
1.0
  0
MTEXT
  5
6E
330
1F
100
AcDbEntity
  8
0
  6
Continuous
 62
     7
370
     0
100
AcDbMText
 10
16.5114787596
 20
4.3779889516
 30
0.0
 40
0.09375
 41
0.0
 71
     1
 72
     1
  1
B
  7
SLDTEXTSTYLE0
 73
     1
 44
1.0
  0
MTEXT
  5
6F
330
1F
100
AcDbEntity
  8
0
  6
Continuous
 62
     7
370
     0
100
AcDbMText
 10
16.4820809255
 20
1.7715265362
 30
0.0
 40
0.09375
 41
0.0
 71
     1
 72
     1
  1
A
  7
SLDTEXTSTYLE0
 73
     1
 44
1.0
  0
MTEXT
  5
70
330
1F
100
AcDbEntity
  8
0
  6
Continuous
 62
     7
370
     0
100
AcDbMText
 10
0.4260099495
 20
1.7547509735
 30
0.0
 40
0.09375
 41
0.0
 71
     1
 72
     1
  1
A
  7
SLDTEXTSTYLE0
 73
     1
 44
1.0
  0
MTEXT
  5
71
330
1F
100
AcDbEntity
  8
0
  6
Continuous
 62
     7
370
     0
100
AcDbMText
 10
0.4264017314
 20
4.3921463777
 30
0.0
 40
0.09375
 41
0.0
 71
     1
 72
     1
  1
B
  7
SLDTEXTSTYLE0
 73
     1
 44
1.0
  0
MTEXT
  5
72
330
1F
100
AcDbEntity
  8
0
  6
Continuous
 62
     7
370
     0
100
AcDbMText
 10
0.427314415
 20
6.9092447003
 30
0.0
 40
0.09375
 41
0.0
 71
     1
 72
     1
  1
C
  7
SLDTEXTSTYLE0
 73
     1
 44
1.0
  0
MTEXT
  5
73
330
1F
100
AcDbEntity
  8
0
  6
Continuous
 62
     7
370
     0
100
AcDbMText
 10
0.42861048
 20
9.4564482391
 30
0.0
 40
0.09375
 41
0.0
 71
     1
 72
     1
  1
D
  7
SLDTEXTSTYLE0
 73
     1
 44
1.0
  0
MTEXT
  5
74
330
1F
100
AcDbEntity
  8
0
  6
Continuous
 62
     7
370
     0
100
AcDbMText
 10
15.4083167374
 20
0.300272888
 30
0.0
 40
0.09375
 41
0.0
 71
     1
 72
     1
  1
1
  7
SLDTEXTSTYLE0
 73
     1
 44
1.0
  0
MTEXT
  5
75
330
1F
100
AcDbEntity
  8
0
  6
Continuous
 62
     7
370
     0
100
AcDbMText
 10
13.352296777
 20
0.3113400111
 30
0.0
 40
0.09375
 41
0.0
 71
     1
 72
     1
  1
2
  7
SLDTEXTSTYLE0
 73
     1
 44
1.0
  0
MTEXT
  5
76
330
1F
100
AcDbEntity
  8
0
  6
Continuous
 62
     7
370
     0
100
AcDbMText
 10
11.3787703324
 20
0.3105200602
 30
0.0
 40
0.09375
 41
0.0
 71
     1
 72
     1
  1
3
  7
SLDTEXTSTYLE0
 73
     1
 44
1.0
  0
MTEXT
  5
77
330
1F
100
AcDbEntity
  8
0
  6
Continuous
 62
     7
370
     0
100
AcDbMText
 10
9.4701249316
 20
0.3126246278
 30
0.0
 40
0.09375
 41
0.0
 71
     1
 72
     1
  1
4
  7
SLDTEXTSTYLE0
 73
     1
 44
1.0
  0
MTEXT
  5
78
330
1F
100
AcDbEntity
  8
0
  6
Continuous
 62
     7
370
     0
100
AcDbMText
 10
7.4851155555
 20
0.3094873007
 30
0.0
 40
0.09375
 41
0.0
 71
     1
 72
     1
  1
5
  7
SLDTEXTSTYLE0
 73
     1
 44
1.0
  0
MTEXT
  5
79
330
1F
100
AcDbEntity
  8
0
  6
Continuous
 62
     7
370
     0
100
AcDbMText
 10
5.5188252386
 20
0.3125562944
 30
0.0
 40
0.09375
 41
0.0
 71
     1
 72
     1
  1
6
  7
SLDTEXTSTYLE0
 73
     1
 44
1.0
  0
MTEXT
  5
7A
330
1F
100
AcDbEntity
  8
0
  6
Continuous
 62
     7
370
     0
100
AcDbMText
 10
3.5574266754
 20
0.3121618912
 30
0.0
 40
0.09375
 41
0.0
 71
     1
 72
     1
  1
7
  7
SLDTEXTSTYLE0
 73
     1
 44
1.0
  0
MTEXT
  5
7B
330
1F
100
AcDbEntity
  8
0
  6
Continuous
 62
     7
370
     0
100
AcDbMText
 10
1.5267744527
 20
0.3118636282
 30
0.0
 40
0.09375
 41
0.0
 71
     1
 72
     1
  1
8
  7
SLDTEXTSTYLE0
 73
     1
 44
1.0
  0
MTEXT
  5
7C
330
1F
100
AcDbEntity
  8
0
  6
Continuous
 62
     7
370
     0
100
AcDbMText
 10
1.5090888689
 20
10.8303991325
 30
0.0
 40
0.09375
 41
0.0
 71
     1
 72
     1
  1
8
  7
SLDTEXTSTYLE0
 73
     1
 44
1.0
  0
MTEXT
  5
7D
330
1F
100
AcDbEntity
  8
0
  6
Continuous
 62
     7
370
     0
100
AcDbMText
 10
3.5509870273
 20
10.8275581734
 30
0.0
 40
0.09375
 41
0.0
 71
     1
 72
     1
  1
7
  7
SLDTEXTSTYLE0
 73
     1
 44
1.0
  0
MTEXT
  5
7E
330
1F
100
AcDbEntity
  8
0
  6
Continuous
 62
     7
370
     0
100
AcDbMText
 10
5.4986876861
 20
10.8356494067
 30
0.0
 40
0.09375
 41
0.0
 71
     1
 72
     1
  1
6
  7
SLDTEXTSTYLE0
 73
     1
 44
1.0
  0
MTEXT
  5
7F
330
1F
100
AcDbEntity
  8
0
  6
Continuous
 62
     7
370
     0
100
AcDbMText
 10
7.4786946819
 20
10.8361859641
 30
0.0
 40
0.09375
 41
0.0
 71
     1
 72
     1
  1
5
  7
SLDTEXTSTYLE0
 73
     1
 44
1.0
  0
MTEXT
  5
80
330
1F
100
AcDbEntity
  8
0
  6
Continuous
 62
     7
370
     0
100
AcDbMText
 10
9.464298725
 20
10.8345566209
 30
0.0
 40
0.09375
 41
0.0
 71
     1
 72
     1
  1
4
  7
SLDTEXTSTYLE0
 73
     1
 44
1.0
  0
MTEXT
  5
81
330
1F
100
AcDbEntity
  8
0
  6
Continuous
 62
     7
370
     0
100
AcDbMText
 10
11.432728105
 20
10.8284231398
 30
0.0
 40
0.09375
 41
0.0
 71
     1
 72
     1
  1
3
  7
SLDTEXTSTYLE0
 73
     1
 44
1.0
  0
MTEXT
  5
82
330
1F
100
AcDbEntity
  8
0
  6
Continuous
 62
     7
370
     0
100
AcDbMText
 10
13.4009949841
 20
10.8351030138
 30
0.0
 40
0.09375
 41
0.0
 71
     1
 72
     1
  1
2
  7
SLDTEXTSTYLE0
 73
     1
 44
1.0
  0
MTEXT
  5
83
330
1F
100
AcDbEntity
  8
0
  6
Continuous
 62
     7
370
     0
100
AcDbMText
 10
15.4273970005
 20
10.8289695327
 30
0.0
 40
0.09375
 41
0.0
 71
     1
 72
     1
  1
1
  7
SLDTEXTSTYLE0
 73
     1
 44
1.0
  0
INSERT
  5
92
330
1F
100
AcDbEntity
  8
0
  6
Continuous
 62
     7
370
     0
100
AcDbBlockReference
  2
SW_NOTE_0
 10
10.2332396989
 20
1.1579499108
 30
0.0
  0
MTEXT
  5
94
330
1F
100
AcDbEntity
  8
0
  6
Continuous
 62
     7
370
     0
100
AcDbMText
 10
10.231213698
 20
1.4534446649
 30
0.0
 40
0.1041666667
 41
0.0
 71
     1
 72
     1
  1
PROPRIETARY AND CONFIDENTIAL
  7
SLDTEXTSTYLE6
 73
     1
 44
1.0
  0
MTEXT
  5
95
330
1F
100
AcDbEntity
  8
0
  6
Continuous
 62
     7
370
     0
100
AcDbMText
 10
10.2569647568
 20
1.9436008831
 30
0.0
 40
0.09375
 41
0.0
 71
     1
 72
     1
  1
DRAWN
  7
SLDTEXTSTYLE0
 73
     1
 44
1.0
  0
MTEXT
  5
96
330
1F
100
AcDbEntity
  8
0
  6
Continuous
 62
     7
370
     0
100
AcDbMText
 10
10.2446080968
 20
1.7824832128
 30
0.0
 40
0.09375
 41
0.0
 71
     1
 72
     1
  1
ENG APPR.
  7
SLDTEXTSTYLE0
 73
     1
 44
1.0
  0
MTEXT
  5
97
330
1F
100
AcDbEntity
  8
0
  6
Continuous
 62
     7
370
     0
100
AcDbMText
 10
10.2374068806
 20
1.6029723279
 30
0.0
 40
0.09375
 41
0.0
 71
     1
 72
     1
  1
MFG APPR.
  7
SLDTEXTSTYLE0
 73
     1
 44
1.0
  0
MTEXT
  5
98
330
1F
100
AcDbEntity
  8
0
  6
Continuous
 62
     7
370
     0
100
AcDbMText
 10
12.223033932
 20
2.1154301863
 30
0.0
 40
0.09375
 41
0.0
 71
     1
 72
     1
  1
DATE
  7
SLDTEXTSTYLE0
 73
     1
 44
1.0
  0
MTEXT
  5
99
330
1F
100
AcDbEntity
  8
0
  6
Continuous
 62
     7
370
     0
100
AcDbMText
 10
11.4132599533
 20
2.120193059
 30
0.0
 40
0.09375
 41
0.0
 71
     1
 72
     1
  1
NAME
  7
SLDTEXTSTYLE0
 73
     1
 44
1.0
  0
MTEXT
  5
9A
330
1F
100
AcDbEntity
  8
0
  6
Continuous
 62
     7
370
     0
100
AcDbMText
 10
15.5666497203
 20
1.4612867589
 30
0.0
 40
0.125
 41
0.0
 71
     1
 72
     1
  1
SIZE
  7
SLDTEXTSTYLE0
 73
     1
 44
1.0
  0
MTEXT
  5
9B
330
1F
100
AcDbEntity
  8
0
  6
Continuous
 62
     7
370
     0
100
AcDbMText
 10
15.6642947054
 20
1.2721373429
 30
0.0
 40
0.1458333333
 41
0.0
 71
     1
 72
     1
  1
B
  7
SLDTEXTSTYLE0
 73
     1
 44
1.0
  0
MTEXT
  5
9D
330
1F
100
AcDbEntity
  8
0
  6
Continuous
 62
     7
370
     0
100
AcDbMText
 10
12.8081224516
 20
0.8176714899
 30
0.0
 40
0.125
 41
0.0
 71
     1
 72
     1
  1
DWG.  NO.
  7
SLDTEXTSTYLE7
 73
     1
 44
1.0
  0
MTEXT
  5
9E
330
1F
100
AcDbEntity
  8
0
  6
Continuous
 62
     7
370
     0
100
AcDbMText
 10
15.9995661304
 20
1.4559817095
 30
0.0
 40
0.125
 41
0.0
 71
     1
 72
     1
  1
REV
  7
SLDTEXTSTYLE0
 73
     1
 44
1.0
  0
MTEXT
  5
9F
330
1F
100
AcDbEntity
  8
0
  6
Continuous
 62
     7
370
     0
100
AcDbMText
 10
13.2280064895
 20
1.033705845
 30
0.0
 40
0.125
 41
0.0
 71
     1
 72
     1
  1
SCALE: 1:1
  7
SLDTEXTSTYLE0
 73
     1
 44
1.0
  0
MTEXT
  5
A1
330
1F
100
AcDbEntity
  8
0
  6
Continuous
 62
     7
370
     0
100
AcDbMText
 10
14.7937743884
 20
1.0330420155
 30
0.0
 40
0.125
 41
0.0
 71
     1
 72
     1
  1
SHEET 1 OF 1
  7
SLDTEXTSTYLE8
 73
     1
 44
1.0
  0
MTEXT
  5
A2
330
1F
100
AcDbEntity
  8
0
  6
Continuous
 62
     7
370
     0
100
AcDbMText
 10
12.0781656752
 20
1.6311313733
 30
0.0
 40
0.0833333333
 41
0.0
 71
     1
 72
     1
  1
04/13/06
  7
SLDTEXTSTYLE0
 73
     1
 44
1.0
  0
MTEXT
  5
A3
330
1F
100
AcDbEntity
  8
0
  6
Continuous
 62
     7
370
     0
100
AcDbMText
 10
11.5259211614
 20
1.624011166
 30
0.0
 40
0.0833333333
 41
0.0
 71
     1
 72
     1
  1
TO
  7
SLDTEXTSTYLE0
 73
     1
 44
1.0
  0
MTEXT
  5
A4
330
1F
100
AcDbEntity
  8
0
  6
Continuous
 62
     7
370
     0
100
AcDbMText
 10
12.0727277329
 20
1.7833937573
 30
0.0
 40
0.0833333333
 41
0.0
 71
     1
 72
     1
  1
04/13/06
  7
SLDTEXTSTYLE0
 73
     1
 44
1.0
  0
MTEXT
  5
A5
330
1F
100
AcDbEntity
  8
0
  6
Continuous
 62
     7
370
     0
100
AcDbMText
 10
11.5204832191
 20
1.7871494345
 30
0.0
 40
0.0833333333
 41
0.0
 71
     1
 72
     1
  1
TO
  7
SLDTEXTSTYLE0
 73
     1
 44
1.0
  0
MTEXT
  5
A6
330
1F
100
AcDbEntity
  8
0
  6
Continuous
 62
     7
370
     0
100
AcDbMText
 10
11.5259211614
 20
1.9557256454
 30
0.0
 40
0.0833333333
 41
0.0
 71
     1
 72
     1
  1
AP
  7
SLDTEXTSTYLE0
 73
     1
 44
1.0
  0
MTEXT
  5
A7
330
1F
100
AcDbEntity
  8
0
  6
Continuous
 62
     7
370
     0
100
AcDbMText
 10
12.0727277329
 20
1.9519699682
 30
0.0
 40
0.0833333333
 41
0.0
 71
     1
 72
     1
  1
04/12/06
  7
SLDTEXTSTYLE0
 73
     1
 44
1.0
  0
MTEXT
  5
A8
330
1F
100
AcDbEntity
  8
0
  6
Continuous
 62
     7
370
     0
100
AcDbMText
 10
14.2115626345
 20
0.8261085246
 30
0.0
 40
0.125
 41
0.0
 71
     1
 72
     1
  1
PART  NO.
  7
SLDTEXTSTYLE7
 73
     1
 44
1.0
  0
MTEXT
  5
A9
330
1F
100
AcDbEntity
  8
0
  6
Continuous
 62
     7
370
     0
100
AcDbMText
 10
12.7887323095
 20
1.9345885253
 30
0.0
 40
0.1458333333
 41
0.0
 71
     1
 72
     1
  1
TITLE:
  7
SLDTEXTSTYLE0
 73
     1
 44
1.0
  0
MTEXT
  5
AA
330
1F
100
AcDbEntity
  8
0
  6
Continuous
 62
     7
370
     0
100
AcDbMText
 10
12.7833450969
 20
1.4619937302
 30
0.0
 40
0.1458333333
 41
0.0
 71
     1
 72
     1
  1
MATERIAL:
  7
SLDTEXTSTYLE0
 73
     1
 44
1.0
  0
MTEXT
  5
AB
330
1F
100
AcDbEntity
  8
0
  6
Continuous
 62
     7
370
     0
100
AcDbMText
 10
16.0768247066
 20
1.2611736049
 30
0.0
 40
0.1458333333
 41
0.0
 71
     1
 72
     1
  1
C
  7
SLDTEXTSTYLE0
 73
     1
 44
1.0
  0
MTEXT
  5
AC
330
1F
100
AcDbEntity
  8
0
  6
Continuous
 62
     7
370
     0
100
AcDbMText
 10
14.6786333213
 20
0.6276358074
 30
0.0
 40
0.1
 41
0.0
 71
     1
 72
     1
  1
MAP10100100-A1
  7
SLDTEXTSTYLE0
 73
     1
 44
1.0
  0
MTEXT
  5
AD
330
1F
100
AcDbEntity
  8
0
  6
Continuous
 62
     7
370
     0
100
AcDbMText
 10
13.0354571381
 20
0.6191987726
 30
0.0
 40
0.1
 41
0.0
 71
     1
 72
     1
  1
13302-E01
  7
SLDTEXTSTYLE0
 73
     1
 44
1.0
  0
MTEXT
  5
AE
330
1F
100
AcDbEntity
  8
0
  6
Continuous
 62
     7
370
     0
100
AcDbMText
 10
13.8805288502
 20
1.2721373429
 30
0.0
 40
0.1458333333
 41
0.0
 71
     1
 72
     1
  1
SEE TABLE
  7
SLDTEXTSTYLE0
 73
     1
 44
1.0
  0
INSERT
  5
B6
330
1F
100
AcDbEntity
  8
0
  6
Continuous
 62
     7
370
     0
100
AcDbBlockReference
  2
SW_NOTE_1
 10
13.4865313277
 20
1.7424342456
 30
0.0
  0
MTEXT
  5
B7
330
1F
100
AcDbEntity
  8
0
  6
Continuous
 62
     7
370
     0
100
AcDbMText
 10
12.9539659526
 20
2.3087908465
 30
0.0
 40
0.2291666667
 41
0.0
 71
     1
 72
     1
  1
THORLABS, INC.
  7
SLDTEXTSTYLE0
 73
     1
 44
1.0
  0
INSERT
  5
BE
330
1F
100
AcDbEntity
  8
0
  6
Continuous
 62
     7
370
     0
100
AcDbBlockReference
  2
SW_NOTE_2
 10
15.2801627025
 20
2.1686075287
 30
0.0
  0
INSERT
  5
D2
330
1F
100
AcDbEntity
  8
0
  6
Continuous
 62
     7
370
     0
100
AcDbBlockReference
  2
SW_NOTE_3
 10
0.7354051889
 20
1.7837322529
 30
0.0
  0
INSERT
  5
EB
330
1F
100
AcDbEntity
  8
0
  6
Continuous
 62
     7
370
     0
100
AcDbBlockReference
  2
SW_TABLEANNOTATION_0
 10
0.6121122112
 20
10.6504950495
 30
0.0
  0
CIRCLE
  5
EC
330
1F
100
AcDbEntity
  8
0
  6
Continuous
 62
     7
370
     0
100
AcDbCircle
 10
3.1927495189
 20
5.3738201547
 30
0.0
 40
0.5060000000000008
  0
CIRCLE
  5
ED
330
1F
100
AcDbEntity
  8
0
  6
Continuous
 62
     7
370
     0
100
AcDbCircle
 10
3.1927495189
 20
5.3738201547
 30
0.0
 40
0.5160000000000003
  0
CIRCLE
  5
EE
330
1F
100
AcDbEntity
  8
0
  6
Continuous
 62
     7
370
     0
100
AcDbCircle
 10
3.1927495189
 20
5.3738201547
 30
0.0
 40
0.5900000000000014
  0
CIRCLE
  5
EF
330
1F
100
AcDbEntity
  8
0
  6
Continuous
 62
     7
370
     0
100
AcDbCircle
 10
3.1927495189
 20
5.3738201547
 30
0.0
 40
0.600000000000001
  0
ARC
  5
F0
330
1F
100
AcDbEntity
  8
0
  6
Continuous
 62
     7
370
     0
100
AcDbCircle
 10
3.1927495189
 20
5.3738201547
 30
0.0
 40
0.5001794919243132
100
AcDbArc
 50
265.3872149741
 51
83.6688940202
  0
SPLINE
  5
F1
330
1F
100
AcDbEntity
  8
0
  6
Continuous
 62
     7
370
     0
100
AcDbSpline
210
0.0
220
0.0
230
1.0
 70
    24
 71
     1
 72
     4
 73
     2
 74
     0
 42
0.00000001
 43
0.00000001
 40
0.0
 40
0.0
 40
1.0
 40
1.0
 10
3.247906273397025
 20
5.870949181783178
 30
0.0
 10
3.248388938654569
 20
5.875987746910577
 30
0.0
  0
SPLINE
  5
F2
330
1F
100
AcDbEntity
  8
0
  6
Continuous
 62
     7
370
     0
100
AcDbSpline
210
0.0
220
0.0
230
1.0
 70
    24
 71
     1
 72
     4
 73
     2
 74
     0
 42
0.00000001
 43
0.00000001
 40
0.0
 40
0.0
 40
1.0
 40
1.0
 10
3.152006168326556
 20
4.869850856556458
 30
0.0
 10
3.152524413589743
 20
4.875260777393924
 30
0.0
  0
ARC
  5
F3
330
1F
100
AcDbEntity
  8
0
  6
Continuous
 62
     7
370
     0
100
AcDbCircle
 10
3.1927495189
 20
5.3738201547
 30
0.0
 40
0.4500000000000009
100
AcDbArc
 50
85.4830283709
 51
263.5730806234
  0
LINE
  5
F4
330
1F
100
AcDbEntity
  8
0
  6
Continuous
 62
     7
370
     0
100
AcDbLine
 10
3.1375927644
 20
4.8766911275
 30
0.0
 11
3.1423783966
 21
4.9266482238
 31
0.0
  0
ARC
  5
F5
330
1F
100
AcDbEntity
  8
0
  6
Continuous
 62
     7
370
     0
100
AcDbCircle
 10
3.1927495189
 20
5.3738201547
 30
0.0
 40
0.5001794919243145
100
AcDbArc
 50
85.3872149741
 51
263.6688940202
  0
LINE
  5
F6
330
1F
100
AcDbEntity
  8
0
  6
Continuous
 62
     7
370
     0
100
AcDbLine
 10
3.2329746242
 20
5.8723795319
 30
0.0
 11
3.2281889943
 21
5.8224224724
 31
0.0
  0
SPLINE
  5
F7
330
1F
100
AcDbEntity
  8
0
  6
Continuous
 62
     7
370
     0
100
AcDbSpline
210
0.0
220
0.0
230
1.0
 70
    24
 71
     1
 72
     4
 73
     2
 74
     0
 42
0.00000001
 43
0.00000001
 40
0.0
 40
0.0
 40
1.0
 40
1.0
 10
3.137592764414761
 20
4.876691127537064
 30
0.0
 10
3.13708512027911
 20
4.871391828755016
 30
0.0
  0
SPLINE
  5
F8
330
1F
100
AcDbEntity
  8
0
  6
Continuous
 62
     7
370
     0
100
AcDbSpline
210
0.0
220
0.0
230
1.0
 70
    24
 71
     1
 72
     4
 73
     2
 74
     0
 42
0.00000001
 43
0.00000001
 40
0.0
 40
0.0
 40
1.0
 40
1.0
 10
3.233424839854448
 20
5.877079300967518
 30
0.0
 10
3.232974624222044
 20
5.872379531926318
 30
0.0
  0
ARC
  5
F9
330
1F
100
AcDbEntity
  8
0
  6
Continuous
 62
     7
370
     0
100
AcDbCircle
 10
3.1927495189
 20
5.3738201547
 30
0.0
 40
0.4500000000000013
100
AcDbArc
 50
265.4830283709
 51
83.5730806234
  0
LINE
  5
FA
330
1F
100
AcDbEntity
  8
0
  6
Continuous
 62
     7
370
     0
100
AcDbLine
 10
3.1525244136
 20
4.8752607774
 30
0.0
 11
3.1573100435
 21
4.925217837
 31
0.0
  0
LINE
  5
FB
330
1F
100
AcDbEntity
  8
0
  6
Continuous
 62
     7
370
     0
100
AcDbLine
 10
3.2479062734
 20
5.8709491818
 30
0.0
 11
3.2431206412
 21
5.8209920856
 31
0.0
  0
ARC
  5
FC
330
1F
100
AcDbEntity
  8
0
  6
Continuous
 62
     7
370
     0
100
AcDbCircle
 10
3.1927495189
 20
5.3738201547
 30
0.0
 40
0.4500000000000009
100
AcDbArc
 50
83.5730806234
 51
85.4830283709
  0
ARC
  5
FD
330
1F
100
AcDbEntity
  8
0
  6
Continuous
 62
     7
370
     0
100
AcDbCircle
 10
3.1927495189
 20
5.3738201547
 30
0.0
 40
0.4499999999999992
100
AcDbArc
 50
263.5730806234
 51
265.4830283709
  0
DIMENSION
  5
FE
330
1F
100
AcDbEntity
  8
0
  6
Continuous
 62
     7
370
     0
100
AcDbDimension
  2
*D6
 10
2.7800178192
 20
4.9383290019
 30
0.0
 11
4.5811510582
 21
6.2374554673
 31
0.0
 70
   163
  1
<>
 71
     1
 42
-1.0
  3
SLDDIMSTYLE0
100
AcDbDiametricDimension
 15
3.6054812186
 25
5.8093113074
 35
0.0
 40
0.0
  0
LINE
  5
10F
330
1F
100
AcDbEntity
  8
0
  6
PHANTOM
 62
     7
370
    30
100
AcDbLine
 10
3.1927495189
 20
6.2228112526
 30
0.0
 11
3.1927495189
 21
4.5762830627
 31
0.0
  0
LINE
  5
110
330
1F
100
AcDbEntity
  8
0
  6
Continuous
 62
     7
370
    30
100
AcDbLine
 10
3.1927495189
 20
6.2228112526
 30
0.0
 11
2.7227495189
 21
6.2228112526
 31
0.0
  0
SOLID
  5
111
330
1F
100
AcDbEntity
  8
0
  6
Continuous
 62
     7
370
    30
100
AcDbTrace
 10
2.7227495189
 20
6.2228112526
 30
0.0
 11
2.9627495189
 21
6.1628112526
 31
0.0
 12
2.9627495189
 22
6.2828112526
 32
0.0
 13
2.9627495189
 23
6.2828112526
 33
0.0
  0
LINE
  5
112
330
1F
100
AcDbEntity
  8
0
  6
Continuous
 62
     7
370
    30
100
AcDbLine
 10
3.1927495189
 20
4.5762830627
 30
0.0
 11
2.7227495189
 21
4.5762830627
 31
0.0
  0
SOLID
  5
113
330
1F
100
AcDbEntity
  8
0
  6
Continuous
 62
     7
370
    30
100
AcDbTrace
 10
2.7227495189
 20
4.5762830627
 30
0.0
 11
2.9627495189
 21
4.5162830627
 31
0.0
 12
2.9627495189
 22
4.6362830627
 32
0.0
 13
2.9627495189
 23
4.6362830627
 33
0.0
  0
MTEXT
  5
114
330
1F
100
AcDbEntity
  8
0
  6
Continuous
 62
     7
100
AcDbMText
 10
2.401138624
 20
6.4211754549
 30
0.0
 40
0.25
 41
0.0
 71
     1
 72
     1
  1
A
  7
SLDTEXTSTYLE0
 73
     1
 44
1.0
  0
MTEXT
  5
115
330
1F
100
AcDbEntity
  8
0
  6
Continuous
 62
     7
100
AcDbMText
 10
2.401138624
 20
4.774647265
 30
0.0
 40
0.25
 41
0.0
 71
     1
 72
     1
  1
A
  7
SLDTEXTSTYLE0
 73
     1
 44
1.0
  0
LINE
  5
116
330
1F
100
AcDbEntity
  8
0
  6
Continuous
 62
     7
370
     0
100
AcDbLine
 10
9.9808859396
 20
9.4016817504
 30
0.0
 11
9.9808859396
 21
9.3935176693
 31
0.0
  0
LINE
  5
117
330
1F
100
AcDbEntity
  8
0
  6
Continuous
 62
     7
370
     0
100
AcDbLine
 10
10.3980111349
 20
8.670957347
 30
0.0
 11
10.4050810535
 21
8.666874643
 31
0.0
  0
LINE
  5
118
330
1F
100
AcDbEntity
  8
0
  6
Continuous
 62
     7
370
     0
100
AcDbLine
 10
10.8582431105
 20
10.1111259539
 30
0.0
 11
10.1051743885
 21
9.6763886343
 31
0.0
  0
LINE
  5
119
330
1F
100
AcDbEntity
  8
0
  6
Continuous
 62
     7
370
     0
100
AcDbLine
 10
10.7051256281
 20
8.6371299995
 30
0.0
 11
11.4581943501
 21
9.071867319
 31
0.0
  0
LINE
  5
11A
330
1F
100
AcDbEntity
  8
0
  6
Continuous
 62
     7
370
     0
100
AcDbLine
 10
11.582482799
 20
9.3465742029
 30
0.0
 11
11.582482799
 21
9.354738284
 31
0.0
  0
LINE
  5
11B
330
1F
100
AcDbEntity
  8
0
  6
Continuous
 62
     7
370
     0
100
AcDbLine
 10
11.1653576037
 20
10.0772986063
 30
0.0
 11
11.1582876851
 21
10.0813813103
 31
0.0
  0
LWPOLYLINE
  5
11C
330
1F
100
AcDbEntity
  8
0
  6
Continuous
 62
     7
370
     0
100
AcDbPolyline
 90
       84
 70
   128
 43
0.0
 10
10.8097996633
 20
8.8372224633
 10
10.8137141233
 20
8.8711423564
 10
10.8152478625
 20
8.906674856
 10
10.814392096
 20
8.9436164353
 10
10.8111517254
 20
8.981755496
 10
10.8055453113
 20
9.0208735813
 10
10.7976049667
 20
9.0607466262
 10
10.7873761732
 20
9.1011462415
 10
10.7749175204
 20
9.1418410219
 10
10.7603003704
 20
9.1825978715
 10
10.7436084488
 20
9.2231833385
 10
10.7249373655
 20
9.2633649532
 10
10.7043940667
 20
9.3029125589
 10
10.6820962226
 20
9.3415996306
 10
10.6581715533
 20
9.3792045721
 10
10.632757097
 20
9.4155119857
 10
10.6059984255
 20
9.450313906
 10
10.57804881
 20
9.4834109906
 10
10.5490683434
 20
9.5146136624
 10
10.5192230232
 20
9.5437431954
 10
10.4886838006
 20
9.5706327382
 10
10.4576256016
 20
9.5951282699
 10
10.4262263247
 20
9.6170894825
 10
10.3946658222
 20
9.636390584
 10
10.3631248697
 20
9.6529210195
 10
10.3317841309
 20
9.6665861041
 10
10.3008231228
 20
9.6773075654
 10
10.2704191872
 20
9.685023992
 10
10.2407464751
 20
9.6896911849
 10
10.2119749492
 20
9.6912824106
 10
10.18426941
 20
9.689788555
 10
10.1577885525
 20
9.6852181746
 10
10.1326840566
 20
9.6775974481
 10
10.1090997185
 20
9.6669700265
 10
10.0871706272
 20
9.6533967825
 10
10.0670223906
 20
9.6369554626
 10
10.0487704159
 20
9.617740241
 10
10.0325192489
 20
9.5958611809
 10
10.0183619746
 20
9.5714436036
 10
10.0063796847
 20
9.5446273706
 10
9.9966410127
 20
9.515566083
 10
9.9892017408
 20
9.4844262012
 10
9.9841044805
 20
9.4513860916
 10
9.9813784284
 20
9.4166350049
 10
9.981039199
 20
9.3803719923
 10
9.9830887356
 20
9.3428047649
 10
9.9875152985
 20
9.3041485045
 10
9.9942935327
 20
9.2646246307
 10
10.0033846132
 20
9.2244595325
 10
10.014736467
 20
9.1838832721
 10
10.0282840718
 20
9.1431282665
 10
10.0439498281
 20
9.1024279568
 10
10.061644004
 20
9.0620154707
 10
10.0812652486
 20
9.0221222872
 10
10.1027011734
 20
8.9829769108
 10
10.1258289953
 20
8.9448035628
 10
10.1505162403
 20
8.9078208966
 10
10.1766215019
 20
8.8722407455
 10
10.2039952517
 20
8.8382669095
 10
10.2324806954
 20
8.8060939876
 10
10.2619146707
 20
8.7759062634
 10
10.2921285827
 20
8.7478766494
 10
10.3229493687
 20
8.7221656968
 10
10.3542004901
 20
8.6989206755
 10
10.3857029433
 20
8.6782747309
 10
10.4172762851
 20
8.6603461211
 10
10.4487396662
 20
8.6452375396
 10
10.4799128673
 20
8.633035527
 10
10.5106173311
 20
8.6238099753
 10
10.5406771851
 20
8.6176137275
 10
10.5699202494
 20
8.6144822753
 10
10.5981790221
 20
8.6144335554
 10
10.6252916397
 20
8.6174678467
 10
10.6511028036
 20
8.6235677692
 10
10.6754646697
 20
8.632698383
 10
10.6982376954
 20
8.6448073888
 10
10.719291439
 20
8.6598254274
 10
10.7385053065
 20
8.6776664767
 10
10.7557692426
 20
8.6982283448
 10
10.770984361
 20
8.7213932553
 10
10.7840635109
 20
8.7470285216
 10
10.7949317762
 20
8.7749873072
 10
10.8035269044
 20
8.8051094668
 10
10.8097996633
 20
8.8372224633
  0
LWPOLYLINE
  5
11D
330
1F
100
AcDbEntity
  8
0
  6
Continuous
 62
     7
370
     0
100
AcDbPolyline
 90
       20
 70
   128
 43
0.0
 10
10.8238490485
 20
8.8359578121
 10
10.8175598895
 20
8.8036777572
 10
10.8089643671
 20
8.7733722776
 10
10.798110551
 20
8.7452108538
 10
10.7850591402
 20
8.719350976
 10
10.7698831234
 20
8.695937263
 10
10.7526673711
 20
8.6751006539
 10
10.7335081608
 20
8.6569576755
 10
10.7125126384
 20
8.6416097905
 10
10.6897982195
 20
8.6291428306
 10
10.6654919324
 20
8.6196265162
 10
10.6397297077
 20
8.6131140663
 10
10.6126556181
 20
8.6096419011
 10
10.5844210729
 20
8.6092294385
 10
10.5551839713
 20
8.611878985
 10
10.5251078188
 20
8.6175757234
 10
10.4943608137
 20
8.6262877951
 10
10.4631149055
 20
8.6379664788
 10
10.4315448341
 20
8.6525464624
 10
10.4050810535
 20
8.666874643
  0
LWPOLYLINE
  5
11E
330
1F
100
AcDbEntity
  8
0
  6
Continuous
 62
     7
370
     0
100
AcDbPolyline
 90
       47
 70
   128
 43
0.0
 10
9.9808859396
 20
9.4016817504
 10
9.9809193314
 20
9.4078091116
 10
9.982503344
 20
9.4434867146
 10
9.9864509681
 20
9.4775608217
 10
9.9927401272
 20
9.5098408766
 10
10.0013356495
 20
9.5401463562
 10
10.0121894656
 20
9.56830778
 10
10.0252408764
 20
9.5941676578
 10
10.0404168932
 20
9.6175813707
 10
10.0576326455
 20
9.6384179798
 10
10.0767918559
 20
9.6565609583
 10
10.0977873782
 20
9.6719088433
 10
10.1205017971
 20
9.6843758031
 10
10.1448080842
 20
9.6938921176
 10
10.170570309
 20
9.7004045675
 10
10.1976443986
 20
9.7038767327
 10
10.2258789437
 20
9.7042891953
 10
10.2551160454
 20
9.7016396488
 10
10.2851921978
 20
9.6959429104
 10
10.315939203
 20
9.6872308387
 10
10.3471851112
 20
9.675552155
 10
10.3787551826
 20
9.6609721713
 10
10.4104728645
 20
9.6435724249
 10
10.4421607789
 20
9.623450222
 10
10.4736417141
 20
9.6007180943
 10
10.5047396158
 20
9.5755031691
 10
10.5352805721
 20
9.5479464583
 10
10.5650937855
 20
9.5182020704
 10
10.5940125284
 20
9.486436348
 10
10.6218750755
 20
9.4528269379
 10
10.648525608
 20
9.4175617976
 10
10.6738150855
 20
9.380838144
 10
10.697602079
 20
9.3428613507
 10
10.7197535618
 20
9.3038437994
 10
10.7401456539
 20
9.2640036919
 10
10.7586643145
 20
9.2235638304
 10
10.7752059797
 20
9.182750371
 10
10.7896781417
 20
9.1417915591
 10
10.8019998665
 20
9.1009164529
 10
10.8121022459
 20
9.0603536427
 10
10.8199287833
 20
9.0203299721
 10
10.8254357096
 20
8.9810692698
 10
10.8285922277
 20
8.9427910974
 10
10.8293806852
 20
8.9057095221
 10
10.8277966726
 20
8.8700319192
 10
10.8238490485
 20
8.8359578121
 10
10.8238490485
 20
8.8359578121
  0
LINE
  5
11F
330
1F
100
AcDbEntity
  8
0
  6
Continuous
 62
     7
370
     0
100
AcDbLine
 10
11.2340520279
 20
9.9198784162
 30
0.0
 11
11.2465411867
 21
9.9270882541
 31
0.0
  0
ARC
  5
120
330
1F
100
AcDbEntity
  8
0
  6
Continuous
 62
     7
370
     0
100
AcDbCircle
 10
10.5904675516
 20
9.2861689615
 30
0.0
 40
0.9032101920908332
100
AcDbArc
 50
40.972212337
 51
44.5570433905
  0
LINE
  5
121
330
1F
100
AcDbEntity
  8
0
  6
Continuous
 62
     7
370
     0
100
AcDbLine
 10
11.2849053981
 20
9.885607335
 30
0.0
 11
11.2724162394
 21
9.8783974971
 31
0.0
  0
ARC
  5
122
330
1F
100
AcDbEntity
  8
0
  6
Continuous
 62
     7
370
     0
100
AcDbCircle
 10
10.6029567104
 20
9.2933787994
 30
0.0
 40
0.9032101920924894
100
AcDbArc
 50
40.972212337
 51
44.5570433905
  0
ARC
  5
123
330
1F
100
AcDbEntity
  8
0
  6
Continuous
 62
     7
370
     0
100
AcDbCircle
 10
11.1518711414
 20
9.9726734745
 30
0.0
 40
0.0433498875627935
100
AcDbArc
 50
52.36125972
 51
127.3437363005
  0
SPLINE
  5
124
330
1F
100
AcDbEntity
  8
0
  6
Continuous
 62
     7
370
     0
100
AcDbSpline
210
0.0
220
0.0
230
1.0
 70
    24
 71
     1
 72
     4
 73
     2
 74
     0
 42
0.00000001
 43
0.00000001
 40
0.0
 40
0.0
 40
1.0
 40
1.0
 10
11.1140866661068
 20
9.998457700611189
 30
0.0
 10
11.12557529720186
 20
10.00713709778359
 30
0.0
  0
SPLINE
  5
125
330
1F
100
AcDbEntity
  8
0
  6
Continuous
 62
     7
370
     0
100
AcDbSpline
210
0.0
220
0.0
230
1.0
 70
     8
 71
     3
 72
    12
 73
     8
 74
     0
 42
0.00000001
 43
0.00000001
 40
0.0
 40
0.0
 40
0.0
 40
0.0
 40
0.2503309494299798
 40
0.4997648043321492
 40
0.6249322238031014
 40
0.7501904501281048
 40
1.0
 40
1.0
 40
1.0
 40
1.0
 10
11.11988710549757
 20
9.97381805613176
 30
0.0
 10
11.11758275061147
 20
9.975687607802566
 30
0.0
 10
11.11298229880403
 20
9.979420011355053
 30
0.0
 10
11.10967582195674
 20
9.984992500370808
 30
0.0
 10
11.10932745266721
 20
9.989444123007218
 30
0.0
 10
11.11009293599993
 20
9.99381015740497
 30
0.0
 10
11.11249007765866
 20
9.996599734850678
 30
0.0
 10
11.1140866661068
 20
9.998457700611189
 30
0.0
  0
ARC
  5
126
330
1F
100
AcDbEntity
  8
0
  6
Continuous
 62
     7
370
     0
100
AcDbCircle
 10
11.1473966522
 20
10.0064270244
 30
0.0
 40
0.0426628640495045
100
AcDbArc
 50
229.848383547
 51
305.4510019249
  0
SPLINE
  5
127
330
1F
100
AcDbEntity
  8
0
  6
Continuous
 62
     7
370
     0
100
AcDbSpline
210
0.0
220
0.0
230
1.0
 70
     8
 71
     3
 72
     9
 73
     5
 74
     0
 42
0.00000001
 43
0.00000001
 40
0.0
 40
0.0
 40
0.0
 40
0.0
 40
0.4986702672090054
 40
1.0
 40
1.0
 40
1.0
 40
1.0
 10
11.188208288635
 20
9.986984032232419
 30
0.0
 10
11.18632365329433
 20
9.983990809444489
 30
0.0
 10
11.18254433163711
 20
9.977988400669082
 30
0.0
 10
11.17561518109955
 20
9.973782096295405
 30
0.0
 10
11.17214139191209
 20
9.971673350847713
 30
0.0
  0
SPLINE
  5
128
330
1F
100
AcDbEntity
  8
0
  6
Continuous
 62
     7
370
     0
100
AcDbSpline
210
0.0
220
0.0
230
1.0
 70
     8
 71
     3
 72
    10
 73
     6
 74
     0
 42
0.00000001
 43
0.00000001
 40
0.0
 40
0.0
 40
0.0
 40
0.0
 40
0.4992067981606233
 40
0.7495375815250975
 40
1.0
 40
1.0
 40
1.0
 40
1.0
 10
11.17834408229322
 20
10.00700124976724
 30
0.0
 10
11.18178827654191
 20
10.00403099723633
 30
0.0
 10
11.18695958638179
 20
9.999571290544162
 30
0.0
 10
11.18926762094472
 20
9.99221404668307
 30
0.0
 10
11.18856146127702
 20
9.98872767585058
 30
0.0
 10
11.188208288635
 20
9.986984032232419
 30
0.0
  0
LINE
  5
129
330
1F
100
AcDbEntity
  8
0
  6
Continuous
 62
     7
370
     0
100
AcDbLine
 10
11.0572868625
 20
10.0573436673
 30
0.0
 11
11.0779949896
 21
10.0692982146
 31
0.0
  0
ARC
  5
12A
330
1F
100
AcDbEntity
  8
0
  6
Continuous
 62
     7
370
     0
100
AcDbCircle
 10
11.0479665269
 20
10.0705449395
 30
0.0
 40
0.0161598961554827
100
AcDbArc
 50
248.7068668906
 51
305.2227791079
  0
SPLINE
  5
12B
330
1F
100
AcDbEntity
  8
0
  6
Continuous
 62
     7
370
     0
100
AcDbSpline
210
0.0
220
0.0
230
1.0
 70
     8
 71
     3
 72
    11
 73
     7
 74
     0
 42
0.00000001
 43
0.00000001
 40
0.0
 40
0.0
 40
0.0
 40
0.0
 40
0.2500620333659233
 40
0.499913837696682
 40
0.7498401673007525
 40
1.0
 40
1.0
 40
1.0
 40
1.0
 10
11.04061598834646
 20
10.05973754773902
 30
0.0
 10
11.04035127413666
 20
10.05935504749898
 30
0.0
 10
11.03982206826428
 20
10.05859036858974
 30
0.0
 10
11.03987918020239
 20
10.05740003200464
 30
0.0
 10
11.04061402961779
 20
10.05630591830432
 30
0.0
 10
11.04160334206754
 20
10.05576085935639
 30
0.0
 10
11.04209822926012
 20
10.05548820263141
 30
0.0
  0
SPLINE
  5
12C
330
1F
100
AcDbEntity
  8
0
  6
Continuous
 62
     7
370
     0
100
AcDbSpline
210
0.0
220
0.0
230
1.0
 70
    24
 71
     1
 72
     4
 73
     2
 74
     0
 42
0.00000001
 43
0.00000001
 40
0.0
 40
0.0
 40
1.0
 40
1.0
 10
11.04393502086344
 20
10.06198584748641
 30
0.0
 10
11.04061598834646
 20
10.05973754773902
 30
0.0
  0
LINE
  5
12D
330
1F
100
AcDbEntity
  8
0
  6
Continuous
 62
     7
370
     0
100
AcDbLine
 10
11.0662846459
 20
10.0748880114
 30
0.0
 11
11.0439350209
 21
10.0619858475
 31
0.0
  0
ARC
  5
12E
330
1F
100
AcDbEntity
  8
0
  6
Continuous
 62
     7
370
     0
100
AcDbCircle
 10
10.8697550102
 20
9.6489610545
 30
0.0
 40
0.4690817309312442
100
AcDbArc
 50
65.2306304172
 51
67.27494963
  0
LINE
  5
12F
330
1F
100
AcDbEntity
  8
0
  6
Continuous
 62
     7
370
     0
100
AcDbLine
 10
11.0299705663
 20
10.0695074178
 30
0.0
 11
11.0509656686
 21
10.0816276324
 31
0.0
  0
ARC
  5
130
330
1F
100
AcDbEntity
  8
0
  6
Continuous
 62
     7
370
     0
100
AcDbCircle
 10
11.0203365072
 20
10.0833043173
 30
0.0
 40
0.0168276418397681
100
AcDbArc
 50
252.0882945089
 51
304.925715417
  0
SPLINE
  5
131
330
1F
100
AcDbEntity
  8
0
  6
Continuous
 62
     7
370
     0
100
AcDbSpline
210
0.0
220
0.0
230
1.0
 70
     8
 71
     3
 72
    10
 73
     6
 74
     0
 42
0.00000001
 43
0.00000001
 40
0.0
 40
0.0
 40
0.0
 40
0.0
 40
0.4988226573032808
 40
0.749170001575213
 40
1.0
 40
1.0
 40
1.0
 40
1.0
 10
11.01319149969876
 20
10.07012319128605
 30
0.0
 10
11.01315756640473
 20
10.06956941315359
 30
0.0
 10
11.01310660278957
 20
10.06873770681809
 30
0.0
 10
11.01405786907844
 20
10.06781472160434
 30
0.0
 10
11.01479315280007
 20
10.06746654193458
 30
0.0
 10
11.01516114871494
 20
10.0672922844441
 30
0.0
  0
SPLINE
  5
132
330
1F
100
AcDbEntity
  8
0
  6
Continuous
 62
     7
370
     0
100
AcDbSpline
210
0.0
220
0.0
230
1.0
 70
     8
 71
     3
 72
     9
 73
     5
 74
     0
 42
0.00000001
 43
0.00000001
 40
0.0
 40
0.0
 40
0.0
 40
0.0
 40
0.5015771373281256
 40
1.0
 40
1.0
 40
1.0
 40
1.0
 10
11.01616813256685
 20
10.07292341685227
 30
0.0
 10
11.01544876957609
 20
10.07249428570262
 30
0.0
 10
11.01401456746195
 20
10.07163872208597
 30
0.0
 10
11.0134652780833
 20
10.07062730479004
 30
0.0
 10
11.01319149969876
 20
10.07012319128605
 30
0.0
  0
LINE
  5
133
330
1F
100
AcDbEntity
  8
0
  6
Continuous
 62
     7
370
     0
100
AcDbLine
 10
11.0393442461
 20
10.0863027024
 30
0.0
 11
11.0161681326
 21
10.0729234169
 31
0.0
  0
ARC
  5
134
330
1F
100
AcDbEntity
  8
0
  6
Continuous
 62
     7
370
     0
100
AcDbCircle
 10
10.8876315878
 20
9.693373316
 30
0.0
 40
0.4212009417438831
100
AcDbArc
 50
68.8880925281
 51
71.0845519373
  0
LINE
  5
135
330
1F
100
AcDbEntity
  8
0
  6
Continuous
 62
     7
370
     0
100
AcDbLine
 10
10.9984488928
 20
10.0769781498
 30
0.0
 11
11.0241733457
 21
10.0918285603
 31
0.0
  0
SPLINE
  5
136
330
1F
100
AcDbEntity
  8
0
  6
Continuous
 62
     7
370
     0
100
AcDbSpline
210
0.0
220
0.0
230
1.0
 70
     8
 71
     3
 72
    13
 73
     9
 74
     0
 42
0.00000001
 43
0.00000001
 40
0.0
 40
0.0
 40
0.0
 40
0.0
 40
0.2493551011003536
 40
0.3758643206426678
 40
0.4994912623305686
 40
0.6184449072892799
 40
0.7497843925020675
 40
1.0
 40
1.0
 40
1.0
 40
1.0
 10
10.99617817135172
 20
10.06262421873492
 30
0.0
 10
10.99430556362504
 20
10.06347779970134
 30
0.0
 10
10.99148289656145
 20
10.06476444123639
 30
0.0
 10
10.98986230958056
 20
10.06718719691538
 30
0.0
 10
10.98976240980844
 20
10.06915957207372
 30
0.0
 10
10.99083213535445
 20
10.07122551978409
 30
0.0
 10
10.99349981611102
 20
10.07391536367787
 30
0.0
 10
10.99648878887592
 20
10.0757651196602
 30
0.0
 10
10.99844889280442
 20
10.07697814977219
 30
0.0
  0
ARC
  5
137
330
1F
100
AcDbEntity
  8
0
  6
Continuous
 62
     7
370
     0
100
AcDbCircle
 10
11.0097277569
 20
10.0993341173
 30
0.0
 40
0.0391306519568271
100
AcDbArc
 50
249.7409486862
 51
281.3764315034
  0
SPLINE
  5
138
330
1F
100
AcDbEntity
  8
0
  6
Continuous
 62
     7
370
     0
100
AcDbSpline
210
0.0
220
0.0
230
1.0
 70
     8
 71
     3
 72
    12
 73
     8
 74
     0
 42
0.00000001
 43
0.00000001
 40
0.0
 40
0.0
 40
0.0
 40
0.0
 40
0.2503533688407778
 40
0.4999961943216188
 40
0.7494886161542176
 40
0.8747044873187667
 40
1.0
 40
1.0
 40
1.0
 40
1.0
 10
11.02289045795977
 20
10.05141112160436
 30
0.0
 10
11.0216717954985
 20
10.05201603431871
 30
0.0
 10
11.01923792933718
 20
10.05322414290726
 30
0.0
 10
11.01669256810251
 20
10.05551949154427
 30
0.0
 10
11.0162864471006
 20
10.05778791538282
 30
0.0
 10
11.01671596258236
 20
10.05961327066533
 30
0.0
 10
11.01720289463463
 20
10.06051918679552
 30
0.0
 10
11.01744643806246
 20
10.06097228886312
 30
0.0
  0
ARC
  5
139
330
1F
100
AcDbEntity
  8
0
  6
Continuous
 62
     7
370
     0
100
AcDbCircle
 10
11.0381614825
 20
10.0859017875
 30
0.0
 40
0.0377201567321466
100
AcDbArc
 50
246.1182405868
 51
279.2443936315
  0
LINE
  5
13A
330
1F
100
AcDbEntity
  8
0
  6
Continuous
 62
     7
370
     0
100
AcDbLine
 10
11.0379076209
 20
10.0450268577
 30
0.0
 11
11.0442210743
 21
10.0486715367
 31
0.0
  0
ARC
  5
13B
330
1F
100
AcDbEntity
  8
0
  6
Continuous
 62
     7
370
     0
100
AcDbCircle
 10
10.8061009116
 20
9.5781441535
 30
0.0
 40
0.5212617480084618
100
AcDbArc
 50
61.8205925896
 51
63.5956559673
  0
LINE
  5
13C
330
1F
100
AcDbEntity
  8
0
  6
Continuous
 62
     7
370
     0
100
AcDbLine
 10
11.093399183
 20
10.0613724864
 30
0.0
 11
11.0522584248
 21
10.0376224322
 31
0.0
  0
ARC
  5
13D
330
1F
100
AcDbEntity
  8
0
  6
Continuous
 62
     7
370
     0
100
AcDbCircle
 10
10.8477153694
 20
9.6028016531
 30
0.0
 40
0.5202381621646607
100
AcDbArc
 50
61.8193840911
 51
63.7273828092
  0
SPLINE
  5
13E
330
1F
100
AcDbEntity
  8
0
  6
Continuous
 62
     7
370
     0
100
AcDbSpline
210
0.0
220
0.0
230
1.0
 70
    24
 71
     1
 72
     4
 73
     2
 74
     0
 42
0.00000001
 43
0.00000001
 40
0.0
 40
0.0
 40
1.0
 40
1.0
 10
11.08749456599995
 20
9.442643368004683
 30
0.0
 10
11.09282569861366
 20
9.433131052660663
 30
0.0
  0
SPLINE
  5
13F
330
1F
100
AcDbEntity
  8
0
  6
Continuous
 62
     7
370
     0
100
AcDbSpline
210
0.0
220
0.0
230
1.0
 70
    24
 71
     1
 72
     4
 73
     2
 74
     0
 42
0.00000001
 43
0.00000001
 40
0.0
 40
0.0
 40
1.0
 40
1.0
 10
11.08165193973149
 20
9.449966585936895
 30
0.0
 10
11.08749456599995
 20
9.442643368004683
 30
0.0
  0
ARC
  5
140
330
1F
100
AcDbEntity
  8
0
  6
Continuous
 62
     7
370
     0
100
AcDbCircle
 10
11.0712083257
 20
9.4374841547
 30
0.0
 40
0.0162751394307241
100
AcDbArc
 50
50.0819547426
 51
119.4367486325
  0
ARC
  5
141
330
1F
100
AcDbEntity
  8
0
  6
Continuous
 62
     7
370
     0
100
AcDbCircle
 10
11.0741467387
 20
9.4355185647
 30
0.0
 40
0.0194962820599815
100
AcDbArc
 50
124.1236279249
 51
204.0163703123
  0
SPLINE
  5
142
330
1F
100
AcDbEntity
  8
0
  6
Continuous
 62
     7
370
     0
100
AcDbSpline
210
0.0
220
0.0
230
1.0
 70
     8
 71
     3
 72
     9
 73
     5
 74
     0
 42
0.00000001
 43
0.00000001
 40
0.0
 40
0.0
 40
0.0
 40
0.0
 40
0.4993318956962089
 40
1.0
 40
1.0
 40
1.0
 40
1.0
 10
11.04891306296521
 20
9.433442931525263
 30
0.0
 10
11.05028426675625
 20
9.432734507247472
 30
0.0
 10
11.05303034366993
 20
9.431315762953556
 30
0.0
 10
11.05523464285279
 20
9.428828777983197
 30
0.0
 10
11.05633826514599
 20
9.427583623932655
 30
0.0
  0
SPLINE
  5
143
330
1F
100
AcDbEntity
  8
0
  6
Continuous
 62
     7
370
     0
100
AcDbSpline
210
0.0
220
0.0
230
1.0
 70
     8
 71
     3
 72
     9
 73
     5
 74
     0
 42
0.00000001
 43
0.00000001
 40
0.0
 40
0.0
 40
0.0
 40
0.0
 40
0.5001300021535751
 40
1.0
 40
1.0
 40
1.0
 40
1.0
 10
11.03861855597811
 20
9.432701682037463
 30
0.0
 10
11.04024523485487
 20
9.43343463851904
 30
0.0
 10
11.04349774694123
 20
9.434900170437583
 30
0.0
 10
11.04710827054111
 20
9.433928593624652
 30
0.0
 10
11.04891306296521
 20
9.433442931525263
 30
0.0
  0
SPLINE
  5
144
330
1F
100
AcDbEntity
  8
0
  6
Continuous
 62
     7
370
     0
100
AcDbSpline
210
0.0
220
0.0
230
1.0
 70
     8
 71
     3
 72
    13
 73
     9
 74
     0
 42
0.00000001
 43
0.00000001
 40
0.0
 40
0.0
 40
0.0
 40
0.0
 40
0.2502329787225975
 40
0.4994066255425674
 40
0.625701360713201
 40
0.7496002874215381
 40
0.874037117176254
 40
1.0
 40
1.0
 40
1.0
 40
1.0
 10
11.03491637526867
 20
9.40344956159946
 30
0.0
 10
11.03383239892499
 20
9.406097577100697
 30
0.0
 10
11.03166903512408
 20
9.411382398040795
 30
0.0
 10
11.03092184393455
 20
9.41869668379709
 30
0.0
 10
11.03191778838053
 20
9.424081353087983
 30
0.0
 10
11.03344234206677
 20
9.427692617301615
 30
0.0
 10
11.03567138490399
 20
9.430713273354147
 30
0.0
 10
11.03763218228103
 20
9.432036191648562
 30
0.0
 10
11.03861855597811
 20
9.432701682037463
 30
0.0
  0
ARC
  5
145
330
1F
100
AcDbEntity
  8
0
  6
Continuous
 62
     7
370
     0
100
AcDbCircle
 10
10.1284887493
 20
8.9930251533
 30
0.0
 40
0.9950172038806847
100
AcDbArc
 50
21.7580491411
 51
24.3607018186
  0
LINE
  5
146
330
1F
100
AcDbEntity
  8
0
  6
Continuous
 62
     7
370
     0
100
AcDbLine
 10
11.1091869689
 20
9.3945223322
 30
0.0
 11
11.0526184264
 21
9.3618660078
 31
0.0
  0
ARC
  5
147
330
1F
100
AcDbEntity
  8
0
  6
Continuous
 62
     7
370
     0
100
AcDbCircle
 10
10.1860756856
 20
9.0261052795
 30
0.0
 40
0.9939142649995362
100
AcDbArc
 50
21.7571208757
 51
24.1745593587
  0
SPLINE
  5
148
330
1F
100
AcDbEntity
  8
0
  6
Continuous
 62
     7
370
     0
100
AcDbSpline
210
0.0
220
0.0
230
1.0
 70
    24
 71
     1
 72
     4
 73
     2
 74
     0
 42
0.00000001
 43
0.00000001
 40
0.0
 40
0.0
 40
1.0
 40
1.0
 10
10.94824416332362
 20
9.557946338307225
 30
0.0
 10
10.98782234499577
 20
9.614829116813024
 30
0.0
  0
ARC
  5
149
330
1F
100
AcDbEntity
  8
0
  6
Continuous
 62
     7
370
     0
100
AcDbCircle
 10
10.0980839713
 20
8.9799967225
 30
0.0
 40
1.028006863026188
100
AcDbArc
 50
32.6460414353
 51
34.2083595365
  0
SPLINE
  5
14A
330
1F
100
AcDbEntity
  8
0
  6
Continuous
 62
     7
370
     0
100
AcDbSpline
210
0.0
220
0.0
230
1.0
 70
    24
 71
     1
 72
     4
 73
     2
 74
     0
 42
0.00000001
 43
0.00000001
 40
0.0
 40
0.0
 40
1.0
 40
1.0
 10
11.03570182697313
 20
9.54232949081184
 30
0.0
 10
10.96368546974995
 20
9.53455254150608
 30
0.0
  0
ARC
  5
14B
330
1F
100
AcDbEntity
  8
0
  6
Continuous
 62
     7
370
     0
100
AcDbCircle
 10
10.1477082276
 20
9.0082048134
 30
0.0
 40
1.036253735129325
100
AcDbArc
 50
31.0267440578
 51
32.4256356952
  0
SPLINE
  5
14C
330
1F
100
AcDbEntity
  8
0
  6
Continuous
 62
     7
370
     0
100
AcDbSpline
210
0.0
220
0.0
230
1.0
 70
    24
 71
     1
 72
     4
 73
     2
 74
     0
 42
0.00000001
 43
0.00000001
 40
0.0
 40
0.0
 40
1.0
 40
1.0
 10
11.01067726150228
 20
9.56173637935978
 30
0.0
 10
11.02239767139414
 20
9.563848746562817
 30
0.0
  0
ARC
  5
14D
330
1F
100
AcDbEntity
  8
0
  6
Continuous
 62
     7
370
     0
100
AcDbCircle
 10
10.1450736769
 20
9.0071212339
 30
0.0
 40
1.028040624319738
100
AcDbArc
 50
32.6487628033
 51
34.1957221084
  0
SPLINE
  5
14E
330
1F
100
AcDbEntity
  8
0
  6
Continuous
 62
     7
370
     0
100
AcDbSpline
210
0.0
220
0.0
230
1.0
 70
    24
 71
     1
 72
     4
 73
     2
 74
     0
 42
0.00000001
 43
0.00000001
 40
0.0
 40
0.0
 40
1.0
 40
1.0
 10
11.00267410453938
 20
9.593735853211655
 30
0.0
 10
10.995389248252
 20
9.584902294826522
 30
0.0
  0
ARC
  5
14F
330
1F
100
AcDbEntity
  8
0
  6
Continuous
 62
     7
370
     0
100
AcDbCircle
 10
10.1658510481
 20
9.0203042223
 30
0.0
 40
1.014444016719565
100
AcDbArc
 50
34.4208278102
 51
35.877897934
  0
LINE
  5
150
330
1F
100
AcDbEntity
  8
0
  6
Continuous
 62
     7
370
     0
100
AcDbLine
 10
10.8598553369
 20
9.7442464928
 30
0.0
 11
10.8694058701
 21
9.7497598982
 31
0.0
  0
ARC
  5
151
330
1F
100
AcDbEntity
  8
0
  6
Continuous
 62
     7
370
     0
100
AcDbCircle
 10
10.3064240827
 20
9.1498003654
 30
0.0
 40
0.8121898494428358
100
AcDbArc
 50
47.0463682402
 51
47.7214967319
  0
LINE
  5
152
330
1F
100
AcDbEntity
  8
0
  6
Continuous
 62
     7
370
     0
100
AcDbLine
 10
10.8395887774
 20
9.7430923282
 30
0.0
 11
10.8528125926
 21
9.7507262742
 31
0.0
  0
ARC
  5
153
330
1F
100
AcDbEntity
  8
0
  6
Continuous
 62
     7
370
     0
100
AcDbCircle
 10
10.2932002675
 20
9.1421664193
 30
0.0
 40
0.8121898495428649
100
AcDbArc
 50
47.0463682402
 51
47.7214967319
  0
LINE
  5
154
330
1F
100
AcDbEntity
  8
0
  6
Continuous
 62
     7
370
     0
100
AcDbLine
 10
10.8121026712
 20
9.7166794657
 30
0.0
 11
10.8466315218
 21
9.7366125468
 31
0.0
  0
ARC
  5
155
330
1F
100
AcDbEntity
  8
0
  6
Continuous
 62
     7
370
     0
100
AcDbCircle
 10
10.2451169799
 20
9.107723935
 30
0.0
 40
0.8320454389552041
100
AcDbArc
 50
45.781796087
 51
47.0440429862
  0
SPLINE
  5
156
330
1F
100
AcDbEntity
  8
0
  6
Continuous
 62
     7
370
     0
100
AcDbSpline
210
0.0
220
0.0
230
1.0
 70
    24
 71
     1
 72
     4
 73
     2
 74
     0
 42
0.00000001
 43
0.00000001
 40
0.0
 40
0.0
 40
1.0
 40
1.0
 10
10.88675923135292
 20
9.696793961313018
 30
0.0
 10
10.8253795142766
 20
9.704041806317283
 30
0.0
  0
LINE
  5
157
330
1F
100
AcDbEntity
  8
0
  6
Continuous
 62
     7
370
     0
100
AcDbLine
 10
10.8999026934
 20
9.7043815205
 30
0.0
 11
10.8867592314
 21
9.6967939613
 31
0.0
  0
ARC
  5
158
330
1F
100
AcDbEntity
  8
0
  6
Continuous
 62
     7
370
     0
100
AcDbCircle
 10
10.266353316
 20
9.108235708
 30
0.0
 40
0.8699279529344837
100
AcDbArc
 50
43.2577748678
 51
45.772850418
  0
LINE
  5
159
330
1F
100
AcDbEntity
  8
0
  6
Continuous
 62
     7
370
     0
100
AcDbLine
 10
10.8826827132
 20
9.7371222389
 30
0.0
 11
10.87313218
 21
9.7316088335
 31
0.0
  0
ARC
  5
15A
330
1F
100
AcDbEntity
  8
0
  6
Continuous
 62
     7
370
     0
100
AcDbCircle
 10
10.3024201788
 20
9.1408043676
 30
0.0
 40
0.8320454389467525
100
AcDbArc
 50
45.781796087
 51
47.0440429862
  0
ARC
  5
15B
330
1F
100
AcDbEntity
  8
0
  6
Continuous
 62
     7
370
     0
100
AcDbCircle
 10
10.7585813252
 20
9.7813660964
 30
0.0
 40
0.0457579501405824
100
AcDbArc
 50
56.5346122367
 51
127.2653199358
  0
SPLINE
  5
15C
330
1F
100
AcDbEntity
  8
0
  6
Continuous
 62
     7
370
     0
100
AcDbSpline
210
0.0
220
0.0
230
1.0
 70
    24
 71
     1
 72
     4
 73
     2
 74
     0
 42
0.00000001
 43
0.00000001
 40
0.0
 40
0.0
 40
1.0
 40
1.0
 10
10.71939453232078
 20
9.80923393474836
 30
0.0
 10
10.73087457504139
 20
9.817782109279628
 30
0.0
  0
SPLINE
  5
15D
330
1F
100
AcDbEntity
  8
0
  6
Continuous
 62
     7
370
     0
100
AcDbSpline
210
0.0
220
0.0
230
1.0
 70
     8
 71
     3
 72
    12
 73
     8
 74
     0
 42
0.00000001
 43
0.00000001
 40
0.0
 40
0.0
 40
0.0
 40
0.0
 40
0.2503309494299804
 40
0.4997648043321471
 40
0.6249322238031038
 40
0.7501904501281049
 40
1.0
 40
1.0
 40
1.0
 40
1.0
 10
10.72535287763443
 20
9.78632152102012
 30
0.0
 10
10.72302712236378
 20
9.787999125936855
 30
0.0
 10
10.71838394647838
 20
9.791348323848133
 30
0.0
 10
10.71503599241791
 20
9.796457914830631
 30
0.0
 10
10.71466401526721
 20
9.800618043529706
 30
0.0
 10
10.71541089831768
 20
9.804736068030696
 30
0.0
 10
10.71780198002987
 20
9.807435805718471
 30
0.0
 10
10.71939453232078
 20
9.80923393474836
 30
0.0
  0
ARC
  5
15E
330
1F
100
AcDbEntity
  8
0
  6
Continuous
 62
     7
370
     0
100
AcDbCircle
 10
10.7518187372
 20
9.8227521003
 30
0.0
 40
0.0450291997490976
100
AcDbArc
 50
234.0025792793
 51
305.3572641266
  0
SPLINE
  5
15F
330
1F
100
AcDbEntity
  8
0
  6
Continuous
 62
     7
370
     0
100
AcDbSpline
210
0.0
220
0.0
230
1.0
 70
     8
 71
     3
 72
     9
 73
     5
 74
     0
 42
0.00000001
 43
0.00000001
 40
0.0
 40
0.0
 40
0.0
 40
0.0
 40
0.4986702672090041
 40
1.0
 40
1.0
 40
1.0
 40
1.0
 10
10.79388603717416
 20
9.801003825046692
 30
0.0
 10
10.79201920861308
 20
9.798116533869909
 30
0.0
 10
10.78827559548062
 20
9.792326553262193
 30
0.0
 10
10.78134861938971
 20
9.788131304916172
 30
0.0
 10
10.777875920317
 20
9.78602810218387
 30
0.0
  0
SPLINE
  5
160
330
1F
100
AcDbEntity
  8
0
  6
Continuous
 62
     7
370
     0
100
AcDbSpline
210
0.0
220
0.0
230
1.0
 70
     8
 71
     3
 72
    10
 73
     6
 74
     0
 42
0.00000001
 43
0.00000001
 40
0.0
 40
0.0
 40
0.0
 40
0.0
 40
0.4992067981606212
 40
0.7495375815250999
 40
0.9999999999999999
 40
0.9999999999999999
 40
0.9999999999999999
 40
0.9999999999999999
 10
10.78381377514806
 20
9.819538252049878
 30
0.0
 10
10.78729450824898
 20
9.816859874167951
 30
0.0
 10
10.79252067960724
 20
9.812838404733988
 30
0.0
 10
10.79490350398611
 20
9.805974907785547
 30
0.0
 10
10.79422525220504
 20
9.802661142970905
 30
0.0
 10
10.79388603717416
 20
9.801003825046692
 30
0.0
  0
SPLINE
  5
161
330
1F
100
AcDbEntity
  8
0
  6
Continuous
 62
     7
370
     0
100
AcDbSpline
210
0.0
220
0.0
230
1.0
 70
     8
 71
     3
 72
     9
 73
     5
 74
     0
 42
0.00000001
 43
0.00000001
 40
0.0
 40
0.0
 40
0.0
 40
0.0
 40
0.5000993720193337
 40
1.0
 40
1.0
 40
1.0
 40
1.0
 10
10.71699699950332
 20
9.858142980899792
 30
0.0
 10
10.70773363378803
 20
9.854241741324733
 30
0.0
 10
10.68921058370322
 20
9.846440812562703
 30
0.0
 10
10.66678555505528
 20
9.84329235192289
 30
0.0
 10
10.65557526915168
 20
9.841718434471874
 30
0.0
  0
ARC
  5
162
330
1F
100
AcDbEntity
  8
0
  6
Continuous
 62
     7
370
     0
100
AcDbCircle
 10
10.4950815389
 20
9.4149128823
 30
0.0
 40
0.4956807359137645
100
AcDbArc
 50
63.4038902196
 51
65.3744012943
  0
SPLINE
  5
163
330
1F
100
AcDbEntity
  8
0
  6
Continuous
 62
     7
370
     0
100
AcDbSpline
210
0.0
220
0.0
230
1.0
 70
    24
 71
     1
 72
     4
 73
     2
 74
     0
 42
0.00000001
 43
0.00000001
 40
0.0
 40
0.0
 40
1.0
 40
1.0
 10
10.68138172583459
 20
9.856897585758716
 30
0.0
 10
10.70162524814124
 20
9.865511470994411
 30
0.0
  0
SPLINE
  5
164
330
1F
100
AcDbEntity
  8
0
  6
Continuous
 62
     7
370
     0
100
AcDbSpline
210
0.0
220
0.0
230
1.0
 70
    24
 71
     1
 72
     4
 73
     2
 74
     0
 42
0.00000001
 43
0.00000001
 40
0.0
 40
0.0
 40
1.0
 40
1.0
 10
10.65676729063324
 20
9.85039403475459
 30
0.0
 10
10.68138172583459
 20
9.856897585758716
 30
0.0
  0
SPLINE
  5
165
330
1F
100
AcDbEntity
  8
0
  6
Continuous
 62
     7
370
     0
100
AcDbSpline
210
0.0
220
0.0
230
1.0
 70
    24
 71
     1
 72
     4
 73
     2
 74
     0
 42
0.00000001
 43
0.00000001
 40
0.0
 40
0.0
 40
1.0
 40
1.0
 10
10.63522623865273
 20
9.847727426182466
 30
0.0
 10
10.65676729063324
 20
9.85039403475459
 30
0.0
  0
LINE
  5
166
330
1F
100
AcDbEntity
  8
0
  6
Continuous
 62
     7
370
     0
100
AcDbLine
 10
10.624654074
 20
9.8416242454
 30
0.0
 11
10.6352262387
 21
9.8477274262
 31
0.0
  0
ARC
  5
167
330
1F
100
AcDbEntity
  8
0
  6
Continuous
 62
     7
370
     0
100
AcDbCircle
 10
10.4432581998
 20
9.3915602843
 30
0.0
 40
0.4852443016318432
100
AcDbArc
 50
62.1473151922
 51
68.0483641748
  0
LINE
  5
168
330
1F
100
AcDbEntity
  8
0
  6
Continuous
 62
     7
370
     0
100
AcDbLine
 10
10.683188073
 20
9.8282238277
 30
0.0
 11
10.6699642579
 21
9.8205898817
 31
0.0
  0
ARC
  5
169
330
1F
100
AcDbEntity
  8
0
  6
Continuous
 62
     7
370
     0
100
AcDbCircle
 10
10.4490192426
 20
9.3840632514
 30
0.0
 40
0.5021092099102562
100
AcDbArc
 50
62.2010574051
 51
65.7086540812
  0
ARC
  5
16A
330
1F
100
AcDbEntity
  8
0
  6
Continuous
 62
     7
370
     0
100
AcDbCircle
 10
10.5957488374
 20
9.8193507066
 30
0.0
 40
0.0783465730217967
100
AcDbArc
 50
85.6698437942
 51
125.4461407155
  0
SPLINE
  5
16B
330
1F
100
AcDbEntity
  8
0
  6
Continuous
 62
     7
370
     0
100
AcDbSpline
210
0.0
220
0.0
230
1.0
 70
    24
 71
     1
 72
     4
 73
     2
 74
     0
 42
0.00000001
 43
0.00000001
 40
0.0
 40
0.0
 40
1.0
 40
1.0
 10
10.53870657233326
 20
9.875491308675217
 30
0.0
 10
10.55031272857588
 20
9.883176606613674
 30
0.0
  0
SPLINE
  5
16C
330
1F
100
AcDbEntity
  8
0
  6
Continuous
 62
     7
370
     0
100
AcDbSpline
210
0.0
220
0.0
230
1.0
 70
     8
 71
     3
 72
    12
 73
     8
 74
     0
 42
0.00000001
 43
0.00000001
 40
0.0
 40
0.0
 40
0.0
 40
0.0
 40
0.2503309494299784
 40
0.4997648043321475
 40
0.6249322238031018
 40
0.7501904501281067
 40
1.0
 40
1.0
 40
1.0
 40
1.0
 10
10.54322707145303
 20
9.864032683485538
 30
0.0
 10
10.54104202817234
 20
9.864429179809232
 30
0.0
 10
10.53667977200658
 20
9.865220751558876
 30
0.0
 10
10.53372132817659
 20
9.867262528633422
 30
0.0
 10
10.53360706506714
 20
9.869496186731123
 30
0.0
 10
10.534580574691
 20
9.871978307419393
 30
0.0
 10
10.53705710679693
 20
9.874086903001006
 30
0.0
 10
10.53870657233326
 20
9.875491308675217
 30
0.0
  0
ARC
  5
16D
330
1F
100
AcDbEntity
  8
0
  6
Continuous
 62
     7
370
     0
100
AcDbCircle
 10
10.5526724466
 20
9.9388919421
 30
0.0
 40
0.0754527913103981
100
AcDbArc
 50
262.8087002528
 51
303.8504841554
  0
SPLINE
  5
16E
330
1F
100
AcDbEntity
  8
0
  6
Continuous
 62
     7
370
     0
100
AcDbSpline
210
0.0
220
0.0
230
1.0
 70
     8
 71
     3
 72
     9
 73
     5
 74
     0
 42
0.00000001
 43
0.00000001
 40
0.0
 40
0.0
 40
0.0
 40
0.0
 40
0.4986702672090044
 40
1.0
 40
1.0
 40
1.0
 40
1.0
 10
10.61086116551423
 20
9.888927335031815
 30
0.0
 10
10.60894637269273
 20
9.886759906477591
 30
0.0
 10
10.60510657524057
 20
9.882413490224714
 30
0.0
 10
10.59817615768766
 20
9.878294050362108
 30
0.0
 10
10.59470173330773
 20
9.87622885267654
 30
0.0
  0
SPLINE
  5
16F
330
1F
100
AcDbEntity
  8
0
  6
Continuous
 62
     7
370
     0
100
AcDbSpline
210
0.0
220
0.0
230
1.0
 70
     8
 71
     3
 72
    10
 73
     6
 74
     0
 42
0.00000001
 43
0.00000001
 40
0.0
 40
0.0
 40
0.0
 40
0.0
 40
0.4992067981606237
 40
0.7495375815250975
 40
1.0
 40
1.0
 40
1.0
 40
1.0
 10
10.60166428261651
 20
9.897473641831978
 30
0.0
 10
10.60495084250467
 20
9.896751882853318
 30
0.0
 10
10.60988547111787
 20
9.895668192724695
 30
0.0
 10
10.61200409319062
 20
9.892142392675082
 30
0.0
 10
10.611242208161
 20
9.889999208693846
 30
0.0
 10
10.61086116551423
 20
9.888927335031815
 30
0.0
  0
LINE
  5
170
330
1F
100
AcDbEntity
  8
0
  6
Continuous
 62
     7
370
     0
100
AcDbLine
 10
10.4910770155
 20
9.8849571649
 30
0.0
 11
10.5117851426
 21
9.8969117123
 31
0.0
  0
ARC
  5
171
330
1F
100
AcDbEntity
  8
0
  6
Continuous
 62
     7
370
     0
100
AcDbCircle
 10
10.4641511877
 20
9.9280688291
 30
0.0
 40
0.0508292808706811
100
AcDbArc
 50
284.6098123534
 51
301.9872575031
  0
SPLINE
  5
172
330
1F
100
AcDbEntity
  8
0
  6
Continuous
 62
     7
370
     0
100
AcDbSpline
210
0.0
220
0.0
230
1.0
 70
     8
 71
     3
 72
    11
 73
     7
 74
     0
 42
0.00000001
 43
0.00000001
 40
0.0
 40
0.0
 40
0.0
 40
0.0
 40
0.2500620333659142
 40
0.4999138376966861
 40
0.7498401673007442
 40
1.0
 40
1.0
 40
1.0
 40
1.0
 10
10.47633454098605
 20
9.879961341953722
 30
0.0
 10
10.47603098389269
 20
9.879722567263812
 30
0.0
 10
10.47542412490871
 20
9.879245218623668
 30
0.0
 10
10.47527638350799
 20
9.878817829086723
 30
0.0
 10
10.47575990202292
 20
9.878666990821271
 30
0.0
 10
10.47656791858251
 20
9.878811016435566
 30
0.0
 10
10.47697211550417
 20
9.878883062867345
 30
0.0
  0
SPLINE
  5
173
330
1F
100
AcDbEntity
  8
0
  6
Continuous
 62
     7
370
     0
100
AcDbSpline
210
0.0
220
0.0
230
1.0
 70
    24
 71
     1
 72
     4
 73
     2
 74
     0
 42
0.00000001
 43
0.00000001
 40
0.0
 40
0.0
 40
1.0
 40
1.0
 10
10.4797098986714
 20
9.882001557958718
 30
0.0
 10
10.47633454098605
 20
9.879961341953722
 30
0.0
  0
LINE
  5
174
330
1F
100
AcDbEntity
  8
0
  6
Continuous
 62
     7
370
     0
100
AcDbLine
 10
10.5020595237
 20
9.8949037219
 30
0.0
 11
10.4797098987
 21
9.882001558
 31
0.0
  0
ARC
  5
175
330
1F
100
AcDbEntity
  8
0
  6
Continuous
 62
     7
370
     0
100
AcDbCircle
 10
10.5502049178
 20
9.6854673729
 30
0.0
 40
0.2148989605631748
100
AcDbArc
 50
102.946277455
 51
106.3863975468
  0
LINE
  5
176
330
1F
100
AcDbEntity
  8
0
  6
Continuous
 62
     7
370
     0
100
AcDbLine
 10
10.4685838744
 20
9.8795171331
 30
0.0
 11
10.4895789768
 21
9.8916373477
 31
0.0
  0
ARC
  5
177
330
1F
100
AcDbEntity
  8
0
  6
Continuous
 62
     7
370
     0
100
AcDbCircle
 10
10.4305662267
 20
9.9420923689
 30
0.0
 40
0.0732188614055059
100
AcDbArc
 50
289.5322366072
 51
301.2808154628
  0
SPLINE
  5
178
330
1F
100
AcDbEntity
  8
0
  6
Continuous
 62
     7
370
     0
100
AcDbSpline
210
0.0
220
0.0
230
1.0
 70
     8
 71
     3
 72
    10
 73
     6
 74
     0
 42
0.00000001
 43
0.00000001
 40
0.0
 40
0.0
 40
0.0
 40
0.0
 40
0.4988226573033046
 40
0.749170001575216
 40
1.0
 40
1.0
 40
1.0
 40
1.0
 10
10.45391053549732
 20
9.873230261464238
 30
0.0
 10
10.45376265440921
 20
9.87304037481317
 30
0.0
 10
10.4535405552856
 20
9.87275518852382
 30
0.0
 10
10.45418287083591
 20
9.87282866765661
 30
0.0
 10
10.45475811469098
 20
9.873000830249909
 30
0.0
 10
10.45504601361012
 20
9.873086994446345
 30
0.0
  0
SPLINE
  5
179
330
1F
100
AcDbEntity
  8
0
  6
Continuous
 62
     7
370
     0
100
AcDbSpline
210
0.0
220
0.0
230
1.0
 70
     8
 71
     3
 72
     9
 73
     5
 74
     0
 42
0.00000001
 43
0.00000001
 40
0.0
 40
0.0
 40
0.0
 40
0.0
 40
0.5015771373280903
 40
1.0
 40
1.0
 40
1.0
 40
1.0
 10
10.45711982398439
 20
9.875291159260675
 30
0.0
 10
10.45639739322698
 20
9.874871605809622
 30
0.0
 10
10.45495707487184
 20
9.874035137358748
 30
0.0
 10
10.45425864761169
 20
9.873497988657563
 30
0.0
 10
10.45391053549732
 20
9.873230261464238
 30
0.0
  0
LINE
  5
17A
330
1F
100
AcDbEntity
  8
0
  6
Continuous
 62
     7
370
     0
100
AcDbLine
 10
10.4802959375
 20
9.8886704448
 30
0.0
 11
10.457119824
 21
9.8752911593
 31
0.0
  0
ARC
  5
17B
330
1F
100
AcDbEntity
  8
0
  6
Continuous
 62
     7
370
     0
100
AcDbCircle
 10
10.5473057761
 20
9.6946715052
 30
0.0
 40
0.2052459672031496
100
AcDbArc
 50
109.0555997698
 51
112.6027635501
  0
LINE
  5
17C
330
1F
100
AcDbEntity
  8
0
  6
Continuous
 62
     7
370
     0
100
AcDbLine
 10
10.4426971187
 20
9.869302464
 30
0.0
 11
10.4684215716
 21
9.8841528745
 31
0.0
  0
SPLINE
  5
17D
330
1F
100
AcDbEntity
  8
0
  6
Continuous
 62
     7
370
     0
100
AcDbSpline
210
0.0
220
0.0
230
1.0
 70
     8
 71
     3
 72
    13
 73
     9
 74
     0
 42
0.00000001
 43
0.00000001
 40
0.0
 40
0.0
 40
0.0
 40
0.0
 40
0.2493551011004577
 40
0.3758643206396821
 40
0.4994912623305255
 40
0.6184449072798321
 40
0.749784392501963
 40
1.0
 40
1.0
 40
1.0
 40
1.0
 10
10.43739950655226
 20
9.86414050548746
 30
0.0
 10
10.43595621583714
 20
9.863655336539395
 30
0.0
 10
10.43378067789256
 20
9.862924019248291
 30
0.0
 10
10.43294465929187
 20
9.862973508040882
 30
0.0
 10
10.43332786995262
 20
9.863500172911372
 30
0.0
 10
10.43474814062112
 20
9.864527284031606
 30
0.0
 10
10.4376971068838
 20
9.866388674581009
 30
0.0
 10
10.44071684170261
 20
9.868148444666165
 30
0.0
 10
10.44269711872311
 20
9.869302463965907
 30
0.0
  0
ARC
  5
17E
330
1F
100
AcDbEntity
  8
0
  6
Continuous
 62
     7
370
     0
100
AcDbCircle
 10
10.3756762222
 20
10.0375672414
 30
0.0
 40
0.1840831239999437
100
AcDbArc
 50
289.5908521322
 51
295.8040323769
  0
SPLINE
  5
17F
330
1F
100
AcDbEntity
  8
0
  6
Continuous
 62
     7
370
     0
100
AcDbSpline
210
0.0
220
0.0
230
1.0
 70
     8
 71
     3
 72
    12
 73
     8
 74
     0
 42
0.00000001
 43
0.00000001
 40
0.0
 40
0.0
 40
0.0
 40
0.0
 40
0.2503533688407869
 40
0.4999961943216305
 40
0.7494886161542189
 40
0.8747044873187647
 40
1.0
 40
1.0
 40
1.0
 40
1.0
 10
10.45893445247431
 20
9.87043820202435
 30
0.0
 10
10.45794335184733
 20
9.870216470911876
 30
0.0
 10
10.45596396349729
 20
9.869773637995694
 30
0.0
 10
10.45410346109129
 20
9.869652723391193
 30
0.0
 10
10.45416600441716
 20
9.870298014015022
 30
0.0
 10
10.45489573857915
 20
9.871094327395387
 30
0.0
 10
10.45550290618965
 20
9.87159098206606
 30
0.0
 10
10.45580658650898
 20
9.871839388348569
 30
0.0
  0
ARC
  5
180
330
1F
100
AcDbEntity
  8
0
  6
Continuous
 62
     7
370
     0
100
AcDbCircle
 10
10.431725017
 20
9.9798801636
 30
0.0
 40
0.1127736508831914
100
AcDbArc
 50
283.9617898918
 51
294.1370574704
  0
LINE
  5
181
330
1F
100
AcDbEntity
  8
0
  6
Continuous
 62
     7
370
     0
100
AcDbLine
 10
10.4715270521
 20
9.8733216465
 30
0.0
 11
10.4778405055
 21
9.8769663256
 31
0.0
  0
ARC
  5
182
330
1F
100
AcDbEntity
  8
0
  6
Continuous
 62
     7
370
     0
100
AcDbCircle
 10
10.5120410115
 20
9.6470098065
 30
0.0
 40
0.2299096123345873
100
AcDbArc
 50
97.085922776
 51
100.1494819905
  0
LINE
  5
183
330
1F
100
AcDbEntity
  8
0
  6
Continuous
 62
     7
370
     0
100
AcDbLine
 10
10.5248206571
 20
9.8989134868
 30
0.0
 11
10.483679899
 21
9.8751634327
 31
0.0
  0
ARC
  5
184
330
1F
100
AcDbEntity
  8
0
  6
Continuous
 62
     7
370
     0
100
AcDbCircle
 10
10.5531348154
 20
9.6710878864
 30
0.0
 40
0.2295782999040777
100
AcDbArc
 50
97.0843926381
 51
100.3762495684
  0
ARC
  5
185
330
1F
100
AcDbEntity
  8
0
  6
Continuous
 62
     7
370
     0
100
AcDbCircle
 10
10.9141795273
 20
9.296621195
 30
0.0
 40
0.0332129812466034
100
AcDbArc
 50
28.987100016
 51
84.0704780752
  0
LINE
  5
186
330
1F
100
AcDbEntity
  8
0
  6
Continuous
 62
     7
370
     0
100
AcDbLine
 10
10.9564556949
 20
9.3203505732
 30
0.0
 11
10.9432318798
 21
9.3127166272
 31
0.0
  0
SPLINE
  5
187
330
1F
100
AcDbEntity
  8
0
  6
Continuous
 62
     7
370
     0
100
AcDbSpline
210
0.0
220
0.0
230
1.0
 70
    24
 71
     1
 72
     4
 73
     2
 74
     0
 42
0.00000001
 43
0.00000001
 40
0.0
 40
0.0
 40
1.0
 40
1.0
 10
10.93875810966318
 20
9.337145196735161
 30
0.0
 10
10.95645569491523
 20
9.320350573201743
 30
0.0
  0
LINE
  5
188
330
1F
100
AcDbEntity
  8
0
  6
Continuous
 62
     7
370
     0
100
AcDbLine
 10
10.9765814351
 20
9.3589801377
 30
0.0
 11
10.9387581097
 21
9.3371451967
 31
0.0
  0
ARC
  5
189
330
1F
100
AcDbEntity
  8
0
  6
Continuous
 62
     7
370
     0
100
AcDbCircle
 10
10.0519175127
 20
8.9507543547
 30
0.0
 40
1.010767856230175
100
AcDbArc
 50
23.820766712
 51
25.1044970951
  0
LINE
  5
18A
330
1F
100
AcDbEntity
  8
0
  6
Continuous
 62
     7
370
     0
100
AcDbLine
 10
10.9099004911
 20
9.3465129046
 30
0.0
 11
10.96720369
 21
9.3795933372
 31
0.0
  0
ARC
  5
18B
330
1F
100
AcDbEntity
  8
0
  6
Continuous
 62
     7
370
     0
100
AcDbCircle
 10
9.9935460595
 20
8.9171822323
 30
0.0
 40
1.011943807987012
100
AcDbArc
 50
24.0545283266
 51
25.1040449175
  0
LINE
  5
18C
330
1F
100
AcDbEntity
  8
0
  6
Continuous
 62
     7
370
     0
100
AcDbLine
 10
10.904390182
 20
9.3993805709
 30
0.0
 11
10.9205526228
 21
9.4087109493
 31
0.0
  0
ARC
  5
18D
330
1F
100
AcDbEntity
  8
0
  6
Continuous
 62
     7
370
     0
100
AcDbCircle
 10
9.9918296017
 20
8.9178841779
 30
0.0
 40
1.031797261753727
100
AcDbArc
 50
26.6089012345
 51
27.8175744763
  0
LINE
  5
18E
330
1F
100
AcDbEntity
  8
0
  6
Continuous
 62
     7
370
     0
100
AcDbLine
 10
10.9305061505
 20
9.3893544806
 30
0.0
 11
10.9143437098
 21
9.3800241022
 31
0.0
  0
ARC
  5
18F
330
1F
100
AcDbEntity
  8
0
  6
Continuous
 62
     7
370
     0
100
AcDbCircle
 10
10.0079920424
 20
8.9272145563
 30
0.0
 40
1.031797261742704
100
AcDbArc
 50
26.6089012345
 51
27.8175744763
  0
ARC
  5
190
330
1F
100
AcDbEntity
  8
0
  6
Continuous
 62
     7
370
     0
100
AcDbCircle
 10
10.8636968766
 20
9.390509664
 30
0.0
 40
0.0386806714955977
100
AcDbArc
 50
35.8406360793
 51
85.7770995241
  0
LINE
  5
191
330
1F
100
AcDbEntity
  8
0
  6
Continuous
 62
     7
370
     0
100
AcDbLine
 10
10.9082771295
 20
9.4207924104
 30
0.0
 11
10.8950533143
 21
9.4131584644
 31
0.0
  0
SPLINE
  5
192
330
1F
100
AcDbEntity
  8
0
  6
Continuous
 62
     7
370
     0
100
AcDbSpline
210
0.0
220
0.0
230
1.0
 70
    24
 71
     1
 72
     4
 73
     2
 74
     0
 42
0.00000001
 43
0.00000001
 40
0.0
 40
0.0
 40
1.0
 40
1.0
 10
10.88811349800808
 20
9.436737884794606
 30
0.0
 10
10.9082771294742
 20
9.42079241036699
 30
0.0
  0
LINE
  5
193
330
1F
100
AcDbEntity
  8
0
  6
Continuous
 62
     7
370
     0
100
AcDbLine
 10
10.9259368234
 20
9.4585728258
 30
0.0
 11
10.888113498
 21
9.4367378848
 31
0.0
  0
ARC
  5
194
330
1F
100
AcDbEntity
  8
0
  6
Continuous
 62
     7
370
     0
100
AcDbCircle
 10
10.026916932
 20
8.9384134026
 30
0.0
 40
1.038654220901432
100
AcDbArc
 50
30.0530302454
 51
31.3136782504
  0
LINE
  5
195
330
1F
100
AcDbEntity
  8
0
  6
Continuous
 62
     7
370
     0
100
AcDbLine
 10
10.8569721592
 20
9.4451455434
 30
0.0
 11
10.9142753581
 21
9.4782259759
 31
0.0
  0
ARC
  5
196
330
1F
100
AcDbEntity
  8
0
  6
Continuous
 62
     7
370
     0
100
AcDbCircle
 10
9.9697315927
 20
8.9054035933
 30
0.0
 40
1.03851682480618
100
AcDbArc
 50
30.2821929513
 51
31.3137289256
  0
SPLINE
  5
197
330
1F
100
AcDbEntity
  8
0
  6
Continuous
 62
     7
370
     0
100
AcDbSpline
210
0.0
220
0.0
230
1.0
 70
     8
 71
     3
 72
    13
 73
     9
 74
     0
 42
0.00000001
 43
0.00000001
 40
0.0
 40
0.0
 40
0.0
 40
0.0
 40
0.2502499937363667
 40
0.3875326883061183
 40
0.5000553989286947
 40
0.6148522551721822
 40
0.7498927631184973
 40
1.0
 40
1.0
 40
1.0
 40
1.0
 10
10.76432383121648
 20
9.627223673587082
 30
0.0
 10
10.76364770784137
 20
9.626794126929605
 30
0.0
 10
10.76260067521104
 20
9.626128938617551
 30
0.0
 10
10.76162636422113
 20
9.624958323630647
 30
0.0
 10
10.76123941700561
 20
9.623919629844304
 30
0.0
 10
10.76141653578774
 20
9.622750070443942
 30
0.0
 10
10.76217616703448
 20
9.621176129545098
 30
0.0
 10
10.76312750760763
 20
9.620087724427645
 30
0.0
 10
10.76374528913505
 20
9.61938093592845
 30
0.0
  0
SPLINE
  5
198
330
1F
100
AcDbEntity
  8
0
  6
Continuous
 62
     7
370
     0
100
AcDbSpline
210
0.0
220
0.0
230
1.0
 70
    24
 71
     1
 72
     4
 73
     2
 74
     0
 42
0.00000001
 43
0.00000001
 40
0.0
 40
0.0
 40
1.0
 40
1.0
 10
10.78409434771396
 20
9.612505257459194
 30
0.0
 10
10.76432383121648
 20
9.627223673587082
 30
0.0
  0
ARC
  5
199
330
1F
100
AcDbEntity
  8
0
  6
Continuous
 62
     7
370
     0
100
AcDbCircle
 10
10.8083689961
 20
9.6379655558
 30
0.0
 40
0.0351779099433612
100
AcDbArc
 50
226.3656367585
 51
251.9508672601
  0
SPLINE
  5
19A
330
1F
100
AcDbEntity
  8
0
  6
Continuous
 62
     7
370
     0
100
AcDbSpline
210
0.0
220
0.0
230
1.0
 70
     8
 71
     3
 72
     9
 73
     5
 74
     0
 42
0.00000001
 43
0.00000001
 40
0.0
 40
0.0
 40
0.0
 40
0.0
 40
0.5005138828869226
 40
1.0
 40
1.0
 40
1.0
 40
1.0
 10
10.80711849250319
 20
9.6058033050286
 30
0.0
 10
10.80569553931636
 20
9.605129311646857
 30
0.0
 10
10.80285255486479
 20
9.60378270887561
 30
0.0
 10
10.79926278082462
 20
9.604273544074328
 30
0.0
 10
10.79746973852798
 20
9.60451870944188
 30
0.0
  0
SPLINE
  5
19B
330
1F
100
AcDbEntity
  8
0
  6
Continuous
 62
     7
370
     0
100
AcDbSpline
210
0.0
220
0.0
230
1.0
 70
     8
 71
     3
 72
    13
 73
     9
 74
     0
 42
0.00000001
 43
0.00000001
 40
0.0
 40
0.0
 40
0.0
 40
0.0
 40
0.2503342404082429
 40
0.4997600710237166
 40
0.6241777149119929
 40
0.7517673256832837
 40
0.8742692938069944
 40
1.0
 40
1.0
 40
1.0
 40
1.0
 10
10.80456092363276
 20
9.627540778017512
 30
0.0
 10
10.80606822263255
 20
9.625738556644562
 30
0.0
 10
10.80907735096418
 20
9.622140653777272
 30
0.0
 10
10.81139099092169
 20
9.616971594513164
 30
0.0
 10
10.81162758954291
 20
9.612887138651214
 30
0.0
 10
10.81108098762562
 20
9.60999707838652
 30
0.0
 10
10.8095635291627
 20
9.607499651257587
 30
0.0
 10
10.80794054140394
 20
9.606373635762662
 30
0.0
 10
10.80711849250319
 20
9.6058033050286
 30
0.0
  0
SPLINE
  5
19C
330
1F
100
AcDbEntity
  8
0
  6
Continuous
 62
     7
370
     0
100
AcDbSpline
210
0.0
220
0.0
230
1.0
 70
    24
 71
     1
 72
     4
 73
     2
 74
     0
 42
0.00000001
 43
0.00000001
 40
0.0
 40
0.0
 40
1.0
 40
1.0
 10
10.79394218838309
 20
9.636307912818907
 30
0.0
 10
10.80456092363276
 20
9.627540778017512
 30
0.0
  0
SPLINE
  5
19D
330
1F
100
AcDbEntity
  8
0
  6
Continuous
 62
     7
370
     0
100
AcDbSpline
210
0.0
220
0.0
230
1.0
 70
    24
 71
     1
 72
     4
 73
     2
 74
     0
 42
0.00000001
 43
0.00000001
 40
0.0
 40
0.0
 40
1.0
 40
1.0
 10
10.78401034970956
 20
9.639940404524046
 30
0.0
 10
10.79394218838309
 20
9.636307912818907
 30
0.0
  0
SPLINE
  5
19E
330
1F
100
AcDbEntity
  8
0
  6
Continuous
 62
     7
370
     0
100
AcDbSpline
210
0.0
220
0.0
230
1.0
 70
     8
 71
     3
 72
     9
 73
     5
 74
     0
 42
0.00000001
 43
0.00000001
 40
0.0
 40
0.0
 40
0.0
 40
0.0
 40
0.4998712278477486
 40
1.0
 40
1.0
 40
1.0
 40
1.0
 10
10.78764018411478
 20
9.644597850896792
 30
0.0
 10
10.78722214356828
 20
9.643704880622211
 30
0.0
 10
10.78638584709187
 20
9.64191847999574
 30
0.0
 10
10.78480231811329
 20
9.64059987621424
 30
0.0
 10
10.78401034970956
 20
9.639940404524046
 30
0.0
  0
ARC
  5
19F
330
1F
100
AcDbEntity
  8
0
  6
Continuous
 62
     7
370
     0
100
AcDbCircle
 10
10.1526228543
 20
9.0408533978
 30
0.0
 40
0.8762159402153632
100
AcDbArc
 50
43.5538596973
 51
44.8475294732
  0
SPLINE
  5
1A0
330
1F
100
AcDbEntity
  8
0
  6
Continuous
 62
     7
370
     0
100
AcDbSpline
210
0.0
220
0.0
230
1.0
 70
     8
 71
     3
 72
     9
 73
     5
 74
     0
 42
0.00000001
 43
0.00000001
 40
0.0
 40
0.0
 40
0.0
 40
0.0
 40
0.500053835247057
 40
1.0
 40
1.0
 40
1.0
 40
1.0
 10
10.7669848414262
 20
9.651885941310123
 30
0.0
 10
10.76849277805745
 20
9.652780968845766
 30
0.0
 10
10.77150832663433
 20
9.65457083120169
 30
0.0
 10
10.7730679376398
 20
9.657377492147285
 30
0.0
 10
10.77384765918049
 20
9.658780671522797
 30
0.0
  0
LINE
  5
1A1
330
1F
100
AcDbEntity
  8
0
  6
Continuous
 62
     7
370
     0
100
AcDbLine
 10
10.7488939277
 20
9.6414422791
 30
0.0
 11
10.7669848414
 21
9.6518859413
 31
0.0
  0
ARC
  5
1A2
330
1F
100
AcDbEntity
  8
0
  6
Continuous
 62
     7
370
     0
100
AcDbCircle
 10
10.7543701148
 20
9.6302736896
 30
0.0
 40
0.0124388912659509
100
AcDbArc
 50
116.119654951
 51
176.7245526053
  0
ARC
  5
1A3
330
1F
100
AcDbEntity
  8
0
  6
Continuous
 62
     7
370
     0
100
AcDbCircle
 10
10.7772823663
 20
9.6391849428
 30
0.0
 40
0.0362700414969149
100
AcDbArc
 50
193.0673851862
 51
232.0722956077
  0
SPLINE
  5
1A4
330
1F
100
AcDbEntity
  8
0
  6
Continuous
 62
     7
370
     0
100
AcDbSpline
210
0.0
220
0.0
230
1.0
 70
     8
 71
     3
 72
     9
 73
     5
 74
     0
 42
0.00000001
 43
0.00000001
 40
0.0
 40
0.0
 40
0.0
 40
0.0
 40
0.4987757766930725
 40
1.0
 40
1.0
 40
1.0
 40
1.0
 10
10.77076802466638
 20
9.598018065400794
 30
0.0
 10
10.76780082707133
 20
9.599785783953399
 30
0.0
 10
10.76185186616805
 20
9.603329898634195
 30
0.0
 10
10.7572799404049
 20
9.608156431603277
 30
0.0
 10
10.75498838046525
 20
9.61057560684197
 30
0.0
  0
ARC
  5
1A5
330
1F
100
AcDbEntity
  8
0
  6
Continuous
 62
     7
370
     0
100
AcDbCircle
 10
10.7803694299
 20
9.6191090838
 30
0.0
 40
0.0231736496390104
100
AcDbArc
 50
245.5232310226
 51
291.5907211962
  0
SPLINE
  5
1A6
330
1F
100
AcDbEntity
  8
0
  6
Continuous
 62
     7
370
     0
100
AcDbSpline
210
0.0
220
0.0
230
1.0
 70
    24
 71
     1
 72
     4
 73
     2
 74
     0
 42
0.00000001
 43
0.00000001
 40
0.0
 40
0.0
 40
1.0
 40
1.0
 10
10.77577434211737
 20
9.614856546827511
 30
0.0
 10
10.78889672981327
 20
9.597561388007144
 30
0.0
  0
SPLINE
  5
1A7
330
1F
100
AcDbEntity
  8
0
  6
Continuous
 62
     7
370
     0
100
AcDbSpline
210
0.0
220
0.0
230
1.0
 70
     8
 71
     3
 72
     9
 73
     5
 74
     0
 42
0.00000001
 43
0.00000001
 40
0.0
 40
0.0
 40
0.0
 40
0.0
 40
0.4983624828366964
 40
1.0
 40
1.0
 40
1.0
 40
1.0
 10
10.76990945584429
 20
9.614870624686874
 30
0.0
 10
10.77093195428946
 20
9.614675050269353
 30
0.0
 10
10.77298367062121
 20
9.614282616199262
 30
0.0
 10
10.77484208949012
 20
9.614664819375253
 30
0.0
 10
10.77577434211737
 20
9.614856546827511
 30
0.0
  0
SPLINE
  5
1A8
330
1F
100
AcDbEntity
  8
0
  6
Continuous
 62
     7
370
     0
100
AcDbSpline
210
0.0
220
0.0
230
1.0
 70
     8
 71
     3
 72
     9
 73
     5
 74
     0
 42
0.00000001
 43
0.00000001
 40
0.0
 40
0.0
 40
0.0
 40
0.0
 40
0.5014167496225631
 40
1.0
 40
1.0
 40
1.0
 40
1.0
 10
10.76374528913505
 20
9.61938093592845
 30
0.0
 10
10.76462186374467
 20
9.618465285038535
 30
0.0
 10
10.76637005945268
 20
9.61663915758945
 30
0.0
 10
10.76873188779336
 20
9.615459021015702
 30
0.0
 10
10.76990945584429
 20
9.614870624686874
 30
0.0
  0
ARC
  5
1A9
330
1F
100
AcDbEntity
  8
0
  6
Continuous
 62
     7
370
     0
100
AcDbCircle
 10
10.6902048327
 20
9.7101022883
 30
0.0
 40
0.0157968390238209
100
AcDbArc
 50
233.5952715693
 51
305.2308536602
  0
SPLINE
  5
1AA
330
1F
100
AcDbEntity
  8
0
  6
Continuous
 62
     7
370
     0
100
AcDbSpline
210
0.0
220
0.0
230
1.0
 70
     8
 71
     3
 72
    12
 73
     8
 74
     0
 42
0.00000001
 43
0.00000001
 40
0.0
 40
0.0
 40
0.0
 40
0.0
 40
0.2500161658405627
 40
0.379486110734005
 40
0.5003609948063579
 40
0.7497424986443854
 40
1.0
 40
1.0
 40
1.0
 40
1.0
 10
10.67932722394688
 20
9.705703677620038
 30
0.0
 10
10.67881487999245
 20
9.705090971563564
 30
0.0
 10
10.67803722062002
 20
9.704160977946499
 30
0.0
 10
10.67765425785961
 20
9.702714536748845
 30
0.0
 10
10.67771315803562
 20
9.701209856584022
 30
0.0
 10
10.67865966625155
 20
9.699307500925826
 30
0.0
 10
10.68010547096953
 20
9.698028770431193
 30
0.0
 10
10.68082964076493
 20
9.697388284209808
 30
0.0
  0
SPLINE
  5
1AB
330
1F
100
AcDbEntity
  8
0
  6
Continuous
 62
     7
370
     0
100
AcDbSpline
210
0.0
220
0.0
230
1.0
 70
    24
 71
     1
 72
     4
 73
     2
 74
     0
 42
0.00000001
 43
0.00000001
 40
0.0
 40
0.0
 40
1.0
 40
1.0
 10
10.66118754826861
 20
9.716739311687263
 30
0.0
 10
10.67932722394688
 20
9.705703677620038
 30
0.0
  0
SPLINE
  5
1AC
330
1F
100
AcDbEntity
  8
0
  6
Continuous
 62
     7
370
     0
100
AcDbSpline
210
0.0
220
0.0
230
1.0
 70
     8
 71
     3
 72
    12
 73
     8
 74
     0
 42
0.00000001
 43
0.00000001
 40
0.0
 40
0.0
 40
0.0
 40
0.0
 40
0.250461560820072
 40
0.5001568997102237
 40
0.6235742345098045
 40
0.7505262250100677
 40
1.0
 40
1.0
 40
1.0
 40
1.0
 10
10.66977606015524
 20
9.691054127624625
 30
0.0
 10
10.66748755838801
 20
9.693024671339824
 30
0.0
 10
10.66291755592884
 20
9.696959730404817
 30
0.0
 10
10.65877037096641
 20
9.702516461355037
 30
0.0
 10
10.65759462610219
 20
9.707157081954499
 30
0.0
 10
10.65779324644019
 20
9.711745474966198
 30
0.0
 10
10.6598346326075
 20
9.71474884641622
 30
0.0
 10
10.66118754826861
 20
9.716739311687263
 30
0.0
  0
SPLINE
  5
1AD
330
1F
100
AcDbEntity
  8
0
  6
Continuous
 62
     7
370
     0
100
AcDbSpline
210
0.0
220
0.0
230
1.0
 70
    24
 71
     1
 72
     4
 73
     2
 74
     0
 42
0.00000001
 43
0.00000001
 40
0.0
 40
0.0
 40
1.0
 40
1.0
 10
10.68326223726823
 20
9.682498309489521
 30
0.0
 10
10.66977606015524
 20
9.691054127624625
 30
0.0
  0
SPLINE
  5
1AE
330
1F
100
AcDbEntity
  8
0
  6
Continuous
 62
     7
370
     0
100
AcDbSpline
210
0.0
220
0.0
230
1.0
 70
     8
 71
     3
 72
     9
 73
     5
 74
     0
 42
0.00000001
 43
0.00000001
 40
0.0
 40
0.0
 40
0.0
 40
0.0
 40
0.4986120697345039
 40
1.0
 40
1.0
 40
1.0
 40
1.0
 10
10.70215011404361
 20
9.67934694968611
 30
0.0
 10
10.69896418162792
 20
9.679316544804374
 30
0.0
 10
10.692574580154
 20
9.679255565771612
 30
0.0
 10
10.68637209064543
 20
9.68141539645397
 30
0.0
 10
10.68326223726823
 20
9.682498309489521
 30
0.0
  0
SPLINE
  5
1AF
330
1F
100
AcDbEntity
  8
0
  6
Continuous
 62
     7
370
     0
100
AcDbSpline
210
0.0
220
0.0
230
1.0
 70
     8
 71
     3
 72
     9
 73
     5
 74
     0
 42
0.00000001
 43
0.00000001
 40
0.0
 40
0.0
 40
0.0
 40
0.0
 40
0.5005615848306324
 40
1.0
 40
1.0
 40
1.0
 40
1.0
 10
10.71472859709231
 20
9.683533569243641
 30
0.0
 10
10.71286832912949
 20
9.682530188912
 30
0.0
 10
10.70915196730868
 20
9.680525679652705
 30
0.0
 10
10.70448231686206
 20
9.679739565361736
 30
0.0
 10
10.70215011404361
 20
9.67934694968611
 30
0.0
  0
SPLINE
  5
1B0
330
1F
100
AcDbEntity
  8
0
  6
Continuous
 62
     7
370
     0
100
AcDbSpline
210
0.0
220
0.0
230
1.0
 70
     8
 71
     3
 72
    14
 73
    10
 74
     0
 42
0.00000001
 43
0.00000001
 40
0.0
 40
0.0
 40
0.0
 40
0.0
 40
0.2500577725992347
 40
0.3796673456259976
 40
0.4999755349866856
 40
0.6255852466887353
 40
0.7499501153976632
 40
0.8610382006684514
 40
1.0
 40
1.0
 40
1.0
 40
1.0
 10
10.71132882817923
 20
9.71651153161008
 30
0.0
 10
10.71431499001179
 20
9.713940223570043
 30
0.0
 10
10.71884893480701
 20
9.71003615896849
 30
0.0
 10
10.72288697248778
 20
9.703996073770057
 30
0.0
 10
10.72441232938005
 20
9.69919781948926
 30
0.0
 10
10.72430301893755
 20
9.69450902395315
 30
0.0
 10
10.72277258538514
 20
9.690216167971993
 30
0.0
 10
10.71945177377933
 20
9.68648557457113
 30
0.0
 10
10.71641579868058
 20
9.68458807734426
 30
0.0
 10
10.71472859709231
 20
9.683533569243641
 30
0.0
  0
ARC
  5
1B1
330
1F
100
AcDbEntity
  8
0
  6
Continuous
 62
     7
370
     0
100
AcDbCircle
 10
10.6849227732
 20
9.6867509193
 30
0.0
 40
0.0397866030640078
100
AcDbArc
 50
48.4179334461
 51
106.4070394287
  0
SPLINE
  5
1B2
330
1F
100
AcDbEntity
  8
0
  6
Continuous
 62
     7
370
     0
100
AcDbSpline
210
0.0
220
0.0
230
1.0
 70
    24
 71
     1
 72
     4
 73
     2
 74
     0
 42
0.00000001
 43
0.00000001
 40
0.0
 40
0.0
 40
1.0
 40
1.0
 10
10.68815570751651
 20
9.711790401017094
 30
0.0
 10
10.67368467646706
 20
9.724917383200482
 30
0.0
  0
ARC
  5
1B3
330
1F
100
AcDbEntity
  8
0
  6
Continuous
 62
     7
370
     0
100
AcDbCircle
 10
10.6923432529
 20
9.6977771145
 30
0.0
 40
0.0146255849959799
100
AcDbArc
 50
51.0628767157
 51
106.6375545435
  0
SPLINE
  5
1B4
330
1F
100
AcDbEntity
  8
0
  6
Continuous
 62
     7
370
     0
100
AcDbSpline
210
0.0
220
0.0
230
1.0
 70
     8
 71
     3
 72
    13
 73
     9
 74
     0
 42
0.00000001
 43
0.00000001
 40
0.0
 40
0.0
 40
0.0
 40
0.0
 40
0.2503406525414226
 40
0.4995871881506012
 40
0.6259062530593981
 40
0.7464326647523503
 40
0.8687151858297413
 40
1.0
 40
1.0
 40
1.0
 40
1.0
 10
10.69931759094952
 20
9.69719888721019
 30
0.0
 10
10.70044607883768
 20
9.69792155626389
 30
0.0
 10
10.70269812254367
 20
9.69936373593721
 30
0.0
 10
10.70440465042813
 20
9.701914738004481
 30
0.0
 10
10.70463484395414
 20
9.704197551172467
 30
0.0
 10
10.70421137058473
 20
9.705935164241847
 30
0.0
 10
10.70318482144692
 20
9.707634897486829
 30
0.0
 10
10.70209777342371
 20
9.708635407373258
 30
0.0
 10
10.70153495291065
 20
9.709153422654632
 30
0.0
  0
ARC
  5
1B5
330
1F
100
AcDbEntity
  8
0
  6
Continuous
 62
     7
370
     0
100
AcDbCircle
 10
10.5883088579
 20
9.8016136922
 30
0.0
 40
0.0468050152439656
100
AcDbArc
 50
240.6988738248
 51
297.7088932816
  0
SPLINE
  5
1B6
330
1F
100
AcDbEntity
  8
0
  6
Continuous
 62
     7
370
     0
100
AcDbSpline
210
0.0
220
0.0
230
1.0
 70
     8
 71
     3
 72
    13
 73
     9
 74
     0
 42
0.00000001
 43
0.00000001
 40
0.0
 40
0.0
 40
0.0
 40
0.0
 40
0.2502561190887692
 40
0.3753695374491158
 40
0.5004454107251913
 40
0.6243777276210386
 40
0.7509522925178138
 40
1.0
 40
1.0
 40
1.0
 40
1.0
 10
10.6074621585165
 20
9.785683825992413
 30
0.0
 10
10.6103841935976
 20
9.784010506461978
 30
0.0
 10
10.61476707526618
 20
9.781500625063552
 30
0.0
 10
10.61854720481207
 20
9.777149207848938
 30
0.0
 10
10.61970602060972
 20
9.773522264137661
 30
0.0
 10
10.61924511602906
 20
9.76982205955492
 30
0.0
 10
10.61703026331623
 20
9.764980733168663
 30
0.0
 10
10.61284630577954
 20
9.76209170874382
 30
0.0
 10
10.61007222897596
 20
9.760176207553462
 30
0.0
  0
ARC
  5
1B7
330
1F
100
AcDbEntity
  8
0
  6
Continuous
 62
     7
370
     0
100
AcDbCircle
 10
10.5842160491
 20
9.7437576292
 30
0.0
 40
0.0479394157316528
100
AcDbArc
 50
60.9936872068
 51
104.0259285829
  0
SPLINE
  5
1B8
330
1F
100
AcDbEntity
  8
0
  6
Continuous
 62
     7
370
     0
100
AcDbSpline
210
0.0
220
0.0
230
1.0
 70
    24
 71
     1
 72
     4
 73
     2
 74
     0
 42
0.00000001
 43
0.00000001
 40
0.0
 40
0.0
 40
1.0
 40
1.0
 10
10.58723523914846
 20
9.781649918157726
 30
0.0
 10
10.57259740586889
 20
9.79026778630039
 30
0.0
  0
SPLINE
  5
1B9
330
1F
100
AcDbEntity
  8
0
  6
Continuous
 62
     7
370
     0
100
AcDbSpline
210
0.0
220
0.0
230
1.0
 70
    24
 71
     1
 72
     4
 73
     2
 74
     0
 42
0.00000001
 43
0.00000001
 40
0.0
 40
0.0
 40
1.0
 40
1.0
 10
10.59243046051657
 20
9.781763641928531
 30
0.0
 10
10.58723523914846
 20
9.781649918157726
 30
0.0
  0
ARC
  5
1BA
330
1F
100
AcDbEntity
  8
0
  6
Continuous
 62
     7
370
     0
100
AcDbCircle
 10
10.5907236179
 20
9.765642932
 30
0.0
 40
0.0162108174157935
100
AcDbArc
 50
63.9945466777
 51
83.9561050336
  0
SPLINE
  5
1BB
330
1F
100
AcDbEntity
  8
0
  6
Continuous
 62
     7
370
     0
100
AcDbSpline
210
0.0
220
0.0
230
1.0
 70
     8
 71
     3
 72
    10
 73
     6
 74
     0
 42
0.00000001
 43
0.00000001
 40
0.0
 40
0.0
 40
0.0
 40
0.0
 40
0.2550650714608499
 40
0.5011546383380248
 40
1.0
 40
1.0
 40
1.0
 40
1.0
 10
10.60100642343071
 20
9.77564965168991
 30
0.0
 10
10.6010208193278
 20
9.776087638704873
 30
0.0
 10
10.60104910454366
 20
9.776948200375756
 30
0.0
 10
10.60030424599457
 20
9.778623723158109
 30
0.0
 10
10.59882316472522
 20
9.779575251293396
 30
0.0
 10
10.59783135927598
 20
9.78021244170909
 30
0.0
  0
SPLINE
  5
1BC
330
1F
100
AcDbEntity
  8
0
  6
Continuous
 62
     7
370
     0
100
AcDbSpline
210
0.0
220
0.0
230
1.0
 70
     8
 71
     3
 72
     9
 73
     5
 74
     0
 42
0.00000001
 43
0.00000001
 40
0.0
 40
0.0
 40
0.0
 40
0.0
 40
0.5011160372996436
 40
1.0
 40
1.0
 40
1.0
 40
1.0
 10
10.59750439077258
 20
9.771406539905895
 30
0.0
 10
10.59836517166204
 20
9.772048538991028
 30
0.0
 10
10.60008289934463
 20
9.773329677564428
 30
0.0
 10
10.60069904049301
 20
9.774877478583864
 30
0.0
 10
10.60100642343071
 20
9.77564965168991
 30
0.0
  0
ARC
  5
1BD
330
1F
100
AcDbEntity
  8
0
  6
Continuous
 62
     7
370
     0
100
AcDbCircle
 10
10.3528219862
 20
9.3228039392
 30
0.0
 40
0.5109929280644374
100
AcDbArc
 50
61.3905171131
 51
65.3443972773
  0
LINE
  5
1BE
330
1F
100
AcDbEntity
  8
0
  6
Continuous
 62
     7
370
     0
100
AcDbLine
 10
10.5642330231
 20
9.7861966277
 30
0.0
 11
10.565989311
 21
9.7872105112
 31
0.0
  0
SPLINE
  5
1BF
330
1F
100
AcDbEntity
  8
0
  6
Continuous
 62
     7
370
     0
100
AcDbSpline
210
0.0
220
0.0
230
1.0
 70
     8
 71
     3
 72
    13
 73
     9
 74
     0
 42
0.00000001
 43
0.00000001
 40
0.0
 40
0.0
 40
0.0
 40
0.0
 40
0.2501213163499024
 40
0.3752087323567224
 40
0.5002154264236816
 40
0.6251773972836288
 40
0.7501819867111096
 40
1.0
 40
1.0
 40
1.0
 40
1.0
 10
10.56540250248259
 20
9.760796926794047
 30
0.0
 10
10.56227890878642
 20
9.762546642043212
 30
0.0
 10
10.55759318408193
 20
9.765171402100474
 30
0.0
 10
10.55370645342924
 20
9.769461955304825
 30
0.0
 10
10.55250123896627
 20
9.773001219569077
 30
0.0
 10
10.55318810582931
 20
9.776638137494022
 30
0.0
 10
10.55649818936959
 20
9.78131457064458
 30
0.0
 10
10.56113956302848
 20
9.784244103716523
 30
0.0
 10
10.56423302307596
 20
9.786196627728128
 30
0.0
  0
LINE
  5
1C0
330
1F
100
AcDbEntity
  8
0
  6
Continuous
 62
     7
370
     0
100
AcDbLine
 10
10.5114839051
 20
9.7894910166
 30
0.0
 11
10.4921532587
 21
9.778331672
 31
0.0
  0
SPLINE
  5
1C1
330
1F
100
AcDbEntity
  8
0
  6
Continuous
 62
     7
370
     0
100
AcDbSpline
210
0.0
220
0.0
230
1.0
 70
     8
 71
     3
 72
    11
 73
     7
 74
     0
 42
0.00000001
 43
0.00000001
 40
0.0
 40
0.0
 40
0.0
 40
0.0
 40
0.4989693492838143
 40
0.7492892892638032
 40
0.8746232027899138
 40
1.0
 40
1.0
 40
1.0
 40
1.0
 10
10.51869123929496
 20
9.782324013277876
 30
0.0
 10
10.51667479164661
 20
9.783279381441982
 30
0.0
 10
10.51364674467852
 20
9.784714032956543
 30
0.0
 10
10.51202466990604
 20
9.787016468241205
 30
0.0
 10
10.51152723599711
 20
9.788404052314222
 30
0.0
 10
10.51149835038224
 20
9.789128653868344
 30
0.0
 10
10.51148390510439
 20
9.789491016616399
 30
0.0
  0
ARC
  5
1C2
330
1F
100
AcDbEntity
  8
0
  6
Continuous
 62
     7
370
     0
100
AcDbCircle
 10
10.5327290724
 20
9.824240347
 30
0.0
 40
0.044204522272022
100
AcDbArc
 50
251.4842370564
 51
302.9607485668
  0
SPLINE
  5
1C3
330
1F
100
AcDbEntity
  8
0
  6
Continuous
 62
     7
370
     0
100
AcDbSpline
210
0.0
220
0.0
230
1.0
 70
     8
 71
     3
 72
    13
 73
     9
 74
     0
 42
0.00000001
 43
0.00000001
 40
0.0
 40
0.0
 40
0.0
 40
0.0
 40
0.1251834461242813
 40
0.250229917803144
 40
0.3715684377548961
 40
0.5002574982631983
 40
0.7499110761102581
 40
1.0
 40
1.0
 40
1.0
 40
1.0
 10
10.56140337119564
 20
9.806881868056369
 30
0.0
 10
10.56262697038804
 20
9.806331645137691
 30
0.0
 10
10.56507282992312
 20
9.80523180134862
 30
0.0
 10
10.56744291808404
 20
9.802976022093546
 30
0.0
 10
10.56838962199737
 20
9.800320758856522
 30
0.0
 10
10.56755295162654
 20
9.796573084024455
 30
0.0
 10
10.5641296161031
 20
9.791863661653906
 30
0.0
 10
10.55923074630615
 20
9.788722686328919
 30
0.0
 10
10.55677917760519
 20
9.78715083055067
 30
0.0
  0
SPLINE
  5
1C4
330
1F
100
AcDbEntity
  8
0
  6
Continuous
 62
     7
370
     0
100
AcDbSpline
210
0.0
220
0.0
230
1.0
 70
    24
 71
     1
 72
     4
 73
     2
 74
     0
 42
0.00000001
 43
0.00000001
 40
0.0
 40
0.0
 40
1.0
 40
1.0
 10
10.55221961333068
 20
9.808797792275978
 30
0.0
 10
10.56140337119564
 20
9.806881868056369
 30
0.0
  0
SPLINE
  5
1C5
330
1F
100
AcDbEntity
  8
0
  6
Continuous
 62
     7
370
     0
100
AcDbSpline
210
0.0
220
0.0
230
1.0
 70
    24
 71
     1
 72
     4
 73
     2
 74
     0
 42
0.00000001
 43
0.00000001
 40
0.0
 40
0.0
 40
1.0
 40
1.0
 10
10.54172742806975
 20
9.807987186265814
 30
0.0
 10
10.55221961333068
 20
9.808797792275978
 30
0.0
  0
LINE
  5
1C6
330
1F
100
AcDbEntity
  8
0
  6
Continuous
 62
     7
370
     0
100
AcDbLine
 10
10.5476161582
 20
9.8113866778
 30
0.0
 11
10.5417274281
 21
9.8079871863
 31
0.0
  0
ARC
  5
1C7
330
1F
100
AcDbEntity
  8
0
  6
Continuous
 62
     7
370
     0
100
AcDbCircle
 10
10.4103107466
 20
9.4291328717
 30
0.0
 40
0.4061659124048762
100
AcDbArc
 50
70.2417323835
 51
72.3279795789
  0
LINE
  5
1C8
330
1F
100
AcDbEntity
  8
0
  6
Continuous
 62
     7
370
     0
100
AcDbLine
 10
10.477041099
 20
9.7834754243
 30
0.0
 11
10.5336096415
 21
9.8161317488
 31
0.0
  0
ARC
  5
1C9
330
1F
100
AcDbEntity
  8
0
  6
Continuous
 62
     7
370
     0
100
AcDbCircle
 10
10.3534502616
 20
9.3955986165
 30
0.0
 40
0.4070910378858388
100
AcDbArc
 50
70.0794124571
 51
72.3263393088
  0
SPLINE
  5
1CA
330
1F
100
AcDbEntity
  8
0
  6
Continuous
 62
     7
370
     0
100
AcDbSpline
210
0.0
220
0.0
230
1.0
 70
     8
 71
     3
 72
    13
 73
     9
 74
     0
 42
0.00000001
 43
0.00000001
 40
0.0
 40
0.0
 40
0.0
 40
0.0
 40
0.2502499937363321
 40
0.3875326883124793
 40
0.5000553989274558
 40
0.6148522551783705
 40
0.7498927631185388
 40
1.0
 40
1.0
 40
1.0
 40
1.0
 10
10.39433726049182
 20
9.816846189243744
 30
0.0
 10
10.39365985506078
 20
9.81644353910407
 30
0.0
 10
10.39261083706142
 20
9.81582000226098
 30
0.0
 10
10.39161703610222
 20
9.815065981053737
 30
0.0
 10
10.39120442273217
 20
9.814585333227793
 30
0.0
 10
10.39134275671556
 20
9.814285046015042
 30
0.0
 10
10.39204341829175
 20
9.814084264843205
 30
0.0
 10
10.39295163650528
 20
9.814108486517899
 30
0.0
 10
10.39354141523545
 20
9.814124215588656
 30
0.0
  0
SPLINE
  5
1CB
330
1F
100
AcDbEntity
  8
0
  6
Continuous
 62
     7
370
     0
100
AcDbSpline
210
0.0
220
0.0
230
1.0
 70
    24
 71
     1
 72
     4
 73
     2
 74
     0
 42
0.00000001
 43
0.00000001
 40
0.0
 40
0.0
 40
1.0
 40
1.0
 10
10.41357114868238
 20
9.819734217738112
 30
0.0
 10
10.39433726049182
 20
9.816846189243744
 30
0.0
  0
ARC
  5
1CC
330
1F
100
AcDbEntity
  8
0
  6
Continuous
 62
     7
370
     0
100
AcDbCircle
 10
10.4074374413
 20
9.8947754832
 30
0.0
 40
0.0752915259635301
100
AcDbArc
 50
274.6728424922
 51
284.9924379516
  0
SPLINE
  5
1CD
330
1F
100
AcDbEntity
  8
0
  6
Continuous
 62
     7
370
     0
100
AcDbSpline
210
0.0
220
0.0
230
1.0
 70
     8
 71
     3
 72
     9
 73
     5
 74
     0
 42
0.00000001
 43
0.00000001
 40
0.0
 40
0.0
 40
0.0
 40
0.0
 40
0.5005138828869288
 40
1.0
 40
1.0
 40
1.0
 40
1.0
 10
10.43659174669025
 20
9.82610523197969
 30
0.0
 10
10.43516711365819
 20
9.82533648773585
 30
0.0
 10
10.43232077296561
 20
9.823800577803828
 30
0.0
 10
10.4287155048027
 20
9.822631046887425
 30
0.0
 10
10.42691472340686
 20
9.822046882431147
 30
0.0
  0
SPLINE
  5
1CE
330
1F
100
AcDbEntity
  8
0
  6
Continuous
 62
     7
370
     0
100
AcDbSpline
210
0.0
220
0.0
230
1.0
 70
     8
 71
     3
 72
    13
 73
     9
 74
     0
 42
0.00000001
 43
0.00000001
 40
0.0
 40
0.0
 40
0.0
 40
0.0
 40
0.2503342404082784
 40
0.4997600710237922
 40
0.6241777149142069
 40
0.7517673256870875
 40
0.8742692938032394
 40
1.0
 40
1.0
 40
1.0
 40
1.0
 10
10.43407086329284
 20
9.83263220322869
 30
0.0
 10
10.43555225469022
 20
9.83260219531794
 30
0.0
 10
10.43850966183022
 20
9.832542288388778
 30
0.0
 10
10.44081975834276
 20
9.83162872829797
 30
0.0
 10
10.44107041249271
 20
9.830289775396606
 30
0.0
 10
10.44053909328209
 20
9.829067704651347
 30
0.0
 10
10.43903432004668
 20
9.827617778688648
 30
0.0
 10
10.43741296740074
 20
9.826613767242192
 30
0.0
 10
10.43659174669025
 20
9.82610523197969
 30
0.0
  0
SPLINE
  5
1CF
330
1F
100
AcDbEntity
  8
0
  6
Continuous
 62
     7
370
     0
100
AcDbSpline
210
0.0
220
0.0
230
1.0
 70
    24
 71
     1
 72
     4
 73
     2
 74
     0
 42
0.00000001
 43
0.00000001
 40
0.0
 40
0.0
 40
1.0
 40
1.0
 10
10.42372553822212
 20
9.831394002307754
 30
0.0
 10
10.43407086329284
 20
9.83263220322869
 30
0.0
  0
SPLINE
  5
1D0
330
1F
100
AcDbEntity
  8
0
  6
Continuous
 62
     7
370
     0
100
AcDbSpline
210
0.0
220
0.0
230
1.0
 70
    24
 71
     1
 72
     4
 73
     2
 74
     0
 42
0.00000001
 43
0.00000001
 40
0.0
 40
0.0
 40
1.0
 40
1.0
 10
10.41406840231499
 20
9.8286355564361
 30
0.0
 10
10.42372553822212
 20
9.831394002307754
 30
0.0
  0
SPLINE
  5
1D1
330
1F
100
AcDbEntity
  8
0
  6
Continuous
 62
     7
370
     0
100
AcDbSpline
210
0.0
220
0.0
230
1.0
 70
     8
 71
     3
 72
     9
 73
     5
 74
     0
 42
0.00000001
 43
0.00000001
 40
0.0
 40
0.0
 40
0.0
 40
0.0
 40
0.4998712278477443
 40
0.9999999999999999
 40
0.9999999999999999
 40
0.9999999999999999
 40
0.9999999999999999
 10
10.41778743553572
 20
9.831531082817063
 30
0.0
 10
10.41734637422043
 20
9.831086581798923
 30
0.0
 10
10.41646402434566
 20
9.830197350746252
 30
0.0
 10
10.41486708008651
 20
9.829156243916527
 30
0.0
 10
10.41406840231499
 20
9.8286355564361
 30
0.0
  0
ARC
  5
1D2
330
1F
100
AcDbEntity
  8
0
  6
Continuous
 62
     7
370
     0
100
AcDbCircle
 10
10.4355845027
 20
9.5931648871
 30
0.0
 40
0.2390296610174492
100
AcDbArc
 50
94.2699359036
 51
97.3456684598
  0
SPLINE
  5
1D3
330
1F
100
AcDbEntity
  8
0
  6
Continuous
 62
     7
370
     0
100
AcDbSpline
210
0.0
220
0.0
230
1.0
 70
     8
 71
     3
 72
     9
 73
     5
 74
     0
 42
0.00000001
 43
0.00000001
 40
0.0
 40
0.0
 40
0.0
 40
0.0
 40
0.5000538352470562
 40
1.0
 40
1.0
 40
1.0
 40
1.0
 10
10.39799739487143
 20
9.825414693691538
 30
0.0
 10
10.39950638289661
 20
9.826292668961296
 30
0.0
 10
10.40252403403499
 20
9.828048430457102
 30
0.0
 10
10.40419028728246
 20
9.829504726134731
 30
0.0
 10
10.40502332420303
 20
9.830232795573506
 30
0.0
  0
LINE
  5
1D4
330
1F
100
AcDbEntity
  8
0
  6
Continuous
 62
     7
370
     0
100
AcDbLine
 10
10.3799064811
 20
9.8149710315
 30
0.0
 11
10.3979973949
 21
9.8254146937
 31
0.0
  0
ARC
  5
1D5
330
1F
100
AcDbEntity
  8
0
  6
Continuous
 62
     7
370
     0
100
AcDbCircle
 10
10.3850004242
 20
9.8012866978
 30
0.0
 40
0.0146016863419714
100
AcDbArc
 50
110.417598189
 51
147.8740049756
  0
ARC
  5
1D6
330
1F
100
AcDbEntity
  8
0
  6
Continuous
 62
     7
370
     0
100
AcDbCircle
 10
10.3798178358
 20
9.8200999577
 30
0.0
 40
0.0131782187075269
100
AcDbArc
 50
236.9692721643
 51
291.72230272
  0
SPLINE
  5
1D7
330
1F
100
AcDbEntity
  8
0
  6
Continuous
 62
     7
370
     0
100
AcDbSpline
210
0.0
220
0.0
230
1.0
 70
     8
 71
     3
 72
     9
 73
     5
 74
     0
 42
0.00000001
 43
0.00000001
 40
0.0
 40
0.0
 40
0.0
 40
0.0
 40
0.4987757766930732
 40
1.0
 40
1.0
 40
1.0
 40
1.0
 10
10.40020476549076
 20
9.809727376007487
 30
0.0
 10
10.39725503977938
 20
9.809202764614392
 30
0.0
 10
10.39134110841139
 20
9.808150966556804
 30
0.0
 10
10.38691411939282
 20
9.807955510431341
 30
0.0
 10
10.3846952052604
 20
9.807857543086666
 30
0.0
  0
ARC
  5
1D8
330
1F
100
AcDbEntity
  8
0
  6
Continuous
 62
     7
370
     0
100
AcDbCircle
 10
10.3824705307
 20
9.8860682995
 30
0.0
 40
0.0783737180910396
100
AcDbArc
 50
283.0780305049
 51
297.2476942916
  0
SPLINE
  5
1D9
330
1F
100
AcDbEntity
  8
0
  6
Continuous
 62
     7
370
     0
100
AcDbSpline
210
0.0
220
0.0
230
1.0
 70
    24
 71
     1
 72
     4
 73
     2
 74
     0
 42
0.00000001
 43
0.00000001
 40
0.0
 40
0.0
 40
1.0
 40
1.0
 10
10.40533720789277
 20
9.817324697243066
 30
0.0
 10
10.41835300789464
 20
9.816391276650524
 30
0.0
  0
SPLINE
  5
1DA
330
1F
100
AcDbEntity
  8
0
  6
Continuous
 62
     7
370
     0
100
AcDbSpline
210
0.0
220
0.0
230
1.0
 70
     8
 71
     3
 72
     9
 73
     5
 74
     0
 42
0.00000001
 43
0.00000001
 40
0.0
 40
0.0
 40
0.0
 40
0.0
 40
0.4983624828366954
 40
1.0
 40
1.0
 40
1.0
 40
1.0
 10
10.39952915455078
 20
9.815060818753837
 30
0.0
 10
10.40053791559605
 20
9.815392371266734
 30
0.0
 10
10.40256206685143
 20
9.816057655119986
 30
0.0
 10
10.4044101433743
 20
9.816901428739516
 30
0.0
 10
10.40533720789277
 20
9.817324697243066
 30
0.0
  0
SPLINE
  5
1DB
330
1F
100
AcDbEntity
  8
0
  6
Continuous
 62
     7
370
     0
100
AcDbSpline
210
0.0
220
0.0
230
1.0
 70
     8
 71
     3
 72
     9
 73
     5
 74
     0
 42
0.00000001
 43
0.00000001
 40
0.0
 40
0.0
 40
0.0
 40
0.0
 40
0.5014167496225558
 40
1.0
 40
1.0
 40
1.0
 40
1.0
 10
10.39354141523545
 20
9.814124215588656
 30
0.0
 10
10.39438323323797
 20
9.814171873607505
 30
0.0
 10
10.39606211214091
 20
9.814266920330383
 30
0.0
 10
10.39837565889182
 20
9.814796686309853
 30
0.0
 10
10.39952915455078
 20
9.815060818753837
 30
0.0
  0
LINE
  5
1DC
330
1F
100
AcDbEntity
  8
0
  6
Continuous
 62
     7
370
     0
100
AcDbLine
 10
10.3291663422
 20
9.7942419787
 30
0.0
 11
10.3394515318
 21
9.8001794923
 31
0.0
  0
ARC
  5
1DD
330
1F
100
AcDbEntity
  8
0
  6
Continuous
 62
     7
370
     0
100
AcDbCircle
 10
10.3769345189
 20
9.5751257162
 30
0.0
 40
0.22426264783741
100
AcDbArc
 50
98.9546034828
 51
102.2982789415
  0
LINE
  5
1DE
330
1F
100
AcDbEntity
  8
0
  6
Continuous
 62
     7
370
     0
100
AcDbLine
 10
10.352312812
 20
9.8025925591
 30
0.0
 11
10.3420276224
 21
9.7966550456
 31
0.0
  0
ARC
  5
1DF
330
1F
100
AcDbEntity
  8
0
  6
Continuous
 62
     7
370
     0
100
AcDbCircle
 10
10.3872197084
 20
9.5810632297
 30
0.0
 40
0.2242626478372689
100
AcDbArc
 50
98.9546034828
 51
102.2982789415
  0
LINE
  5
1E0
330
1F
100
AcDbEntity
  8
0
  6
Continuous
 62
     7
370
     0
100
AcDbLine
 10
10.7473386827
 20
9.4362547694
 30
0.0
 11
10.770113031
 21
9.4494021208
 31
0.0
  0
ARC
  5
1E1
330
1F
100
AcDbEntity
  8
0
  6
Continuous
 62
     7
370
     0
100
AcDbCircle
 10
9.9030522075
 20
8.8682752799
 30
0.0
 40
1.017556068600263
100
AcDbArc
 50
33.9300287597
 51
35.67275144
  0
LINE
  5
1E2
330
1F
100
AcDbEntity
  8
0
  6
Continuous
 62
     7
370
     0
100
AcDbLine
 10
10.7179205237
 20
9.4548823953
 30
0.0
 11
10.729675026
 21
9.461668125
 31
0.0
  0
ARC
  5
1E3
330
1F
100
AcDbEntity
  8
0
  6
Continuous
 62
     7
370
     0
100
AcDbCircle
 10
9.8912977052
 20
8.8614895501
 30
0.0
 40
1.017556068589203
100
AcDbArc
 50
33.9300287597
 51
35.67275144
  0
LINE
  5
1E4
330
1F
100
AcDbEntity
  8
0
  6
Continuous
 62
     7
370
     0
100
AcDbLine
 10
10.7267683036
 20
9.4243797423
 30
0.0
 11
10.7355841804
 21
9.4294690396
 31
0.0
  0
ARC
  5
1E5
330
1F
100
AcDbEntity
  8
0
  6
Continuous
 62
     7
370
     0
100
AcDbCircle
 10
9.8835849965
 20
8.857160113
 30
0.0
 40
1.016216609424079
100
AcDbArc
 50
33.9291996906
 51
35.9641402028
  0
LINE
  5
1E6
330
1F
100
AcDbEntity
  8
0
  6
Continuous
 62
     7
370
     0
100
AcDbLine
 10
10.6928713711
 20
9.4463286344
 30
0.0
 11
10.7060951863
 21
9.4539625803
 31
0.0
  0
ARC
  5
1E7
330
1F
100
AcDbEntity
  8
0
  6
Continuous
 62
     7
370
     0
100
AcDbCircle
 10
9.8658341594
 20
8.8463494129
 30
0.0
 40
1.021746355900513
100
AcDbArc
 50
32.5415610699
 51
35.9592386947
  0
LINE
  5
1E8
330
1F
100
AcDbEntity
  8
0
  6
Continuous
 62
     7
370
     0
100
AcDbLine
 10
10.783736391
 20
9.4286145908
 30
0.0
 11
10.7271678485
 21
9.3959582664
 31
0.0
  0
ARC
  5
1E9
330
1F
100
AcDbEntity
  8
0
  6
Continuous
 62
     7
370
     0
100
AcDbCircle
 10
9.9161782785
 20
8.8749077369
 30
0.0
 40
1.029197920017232
100
AcDbArc
 50
32.5474862337
 51
33.931145585
  0
LINE
  5
1EA
330
1F
100
AcDbEntity
  8
0
  6
Continuous
 62
     7
370
     0
100
AcDbLine
 10
10.6330112639
 20
9.5729049687
 30
0.0
 11
10.6455004227
 21
9.5801148066
 31
0.0
  0
ARC
  5
1EB
330
1F
100
AcDbEntity
  8
0
  6
Continuous
 62
     7
370
     0
100
AcDbCircle
 10
9.9894267876
 20
8.939195514
 30
0.0
 40
0.9032101920938478
100
AcDbArc
 50
40.972212337
 51
44.5570433905
  0
LINE
  5
1EC
330
1F
100
AcDbEntity
  8
0
  6
Continuous
 62
     7
370
     0
100
AcDbLine
 10
10.6838646341
 20
9.5386338874
 30
0.0
 11
10.6713754754
 21
9.5314240496
 31
0.0
  0
ARC
  5
1ED
330
1F
100
AcDbEntity
  8
0
  6
Continuous
 62
     7
370
     0
100
AcDbCircle
 10
10.0019159463
 20
8.9464053519
 30
0.0
 40
0.9032101920897754
100
AcDbArc
 50
40.972212337
 51
44.5570433906
  0
ARC
  5
1EE
330
1F
100
AcDbEntity
  8
0
  6
Continuous
 62
     7
370
     0
100
AcDbCircle
 10
10.5508303774
 20
9.625700027
 30
0.0
 40
0.0433498875628062
100
AcDbArc
 50
52.36125972
 51
127.3437363005
  0
SPLINE
  5
1EF
330
1F
100
AcDbEntity
  8
0
  6
Continuous
 62
     7
370
     0
100
AcDbSpline
210
0.0
220
0.0
230
1.0
 70
    24
 71
     1
 72
     4
 73
     2
 74
     0
 42
0.00000001
 43
0.00000001
 40
0.0
 40
0.0
 40
1.0
 40
1.0
 10
10.51304590209824
 20
9.651484253086538
 30
0.0
 10
10.52453453319329
 20
9.660163650258937
 30
0.0
  0
SPLINE
  5
1F0
330
1F
100
AcDbEntity
  8
0
  6
Continuous
 62
     7
370
     0
100
AcDbSpline
210
0.0
220
0.0
230
1.0
 70
     8
 71
     3
 72
    12
 73
     8
 74
     0
 42
0.00000001
 43
0.00000001
 40
0.0
 40
0.0
 40
0.0
 40
0.0
 40
0.2503309494299797
 40
0.4997648043321496
 40
0.6249322238031072
 40
0.7501904501281089
 40
1.0
 40
1.0
 40
1.0
 40
1.0
 10
10.51884634148901
 20
9.626844608607112
 30
0.0
 10
10.51654198660291
 20
9.628714160277918
 30
0.0
 10
10.51194153479547
 20
9.6324465638304
 30
0.0
 10
10.50863505794818
 20
9.638019052846158
 30
0.0
 10
10.50828668865865
 20
9.642470675482567
 30
0.0
 10
10.50905217199137
 20
9.64683670988032
 30
0.0
 10
10.5114493136501
 20
9.649626287326027
 30
0.0
 10
10.51304590209824
 20
9.651484253086538
 30
0.0
  0
ARC
  5
1F1
330
1F
100
AcDbEntity
  8
0
  6
Continuous
 62
     7
370
     0
100
AcDbCircle
 10
10.5463558882
 20
9.6594535769
 30
0.0
 40
0.0426628640495014
100
AcDbArc
 50
229.848383547
 51
305.4510019249
  0
SPLINE
  5
1F2
330
1F
100
AcDbEntity
  8
0
  6
Continuous
 62
     7
370
     0
100
AcDbSpline
210
0.0
220
0.0
230
1.0
 70
     8
 71
     3
 72
     9
 73
     5
 74
     0
 42
0.00000001
 43
0.00000001
 40
0.0
 40
0.0
 40
0.0
 40
0.0
 40
0.4986702672090046
 40
1.0
 40
1.0
 40
1.0
 40
1.0
 10
10.58716752462643
 20
9.64001058470777
 30
0.0
 10
10.58528288928576
 20
9.63701736191984
 30
0.0
 10
10.58150356762854
 20
9.63101495314443
 30
0.0
 10
10.57457441709099
 20
9.626808648770755
 30
0.0
 10
10.57110062790353
 20
9.624699903323062
 30
0.0
  0
SPLINE
  5
1F3
330
1F
100
AcDbEntity
  8
0
  6
Continuous
 62
     7
370
     0
100
AcDbSpline
210
0.0
220
0.0
230
1.0
 70
     8
 71
     3
 72
    10
 73
     6
 74
     0
 42
0.00000001
 43
0.00000001
 40
0.0
 40
0.0
 40
0.0
 40
0.0
 40
0.4992067981606222
 40
0.749537581525098
 40
0.9999999999999999
 40
0.9999999999999999
 40
0.9999999999999999
 40
0.9999999999999999
 10
10.57730331828466
 20
9.660027802242592
 30
0.0
 10
10.58074751253334
 20
9.657057549711684
 30
0.0
 10
10.58591882237322
 20
9.652597843019514
 30
0.0
 10
10.58822685693616
 20
9.64524059915842
 30
0.0
 10
10.58752069726846
 20
9.641754228325931
 30
0.0
 10
10.58716752462643
 20
9.64001058470777
 30
0.0
  0
LINE
  5
1F4
330
1F
100
AcDbEntity
  8
0
  6
Continuous
 62
     7
370
     0
100
AcDbLine
 10
10.4562460985
 20
9.7103702198
 30
0.0
 11
10.4769542256
 21
9.7223247671
 31
0.0
  0
ARC
  5
1F5
330
1F
100
AcDbEntity
  8
0
  6
Continuous
 62
     7
370
     0
100
AcDbCircle
 10
10.4469257629
 20
9.723571492
 30
0.0
 40
0.0161598961555629
100
AcDbArc
 50
248.7068668908
 51
305.2227791078
  0
SPLINE
  5
1F6
330
1F
100
AcDbEntity
  8
0
  6
Continuous
 62
     7
370
     0
100
AcDbSpline
210
0.0
220
0.0
230
1.0
 70
     8
 71
     3
 72
    11
 73
     7
 74
     0
 42
0.00000001
 43
0.00000001
 40
0.0
 40
0.0
 40
0.0
 40
0.0
 40
0.2500620333659128
 40
0.4999138376966608
 40
0.7498401673007516
 40
1.0
 40
1.0
 40
1.0
 40
1.0
 10
10.4395752243379
 20
9.712764100214365
 30
0.0
 10
10.43931051012809
 20
9.712381599974329
 30
0.0
 10
10.43878130425572
 20
9.711616921065088
 30
0.0
 10
10.43883841619382
 20
9.71042658447999
 30
0.0
 10
10.43957326560923
 20
9.70933247077967
 30
0.0
 10
10.44056257805897
 20
9.708787411831741
 30
0.0
 10
10.44105746525156
 20
9.708514755106755
 30
0.0
  0
SPLINE
  5
1F7
330
1F
100
AcDbEntity
  8
0
  6
Continuous
 62
     7
370
     0
100
AcDbSpline
210
0.0
220
0.0
230
1.0
 70
    24
 71
     1
 72
     4
 73
     2
 74
     0
 42
0.00000001
 43
0.00000001
 40
0.0
 40
0.0
 40
1.0
 40
1.0
 10
10.44289425685487
 20
9.71501239996176
 30
0.0
 10
10.4395752243379
 20
9.712764100214365
 30
0.0
  0
LINE
  5
1F8
330
1F
100
AcDbEntity
  8
0
  6
Continuous
 62
     7
370
     0
100
AcDbLine
 10
10.4652438819
 20
9.7279145639
 30
0.0
 11
10.4428942569
 21
9.7150124
 31
0.0
  0
ARC
  5
1F9
330
1F
100
AcDbEntity
  8
0
  6
Continuous
 62
     7
370
     0
100
AcDbCircle
 10
10.2687142462
 20
9.301987607
 30
0.0
 40
0.4690817309247862
100
AcDbArc
 50
65.2306304171
 51
67.27494963
  0
LINE
  5
1FA
330
1F
100
AcDbEntity
  8
0
  6
Continuous
 62
     7
370
     0
100
AcDbLine
 10
10.4289298023
 20
9.7225339703
 30
0.0
 11
10.4499249046
 21
9.7346541849
 31
0.0
  0
ARC
  5
1FB
330
1F
100
AcDbEntity
  8
0
  6
Continuous
 62
     7
370
     0
100
AcDbCircle
 10
10.4192957431
 20
9.7363308697
 30
0.0
 40
0.0168276418398601
100
AcDbArc
 50
252.0882945091
 51
304.9257154168
  0
SPLINE
  5
1FC
330
1F
100
AcDbEntity
  8
0
  6
Continuous
 62
     7
370
     0
100
AcDbSpline
210
0.0
220
0.0
230
1.0
 70
     8
 71
     3
 72
    10
 73
     6
 74
     0
 42
0.00000001
 43
0.00000001
 40
0.0
 40
0.0
 40
0.0
 40
0.0
 40
0.4988226573032735
 40
0.7491700015751969
 40
1.0
 40
1.0
 40
1.0
 40
1.0
 10
10.41215073569019
 20
9.723149743761404
 30
0.0
 10
10.41211680239616
 20
9.722595965628942
 30
0.0
 10
10.412065838781
 20
9.721764259293444
 30
0.0
 10
10.41301710506988
 20
9.720841274079694
 30
0.0
 10
10.41375238879151
 20
9.720493094409925
 30
0.0
 10
10.41412038470638
 20
9.720318836919452
 30
0.0
  0
SPLINE
  5
1FD
330
1F
100
AcDbEntity
  8
0
  6
Continuous
 62
     7
370
     0
100
AcDbSpline
210
0.0
220
0.0
230
1.0
 70
     8
 71
     3
 72
     9
 73
     5
 74
     0
 42
0.00000001
 43
0.00000001
 40
0.0
 40
0.0
 40
0.0
 40
0.0
 40
0.501577137328104
 40
0.9999999999999999
 40
0.9999999999999999
 40
0.9999999999999999
 40
0.9999999999999999
 10
10.41512736855828
 20
9.725949969327615
 30
0.0
 10
10.41440800556752
 20
9.725520838177973
 30
0.0
 10
10.41297380345338
 20
9.724665274561318
 30
0.0
 10
10.41242451407473
 20
9.723653857265393
 30
0.0
 10
10.41215073569019
 20
9.723149743761404
 30
0.0
  0
LINE
  5
1FE
330
1F
100
AcDbEntity
  8
0
  6
Continuous
 62
     7
370
     0
100
AcDbLine
 10
10.4383034821
 20
9.7393292549
 30
0.0
 11
10.4151273686
 21
9.7259499693
 31
0.0
  0
ARC
  5
1FF
330
1F
100
AcDbEntity
  8
0
  6
Continuous
 62
     7
370
     0
100
AcDbCircle
 10
10.2865908238
 20
9.3463998685
 30
0.0
 40
0.4212009417539013
100
AcDbArc
 50
68.8880925282
 51
71.0845519373
  0
LINE
  5
200
330
1F
100
AcDbEntity
  8
0
  6
Continuous
 62
     7
370
     0
100
AcDbLine
 10
10.3974081288
 20
9.7300047022
 30
0.0
 11
10.4231325817
 21
9.7448551128
 31
0.0
  0
SPLINE
  5
201
330
1F
100
AcDbEntity
  8
0
  6
Continuous
 62
     7
370
     0
100
AcDbSpline
210
0.0
220
0.0
230
1.0
 70
     8
 71
     3
 72
    13
 73
     9
 74
     0
 42
0.00000001
 43
0.00000001
 40
0.0
 40
0.0
 40
0.0
 40
0.0
 40
0.2493551011003682
 40
0.3758643206395881
 40
0.4994912623303899
 40
0.6184449072860173
 40
0.7497843925020612
 40
0.9999999999999999
 40
0.9999999999999999
 40
0.9999999999999999
 40
0.9999999999999999
 10
10.39513740734315
 20
9.715650771210273
 30
0.0
 10
10.39326479961647
 20
9.716504352176683
 30
0.0
 10
10.39044213255288
 20
9.717790993711725
 30
0.0
 10
10.38882154557204
 20
9.720213749390721
 30
0.0
 10
10.38872164579987
 20
9.722186124549037
 30
0.0
 10
10.38979137134584
 20
9.724252072259425
 30
0.0
 10
10.39245905210245
 20
9.726941916153207
 30
0.0
 10
10.39544802486736
 20
9.728791672135548
 30
0.0
 10
10.39740812879585
 20
9.73000470224754
 30
0.0
  0
ARC
  5
202
330
1F
100
AcDbEntity
  8
0
  6
Continuous
 62
     7
370
     0
100
AcDbCircle
 10
10.4086869929
 20
9.7523606698
 30
0.0
 40
0.0391306519568769
100
AcDbArc
 50
249.7409486862
 51
281.3764315034
  0
SPLINE
  5
203
330
1F
100
AcDbEntity
  8
0
  6
Continuous
 62
     7
370
     0
100
AcDbSpline
210
0.0
220
0.0
230
1.0
 70
     8
 71
     3
 72
    12
 73
     8
 74
     0
 42
0.00000001
 43
0.00000001
 40
0.0
 40
0.0
 40
0.0
 40
0.0
 40
0.2503533688407838
 40
0.4999961943216286
 40
0.7494886161542181
 40
0.8747044873187593
 40
1.0
 40
1.0
 40
1.0
 40
1.0
 10
10.4218496939512
 20
9.704437674079713
 30
0.0
 10
10.42063103148994
 20
9.705042586794058
 30
0.0
 10
10.41819716532861
 20
9.706250695382607
 30
0.0
 10
10.41565180409394
 20
9.708546044019618
 30
0.0
 10
10.41524568309203
 20
9.710814467858174
 30
0.0
 10
10.4156751985738
 20
9.712639823140677
 30
0.0
 10
10.41616213062607
 20
9.713545739270867
 30
0.0
 10
10.41640567405389
 20
9.713998841338467
 30
0.0
  0
ARC
  5
204
330
1F
100
AcDbEntity
  8
0
  6
Continuous
 62
     7
370
     0
100
AcDbCircle
 10
10.4371207185
 20
9.73892834
 30
0.0
 40
0.0377201567321251
100
AcDbArc
 50
246.1182405868
 51
279.2443936315
  0
LINE
  5
205
330
1F
100
AcDbEntity
  8
0
  6
Continuous
 62
     7
370
     0
100
AcDbLine
 10
10.4368668569
 20
9.6980534102
 30
0.0
 11
10.4431803103
 21
9.7016980892
 31
0.0
  0
ARC
  5
206
330
1F
100
AcDbEntity
  8
0
  6
Continuous
 62
     7
370
     0
100
AcDbCircle
 10
10.2050601476
 20
9.231170706
 30
0.0
 40
0.5212617480023205
100
AcDbArc
 50
61.8205925896
 51
63.5956559673
  0
LINE
  5
207
330
1F
100
AcDbEntity
  8
0
  6
Continuous
 62
     7
370
     0
100
AcDbLine
 10
10.492358419
 20
9.7143990389
 30
0.0
 11
10.4512176608
 21
9.6906489847
 31
0.0
  0
ARC
  5
208
330
1F
100
AcDbEntity
  8
0
  6
Continuous
 62
     7
370
     0
100
AcDbCircle
 10
10.2466746054
 20
9.2558282056
 30
0.0
 40
0.5202381621468593
100
AcDbArc
 50
61.8193840911
 51
63.7273828093
  0
LWPOLYLINE
  5
209
330
1F
100
AcDbEntity
  8
0
  6
Continuous
 62
     7
370
     0
100
AcDbPolyline
 90
       44
 70
   128
 43
0.0
 10
11.4581943501
 20
9.071867319
 10
11.4655813604
 20
9.07634711
 10
11.4865768827
 20
9.091694995
 10
11.5057360931
 20
9.1098379735
 10
11.5229518454
 20
9.1306745826
 10
11.5381278622
 20
9.1540882955
 10
11.551179273
 20
9.1799481734
 10
11.5620330891
 20
9.2081095971
 10
11.5706286114
 20
9.2384150767
 10
11.5769177704
 20
9.2706951317
 10
11.5808653946
 20
9.3047692387
 10
11.5824494072
 20
9.3404468417
 10
11.5816609497
 20
9.377528417
 10
11.5785044316
 20
9.4158065893
 10
11.5729975053
 20
9.4550672916
 10
11.5651709679
 20
9.4950909622
 10
11.5550685885
 20
9.5356537725
 10
11.5427468637
 20
9.5765288786
 10
11.5282747016
 20
9.6174876906
 10
11.5117330364
 20
9.65830115
 10
11.4932143759
 20
9.6987410115
 10
11.4728222837
 20
9.7385811189
 10
11.4506708009
 20
9.7775986703
 10
11.4268838075
 20
9.8155754636
 10
11.40159433
 20
9.8522991171
 10
11.3749437974
 20
9.8875642575
 10
11.3470812503
 20
9.9211736676
 10
11.3181625075
 20
9.95293939
 10
11.2883492941
 20
9.9826837779
 10
11.2578083378
 20
10.0102404886
 10
11.226710436
 20
10.0354554139
 10
11.1952295009
 20
10.0581875416
 10
11.1635415865
 20
10.0783097444
 10
11.1318239045
 20
10.0957094909
 10
11.1002538331
 20
10.1102894746
 10
11.0690079249
 20
10.1219681582
 10
11.0382609198
 20
10.13068023
 10
11.0081847673
 20
10.1363769683
 10
10.9789476657
 20
10.1390265149
 10
10.9507131205
 20
10.1386140522
 10
10.9236390309
 20
10.135141887
 10
10.8978768062
 20
10.1286294371
 10
10.8735705191
 20
10.1191131227
 10
10.8582431105
 20
10.1111259539
  0
LINE
  5
20A
330
1F
100
AcDbEntity
  8
0
  6
Continuous
 62
     7
370
     0
100
AcDbLine
 10
10.37810777
 20
9.7403617126
 30
0.0
 11
10.3988158972
 21
9.7523162599
 31
0.0
  0
ARC
  5
20B
330
1F
100
AcDbEntity
  8
0
  6
Continuous
 62
     7
370
     0
100
AcDbCircle
 10
10.3664350739
 20
9.7573050068
 30
0.0
 40
0.0205749131878443
100
AcDbArc
 50
260.7559595952
 51
304.5640128224
  0
SPLINE
  5
20C
330
1F
100
AcDbEntity
  8
0
  6
Continuous
 62
     7
370
     0
100
AcDbSpline
210
0.0
220
0.0
230
1.0
 70
     8
 71
     3
 72
    11
 73
     7
 74
     0
 42
0.00000001
 43
0.00000001
 40
0.0
 40
0.0
 40
0.0
 40
0.0
 40
0.2500620333659195
 40
0.4999138376966913
 40
0.7498401673007509
 40
0.9999999999999999
 40
0.9999999999999999
 40
0.9999999999999999
 40
0.9999999999999999
 10
10.36181799568336
 20
9.740109814998418
 30
0.0
 10
10.3615453411735
 20
9.73977888846049
 30
0.0
 10
10.36100026137647
 20
9.739117313597067
 30
0.0
 10
10.36101575228956
 20
9.738200633823748
 30
0.0
 10
10.36169991020645
 20
9.737444691077261
 30
0.0
 10
10.36265310295631
 20
9.737146475657273
 30
0.0
 10
10.36312992186635
 20
9.73699729832505
 30
0.0
  0
SPLINE
  5
20D
330
1F
100
AcDbEntity
  8
0
  6
Continuous
 62
     7
370
     0
100
AcDbSpline
210
0.0
220
0.0
230
1.0
 70
    24
 71
     1
 72
     4
 73
     2
 74
     0
 42
0.00000001
 43
0.00000001
 40
0.0
 40
0.0
 40
1.0
 40
1.0
 10
10.36514855922091
 20
9.742283439450421
 30
0.0
 10
10.36181799568336
 20
9.740109814998418
 30
0.0
  0
LINE
  5
20E
330
1F
100
AcDbEntity
  8
0
  6
Continuous
 62
     7
370
     0
100
AcDbLine
 10
10.3874981843
 20
9.7551856034
 30
0.0
 11
10.3651485592
 21
9.7422834395
 31
0.0
  0
ARC
  5
20F
330
1F
100
AcDbEntity
  8
0
  6
Continuous
 62
     7
370
     0
100
AcDbCircle
 10
10.3090971683
 20
9.4236049772
 30
0.0
 40
0.3407233935985493
100
AcDbArc
 50
76.6969434655
 51
79.2269314282
  0
LINE
  5
210
330
1F
100
AcDbEntity
  8
0
  6
Continuous
 62
     7
370
     0
100
AcDbLine
 10
10.3517899388
 20
9.7462029811
 30
0.0
 11
10.3727850411
 21
9.7583231957
 31
0.0
  0
ARC
  5
211
330
1F
100
AcDbEntity
  8
0
  6
Continuous
 62
     7
370
     0
100
AcDbCircle
 10
10.3393109131
 20
9.7645986973
 30
0.0
 40
0.0222290003083835
100
AcDbArc
 50
264.7209669821
 51
304.1516287583
  0
SPLINE
  5
212
330
1F
100
AcDbEntity
  8
0
  6
Continuous
 62
     7
370
     0
100
AcDbSpline
210
0.0
220
0.0
230
1.0
 70
     8
 71
     3
 72
    10
 73
     6
 74
     0
 42
0.00000001
 43
0.00000001
 40
0.0
 40
0.0
 40
0.0
 40
0.0
 40
0.4988226573032993
 40
0.7491700015752194
 40
0.9999999999999999
 40
0.9999999999999999
 40
0.9999999999999999
 40
0.9999999999999999
 10
10.33548714121814
 20
9.744321209729225
 30
0.0
 10
10.33542693896893
 20
9.743899348826123
 30
0.0
 10
10.33533652262864
 20
9.743265765870706
 30
0.0
 10
10.33621707170686
 20
9.742703752485253
 30
0.0
 10
10.33691593768652
 20
9.742543957296512
 30
0.0
 10
10.33726570719453
 20
9.742463982757512
 30
0.0
  0
SPLINE
  5
213
330
1F
100
AcDbEntity
  8
0
  6
Continuous
 62
     7
370
     0
100
AcDbSpline
210
0.0
220
0.0
230
1.0
 70
     8
 71
     3
 72
     9
 73
     5
 74
     0
 42
0.00000001
 43
0.00000001
 40
0.0
 40
0.0
 40
0.0
 40
0.0
 40
0.5015771373281026
 40
0.9999999999999999
 40
0.9999999999999999
 40
0.9999999999999999
 40
0.9999999999999999
 10
10.33851759779352
 20
9.746853317284067
 30
0.0
 10
10.33779751627818
 20
9.746427664119109
 30
0.0
 10
10.33636188163346
 20
9.745579034599777
 30
0.0
 10
10.33577810756199
 20
9.744739602085842
 30
0.0
 10
10.33548714121814
 20
9.744321209729225
 30
0.0
  0
LINE
  5
214
330
1F
100
AcDbEntity
  8
0
  6
Continuous
 62
     7
370
     0
100
AcDbLine
 10
10.3616937113
 20
9.7602326028
 30
0.0
 11
10.3385175978
 21
9.7468533173
 31
0.0
  0
ARC
  5
215
330
1F
100
AcDbEntity
  8
0
  6
Continuous
 62
     7
370
     0
100
AcDbCircle
 10
10.3150859326
 20
9.4582590127
 30
0.0
 40
0.3055492335644128
100
AcDbArc
 50
81.2259810058
 51
83.9466000312
  0
LINE
  5
216
330
1F
100
AcDbEntity
  8
0
  6
Continuous
 62
     7
370
     0
100
AcDbLine
 10
10.3215832712
 20
9.7472541062
 30
0.0
 11
10.347307724
 21
9.7621045167
 31
0.0
  0
SPLINE
  5
217
330
1F
100
AcDbEntity
  8
0
  6
Continuous
 62
     7
370
     0
100
AcDbSpline
210
0.0
220
0.0
230
1.0
 70
     8
 71
     3
 72
    13
 73
     9
 74
     0
 42
0.00000001
 43
0.00000001
 40
0.0
 40
0.0
 40
0.0
 40
0.0
 40
0.2493551011003441
 40
0.3758643206403564
 40
0.4994912623310235
 40
0.6184449072860009
 40
0.7497843925020714
 40
1.0
 40
1.0
 40
1.0
 40
1.0
 10
10.31859029625455
 20
9.736245191551575
 30
0.0
 10
10.31681832434176
 20
9.736612583452398
 30
0.0
 10
10.31414735023191
 20
9.737166370026657
 30
0.0
 10
10.31271444959933
 20
9.738725216305873
 30
0.0
 10
10.31273092811051
 20
9.740170883501772
 30
0.0
 10
10.31388562200819
 20
9.741858065409213
 30
0.0
 10
10.31662174789051
 20
9.744245701649467
 30
0.0
 10
10.31961823771215
 20
9.746062614134836
 30
0.0
 10
10.32158327116446
 20
9.74725410618927
 30
0.0
  0
ARC
  5
218
330
1F
100
AcDbEntity
  8
0
  6
Continuous
 62
     7
370
     0
100
AcDbCircle
 10
10.3249515056
 20
9.7841157731
 30
0.0
 40
0.0482913818893086
100
AcDbArc
 50
262.4306828074
 51
287.1730675822
  0
SPLINE
  5
219
330
1F
100
AcDbEntity
  8
0
  6
Continuous
 62
     7
370
     0
100
AcDbSpline
210
0.0
220
0.0
230
1.0
 70
     8
 71
     3
 72
    12
 73
     8
 74
     0
 42
0.00000001
 43
0.00000001
 40
0.0
 40
0.0
 40
0.0
 40
0.0
 40
0.2503533688407865
 40
0.4999961943216246
 40
0.7494886161542257
 40
0.8747044873187674
 40
1.0
 40
1.0
 40
1.0
 40
1.0
 10
10.3441593778916
 20
9.731353792907386
 30
0.0
 10
10.34298802626923
 20
9.731661720256737
 30
0.0
 10
10.34064864750987
 20
9.732276701007807
 30
0.0
 10
10.33824935892839
 20
9.733702275122042
 30
0.0
 10
10.33794476398445
 20
9.73538568545878
 30
0.0
 10
10.3384398674083
 20
9.736839885371742
 30
0.0
 10
10.33895321453994
 20
9.737598117116885
 30
0.0
 10
10.33920996970633
 20
9.737977353516367
 30
0.0
  0
ARC
  5
21A
330
1F
100
AcDbEntity
  8
0
  6
Continuous
 62
     7
370
     0
100
AcDbCircle
 10
10.3533734371
 20
9.7752468172
 30
0.0
 40
0.0448497097554931
100
AcDbArc
 50
258.14456656
 51
285.0373558941
  0
LINE
  5
21B
330
1F
100
AcDbEntity
  8
0
  6
Continuous
 62
     7
370
     0
100
AcDbLine
 10
10.3586961852
 20
9.7282882225
 30
0.0
 11
10.3650096386
 21
9.7319329016
 31
0.0
  0
ARC
  5
21C
330
1F
100
AcDbEntity
  8
0
  6
Continuous
 62
     7
370
     0
100
AcDbCircle
 10
10.257893423
 20
9.3603838524
 30
0.0
 40
0.3814640512919085
100
AcDbArc
 50
72.4916233469
 51
74.6774694691
  0
LINE
  5
21D
330
1F
100
AcDbEntity
  8
0
  6
Continuous
 62
     7
370
     0
100
AcDbLine
 10
10.4137958213
 20
9.7479258641
 30
0.0
 11
10.3726550632
 21
9.7241758099
 31
0.0
  0
ARC
  5
21E
330
1F
100
AcDbEntity
  8
0
  6
Continuous
 62
     7
370
     0
100
AcDbCircle
 10
10.2992705833
 20
9.3849192913
 30
0.0
 40
0.380643930839159
100
AcDbArc
 50
72.4899933446
 51
74.8398344296
  0
ARC
  5
21F
330
1F
100
AcDbEntity
  8
0
  6
Continuous
 62
     7
370
     0
100
AcDbCircle
 10
10.5005464461
 20
9.6554279638
 30
0.0
 40
0.0476779594040534
100
AcDbArc
 50
59.5480274876
 51
127.1890323233
  0
SPLINE
  5
220
330
1F
100
AcDbEntity
  8
0
  6
Continuous
 62
     7
370
     0
100
AcDbSpline
210
0.0
220
0.0
230
1.0
 70
    24
 71
     1
 72
     4
 73
     2
 74
     0
 42
0.00000001
 43
0.00000001
 40
0.0
 40
0.0
 40
1.0
 40
1.0
 10
10.46024847191422
 20
9.68495651839367
 30
0.0
 10
10.47172766423758
 20
9.69341040215631
 30
0.0
  0
SPLINE
  5
221
330
1F
100
AcDbEntity
  8
0
  6
Continuous
 62
     7
370
     0
100
AcDbSpline
210
0.0
220
0.0
230
1.0
 70
     8
 71
     3
 72
    12
 73
     8
 74
     0
 42
0.00000001
 43
0.00000001
 40
0.0
 40
0.0
 40
0.0
 40
0.0
 40
0.2503309494299786
 40
0.4997648043321465
 40
0.6249322238031042
 40
0.7501904501281043
 40
1.0
 40
1.0
 40
1.0
 40
1.0
 10
10.46624812247868
 20
9.663288016284987
 30
0.0
 10
10.46391519115935
 20
9.664827145126004
 30
0.0
 10
10.45925768889294
 20
9.667899887133432
 30
0.0
 10
10.45589922992275
 20
9.672676162196295
 30
0.0
 10
10.45552232311129
 20
9.676626553523626
 30
0.0
 10
10.45626600923252
 20
9.680566221283533
 30
0.0
 10
10.45865638788685
 20
9.683201392868813
 30
0.0
 10
10.46024847191422
 20
9.68495651839367
 30
0.0
  0
ARC
  5
222
330
1F
100
AcDbEntity
  8
0
  6
Continuous
 62
     7
370
     0
100
AcDbCircle
 10
10.4917938989
 20
9.7026195649
 30
0.0
 40
0.0468994393322673
100
AcDbArc
 50
236.9963421971
 51
305.2807419081
  0
SPLINE
  5
223
330
1F
100
AcDbEntity
  8
0
  6
Continuous
 62
     7
370
     0
100
AcDbSpline
210
0.0
220
0.0
230
1.0
 70
     8
 71
     3
 72
     9
 73
     5
 74
     0
 42
0.00000001
 43
0.00000001
 40
0.0
 40
0.0
 40
0.0
 40
0.0
 40
0.4986702672090035
 40
1.0
 40
1.0
 40
1.0
 40
1.0
 10
10.5348667794924
 20
9.67906692324044
 30
0.0
 10
10.53300793617146
 20
9.676256428561098
 30
0.0
 10
10.52928033610552
 20
9.670620450512772
 30
0.0
 10
10.52235440551353
 20
9.66643323710015
 30
0.0
 10
10.51888223058052
 20
9.664334062518863
 30
0.0
  0
SPLINE
  5
224
330
1F
100
AcDbEntity
  8
0
  6
Continuous
 62
     7
370
     0
100
AcDbSpline
210
0.0
220
0.0
230
1.0
 70
     8
 71
     3
 72
    10
 73
     6
 74
     0
 42
0.00000001
 43
0.00000001
 40
0.0
 40
0.0
 40
0.0
 40
0.0
 40
0.4992067981606261
 40
0.749537581525099
 40
1.0
 40
1.0
 40
1.0
 40
1.0
 10
10.52471039569861
 20
9.696528953519744
 30
0.0
 10
10.52820472387926
 20
9.694061392176591
 30
0.0
 10
10.53345130766625
 20
9.690356454727368
 30
0.0
 10
10.53586584208039
 20
9.683850393697867
 30
0.0
 10
10.53519985870702
 20
9.680661692779694
 30
0.0
 10
10.5348667794924
 20
9.67906692324044
 30
0.0
  0
ARC
  5
225
330
1F
100
AcDbEntity
  8
0
  6
Continuous
 62
     7
370
     0
100
AcDbCircle
 10
10.5749452031
 20
9.5306073465
 30
0.0
 40
0.0520267611110847
100
AcDbArc
 50
54.678918336
 51
93.8407787413
  0
LINE
  5
226
330
1F
100
AcDbEntity
  8
0
  6
Continuous
 62
     7
370
     0
100
AcDbLine
 10
10.6182487001
 20
9.5806912231
 30
0.0
 11
10.6050248849
 21
9.5730572771
 31
0.0
  0
SPLINE
  5
227
330
1F
100
AcDbEntity
  8
0
  6
Continuous
 62
     7
370
     0
100
AcDbSpline
210
0.0
220
0.0
230
1.0
 70
    24
 71
     1
 72
     4
 73
     2
 74
     0
 42
0.00000001
 43
0.00000001
 40
0.0
 40
0.0
 40
1.0
 40
1.0
 10
10.59375359472849
 20
9.59115884114196
 30
0.0
 10
10.61824870005736
 20
9.580691223095487
 30
0.0
  0
LINE
  5
228
330
1F
100
AcDbEntity
  8
0
  6
Continuous
 62
     7
370
     0
100
AcDbLine
 10
10.6315769201
 20
9.6129937821
 30
0.0
 11
10.5937535947
 21
9.5911588411
 31
0.0
  0
ARC
  5
229
330
1F
100
AcDbEntity
  8
0
  6
Continuous
 62
     7
370
     0
100
AcDbCircle
 10
10.084665025
 20
9.0249373831
 30
0.0
 40
0.8030709492052587
100
AcDbArc
 50
47.076158925
 51
48.5726516883
  0
LINE
  5
22A
330
1F
100
AcDbEntity
  8
0
  6
Continuous
 62
     7
370
     0
100
AcDbLine
 10
10.5587296458
 20
9.5939957963
 30
0.0
 11
10.6160328447
 21
9.6270762289
 31
0.0
  0
ARC
  5
22B
330
1F
100
AcDbEntity
  8
0
  6
Continuous
 62
     7
370
     0
100
AcDbCircle
 10
10.029227607
 20
8.9939378494
 30
0.0
 40
0.8002761703553062
100
AcDbArc
 50
47.3469764389
 51
48.5742329174
  0
LINE
  5
22C
330
1F
100
AcDbEntity
  8
0
  6
Continuous
 62
     7
370
     0
100
AcDbLine
 10
10.6139101976
 20
9.5618781578
 30
0.0
 11
10.6263993564
 21
9.5690879957
 31
0.0
  0
ARC
  5
22D
330
1F
100
AcDbEntity
  8
0
  6
Continuous
 62
     7
370
     0
100
AcDbCircle
 10
9.9703257213
 20
8.9281687032
 30
0.0
 40
0.9032101920931564
100
AcDbArc
 50
40.972212337
 51
44.5570433905
  0
LINE
  5
22E
330
1F
100
AcDbEntity
  8
0
  6
Continuous
 62
     7
370
     0
100
AcDbLine
 10
10.6647635678
 20
9.5276070766
 30
0.0
 11
10.6522744091
 21
9.5203972387
 31
0.0
  0
ARC
  5
22F
330
1F
100
AcDbEntity
  8
0
  6
Continuous
 62
     7
370
     0
100
AcDbCircle
 10
9.9828148801
 20
8.935378541
 30
0.0
 40
0.9032101920898987
100
AcDbArc
 50
40.972212337
 51
44.5570433905
  0
SPLINE
  5
230
330
1F
100
AcDbEntity
  8
0
  6
Continuous
 62
     7
370
     0
100
AcDbSpline
210
0.0
220
0.0
230
1.0
 70
    24
 71
     1
 72
     4
 73
     2
 74
     0
 42
0.00000001
 43
0.00000001
 40
0.0
 40
0.0
 40
1.0
 40
1.0
 10
10.69556953394456
 20
9.50958986868726
 30
0.0
 10
10.71217755786874
 20
9.50312229099765
 30
0.0
  0
ARC
  5
231
330
1F
100
AcDbEntity
  8
0
  6
Continuous
 62
     7
370
     0
100
AcDbCircle
 10
10.6761771719
 20
9.4810233039
 30
0.0
 40
0.0345269797696712
100
AcDbArc
 50
55.829447465
 51
112.0260020575
  0
SPLINE
  5
232
330
1F
100
AcDbEntity
  8
0
  6
Continuous
 62
     7
370
     0
100
AcDbSpline
210
0.0
220
0.0
230
1.0
 70
     8
 71
     3
 72
    13
 73
     9
 74
     0
 42
0.00000001
 43
0.00000001
 40
0.0
 40
0.0
 40
0.0
 40
0.0
 40
0.2505513334131463
 40
0.4997574289386545
 40
0.6245242524965285
 40
0.7498907040620293
 40
0.8749266421754215
 40
1.0
 40
1.0
 40
1.0
 40
1.0
 10
10.66679628992467
 20
9.479322596923238
 30
0.0
 10
10.66458521598635
 20
9.482216501438831
 30
0.0
 10
10.66017493961083
 20
9.48798877277583
 30
0.0
 10
10.65640964690951
 20
9.496021813839413
 30
0.0
 10
10.65606111107701
 20
9.502342331904288
 30
0.0
 10
10.6571508991311
 20
9.506694814599504
 30
0.0
 10
10.65949496783211
 20
9.510463499132971
 30
0.0
 10
10.66198393904147
 20
9.512174607044855
 30
0.0
 10
10.66322861083792
 20
9.513030289003163
 30
0.0
  0
ARC
  5
233
330
1F
100
AcDbEntity
  8
0
  6
Continuous
 62
     7
370
     0
100
AcDbCircle
 10
10.6940438397
 20
9.4936681846
 30
0.0
 40
0.0307932599365233
100
AcDbArc
 50
207.7663978844
 51
288.7842228288
  0
SPLINE
  5
234
330
1F
100
AcDbEntity
  8
0
  6
Continuous
 62
     7
370
     0
100
AcDbSpline
210
0.0
220
0.0
230
1.0
 70
    24
 71
     1
 72
     4
 73
     2
 74
     0
 42
0.00000001
 43
0.00000001
 40
0.0
 40
0.0
 40
1.0
 40
1.0
 10
10.69218346638617
 20
9.482330063594453
 30
0.0
 10
10.70395942371891
 20
9.46451503640278
 30
0.0
  0
ARC
  5
235
330
1F
100
AcDbEntity
  8
0
  6
Continuous
 62
     7
370
     0
100
AcDbCircle
 10
10.6871000526
 20
9.4930489799
 30
0.0
 40
0.0118632315035075
100
AcDbArc
 50
215.7360525136
 51
295.3725060546
  0
SPLINE
  5
236
330
1F
100
AcDbEntity
  8
0
  6
Continuous
 62
     7
370
     0
100
AcDbSpline
210
0.0
220
0.0
230
1.0
 70
     8
 71
     3
 72
    14
 73
    10
 74
     0
 42
0.00000001
 43
0.00000001
 40
0.0
 40
0.0
 40
0.0
 40
0.0
 40
0.1251988702828438
 40
0.2501891755466298
 40
0.3728829743880477
 40
0.5004529894618409
 40
0.7495671084741613
 40
0.8747153475525501
 40
0.9999999999999999
 40
0.9999999999999999
 40
0.9999999999999999
 40
0.9999999999999999
 10
10.67754900856543
 20
9.497126820145299
 30
0.0
 10
10.67714175728476
 20
9.49685165756282
 30
0.0
 10
10.67632793315105
 20
9.496301790782901
 30
0.0
 10
10.67550201339252
 20
9.49512124671504
 30
0.0
 10
10.67502987605886
 20
9.493739444457207
 30
0.0
 10
10.67485869236184
 20
9.49173383738136
 30
0.0
 10
10.67534580645893
 20
9.489575670994215
 30
0.0
 10
10.67641893335845
 20
9.487546651783786
 30
0.0
 10
10.67711983426618
 20
9.486595879718589
 30
0.0
 10
10.677470475614
 20
9.486120234738335
 30
0.0
  0
SPLINE
  5
237
330
1F
100
AcDbEntity
  8
0
  6
Continuous
 62
     7
370
     0
100
AcDbSpline
210
0.0
220
0.0
230
1.0
 70
     8
 71
     3
 72
    12
 73
     8
 74
     0
 42
0.00000001
 43
0.00000001
 40
0.0
 40
0.0
 40
0.0
 40
0.0
 40
0.5004335295769868
 40
0.7500508073441535
 40
0.8749738419200933
 40
0.9374517669915636
 40
1.0
 40
1.0
 40
1.0
 40
1.0
 10
10.69967144467951
 20
9.492282897186891
 30
0.0
 10
10.69597976816669
 20
9.49383750555882
 30
0.0
 10
10.6904466757873
 20
9.496167555796372
 30
0.0
 10
10.68373015783363
 20
9.497986010658517
 30
0.0
 10
10.68044273853948
 20
9.498021823383056
 30
0.0
 10
10.67868507403651
 20
9.497683826301076
 30
0.0
 10
10.67792783899844
 20
9.497312558457532
 30
0.0
 10
10.67754900856543
 20
9.497126820145299
 30
0.0
  0
ARC
  5
238
330
1F
100
AcDbEntity
  8
0
  6
Continuous
 62
     7
370
     0
100
AcDbCircle
 10
10.7293197298
 20
9.5373843658
 30
0.0
 40
0.0539737277427145
100
AcDbArc
 50
236.6803405408
 51
286.4314573944
  0
ARC
  5
239
330
1F
100
AcDbEntity
  8
0
  6
Continuous
 62
     7
370
     0
100
AcDbCircle
 10
9.9592289875
 20
8.9061946457
 30
0.0
 40
0.975968964191131
100
AcDbArc
 50
36.419106546
 51
40.3011184432
  0
LINE
  5
23A
330
1F
100
AcDbEntity
  8
0
  6
Continuous
 62
     7
370
     0
100
AcDbLine
 10
10.6903334697
 20
9.5298219807
 30
0.0
 11
10.7035572848
 21
9.5374559267
 31
0.0
  0
ARC
  5
23B
330
1F
100
AcDbEntity
  8
0
  6
Continuous
 62
     7
370
     0
100
AcDbCircle
 10
9.9562235694
 20
8.9069315875
 30
0.0
 40
0.9627615424391268
100
AcDbArc
 50
38.2614330279
 51
40.3145206223
  0
LINE
  5
23C
330
1F
100
AcDbEntity
  8
0
  6
Continuous
 62
     7
370
     0
100
AcDbLine
 10
10.3508453973
 20
9.8132494056
 30
0.0
 11
10.3644365407
 21
9.8210954056
 31
0.0
  0
ARC
  5
23D
330
1F
100
AcDbEntity
  8
0
  6
Continuous
 62
     7
370
     0
100
AcDbCircle
 10
10.2099188624
 20
10.0531673008
 30
0.0
 40
0.2782460865973547
100
AcDbArc
 50
296.8543734623
 51
300.4297565732
  0
ARC
  5
23E
330
1F
100
AcDbEntity
  8
0
  6
Continuous
 62
     7
370
     0
100
AcDbCircle
 10
10.3062079637
 20
9.8630320642
 30
0.0
 40
0.0651193682016234
100
AcDbArc
 50
290.738293934
 51
296.8400123398
  0
SPLINE
  5
23F
330
1F
100
AcDbEntity
  8
0
  6
Continuous
 62
     7
370
     0
100
AcDbSpline
210
0.0
220
0.0
230
1.0
 70
    24
 71
     1
 72
     4
 73
     2
 74
     0
 42
0.00000001
 43
0.00000001
 40
0.0
 40
0.0
 40
1.0
 40
1.0
 10
10.32693056607406
 20
9.801496662465835
 30
0.0
 10
10.32926673028366
 20
9.802131937760668
 30
0.0
  0
SPLINE
  5
240
330
1F
100
AcDbEntity
  8
0
  6
Continuous
 62
     7
370
     0
100
AcDbSpline
210
0.0
220
0.0
230
1.0
 70
    24
 71
     1
 72
     4
 73
     2
 74
     0
 42
0.00000001
 43
0.00000001
 40
0.0
 40
0.0
 40
1.0
 40
1.0
 10
10.31150191954097
 20
9.79328704579112
 30
0.0
 10
10.32693056607406
 20
9.801496662465835
 30
0.0
  0
SPLINE
  5
241
330
1F
100
AcDbEntity
  8
0
  6
Continuous
 62
     7
370
     0
100
AcDbSpline
210
0.0
220
0.0
230
1.0
 70
    24
 71
     1
 72
     4
 73
     2
 74
     0
 42
0.00000001
 43
0.00000001
 40
0.0
 40
0.0
 40
1.0
 40
1.0
 10
10.31544418196905
 20
9.794433825802166
 30
0.0
 10
10.31150191954097
 20
9.79328704579112
 30
0.0
  0
ARC
  5
242
330
1F
100
AcDbEntity
  8
0
  6
Continuous
 62
     7
370
     0
100
AcDbCircle
 10
10.2647555378
 20
9.9251050104
 30
0.0
 40
0.1401581147308463
100
AcDbArc
 50
291.201765358
 51
298.2659328132
  0
LINE
  5
243
330
1F
100
AcDbEntity
  8
0
  6
Continuous
 62
     7
370
     0
100
AcDbLine
 10
10.3241272666
 20
9.7976171973
 30
0.0
 11
10.3311294603
 21
9.8016594777
 31
0.0
  0
ARC
  5
244
330
1F
100
AcDbEntity
  8
0
  6
Continuous
 62
     7
370
     0
100
AcDbCircle
 10
10.3894706671
 20
9.5962429507
 30
0.0
 40
0.2117105268479376
100
AcDbArc
 50
104.7408769015
 51
107.977592287
  0
LINE
  5
245
330
1F
100
AcDbEntity
  8
0
  6
Continuous
 62
     7
370
     0
100
AcDbLine
 10
10.3767421128
 20
9.8247353902
 30
0.0
 11
10.3356013546
 21
9.800985336
 31
0.0
  0
ARC
  5
246
330
1F
100
AcDbEntity
  8
0
  6
Continuous
 62
     7
370
     0
100
AcDbCircle
 10
10.4305558177
 20
9.6201887225
 30
0.0
 40
0.2115071017649463
100
AcDbArc
 50
104.7397994447
 51
108.2166037715
  0
LINE
  5
247
330
1F
100
AcDbEntity
  8
0
  6
Continuous
 62
     7
370
     0
100
AcDbLine
 10
10.3445941265
 20
9.803148249
 30
0.0
 11
10.3857348847
 21
9.8268983032
 31
0.0
  0
ARC
  5
248
330
1F
100
AcDbEntity
  8
0
  6
Continuous
 62
     7
370
     0
100
AcDbCircle
 10
10.3923623032
 20
9.5840319865
 30
0.0
 40
0.2242626478389481
100
AcDbArc
 50
98.9546034828
 51
102.2982789415
  0
LINE
  5
249
330
1F
100
AcDbEntity
  8
0
  6
Continuous
 62
     7
370
     0
100
AcDbLine
 10
10.3985961649
 20
9.8293113701
 30
0.0
 11
10.3574554067
 21
9.8055613159
 31
0.0
  0
ARC
  5
24A
330
1F
100
AcDbEntity
  8
0
  6
Continuous
 62
     7
370
     0
100
AcDbCircle
 10
10.4335030614
 20
9.6077820406
 30
0.0
 40
0.2242626478415983
100
AcDbArc
 50
98.9546034828
 51
102.2982789414
  0
LINE
  5
24B
330
1F
100
AcDbEntity
  8
0
  6
Continuous
 62
     7
370
     0
100
AcDbLine
 10
10.4602071242
 20
9.8168506969
 30
0.0
 11
10.4807775033
 21
9.8287257239
 31
0.0
  0
ARC
  5
24C
330
1F
100
AcDbEntity
  8
0
  6
Continuous
 62
     7
370
     0
100
AcDbCircle
 10
10.4126875998
 20
9.5109136233
 30
0.0
 40
0.3096055525311039
100
AcDbArc
 50
81.1711113629
 51
82.8264911196
  0
ARC
  5
24D
330
1F
100
AcDbEntity
  8
0
  6
Continuous
 62
     7
370
     0
100
AcDbCircle
 10
10.4458711831
 20
9.7576388722
 30
0.0
 40
0.060704576637783
100
AcDbArc
 50
84.822323268
 51
121.7990342986
  0
SPLINE
  5
24E
330
1F
100
AcDbEntity
  8
0
  6
Continuous
 62
     7
370
     0
100
AcDbSpline
210
0.0
220
0.0
230
1.0
 70
     8
 71
     3
 72
    13
 73
     9
 74
     0
 42
0.00000001
 43
0.00000001
 40
0.0
 40
0.0
 40
0.0
 40
0.0
 40
0.2500373757116478
 40
0.3803456645216938
 40
0.5001717611999384
 40
0.6231396697076038
 40
0.7503495306896699
 40
0.9999999999999999
 40
0.9999999999999999
 40
0.9999999999999999
 40
0.9999999999999999
 10
10.41367421764062
 20
9.797520628696315
 30
0.0
 10
10.41150980339272
 20
9.797850820348625
 30
0.0
 10
10.40821739331574
 20
9.798353093111087
 30
0.0
 10
10.40569717246171
 20
9.799744589666801
 30
0.0
 10
10.40494416590672
 20
9.801159617167944
 30
0.0
 10
10.4055554687404
 20
9.802924316555211
 30
0.0
 10
10.40805812864352
 20
9.805633736996278
 30
0.0
 10
10.41156217489753
 20
9.807798045258302
 30
0.0
 10
10.41388342423445
 20
9.809231787496246
 30
0.0
  0
ARC
  5
24F
330
1F
100
AcDbEntity
  8
0
  6
Continuous
 62
     7
370
     0
100
AcDbCircle
 10
10.3753023421
 20
9.480276278
 30
0.0
 40
0.3195565346774376
100
AcDbArc
 50
78.15605917
 51
83.1033658227
  0
LINE
  5
250
330
1F
100
AcDbEntity
  8
0
  6
Continuous
 62
     7
370
     0
100
AcDbLine
 10
10.4974588078
 20
9.825685865
 30
0.0
 11
10.4408902653
 21
9.7930295405
 31
0.0
  0
ARC
  5
251
330
1F
100
AcDbEntity
  8
0
  6
Continuous
 62
     7
370
     0
100
AcDbCircle
 10
10.430541621
 20
9.5057655495
 30
0.0
 40
0.3268438743029672
100
AcDbArc
 50
78.1858689715
 51
81.1585954528
  0
LINE
  5
252
330
1F
100
AcDbEntity
  8
0
  6
Continuous
 62
     7
370
     0
100
AcDbLine
 10
10.6469633537
 20
9.7378116022
 30
0.0
 11
10.6665006223
 21
9.7490902273
 31
0.0
  0
ARC
  5
253
330
1F
100
AcDbEntity
  8
0
  6
Continuous
 62
     7
370
     0
100
AcDbCircle
 10
10.6378312693
 20
9.7500883394
 30
0.0
 40
0.0153007594757657
100
AcDbArc
 50
239.1692564336
 51
306.643815366
  0
SPLINE
  5
254
330
1F
100
AcDbEntity
  8
0
  6
Continuous
 62
     7
370
     0
100
AcDbSpline
210
0.0
220
0.0
230
1.0
 70
     8
 71
     3
 72
    13
 73
     9
 74
     0
 42
0.00000001
 43
0.00000001
 40
0.0
 40
0.0
 40
0.0
 40
0.0
 40
0.2859863846271493
 40
0.4003931588150852
 40
0.5002671077715528
 40
0.6204346281958261
 40
0.7504392972668238
 40
1.0
 40
1.0
 40
1.0
 40
1.0
 10
10.63094603159577
 20
9.744990121622955
 30
0.0
 10
10.62997345325874
 20
9.744370262362558
 30
0.0
 10
10.62861180202816
 20
9.74350243291112
 30
0.0
 10
10.62748003477421
 20
9.742156801927402
 30
0.0
 10
10.62705110658489
 20
9.741165240406733
 30
0.0
 10
10.62713111907291
 20
9.740066930507197
 30
0.0
 10
10.62790731331536
 20
9.738541204037736
 30
0.0
 10
10.62916358603965
 20
9.737581079412157
 30
0.0
 10
10.62998957367494
 20
9.736949806398155
 30
0.0
  0
LINE
  5
255
330
1F
100
AcDbEntity
  8
0
  6
Continuous
 62
     7
370
     0
100
AcDbLine
 10
10.6533186147
 20
9.7579055389
 30
0.0
 11
10.6309460316
 21
9.7449901216
 31
0.0
  0
ARC
  5
256
330
1F
100
AcDbEntity
  8
0
  6
Continuous
 62
     7
370
     0
100
AcDbCircle
 10
10.3236521289
 20
9.2513761743
 30
0.0
 40
0.6043608103624097
100
AcDbArc
 50
56.9425569151
 51
58.6691103138
  0
LINE
  5
257
330
1F
100
AcDbEntity
  8
0
  6
Continuous
 62
     7
370
     0
100
AcDbLine
 10
10.6118845735
 20
9.7525855524
 30
0.0
 11
10.6379074805
 21
9.7676082568
 31
0.0
  0
SPLINE
  5
258
330
1F
100
AcDbEntity
  8
0
  6
Continuous
 62
     7
370
     0
100
AcDbSpline
210
0.0
220
0.0
230
1.0
 70
     8
 71
     3
 72
    13
 73
     9
 74
     0
 42
0.00000001
 43
0.00000001
 40
0.0
 40
0.0
 40
0.0
 40
0.0
 40
0.2494533077503939
 40
0.3744959777605777
 40
0.4995513164957612
 40
0.6197807958388627
 40
0.7498057006249782
 40
1.0
 40
1.0
 40
1.0
 40
1.0
 10
10.6103089697454
 20
9.73446760235867
 30
0.0
 10
10.60842194189876
 20
9.735866314090837
 30
0.0
 10
10.60558900957623
 20
9.737966153625804
 30
0.0
 10
10.6038697760294
 20
9.741340381139283
 30
0.0
 10
10.60358820143205
 20
9.743904862066136
 30
0.0
 10
10.6045114054411
 20
9.746415906432265
 30
0.0
 10
10.60699279135281
 20
9.749477428325317
 30
0.0
 10
10.60994315566366
 20
9.751352020868476
 30
0.0
 10
10.61188457346574
 20
9.752585552375608
 30
0.0
  0
ARC
  5
259
330
1F
100
AcDbEntity
  8
0
  6
Continuous
 62
     7
370
     0
100
AcDbCircle
 10
10.6303843891
 20
9.7655625098
 30
0.0
 40
0.0370123727133569
100
AcDbArc
 50
237.1530015281
 51
270.840282758
  0
LINE
  5
25A
330
1F
100
AcDbEntity
  8
0
  6
Continuous
 62
     7
370
     0
100
AcDbLine
 10
10.6099320798
 20
9.7164339028
 30
0.0
 11
10.6309271821
 21
9.7285541174
 31
0.0
  0
ARC
  5
25B
330
1F
100
AcDbEntity
  8
0
  6
Continuous
 62
     7
370
     0
100
AcDbCircle
 10
10.2344550151
 20
9.1699189533
 30
0.0
 40
0.6630698426136786
100
AcDbArc
 50
53.8863495095
 51
55.5094181385
  0
LINE
  5
25C
330
1F
100
AcDbEntity
  8
0
  6
Continuous
 62
     7
370
     0
100
AcDbLine
 10
10.6818295236
 20
9.7382359101
 30
0.0
 11
10.6252609811
 21
9.7055795856
 31
0.0
  0
ARC
  5
25D
330
1F
100
AcDbEntity
  8
0
  6
Continuous
 62
     7
370
     0
100
AcDbCircle
 10
10.2910235576
 20
9.2025752777
 30
0.0
 40
0.6630698426247025
100
AcDbArc
 50
53.8863495095
 51
55.5094181385
  0
ARC
  5
25E
330
1F
100
AcDbEntity
  8
0
  6
Continuous
 62
     7
370
     0
100
AcDbCircle
 10
10.129984079
 20
9.0355470198
 30
0.0
 40
0.8500911324848827
100
AcDbArc
 50
45.2605424556
 51
45.7844702259
  0
LINE
  5
25F
330
1F
100
AcDbEntity
  8
0
  6
Continuous
 62
     7
370
     0
100
AcDbLine
 10
10.7401041604
 20
9.6461651496
 30
0.0
 11
10.7283496581
 21
9.6393794198
 31
0.0
  0
ARC
  5
260
330
1F
100
AcDbEntity
  8
0
  6
Continuous
 62
     7
370
     0
100
AcDbCircle
 10
10.1417385815
 20
9.0423327496
 30
0.0
 40
0.8500911323571415
100
AcDbArc
 50
45.2605424556
 51
45.784470226
  0
LINE
  5
261
330
1F
100
AcDbEntity
  8
0
  6
Continuous
 62
     7
370
     0
100
AcDbLine
 10
10.748837501
 20
9.6598550426
 30
0.0
 11
10.7345576173
 21
9.6516114412
 31
0.0
  0
SPLINE
  5
262
330
1F
100
AcDbEntity
  8
0
  6
Continuous
 62
     7
370
     0
100
AcDbSpline
210
0.0
220
0.0
230
1.0
 70
     8
 71
     3
 72
    13
 73
     9
 74
     0
 42
0.00000001
 43
0.00000001
 40
0.0
 40
0.0
 40
0.0
 40
0.0
 40
0.2500945475837876
 40
0.3790132877217318
 40
0.4995783988418396
 40
0.6244157670479712
 40
0.7495373859023183
 40
1.0
 40
1.0
 40
1.0
 40
1.0
 10
10.75126997113934
 20
9.681760129349758
 30
0.0
 10
10.75322593570899
 20
9.679856340232094
 30
0.0
 10
10.7561901609165
 20
9.676971185879125
 30
0.0
 10
10.75847646636255
 20
9.67250671692588
 30
0.0
 10
10.75860134940302
 20
9.669109573383567
 30
0.0
 10
10.75725004107108
 20
9.666142283339587
 30
0.0
 10
10.75396412265729
 20
9.66296903376956
 30
0.0
 10
10.75088850896088
 20
9.661100857307483
 30
0.0
 10
10.74883750101439
 20
9.659855042602723
 30
0.0
  0
SPLINE
  5
263
330
1F
100
AcDbEntity
  8
0
  6
Continuous
 62
     7
370
     0
100
AcDbSpline
210
0.0
220
0.0
230
1.0
 70
    24
 71
     1
 72
     4
 73
     2
 74
     0
 42
0.00000001
 43
0.00000001
 40
0.0
 40
0.0
 40
1.0
 40
1.0
 10
10.73956156843692
 20
9.690583054232924
 30
0.0
 10
10.75126997113934
 20
9.681760129349758
 30
0.0
  0
SPLINE
  5
264
330
1F
100
AcDbEntity
  8
0
  6
Continuous
 62
     7
370
     0
100
AcDbSpline
210
0.0
220
0.0
230
1.0
 70
    24
 71
     1
 72
     4
 73
     2
 74
     0
 42
0.00000001
 43
0.00000001
 40
0.0
 40
0.0
 40
1.0
 40
1.0
 10
10.72996693808662
 20
9.683345533456453
 30
0.0
 10
10.73956156843692
 20
9.690583054232924
 30
0.0
  0
SPLINE
  5
265
330
1F
100
AcDbEntity
  8
0
  6
Continuous
 62
     7
370
     0
100
AcDbSpline
210
0.0
220
0.0
230
1.0
 70
    24
 71
     1
 72
     4
 73
     2
 74
     0
 42
0.00000001
 43
0.00000001
 40
0.0
 40
0.0
 40
1.0
 40
1.0
 10
10.73579714953357
 20
9.6795115187652
 30
0.0
 10
10.72996693808662
 20
9.683345533456453
 30
0.0
  0
SPLINE
  5
266
330
1F
100
AcDbEntity
  8
0
  6
Continuous
 62
     7
370
     0
100
AcDbSpline
210
0.0
220
0.0
230
1.0
 70
     8
 71
     3
 72
    10
 73
     6
 74
     0
 42
0.00000001
 43
0.00000001
 40
0.0
 40
0.0
 40
0.0
 40
0.0
 40
0.250597623453253
 40
0.5007350246834535
 40
0.9999999999999999
 40
0.9999999999999999
 40
0.9999999999999999
 40
0.9999999999999999
 10
10.737184557065
 20
9.676290474362993
 30
0.0
 10
10.73724618458173
 20
9.676559516325714
 30
0.0
 10
10.73736932643634
 20
9.677097106155925
 30
0.0
 10
10.7370043844286
 20
9.678262976169755
 30
0.0
 10
10.73627984822764
 20
9.679012303672271
 30
0.0
 10
10.73579714953357
 20
9.6795115187652
 30
0.0
  0
SPLINE
  5
267
330
1F
100
AcDbEntity
  8
0
  6
Continuous
 62
     7
370
     0
100
AcDbSpline
210
0.0
220
0.0
230
1.0
 70
     8
 71
     3
 72
     9
 73
     5
 74
     0
 42
0.00000001
 43
0.00000001
 40
0.0
 40
0.0
 40
0.0
 40
0.0
 40
0.5017738075812886
 40
1.0
 40
1.0
 40
1.0
 40
1.0
 10
10.73424685401066
 20
9.673851250484264
 30
0.0
 10
10.73483877590732
 20
9.674186725230646
 30
0.0
 10
10.73601843472512
 20
9.674855302867254
 30
0.0
 10
10.73679677002975
 20
9.675813216634216
 30
0.0
 10
10.737184557065
 20
9.676290474362993
 30
0.0
  0
LINE
  5
268
330
1F
100
AcDbEntity
  8
0
  6
Continuous
 62
     7
370
     0
100
AcDbLine
 10
10.7198751383
 20
9.6655546356
 30
0.0
 11
10.734246854
 21
9.6738512505
 31
0.0
  0
ARC
  5
269
330
1F
100
AcDbEntity
  8
0
  6
Continuous
 62
     7
370
     0
100
AcDbCircle
 10
10.1706782677
 20
9.072883937
 30
0.0
 40
0.8080072769244719
100
AcDbArc
 50
47.1803442525
 51
47.9932910616
  0
LINE
  5
26A
330
1F
100
AcDbEntity
  8
0
  6
Continuous
 62
     7
370
     0
100
AcDbLine
 10
10.6996564713
 20
9.6665013221
 30
0.0
 11
10.7114109736
 21
9.6732870519
 31
0.0
  0
ARC
  5
26B
330
1F
100
AcDbEntity
  8
0
  6
Continuous
 62
     7
370
     0
100
AcDbCircle
 10
10.1589237654
 20
9.0660982072
 30
0.0
 40
0.8080072769089219
100
AcDbArc
 50
47.1803442525
 51
47.9932910616
  0
LINE
  5
26C
330
1F
100
AcDbEntity
  8
0
  6
Continuous
 62
     7
370
     0
100
AcDbLine
 10
10.6926928516
 20
9.6498626355
 30
0.0
 11
10.7081206359
 21
9.6587689058
 31
0.0
  0
SPLINE
  5
26D
330
1F
100
AcDbEntity
  8
0
  6
Continuous
 62
     7
370
     0
100
AcDbSpline
210
0.0
220
0.0
230
1.0
 70
    24
 71
     1
 72
     4
 73
     2
 74
     0
 42
0.00000001
 43
0.00000001
 40
0.0
 40
0.0
 40
1.0
 40
1.0
 10
10.71535323996372
 20
9.64052499014991
 30
0.0
 10
10.69269285160976
 20
9.649862635510253
 30
0.0
  0
LINE
  5
26E
330
1F
100
AcDbEntity
  8
0
  6
Continuous
 62
     7
370
     0
100
AcDbLine
 10
10.722803115
 20
9.6448257115
 30
0.0
 11
10.71535324
 21
9.6405249901
 31
0.0
  0
LINE
  5
26F
330
1F
100
AcDbEntity
  8
0
  6
Continuous
 62
     7
370
     0
100
AcDbLine
 10
10.8233569229
 20
9.5246063004
 30
0.0
 11
10.8666672133
 21
9.5496087988
 31
0.0
  0
SPLINE
  5
270
330
1F
100
AcDbEntity
  8
0
  6
Continuous
 62
     7
370
     0
100
AcDbSpline
210
0.0
220
0.0
230
1.0
 70
    24
 71
     1
 72
     4
 73
     2
 74
     0
 42
0.00000001
 43
0.00000001
 40
0.0
 40
0.0
 40
1.0
 40
1.0
 10
10.85777390534745
 20
9.56160946209466
 30
0.0
 10
10.82335692290466
 20
9.524606300358569
 30
0.0
  0
ARC
  5
271
330
1F
100
AcDbEntity
  8
0
  6
Continuous
 62
     7
370
     0
100
AcDbCircle
 10
10.0682361621
 20
8.9673322862
 30
0.0
 40
0.9881979608596535
100
AcDbArc
 50
36.9684113158
 51
38.0263445289
  0
SPLINE
  5
272
330
1F
100
AcDbEntity
  8
0
  6
Continuous
 62
     7
370
     0
100
AcDbSpline
210
0.0
220
0.0
230
1.0
 70
    24
 71
     1
 72
     4
 73
     2
 74
     0
 42
0.00000001
 43
0.00000001
 40
0.0
 40
0.0
 40
1.0
 40
1.0
 10
10.7941337501038
 20
9.56269365259767
 30
0.0
 10
10.84666696016937
 20
9.576085686534086
 30
0.0
  0
LINE
  5
273
330
1F
100
AcDbEntity
  8
0
  6
Continuous
 62
     7
370
     0
100
AcDbLine
 10
10.8374440405
 20
9.587696151
 30
0.0
 11
10.7941337501
 21
9.5626936526
 31
0.0
  0
ARC
  5
274
330
1F
100
AcDbEntity
  8
0
  6
Continuous
 62
     7
370
     0
100
AcDbCircle
 10
10.0906200858
 20
8.9851505859
 30
0.0
 40
0.9595869826606929
100
AcDbArc
 50
38.896961041
 51
40.1051295263
  0
LINE
  5
275
330
1F
100
AcDbEntity
  8
0
  6
Continuous
 62
     7
370
     0
100
AcDbLine
 10
10.7680048234
 20
9.570652623
 30
0.0
 11
10.8245733659
 21
9.6033089474
 31
0.0
  0
ARC
  5
276
330
1F
100
AcDbEntity
  8
0
  6
Continuous
 62
     7
370
     0
100
AcDbCircle
 10
10.0298834574
 20
8.94904819
 30
0.0
 40
0.9649949336972474
100
AcDbArc
 50
38.182042618
 51
40.1022039839
  0
SPLINE
  5
277
330
1F
100
AcDbEntity
  8
0
  6
Continuous
 62
     7
370
     0
100
AcDbSpline
210
0.0
220
0.0
230
1.0
 70
    24
 71
     1
 72
     4
 73
     2
 74
     0
 42
0.00000001
 43
0.00000001
 40
0.0
 40
0.0
 40
1.0
 40
1.0
 10
10.82997858116138
 20
9.556090002512533
 30
0.0
 10
10.78841837478382
 20
9.54557145117851
 30
0.0
  0
SPLINE
  5
278
330
1F
100
AcDbEntity
  8
0
  6
Continuous
 62
     7
370
     0
100
AcDbSpline
210
0.0
220
0.0
230
1.0
 70
    24
 71
     1
 72
     4
 73
     2
 74
     0
 42
0.00000001
 43
0.00000001
 40
0.0
 40
0.0
 40
1.0
 40
1.0
 10
10.80277151243268
 20
9.526866808190734
 30
0.0
 10
10.82997858116138
 20
9.556090002512533
 30
0.0
  0
ARC
  5
279
330
1F
100
AcDbEntity
  8
0
  6
Continuous
 62
     7
370
     0
100
AcDbCircle
 10
9.996510768
 20
8.9233477926
 30
0.0
 40
1.007120444747037
100
AcDbArc
 50
34.9437199743
 51
36.8163501709
  0
LINE
  5
27A
330
1F
100
AcDbEntity
  8
0
  6
Continuous
 62
     7
370
     0
100
AcDbLine
 10
10.8786311032
 20
9.532854035
 30
0.0
 11
10.8220625607
 21
9.5001977105
 31
0.0
  0
ARC
  5
27B
330
1F
100
AcDbEntity
  8
0
  6
Continuous
 62
     7
370
     0
100
AcDbCircle
 10
10.050074307
 20
8.9538644393
 30
0.0
 40
1.010809238381869
100
AcDbArc
 50
34.9455760991
 51
36.1125751424
  0
LINE
  5
27C
330
1F
100
AcDbEntity
  8
0
  6
Continuous
 62
     7
370
     0
100
AcDbLine
 10
10.9293684995
 20
9.4138002467
 30
0.0
 11
10.9455309402
 21
9.4231306251
 31
0.0
  0
ARC
  5
27D
330
1F
100
AcDbEntity
  8
0
  6
Continuous
 62
     7
370
     0
100
AcDbCircle
 10
10.0168079192
 20
8.9323038536
 30
0.0
 40
1.031797261731329
100
AcDbArc
 50
26.6089012345
 51
27.8175744763
  0
LINE
  5
27E
330
1F
100
AcDbEntity
  8
0
  6
Continuous
 62
     7
370
     0
100
AcDbLine
 10
10.955484468
 20
9.4037741563
 30
0.0
 11
10.9393220273
 21
9.3944437779
 31
0.0
  0
ARC
  5
27F
330
1F
100
AcDbEntity
  8
0
  6
Continuous
 62
     7
370
     0
100
AcDbCircle
 10
10.0329703598
 20
8.941634232
 30
0.0
 40
1.031797261766037
100
AcDbArc
 50
26.6089012345
 51
27.8175744763
  0
LINE
  5
280
330
1F
100
AcDbEntity
  8
0
  6
Continuous
 62
     7
370
     0
100
AcDbLine
 10
10.538778211
 20
9.8894820546
 30
0.0
 11
10.5583154795
 21
9.9007606796
 31
0.0
  0
ARC
  5
281
330
1F
100
AcDbEntity
  8
0
  6
Continuous
 62
     7
370
     0
100
AcDbCircle
 10
10.5195192951
 20
9.9184070838
 30
0.0
 40
0.0347500094351683
100
AcDbArc
 50
274.9793589331
 51
303.6565430399
  0
SPLINE
  5
282
330
1F
100
AcDbEntity
  8
0
  6
Continuous
 62
     7
370
     0
100
AcDbSpline
210
0.0
220
0.0
230
1.0
 70
     8
 71
     3
 72
    13
 73
     9
 74
     0
 42
0.00000001
 43
0.00000001
 40
0.0
 40
0.0
 40
0.0
 40
0.0
 40
0.2859863846178854
 40
0.4003931588081737
 40
0.5002671077710305
 40
0.6204346281865747
 40
0.7504392972666704
 40
1.0
 40
1.0
 40
1.0
 40
1.0
 10
10.52416315753929
 20
9.887708050193888
 30
0.0
 10
10.52318510469599
 20
9.887120620555914
 30
0.0
 10
10.52181578892269
 20
9.886298193961581
 30
0.0
 10
10.5206197802922
 20
9.885336176125593
 30
0.0
 10
10.52012223883265
 20
9.884756342769972
 30
0.0
 10
10.52009776429748
 20
9.884290134907223
 30
0.0
 10
10.52069607523623
 20
9.883851703249366
 30
0.0
 10
10.52180583186645
 20
9.883813402280893
 30
0.0
 10
10.5225354865322
 20
9.88378821975025
 30
0.0
  0
LINE
  5
283
330
1F
100
AcDbEntity
  8
0
  6
Continuous
 62
     7
370
     0
100
AcDbLine
 10
10.5465357406
 20
9.9006234675
 30
0.0
 11
10.5241631575
 21
9.8877080502
 31
0.0
  0
ARC
  5
284
330
1F
100
AcDbEntity
  8
0
  6
Continuous
 62
     7
370
     0
100
AcDbCircle
 10
10.5550166419
 20
9.6532162185
 30
0.0
 40
0.2475525651725313
100
AcDbArc
 50
91.9632798193
 51
95.0937874878
  0
LINE
  5
285
330
1F
100
AcDbEntity
  8
0
  6
Continuous
 62
     7
370
     0
100
AcDbLine
 10
10.5070144594
 20
9.8847684195
 30
0.0
 11
10.5330373664
 21
9.8997911239
 31
0.0
  0
SPLINE
  5
286
330
1F
100
AcDbEntity
  8
0
  6
Continuous
 62
     7
370
     0
100
AcDbSpline
210
0.0
220
0.0
230
1.0
 70
     8
 71
     3
 72
    13
 73
     9
 74
     0
 42
0.00000001
 43
0.00000001
 40
0.0
 40
0.0
 40
0.0
 40
0.0
 40
0.2494610831738676
 40
0.3766049575119531
 40
0.4996281366121634
 40
0.6186892926530081
 40
0.7498727238261005
 40
0.9999999999999999
 40
0.9999999999999999
 40
0.9999999999999999
 40
0.9999999999999999
 10
10.50372775260287
 20
9.876415405433557
 30
0.0
 10
10.50206629291525
 20
9.876418487303807
 30
0.0
 10
10.49955803011489
 20
9.876423139923766
 30
0.0
 10
10.49824115150555
 20
9.87730092407568
 30
0.0
 10
10.49824787554645
 20
9.878306124179351
 30
0.0
 10
10.49936884444492
 20
9.879673124802673
 30
0.0
 10
10.50206782257272
 20
9.881809487099849
 30
0.0
 10
10.50505498145142
 20
9.883596317511069
 30
0.0
 10
10.50701445937698
 20
9.884768419461347
 30
0.0
  0
ARC
  5
287
330
1F
100
AcDbEntity
  8
0
  6
Continuous
 62
     7
370
     0
100
AcDbCircle
 10
10.4995830925
 20
9.947685833
 30
0.0
 40
0.0713908401182001
100
AcDbArc
 50
273.3282299477
 51
290.8754389193
  0
LINE
  5
288
330
1F
100
AcDbEntity
  8
0
  6
Continuous
 62
     7
370
     0
100
AcDbLine
 10
10.5181234433
 20
9.8769986393
 30
0.0
 11
10.525022326
 21
9.8809812795
 31
0.0
  0
ARC
  5
289
330
1F
100
AcDbEntity
  8
0
  6
Continuous
 62
     7
370
     0
100
AcDbCircle
 10
10.5141166448
 20
9.60300214
 30
0.0
 40
0.2740257945423649
100
AcDbArc
 50
86.4369829998
 51
89.1621926527
  0
LINE
  5
28A
330
1F
100
AcDbEntity
  8
0
  6
Continuous
 62
     7
370
     0
100
AcDbLine
 10
10.5722870936
 20
9.9002483106
 30
0.0
 11
10.5311463354
 21
9.8764982564
 31
0.0
  0
ARC
  5
28B
330
1F
100
AcDbEntity
  8
0
  6
Continuous
 62
     7
370
     0
100
AcDbCircle
 10
10.5552815781
 20
9.6272805327
 30
0.0
 40
0.273496974953883
100
AcDbArc
 50
86.4351591683
 51
89.3644049771
  0
ARC
  5
28C
330
1F
100
AcDbEntity
  8
0
  6
Continuous
 62
     7
370
     0
100
AcDbCircle
 10
10.6376548077
 20
9.8236930961
 30
0.0
 40
0.0633655487615891
100
AcDbArc
 50
76.5438843135
 51
126.2934945327
  0
SPLINE
  5
28D
330
1F
100
AcDbEntity
  8
0
  6
Continuous
 62
     7
370
     0
100
AcDbSpline
210
0.0
220
0.0
230
1.0
 70
    24
 71
     1
 72
     4
 73
     2
 74
     0
 42
0.00000001
 43
0.00000001
 40
0.0
 40
0.0
 40
1.0
 40
1.0
 10
10.58860763039865
 20
9.86682367401452
 30
0.0
 10
10.60014736635049
 20
9.874765442915484
 30
0.0
  0
SPLINE
  5
28E
330
1F
100
AcDbEntity
  8
0
  6
Continuous
 62
     7
370
     0
100
AcDbSpline
210
0.0
220
0.0
230
1.0
 70
     8
 71
     3
 72
    12
 73
     8
 74
     0
 42
0.00000001
 43
0.00000001
 40
0.0
 40
0.0
 40
0.0
 40
0.0
 40
0.2503309494299817
 40
0.4997648043321525
 40
0.6249322238031079
 40
0.7501904501281085
 40
1.0
 40
1.0
 40
1.0
 40
1.0
 10
10.59394791375664
 20
9.851945435533318
 30
0.0
 10
10.59167644636789
 20
9.85272571303478
 30
0.0
 10
10.58714165169839
 20
9.854283471808632
 30
0.0
 10
10.58396248356198
 20
9.857240884130572
 30
0.0
 10
10.58370617764219
 20
9.860048680670419
 30
0.0
 10
10.58455702947856
 20
9.86301784148715
 30
0.0
 10
10.58698830649243
 20
9.865302202085733
 30
0.0
 10
10.58860763039865
 20
9.86682367401452
 30
0.0
  0
ARC
  5
28F
330
1F
100
AcDbEntity
  8
0
  6
Continuous
 62
     7
370
     0
100
AcDbCircle
 10
10.6111681801
 20
9.9112570794
 30
0.0
 40
0.0617608992234706
100
AcDbArc
 50
253.8101194916
 51
304.5342908255
  0
SPLINE
  5
290
330
1F
100
AcDbEntity
  8
0
  6
Continuous
 62
     7
370
     0
100
AcDbSpline
210
0.0
220
0.0
230
1.0
 70
     8
 71
     3
 72
     9
 73
     5
 74
     0
 42
0.00000001
 43
0.00000001
 40
0.0
 40
0.0
 40
0.0
 40
0.0
 40
0.4986702672090071
 40
1.0
 40
1.0
 40
1.0
 40
1.0
 10
10.66221261362481
 20
9.873766424404154
 30
0.0
 10
10.66033823453683
 20
9.871381341479825
 30
0.0
 10
10.65657948008277
 20
9.866598455711083
 30
0.0
 10
10.6496528967819
 20
9.8624559909569
 30
0.0
 10
10.64618039462652
 20
9.860379250208586
 30
0.0
  0
SPLINE
  5
291
330
1F
100
AcDbEntity
  8
0
  6
Continuous
 62
     7
370
     0
100
AcDbSpline
210
0.0
220
0.0
230
1.0
 70
     8
 71
     3
 72
    10
 73
     6
 74
     0
 42
0.00000001
 43
0.00000001
 40
0.0
 40
0.0
 40
0.0
 40
0.0
 40
0.499206798160621
 40
0.7495375815250988
 40
1.0
 40
1.0
 40
1.0
 40
1.0
 10
10.65240000461887
 20
9.885319161462395
 30
0.0
 10
10.65581312672273
 20
9.884009922070588
 30
0.0
 10
10.66093778307076
 20
9.882044155316235
 30
0.0
 10
10.66325474075624
 20
9.877511880454701
 30
0.0
 10
10.66256005020251
 20
9.875015128514105
 30
0.0
 10
10.66221261362481
 20
9.873766424404154
 30
0.0
  0
LINE
  5
292
330
1F
100
AcDbEntity
  8
0
  6
Continuous
 62
     7
370
     0
100
AcDbLine
 10
10.704489393
 20
9.8348123339
 30
0.0
 11
10.7169785518
 21
9.8420221718
 31
0.0
  0
ARC
  5
293
330
1F
100
AcDbEntity
  8
0
  6
Continuous
 62
     7
370
     0
100
AcDbCircle
 10
10.4370294669
 20
9.3404323954
 30
0.0
 40
0.5620910386885993
100
AcDbArc
 50
58.8253335534
 51
61.5865779267
  0
LINE
  5
294
330
1F
100
AcDbEntity
  8
0
  6
Continuous
 62
     7
370
     0
100
AcDbLine
 10
10.7404843526
 20
9.8285635173
 30
0.0
 11
10.7279951939
 21
9.8213536795
 31
0.0
  0
ARC
  5
295
330
1F
100
AcDbEntity
  8
0
  6
Continuous
 62
     7
370
     0
100
AcDbCircle
 10
10.4495186256
 20
9.3476422332
 30
0.0
 40
0.5620910386914284
100
AcDbArc
 50
58.8253335534
 51
61.5865779267
  0
ARC
  5
296
330
1F
100
AcDbEntity
  8
0
  6
Continuous
 62
     7
370
     0
100
AcDbCircle
 10
10.8089141515
 20
9.748264821
 30
0.0
 40
0.0418725581369781
100
AcDbArc
 50
49.5748083771
 51
127.385078578
  0
SPLINE
  5
297
330
1F
100
AcDbEntity
  8
0
  6
Continuous
 62
     7
370
     0
100
AcDbSpline
210
0.0
220
0.0
230
1.0
 70
    24
 71
     1
 72
     4
 73
     2
 74
     0
 42
0.00000001
 43
0.00000001
 40
0.0
 40
0.0
 40
1.0
 40
1.0
 10
10.77199075347756
 20
9.772768673842725
 30
0.0
 10
10.78349043509341
 20
9.781535615575997
 30
0.0
  0
SPLINE
  5
298
330
1F
100
AcDbEntity
  8
0
  6
Continuous
 62
     7
370
     0
100
AcDbSpline
210
0.0
220
0.0
230
1.0
 70
     8
 71
     3
 72
    12
 73
     8
 74
     0
 42
0.00000001
 43
0.00000001
 40
0.0
 40
0.0
 40
0.0
 40
0.0
 40
0.2503309494299796
 40
0.4997648043321507
 40
0.6249322238031049
 40
0.7501904501281068
 40
1.0
 40
1.0
 40
1.0
 40
1.0
 10
10.77761368774261
 20
9.74697951580817
 30
0.0
 10
10.77533181133957
 20
9.748976572189596
 30
0.0
 10
10.7707762359436
 20
9.752963528233092
 30
0.0
 10
10.76751672919747
 20
9.758844139541997
 30
0.0
 10
10.76719614368121
 20
9.763489948212616
 30
0.0
 10
10.76798420451222
 20
9.768021293401882
 30
0.0
 10
10.77038904038634
 20
9.770870795776867
 30
0.0
 10
10.77199075347756
 20
9.772768673842725
 30
0.0
  0
ARC
  5
299
330
1F
100
AcDbEntity
  8
0
  6
Continuous
 62
     7
370
     0
100
AcDbCircle
 10
10.805674921
 20
9.7771444
 30
0.0
 40
0.0411989447902823
100
AcDbArc
 50
227.0691388054
 51
305.5125630189
  0
SPLINE
  5
29A
330
1F
100
AcDbEntity
  8
0
  6
Continuous
 62
     7
370
     0
100
AcDbSpline
210
0.0
220
0.0
230
1.0
 70
     8
 71
     3
 72
     9
 73
     5
 74
     0
 42
0.00000001
 43
0.00000001
 40
0.0
 40
0.0
 40
0.0
 40
0.0
 40
0.4986702672090044
 40
1.0
 40
1.0
 40
1.0
 40
1.0
 10
10.84572663246645
 20
9.759140917893943
 30
0.0
 10
10.84382530749576
 20
9.756077702076498
 30
0.0
 10
10.84001251757081
 20
9.749934933961226
 30
0.0
 10
10.83308139939955
 20
9.74572134417368
 30
0.0
 10
10.8296066237788
 20
9.743608946331397
 30
0.0
  0
SPLINE
  5
29B
330
1F
100
AcDbEntity
  8
0
  6
Continuous
 62
     7
370
     0
100
AcDbSpline
210
0.0
220
0.0
230
1.0
 70
     8
 71
     3
 72
    10
 73
     6
 74
     0
 42
0.00000001
 43
0.00000001
 40
0.0
 40
0.0
 40
0.0
 40
0.0
 40
0.4992067981606271
 40
0.7495375815251004
 40
1.0
 40
1.0
 40
1.0
 40
1.0
 10
10.83606660730218
 20
9.780140442851835
 30
0.0
 10
10.83947376471085
 20
9.776976555901285
 30
0.0
 10
10.84458946532506
 20
9.772226115438793
 30
0.0
 10
10.84682557360939
 20
9.76454212196448
 30
0.0
 10
10.8460930103663
 20
9.760941634717357
 30
0.0
 10
10.84572663246645
 20
9.759140917893943
 30
0.0
  0
ARC
  5
29C
330
1F
100
AcDbEntity
  8
0
  6
Continuous
 62
     7
370
     0
100
AcDbCircle
 10
10.167601266
 20
9.0253695125
 30
0.0
 40
0.9838940749619419
100
AcDbArc
 50
37.7646986124
 51
37.8900167539
  0
ARC
  5
29D
330
1F
100
AcDbEntity
  8
0
  6
Continuous
 62
     7
370
     0
100
AcDbCircle
 10
10.9526824811
 20
9.6366189403
 30
0.0
 40
0.0110849974576786
100
AcDbArc
 50
188.0670853312
 51
219.1140187466
  0
SPLINE
  5
29E
330
1F
100
AcDbEntity
  8
0
  6
Continuous
 62
     7
370
     0
100
AcDbSpline
210
0.0
220
0.0
230
1.0
 70
    24
 71
     1
 72
     4
 73
     2
 74
     0
 42
0.00000001
 43
0.00000001
 40
0.0
 40
0.0
 40
1.0
 40
1.0
 10
10.94331084815947
 20
9.641002453337638
 30
0.0
 10
10.9417071759044
 20
9.635063355263926
 30
0.0
  0
SPLINE
  5
29F
330
1F
100
AcDbEntity
  8
0
  6
Continuous
 62
     7
370
     0
100
AcDbSpline
210
0.0
220
0.0
230
1.0
 70
    24
 71
     1
 72
     4
 73
     2
 74
     0
 42
0.00000001
 43
0.00000001
 40
0.0
 40
0.0
 40
1.0
 40
1.0
 10
10.95239763791857
 20
9.660904220121624
 30
0.0
 10
10.94331084815946
 20
9.641002453337638
 30
0.0
  0
ARC
  5
2A0
330
1F
100
AcDbEntity
  8
0
  6
Continuous
 62
     7
370
     0
100
AcDbCircle
 10
10.2163806192
 20
9.0595261666
 30
0.0
 40
0.9504612643595948
100
AcDbArc
 50
39.2512569611
 51
40.8974410041
  0
SPLINE
  5
2A1
330
1F
100
AcDbEntity
  8
0
  6
Continuous
 62
     7
370
     0
100
AcDbSpline
210
0.0
220
0.0
230
1.0
 70
    24
 71
     1
 72
     4
 73
     2
 74
     0
 42
0.00000001
 43
0.00000001
 40
0.0
 40
0.0
 40
1.0
 40
1.0
 10
10.92646318202086
 20
9.663399922957671
 30
0.0
 10
10.93481785647631
 20
9.681799861363395
 30
0.0
  0
SPLINE
  5
2A2
330
1F
100
AcDbEntity
  8
0
  6
Continuous
 62
     7
370
     0
100
AcDbSpline
210
0.0
220
0.0
230
1.0
 70
    24
 71
     1
 72
     4
 73
     2
 74
     0
 42
0.00000001
 43
0.00000001
 40
0.0
 40
0.0
 40
1.0
 40
1.0
 10
10.9244619270339
 20
9.654120944820308
 30
0.0
 10
10.92646318202086
 20
9.663399922957671
 30
0.0
  0
SPLINE
  5
2A3
330
1F
100
AcDbEntity
  8
0
  6
Continuous
 62
     7
370
     0
100
AcDbSpline
210
0.0
220
0.0
230
1.0
 70
    24
 71
     1
 72
     4
 73
     2
 74
     0
 42
0.00000001
 43
0.00000001
 40
0.0
 40
0.0
 40
1.0
 40
1.0
 10
10.92629380393151
 20
9.648106684047464
 30
0.0
 10
10.9244619270339
 20
9.654120944820308
 30
0.0
  0
SPLINE
  5
2A4
330
1F
100
AcDbEntity
  8
0
  6
Continuous
 62
     7
370
     0
100
AcDbSpline
210
0.0
220
0.0
230
1.0
 70
    24
 71
     1
 72
     4
 73
     2
 74
     0
 42
0.00000001
 43
0.00000001
 40
0.0
 40
0.0
 40
1.0
 40
1.0
 10
10.91851194850278
 20
9.653487065655106
 30
0.0
 10
10.92629380393151
 20
9.648106684047464
 30
0.0
  0
ARC
  5
2A5
330
1F
100
AcDbEntity
  8
0
  6
Continuous
 62
     7
370
     0
100
AcDbCircle
 10
10.9080511488
 20
9.6341272168
 30
0.0
 40
0.0220052738820579
100
AcDbArc
 50
61.6161047028
 51
117.3125962263
  0
SPLINE
  5
2A6
330
1F
100
AcDbEntity
  8
0
  6
Continuous
 62
     7
370
     0
100
AcDbSpline
210
0.0
220
0.0
230
1.0
 70
     8
 71
     3
 72
    14
 73
    10
 74
     0
 42
0.00000001
 43
0.00000001
 40
0.0
 40
0.0
 40
0.0
 40
0.0
 40
0.2503552942231724
 40
0.3755117362839431
 40
0.5003668258907235
 40
0.6248775190321721
 40
0.7504411376307629
 40
0.8747830016610376
 40
1.0
 40
1.0
 40
1.0
 40
1.0
 10
10.9015532698614
 20
9.621175400755426
 30
0.0
 10
10.89935013323643
 20
9.623999524880883
 30
0.0
 10
10.89604561490427
 20
9.628235471866237
 30
0.0
 10
10.89242831815512
 20
9.634187393534212
 30
0.0
 10
10.89062151200249
 20
9.638877093166565
 30
0.0
 10
10.89041911932199
 20
9.643528171904888
 30
0.0
 10
10.89164772677456
 20
9.647731640715456
 30
0.0
 10
10.8942286914423
 20
9.651233528965284
 30
0.0
 10
10.8967094247535
 20
9.652862114702586
 30
0.0
 10
10.8979541410339
 20
9.653679263072421
 30
0.0
  0
ARC
  5
2A7
330
1F
100
AcDbEntity
  8
0
  6
Continuous
 62
     7
370
     0
100
AcDbCircle
 10
10.1308717251
 20
9.0035262427
 30
0.0
 40
0.9876439266611312
100
AcDbArc
 50
36.3423313975
 51
38.7098161843
  0
LINE
  5
2A8
330
1F
100
AcDbEntity
  8
0
  6
Continuous
 62
     7
370
     0
100
AcDbLine
 10
10.9829782357
 20
9.6214687085
 30
0.0
 11
10.9264096932
 21
9.5888123841
 31
0.0
  0
ARC
  5
2A9
330
1F
100
AcDbEntity
  8
0
  6
Continuous
 62
     7
370
     0
100
AcDbCircle
 10
10.1825560998
 20
9.0325052129
 30
0.0
 40
0.9937573117879385
100
AcDbArc
 50
36.3462332711
 51
37.7625986553
  0
LINE
  5
2AA
330
1F
100
AcDbEntity
  8
0
  6
Continuous
 62
     7
370
     0
100
AcDbLine
 10
10.945401499
 20
9.627926023
 30
0.0
 11
10.9681758472
 21
9.6410733744
 31
0.0
  0
SPLINE
  5
2AB
330
1F
100
AcDbEntity
  8
0
  6
Continuous
 62
     7
370
     0
100
AcDbSpline
210
0.0
220
0.0
230
1.0
 70
    24
 71
     1
 72
     4
 73
     2
 74
     0
 42
0.00000001
 43
0.00000001
 40
0.0
 40
0.0
 40
1.0
 40
1.0
 10
11.04770443075788
 20
9.520001717701092
 30
0.0
 10
11.0539100795904
 20
9.510821885214826
 30
0.0
  0
SPLINE
  5
2AC
330
1F
100
AcDbEntity
  8
0
  6
Continuous
 62
     7
370
     0
100
AcDbSpline
210
0.0
220
0.0
230
1.0
 70
    24
 71
     1
 72
     4
 73
     2
 74
     0
 42
0.00000001
 43
0.00000001
 40
0.0
 40
0.0
 40
1.0
 40
1.0
 10
11.04113140094384
 20
9.527022671516596
 30
0.0
 10
11.04770443075788
 20
9.520001717701092
 30
0.0
  0
ARC
  5
2AD
330
1F
100
AcDbEntity
  8
0
  6
Continuous
 62
     7
370
     0
100
AcDbCircle
 10
11.0304517833
 20
9.5124422553
 30
0.0
 40
0.0180732611759871
100
AcDbArc
 50
53.7785976014
 51
118.3813949855
  0
ARC
  5
2AE
330
1F
100
AcDbEntity
  8
0
  6
Continuous
 62
     7
370
     0
100
AcDbCircle
 10
11.0316734271
 20
9.5136507566
 30
0.0
 40
0.0176678579044599
100
AcDbArc
 50
123.7376197007
 51
209.8344443742
  0
SPLINE
  5
2AF
330
1F
100
AcDbEntity
  8
0
  6
Continuous
 62
     7
370
     0
100
AcDbSpline
210
0.0
220
0.0
230
1.0
 70
     8
 71
     3
 72
     9
 73
     5
 74
     0
 42
0.00000001
 43
0.00000001
 40
0.0
 40
0.0
 40
0.0
 40
0.0
 40
0.4993318956962089
 40
1.0
 40
1.0
 40
1.0
 40
1.0
 10
11.00823182572646
 20
9.51042941594345
 30
0.0
 10
11.00970441983569
 20
9.509765019609496
 30
0.0
 10
11.01265354870552
 20
9.508434449021712
 30
0.0
 10
11.0151148544163
 20
9.506053260948484
 30
0.0
 10
11.01634715168064
 20
9.50486107602987
 30
0.0
  0
SPLINE
  5
2B0
330
1F
100
AcDbEntity
  8
0
  6
Continuous
 62
     7
370
     0
100
AcDbSpline
210
0.0
220
0.0
230
1.0
 70
     8
 71
     3
 72
     9
 73
     5
 74
     0
 42
0.00000001
 43
0.00000001
 40
0.0
 40
0.0
 40
0.0
 40
0.0
 40
0.5001300021535787
 40
1.0
 40
1.0
 40
1.0
 40
1.0
 10
10.9975874945825
 20
9.509532695954233
 30
0.0
 10
10.99922790932753
 20
9.51027200997801
 30
0.0
 10
11.00250788600951
 20
9.511750253675835
 30
0.0
 10
11.00632417657147
 20
9.510869618864632
 30
0.0
 10
11.00823182572646
 20
9.51042941594345
 30
0.0
  0
SPLINE
  5
2B1
330
1F
100
AcDbEntity
  8
0
  6
Continuous
 62
     7
370
     0
100
AcDbSpline
210
0.0
220
0.0
230
1.0
 70
     8
 71
     3
 72
    13
 73
     9
 74
     0
 42
0.00000001
 43
0.00000001
 40
0.0
 40
0.0
 40
0.0
 40
0.0
 40
0.2502329787225977
 40
0.499406625542572
 40
0.6257013607140253
 40
0.7496002874219017
 40
0.8740371171764137
 40
1.0
 40
1.0
 40
1.0
 40
1.0
 10
10.99573867516062
 20
9.481044038282079
 30
0.0
 10
10.99442739442184
 20
9.48360544330871
 30
0.0
 10
10.99181038409714
 20
9.488717409954866
 30
0.0
 10
10.99053536470919
 20
9.49581108117838
 30
0.0
 10
10.99120603524094
 20
9.501054841323766
 30
0.0
 10
10.9925467896397
 20
9.50458466645475
 30
0.0
 10
10.99465954354821
 20
9.507552999519975
 30
0.0
 10
10.99660755354279
 20
9.508870121423655
 30
0.0
 10
10.9975874945825
 20
9.509532695954233
 30
0.0
  0
ARC
  5
2B2
330
1F
100
AcDbEntity
  8
0
  6
Continuous
 62
     7
370
     0
100
AcDbCircle
 10
10.0924179473
 20
8.9761204564
 30
0.0
 40
1.034860454849248
100
AcDbArc
 50
26.668205735
 51
29.2036098197
  0
LINE
  5
2B3
330
1F
100
AcDbEntity
  8
0
  6
Continuous
 62
     7
370
     0
100
AcDbLine
 10
11.0737590942
 20
9.4732461459
 30
0.0
 11
11.0171905517
 21
9.4405898214
 31
0.0
  0
ARC
  5
2B4
330
1F
100
AcDbEntity
  8
0
  6
Continuous
 62
     7
370
     0
100
AcDbCircle
 10
10.1492712006
 20
9.0089249044
 30
0.0
 40
1.034539550109019
100
AcDbArc
 50
26.6679520061
 51
29.0216745914
  0
LINE
  5
2B5
330
1F
100
AcDbEntity
  8
0
  6
Continuous
 62
     7
370
     0
100
AcDbLine
 10
10.979148534
 20
10.0873351601
 30
0.0
 11
10.9998566612
 21
10.0992897074
 31
0.0
  0
ARC
  5
2B6
330
1F
100
AcDbEntity
  8
0
  6
Continuous
 62
     7
370
     0
100
AcDbCircle
 10
10.9674758379
 20
10.1042784543
 30
0.0
 40
0.0205749131878726
100
AcDbArc
 50
260.7559595953
 51
304.5640128223
  0
SPLINE
  5
2B7
330
1F
100
AcDbEntity
  8
0
  6
Continuous
 62
     7
370
     0
100
AcDbSpline
210
0.0
220
0.0
230
1.0
 70
     8
 71
     3
 72
    11
 73
     7
 74
     0
 42
0.00000001
 43
0.00000001
 40
0.0
 40
0.0
 40
0.0
 40
0.0
 40
0.2500620333659289
 40
0.4999138376966767
 40
0.7498401673007572
 40
1.0
 40
1.0
 40
1.0
 40
1.0
 10
10.96285875969192
 20
10.08708326252307
 30
0.0
 10
10.96258610518206
 20
10.08675233598514
 30
0.0
 10
10.96204102538504
 20
10.08609076112172
 30
0.0
 10
10.96205651629813
 20
10.0851740813484
 30
0.0
 10
10.96274067421502
 20
10.08441813860191
 30
0.0
 10
10.96369386696488
 20
10.08411992318192
 30
0.0
 10
10.96417068587491
 20
10.0839707458497
 30
0.0
  0
SPLINE
  5
2B8
330
1F
100
AcDbEntity
  8
0
  6
Continuous
 62
     7
370
     0
100
AcDbSpline
210
0.0
220
0.0
230
1.0
 70
    24
 71
     1
 72
     4
 73
     2
 74
     0
 42
0.00000001
 43
0.00000001
 40
0.0
 40
0.0
 40
1.0
 40
1.0
 10
10.96618932322948
 20
10.08925688697507
 30
0.0
 10
10.96285875969192
 20
10.08708326252307
 30
0.0
  0
LINE
  5
2B9
330
1F
100
AcDbEntity
  8
0
  6
Continuous
 62
     7
370
     0
100
AcDbLine
 10
10.9885389483
 20
10.1021590509
 30
0.0
 11
10.9661893232
 21
10.089256887
 31
0.0
  0
ARC
  5
2BA
330
1F
100
AcDbEntity
  8
0
  6
Continuous
 62
     7
370
     0
100
AcDbCircle
 10
10.9101379323
 20
9.7705784247
 30
0.0
 40
0.3407233936036953
100
AcDbArc
 50
76.6969434655
 51
79.2269314282
  0
LINE
  5
2BB
330
1F
100
AcDbEntity
  8
0
  6
Continuous
 62
     7
370
     0
100
AcDbLine
 10
10.9528307028
 20
10.0931764287
 30
0.0
 11
10.9738258051
 21
10.1052966432
 31
0.0
  0
ARC
  5
2BC
330
1F
100
AcDbEntity
  8
0
  6
Continuous
 62
     7
370
     0
100
AcDbCircle
 10
10.9403516771
 20
10.1115721448
 30
0.0
 40
0.0222290003084066
100
AcDbArc
 50
264.7209669822
 51
304.1516287583
  0
SPLINE
  5
2BD
330
1F
100
AcDbEntity
  8
0
  6
Continuous
 62
     7
370
     0
100
AcDbSpline
210
0.0
220
0.0
230
1.0
 70
     8
 71
     3
 72
    10
 73
     6
 74
     0
 42
0.00000001
 43
0.00000001
 40
0.0
 40
0.0
 40
0.0
 40
0.0
 40
0.4988226573033123
 40
0.7491700015752415
 40
1.0
 40
1.0
 40
1.0
 40
1.0
 10
10.9365279052267
 20
10.09129465725388
 30
0.0
 10
10.9364677029775
 20
10.09087279635077
 30
0.0
 10
10.9363772866372
 20
10.09023921339536
 30
0.0
 10
10.93725783571543
 20
10.0896772000099
 30
0.0
 10
10.93795670169509
 20
10.08951740482116
 30
0.0
 10
10.93830647120309
 20
10.08943743028216
 30
0.0
  0
SPLINE
  5
2BE
330
1F
100
AcDbEntity
  8
0
  6
Continuous
 62
     7
370
     0
100
AcDbSpline
210
0.0
220
0.0
230
1.0
 70
     8
 71
     3
 72
     9
 73
     5
 74
     0
 42
0.00000001
 43
0.00000001
 40
0.0
 40
0.0
 40
0.0
 40
0.0
 40
0.5015771373280817
 40
1.0
 40
1.0
 40
1.0
 40
1.0
 10
10.93955836180209
 20
10.09382676480872
 30
0.0
 10
10.93883828028674
 20
10.09340111164376
 30
0.0
 10
10.93740264564202
 20
10.09255248212443
 30
0.0
 10
10.93681887157055
 20
10.09171304961049
 30
0.0
 10
10.9365279052267
 20
10.09129465725388
 30
0.0
  0
LINE
  5
2BF
330
1F
100
AcDbEntity
  8
0
  6
Continuous
 62
     7
370
     0
100
AcDbLine
 10
10.9627344753
 20
10.1072060503
 30
0.0
 11
10.9395583618
 21
10.0938267648
 31
0.0
  0
ARC
  5
2C0
330
1F
100
AcDbEntity
  8
0
  6
Continuous
 62
     7
370
     0
100
AcDbCircle
 10
10.9161266966
 20
9.8052324603
 30
0.0
 40
0.3055492335647853
100
AcDbArc
 50
81.2259810058
 51
83.9466000312
  0
LINE
  5
2C1
330
1F
100
AcDbEntity
  8
0
  6
Continuous
 62
     7
370
     0
100
AcDbLine
 10
10.9226240352
 20
10.0942275537
 30
0.0
 11
10.948348488
 21
10.1090779643
 31
0.0
  0
SPLINE
  5
2C2
330
1F
100
AcDbEntity
  8
0
  6
Continuous
 62
     7
370
     0
100
AcDbSpline
210
0.0
220
0.0
230
1.0
 70
     8
 71
     3
 72
    13
 73
     9
 74
     0
 42
0.00000001
 43
0.00000001
 40
0.0
 40
0.0
 40
0.0
 40
0.0
 40
0.2493551011003154
 40
0.3758643206409285
 40
0.4994912623306139
 40
0.6184449072900046
 40
0.7497843925021125
 40
1.0
 40
1.0
 40
1.0
 40
1.0
 10
10.91963106026312
 20
10.08321863907623
 30
0.0
 10
10.91785908835031
 20
10.08358603097705
 30
0.0
 10
10.91518811424044
 20
10.08413981755129
 30
0.0
 10
10.91375521360797
 20
10.08569866383055
 30
0.0
 10
10.91377169211909
 20
10.08714433102644
 30
0.0
 10
10.91492638601668
 20
10.08883151293387
 30
0.0
 10
10.91766251189916
 20
10.09121914917414
 30
0.0
 10
10.92065900172074
 20
10.09303606165949
 30
0.0
 10
10.92262403517303
 20
10.09422755371392
 30
0.0
  0
ARC
  5
2C3
330
1F
100
AcDbEntity
  8
0
  6
Continuous
 62
     7
370
     0
100
AcDbCircle
 10
10.9259922696
 20
10.1310892207
 30
0.0
 40
0.0482913818892086
100
AcDbArc
 50
262.4306828074
 51
287.1730675822
  0
SPLINE
  5
2C4
330
1F
100
AcDbEntity
  8
0
  6
Continuous
 62
     7
370
     0
100
AcDbSpline
210
0.0
220
0.0
230
1.0
 70
     8
 71
     3
 72
    12
 73
     8
 74
     0
 42
0.00000001
 43
0.00000001
 40
0.0
 40
0.0
 40
0.0
 40
0.0
 40
0.2503533688407854
 40
0.4999961943216282
 40
0.7494886161542185
 40
0.8747044873187683
 40
0.9999999999999999
 40
0.9999999999999999
 40
0.9999999999999999
 40
0.9999999999999999
 10
10.94520014190016
 20
10.07832724043204
 30
0.0
 10
10.94402879027779
 20
10.07863516778139
 30
0.0
 10
10.94168941151844
 20
10.07925014853246
 30
0.0
 10
10.93929012293695
 20
10.08067572264669
 30
0.0
 10
10.93898552799302
 20
10.08235913298343
 30
0.0
 10
10.93948063141687
 20
10.08381333289639
 30
0.0
 10
10.93999397854851
 20
10.08457156464154
 30
0.0
 10
10.9402507337149
 20
10.08495080104102
 30
0.0
  0
ARC
  5
2C5
330
1F
100
AcDbEntity
  8
0
  6
Continuous
 62
     7
370
     0
100
AcDbCircle
 10
10.9544142011
 20
10.1222202647
 30
0.0
 40
0.0448497097555379
100
AcDbArc
 50
258.14456656
 51
285.0373558941
  0
LINE
  5
2C6
330
1F
100
AcDbEntity
  8
0
  6
Continuous
 62
     7
370
     0
100
AcDbLine
 10
10.9597369492
 20
10.0752616701
 30
0.0
 11
10.9660504026
 21
10.0789063491
 31
0.0
  0
ARC
  5
2C7
330
1F
100
AcDbEntity
  8
0
  6
Continuous
 62
     7
370
     0
100
AcDbCircle
 10
10.858934187
 20
9.7073572999
 30
0.0
 40
0.3814640512813063
100
AcDbArc
 50
72.4916233469
 51
74.6774694692
  0
LINE
  5
2C8
330
1F
100
AcDbEntity
  8
0
  6
Continuous
 62
     7
370
     0
100
AcDbLine
 10
11.0148365853
 20
10.0948993116
 30
0.0
 11
10.9736958272
 21
10.0711492575
 31
0.0
  0
ARC
  5
2C9
330
1F
100
AcDbEntity
  8
0
  6
Continuous
 62
     7
370
     0
100
AcDbCircle
 10
10.9003113473
 20
9.7318927388
 30
0.0
 40
0.3806439308402938
100
AcDbArc
 50
72.4899933446
 51
74.8398344296
  0
ARC
  5
2CA
330
1F
100
AcDbEntity
  8
0
  6
Continuous
 62
     7
370
     0
100
AcDbCircle
 10
11.1015872102
 20
10.0024014113
 30
0.0
 40
0.0476779594040115
100
AcDbArc
 50
59.5480274876
 51
127.1890323233
  0
SPLINE
  5
2CB
330
1F
100
AcDbEntity
  8
0
  6
Continuous
 62
     7
370
     0
100
AcDbSpline
210
0.0
220
0.0
230
1.0
 70
    24
 71
     1
 72
     4
 73
     2
 74
     0
 42
0.00000001
 43
0.00000001
 40
0.0
 40
0.0
 40
1.0
 40
1.0
 10
11.06128923592278
 20
10.03192996591832
 30
0.0
 10
11.07276842824615
 20
10.04038384968096
 30
0.0
  0
SPLINE
  5
2CC
330
1F
100
AcDbEntity
  8
0
  6
Continuous
 62
     7
370
     0
100
AcDbSpline
210
0.0
220
0.0
230
1.0
 70
     8
 71
     3
 72
    12
 73
     8
 74
     0
 42
0.00000001
 43
0.00000001
 40
0.0
 40
0.0
 40
0.0
 40
0.0
 40
0.2503309494299789
 40
0.4997648043321463
 40
0.6249322238031021
 40
0.7501904501281074
 40
1.0
 40
1.0
 40
1.0
 40
1.0
 10
11.06728888648724
 20
10.01026146380964
 30
0.0
 10
11.06495595516792
 20
10.01180059265065
 30
0.0
 10
11.06029845290151
 20
10.01487333465808
 30
0.0
 10
11.05693999393132
 20
10.01964960972094
 30
0.0
 10
11.05656308711985
 20
10.02360000104827
 30
0.0
 10
11.05730677324108
 20
10.02753966880818
 30
0.0
 10
11.05969715189542
 20
10.03017484039346
 30
0.0
 10
11.06128923592278
 20
10.03192996591832
 30
0.0
  0
ARC
  5
2CD
330
1F
100
AcDbEntity
  8
0
  6
Continuous
 62
     7
370
     0
100
AcDbCircle
 10
11.0928346629
 20
10.0495930125
 30
0.0
 40
0.0468994393322688
100
AcDbArc
 50
236.9963421971
 51
305.2807419081
  0
SPLINE
  5
2CE
330
1F
100
AcDbEntity
  8
0
  6
Continuous
 62
     7
370
     0
100
AcDbSpline
210
0.0
220
0.0
230
1.0
 70
     8
 71
     3
 72
     9
 73
     5
 74
     0
 42
0.00000001
 43
0.00000001
 40
0.0
 40
0.0
 40
0.0
 40
0.0
 40
0.4986702672090054
 40
1.0
 40
1.0
 40
1.0
 40
1.0
 10
11.13590754350096
 20
10.02604037076509
 30
0.0
 10
11.13404870018003
 20
10.02322987608575
 30
0.0
 10
11.13032110011408
 20
10.01759389803742
 30
0.0
 10
11.12339516952209
 20
10.0134066846248
 30
0.0
 10
11.11992299458908
 20
10.01130751004351
 30
0.0
  0
SPLINE
  5
2CF
330
1F
100
AcDbEntity
  8
0
  6
Continuous
 62
     7
370
     0
100
AcDbSpline
210
0.0
220
0.0
230
1.0
 70
     8
 71
     3
 72
    10
 73
     6
 74
     0
 42
0.00000001
 43
0.00000001
 40
0.0
 40
0.0
 40
0.0
 40
0.0
 40
0.4992067981606236
 40
0.7495375815251012
 40
1.0
 40
1.0
 40
1.0
 40
1.0
 10
11.12575115970717
 20
10.04350240104439
 30
0.0
 10
11.12924548788783
 20
10.04103483970124
 30
0.0
 10
11.13449207167481
 20
10.03732990225202
 30
0.0
 10
11.13690660608895
 20
10.03082384122252
 30
0.0
 10
11.13624062271558
 20
10.02763514030434
 30
0.0
 10
11.13590754350096
 20
10.02604037076509
 30
0.0
  0
ARC
  5
2D0
330
1F
100
AcDbEntity
  8
0
  6
Continuous
 62
     7
370
     0
100
AcDbCircle
 10
11.1759859671
 20
9.877580794
 30
0.0
 40
0.0520267611110677
100
AcDbArc
 50
54.678918336
 51
93.8407787413
  0
LINE
  5
2D1
330
1F
100
AcDbEntity
  8
0
  6
Continuous
 62
     7
370
     0
100
AcDbLine
 10
11.2192894641
 20
9.9276646706
 30
0.0
 11
11.2060656489
 21
9.9200307246
 31
0.0
  0
SPLINE
  5
2D2
330
1F
100
AcDbEntity
  8
0
  6
Continuous
 62
     7
370
     0
100
AcDbSpline
210
0.0
220
0.0
230
1.0
 70
    24
 71
     1
 72
     4
 73
     2
 74
     0
 42
0.00000001
 43
0.00000001
 40
0.0
 40
0.0
 40
1.0
 40
1.0
 10
11.19479435873706
 20
9.93813228866661
 30
0.0
 10
11.21928946406593
 20
9.927664670620137
 30
0.0
  0
LINE
  5
2D3
330
1F
100
AcDbEntity
  8
0
  6
Continuous
 62
     7
370
     0
100
AcDbLine
 10
11.2326176841
 20
9.9599672296
 30
0.0
 11
11.1947943587
 21
9.9381322887
 31
0.0
  0
ARC
  5
2D4
330
1F
100
AcDbEntity
  8
0
  6
Continuous
 62
     7
370
     0
100
AcDbCircle
 10
10.6857057891
 20
9.3719108306
 30
0.0
 40
0.8030709491993098
100
AcDbArc
 50
47.076158925
 51
48.5726516883
  0
LINE
  5
2D5
330
1F
100
AcDbEntity
  8
0
  6
Continuous
 62
     7
370
     0
100
AcDbLine
 10
11.1597704098
 20
9.9409692438
 30
0.0
 11
11.2170736087
 21
9.9740496764
 31
0.0
  0
ARC
  5
2D6
330
1F
100
AcDbEntity
  8
0
  6
Continuous
 62
     7
370
     0
100
AcDbCircle
 10
10.630268371
 20
9.3409112969
 30
0.0
 40
0.800276170359854
100
AcDbArc
 50
47.3469764389
 51
48.5742329174
  0
LINE
  5
2D7
330
1F
100
AcDbEntity
  8
0
  6
Continuous
 62
     7
370
     0
100
AcDbLine
 10
11.2149509616
 20
9.9088516054
 30
0.0
 11
11.2274401204
 21
9.9160614432
 31
0.0
  0
ARC
  5
2D8
330
1F
100
AcDbEntity
  8
0
  6
Continuous
 62
     7
370
     0
100
AcDbCircle
 10
10.5713664853
 20
9.2751421507
 30
0.0
 40
0.9032101920925258
100
AcDbArc
 50
40.972212337
 51
44.5570433905
  0
LINE
  5
2D9
330
1F
100
AcDbEntity
  8
0
  6
Continuous
 62
     7
370
     0
100
AcDbLine
 10
11.2658043318
 20
9.8745805241
 30
0.0
 11
11.2533151731
 21
9.8673706862
 31
0.0
  0
ARC
  5
2DA
330
1F
100
AcDbEntity
  8
0
  6
Continuous
 62
     7
370
     0
100
AcDbCircle
 10
10.5838556441
 20
9.2823519886
 30
0.0
 40
0.9032101920912103
100
AcDbArc
 50
40.972212337
 51
44.5570433905
  0
ARC
  5
2DB
330
1F
100
AcDbEntity
  8
0
  6
Continuous
 62
     7
370
     0
100
AcDbCircle
 10
11.2678262399
 20
9.7802572171
 30
0.0
 40
0.0452454137188282
100
AcDbArc
 50
44.7447980671
 51
89.1865100299
  0
LINE
  5
2DC
330
1F
100
AcDbEntity
  8
0
  6
Continuous
 62
     7
370
     0
100
AcDbLine
 10
11.3131855781
 20
9.8197416831
 30
0.0
 11
11.2999617629
 21
9.8121077371
 31
0.0
  0
SPLINE
  5
2DD
330
1F
100
AcDbEntity
  8
0
  6
Continuous
 62
     7
370
     0
100
AcDbSpline
210
0.0
220
0.0
230
1.0
 70
    24
 71
     1
 72
     4
 73
     2
 74
     0
 42
0.00000001
 43
0.00000001
 40
0.0
 40
0.0
 40
1.0
 40
1.0
 10
11.29046821208174
 20
9.833542825281544
 30
0.0
 10
11.31318557805738
 20
9.819741683102082
 30
0.0
  0
LINE
  5
2DE
330
1F
100
AcDbEntity
  8
0
  6
Continuous
 62
     7
370
     0
100
AcDbLine
 10
11.3282915375
 20
9.8553777663
 30
0.0
 11
11.2904682121
 21
9.8335428253
 31
0.0
  0
ARC
  5
2DF
330
1F
100
AcDbEntity
  8
0
  6
Continuous
 62
     7
370
     0
100
AcDbCircle
 10
10.5641410701
 20
9.2564305414
 30
0.0
 40
0.9709087057607594
100
AcDbArc
 50
38.0896312119
 51
39.4082610806
  0
LINE
  5
2E0
330
1F
100
AcDbEntity
  8
0
  6
Continuous
 62
     7
370
     0
100
AcDbLine
 10
11.2570027621
 20
9.8397236574
 30
0.0
 11
11.314305961
 21
9.87280409
 31
0.0
  0
ARC
  5
2E1
330
1F
100
AcDbEntity
  8
0
  6
Continuous
 62
     7
370
     0
100
AcDbCircle
 10
10.5081893129
 20
9.2244448339
 30
0.0
 40
0.9691695478414939
100
AcDbArc
 50
38.3288029116
 51
39.4089776684
  0
LINE
  5
2E2
330
1F
100
AcDbEntity
  8
0
  6
Continuous
 62
     7
370
     0
100
AcDbLine
 10
11.3483794467
 20
9.7832282169
 30
0.0
 11
11.371153795
 21
9.7963755683
 31
0.0
  0
ARC
  5
2E3
330
1F
100
AcDbEntity
  8
0
  6
Continuous
 62
     7
370
     0
100
AcDbCircle
 10
10.5040929715
 20
9.2152487274
 30
0.0
 40
1.017556068590131
100
AcDbArc
 50
33.9300287597
 51
35.67275144
  0
LINE
  5
2E4
330
1F
100
AcDbEntity
  8
0
  6
Continuous
 62
     7
370
     0
100
AcDbLine
 10
11.3189612877
 20
9.8018558428
 30
0.0
 11
11.33071579
 21
9.8086415726
 31
0.0
  0
ARC
  5
2E5
330
1F
100
AcDbEntity
  8
0
  6
Continuous
 62
     7
370
     0
100
AcDbCircle
 10
10.4923384692
 20
9.2084629977
 30
0.0
 40
1.017556068581066
100
AcDbArc
 50
33.9300287596
 51
35.67275144
  0
LINE
  5
2E6
330
1F
100
AcDbEntity
  8
0
  6
Continuous
 62
     7
370
     0
100
AcDbLine
 10
11.3278090676
 20
9.7713531898
 30
0.0
 11
11.3366249444
 21
9.7764424872
 31
0.0
  0
ARC
  5
2E7
330
1F
100
AcDbEntity
  8
0
  6
Continuous
 62
     7
370
     0
100
AcDbCircle
 10
10.4846257605
 20
9.2041335605
 30
0.0
 40
1.016216609417323
100
AcDbArc
 50
33.9291996906
 51
35.9641402028
  0
LINE
  5
2E8
330
1F
100
AcDbEntity
  8
0
  6
Continuous
 62
     7
370
     0
100
AcDbLine
 10
11.2939121351
 20
9.7933020819
 30
0.0
 11
11.3071359503
 21
9.8009360279
 31
0.0
  0
ARC
  5
2E9
330
1F
100
AcDbEntity
  8
0
  6
Continuous
 62
     7
370
     0
100
AcDbCircle
 10
10.4668749234
 20
9.1933228604
 30
0.0
 40
1.021746355900803
100
AcDbArc
 50
32.5415610699
 51
35.9592386947
  0
LINE
  5
2EA
330
1F
100
AcDbEntity
  8
0
  6
Continuous
 62
     7
370
     0
100
AcDbLine
 10
11.384777155
 20
9.7755880384
 30
0.0
 11
11.3282086125
 21
9.7429317139
 31
0.0
  0
ARC
  5
2EB
330
1F
100
AcDbEntity
  8
0
  6
Continuous
 62
     7
370
     0
100
AcDbCircle
 10
10.5172190425
 20
9.2218811845
 30
0.0
 40
1.029197920029103
100
AcDbArc
 50
32.5474862337
 51
33.931145585
  0
LWPOLYLINE
  5
2EC
330
1F
100
AcDbEntity
  8
0
  6
Continuous
 62
     7
370
     0
100
AcDbPolyline
 90
       79
 70
   128
 43
0.0
 10
10.758160115
 20
8.8767879822
 10
10.7522527712
 20
8.8469601042
 10
10.7440484741
 20
8.8191149194
 10
10.7336004318
 20
8.7934330145
 10
10.7209764039
 20
8.7700809465
 10
10.7062582621
 20
8.7492101625
 10
10.6895414591
 20
8.7309560175
 10
10.6709344098
 20
8.7154368967
 10
10.6505577881
 20
8.7027534476
 10
10.6285437441
 20
8.6929879272
 10
10.6050350475
 20
8.6862036686
 10
10.5801841612
 20
8.6824446703
 10
10.5541522526
 20
8.6817353109
 10
10.5271081486
 20
8.6840801909
 10
10.4992272408
 20
8.6894641028
 10
10.4706903474
 20
8.6978521299
 10
10.4416825411
 20
8.7091898726
 10
10.4123919488
 20
8.7234038012
 10
10.3830085312
 20
8.7404017331
 10
10.3537228509
 20
8.7600734301
 10
10.3247248369
 20
8.7822913137
 10
10.2962025524
 20
8.8069112924
 10
10.2683409753
 20
8.8337736961
 10
10.2413207988
 20
8.862704312
 10
10.2153172589
 20
8.8935155138
 10
10.1904989987
 20
8.9260074791
 10
10.1670269741
 20
8.959969485
 10
10.1450534101
 20
8.9951812749
 10
10.1247208138
 20
9.0314144868
 10
10.1061610498
 20
9.0684341344
 10
10.0894944854
 20
9.1060001311
 10
10.0748292096
 20
9.143868847
 10
10.0622603323
 20
9.1817946889
 10
10.0518693676
 20
9.2195316933
 10
10.0437237048
 20
9.2568351211
 10
10.0378761717
 20
9.2934630453
 10
10.0343646917
 20
9.3291779198
 10
10.0332120383
 20
9.3637481199
 10
10.0344256867
 20
9.3969494445
 10
10.037997766
 20
9.4285665704
 10
10.0439051098
 20
9.4583944484
 10
10.0521094069
 20
9.4862396332
 10
10.0625574492
 20
9.5119215381
 10
10.0751814771
 20
9.5352736062
 10
10.0898996189
 20
9.5561443902
 10
10.106616422
 20
9.5743985351
 10
10.1252234712
 20
9.5899176559
 10
10.1456000929
 20
9.602601105
 10
10.1676141369
 20
9.6123666255
 10
10.1911228335
 20
9.6191508841
 10
10.2159737198
 20
9.6229098824
 10
10.2420056284
 20
9.6236192417
 10
10.2690497324
 20
9.6212743618
 10
10.2969306402
 20
9.6158904499
 10
10.3254675336
 20
9.6075024228
 10
10.3544753399
 20
9.5961646801
 10
10.3837659322
 20
9.5819507514
 10
10.4131493498
 20
9.5649528195
 10
10.4424350301
 20
9.5452811225
 10
10.4714330441
 20
9.523063239
 10
10.4999553286
 20
9.4984432603
 10
10.5278169057
 20
9.4715808565
 10
10.5548370822
 20
9.4426502406
 10
10.5808406221
 20
9.4118390388
 10
10.6056588823
 20
9.3793470736
 10
10.6291309069
 20
9.3453850677
 10
10.6511044709
 20
9.3101732778
 10
10.6714370672
 20
9.2739400659
 10
10.6899968312
 20
9.2369204183
 10
10.7066633956
 20
9.1993544216
 10
10.7213286714
 20
9.1614857057
 10
10.7338975487
 20
9.1235598637
 10
10.7442885134
 20
9.0858228594
 10
10.7524341762
 20
9.0485194316
 10
10.7582817093
 20
9.0118915074
 10
10.7617931893
 20
8.9761766329
 10
10.7629458427
 20
8.9416064328
 10
10.7617321943
 20
8.9084051081
 10
10.758160115
 20
8.8767879822
  0
LWPOLYLINE
  5
2ED
330
1F
100
AcDbEntity
  8
0
  6
Continuous
 62
     7
370
     0
100
AcDbPolyline
 90
       51
 70
   128
 43
0.0
 10
10.2753782625
 20
9.6203069324
 10
10.2747424866
 20
9.6203741517
 10
10.2482049476
 20
9.6216600026
 10
10.2227463
 20
9.6198719026
 10
10.198535967
 20
9.6150217511
 10
10.1757350642
 20
9.6071418251
 10
10.1544953281
 20
9.5962845642
 10
10.1349581054
 20
9.5825222217
 10
10.1172534132
 20
9.5659463837
 10
10.1014990734
 20
9.5466673597
 10
10.0877999283
 20
9.5248134483
 10
10.0762471437
 20
9.5005300839
 10
10.0669176013
 20
9.473978868
 10
10.0598733878
 20
9.4453364948
 10
10.0551613811
 20
9.4147935744
 10
10.052812939
 20
9.382553365
 10
10.0528436899
 20
9.3488304199
 10
10.0552534292
 20
9.3138491597
 10
10.0600261204
 20
9.2778423788
 10
10.0671300022
 20
9.2410496966
 10
10.0765177992
 20
9.2037159621
 10
10.0881270374
 20
9.1660896253
 10
10.1018804591
 20
9.1284210832
 10
10.1176865376
 20
9.0909610138
 10
10.135440086
 20
9.0539587076
 10
10.1550229574
 20
9.0176604089
 10
10.176304831
 20
8.9823076769
 10
10.1991440795
 20
8.9481357781
 10
10.2233887114
 20
8.915372121
 10
10.2488773827
 20
8.8842347422
 10
10.2754404705
 20
8.8549308558
 10
10.3029012018
 20
8.8276554745
 10
10.33107683
 20
8.8025901113
 10
10.359779851
 20
8.7799015721
 10
10.3888192509
 20
8.7597408454
 10
10.4180017772
 20
8.7422420976
 10
10.4471332251
 20
8.7275217798
 10
10.4760197295
 20
8.7156778534
 10
10.5044690556
 20
8.7067891377
 10
10.5322918778
 20
8.7009147858
 10
10.5593030398
 20
8.6980938903
 10
10.5853227868
 20
8.698345224
 10
10.6101779616
 20
8.7016671142
 10
10.6337031571
 20
8.7080374544
 10
10.6557418172
 20
8.7174138508
 10
10.676147278
 20
8.7297339053
 10
10.6947837447
 20
8.7449156298
 10
10.7115271946
 20
8.7628579925
 10
10.7262662029
 20
8.7834415898
 10
10.7389026838
 20
8.8065294415
 10
10.7416758495
 20
8.8125683
  0
SPLINE
  5
2EE
330
1F
100
AcDbEntity
  8
0
  6
Continuous
 62
     7
370
     0
100
AcDbSpline
210
0.0
220
0.0
230
1.0
 70
     8
 71
     3
 72
    13
 73
     9
 74
     0
 42
0.00000001
 43
0.00000001
 40
0.0
 40
0.0
 40
0.0
 40
0.0
 40
0.5004639766923165
 40
0.6282475802596585
 40
0.7518824419793642
 40
0.81333144210544
 40
0.8755414302558452
 40
1.0
 40
1.0
 40
1.0
 40
1.0
 10
10.55615413029623
 20
9.637070532140367
 30
0.0
 10
10.5597884454034
 20
9.639235301979216
 30
0.0
 10
10.56435071117738
 20
9.641952803091014
 30
0.0
 10
10.56818143387292
 20
9.646191471706068
 30
0.0
 10
10.56897717547096
 20
9.648275648290815
 30
0.0
 10
10.56893603426992
 20
9.650006716631887
 30
0.0
 10
10.56833874007507
 20
9.651765823681961
 30
0.0
 10
10.56711922181543
 20
9.652895561445506
 30
0.0
 10
10.56630612559781
 20
9.65364879781173
 30
0.0
  0
SPLINE
  5
2EF
330
1F
100
AcDbEntity
  8
0
  6
Continuous
 62
     7
370
     0
100
AcDbSpline
210
0.0
220
0.0
230
1.0
 70
     8
 71
     3
 72
    13
 73
     9
 74
     0
 42
0.00000001
 43
0.00000001
 40
0.0
 40
0.0
 40
0.0
 40
0.0
 40
0.1246091732983747
 40
0.1867338934572179
 40
0.2497493975585914
 40
0.3745255218345642
 40
0.4996502570872813
 40
1.0
 40
1.0
 40
1.0
 40
1.0
 10
10.56630612559781
 20
9.65364879781173
 30
0.0
 10
10.5653204344004
 20
9.654284737174576
 30
0.0
 10
10.56384332039533
 20
9.655237728275342
 30
0.0
 10
10.56137786591103
 20
9.655925769129013
 30
0.0
 10
10.55883580115895
 20
9.65629092355072
 30
0.0
 10
10.5556662973871
 20
9.656064989196356
 30
0.0
 10
10.54882670479103
 20
9.654311019765732
 30
0.0
 10
10.54426739477426
 20
9.65166260595774
 30
0.0
 10
10.54062016427265
 20
9.649544001259688
 30
0.0
  0
SPLINE
  5
2F0
330
1F
100
AcDbEntity
  8
0
  6
Continuous
 62
     7
370
     0
100
AcDbSpline
210
0.0
220
0.0
230
1.0
 70
     8
 71
     3
 72
    13
 73
     9
 74
     0
 42
0.00000001
 43
0.00000001
 40
0.0
 40
0.0
 40
0.0
 40
0.0
 40
0.5004231501093512
 40
0.6255784393530875
 40
0.7503815851610313
 40
0.8126552223357876
 40
0.8754890600875093
 40
1.0
 40
1.0
 40
1.0
 40
1.0
 10
10.54062016427265
 20
9.649544001259688
 30
0.0
 10
10.53690291637263
 20
9.647334859284776
 30
0.0
 10
10.53225598878849
 20
9.644573213288439
 30
0.0
 10
10.52824874351636
 20
9.640346102645328
 30
0.0
 10
10.52745050059502
 20
9.638243092169317
 30
0.0
 10
10.52757889873857
 20
9.636475995196191
 30
0.0
 10
10.52828174989888
 20
9.634701967933287
 30
0.0
 10
10.52955341421725
 20
9.63355814848614
 30
0.0
 10
10.53039857318836
 20
9.632797956308753
 30
0.0
  0
SPLINE
  5
2F1
330
1F
100
AcDbEntity
  8
0
  6
Continuous
 62
     7
370
     0
100
AcDbSpline
210
0.0
220
0.0
230
1.0
 70
     8
 71
     3
 72
    13
 73
     9
 74
     0
 42
0.00000001
 43
0.00000001
 40
0.0
 40
0.0
 40
0.0
 40
0.0
 40
0.1245513980942106
 40
0.1859899457721665
 40
0.2495609023917413
 40
0.3742835246961978
 40
0.4994689293691789
 40
1.0
 40
1.0
 40
1.0
 40
1.0
 10
10.53039857318836
 20
9.632797956308753
 30
0.0
 10
10.53138533583013
 20
9.632146093999676
 30
0.0
 10
10.53285884743291
 20
9.631172681919432
 30
0.0
 10
10.53534790573581
 20
9.630452381555804
 30
0.0
 10
10.5379179736873
 20
9.630110698588595
 30
0.0
 10
10.54109375346317
 20
9.630388235126215
 30
0.0
 10
10.54777778786294
 20
9.632383816411318
 30
0.0
 10
10.552431485429
 20
9.634987644723589
 30
0.0
 10
10.55615413029623
 20
9.637070532140367
 30
0.0
  0
SPLINE
  5
2F2
330
1F
100
AcDbEntity
  8
0
  6
Continuous
 62
     7
370
     0
100
AcDbSpline
210
0.0
220
0.0
230
1.0
 70
     8
 71
     3
 72
    13
 73
     9
 74
     0
 42
0.00000001
 43
0.00000001
 40
0.0
 40
0.0
 40
0.0
 40
0.0
 40
0.5004639766922605
 40
0.6282475802570294
 40
0.7518824419769646
 40
0.813331442108101
 40
0.8755414302577873
 40
1.0
 40
1.0
 40
1.0
 40
1.0
 10
10.50367150598287
 20
9.674658713604972
 30
0.0
 10
10.50730503342183
 20
9.67681689948319
 30
0.0
 10
10.51186631041206
 20
9.679526135549883
 30
0.0
 10
10.51567500952952
 20
9.683561722863452
 30
0.0
 10
10.5164534492799
 20
9.685482574175298
 30
0.0
 10
10.51639415934019
 20
9.687036390003827
 30
0.0
 10
10.51577549528101
 20
9.688582360806304
 30
0.0
 10
10.51453834375216
 20
9.689524746948905
 30
0.0
 10
10.51371349080652
 20
9.690153069322943
 30
0.0
  0
ARC
  5
2F3
330
1F
100
AcDbEntity
  8
0
  6
Continuous
 62
     7
370
     0
100
AcDbCircle
 10
10.5047344018
 20
9.6682257955
 30
0.0
 40
0.0236945009724999
100
AcDbArc
 50
67.7311903947
 51
135.1530589666
  0
SPLINE
  5
2F4
330
1F
100
AcDbEntity
  8
0
  6
Continuous
 62
     7
370
     0
100
AcDbSpline
210
0.0
220
0.0
230
1.0
 70
     8
 71
     3
 72
    13
 73
     9
 74
     0
 42
0.00000001
 43
0.00000001
 40
0.0
 40
0.0
 40
0.0
 40
0.0
 40
0.5004231501093213
 40
0.6255784393530439
 40
0.7503815851609787
 40
0.8126552223371877
 40
0.8754890600875194
 40
1.0
 40
1.0
 40
1.0
 40
1.0
 10
10.48793516151921
 20
9.684935520296815
 30
0.0
 10
10.48421835796401
 20
9.682733098622412
 30
0.0
 10
10.47957198585486
 20
9.67997985366648
 30
0.0
 10
10.47557999522433
 20
9.675953296966984
 30
0.0
 10
10.47479520215318
 20
9.674021805267556
 30
0.0
 10
10.47493930379579
 20
9.672446018610195
 30
0.0
 10
10.47566119343114
 20
9.6708977644899
 30
0.0
 10
10.47695032395536
 20
9.669946756033063
 30
0.0
 10
10.47780709111611
 20
9.669314707687214
 30
0.0
  0
SPLINE
  5
2F5
330
1F
100
AcDbEntity
  8
0
  6
Continuous
 62
     7
370
     0
100
AcDbSpline
210
0.0
220
0.0
230
1.0
 70
     8
 71
     3
 72
    13
 73
     9
 74
     0
 42
0.00000001
 43
0.00000001
 40
0.0
 40
0.0
 40
0.0
 40
0.0
 40
0.1245513980942185
 40
0.18598994576895
 40
0.2495609023916891
 40
0.3742835246961596
 40
0.4994689293691433
 40
1.0
 40
1.0
 40
1.0
 40
1.0
 10
10.47780709111611
 20
9.669314707687214
 30
0.0
 10
10.47880562070672
 20
9.668787611597995
 30
0.0
 10
10.48029670364314
 20
9.668000510252295
 30
0.0
 10
10.48280771016265
 20
9.667498684927377
 30
0.0
 10
10.48539671319776
 20
9.667341288132617
 30
0.0
 10
10.48858912320251
 20
9.667775112964963
 30
0.0
 10
10.49529341975516
 20
9.669957289664756
 30
0.0
 10
10.49994808613212
 20
9.672569289510971
 30
0.0
 10
10.50367150598287
 20
9.674658713604972
 30
0.0
  0
SPLINE
  5
2F6
330
1F
100
AcDbEntity
  8
0
  6
Continuous
 62
     7
370
     0
100
AcDbSpline
210
0.0
220
0.0
230
1.0
 70
     8
 71
     3
 72
     9
 73
     5
 74
     0
 42
0.00000001
 43
0.00000001
 40
0.0
 40
0.0
 40
0.0
 40
0.0
 40
0.4999994377870663
 40
1.0
 40
1.0
 40
1.0
 40
1.0
 10
10.7724050515729
 20
9.631888862797497
 30
0.0
 10
10.77373559703235
 20
9.630989625238394
 30
0.0
 10
10.77639669094346
 20
9.629191148097934
 30
0.0
 10
10.77894150754887
 20
9.627257114765278
 30
0.0
 10
10.7802139172823
 20
9.626290097011612
 30
0.0
  0
SPLINE
  5
2F7
330
1F
100
AcDbEntity
  8
0
  6
Continuous
 62
     7
370
     0
100
AcDbSpline
210
0.0
220
0.0
230
1.0
 70
    24
 71
     1
 72
     4
 73
     2
 74
     0
 42
0.00000001
 43
0.00000001
 40
0.0
 40
0.0
 40
1.0
 40
1.0
 10
10.7802139172823
 20
9.626290097011612
 30
0.0
 10
10.78774306752674
 20
9.621502792097417
 30
0.0
  0
ARC
  5
2F8
330
1F
100
AcDbEntity
  8
0
  6
Continuous
 62
     7
370
     0
100
AcDbCircle
 10
10.7894470243
 20
9.6253430332
 30
0.0
 40
0.0042012998970165
100
AcDbArc
 50
246.0726175488
 51
296.1666793418
  0
SPLINE
  5
2F9
330
1F
100
AcDbEntity
  8
0
  6
Continuous
 62
     7
370
     0
100
AcDbSpline
210
0.0
220
0.0
230
1.0
 70
     8
 71
     3
 72
    13
 73
     9
 74
     0
 42
0.00000001
 43
0.00000001
 40
0.0
 40
0.0
 40
0.0
 40
0.0
 40
0.1250915069580321
 40
0.2499455687835654
 40
0.3709820857041122
 40
0.5001127109826446
 40
0.7496528854792004
 40
1.0
 40
1.0
 40
1.0
 40
1.0
 10
10.79129973025274
 20
9.621572303654842
 30
0.0
 10
10.79156851574678
 20
9.62175685155244
 30
0.0
 10
10.79210557653391
 20
9.62212559704408
 30
0.0
 10
10.79254646490038
 20
9.622949579691987
 30
0.0
 10
10.7926846470256
 20
9.623890659376418
 30
0.0
 10
10.79249112950942
 20
9.625213522402326
 30
0.0
 10
10.79165094777066
 20
9.626864007545848
 30
0.0
 10
10.79064956755184
 20
9.62802153585907
 30
0.0
 10
10.79014806920647
 20
9.62860123428221
 30
0.0
  0
ARC
  5
2FA
330
1F
100
AcDbEntity
  8
0
  6
Continuous
 62
     7
370
     0
100
AcDbCircle
 10
10.7796149346
 20
9.6214086439
 30
0.0
 40
0.0127546179877784
100
AcDbArc
 50
34.3273614621
 51
113.8396510692
  0
LINE
  5
2FB
330
1F
100
AcDbEntity
  8
0
  6
Continuous
 62
     7
370
     0
100
AcDbLine
 10
10.7744597937
 20
9.6330750402
 30
0.0
 11
10.7724050516
 21
9.6318888628
 31
0.0
  0
SPLINE
  5
2FC
330
1F
100
AcDbEntity
  8
0
  6
Continuous
 62
     7
370
     0
100
AcDbSpline
210
0.0
220
0.0
230
1.0
 70
    24
 71
     1
 72
     4
 73
     2
 74
     0
 42
0.00000001
 43
0.00000001
 40
0.0
 40
0.0
 40
1.0
 40
1.0
 10
10.97064886479215
 20
9.554438377035176
 30
0.0
 10
10.9953371674542
 20
9.558950997712508
 30
0.0
  0
ARC
  5
2FD
330
1F
100
AcDbEntity
  8
0
  6
Continuous
 62
     7
370
     0
100
AcDbCircle
 10
10.1325232009
 20
8.999879101
 30
0.0
 40
1.028109588758419
100
AcDbArc
 50
32.9417617512
 51
33.9018217106
  0
SPLINE
  5
2FE
330
1F
100
AcDbEntity
  8
0
  6
Continuous
 62
     7
370
     0
100
AcDbSpline
210
0.0
220
0.0
230
1.0
 70
    24
 71
     1
 72
     4
 73
     2
 74
     0
 42
0.00000001
 43
0.00000001
 40
0.0
 40
0.0
 40
1.0
 40
1.0
 10
10.98584855770578
 20
9.5733293272675
 30
0.0
 10
10.97064886479215
 20
9.554438377035176
 30
0.0
  0
ARC
  5
2FF
330
1F
100
AcDbEntity
  8
0
  6
Continuous
 62
     7
370
     0
100
AcDbCircle
 10
10.1122744856
 20
8.9876267568
 30
0.0
 40
1.036511586365396
100
AcDbArc
 50
28.0468004634
 51
28.603584209
  0
SPLINE
  5
300
330
1F
100
AcDbEntity
  8
0
  6
Continuous
 62
     7
370
     0
100
AcDbSpline
210
0.0
220
0.0
230
1.0
 70
     8
 71
     3
 72
    13
 73
     9
 74
     0
 42
0.00000001
 43
0.00000001
 40
0.0
 40
0.0
 40
0.0
 40
0.0
 40
0.2505627277007935
 40
0.500047109310604
 40
0.624323055356525
 40
0.7497534526003558
 40
0.8747558534753762
 40
1.0
 40
1.0
 40
1.0
 40
1.0
 10
11.02228297197845
 20
9.483853341535248
 30
0.0
 10
11.02171624301596
 20
9.484832698397383
 30
0.0
 10
11.02058522412078
 20
9.486787197266343
 30
0.0
 10
11.01875244619102
 20
9.48899243463759
 30
0.0
 10
11.01688751373633
 20
9.490056920953453
 30
0.0
 10
11.01540786617029
 20
9.49031604139392
 30
0.0
 10
11.01398414511784
 20
9.490125543997769
 30
0.0
 10
11.01315671552228
 20
9.48970349492993
 30
0.0
 10
11.01274260106363
 20
9.48949226654
 30
0.0
  0
SPLINE
  5
301
330
1F
100
AcDbEntity
  8
0
  6
Continuous
 62
     7
370
     0
100
AcDbSpline
210
0.0
220
0.0
230
1.0
 70
     8
 71
     3
 72
    13
 73
     9
 74
     0
 42
0.00000001
 43
0.00000001
 40
0.0
 40
0.0
 40
0.0
 40
0.0
 40
0.1251815832453216
 40
0.250177843134223
 40
0.3742188627423492
 40
0.4998769269689697
 40
0.7494759856933202
 40
1.0
 40
1.0
 40
1.0
 40
1.0
 10
11.01274260106363
 20
9.48949226654
 30
0.0
 10
11.01236425595408
 20
9.489244151007421
 30
0.0
 10
11.0116081258508
 20
9.488748287261503
 30
0.0
 10
11.01079033802099
 20
9.487592954479794
 30
0.0
 10
11.01030327269669
 20
9.486187159717643
 30
0.0
 10
11.01028805174189
 20
9.484063140461833
 30
0.0
 10
11.01115680092661
 20
9.481400774386193
 30
0.0
 10
11.01215999805963
 20
9.479446881513969
 30
0.0
 10
11.01266252431059
 20
9.47846812825848
 30
0.0
  0
ARC
  5
302
330
1F
100
AcDbEntity
  8
0
  6
Continuous
 62
     7
370
     0
100
AcDbCircle
 10
10.1027130988
 20
8.9821075234
 30
0.0
 40
1.036523905651249
100
AcDbArc
 50
28.0468026878
 51
28.6116512337
  0
LINE
  5
303
330
1F
100
AcDbEntity
  8
0
  6
Continuous
 62
     7
370
     0
100
AcDbLine
 10
11.0175115813
 20
9.469473447
 30
0.0
 11
11.0270621144
 21
9.4749868524
 31
0.0
  0
ARC
  5
304
330
1F
100
AcDbEntity
  8
0
  6
Continuous
 62
     7
370
     0
100
AcDbCircle
 10
10.1341432678
 20
9.000258151
 30
0.0
 40
1.036705611864747
100
AcDbArc
 50
28.0468392729
 51
28.7335420243
  0
SPLINE
  5
305
330
1F
100
AcDbEntity
  8
0
  6
Continuous
 62
     7
370
     0
100
AcDbSpline
210
0.0
220
0.0
230
1.0
 70
     8
 71
     3
 72
    13
 73
     9
 74
     0
 42
0.00000001
 43
0.00000001
 40
0.0
 40
0.0
 40
0.0
 40
0.0
 40
0.2504598900563317
 40
0.4998947466957905
 40
0.6257393024757527
 40
0.7498233176509439
 40
0.8747960687619136
 40
1.0
 40
1.0
 40
1.0
 40
1.0
 10
11.04319401135215
 20
9.498640806466609
 30
0.0
 10
11.04252671924645
 20
9.499784428069496
 30
0.0
 10
11.0411948659981
 20
9.502066990883698
 30
0.0
 10
11.03900362617188
 20
9.504606806580764
 30
0.0
 10
11.03682586275108
 20
9.505858036382481
 30
0.0
 10
11.03509690773769
 20
9.50623791594271
 30
0.0
 10
11.03341108506755
 20
9.506100795328532
 30
0.0
 10
11.03243626680635
 20
9.505618372327302
 30
0.0
 10
11.03194840727684
 20
9.505376937930992
 30
0.0
  0
SPLINE
  5
306
330
1F
100
AcDbEntity
  8
0
  6
Continuous
 62
     7
370
     0
100
AcDbSpline
210
0.0
220
0.0
230
1.0
 70
     8
 71
     3
 72
    13
 73
     9
 74
     0
 42
0.00000001
 43
0.00000001
 40
0.0
 40
0.0
 40
0.0
 40
0.0
 40
0.1295610237633092
 40
0.2496774389370154
 40
0.3752077547090973
 40
0.4998009282125952
 40
0.7495742841115189
 40
1.0
 40
1.0
 40
1.0
 40
1.0
 10
11.03194840727684
 20
9.505376937930992
 30
0.0
 10
11.0314918329715
 20
9.505062795787497
 30
0.0
 10
11.03061196725318
 20
9.504457411517043
 30
0.0
 10
11.02971450591837
 20
9.503022593576105
 30
0.0
 10
11.02925643430121
 20
9.501327109327715
 30
0.0
 10
11.02933350031009
 20
9.498811057179752
 30
0.0
 10
11.03040688893104
 20
9.495694281182638
 30
0.0
 10
11.03160015451497
 20
9.493390095811401
 30
0.0
 10
11.03219756543586
 20
9.492236500565674
 30
0.0
  0
ARC
  5
307
330
1F
100
AcDbEntity
  8
0
  6
Continuous
 62
     7
370
     0
100
AcDbCircle
 10
10.1231268726
 20
8.9938983855
 30
0.0
 40
1.036701693609124
100
AcDbArc
 50
28.0468384081
 51
28.7308534732
  0
LINE
  5
308
330
1F
100
AcDbEntity
  8
0
  6
Continuous
 62
     7
370
     0
100
AcDbLine
 10
11.0380819604
 20
9.4813484741
 30
0.0
 11
11.0491018063
 21
9.4877100957
 31
0.0
  0
ARC
  5
309
330
1F
100
AcDbEntity
  8
0
  6
Continuous
 62
     7
370
     0
100
AcDbCircle
 10
10.1452269771
 20
9.003300547
 30
0.0
 40
1.000011796820988
100
AcDbArc
 50
23.1734046151
 51
23.7436555102
  0
SPLINE
  5
30A
330
1F
100
AcDbEntity
  8
0
  6
Continuous
 62
     7
370
     0
100
AcDbSpline
210
0.0
220
0.0
230
1.0
 70
     8
 71
     3
 72
    13
 73
     9
 74
     0
 42
0.00000001
 43
0.00000001
 40
0.0
 40
0.0
 40
0.0
 40
0.0
 40
0.2505627277008918
 40
0.5000471093108098
 40
0.6243230553571304
 40
0.7497534526002437
 40
0.8747558534753245
 40
1.0
 40
1.0
 40
1.0
 40
1.0
 10
11.06059384592255
 20
9.405950629837127
 30
0.0
 10
11.06011818170748
 20
9.406961082364461
 30
0.0
 10
11.05916890039205
 20
9.408977638737495
 30
0.0
 10
11.05756216417492
 20
9.411263239762707
 30
0.0
 10
11.05584511269892
 20
9.412381274249896
 30
0.0
 10
11.05444222320524
 20
9.412668497764265
 30
0.0
 10
11.05306199000779
 20
9.412494024438761
 30
0.0
 10
11.05223838916861
 20
9.412073390285546
 30
0.0
 10
11.05182619093749
 20
9.411862870036352
 30
0.0
  0
SPLINE
  5
30B
330
1F
100
AcDbEntity
  8
0
  6
Continuous
 62
     7
370
     0
100
AcDbSpline
210
0.0
220
0.0
230
1.0
 70
     8
 71
     3
 72
    13
 73
     9
 74
     0
 42
0.00000001
 43
0.00000001
 40
0.0
 40
0.0
 40
0.0
 40
0.0
 40
0.1251815832449713
 40
0.2501778431335147
 40
0.3742188627314206
 40
0.4998769269703898
 40
0.7494759856940354
 40
1.0
 40
1.0
 40
1.0
 40
1.0
 10
11.05182619093749
 20
9.411862870036353
 30
0.0
 10
11.05144580118494
 20
9.411613998685526
 30
0.0
 10
11.05068558482264
 20
9.41111662442205
 30
0.0
 10
11.04982073706001
 20
9.409943955803486
 30
0.0
 10
11.04925612616872
 20
9.408509786421213
 30
0.0
 10
11.0490947982673
 20
9.406332888298323
 30
0.0
 10
11.04974438355501
 20
9.403592619662826
 30
0.0
 10
11.0505710587894
 20
9.401578381990207
 30
0.0
 10
11.0509851608563
 20
9.400569400531998
 30
0.0
  0
ARC
  5
30C
330
1F
100
AcDbEntity
  8
0
  6
Continuous
 62
     7
370
     0
100
AcDbCircle
 10
10.1356330218
 20
8.9977683827
 30
0.0
 40
1.000059097477088
100
AcDbArc
 50
23.1734136719
 51
23.7519107784
  0
LINE
  5
30D
330
1F
100
AcDbEntity
  8
0
  6
Continuous
 62
     7
370
     0
100
AcDbLine
 10
11.055005388
 20
9.3913070095
 30
0.0
 11
11.0645559211
 21
9.3968204149
 31
0.0
  0
ARC
  5
30E
330
1F
100
AcDbEntity
  8
0
  6
Continuous
 62
     7
370
     0
100
AcDbCircle
 10
10.1665709038
 20
9.0157229122
 30
0.0
 40
1.000769826467618
100
AcDbArc
 50
23.1735654071
 51
23.8766102953
  0
SPLINE
  5
30F
330
1F
100
AcDbEntity
  8
0
  6
Continuous
 62
     7
370
     0
100
AcDbSpline
210
0.0
220
0.0
230
1.0
 70
     8
 71
     3
 72
    13
 73
     9
 74
     0
 42
0.00000001
 43
0.00000001
 40
0.0
 40
0.0
 40
0.0
 40
0.0
 40
0.2504598900566604
 40
0.4998947466964543
 40
0.6257393024579526
 40
0.7498233176506016
 40
0.8747960687617473
 40
1.0
 40
1.0
 40
1.0
 40
1.0
 10
11.08169411686841
 20
9.420802843110263
 30
0.0
 10
11.0811330108573
 20
9.421983567917078
 30
0.0
 10
11.08001309522039
 20
9.424340185290372
 30
0.0
 10
11.07808420109617
 20
9.426976007869131
 30
0.0
 10
11.07607881271535
 20
9.428291651626262
 30
0.0
 10
11.07444435143125
 20
9.4287072976017
 30
0.0
 10
11.07281578424599
 20
9.428592027439123
 30
0.0
 10
11.07184646329346
 20
9.428111710570564
 30
0.0
 10
11.07136135495823
 20
9.427871330213694
 30
0.0
  0
SPLINE
  5
310
330
1F
100
AcDbEntity
  8
0
  6
Continuous
 62
     7
370
     0
100
AcDbSpline
210
0.0
220
0.0
230
1.0
 70
     8
 71
     3
 72
    13
 73
     9
 74
     0
 42
0.00000001
 43
0.00000001
 40
0.0
 40
0.0
 40
0.0
 40
0.0
 40
0.1295610237635411
 40
0.2496774389478988
 40
0.3752077547154529
 40
0.4998009282121127
 40
0.74957428411128
 40
1.0
 40
1.0
 40
1.0
 40
1.0
 10
11.07136135495823
 20
9.427871330213694
 30
0.0
 10
11.07090132010988
 20
9.427555862049463
 30
0.0
 10
11.07001478556866
 20
9.426947922400435
 30
0.0
 10
11.06905454071562
 20
9.425489157499355
 30
0.0
 10
11.06849832103355
 20
9.423756559707371
 30
0.0
 10
11.06839938685419
 20
9.421174839246586
 30
0.0
 10
11.06921507481048
 20
9.417963912591198
 30
0.0
 10
11.07020043777263
 20
9.41558712776398
 30
0.0
 10
11.07069376180924
 20
9.414397185448129
 30
0.0
  0
ARC
  5
311
330
1F
100
AcDbEntity
  8
0
  6
Continuous
 62
     7
370
     0
100
AcDbCircle
 10
10.1555653705
 20
9.0093674864
 30
0.0
 40
1.000754230369618
100
AcDbArc
 50
23.1735617616
 51
23.8738605119
  0
LINE
  5
312
330
1F
100
AcDbEntity
  8
0
  6
Continuous
 62
     7
370
     0
100
AcDbLine
 10
11.0755757671
 20
9.4031820365
 30
0.0
 11
11.086595613
 21
9.4095436582
 31
0.0
  0
ARC
  5
313
330
1F
100
AcDbEntity
  8
0
  6
Continuous
 62
     7
370
     0
100
AcDbCircle
 10
10.1591599566
 20
9.0210142678
 30
0.0
 40
0.980626912476268
100
AcDbArc
 50
37.7642920413
 51
38.3699435682
  0
SPLINE
  5
314
330
1F
100
AcDbEntity
  8
0
  6
Continuous
 62
     7
370
     0
100
AcDbSpline
210
0.0
220
0.0
230
1.0
 70
    24
 71
     1
 72
     4
 73
     2
 74
     0
 42
0.00000001
 43
0.00000001
 40
0.0
 40
0.0
 40
1.0
 40
1.0
 10
10.92799027763218
 20
9.62972526568447
 30
0.0
 10
10.92320564788047
 20
9.63438149584222
 30
0.0
  0
ARC
  5
315
330
1F
100
AcDbEntity
  8
0
  6
Continuous
 62
     7
370
     0
100
AcDbCircle
 10
10.9180524208
 20
9.629590619
 30
0.0
 40
0.0070362098996595
100
AcDbArc
 50
42.9131396398
 51
116.6623658104
  0
SPLINE
  5
316
330
1F
100
AcDbEntity
  8
0
  6
Continuous
 62
     7
370
     0
100
AcDbSpline
210
0.0
220
0.0
230
1.0
 70
     8
 71
     3
 72
    12
 73
     8
 74
     0
 42
0.00000001
 43
0.00000001
 40
0.0
 40
0.0
 40
0.0
 40
0.0
 40
0.1254669244527609
 40
0.2506002708972806
 40
0.375447642564412
 40
0.5006747216465017
 40
1.0
 40
1.0
 40
1.0
 40
1.0
 10
10.91489504760154
 20
9.635878642863346
 30
0.0
 10
10.91443993561186
 20
9.635575140780897
 30
0.0
 10
10.91353092163548
 20
9.6349689435348
 30
0.0
 10
10.91261838994131
 20
9.633638623355022
 30
0.0
 10
10.91225233863637
 20
9.632016789497378
 30
0.0
 10
10.91297057169947
 20
9.628479449783562
 30
0.0
 10
10.91504521971105
 20
9.625823532962304
 30
0.0
 10
10.91670388640814
 20
9.62370014588311
 30
0.0
  0
ARC
  5
317
330
1F
100
AcDbEntity
  8
0
  6
Continuous
 62
     7
370
     0
100
AcDbCircle
 10
10.1482771137
 20
9.0147595706
 30
0.0
 40
0.9804531244318329
100
AcDbArc
 50
37.7642555152
 51
38.3951005889
  0
LINE
  5
318
330
1F
100
AcDbEntity
  8
0
  6
Continuous
 62
     7
370
     0
100
AcDbLine
 10
10.9233618071
 20
9.6152027797
 30
0.0
 11
10.934381653
 21
9.6215644013
 31
0.0
  0
SPLINE
  5
319
330
1F
100
AcDbEntity
  8
0
  6
Continuous
 62
     7
370
     0
100
AcDbSpline
210
0.0
220
0.0
230
1.0
 70
    24
 71
     1
 72
     4
 73
     2
 74
     0
 42
0.00000001
 43
0.00000001
 40
0.0
 40
0.0
 40
1.0
 40
1.0
 10
10.84212738430502
 20
9.713710145888301
 30
0.0
 10
10.87410890056208
 20
9.709829989104321
 30
0.0
  0
ARC
  5
31A
330
1F
100
AcDbEntity
  8
0
  6
Continuous
 62
     7
370
     0
100
AcDbCircle
 10
10.2613687453
 20
9.1088803379
 30
0.0
 40
0.8582487874143826
100
AcDbArc
 50
44.4434122557
 51
45.7815112806
  0
LINE
  5
31B
330
1F
100
AcDbEntity
  8
0
  6
Continuous
 62
     7
370
     0
100
AcDbLine
 10
10.8599083649
 20
9.7239748875
 30
0.0
 11
10.8421273843
 21
9.7137101459
 31
0.0
  0
ARC
  5
31C
330
1F
100
AcDbEntity
  8
0
  6
Continuous
 62
     7
370
     0
100
AcDbCircle
 10
10.5815822177
 20
9.7812114599
 30
0.0
 40
0.0162782299382081
100
AcDbArc
 50
243.3782011089
 51
274.3331079582
  0
SPLINE
  5
31D
330
1F
100
AcDbEntity
  8
0
  6
Continuous
 62
     7
370
     0
100
AcDbSpline
210
0.0
220
0.0
230
1.0
 70
     8
 71
     3
 72
     9
 73
     5
 74
     0
 42
0.00000001
 43
0.00000001
 40
0.0
 40
0.0
 40
0.0
 40
0.0
 40
0.4990303792096986
 40
1.0
 40
1.0
 40
1.0
 40
1.0
 10
10.58281211818546
 20
9.7649797589647
 30
0.0
 10
10.58401531608577
 20
9.765142905180255
 30
0.0
 10
10.58642638753642
 20
9.765469831600674
 30
0.0
 10
10.58840001823377
 20
9.766329451335423
 30
0.0
 10
10.5893887472558
 20
9.766760094707962
 30
0.0
  0
ARC
  5
31E
330
1F
100
AcDbEntity
  8
0
  6
Continuous
 62
     7
370
     0
100
AcDbCircle
 10
10.3374979437
 20
9.3042961031
 30
0.0
 40
0.5266136348787869
100
AcDbArc
 50
61.4241439188
 51
63.3124866362
  0
SPLINE
  5
31F
330
1F
100
AcDbEntity
  8
0
  6
Continuous
 62
     7
370
     0
100
AcDbSpline
210
0.0
220
0.0
230
1.0
 70
     8
 71
     3
 72
    14
 73
    10
 74
     0
 42
0.00000001
 43
0.00000001
 40
0.0
 40
0.0
 40
0.0
 40
0.0
 40
0.2498680581561289
 40
0.3817391960342946
 40
0.4998759012711002
 40
0.621572065211355
 40
0.7497806842472748
 40
0.8748255772342413
 40
1.0
 40
1.0
 40
1.0
 40
1.0
 10
10.5740129201013
 20
9.774809212787904
 30
0.0
 10
10.57319422166127
 20
9.774162713567078
 30
0.0
 10
10.57194344440467
 20
9.773175015921305
 30
0.0
 10
10.57095489106966
 20
9.771711251456919
 30
0.0
 10
10.57068415604547
 20
9.770574287666383
 30
0.0
 10
10.5709700018896
 20
9.769464901885234
 30
0.0
 10
10.57173024828085
 20
9.768417412435094
 30
0.0
 10
10.57285217264437
 20
9.767462004268886
 30
0.0
 10
10.57380919578632
 20
9.766926750951509
 30
0.0
 10
10.57428795506598
 20
9.766658985751869
 30
0.0
  0
SPLINE
  5
320
330
1F
100
AcDbEntity
  8
0
  6
Continuous
 62
     7
370
     0
100
AcDbSpline
210
0.0
220
0.0
230
1.0
 70
     8
 71
     3
 72
    13
 73
     9
 74
     0
 42
0.00000001
 43
0.00000001
 40
0.0
 40
0.0
 40
0.0
 40
0.0
 40
0.5004639766923271
 40
0.6282475802603481
 40
0.7518824419756447
 40
0.813331442105765
 40
0.8755414302560777
 40
1.0
 40
1.0
 40
1.0
 40
1.0
 10
10.81483652529034
 20
9.756764551558076
 30
0.0
 10
10.81847138135459
 20
9.758931850704267
 30
0.0
 10
10.82303432620839
 20
9.761652526932146
 30
0.0
 10
10.82688076601151
 20
9.765969329644985
 30
0.0
 10
10.8276889729396
 20
9.768116365783335
 30
0.0
 10
10.82766109206948
 20
9.76991568654003
 30
0.0
 10
10.82707954955497
 20
9.77175688683185
 30
0.0
 10
10.82587338651499
 20
9.77295884621568
 30
0.0
 10
10.82506919469755
 20
9.773760235305996
 30
0.0
  0
SPLINE
  5
321
330
1F
100
AcDbEntity
  8
0
  6
Continuous
 62
     7
370
     0
100
AcDbSpline
210
0.0
220
0.0
230
1.0
 70
     8
 71
     3
 72
    13
 73
     9
 74
     0
 42
0.00000001
 43
0.00000001
 40
0.0
 40
0.0
 40
0.0
 40
0.0
 40
0.1246091732983605
 40
0.1867338934545711
 40
0.2497493975586551
 40
0.3745255218346114
 40
0.4996502570873223
 40
1.0
 40
1.0
 40
1.0
 40
1.0
 10
10.82506919469755
 20
9.773760235305996
 30
0.0
 10
10.82409213033538
 20
9.7744438988895
 30
0.0
 10
10.82262794413084
 20
9.775468407433946
 30
0.0
 10
10.82017717285909
 20
9.776240845130689
 30
0.0
 10
10.81764771202582
 20
9.776679510756878
 30
0.0
 10
10.81448903786992
 20
9.776518265951381
 30
0.0
 10
10.80766407599898
 20
9.774853146717543
 30
0.0
 10
10.80310462642105
 20
9.772204124112605
 30
0.0
 10
10.79945728427716
 20
9.770085032406037
 30
0.0
  0
SPLINE
  5
322
330
1F
100
AcDbEntity
  8
0
  6
Continuous
 62
     7
370
     0
100
AcDbSpline
210
0.0
220
0.0
230
1.0
 70
     8
 71
     3
 72
    13
 73
     9
 74
     0
 42
0.00000001
 43
0.00000001
 40
0.0
 40
0.0
 40
0.0
 40
0.0
 40
0.5004231501093629
 40
0.6255784393530968
 40
0.7503815851610426
 40
0.8126552223360359
 40
0.8754890600875096
 40
1.0
 40
1.0
 40
1.0
 40
1.0
 10
10.79945728427716
 20
9.770085032406037
 30
0.0
 10
10.7957396375473
 20
9.767873290071153
 30
0.0
 10
10.79109221138641
 20
9.765108393367623
 30
0.0
 10
10.78707221367242
 20
9.7608037837284
 30
0.0
 10
10.78626289242672
 20
9.75863451512601
 30
0.0
 10
10.78637863476274
 20
9.756793550944332
 30
0.0
 10
10.78706633449763
 20
9.754932376245641
 30
0.0
 10
10.78832454472583
 20
9.75371419530302
 30
0.0
 10
10.78916076199366
 20
9.752904581840395
 30
0.0
  0
SPLINE
  5
323
330
1F
100
AcDbEntity
  8
0
  6
Continuous
 62
     7
370
     0
100
AcDbSpline
210
0.0
220
0.0
230
1.0
 70
     8
 71
     3
 72
    13
 73
     9
 74
     0
 42
0.00000001
 43
0.00000001
 40
0.0
 40
0.0
 40
0.0
 40
0.0
 40
0.1245513980942282
 40
0.185989945769818
 40
0.2495609023916453
 40
0.3742835246961168
 40
0.4994689293691092
 40
1.0
 40
1.0
 40
1.0
 40
1.0
 10
10.78916076199366
 20
9.752904581840395
 30
0.0
 10
10.79013862048179
 20
9.75220462502456
 30
0.0
 10
10.79159883570184
 20
9.751159394443366
 30
0.0
 10
10.7940717294045
 20
9.750354946743425
 30
0.0
 10
10.79662798262082
 20
9.749942306433292
 30
0.0
 10
10.79979180266115
 20
9.750159695597736
 30
0.0
 10
10.80646138458366
 20
9.752083486985766
 30
0.0
 10
10.81111441449886
 20
9.754684175649132
 30
0.0
 10
10.81483652529034
 20
9.756764551558076
 30
0.0
  0
SPLINE
  5
324
330
1F
100
AcDbEntity
  8
0
  6
Continuous
 62
     7
370
     0
100
AcDbSpline
210
0.0
220
0.0
230
1.0
 70
     8
 71
     3
 72
    13
 73
     9
 74
     0
 42
0.00000001
 43
0.00000001
 40
0.0
 40
0.0
 40
0.0
 40
0.0
 40
0.2503907102769043
 40
0.4999495678157617
 40
0.625360635494002
 40
0.7501944146352185
 40
0.8700210567359579
 40
1.0
 40
1.0
 40
1.0
 40
1.0
 10
10.52779751709487
 20
9.79901466029369
 30
0.0
 10
10.52668593198919
 20
9.798337269410652
 30
0.0
 10
10.52446645470681
 20
9.796984738085337
 30
0.0
 10
10.52254584843369
 20
9.795049911452148
 30
0.0
 10
10.52201716045349
 20
9.793478406300865
 30
0.0
 10
10.52224134181746
 20
9.79236853687333
 30
0.0
 10
10.52309893014766
 20
9.791367285716012
 30
0.0
 10
10.52414702227398
 20
9.790886722540547
 30
0.0
 10
10.52469236599327
 20
9.790636675714621
 30
0.0
  0
ARC
  5
325
330
1F
100
AcDbEntity
  8
0
  6
Continuous
 62
     7
370
     0
100
AcDbCircle
 10
10.529269365
 20
9.8097350967
 30
0.0
 40
0.0196392108689299
100
AcDbArc
 50
256.5230524323
 51
307.8262939141
  0
SPLINE
  5
326
330
1F
100
AcDbEntity
  8
0
  6
Continuous
 62
     7
370
     0
100
AcDbSpline
210
0.0
220
0.0
230
1.0
 70
     8
 71
     3
 72
    13
 73
     9
 74
     0
 42
0.00000001
 43
0.00000001
 40
0.0
 40
0.0
 40
0.0
 40
0.0
 40
0.2504308113692004
 40
0.5001650640268943
 40
0.6247953729339704
 40
0.7514764919477113
 40
0.8754581573932075
 40
1.0
 40
1.0
 40
1.0
 40
1.0
 10
10.5413134960766
 20
9.794222601379364
 30
0.0
 10
10.54240148378575
 20
9.794884952238952
 30
0.0
 10
10.54457443302963
 20
9.796207811667802
 30
0.0
 10
10.54663028287983
 20
9.7980907033473
 30
0.0
 10
10.54732653548133
 20
9.799671013407327
 30
0.0
 10
10.54729552753883
 20
9.800823244184787
 30
0.0
 10
10.54660883635733
 20
9.801878165949427
 30
0.0
 10
10.54558394975724
 20
9.802349085164638
 30
0.0
 10
10.54507035139932
 20
9.8025850755031
 30
0.0
  0
ARC
  5
327
330
1F
100
AcDbEntity
  8
0
  6
Continuous
 62
     7
370
     0
100
AcDbCircle
 10
10.540337917
 20
9.7819133116
 30
0.0
 40
0.0212065498559717
100
AcDbArc
 50
77.1053503885
 51
126.2525542721
  0
SPLINE
  5
328
330
1F
100
AcDbEntity
  8
0
  6
Continuous
 62
     7
370
     0
100
AcDbSpline
210
0.0
220
0.0
230
1.0
 70
     8
 71
     3
 72
    13
 73
     9
 74
     0
 42
0.00000001
 43
0.00000001
 40
0.0
 40
0.0
 40
0.0
 40
0.0
 40
0.5004639766923168
 40
0.6282475802571573
 40
0.7518824419762691
 40
0.8133314421060748
 40
0.8755414302563098
 40
0.9999999999999999
 40
0.9999999999999999
 40
0.9999999999999999
 40
0.9999999999999999
 10
10.7627447280933
 20
9.79721209685002
 30
0.0
 10
10.76637848628855
 20
9.799373046734717
 30
0.0
 10
10.77094005295413
 20
9.802085752542418
 30
0.0
 10
10.77475495611162
 20
9.80620654577694
 30
0.0
 10
10.77553822037952
 20
9.808195913817872
 30
0.0
 10
10.77548391362622
 20
9.809824075323458
 30
0.0
 10
10.77487105941505
 20
9.811459432790523
 30
0.0
 10
10.77363855189547
 20
9.812480366787753
 30
0.0
 10
10.77281679527605
 20
9.813161059811428
 30
0.0
  0
SPLINE
  5
329
330
1F
100
AcDbEntity
  8
0
  6
Continuous
 62
     7
370
     0
100
AcDbSpline
210
0.0
220
0.0
230
1.0
 70
     8
 71
     3
 72
    13
 73
     9
 74
     0
 42
0.00000001
 43
0.00000001
 40
0.0
 40
0.0
 40
0.0
 40
0.0
 40
0.1246091732983664
 40
0.1867338934564898
 40
0.249749397558613
 40
0.3745255218345725
 40
0.4996502570872915
 40
1.0
 40
1.0
 40
1.0
 40
1.0
 10
10.77281679527605
 20
9.813161059811428
 30
0.0
 10
10.77182279698265
 20
9.813725127071963
 30
0.0
 10
10.77033323432443
 20
9.814570413762686
 30
0.0
 10
10.76785388705722
 20
9.815131428168938
 30
0.0
 10
10.76529997971092
 20
9.815385964233812
 30
0.0
 10
10.76212041912519
 20
9.81506272010104
 30
0.0
 10
10.75526735293571
 20
9.813175128594443
 30
0.0
 10
10.75070818999526
 20
9.810527635449992
 30
0.0
 10
10.74706107714768
 20
9.808409767238844
 30
0.0
  0
SPLINE
  5
32A
330
1F
100
AcDbEntity
  8
0
  6
Continuous
 62
     7
370
     0
100
AcDbSpline
210
0.0
220
0.0
230
1.0
 70
     8
 71
     3
 72
    13
 73
     9
 74
     0
 42
0.00000001
 43
0.00000001
 40
0.0
 40
0.0
 40
0.0
 40
0.0
 40
0.500423150109364
 40
0.6255784393530973
 40
0.7503815851610417
 40
0.8126552223360455
 40
0.8754890600875075
 40
1.0
 40
1.0
 40
1.0
 40
1.0
 10
10.74706107714768
 20
9.808409767238844
 30
0.0
 10
10.74334418267615
 20
9.806204532149557
 30
0.0
 10
10.73869769691258
 20
9.80344777014672
 30
0.0
 10
10.73470219120249
 20
9.799337209294855
 30
0.0
 10
10.73391422960967
 20
9.797333866344138
 30
0.0
 10
10.73405451495452
 20
9.795677922251226
 30
0.0
 10
10.73477169729133
 20
9.794035060039565
 30
0.0
 10
10.73605632228564
 20
9.793003229688722
 30
0.0
 10
10.73691009503272
 20
9.792317466421576
 30
0.0
  0
SPLINE
  5
32B
330
1F
100
AcDbEntity
  8
0
  6
Continuous
 62
     7
370
     0
100
AcDbSpline
210
0.0
220
0.0
230
1.0
 70
     8
 71
     3
 72
    13
 73
     9
 74
     0
 42
0.00000001
 43
0.00000001
 40
0.0
 40
0.0
 40
0.0
 40
0.0
 40
0.1245513980942085
 40
0.1859899457708284
 40
0.2495609023917696
 40
0.3742835246962198
 40
0.4994689293691898
 40
1.0
 40
1.0
 40
1.0
 40
1.0
 10
10.73691009503272
 20
9.792317466421576
 30
0.0
 10
10.73790552225716
 20
9.791738061111593
 30
0.0
 10
10.73939197249637
 20
9.790872847522408
 30
0.0
 10
10.74189700632124
 20
9.790279395573574
 30
0.0
 10
10.74448080181881
 20
9.790044701507336
 30
0.0
 10
10.74766856547944
 20
9.790412960092121
 30
0.0
 10
10.75436715100354
 20
9.792516847206237
 30
0.0
 10
10.75902153451551
 20
9.795125416759516
 30
0.0
 10
10.7627447280933
 20
9.79721209685002
 30
0.0
  0
ARC
  5
32C
330
1F
100
AcDbEntity
  8
0
  6
Continuous
 62
     7
370
     0
100
AcDbCircle
 10
10.4004364666
 20
9.5007792104
 30
0.0
 40
0.3129907833632009
100
AcDbArc
 50
81.1753625894
 51
81.8665909596
  0
ARC
  5
32D
330
1F
100
AcDbEntity
  8
0
  6
Continuous
 62
     7
370
     0
100
AcDbCircle
 10
10.4412817845
 20
9.7892425247
 30
0.0
 40
0.0216535725262354
100
AcDbArc
 50
80.8692944357
 51
119.5579367142
  0
SPLINE
  5
32E
330
1F
100
AcDbEntity
  8
0
  6
Continuous
 62
     7
370
     0
100
AcDbSpline
210
0.0
220
0.0
230
1.0
 70
     8
 71
     3
 72
    13
 73
     9
 74
     0
 42
0.00000001
 43
0.00000001
 40
0.0
 40
0.0
 40
0.0
 40
0.0
 40
0.2485126094938616
 40
0.3782641238705001
 40
0.4992248968174604
 40
0.5972187856319753
 40
0.7114003712053983
 40
1.0
 40
1.0
 40
1.0
 40
1.0
 10
10.43060000356767
 20
9.808078043289923
 30
0.0
 10
10.42973070605358
 20
9.807511564578299
 30
0.0
 10
10.42840753753018
 20
9.806649320308358
 30
0.0
 10
10.42766575326202
 20
9.805575642624893
 30
0.0
 10
10.42759442841126
 20
9.804913407520427
 30
0.0
 10
10.42806008592166
 20
9.804435202840935
 30
0.0
 10
10.42923712939445
 20
9.803898023706362
 30
0.0
 10
10.43062957099995
 20
9.803664535457106
 30
0.0
 10
10.43162727922499
 20
9.803497237133206
 30
0.0
  0
ARC
  5
32F
330
1F
100
AcDbEntity
  8
0
  6
Continuous
 62
     7
370
     0
100
AcDbCircle
 10
10.3880068638
 20
9.4939643069
 30
0.0
 40
0.3125913875391356
100
AcDbArc
 50
81.1750443358
 51
81.97850949
  0
LINE
  5
330
330
1F
100
AcDbEntity
  8
0
  6
Continuous
 62
     7
370
     0
100
AcDbLine
 10
10.4359634632
 20
9.8028551292
 30
0.0
 11
10.4484526219
 21
9.8100649671
 31
0.0
  0
ARC
  5
331
330
1F
100
AcDbEntity
  8
0
  6
Continuous
 62
     7
370
     0
100
AcDbCircle
 10
10.6816559565
 20
9.3163828031
 30
0.0
 40
0.9016430241830445
100
AcDbArc
 50
2.4380718993
 51
57.556551568
  0
SPLINE
  5
332
330
1F
100
AcDbEntity
  8
0
  6
Continuous
 62
     7
370
     0
100
AcDbSpline
210
0.0
220
0.0
230
1.0
 70
     8
 71
     3
 72
    13
 73
     9
 74
     0
 42
0.00000001
 43
0.00000001
 40
0.0
 40
0.0
 40
0.0
 40
0.0
 40
0.5004639766923256
 40
0.6282475802606389
 40
0.7518824419760105
 40
0.8133314421057575
 40
0.8755414302560685
 40
1.0
 40
1.0
 40
1.0
 40
1.0
 10
10.63118900048038
 20
9.865954789651864
 30
0.0
 10
10.63482334940677
 20
9.868097728967113
 30
0.0
 10
10.63938565763506
 20
9.870787825561774
 30
0.0
 10
10.64322389283728
 20
9.874354444309269
 30
0.0
 10
10.64402684460926
 20
9.875898370745427
 30
0.0
 10
10.64399531804885
 20
9.877043482407247
 30
0.0
 10
10.64341087478931
 20
9.87809827035031
 30
0.0
 10
10.64220593121782
 20
9.878609559133354
 30
0.0
 10
10.6414025524634
 20
9.87895045355811
 30
0.0
  0
ARC
  5
333
330
1F
100
AcDbEntity
  8
0
  6
Continuous
 62
     7
370
     0
100
AcDbCircle
 10
10.6371262983
 20
9.8470829658
 30
0.0
 40
0.0321531200352578
100
AcDbArc
 50
82.3572137394
 51
131.4587032902
  0
SPLINE
  5
334
330
1F
100
AcDbEntity
  8
0
  6
Continuous
 62
     7
370
     0
100
AcDbSpline
210
0.0
220
0.0
230
1.0
 70
     8
 71
     3
 72
    13
 73
     9
 74
     0
 42
0.00000001
 43
0.00000001
 40
0.0
 40
0.0
 40
0.0
 40
0.0
 40
0.5004231501093696
 40
0.6255784393531071
 40
0.750381585161055
 40
0.8126552223401539
 40
0.8754890600875076
 40
0.9999999999999999
 40
0.9999999999999999
 40
0.9999999999999999
 40
0.9999999999999999
 10
10.61583835876236
 20
9.871179578786538
 30
0.0
 10
10.61212005227953
 20
9.86899251212265
 30
0.0
 10
10.60747180136217
 20
9.866258462448775
 30
0.0
 10
10.60343864290562
 20
9.86269129464588
 30
0.0
 10
10.60261938790953
 20
9.861152916556769
 30
0.0
 10
10.60272634741539
 20
9.860016009271577
 30
0.0
 10
10.60340533917889
 20
9.858985986392597
 30
0.0
 10
10.60466006526017
 20
9.858478244907442
 30
0.0
 10
10.60549396693421
 20
9.85814079557825
 30
0.0
  0
ARC
  5
335
330
1F
100
AcDbEntity
  8
0
  6
Continuous
 62
     7
370
     0
100
AcDbCircle
 10
10.6099080538
 20
9.8897797391
 30
0.0
 40
0.0319453738470408
100
AcDbArc
 50
262.0576819024
 51
311.7718996928
  0
SPLINE
  5
336
330
1F
100
AcDbEntity
  8
0
  6
Continuous
 62
     7
370
     0
100
AcDbSpline
210
0.0
220
0.0
230
1.0
 70
     8
 71
     3
 72
     9
 73
     5
 74
     0
 42
0.00000001
 43
0.00000001
 40
0.0
 40
0.0
 40
0.0
 40
0.0
 40
0.4999994377870612
 40
1.0
 40
1.0
 40
1.0
 40
1.0
 10
10.40241848084823
 20
9.82151137845416
 30
0.0
 10
10.40369692027554
 20
9.82175299065381
 30
0.0
 10
10.40625380200517
 20
9.822236215596456
 30
0.0
 10
10.40871581493539
 20
9.822607692293952
 30
0.0
 10
10.40994682278468
 20
9.822793430851547
 30
0.0
  0
SPLINE
  5
337
330
1F
100
AcDbEntity
  8
0
  6
Continuous
 62
     7
370
     0
100
AcDbSpline
210
0.0
220
0.0
230
1.0
 70
    24
 71
     1
 72
     4
 73
     2
 74
     0
 42
0.00000001
 43
0.00000001
 40
0.0
 40
0.0
 40
1.0
 40
1.0
 10
10.40994682278468
 20
9.822793430851547
 30
0.0
 10
10.41730196405192
 20
9.824146841634576
 30
0.0
  0
ARC
  5
338
330
1F
100
AcDbEntity
  8
0
  6
Continuous
 62
     7
370
     0
100
AcDbCircle
 10
10.4135343633
 20
9.8388516138
 30
0.0
 40
0.0151797608575773
100
AcDbArc
 50
284.3709610072
 51
298.7285988773
  0
SPLINE
  5
339
330
1F
100
AcDbEntity
  8
0
  6
Continuous
 62
     7
370
     0
100
AcDbSpline
210
0.0
220
0.0
230
1.0
 70
     8
 71
     3
 72
    13
 73
     9
 74
     0
 42
0.00000001
 43
0.00000001
 40
0.0
 40
0.0
 40
0.0
 40
0.0
 40
0.1250915069580674
 40
0.2499455687836611
 40
0.3709820857025372
 40
0.5001127109824529
 40
0.7496528854791256
 40
1.0
 40
1.0
 40
1.0
 40
1.0
 10
10.42083068629982
 20
9.825540385057328
 30
0.0
 10
10.42109985635232
 20
9.8257053508915
 30
0.0
 10
10.42163768552641
 20
9.826034969426397
 30
0.0
 10
10.4220862194691
 20
9.826479228603285
 30
0.0
 10
10.42223653831422
 20
9.8268454194942
 30
0.0
 10
10.42206452670936
 20
9.827209497519188
 30
0.0
 10
10.42125931599885
 20
9.827429845866064
 30
0.0
 10
10.42029161031744
 20
9.82741991335673
 30
0.0
 10
10.41980697642022
 20
9.827414939085317
 30
0.0
  0
ARC
  5
33A
330
1F
100
AcDbEntity
  8
0
  6
Continuous
 62
     7
370
     0
100
AcDbCircle
 10
10.4221485271
 20
9.7925240681
 30
0.0
 40
0.0349693543133653
100
AcDbArc
 50
93.8394025947
 51
120.3613124917
  0
LINE
  5
33B
330
1F
100
AcDbEntity
  8
0
  6
Continuous
 62
     7
370
     0
100
AcDbLine
 10
10.404473223
 20
9.8226975558
 30
0.0
 11
10.4024184808
 21
9.8215113785
 31
0.0
  0
SPLINE
  5
33C
330
1F
100
AcDbEntity
  8
0
  6
Continuous
 62
     7
370
     0
100
AcDbSpline
210
0.0
220
0.0
230
1.0
 70
     8
 71
     3
 72
    13
 73
     9
 74
     0
 42
0.00000001
 43
0.00000001
 40
0.0
 40
0.0
 40
0.0
 40
0.0
 40
0.5004639766922728
 40
0.6282475802592883
 40
0.7518824419765563
 40
0.8133314421049528
 40
0.8755414302554542
 40
1.0
 40
1.0
 40
1.0
 40
1.0
 10
10.58018099220574
 20
9.879380674153285
 30
0.0
 10
10.58381690195522
 20
9.881515847904016
 30
0.0
 10
10.58838116953197
 20
9.884196196150446
 30
0.0
 10
10.59226922662922
 20
9.887524519592676
 30
0.0
 10
10.59311255009569
 20
9.888877022956777
 30
0.0
 10
10.59312530218327
 20
9.889814729242985
 30
0.0
 10
10.59259443619284
 20
9.890620369520649
 30
0.0
 10
10.59143743887944
 20
9.89091327635626
 30
0.0
 10
10.59066602760135
 20
9.891108567766015
 30
0.0
  0
ARC
  5
33D
330
1F
100
AcDbEntity
  8
0
  6
Continuous
 62
     7
370
     0
100
AcDbCircle
 10
10.5907596359
 20
9.8510795155
 30
0.0
 40
0.0400291617501499
100
AcDbArc
 50
90.1339864434
 51
129.3188540347
  0
SPLINE
  5
33E
330
1F
100
AcDbEntity
  8
0
  6
Continuous
 62
     7
370
     0
100
AcDbSpline
210
0.0
220
0.0
230
1.0
 70
     8
 71
     3
 72
    13
 73
     9
 74
     0
 42
0.00000001
 43
0.00000001
 40
0.0
 40
0.0
 40
0.0
 40
0.0
 40
0.5004231501093551
 40
0.6255784393530871
 40
0.750381585161031
 40
0.8126552223364014
 40
0.8754890600875138
 40
1.0
 40
1.0
 40
1.0
 40
1.0
 10
10.56539573869309
 20
9.882047345697956
 30
0.0
 10
10.56167557336317
 20
9.879868010325692
 30
0.0
 10
10.55702499870306
 20
9.877143625531124
 30
0.0
 10
10.55293783990493
 20
9.873808264345723
 30
0.0
 10
10.55207270071534
 20
9.872468352088742
 30
0.0
 10
10.55212899985825
 20
9.8715531922108
 30
0.0
 10
10.55274857918891
 20
9.87078513708139
 30
0.0
 10
10.55395345882105
 20
9.870501771782225
 30
0.0
 10
10.55475423211909
 20
9.870313444783324
 30
0.0
  0
ARC
  5
33F
330
1F
100
AcDbEntity
  8
0
  6
Continuous
 62
     7
370
     0
100
AcDbCircle
 10
10.5549536765
 20
9.9099392388
 30
0.0
 40
0.0396262959515027
100
AcDbArc
 50
269.7116215239
 51
309.5410340483
  0
SPLINE
  5
340
330
1F
100
AcDbEntity
  8
0
  6
Continuous
 62
     7
370
     0
100
AcDbSpline
210
0.0
220
0.0
230
1.0
 70
     8
 71
     3
 72
    13
 73
     9
 74
     0
 42
0.00000001
 43
0.00000001
 40
0.0
 40
0.0
 40
0.0
 40
0.0
 40
0.5004639766923314
 40
0.628247580256854
 40
0.7518824419755761
 40
0.8133314421054404
 40
0.8755414302558384
 40
1.0
 40
1.0
 40
1.0
 40
1.0
 10
11.1571948943048
 20
9.984043979665016
 30
0.0
 10
11.16082920941198
 20
9.98620874950386
 30
0.0
 10
11.16539147518597
 20
9.98892625061564
 30
0.0
 10
11.16922219788142
 20
9.993164919230692
 30
0.0
 10
11.17001793947955
 20
9.995249095815417
 30
0.0
 10
11.16997679827849
 20
9.996980164156511
 30
0.0
 10
11.16937950408364
 20
9.998739271206611
 30
0.0
 10
11.16815998582399
 20
9.999869008970155
 30
0.0
 10
11.16734688960637
 20
10.00062224533638
 30
0.0
  0
SPLINE
  5
341
330
1F
100
AcDbEntity
  8
0
  6
Continuous
 62
     7
370
     0
100
AcDbSpline
210
0.0
220
0.0
230
1.0
 70
     8
 71
     3
 72
    13
 73
     9
 74
     0
 42
0.00000001
 43
0.00000001
 40
0.0
 40
0.0
 40
0.0
 40
0.0
 40
0.1246091732983709
 40
0.1867338934544483
 40
0.2497493975586056
 40
0.3745255218345662
 40
0.4996502570872866
 40
1.0
 40
1.0
 40
1.0
 40
1.0
 10
11.16734688960637
 20
10.00062224533638
 30
0.0
 10
11.16636119840896
 20
10.00125818469923
 30
0.0
 10
11.16488408440392
 20
10.00221117579998
 30
0.0
 10
11.16241862991963
 20
10.00289921665366
 30
0.0
 10
11.15987656516754
 20
10.00326437107537
 30
0.0
 10
11.15670706139566
 20
10.00303843672101
 30
0.0
 10
11.14986746879959
 20
10.00128446729038
 30
0.0
 10
11.14530815878283
 20
9.998636053482391
 30
0.0
 10
11.14166092828121
 20
9.996517448784337
 30
0.0
  0
SPLINE
  5
342
330
1F
100
AcDbEntity
  8
0
  6
Continuous
 62
     7
370
     0
100
AcDbSpline
210
0.0
220
0.0
230
1.0
 70
     8
 71
     3
 72
    13
 73
     9
 74
     0
 42
0.00000001
 43
0.00000001
 40
0.0
 40
0.0
 40
0.0
 40
0.0
 40
0.5004231501093565
 40
0.6255784393530893
 40
0.750381585161032
 40
0.8126552223357845
 40
0.8754890600875075
 40
1.0
 40
1.0
 40
1.0
 40
1.0
 10
11.14166092828121
 20
9.996517448784337
 30
0.0
 10
11.13794368038119
 20
9.994308306809426
 30
0.0
 10
11.13329675279705
 20
9.991546660813087
 30
0.0
 10
11.12928950752493
 20
9.987319550169977
 30
0.0
 10
11.12849126460358
 20
9.985216539693965
 30
0.0
 10
11.12861966274713
 20
9.983449442720842
 30
0.0
 10
11.12932251390744
 20
9.981675415457936
 30
0.0
 10
11.13059417822581
 20
9.98053159601079
 30
0.0
 10
11.13143933719692
 20
9.979771403833402
 30
0.0
  0
SPLINE
  5
343
330
1F
100
AcDbEntity
  8
0
  6
Continuous
 62
     7
370
     0
100
AcDbSpline
210
0.0
220
0.0
230
1.0
 70
     8
 71
     3
 72
    13
 73
     9
 74
     0
 42
0.00000001
 43
0.00000001
 40
0.0
 40
0.0
 40
0.0
 40
0.0
 40
0.1245513980942286
 40
0.1859899457698345
 40
0.2495609023916464
 40
0.3742835246961174
 40
0.4994689293691128
 40
1.0
 40
1.0
 40
1.0
 40
1.0
 10
11.13143933719692
 20
9.979771403833402
 30
0.0
 10
11.13242609983869
 20
9.979119541524321
 30
0.0
 10
11.13389961144145
 20
9.978146129444085
 30
0.0
 10
11.13638866974436
 20
9.977425829080476
 30
0.0
 10
11.13895873769584
 20
9.977084146113233
 30
0.0
 10
11.14213451747174
 20
9.97736168265087
 30
0.0
 10
11.1488185518715
 20
9.979357263935963
 30
0.0
 10
11.15347224943756
 20
9.98196109224824
 30
0.0
 10
11.1571948943048
 20
9.984043979665016
 30
0.0
  0
SPLINE
  5
344
330
1F
100
AcDbEntity
  8
0
  6
Continuous
 62
     7
370
     0
100
AcDbSpline
210
0.0
220
0.0
230
1.0
 70
     8
 71
     3
 72
    13
 73
     9
 74
     0
 42
0.00000001
 43
0.00000001
 40
0.0
 40
0.0
 40
0.0
 40
0.0
 40
0.5004639766922659
 40
0.6282475802566317
 40
0.7518824419758506
 40
0.8133314421072542
 40
0.8755414302571579
 40
1.0
 40
1.0
 40
1.0
 40
1.0
 10
11.10471226999143
 20
10.02163216112962
 30
0.0
 10
11.10834579743039
 20
10.02379034700784
 30
0.0
 10
11.11290707442061
 20
10.02649958307453
 30
0.0
 10
11.11671577353808
 20
10.03053517038809
 30
0.0
 10
11.11749421328843
 20
10.03245602169993
 30
0.0
 10
11.11743492334877
 20
10.03400983752846
 30
0.0
 10
11.11681625928958
 20
10.03555580833095
 30
0.0
 10
11.11557910776073
 20
10.03649819447355
 30
0.0
 10
11.11475425481509
 20
10.03712651684759
 30
0.0
  0
ARC
  5
345
330
1F
100
AcDbEntity
  8
0
  6
Continuous
 62
     7
370
     0
100
AcDbCircle
 10
11.1057751658
 20
10.015199243
 30
0.0
 40
0.0236945009725142
100
AcDbArc
 50
67.7311903947
 51
135.1530589666
  0
SPLINE
  5
346
330
1F
100
AcDbEntity
  8
0
  6
Continuous
 62
     7
370
     0
100
AcDbSpline
210
0.0
220
0.0
230
1.0
 70
     8
 71
     3
 72
    13
 73
     9
 74
     0
 42
0.00000001
 43
0.00000001
 40
0.0
 40
0.0
 40
0.0
 40
0.0
 40
0.5004231501093926
 40
0.6255784393531384
 40
0.7503815851610902
 40
0.8126552223343548
 40
0.8754890600875022
 40
1.0
 40
1.0
 40
1.0
 40
1.0
 10
11.08897592552777
 20
10.03190896782147
 30
0.0
 10
11.08525912197257
 20
10.02970654614706
 30
0.0
 10
11.08061274986342
 20
10.02695330119113
 30
0.0
 10
11.07662075923291
 20
10.02292674449164
 30
0.0
 10
11.07583596616174
 20
10.02099525279222
 30
0.0
 10
11.07598006780439
 20
10.01941946613487
 30
0.0
 10
11.07670195743967
 20
10.01787121201456
 30
0.0
 10
11.07799108796392
 20
10.01692020355771
 30
0.0
 10
11.07884785512467
 20
10.01628815521186
 30
0.0
  0
SPLINE
  5
347
330
1F
100
AcDbEntity
  8
0
  6
Continuous
 62
     7
370
     0
100
AcDbSpline
210
0.0
220
0.0
230
1.0
 70
     8
 71
     3
 72
    13
 73
     9
 74
     0
 42
0.00000001
 43
0.00000001
 40
0.0
 40
0.0
 40
0.0
 40
0.0
 40
0.1245513980942018
 40
0.1859899457721791
 40
0.2495609023918273
 40
0.3742835246962712
 40
0.4994689293692313
 40
0.9999999999999999
 40
0.9999999999999999
 40
0.9999999999999999
 40
0.9999999999999999
 10
11.07884785512467
 20
10.01628815521186
 30
0.0
 10
11.07984638471529
 20
10.01576105912265
 30
0.0
 10
11.08133746765174
 20
10.01497395777694
 30
0.0
 10
11.08384847417124
 20
10.014472132452
 30
0.0
 10
11.08643747720636
 20
10.01431473565728
 30
0.0
 10
11.08962988721107
 20
10.01474856048961
 30
0.0
 10
11.09633418376373
 20
10.01693073718941
 30
0.0
 10
11.10098885014068
 20
10.01954273703562
 30
0.0
 10
11.10471226999143
 20
10.02163216112962
 30
0.0
  0
ARC
  5
348
330
1F
100
AcDbEntity
  8
0
  6
Continuous
 62
     7
370
     0
100
AcDbCircle
 10
10.6687708414
 20
9.0632384035
 30
0.0
 40
0.3002821035788724
100
AcDbArc
 50
231.7590394047
 51
278.7373091073
  0
SPLINE
  5
349
330
1F
100
AcDbEntity
  8
0
  6
Continuous
 62
     7
370
     0
100
AcDbSpline
210
0.0
220
0.0
230
1.0
 70
    24
 71
     1
 72
     4
 73
     2
 74
     0
 42
0.00000001
 43
0.00000001
 40
0.0
 40
0.0
 40
1.0
 40
1.0
 10
10.4848889149281
 20
8.82425925731504
 30
0.0
 10
10.48290521442315
 20
8.827392457006939
 30
0.0
  0
LWPOLYLINE
  5
34A
330
1F
100
AcDbEntity
  8
0
  6
Continuous
 62
     7
370
     0
100
AcDbPolyline
 90
       12
 70
   128
 43
0.0
 10
10.486289167
 20
8.866230927
 10
10.5137365447
 20
8.8492549788
 10
10.5411661326
 20
8.8350266953
 10
10.5683735787
 20
8.8236520778
 10
10.5951561863
 20
8.8152158678
 10
10.6213144236
 20
8.8097809155
 10
10.6466534103
 20
8.8073877116
 10
10.6709843697
 20
8.8080540855
 10
10.6941260349
 20
8.8117750729
 10
10.7159059994
 20
8.818522952
 10
10.7361620013
 20
8.8282474509
 10
10.7496460372
 20
8.837000373
  0
LINE
  5
34B
330
1F
100
AcDbEntity
  8
0
  6
Continuous
 62
     7
370
     0
100
AcDbLine
 10
10.4829052144
 20
8.827392457
 30
0.0
 11
10.486289167
 21
8.866230927
 31
0.0
  0
LINE
  5
34C
330
1F
100
AcDbEntity
  8
0
  6
Continuous
 62
     7
370
     0
100
AcDbLine
 10
10.486289167
 20
8.866230927
 30
0.0
 11
10.5039668366
 21
8.8764360284
 31
0.0
  0
ARC
  5
34D
330
1F
100
AcDbEntity
  8
0
  6
Continuous
 62
     7
370
     0
100
AcDbCircle
 10
10.7741075131
 20
9.2804405514
 30
0.0
 40
0.485999629346271
100
AcDbArc
 50
234.7201697871
 51
236.2310338272
  0
LINE
  5
34E
330
1F
100
AcDbEntity
  8
0
  6
Continuous
 62
     7
370
     0
100
AcDbLine
 10
10.4757308995
 20
8.8734940449
 30
0.0
 11
10.493408569
 21
8.8836991463
 31
0.0
  0
LWPOLYLINE
  5
34F
330
1F
100
AcDbEntity
  8
0
  6
Continuous
 62
     7
370
     0
100
AcDbPolyline
 90
       28
 70
   128
 43
0.0
 10
10.3005216534
 20
9.6149909215
 10
10.2865353196
 20
9.6078855368
 10
10.2679541886
 20
9.5952568661
 10
10.2511863588
 20
9.579818108
 10
10.2363567514
 20
9.5616842819
 10
10.2235758478
 20
9.5409904857
 10
10.2129388663
 20
9.5178908894
 10
10.204525053
 20
9.4925575859
 10
10.1983970912
 20
9.4651793099
 10
10.1946006345
 20
9.4359600308
 10
10.1931639668
 20
9.4051174337
 10
10.1940977913
 20
9.3728812976
 10
10.197395151
 20
9.3394917833
 10
10.2030314803
 20
9.3051976443
 10
10.2109647883
 20
9.2702543739
 10
10.2211359715
 20
9.2349223011
 10
10.233469254
 20
9.1994646517
 10
10.2478727523
 20
9.164145587
 10
10.2642391595
 20
9.1292282357
 10
10.2824465451
 20
9.094972734
 10
10.3023592631
 20
9.0616342871
 10
10.3238289629
 20
9.0294612682
 10
10.3466956939
 20
8.9986933677
 10
10.3707890979
 20
8.9695598083
 10
10.3959296778
 20
8.9422776363
 10
10.4219301351
 20
8.9170501054
 10
10.4485967649
 20
8.8940651619
 10
10.4757308995
 20
8.8734940449
  0
LWPOLYLINE
  5
350
330
1F
100
AcDbEntity
  8
0
  6
Continuous
 62
     7
370
     0
100
AcDbPolyline
 90
       34
 70
   128
 43
0.0
 10
10.3081772006
 20
9.6129214397
 10
10.2936694396
 20
9.5953792429
 10
10.2806492834
 20
9.5745850959
 10
10.2698154096
 20
9.5513261614
 10
10.2612502704
 20
9.5257794539
 10
10.2550190518
 20
9.4981393994
 10
10.251169177
 20
9.4686163553
 10
10.249729946
 20
9.4374350098
 10
10.2507123121
 20
9.4048326717
 10
10.2541087989
 20
9.3710574647
 10
10.2598935572
 20
9.3363664383
 10
10.2680225615
 20
9.3010236123
 10
10.278433945
 20
9.2652979668
 10
10.2910484709
 20
9.2294613957
 10
10.3057701351
 20
9.1937866368
 10
10.3224868967
 20
9.1585451967
 10
10.3410715312
 20
9.1240052839
 10
10.3613825981
 20
9.090429768
 10
10.3832655182
 20
9.0580741791
 10
10.406553749
 20
9.0271847626
 10
10.4310700532
 20
8.9979966057
 10
10.4566278468
 20
8.9707318479
 10
10.4830326196
 20
8.9455979904
 10
10.5100834154
 20
8.9227863172
 10
10.5375743612
 20
8.9024704387
 10
10.5652962343
 20
8.8848049711
 10
10.5930380546
 20
8.8699243592
 10
10.6205886901
 20
8.8579418536
 10
10.6477384637
 20
8.8489486482
 10
10.6742807493
 20
8.8430131869
 10
10.7000135441
 20
8.8401806421
 10
10.724741006
 20
8.8404725712
 10
10.7482749441
 20
8.8438867523
 10
10.7516823062
 20
8.8446648211
  0
LWPOLYLINE
  5
351
330
1F
100
AcDbEntity
  8
0
  6
Continuous
 62
     7
370
     0
100
AcDbPolyline
 90
       27
 70
   128
 43
0.0
 10
10.2217854039
 20
9.6197410614
 10
10.2168349126
 20
9.6142288893
 10
10.2018038172
 20
9.5943312237
 10
10.188847071
 20
9.5719120998
 10
10.178051501
 20
9.5471217544
 10
10.1694894512
 20
9.520126315
 10
10.1632182986
 20
9.4911066856
 10
10.1592800678
 20
9.4602573352
 10
10.1577011502
 20
9.4277849941
 10
10.1584921264
 20
9.393907269
 10
10.161647696
 20
9.3588511841
 10
10.1671467125
 20
9.3228516605
 10
10.1749523255
 20
9.2861499413
 10
10.1850122272
 20
9.2489919752
 10
10.1972590035
 20
9.2116267686
 10
10.211610585
 20
9.1743047164
 10
10.2279707978
 20
9.1372759246
 10
10.2462300074
 20
9.1007885336
 10
10.2662658534
 20
9.065087056
 10
10.2879440699
 20
9.0304107377
 10
10.3111193851
 20
8.9969919548
 10
10.3356364942
 20
8.965054656
 10
10.3613311013
 20
8.9348128625
 10
10.3880310192
 20
8.9064692332
 10
10.4155573243
 20
8.8802137069
 10
10.4437255546
 20
8.8562222296
 10
10.4723469469
 20
8.8346555749
  0
SPLINE
  5
352
330
1F
100
AcDbEntity
  8
0
  6
Continuous
 62
     7
370
     0
100
AcDbSpline
210
0.0
220
0.0
230
1.0
 70
    24
 71
     1
 72
     4
 73
     2
 74
     0
 42
0.00000001
 43
0.00000001
 40
0.0
 40
0.0
 40
1.0
 40
1.0
 10
10.47234694689098
 20
8.83465557490569
 30
0.0
 10
10.47433064739593
 20
8.831522375213794
 30
0.0
  0
LINE
  5
353
330
1F
100
AcDbEntity
  8
0
  6
Continuous
 62
     7
370
     0
100
AcDbLine
 10
10.4723469469
 20
8.8346555749
 30
0.0
 11
10.4757308995
 21
8.8734940449
 31
0.0
  0
LINE
  5
354
330
1F
100
AcDbEntity
  8
0
  6
Continuous
 62
     7
370
     0
100
AcDbLine
 10
10.4921830349
 20
8.8696333845
 30
0.0
 11
10.493408569
 21
8.8836991463
 31
0.0
  0
LINE
  5
355
330
1F
100
AcDbEntity
  8
0
  6
Continuous
 62
     7
370
     0
100
AcDbLine
 10
10.9265906811
 20
5.3738201547
 30
0.0
 11
7.0827367344
 21
5.3738201547
 31
0.0
  0
LINE
  5
356
330
1F
100
AcDbEntity
  8
0
  6
Continuous
 62
     7
370
     0
100
AcDbLine
 10
7.0827367344
 20
5.3738201547
 30
0.0
 11
10.9371426894
 21
5.700057345
 31
0.0
  0
LINE
  5
357
330
1F
100
AcDbEntity
  8
0
  6
Continuous
 62
     7
370
     0
100
AcDbLine
 10
7.0827367344
 20
5.3738201547
 30
0.0
 11
10.9371426894
 21
5.0475829643
 31
0.0
  0
LINE
  5
358
330
1F
100
AcDbEntity
  8
0
  6
Continuous
 62
     7
370
     0
100
AcDbLine
 10
11.5958120673
 20
5.3738201547
 30
0.0
 11
15.4078942147
 21
5.3738201547
 31
0.0
  0
LINE
  5
359
330
1F
100
AcDbEntity
  8
0
  6
Continuous
 62
     7
370
     0
100
AcDbLine
 10
15.4078942147
 20
5.3738201547
 30
0.0
 11
11.585260059
 21
5.700057345
 31
0.0
  0
LINE
  5
35A
330
1F
100
AcDbEntity
  8
0
  6
Continuous
 62
     7
370
     0
100
AcDbLine
 10
15.4078942147
 20
5.3738201547
 30
0.0
 11
11.585260059
 21
5.0475829643
 31
0.0
  0
LINE
  5
35B
330
1F
100
AcDbEntity
  8
0
  6
Continuous
 62
     7
370
     0
100
AcDbLine
 10
11.5958120673
 20
5.3738201547
 30
0.0
 11
10.9265906811
 21
5.3738201547
 31
0.0
  0
ARC
  5
35C
330
1F
100
AcDbEntity
  8
0
  6
Continuous
 62
     7
370
     0
100
AcDbCircle
 10
6.5473868705
 20
5.3738201547
 30
0.0
 40
5.048425196850356
100
AcDbArc
 50
354.3160626373
 51
0.0
  0
ARC
  5
35D
330
1F
100
AcDbEntity
  8
0
  6
Continuous
 62
     7
370
     0
100
AcDbCircle
 10
6.5473868705
 20
5.3738201547
 30
0.0
 40
5.048425196850356
100
AcDbArc
 50
0.0
 51
5.6839373627
  0
LINE
  5
35E
330
1F
100
AcDbEntity
  8
0
  6
Continuous
 62
     7
370
     0
100
AcDbLine
 10
11.4265323846
 20
4.8738201547
 30
0.0
 11
11.5709908525
 21
4.8738201547
 31
0.0
  0
LINE
  5
35F
330
1F
100
AcDbEntity
  8
0
  6
Continuous
 62
     7
370
     0
100
AcDbLine
 10
11.5709908525
 20
5.8738201547
 30
0.0
 11
11.4265323846
 21
5.8738201547
 31
0.0
  0
LINE
  5
360
330
1F
100
AcDbEntity
  8
0
  6
Continuous
 62
     7
370
     0
100
AcDbLine
 10
10.9514118959
 20
4.8738201547
 30
0.0
 11
11.0958703638
 21
4.8738201547
 31
0.0
  0
LINE
  5
361
330
1F
100
AcDbEntity
  8
0
  6
Continuous
 62
     7
370
     0
100
AcDbLine
 10
11.0958703638
 20
5.8738201547
 30
0.0
 11
10.9514118959
 21
5.8738201547
 31
0.0
  0
ARC
  5
362
330
1F
100
AcDbEntity
  8
0
  6
Continuous
 62
     7
370
     0
100
AcDbCircle
 10
15.9750158779
 20
5.3738201547
 30
0.0
 40
5.048425196850356
100
AcDbArc
 50
174.3160626373
 51
185.6839373627
  0
LINE
  5
363
330
1F
100
AcDbEntity
  8
0
  6
Continuous
 62
     7
370
     0
100
AcDbLine
 10
11.3910332003
 20
4.8738201547
 30
0.0
 11
11.4265323846
 21
4.8738201547
 31
0.0
  0
LINE
  5
364
330
1F
100
AcDbEntity
  8
0
  6
Continuous
 62
     7
370
     0
100
AcDbLine
 10
11.4265323846
 20
5.8738201547
 30
0.0
 11
11.3910332003
 21
5.8738201547
 31
0.0
  0
ARC
  5
365
330
1F
100
AcDbEntity
  8
0
  6
Continuous
 62
     7
370
     0
100
AcDbCircle
 10
13.8103789965
 20
5.3738201547
 30
0.0
 40
2.470472440944877
100
AcDbArc
 50
168.3232197246
 51
191.6767802754
  0
ARC
  5
366
330
1F
100
AcDbEntity
  8
0
  6
Continuous
 62
     7
370
     0
100
AcDbCircle
 10
8.712023752
 20
5.3738201547
 30
0.0
 40
2.470472440944878
100
AcDbArc
 50
348.3232197246
 51
0.0
  0
ARC
  5
367
330
1F
100
AcDbEntity
  8
0
  6
Continuous
 62
     7
370
     0
100
AcDbCircle
 10
8.712023752
 20
5.3738201547
 30
0.0
 40
2.470472440944878
100
AcDbArc
 50
0.0
 51
11.6767802754
  0
LINE
  5
368
330
1F
100
AcDbEntity
  8
0
  6
Continuous
 62
     7
370
     0
100
AcDbLine
 10
11.0958703638
 20
4.8738201547
 30
0.0
 11
11.1313695481
 21
4.8738201547
 31
0.0
  0
LINE
  5
369
330
1F
100
AcDbEntity
  8
0
  6
Continuous
 62
     7
370
     0
100
AcDbLine
 10
11.1313695481
 20
5.8738201547
 30
0.0
 11
11.0958703638
 21
5.8738201547
 31
0.0
  0
LINE
  5
36A
330
1F
100
AcDbEntity
  8
0
  6
Continuous
 62
     7
370
     0
100
AcDbLine
 10
11.5709908525
 20
5.3738201547
 30
0.0
 11
11.5709908525
 21
5.8738201547
 31
0.0
  0
LINE
  5
36B
330
1F
100
AcDbEntity
  8
0
  6
Continuous
 62
     7
370
     0
100
AcDbLine
 10
11.5709908525
 20
4.8738201547
 30
0.0
 11
11.5709908525
 21
5.3738201547
 31
0.0
  0
LINE
  5
36C
330
1F
100
AcDbEntity
  8
0
  6
Continuous
 62
     7
370
     0
100
AcDbLine
 10
11.4265323846
 20
5.3738201547
 30
0.0
 11
11.4265323846
 21
5.8738201547
 31
0.0
  0
LINE
  5
36D
330
1F
100
AcDbEntity
  8
0
  6
Continuous
 62
     7
370
     0
100
AcDbLine
 10
11.4265323846
 20
4.8738201547
 30
0.0
 11
11.4265323846
 21
5.3738201547
 31
0.0
  0
LINE
  5
36E
330
1F
100
AcDbEntity
  8
0
  6
Continuous
 62
     7
370
     0
100
AcDbLine
 10
10.9514118959
 20
5.3738201547
 30
0.0
 11
10.9514118959
 21
5.8738201547
 31
0.0
  0
LINE
  5
36F
330
1F
100
AcDbEntity
  8
0
  6
Continuous
 62
     7
370
     0
100
AcDbLine
 10
10.9514118959
 20
4.8738201547
 30
0.0
 11
10.9514118959
 21
5.3738201547
 31
0.0
  0
LINE
  5
370
330
1F
100
AcDbEntity
  8
0
  6
Continuous
 62
     7
370
     0
100
AcDbLine
 10
11.0958703638
 20
5.3738201547
 30
0.0
 11
11.0958703638
 21
5.8738201547
 31
0.0
  0
LINE
  5
371
330
1F
100
AcDbEntity
  8
0
  6
Continuous
 62
     7
370
     0
100
AcDbLine
 10
11.0958703638
 20
4.8738201547
 30
0.0
 11
11.0958703638
 21
5.3738201547
 31
0.0
  0
LINE
  5
372
330
1F
100
AcDbEntity
  8
0
  6
Continuous
 62
     7
370
     0
100
AcDbLine
 10
11.4265323846
 20
5.3738201547
 30
0.0
 11
11.4265323846
 21
5.8738201547
 31
0.0
  0
LINE
  5
373
330
1F
100
AcDbEntity
  8
0
  6
Continuous
 62
     7
370
     0
100
AcDbLine
 10
11.4265323846
 20
4.8738201547
 30
0.0
 11
11.4265323846
 21
5.3738201547
 31
0.0
  0
LINE
  5
374
330
1F
100
AcDbEntity
  8
0
  6
Continuous
 62
     7
370
     0
100
AcDbLine
 10
11.3910332003
 20
5.3738201547
 30
0.0
 11
11.3910332003
 21
5.8738201547
 31
0.0
  0
LINE
  5
375
330
1F
100
AcDbEntity
  8
0
  6
Continuous
 62
     7
370
     0
100
AcDbLine
 10
11.3910332003
 20
4.8738201547
 30
0.0
 11
11.3910332003
 21
5.3738201547
 31
0.0
  0
LINE
  5
376
330
1F
100
AcDbEntity
  8
0
  6
Continuous
 62
     7
370
     0
100
AcDbLine
 10
11.1313695481
 20
5.3738201547
 30
0.0
 11
11.1313695481
 21
5.8738201547
 31
0.0
  0
LINE
  5
377
330
1F
100
AcDbEntity
  8
0
  6
Continuous
 62
     7
370
     0
100
AcDbLine
 10
11.1313695481
 20
4.8738201547
 30
0.0
 11
11.1313695481
 21
5.3738201547
 31
0.0
  0
LINE
  5
378
330
1F
100
AcDbEntity
  8
0
  6
Continuous
 62
     7
370
     0
100
AcDbLine
 10
11.0958703638
 20
5.3738201547
 30
0.0
 11
11.0958703638
 21
5.8738201547
 31
0.0
  0
LINE
  5
379
330
1F
100
AcDbEntity
  8
0
  6
Continuous
 62
     7
370
     0
100
AcDbLine
 10
11.0958703638
 20
4.8738201547
 30
0.0
 11
11.0958703638
 21
5.3738201547
 31
0.0
  0
LINE
  5
37A
330
1F
100
AcDbEntity
  8
0
  6
Continuous
 62
     7
370
     0
100
AcDbLine
 10
11.5924835513
 20
4.8563201547
 30
0.0
 11
11.6451630432
 21
4.8563201547
 31
0.0
  0
LINE
  5
37B
330
1F
100
AcDbEntity
  8
0
  6
Continuous
 62
     7
370
     0
100
AcDbLine
 10
11.6451630432
 20
5.8913201547
 30
0.0
 11
11.5924835513
 21
5.8913201547
 31
0.0
  0
LINE
  5
37C
330
1F
100
AcDbEntity
  8
0
  6
Continuous
 62
     7
370
     0
100
AcDbLine
 10
11.5751630432
 20
5.8813201547
 30
0.0
 11
11.5924835513
 21
5.8913201547
 31
0.0
  0
LINE
  5
37D
330
1F
100
AcDbEntity
  8
0
  6
Continuous
 62
     7
370
     0
100
AcDbLine
 10
11.5924835513
 20
4.8563201547
 30
0.0
 11
11.5751630432
 21
4.8663201547
 31
0.0
  0
LINE
  5
37E
330
1F
100
AcDbEntity
  8
0
  6
Continuous
 62
     7
370
     0
100
AcDbLine
 10
11.6551630432
 20
4.9254023926
 30
0.0
 11
11.6301630432
 21
4.9254023926
 31
0.0
  0
LINE
  5
37F
330
1F
100
AcDbEntity
  8
0
  6
Continuous
 62
     7
370
     0
100
AcDbLine
 10
11.6301630432
 20
4.9243949239
 30
0.0
 11
11.6301630432
 21
4.9254023926
 31
0.0
  0
LINE
  5
380
330
1F
100
AcDbEntity
  8
0
  6
Continuous
 62
     7
370
     0
100
AcDbLine
 10
11.6551630432
 20
4.9243949239
 30
0.0
 11
11.6301630432
 21
4.9243949239
 31
0.0
  0
LINE
  5
381
330
1F
100
AcDbEntity
  8
0
  6
Continuous
 62
     7
370
     0
100
AcDbLine
 10
11.6551630432
 20
4.9238201547
 30
0.0
 11
11.6551630432
 21
4.9243949239
 31
0.0
  0
LINE
  5
382
330
1F
100
AcDbEntity
  8
0
  6
Continuous
 62
     7
370
     0
100
AcDbLine
 10
11.5757163116
 20
4.9238201547
 30
0.0
 11
11.6551630432
 21
4.9238201547
 31
0.0
  0
LINE
  5
383
330
1F
100
AcDbEntity
  8
0
  6
Continuous
 62
     7
370
     0
100
AcDbLine
 10
11.6551630432
 20
5.8238201547
 30
0.0
 11
11.5757163116
 21
5.8238201547
 31
0.0
  0
LINE
  5
384
330
1F
100
AcDbEntity
  8
0
  6
Continuous
 62
     7
370
     0
100
AcDbLine
 10
11.6551630432
 20
4.9254023926
 30
0.0
 11
11.6551630432
 21
5.8238201547
 31
0.0
  0
LINE
  5
385
330
1F
100
AcDbEntity
  8
0
  6
Continuous
 62
     7
370
     0
100
AcDbLine
 10
11.6451630432
 20
5.8913201547
 30
0.0
 11
11.6551630432
 21
5.8739996466
 31
0.0
  0
LINE
  5
386
330
1F
100
AcDbEntity
  8
0
  6
Continuous
 62
     7
370
     0
100
AcDbLine
 10
11.6551630432
 20
4.9238201547
 30
0.0
 11
11.6551630432
 21
4.8736406627
 31
0.0
  0
LINE
  5
387
330
1F
100
AcDbEntity
  8
0
  6
Continuous
 62
     7
370
     0
100
AcDbLine
 10
11.6551630432
 20
4.8736406627
 30
0.0
 11
11.6451630432
 21
4.8563201547
 31
0.0
  0
LINE
  5
388
330
1F
100
AcDbEntity
  8
0
  6
Continuous
 62
     7
370
     0
100
AcDbLine
 10
11.5751630432
 20
4.917680127
 30
0.0
 11
11.5751630432
 21
4.8663201547
 31
0.0
  0
LINE
  5
389
330
1F
100
AcDbEntity
  8
0
  6
Continuous
 62
     7
370
     0
100
AcDbLine
 10
11.6551630432
 20
5.8739996466
 30
0.0
 11
11.6551630432
 21
5.8238201547
 31
0.0
  0
LINE
  5
38A
330
1F
100
AcDbEntity
  8
0
  6
Continuous
 62
     7
370
     0
100
AcDbLine
 10
11.5751630432
 20
5.8813201547
 30
0.0
 11
11.5751630432
 21
5.8299601824
 31
0.0
  0
LINE
  5
38B
330
1F
100
AcDbEntity
  8
0
  6
Continuous
 62
     7
370
     0
100
AcDbLine
 10
11.6551630432
 20
4.9243949239
 30
0.0
 11
11.6551630432
 21
4.9254023926
 31
0.0
  0
LINE
  5
38C
330
1F
100
AcDbEntity
  8
0
  6
Continuous
 62
     7
370
     0
100
AcDbLine
 10
10.9455621038
 20
4.8663201547
 30
0.0
 11
10.9282415958
 21
4.8563201547
 31
0.0
  0
LINE
  5
38D
330
1F
100
AcDbEntity
  8
0
  6
Continuous
 62
     7
370
     0
100
AcDbLine
 10
10.9282415958
 20
5.8913201547
 30
0.0
 11
10.9455621038
 21
5.8813201547
 31
0.0
  0
LINE
  5
38E
330
1F
100
AcDbEntity
  8
0
  6
Continuous
 62
     7
370
     0
100
AcDbLine
 10
10.9282415958
 20
5.8913201547
 30
0.0
 11
10.8755621038
 21
5.8913201547
 31
0.0
  0
LINE
  5
38F
330
1F
100
AcDbEntity
  8
0
  6
Continuous
 62
     7
370
     0
100
AcDbLine
 10
10.8755621038
 20
4.8563201547
 30
0.0
 11
10.9282415958
 21
4.8563201547
 31
0.0
  0
LINE
  5
390
330
1F
100
AcDbEntity
  8
0
  6
Continuous
 62
     7
370
     0
100
AcDbLine
 10
10.8655621038
 20
4.9252178324
 30
0.0
 11
10.8905621038
 21
4.9252178324
 31
0.0
  0
LINE
  5
391
330
1F
100
AcDbEntity
  8
0
  6
Continuous
 62
     7
370
     0
100
AcDbLine
 10
10.8905621038
 20
4.9266482076
 30
0.0
 11
10.8905621038
 21
4.9252178324
 31
0.0
  0
LINE
  5
392
330
1F
100
AcDbEntity
  8
0
  6
Continuous
 62
     7
370
     0
100
AcDbLine
 10
10.8655621038
 20
4.9266482076
 30
0.0
 11
10.8905621038
 21
4.9266482076
 31
0.0
  0
LINE
  5
393
330
1F
100
AcDbEntity
  8
0
  6
Continuous
 62
     7
370
     0
100
AcDbLine
 10
10.8655621038
 20
5.8238201547
 30
0.0
 11
10.8655621038
 21
4.9266482076
 31
0.0
  0
LINE
  5
394
330
1F
100
AcDbEntity
  8
0
  6
Continuous
 62
     7
370
     0
100
AcDbLine
 10
10.9455621038
 20
5.8238201547
 30
0.0
 11
10.8655621038
 21
5.8238201547
 31
0.0
  0
LINE
  5
395
330
1F
100
AcDbEntity
  8
0
  6
Continuous
 62
     7
370
     0
100
AcDbLine
 10
10.8655621038
 20
4.9238201547
 30
0.0
 11
10.9455621038
 21
4.9238201547
 31
0.0
  0
LINE
  5
396
330
1F
100
AcDbEntity
  8
0
  6
Continuous
 62
     7
370
     0
100
AcDbLine
 10
10.8655621038
 20
4.9252178324
 30
0.0
 11
10.8655621038
 21
4.9238201547
 31
0.0
  0
LINE
  5
397
330
1F
100
AcDbEntity
  8
0
  6
Continuous
 62
     7
370
     0
100
AcDbLine
 10
10.9455621038
 20
5.8238201547
 30
0.0
 11
10.9455621038
 21
5.8110748888
 31
0.0
  0
LINE
  5
398
330
1F
100
AcDbEntity
  8
0
  6
Continuous
 62
     7
370
     0
100
AcDbLine
 10
10.9455621038
 20
4.9365654206
 30
0.0
 11
10.9455621038
 21
4.9238201547
 31
0.0
  0
LINE
  5
399
330
1F
100
AcDbEntity
  8
0
  6
Continuous
 62
     7
370
     0
100
AcDbLine
 10
10.8655621038
 20
5.8739996466
 30
0.0
 11
10.8755621038
 21
5.8913201547
 31
0.0
  0
LINE
  5
39A
330
1F
100
AcDbEntity
  8
0
  6
Continuous
 62
     7
370
     0
100
AcDbLine
 10
10.8655621038
 20
5.8238201547
 30
0.0
 11
10.8655621038
 21
5.8739996466
 31
0.0
  0
LINE
  5
39B
330
1F
100
AcDbEntity
  8
0
  6
Continuous
 62
     7
370
     0
100
AcDbLine
 10
10.9455621038
 20
5.8238201547
 30
0.0
 11
10.9455621038
 21
5.8813201547
 31
0.0
  0
LINE
  5
39C
330
1F
100
AcDbEntity
  8
0
  6
Continuous
 62
     7
370
     0
100
AcDbLine
 10
10.8755621038
 20
4.8563201547
 30
0.0
 11
10.8655621038
 21
4.8736406627
 31
0.0
  0
LINE
  5
39D
330
1F
100
AcDbEntity
  8
0
  6
Continuous
 62
     7
370
     0
100
AcDbLine
 10
10.8655621038
 20
4.8736406627
 30
0.0
 11
10.8655621038
 21
4.9238201547
 31
0.0
  0
LINE
  5
39E
330
1F
100
AcDbEntity
  8
0
  6
Continuous
 62
     7
370
     0
100
AcDbLine
 10
10.9455621038
 20
4.8663201547
 30
0.0
 11
10.9455621038
 21
4.9238201547
 31
0.0
  0
LINE
  5
39F
330
1F
100
AcDbEntity
  8
0
  6
Continuous
 62
     7
370
     0
100
AcDbLine
 10
10.8655621038
 20
4.9252178324
 30
0.0
 11
10.8655621038
 21
4.9266482076
 31
0.0
  0
LINE
  5
3A0
330
1F
100
AcDbEntity
  8
0
  6
Continuous
 62
     7
370
     0
100
AcDbLine
 10
10.8602165251
 20
4.7738201547
 30
0.0
 11
10.9542178276
 21
4.7738201547
 31
0.0
  0
LINE
  5
3A1
330
1F
100
AcDbEntity
  8
0
  6
Continuous
 62
     7
370
     0
100
AcDbLine
 10
11.0227906392
 20
4.7738201547
 30
0.0
 11
11.7803745297
 21
4.7738201547
 31
0.0
  0
LINE
  5
3A2
330
1F
100
AcDbEntity
  8
0
  6
Continuous
 62
     7
370
     0
100
AcDbLine
 10
11.7803745297
 20
5.9738201547
 30
0.0
 11
11.7044127957
 21
5.9738201547
 31
0.0
  0
LINE
  5
3A3
330
1F
100
AcDbEntity
  8
0
  6
Continuous
 62
     7
370
     0
100
AcDbLine
 10
11.6367867548
 20
5.9738201547
 30
0.0
 11
11.1754394647
 21
5.9738201547
 31
0.0
  0
LINE
  5
3A4
330
1F
100
AcDbEntity
  8
0
  6
Continuous
 62
     7
370
     0
100
AcDbLine
 10
11.1577771271
 20
5.9738201547
 30
0.0
 11
11.0180222121
 21
5.9738201547
 31
0.0
  0
LINE
  5
3A5
330
1F
100
AcDbEntity
  8
0
  6
Continuous
 62
     7
370
     0
100
AcDbLine
 10
10.9806604667
 20
5.9738201547
 30
0.0
 11
10.8544127957
 21
5.9738201547
 31
0.0
  0
LINE
  5
3A6
330
1F
100
AcDbEntity
  8
0
  6
Continuous
 62
     7
370
     0
100
AcDbLine
 10
10.7867867548
 20
5.9738201547
 30
0.0
 11
10.7153745297
 21
5.9738201547
 31
0.0
  0
LINE
  5
3A7
330
1F
100
AcDbEntity
  8
0
  6
Continuous
 62
     7
370
     0
100
AcDbLine
 10
10.7153745297
 20
4.7738201547
 30
0.0
 11
10.7803745297
 21
4.7738201547
 31
0.0
  0
LINE
  5
3A8
330
1F
100
AcDbEntity
  8
0
  6
Continuous
 62
     7
370
     0
100
AcDbLine
 10
11.7903745297
 20
4.7838201547
 30
0.0
 11
11.7803745297
 21
4.7738201547
 31
0.0
  0
LINE
  5
3A9
330
1F
100
AcDbEntity
  8
0
  6
Continuous
 62
     7
370
     0
100
AcDbLine
 10
11.7803745297
 20
5.9738201547
 30
0.0
 11
11.7903745297
 21
5.9638201547
 31
0.0
  0
LINE
  5
3AA
330
1F
100
AcDbEntity
  8
0
  6
Continuous
 62
     7
370
     0
100
AcDbLine
 10
10.7053745297
 20
5.9638201547
 30
0.0
 11
10.7153745297
 21
5.9738201547
 31
0.0
  0
LINE
  5
3AB
330
1F
100
AcDbEntity
  8
0
  6
Continuous
 62
     7
370
     0
100
AcDbLine
 10
10.7153745297
 20
4.7738201547
 30
0.0
 11
10.7053745297
 21
4.7838201547
 31
0.0
  0
LINE
  5
3AC
330
1F
100
AcDbEntity
  8
0
  6
Continuous
 62
     7
370
     0
100
AcDbLine
 10
11.3703745297
 20
4.8488201547
 30
0.0
 11
11.3903745297
 21
4.8488201547
 31
0.0
  0
LINE
  5
3AD
330
1F
100
AcDbEntity
  8
0
  6
Continuous
 62
     7
370
     0
100
AcDbLine
 10
11.3903745297
 20
5.8988201547
 30
0.0
 11
11.3703745297
 21
5.8988201547
 31
0.0
  0
LINE
  5
3AE
330
1F
100
AcDbEntity
  8
0
  6
Continuous
 62
     7
370
     0
100
AcDbLine
 10
11.1103745297
 20
5.8988201547
 30
0.0
 11
11.1303745297
 21
5.8988201547
 31
0.0
  0
LINE
  5
3AF
330
1F
100
AcDbEntity
  8
0
  6
Continuous
 62
     7
370
     0
100
AcDbLine
 10
11.1303745297
 20
4.8488201547
 30
0.0
 11
11.1103745297
 21
4.8488201547
 31
0.0
  0
LINE
  5
3B0
330
1F
100
AcDbEntity
  8
0
  6
Continuous
 62
     7
370
     0
100
AcDbLine
 10
11.7903745297
 20
5.8898201547
 30
0.0
 11
11.7730540216
 21
5.8798201547
 31
0.0
  0
LINE
  5
3B1
330
1F
100
AcDbEntity
  8
0
  6
Continuous
 62
     7
370
     0
100
AcDbLine
 10
11.7730540216
 20
4.8678201547
 30
0.0
 11
11.7903745297
 21
4.8578201547
 31
0.0
  0
LINE
  5
3B2
330
1F
100
AcDbEntity
  8
0
  6
Continuous
 62
     7
370
     0
100
AcDbLine
 10
11.7730540216
 20
4.8678201547
 30
0.0
 11
11.7730540216
 21
5.8798201547
 31
0.0
  0
LINE
  5
3B3
330
1F
100
AcDbEntity
  8
0
  6
Continuous
 62
     7
370
     0
100
AcDbLine
 10
11.7903745297
 20
5.8898201547
 30
0.0
 11
11.7903745297
 21
4.8578201547
 31
0.0
  0
LINE
  5
3B4
330
1F
100
AcDbEntity
  8
0
  6
Continuous
 62
     7
370
     0
100
AcDbLine
 10
10.7053745297
 20
4.8578201547
 30
0.0
 11
10.7226950377
 21
4.8678201547
 31
0.0
  0
LINE
  5
3B5
330
1F
100
AcDbEntity
  8
0
  6
Continuous
 62
     7
370
     0
100
AcDbLine
 10
10.7226950377
 20
5.8798201547
 30
0.0
 11
10.7053745297
 21
5.8898201547
 31
0.0
  0
LINE
  5
3B6
330
1F
100
AcDbEntity
  8
0
  6
Continuous
 62
     7
370
     0
100
AcDbLine
 10
10.7226950377
 20
5.8798201547
 30
0.0
 11
10.7226950377
 21
4.8678201547
 31
0.0
  0
LINE
  5
3B7
330
1F
100
AcDbEntity
  8
0
  6
Continuous
 62
     7
370
     0
100
AcDbLine
 10
10.7053745297
 20
4.8578201547
 30
0.0
 11
10.7053745297
 21
5.8898201547
 31
0.0
  0
LINE
  5
3B8
330
1F
100
AcDbEntity
  8
0
  6
Continuous
 62
     7
370
     0
100
AcDbLine
 10
11.4893745297
 20
4.8678201547
 30
0.0
 11
11.4893745297
 21
4.8738201547
 31
0.0
  0
LINE
  5
3B9
330
1F
100
AcDbEntity
  8
0
  6
Continuous
 62
     7
370
     0
100
AcDbLine
 10
11.4893745297
 20
5.8738201547
 30
0.0
 11
11.4893745297
 21
5.8798201547
 31
0.0
  0
LINE
  5
3BA
330
1F
100
AcDbEntity
  8
0
  6
Continuous
 62
     7
370
     0
100
AcDbLine
 10
11.4893745297
 20
5.8798201547
 30
0.0
 11
11.7730540216
 21
5.8798201547
 31
0.0
  0
LINE
  5
3BB
330
1F
100
AcDbEntity
  8
0
  6
Continuous
 62
     7
370
     0
100
AcDbLine
 10
11.7730540216
 20
4.8678201547
 30
0.0
 11
11.4893745297
 21
4.8678201547
 31
0.0
  0
LINE
  5
3BC
330
1F
100
AcDbEntity
  8
0
  6
Continuous
 62
     7
370
     0
100
AcDbLine
 10
11.4882198291
 20
5.8778201547
 30
0.0
 11
11.4882198291
 21
5.8738201547
 31
0.0
  0
LINE
  5
3BD
330
1F
100
AcDbEntity
  8
0
  6
Continuous
 62
     7
370
     0
100
AcDbLine
 10
11.4882198291
 20
4.8738201547
 30
0.0
 11
11.4882198291
 21
4.8698201547
 31
0.0
  0
LINE
  5
3BE
330
1F
100
AcDbEntity
  8
0
  6
Continuous
 62
     7
370
     0
100
AcDbLine
 10
11.4882198291
 20
5.8778201547
 30
0.0
 11
11.4893745297
 21
5.8798201547
 31
0.0
  0
LINE
  5
3BF
330
1F
100
AcDbEntity
  8
0
  6
Continuous
 62
     7
370
     0
100
AcDbLine
 10
11.4893745297
 20
4.8678201547
 30
0.0
 11
11.4882198291
 21
4.8698201547
 31
0.0
  0
LINE
  5
3C0
330
1F
100
AcDbEntity
  8
0
  6
Continuous
 62
     7
370
     0
100
AcDbLine
 10
11.0063745297
 20
5.8798201547
 30
0.0
 11
11.0063745297
 21
5.8738201547
 31
0.0
  0
LINE
  5
3C1
330
1F
100
AcDbEntity
  8
0
  6
Continuous
 62
     7
370
     0
100
AcDbLine
 10
11.0063745297
 20
4.8738201547
 30
0.0
 11
11.0063745297
 21
4.8678201547
 31
0.0
  0
LINE
  5
3C2
330
1F
100
AcDbEntity
  8
0
  6
Continuous
 62
     7
370
     0
100
AcDbLine
 10
11.0063745297
 20
4.8678201547
 30
0.0
 11
10.7226950377
 21
4.8678201547
 31
0.0
  0
LINE
  5
3C3
330
1F
100
AcDbEntity
  8
0
  6
Continuous
 62
     7
370
     0
100
AcDbLine
 10
10.7226950377
 20
5.8798201547
 30
0.0
 11
11.0063745297
 21
5.8798201547
 31
0.0
  0
LINE
  5
3C4
330
1F
100
AcDbEntity
  8
0
  6
Continuous
 62
     7
370
     0
100
AcDbLine
 10
11.0075292302
 20
4.8698201547
 30
0.0
 11
11.0075292302
 21
4.8738201547
 31
0.0
  0
LINE
  5
3C5
330
1F
100
AcDbEntity
  8
0
  6
Continuous
 62
     7
370
     0
100
AcDbLine
 10
11.0075292302
 20
5.8738201547
 30
0.0
 11
11.0075292302
 21
5.8778201547
 31
0.0
  0
LINE
  5
3C6
330
1F
100
AcDbEntity
  8
0
  6
Continuous
 62
     7
370
     0
100
AcDbLine
 10
11.0075292302
 20
4.8698201547
 30
0.0
 11
11.0063745297
 21
4.8678201547
 31
0.0
  0
LINE
  5
3C7
330
1F
100
AcDbEntity
  8
0
  6
Continuous
 62
     7
370
     0
100
AcDbLine
 10
11.0063745297
 20
5.8798201547
 30
0.0
 11
11.0075292302
 21
5.8778201547
 31
0.0
  0
LINE
  5
3C8
330
1F
100
AcDbEntity
  8
0
  6
Continuous
 62
     7
370
     0
100
AcDbLine
 10
11.3903745297
 20
4.8698201547
 30
0.0
 11
11.4882198291
 21
4.8698201547
 31
0.0
  0
LINE
  5
3C9
330
1F
100
AcDbEntity
  8
0
  6
Continuous
 62
     7
370
     0
100
AcDbLine
 10
11.4882198291
 20
5.8778201547
 30
0.0
 11
11.3903745297
 21
5.8778201547
 31
0.0
  0
LINE
  5
3CA
330
1F
100
AcDbEntity
  8
0
  6
Continuous
 62
     7
370
     0
100
AcDbLine
 10
11.3903745297
 20
4.8698201547
 30
0.0
 11
11.3903745297
 21
4.8770179182
 31
0.0
  0
LINE
  5
3CB
330
1F
100
AcDbEntity
  8
0
  6
Continuous
 62
     7
370
     0
100
AcDbLine
 10
11.3903745297
 20
5.8706223911
 30
0.0
 11
11.3903745297
 21
5.8778201547
 31
0.0
  0
LINE
  5
3CC
330
1F
100
AcDbEntity
  8
0
  6
Continuous
 62
     7
370
     0
100
AcDbLine
 10
11.1103745297
 20
5.8778201547
 30
0.0
 11
11.0075292302
 21
5.8778201547
 31
0.0
  0
LINE
  5
3CD
330
1F
100
AcDbEntity
  8
0
  6
Continuous
 62
     7
370
     0
100
AcDbLine
 10
11.0075292302
 20
4.8698201547
 30
0.0
 11
11.1103745297
 21
4.8698201547
 31
0.0
  0
LINE
  5
3CE
330
1F
100
AcDbEntity
  8
0
  6
Continuous
 62
     7
370
     0
100
AcDbLine
 10
11.1103745297
 20
5.8778201547
 30
0.0
 11
11.1103745297
 21
5.8738201547
 31
0.0
  0
LINE
  5
3CF
330
1F
100
AcDbEntity
  8
0
  6
Continuous
 62
     7
370
     0
100
AcDbLine
 10
11.1103745297
 20
4.8738201547
 30
0.0
 11
11.1103745297
 21
4.8698201547
 31
0.0
  0
LINE
  5
3D0
330
1F
100
AcDbEntity
  8
0
  6
Continuous
 62
     7
370
     0
100
AcDbLine
 10
11.3703745297
 20
5.8248201547
 30
0.0
 11
11.1409809524
 21
5.8248201547
 31
0.0
  0
LINE
  5
3D1
330
1F
100
AcDbEntity
  8
0
  6
Continuous
 62
     7
370
     0
100
AcDbLine
 10
11.1409809524
 20
4.9228201547
 30
0.0
 11
11.3703745297
 21
4.9228201547
 31
0.0
  0
LINE
  5
3D2
330
1F
100
AcDbEntity
  8
0
  6
Continuous
 62
     7
370
     0
100
AcDbLine
 10
11.3703745297
 20
5.8248201547
 30
0.0
 11
11.3703745297
 21
5.7606176255
 31
0.0
  0
LINE
  5
3D3
330
1F
100
AcDbEntity
  8
0
  6
Continuous
 62
     7
370
     0
100
AcDbLine
 10
11.3703745297
 20
4.9870226838
 30
0.0
 11
11.3703745297
 21
4.9228201547
 31
0.0
  0
LINE
  5
3D4
330
1F
100
AcDbEntity
  8
0
  6
Continuous
 62
     7
370
     0
100
AcDbLine
 10
10.8544127957
 20
5.9738201547
 30
0.0
 11
10.7867867548
 21
5.9738201547
 31
0.0
  0
LINE
  5
3D5
330
1F
100
AcDbEntity
  8
0
  6
Continuous
 62
     7
370
     0
100
AcDbLine
 10
11.0180222121
 20
5.9738201547
 30
0.0
 11
10.9806604667
 21
5.9738201547
 31
0.0
  0
LINE
  5
3D6
330
1F
100
AcDbEntity
  8
0
  6
Continuous
 62
     7
370
     0
100
AcDbLine
 10
11.1754394647
 20
5.9738201547
 30
0.0
 11
11.1577771271
 21
5.9738201547
 31
0.0
  0
LINE
  5
3D7
330
1F
100
AcDbEntity
  8
0
  6
Continuous
 62
     7
370
     0
100
AcDbLine
 10
11.7044127957
 20
5.9738201547
 30
0.0
 11
11.6367867548
 21
5.9738201547
 31
0.0
  0
LINE
  5
3D8
330
1F
100
AcDbEntity
  8
0
  6
Continuous
 62
     7
370
     0
100
AcDbLine
 10
11.1303745297
 20
5.8738201547
 30
0.0
 11
11.1303745297
 21
5.8988201547
 31
0.0
  0
LINE
  5
3D9
330
1F
100
AcDbEntity
  8
0
  6
Continuous
 62
     7
370
     0
100
AcDbLine
 10
11.1103745297
 20
5.8778201547
 30
0.0
 11
11.1103745297
 21
5.8988201547
 31
0.0
  0
LINE
  5
3DA
330
1F
100
AcDbEntity
  8
0
  6
Continuous
 62
     7
370
     0
100
AcDbLine
 10
11.3903745297
 20
5.8988201547
 30
0.0
 11
11.3903745297
 21
5.8778201547
 31
0.0
  0
LINE
  5
3DB
330
1F
100
AcDbEntity
  8
0
  6
Continuous
 62
     7
370
     0
100
AcDbLine
 10
11.3703745297
 20
5.8248201547
 30
0.0
 11
11.3703745297
 21
5.8988201547
 31
0.0
  0
LINE
  5
3DC
330
1F
100
AcDbEntity
  8
0
  6
Continuous
 62
     7
370
     0
100
AcDbLine
 10
10.7053745297
 20
5.8898201547
 30
0.0
 11
10.7053745297
 21
5.9638201547
 31
0.0
  0
LINE
  5
3DD
330
1F
100
AcDbEntity
  8
0
  6
Continuous
 62
     7
370
     0
100
AcDbLine
 10
11.7903745297
 20
5.9638201547
 30
0.0
 11
11.7903745297
 21
5.8898201547
 31
0.0
  0
LINE
  5
3DE
330
1F
100
AcDbEntity
  8
0
  6
Continuous
 62
     7
370
     0
100
AcDbLine
 10
10.9542178276
 20
4.7738201547
 30
0.0
 11
11.0227906392
 21
4.7738201547
 31
0.0
  0
LINE
  5
3DF
330
1F
100
AcDbEntity
  8
0
  6
Continuous
 62
     7
370
     0
100
AcDbLine
 10
10.8401309158
 20
4.7738201547
 30
0.0
 11
10.8602165251
 21
4.7738201547
 31
0.0
  0
LINE
  5
3E0
330
1F
100
AcDbEntity
  8
0
  6
Continuous
 62
     7
370
     0
100
AcDbLine
 10
10.8275226827
 20
4.7738201547
 30
0.0
 11
10.8401309158
 21
4.7738201547
 31
0.0
  0
LINE
  5
3E1
330
1F
100
AcDbEntity
  8
0
  6
Continuous
 62
     7
370
     0
100
AcDbLine
 10
10.7803745297
 20
4.7738201547
 30
0.0
 11
10.8275226827
 21
4.7738201547
 31
0.0
  0
LINE
  5
3E2
330
1F
100
AcDbEntity
  8
0
  6
Continuous
 62
     7
370
     0
100
AcDbLine
 10
11.1303745297
 20
4.8488201547
 30
0.0
 11
11.1303745297
 21
4.8738201547
 31
0.0
  0
LINE
  5
3E3
330
1F
100
AcDbEntity
  8
0
  6
Continuous
 62
     7
370
     0
100
AcDbLine
 10
11.1103745297
 20
4.8488201547
 30
0.0
 11
11.1103745297
 21
4.8698201547
 31
0.0
  0
LINE
  5
3E4
330
1F
100
AcDbEntity
  8
0
  6
Continuous
 62
     7
370
     0
100
AcDbLine
 10
11.3903745297
 20
4.8698201547
 30
0.0
 11
11.3903745297
 21
4.8488201547
 31
0.0
  0
LINE
  5
3E5
330
1F
100
AcDbEntity
  8
0
  6
Continuous
 62
     7
370
     0
100
AcDbLine
 10
11.3703745297
 20
4.8488201547
 30
0.0
 11
11.3703745297
 21
4.9228201547
 31
0.0
  0
LINE
  5
3E6
330
1F
100
AcDbEntity
  8
0
  6
Continuous
 62
     7
370
     0
100
AcDbLine
 10
10.7053745297
 20
4.7838201547
 30
0.0
 11
10.7053745297
 21
4.8578201547
 31
0.0
  0
LINE
  5
3E7
330
1F
100
AcDbEntity
  8
0
  6
Continuous
 62
     7
370
     0
100
AcDbLine
 10
11.7903745297
 20
4.8578201547
 30
0.0
 11
11.7903745297
 21
4.7838201547
 31
0.0
  0
DIMENSION
  5
3E8
330
1F
100
AcDbEntity
  8
0
  6
Continuous
 62
     7
370
     0
100
AcDbDimension
  2
*D7
 10
10.7053745297
 20
3.9468406265
 30
0.0
 11
8.9730910651
 21
3.9468406265
 31
0.0
 70
   160
 71
     1
 42
-1.0
  3
SLDDIMSTYLE1
100
AcDbAlignedDimension
 13
7.0827367344
 23
5.3738201547
 33
0.0
 14
10.7053745297
 24
4.7838201547
 34
0.0
100
AcDbRotatedDimension
  0
DIMENSION
  5
3FB
330
1F
100
AcDbEntity
  8
0
  6
Continuous
 62
     7
370
     0
100
AcDbDimension
  2
*D8
 10
10.9265906811
 20
6.303061375
 30
0.0
 11
8.9730910651
 21
6.303061375
 31
0.0
 70
   160
 71
     1
 42
-1.0
  3
SLDDIMSTYLE1
100
AcDbAlignedDimension
 13
7.0827367344
 23
5.3738201547
 33
0.0
 14
10.9265906811
 24
5.3738201547
 34
0.0
100
AcDbRotatedDimension
  0
DIMENSION
  5
40D
330
1F
100
AcDbEntity
  8
0
  6
Continuous
 62
     7
370
     0
100
AcDbDimension
  2
*D9
 10
11.5958120673
 20
6.303061375
 30
0.0
 11
13.7418741763
 21
6.303061375
 31
0.0
 70
   160
 71
     1
 42
-1.0
  3
SLDDIMSTYLE1
100
AcDbAlignedDimension
 13
15.4078942147
 23
5.3738201547
 33
0.0
 14
11.5958120673
 24
5.3738201547
 34
0.0
100
AcDbRotatedDimension
  0
DIMENSION
  5
41F
330
1F
100
AcDbEntity
  8
0
  6
Continuous
 62
     7
370
     0
100
AcDbDimension
  2
*D10
 10
11.7903745297
 20
3.9468406265
 30
0.0
 11
13.5226579942
 21
3.9468406265
 31
0.0
 70
   160
 71
     1
 42
-1.0
  3
SLDDIMSTYLE1
100
AcDbAlignedDimension
 13
15.4078942147
 23
5.3738201547
 33
0.0
 14
11.7903745297
 24
4.7838201547
 34
0.0
 50
0.0
100
AcDbRotatedDimension
  0
DIMENSION
  5
431
330
1F
100
AcDbEntity
  8
0
  6
Continuous
 62
     7
370
     0
100
AcDbDimension
  2
*D11
 10
11.7903745297
 20
3.2687934462
 30
0.0
 11
11.1975446128
 21
3.2687934462
 31
0.0
 70
   160
 71
     1
 42
-1.0
  3
SLDDIMSTYLE2
100
AcDbAlignedDimension
 13
10.7053745297
 23
4.7838201547
 33
0.0
 14
11.7903745297
 24
4.7838201547
 34
0.0
100
AcDbRotatedDimension
  0
DIMENSION
  5
444
330
1F
100
AcDbEntity
  8
0
  6
Continuous
 62
     7
370
     0
100
AcDbDimension
  2
*D12
 10
11.3399065555
 20
3.5824661896
 30
0.0
 11
12.0913351132
 21
3.5824661896
 31
0.0
 70
   160
 71
     1
 42
-1.0
  3
SLDDIMSTYLE3
100
AcDbAlignedDimension
 13
11.1824961929
 23
5.3738201547
 33
0.0
 14
11.3399065555
 24
5.3738201547
 34
0.0
100
AcDbRotatedDimension
  0
DIMENSION
  5
457
330
1F
100
AcDbEntity
  8
0
  6
Continuous
 62
     7
370
     0
100
AcDbDimension
  2
*D13
 10
11.5958120673
 20
6.6927331749
 30
0.0
 11
9.9179729549
 21
6.6927331749
 31
0.0
 70
   160
 71
     1
 42
-1.0
  3
SLDDIMSTYLE3
100
AcDbAlignedDimension
 13
10.9265906811
 23
5.3738201547
 33
0.0
 14
11.5958120673
 24
5.3738201547
 34
0.0
100
AcDbRotatedDimension
  0
INSERT
  5
470
330
1F
100
AcDbEntity
  8
0
  6
Continuous
 62
     7
370
     0
100
AcDbBlockReference
  2
SW_NOTE_4
 10
10.6250307061
 20
2.8346903282
 30
0.0
  0
INSERT
  5
476
102
{ACAD_REACTORS
330
478
330
479
102
}
330
1F
100
AcDbEntity
  8
0
  6
Continuous
 62
     7
370
     0
100
AcDbBlockReference
  2
SW_NOTE_5
 10
10.2701029382
 20
4.4161540856
 30
0.0
  0
LEADER
  5
478
330
1F
100
AcDbEntity
  8
0
  6
Continuous
 62
     7
370
     0
100
AcDbLeader
  3
SLDDIMSTYLE4
 73
     2
 76
     3
 10
10.7944549677
 20
4.8678201547
 30
0.0
 10
10.5201029382
 20
4.4161540856
 30
0.0
 10
10.2701029382
 20
4.4161540856
 30
0.0
340
476
  0
LEADER
  5
479
330
1F
100
AcDbEntity
  8
0
  6
Continuous
 62
     7
370
     0
100
AcDbLeader
  3
SLDDIMSTYLE4
 73
     2
 76
     3
 10
11.7254843845
 20
4.8678201547
 30
0.0
 10
10.5201029382
 20
4.4161540856
 30
0.0
 10
10.2701029382
 20
4.4161540856
 30
0.0
340
476
  0
INSERT
  5
47F
330
1F
100
AcDbEntity
  8
0
  6
Continuous
 62
     7
370
     0
100
AcDbBlockReference
  2
SW_NOTE_6
 10
12.4519715486
 20
5.9345625079
 30
0.0
  0
LEADER
  5
480
330
1F
100
AcDbEntity
  8
0
  6
Continuous
 62
     7
370
     0
100
AcDbLeader
  3
SLDDIMSTYLE4
 76
     2
 10
11.4265323846
 20
5.7481519824
 30
0.0
 10
12.4519715486
 20
5.9345625079
 30
0.0
  0
INSERT
  5
486
102
{ACAD_REACTORS
330
487
102
}
330
1F
100
AcDbEntity
  8
0
  6
Continuous
 62
     7
370
     0
100
AcDbBlockReference
  2
SW_NOTE_7
 10
10.1798709353
 20
5.9374527484
 30
0.0
  0
LEADER
  5
487
330
1F
100
AcDbEntity
  8
0
  6
Continuous
 62
     7
370
     0
100
AcDbLeader
  3
SLDDIMSTYLE4
 73
     2
 76
     2
 10
11.0958703638
 20
5.7850035726
 30
0.0
 10
10.1798709353
 20
5.9374527484
 30
0.0
340
486
  0
INSERT
  5
48D
330
1F
100
AcDbEntity
  8
0
  6
Continuous
 62
     7
370
     0
100
AcDbBlockReference
  2
SW_NOTE_8
 10
12.9353365832
 20
4.4782139357
 30
0.0
  0
LEADER
  5
48E
330
1F
100
AcDbEntity
  8
0
  6
Continuous
 62
     7
370
     0
100
AcDbLeader
  3
SLDDIMSTYLE4
 76
     2
 10
11.7803745297
 20
4.7738201547
 30
0.0
 10
12.9353365832
 20
4.4782139357
 30
0.0
  0
INSERT
  5
494
330
1F
100
AcDbEntity
  8
0
  6
Continuous
 62
     7
370
     0
100
AcDbBlockReference
  2
SW_NOTE_9
 10
12.9510082621
 20
4.9169210313
 30
0.0
  0
LEADER
  5
495
330
1F
100
AcDbEntity
  8
0
  6
Continuous
 62
     7
370
     0
100
AcDbLeader
  3
SLDDIMSTYLE4
 76
     2
 10
11.6551630432
 20
4.9238201547
 30
0.0
 10
12.9510082621
 20
4.9169210313
 30
0.0
  0
INSERT
  5
49B
102
{ACAD_REACTORS
330
49C
102
}
330
1F
100
AcDbEntity
  8
0
  6
Continuous
 62
     7
370
     0
100
AcDbBlockReference
  2
SW_NOTE_10
 10
9.7862591934
 20
4.9170988463
 30
0.0
  0
LEADER
  5
49C
330
1F
100
AcDbEntity
  8
0
  6
Continuous
 62
     7
370
     0
100
AcDbLeader
  3
SLDDIMSTYLE4
 73
     2
 76
     2
 10
10.8655621038
 20
4.9238201547
 30
0.0
 10
9.7862591934
 20
4.9170988463
 30
0.0
340
49B
  0
HATCH
  5
49D
330
1F
100
AcDbEntity
  8
0
  6
Continuous
 62
     7
370
     0
100
AcDbHatch
 10
0.0
 20
0.0
 30
0.0
210
0.0
220
0.0
230
1.0
  2
ANSI31
 70
     0
 71
     0
 91
        1
 92
        0
 93
        6
 72
     1
 10
11.65516304322779
 20
4.923820154660121
 11
11.57516304322779
 21
4.923820154660121
 72
     1
 10
11.57516304322779
 20
4.923820154660121
 11
11.57516304322779
 21
4.866320154660121
 72
     1
 10
11.57516304322779
 20
4.866320154660121
 11
11.59248355130348
 21
4.856320154660121
 72
     1
 10
11.59248355130348
 20
4.856320154660121
 11
11.64516304322779
 21
4.856320154660121
 72
     1
 10
11.64516304322779
 20
4.856320154660121
 11
11.65516304322779
 21
4.87364066273581
 72
     1
 10
11.65516304322779
 20
4.87364066273581
 11
11.65516304322779
 21
4.923820154660121
 97
        0
 75
     0
 76
     1
 52
0.0
 41
1.0
 77
     0
 78
     1
 53
45.0
 43
0.0
 44
0.0
 45
-0.0883883476483184
 46
0.0883883476483184
 79
     0
 98
        1
 10
0.0
 20
0.0
  0
HATCH
  5
49E
330
1F
100
AcDbEntity
  8
0
  6
Continuous
 62
     7
370
     0
100
AcDbHatch
 10
0.0
 20
0.0
 30
0.0
210
0.0
220
0.0
230
1.0
  2
ANSI31
 70
     0
 71
     0
 91
        1
 92
        0
 93
        6
 72
     1
 10
11.65516304322779
 20
5.823820154660121
 11
11.65516304322779
 21
5.873999646584432
 72
     1
 10
11.65516304322779
 20
5.873999646584432
 11
11.64516304322779
 21
5.891320154660121
 72
     1
 10
11.64516304322779
 20
5.891320154660121
 11
11.59248355130348
 21
5.891320154660121
 72
     1
 10
11.59248355130348
 20
5.891320154660121
 11
11.57516304322779
 21
5.881320154660121
 72
     1
 10
11.57516304322779
 20
5.881320154660121
 11
11.57516304322779
 21
5.823820154660121
 72
     1
 10
11.57516304322779
 20
5.823820154660121
 11
11.65516304322779
 21
5.823820154660121
 97
        0
 75
     0
 76
     1
 52
0.0
 41
1.0
 77
     0
 78
     1
 53
45.0
 43
0.0
 44
0.0
 45
-0.0883883476483184
 46
0.0883883476483184
 79
     0
 98
        1
 10
0.0
 20
0.0
  0
HATCH
  5
49F
330
1F
100
AcDbEntity
  8
0
  6
Continuous
 62
     7
370
     0
100
AcDbHatch
 10
0.0
 20
0.0
 30
0.0
210
0.0
220
0.0
230
1.0
  2
ANSI31
 70
     0
 71
     0
 91
        1
 92
        0
 93
        6
 72
     1
 10
10.8655621038453
 20
5.823820154660122
 11
10.9455621038453
 21
5.823820154660122
 72
     1
 10
10.9455621038453
 20
5.823820154660122
 11
10.9455621038453
 21
5.881320154660122
 72
     1
 10
10.9455621038453
 20
5.881320154660122
 11
10.92824159576961
 21
5.891320154660122
 72
     1
 10
10.92824159576961
 20
5.891320154660122
 11
10.8755621038453
 21
5.891320154660122
 72
     1
 10
10.8755621038453
 20
5.891320154660122
 11
10.8655621038453
 21
5.873999646584432
 72
     1
 10
10.8655621038453
 20
5.873999646584432
 11
10.8655621038453
 21
5.823820154660122
 97
        0
 75
     0
 76
     1
 52
0.0
 41
1.0
 77
     0
 78
     1
 53
45.0
 43
0.0
 44
0.0
 45
-0.0883883476483184
 46
0.0883883476483184
 79
     0
 98
        1
 10
0.0
 20
0.0
  0
HATCH
  5
4A0
330
1F
100
AcDbEntity
  8
0
  6
Continuous
 62
     7
370
     0
100
AcDbHatch
 10
0.0
 20
0.0
 30
0.0
210
0.0
220
0.0
230
1.0
  2
ANSI31
 70
     0
 71
     0
 91
        1
 92
        0
 93
        6
 72
     1
 10
10.8655621038453
 20
4.923820154660121
 11
10.8655621038453
 21
4.87364066273581
 72
     1
 10
10.8655621038453
 20
4.87364066273581
 11
10.8755621038453
 21
4.85632015466012
 72
     1
 10
10.8755621038453
 20
4.85632015466012
 11
10.92824159576961
 21
4.85632015466012
 72
     1
 10
10.92824159576961
 20
4.85632015466012
 11
10.9455621038453
 21
4.86632015466012
 72
     1
 10
10.9455621038453
 20
4.86632015466012
 11
10.9455621038453
 21
4.923820154660121
 72
     1
 10
10.9455621038453
 20
4.923820154660121
 11
10.8655621038453
 21
4.923820154660121
 97
        0
 75
     0
 76
     1
 52
0.0
 41
1.0
 77
     0
 78
     1
 53
45.0
 43
0.0
 44
0.0
 45
-0.0883883476483184
 46
0.0883883476483184
 79
     0
 98
        1
 10
0.0
 20
0.0
  0
HATCH
  5
4A1
330
1F
100
AcDbEntity
  8
0
  6
Continuous
 62
     7
370
     0
100
AcDbHatch
 10
0.0
 20
0.0
 30
0.0
210
0.0
220
0.0
230
1.0
  2
ANSI31
 70
     0
 71
     0
 91
        1
 92
        0
 93
       28
 72
     1
 10
11.48821982911853
 20
5.877820154660121
 11
11.48937452965691
 21
5.879820154660121
 72
     1
 10
11.48937452965691
 20
5.879820154660121
 11
11.77305402158122
 21
5.879820154660119
 72
     1
 10
11.77305402158122
 20
5.879820154660119
 11
11.79037452965691
 21
5.889820154660121
 72
     1
 10
11.79037452965691
 20
5.889820154660121
 11
11.79037452965691
 21
5.963820154660118
 72
     1
 10
11.79037452965691
 20
5.963820154660118
 11
11.78037452965691
 21
5.97382015466012
 72
     1
 10
11.78037452965691
 20
5.97382015466012
 11
11.70441279568086
 21
5.97382015466012
 72
     1
 10
11.70441279568086
 20
5.97382015466012
 11
11.63678675479595
 21
5.97382015466012
 72
     1
 10
11.63678675479595
 20
5.97382015466012
 11
11.17543946472185
 21
5.97382015466012
 72
     1
 10
11.17543946472185
 20
5.97382015466012
 11
11.15777712705951
 21
5.97382015466012
 72
     1
 10
11.15777712705951
 20
5.97382015466012
 11
11.01802221206623
 21
5.97382015466012
 72
     1
 10
11.01802221206623
 20
5.97382015466012
 11
10.98066046670175
 21
5.97382015466012
 72
     1
 10
10.98066046670175
 20
5.97382015466012
 11
10.85441279568078
 21
5.97382015466012
 72
     1
 10
10.85441279568078
 20
5.97382015466012
 11
10.78678675479599
 21
5.97382015466012
 72
     1
 10
10.78678675479599
 20
5.97382015466012
 11
10.71537452965691
 21
5.973820154660118
 72
     1
 10
10.71537452965691
 20
5.973820154660118
 11
10.70537452965691
 21
5.963820154660119
 72
     1
 10
10.70537452965691
 20
5.963820154660119
 11
10.70537452965691
 21
5.889820154660121
 72
     1
 10
10.70537452965691
 20
5.889820154660121
 11
10.7226950377326
 21
5.879820154660121
 72
     1
 10
10.7226950377326
 20
5.879820154660121
 11
11.00637452965691
 21
5.879820154660121
 72
     1
 10
11.00637452965691
 20
5.879820154660121
 11
11.00752923019529
 21
5.877820154660118
 72
     1
 10
11.00752923019529
 20
5.877820154660118
 11
11.11037452965691
 21
5.877820154660121
 72
     1
 10
11.11037452965691
 20
5.877820154660121
 11
11.11037452965691
 21
5.898820154660122
 72
     1
 10
11.11037452965691
 20
5.898820154660122
 11
11.13037452965691
 21
5.89882015466012
 72
     1
 10
11.13037452965691
 20
5.89882015466012
 11
11.13037452965691
 21
5.824820154660121
 72
     1
 10
11.13037452965691
 20
5.824820154660121
 11
11.37037452965691
 21
5.824820154660121
 72
     1
 10
11.37037452965691
 20
5.824820154660121
 11
11.37037452965691
 21
5.898820154660122
 72
     1
 10
11.37037452965691
 20
5.898820154660122
 11
11.39037452965691
 21
5.89882015466012
 72
     1
 10
11.39037452965691
 20
5.89882015466012
 11
11.39037452965691
 21
5.877820154660122
 72
     1
 10
11.39037452965691
 20
5.877820154660122
 11
11.48821982911853
 21
5.877820154660121
 97
        0
 75
     0
 76
     1
 52
0.0
 41
1.0
 77
     0
 78
     1
 53
45.0
 43
0.0
 44
0.0
 45
-0.0883883476483184
 46
0.0883883476483184
 79
     0
 98
        1
 10
0.0
 20
0.0
  0
HATCH
  5
4A2
330
1F
100
AcDbEntity
  8
0
  6
Continuous
 62
     7
370
     0
100
AcDbHatch
 10
0.0
 20
0.0
 30
0.0
210
0.0
220
0.0
230
1.0
  2
ANSI31
 70
     0
 71
     0
 91
        1
 92
        0
 93
       26
 72
     1
 10
11.77305402158122
 20
4.867820154660122
 11
11.48937452965691
 21
4.867820154660122
 72
     1
 10
11.48937452965691
 20
4.867820154660122
 11
11.48821982911853
 21
4.869820154660122
 72
     1
 10
11.48821982911853
 20
4.869820154660122
 11
11.39037452965691
 21
4.869820154660121
 72
     1
 10
11.39037452965691
 20
4.869820154660121
 11
11.39037452965691
 21
4.848820154660122
 72
     1
 10
11.39037452965691
 20
4.848820154660122
 11
11.37037452965691
 21
4.848820154660121
 72
     1
 10
11.37037452965691
 20
4.848820154660121
 11
11.37037452965691
 21
4.922820154660122
 72
     1
 10
11.37037452965691
 20
4.922820154660122
 11
11.13037452965691
 21
4.922820154660121
 72
     1
 10
11.13037452965691
 20
4.922820154660121
 11
11.13037452965691
 21
4.848820154660122
 72
     1
 10
11.13037452965691
 20
4.848820154660122
 11
11.11037452965691
 21
4.848820154660121
 72
     1
 10
11.11037452965691
 20
4.848820154660121
 11
11.11037452965691
 21
4.869820154660122
 72
     1
 10
11.11037452965691
 20
4.869820154660122
 11
11.00752923019529
 21
4.869820154660124
 72
     1
 10
11.00752923019529
 20
4.869820154660124
 11
11.00637452965691
 21
4.867820154660122
 72
     1
 10
11.00637452965691
 20
4.867820154660122
 11
10.7226950377326
 21
4.867820154660122
 72
     1
 10
10.7226950377326
 20
4.867820154660122
 11
10.70537452965691
 21
4.857820154660121
 72
     1
 10
10.70537452965691
 20
4.857820154660121
 11
10.70537452965691
 21
4.783820154660121
 72
     1
 10
10.70537452965691
 20
4.783820154660121
 11
10.71537452965691
 21
4.773820154660124
 72
     1
 10
10.71537452965691
 20
4.773820154660124
 11
10.78037452965692
 21
4.773820154660123
 72
     1
 10
10.78037452965692
 20
4.773820154660123
 11
10.82752268274969
 21
4.773820154660123
 72
     1
 10
10.82752268274969
 20
4.773820154660123
 11
10.84013091575019
 21
4.773820154660123
 72
     1
 10
10.84013091575019
 20
4.773820154660123
 11
10.86021652506861
 21
4.773820154660123
 72
     1
 10
10.86021652506861
 20
4.773820154660123
 11
10.95421782758684
 21
4.773820154660123
 72
     1
 10
10.95421782758684
 20
4.773820154660123
 11
11.02279063924297
 21
4.773820154660123
 72
     1
 10
11.02279063924297
 20
4.773820154660123
 11
11.78037452965691
 21
4.773820154660123
 72
     1
 10
11.78037452965691
 20
4.773820154660123
 11
11.79037452965691
 21
4.783820154660124
 72
     1
 10
11.79037452965691
 20
4.783820154660124
 11
11.79037452965691
 21
4.857820154660121
 72
     1
 10
11.79037452965691
 20
4.857820154660121
 11
11.77305402158122
 21
4.867820154660122
 97
        0
 75
     0
 76
     1
 52
0.0
 41
1.0
 77
     0
 78
     1
 53
45.0
 43
0.0
 44
0.0
 45
-0.0883883476483184
 46
0.0883883476483184
 79
     0
 98
        1
 10
0.0
 20
0.0
  0
ENDSEC
  0
SECTION
  2
OBJECTS
  0
DICTIONARY
  5
C
330
0
100
AcDbDictionary
281
     1
  3
ACAD_GROUP
350
D
  3
ACAD_LAYOUT
350
1A
  3
ACAD_MLINESTYLE
350
17
  3
ACAD_PLOTSETTINGS
350
19
  3
ACAD_PLOTSTYLENAME
350
E
  0
DICTIONARY
  5
D
102
{ACAD_REACTORS
330
C
102
}
330
C
100
AcDbDictionary
281
     1
  0
DICTIONARY
  5
1A
102
{ACAD_REACTORS
330
C
102
}
330
C
100
AcDbDictionary
281
     1
  3
Layout1
350
1E
  3
Layout2
350
26
  3
Model
350
22
  0
DICTIONARY
  5
17
102
{ACAD_REACTORS
330
C
102
}
330
C
100
AcDbDictionary
281
     1
  3
Standard
350
18
  0
DICTIONARY
  5
19
102
{ACAD_REACTORS
330
C
102
}
330
C
100
AcDbDictionary
281
     1
  0
ACDBDICTIONARYWDFLT
  5
E
102
{ACAD_REACTORS
330
C
102
}
330
C
100
AcDbDictionary
281
     1
  3
Normal
350
F
100
AcDbDictionaryWithDefault
340
F
  0
LAYOUT
  5
1E
102
{ACAD_REACTORS
330
1A
102
}
330
1A
100
AcDbPlotSettings
  1

  2
none_device
  4

  6

 40
0.0
 41
0.0
 42
0.0
 43
0.0
 44
0.0
 45
0.0
 46
0.0
 47
0.0
 48
0.0
 49
0.0
140
0.0
141
0.0
142
1.0
143
1.0
 70
   688
 72
     0
 73
     0
 74
     5
  7

 75
    16
147
1.0
148
0.0
149
0.0
100
AcDbLayout
  1
Layout1
 70
     1
 71
     1
 10
0.0
 20
0.0
 11
12.0
 21
9.0
 12
0.0
 22
0.0
 32
0.0
 14
1.0000000000E+20
 24
1.0000000000E+20
 34
1.0000000000E+20
 15
-1.0000000000E+20
 25
-1.0000000000E+20
 35
-1.0000000000E+20
146
0.0
 13
0.0
 23
0.0
 33
0.0
 16
1.0
 26
0.0
 36
0.0
 17
0.0
 27
1.0
 37
0.0
 76
     0
330
1B
  0
LAYOUT
  5
26
102
{ACAD_REACTORS
330
1A
102
}
330
1A
100
AcDbPlotSettings
  1

  2
none_device
  4

  6

 40
0.0
 41
0.0
 42
0.0
 43
0.0
 44
0.0
 45
0.0
 46
0.0
 47
0.0
 48
0.0
 49
0.0
140
0.0
141
0.0
142
1.0
143
1.0
 70
   688
 72
     0
 73
     0
 74
     5
  7

 75
    16
147
1.0
148
0.0
149
0.0
100
AcDbLayout
  1
Layout2
 70
     1
 71
     2
 10
0.0
 20
0.0
 11
0.0
 21
0.0
 12
0.0
 22
0.0
 32
0.0
 14
0.0
 24
0.0
 34
0.0
 15
0.0
 25
0.0
 35
0.0
146
0.0
 13
0.0
 23
0.0
 33
0.0
 16
1.0
 26
0.0
 36
0.0
 17
0.0
 27
1.0
 37
0.0
 76
     0
330
23
  0
LAYOUT
  5
22
102
{ACAD_REACTORS
330
1A
102
}
330
1A
100
AcDbPlotSettings
  1

  2
none_device
  4

  6

 40
0.0
 41
0.0
 42
0.0
 43
0.0
 44
0.0
 45
0.0
 46
0.0
 47
0.0
 48
0.0
 49
0.0
140
0.0
141
0.0
142
1.0
143
1.0
 70
  1712
 72
     0
 73
     0
 74
     0
  7

 75
     0
147
1.0
148
0.0
149
0.0
100
AcDbLayout
  1
Model
 70
     1
 71
     0
 10
0.0
 20
0.0
 11
0.0
 21
0.0
 12
0.0
 22
0.0
 32
0.0
 14
0.0
 24
0.0
 34
0.0
 15
17.0
 25
11.0
 35
0.0
146
0.0
 13
0.0
 23
0.0
 33
0.0
 16
1.0
 26
0.0
 36
0.0
 17
0.0
 27
1.0
 37
0.0
 76
     0
330
1F
  0
MLINESTYLE
  5
18
102
{ACAD_REACTORS
330
17
102
}
330
17
100
AcDbMlineStyle
  2
Standard
 70
     0
  3

 62
   256
 51
90.0
 52
90.0
 71
     2
 49
0.5
 62
   256
  6
BYLAYER
 49
-0.5
 62
   256
  6
BYLAYER
  0
ACDBPLACEHOLDER
  5
F
102
{ACAD_REACTORS
330
E
102
}
330
E
  0
ENDSEC
  0
EOF
