  0
SECTION
  2
HEADER
  9
$ACADVER
  1
AC1015
  9
$ACADMAINTVER
 70
     6
  9
$DWGCODEPAGE
  3
ANSI_1252
  9
$INSBASE
 10
0.0
 20
0.0
 30
0.0
  9
$EXTMIN
 10
0.0
 20
0.0
 30
0.0
  9
$EXTMAX
 10
11.0
 20
8.5
 30
0.0
  9
$LIMMIN
 10
0.0
 20
0.0
  9
$LIMMAX
 10
11.0
 20
8.5
  9
$ORTHOMODE
 70
     0
  9
$REGENMODE
 70
     1
  9
$FILLMODE
 70
     1
  9
$QTEXTMODE
 70
     0
  9
$MIRRTEXT
 70
     1
  9
$LTSCALE
 40
1.0
  9
$ATTMODE
 70
     1
  9
$TEXTSIZE
 40
0.1111111111
  9
$TRACEWID
 40
0.05
  9
$TEXTSTYLE
  7
Standard
  9
$CLAYER
  8
0
  9
$CELTYPE
  6
ByLayer
  9
$CECOLOR
 62
   256
  9
$CELTSCALE
 40
1.0
  9
$DISPSILH
 70
     0
  9
$DIMSCALE
 40
1.0
  9
$DIMASZ
 40
0.125
  9
$DIMEXO
 40
0.05
  9
$DIMDLI
 40
0.38
  9
$DIMRND
 40
0.0
  9
$DIMDLE
 40
0.0
  9
$DIMEXE
 40
0.07
  9
$DIMTP
 40
0.0
  9
$DIMTM
 40
0.0
  9
$DIMTXT
 40
0.1111111111
  9
$DIMCEN
 40
0.09
  9
$DIMTSZ
 40
0.0
  9
$DIMTOL
 70
     0
  9
$DIMLIM
 70
     0
  9
$DIMTIH
 70
     1
  9
$DIMTOH
 70
     1
  9
$DIMSE1
 70
     0
  9
$DIMSE2
 70
     0
  9
$DIMTAD
 70
     0
  9
$DIMZIN
 70
     1
  9
$DIMBLK
  1

  9
$DIMASO
 70
     1
  9
$DIMSHO
 70
     1
  9
$DIMPOST
  1

  9
$DIMAPOST
  1

  9
$DIMALT
 70
     0
  9
$DIMALTD
 70
     2
  9
$DIMALTF
 40
25.4
  9
$DIMLFAC
 40
1.0
  9
$DIMTOFL
 70
     0
  9
$DIMTVP
 40
0.0
  9
$DIMTIX
 70
     0
  9
$DIMSOXD
 70
     0
  9
$DIMSAH
 70
     0
  9
$DIMBLK1
  1

  9
$DIMBLK2
  1

  9
$DIMSTYLE
  2
Standard
  9
$DIMCLRD
 70
     0
  9
$DIMCLRE
 70
     0
  9
$DIMCLRT
 70
     0
  9
$DIMTFAC
 40
1.0
  9
$DIMGAP
 40
0.1
  9
$DIMJUST
 70
     0
  9
$DIMSD1
 70
     0
  9
$DIMSD2
 70
     0
  9
$DIMTOLJ
 70
     1
  9
$DIMTZIN
 70
     1
  9
$DIMALTZ
 70
     0
  9
$DIMALTTZ
 70
     0
  9
$DIMUPT
 70
     0
  9
$DIMDEC
 70
     2
  9
$DIMTDEC
 70
     2
  9
$DIMALTU
 70
     2
  9
$DIMALTTD
 70
     2
  9
$DIMTXSTY
  7
Standard
  9
$DIMAUNIT
 70
     0
  9
$DIMADEC
 70
     0
  9
$DIMALTRND
 40
0.0
  9
$DIMAZIN
 70
     0
  9
$DIMDSEP
 70
    46
  9
$DIMATFIT
 70
     3
  9
$DIMFRAC
 70
     0
  9
$DIMLDRBLK
  1

  9
$DIMLUNIT
 70
     2
  9
$DIMLWD
 70
    -2
  9
$DIMLWE
 70
    -2
  9
$DIMTMOVE
 70
     0
  9
$LUNITS
 70
     2
  9
$LUPREC
 70
     2
  9
$SKETCHINC
 40
0.1
  9
$FILLETRAD
 40
0.5
  9
$AUNITS
 70
     0
  9
$AUPREC
 70
     0
  9
$MENU
  1
.
  9
$ELEVATION
 40
0.0
  9
$PELEVATION
 40
0.0
  9
$THICKNESS
 40
0.0
  9
$LIMCHECK
 70
     0
  9
$CHAMFERA
 40
0.0
  9
$CHAMFERB
 40
0.0
  9
$CHAMFERC
 40
0.0
  9
$CHAMFERD
 40
0.0
  9
$SKPOLY
 70
     0
  9
$TDCREATE
 40
2457374.444803438
  9
$TDUCREATE
 40
2457374.653136771
  9
$TDUPDATE
 40
2457374.444807048
  9
$TDUUPDATE
 40
2457374.653140382
  9
$TDINDWG
 40
0.0000000116
  9
$TDUSRTIMER
 40
0.0000000116
  9
$USRTIMER
 70
     1
  9
$ANGBASE
 50
0.0
  9
$ANGDIR
 70
     0
  9
$PDMODE
 70
     0
  9
$PDSIZE
 40
-1.0
  9
$PLINEWID
 40
0.0
  9
$SPLFRAME
 70
     0
  9
$SPLINETYPE
 70
     6
  9
$SPLINESEGS
 70
     8
  9
$HANDSEED
  5
218
  9
$SURFTAB1
 70
     6
  9
$SURFTAB2
 70
     6
  9
$SURFTYPE
 70
     6
  9
$SURFU
 70
     6
  9
$SURFV
 70
     6
  9
$UCSBASE
  2

  9
$UCSNAME
  2

  9
$UCSORG
 10
0.0
 20
0.0
 30
0.0
  9
$UCSXDIR
 10
1.0
 20
0.0
 30
0.0
  9
$UCSYDIR
 10
0.0
 20
1.0
 30
0.0
  9
$UCSORTHOREF
  2

  9
$UCSORTHOVIEW
 70
     0
  9
$UCSORGTOP
 10
0.0
 20
0.0
 30
0.0
  9
$UCSORGBOTTOM
 10
0.0
 20
0.0
 30
0.0
  9
$UCSORGLEFT
 10
0.0
 20
0.0
 30
0.0
  9
$UCSORGRIGHT
 10
0.0
 20
0.0
 30
0.0
  9
$UCSORGFRONT
 10
0.0
 20
0.0
 30
0.0
  9
$UCSORGBACK
 10
0.0
 20
0.0
 30
0.0
  9
$PUCSBASE
  2

  9
$PUCSNAME
  2

  9
$PUCSORG
 10
0.0
 20
0.0
 30
0.0
  9
$PUCSXDIR
 10
1.0
 20
0.0
 30
0.0
  9
$PUCSYDIR
 10
0.0
 20
1.0
 30
0.0
  9
$PUCSORTHOREF
  2

  9
$PUCSORTHOVIEW
 70
     0
  9
$PUCSORGTOP
 10
0.0
 20
0.0
 30
0.0
  9
$PUCSORGBOTTOM
 10
0.0
 20
0.0
 30
0.0
  9
$PUCSORGLEFT
 10
0.0
 20
0.0
 30
0.0
  9
$PUCSORGRIGHT
 10
0.0
 20
0.0
 30
0.0
  9
$PUCSORGFRONT
 10
0.0
 20
0.0
 30
0.0
  9
$PUCSORGBACK
 10
0.0
 20
0.0
 30
0.0
  9
$USERI1
 70
     0
  9
$USERI2
 70
     0
  9
$USERI3
 70
     0
  9
$USERI4
 70
     0
  9
$USERI5
 70
     0
  9
$USERR1
 40
0.0
  9
$USERR2
 40
0.0
  9
$USERR3
 40
0.0
  9
$USERR4
 40
0.0
  9
$USERR5
 40
0.0
  9
$WORLDVIEW
 70
     1
  9
$SHADEDGE
 70
     3
  9
$SHADEDIF
 70
    70
  9
$TILEMODE
 70
     1
  9
$MAXACTVP
 70
    64
  9
$PINSBASE
 10
0.0
 20
0.0
 30
0.0
  9
$PLIMCHECK
 70
     0
  9
$PEXTMIN
 10
1.0000000000E+20
 20
1.0000000000E+20
 30
1.0000000000E+20
  9
$PEXTMAX
 10
-1.0000000000E+20
 20
-1.0000000000E+20
 30
-1.0000000000E+20
  9
$PLIMMIN
 10
0.0
 20
0.0
  9
$PLIMMAX
 10
12.0
 20
9.0
  9
$UNITMODE
 70
     0
  9
$VISRETAIN
 70
     1
  9
$PLINEGEN
 70
     0
  9
$PSLTSCALE
 70
     1
  9
$TREEDEPTH
 70
  3020
  9
$CMLSTYLE
  2
Standard
  9
$CMLJUST
 70
     0
  9
$CMLSCALE
 40
1.0
  9
$PROXYGRAPHICS
 70
     1
  9
$MEASUREMENT
 70
     0
  9
$CELWEIGHT
370
    -1
  9
$ENDCAPS
280
     0
  9
$JOINSTYLE
280
     0
  9
$LWDISPLAY
290
     1
  9
$INSUNITS
 70
     1
  9
$HYPERLINKBASE
  1

  9
$STYLESHEET
  1

  9
$XEDIT
290
     1
  9
$CEPSNTYPE
380
     0
  9
$PSTYLEMODE
290
     1
  9
$FINGERPRINTGUID
  2
{28B40135-BC40-4409-A3A6-955C32F75438}
  9
$VERSIONGUID
  2
{FAEB1C32-E019-11D5-929B-00C0DF256EC4}
  9
$EXTNAMES
290
     1
  9
$PSVPSCALE
 40
0.0
  9
$OLESTARTUP
290
     0
  0
ENDSEC
  0
SECTION
  2
CLASSES
  0
CLASS
  1
ACDBDICTIONARYWDFLT
  2
AcDbDictionaryWithDefault
  3
ObjectDBX Classes
 90
        0
280
     0
281
     0
  0
CLASS
  1
VISUALSTYLE
  2
AcDbVisualStyle
  3
ObjectDBX Classes
 90
     4095
280
     0
281
     0
  0
CLASS
  1
MATERIAL
  2
AcDbMaterial
  3
ObjectDBX Classes
 90
     1153
280
     0
281
     0
  0
CLASS
  1
SCALE
  2
AcDbScale
  3
ObjectDBX Classes
 90
     1153
280
     0
281
     0
  0
CLASS
  1
SUN
  2
AcDbSun
  3
SCENEOE
 90
     1153
280
     0
281
     0
  0
CLASS
  1
ACDBPLACEHOLDER
  2
AcDbPlaceHolder
  3
ObjectDBX Classes
 90
        0
280
     0
281
     0
  0
CLASS
  1
LAYOUT
  2
AcDbLayout
  3
ObjectDBX Classes
 90
        0
280
     0
281
     0
  0
ENDSEC
  0
SECTION
  2
TABLES
  0
TABLE
  2
VPORT
  5
8
330
0
100
AcDbSymbolTable
 70
     1
  0
VPORT
  5
29
330
8
100
AcDbSymbolTableRecord
100
AcDbViewportTableRecord
  2
*Active
 70
     0
 10
0.0
 20
0.0
 11
1.0
 21
1.0
 12
5.5
 22
4.25
 13
0.0
 23
0.0
 14
0.5
 24
0.5
 15
0.5
 25
0.5
 16
0.0
 26
0.0
 36
1.0
 17
0.0
 27
0.0
 37
0.0
 40
8.5
 41
1.2941176471
 42
50.0
 43
0.0
 44
0.0
 50
0.0
 51
0.0
 71
     0
 72
  2000
 73
     1
 74
     3
 75
     0
 76
     0
 77
     0
 78
     0
281
     0
 65
     1
110
0.0
120
0.0
130
0.0
111
1.0
121
0.0
131
0.0
112
0.0
122
1.0
132
0.0
 79
     0
146
0.0
  0
ENDTAB
  0
TABLE
  2
LTYPE
  5
5
330
0
100
AcDbSymbolTable
 70
     6
  0
LTYPE
  5
14
330
5
100
AcDbSymbolTableRecord
100
AcDbLinetypeTableRecord
  2
ByBlock
 70
     0
  3

 72
    65
 73
     0
 40
0.0
  0
LTYPE
  5
15
330
5
100
AcDbSymbolTableRecord
100
AcDbLinetypeTableRecord
  2
ByLayer
 70
     0
  3

 72
    65
 73
     0
 40
0.0
  0
LTYPE
  5
16
330
5
100
AcDbSymbolTableRecord
100
AcDbLinetypeTableRecord
  2
Continuous
 70
     0
  3
Solid line
 72
    65
 73
     0
 40
0.0
  0
LTYPE
  5
6A
330
5
100
AcDbSymbolTableRecord
100
AcDbLinetypeTableRecord
  2
HIDDEN
 70
     0
  3
Hidden __ __ __ __ __ __ __ __ __ __ __ __ __ __
 72
    65
 73
     2
 40
0.075
 49
0.05
 74
     0
 49
-0.025
 74
     0
  0
LTYPE
  5
6B
330
5
100
AcDbSymbolTableRecord
100
AcDbLinetypeTableRecord
  2
PHANTOM
 70
     0
  3
Phantom ______  __  __  ______  __  __  ______
 72
    65
 73
     6
 40
0.5
 49
0.25
 74
     0
 49
-0.05
 74
     0
 49
0.05
 74
     0
 49
-0.05
 74
     0
 49
0.05
 74
     0
 49
-0.05
 74
     0
  0
LTYPE
  5
6C
330
5
100
AcDbSymbolTableRecord
100
AcDbLinetypeTableRecord
  2
CENTER
 70
     0
  3
Center ____ _ ____ _ ____ _ ____ _ ____ _ ____
 72
    65
 73
     4
 40
0.4
 49
0.25
 74
     0
 49
-0.05
 74
     0
 49
0.05
 74
     0
 49
-0.05
 74
     0
  0
LTYPE
  5
6D
330
5
100
AcDbSymbolTableRecord
100
AcDbLinetypeTableRecord
  2
CENTERX2
 70
     0
  3
Center (2x) ________  __  ________  __  _____
 72
    65
 73
     4
 40
0.8
 49
0.5
 74
     0
 49
-0.1
 74
     0
 49
0.1
 74
     0
 49
-0.1
 74
     0
  0
LTYPE
  5
6E
330
5
100
AcDbSymbolTableRecord
100
AcDbLinetypeTableRecord
  2
DOT2
 70
     0
  3
Dot (.5x) ........................................
 72
    65
 73
     2
 40
0.025
 49
0.0
 74
     0
 49
-0.025
 74
     0
  0
ENDTAB
  0
TABLE
  2
LAYER
  5
2
330
0
100
AcDbSymbolTable
 70
     2
  0
LAYER
  5
10
330
2
100
AcDbSymbolTableRecord
100
AcDbLayerTableRecord
  2
0
 70
     0
 62
     7
  6
Continuous
370
    -3
390
F
  0
LAYER
  5
6F
330
2
100
AcDbSymbolTableRecord
100
AcDbLayerTableRecord
  2
FORMAT
 70
     0
 62
     7
  6
Continuous
370
    -3
390
F
  0
ENDTAB
  0
TABLE
  2
STYLE
  5
3
330
0
100
AcDbSymbolTable
 70
     5
  0
STYLE
  5
11
330
3
100
AcDbSymbolTableRecord
100
AcDbTextStyleTableRecord
  2
Standard
 70
     0
 40
0.0
 41
1.0
 50
0.0
 71
     0
 42
0.1111111111
  3
txt
  4

  0
STYLE
  5
96
330
3
100
AcDbSymbolTableRecord
100
AcDbTextStyleTableRecord
  2
SLDTEXTSTYLE0
 70
     0
 40
0.0
 41
0.75
 50
0.0
 71
     0
 42
0.1111111111
  3
TXT
  4

  0
STYLE
  5
A2
330
3
100
AcDbSymbolTableRecord
100
AcDbTextStyleTableRecord
  2
SLDTEXTSTYLE1
 70
     0
 40
0.0
 41
0.6
 50
0.0
 71
     0
 42
0.1111111111
  3
TXT
  4

  0
STYLE
  5
A7
330
3
100
AcDbSymbolTableRecord
100
AcDbTextStyleTableRecord
  2
SLDTEXTSTYLE2
 70
     0
 40
0.0
 41
0.6875
 50
0.0
 71
     0
 42
0.1111111111
  3
TXT
  4

  0
STYLE
  5
1F3
330
3
100
AcDbSymbolTableRecord
100
AcDbTextStyleTableRecord
  2
SLDTEXTSTYLE3
 70
     0
 40
0.0
 41
0.7
 50
0.0
 71
     0
 42
0.1111111111
  3
TXT
  4

  0
ENDTAB
  0
TABLE
  2
VIEW
  5
6
330
0
100
AcDbSymbolTable
 70
     0
  0
ENDTAB
  0
TABLE
  2
UCS
  5
7
330
0
100
AcDbSymbolTable
 70
     0
  0
ENDTAB
  0
TABLE
  2
APPID
  5
9
330
0
100
AcDbSymbolTable
 70
     1
  0
APPID
  5
12
330
9
100
AcDbSymbolTableRecord
100
AcDbRegAppTableRecord
  2
ACAD
 70
     0
  0
ENDTAB
  0
TABLE
  2
DIMSTYLE
  5
A
330
0
100
AcDbSymbolTable
 70
     5
100
AcDbDimStyleTable
  0
DIMSTYLE
105
27
330
A
100
AcDbSymbolTableRecord
100
AcDbDimStyleTableRecord
  2
Standard
 70
     0
178
     0
340
11
  0
DIMSTYLE
105
11D
102
{ACAD_REACTORS
330
11C
102
}
330
A
100
AcDbSymbolTableRecord
100
AcDbDimStyleTableRecord
  2
SLDDIMSTYLE0
 70
     0
 41
0.125
 44
0.0
 45
0.000000001
 78
     4
 79
     1
140
0.0833333333
141
0.0
147
0.0208333333
148
0.000000001
170
     1
171
     1
173
     1
178
     0
271
     2
272
     2
274
     1
276
     2
284
    12
340
96
  0
DIMSTYLE
105
1B4
102
{ACAD_REACTORS
330
1B3
102
}
330
A
100
AcDbSymbolTableRecord
100
AcDbDimStyleTableRecord
  2
SLDDIMSTYLE1
 70
     0
 41
0.125
 44
0.0
 45
0.000000001
 78
     4
 79
     1
140
0.0833333333
147
0.0208333333
148
0.000000001
170
     1
171
     1
173
     1
178
     0
271
     2
272
     2
274
     1
276
     2
284
    12
340
96
  0
DIMSTYLE
105
1C8
102
{ACAD_REACTORS
330
1C7
330
1DC
102
}
330
A
100
AcDbSymbolTableRecord
100
AcDbDimStyleTableRecord
  2
SLDDIMSTYLE2
 70
     0
 41
0.125
 44
0.0
 45
0.000000001
 78
     8
 79
     2
140
0.0833333333
147
0.0208333333
148
0.000000001
170
     1
171
     1
172
     1
173
     1
178
     0
271
     2
272
     2
274
     1
276
     2
284
    12
289
     0
340
96
  0
DIMSTYLE
105
1F8
330
A
100
AcDbSymbolTableRecord
100
AcDbDimStyleTableRecord
  2
SLDDIMSTYLE3
 70
     0
 41
0.125
 44
0.0
 45
0.000000001
146
0.125
147
0.0
173
     1
178
     0
271
     0
272
     0
276
     2
340
11
  0
ENDTAB
  0
TABLE
  2
BLOCK_RECORD
  5
1
330
0
100
AcDbSymbolTable
 70
    20
  0
BLOCK_RECORD
  5
1F
330
1
100
AcDbSymbolTableRecord
100
AcDbBlockTableRecord
  2
*Model_Space
340
22
  0
BLOCK_RECORD
  5
1B
330
1
100
AcDbSymbolTableRecord
100
AcDbBlockTableRecord
  2
*Paper_Space
340
1E
  0
BLOCK_RECORD
  5
23
330
1
100
AcDbSymbolTableRecord
100
AcDbBlockTableRecord
  2
*Paper_Space0
340
26
  0
BLOCK_RECORD
  5
70
330
1
100
AcDbSymbolTableRecord
100
AcDbBlockTableRecord
  2
Third Angle Projection Block
340
0
102
{BLKREFS
331
95
102
}
  0
BLOCK_RECORD
  5
A9
330
1
100
AcDbSymbolTableRecord
100
AcDbBlockTableRecord
  2
SW_NOTE_0
340
0
102
{BLKREFS
331
AE
102
}
  0
BLOCK_RECORD
  5
AF
330
1
100
AcDbSymbolTableRecord
100
AcDbBlockTableRecord
  2
SW_NOTE_1
340
0
102
{BLKREFS
331
B4
102
}
  0
BLOCK_RECORD
  5
B6
330
1
100
AcDbSymbolTableRecord
100
AcDbBlockTableRecord
  2
SW_NOTE_2
340
0
102
{BLKREFS
331
BC
102
}
  0
BLOCK_RECORD
  5
BE
330
1
100
AcDbSymbolTableRecord
100
AcDbBlockTableRecord
  2
SW_NOTE_3
340
0
102
{BLKREFS
331
C3
102
}
  0
BLOCK_RECORD
  5
C4
330
1
100
AcDbSymbolTableRecord
100
AcDbBlockTableRecord
  2
SW_NOTE_4
340
0
102
{BLKREFS
331
D9
102
}
  0
BLOCK_RECORD
  5
DA
330
1
100
AcDbSymbolTableRecord
100
AcDbBlockTableRecord
  2
SW_TABLEANNOTATION_0
340
0
102
{BLKREFS
331
103
102
}
  0
BLOCK_RECORD
  5
E8
330
1
100
AcDbSymbolTableRecord
100
AcDbBlockTableRecord
  2
SW_SYMBOL_C#_1
340
0
102
{BLKREFS
331
ED
102
}
  0
BLOCK_RECORD
  5
F1
330
1
100
AcDbSymbolTableRecord
100
AcDbBlockTableRecord
  2
SW_SYMBOL_C#_2
340
0
102
{BLKREFS
331
F6
102
}
  0
BLOCK_RECORD
  5
F9
330
1
100
AcDbSymbolTableRecord
100
AcDbBlockTableRecord
  2
SW_SYMBOL_C#_3
340
0
102
{BLKREFS
331
FE
102
}
  0
BLOCK_RECORD
  5
11E
330
1
100
AcDbSymbolTableRecord
100
AcDbBlockTableRecord
  2
_D
340
0
  0
BLOCK_RECORD
  5
1B5
330
1
100
AcDbSymbolTableRecord
100
AcDbBlockTableRecord
  2
_D_1
340
0
  0
BLOCK_RECORD
  5
1C9
330
1
100
AcDbSymbolTableRecord
100
AcDbBlockTableRecord
  2
_D_2
340
0
  0
BLOCK_RECORD
  5
1DD
330
1
100
AcDbSymbolTableRecord
100
AcDbBlockTableRecord
  2
_D_3
340
0
  0
BLOCK_RECORD
  5
1F0
330
1
100
AcDbSymbolTableRecord
100
AcDbBlockTableRecord
  2
SW_NOTE_5
340
0
102
{BLKREFS
331
1F7
102
}
  0
BLOCK_RECORD
  5
1FA
330
1
100
AcDbSymbolTableRecord
100
AcDbBlockTableRecord
  2
SW_NOTE_6
340
0
102
{BLKREFS
331
200
102
}
  0
BLOCK_RECORD
  5
202
330
1
100
AcDbSymbolTableRecord
100
AcDbBlockTableRecord
  2
SW_NOTE_7
340
0
102
{BLKREFS
331
207
102
}
  0
BLOCK_RECORD
  5
209
330
1
100
AcDbSymbolTableRecord
100
AcDbBlockTableRecord
  2
SW_NOTE_8
340
0
102
{BLKREFS
331
20E
102
}
  0
BLOCK_RECORD
  5
210
330
1
100
AcDbSymbolTableRecord
100
AcDbBlockTableRecord
  2
SW_NOTE_9
340
0
102
{BLKREFS
331
215
102
}
  0
ENDTAB
  0
ENDSEC
  0
SECTION
  2
BLOCKS
  0
BLOCK
  5
20
330
1F
100
AcDbEntity
  8
0
100
AcDbBlockBegin
  2
*Model_Space
 70
     0
 10
0.0
 20
0.0
 30
0.0
  3
*Model_Space
  1
*Model_Space
  0
ENDBLK
  5
21
330
1F
100
AcDbEntity
  8
0
100
AcDbBlockEnd
  0
BLOCK
  5
1C
330
1B
100
AcDbEntity
 67
     1
  8
0
100
AcDbBlockBegin
  2
*Paper_Space
 70
     0
 10
0.0
 20
0.0
 30
0.0
  3
*Paper_Space
  1
*Paper_Space
  0
ENDBLK
  5
1D
330
1B
100
AcDbEntity
 67
     1
  8
0
100
AcDbBlockEnd
  0
BLOCK
  5
24
330
23
100
AcDbEntity
  8
0
100
AcDbBlockBegin
  2
*Paper_Space0
 70
     0
 10
0.0
 20
0.0
 30
0.0
  3
*Paper_Space0
  1
*Paper_Space0
  0
ENDBLK
  5
25
330
23
100
AcDbEntity
  8
0
100
AcDbBlockEnd
  0
BLOCK
  5
71
330
70
100
AcDbEntity
  8
0
100
AcDbBlockBegin
  2
Third Angle Projection Block
 70
     0
 10
0.0
 20
0.0
 30
0.0
  3
Third Angle Projection Block
  1
Third Angle Projection Block
  0
CIRCLE
  5
73
330
70
100
AcDbEntity
  8
0
  6
Continuous
 62
     7
370
    30
100
AcDbCircle
 10
3.9951432636
 20
0.7456853688
 30
0.0
 40
0.0696152422706639
  0
CIRCLE
  5
74
330
70
100
AcDbEntity
  8
0
  6
Continuous
 62
     7
370
    30
100
AcDbCircle
 10
3.9951432636
 20
0.7456853688
 30
0.0
 40
0.1535916633280245
  0
LINE
  5
75
330
70
100
AcDbEntity
  8
0
  6
CENTERX2
 62
     7
370
     0
100
AcDbLine
 10
4.3360937897
 20
0.7456853688
 30
0.0
 11
4.7028635231
 21
0.7456853688
 31
0.0
  0
LINE
  5
76
330
70
100
AcDbEntity
  8
0
  6
Continuous
 62
     7
370
    30
100
AcDbLine
 10
4.3701432636
 20
0.815300611
 30
0.0
 11
4.3701432636
 21
0.6760701265
 31
0.0
  0
LINE
  5
77
330
70
100
AcDbEntity
  8
0
  6
Continuous
 62
     7
370
    30
100
AcDbLine
 10
4.3701432636
 20
0.6760701265
 30
0.0
 11
4.6701432636
 21
0.5956853688
 31
0.0
  0
LINE
  5
78
330
70
100
AcDbEntity
  8
0
  6
Continuous
 62
     7
370
    30
100
AcDbLine
 10
4.6701432636
 20
0.5956853688
 30
0.0
 11
4.6701432636
 21
0.8956853688
 31
0.0
  0
LINE
  5
79
330
70
100
AcDbEntity
  8
0
  6
Continuous
 62
     7
370
    30
100
AcDbLine
 10
4.6701432636
 20
0.8956853688
 30
0.0
 11
4.3701432636
 21
0.815300611
 31
0.0
  0
LINE
  5
7A
330
70
100
AcDbEntity
  8
0
  6
CENTERX2
 62
     7
370
     0
100
AcDbLine
 10
3.8032513961
 20
0.7456853688
 30
0.0
 11
4.187035131
 21
0.7456853688
 31
0.0
  0
LINE
  5
7B
330
70
100
AcDbEntity
  8
0
  6
CENTERX2
 62
     7
370
     0
100
AcDbLine
 10
3.9951432636
 20
0.9375772362
 30
0.0
 11
3.9951432636
 21
0.5537935013
 31
0.0
  0
POINT
  5
7C
330
70
100
AcDbEntity
  8
0
  6
Continuous
 62
     7
370
     0
100
AcDbPoint
 10
3.9951432636
 20
0.7456853688
 30
0.0
  0
ENDBLK
  5
72
330
70
100
AcDbEntity
  8
0
100
AcDbBlockEnd
  0
BLOCK
  5
AA
330
A9
100
AcDbEntity
  8
0
100
AcDbBlockBegin
  2
SW_NOTE_0
 70
     0
 10
0.0
 20
0.0
 30
0.0
  3
SW_NOTE_0
  1
SW_NOTE_0
  0
MTEXT
  5
AC
330
A9
100
AcDbEntity
  8
0
  6
Continuous
 62
     0
370
     0
100
AcDbMText
 10
0.78375
 20
0.0773440644
 30
0.0
 40
0.06
 41
0.0
 71
     2
 72
     1
  1
VALUES IN PARENTHESIS ARE CALCULATED
  7
SLDTEXTSTYLE0
 73
     1
 44
1.0
  0
MTEXT
  5
AD
330
A9
100
AcDbEntity
  8
0
  6
Continuous
 62
     0
370
     0
100
AcDbMText
 10
0.7825936818
 20
-0.0220260102
 30
0.0
 40
0.06
 41
0.0
 71
     2
 72
     1
  1
AND MAY CONTAIN ROUNDOFF ERRORS
  7
SLDTEXTSTYLE0
 73
     1
 44
1.0
  0
ENDBLK
  5
AB
330
A9
100
AcDbEntity
  8
0
100
AcDbBlockEnd
  0
BLOCK
  5
B0
330
AF
100
AcDbEntity
  8
0
100
AcDbBlockBegin
  2
SW_NOTE_1
 70
     0
 10
0.0
 20
0.0
 30
0.0
  3
SW_NOTE_1
  1
SW_NOTE_1
  0
MTEXT
  5
B2
330
AF
100
AcDbEntity
  8
0
  6
Continuous
 62
     0
370
     0
100
AcDbMText
 10
0.0
 20
0.1074223116
 30
0.0
 40
0.0833333333
 41
0.0
 71
     1
 72
     1
  1
DRAWING
  7
SLDTEXTSTYLE0
 73
     1
 44
1.0
  0
MTEXT
  5
B3
330
AF
100
AcDbEntity
  8
0
  6
Continuous
 62
     0
370
     0
100
AcDbMText
 10
0.0
 20
-0.0036887981
 30
0.0
 40
0.0833333333
 41
0.0
 71
     1
 72
     1
  1
PROJECTION
  7
SLDTEXTSTYLE0
 73
     1
 44
1.0
  0
ENDBLK
  5
B1
330
AF
100
AcDbEntity
  8
0
100
AcDbBlockEnd
  0
BLOCK
  5
B7
330
B6
100
AcDbEntity
  8
0
100
AcDbBlockBegin
  2
SW_NOTE_2
 70
     0
 10
0.0
 20
0.0
 30
0.0
  3
SW_NOTE_2
  1
SW_NOTE_2
  0
MTEXT
  5
B9
330
B6
100
AcDbEntity
  8
0
  6
Continuous
 62
     0
370
     0
100
AcDbMText
 10
0.0823567708
 20
0.1477056785
 30
0.0
 40
0.1145833333
 41
0.0
 71
     2
 72
     1
  1
%%c
  7
SLDTEXTSTYLE0
 73
     1
 44
1.0
  0
MTEXT
  5
BA
330
B6
100
AcDbEntity
  8
0
  6
Continuous
 62
     0
370
     0
100
AcDbMText
 10
1.2471759303
 20
0.1477056785
 30
0.0
 40
0.1145833333
 41
0.0
 71
     2
 72
     1
  1
2" MOUNTED PLANO-CONVEX
  7
SLDTEXTSTYLE0
 73
     1
 44
1.0
  0
MTEXT
  5
BB
330
B6
100
AcDbEntity
  8
0
  6
Continuous
 62
     0
370
     0
100
AcDbMText
 10
1.1579654396
 20
-0.0050720974
 30
0.0
 40
0.1145833333
 41
0.0
 71
     2
 72
     1
  1
LENS, f=750mm, -UV COAT
  7
SLDTEXTSTYLE0
 73
     1
 44
1.0
  0
ENDBLK
  5
B8
330
B6
100
AcDbEntity
  8
0
100
AcDbBlockEnd
  0
BLOCK
  5
BF
330
BE
100
AcDbEntity
  8
0
100
AcDbBlockBegin
  2
SW_NOTE_3
 70
     0
 10
0.0
 20
0.0
 30
0.0
  3
SW_NOTE_3
  1
SW_NOTE_3
  0
MTEXT
  5
C1
330
BE
100
AcDbEntity
  8
0
  6
Continuous
 62
     0
370
     0
100
AcDbMText
 10
0.986328125
 20
0.1611334675
 30
0.0
 40
0.125
 41
0.0
 71
     2
 72
     1
  1
FOR INFORMATION ONLY
  7
SLDTEXTSTYLE0
 73
     1
 44
1.0
  0
MTEXT
  5
C2
330
BE
100
AcDbEntity
  8
0
  6
Continuous
 62
     0
370
     0
100
AcDbMText
 10
0.999088459
 20
-0.0055331972
 30
0.0
 40
0.125
 41
0.0
 71
     2
 72
     1
  1
NOT FOR MANUFACTURING PURPOSES
  7
SLDTEXTSTYLE0
 73
     1
 44
1.0
  0
ENDBLK
  5
C0
330
BE
100
AcDbEntity
  8
0
100
AcDbBlockEnd
  0
BLOCK
  5
C5
330
C4
100
AcDbEntity
  8
0
100
AcDbBlockBegin
  2
SW_NOTE_4
 70
     0
 10
0.0
 20
0.0
 30
0.0
  3
SW_NOTE_4
  1
SW_NOTE_4
  0
MTEXT
  5
C7
330
C4
100
AcDbEntity
  8
0
  6
Continuous
 62
     0
370
     0
100
AcDbMText
 10
0.0
 20
0.1074223116
 30
0.0
 40
0.0833333333
 41
0.0
 71
     1
 72
     1
  1
NOTES/SPECIFICATIONS:
  7
SLDTEXTSTYLE0
 73
     1
 44
1.0
  0
MTEXT
  5
C8
330
C4
100
AcDbEntity
  8
0
  6
Continuous
 62
     0
370
     0
100
AcDbMText
 10
0.4183921567
 20
-0.1147999079
 30
0.0
 40
0.0833333333
 41
0.0
 71
     1
 72
     1
  1
DESIGN WAVELENGTH: 546nm
  7
SLDTEXTSTYLE0
 73
     1
 44
1.0
  0
MTEXT
  5
C9
330
C4
100
AcDbEntity
  8
0
  6
Continuous
 62
     0
370
     0
100
AcDbMText
 10
0.0
 20
-0.1147999079
 30
0.0
 40
0.0833333333
 41
0.0
 71
     1
 72
     1
  1
1.
  7
SLDTEXTSTYLE0
 73
     1
 44
1.0
  0
MTEXT
  5
CA
330
C4
100
AcDbEntity
  8
0
  6
Continuous
 62
     0
370
     0
100
AcDbMText
 10
0.4183921567
 20
-0.2259110177
 30
0.0
 40
0.0833333333
 41
0.0
 71
     1
 72
     1
  1
FOCAL LENGTH: f=750.0mm
  7
SLDTEXTSTYLE0
 73
     1
 44
1.0
  0
MTEXT
  5
CB
330
C4
100
AcDbEntity
  8
0
  6
Continuous
 62
     0
370
     0
100
AcDbMText
 10
1.8858304981
 20
-0.2259110177
 30
0.0
 40
0.0833333333
 41
0.0
 71
     1
 72
     1
  1
%%p
  7
SLDTEXTSTYLE0
 73
     1
 44
1.0
  0
MTEXT
  5
CC
330
C4
100
AcDbEntity
  8
0
  6
Continuous
 62
     0
370
     0
100
AcDbMText
 10
1.9652749536
 20
-0.2259110177
 30
0.0
 40
0.0833333333
 41
0.0
 71
     1
 72
     1
  1
1%
  7
SLDTEXTSTYLE0
 73
     1
 44
1.0
  0
MTEXT
  5
CD
330
C4
100
AcDbEntity
  8
0
  6
Continuous
 62
     0
370
     0
100
AcDbMText
 10
0.0
 20
-0.2259110177
 30
0.0
 40
0.0833333333
 41
0.0
 71
     1
 72
     1
  1
2.
  7
SLDTEXTSTYLE0
 73
     1
 44
1.0
  0
MTEXT
  5
CE
330
C4
100
AcDbEntity
  8
0
  6
Continuous
 62
     0
370
     0
100
AcDbMText
 10
0.4183921567
 20
-0.3370221274
 30
0.0
 40
0.0833333333
 41
0.0
 71
     1
 72
     1
  1
WORKING DISTANCE (REF): 743.5mm
  7
SLDTEXTSTYLE0
 73
     1
 44
1.0
  0
MTEXT
  5
CF
330
C4
100
AcDbEntity
  8
0
  6
Continuous
 62
     0
370
     0
100
AcDbMText
 10
0.0
 20
-0.3370221274
 30
0.0
 40
0.0833333333
 41
0.0
 71
     1
 72
     1
  1
3.
  7
SLDTEXTSTYLE0
 73
     1
 44
1.0
  0
MTEXT
  5
D0
330
C4
100
AcDbEntity
  8
0
  6
Continuous
 62
     0
370
     0
100
AcDbMText
 10
0.4183921567
 20
-0.4481332372
 30
0.0
 40
0.0833333333
 41
0.0
 71
     1
 72
     1
  1
CLEAR APERTURE: >
  7
SLDTEXTSTYLE0
 73
     1
 44
1.0
  0
MTEXT
  5
D1
330
C4
100
AcDbEntity
  8
0
  6
Continuous
 62
     0
370
     0
100
AcDbMText
 10
1.4507996036
 20
-0.4481332372
 30
0.0
 40
0.0833333333
 41
0.0
 71
     1
 72
     1
  1
%%c
  7
SLDTEXTSTYLE0
 73
     1
 44
1.0
  0
MTEXT
  5
D2
330
C4
100
AcDbEntity
  8
0
  6
Continuous
 62
     0
370
     0
100
AcDbMText
 10
1.5765865971
 20
-0.4481332372
 30
0.0
 40
0.0833333333
 41
0.0
 71
     1
 72
     1
  1
45.72mm
  7
SLDTEXTSTYLE0
 73
     1
 44
1.0
  0
MTEXT
  5
D3
330
C4
100
AcDbEntity
  8
0
  6
Continuous
 62
     0
370
     0
100
AcDbMText
 10
0.0
 20
-0.4481332372
 30
0.0
 40
0.0833333333
 41
0.0
 71
     1
 72
     1
  1
4.
  7
SLDTEXTSTYLE0
 73
     1
 44
1.0
  0
MTEXT
  5
D4
330
C4
100
AcDbEntity
  8
0
  6
Continuous
 62
     0
370
     0
100
AcDbMText
 10
0.4183921567
 20
-0.559244347
 30
0.0
 40
0.0833333333
 41
0.0
 71
     1
 72
     1
  1
SURFACE QUALITY: 40-20 SCRATCH-DIG
  7
SLDTEXTSTYLE0
 73
     1
 44
1.0
  0
MTEXT
  5
D5
330
C4
100
AcDbEntity
  8
0
  6
Continuous
 62
     0
370
     0
100
AcDbMText
 10
0.0
 20
-0.559244347
 30
0.0
 40
0.0833333333
 41
0.0
 71
     1
 72
     1
  1
5.
  7
SLDTEXTSTYLE0
 73
     1
 44
1.0
  0
MTEXT
  5
D6
330
C4
100
AcDbEntity
  8
0
  6
Continuous
 62
     0
370
     0
100
AcDbMText
 10
0.4183921567
 20
-0.6703554567
 30
0.0
 40
0.0833333333
 41
0.0
 71
     1
 72
     1
  1
COATING: BBAR Ravg<0.5% FROM 245-400nm, AOI: 0°,
  7
SLDTEXTSTYLE0
 73
     1
 44
1.0
  0
MTEXT
  5
D7
330
C4
100
AcDbEntity
  8
0
  6
Continuous
 62
     0
370
     0
100
AcDbMText
 10
0.0
 20
-0.6703554567
 30
0.0
 40
0.0833333333
 41
0.0
 71
     1
 72
     1
  1
6.
  7
SLDTEXTSTYLE0
 73
     1
 44
1.0
  0
MTEXT
  5
D8
330
C4
100
AcDbEntity
  8
0
  6
Continuous
 62
     0
370
     0
100
AcDbMText
 10
0.4249507874
 20
-0.7814665665
 30
0.0
 40
0.0833333333
 41
0.0
 71
     1
 72
     1
  1
ON OUTER OPTICAL SURFACES
  7
SLDTEXTSTYLE0
 73
     1
 44
1.0
  0
ENDBLK
  5
C6
330
C4
100
AcDbEntity
  8
0
100
AcDbBlockEnd
  0
BLOCK
  5
DB
330
DA
100
AcDbEntity
  8
0
100
AcDbBlockBegin
  2
SW_TABLEANNOTATION_0
 70
     0
 10
0.0
 20
0.0
 30
0.0
  3
SW_TABLEANNOTATION_0
  1
SW_TABLEANNOTATION_0
  0
LINE
  5
DD
330
DA
100
AcDbEntity
  8
0
  6
Continuous
 62
     0
370
     0
100
AcDbLine
 10
0.0
 20
0.0
 30
0.0
 11
0.0
 21
-1.2444444391
 31
0.0
  0
LINE
  5
DE
330
DA
100
AcDbEntity
  8
0
  6
Continuous
 62
     0
370
     0
100
AcDbLine
 10
0.0
 20
-1.2444444391
 30
0.0
 11
3.3
 21
-1.2444444391
 31
0.0
  0
LINE
  5
DF
330
DA
100
AcDbEntity
  8
0
  6
Continuous
 62
     0
370
     0
100
AcDbLine
 10
3.3
 20
-1.2444444391
 30
0.0
 11
3.3
 21
0.0
 31
0.0
  0
LINE
  5
E0
330
DA
100
AcDbEntity
  8
0
  6
Continuous
 62
     0
370
     0
100
AcDbLine
 10
3.3
 20
0.0
 30
0.0
 11
0.0
 21
0.0
 31
0.0
  0
LINE
  5
E1
330
DA
100
AcDbEntity
  8
0
  6
Continuous
 62
     0
370
     0
100
AcDbLine
 10
1.1
 20
0.0
 30
0.0
 11
1.1
 21
-1.2444444391
 31
0.0
  0
LINE
  5
E2
330
DA
100
AcDbEntity
  8
0
  6
Continuous
 62
     0
370
     0
100
AcDbLine
 10
2.2
 20
0.0
 30
0.0
 11
2.2
 21
-1.2444444391
 31
0.0
  0
LINE
  5
E3
330
DA
100
AcDbEntity
  8
0
  6
Continuous
 62
     0
370
     0
100
AcDbLine
 10
0.0
 20
-0.3111111098
 30
0.0
 11
3.3
 21
-0.3111111098
 31
0.0
  0
LINE
  5
E4
330
DA
100
AcDbEntity
  8
0
  6
Continuous
 62
     0
370
     0
100
AcDbLine
 10
0.0
 20
-0.6222222195
 30
0.0
 11
3.3
 21
-0.6222222195
 31
0.0
  0
LINE
  5
E5
330
DA
100
AcDbEntity
  8
0
  6
Continuous
 62
     0
370
     0
100
AcDbLine
 10
0.0
 20
-0.9333333293
 30
0.0
 11
3.3
 21
-0.9333333293
 31
0.0
  0
MTEXT
  5
E6
330
DA
100
AcDbEntity
  8
0
  6
Continuous
 62
     0
370
     0
100
AcDbMText
 10
1.1543981952
 20
-0.1141785187
 30
0.0
 40
0.0833333333
 41
0.0
 71
     1
 72
     1
  1
PART DESCRIPTION
  7
SLDTEXTSTYLE0
 73
     1
 44
1.0
  0
MTEXT
  5
E7
330
DA
100
AcDbEntity
  8
0
  6
Continuous
 62
     0
370
     0
100
AcDbMText
 10
2.491203698
 20
-0.1141785187
 30
0.0
 40
0.0833333333
 41
0.0
 71
     1
 72
     1
  1
MATERIAL
  7
SLDTEXTSTYLE0
 73
     1
 44
1.0
  0
INSERT
  5
ED
330
DA
100
AcDbEntity
  8
0
  6
Continuous
 62
     0
370
     0
100
AcDbBlockReference
  2
SW_SYMBOL_C#_1
 10
0.4374537001
 20
-0.5211559505
 30
0.0
 41
0.0027037109
 42
0.0027037109
 43
0.0027037109
  0
MTEXT
  5
EE
330
DA
100
AcDbEntity
  8
0
  6
Continuous
 62
     0
370
     0
100
AcDbMText
 10
1.4729938215
 20
-0.4252896284
 30
0.0
 40
0.0833333333
 41
0.0
 71
     1
 72
     1
  1
SM2RR
  7
SLDTEXTSTYLE0
 73
     1
 44
1.0
  0
MTEXT
  5
EF
330
DA
100
AcDbEntity
  8
0
  6
Continuous
 62
     0
370
     0
100
AcDbMText
 10
2.4676697448
 20
-0.3697340736
 30
0.0
 40
0.0833333333
 41
0.0
 71
     1
 72
     1
  1
ANODIZED
  7
SLDTEXTSTYLE0
 73
     1
 44
1.0
  0
MTEXT
  5
F0
330
DA
100
AcDbEntity
  8
0
  6
Continuous
 62
     0
370
     0
100
AcDbMText
 10
2.4546296155
 20
-0.4808451833
 30
0.0
 40
0.0833333333
 41
0.0
 71
     1
 72
     1
  1
ALUMINUM
  7
SLDTEXTSTYLE0
 73
     1
 44
1.0
  0
INSERT
  5
F6
330
DA
100
AcDbEntity
  8
0
  6
Continuous
 62
     0
370
     0
100
AcDbBlockReference
  2
SW_SYMBOL_C#_2
 10
0.4374537001
 20
-0.8322670603
 30
0.0
 41
0.0027037109
 42
0.0027037109
 43
0.0027037109
  0
MTEXT
  5
F7
330
DA
100
AcDbEntity
  8
0
  6
Continuous
 62
     0
370
     0
100
AcDbMText
 10
1.3662037001
 20
-0.7364007382
 30
0.0
 40
0.0833333333
 41
0.0
 71
     1
 72
     1
  1
LA4745-UV
  7
SLDTEXTSTYLE0
 73
     1
 44
1.0
  0
MTEXT
  5
F8
330
DA
100
AcDbEntity
  8
0
  6
Continuous
 62
     0
370
     0
100
AcDbMText
 10
2.3169753357
 20
-0.7364007382
 30
0.0
 40
0.0833333333
 41
0.0
 71
     1
 72
     1
  1
UV FUSED SILICA
  7
SLDTEXTSTYLE0
 73
     1
 44
1.0
  0
INSERT
  5
FE
330
DA
100
AcDbEntity
  8
0
  6
Continuous
 62
     0
370
     0
100
AcDbBlockReference
  2
SW_SYMBOL_C#_3
 10
0.4374537001
 20
-1.14337817
 30
0.0
 41
0.0027037109
 42
0.0027037109
 43
0.0027037109
  0
MTEXT
  5
FF
330
DA
100
AcDbEntity
  8
0
  6
Continuous
 62
     0
370
     0
100
AcDbMText
 10
1.3456018548
 20
-0.9919562931
 30
0.0
 40
0.0833333333
 41
0.0
 71
     1
 72
     1
  1
ENGRAVED
  7
SLDTEXTSTYLE0
 73
     1
 44
1.0
  0
MTEXT
  5
100
330
DA
100
AcDbEntity
  8
0
  6
Continuous
 62
     0
370
     0
100
AcDbMText
 10
1.3975308615
 20
-1.1030674029
 30
0.0
 40
0.0833333333
 41
0.0
 71
     1
 72
     1
  1
HOUSING
  7
SLDTEXTSTYLE0
 73
     1
 44
1.0
  0
MTEXT
  5
101
330
DA
100
AcDbEntity
  8
0
  6
Continuous
 62
     0
370
     0
100
AcDbMText
 10
2.4676697448
 20
-0.9919562931
 30
0.0
 40
0.0833333333
 41
0.0
 71
     1
 72
     1
  1
ANODIZED
  7
SLDTEXTSTYLE0
 73
     1
 44
1.0
  0
MTEXT
  5
102
330
DA
100
AcDbEntity
  8
0
  6
Continuous
 62
     0
370
     0
100
AcDbMText
 10
2.4546296155
 20
-1.1030674029
 30
0.0
 40
0.0833333333
 41
0.0
 71
     1
 72
     1
  1
ALUMINUM
  7
SLDTEXTSTYLE0
 73
     1
 44
1.0
  0
ENDBLK
  5
DC
330
DA
100
AcDbEntity
  8
0
100
AcDbBlockEnd
  0
BLOCK
  5
E9
330
E8
100
AcDbEntity
  8
0
100
AcDbBlockBegin
  2
SW_SYMBOL_C#_1
 70
     0
 10
0.0
 20
0.0
 30
0.0
  3
SW_SYMBOL_C#_1
  1
SW_SYMBOL_C#_1
  0
CIRCLE
  5
EB
330
E8
100
AcDbEntity
  8
0
  6
Continuous
 62
     0
370
     0
100
AcDbCircle
 10
31.4960629921
 20
19.6850393701
 30
0.0
 40
31.49606299212599
  0
MTEXT
  5
EC
330
E8
100
AcDbEntity
  8
0
  6
Continuous
 62
     0
370
     0
100
AcDbMText
 10
31.4960629921
 20
19.6850393701
 30
0.0
 40
30.821835344
 41
0.0
 71
     5
 72
     1
  1
1
  7
SLDTEXTSTYLE0
 73
     1
 44
1.0
  0
ENDBLK
  5
EA
330
E8
100
AcDbEntity
  8
0
100
AcDbBlockEnd
  0
BLOCK
  5
F2
330
F1
100
AcDbEntity
  8
0
100
AcDbBlockBegin
  2
SW_SYMBOL_C#_2
 70
     0
 10
0.0
 20
0.0
 30
0.0
  3
SW_SYMBOL_C#_2
  1
SW_SYMBOL_C#_2
  0
CIRCLE
  5
F4
330
F1
100
AcDbEntity
  8
0
  6
Continuous
 62
     0
370
     0
100
AcDbCircle
 10
31.4960629921
 20
19.6850393701
 30
0.0
 40
31.49606299212599
  0
MTEXT
  5
F5
330
F1
100
AcDbEntity
  8
0
  6
Continuous
 62
     0
370
     0
100
AcDbMText
 10
31.4960629921
 20
19.6850393701
 30
0.0
 40
30.821835344
 41
0.0
 71
     5
 72
     1
  1
2
  7
SLDTEXTSTYLE0
 73
     1
 44
1.0
  0
ENDBLK
  5
F3
330
F1
100
AcDbEntity
  8
0
100
AcDbBlockEnd
  0
BLOCK
  5
FA
330
F9
100
AcDbEntity
  8
0
100
AcDbBlockBegin
  2
SW_SYMBOL_C#_3
 70
     0
 10
0.0
 20
0.0
 30
0.0
  3
SW_SYMBOL_C#_3
  1
SW_SYMBOL_C#_3
  0
CIRCLE
  5
FC
330
F9
100
AcDbEntity
  8
0
  6
Continuous
 62
     0
370
     0
100
AcDbCircle
 10
31.4960629921
 20
19.6850393701
 30
0.0
 40
31.49606299212599
  0
MTEXT
  5
FD
330
F9
100
AcDbEntity
  8
0
  6
Continuous
 62
     0
370
     0
100
AcDbMText
 10
31.4960629921
 20
19.6850393701
 30
0.0
 40
30.821835344
 41
0.0
 71
     5
 72
     1
  1
3
  7
SLDTEXTSTYLE0
 73
     1
 44
1.0
  0
ENDBLK
  5
FB
330
F9
100
AcDbEntity
  8
0
100
AcDbBlockEnd
  0
BLOCK
  5
11F
330
11E
100
AcDbEntity
  8
0
100
AcDbBlockBegin
  2
_D
 70
     0
 10
0.0
 20
0.0
 30
0.0
  3
_D
  1
_D
  0
SOLID
  5
121
330
11E
100
AcDbEntity
  8
0
  6
Continuous
 62
     7
370
     0
100
AcDbTrace
 10
3.4775752591
 20
5.14597575
 30
0.0
 11
3.5648464126
 21
5.2376749636
 31
0.0
 12
3.5318783633
 22
5.2603268448
 32
0.0
 13
3.5318783633
 23
5.2603268448
 33
0.0
  0
LINE
  5
122
330
11E
100
AcDbEntity
  8
0
  6
Continuous
 62
     7
370
     0
100
AcDbLine
 10
4.0112451964
 20
5.5933801983
 30
0.0
 11
3.9943470483
 21
5.5933801983
 31
0.0
  0
LINE
  5
123
330
11E
100
AcDbEntity
  8
0
  6
Continuous
 62
     7
370
     0
100
AcDbLine
 10
3.9943470483
 20
5.5933801983
 30
0.0
 11
3.9943470483
 21
5.4609727938
 31
0.0
  0
LINE
  5
124
330
11E
100
AcDbEntity
  8
0
  6
Continuous
 62
     7
370
     0
100
AcDbLine
 10
3.9943470483
 20
5.4609727938
 30
0.0
 11
4.0112451964
 21
5.4609727938
 31
0.0
  0
LINE
  5
125
330
11E
100
AcDbEntity
  8
0
  6
Continuous
 62
     7
370
     0
100
AcDbLine
 10
4.4772560161
 20
5.5933801983
 30
0.0
 11
4.4941541641
 21
5.5933801983
 31
0.0
  0
LINE
  5
126
330
11E
100
AcDbEntity
  8
0
  6
Continuous
 62
     7
370
     0
100
AcDbLine
 10
4.4941541641
 20
5.5933801983
 30
0.0
 11
4.4941541641
 21
5.4609727938
 31
0.0
  0
LINE
  5
127
330
11E
100
AcDbEntity
  8
0
  6
Continuous
 62
     7
370
     0
100
AcDbLine
 10
4.4941541641
 20
5.4609727938
 30
0.0
 11
4.4772560161
 21
5.4609727938
 31
0.0
  0
LINE
  5
128
330
11E
100
AcDbEntity
  8
0
  6
Continuous
 62
     7
370
     0
100
AcDbLine
 10
3.4775752591
 20
5.14597575
 30
0.0
 11
3.831673437
 21
5.6613380758
 31
0.0
  0
LINE
  5
129
330
11E
100
AcDbEntity
  8
0
  6
Continuous
 62
     7
370
     0
100
AcDbLine
 10
3.831673437
 20
5.6613380758
 30
0.0
 11
3.981673437
 21
5.6613380758
 31
0.0
  0
MTEXT
  5
12A
330
11E
100
AcDbEntity
  8
0
  6
Continuous
 62
     7
370
     0
100
AcDbMText
 10
3.981673437
 20
5.7177006569
 30
0.0
 40
0.0833333333
 41
0.0
 71
     1
 72
     1
  1
%%c
  7
SLDTEXTSTYLE0
 73
     1
 44
1.0
  0
MTEXT
  5
12B
330
11E
100
AcDbEntity
  8
0
  6
Continuous
 62
     7
370
     0
100
AcDbMText
 10
4.1074604764
 20
5.7177006569
 30
0.0
 40
0.0833333333
 41
0.0
 71
     1
 72
     1
  1
2.20in
  7
SLDTEXTSTYLE0
 73
     1
 44
1.0
  0
MTEXT
  5
12C
330
11E
100
AcDbEntity
  8
0
  6
Continuous
 62
     7
370
     0
100
AcDbMText
 10
4.0323678822
 20
5.5683951008
 30
0.0
 40
0.0833333333
 41
0.0
 71
     1
 72
     1
  1
55.9mm
  7
SLDTEXTSTYLE0
 73
     1
 44
1.0
  0
ENDBLK
  5
120
330
11E
100
AcDbEntity
  8
0
100
AcDbBlockEnd
  0
BLOCK
  5
1B6
330
1B5
100
AcDbEntity
  8
0
100
AcDbBlockBegin
  2
_D_1
 70
     0
 10
0.0
 20
0.0
 30
0.0
  3
_D_1
  1
_D_1
  0
SOLID
  5
1B8
330
1B5
100
AcDbEntity
  8
0
  6
Continuous
 62
     7
370
     0
100
AcDbTrace
 10
8.4234480819
 20
5.1893543935
 30
0.0
 11
8.4034480819
 21
5.0643543935
 31
0.0
 12
8.4434480819
 22
5.0643543935
 32
0.0
 13
8.4434480819
 23
5.0643543935
 33
0.0
  0
SOLID
  5
1B9
330
1B5
100
AcDbEntity
  8
0
  6
Continuous
 62
     7
370
     0
100
AcDbTrace
 10
8.4234480819
 20
3.2893543935
 30
0.0
 11
8.4434480819
 21
3.4143543935
 31
0.0
 12
8.4034480819
 22
3.4143543935
 32
0.0
 13
8.4034480819
 23
3.4143543935
 33
0.0
  0
LINE
  5
1BA
330
1B5
100
AcDbEntity
  8
0
  6
Continuous
 62
     7
370
     0
100
AcDbLine
 10
8.1904426812
 20
4.2500025364
 30
0.0
 11
8.1735445331
 21
4.2500025364
 31
0.0
  0
LINE
  5
1BB
330
1B5
100
AcDbEntity
  8
0
  6
Continuous
 62
     7
370
     0
100
AcDbLine
 10
8.1735445331
 20
4.2500025364
 30
0.0
 11
8.1735445331
 21
4.1175951318
 31
0.0
  0
LINE
  5
1BC
330
1B5
100
AcDbEntity
  8
0
  6
Continuous
 62
     7
370
     0
100
AcDbLine
 10
8.1735445331
 20
4.1175951318
 30
0.0
 11
8.1904426812
 21
4.1175951318
 31
0.0
  0
LINE
  5
1BD
330
1B5
100
AcDbEntity
  8
0
  6
Continuous
 62
     7
370
     0
100
AcDbLine
 10
8.6564535009
 20
4.2500025364
 30
0.0
 11
8.6733516489
 21
4.2500025364
 31
0.0
  0
LINE
  5
1BE
330
1B5
100
AcDbEntity
  8
0
  6
Continuous
 62
     7
370
     0
100
AcDbLine
 10
8.6733516489
 20
4.2500025364
 30
0.0
 11
8.6733516489
 21
4.1175951318
 31
0.0
  0
LINE
  5
1BF
330
1B5
100
AcDbEntity
  8
0
  6
Continuous
 62
     7
370
     0
100
AcDbLine
 10
8.6733516489
 20
4.1175951318
 30
0.0
 11
8.6564535009
 21
4.1175951318
 31
0.0
  0
LINE
  5
1C0
330
1B5
100
AcDbEntity
  8
0
  6
Continuous
 62
     7
370
     0
100
AcDbLine
 10
7.6094323362
 20
5.1893543935
 30
0.0
 11
8.4934480819
 21
5.1893543935
 31
0.0
  0
LINE
  5
1C1
330
1B5
100
AcDbEntity
  8
0
  6
Continuous
 62
     7
370
     0
100
AcDbLine
 10
7.6094323362
 20
3.2893543935
 30
0.0
 11
8.4934480819
 21
3.2893543935
 31
0.0
  0
LINE
  5
1C2
330
1B5
100
AcDbEntity
  8
0
  6
Continuous
 62
     7
370
     0
100
AcDbLine
 10
8.4234480819
 20
5.1893543935
 30
0.0
 11
8.4234480819
 21
4.3780117976
 31
0.0
  0
LINE
  5
1C3
330
1B5
100
AcDbEntity
  8
0
  6
Continuous
 62
     7
370
     0
100
AcDbLine
 10
8.4234480819
 20
3.2893543935
 30
0.0
 11
8.4234480819
 21
4.1006969895
 31
0.0
  0
MTEXT
  5
1C4
330
1B5
100
AcDbEntity
  8
0
  6
Continuous
 62
     7
370
     0
100
AcDbMText
 10
8.2078539458
 20
4.3743229949
 30
0.0
 40
0.0833333333
 41
0.0
 71
     1
 72
     1
  1
%%c
  7
SLDTEXTSTYLE0
 73
     1
 44
1.0
  0
MTEXT
  5
1C5
330
1B5
100
AcDbEntity
  8
0
  6
Continuous
 62
     7
370
     0
100
AcDbMText
 10
8.3336409852
 20
4.3743229949
 30
0.0
 40
0.0833333333
 41
0.0
 71
     1
 72
     1
  1
1.90in
  7
SLDTEXTSTYLE0
 73
     1
 44
1.0
  0
MTEXT
  5
1C6
330
1B5
100
AcDbEntity
  8
0
  6
Continuous
 62
     7
370
     0
100
AcDbMText
 10
8.211565367
 20
4.2250174388
 30
0.0
 40
0.0833333333
 41
0.0
 71
     1
 72
     1
  1
48.3mm
  7
SLDTEXTSTYLE0
 73
     1
 44
1.0
  0
ENDBLK
  5
1B7
330
1B5
100
AcDbEntity
  8
0
100
AcDbBlockEnd
  0
BLOCK
  5
1CA
330
1C9
100
AcDbEntity
  8
0
100
AcDbBlockBegin
  2
_D_2
 70
     0
 10
0.0
 20
0.0
 30
0.0
  3
_D_2
  1
_D_2
  0
SOLID
  5
1CC
330
1C9
100
AcDbEntity
  8
0
  6
Continuous
 62
     7
370
     0
100
AcDbTrace
 10
7.4394323362
 20
5.4869382731
 30
0.0
 11
7.3144323362
 21
5.5069382731
 31
0.0
 12
7.3144323362
 22
5.4669382731
 32
0.0
 13
7.3144323362
 23
5.4669382731
 33
0.0
  0
SOLID
  5
1CD
330
1C9
100
AcDbEntity
  8
0
  6
Continuous
 62
     7
370
     0
100
AcDbTrace
 10
7.5594323362
 20
5.4869382731
 30
0.0
 11
7.6844323362
 21
5.4669382731
 31
0.0
 12
7.6844323362
 22
5.5069382731
 32
0.0
 13
7.6844323362
 23
5.5069382731
 33
0.0
  0
LINE
  5
1CE
330
1C9
100
AcDbEntity
  8
0
  6
Continuous
 62
     7
370
     0
100
AcDbLine
 10
8.2233557172
 20
5.4869382639
 30
0.0
 11
8.2064575691
 21
5.4869382639
 31
0.0
  0
LINE
  5
1CF
330
1C9
100
AcDbEntity
  8
0
  6
Continuous
 62
     7
370
     0
100
AcDbLine
 10
8.2064575691
 20
5.4869382639
 30
0.0
 11
8.2064575691
 21
5.3545308593
 31
0.0
  0
LINE
  5
1D0
330
1C9
100
AcDbEntity
  8
0
  6
Continuous
 62
     7
370
     0
100
AcDbLine
 10
8.2064575691
 20
5.3545308593
 30
0.0
 11
8.2233557172
 21
5.3545308593
 31
0.0
  0
LINE
  5
1D1
330
1C9
100
AcDbEntity
  8
0
  6
Continuous
 62
     7
370
     0
100
AcDbLine
 10
8.6277924382
 20
5.4869382639
 30
0.0
 11
8.6446905862
 21
5.4869382639
 31
0.0
  0
LINE
  5
1D2
330
1C9
100
AcDbEntity
  8
0
  6
Continuous
 62
     7
370
     0
100
AcDbLine
 10
8.6446905862
 20
5.4869382639
 30
0.0
 11
8.6446905862
 21
5.3545308593
 31
0.0
  0
LINE
  5
1D3
330
1C9
100
AcDbEntity
  8
0
  6
Continuous
 62
     7
370
     0
100
AcDbLine
 10
8.6446905862
 20
5.3545308593
 30
0.0
 11
8.6277924382
 21
5.3545308593
 31
0.0
  0
LINE
  5
1D4
330
1C9
100
AcDbEntity
  8
0
  6
Continuous
 62
     7
370
     0
100
AcDbLine
 10
7.4394323362
 20
5.3793543935
 30
0.0
 11
7.4394323362
 21
5.5569382731
 31
0.0
  0
LINE
  5
1D5
330
1C9
100
AcDbEntity
  8
0
  6
Continuous
 62
     7
370
     0
100
AcDbLine
 10
7.5594323362
 20
5.2895338855
 30
0.0
 11
7.5594323362
 21
5.5569382731
 31
0.0
  0
LINE
  5
1D6
330
1C9
100
AcDbEntity
  8
0
  6
Continuous
 62
     7
370
     0
100
AcDbLine
 10
7.4394323362
 20
5.4869382731
 30
0.0
 11
7.1894323362
 21
5.4869382731
 31
0.0
  0
LINE
  5
1D7
330
1C9
100
AcDbEntity
  8
0
  6
Continuous
 62
     7
370
     0
100
AcDbLine
 10
7.5594323362
 20
5.4869382731
 30
0.0
 11
8.1154495859
 21
5.4869382731
 31
0.0
  0
MTEXT
  5
1D8
330
1C9
100
AcDbEntity
  8
0
  6
Continuous
 62
     7
370
     0
100
AcDbMText
 10
8.1948642057
 20
5.6112587224
 30
0.0
 40
0.0833333333
 41
0.0
 71
     1
 72
     1
  1

  7
SLDTEXTSTYLE0
 73
     1
 44
1.0
  0
MTEXT
  5
1D9
330
1C9
100
AcDbEntity
  8
0
  6
Continuous
 62
     7
370
     0
100
AcDbMText
 10
8.2728734475
 20
5.6112587224
 30
0.0
 40
0.0833333333
 41
0.0
 71
     1
 72
     1
  1
0.12in
  7
SLDTEXTSTYLE0
 73
     1
 44
1.0
  0
MTEXT
  5
1DA
330
1C9
100
AcDbEntity
  8
0
  6
Continuous
 62
     7
370
     0
100
AcDbMText
 10
8.244478403
 20
5.4619531664
 30
0.0
 40
0.0833333333
 41
0.0
 71
     1
 72
     1
  1
3.0mm
  7
SLDTEXTSTYLE0
 73
     1
 44
1.0
  0
MTEXT
  5
1DB
330
1C9
100
AcDbEntity
  8
0
  6
Continuous
 62
     7
370
     0
100
AcDbMText
 10
8.7198641609
 20
5.6112587224
 30
0.0
 40
0.0833333333
 41
0.0
 71
     1
 72
     1
  1

  7
SLDTEXTSTYLE0
 73
     1
 44
1.0
  0
ENDBLK
  5
1CB
330
1C9
100
AcDbEntity
  8
0
100
AcDbBlockEnd
  0
BLOCK
  5
1DE
330
1DD
100
AcDbEntity
  8
0
100
AcDbBlockBegin
  2
_D_3
 70
     0
 10
0.0
 20
0.0
 30
0.0
  3
_D_3
  1
_D_3
  0
SOLID
  5
1E0
330
1DD
100
AcDbEntity
  8
0
  6
Continuous
 62
     7
370
     0
100
AcDbTrace
 10
7.0494323362
 20
6.0228590311
 30
0.0
 11
6.9244323362
 21
6.0428590311
 31
0.0
 12
6.9244323362
 22
6.0028590311
 32
0.0
 13
6.9244323362
 23
6.0028590311
 33
0.0
  0
SOLID
  5
1E1
330
1DD
100
AcDbEntity
  8
0
  6
Continuous
 62
     7
370
     0
100
AcDbTrace
 10
7.5594323362
 20
6.0228590311
 30
0.0
 11
7.6844323362
 21
6.0028590311
 31
0.0
 12
7.6844323362
 22
6.0428590311
 32
0.0
 13
7.6844323362
 23
6.0428590311
 33
0.0
  0
LINE
  5
1E2
330
1DD
100
AcDbEntity
  8
0
  6
Continuous
 62
     7
370
     0
100
AcDbLine
 10
8.1925686495
 20
6.0228590219
 30
0.0
 11
8.1756705015
 21
6.0228590219
 31
0.0
  0
LINE
  5
1E3
330
1DD
100
AcDbEntity
  8
0
  6
Continuous
 62
     7
370
     0
100
AcDbLine
 10
8.1756705015
 20
6.0228590219
 30
0.0
 11
8.1756705015
 21
5.8904516173
 31
0.0
  0
LINE
  5
1E4
330
1DD
100
AcDbEntity
  8
0
  6
Continuous
 62
     7
370
     0
100
AcDbLine
 10
8.1756705015
 20
5.8904516173
 30
0.0
 11
8.1925686495
 21
5.8904516173
 31
0.0
  0
LINE
  5
1E5
330
1DD
100
AcDbEntity
  8
0
  6
Continuous
 62
     7
370
     0
100
AcDbLine
 10
8.6585794692
 20
6.0228590219
 30
0.0
 11
8.6754776172
 21
6.0228590219
 31
0.0
  0
LINE
  5
1E6
330
1DD
100
AcDbEntity
  8
0
  6
Continuous
 62
     7
370
     0
100
AcDbLine
 10
8.6754776172
 20
6.0228590219
 30
0.0
 11
8.6754776172
 21
5.8904516173
 31
0.0
  0
LINE
  5
1E7
330
1DD
100
AcDbEntity
  8
0
  6
Continuous
 62
     7
370
     0
100
AcDbLine
 10
8.6754776172
 20
5.8904516173
 30
0.0
 11
8.6585794692
 21
5.8904516173
 31
0.0
  0
LINE
  5
1E8
330
1DD
100
AcDbEntity
  8
0
  6
Continuous
 62
     7
370
     0
100
AcDbLine
 10
7.0494323362
 20
5.3793543935
 30
0.0
 11
7.0494323362
 21
6.0928590311
 31
0.0
  0
LINE
  5
1E9
330
1DD
100
AcDbEntity
  8
0
  6
Continuous
 62
     7
370
     0
100
AcDbLine
 10
7.5594323362
 20
5.2895338855
 30
0.0
 11
7.5594323362
 21
6.0928590311
 31
0.0
  0
LINE
  5
1EA
330
1DD
100
AcDbEntity
  8
0
  6
Continuous
 62
     7
370
     0
100
AcDbLine
 10
7.0494323362
 20
6.0228590311
 30
0.0
 11
6.7994323362
 21
6.0228590311
 31
0.0
  0
LINE
  5
1EB
330
1DD
100
AcDbEntity
  8
0
  6
Continuous
 62
     7
370
     0
100
AcDbLine
 10
7.5594323362
 20
6.0228590311
 30
0.0
 11
8.0846625182
 21
6.0228590311
 31
0.0
  0
MTEXT
  5
1EC
330
1DD
100
AcDbEntity
  8
0
  6
Continuous
 62
     7
370
     0
100
AcDbMText
 10
8.164077138
 20
6.1471794804
 30
0.0
 40
0.0833333333
 41
0.0
 71
     1
 72
     1
  1

  7
SLDTEXTSTYLE0
 73
     1
 44
1.0
  0
MTEXT
  5
1ED
330
1DD
100
AcDbEntity
  8
0
  6
Continuous
 62
     7
370
     0
100
AcDbMText
 10
8.2728734292
 20
6.1471794804
 30
0.0
 40
0.0833333333
 41
0.0
 71
     1
 72
     1
  1
0.51in
  7
SLDTEXTSTYLE0
 73
     1
 44
1.0
  0
MTEXT
  5
1EE
330
1DD
100
AcDbEntity
  8
0
  6
Continuous
 62
     7
370
     0
100
AcDbMText
 10
8.2136913354
 20
5.9978739244
 30
0.0
 40
0.0833333333
 41
0.0
 71
     1
 72
     1
  1
13.0mm
  7
SLDTEXTSTYLE0
 73
     1
 44
1.0
  0
MTEXT
  5
1EF
330
1DD
100
AcDbEntity
  8
0
  6
Continuous
 62
     7
370
     0
100
AcDbMText
 10
8.7506512285
 20
6.1471794804
 30
0.0
 40
0.0833333333
 41
0.0
 71
     1
 72
     1
  1

  7
SLDTEXTSTYLE0
 73
     1
 44
1.0
  0
ENDBLK
  5
1DF
330
1DD
100
AcDbEntity
  8
0
100
AcDbBlockEnd
  0
BLOCK
  5
1F1
330
1F0
100
AcDbEntity
  8
0
100
AcDbBlockBegin
  2
SW_NOTE_5
 70
     0
 10
0.0
 20
0.0
 30
0.0
  3
SW_NOTE_5
  1
SW_NOTE_5
  0
MTEXT
  5
1F4
330
1F0
100
AcDbEntity
  8
0
  6
Continuous
 62
     0
370
     0
100
AcDbMText
 10
-2.2698208404
 20
0.0394558261
 30
0.0
 40
0.0833333333
 41
0.0
 71
     1
 72
     1
  1
SM2 (
  7
SLDTEXTSTYLE3
 73
     1
 44
1.0
  0
MTEXT
  5
1F5
330
1F0
100
AcDbEntity
  8
0
  6
Continuous
 62
     0
370
     0
100
AcDbMText
 10
-1.9482159056
 20
0.0394558261
 30
0.0
 40
0.0833333333
 41
0.0
 71
     1
 72
     1
  1
%%c
  7
SLDTEXTSTYLE0
 73
     1
 44
1.0
  0
MTEXT
  5
1F6
330
1F0
100
AcDbEntity
  8
0
  6
Continuous
 62
     0
370
     0
100
AcDbMText
 10
-1.8224288754
 20
0.0394558261
 30
0.0
 40
0.0833333333
 41
0.0
 71
     1
 72
     1
  1
2.035-40) SERIES INTERNAL THREAD
  7
SLDTEXTSTYLE0
 73
     1
 44
1.0
  0
ENDBLK
  5
1F2
330
1F0
100
AcDbEntity
  8
0
100
AcDbBlockEnd
  0
BLOCK
  5
1FB
330
1FA
100
AcDbEntity
  8
0
100
AcDbBlockBegin
  2
SW_NOTE_6
 70
     0
 10
0.0
 20
0.0
 30
0.0
  3
SW_NOTE_6
  1
SW_NOTE_6
  0
MTEXT
  5
1FD
330
1FA
100
AcDbEntity
  8
0
  6
Continuous
 62
     0
370
     0
100
AcDbMText
 10
0.021155681
 20
0.0386037219
 30
0.0
 40
0.0833333333
 41
0.0
 71
     1
 72
     1
  1
SM2 (
  7
SLDTEXTSTYLE3
 73
     1
 44
1.0
  0
MTEXT
  5
1FE
330
1FA
100
AcDbEntity
  8
0
  6
Continuous
 62
     0
370
     0
100
AcDbMText
 10
0.3427606157
 20
0.0386037219
 30
0.0
 40
0.0833333333
 41
0.0
 71
     1
 72
     1
  1
%%c
  7
SLDTEXTSTYLE0
 73
     1
 44
1.0
  0
MTEXT
  5
1FF
330
1FA
100
AcDbEntity
  8
0
  6
Continuous
 62
     0
370
     0
100
AcDbMText
 10
0.468547646
 20
0.0386037219
 30
0.0
 40
0.0833333333
 41
0.0
 71
     1
 72
     1
  1
2.035-40) SERIES EXTERNAL THREAD
  7
SLDTEXTSTYLE0
 73
     1
 44
1.0
  0
ENDBLK
  5
1FC
330
1FA
100
AcDbEntity
  8
0
100
AcDbBlockEnd
  0
BLOCK
  5
203
330
202
100
AcDbEntity
  8
0
100
AcDbBlockBegin
  2
SW_NOTE_7
 70
     0
 10
0.0
 20
0.0
 30
0.0
  3
SW_NOTE_7
  1
SW_NOTE_7
  0
CIRCLE
  5
205
330
202
100
AcDbEntity
  8
0
  6
Continuous
 62
     0
370
     0
100
AcDbCircle
 10
-0.1767581325
 20
0.0
 30
0.0
 40
0.1767581325192447
  0
MTEXT
  5
206
330
202
100
AcDbEntity
  8
0
  6
Continuous
 62
     0
370
     0
100
AcDbMText
 10
-0.1780168132
 20
0.0630130583
 30
0.0
 40
0.125
 41
0.0
 71
     2
 72
     1
  1
1
  7
SLDTEXTSTYLE0
 73
     1
 44
1.0
  0
ENDBLK
  5
204
330
202
100
AcDbEntity
  8
0
100
AcDbBlockEnd
  0
BLOCK
  5
20A
330
209
100
AcDbEntity
  8
0
100
AcDbBlockBegin
  2
SW_NOTE_8
 70
     0
 10
0.0
 20
0.0
 30
0.0
  3
SW_NOTE_8
  1
SW_NOTE_8
  0
CIRCLE
  5
20C
330
209
100
AcDbEntity
  8
0
  6
Continuous
 62
     0
370
     0
100
AcDbCircle
 10
-0.1767581325
 20
0.0
 30
0.0
 40
0.1767581325192447
  0
MTEXT
  5
20D
330
209
100
AcDbEntity
  8
0
  6
Continuous
 62
     0
370
     0
100
AcDbMText
 10
-0.1780168132
 20
0.0630130583
 30
0.0
 40
0.125
 41
0.0
 71
     2
 72
     1
  1
3
  7
SLDTEXTSTYLE0
 73
     1
 44
1.0
  0
ENDBLK
  5
20B
330
209
100
AcDbEntity
  8
0
100
AcDbBlockEnd
  0
BLOCK
  5
211
330
210
100
AcDbEntity
  8
0
100
AcDbBlockBegin
  2
SW_NOTE_9
 70
     0
 10
0.0
 20
0.0
 30
0.0
  3
SW_NOTE_9
  1
SW_NOTE_9
  0
CIRCLE
  5
213
330
210
100
AcDbEntity
  8
0
  6
Continuous
 62
     0
370
     0
100
AcDbCircle
 10
0.1767581325
 20
0.0
 30
0.0
 40
0.1767581325192459
  0
MTEXT
  5
214
330
210
100
AcDbEntity
  8
0
  6
Continuous
 62
     0
370
     0
100
AcDbMText
 10
0.1754994518
 20
0.0630130583
 30
0.0
 40
0.125
 41
0.0
 71
     2
 72
     1
  1
2
  7
SLDTEXTSTYLE0
 73
     1
 44
1.0
  0
ENDBLK
  5
212
330
210
100
AcDbEntity
  8
0
100
AcDbBlockEnd
  0
ENDSEC
  0
SECTION
  2
ENTITIES
  0
LINE
  5
7D
330
1F
100
AcDbEntity
  8
0
  6
Continuous
 62
     7
370
     0
100
AcDbLine
 10
0.0621791378
 20
8.4506055117
 30
0.0
 11
10.9444569626
 21
8.4506055117
 31
0.0
  0
LINE
  5
7E
330
1F
100
AcDbEntity
  8
0
  6
Continuous
 62
     7
370
     0
100
AcDbLine
 10
0.0621791378
 20
8.4506055117
 30
0.0
 11
0.0621791378
 21
0.035557648
 31
0.0
  0
LINE
  5
7F
330
1F
100
AcDbEntity
  8
0
  6
Continuous
 62
     7
370
     0
100
AcDbLine
 10
10.9444569626
 20
0.035557648
 30
0.0
 11
0.0621791378
 21
0.035557648
 31
0.0
  0
LINE
  5
80
330
1F
100
AcDbEntity
  8
0
  6
Continuous
 62
     7
370
     0
100
AcDbLine
 10
10.9444569626
 20
0.035557648
 30
0.0
 11
10.9444569626
 21
8.4506055117
 31
0.0
  0
LINE
  5
81
330
1F
100
AcDbEntity
  8
0
  6
Continuous
 62
     7
370
     0
100
AcDbLine
 10
8.4938096065
 20
0.4840901186
 30
0.0
 11
6.7571952625
 21
0.4840901186
 31
0.0
  0
LINE
  5
82
330
1F
100
AcDbEntity
  8
0
  6
Continuous
 62
     7
370
     0
100
AcDbLine
 10
6.7571952625
 20
0.4840901186
 30
0.0
 11
6.7571952625
 21
1.030163002
 31
0.0
  0
LINE
  5
83
330
1F
100
AcDbEntity
  8
0
  6
Continuous
 62
     7
370
     0
100
AcDbLine
 10
6.7571952625
 20
0.035557648
 30
0.0
 11
6.7571952625
 21
1.030163002
 31
0.0
  0
LINE
  5
84
330
1F
100
AcDbEntity
  8
0
  6
Continuous
 62
     7
370
     0
100
AcDbLine
 10
8.4938096065
 20
0.6756085809
 30
0.0
 11
10.9444569626
 21
0.6756085809
 31
0.0
  0
LINE
  5
85
330
1F
100
AcDbEntity
  8
0
  6
Continuous
 62
     7
370
     0
100
AcDbLine
 10
8.4938096065
 20
1.3873799542
 30
0.0
 11
8.4938096065
 21
0.035557648
 31
0.0
  0
LINE
  5
86
330
1F
100
AcDbEntity
  8
0
  6
Continuous
 62
     7
370
     0
100
AcDbLine
 10
8.4938096065
 20
1.030163002
 30
0.0
 11
6.7571952625
 21
1.030163002
 31
0.0
  0
LINE
  5
87
330
1F
100
AcDbEntity
  8
0
  6
Continuous
 62
     7
370
     0
100
AcDbLine
 10
8.4938096065
 20
0.3598787426
 30
0.0
 11
10.9444569626
 21
0.3598787426
 31
0.0
  0
LINE
  5
88
330
1F
100
AcDbEntity
  8
0
  6
Continuous
 62
     7
370
     0
100
AcDbLine
 10
8.4938096065
 20
0.6662079686
 30
0.0
 11
6.7571952625
 21
0.6662079686
 31
0.0
  0
LINE
  5
89
330
1F
100
AcDbEntity
  8
0
  6
Continuous
 62
     7
370
     0
100
AcDbLine
 10
8.4938096065
 20
0.8459606517
 30
0.0
 11
6.7571952625
 21
0.8459606517
 31
0.0
  0
LINE
  5
8A
330
1F
100
AcDbEntity
  8
0
  6
Continuous
 62
     7
370
     0
100
AcDbLine
 10
7.3281027587
 20
1.030163002
 30
0.0
 11
7.3281027587
 21
0.4840901186
 31
0.0
  0
LINE
  5
8B
330
1F
100
AcDbEntity
  8
0
  6
Continuous
 62
     7
370
     0
100
AcDbLine
 10
7.8037240401
 20
1.030163002
 30
0.0
 11
7.8037240401
 21
0.4840901186
 31
0.0
  0
LINE
  5
8C
330
1F
100
AcDbEntity
  8
0
  6
Continuous
 62
     7
370
     0
100
AcDbLine
 10
9.990119718
 20
0.3598787426
 30
0.0
 11
9.990119718
 21
0.035557648
 31
0.0
  0
LINE
  5
8D
330
1F
100
AcDbEntity
  8
0
  6
Continuous
 62
     7
370
     0
100
AcDbLine
 10
6.7571952625
 20
0.4840901186
 30
0.0
 11
6.7571952625
 21
0.297745443
 31
0.0
  0
LINE
  5
8E
330
1F
100
AcDbEntity
  8
0
  6
Continuous
 62
     7
370
     0
100
AcDbLine
 10
6.7571952625
 20
0.297745443
 30
0.0
 11
8.4938096065
 21
0.297745443
 31
0.0
  0
LINE
  5
8F
330
1F
100
AcDbEntity
  8
0
  6
Continuous
 62
     7
370
     0
100
AcDbLine
 10
6.7571952625
 20
0.297745443
 30
0.0
 11
6.7571952625
 21
1.3873799542
 31
0.0
  0
LINE
  5
90
330
1F
100
AcDbEntity
  8
0
  6
Continuous
 62
     7
370
     0
100
AcDbLine
 10
6.7571952625
 20
1.3873799542
 30
0.0
 11
8.4938096065
 21
1.3873799542
 31
0.0
  0
LINE
  5
91
330
1F
100
AcDbEntity
  8
0
  6
Continuous
 62
     7
370
     0
100
AcDbLine
 10
10.6365495992
 20
0.6756085809
 30
0.0
 11
10.6365495992
 21
0.3598787426
 31
0.0
  0
LINE
  5
92
330
1F
100
AcDbEntity
  8
0
  6
Continuous
 62
     7
370
     0
100
AcDbLine
 10
8.4938096065
 20
1.3873799542
 30
0.0
 11
10.9444569626
 21
1.3873799542
 31
0.0
  0
LINE
  5
93
330
1F
100
AcDbEntity
  8
0
  6
Continuous
 62
     7
370
     0
100
AcDbLine
 10
10.9444569626
 20
1.3873799542
 30
0.0
 11
10.9444569626
 21
1.9698084888
 31
0.0
  0
LINE
  5
94
330
1F
100
AcDbEntity
  8
0
  6
Continuous
 62
     7
370
     0
100
AcDbLine
 10
8.4938096065
 20
0.9800288797
 30
0.0
 11
10.9444569626
 21
0.9800288797
 31
0.0
  0
INSERT
  5
95
330
1F
100
AcDbEntity
  8
0
  6
Continuous
 62
     7
100
AcDbBlockReference
  2
Third Angle Projection Block
 10
4.6348905679
 20
0.6108753523
 30
0.0
 41
0.8
 42
0.8
 43
0.8
  0
MTEXT
  5
97
330
1F
100
AcDbEntity
  8
0
  6
Continuous
 62
     7
370
     0
100
AcDbMText
 10
10.7892734632
 20
0.5227176726
 30
0.0
 40
0.125
 41
0.0
 71
     2
 72
     1
  1
A
  7
SLDTEXTSTYLE0
 73
     1
 44
1.0
  0
MTEXT
  5
98
330
1F
100
AcDbEntity
  8
0
  6
Continuous
 62
     7
370
     0
100
AcDbMText
 10
9.229545988
 20
0.2019943461
 30
0.0
 40
0.125
 41
0.0
 71
     2
 72
     1
  1
LA4745-UV-ML
  7
SLDTEXTSTYLE0
 73
     1
 44
1.0
  0
MTEXT
  5
99
330
1F
100
AcDbEntity
  8
0
  6
Continuous
 62
     7
370
     0
100
AcDbMText
 10
8.5204715199
 20
0.6623747189
 30
0.0
 40
0.0833333333
 41
0.0
 71
     1
 72
     1
  1
MATERIAL
  7
SLDTEXTSTYLE0
 73
     1
 44
1.0
  0
MTEXT
  5
9A
330
1F
100
AcDbEntity
  8
0
  6
Continuous
 62
     7
370
     0
100
AcDbMText
 10
6.8594860853
 20
0.7895493672
 30
0.0
 40
0.0729166667
 41
0.0
 71
     1
 72
     1
  1
DRAWN
  7
SLDTEXTSTYLE0
 73
     1
 44
1.0
  0
MTEXT
  5
9B
330
1F
100
AcDbEntity
  8
0
  6
Continuous
 62
     7
370
     0
100
AcDbMText
 10
6.7872445848
 20
0.613335314
 30
0.0
 40
0.0729166667
 41
0.0
 71
     1
 72
     1
  1
APPROVAL
  7
SLDTEXTSTYLE0
 73
     1
 44
1.0
  0
MTEXT
  5
9C
330
1F
100
AcDbEntity
  8
0
  6
Continuous
 62
     7
370
     0
100
AcDbMText
 10
10.6936137314
 20
0.6373332609
 30
0.0
 40
0.0833333333
 41
0.0
 71
     1
 72
     1
  1
REV
  7
SLDTEXTSTYLE0
 73
     1
 44
1.0
  0
MTEXT
  5
9D
330
1F
100
AcDbEntity
  8
0
  6
Continuous
 62
     7
370
     0
100
AcDbMText
 10
7.4919633718
 20
0.7999100272
 30
0.0
 40
0.0833333333
 41
0.0
 71
     1
 72
     1
  1
GG
  7
SLDTEXTSTYLE0
 73
     1
 44
1.0
  0
MTEXT
  5
9E
330
1F
100
AcDbEntity
  8
0
  6
Continuous
 62
     7
370
     0
100
AcDbMText
 10
7.4919633718
 20
0.623695974
 30
0.0
 40
0.0833333333
 41
0.0
 71
     1
 72
     1
  1
DD
  7
SLDTEXTSTYLE0
 73
     1
 44
1.0
  0
MTEXT
  5
9F
330
1F
100
AcDbEntity
  8
0
  6
Continuous
 62
     7
370
     0
100
AcDbMText
 10
7.8687497515
 20
0.7999100272
 30
0.0
 40
0.0833333333
 41
0.0
 71
     1
 72
     1
  1
13/OCT/15
  7
SLDTEXTSTYLE0
 73
     1
 44
1.0
  0
MTEXT
  5
A0
330
1F
100
AcDbEntity
  8
0
  6
Continuous
 62
     7
370
     0
100
AcDbMText
 10
8.0163191884
 20
0.9772495896
 30
0.0
 40
0.0833333333
 41
0.0
 71
     1
 72
     1
  1
DATE
  7
SLDTEXTSTYLE0
 73
     1
 44
1.0
  0
MTEXT
  5
A1
330
1F
100
AcDbEntity
  8
0
  6
Continuous
 62
     7
370
     0
100
AcDbMText
 10
7.8687497515
 20
0.623695974
 30
0.0
 40
0.0833333333
 41
0.0
 71
     1
 72
     1
  1
13/OCT/15
  7
SLDTEXTSTYLE0
 73
     1
 44
1.0
  0
MTEXT
  5
A3
330
1F
100
AcDbEntity
  8
0
  6
Continuous
 62
     7
370
     0
100
AcDbMText
 10
9.0316104912
 20
1.0943207896
 30
0.0
 40
0.0833333333
 41
0.0
 71
     1
 72
     1
  1
w w w . t h o r  l a b s . c o m
  7
SLDTEXTSTYLE1
 73
     1
 44
1.0
  0
MTEXT
  5
A4
330
1F
100
AcDbEntity
  8
0
  6
Continuous
 62
     7
370
     0
100
AcDbMText
 10
8.5315119501
 20
0.328719653
 30
0.0
 40
0.0833333333
 41
0.0
 71
     1
 72
     1
  1
ITEM #
  7
SLDTEXTSTYLE0
 73
     1
 44
1.0
  0
MTEXT
  5
A5
330
1F
100
AcDbEntity
  8
0
  6
Continuous
 62
     7
370
     0
100
AcDbMText
 10
10.0209370115
 20
0.328719653
 30
0.0
 40
0.0833333333
 41
0.0
 71
     1
 72
     1
  1
APPROX WEIGHT
  7
SLDTEXTSTYLE0
 73
     1
 44
1.0
  0
MTEXT
  5
A6
330
1F
100
AcDbEntity
  8
0
  6
Continuous
 62
     7
370
     0
100
AcDbMText
 10
9.5949135982
 20
0.5414715262
 30
0.0
 40
0.125
 41
0.0
 71
     2
 72
     1
  1
SEE TABLE
  7
SLDTEXTSTYLE0
 73
     1
 44
1.0
  0
MTEXT
  5
A8
330
1F
100
AcDbEntity
  8
0
  6
Continuous
 62
     7
370
     0
100
AcDbMText
 10
10.4826226539
 20
0.2019943461
 30
0.0
 40
0.125
 41
0.0
 71
     2
 72
     1
  1
29 g
  7
SLDTEXTSTYLE2
 73
     1
 44
1.0
  0
INSERT
  5
AE
330
1F
100
AcDbEntity
  8
0
  6
Continuous
 62
     7
370
     0
100
AcDbBlockReference
  2
SW_NOTE_0
 10
6.8835832285
 20
0.1754273811
 30
0.0
  0
INSERT
  5
B4
330
1F
100
AcDbEntity
  8
0
  6
Continuous
 62
     7
370
     0
100
AcDbBlockReference
  2
SW_NOTE_1
 10
6.8719828753
 20
1.2001390658
 30
0.0
  0
MTEXT
  5
B5
330
1F
100
AcDbEntity
  8
0
  6
Continuous
 62
     7
370
     0
100
AcDbMText
 10
7.3987149145
 20
0.9772495896
 30
0.0
 40
0.0833333333
 41
0.0
 71
     1
 72
     1
  1
NAME
  7
SLDTEXTSTYLE0
 73
     1
 44
1.0
  0
INSERT
  5
BC
330
1F
100
AcDbEntity
  8
0
  6
Continuous
 62
     7
370
     0
100
AcDbBlockReference
  2
SW_NOTE_2
 10
8.5755302951
 20
0.8160048101
 30
0.0
  0
MTEXT
  5
BD
330
1F
100
AcDbEntity
  8
0
  6
Continuous
 62
     7
370
     0
100
AcDbMText
 10
7.0281258754
 20
0.4200025137
 30
0.0
 40
0.0625
 41
0.0
 71
     1
 72
     1
  1
COPYRIGHT © 2015 BY THORLABS
  7
SLDTEXTSTYLE0
 73
     1
 44
1.0
  0
INSERT
  5
C3
330
1F
100
AcDbEntity
  8
0
  6
Continuous
 62
     7
370
     0
100
AcDbBlockReference
  2
SW_NOTE_3
 10
2.1096529316
 20
0.3219551564
 30
0.0
  0
INSERT
  5
D9
330
1F
100
AcDbEntity
  8
0
  6
Continuous
 62
     7
370
     0
100
AcDbBlockReference
  2
SW_NOTE_4
 10
0.2229009106
 20
1.7636814979
 30
0.0
  0
INSERT
  5
103
330
1F
100
AcDbEntity
  8
0
  6
Continuous
 62
     7
370
     0
100
AcDbBlockReference
  2
SW_TABLEANNOTATION_0
 10
0.0612779343
 20
8.4504327236
 30
0.0
  0
ARC
  5
104
330
1F
100
AcDbEntity
  8
0
  6
Continuous
 62
     7
370
     0
100
AcDbCircle
 10
2.8546485251
 20
4.2393543935
 30
0.0
 40
1.000179491924313
100
AcDbArc
 50
0.8593146732
 51
179.1406853268
  0
LINE
  5
105
330
1F
100
AcDbEntity
  8
0
  6
Continuous
 62
     7
370
     0
100
AcDbLine
 10
3.8547155389
 20
4.2543543932
 30
0.0
 11
3.8145313164
 21
4.2543543932
 31
0.0
  0
ARC
  5
106
330
1F
100
AcDbEntity
  8
0
  6
Continuous
 62
     7
370
     0
100
AcDbCircle
 10
2.8546485251
 20
4.2393543935
 30
0.0
 40
0.9600000000000015
100
AcDbArc
 50
0.8952829866
 51
179.1047170134
  0
LINE
  5
107
330
1F
100
AcDbEntity
  8
0
  6
Continuous
 62
     7
370
     0
100
AcDbLine
 10
1.8947657337
 20
4.2543543932
 30
0.0
 11
1.8545815113
 21
4.2543543932
 31
0.0
  0
LINE
  5
108
330
1F
100
AcDbEntity
  8
0
  6
Continuous
 62
     7
370
     0
100
AcDbLine
 10
1.8545815113
 20
4.2543543932
 30
0.0
 11
1.8372591314
 21
4.2543543932
 31
0.0
  0
LINE
  5
109
330
1F
100
AcDbEntity
  8
0
  6
Continuous
 62
     7
370
     0
100
AcDbLine
 10
3.8720379188
 20
4.2543543932
 30
0.0
 11
3.8547155389
 21
4.2543543932
 31
0.0
  0
ARC
  5
10A
330
1F
100
AcDbEntity
  8
0
  6
Continuous
 62
     7
370
     0
100
AcDbCircle
 10
2.8546485251
 20
4.2393543935
 30
0.0
 40
1.000179491924313
100
AcDbArc
 50
180.8593146732
 51
359.1406853268
  0
LINE
  5
10B
330
1F
100
AcDbEntity
  8
0
  6
Continuous
 62
     7
370
     0
100
AcDbLine
 10
1.8545815113
 20
4.2243543939
 30
0.0
 11
1.8947657337
 21
4.2243543939
 31
0.0
  0
ARC
  5
10C
330
1F
100
AcDbEntity
  8
0
  6
Continuous
 62
     7
370
     0
100
AcDbCircle
 10
2.8546485251
 20
4.2393543935
 30
0.0
 40
0.9600000000000015
100
AcDbArc
 50
180.8952829866
 51
359.1047170134
  0
LINE
  5
10D
330
1F
100
AcDbEntity
  8
0
  6
Continuous
 62
     7
370
     0
100
AcDbLine
 10
3.8145313164
 20
4.2243543939
 30
0.0
 11
3.8547155389
 21
4.2243543939
 31
0.0
  0
LINE
  5
10E
330
1F
100
AcDbEntity
  8
0
  6
Continuous
 62
     7
370
     0
100
AcDbLine
 10
3.8547155389
 20
4.2243543939
 30
0.0
 11
3.8720379188
 21
4.2243543939
 31
0.0
  0
LINE
  5
10F
330
1F
100
AcDbEntity
  8
0
  6
Continuous
 62
     7
370
     0
100
AcDbLine
 10
1.8372591314
 20
4.2243543939
 30
0.0
 11
1.8545815113
 21
4.2243543939
 31
0.0
  0
ARC
  5
110
330
1F
100
AcDbEntity
  8
0
  6
Continuous
 62
     7
370
     0
100
AcDbCircle
 10
2.8546485251
 20
4.2393543935
 30
0.0
 40
0.9500000000000006
100
AcDbArc
 50
0.9047077972
 51
179.0952922028
  0
LINE
  5
111
330
1F
100
AcDbEntity
  8
0
  6
Continuous
 62
     7
370
     0
100
AcDbLine
 10
1.9047669649
 20
4.2543543932
 30
0.0
 11
1.8947657337
 21
4.2543543932
 31
0.0
  0
LINE
  5
112
330
1F
100
AcDbEntity
  8
0
  6
Continuous
 62
     7
370
     0
100
AcDbLine
 10
3.8145313164
 20
4.2543543932
 30
0.0
 11
3.8045300853
 21
4.2543543932
 31
0.0
  0
ARC
  5
113
330
1F
100
AcDbEntity
  8
0
  6
Continuous
 62
     7
370
     0
100
AcDbCircle
 10
2.8546485251
 20
4.2393543935
 30
0.0
 40
0.9500000000000006
100
AcDbArc
 50
180.9047077972
 51
359.0952922028
  0
LINE
  5
114
330
1F
100
AcDbEntity
  8
0
  6
Continuous
 62
     7
370
     0
100
AcDbLine
 10
1.8947657337
 20
4.2243543939
 30
0.0
 11
1.9047669649
 21
4.2243543939
 31
0.0
  0
LINE
  5
115
330
1F
100
AcDbEntity
  8
0
  6
Continuous
 62
     7
370
     0
100
AcDbLine
 10
3.8045300853
 20
4.2243543939
 30
0.0
 11
3.8145313164
 21
4.2243543939
 31
0.0
  0
ARC
  5
116
330
1F
100
AcDbEntity
  8
0
  6
Continuous
 62
     7
370
     0
100
AcDbCircle
 10
2.8546485251
 20
4.2393543935
 30
0.0
 40
0.9499999999999997
100
AcDbArc
 50
359.0952922028
 51
0.9047077972
  0
ARC
  5
117
330
1F
100
AcDbEntity
  8
0
  6
Continuous
 62
     7
370
     0
100
AcDbCircle
 10
2.8546485251
 20
4.2393543935
 30
0.0
 40
0.9500000000000006
100
AcDbArc
 50
179.0952922028
 51
180.9047077972
  0
CIRCLE
  5
118
330
1F
100
AcDbEntity
  8
0
  6
Continuous
 62
     7
370
     0
100
AcDbCircle
 10
2.8546485251
 20
4.2393543935
 30
0.0
 40
1.1
  0
CIRCLE
  5
119
330
1F
100
AcDbEntity
  8
0
  6
Continuous
 62
     7
370
     0
100
AcDbCircle
 10
2.8546485251
 20
4.2393543935
 30
0.0
 40
1.090000000000001
  0
CIRCLE
  5
11A
330
1F
100
AcDbEntity
  8
0
  6
Continuous
 62
     7
370
     0
100
AcDbCircle
 10
2.8546485251
 20
4.2393543935
 30
0.0
 40
1.034820508075689
  0
CIRCLE
  5
11B
330
1F
100
AcDbEntity
  8
0
  6
Continuous
 62
     7
370
     0
100
AcDbCircle
 10
2.8546485251
 20
4.2393543935
 30
0.0
 40
1.0175
  0
DIMENSION
  5
11C
330
1F
100
AcDbEntity
  8
0
  6
Continuous
 62
     7
370
     0
100
AcDbDimension
  2
_D
 10
2.2317217911
 20
3.332733037
 30
0.0
 11
4.2442505971
 21
5.6552038179
 31
0.0
 70
   163
  1
<>
 71
     1
 42
-1.0
  3
SLDDIMSTYLE0
100
AcDbDiametricDimension
 15
3.4775752591
 25
5.14597575
 35
0.0
 40
0.0
  0
LINE
  5
12D
330
1F
100
AcDbEntity
  8
0
  6
PHANTOM
 62
     7
370
    30
100
AcDbLine
 10
2.8546485251
 20
5.7066236364
 30
0.0
 11
2.8546485251
 21
2.8148872082
 31
0.0
  0
LINE
  5
12E
330
1F
100
AcDbEntity
  8
0
  6
Continuous
 62
     7
370
    30
100
AcDbLine
 10
2.8546485251
 20
5.7066236364
 30
0.0
 11
2.4729020762
 21
5.7066236364
 31
0.0
  0
SOLID
  5
12F
330
1F
100
AcDbEntity
  8
0
  6
Continuous
 62
     7
370
    30
100
AcDbTrace
 10
2.4729020762
 20
5.7066236364
 30
0.0
 11
2.6229020762
 21
5.6816236364
 31
0.0
 12
2.6229020762
 22
5.7316236364
 32
0.0
 13
2.6229020762
 23
5.7316236364
 33
0.0
  0
LINE
  5
130
330
1F
100
AcDbEntity
  8
0
  6
Continuous
 62
     7
370
    30
100
AcDbLine
 10
2.8546485251
 20
2.8148872082
 30
0.0
 11
2.4628263396
 21
2.8148872082
 31
0.0
  0
SOLID
  5
131
330
1F
100
AcDbEntity
  8
0
  6
Continuous
 62
     7
370
    30
100
AcDbTrace
 10
2.4628263396
 20
2.8148872082
 30
0.0
 11
2.6128263396
 21
2.7898872082
 31
0.0
 12
2.6128263396
 22
2.8398872082
 32
0.0
 13
2.6128263396
 23
2.8398872082
 33
0.0
  0
MTEXT
  5
132
330
1F
100
AcDbEntity
  8
0
  6
Continuous
 62
     7
100
AcDbMText
 10
2.2680428687
 20
5.7650838505
 30
0.0
 40
0.1041666667
 41
0.0
 71
     1
 72
     1
  1
A
  7
SLDTEXTSTYLE0
 73
     1
 44
1.0
  0
MTEXT
  5
133
330
1F
100
AcDbEntity
  8
0
  6
Continuous
 62
     7
100
AcDbMText
 10
2.2984033586
 20
2.8693718596
 30
0.0
 40
0.1041666667
 41
0.0
 71
     1
 72
     1
  1
A
  7
SLDTEXTSTYLE0
 73
     1
 44
1.0
  0
LINE
  5
134
330
1F
100
AcDbEntity
  8
0
  6
Continuous
 62
     7
370
     0
100
AcDbLine
 10
8.8705497257
 20
7.56187008
 30
0.0
 11
8.8705497257
 21
7.5537059988
 31
0.0
  0
LINE
  5
135
330
1F
100
AcDbEntity
  8
0
  6
Continuous
 62
     7
370
     0
100
AcDbLine
 10
9.6411708493
 20
6.2188064203
 30
0.0
 11
9.6482407678
 21
6.2147237163
 31
0.0
  0
LINE
  5
136
330
1F
100
AcDbEntity
  8
0
  6
Continuous
 62
     7
370
     0
100
AcDbLine
 10
9.3600413911
 20
8.2165348678
 30
0.0
 11
9.0984118821
 21
8.0654993671
 31
0.0
  0
LINE
  5
137
330
1F
100
AcDbEntity
  8
0
  6
Continuous
 62
     7
370
     0
100
AcDbLine
 10
10.198322488
 20
6.1601918698
 30
0.0
 11
10.459951997
 21
6.3112273705
 31
0.0
  0
LINE
  5
138
330
1F
100
AcDbEntity
  8
0
  6
Continuous
 62
     7
370
     0
100
AcDbLine
 10
10.6878141534
 20
6.8148566576
 30
0.0
 11
10.6878141534
 21
6.8230207388
 31
0.0
  0
LINE
  5
139
330
1F
100
AcDbEntity
  8
0
  6
Continuous
 62
     7
370
     0
100
AcDbLine
 10
9.9171930299
 20
8.1579203172
 30
0.0
 11
9.9101231113
 21
8.1620030212
 31
0.0
  0
LWPOLYLINE
  5
13A
330
1F
100
AcDbEntity
  8
0
  6
Continuous
 62
     7
370
     0
100
AcDbPolyline
 90
       20
 70
   128
 43
0.0
 10
9.2418190497
 20
8.0330187159
 10
9.2383167218
 20
8.0309989836
 10
9.2175300874
 20
8.0177907865
 10
9.1976925317
 20
8.0030347582
 10
9.1788400912
 20
7.9867577042
 10
9.1610070131
 20
7.968989193
 10
9.1442256925
 20
7.9497615028
 10
9.1285266141
 20
7.9291095621
 10
9.1139382966
 20
7.9070708869
 10
9.1004872409
 20
7.8836855124
 10
9.0881978819
 20
7.8589959199
 10
9.0770925442
 20
7.8330469601
 10
9.0671914017
 20
7.8058857716
 10
9.0585124406
 20
7.7775616948
 10
9.0510714269
 20
7.7481261827
 10
9.0448818778
 20
7.7176327075
 10
9.0399550372
 20
7.686136663
 10
9.0362998551
 20
7.6536952644
 10
9.0339229714
 20
7.6203674441
 10
9.0328287039
 20
7.5862137451
  0
LINE
  5
13B
330
1F
100
AcDbEntity
  8
0
  6
Continuous
 62
     7
370
     0
100
AcDbLine
 10
9.0328287039
 20
7.5862137451
 30
0.0
 11
9.0276509689
 21
7.597366869
 31
0.0
  0
LWPOLYLINE
  5
13C
330
1F
100
AcDbEntity
  8
0
  6
Continuous
 62
     7
370
     0
100
AcDbPolyline
 90
       18
 70
   128
 43
0.0
 10
9.0276509689
 20
7.597366869
 10
9.0287330014
 20
7.6316582892
 10
9.0310853162
 20
7.6651329857
 10
9.0347037535
 20
7.6977317616
 10
9.0395819145
 20
7.7293969691
 10
9.0457111726
 20
7.7600726113
 10
9.0530806887
 20
7.7897044411
 10
9.0616774306
 20
7.8182400576
 10
9.0714861959
 20
7.8456289981
 10
9.0824896384
 20
7.871822828
 10
9.0946682999
 20
7.896775226
 10
9.1080006434
 20
7.920442066
 10
9.1224630919
 20
7.9427814957
 10
9.1380300701
 20
7.9637540097
 10
9.1546740491
 20
7.9833225201
 10
9.1723655957
 20
8.0014524221
 10
9.1910734241
 20
8.0181116544
 10
9.1913998653
 20
8.0183818183
  0
LWPOLYLINE
  5
13D
330
1F
100
AcDbEntity
  8
0
  6
Continuous
 62
     7
370
     0
100
AcDbPolyline
 90
        3
 70
   128
 43
0.0
 10
9.0382141049
 20
7.5831048192
 10
9.0382233648
 20
7.5820753345
 10
9.0382575706
 20
7.5789937055
  0
LINE
  5
13E
330
1F
100
AcDbEntity
  8
0
  6
Continuous
 62
     7
370
     0
100
AcDbLine
 10
9.0276509689
 20
7.5728706446
 30
0.0
 11
9.0382575706
 21
7.5789937055
 31
0.0
  0
LWPOLYLINE
  5
13F
330
1F
100
AcDbEntity
  8
0
  6
Continuous
 62
     7
370
     0
100
AcDbPolyline
 90
       55
 70
   128
 43
0.0
 10
10.2040212529
 20
6.2642800656
 10
10.1954685202
 20
6.2612220566
 10
10.1714163823
 20
6.2539110997
 10
10.1466137996
 20
6.2482198341
 10
10.1211046332
 20
6.2441583242
 10
10.0949339937
 20
6.2417337526
 10
10.0681481614
 20
6.2409504067
 10
10.0407945044
 20
6.2418096719
 10
10.012921395
 20
6.2443100286
 10
9.9845781244
 20
6.2484470553
 10
9.9558148147
 20
6.2542134359
 10
9.9266823313
 20
6.2615989732
 10
9.897232192
 20
6.2705906065
 10
9.8675164768
 20
6.281172435
 10
9.837587735
 20
6.2933257457
 10
9.8074988928
 20
6.3070290467
 10
9.7773031594
 20
6.322258105
 10
9.7470539332
 20
6.3389859894
 10
9.7168047069
 20
6.3571831183
 10
9.6866089735
 20
6.3768173117
 10
9.6565201313
 20
6.3978538484
 10
9.6265913895
 20
6.4202555274
 10
9.5968756743
 20
6.4439827334
 10
9.5674255351
 20
6.4689935071
 10
9.5382930516
 20
6.4952436192
 10
9.509529742
 20
6.5226866491
 10
9.4811864713
 20
6.5512740662
 10
9.453313362
 20
6.5809553165
 10
9.425959705
 20
6.6116779114
 10
9.3991738726
 20
6.643387521
 10
9.3730032331
 20
6.6760280699
 10
9.3474940668
 20
6.7095418363
 10
9.3226914841
 20
6.7438695543
 10
9.2986393461
 20
6.7789505187
 10
9.2753801868
 20
6.814722692
 10
9.2529551376
 20
6.8511228146
 10
9.2314038553
 20
6.8880865162
 10
9.2107644512
 20
6.9255484302
 10
9.1910734241
 20
6.9634423087
 10
9.1723655957
 20
7.0017011399
 10
9.1546740491
 20
7.0402572667
 10
9.1380300701
 20
7.0790425064
 10
9.1224630919
 20
7.1179882708
 10
9.1080006434
 20
7.1570256881
 10
9.0946682999
 20
7.1960857243
 10
9.0824896384
 20
7.2350993054
 10
9.0714861959
 20
7.2739974398
 10
9.0616774306
 20
7.3127113396
 10
9.0530806887
 20
7.351172543
 10
9.0457111726
 20
7.389313035
 10
9.0395819145
 20
7.4270653679
 10
9.0347037535
 20
7.4643627802
 10
9.0310853162
 20
7.5011393149
 10
9.0287330014
 20
7.5373299363
 10
9.0276509689
 20
7.5728706446
  0
LWPOLYLINE
  5
140
330
1F
100
AcDbEntity
  8
0
  6
Continuous
 62
     7
370
     0
100
AcDbPolyline
 90
       25
 70
   128
 43
0.0
 10
9.0612432246
 20
7.5698103915
 10
9.0623345018
 20
7.6030172622
 10
9.0646901892
 20
7.6354082154
 10
9.0683058913
 20
7.6669228136
 10
9.0731748617
 20
7.6975022543
 10
9.0792880155
 20
7.72708948
 10
9.0866339462
 20
7.7556292844
 10
9.0951989473
 20
7.7830684158
 10
9.1049670374
 20
7.8093556759
 10
9.1159199905
 20
7.8344420161
 10
9.1280373697
 20
7.858280628
 10
9.1412965654
 20
7.8808270319
 10
9.1556728376
 20
7.9020391588
 10
9.1711393619
 20
7.9218774294
 10
9.1876672796
 20
7.940304828
 10
9.2052257516
 20
7.9572869712
 10
9.223782016
 20
7.9727921724
 10
9.2433014488
 20
7.9867915007
 10
9.2637476294
 20
7.9992588351
 10
9.2850824075
 20
8.0101709131
 10
9.307265975
 20
8.019507374
 10
9.33025694
 20
8.0272507971
 10
9.3540124043
 20
8.0333867341
 10
9.3784880429
 20
8.0379037362
 10
9.381999791
 20
8.0384106315
  0
LINE
  5
141
330
1F
100
AcDbEntity
  8
0
  6
Continuous
 62
     7
370
     0
100
AcDbLine
 10
9.0612432246
 20
7.5698103915
 30
0.0
 11
9.0328287039
 21
7.5862137451
 31
0.0
  0
LWPOLYLINE
  5
142
330
1F
100
AcDbEntity
  8
0
  6
Continuous
 62
     7
370
     0
100
AcDbPolyline
 90
       24
 70
   128
 43
0.0
 10
9.3976174519
 20
8.0363403403
 10
9.3777461471
 20
8.0329827045
 10
9.3536849284
 20
8.0273191033
 10
9.3303882774
 20
8.0200162053
 10
9.3079008862
 20
8.0110880204
 10
9.2862658944
 20
8.0005516764
 10
9.2655248066
 20
7.9884273862
 10
9.2457174123
 20
7.9747384089
 10
9.22688171
 20
7.9595110055
 10
9.209053834
 20
7.942774388
 10
9.1922679852
 20
7.9245606639
 10
9.1765563655
 20
7.9049047745
 10
9.161949116
 20
7.8838444273
 10
9.1484742591
 20
7.8614200246
 10
9.1361576451
 20
7.8376745851
 10
9.1250229019
 20
7.812653662
 10
9.1150913905
 20
7.7864052554
 10
9.1063821634
 20
7.75897972
 10
9.0989119284
 20
7.7304296689
 10
9.0926950163
 20
7.7008098723
 10
9.0877433536
 20
7.6701771527
 10
9.0840664395
 20
7.6385902759
 10
9.0816713279
 20
7.6061098378
 10
9.0805626135
 20
7.5727981489
  0
LINE
  5
143
330
1F
100
AcDbEntity
  8
0
  6
Continuous
 62
     7
370
     0
100
AcDbLine
 10
9.0805626135
 20
7.5727981489
 30
0.0
 11
9.0612432246
 21
7.5698103915
 31
0.0
  0
ARC
  5
144
330
1F
100
AcDbEntity
  8
0
  6
Continuous
 62
     7
370
     0
100
AcDbCircle
 10
9.9816468062
 20
7.5636848365
 30
0.0
 40
0.8957377147315119
100
AcDbArc
 50
179.2165262291
 51
180.7834737709
  0
LINE
  5
145
330
1F
100
AcDbEntity
  8
0
  6
Continuous
 62
     7
370
     0
100
AcDbLine
 10
9.0805626135
 20
7.5727981489
 30
0.0
 11
9.0859928343
 21
7.5759329487
 31
0.0
  0
LWPOLYLINE
  5
146
330
1F
100
AcDbEntity
  8
0
  6
Continuous
 62
     7
370
     0
100
AcDbPolyline
 90
       60
 70
   128
 43
0.0
 10
9.0805626135
 20
7.5483019246
 10
9.0816713279
 20
7.5137101412
 10
9.0840664395
 20
7.4784643662
 10
9.0877433536
 20
7.4426322147
 10
9.0926950163
 20
7.4062824271
 10
9.0989119284
 20
7.3694847366
 10
9.1063821634
 20
7.3323097357
 10
9.1150913905
 20
7.2948287407
 10
9.1250229019
 20
7.2571136551
 10
9.1361576451
 20
7.2192368312
 10
9.1484742591
 20
7.1812709318
 10
9.161949116
 20
7.1432887905
 10
9.1765563655
 20
7.1053632721
 10
9.1922679852
 20
7.0675671326
 10
9.209053834
 20
7.0299728801
 10
9.22688171
 20
6.9926526351
 10
9.2457174123
 20
6.9556779927
 10
9.2655248066
 20
6.9191198847
 10
9.2862658944
 20
6.8830484443
 10
9.3079008862
 20
6.8475328705
 10
9.3303882774
 20
6.8126412963
 10
9.3536849284
 20
6.7784406576
 10
9.3777461471
 20
6.7449965646
 10
9.4025257744
 20
6.7123731765
 10
9.4279762732
 20
6.6806330776
 10
9.4540488195
 20
6.6498371582
 10
9.4806933957
 20
6.6200444969
 10
9.5078588871
 20
6.5913122479
 10
9.5354931795
 20
6.5636955309
 10
9.5635432594
 20
6.5372473257
 10
9.5919553156
 20
6.5120183705
 10
9.6206748427
 20
6.4880570643
 10
9.6496467451
 20
6.4654093745
 10
9.6788154434
 20
6.4441187482
 10
9.7081249804
 20
6.4242260292
 10
9.7375191289
 20
6.4057693797
 10
9.7669414993
 20
6.3887842069
 10
9.7963356477
 20
6.3733030949
 10
9.8256451848
 20
6.3593557427
 10
9.854813883
 20
6.3469689068
 10
9.8837857855
 20
6.3361663501
 10
9.9125053125
 20
6.3269687962
 10
9.9409173688
 20
6.3193938895
 10
9.9689674487
 20
6.3134561618
 10
9.996601741
 20
6.3091670039
 10
10.0237672324
 20
6.3065346442
 10
10.0504118087
 20
6.3055641326
 10
10.0764843549
 20
6.3062573309
 10
10.1019348538
 20
6.3086129092
 10
10.1267144811
 20
6.3126263487
 10
10.1507756997
 20
6.3182899499
 10
10.1740723507
 20
6.3255928479
 10
10.196559742
 20
6.3345210327
 10
10.2181947338
 20
6.3450573767
 10
10.2389358216
 20
6.357181667
 10
10.2587432159
 20
6.3708706442
 10
10.2775789182
 20
6.3860980477
 10
10.2954067942
 20
6.4028346652
 10
10.312192643
 20
6.4210483892
 10
10.3226984978
 20
6.4338793376
  0
LINE
  5
147
330
1F
100
AcDbEntity
  8
0
  6
Continuous
 62
     7
370
     0
100
AcDbLine
 10
9.0859928343
 20
7.5514367243
 30
0.0
 11
9.0805626135
 21
7.5483019246
 31
0.0
  0
LWPOLYLINE
  5
148
330
1F
100
AcDbEntity
  8
0
  6
Continuous
 62
     7
370
     0
100
AcDbPolyline
 90
       72
 70
   128
 43
0.0
 10
10.2521924127
 20
6.3660967034
 10
10.2440258767
 20
6.3624883259
 10
10.2216393631
 20
6.3539313684
 10
10.1984680666
 20
6.3469674584
 10
10.1745554886
 20
6.3416096699
 10
10.1499465227
 20
6.3378680616
 10
10.1246873696
 20
6.335749658
 10
10.0988254507
 20
6.3352584361
 10
10.0724093191
 20
6.3363953181
 10
10.0454885682
 20
6.3391581697
 10
10.018113739
 20
6.343541804
 10
9.9903362249
 20
6.349537991
 10
9.9622081752
 20
6.3571354737
 10
9.9337823975
 20
6.3663199884
 10
9.9051122581
 20
6.3770742923
 10
9.8762515822
 20
6.3893781953
 10
9.8472545528
 20
6.403208598
 10
9.8181756087
 20
6.4185395354
 10
9.7890693426
 20
6.4353422251
 10
9.7599903985
 20
6.453585122
 10
9.7309933691
 20
6.4732339768
 10
9.7021326933
 20
6.4942519009
 10
9.6734625539
 20
6.5165994354
 10
9.6450367761
 20
6.540234625
 10
9.6169087264
 20
6.5651130973
 10
9.5891312123
 20
6.5911881453
 10
9.5617563832
 20
6.6184108161
 10
9.5348356323
 20
6.6467300018
 10
9.5084195006
 20
6.6760925362
 10
9.4825575817
 20
6.7064432941
 10
9.4572984286
 20
6.7377252951
 10
9.4326894627
 20
6.7698798107
 10
9.4087768848
 20
6.802846474
 10
9.3856055882
 20
6.8365633936
 10
9.3632190746
 20
6.8709672695
 10
9.3416593724
 20
6.9059935119
 10
9.3209669577
 20
6.9415763629
 10
9.3011806783
 20
6.9776490192
 10
9.2823376808
 20
7.0141437584
 10
9.2644733411
 20
7.0509920652
 10
9.2476211975
 20
7.0881247609
 10
9.2318128883
 20
7.1254721327
 10
9.2170780918
 20
7.1629640648
 10
9.2034444711
 20
7.20053017
 10
9.1909376219
 20
7.2380999219
 10
9.1795810244
 20
7.2756027872
 10
9.1693959996
 20
7.3129683582
 10
9.1604016688
 20
7.350126485
 10
9.1526149178
 20
7.387007407
 10
9.1460503654
 20
7.4235418842
 10
9.140720336
 20
7.4596613268
 10
9.1366348361
 20
7.4952979245
 10
9.1338015358
 20
7.5303847732
 10
9.1322257543
 20
7.5648560011
 10
9.13191045
 20
7.5986468919
 10
9.1328562149
 20
7.6316940069
 10
9.1350612733
 20
7.6639353036
 10
9.1385214856
 20
7.6953102522
 10
9.1432303554
 20
7.7257599496
 10
9.1491790424
 20
7.7552272297
 10
9.1563563786
 20
7.7836567706
 10
9.1647488893
 20
7.8109951991
 10
9.1743408184
 20
7.8371911898
 10
9.185114158
 20
7.8621955628
 10
9.1970486824
 20
7.8859613748
 10
9.2101219857
 20
7.908444008
 10
9.2243095241
 20
7.9296012536
 10
9.2395846621
 20
7.9493933912
 10
9.2559187221
 20
7.967783263
 10
9.2732810388
 20
7.984736344
 10
9.291639016
 20
8.0002208065
 10
9.3036603771
 20
8.0091804131
  0
LWPOLYLINE
  5
149
330
1F
100
AcDbEntity
  8
0
  6
Continuous
 62
     7
370
     0
100
AcDbPolyline
 90
       57
 70
   128
 43
0.0
 10
9.0328287039
 20
7.5617175207
 10
9.0339229714
 20
7.5263004073
 10
9.0362998551
 20
7.4902282956
 10
9.0399550372
 20
7.4535667135
 10
9.0448818778
 20
7.41638226
 10
9.0510714269
 20
7.3787424835
 10
9.0585124406
 20
7.3407157599
 10
9.0671914017
 20
7.3023711678
 10
9.0770925442
 20
7.2637783634
 10
9.0881978819
 20
7.2250074538
 10
9.1004872409
 20
7.1861288694
 10
9.1139382966
 20
7.1472132365
 10
9.1285266141
 20
7.1083312484
 10
9.1442256925
 20
7.0695535376
 10
9.1610070131
 20
7.030950547
 10
9.1788400912
 20
6.9925924021
 10
9.1976925317
 20
6.9545487837
 10
9.2175300874
 20
6.9168888011
 10
9.2383167218
 20
6.8796808668
 10
9.2600146743
 20
6.8429925721
 10
9.2825845287
 20
6.8068905643
 10
9.3059852851
 20
6.7714404257
 10
9.330174434
 20
6.7367065545
 10
9.3551080338
 20
6.7027520475
 10
9.3807407906
 20
6.6696385859
 10
9.4070261404
 20
6.6374263232
 10
9.4339163336
 20
6.6061737754
 10
9.461362522
 20
6.5759377156
 10
9.4893148473
 20
6.5467730699
 10
9.5177225318
 20
6.5187328183
 10
9.5465339706
 20
6.4918678984
 10
9.5756968253
 20
6.4662271124
 10
9.6051581192
 20
6.441857039
 10
9.6348643334
 20
6.4188019484
 10
9.6647615041
 20
6.3971037221
 10
9.6947953207
 20
6.3768017767
 10
9.7249112242
 20
6.3579329924
 10
9.7550545065
 20
6.3405316459
 10
9.78517041
 20
6.3246293482
 10
9.8152042266
 20
6.3102549871
 10
9.8451013973
 20
6.2974346748
 10
9.8748076115
 20
6.2861917005
 10
9.9042689054
 20
6.276546488
 10
9.9334317602
 20
6.2685165586
 10
9.962243199
 20
6.2621164994
 10
9.9906508835
 20
6.2573579365
 10
10.0186032088
 20
6.2542495144
 10
10.0460493972
 20
6.2527968797
 10
10.0729395904
 20
6.2530026712
 10
10.0992249401
 20
6.2548665151
 10
10.1248576969
 20
6.2583850256
 10
10.1497912967
 20
6.263551811
 10
10.1739804456
 20
6.2703574854
 10
10.197381202
 20
6.2787896858
 10
10.2199510564
 20
6.2888330943
 10
10.2416490089
 20
6.3004694663
 10
10.2419101807
 20
6.3006223561
  0
LINE
  5
14A
330
1F
100
AcDbEntity
  8
0
  6
Continuous
 62
     7
370
     0
100
AcDbLine
 10
9.0276509689
 20
7.5728706446
 30
0.0
 11
9.0328287039
 21
7.5617175207
 31
0.0
  0
LINE
  5
14B
330
1F
100
AcDbEntity
  8
0
  6
Continuous
 62
     7
370
     0
100
AcDbLine
 10
9.0328287039
 20
7.5617175207
 30
0.0
 11
9.0612432246
 21
7.5453141671
 31
0.0
  0
LWPOLYLINE
  5
14C
330
1F
100
AcDbEntity
  8
0
  6
Continuous
 62
     7
370
     0
100
AcDbPolyline
 90
       61
 70
   128
 43
0.0
 10
10.3166812259
 20
6.4193194655
 10
10.3088263688
 20
6.4095910204
 10
10.2922984511
 20
6.3911636219
 10
10.2747399791
 20
6.3741814787
 10
10.2561837148
 20
6.3586762775
 10
10.2366642819
 20
6.3446769492
 10
10.2162181014
 20
6.3322096148
 10
10.1948833233
 20
6.3212975368
 10
10.1726997558
 20
6.3119610759
 10
10.1497087907
 20
6.3042176528
 10
10.1259533265
 20
6.2980817157
 10
10.1014776878
 20
6.2935647137
 10
10.0763275435
 20
6.2906750748
 10
10.0505498205
 20
6.2894181909
 10
10.024192617
 20
6.289796407
 10
9.9973051123
 20
6.2918090175
 10
9.9699374754
 20
6.2954522671
 10
9.9421407709
 20
6.3007193579
 10
9.9139668641
 20
6.3076004623
 10
9.8854683241
 20
6.3160827407
 10
9.8566983258
 20
6.3261503665
 10
9.8277105505
 20
6.3377845545
 10
9.7985590859
 20
6.3509635967
 10
9.7692983252
 20
6.3656629028
 10
9.7399828654
 20
6.3818550455
 10
9.7106674055
 20
6.3995098123
 10
9.6814066448
 20
6.4185942615
 10
9.6522551802
 20
6.4390727838
 10
9.6232674049
 20
6.4609071687
 10
9.5944974066
 20
6.484056676
 10
9.5659988667
 20
6.5084781114
 10
9.5378249598
 20
6.5341259075
 10
9.5100282553
 20
6.5609522085
 10
9.4826606184
 20
6.58890696
 10
9.4557731138
 20
6.6179380015
 10
9.4294159103
 20
6.6479911648
 10
9.4036381873
 20
6.6790103742
 10
9.3784880429
 20
6.7109377517
 10
9.3540124043
 20
6.7437137246
 10
9.33025694
 20
6.7772771368
 10
9.307265975
 20
6.8115653632
 10
9.2850824075
 20
6.8465144259
 10
9.2637476294
 20
6.8820591144
 10
9.2433014488
 20
6.9181331063
 10
9.223782016
 20
6.9546690922
 10
9.2052257516
 20
6.9915989001
 10
9.1876672796
 20
7.0288536235
 10
9.1711393619
 20
7.0663637497
 10
9.1556728376
 20
7.1040592892
 10
9.1412965654
 20
7.1418699066
 10
9.1280373697
 20
7.1797250521
 10
9.1159199905
 20
7.2175540923
 10
9.1049670374
 20
7.2552864429
 10
9.0951989473
 20
7.2928516998
 10
9.0866339462
 20
7.3301797709
 10
9.0792880155
 20
7.3672010064
 10
9.0731748617
 20
7.4038463292
 10
9.0683058913
 20
7.4400473635
 10
9.0646901892
 20
7.4757365625
 10
9.0623345018
 20
7.5108473345
 10
9.0612432246
 20
7.5453141671
  0
LINE
  5
14D
330
1F
100
AcDbEntity
  8
0
  6
Continuous
 62
     7
370
     0
100
AcDbLine
 10
9.0612432246
 20
7.5453141671
 30
0.0
 11
9.0805626135
 21
7.5483019246
 31
0.0
  0
LINE
  5
14E
330
1F
100
AcDbEntity
  8
0
  6
Continuous
 62
     7
370
     0
100
AcDbLine
 10
9.0382575706
 20
7.5789937055
 30
0.0
 11
9.0859928343
 21
7.5514367243
 31
0.0
  0
LWPOLYLINE
  5
14F
330
1F
100
AcDbEntity
  8
0
  6
Continuous
 62
     7
370
     0
100
AcDbPolyline
 90
      119
 70
   128
 43
0.0
 10
8.8705497257
 20
7.56187008
 10
8.8711805371
 20
7.5976725821
 10
8.8730719481
 20
7.6326886931
 10
8.8762208908
 20
7.6668616167
 10
8.8806222576
 20
7.7001359244
 10
8.8862689094
 20
7.732457645
 10
8.8931516875
 20
7.7637743527
 10
8.9012594278
 20
7.7940352515
 10
8.9105789797
 20
7.8231912583
 10
8.9210952268
 20
7.8511950819
 10
8.9327911116
 20
7.8780013
 10
8.9456476634
 20
7.9035664327
 10
8.9596440288
 20
7.9278490134
 10
8.9747575058
 20
7.9508096556
 10
8.9909635801
 20
7.972411117
 10
9.0082359654
 20
7.9926183601
 10
9.026546646
 20
8.0113986086
 10
9.0458659217
 20
8.0287214008
 10
9.0661624566
 20
8.0445586392
 10
9.0874033298
 20
8.0588846356
 10
9.1095540884
 20
8.0716761533
 10
9.1325788038
 20
8.0829124444
 10
9.1564401299
 20
8.0925752835
 10
9.1810993634
 20
8.1006489975
 10
9.206516507
 20
8.1071204909
 10
9.2326503341
 20
8.1119792667
 10
9.2594584554
 20
8.1152174442
 10
9.2868973881
 20
8.1168297708
 10
9.3149226261
 20
8.1168136315
 10
9.3434887124
 20
8.1151690524
 10
9.3725493127
 20
8.111898701
 10
9.4020572907
 20
8.1070078819
 10
9.4319647841
 20
8.1005045279
 10
9.4622232831
 20
8.0923991876
 10
9.4927837081
 20
8.0827050078
 10
9.5235964901
 20
8.0714377126
 10
9.5546116507
 20
8.0586155774
 10
9.585778883
 20
8.0442593999
 10
9.6170476338
 20
8.0283924659
 10
9.648367185
 20
8.0110405115
 10
9.6796867363
 20
7.9922316818
 10
9.7109554871
 20
7.9719964846
 10
9.7421227194
 20
7.9503677415
 10
9.77313788
 20
7.9273805346
 10
9.803950662
 20
7.903072149
 10
9.834511087
 20
7.8774820131
 10
9.864769586
 20
7.8506516341
 10
9.8946770794
 20
7.8226245311
 10
9.9241850573
 20
7.7934461641
 10
9.9532456577
 20
7.7631638606
 10
9.981811744
 20
7.7318267384
 10
10.009836982
 20
7.6994856267
 10
10.0372759147
 20
7.6661929827
 10
10.064084036
 20
7.6320028072
 10
10.0902178631
 20
7.5969705569
 10
10.1156350067
 20
7.5611530541
 10
10.1402942402
 20
7.5246083951
 10
10.1641555663
 20
7.4873958553
 10
10.1871802817
 20
7.4495757937
 10
10.2093310403
 20
7.4112095545
 10
10.2305719135
 20
7.3723593679
 10
10.2508684484
 20
7.3330882491
 10
10.2701877241
 20
7.2934598959
 10
10.2884984047
 20
7.2535385857
 10
10.30577079
 20
7.213389071
 10
10.3219768643
 20
7.1730764744
 10
10.3370903412
 20
7.1326661832
 10
10.3510867067
 20
7.0922237429
 10
10.3639432585
 20
7.0518147514
 10
10.3756391433
 20
7.0115047522
 10
10.3861553904
 20
6.9713591282
 10
10.3954749423
 20
6.9314429959
 10
10.4035826826
 20
6.8918210992
 10
10.4104654607
 20
6.8525577052
 10
10.4161121125
 20
6.8137164991
 10
10.4205134793
 20
6.7753604815
 10
10.423662422
 20
6.737551866
 10
10.425553833
 20
6.7003519784
 10
10.4261846444
 20
6.6638211569
 10
10.425553833
 20
6.6280186548
 10
10.423662422
 20
6.5930025438
 10
10.4205134793
 20
6.5588296202
 10
10.4161121125
 20
6.5255553125
 10
10.4104654607
 20
6.4932335919
 10
10.4035826826
 20
6.4619168842
 10
10.3954749423
 20
6.4316559854
 10
10.3861553904
 20
6.4024999786
 10
10.3756391433
 20
6.374496155
 10
10.3639432585
 20
6.3476899369
 10
10.3510867067
 20
6.3221248042
 10
10.3370903412
 20
6.2978422235
 10
10.3219768643
 20
6.2748815813
 10
10.30577079
 20
6.2532801199
 10
10.2884984047
 20
6.2330728768
 10
10.2701877241
 20
6.2142926283
 10
10.2508684484
 20
6.1969698361
 10
10.2305719135
 20
6.1811325977
 10
10.2093310403
 20
6.1668066013
 10
10.1871802817
 20
6.1540150836
 10
10.1641555663
 20
6.1427787925
 10
10.1402942402
 20
6.1331159534
 10
10.1156350067
 20
6.1250422394
 10
10.0902178631
 20
6.118570746
 10
10.064084036
 20
6.1137119702
 10
10.0372759147
 20
6.1104737927
 10
10.009836982
 20
6.1088614661
 10
9.981811744
 20
6.1088776054
 10
9.9532456577
 20
6.1105221845
 10
9.9241850573
 20
6.1137925359
 10
9.8946770794
 20
6.118683355
 10
9.864769586
 20
6.125186709
 10
9.834511087
 20
6.1332920493
 10
9.803950662
 20
6.1429862291
 10
9.77313788
 20
6.1542535243
 10
9.7421227194
 20
6.1670756595
 10
9.7109554871
 20
6.181431837
 10
9.6796867363
 20
6.197298771
 10
9.648367185
 20
6.2146507254
 10
9.6482407678
 20
6.2147237163
  0
LWPOLYLINE
  5
150
330
1F
100
AcDbEntity
  8
0
  6
Continuous
 62
     7
370
     0
100
AcDbPolyline
 90
      156
 70
   128
 43
0.0
 10
8.8705497257
 20
7.5537059988
 10
8.8711828929
 20
7.5172715194
 10
8.873081354
 20
7.4801658626
 10
8.87624199
 20
7.4424499927
 10
8.880659608
 20
7.404185877
 10
8.8863269497
 20
7.3654363832
 10
8.8932347037
 20
7.3262651766
 10
8.9013715207
 20
7.2867366155
 10
8.9107240319
 20
7.2469156452
 10
8.9212768711
 20
7.2068676914
 10
8.9330127
 20
7.1666585527
 10
8.9459122367
 20
7.1263542928
 10
8.9599542873
 20
7.0860211314
 10
8.9751157807
 20
7.0457253358
 10
8.9913718067
 20
7.0055331118
 10
9.0086956567
 20
6.9655104952
 10
9.0270588675
 20
6.925723243
 10
9.0464312685
 20
6.8862367257
 10
9.0667810309
 20
6.8471158194
 10
9.08807472
 20
6.8084247996
 10
9.1102773505
 20
6.7702272357
 10
9.1333524434
 20
6.7325858861
 10
9.1572620864
 20
6.6955625955
 10
9.1819669961
 20
6.659218193
 10
9.2074265823
 20
6.6236123923
 10
9.233599015
 20
6.5888036938
 10
9.260441293
 20
6.5548492881
 10
9.2879093145
 20
6.521804962
 10
9.3159579495
 20
6.4897250074
 10
9.3445411144
 20
6.4586621316
 10
9.3736118469
 20
6.4286673707
 10
9.4031223839
 20
6.3997900061
 10
9.4330242398
 20
6.3720774832
 10
9.4632682858
 20
6.3455753337
 10
9.4938048311
 20
6.3203271004
 10
9.5245837042
 20
6.2963742662
 10
9.5555543354
 20
6.2737561855
 10
9.5866658402
 20
6.2525100198
 10
9.6178671024
 20
6.2326706764
 10
9.6491068584
 20
6.2142707513
 10
9.6803337813
 20
6.1973404756
 10
9.7114965655
 20
6.1819076657
 10
9.7425440106
 20
6.1679976776
 10
9.7734251056
 20
6.1556333654
 10
9.804089113
 20
6.1448350436
 10
9.834485652
 20
6.1356204539
 10
9.8645647811
 20
6.1280047358
 10
9.8942770803
 20
6.1220004018
 10
9.9235737325
 20
6.1176173172
 10
9.9524066033
 20
6.1148626833
 10
9.9807283204
 20
6.113741026
 10
10.0084923513
 20
6.1142541881
 10
10.0356530797
 20
6.1164013265
 10
10.0621658806
 20
6.1201789135
 10
10.0879871937
 20
6.1255807425
 10
10.1130745945
 20
6.1325979383
 10
10.1373868645
 20
6.1412189717
 10
10.1608840587
 20
6.1514296783
 10
10.1835275712
 20
6.163213282
 10
10.205280199
 20
6.1765504224
 10
10.2261062023
 20
6.1914191866
 10
10.2459713642
 20
6.2077951451
 10
10.2648430463
 20
6.2256513925
 10
10.2826902424
 20
6.2449585908
 10
10.2994836297
 20
6.2656850185
 10
10.3151956165
 20
6.287796622
 10
10.3298003883
 20
6.3112570721
 10
10.3432739494
 20
6.3360278233
 10
10.3555941627
 20
6.3620681772
 10
10.3667407862
 20
6.3893353498
 10
10.3766955061
 20
6.4177845411
 10
10.3854419667
 20
6.4473690091
 10
10.3929657976
 20
6.4780401466
 10
10.3992546371
 20
6.5097475611
 10
10.4042981529
 20
6.5424391573
 10
10.4080880582
 20
6.5760612231
 10
10.4106181265
 20
6.6105585174
 10
10.4118842007
 20
6.6458743614
 10
10.4118842007
 20
6.6819507311
 10
10.4106181265
 20
6.7187283532
 10
10.4080880582
 20
6.7561468021
 10
10.4042981529
 20
6.7941445995
 10
10.3992546371
 20
6.8326593151
 10
10.3929657976
 20
6.8716276692
 10
10.3854419667
 20
6.910985637
 10
10.3766955061
 20
6.9506685534
 10
10.3667407862
 20
6.9906112195
 10
10.3555941627
 20
7.0307480097
 10
10.3432739494
 20
7.0710129792
 10
10.3298003883
 20
7.1113399729
 10
10.3151956165
 20
7.1516627335
 10
10.2994836297
 20
7.191915011
 10
10.2826902424
 20
7.2320306708
 10
10.2648430463
 20
7.2719438032
 10
10.2459713642
 20
7.3115888309
 10
10.2261062023
 20
7.3509006172
 10
10.205280199
 20
7.389814573
 10
10.1835275712
 20
7.4282667627
 10
10.1608840587
 20
7.4661940096
 10
10.1373868645
 20
7.5035339992
 10
10.1130745945
 20
7.540225382
 10
10.0879871937
 20
7.5762078742
 10
10.0621658806
 20
7.6114223567
 10
10.0356530797
 20
7.6458109721
 10
10.0084923513
 20
7.6793172201
 10
9.9807283204
 20
7.7118860499
 10
9.9524066033
 20
7.7434639511
 10
9.9235737325
 20
7.7739990412
 10
9.8942770803
 20
7.8034411512
 10
9.8645647811
 20
7.8317419078
 10
9.834485652
 20
7.8588548129
 10
9.804089113
 20
7.88473532
 10
9.7734251056
 20
7.9093409077
 10
9.7425440106
 20
7.9326311488
 10
9.7114965655
 20
7.9545677777
 10
9.6803337813
 20
7.9751147526
 10
9.6491068584
 20
7.9942383147
 10
9.6178671024
 20
8.0119070442
 10
9.5866658402
 20
8.0280919113
 10
9.5555543354
 20
8.0427663244
 10
9.5245837042
 20
8.0559061734
 10
9.4938048311
 20
8.0674898696
 10
9.4632682858
 20
8.0774983811
 10
9.4330242398
 20
8.0859152638
 10
9.4031223839
 20
8.0927266888
 10
9.3736118469
 20
8.0979214651
 10
9.3445411144
 20
8.1014910575
 10
9.3159579495
 20
8.1034296013
 10
9.2879093145
 20
8.1037339114
 10
9.260441293
 20
8.1024034879
 10
9.233599015
 20
8.0994405166
 10
9.2074265823
 20
8.0948498658
 10
9.1819669961
 20
8.0886390777
 10
9.1572620864
 20
8.0808183567
 10
9.1333524434
 20
8.0714005523
 10
9.1102773505
 20
8.0604011379
 10
9.08807472
 20
8.0478381855
 10
9.0667810309
 20
8.033732336
 10
9.0464312685
 20
8.0181067652
 10
9.0270588675
 20
8.0009871459
 10
9.0086956567
 20
7.9824016057
 10
8.9913718067
 20
7.9623806805
 10
8.9751157807
 20
7.9409572646
 10
8.9599542873
 20
7.9181665567
 10
8.9459122367
 20
7.8940460018
 10
8.9330127
 20
7.86863523
 10
8.9212768711
 20
7.841975991
 10
8.9107240319
 20
7.8141120859
 10
8.9013715207
 20
7.7850892951
 10
8.8932347037
 20
7.754955303
 10
8.8863269497
 20
7.7237596195
 10
8.880659608
 20
7.6915534991
 10
8.87624199
 20
7.6583898565
 10
8.873081354
 20
7.6243231793
 10
8.8711828929
 20
7.589409439
 10
8.8705497257
 20
7.5537059988
  0
LWPOLYLINE
  5
151
330
1F
100
AcDbEntity
  8
0
  6
Continuous
 62
     7
370
     0
100
AcDbPolyline
 90
       60
 70
   128
 43
0.0
 10
10.6878141534
 20
6.8148566576
 10
10.687183342
 20
6.8513874791
 10
10.685291931
 20
6.8885873667
 10
10.6821429884
 20
6.9263959822
 10
10.6777416216
 20
6.9647519997
 10
10.6720949697
 20
7.0035932059
 10
10.6652121916
 20
7.0428565999
 10
10.6571044513
 20
7.0824784966
 10
10.6477848994
 20
7.1223946289
 10
10.6372686524
 20
7.1625402529
 10
10.6255727676
 20
7.2028502521
 10
10.6127162157
 20
7.2432592436
 10
10.5987198503
 20
7.2837016839
 10
10.5836063733
 20
7.3241119751
 10
10.5674002991
 20
7.3644245717
 10
10.5501279137
 20
7.4045740864
 10
10.5318172332
 20
7.4444953966
 10
10.5124979575
 20
7.4841237498
 10
10.4922014225
 20
7.5233948686
 10
10.4709605493
 20
7.5622450552
 10
10.4488097907
 20
7.6006112944
 10
10.4257850753
 20
7.638431356
 10
10.4019237493
 20
7.6756438958
 10
10.3772645158
 20
7.7121885548
 10
10.3518473721
 20
7.7480060576
 10
10.325713545
 20
7.7830383079
 10
10.2989054237
 20
7.8172284833
 10
10.271466491
 20
7.8505211273
 10
10.243441253
 20
7.8828622391
 10
10.2148751667
 20
7.9141993612
 10
10.1858145664
 20
7.9444816648
 10
10.1563065885
 20
7.9736600318
 10
10.126399095
 20
8.0016871348
 10
10.0961405961
 20
8.0285175137
 10
10.065580171
 20
8.0541076497
 10
10.034767389
 20
8.0784160352
 10
10.0037522285
 20
8.1014032422
 10
9.9725849961
 20
8.1230319853
 10
9.9413162453
 20
8.1432671824
 10
9.9099966941
 20
8.1620760122
 10
9.8786771429
 20
8.1794279666
 10
9.847408392
 20
8.1952949006
 10
9.8162411597
 20
8.2096510781
 10
9.7852259992
 20
8.2224732133
 10
9.7544132172
 20
8.2337405085
 10
9.7238527921
 20
8.2434346883
 10
9.6935942932
 20
8.2515400286
 10
9.6636867997
 20
8.2580433826
 10
9.6341788218
 20
8.2629342017
 10
9.6051182215
 20
8.2662045531
 10
9.5765521352
 20
8.2678491322
 10
9.5485268971
 20
8.2678652715
 10
9.5210879644
 20
8.2662529448
 10
9.4942798431
 20
8.2630147674
 10
9.4681460161
 20
8.2581559916
 10
9.4427288724
 20
8.2516844982
 10
9.4180696389
 20
8.2436107842
 10
9.3942083128
 20
8.2339479451
 10
9.3711835974
 20
8.222711654
 10
9.3600413911
 20
8.2165348678
  0
LWPOLYLINE
  5
152
330
1F
100
AcDbEntity
  8
0
  6
Continuous
 62
     7
370
     0
100
AcDbPolyline
 90
       21
 70
   128
 43
0.0
 10
10.459951997
 20
6.3112273705
 10
10.4709605493
 20
6.317842102
 10
10.4922014225
 20
6.3321680984
 10
10.5124979575
 20
6.3480053368
 10
10.5318172332
 20
6.365328129
 10
10.5501279137
 20
6.3841083775
 10
10.5674002991
 20
6.4043156206
 10
10.5836063733
 20
6.425917082
 10
10.5987198503
 20
6.4488777242
 10
10.6127162157
 20
6.4731603049
 10
10.6255727676
 20
6.4987254376
 10
10.6372686524
 20
6.5255316557
 10
10.6477848994
 20
6.5535354792
 10
10.6571044513
 20
6.582691486
 10
10.6652121916
 20
6.6129523849
 10
10.6720949697
 20
6.6442690926
 10
10.6777416216
 20
6.6765908132
 10
10.6821429884
 20
6.7098651209
 10
10.685291931
 20
6.7440380445
 10
10.687183342
 20
6.7790541555
 10
10.6878141534
 20
6.8148566576
  0
LWPOLYLINE
  5
153
330
1F
100
AcDbEntity
  8
0
  6
Continuous
 62
     7
370
     0
100
AcDbPolyline
 90
      152
 70
   128
 43
0.0
 10
8.9095675187
 20
7.5311815064
 10
8.910200897
 20
7.565965475
 10
8.9120999356
 20
7.599957943
 10
8.9152613467
 20
7.6331000633
 10
8.9196796575
 20
7.6653344608
 10
8.925347219
 20
7.6966053318
 10
8.9322542197
 20
7.7268585406
 10
8.9403887022
 20
7.7560417135
 10
8.9497365842
 20
7.784104329
 10
8.9602816829
 20
7.8109978055
 10
8.9720057428
 20
7.8366755855
 10
8.9848884673
 20
7.861093216
 10
8.9989075541
 20
7.8842084256
 10
9.0140387335
 20
7.9059811977
 10
9.0302558108
 20
7.9263738395
 10
9.0475307112
 20
7.9453510477
 10
9.0658335286
 20
7.9628799693
 10
9.0851325775
 20
7.9789302583
 10
9.1053944478
 20
7.993474129
 10
9.1265840623
 20
8.006486403
 10
9.148664738
 20
8.0179445539
 10
9.1715982491
 20
8.0278287453
 10
9.1953448936
 20
8.0361218661
 10
9.2198635617
 20
8.0428095592
 10
9.2451118069
 20
8.047880247
 10
9.27104592
 20
8.0513251513
 10
9.2976210042
 20
8.0531383082
 10
9.3247910532
 20
8.053316579
 10
9.3525090307
 20
8.0518596548
 10
9.3807269517
 20
8.048770058
 10
9.4093959658
 20
8.0440531373
 10
9.4384664417
 20
8.0377170584
 10
9.467888053
 20
8.0297727903
 10
9.4976098656
 20
8.0202340859
 10
9.5275804254
 20
8.0091174586
 10
9.5577478481
 20
7.9964421533
 10
9.5880599081
 20
7.9822301131
 10
9.6184641298
 20
7.9665059419
 10
9.6489078779
 20
7.949296861
 10
9.6793384486
 20
7.9306326625
 10
9.7097031611
 20
7.9105456575
 10
9.7399494484
 20
7.8890706204
 10
9.7700249486
 20
7.8662447284
 10
9.7998775956
 20
7.8421074973
 10
9.8294557089
 20
7.8167007131
 10
9.8587080833
 20
7.7900683596
 10
9.8875840777
 20
7.7622565422
 10
9.9160337024
 20
7.7333134085
 10
9.9440077058
 20
7.7032890642
 10
9.9714576598
 20
7.672235487
 10
9.9983360434
 20
7.6402064364
 10
10.0245963254
 20
7.6072573605
 10
10.0501930442
 20
7.5734453003
 10
10.0750818873
 20
7.5388287906
 10
10.0992197676
 20
7.5034677589
 10
10.1225648978
 20
7.4674234218
 10
10.1450768633
 20
7.4307581786
 10
10.1667166917
 20
7.3935355035
 10
10.1874469205
 20
7.3558198359
 10
10.2072316619
 20
7.3176764685
 10
10.2260366649
 20
7.2791714345
 10
10.2438293745
 20
7.2403713931
 10
10.2605789883
 20
7.2013435145
 10
10.2762565097
 20
7.1621553629
 10
10.2908347979
 20
7.1228747804
 10
10.3042886152
 20
7.0835697688
 10
10.3165946707
 20
7.0443083723
 10
10.3277316603
 20
7.0051585596
 10
10.3376803037
 20
6.9661881062
 10
10.3464233782
 20
6.9274644772
 10
10.3539457478
 20
6.8890547103
 10
10.3602343898
 20
6.8510252997
 10
10.3652784176
 20
6.8134420816
 10
10.369069099
 20
6.7763701192
 10
10.3715998715
 20
6.7398735909
 10
10.3728663541
 20
6.7040156791
 10
10.3728663541
 20
6.6688584602
 10
10.3715998715
 20
6.634462798
 10
10.369069099
 20
6.6008882375
 10
10.3652784176
 20
6.5681929027
 10
10.3602343898
 20
6.536433395
 10
10.3539457478
 20
6.5056646961
 10
10.3464233782
 20
6.4759400722
 10
10.3376803037
 20
6.447310982
 10
10.3277316603
 20
6.4198269879
 10
10.3165946707
 20
6.3935356697
 10
10.3042886152
 20
6.3684825424
 10
10.2908347979
 20
6.3447109777
 10
10.2762565097
 20
6.3222621284
 10
10.2605789883
 20
6.3011748577
 10
10.2438293745
 20
6.2814856715
 10
10.2260366649
 20
6.2632286554
 10
10.2072316619
 20
6.2464354157
 10
10.1874469205
 20
6.2311350245
 10
10.1667166917
 20
6.2173539697
 10
10.1450768633
 20
6.2051161087
 10
10.1225648978
 20
6.1944426276
 10
10.0992197676
 20
6.1853520041
 10
10.0750818873
 20
6.1778599757
 10
10.0501930442
 20
6.1719795126
 10
10.0245963254
 20
6.1677207949
 10
9.9983360434
 20
6.1650911951
 10
9.9714576598
 20
6.1640952658
 10
9.9440077058
 20
6.1647347309
 10
9.9160337024
 20
6.1670084834
 10
9.8875840777
 20
6.1709125871
 10
9.8587080833
 20
6.1764402833
 10
9.8294557089
 20
6.1835820024
 10
9.7998775956
 20
6.1923253808
 10
9.7700249486
 20
6.2026552823
 10
9.7399494484
 20
6.2145538237
 10
9.7097031611
 20
6.2280004066
 10
9.6793384486
 20
6.2429717524
 10
9.6489078779
 20
6.259441943
 10
9.6184641298
 20
6.2773824654
 10
9.5880599081
 20
6.2967622613
 10
9.5577478481
 20
6.3175477808
 10
9.5275804254
 20
6.3397030402
 10
9.4976098656
 20
6.3631896848
 10
9.467888053
 20
6.3879670548
 10
9.4384664417
 20
6.4139922561
 10
9.4093959658
 20
6.4412202342
 10
9.3807269517
 20
6.4696038526
 10
9.3525090307
 20
6.4990939739
 10
9.3247910532
 20
6.5296395453
 10
9.2976210042
 20
6.5611876869
 10
9.27104592
 20
6.593683783
 10
9.2451118069
 20
6.6270715769
 10
9.2198635617
 20
6.6612932682
 10
9.1953448936
 20
6.6962896129
 10
9.1715982491
 20
6.7320000257
 10
9.148664738
 20
6.7683626856
 10
9.1265840623
 20
6.8053146419
 10
9.1053944478
 20
6.8427919241
 10
9.0851325775
 20
6.8807296522
 10
9.0658335286
 20
6.9190621489
 10
9.0475307112
 20
6.9577230536
 10
9.0302558108
 20
6.9966454372
 10
9.0140387335
 20
7.035761918
 10
8.9989075541
 20
7.075004778
 10
8.9848884673
 20
7.1143060807
 10
8.9720057428
 20
7.1535977883
 10
8.9602816829
 20
7.1928118797
 10
8.9497365842
 20
7.231880468
 10
8.9403887022
 20
7.2707359183
 10
8.9322542197
 20
7.3093109648
 10
8.925347219
 20
7.3475388268
 10
8.9196796575
 20
7.3853533251
 10
8.9152613467
 20
7.4226889956
 10
8.9120999356
 20
7.4594812035
 10
8.910200897
 20
7.4956662548
 10
8.9095675187
 20
7.5311815064
  0
LWPOLYLINE
  5
154
330
1F
100
AcDbEntity
  8
0
  6
Continuous
 62
     7
370
     0
100
AcDbPolyline
 90
      151
 70
   128
 43
0.0
 10
8.9288860352
 20
7.5281932453
 10
8.9295171424
 20
7.493037354
 10
8.9314093568
 20
7.4572144771
 10
8.934559359
 20
7.4207874602
 10
8.9389616225
 20
7.3838202087
 10
8.9446084245
 20
7.3463775757
 10
8.9514898585
 20
7.3085252483
 10
8.9595938522
 20
7.2703296323
 10
8.9689061883
 20
7.2318577358
 10
8.9794105299
 20
7.1931770517
 10
8.9910884487
 20
7.1543554389
 10
9.0039194578
 20
7.1154610038
 10
9.0178810473
 20
7.0765619804
 10
9.0329487236
 20
7.0377266108
 10
9.049096053
 20
6.9990230255
 10
9.0662947077
 20
6.9605191237
 10
9.0845145152
 20
6.9222824544
 10
9.103723512
 20
6.8843800976
 10
9.1238879988
 20
6.8468785469
 10
9.1449726003
 20
6.8098435929
 10
9.166940327
 20
6.7733402074
 10
9.18975264
 20
6.7374324297
 10
9.2133695187
 20
6.7021832543
 10
9.2377495311
 20
6.6676545203
 10
9.2628499065
 20
6.6339068027
 10
9.2886266101
 20
6.6009993066
 10
9.315034421
 20
6.5689897628
 10
9.3420270108
 20
6.537934327
 10
9.3695570253
 20
6.5078874809
 10
9.3975761676
 20
6.478901937
 10
9.4260352826
 20
6.4510285457
 10
9.4548844433
 20
6.4243162065
 10
9.4840730384
 20
6.3988117818
 10
9.5135498614
 20
6.3745600151
 10
9.5432631997
 20
6.3516034522
 10
9.5731609261
 20
6.3299823667
 10
9.6031905899
 20
6.3097346894
 10
9.6332995087
 20
6.2908959416
 10
9.6634348614
 20
6.2734991728
 10
9.6935437802
 20
6.2575749028
 10
9.723573444
 20
6.2431510684
 10
9.7534711704
 20
6.2302529737
 10
9.7831845087
 20
6.2189032464
 10
9.8126613316
 20
6.2091217978
 10
9.8418499268
 20
6.2009257878
 10
9.8706990875
 20
6.1943295952
 10
9.8991582025
 20
6.1893447917
 10
9.9271773448
 20
6.1859801225
 10
9.9547073593
 20
6.1842414903
 10
9.9816999491
 20
6.1841319453
 10
10.00810776
 20
6.1856516797
 10
10.0338844636
 20
6.1887980273
 10
10.058984839
 20
6.1935654683
 10
10.0833648514
 20
6.1999456392
 10
10.1069817301
 20
6.2079273468
 10
10.1297940431
 20
6.2174965885
 10
10.1517617698
 20
6.2286365767
 10
10.1728463713
 20
6.241327768
 10
10.1930108581
 20
6.2555478977
 10
10.2122198549
 20
6.271272019
 10
10.2304396624
 20
6.2884725463
 10
10.2476383171
 20
6.3071193041
 10
10.2637856465
 20
6.3271795796
 10
10.2788533228
 20
6.3486181804
 10
10.2928149122
 20
6.3713974958
 10
10.3056459214
 20
6.3954775631
 10
10.3173238402
 20
6.4208161378
 10
10.3278281818
 20
6.4473687673
 10
10.3371405179
 20
6.4750888693
 10
10.3452445115
 20
6.5039278134
 10
10.3521259456
 20
6.5338350063
 10
10.3577727476
 20
6.5647579805
 10
10.3621750111
 20
6.5966424866
 10
10.3653250132
 20
6.6294325885
 10
10.3672172277
 20
6.663070761
 10
10.3678483349
 20
6.6974979916
 10
10.3672172277
 20
6.7326538829
 10
10.3653250132
 20
6.7684767598
 10
10.3621750111
 20
6.8049037767
 10
10.3577727476
 20
6.8418710282
 10
10.3521259456
 20
6.8793136612
 10
10.3452445115
 20
6.9171659886
 10
10.3371405179
 20
6.9553616046
 10
10.3278281818
 20
6.9938335011
 10
10.3173238402
 20
7.0325141852
 10
10.3056459214
 20
7.071335798
 10
10.2928149122
 20
7.1102302331
 10
10.2788533228
 20
7.1491292565
 10
10.2637856465
 20
7.1879646261
 10
10.2476383171
 20
7.2266682114
 10
10.2304396624
 20
7.2651721132
 10
10.2122198549
 20
7.3034087825
 10
10.1930108581
 20
7.3413111393
 10
10.1728463713
 20
7.37881269
 10
10.1517617698
 20
7.415847644
 10
10.1297940431
 20
7.4523510296
 10
10.1069817301
 20
7.4882588072
 10
10.0833648514
 20
7.5235079826
 10
10.058984839
 20
7.5580367166
 10
10.0338844636
 20
7.5917844342
 10
10.00810776
 20
7.6246919303
 10
9.9816999491
 20
7.6567014741
 10
9.9547073593
 20
7.6877569099
 10
9.9271773448
 20
7.717803756
 10
9.8991582025
 20
7.7467892999
 10
9.8706990875
 20
7.7746626912
 10
9.8418499268
 20
7.8013750304
 10
9.8126613316
 20
7.8268794551
 10
9.7831845087
 20
7.8511312218
 10
9.7534711704
 20
7.8740877847
 10
9.723573444
 20
7.8957088702
 10
9.6935437802
 20
7.9159565475
 10
9.6634348614
 20
7.9347952953
 10
9.6332995087
 20
7.9521920641
 10
9.6031905899
 20
7.9681163341
 10
9.5731609261
 20
7.9825401685
 10
9.5432631997
 20
7.9954382632
 10
9.5135498614
 20
8.0067879905
 10
9.4840730384
 20
8.0165694391
 10
9.4548844433
 20
8.0247654491
 10
9.4260352826
 20
8.0313616417
 10
9.3975761676
 20
8.0363464452
 10
9.3695570253
 20
8.0397111144
 10
9.3420270108
 20
8.0414497466
 10
9.315034421
 20
8.0415592916
 10
9.2886266101
 20
8.0400395572
 10
9.2628499065
 20
8.0368932096
 10
9.2377495311
 20
8.0321257686
 10
9.2133695187
 20
8.0257455977
 10
9.18975264
 20
8.0177638901
 10
9.166940327
 20
8.0081946484
 10
9.1449726003
 20
7.9970546602
 10
9.1238879988
 20
7.9843634689
 10
9.103723512
 20
7.9701433392
 10
9.0845145152
 20
7.9544192179
 10
9.0662947077
 20
7.9372186906
 10
9.049096053
 20
7.9185719328
 10
9.0329487236
 20
7.8985116573
 10
9.0178810473
 20
7.8770730565
 10
9.0039194578
 20
7.8542937411
 10
8.9910884487
 20
7.8302136738
 10
8.9794105299
 20
7.8048750991
 10
8.9689061883
 20
7.7783224696
 10
8.9595938522
 20
7.7506023676
 10
8.9514898585
 20
7.7217634235
 10
8.9446084245
 20
7.6918562307
 10
8.9389616225
 20
7.6609332565
 10
8.934559359
 20
7.6290487503
 10
8.9314093568
 20
7.5962586484
 10
8.9295171424
 20
7.5626204759
 10
8.9288860352
 20
7.5281932453
  0
ARC
  5
155
330
1F
100
AcDbEntity
  8
0
  6
Continuous
 62
     7
370
     0
100
AcDbCircle
 10
9.0162407112
 20
6.7479267726
 30
0.0
 40
1.67325935719637
100
AcDbArc
 50
2.5722330061
 51
57.4223904612
  0
LWPOLYLINE
  5
156
330
1F
100
AcDbEntity
  8
0
  6
Continuous
 62
     7
370
     0
100
AcDbPolyline
 90
       47
 70
   128
 43
0.0
 10
10.7143306577
 20
6.897517979
 10
10.7136995505
 20
6.9326738703
 10
10.711807336
 20
6.9684967472
 10
10.7086573339
 20
7.0049237641
 10
10.7042550703
 20
7.0418910156
 10
10.6986082683
 20
7.0793336486
 10
10.6917268343
 20
7.117185976
 10
10.6836228407
 20
7.155381592
 10
10.6743105046
 20
7.1938534885
 10
10.663806163
 20
7.2325341726
 10
10.6521282441
 20
7.2713557854
 10
10.639297235
 20
7.3102502205
 10
10.6253356456
 20
7.3491492439
 10
10.6102679693
 20
7.3879846135
 10
10.5941206398
 20
7.4266881988
 10
10.5769219852
 20
7.4651921006
 10
10.5587021776
 20
7.5034287699
 10
10.5394931809
 20
7.5413311267
 10
10.5193286941
 20
7.5788326774
 10
10.4982440926
 20
7.6158676314
 10
10.4762763659
 20
7.6523710169
 10
10.4534640529
 20
7.6882787946
 10
10.4298471742
 20
7.72352797
 10
10.4054671617
 20
7.758056704
 10
10.3803667864
 20
7.7918044216
 10
10.3545900828
 20
7.8247119177
 10
10.3281822719
 20
7.8567214615
 10
10.3011896821
 20
7.8877768973
 10
10.2736596676
 20
7.9178237434
 10
10.2456405252
 20
7.9468092873
 10
10.2171814103
 20
7.9746826786
 10
10.1883322496
 20
8.0013950178
 10
10.1591436544
 20
8.0268994425
 10
10.1296668315
 20
8.0511512092
 10
10.0999534932
 20
8.0741077721
 10
10.0700557668
 20
8.0957288576
 10
10.040026103
 20
8.1159765349
 10
10.0099171842
 20
8.1348152827
 10
9.9797818315
 20
8.1522120515
 10
9.9496729126
 20
8.1681363215
 10
9.9196432489
 20
8.1825601559
 10
9.8897455225
 20
8.1954582506
 10
9.8600321841
 20
8.2068079779
 10
9.8305553612
 20
8.2165894265
 10
9.8013667661
 20
8.2247854365
 10
9.7725176054
 20
8.2313816291
 10
9.7487381241
 20
8.2356533298
  0
ARC
  5
157
330
1F
100
AcDbEntity
  8
0
  6
Continuous
 62
     7
370
     0
100
AcDbCircle
 10
9.9938318922
 20
6.8849886812
 30
0.0
 40
0.7206076979277519
100
AcDbArc
 50
339.9782748456
 51
0.9962592106
  0
LINE
  5
158
330
1F
100
AcDbEntity
  8
0
  6
Continuous
 62
     7
370
     0
100
AcDbLine
 10
7.2558754448
 20
4.2585671633
 30
0.0
 11
7.2558754448
 21
4.2201416238
 31
0.0
  0
ARC
  5
159
330
1F
100
AcDbEntity
  8
0
  6
Continuous
 62
     7
370
     0
100
AcDbCircle
 10
20.842489618
 20
4.2585671633
 30
0.0
 40
13.58661417322834
100
AcDbArc
 50
175.9018370414
 51
180.0810217301
  0
LINE
  5
15A
330
1F
100
AcDbEntity
  8
0
  6
Continuous
 62
     7
370
     0
100
AcDbLine
 10
7.3019603237
 20
5.2393543935
 30
0.0
 11
7.290615401
 21
5.2295408484
 31
0.0
  0
LINE
  5
15B
330
1F
100
AcDbEntity
  8
0
  6
Continuous
 62
     7
370
     0
100
AcDbLine
 10
7.3019603237
 20
5.2393543935
 30
0.0
 11
7.3995898165
 21
5.2393543935
 31
0.0
  0
LINE
  5
15C
330
1F
100
AcDbEntity
  8
0
  6
Continuous
 62
     7
370
     0
100
AcDbLine
 10
7.4094323362
 20
5.2295118738
 30
0.0
 11
7.3995898165
 21
5.2393543935
 31
0.0
  0
LINE
  5
15D
330
1F
100
AcDbEntity
  8
0
  6
Continuous
 62
     7
370
     0
100
AcDbLine
 10
7.4094323362
 20
5.2295118738
 30
0.0
 11
7.4094323362
 21
3.2491969132
 31
0.0
  0
LINE
  5
15E
330
1F
100
AcDbEntity
  8
0
  6
Continuous
 62
     7
370
     0
100
AcDbLine
 10
7.3995898165
 20
3.2393543935
 30
0.0
 11
7.4094323362
 21
3.2491969132
 31
0.0
  0
LINE
  5
15F
330
1F
100
AcDbEntity
  8
0
  6
Continuous
 62
     7
370
     0
100
AcDbLine
 10
7.3995898165
 20
3.2393543935
 30
0.0
 11
7.3019603237
 21
3.2393543935
 31
0.0
  0
LINE
  5
160
330
1F
100
AcDbEntity
  8
0
  6
Continuous
 62
     7
370
     0
100
AcDbLine
 10
7.290615401
 20
3.2491679386
 30
0.0
 11
7.3019603237
 21
3.2393543935
 31
0.0
  0
ARC
  5
161
330
1F
100
AcDbEntity
  8
0
  6
Continuous
 62
     7
370
     0
100
AcDbCircle
 10
20.842489618
 20
4.2201416238
 30
0.0
 40
13.58661417322834
100
AcDbArc
 50
179.9189782699
 51
184.0981629586
  0
LINE
  5
162
330
1F
100
AcDbEntity
  8
0
  6
Continuous
 62
     7
370
     0
100
AcDbLine
 10
7.2716759658
 20
3.2218543935
 30
0.0
 11
7.2889964739
 21
3.2318543935
 31
0.0
  0
LINE
  5
163
330
1F
100
AcDbEntity
  8
0
  6
Continuous
 62
     7
370
     0
100
AcDbLine
 10
7.2716759658
 20
3.2218543935
 30
0.0
 11
7.1989964739
 21
3.2218543935
 31
0.0
  0
LINE
  5
164
330
1F
100
AcDbEntity
  8
0
  6
Continuous
 62
     7
370
     0
100
AcDbLine
 10
7.1889964739
 20
3.2391749016
 30
0.0
 11
7.1989964739
 21
3.2218543935
 31
0.0
  0
LINE
  5
165
330
1F
100
AcDbEntity
  8
0
  6
Continuous
 62
     7
370
     0
100
AcDbLine
 10
7.1889964739
 20
3.2391749016
 30
0.0
 11
7.1889964739
 21
3.2793543935
 31
0.0
  0
LINE
  5
166
330
1F
100
AcDbEntity
  8
0
  6
Continuous
 62
     7
370
     0
100
AcDbLine
 10
7.2063169819
 20
3.2893543935
 30
0.0
 11
7.1889964739
 21
3.2793543935
 31
0.0
  0
LINE
  5
167
330
1F
100
AcDbEntity
  8
0
  6
Continuous
 62
     7
370
     0
100
AcDbLine
 10
7.2063169819
 20
3.2893543935
 30
0.0
 11
7.2789964739
 21
3.2893543935
 31
0.0
  0
LINE
  5
168
330
1F
100
AcDbEntity
  8
0
  6
Continuous
 62
     7
370
     0
100
AcDbLine
 10
7.2889964739
 20
3.2720338855
 30
0.0
 11
7.2789964739
 21
3.2893543935
 31
0.0
  0
LINE
  5
169
330
1F
100
AcDbEntity
  8
0
  6
Continuous
 62
     7
370
     0
100
AcDbLine
 10
7.2889964739
 20
3.2720338855
 30
0.0
 11
7.2889964739
 21
3.2318543935
 31
0.0
  0
LINE
  5
16A
330
1F
100
AcDbEntity
  8
0
  6
Continuous
 62
     7
370
     0
100
AcDbLine
 10
7.1889964739
 20
5.1993543935
 30
0.0
 11
7.2063169819
 21
5.1893543935
 31
0.0
  0
LINE
  5
16B
330
1F
100
AcDbEntity
  8
0
  6
Continuous
 62
     7
370
     0
100
AcDbLine
 10
7.1889964739
 20
5.1993543935
 30
0.0
 11
7.1889964739
 21
5.2395338855
 31
0.0
  0
LINE
  5
16C
330
1F
100
AcDbEntity
  8
0
  6
Continuous
 62
     7
370
     0
100
AcDbLine
 10
7.1989964739
 20
5.2568543935
 30
0.0
 11
7.1889964739
 21
5.2395338855
 31
0.0
  0
LINE
  5
16D
330
1F
100
AcDbEntity
  8
0
  6
Continuous
 62
     7
370
     0
100
AcDbLine
 10
7.1989964739
 20
5.2568543935
 30
0.0
 11
7.2716759658
 21
5.2568543935
 31
0.0
  0
LINE
  5
16E
330
1F
100
AcDbEntity
  8
0
  6
Continuous
 62
     7
370
     0
100
AcDbLine
 10
7.2889964739
 20
5.2468543935
 30
0.0
 11
7.2716759658
 21
5.2568543935
 31
0.0
  0
LINE
  5
16F
330
1F
100
AcDbEntity
  8
0
  6
Continuous
 62
     7
370
     0
100
AcDbLine
 10
7.2889964739
 20
5.2468543935
 30
0.0
 11
7.2889964739
 21
5.2066749016
 31
0.0
  0
LINE
  5
170
330
1F
100
AcDbEntity
  8
0
  6
Continuous
 62
     7
370
     0
100
AcDbLine
 10
7.2789964739
 20
5.1893543935
 30
0.0
 11
7.2889964739
 21
5.2066749016
 31
0.0
  0
LINE
  5
171
330
1F
100
AcDbEntity
  8
0
  6
Continuous
 62
     7
370
     0
100
AcDbLine
 10
7.2789964739
 20
5.1893543935
 30
0.0
 11
7.2063169819
 21
5.1893543935
 31
0.0
  0
LINE
  5
172
330
1F
100
AcDbEntity
  8
0
  6
Continuous
 62
     7
370
     0
100
AcDbLine
 10
7.2789964739
 20
3.2893543935
 30
0.0
 11
7.2789964739
 21
3.4278421724
 31
0.0
  0
LINE
  5
173
330
1F
100
AcDbEntity
  8
0
  6
Continuous
 62
     7
370
     0
100
AcDbLine
 10
7.2789964739
 20
5.0508666146
 30
0.0
 11
7.2789964739
 21
5.1893543935
 31
0.0
  0
LINE
  5
174
330
1F
100
AcDbEntity
  8
0
  6
Continuous
 62
     7
370
     0
100
AcDbLine
 10
7.2139964739
 20
4.2243543935
 30
0.0
 11
7.2063169819
 21
4.2243543935
 31
0.0
  0
LINE
  5
175
330
1F
100
AcDbEntity
  8
0
  6
Continuous
 62
     7
370
     0
100
AcDbLine
 10
7.2139964739
 20
4.2243543935
 30
0.0
 11
7.2139964739
 21
4.2543543935
 31
0.0
  0
LINE
  5
176
330
1F
100
AcDbEntity
  8
0
  6
Continuous
 62
     7
370
     0
100
AcDbLine
 10
7.2063169819
 20
4.2543543935
 30
0.0
 11
7.2139964739
 21
4.2543543935
 31
0.0
  0
LINE
  5
177
330
1F
100
AcDbEntity
  8
0
  6
Continuous
 62
     7
370
     0
100
AcDbLine
 10
7.2063169819
 20
5.1893543935
 30
0.0
 11
7.2063169819
 21
4.2543543935
 31
0.0
  0
LINE
  5
178
330
1F
100
AcDbEntity
  8
0
  6
Continuous
 62
     7
370
     0
100
AcDbLine
 10
7.2063169819
 20
4.2243543935
 30
0.0
 11
7.2063169819
 21
3.2893543935
 31
0.0
  0
LINE
  5
179
330
1F
100
AcDbEntity
  8
0
  6
Continuous
 62
     7
370
     0
100
AcDbLine
 10
7.2063169819
 20
4.2543543935
 30
0.0
 11
7.1889964739
 21
4.2543543935
 31
0.0
  0
LINE
  5
17A
330
1F
100
AcDbEntity
  8
0
  6
Continuous
 62
     7
370
     0
100
AcDbLine
 10
7.1889964739
 20
4.2543543935
 30
0.0
 11
7.1889964739
 21
5.1993543935
 31
0.0
  0
LINE
  5
17B
330
1F
100
AcDbEntity
  8
0
  6
Continuous
 62
     7
370
     0
100
AcDbLine
 10
7.1889964739
 20
3.2793543935
 30
0.0
 11
7.1889964739
 21
4.2243543935
 31
0.0
  0
LINE
  5
17C
330
1F
100
AcDbEntity
  8
0
  6
Continuous
 62
     7
370
     0
100
AcDbLine
 10
7.1889964739
 20
4.2243543935
 30
0.0
 11
7.2063169819
 21
4.2243543935
 31
0.0
  0
LINE
  5
17D
330
1F
100
AcDbEntity
  8
0
  6
Continuous
 62
     7
370
     0
100
AcDbLine
 10
7.0594323362
 20
3.2218543935
 30
0.0
 11
7.0494323362
 21
3.2045338855
 31
0.0
  0
LINE
  5
17E
330
1F
100
AcDbEntity
  8
0
  6
Continuous
 62
     7
370
     0
100
AcDbLine
 10
7.0594323362
 20
3.2218543935
 30
0.0
 11
7.3994323362
 21
3.2218543935
 31
0.0
  0
LINE
  5
17F
330
1F
100
AcDbEntity
  8
0
  6
Continuous
 62
     7
370
     0
100
AcDbLine
 10
7.3994323362
 20
3.2218543935
 30
0.0
 11
7.3994323362
 21
3.2118543935
 31
0.0
  0
LINE
  5
180
330
1F
100
AcDbEntity
  8
0
  6
Continuous
 62
     7
370
     0
100
AcDbLine
 10
7.3994323362
 20
3.2118543935
 30
0.0
 11
7.4094323362
 21
3.2118543935
 31
0.0
  0
LINE
  5
181
330
1F
100
AcDbEntity
  8
0
  6
Continuous
 62
     7
370
     0
100
AcDbLine
 10
7.4094323362
 20
3.2118543935
 30
0.0
 11
7.4094323362
 21
3.2893543935
 31
0.0
  0
LINE
  5
182
330
1F
100
AcDbEntity
  8
0
  6
Continuous
 62
     7
370
     0
100
AcDbLine
 10
7.4094323362
 20
3.2893543935
 30
0.0
 11
7.5594323362
 21
3.2893543935
 31
0.0
  0
LINE
  5
183
330
1F
100
AcDbEntity
  8
0
  6
Continuous
 62
     7
370
     0
100
AcDbLine
 10
7.5594323362
 20
3.2893543935
 30
0.0
 11
7.5594323362
 21
3.2391749016
 31
0.0
  0
LINE
  5
184
330
1F
100
AcDbEntity
  8
0
  6
Continuous
 62
     7
370
     0
100
AcDbLine
 10
7.5494323362
 20
3.2218543935
 30
0.0
 11
7.5594323362
 21
3.2391749016
 31
0.0
  0
LINE
  5
185
330
1F
100
AcDbEntity
  8
0
  6
Continuous
 62
     7
370
     0
100
AcDbLine
 10
7.5494323362
 20
3.2218543935
 30
0.0
 11
7.4494323362
 21
3.2218543935
 31
0.0
  0
LINE
  5
186
330
1F
100
AcDbEntity
  8
0
  6
Continuous
 62
     7
370
     0
100
AcDbLine
 10
7.4494323362
 20
3.2218543935
 30
0.0
 11
7.4494323362
 21
3.2318543935
 31
0.0
  0
LINE
  5
187
330
1F
100
AcDbEntity
  8
0
  6
Continuous
 62
     7
370
     0
100
AcDbLine
 10
7.4494323362
 20
3.2318543935
 30
0.0
 11
7.4394323362
 21
3.2318543935
 31
0.0
  0
LINE
  5
188
330
1F
100
AcDbEntity
  8
0
  6
Continuous
 62
     7
370
     0
100
AcDbLine
 10
7.4394323362
 20
3.2318543935
 30
0.0
 11
7.4394323362
 21
3.1493543935
 31
0.0
  0
LINE
  5
189
330
1F
100
AcDbEntity
  8
0
  6
Continuous
 62
     7
370
     0
100
AcDbLine
 10
7.4294323362
 20
3.1393543935
 30
0.0
 11
7.4394323362
 21
3.1493543935
 31
0.0
  0
LINE
  5
18A
330
1F
100
AcDbEntity
  8
0
  6
Continuous
 62
     7
370
     0
100
AcDbLine
 10
7.4294323362
 20
3.1393543935
 30
0.0
 11
7.2844323362
 21
3.1393543935
 31
0.0
  0
LINE
  5
18B
330
1F
100
AcDbEntity
  8
0
  6
Continuous
 62
     7
370
     0
100
AcDbLine
 10
7.2844323362
 20
3.1393543935
 30
0.0
 11
7.263912902
 21
3.1393543935
 31
0.0
  0
LINE
  5
18C
330
1F
100
AcDbEntity
  8
0
  6
Continuous
 62
     7
370
     0
100
AcDbLine
 10
7.263912902
 20
3.1393543935
 30
0.0
 11
7.2406462155
 21
3.1393543935
 31
0.0
  0
LINE
  5
18D
330
1F
100
AcDbEntity
  8
0
  6
Continuous
 62
     7
370
     0
100
AcDbLine
 10
7.2406462155
 20
3.1393543935
 30
0.0
 11
7.2106344835
 21
3.1393543935
 31
0.0
  0
LINE
  5
18E
330
1F
100
AcDbEntity
  8
0
  6
Continuous
 62
     7
370
     0
100
AcDbLine
 10
7.2106344835
 20
3.1393543935
 30
0.0
 11
7.0594323362
 21
3.1393543935
 31
0.0
  0
LINE
  5
18F
330
1F
100
AcDbEntity
  8
0
  6
Continuous
 62
     7
370
     0
100
AcDbLine
 10
7.0494323362
 20
3.1493543935
 30
0.0
 11
7.0594323362
 21
3.1393543935
 31
0.0
  0
LINE
  5
190
330
1F
100
AcDbEntity
  8
0
  6
Continuous
 62
     7
370
     0
100
AcDbLine
 10
7.0494323362
 20
3.1493543935
 30
0.0
 11
7.0494323362
 21
3.2045338855
 31
0.0
  0
LINE
  5
191
330
1F
100
AcDbEntity
  8
0
  6
Continuous
 62
     7
370
     0
100
AcDbLine
 10
7.2044323362
 20
5.3393543935
 30
0.0
 11
7.2136631055
 21
5.3393543935
 31
0.0
  0
LINE
  5
192
330
1F
100
AcDbEntity
  8
0
  6
Continuous
 62
     7
370
     0
100
AcDbLine
 10
7.2136631055
 20
5.3393543935
 30
0.0
 11
7.2382784901
 21
5.3393543935
 31
0.0
  0
LINE
  5
193
330
1F
100
AcDbEntity
  8
0
  6
Continuous
 62
     7
370
     0
100
AcDbLine
 10
7.2382784901
 20
5.3393543935
 30
0.0
 11
7.2475092593
 21
5.3393543935
 31
0.0
  0
LINE
  5
194
330
1F
100
AcDbEntity
  8
0
  6
Continuous
 62
     7
370
     0
100
AcDbLine
 10
7.2475092593
 20
5.3393543935
 30
0.0
 11
7.275201567
 21
5.3393543935
 31
0.0
  0
LINE
  5
195
330
1F
100
AcDbEntity
  8
0
  6
Continuous
 62
     7
370
     0
100
AcDbLine
 10
7.275201567
 20
5.3393543935
 30
0.0
 11
7.2844323362
 21
5.3393543935
 31
0.0
  0
LINE
  5
196
330
1F
100
AcDbEntity
  8
0
  6
Continuous
 62
     7
370
     0
100
AcDbLine
 10
7.2844323362
 20
5.3393543935
 30
0.0
 11
7.3393711815
 21
5.3393543935
 31
0.0
  0
LINE
  5
197
330
1F
100
AcDbEntity
  8
0
  6
Continuous
 62
     7
370
     0
100
AcDbLine
 10
7.3393711815
 20
5.3393543935
 30
0.0
 11
7.3606739214
 21
5.3393543935
 31
0.0
  0
LINE
  5
198
330
1F
100
AcDbEntity
  8
0
  6
Continuous
 62
     7
370
     0
100
AcDbLine
 10
7.3606739214
 20
5.3393543935
 30
0.0
 11
7.4294323362
 21
5.3393543935
 31
0.0
  0
LINE
  5
199
330
1F
100
AcDbEntity
  8
0
  6
Continuous
 62
     7
370
     0
100
AcDbLine
 10
7.4394323362
 20
5.3293543935
 30
0.0
 11
7.4294323362
 21
5.3393543935
 31
0.0
  0
LINE
  5
19A
330
1F
100
AcDbEntity
  8
0
  6
Continuous
 62
     7
370
     0
100
AcDbLine
 10
7.4394323362
 20
5.3293543935
 30
0.0
 11
7.4394323362
 21
5.2468543935
 31
0.0
  0
LINE
  5
19B
330
1F
100
AcDbEntity
  8
0
  6
Continuous
 62
     7
370
     0
100
AcDbLine
 10
7.4394323362
 20
5.2468543935
 30
0.0
 11
7.4494323362
 21
5.2468543935
 31
0.0
  0
LINE
  5
19C
330
1F
100
AcDbEntity
  8
0
  6
Continuous
 62
     7
370
     0
100
AcDbLine
 10
7.4494323362
 20
5.2468543935
 30
0.0
 11
7.4494323362
 21
5.2568543935
 31
0.0
  0
LINE
  5
19D
330
1F
100
AcDbEntity
  8
0
  6
Continuous
 62
     7
370
     0
100
AcDbLine
 10
7.4494323362
 20
5.2568543935
 30
0.0
 11
7.5494323362
 21
5.2568543935
 31
0.0
  0
LINE
  5
19E
330
1F
100
AcDbEntity
  8
0
  6
Continuous
 62
     7
370
     0
100
AcDbLine
 10
7.5594323362
 20
5.2395338855
 30
0.0
 11
7.5494323362
 21
5.2568543935
 31
0.0
  0
LINE
  5
19F
330
1F
100
AcDbEntity
  8
0
  6
Continuous
 62
     7
370
     0
100
AcDbLine
 10
7.5594323362
 20
5.1893543935
 30
0.0
 11
7.4094323362
 21
5.1893543935
 31
0.0
  0
LINE
  5
1A0
330
1F
100
AcDbEntity
  8
0
  6
Continuous
 62
     7
370
     0
100
AcDbLine
 10
7.4094323362
 20
5.1893543935
 30
0.0
 11
7.4094323362
 21
5.2668543935
 31
0.0
  0
LINE
  5
1A1
330
1F
100
AcDbEntity
  8
0
  6
Continuous
 62
     7
370
     0
100
AcDbLine
 10
7.4094323362
 20
5.2668543935
 30
0.0
 11
7.3994323362
 21
5.2668543935
 31
0.0
  0
LINE
  5
1A2
330
1F
100
AcDbEntity
  8
0
  6
Continuous
 62
     7
370
     0
100
AcDbLine
 10
7.3994323362
 20
5.2668543935
 30
0.0
 11
7.3994323362
 21
5.2568543935
 31
0.0
  0
LINE
  5
1A3
330
1F
100
AcDbEntity
  8
0
  6
Continuous
 62
     7
370
     0
100
AcDbLine
 10
7.3994323362
 20
5.2568543935
 30
0.0
 11
7.0594323362
 21
5.2568543935
 31
0.0
  0
LINE
  5
1A4
330
1F
100
AcDbEntity
  8
0
  6
Continuous
 62
     7
370
     0
100
AcDbLine
 10
7.0494323362
 20
5.2741749016
 30
0.0
 11
7.0594323362
 21
5.2568543935
 31
0.0
  0
LINE
  5
1A5
330
1F
100
AcDbEntity
  8
0
  6
Continuous
 62
     7
370
     0
100
AcDbLine
 10
7.0494323362
 20
5.2741749016
 30
0.0
 11
7.0494323362
 21
5.3293543935
 31
0.0
  0
LINE
  5
1A6
330
1F
100
AcDbEntity
  8
0
  6
Continuous
 62
     7
370
     0
100
AcDbLine
 10
7.0594323362
 20
5.3393543935
 30
0.0
 11
7.0494323362
 21
5.3293543935
 31
0.0
  0
LINE
  5
1A7
330
1F
100
AcDbEntity
  8
0
  6
Continuous
 62
     7
370
     0
100
AcDbLine
 10
7.0594323362
 20
5.3393543935
 30
0.0
 11
7.2044323362
 21
5.3393543935
 31
0.0
  0
LINE
  5
1A8
330
1F
100
AcDbEntity
  8
0
  6
Continuous
 62
     7
370
     0
100
AcDbLine
 10
7.5594323362
 20
5.2395338855
 30
0.0
 11
7.5594323362
 21
5.1893543935
 31
0.0
  0
LINE
  5
1A9
330
1F
100
AcDbEntity
  8
0
  6
Continuous
 62
     7
370
     0
100
AcDbLine
 10
7.5594323362
 20
3.2893543935
 30
0.0
 11
7.5594323362
 21
5.1893543935
 31
0.0
  0
LINE
  5
1AA
330
1F
100
AcDbEntity
  8
0
  6
Continuous
 62
     7
370
     0
100
AcDbLine
 10
7.0594323362
 20
5.2568543935
 30
0.0
 11
7.0594323362
 21
3.2218543935
 31
0.0
  0
LINE
  5
1AB
330
1F
100
AcDbEntity
  8
0
  6
Continuous
 62
     7
370
     0
100
AcDbLine
 10
7.3994323362
 20
3.2218543935
 30
0.0
 11
7.3994323362
 21
3.2393543935
 31
0.0
  0
LINE
  5
1AC
330
1F
100
AcDbEntity
  8
0
  6
Continuous
 62
     7
370
     0
100
AcDbLine
 10
7.3994323362
 20
5.2393543935
 30
0.0
 11
7.3994323362
 21
5.2568543935
 31
0.0
  0
LINE
  5
1AD
330
1F
100
AcDbEntity
  8
0
  6
Continuous
 62
     7
370
     0
100
AcDbLine
 10
7.0494323362
 20
3.2045338855
 30
0.0
 11
7.0494323362
 21
5.2741749016
 31
0.0
  0
HATCH
  5
1AE
330
1F
100
AcDbEntity
  8
0
  6
Continuous
 62
     7
370
     0
100
AcDbHatch
 10
0.0
 20
0.0
 30
0.0
210
0.0
220
0.0
230
1.0
  2
ANSI31
 70
     0
 71
     0
 91
        1
 92
        0
 93
       24
 72
     1
 10
7.204432336226961
 20
5.339354393531103
 11
7.05943233622696
 21
5.339354393531103
 72
     1
 10
7.05943233622696
 20
5.339354393531103
 11
7.049432336226961
 21
5.329354393531103
 72
     1
 10
7.049432336226961
 20
5.329354393531103
 11
7.049432336226961
 21
5.274174901606791
 72
     1
 10
7.049432336226961
 20
5.274174901606791
 11
7.059432336226961
 21
5.256854393531103
 72
     1
 10
7.059432336226961
 20
5.256854393531103
 11
7.399432336226961
 21
5.256854393531103
 72
     1
 10
7.399432336226961
 20
5.256854393531103
 11
7.399432336226961
 21
5.266854393531103
 72
     1
 10
7.399432336226961
 20
5.266854393531103
 11
7.409432336226962
 21
5.266854393531103
 72
     1
 10
7.409432336226962
 20
5.266854393531103
 11
7.409432336226962
 21
5.189354393531103
 72
     1
 10
7.409432336226962
 20
5.189354393531103
 11
7.559432336226962
 21
5.189354393531103
 72
     1
 10
7.559432336226962
 20
5.189354393531103
 11
7.559432336226962
 21
5.239533885455414
 72
     1
 10
7.559432336226962
 20
5.239533885455414
 11
7.549432336226961
 21
5.256854393531103
 72
     1
 10
7.549432336226961
 20
5.256854393531103
 11
7.449432336226961
 21
5.256854393531103
 72
     1
 10
7.449432336226961
 20
5.256854393531103
 11
7.449432336226961
 21
5.246854393531103
 72
     1
 10
7.449432336226961
 20
5.246854393531103
 11
7.439432336226961
 21
5.246854393531103
 72
     1
 10
7.439432336226961
 20
5.246854393531103
 11
7.439432336226961
 21
5.329354393531103
 72
     1
 10
7.439432336226961
 20
5.329354393531103
 11
7.429432336226962
 21
5.339354393531103
 72
     1
 10
7.429432336226962
 20
5.339354393531103
 11
7.360673921425487
 21
5.339354393531103
 72
     1
 10
7.360673921425487
 20
5.339354393531103
 11
7.339371181523248
 21
5.339354393531103
 72
     1
 10
7.339371181523248
 20
5.339354393531103
 11
7.284432336226961
 21
5.339354393531103
 72
     1
 10
7.284432336226961
 20
5.339354393531103
 11
7.275201566996191
 21
5.339354393531103
 72
     1
 10
7.275201566996191
 20
5.339354393531103
 11
7.247509259303884
 21
5.339354393531103
 72
     1
 10
7.247509259303884
 20
5.339354393531103
 11
7.238278490073115
 21
5.339354393531103
 72
     1
 10
7.238278490073115
 20
5.339354393531103
 11
7.21366310545773
 21
5.339354393531103
 72
     1
 10
7.21366310545773
 20
5.339354393531103
 11
7.204432336226961
 21
5.339354393531103
 97
        0
 75
     0
 76
     1
 52
0.0
 41
1.0
 77
     0
 78
     1
 53
45.0
 43
0.0
 44
0.0
 45
-0.0883883476483184
 46
0.0883883476483184
 79
     0
 98
        1
 10
0.0
 20
0.0
  0
HATCH
  5
1AF
330
1F
100
AcDbEntity
  8
0
  6
Continuous
 62
     7
370
     0
100
AcDbHatch
 10
0.0
 20
0.0
 30
0.0
210
0.0
220
0.0
230
1.0
  2
ANSI31
 70
     0
 71
     0
 91
        1
 92
        0
 93
       20
 72
     1
 10
7.049432336226961
 20
3.204533885455414
 11
7.049432336226961
 21
3.149354393531102
 72
     1
 10
7.049432336226961
 20
3.149354393531102
 11
7.05943233622696
 21
3.139354393531103
 72
     1
 10
7.05943233622696
 20
3.139354393531103
 11
7.210634483451499
 21
3.139354393531103
 72
     1
 10
7.210634483451499
 20
3.139354393531103
 11
7.240646215518939
 21
3.139354393531103
 72
     1
 10
7.240646215518939
 20
3.139354393531103
 11
7.263912901957553
 21
3.139354393531103
 72
     1
 10
7.263912901957553
 20
3.139354393531103
 11
7.284432336226961
 21
3.139354393531103
 72
     1
 10
7.284432336226961
 20
3.139354393531103
 11
7.429432336226962
 21
3.139354393531103
 72
     1
 10
7.429432336226962
 20
3.139354393531103
 11
7.439432336226961
 21
3.149354393531102
 72
     1
 10
7.439432336226961
 20
3.149354393531102
 11
7.439432336226961
 21
3.231854393531103
 72
     1
 10
7.439432336226961
 20
3.231854393531103
 11
7.449432336226961
 21
3.231854393531103
 72
     1
 10
7.449432336226961
 20
3.231854393531103
 11
7.449432336226961
 21
3.221854393531103
 72
     1
 10
7.449432336226961
 20
3.221854393531103
 11
7.549432336226961
 21
3.221854393531103
 72
     1
 10
7.549432336226961
 20
3.221854393531103
 11
7.559432336226962
 21
3.239174901606792
 72
     1
 10
7.559432336226962
 20
3.239174901606792
 11
7.559432336226962
 21
3.289354393531103
 72
     1
 10
7.559432336226962
 20
3.289354393531103
 11
7.409432336226962
 21
3.289354393531103
 72
     1
 10
7.409432336226962
 20
3.289354393531103
 11
7.409432336226962
 21
3.211854393531103
 72
     1
 10
7.409432336226962
 20
3.211854393531103
 11
7.399432336226961
 21
3.211854393531103
 72
     1
 10
7.399432336226961
 20
3.211854393531103
 11
7.399432336226961
 21
3.221854393531103
 72
     1
 10
7.399432336226961
 20
3.221854393531103
 11
7.059432336226961
 21
3.221854393531103
 72
     1
 10
7.059432336226961
 20
3.221854393531103
 11
7.049432336226961
 21
3.204533885455414
 97
        0
 75
     0
 76
     1
 52
0.0
 41
1.0
 77
     0
 78
     1
 53
45.0
 43
0.0
 44
0.0
 45
-0.0883883476483184
 46
0.0883883476483184
 79
     0
 98
        1
 10
0.0
 20
0.0
  0
HATCH
  5
1B0
330
1F
100
AcDbEntity
  8
0
  6
Continuous
 62
     7
370
     0
100
AcDbHatch
 10
0.0
 20
0.0
 30
0.0
210
0.0
220
0.0
230
1.0
  2
ANSI31
 70
     0
 71
     0
 91
        1
 92
        0
 93
        8
 72
     1
 10
7.206316981934949
 20
5.189354393531104
 11
7.278996473859259
 21
5.189354393531104
 72
     1
 10
7.278996473859259
 20
5.189354393531104
 11
7.288996473859259
 21
5.206674901606791
 72
     1
 10
7.288996473859259
 20
5.206674901606791
 11
7.288996473859259
 21
5.246854393531103
 72
     1
 10
7.288996473859259
 20
5.246854393531103
 11
7.271675965783569
 21
5.256854393531103
 72
     1
 10
7.271675965783569
 20
5.256854393531103
 11
7.198996473859259
 21
5.256854393531103
 72
     1
 10
7.198996473859259
 20
5.256854393531103
 11
7.188996473859258
 21
5.239533885455415
 72
     1
 10
7.188996473859258
 20
5.239533885455415
 11
7.188996473859258
 21
5.199354393531103
 72
     1
 10
7.188996473859258
 20
5.199354393531103
 11
7.206316981934949
 21
5.189354393531104
 97
        0
 75
     0
 76
     1
 52
90.0
 41
0.25
 77
     0
 78
     1
 53
135.0000000000002
 43
0.0
 44
0.0
 45
-0.0220970869120795
 46
-0.0220970869120797
 79
     0
 98
        1
 10
0.0
 20
0.0
  0
HATCH
  5
1B1
330
1F
100
AcDbEntity
  8
0
  6
Continuous
 62
     7
370
     0
100
AcDbHatch
 10
0.0
 20
0.0
 30
0.0
210
0.0
220
0.0
230
1.0
  2
ANSI31
 70
     0
 71
     0
 91
        1
 92
        0
 93
        8
 72
     1
 10
7.288996473859259
 20
3.231854393531104
 11
7.288996473859259
 21
3.272033885455414
 72
     1
 10
7.288996473859259
 20
3.272033885455414
 11
7.278996473859259
 21
3.289354393531103
 72
     1
 10
7.278996473859259
 20
3.289354393531103
 11
7.206316981934949
 21
3.289354393531103
 72
     1
 10
7.206316981934949
 20
3.289354393531103
 11
7.188996473859258
 21
3.279354393531102
 72
     1
 10
7.188996473859258
 20
3.279354393531102
 11
7.188996473859258
 21
3.239174901606791
 72
     1
 10
7.188996473859258
 20
3.239174901606791
 11
7.198996473859259
 21
3.221854393531103
 72
     1
 10
7.198996473859259
 20
3.221854393531103
 11
7.271675965783569
 21
3.221854393531103
 72
     1
 10
7.271675965783569
 20
3.221854393531103
 11
7.288996473859259
 21
3.231854393531104
 97
        0
 75
     0
 76
     1
 52
90.0
 41
0.25
 77
     0
 78
     1
 53
135.0000000000002
 43
0.0
 44
0.0
 45
-0.0220970869120795
 46
-0.0220970869120797
 79
     0
 98
        1
 10
0.0
 20
0.0
  0
HATCH
  5
1B2
330
1F
100
AcDbEntity
  8
0
  6
Continuous
 62
     7
370
     0
100
AcDbHatch
 10
0.0
 20
0.0
 30
0.0
210
0.0
220
0.0
230
1.0
  2
ANSI31
 70
     0
 71
     0
 91
        1
 92
        0
 93
        9
 72
     2
 10
20.84248961801641
 20
4.220141623771209
 40
13.58661417322834
 50
179.9189782698736
 51
184.0981629586286
 73
     1
 72
     1
 10
7.290615400958695
 20
3.249167938640875
 11
7.301960323720803
 21
3.239354393531104
 72
     1
 10
7.301960323720803
 20
3.239354393531104
 11
7.399589816541924
 21
3.239354393531104
 72
     1
 10
7.399589816541924
 20
3.239354393531104
 11
7.409432336226962
 21
3.249196913216142
 72
     1
 10
7.409432336226962
 20
3.249196913216142
 11
7.409432336226962
 21
5.229511873846064
 72
     1
 10
7.409432336226962
 20
5.229511873846064
 11
7.399589816541922
 21
5.239354393531102
 72
     1
 10
7.399589816541922
 20
5.239354393531102
 11
7.301960323720803
 21
5.239354393531102
 72
     1
 10
7.301960323720803
 20
5.239354393531102
 11
7.290615400958695
 21
5.229540848421331
 72
     2
 10
20.84248961801641
 20
4.258567163290997
 40
13.58661417322834
 50
175.9018370413722
 51
180.0810217301272
 73
     1
 97
        0
 75
     0
 76
     1
 52
0.0
 41
1.0
 77
     0
 78
     1
 53
45.0
 43
0.0
 44
0.0
 45
-0.0883883476483184
 46
0.0883883476483184
 79
     0
 98
        1
 10
0.0
 20
0.0
  0
DIMENSION
  5
1B3
330
1F
100
AcDbEntity
  8
0
  6
Continuous
 62
     7
370
     0
100
AcDbDimension
  2
_D_1
 10
8.4234480819
 20
3.2893543935
 30
0.0
 11
8.4234480819
 21
4.2393543935
 31
0.0
 70
   160
  1
%%c<>
 71
     2
 42
-1.0
  3
SLDDIMSTYLE1
100
AcDbAlignedDimension
 13
7.5594323362
 23
5.1893543935
 33
0.0
 14
7.5594323362
 24
3.2893543935
 34
0.0
 50
90.0
100
AcDbRotatedDimension
  0
DIMENSION
  5
1C7
330
1F
100
AcDbEntity
  8
0
  6
Continuous
 62
     7
370
     0
100
AcDbDimension
  2
_D_2
 10
7.5594323362
 20
5.4869382731
 30
0.0
 11
8.4255740685
 21
5.4869382731
 31
0.0
 70
   160
  1
<>
 71
     2
 42
-1.0
  3
SLDDIMSTYLE2
100
AcDbAlignedDimension
 13
7.4394323362
 23
5.3293543935
 33
0.0
 14
7.5594323362
 24
5.2395338855
 34
0.0
100
AcDbRotatedDimension
  0
DIMENSION
  5
1DC
330
1F
100
AcDbEntity
  8
0
  6
Continuous
 62
     7
370
     0
100
AcDbDimension
  2
_D_3
 10
7.5594323362
 20
6.0228590311
 30
0.0
 11
8.4255740685
 21
6.0228590311
 31
0.0
 70
   160
  1
<>
 71
     2
 42
-1.0
  3
SLDDIMSTYLE2
100
AcDbAlignedDimension
 13
7.0494323362
 23
5.3293543935
 33
0.0
 14
7.5594323362
 24
5.2395338855
 34
0.0
100
AcDbRotatedDimension
  0
INSERT
  5
1F7
102
{ACAD_REACTORS
330
1F9
102
}
330
1F
100
AcDbEntity
  8
0
  6
Continuous
 62
     7
370
     0
100
AcDbBlockReference
  2
SW_NOTE_5
 10
6.4160926489
 20
3.5968064311
 30
0.0
  0
LEADER
  5
1F9
330
1F
100
AcDbEntity
  8
0
  6
Continuous
 62
     7
370
     0
100
AcDbLeader
  3
SLDDIMSTYLE3
 73
     2
 76
     3
 10
7.1131747578
 20
3.2218543935
 30
0.0
 10
6.6660926489
 20
3.5968064311
 30
0.0
 10
6.4160926489
 20
3.5968064311
 30
0.0
340
1F7
  0
INSERT
  5
200
102
{ACAD_REACTORS
330
201
102
}
330
1F
100
AcDbEntity
  8
0
  6
Continuous
 62
     7
370
     0
100
AcDbBlockReference
  2
SW_NOTE_6
 10
8.3613988139
 20
2.5865262519
 30
0.0
  0
LEADER
  5
201
330
1F
100
AcDbEntity
  8
0
  6
Continuous
 62
     7
370
     0
100
AcDbLeader
  3
SLDDIMSTYLE3
 73
     2
 76
     3
 10
7.4908999194
 20
3.2218543935
 30
0.0
 10
8.1113988139
 20
2.5865262519
 30
0.0
 10
8.3613988139
 20
2.5865262519
 30
0.0
340
200
  0
INSERT
  5
207
102
{ACAD_REACTORS
330
208
102
}
330
1F
100
AcDbEntity
  8
0
  6
Continuous
 62
     7
370
     0
100
AcDbBlockReference
  2
SW_NOTE_7
 10
6.4100325971
 20
4.0701539328
 30
0.0
  0
LEADER
  5
208
330
1F
100
AcDbEntity
  8
0
  6
Continuous
 62
     7
370
     0
100
AcDbLeader
  3
SLDDIMSTYLE3
 73
     2
 76
     3
 10
7.1930036328
 20
3.4117897787
 30
0.0
 10
6.6560955892
 20
4.0701539328
 30
0.0
 10
6.4100325971
 20
4.0701539328
 30
0.0
340
207
  0
INSERT
  5
20E
102
{ACAD_REACTORS
330
20F
102
}
330
1F
100
AcDbEntity
  8
0
  6
Continuous
 62
     7
370
     0
100
AcDbBlockReference
  2
SW_NOTE_8
 10
6.5835540019
 20
2.6048620698
 30
0.0
  0
LEADER
  5
20F
330
1F
100
AcDbEntity
  8
0
  6
Continuous
 62
     7
370
     0
100
AcDbLeader
  3
SLDDIMSTYLE3
 73
     2
 76
     3
 10
7.1986974359
 20
3.1393543935
 30
0.0
 10
6.8296169941
 20
2.6048620698
 30
0.0
 10
6.5835540019
 20
2.6048620698
 30
0.0
340
20E
  0
INSERT
  5
215
102
{ACAD_REACTORS
330
216
102
}
330
1F
100
AcDbEntity
  8
0
  6
Continuous
 62
     7
370
     0
100
AcDbBlockReference
  2
SW_NOTE_9
 10
8.2428860329
 20
2.9364807545
 30
0.0
  0
LEADER
  5
216
330
1F
100
AcDbEntity
  8
0
  6
Continuous
 62
     7
370
     0
100
AcDbLeader
  3
SLDDIMSTYLE3
 73
     2
 76
     3
 10
7.4094323362
 20
3.5005246245
 30
0.0
 10
7.9968230408
 20
2.9364807545
 30
0.0
 10
8.2428860329
 20
2.9364807545
 30
0.0
340
215
  0
OLE2FRAME
  5
217
330
1F
100
AcDbEntity
  8
0
100
AcDbOle2Frame
 70
     2
  3
Paintbrush Picture
 10
9.0178120406
 20
1.3267570784
 30
0.0
 11
10.4397105087
 21
1.1242314806
 31
0.0
 71
     2
 72
     0
 73
     1
 90
     7296
310
8055C64EE7A81E092240C05F59A1653AF53F0000000000000000FD155DBC21E1
310
2440C05F59A1653AF53F0000000000000000FD155DBC21E12440A1732426DAFC
310
F13F0000000000000000C64EE7A81E092240A1732426DAFCF13F000000000000
310
00000000000001000000000100000100000001000000000001000000001C0000
310
D0CF11E0A1B11AE1000000000000000000000000000000003E000300FEFF0900
310
0600000000000000000000000100000001000000000000000010000002000000
310
01000000FEFFFFFF0000000000000000FFFFFFFFFFFFFFFFFFFFFFFFFFFFFFFF
310
FFFFFFFFFFFFFFFFFFFFFFFFFFFFFFFFFFFFFFFFFFFFFFFFFFFFFFFFFFFFFFFF
310
FFFFFFFFFFFFFFFFFFFFFFFFFFFFFFFFFFFFFFFFFFFFFFFFFFFFFFFFFFFFFFFF
310
FFFFFFFFFFFFFFFFFFFFFFFFFFFFFFFFFFFFFFFFFFFFFFFFFFFFFFFFFFFFFFFF
310
FFFFFFFFFFFFFFFFFFFFFFFFFFFFFFFFFFFFFFFFFFFFFFFFFFFFFFFFFFFFFFFF
310
FFFFFFFFFFFFFFFFFFFFFFFFFFFFFFFFFFFFFFFFFFFFFFFFFFFFFFFFFFFFFFFF
310
FFFFFFFFFFFFFFFFFFFFFFFFFFFFFFFFFFFFFFFFFFFFFFFFFFFFFFFFFFFFFFFF
310
FFFFFFFFFFFFFFFFFFFFFFFFFFFFFFFFFFFFFFFFFFFFFFFFFFFFFFFFFFFFFFFF
310
FFFFFFFFFFFFFFFFFFFFFFFFFFFFFFFFFFFFFFFFFFFFFFFFFFFFFFFFFFFFFFFF
310
FFFFFFFFFFFFFFFFFFFFFFFFFFFFFFFFFFFFFFFFFFFFFFFFFFFFFFFFFFFFFFFF
310
FFFFFFFFFFFFFFFFFFFFFFFFFFFFFFFFFFFFFFFFFFFFFFFFFFFFFFFFFFFFFFFF
310
FFFFFFFFFFFFFFFFFFFFFFFFFFFFFFFFFFFFFFFFFFFFFFFFFFFFFFFFFFFFFFFF
310
FFFFFFFFFFFFFFFFFFFFFFFFFFFFFFFFFFFFFFFFFFFFFFFFFFFFFFFFFFFFFFFF
310
FFFFFFFFFFFFFFFFFFFFFFFFFFFFFFFFFFFFFFFFFFFFFFFFFFFFFFFFFFFFFFFF
310
FDFFFFFFFEFFFFFFFEFFFFFFFEFFFFFF05000000060000000700000008000000
310
090000000A0000000B0000000C000000FEFFFFFFFFFFFFFFFFFFFFFFFFFFFFFF
310
FFFFFFFFFFFFFFFFFFFFFFFFFFFFFFFFFFFFFFFFFFFFFFFFFFFFFFFFFFFFFFFF
310
FFFFFFFFFFFFFFFFFFFFFFFFFFFFFFFFFFFFFFFFFFFFFFFFFFFFFFFFFFFFFFFF
310
FFFFFFFFFFFFFFFFFFFFFFFFFFFFFFFFFFFFFFFFFFFFFFFFFFFFFFFFFFFFFFFF
310
FFFFFFFFFFFFFFFFFFFFFFFFFFFFFFFFFFFFFFFFFFFFFFFFFFFFFFFFFFFFFFFF
310
FFFFFFFFFFFFFFFFFFFFFFFFFFFFFFFFFFFFFFFFFFFFFFFFFFFFFFFFFFFFFFFF
310
FFFFFFFFFFFFFFFFFFFFFFFFFFFFFFFFFFFFFFFFFFFFFFFFFFFFFFFFFFFFFFFF
310
FFFFFFFFFFFFFFFFFFFFFFFFFFFFFFFFFFFFFFFFFFFFFFFFFFFFFFFFFFFFFFFF
310
FFFFFFFFFFFFFFFFFFFFFFFFFFFFFFFFFFFFFFFFFFFFFFFFFFFFFFFFFFFFFFFF
310
FFFFFFFFFFFFFFFFFFFFFFFFFFFFFFFFFFFFFFFFFFFFFFFFFFFFFFFFFFFFFFFF
310
FFFFFFFFFFFFFFFFFFFFFFFFFFFFFFFFFFFFFFFFFFFFFFFFFFFFFFFFFFFFFFFF
310
FFFFFFFFFFFFFFFFFFFFFFFFFFFFFFFFFFFFFFFFFFFFFFFFFFFFFFFFFFFFFFFF
310
FFFFFFFFFFFFFFFFFFFFFFFFFFFFFFFFFFFFFFFFFFFFFFFFFFFFFFFFFFFFFFFF
310
FFFFFFFFFFFFFFFFFFFFFFFFFFFFFFFFFFFFFFFFFFFFFFFFFFFFFFFFFFFFFFFF
310
FFFFFFFFFFFFFFFFFFFFFFFFFFFFFFFFFFFFFFFFFFFFFFFFFFFFFFFFFFFFFFFF
310
52006F006F007400200045006E00740072007900000000000000000000000000
310
0000000000000000000000000000000000000000000000000000000000000000
310
16000500FFFFFFFFFFFFFFFF020000000A00030000000000C000000000000046
310
0000000000000000000000001075FF42E138D10103000000C000000000000000
310
01004F006C006500000000000000000000000000000000000000000000000000
310
0000000000000000000000000000000000000000000000000000000000000000
310
0A000200FFFFFFFFFFFFFFFFFFFFFFFF00000000000000000000000000000000
310
0000000000000000000000000000000000000000000000001400000000000000
310
010043006F006D0070004F0062006A0000000000000000000000000000000000
310
0000000000000000000000000000000000000000000000000000000000000000
310
120002010100000003000000FFFFFFFF00000000000000000000000000000000
310
0000000000000000000000000000000000000000010000004D00000000000000
310
01004F006C006500310030004E00610074006900760065000000000000000000
310
0000000000000000000000000000000000000000000000000000000000000000
310
1A000200FFFFFFFFFFFFFFFFFFFFFFFF00000000000000000000000000000000
310
000000000000000000000000000000000000000004000000E411000000000000
310
FEFFFFFF02000000FEFFFFFFFFFFFFFFFFFFFFFFFFFFFFFFFFFFFFFFFFFFFFFF
310
FFFFFFFFFFFFFFFFFFFFFFFFFFFFFFFFFFFFFFFFFFFFFFFFFFFFFFFFFFFFFFFF
310
FFFFFFFFFFFFFFFFFFFFFFFFFFFFFFFFFFFFFFFFFFFFFFFFFFFFFFFFFFFFFFFF
310
FFFFFFFFFFFFFFFFFFFFFFFFFFFFFFFFFFFFFFFFFFFFFFFFFFFFFFFFFFFFFFFF
310
FFFFFFFFFFFFFFFFFFFFFFFFFFFFFFFFFFFFFFFFFFFFFFFFFFFFFFFFFFFFFFFF
310
FFFFFFFFFFFFFFFFFFFFFFFFFFFFFFFFFFFFFFFFFFFFFFFFFFFFFFFFFFFFFFFF
310
FFFFFFFFFFFFFFFFFFFFFFFFFFFFFFFFFFFFFFFFFFFFFFFFFFFFFFFFFFFFFFFF
310
FFFFFFFFFFFFFFFFFFFFFFFFFFFFFFFFFFFFFFFFFFFFFFFFFFFFFFFFFFFFFFFF
310
FFFFFFFFFFFFFFFFFFFFFFFFFFFFFFFFFFFFFFFFFFFFFFFFFFFFFFFFFFFFFFFF
310
FFFFFFFFFFFFFFFFFFFFFFFFFFFFFFFFFFFFFFFFFFFFFFFFFFFFFFFFFFFFFFFF
310
FFFFFFFFFFFFFFFFFFFFFFFFFFFFFFFFFFFFFFFFFFFFFFFFFFFFFFFFFFFFFFFF
310
FFFFFFFFFFFFFFFFFFFFFFFFFFFFFFFFFFFFFFFFFFFFFFFFFFFFFFFFFFFFFFFF
310
FFFFFFFFFFFFFFFFFFFFFFFFFFFFFFFFFFFFFFFFFFFFFFFFFFFFFFFFFFFFFFFF
310
FFFFFFFFFFFFFFFFFFFFFFFFFFFFFFFFFFFFFFFFFFFFFFFFFFFFFFFFFFFFFFFF
310
FFFFFFFFFFFFFFFFFFFFFFFFFFFFFFFFFFFFFFFFFFFFFFFFFFFFFFFFFFFFFFFF
310
FFFFFFFFFFFFFFFFFFFFFFFFFFFFFFFFFFFFFFFFFFFFFFFFFFFFFFFFFFFFFFFF
310
0100000200000000000000000000000000000000000000000000000000000000
310
0000000000000000000000000000000000000000000000000000000000000000
310
0100FEFF030A0000FFFFFFFF0A00030000000000C00000000000004607000000
310
5042727573680007000000504272757368000700000050427275736800F439B2
310
7100000000000000000000000000000000000000000000000000000000000000
310
0000000000000000000000000000000000000000000000000000000000000000
310
0000000000000000000000000000000000000000000000000000000000000000
310
0000000000000000000000000000000000000000000000000000000000000000
310
0000000000000000000000000000000000000000000000000000000000000000
310
0000000000000000000000000000000000000000000000000000000000000000
310
0000000000000000000000000000000000000000000000000000000000000000
310
0000000000000000000000000000000000000000000000000000000000000000
310
0000000000000000000000000000000000000000000000000000000000000000
310
0000000000000000000000000000000000000000000000000000000000000000
310
0000000000000000000000000000000000000000000000000000000000000000
310
0000000000000000000000000000000000000000000000000000000000000000
310
E0110000424DDE11000000000000360400002800000096000000170000000100
310
08000000000000000000E7240000E72400000001000000010000000000FF0101
310
01FF020202FF030303FF040404FF050505FF060606FF070707FF080808FF0909
310
09FF0A0A0AFF0B0B0BFF0C0C0CFF0D0D0DFF0E0E0EFF0F0F0FFF101010FF1111
310
11FF121212FF131313FF141414FF151515FF161616FF171717FF181818FF1919
310
19FF1A1A1AFF1B1B1BFF1C1C1CFF1D1D1DFF1E1E1EFF1F1F1FFF202020FF2121
310
21FF222222FF232323FF242424FF252525FF262626FF272727FF282828FF2929
310
29FF2A2A2AFF2B2B2BFF2C2C2CFF2D2D2DFF2E2E2EFF2F2F2FFF303030FF3131
310
31FF323232FF333333FF343434FF353535FF363636FF373737FF383838FF3939
310
39FF3A3A3AFF3B3B3BFF3C3C3CFF3D3D3DFF3E3E3EFF3F3F3FFF404040FF4141
310
41FF424242FF434343FF444444FF454545FF464646FF474747FF484848FF4949
310
49FF4A4A4AFF4B4B4BFF4C4C4CFF4D4D4DFF4E4E4EFF4F4F4FFF505050FF5151
310
51FF525252FF535353FF545454FF555555FF565656FF575757FF585858FF5959
310
59FF5A5A5AFF5B5B5BFF5C5C5CFF5D5D5DFF5E5E5EFF5F5F5FFF606060FF6161
310
61FF626262FF636363FF646464FF656565FF666666FF676767FF686868FF6969
310
69FF6A6A6AFF6B6B6BFF6C6C6CFF6D6D6DFF6E6E6EFF6F6F6FFF707070FF7171
310
71FF727272FF737373FF747474FF757575FF767676FF777777FF787878FF7979
310
79FF7A7A7AFF7B7B7BFF7C7C7CFF7D7D7DFF7E7E7EFF7F7F7FFF808080FF8181
310
81FF828282FF838383FF848484FF858585FF868686FF878787FF888888FF8989
310
89FF8A8A8AFF8B8B8BFF8C8C8CFF8D8D8DFF8E8E8EFF8F8F8FFF909090FF9191
310
91FF929292FF939393FF949494FF959595FF969696FF979797FF989898FF9999
310
99FF9A9A9AFF9B9B9BFF9C9C9CFF9D9D9DFF9E9E9EFF9F9F9FFFA0A0A0FFA1A1
310
A1FFA2A2A2FFA3A3A3FFA4A4A4FFA5A5A5FFA6A6A6FFA7A7A7FFA8A8A8FFA9A9
310
A9FFAAAAAAFFABABABFFACACACFFADADADFFAEAEAEFFAFAFAFFFB0B0B0FFB1B1
310
B1FFB2B2B2FFB3B3B3FFB4B4B4FFB5B5B5FFB6B6B6FFB7B7B7FFB8B8B8FFB9B9
310
B9FFBABABAFFBBBBBBFFBCBCBCFFBDBDBDFFBEBEBEFFBFBFBFFFC0C0C0FFC1C1
310
C1FFC2C2C2FFC3C3C3FFC4C4C4FFC5C5C5FFC6C6C6FFC7C7C7FFC8C8C8FFC9C9
310
C9FFCACACAFFCBCBCBFFCCCCCCFFCDCDCDFFCECECEFFCFCFCFFFD0D0D0FFD1D1
310
D1FFD2D2D2FFD3D3D3FFD4D4D4FFD5D5D5FFD6D6D6FFD7D7D7FFD8D8D8FFD9D9
310
D9FFDADADAFFDBDBDBFFDCDCDCFFDDDDDDFFDEDEDEFFDFDFDFFFE0E0E0FFE1E1
310
E1FFE2E2E2FFE3E3E3FFE4E4E4FFE5E5E5FFE6E6E6FFE7E7E7FFE8E8E8FFE9E9
310
E9FFEAEAEAFFEBEBEBFFECECECFFEDEDEDFFEEEEEEFFEFEFEFFFF0F0F0FFF1F1
310
F1FFF2F2F2FFF3F3F3FFF4F4F4FFF5F5F5FFF6F6F6FFF7F7F7FFF8F8F8FFF9F9
310
F9FFFAFAFAFFFBFBFBFFFCFCFCFFFDFDFDFFFEFEFEFFFFFFFFFFFFFFFFFFFFFF
310
C94E4E4E4F4E4EFFFFFFFFFFC94E4E4E4E4E72FFFFFFFFFFFFFF734E4D4E4E4E
310
C9FFFFFFFFFFAA683516171616265B9BE9FFFFFFFFFF4E4E4E4D4E4EFFFFFFFF
310
FFFFFFFF4E4E4F4E4D4E4E4E4F4E4E4F4D4E4E4E4E4E4D4E4F4E4D4E4E4EAAFF
310
FFFFFFFFFFEA4E4F4F4E4E4E4E4E4D4D4F4F4E4E4E4E4E5B7FAAFFFFFFFFFFFF
310
C9744E1716171616164D8DEAFFFFFFFF0000FFFFFFFFFFFFBA161617161716FF
310
FFFFFFFFB917171616174FFFFFFFFFFFFFFF4E1716161616B9FFFFFFB9341717
310
1716171617171616268CFFFFFFFF161617161617FFFFFFFFFFFFFFB917161717
310
1617167F807F7F7F7F7F7F807F7F807F7F807F7F7F414EFFFFFFFFFFFF8C167F
310
7F807F7F7F7E7F7F807F807F7F807F4E3417258EFFFFEA4E162674AABAEAEBBA
310
AA74341680FFFFFF0000FFFFFFFFFFFFB9171717171617FFFFFFFFFFBB161616
310
16164EFFFFFFFFFFFFFF4E1717171717B9FFFF9C171617171716161616171616
310
171766FFFFFF161717161617FFFFFFFFFFFFFF8E16171717161616FFFFFFFFFF
310
FFFFFFFFFFFFFFFFFFFFFFFFFFAA16D9FFFFFFFFFF3467FFFFFFFFEAFFFFFFFF
310
FFFFFFFFFFFFFFFFFFCA671667EB26278DFFFFFFFFFFFFFFFFFFFF8C2541EAFF
310
0000FFFFFFFFFFFFB9171717171716FFFFFFFFFFBA16171617174EFFFFFFFFFF
310
FFFF4E1717161616BAFF9B1617161616171716171617161616161667FFFF1616
310
16161716FFFFFFFFFFFFFF7F16161617174017FFFFFFFFFFFFFFFFFFFFFFFFFF
310
FFFFFFFFFFFF344E7F7F7F7E7417DAFFFFFFFF80FFFFFFFFFFFFFFFFFFFFFFFF
310
FFFFFF9B163425CAFFFFFFFFFFFFFFFFFFFFFFFFCA2667FF0000FFFFFFFFFFFF
310
BA171717171617FFFFFFFFFFB916171716164EFFFFFFFFFFFFFF4F1716161717
310
B9C91716171616161716161617171616161617168DFF161716161717FFFFFFFF
310
FFFFFF7F17171716164F16FFFFFFFFFFFFFFFFFFFFFFFFFFFFFFFFFFFFFF9B16
310
17161617174EFFFFFFFFFF34FFFFFFFFD9BABABABABADAFFFFFFFFFF7F16AAFF
310
FFFFFFFFFFFFFFFFFFFFFFFFFF9C16BA0000FFFFFFFFFFFFB9161717161717FF
310
FFFFFFFFB917161716174DFFFFFFFFFFFFFF4E1616161616BA4E161617171716
310
419BEAEAAA4E16161617161726E9171717161616FFFFFFFFFFFFFF4F16161717
310
164E16FFFFFFFFFFBAB9B9B9B9B9BABABACAFFFFFFFFFFFFFFFFFFFFFFFFFFFF
310
FFFFBA16FFFFFFFF7F1617161617174DEAFFFFFFEA41FFFFFFFFFFAA4D16174E
310
9BFFFFFFFFFF34730000FFFFFFFFFFFFB9161617171617FFFFFFFFFFBA161616
310
16164EFFFFFFFFFFFFFF4F16161717169B1617161716175BFFFFFFFFFFFF7417
310
16171616168D171717161617FFFFFFFFFFFFEA2616171717167416FFFFFFFFFF
310
16171616171717171717EAFFFFFFFFFFFFFFFFFFFFFFFFFFFFFF6716FFFFFFFF
310
7F4EFFFFFFFFBA2573FFFFFFFFBAFFFFFFFFAA167FB9BB9B269BFFFFFFFF664F
310
0000FFFFFFFFFFFFB9171616161616FFFFFFFFFFBA16161717164EFFFFFFFFFF
310
FFFF4E16161616174E161617171626EAFFFFFFFFFFFFFF4E16161616164E1716
310
16161617FFFFFFFFFFFF671616161716347F16FFFFFFFFFF16B9FFFFFFFFFFFF
310
D9168DFFFFFFFFFFFFFFFFFFFFFFFFFFFFEA1716FFFFFFFF7F4EFFFFFFFFFF7F
310
4EFFFFFFFFFFFFFFFFFF5B66FFFFFFEA347FFFFFFFFF7F4D0000FFFFFFFFFFFF
310
B9171616171617FFFFFFFFFFBA17161716174EFFFFFFFFFFFFFF4D1716161617
310
17161716161673FFFFFFFFFFFFFFFF9B1617161717161616171616174F4E4E4E
310
4E341616171616167E7F16FFFFFFFFFF16BAFFFFFFFFFFFFFF5B41FFFFFFFF34
310
1616171616BAFFFFFF9B1716FFFFFFFF7F4EFFFFFFFFFF4E4EFFFFFFFF734E4E
310
4E4E267EDA9B67164EEAFFFFFFFF744D0000FFFFFFFFFFFFBA171717161617FF
310
FFFFFFFFBA1616171616347F7F7F7F80807F331616161717161717161716B9FF
310
FFFFFFFFFFFFFFE9161616161616171716161716171616161616171616171734
310
EA7F16FFFFFFFFFF16BAFFFFFFFFFFFFFFAA17C9FFFFFF7326BABA5B25FFFFFF
310
FF401716FFFFFFFF7F264F4E4E4E4217AAFFFFFFEA16677F73261616164173CA
310
FFFFFFFFFFFF417F0000FFFFFFFFFFFFBA171616171617FFFFFFFFFFBA161616
310
17171616161616161616161717161616161616161617EAFFFFFFFFFFFFFFFFFF
310
261717161716161617161616161617161617161616174EEAFF8016FFFFFFFFFF
310
17BAFFFFFFFFFFFFFFFF3467FFFFFFC916C9FF3467FFFFFFDA166716FFFFFFFF
310
9C4D4E4E4E4E67AAFFFFFFFF6834FF7F262567AAEAFFFFFFFFFFFFFFFF9B17D9
310
0000FFFFFFFFFFFFB9161616161616FFFFFFFFFFBA1617161717171616161616
310
1716171716161716161617171716FFFFFFFFFFFFFFFFFFFF4E17161716171616
310
1617171616161716171717161616169BFF7F17FFFFFFFFFF17B9FFFFFFFFFFFF
310
FFFF7326FFFFFFFF3473DA16AAFFFFFF7317AA16FFFFFFFFFFFFFFFFFFFFFFFF
310
FFFFEA6725BA4E167FEAFFFFFFFFFFFFFFFFFFFF9C167FFF0000FFFFFFFFFFFF
310
B9161717171716FFFFFFFFFFBA16161716171616171717161617161716161616
310
171617171617EAFFFFFFFFFFFFFFFFFF26161717161616161616161617171616
310
1616161616171616AA8016FFFFFFFFFF16BAFFFFFFFFFFFFFFFFDA179BFFFFFF
310
74348D26FFFFFFFF2566B917FFFFFFFFD8BAB9BAB9BADAFFFFEA41169B7425C9
310
FFFFFFFFFFFFFFFFFFFFAB4F1680FFFF0000FFFFFFFFFFFFBA161717171617FF
310
FFFFFFFFBA17161717161617171617161616161617171616171716171617BBFF
310
FFFFFFFFFFFFFFE9171616161617161617161716FFFFFFFFFFD9671616161617
310
348017FFFFFFFFFF16BAFFFFFFFFFFFFFFFFFF4E5AFFFFFFC916265AFFFFFFAA
310
16AABA16FFFFFFFF7F1617161616179BFFFFEB4127168DFFFFFFFFFFFFFFD99B
310
6734175AC9FFFFFF0000FFFFFFFFFFFFB9161617171617FFFFFFFFFFBB161616
310
1616347F807F7F7F7F8033171716171617171616161672FFFFFFFFFFFFFFFF9C
310
171617171617161716161617FFFFFFFFFFFFFF4117161616174E17FFFFFFFFFF
310
16BAFFFFFFFFFFFFFFFFFF9B16DAFFFFFF34169BFFFFFF5A26FFB917FFFFFFFF
310
7F4EFFFFFFEA5B26FFFFFFEA2616EAFFFFFFFFDA743416331617414E4E4E4ECA
310
0000FFFFFFFFFFFFBA161716161616FFFFFFFFFFBA17171616164EFFFFFFFFFF
310
FFFF4E16161717174E161717171626EBFFFFFFFFFFFFFF4E16161617165B1616
310
16171617FFFFFFFFFFFFFF6716161616161617FFFFFFFFFF16BAFFFFFFFFFFFF
310
FFFFFFEA268CFFFFFF7316EAFFFFEB1774FFB916FFFFFFFF7F4EFFFFFFFF7316
310
FFFFFFFF6826FFFFFFFFEB264D9CEABA257F807F7F6616BA0000FFFFFFFFFFFF
310
BA161716161616FFFFFFFFFFBA16171616164DFFFFFFFFFFFFFF4E1617161617
310
9B1617171717165BEBFFFFFFFFFF671616161617179B171616161616FFFFFFFF
310
FFFFFF3417161617171617FFFFFFFFFF17BAFFFFFFFFFFFFFFFFFFFF6734FFFF
310
FFEBCAFFFFFF8D17C9FFBA17FFFFFFFF7F357F808066174FFFFFFFFF7F16FFFF
310
FFFFD91673B99B415BFFFFFFFFBA16DA00009B7F7F7F807F671617161616167F
310
80807F7E6617161616164EFFFFFFFFFFFFFF4E1616161617B94E171716161616
310
349BC9D9AA4E16171616161634FF161617161717B9B9BAB9BA9B411716171716
310
163416FFFFFFFFFF16B9FFFFFFFFFFFFFFFFFFFFC917CAFFFFFFFFFFFFFF3342
310
FFFFBA17FFFFFFFF9B4E4E4F4E4E66EAFFFFFFFF5B16C9FFFFFFFFAA4E164E73
310
EAFFFFFFFF8D26FF00004E161716161616171617171616171717171617161616
310
17174EFFFFFFFFFFFFFF4E1717171616B9D92616171716171716171717171716
310
16171716AAFF161717171617161617171616161617161716166717FFFFFFFFFF
310
17B9FFFFFFFFFFFFFFFFFFFFFF3467FFFFFFFFFFFFCA168CFFFFBB17FFFFFFFF
310
FFFFFFFFFFFFFFFFFFFFFFEA26265BFFFFFFFFFFFFFFFFFFFFFFFFFFEA3467FF
310
00004D16161616161617161717161617161616171617171616164EFFFFFFFFFF
310
FFFF4D1617161616BAFF9B1616161616161716161616171717161766FFFF1616
310
16171617161617161716171616171717667F16FFFFFFFFFF17BAFFFFFFFFFFFF
310
FFFFFFFFFF8C26EAFFFFFFFFFF6617EAFFFFBA17FFFFFFFFFFFFFFFFFFFFFFFF
310
FFFFEA5A25BA269BFFFFFFFFFFFFFFFFFFFFFFFF6616DAFF00004E1616171616
310
1616161616161716161617171616171616174EFFFFFFFFFFFFFF4D1717171716
310
B9FFFF9C161616161616161716161717171667FFFFFF17161717171716161617
310
1716161616161641E97E16FFFFFFFFFF16B9FFFFFFFFFFFFFFFFFFFFFFEA169B
310
FFFFFFFFEA265BFFFFFFB916FFFFFFFFFFFFFFFFFFFFFFFFFF9B3416AAFF9B17
310
67EAFFFFFFFFFFFFFFFFEA5B169BFFFF00004D17161716161616161717171616
310
161717161716171716174EFFFFFFFFFFFFFF4D1616161616BAFFFFFFBB411616
310
161716161616171634ABFFFFFFFF161716161617171716171617171617267FFF
310
FF7F164E4E4E4E4F17BAFFFFFFFFFFFFFFFFFFFFFFFF66344D4E4E4F4117AAFF
310
FFFFBA174E4E4E4D4E4D4D4E4E4E4E4116174EBBFFFFFFCA342666ABEAFFFFEA
310
AA6725269CFFFFFF0000724F4E4D4D4D4E4D4D4E4E4E4D4E4E4E4E4E4E4E4E4D
310
4E4E74FFFFFFFFFFFFFF734E4E4E4D4ECAFFFFFFFFFFAA663416171717265B9B
310
FFFFFFFFFFFF7F8080807F80807F7F7F7F7F807FBAFFFFFFFF9B4E4E4F4D4D4E
310
4DC9FFFFFFFFFFFFFFFFFFFFFFFFBA4E4E4E4E4D4E4EFFFFFFFFC94E4E4E4F4E
310
4E4E4D4E4E5A807F9CD9FFFFFFFFFFFFFF9B5B2617171716174E8DEAFFFFFFFF
310
0000000000000000000000000000000000000000000000000000000000000000
  1
OLE
  0
ENDSEC
  0
SECTION
  2
OBJECTS
  0
DICTIONARY
  5
C
330
0
100
AcDbDictionary
281
     1
  3
ACAD_GROUP
350
D
  3
ACAD_LAYOUT
350
1A
  3
ACAD_MLINESTYLE
350
17
  3
ACAD_PLOTSETTINGS
350
19
  3
ACAD_PLOTSTYLENAME
350
E
  3
ACAD_SCALELIST
350
47
  0
DICTIONARY
  5
D
102
{ACAD_REACTORS
330
C
102
}
330
C
100
AcDbDictionary
281
     1
  0
DICTIONARY
  5
1A
102
{ACAD_REACTORS
330
C
102
}
330
C
100
AcDbDictionary
281
     1
  3
Layout1
350
1E
  3
Layout2
350
26
  3
Model
350
22
  0
DICTIONARY
  5
17
102
{ACAD_REACTORS
330
C
102
}
330
C
100
AcDbDictionary
281
     1
  3
Standard
350
18
  0
DICTIONARY
  5
19
102
{ACAD_REACTORS
330
C
102
}
330
C
100
AcDbDictionary
281
     1
  0
ACDBDICTIONARYWDFLT
  5
E
102
{ACAD_REACTORS
330
C
102
}
330
C
100
AcDbDictionary
281
     1
  3
Normal
350
F
100
AcDbDictionaryWithDefault
340
F
  0
DICTIONARY
  5
47
102
{ACAD_REACTORS
330
C
102
}
330
C
100
AcDbDictionary
281
     1
  3
A0
350
48
  3
A1
350
49
  3
A2
350
4A
  3
A3
350
4B
  3
A4
350
4C
  3
A5
350
4D
  3
A6
350
4E
  3
A7
350
4F
  3
A8
350
50
  3
A9
350
51
  3
B0
350
52
  3
B1
350
53
  3
B2
350
54
  3
B3
350
55
  3
B4
350
56
  3
B5
350
57
  3
B6
350
58
  3
B7
350
59
  3
B8
350
5A
  3
B9
350
5B
  3
C0
350
5C
  3
C1
350
5D
  3
C2
350
5E
  3
C3
350
5F
  3
C4
350
60
  3
C5
350
61
  3
C6
350
62
  3
C7
350
63
  3
C8
350
64
  3
C9
350
65
  3
D0
350
66
  3
D1
350
67
  3
D2
350
68
  0
LAYOUT
  5
1E
102
{ACAD_REACTORS
330
1A
102
}
330
1A
100
AcDbPlotSettings
  1

  2
none_device
  4

  6

 40
0.0
 41
0.0
 42
0.0
 43
0.0
 44
0.0
 45
0.0
 46
0.0
 47
0.0
 48
0.0
 49
0.0
140
0.0
141
0.0
142
1.0
143
1.0
 70
   688
 72
     0
 73
     0
 74
     5
  7

 75
    16
147
1.0
148
0.0
149
0.0
100
AcDbLayout
  1
Layout1
 70
     1
 71
     1
 10
0.0
 20
0.0
 11
12.0
 21
9.0
 12
0.0
 22
0.0
 32
0.0
 14
1.0000000000E+20
 24
1.0000000000E+20
 34
1.0000000000E+20
 15
-1.0000000000E+20
 25
-1.0000000000E+20
 35
-1.0000000000E+20
146
0.0
 13
0.0
 23
0.0
 33
0.0
 16
1.0
 26
0.0
 36
0.0
 17
0.0
 27
1.0
 37
0.0
 76
     0
330
1B
  0
LAYOUT
  5
26
102
{ACAD_REACTORS
330
1A
102
}
330
1A
100
AcDbPlotSettings
  1

  2
none_device
  4

  6

 40
0.0
 41
0.0
 42
0.0
 43
0.0
 44
0.0
 45
0.0
 46
0.0
 47
0.0
 48
0.0
 49
0.0
140
0.0
141
0.0
142
1.0
143
1.0
 70
   688
 72
     0
 73
     0
 74
     5
  7

 75
    16
147
1.0
148
0.0
149
0.0
100
AcDbLayout
  1
Layout2
 70
     1
 71
     2
 10
0.0
 20
0.0
 11
0.0
 21
0.0
 12
0.0
 22
0.0
 32
0.0
 14
0.0
 24
0.0
 34
0.0
 15
0.0
 25
0.0
 35
0.0
146
0.0
 13
0.0
 23
0.0
 33
0.0
 16
1.0
 26
0.0
 36
0.0
 17
0.0
 27
1.0
 37
0.0
 76
     0
330
23
  0
LAYOUT
  5
22
102
{ACAD_REACTORS
330
1A
102
}
330
1A
100
AcDbPlotSettings
  1

  2
none_device
  4
Letter_(8.50_x_11.00_Inches)
  6

 40
6.35
 41
6.35
 42
6.35000508
 43
6.35000508
 44
215.9
 45
279.4
 46
0.0
 47
0.0
 48
0.0
 49
0.0
140
0.0
141
0.0
142
1.0
143
1.0
 70
  1712
 72
     0
 73
     0
 74
     0
  7

 75
     0
147
1.0
148
0.0
149
0.0
100
AcDbLayout
  1
Model
 70
     1
 71
     0
 10
0.0
 20
0.0
 11
11.0
 21
8.5
 12
0.0
 22
0.0
 32
0.0
 14
0.0
 24
0.0
 34
0.0
 15
11.0
 25
8.5
 35
0.0
146
0.0
 13
0.0
 23
0.0
 33
0.0
 16
1.0
 26
0.0
 36
0.0
 17
0.0
 27
1.0
 37
0.0
 76
     0
330
1F
331
29
  0
MLINESTYLE
  5
18
102
{ACAD_REACTORS
330
17
102
}
330
17
100
AcDbMlineStyle
  2
Standard
 70
     0
  3

 62
   256
 51
90.0
 52
90.0
 71
     2
 49
0.5
 62
   256
  6
BYLAYER
 49
-0.5
 62
   256
  6
BYLAYER
  0
ACDBPLACEHOLDER
  5
F
102
{ACAD_REACTORS
330
E
102
}
330
E
  0
SCALE
  5
48
102
{ACAD_REACTORS
330
47
102
}
330
47
100
AcDbScale
 70
     0
300
1:1
140
1.0
141
1.0
290
     1
  0
SCALE
  5
49
102
{ACAD_REACTORS
330
47
102
}
330
47
100
AcDbScale
 70
     0
300
1:2
140
1.0
141
2.0
290
     0
  0
SCALE
  5
4A
102
{ACAD_REACTORS
330
47
102
}
330
47
100
AcDbScale
 70
     0
300
1:4
140
1.0
141
4.0
290
     0
  0
SCALE
  5
4B
102
{ACAD_REACTORS
330
47
102
}
330
47
100
AcDbScale
 70
     0
300
1:5
140
1.0
141
5.0
290
     0
  0
SCALE
  5
4C
102
{ACAD_REACTORS
330
47
102
}
330
47
100
AcDbScale
 70
     0
300
1:8
140
1.0
141
8.0
290
     0
  0
SCALE
  5
4D
102
{ACAD_REACTORS
330
47
102
}
330
47
100
AcDbScale
 70
     0
300
1:10
140
1.0
141
10.0
290
     0
  0
SCALE
  5
4E
102
{ACAD_REACTORS
330
47
102
}
330
47
100
AcDbScale
 70
     0
300
1:16
140
1.0
141
16.0
290
     0
  0
SCALE
  5
4F
102
{ACAD_REACTORS
330
47
102
}
330
47
100
AcDbScale
 70
     0
300
1:20
140
1.0
141
20.0
290
     0
  0
SCALE
  5
50
102
{ACAD_REACTORS
330
47
102
}
330
47
100
AcDbScale
 70
     0
300
1:30
140
1.0
141
30.0
290
     0
  0
SCALE
  5
51
102
{ACAD_REACTORS
330
47
102
}
330
47
100
AcDbScale
 70
     0
300
1:40
140
1.0
141
40.0
290
     0
  0
SCALE
  5
52
102
{ACAD_REACTORS
330
47
102
}
330
47
100
AcDbScale
 70
     0
300
1:50
140
1.0
141
50.0
290
     0
  0
SCALE
  5
53
102
{ACAD_REACTORS
330
47
102
}
330
47
100
AcDbScale
 70
     0
300
1:100
140
1.0
141
100.0
290
     0
  0
SCALE
  5
54
102
{ACAD_REACTORS
330
47
102
}
330
47
100
AcDbScale
 70
     0
300
2:1
140
2.0
141
1.0
290
     0
  0
SCALE
  5
55
102
{ACAD_REACTORS
330
47
102
}
330
47
100
AcDbScale
 70
     0
300
4:1
140
4.0
141
1.0
290
     0
  0
SCALE
  5
56
102
{ACAD_REACTORS
330
47
102
}
330
47
100
AcDbScale
 70
     0
300
8:1
140
8.0
141
1.0
290
     0
  0
SCALE
  5
57
102
{ACAD_REACTORS
330
47
102
}
330
47
100
AcDbScale
 70
     0
300
10:1
140
10.0
141
1.0
290
     0
  0
SCALE
  5
58
102
{ACAD_REACTORS
330
47
102
}
330
47
100
AcDbScale
 70
     0
300
100:1
140
100.0
141
1.0
290
     0
  0
SCALE
  5
59
102
{ACAD_REACTORS
330
47
102
}
330
47
100
AcDbScale
 70
     0
300
1/128" = 1'-0"
140
0.0078125
141
12.0
290
     0
  0
SCALE
  5
5A
102
{ACAD_REACTORS
330
47
102
}
330
47
100
AcDbScale
 70
     0
300
1/64" = 1'-0"
140
0.015625
141
12.0
290
     0
  0
SCALE
  5
5B
102
{ACAD_REACTORS
330
47
102
}
330
47
100
AcDbScale
 70
     0
300
1/32" = 1'-0"
140
0.03125
141
12.0
290
     0
  0
SCALE
  5
5C
102
{ACAD_REACTORS
330
47
102
}
330
47
100
AcDbScale
 70
     0
300
1/16" = 1'-0"
140
0.0625
141
12.0
290
     0
  0
SCALE
  5
5D
102
{ACAD_REACTORS
330
47
102
}
330
47
100
AcDbScale
 70
     0
300
3/32" = 1'-0"
140
0.09375
141
12.0
290
     0
  0
SCALE
  5
5E
102
{ACAD_REACTORS
330
47
102
}
330
47
100
AcDbScale
 70
     0
300
1/8" = 1'-0"
140
0.125
141
12.0
290
     0
  0
SCALE
  5
5F
102
{ACAD_REACTORS
330
47
102
}
330
47
100
AcDbScale
 70
     0
300
3/16" = 1'-0"
140
0.1875
141
12.0
290
     0
  0
SCALE
  5
60
102
{ACAD_REACTORS
330
47
102
}
330
47
100
AcDbScale
 70
     0
300
1/4" = 1'-0"
140
0.25
141
12.0
290
     0
  0
SCALE
  5
61
102
{ACAD_REACTORS
330
47
102
}
330
47
100
AcDbScale
 70
     0
300
3/8" = 1'-0"
140
0.375
141
12.0
290
     0
  0
SCALE
  5
62
102
{ACAD_REACTORS
330
47
102
}
330
47
100
AcDbScale
 70
     0
300
1/2" = 1'-0"
140
0.5
141
12.0
290
     0
  0
SCALE
  5
63
102
{ACAD_REACTORS
330
47
102
}
330
47
100
AcDbScale
 70
     0
300
3/4" = 1'-0"
140
0.75
141
12.0
290
     0
  0
SCALE
  5
64
102
{ACAD_REACTORS
330
47
102
}
330
47
100
AcDbScale
 70
     0
300
1" = 1'-0"
140
1.0
141
12.0
290
     0
  0
SCALE
  5
65
102
{ACAD_REACTORS
330
47
102
}
330
47
100
AcDbScale
 70
     0
300
1-1/2" = 1'-0"
140
1.5
141
12.0
290
     0
  0
SCALE
  5
66
102
{ACAD_REACTORS
330
47
102
}
330
47
100
AcDbScale
 70
     0
300
3" = 1'-0"
140
3.0
141
12.0
290
     0
  0
SCALE
  5
67
102
{ACAD_REACTORS
330
47
102
}
330
47
100
AcDbScale
 70
     0
300
6" = 1'-0"
140
6.0
141
12.0
290
     0
  0
SCALE
  5
68
102
{ACAD_REACTORS
330
47
102
}
330
47
100
AcDbScale
 70
     0
300
1'-0" = 1'-0"
140
12.0
141
12.0
290
     0
  0
ENDSEC
  0
EOF
