  0
SECTION
  2
HEADER
  9
$ACADVER
  1
AC1012
  9
$DWGCODEPAGE
  3
ansi_1252
  9
$INSBASE
 10
0.0
 20
0.0
 30
0.0
  9
$EXTMIN
 10
0.0
 20
0.0
 30
0.0
  9
$EXTMAX
 10
11.0
 20
8.5
 30
0.0
  9
$LIMMIN
 10
0.0
 20
0.0
  9
$LIMMAX
 10
0.0
 20
0.0
  9
$ORTHOMODE
 70
         0
  9
$REGENMODE
 70
         1
  9
$FILLMODE
 70
         1
  9
$QTEXTMODE
 70
         0
  9
$MIRRTEXT
 70
         1
  9
$DRAGMODE
 70
         2
  9
$LTSCALE
 40
1.0
  9
$OSMODE
 70
         0
  9
$ATTMODE
 70
         1
  9
$TEXTSIZE
 40
0.125
  9
$TRACEWID
 40
0.05
  9
$TEXTSTYLE
  7
STANDARD
  9
$CLAYER
  8
0
  9
$CELTYPE
  6
CONTINUOUS
  9
$CECOLOR
 62
       256
  9
$CELTSCALE
 40
1.0
  9
$DELOBJ
 70
         1
  9
$DISPSILH
 70
         0
  9
$DIMSCALE
 40
1.0
  9
$DIMASZ
 40
39.3700787402
  9
$DIMEXO
 40
0.0
  9
$DIMDLI
 40
0.38
  9
$DIMRND
 40
0.0
  9
$DIMDLE
 40
39.3700787402
  9
$DIMEXE
 40
0.18
  9
$DIMTP
 40
0.0
  9
$DIMTM
 40
0.0
  9
$DIMTXT
 40
0.125
  9
$DIMCEN
 40
0.09
  9
$DIMTSZ
 40
0.0
  9
$DIMTOL
 70
         0
  9
$DIMLIM
 70
         0
  9
$DIMTIH
 70
         1
  9
$DIMTOH
 70
         1
  9
$DIMSE1
 70
         0
  9
$DIMSE2
 70
         0
  9
$DIMTAD
 70
         0
  9
$DIMZIN
 70
         1
  9
$DIMBLK
  1

  9
$DIMASO
 70
         1
  9
$DIMSHO
 70
         1
  9
$DIMPOST
  1

  9
$DIMAPOST
  1

  9
$DIMALT
 70
         0
  9
$DIMALTD
 70
         2
  9
$DIMALTF
 40
25.4
  9
$DIMLFAC
 40
1.0
  9
$DIMTOFL
 70
         0
  9
$DIMTVP
 40
0.0
  9
$DIMTIX
 70
         0
  9
$DIMSOXD
 70
         0
  9
$DIMSAH
 70
         0
  9
$DIMBLK1
  1

  9
$DIMBLK2
  1

  9
$DIMSTYLE
  2
STANDARD
  9
$DIMCLRD
 70
         0
  9
$DIMCLRE
 70
         0
  9
$DIMCLRT
 70
         0
  9
$DIMTFAC
 40
1.0
  9
$DIMGAP
 40
0.0
  9
$DIMJUST
 70
         0
  9
$DIMSD1
 70
         0
  9
$DIMSD2
 70
         0
  9
$DIMTOLJ
 70
         1
  9
$DIMTZIN
 70
         1
  9
$DIMALTZ
 70
         0
  9
$DIMALTTZ
 70
         0
  9
$DIMFIT
 70
         3
  9
$DIMUPT
 70
         0
  9
$DIMUNIT
 70
         2
  9
$DIMDEC
 70
         4
  9
$DIMTDEC
 70
         4
  9
$DIMALTU
 70
         2
  9
$DIMALTTD
 70
         2
  9
$DIMTXSTY
  7
STANDARD
  9
$DIMAUNIT
 70
         0
  9
$LUNITS
 70
         2
  9
$LUPREC
 70
         2
  9
$SKETCHINC
 40
0.1
  9
$FILLETRAD
 40
0.0
  9
$AUNITS
 70
         0
  9
$AUPREC
 70
         2
  9
$MENU
  1
acad
  9
$ELEVATION
 40
0.0
  9
$PELEVATION
 40
0.0
  9
$THICKNESS
 40
0.0
  9
$LIMCHECK
 70
         0
  9
$BLIPMODE
 70
         1
  9
$CHAMFERA
 40
0.0
  9
$CHAMFERB
 40
0.0
  9
$CHAMFERC
 40
0.0
  9
$CHAMFERD
 40
0.0
  9
$SKPOLY
 70
         0
  9
$TDCREATE
 40
0.000000000
  9
$TDUPDATE
 40
0.000000000
  9
$TDINDWG
 40
0.0000000000
  9
$TDUSRTIMER
 40
0.0000000000
  9
$USRTIMER
 70
         1
  9
$ANGBASE
 50
0.0
  9
$ANGDIR
 70
         0
  9
$PDMODE
 70
         0
  9
$PDSIZE
 40
-1.0
  9
$PLINEWID
 40
0.0
  9
$COORDS
 70
         0
  9
$SPLFRAME
 70
         0
  9
$SPLINETYPE
 70
         6
  9
$SPLINESEGS
 70
         8
  9
$ATTDIA
 70
         0
  9
$ATTREQ
 70
         1
  9
$HANDLING
 70
         1
  9
$HANDSEED
  5
309
  9
$SURFTAB1
 70
         6
  9
$SURFTAB2
 70
         6
  9
$SURFTYPE
 70
         6
  9
$SURFU
 70
         6
  9
$SURFV
 70
         6
  9
$UCSNAME
  2

  9
$UCSORG
 10
0.0
 20
0.0
 30
0.0
  9
$UCSXDIR
 10
1.0
 20
0.0
 30
0.0
  9
$UCSYDIR
 10
0.0
 20
1.0
 30
0.0
  9
$PUCSNAME
  2

  9
$PUCSORG
 10
0.0
 20
0.0
 30
0.0
  9
$PUCSXDIR
 10
1.0
 20
0.0
 30
0.0
  9
$PUCSYDIR
 10
0.0
 20
1.0
 30
0.0
  9
$USERI1
 70
         0
  9
$USERI2
 70
         0
  9
$USERI3
 70
         0
  9
$USERI4
 70
         0
  9
$USERI5
 70
         0
  9
$USERR1
 40
0.0
  9
$USERR2
 40
0.0
  9
$USERR3
 40
0.0
  9
$USERR4
 40
0.0
  9
$USERR5
 40
0.0
  9
$WORLDVIEW
 70
         1
  9
$SHADEDGE
 70
         3
  9
$SHADEDIF
 70
        70
  9
$TILEMODE
 70
         1
  9
$MAXACTVP
 70
        16
  9
$PINSBASE
 10
0.0
 20
0.0
 30
0.0
  9
$PLIMCHECK
 70
         0
  9
$PEXTMIN
 10
1.0000000000E+20
 20
1.0000000000E+20
 30
1.0000000000E+20
  9
$PEXTMAX
 10
-1.0000000000E+20
 20
-1.0000000000E+20
 30
-1.0000000000E+20
  9
$PLIMMIN
 10
0.0
 20
0.0
  9
$PLIMMAX
 10
12.0
 20
9.0
  9
$UNITMODE
 70
         0
  9
$VISRETAIN
 70
         0
  9
$PLINEGEN
 70
         1
  9
$PSLTSCALE
 70
         1
  9
$TREEDEPTH
 70
      3020
  9
$PICKSTYLE
 70
         1
  9
$CMLSTYLE
  2
STANDARD
  9
$CMLJUST
 70
         0
  9
$CMLSCALE
 40
1.0
  9
$SAVEIMAGES
 70
         0
  0
ENDSEC
  0
SECTION
  2
CLASSES
  0
CLASS
  1
LWPOLYLINE
  2
AcDbPolyline
  3
"AutoCAD"
 90
    32768
280
         0
281
         1
  0
CLASS
  1
IMAGE
  2
AcDbRasterImage
  3
ISM
 90
    32895
280
         0
281
         1
  0
CLASS
  1
OLE2FRAME
  2
AcDbOle2Frame
  3
""
 90
    32768
280
         0
281
         1
  0
CLASS
  1
HATCH
  2
AcDbHatch
  3
"ACAD_SEDONA"
 90
    32768
280
         0
281
         1
  0
CLASS
  1
DICTIONARYVAR
  2
AcDbDictionaryVar
  3
"AutoCAD"
 90
    32768
280
         0
281
         0
  0
CLASS
  1
RASTERVARIABLES
  2
AcDbRasterVariables
  3
ISM
 90
    32768
280
         0
281
         0
  0
CLASS
  1
IMAGEDEF
  2
AcDbRasterImageDef
  3
ISM
 90
    32768
280
         0
281
         0
  0
CLASS
  1
IMAGEDEF_REACTOR
  2
AcDbRasterImageDefReactor
  3
ISM
 90
    32769
280
         0
281
         0
  0
CLASS
  1
IDBUFFER
  2
AcDbIdBuffer
  3
"Acad"
 90
    32768
280
         0
281
         0
  0
CLASS
  1
SPATIAL_FILTER
  2
AcDbSpatialFilter
  3
"Acad"
 90
    32768
280
         0
281
         0
  0
CLASS
  1
XRECORD
  2
AcDbXrecord
  3
"<Built In>"
 90
    32768
280
         0
281
         0
  0
CLASS
  1
SORTENTSTABLE
  2
AcDbSortentsTable
  3
"AutoCAD"
 90
    32768
280
         0
281
         0
  0
CLASS
  1
LAYER_INDEX
  2
AcDbLayerIndex
  3
"Acad"
 90
    32768
280
         0
281
         0
  0
CLASS
  1
SPATIAL_INDEX
  2
AcDbSpatialIndex
  3
"Acad"
 90
    32768
280
         0
281
         0
  0
CLASS
  1
OBJECT_PTR
  2
CAseDLPNTableRecord
  3
"ASE-LPNTableRecord"
 90
    32769
280
         0
281
         0
  0
CLASS
  1
LAYOUT
  2
AcDbLayout
  3
"AutoCAD 2000"
 90
    32768
280
         0
281
         0
  0
CLASS
  1
PLOTSETTINGS
  2
AcDbPlotSettings
  3
"AutoCAD 2000"
 90
    32768
280
         0
281
         0
  0
CLASS
  1
ACDBDICTIONARYWDFLT
  2
AcDbDictionaryWithDefault
  3
"AutoCAD 2000"
 90
    32768
280
         0
281
         0
  0
CLASS
  1
ACDBPLACEHOLDER
  2
AcDbPlaceHolder
  3
"AutoCAD 2000"
 90
    32768
280
         0
281
         0
  0
CLASS
  1
VBA_PROJECT
  2
AcDbVbaProject
  3
"acadvba"
 90
    32768
280
         0
281
         0
  0
CLASS
  1
WIPEOUT
  2
AcDbWipeout
  3
WipeOut|AutoCAD Express Tool|expresstools@autodesk.com
 90
    32895
280
         0
281
         1
  0
CLASS
  1
WIPEOUTVARIABLES
  2
AcDbWipeoutVariables
  3
WipeOut|AutoCAD Express Tool|expresstools@autodesk.com
 90
    32768
280
         0
281
         0
  0
CLASS
  1
RTEXT
  2
RText
  3
RText|AutoCAD Express Tool|expresstools@autodesk.com
 90
    32768
280
         0
281
         1
  0
CLASS
  1
ARCALIGNEDTEXT
  2
AcDbArcAlignedText
  3
ATEXT|AutoCAD Express Tool|expresstools@autodesk.com
 90
    32768
280
         0
281
         1
  0
ENDSEC
  0
SECTION
  2
TABLES
  0
TABLE
  2
VPORT
  5
7
100
AcDbSymbolTable
 70
         1
  0
VPORT
  5
15
100
AcDbSymbolTableRecord
100
AcDbViewportTableRecord
  2
*ACTIVE
 70
         0
 10
0.0
 20
0.0
 11
1.0
 21
1.0
 12
5.5
 22
4.25
 13
0.0
 23
0.0
 14
1.0
 24
1.0
 15
0.0
 25
0.0
 16
0.0
 26
0.0
 36
1.0
 17
0.0
 27
0.0
 37
0.0
 40
8.5
 41
0.7727272727
 42
50.0
 43
0.0
 44
0.0
 50
0.0
 51
0.0
 71
         0
 72
      2000
 73
         1
 74
         1
 75
         0
 76
         0
 77
         0
 78
         0
  0
ENDTAB
  0
TABLE
  2
LTYPE
  5
4
100
AcDbSymbolTable
 70
         8
  0
LTYPE
  5
11
100
AcDbSymbolTableRecord
100
AcDbLinetypeTableRecord
  2
BYBLOCK
 70
        64
  3

 72
        65
 73
         0
 40
0.0
  0
LTYPE
  5
12
100
AcDbSymbolTableRecord
100
AcDbLinetypeTableRecord
  2
BYLAYER
 70
        64
  3

 72
        65
 73
         0
 40
0.0
  0
LTYPE
  5
13
100
AcDbSymbolTableRecord
100
AcDbLinetypeTableRecord
  2
CONTINUOUS
 70
        64
  3
Solid line
 72
        65
 73
         0
 40
0.0
  0
LTYPE
  5
1D
100
AcDbSymbolTableRecord
100
AcDbLinetypeTableRecord
  2
HIDDEN
 70
        64
  3
Hidden __ __ __ __ __ __ __ __ __ __ __ __ __ __
 72
        65
 73
         2
 40
0.075
 49
0.05
 74
         0
 49
-0.025
 74
         0
  0
LTYPE
  5
1E
100
AcDbSymbolTableRecord
100
AcDbLinetypeTableRecord
  2
PHANTOM
 70
        64
  3
Phantom ______  __  __  ______  __  __  ______
 72
        65
 73
         6
 40
0.5
 49
0.25
 74
         0
 49
-0.05
 74
         0
 49
0.05
 74
         0
 49
-0.05
 74
         0
 49
0.05
 74
         0
 49
-0.05
 74
         0
  0
LTYPE
  5
1F
100
AcDbSymbolTableRecord
100
AcDbLinetypeTableRecord
  2
CENTER
 70
        64
  3
Center ____ _ ____ _ ____ _ ____ _ ____ _ ____
 72
        65
 73
         4
 40
0.4
 49
0.25
 74
         0
 49
-0.05
 74
         0
 49
0.05
 74
         0
 49
-0.05
 74
         0
  0
LTYPE
  5
20
100
AcDbSymbolTableRecord
100
AcDbLinetypeTableRecord
  2
CENTERX2
 70
        64
  3
Center (2x) ________  __  ________  __  _____
 72
        65
 73
         4
 40
0.8
 49
0.5
 74
         0
 49
-0.1
 74
         0
 49
0.1
 74
         0
 49
-0.1
 74
         0
  0
LTYPE
  5
21
100
AcDbSymbolTableRecord
100
AcDbLinetypeTableRecord
  2
DOT2
 70
        64
  3
Dot (.5x) ........................................
 72
        65
 73
         2
 40
0.025
 49
0.0
 74
         0
 49
-0.025
 74
         0
  0
ENDTAB
  0
TABLE
  2
LAYER
  5
2
100
AcDbSymbolTable
 70
         3
  0
LAYER
  5
14
100
AcDbSymbolTableRecord
100
AcDbLayerTableRecord
  2
0
 70
         0
 62
         7
  6
CONTINUOUS
  0
LAYER
  5
23
100
AcDbSymbolTableRecord
100
AcDbLayerTableRecord
  2
DEFPOINTS
 70
         0
 62
         7
  6
CONTINUOUS
  0
LAYER
  5
24
100
AcDbSymbolTableRecord
100
AcDbLayerTableRecord
  2
FORMAT
 70
         0
 62
         7
  6
CONTINUOUS
  0
ENDTAB
  0
TABLE
  2
STYLE
  5
3
100
AcDbSymbolTable
 70
         2
  0
STYLE
  5
17
100
AcDbSymbolTableRecord
100
AcDbTextStyleTableRecord
  2
STANDARD
 70
         0
 40
0.0
 41
1.0
 50
0.0
 71
         0
 42
0.0
  3
txt
  4

  0
STYLE
  5
49
100
AcDbSymbolTableRecord
100
AcDbTextStyleTableRecord
  2
SLDTEXTSTYLE0
 70
         0
 40
0.0
 41
0.75
 50
0.0
 71
         0
 42
0.0
  3
TXT
  4

  0
ENDTAB
  0
TABLE
  2
VIEW
  5
5
100
AcDbSymbolTable
 70
         0
  0
ENDTAB
  0
TABLE
  2
UCS
  5
6
100
AcDbSymbolTable
 70
         0
  0
ENDTAB
  0
TABLE
  2
APPID
  5
8
100
AcDbSymbolTable
 70
         1
  0
APPID
  5
16
100
AcDbSymbolTableRecord
100
AcDbRegAppTableRecord
  2
ACAD
 70
         0
  0
ENDTAB
  0
TABLE
  2
DIMSTYLE
  5
9
100
AcDbSymbolTable
 70
         4
  0
DIMSTYLE
105
18
100
AcDbSymbolTableRecord
100
AcDbDimStyleTableRecord
  2
STANDARD
 70
         0
  3

  4

  5

  6

  7

 40
1.0
 41
0.18
 42
0.0625
 43
0.38
 44
0.18
 45
0.0
 46
0.0
 47
0.0
 48
0.0
 71
         0
 72
         0
 73
         1
 74
         1
 75
         0
 76
         0
 77
         0
 78
         0
140
0.18
141
0.09
142
0.0
143
25.4
144
1.0
145
0.0
146
1.0
147
0.09
170
         0
171
         2
172
         0
173
         0
174
         0
175
         0
176
         0
177
         0
178
         0
270
         2
271
         4
272
         4
273
         2
274
         2
275
         0
280
         0
281
         0
282
         0
283
         1
284
         0
285
         0
286
         0
287
         3
288
         0
340
17
  0
DIMSTYLE
105
241
100
AcDbSymbolTableRecord
100
AcDbDimStyleTableRecord
  2
SLDDIMSTYLE0
 70
         0
  3

  4

  5

  6

  7

 40
1.0
 41
0.156
 42
0.0625
 43
0.38
 44
0.07
 45
0.0
 46
0.0
 47
0.0
 48
0.0
 71
         0
 72
         0
 73
         1
 74
         1
 75
         0
 76
         0
 77
         0
 78
         8
140
0.125
141
0.09
142
0.0
143
25.4
144
1.0
145
0.0
146
1.0
147
0.03125
170
         0
171
         2
172
         0
173
         1
174
         0
175
         0
176
         7
177
         7
178
         7
270
         2
271
         2
272
         4
273
         2
274
         2
275
         0
280
         0
281
         0
282
         0
283
         1
284
        12
285
         0
286
         0
287
         3
288
         0
340
49
  0
DIMSTYLE
105
25E
100
AcDbSymbolTableRecord
100
AcDbDimStyleTableRecord
  2
SLDDIMSTYLE1
 70
         0
  3

  4

  5

  6

  7

 40
1.0
 41
0.156
 42
0.0625
 43
0.38
 44
0.07
 45
0.0
 46
0.0
 47
0.0
 48
0.0
 71
         0
 72
         0
 73
         1
 74
         1
 75
         0
 76
         0
 77
         0
 78
        12
140
0.125
141
0.09
142
0.0
143
25.4
144
1.0
145
0.0
146
1.0
147
0.03125
170
         0
171
         2
172
         0
173
         1
174
         0
175
         0
176
         7
177
         7
178
         7
270
         2
271
         2
272
         4
273
         2
274
         2
275
         0
280
         0
281
         0
282
         0
283
         1
284
        12
285
         0
286
         0
287
         3
288
         0
340
49
  0
DIMSTYLE
105
272
100
AcDbSymbolTableRecord
100
AcDbDimStyleTableRecord
  2
SLDDIMSTYLE2
 70
         0
  3

  4

  5

  6

  7

 40
1.0
 41
0.156
 42
0.0625
 43
0.38
 44
0.0
 45
0.0
 46
0.0
 47
0.0
 48
0.0
 71
         0
 72
         0
 73
         1
 74
         1
 75
         0
 76
         0
 77
         0
 78
         0
140
0.156
141
0.09
142
0.0
143
25.4
144
1.0
145
0.0
146
1.0
147
0.039
170
         0
171
         2
172
         0
173
         1
174
         0
175
         0
176
         0
177
         0
178
         0
270
         2
271
         0
272
         0
273
         2
274
         2
275
         0
280
         0
281
         0
282
         0
283
         1
284
         0
285
         0
286
         0
287
         3
288
         0
340
17
  0
ENDTAB
  0
TABLE
  2
BLOCK_RECORD
  5
1
100
AcDbSymbolTable
 70
        33
  0
BLOCK_RECORD
  5
A
100
AcDbSymbolTableRecord
100
AcDbBlockTableRecord
  2
*MODEL_SPACE
  0
BLOCK_RECORD
  5
B
100
AcDbSymbolTableRecord
100
AcDbBlockTableRecord
  2
*PAPER_SPACE
  0
BLOCK_RECORD
  5
45
100
AcDbSymbolTableRecord
100
AcDbBlockTableRecord
  2
NOTE0
  0
BLOCK_RECORD
  5
4C
100
AcDbSymbolTableRecord
100
AcDbBlockTableRecord
  2
NOTE3
  0
BLOCK_RECORD
  5
5A
100
AcDbSymbolTableRecord
100
AcDbBlockTableRecord
  2
NOTE14
  0
BLOCK_RECORD
  5
74
100
AcDbSymbolTableRecord
100
AcDbBlockTableRecord
  2
NOTE19
  0
BLOCK_RECORD
  5
7C
100
AcDbSymbolTableRecord
100
AcDbBlockTableRecord
  2
NOTE24
  0
BLOCK_RECORD
  5
82
100
AcDbSymbolTableRecord
100
AcDbBlockTableRecord
  2
NOTE25
  0
BLOCK_RECORD
  5
86
100
AcDbSymbolTableRecord
100
AcDbBlockTableRecord
  2
NOTE26
  0
BLOCK_RECORD
  5
8A
100
AcDbSymbolTableRecord
100
AcDbBlockTableRecord
  2
NOTE27
  0
BLOCK_RECORD
  5
8E
100
AcDbSymbolTableRecord
100
AcDbBlockTableRecord
  2
NOTE28
  0
BLOCK_RECORD
  5
92
100
AcDbSymbolTableRecord
100
AcDbBlockTableRecord
  2
NOTE29
  0
BLOCK_RECORD
  5
96
100
AcDbSymbolTableRecord
100
AcDbBlockTableRecord
  2
NOTE30
  0
BLOCK_RECORD
  5
9A
100
AcDbSymbolTableRecord
100
AcDbBlockTableRecord
  2
NOTE31
  0
BLOCK_RECORD
  5
9E
100
AcDbSymbolTableRecord
100
AcDbBlockTableRecord
  2
NOTE32
  0
BLOCK_RECORD
  5
A2
100
AcDbSymbolTableRecord
100
AcDbBlockTableRecord
  2
NOTE33
  0
BLOCK_RECORD
  5
A6
100
AcDbSymbolTableRecord
100
AcDbBlockTableRecord
  2
NOTE34
  0
BLOCK_RECORD
  5
AA
100
AcDbSymbolTableRecord
100
AcDbBlockTableRecord
  2
NOTE35
  0
BLOCK_RECORD
  5
B3
100
AcDbSymbolTableRecord
100
AcDbBlockTableRecord
  2
NOTE37
  0
BLOCK_RECORD
  5
C7
100
AcDbSymbolTableRecord
100
AcDbBlockTableRecord
  2
NOTE48
  0
BLOCK_RECORD
  5
CD
100
AcDbSymbolTableRecord
100
AcDbBlockTableRecord
  2
NOTE49
  0
BLOCK_RECORD
  5
236
100
AcDbSymbolTableRecord
100
AcDbBlockTableRecord
  2
*D19
  0
BLOCK_RECORD
  5
246
100
AcDbSymbolTableRecord
100
AcDbBlockTableRecord
  2
*D20
  0
BLOCK_RECORD
  5
254
100
AcDbSymbolTableRecord
100
AcDbBlockTableRecord
  2
*D21
  0
BLOCK_RECORD
  5
263
100
AcDbSymbolTableRecord
100
AcDbBlockTableRecord
  2
*D22
  0
BLOCK_RECORD
  5
273
100
AcDbSymbolTableRecord
100
AcDbBlockTableRecord
  2
NOTE51
  0
BLOCK_RECORD
  5
27D
100
AcDbSymbolTableRecord
100
AcDbBlockTableRecord
  2
SW_CENTERMARK0
  0
BLOCK_RECORD
  5
289
100
AcDbSymbolTableRecord
100
AcDbBlockTableRecord
  2
SW_CENTERMARK1
  0
BLOCK_RECORD
  5
295
100
AcDbSymbolTableRecord
100
AcDbBlockTableRecord
  2
SW_CENTERMARK2
  0
BLOCK_RECORD
  5
2BC
100
AcDbSymbolTableRecord
100
AcDbBlockTableRecord
  2
*D27
  0
BLOCK_RECORD
  5
2CA
100
AcDbSymbolTableRecord
100
AcDbBlockTableRecord
  2
*D28
  0
BLOCK_RECORD
  5
2D8
100
AcDbSymbolTableRecord
100
AcDbBlockTableRecord
  2
*D29
  0
BLOCK_RECORD
  5
2E8
100
AcDbSymbolTableRecord
100
AcDbBlockTableRecord
  2
NOTE52
  0
BLOCK_RECORD
  5
2EF
100
AcDbSymbolTableRecord
100
AcDbBlockTableRecord
  2
SW_CENTERMARK3
  0
BLOCK_RECORD
  5
2FB
100
AcDbSymbolTableRecord
100
AcDbBlockTableRecord
  2
SW_CENTERMARK4
  0
ENDTAB
  0
ENDSEC
  0
SECTION
  2
BLOCKS
  0
BLOCK
  5
D
100
AcDbEntity
  8
0
100
AcDbBlockBegin
  2
*MODEL_SPACE
 70
         0
 10
0.0
 20
0.0
 30
0.0
  3
*MODEL_SPACE
  1

  0
ENDBLK
  5
E
100
AcDbEntity
  8
0
100
AcDbBlockEnd
  0
BLOCK
  5
F
100
AcDbEntity
 67
         1
  8
0
100
AcDbBlockBegin
  2
*PAPER_SPACE
 70
         0
 10
0.0
 20
0.0
 30
0.0
  3
*PAPER_SPACE
  1

  0
ENDBLK
  5
10
100
AcDbEntity
 67
         1
  8
0
100
AcDbBlockEnd
  0
BLOCK
  5
46
100
AcDbEntity
  8
0
 62
         0
100
AcDbBlockBegin
  2
NOTE0
 70
         0
 10
0.0
 20
0.0
 30
0.0
  3
NOTE0
  1

  0
ENDBLK
  5
47
100
AcDbEntity
  8
0
100
AcDbBlockEnd
  0
BLOCK
  5
4D
100
AcDbEntity
  8
0
 62
         0
100
AcDbBlockBegin
  2
NOTE3
 70
         0
 10
0.0
 20
0.0
 30
0.0
  3
NOTE3
  1

  0
ENDBLK
  5
4E
100
AcDbEntity
  8
0
100
AcDbBlockEnd
  0
BLOCK
  5
5B
100
AcDbEntity
  8
0
 62
         0
100
AcDbBlockBegin
  2
NOTE14
 70
         0
 10
0.0
 20
0.0
 30
0.0
  3
NOTE14
  1

  0
MTEXT
  5
5C
100
AcDbEntity
  8
0
 62
         7
100
AcDbMText
 10
0.0
 20
0.1018700787
 30
0.0
 40
0.0625
 41
0.0
 71
         1
 72
         1
  1
DIMENSIONS ARE IN INCHES
  7
SLDTEXTSTYLE0
  0
MTEXT
  5
5D
100
AcDbEntity
  8
0
 62
         7
100
AcDbMText
 10
0.0
 20
0.0185367464
 30
0.0
 40
0.0625
 41
0.0
 71
         1
 72
         1
  1
LINEAR TOLERANCES: 
  7
SLDTEXTSTYLE0
  0
MTEXT
  5
5E
100
AcDbEntity
  8
0
 62
         7
100
AcDbMText
 10
0.0
 20
-0.0647965859
 30
0.0
 40
0.0625
 41
0.0
 71
         1
 72
         1
  1
    TWO PLACE DECIMAL: 
  7
SLDTEXTSTYLE0
  0
MTEXT
  5
5F
100
AcDbEntity
  8
0
 62
         7
100
AcDbMText
 10
0.9860966619
 20
-0.0647965859
 30
0.0
 40
0.0625
 41
0.0
 71
         1
 72
         1
  1
%%p
  7
SLDTEXTSTYLE0
  0
MTEXT
  5
60
100
AcDbEntity
  8
0
 62
         7
100
AcDbMText
 10
1.0456799669
 20
-0.0647965859
 30
0.0
 40
0.0625
 41
0.0
 71
         1
 72
         1
  1
0.010
  7
SLDTEXTSTYLE0
  0
MTEXT
  5
61
100
AcDbEntity
  8
0
 62
         7
100
AcDbMText
 10
0.0
 20
-0.1481299182
 30
0.0
 40
0.0625
 41
0.0
 71
         1
 72
         1
  1
    THREE PLACE DECIMAL: 
  7
SLDTEXTSTYLE0
  0
MTEXT
  5
62
100
AcDbEntity
  8
0
 62
         7
100
AcDbMText
 10
1.0267939917
 20
-0.1481299182
 30
0.0
 40
0.0625
 41
0.0
 71
         1
 72
         1
  1
%%p
  7
SLDTEXTSTYLE0
  0
MTEXT
  5
63
100
AcDbEntity
  8
0
 62
         7
100
AcDbMText
 10
1.0863772967
 20
-0.1481299182
 30
0.0
 40
0.0625
 41
0.0
 71
         1
 72
         1
  1
0.005
  7
SLDTEXTSTYLE0
  0
MTEXT
  5
64
100
AcDbEntity
  8
0
 62
         7
100
AcDbMText
 10
0.0
 20
-0.2314632506
 30
0.0
 40
0.0625
 41
0.0
 71
         1
 72
         1
  1
ANGULAR: 
  7
SLDTEXTSTYLE0
  0
MTEXT
  5
65
100
AcDbEntity
  8
0
 62
         7
100
AcDbMText
 10
0.4373119015
 20
-0.2314632506
 30
0.0
 40
0.0625
 41
0.0
 71
         1
 72
         1
  1
%%p
  7
SLDTEXTSTYLE0
  0
MTEXT
  5
66
100
AcDbEntity
  8
0
 62
         7
100
AcDbMText
 10
0.4968952432
 20
-0.2314632506
 30
0.0
 40
0.0625
 41
0.0
 71
         1
 72
         1
  1
30'     
  7
SLDTEXTSTYLE0
  0
MTEXT
  5
67
100
AcDbEntity
  8
0
 62
         7
100
AcDbMText
 10
0.0
 20
-0.3147965829
 30
0.0
 40
0.0625
 41
0.0
 71
         1
 72
         1
  1
SURFACE FINISH: 32 MICROINCHES
  7
SLDTEXTSTYLE0
  0
MTEXT
  5
68
100
AcDbEntity
  8
0
 62
         7
100
AcDbMText
 10
0.0
 20
-0.3981299152
 30
0.0
 40
0.0625
 41
0.0
 71
         1
 72
         1
  1
PARALLESISM: 0.002
  7
SLDTEXTSTYLE0
  0
MTEXT
  5
69
100
AcDbEntity
  8
0
 62
         7
100
AcDbMText
 10
0.0
 20
-0.4814632475
 30
0.0
 40
0.0625
 41
0.0
 71
         1
 72
         1
  1
FLATNESS: 0.002
  7
SLDTEXTSTYLE0
  0
MTEXT
  5
6A
100
AcDbEntity
  8
0
 62
         7
100
AcDbMText
 10
0.0
 20
-0.5647965799
 30
0.0
 40
0.0625
 41
0.0
 71
         1
 72
         1
  1
THREAD: CLASS 2 FIT
  7
SLDTEXTSTYLE0
  0
MTEXT
  5
6B
100
AcDbEntity
  8
0
 62
         7
100
AcDbMText
 10
0.0
 20
-0.6481299122
 30
0.0
 40
0.0625
 41
0.0
 71
         1
 72
         1
  1
STRAIGHTNESS: 0.002
  7
SLDTEXTSTYLE0
  0
MTEXT
  5
6C
100
AcDbEntity
  8
0
 62
         7
100
AcDbMText
 10
0.0
 20
-0.7314632445
 30
0.0
 40
0.0625
 41
0.0
 71
         1
 72
         1
  1
CONCENTRICITY: 0.002
  7
SLDTEXTSTYLE0
  0
MTEXT
  5
6D
100
AcDbEntity
  8
0
 62
         7
100
AcDbMText
 10
0.0
 20
-0.8147965768
 30
0.0
 40
0.0625
 41
0.0
 71
         1
 72
         1
  1
PERPENDICULARITY: 0.002
  7
SLDTEXTSTYLE0
  0
ENDBLK
  5
6E
100
AcDbEntity
  8
0
100
AcDbBlockEnd
  0
BLOCK
  5
75
100
AcDbEntity
  8
0
 62
         0
100
AcDbBlockBegin
  2
NOTE19
 70
         0
 10
0.0
 20
0.0
 30
0.0
  3
NOTE19
  1

  0
ENDBLK
  5
76
100
AcDbEntity
  8
0
100
AcDbBlockEnd
  0
BLOCK
  5
7D
100
AcDbEntity
  8
0
 62
         0
100
AcDbBlockBegin
  2
NOTE24
 70
         0
 10
0.0
 20
0.0
 30
0.0
  3
NOTE24
  1

  0
MTEXT
  5
7E
100
AcDbEntity
  8
0
 62
         7
100
AcDbMText
 10
0.0
 20
0.1227034121
 30
0.0
 40
0.0833333333
 41
0.0
 71
         1
 72
         1
  1
SCALE: 
  7
SLDTEXTSTYLE0
  0
MTEXT
  5
7F
100
AcDbEntity
  8
0
 62
         7
100
AcDbMText
 10
0.3914930674
 20
0.1227034121
 30
0.0
 40
0.0833333333
 41
0.0
 71
         1
 72
         1
  1
1:1
  7
SLDTEXTSTYLE0
  0
ENDBLK
  5
80
100
AcDbEntity
  8
0
100
AcDbBlockEnd
  0
BLOCK
  5
83
100
AcDbEntity
  8
0
 62
         0
100
AcDbBlockBegin
  2
NOTE25
 70
         0
 10
0.0
 20
0.0
 30
0.0
  3
NOTE25
  1

  0
ENDBLK
  5
84
100
AcDbEntity
  8
0
100
AcDbBlockEnd
  0
BLOCK
  5
87
100
AcDbEntity
  8
0
 62
         0
100
AcDbBlockBegin
  2
NOTE26
 70
         0
 10
0.0
 20
0.0
 30
0.0
  3
NOTE26
  1

  0
ENDBLK
  5
88
100
AcDbEntity
  8
0
100
AcDbBlockEnd
  0
BLOCK
  5
8B
100
AcDbEntity
  8
0
 62
         0
100
AcDbBlockBegin
  2
NOTE27
 70
         0
 10
0.0
 20
0.0
 30
0.0
  3
NOTE27
  1

  0
ENDBLK
  5
8C
100
AcDbEntity
  8
0
100
AcDbBlockEnd
  0
BLOCK
  5
8F
100
AcDbEntity
  8
0
 62
         0
100
AcDbBlockBegin
  2
NOTE28
 70
         0
 10
0.0
 20
0.0
 30
0.0
  3
NOTE28
  1

  0
ENDBLK
  5
90
100
AcDbEntity
  8
0
100
AcDbBlockEnd
  0
BLOCK
  5
93
100
AcDbEntity
  8
0
 62
         0
100
AcDbBlockBegin
  2
NOTE29
 70
         0
 10
0.0
 20
0.0
 30
0.0
  3
NOTE29
  1

  0
ENDBLK
  5
94
100
AcDbEntity
  8
0
100
AcDbBlockEnd
  0
BLOCK
  5
97
100
AcDbEntity
  8
0
 62
         0
100
AcDbBlockBegin
  2
NOTE30
 70
         0
 10
0.0
 20
0.0
 30
0.0
  3
NOTE30
  1

  0
ENDBLK
  5
98
100
AcDbEntity
  8
0
100
AcDbBlockEnd
  0
BLOCK
  5
9B
100
AcDbEntity
  8
0
 62
         0
100
AcDbBlockBegin
  2
NOTE31
 70
         0
 10
0.0
 20
0.0
 30
0.0
  3
NOTE31
  1

  0
ENDBLK
  5
9C
100
AcDbEntity
  8
0
100
AcDbBlockEnd
  0
BLOCK
  5
9F
100
AcDbEntity
  8
0
 62
         0
100
AcDbBlockBegin
  2
NOTE32
 70
         0
 10
0.0
 20
0.0
 30
0.0
  3
NOTE32
  1

  0
ENDBLK
  5
A0
100
AcDbEntity
  8
0
100
AcDbBlockEnd
  0
BLOCK
  5
A3
100
AcDbEntity
  8
0
 62
         0
100
AcDbBlockBegin
  2
NOTE33
 70
         0
 10
0.0
 20
0.0
 30
0.0
  3
NOTE33
  1

  0
ENDBLK
  5
A4
100
AcDbEntity
  8
0
100
AcDbBlockEnd
  0
BLOCK
  5
A7
100
AcDbEntity
  8
0
 62
         0
100
AcDbBlockBegin
  2
NOTE34
 70
         0
 10
0.0
 20
0.0
 30
0.0
  3
NOTE34
  1

  0
ENDBLK
  5
A8
100
AcDbEntity
  8
0
100
AcDbBlockEnd
  0
BLOCK
  5
AB
100
AcDbEntity
  8
0
 62
         0
100
AcDbBlockBegin
  2
NOTE35
 70
         0
 10
0.0
 20
0.0
 30
0.0
  3
NOTE35
  1

  0
MTEXT
  5
AC
100
AcDbEntity
  8
0
 62
         7
100
AcDbMText
 10
0.0
 20
0.1227034121
 30
0.0
 40
0.0833333333
 41
0.0
 71
         1
 72
         1
  1
SHEET 
  7
SLDTEXTSTYLE0
  0
MTEXT
  5
AD
100
AcDbEntity
  8
0
 62
         7
100
AcDbMText
 10
0.3211612733
 20
0.1227034121
 30
0.0
 40
0.0833333333
 41
0.0
 71
         1
 72
         1
  1
1
  7
SLDTEXTSTYLE0
  0
MTEXT
  5
AE
100
AcDbEntity
  8
0
 62
         7
100
AcDbMText
 10
0.3776041512
 20
0.1227034121
 30
0.0
 40
0.0833333333
 41
0.0
 71
         1
 72
         1
  1
 OF 
  7
SLDTEXTSTYLE0
  0
MTEXT
  5
AF
100
AcDbEntity
  8
0
 62
         7
100
AcDbMText
 10
0.5861689652
 20
0.1227034121
 30
0.0
 40
0.0833333333
 41
0.0
 71
         1
 72
         1
  1
1
  7
SLDTEXTSTYLE0
  0
ENDBLK
  5
B0
100
AcDbEntity
  8
0
100
AcDbBlockEnd
  0
BLOCK
  5
B4
100
AcDbEntity
  8
0
 62
         0
100
AcDbBlockBegin
  2
NOTE37
 70
         0
 10
0.0
 20
0.0
 30
0.0
  3
NOTE37
  1

  0
MTEXT
  5
B5
100
AcDbEntity
  8
0
 62
         7
100
AcDbMText
 10
0.0
 20
0.0993700787
 30
0.0
 40
0.06
 41
0.0
 71
         1
 72
         1
  1
THE INFORMATION CONTAINED IN THIS
  7
SLDTEXTSTYLE0
  0
MTEXT
  5
B6
100
AcDbEntity
  8
0
 62
         7
100
AcDbMText
 10
0.0
 20
0.0000000042
 30
0.0
 40
0.06
 41
0.0
 71
         1
 72
         1
  1
DRAWING IS THE SOLE PROPERTY OF
  7
SLDTEXTSTYLE0
  0
MTEXT
  5
B7
100
AcDbEntity
  8
0
 62
         7
100
AcDbMText
 10
0.0
 20
-0.0993700704
 30
0.0
 40
0.06
 41
0.0
 71
         1
 72
         1
  1
THORLABS, INC.  ANY REPRODUCTION 
  7
SLDTEXTSTYLE0
  0
MTEXT
  5
B8
100
AcDbEntity
  8
0
 62
         7
100
AcDbMText
 10
0.0
 20
-0.198740145
 30
0.0
 40
0.06
 41
0.0
 71
         1
 72
         1
  1
IN PART OR AS A WHOLE WITHOUT
  7
SLDTEXTSTYLE0
  0
MTEXT
  5
B9
100
AcDbEntity
  8
0
 62
         7
100
AcDbMText
 10
0.0
 20
-0.2981102195
 30
0.0
 40
0.06
 41
0.0
 71
         1
 72
         1
  1
THE WRITTEN PERMISSION OF
  7
SLDTEXTSTYLE0
  0
MTEXT
  5
BA
100
AcDbEntity
  8
0
 62
         7
100
AcDbMText
 10
0.0
 20
-0.3974802941
 30
0.0
 40
0.06
 41
0.0
 71
         1
 72
         1
  1
THORLABS, INC. IS PROHIBITED.
  7
SLDTEXTSTYLE0
  0
ENDBLK
  5
BB
100
AcDbEntity
  8
0
100
AcDbBlockEnd
  0
BLOCK
  5
C8
100
AcDbEntity
  8
0
 62
         0
100
AcDbBlockBegin
  2
NOTE48
 70
         0
 10
0.0
 20
0.0
 30
0.0
  3
NOTE48
  1

  0
MTEXT
  5
C9
100
AcDbEntity
  8
0
 62
         7
100
AcDbMText
 10
0.0
 20
0.1331200787
 30
0.0
 40
0.09375
 41
0.0
 71
         1
 72
         1
  1
PO BOX 366
  7
SLDTEXTSTYLE0
  0
MTEXT
  5
CA
100
AcDbEntity
  8
0
 62
         7
100
AcDbMText
 10
0.0
 20
0.0081200803
 30
0.0
 40
0.09375
 41
0.0
 71
         1
 72
         1
  1
NEWTON NJ
  7
SLDTEXTSTYLE0
  0
ENDBLK
  5
CB
100
AcDbEntity
  8
0
100
AcDbBlockEnd
  0
BLOCK
  5
CE
100
AcDbEntity
  8
0
 62
         0
100
AcDbBlockBegin
  2
NOTE49
 70
         0
 10
0.0
 20
0.0
 30
0.0
  3
NOTE49
  1

  0
MTEXT
  5
CF
100
AcDbEntity
  8
0
 62
         7
100
AcDbMText
 10
0.0
 20
0.1539534121
 30
0.0
 40
0.1145833333
 41
0.0
 71
         1
 72
         1
  1
KINEMATIC BASE FOR
  7
SLDTEXTSTYLE0
  0
MTEXT
  5
D0
100
AcDbEntity
  8
0
 62
         7
100
AcDbMText
 10
0.0
 20
0.0011756361
 30
0.0
 40
0.1145833333
 41
0.0
 71
         1
 72
         1
  1
APT600 SERIES STAGES
  7
SLDTEXTSTYLE0
  0
ENDBLK
  5
D1
100
AcDbEntity
  8
0
100
AcDbBlockEnd
  0
BLOCK
  5
237
100
AcDbEntity
  8
0
 62
         7
100
AcDbBlockBegin
  2
*D19
 70
         1
 10
0.0
 20
0.0
 30
0.0
  3
*D19
  1

  0
MTEXT
  5
238
100
AcDbEntity
  8
0
 62
         7
100
AcDbMText
 10
2.9845774341
 20
3.0515356926
 30
0.0
 40
0.09375
 41
0.0
 71
         1
 72
         1
  1
0.47
  7
SLDTEXTSTYLE0
  0
MTEXT
  5
239
100
AcDbEntity
  8
0
 62
         7
100
AcDbMText
 10
3.2269148286
 20
3.0515356926
 30
0.0
 40
0.09375
 41
0.0
 71
         1
 72
         1
  1
(12mm)
  7
SLDTEXTSTYLE0
  0
MTEXT
  5
23A
100
AcDbEntity
  8
0
 62
         7
100
AcDbMText
 10
3.2361308152
 20
2.9026493819
 30
0.0
 40
0.09375
 41
0.0
 71
         1
 72
         1
  1
TYP.
  7
SLDTEXTSTYLE0
  0
LINE
  5
23B
100
AcDbEntity
  8
0
 62
         7
100
AcDbLine
 10
2.1989476052
 20
3.5742324501
 30
0.0
 11
2.1989476052
 21
2.8484156093
 31
0.0
  0
LINE
  5
23C
100
AcDbEntity
  8
0
 62
         7
100
AcDbLine
 10
2.67138855
 20
3.5742324501
 30
0.0
 11
2.67138855
 21
2.8484156093
 31
0.0
  0
LINE
  5
23D
100
AcDbEntity
  8
0
 62
         7
100
AcDbLine
 10
2.1989476052
 20
2.9184156093
 30
0.0
 11
2.67138855
 21
2.9184156093
 31
0.0
  0
LINE
  5
23E
100
AcDbEntity
  8
0
 62
         7
100
AcDbLine
 10
2.67138855
 20
2.9184156093
 30
0.0
 11
2.9220774341
 21
2.9184156093
 31
0.0
  0
SOLID
  5
23F
100
AcDbEntity
  8
0
 62
         7
100
AcDbTrace
 10
2.1989476052
 20
2.9184156093
 30
0.0
 11
2.3549476052
 21
2.8924156093
 31
0.0
 12
2.3549476052
 22
2.9444156093
 32
0.0
 13
2.3549476052
 23
2.9444156093
 33
0.0
  0
SOLID
  5
240
100
AcDbEntity
  8
0
 62
         7
100
AcDbTrace
 10
2.67138855
 20
2.9184156093
 30
0.0
 11
2.51538855
 21
2.9444156093
 31
0.0
 12
2.51538855
 22
2.8924156093
 32
0.0
 13
2.51538855
 23
2.8924156093
 33
0.0
  0
POINT
  5
242
100
AcDbEntity
  8
DEFPOINTS
 62
         7
100
AcDbPoint
 10
2.1989476052
 20
3.6242324501
 30
0.0
  0
POINT
  5
243
100
AcDbEntity
  8
DEFPOINTS
 62
         7
100
AcDbPoint
 10
2.67138855
 20
3.6242324501
 30
0.0
  0
ENDBLK
  5
244
100
AcDbEntity
  8
0
 62
         7
100
AcDbBlockEnd
  0
BLOCK
  5
247
100
AcDbEntity
  8
0
 62
         7
100
AcDbBlockBegin
  2
*D20
 70
         1
 10
0.0
 20
0.0
 30
0.0
  3
*D20
  1

  0
MTEXT
  5
248
100
AcDbEntity
  8
0
 62
         7
100
AcDbMText
 10
1.344337673
 20
4.052628124
 30
0.0
 40
0.09375
 41
0.0
 71
         1
 72
         1
  1
0.59
  7
SLDTEXTSTYLE0
  0
MTEXT
  5
249
100
AcDbEntity
  8
0
 62
         7
100
AcDbMText
 10
1.2485444406
 20
3.9037418133
 30
0.0
 40
0.09375
 41
0.0
 71
         1
 72
         1
  1
(15mm)
  7
SLDTEXTSTYLE0
  0
LINE
  5
24A
100
AcDbEntity
  8
0
 62
         7
100
AcDbLine
 10
2.1489476052
 20
3.6242324501
 30
0.0
 11
1.3955063703
 21
3.6242324501
 31
0.0
  0
LINE
  5
24B
100
AcDbEntity
  8
0
 62
         7
100
AcDbLine
 10
2.3851680776
 20
4.2147836312
 30
0.0
 11
1.3955063703
 21
4.2147836312
 31
0.0
  0
LINE
  5
24C
100
AcDbEntity
  8
0
 62
         7
100
AcDbLine
 10
1.4655063703
 20
3.6242324501
 30
0.0
 11
1.4655063703
 21
3.1242324501
 31
0.0
  0
LINE
  5
24D
100
AcDbEntity
  8
0
 62
         7
100
AcDbLine
 10
1.4655063703
 20
4.2147836312
 30
0.0
 11
1.4655063703
 21
4.7147836312
 31
0.0
  0
SOLID
  5
24E
100
AcDbEntity
  8
0
 62
         7
100
AcDbTrace
 10
1.4655063703
 20
3.6242324501
 30
0.0
 11
1.4395063703
 21
3.4682324501
 31
0.0
 12
1.4915063703
 22
3.4682324501
 32
0.0
 13
1.4915063703
 23
3.4682324501
 33
0.0
  0
SOLID
  5
24F
100
AcDbEntity
  8
0
 62
         7
100
AcDbTrace
 10
1.4655063703
 20
4.2147836312
 30
0.0
 11
1.4915063703
 21
4.3707836312
 31
0.0
 12
1.4395063703
 22
4.3707836312
 32
0.0
 13
1.4395063703
 23
4.3707836312
 33
0.0
  0
POINT
  5
250
100
AcDbEntity
  8
DEFPOINTS
 62
         7
100
AcDbPoint
 10
2.1989476052
 20
3.6242324501
 30
0.0
  0
POINT
  5
251
100
AcDbEntity
  8
DEFPOINTS
 62
         7
100
AcDbPoint
 10
2.4351680776
 20
4.2147836312
 30
0.0
  0
ENDBLK
  5
252
100
AcDbEntity
  8
0
 62
         7
100
AcDbBlockEnd
  0
BLOCK
  5
255
100
AcDbEntity
  8
0
 62
         7
100
AcDbBlockBegin
  2
*D21
 70
         1
 10
0.0
 20
0.0
 30
0.0
  3
*D21
  1

  0
MTEXT
  5
256
100
AcDbEntity
  8
0
 62
         7
100
AcDbMText
 10
2.8454954433
 20
2.5560666434
 30
0.0
 40
0.09375
 41
0.0
 71
         1
 72
         1
  1
1.81
  7
SLDTEXTSTYLE0
  0
MTEXT
  5
257
100
AcDbEntity
  8
0
 62
         7
100
AcDbMText
 10
2.7497022108
 20
2.4071803328
 30
0.0
 40
0.09375
 41
0.0
 71
         1
 72
         1
  1
(46mm)
  7
SLDTEXTSTYLE0
  0
LINE
  5
258
100
AcDbEntity
  8
0
 62
         7
100
AcDbLine
 10
2.0611523296
 20
3.4758072533
 30
0.0
 11
2.0611523296
 21
2.3529465601
 31
0.0
  0
LINE
  5
259
100
AcDbEntity
  8
0
 62
         7
100
AcDbLine
 10
3.8721759516
 20
3.4758072533
 30
0.0
 11
3.8721759516
 21
2.3529465601
 31
0.0
  0
LINE
  5
25A
100
AcDbEntity
  8
0
 62
         7
100
AcDbLine
 10
2.0611523296
 20
2.4229465601
 30
0.0
 11
2.6715772108
 21
2.4229465601
 31
0.0
  0
LINE
  5
25B
100
AcDbEntity
  8
0
 62
         7
100
AcDbLine
 10
3.8721759516
 20
2.4229465601
 30
0.0
 11
3.2617510703
 21
2.4229465601
 31
0.0
  0
SOLID
  5
25C
100
AcDbEntity
  8
0
 62
         7
100
AcDbTrace
 10
2.0611523296
 20
2.4229465601
 30
0.0
 11
2.2171523296
 21
2.3969465601
 31
0.0
 12
2.2171523296
 22
2.4489465601
 32
0.0
 13
2.2171523296
 23
2.4489465601
 33
0.0
  0
SOLID
  5
25D
100
AcDbEntity
  8
0
 62
         7
100
AcDbTrace
 10
3.8721759516
 20
2.4229465601
 30
0.0
 11
3.7161759516
 21
2.4489465601
 31
0.0
 12
3.7161759516
 22
2.3969465601
 32
0.0
 13
3.7161759516
 23
2.3969465601
 33
0.0
  0
POINT
  5
25F
100
AcDbEntity
  8
DEFPOINTS
 62
         7
100
AcDbPoint
 10
2.0611523296
 20
3.5258072533
 30
0.0
  0
POINT
  5
260
100
AcDbEntity
  8
DEFPOINTS
 62
         7
100
AcDbPoint
 10
3.8721759516
 20
3.5258072533
 30
0.0
  0
ENDBLK
  5
261
100
AcDbEntity
  8
0
 62
         7
100
AcDbBlockEnd
  0
BLOCK
  5
264
100
AcDbEntity
  8
0
 62
         7
100
AcDbBlockBegin
  2
*D22
 70
         1
 10
0.0
 20
0.0
 30
0.0
  3
*D22
  1

  0
MTEXT
  5
265
100
AcDbEntity
  8
0
 62
         7
100
AcDbMText
 10
4.3414814406
 20
4.0821556831
 30
0.0
 40
0.09375
 41
0.0
 71
         1
 72
         1
  1
0.85
  7
SLDTEXTSTYLE0
  0
MTEXT
  5
266
100
AcDbEntity
  8
0
 62
         7
100
AcDbMText
 10
4.2456882081
 20
3.9332693724
 30
0.0
 40
0.09375
 41
0.0
 71
         1
 72
         1
  1
(22mm)
  7
SLDTEXTSTYLE0
  0
LINE
  5
267
100
AcDbEntity
  8
0
 62
         7
100
AcDbLine
 10
3.9221759516
 20
4.3722639462
 30
0.0
 11
4.5326501378
 21
4.3722639462
 31
0.0
  0
LINE
  5
268
100
AcDbEntity
  8
0
 62
         7
100
AcDbLine
 10
3.9221759516
 20
3.5258072533
 30
0.0
 11
4.5326501378
 21
3.5258072533
 31
0.0
  0
LINE
  5
269
100
AcDbEntity
  8
0
 62
         7
100
AcDbLine
 10
4.4626501378
 20
4.3722639462
 30
0.0
 11
4.4626501378
 21
4.0979219104
 31
0.0
  0
LINE
  5
26A
100
AcDbEntity
  8
0
 62
         7
100
AcDbLine
 10
4.4626501378
 20
3.5258072533
 30
0.0
 11
4.4626501378
 21
3.8001492891
 31
0.0
  0
SOLID
  5
26B
100
AcDbEntity
  8
0
 62
         7
100
AcDbTrace
 10
4.4626501378
 20
4.3722639462
 30
0.0
 11
4.4366501378
 21
4.2162639462
 31
0.0
 12
4.4886501378
 22
4.2162639462
 32
0.0
 13
4.4886501378
 23
4.2162639462
 33
0.0
  0
SOLID
  5
26C
100
AcDbEntity
  8
0
 62
         7
100
AcDbTrace
 10
4.4626501378
 20
3.5258072533
 30
0.0
 11
4.4886501378
 21
3.6818072533
 31
0.0
 12
4.4366501378
 22
3.6818072533
 32
0.0
 13
4.4366501378
 23
3.6818072533
 33
0.0
  0
POINT
  5
26D
100
AcDbEntity
  8
DEFPOINTS
 62
         7
100
AcDbPoint
 10
3.8721759516
 20
4.3722639462
 30
0.0
  0
POINT
  5
26E
100
AcDbEntity
  8
DEFPOINTS
 62
         7
100
AcDbPoint
 10
3.8721759516
 20
3.5258072533
 30
0.0
  0
ENDBLK
  5
26F
100
AcDbEntity
  8
0
 62
         7
100
AcDbBlockEnd
  0
BLOCK
  5
274
100
AcDbEntity
  8
0
 62
         0
100
AcDbBlockBegin
  2
NOTE51
 70
         0
 10
0.0
 20
0.0
 30
0.0
  3
NOTE51
  1

  0
MTEXT
  5
275
100
AcDbEntity
  8
0
 62
         7
100
AcDbMText
 10
0.0197475373
 20
0.3207191603
 30
0.0
 40
0.09375
 41
0.0
 71
         1
 72
         1
  1
%%c
  7
SLDTEXTSTYLE0
  0
MTEXT
  5
276
100
AcDbEntity
  8
0
 62
         7
100
AcDbMText
 10
0.1612579509
 20
0.3207191603
 30
0.0
 40
0.09375
 41
0.0
 71
         1
 72
         1
  1
0.08(2.1mm)
  7
SLDTEXTSTYLE0
  0
MTEXT
  5
277
100
AcDbEntity
  8
0
 62
         7
100
AcDbMText
 10
0.0197475373
 20
0.1957191618
 30
0.0
 40
0.09375
 41
0.0
 71
         1
 72
         1
  1
0.11(2.9mm) DEEP
  7
SLDTEXTSTYLE0
  0
MTEXT
  5
278
100
AcDbEntity
  8
0
 62
         7
100
AcDbMText
 10
0.0197475373
 20
0.0707191633
 30
0.0
 40
0.09375
 41
0.0
 71
         1
 72
         1
  1
M2.5 TAPPED,
  7
SLDTEXTSTYLE0
  0
MTEXT
  5
279
100
AcDbEntity
  8
0
 62
         7
100
AcDbMText
 10
0.0197475373
 20
-0.0542808352
 30
0.0
 40
0.09375
 41
0.0
 71
         1
 72
         1
  1
 0.1(2.5mm) DEEP
  7
SLDTEXTSTYLE0
  0
MTEXT
  5
27A
100
AcDbEntity
  8
0
 62
         7
100
AcDbMText
 10
0.0197475373
 20
-0.1792808336
 30
0.0
 40
0.09375
 41
0.0
 71
         1
 72
         1
  1
6 PLACES
  7
SLDTEXTSTYLE0
  0
ENDBLK
  5
27B
100
AcDbEntity
  8
0
100
AcDbBlockEnd
  0
BLOCK
  5
27E
100
AcDbEntity
  8
0
 62
         0
100
AcDbBlockBegin
  2
SW_CENTERMARK0
 70
         0
 10
0.0
 20
0.0
 30
0.0
  3
SW_CENTERMARK0
  1

  0
LINE
  5
27F
100
AcDbEntity
  8
0
  6
CONTINUOUS
 62
         7
100
AcDbLine
 10
2.4351680776
 20
4.2147836312
 30
0.0
 11
2.4351680776
 21
4.3147836312
 31
0.0
  0
LINE
  5
280
100
AcDbEntity
  8
0
  6
CONTINUOUS
 62
         7
100
AcDbLine
 10
2.4351680776
 20
4.2147836312
 30
0.0
 11
2.3351680776
 21
4.2147836312
 31
0.0
  0
LINE
  5
281
100
AcDbEntity
  8
0
  6
CONTINUOUS
 62
         7
100
AcDbLine
 10
2.4351680776
 20
4.2147836312
 30
0.0
 11
2.4351680776
 21
4.1147836312
 31
0.0
  0
LINE
  5
282
100
AcDbEntity
  8
0
  6
CONTINUOUS
 62
         7
100
AcDbLine
 10
2.4351680776
 20
4.2147836312
 30
0.0
 11
2.5351680776
 21
4.2147836312
 31
0.0
  0
LINE
  5
283
100
AcDbEntity
  8
0
  6
CENTERX2
 62
         7
100
AcDbLine
 10
2.4351680776
 20
4.3147836312
 30
0.0
 11
2.4351680776
 21
4.3561222139
 31
0.0
  0
LINE
  5
284
100
AcDbEntity
  8
0
  6
CENTERX2
 62
         7
100
AcDbLine
 10
2.3351680776
 20
4.2147836312
 30
0.0
 11
2.2938294949
 21
4.2147836312
 31
0.0
  0
LINE
  5
285
100
AcDbEntity
  8
0
  6
CENTERX2
 62
         7
100
AcDbLine
 10
2.4351680776
 20
4.1147836312
 30
0.0
 11
2.4351680776
 21
4.0734450486
 31
0.0
  0
LINE
  5
286
100
AcDbEntity
  8
0
  6
CENTERX2
 62
         7
100
AcDbLine
 10
2.5351680776
 20
4.2147836312
 30
0.0
 11
2.5765066603
 21
4.2147836312
 31
0.0
  0
ENDBLK
  5
287
100
AcDbEntity
  8
0
100
AcDbBlockEnd
  0
BLOCK
  5
28A
100
AcDbEntity
  8
0
 62
         0
100
AcDbBlockBegin
  2
SW_CENTERMARK1
 70
         0
 10
0.0
 20
0.0
 30
0.0
  3
SW_CENTERMARK1
  1

  0
LINE
  5
28B
100
AcDbEntity
  8
0
  6
CONTINUOUS
 62
         7
100
AcDbLine
 10
2.1989476052
 20
3.6242324501
 30
0.0
 11
2.1989476052
 21
3.7242324501
 31
0.0
  0
LINE
  5
28C
100
AcDbEntity
  8
0
  6
CONTINUOUS
 62
         7
100
AcDbLine
 10
2.1989476052
 20
3.6242324501
 30
0.0
 11
2.0989476052
 21
3.6242324501
 31
0.0
  0
LINE
  5
28D
100
AcDbEntity
  8
0
  6
CONTINUOUS
 62
         7
100
AcDbLine
 10
2.1989476052
 20
3.6242324501
 30
0.0
 11
2.1989476052
 21
3.5242324501
 31
0.0
  0
LINE
  5
28E
100
AcDbEntity
  8
0
  6
CONTINUOUS
 62
         7
100
AcDbLine
 10
2.1989476052
 20
3.6242324501
 30
0.0
 11
2.2989476052
 21
3.6242324501
 31
0.0
  0
LINE
  5
28F
100
AcDbEntity
  8
0
  6
CENTERX2
 62
         7
100
AcDbLine
 10
2.1989476052
 20
3.7242324501
 30
0.0
 11
2.1989476052
 21
3.7655710328
 31
0.0
  0
LINE
  5
290
100
AcDbEntity
  8
0
  6
CENTERX2
 62
         7
100
AcDbLine
 10
2.0989476052
 20
3.6242324501
 30
0.0
 11
2.0576090225
 21
3.6242324501
 31
0.0
  0
LINE
  5
291
100
AcDbEntity
  8
0
  6
CENTERX2
 62
         7
100
AcDbLine
 10
2.1989476052
 20
3.5242324501
 30
0.0
 11
2.1989476052
 21
3.4828938675
 31
0.0
  0
LINE
  5
292
100
AcDbEntity
  8
0
  6
CENTERX2
 62
         7
100
AcDbLine
 10
2.2989476052
 20
3.6242324501
 30
0.0
 11
2.3402861878
 21
3.6242324501
 31
0.0
  0
ENDBLK
  5
293
100
AcDbEntity
  8
0
100
AcDbBlockEnd
  0
BLOCK
  5
296
100
AcDbEntity
  8
0
 62
         0
100
AcDbBlockBegin
  2
SW_CENTERMARK2
 70
         0
 10
0.0
 20
0.0
 30
0.0
  3
SW_CENTERMARK2
  1

  0
LINE
  5
297
100
AcDbEntity
  8
0
  6
CONTINUOUS
 62
         7
100
AcDbLine
 10
2.67138855
 20
3.6242324501
 30
0.0
 11
2.67138855
 21
3.7242324501
 31
0.0
  0
LINE
  5
298
100
AcDbEntity
  8
0
  6
CONTINUOUS
 62
         7
100
AcDbLine
 10
2.67138855
 20
3.6242324501
 30
0.0
 11
2.57138855
 21
3.6242324501
 31
0.0
  0
LINE
  5
299
100
AcDbEntity
  8
0
  6
CONTINUOUS
 62
         7
100
AcDbLine
 10
2.67138855
 20
3.6242324501
 30
0.0
 11
2.67138855
 21
3.5242324501
 31
0.0
  0
LINE
  5
29A
100
AcDbEntity
  8
0
  6
CONTINUOUS
 62
         7
100
AcDbLine
 10
2.67138855
 20
3.6242324501
 30
0.0
 11
2.77138855
 21
3.6242324501
 31
0.0
  0
LINE
  5
29B
100
AcDbEntity
  8
0
  6
CENTERX2
 62
         7
100
AcDbLine
 10
2.67138855
 20
3.7242324501
 30
0.0
 11
2.67138855
 21
3.7655710328
 31
0.0
  0
LINE
  5
29C
100
AcDbEntity
  8
0
  6
CENTERX2
 62
         7
100
AcDbLine
 10
2.57138855
 20
3.6242324501
 30
0.0
 11
2.5300499674
 21
3.6242324501
 31
0.0
  0
LINE
  5
29D
100
AcDbEntity
  8
0
  6
CENTERX2
 62
         7
100
AcDbLine
 10
2.67138855
 20
3.5242324501
 30
0.0
 11
2.67138855
 21
3.4828938675
 31
0.0
  0
LINE
  5
29E
100
AcDbEntity
  8
0
  6
CENTERX2
 62
         7
100
AcDbLine
 10
2.77138855
 20
3.6242324501
 30
0.0
 11
2.8127271327
 21
3.6242324501
 31
0.0
  0
ENDBLK
  5
29F
100
AcDbEntity
  8
0
100
AcDbBlockEnd
  0
BLOCK
  5
2BD
100
AcDbEntity
  8
0
 62
         7
100
AcDbBlockBegin
  2
*D27
 70
         1
 10
0.0
 20
0.0
 30
0.0
  3
*D27
  1

  0
MTEXT
  5
2BE
100
AcDbEntity
  8
0
 62
         7
100
AcDbMText
 10
8.216756839
 20
4.052628124
 30
0.0
 40
0.09375
 41
0.0
 71
         1
 72
         1
  1
0.91
  7
SLDTEXTSTYLE0
  0
MTEXT
  5
2BF
100
AcDbEntity
  8
0
 62
         7
100
AcDbMText
 10
8.1209636066
 20
3.9037418133
 30
0.0
 40
0.09375
 41
0.0
 71
         1
 72
         1
  1
(23mm)
  7
SLDTEXTSTYLE0
  0
LINE
  5
2C0
100
AcDbEntity
  8
0
 62
         7
100
AcDbLine
 10
7.9734439905
 20
4.3722639462
 30
0.0
 11
8.4079255363
 21
4.3722639462
 31
0.0
  0
LINE
  5
2C1
100
AcDbEntity
  8
0
 62
         7
100
AcDbLine
 10
7.9734439905
 20
3.4667521352
 30
0.0
 11
8.4079255363
 21
3.4667521352
 31
0.0
  0
LINE
  5
2C2
100
AcDbEntity
  8
0
 62
         7
100
AcDbLine
 10
8.3379255363
 20
4.3722639462
 30
0.0
 11
8.3379255363
 21
4.0683943513
 31
0.0
  0
LINE
  5
2C3
100
AcDbEntity
  8
0
 62
         7
100
AcDbLine
 10
8.3379255363
 20
3.4667521352
 30
0.0
 11
8.3379255363
 21
3.77062173
 31
0.0
  0
SOLID
  5
2C4
100
AcDbEntity
  8
0
 62
         7
100
AcDbTrace
 10
8.3379255363
 20
4.3722639462
 30
0.0
 11
8.3119255363
 21
4.2162639462
 31
0.0
 12
8.3639255363
 22
4.2162639462
 32
0.0
 13
8.3639255363
 23
4.2162639462
 33
0.0
  0
SOLID
  5
2C5
100
AcDbEntity
  8
0
 62
         7
100
AcDbTrace
 10
8.3379255363
 20
3.4667521352
 30
0.0
 11
8.3639255363
 21
3.6227521352
 31
0.0
 12
8.3119255363
 22
3.6227521352
 32
0.0
 13
8.3119255363
 23
3.6227521352
 33
0.0
  0
POINT
  5
2C6
100
AcDbEntity
  8
DEFPOINTS
 62
         7
100
AcDbPoint
 10
7.9234439905
 20
4.3722639462
 30
0.0
  0
POINT
  5
2C7
100
AcDbEntity
  8
DEFPOINTS
 62
         7
100
AcDbPoint
 10
7.9234439905
 20
3.4667521352
 30
0.0
  0
ENDBLK
  5
2C8
100
AcDbEntity
  8
0
 62
         7
100
AcDbBlockEnd
  0
BLOCK
  5
2CB
100
AcDbEntity
  8
0
 62
         7
100
AcDbBlockBegin
  2
*D28
 70
         1
 10
0.0
 20
0.0
 30
0.0
  3
*D28
  1

  0
MTEXT
  5
2CC
100
AcDbEntity
  8
0
 62
         7
100
AcDbMText
 10
7.0887794376
 20
3.0508154129
 30
0.0
 40
0.09375
 41
0.0
 71
         1
 72
         1
  1
0.18
  7
SLDTEXTSTYLE0
  0
MTEXT
  5
2CD
100
AcDbEntity
  8
0
 62
         7
100
AcDbMText
 10
6.9756763912
 20
2.9019291022
 30
0.0
 40
0.09375
 41
0.0
 71
         1
 72
         1
  1
(4.5mm)
  7
SLDTEXTSTYLE0
  0
LINE
  5
2CE
100
AcDbEntity
  8
0
 62
         7
100
AcDbLine
 10
7.7462786361
 20
3.4167521352
 30
0.0
 11
7.7462786361
 21
2.8476953296
 31
0.0
  0
LINE
  5
2CF
100
AcDbEntity
  8
0
 62
         7
100
AcDbLine
 10
7.9234439905
 20
3.4167521352
 30
0.0
 11
7.9234439905
 21
2.8476953296
 31
0.0
  0
LINE
  5
2D0
100
AcDbEntity
  8
0
 62
         7
100
AcDbLine
 10
7.7462786361
 20
2.9176953296
 30
0.0
 11
7.5223448785
 21
2.9176953296
 31
0.0
  0
LINE
  5
2D1
100
AcDbEntity
  8
0
 62
         7
100
AcDbLine
 10
7.9234439905
 20
2.9176953296
 30
0.0
 11
8.4234439905
 21
2.9176953296
 31
0.0
  0
SOLID
  5
2D2
100
AcDbEntity
  8
0
 62
         7
100
AcDbTrace
 10
7.7462786361
 20
2.9176953296
 30
0.0
 11
7.5902786361
 21
2.9436953296
 31
0.0
 12
7.5902786361
 22
2.8916953296
 32
0.0
 13
7.5902786361
 23
2.8916953296
 33
0.0
  0
SOLID
  5
2D3
100
AcDbEntity
  8
0
 62
         7
100
AcDbTrace
 10
7.9234439905
 20
2.9176953296
 30
0.0
 11
8.0794439905
 21
2.8916953296
 31
0.0
 12
8.0794439905
 22
2.9436953296
 32
0.0
 13
8.0794439905
 23
2.9436953296
 33
0.0
  0
POINT
  5
2D4
100
AcDbEntity
  8
DEFPOINTS
 62
         7
100
AcDbPoint
 10
7.7462786361
 20
3.4667521352
 30
0.0
  0
POINT
  5
2D5
100
AcDbEntity
  8
DEFPOINTS
 62
         7
100
AcDbPoint
 10
7.9234439905
 20
3.4667521352
 30
0.0
  0
ENDBLK
  5
2D6
100
AcDbEntity
  8
0
 62
         7
100
AcDbBlockEnd
  0
BLOCK
  5
2D9
100
AcDbEntity
  8
0
 62
         7
100
AcDbBlockBegin
  2
*D29
 70
         1
 10
0.0
 20
0.0
 30
0.0
  3
*D29
  1

  0
MTEXT
  5
2DA
100
AcDbEntity
  8
0
 62
         7
100
AcDbMText
 10
6.8561925078
 20
4.0919982027
 30
0.0
 40
0.09375
 41
0.0
 71
         1
 72
         1
  1
0.39
  7
SLDTEXTSTYLE0
  0
MTEXT
  5
2DB
100
AcDbEntity
  8
0
 62
         7
100
AcDbMText
 10
7.0985299023
 20
4.0919982027
 30
0.0
 40
0.09375
 41
0.0
 71
         1
 72
         1
  1
(10mm)
  7
SLDTEXTSTYLE0
  0
MTEXT
  5
2DC
100
AcDbEntity
  8
0
 62
         7
100
AcDbMText
 10
7.107745889
 20
3.9431118921
 30
0.0
 40
0.09375
 41
0.0
 71
         1
 72
         1
  1
TYP.
  7
SLDTEXTSTYLE0
  0
LINE
  5
2DD
100
AcDbEntity
  8
0
 62
         7
100
AcDbLine
 10
7.7513967464
 20
3.7620277257
 30
0.0
 11
7.1399481348
 21
3.7620277257
 31
0.0
  0
LINE
  5
2DE
100
AcDbEntity
  8
0
 62
         7
100
AcDbLine
 10
7.7513967464
 20
4.1557285131
 30
0.0
 11
7.1399481348
 21
4.1557285131
 31
0.0
  0
LINE
  5
2DF
100
AcDbEntity
  8
0
 62
         7
100
AcDbLine
 10
7.2099481348
 20
3.7620277257
 30
0.0
 11
7.2099481348
 21
3.2620277257
 31
0.0
  0
LINE
  5
2E0
100
AcDbEntity
  8
0
 62
         7
100
AcDbLine
 10
7.2099481348
 20
4.1557285131
 30
0.0
 11
7.2099481348
 21
4.6557285131
 31
0.0
  0
SOLID
  5
2E1
100
AcDbEntity
  8
0
 62
         7
100
AcDbTrace
 10
7.2099481348
 20
3.7620277257
 30
0.0
 11
7.1839481348
 21
3.6060277257
 31
0.0
 12
7.2359481348
 22
3.6060277257
 32
0.0
 13
7.2359481348
 23
3.6060277257
 33
0.0
  0
SOLID
  5
2E2
100
AcDbEntity
  8
0
 62
         7
100
AcDbTrace
 10
7.2099481348
 20
4.1557285131
 30
0.0
 11
7.2359481348
 21
4.3117285131
 31
0.0
 12
7.1839481348
 22
4.3117285131
 32
0.0
 13
7.1839481348
 23
4.3117285131
 33
0.0
  0
POINT
  5
2E3
100
AcDbEntity
  8
DEFPOINTS
 62
         7
100
AcDbPoint
 10
7.8013967464
 20
3.7620277257
 30
0.0
  0
POINT
  5
2E4
100
AcDbEntity
  8
DEFPOINTS
 62
         7
100
AcDbPoint
 10
7.8013967464
 20
4.1557285131
 30
0.0
  0
ENDBLK
  5
2E5
100
AcDbEntity
  8
0
 62
         7
100
AcDbBlockEnd
  0
BLOCK
  5
2E9
100
AcDbEntity
  8
0
 62
         0
100
AcDbBlockBegin
  2
NOTE52
 70
         0
 10
0.0
 20
0.0
 30
0.0
  3
NOTE52
  1

  0
MTEXT
  5
2EA
100
AcDbEntity
  8
0
 62
         7
100
AcDbMText
 10
0.0197047106
 20
0.1956560056
 30
0.0
 40
0.09375
 41
0.0
 71
         1
 72
         1
  1
M2 TAPPED
  7
SLDTEXTSTYLE0
  0
MTEXT
  5
2EB
100
AcDbEntity
  8
0
 62
         7
100
AcDbMText
 10
0.0197047106
 20
0.0706560071
 30
0.0
 40
0.09375
 41
0.0
 71
         1
 72
         1
  1
0.16(5mm) DEEP
  7
SLDTEXTSTYLE0
  0
MTEXT
  5
2EC
100
AcDbEntity
  8
0
 62
         7
100
AcDbMText
 10
0.0197047106
 20
-0.0543439914
 30
0.0
 40
0.09375
 41
0.0
 71
         1
 72
         1
  1
4 PLACES
  7
SLDTEXTSTYLE0
  0
ENDBLK
  5
2ED
100
AcDbEntity
  8
0
100
AcDbBlockEnd
  0
BLOCK
  5
2F0
100
AcDbEntity
  8
0
 62
         0
100
AcDbBlockBegin
  2
SW_CENTERMARK3
 70
         0
 10
0.0
 20
0.0
 30
0.0
  3
SW_CENTERMARK3
  1

  0
LINE
  5
2F1
100
AcDbEntity
  8
0
  6
CONTINUOUS
 62
         7
100
AcDbLine
 10
7.8013967464
 20
4.1557285131
 30
0.0
 11
7.8013967464
 21
4.2557285131
 31
0.0
  0
LINE
  5
2F2
100
AcDbEntity
  8
0
  6
CONTINUOUS
 62
         7
100
AcDbLine
 10
7.8013967464
 20
4.1557285131
 30
0.0
 11
7.7013967464
 21
4.1557285131
 31
0.0
  0
LINE
  5
2F3
100
AcDbEntity
  8
0
  6
CONTINUOUS
 62
         7
100
AcDbLine
 10
7.8013967464
 20
4.1557285131
 30
0.0
 11
7.8013967464
 21
4.0557285131
 31
0.0
  0
LINE
  5
2F4
100
AcDbEntity
  8
0
  6
CONTINUOUS
 62
         7
100
AcDbLine
 10
7.8013967464
 20
4.1557285131
 30
0.0
 11
7.9013967464
 21
4.1557285131
 31
0.0
  0
LINE
  5
2F5
100
AcDbEntity
  8
0
  6
CENTERX2
 62
         7
100
AcDbLine
 10
7.8013967464
 20
4.2557285131
 30
0.0
 11
7.8013967464
 21
4.2872245761
 31
0.0
  0
LINE
  5
2F6
100
AcDbEntity
  8
0
  6
CENTERX2
 62
         7
100
AcDbLine
 10
7.7013967464
 20
4.1557285131
 30
0.0
 11
7.6699006834
 21
4.1557285131
 31
0.0
  0
LINE
  5
2F7
100
AcDbEntity
  8
0
  6
CENTERX2
 62
         7
100
AcDbLine
 10
7.8013967464
 20
4.0557285131
 30
0.0
 11
7.8013967464
 21
4.0242324501
 31
0.0
  0
LINE
  5
2F8
100
AcDbEntity
  8
0
  6
CENTERX2
 62
         7
100
AcDbLine
 10
7.9013967464
 20
4.1557285131
 30
0.0
 11
7.9328928094
 21
4.1557285131
 31
0.0
  0
ENDBLK
  5
2F9
100
AcDbEntity
  8
0
100
AcDbBlockEnd
  0
BLOCK
  5
2FC
100
AcDbEntity
  8
0
 62
         0
100
AcDbBlockBegin
  2
SW_CENTERMARK4
 70
         0
 10
0.0
 20
0.0
 30
0.0
  3
SW_CENTERMARK4
  1

  0
LINE
  5
2FD
100
AcDbEntity
  8
0
  6
CONTINUOUS
 62
         7
100
AcDbLine
 10
7.8013967464
 20
3.7620277257
 30
0.0
 11
7.8013967464
 21
3.8620277257
 31
0.0
  0
LINE
  5
2FE
100
AcDbEntity
  8
0
  6
CONTINUOUS
 62
         7
100
AcDbLine
 10
7.8013967464
 20
3.7620277257
 30
0.0
 11
7.7013967464
 21
3.7620277257
 31
0.0
  0
LINE
  5
2FF
100
AcDbEntity
  8
0
  6
CONTINUOUS
 62
         7
100
AcDbLine
 10
7.8013967464
 20
3.7620277257
 30
0.0
 11
7.8013967464
 21
3.6620277257
 31
0.0
  0
LINE
  5
300
100
AcDbEntity
  8
0
  6
CONTINUOUS
 62
         7
100
AcDbLine
 10
7.8013967464
 20
3.7620277257
 30
0.0
 11
7.9013967464
 21
3.7620277257
 31
0.0
  0
LINE
  5
301
100
AcDbEntity
  8
0
  6
CENTERX2
 62
         7
100
AcDbLine
 10
7.8013967464
 20
3.8620277257
 30
0.0
 11
7.8013967464
 21
3.8935237887
 31
0.0
  0
LINE
  5
302
100
AcDbEntity
  8
0
  6
CENTERX2
 62
         7
100
AcDbLine
 10
7.7013967464
 20
3.7620277257
 30
0.0
 11
7.6699006834
 21
3.7620277257
 31
0.0
  0
LINE
  5
303
100
AcDbEntity
  8
0
  6
CENTERX2
 62
         7
100
AcDbLine
 10
7.8013967464
 20
3.6620277257
 30
0.0
 11
7.8013967464
 21
3.6305316627
 31
0.0
  0
LINE
  5
304
100
AcDbEntity
  8
0
  6
CENTERX2
 62
         7
100
AcDbLine
 10
7.9013967464
 20
3.7620277257
 30
0.0
 11
7.9328928094
 21
3.7620277257
 31
0.0
  0
ENDBLK
  5
305
100
AcDbEntity
  8
0
100
AcDbBlockEnd
  0
ENDSEC
  0
SECTION
  2
ENTITIES
  0
LINE
  5
25
100
AcDbEntity
  8
0
  6
CONTINUOUS
 62
         7
100
AcDbLine
 10
0.329927
 20
8.1920731707
 30
0.0
 11
10.629927
 21
8.1920731707
 31
0.0
  0
LINE
  5
26
100
AcDbEntity
  8
0
  6
CONTINUOUS
 62
         7
100
AcDbLine
 10
0.329927
 20
8.1920731707
 30
0.0
 11
0.329927
 21
0.3920731707
 31
0.0
  0
LINE
  5
27
100
AcDbEntity
  8
0
  6
CONTINUOUS
 62
         7
100
AcDbLine
 10
10.629927
 20
0.3920731707
 30
0.0
 11
0.329927
 21
0.3920731707
 31
0.0
  0
LINE
  5
28
100
AcDbEntity
  8
0
  6
CONTINUOUS
 62
         7
100
AcDbLine
 10
10.629927
 20
0.3920731707
 30
0.0
 11
10.629927
 21
8.1920731707
 31
0.0
  0
LINE
  5
29
100
AcDbEntity
  8
0
  6
CONTINUOUS
 62
         7
100
AcDbLine
 10
8.4937754816
 20
0.96139916
 30
0.0
 11
8.4937754816
 21
0.7890359178
 31
0.0
  0
LINE
  5
2A
100
AcDbEntity
  8
0
  6
CONTINUOUS
 62
         7
100
AcDbLine
 10
7.8832069922
 20
1.2010186622
 30
0.0
 11
6.3491817542
 21
1.2010186622
 31
0.0
  0
LINE
  5
2B
100
AcDbEntity
  8
0
  6
CONTINUOUS
 62
         7
100
AcDbLine
 10
6.3491817542
 20
0.3920731707
 30
0.0
 11
6.3491817542
 21
1.6988536355
 31
0.0
  0
LINE
  5
2C
100
AcDbEntity
  8
0
  6
CONTINUOUS
 62
         7
100
AcDbLine
 10
7.8832069922
 20
1.270166923
 30
0.0
 11
10.629927
 21
1.270166923
 31
0.0
  0
LINE
  5
2D
100
AcDbEntity
  8
0
  6
CONTINUOUS
 62
         7
100
AcDbLine
 10
7.8832069922
 20
2.0165420879
 30
0.0
 11
7.8832069922
 21
0.3920731707
 31
0.0
  0
LINE
  5
2E
100
AcDbEntity
  8
0
  6
CONTINUOUS
 62
         7
100
AcDbLine
 10
7.8832069922
 20
1.323339557
 30
0.0
 11
6.3491817542
 21
1.323339557
 31
0.0
  0
LINE
  5
2F
100
AcDbEntity
  8
0
  6
CONTINUOUS
 62
         7
100
AcDbLine
 10
10.629927
 20
1.6988536355
 30
0.0
 11
4.9283800522
 21
1.6988536355
 31
0.0
  0
LINE
  5
30
100
AcDbEntity
  8
0
  6
CONTINUOUS
 62
         7
100
AcDbLine
 10
7.8832069922
 20
0.7890359178
 30
0.0
 11
10.629927
 21
0.7890359178
 31
0.0
  0
LINE
  5
31
100
AcDbEntity
  8
0
  6
CONTINUOUS
 62
         7
100
AcDbLine
 10
7.8832069922
 20
1.4456604517
 30
0.0
 11
6.3491817542
 21
1.4456604517
 31
0.0
  0
LINE
  5
32
100
AcDbEntity
  8
0
  6
CONTINUOUS
 62
         7
100
AcDbLine
 10
7.8832069922
 20
1.5679813464
 30
0.0
 11
6.3491817542
 21
1.5679813464
 31
0.0
  0
LINE
  5
33
100
AcDbEntity
  8
0
  6
CONTINUOUS
 62
         7
100
AcDbLine
 10
6.9294188505
 20
1.6988536355
 30
0.0
 11
6.9294188505
 21
1.2010186622
 31
0.0
  0
LINE
  5
34
100
AcDbEntity
  8
0
  6
CONTINUOUS
 62
         7
100
AcDbLine
 10
7.2989435727
 20
1.6988536355
 30
0.0
 11
7.2989435727
 21
1.2010186622
 31
0.0
  0
LINE
  5
35
100
AcDbEntity
  8
0
  6
CONTINUOUS
 62
         7
100
AcDbLine
 10
8.9000563418
 20
0.7890359178
 30
0.0
 11
8.9000563418
 21
0.3920731707
 31
0.0
  0
LINE
  5
36
100
AcDbEntity
  8
0
  6
CONTINUOUS
 62
         7
100
AcDbLine
 10
9.3113942988
 20
0.96139916
 30
0.0
 11
9.3113942988
 21
0.7890359178
 31
0.0
  0
LINE
  5
37
100
AcDbEntity
  8
0
  6
CONTINUOUS
 62
         7
100
AcDbLine
 10
10.0324602448
 20
1.270166923
 30
0.0
 11
10.0324602448
 21
0.96139916
 31
0.0
  0
LINE
  5
38
100
AcDbEntity
  8
0
  6
CONTINUOUS
 62
         7
100
AcDbLine
 10
4.9283800522
 20
1.6988536355
 30
0.0
 11
4.9283800522
 21
0.3920731707
 31
0.0
  0
LINE
  5
39
100
AcDbEntity
  8
0
  6
CONTINUOUS
 62
         7
100
AcDbLine
 10
4.9283800522
 20
1.540040151
 30
0.0
 11
6.3491817542
 21
1.540040151
 31
0.0
  0
LINE
  5
3A
100
AcDbEntity
  8
0
  6
CONTINUOUS
 62
         7
100
AcDbLine
 10
4.9283800522
 20
1.4356947803
 30
0.0
 11
6.3491817542
 21
1.4356947803
 31
0.0
  0
LINE
  5
3B
100
AcDbEntity
  8
0
  6
CONTINUOUS
 62
         7
100
AcDbLine
 10
6.3491817542
 20
1.0381709011
 30
0.0
 11
7.8832069922
 21
1.0381709011
 31
0.0
  0
LINE
  5
3C
100
AcDbEntity
  8
0
  6
CONTINUOUS
 62
         7
100
AcDbLine
 10
7.8832069922
 20
2.0165420879
 30
0.0
 11
10.629927
 21
2.0165420879
 31
0.0
  0
LINE
  5
3D
100
AcDbEntity
  8
0
  6
CONTINUOUS
 62
         7
100
AcDbLine
 10
10.315241862
 20
1.2693980507
 30
0.0
 11
10.315241862
 21
0.96139916
 31
0.0
  0
LINE
  5
3E
100
AcDbEntity
  8
0
  6
CONTINUOUS
 62
         7
100
AcDbLine
 10
7.8832069922
 20
0.96139916
 30
0.0
 11
10.629927
 21
0.96139916
 31
0.0
  0
LINE
  5
3F
100
AcDbEntity
  8
0
  6
CONTINUOUS
 62
         7
100
AcDbLine
 10
10.629927
 20
2.0165420879
 30
0.0
 11
10.629927
 21
1.9698084888
 31
0.0
  0
LINE
  5
40
100
AcDbEntity
  8
0
  6
CONTINUOUS
 62
         7
100
AcDbLine
 10
6.692177
 20
0.3920731707
 30
0.0
 11
6.692177
 21
0.3072739649
 31
0.0
  0
LINE
  5
41
100
AcDbEntity
  8
0
  6
CONTINUOUS
 62
         7
100
AcDbLine
 10
2.754677
 20
0.3920731707
 30
0.0
 11
2.754677
 21
0.3072739649
 31
0.0
  0
LINE
  5
42
100
AcDbEntity
  8
0
  6
CONTINUOUS
 62
         7
100
AcDbLine
 10
2.754677
 20
0.3920731707
 30
0.0
 11
2.7672319738
 21
0.3575
 31
0.0
  0
LINE
  5
43
100
AcDbEntity
  8
0
  6
CONTINUOUS
 62
         7
100
AcDbLine
 10
2.7672319738
 20
0.3575
 30
0.0
 11
2.7414258825
 21
0.3575
 31
0.0
  0
LINE
  5
44
100
AcDbEntity
  8
0
  6
CONTINUOUS
 62
         7
100
AcDbLine
 10
2.7414258825
 20
0.3575
 30
0.0
 11
2.754677
 21
0.3920731707
 31
0.0
  0
INSERT
  5
48
100
AcDbEntity
  8
0
100
AcDbBlockReference
  2
NOTE0
 10
0.0
 20
0.0
 30
0.0
  0
MTEXT
  5
4A
100
AcDbEntity
  8
0
 62
         7
100
AcDbMText
 10
10.4087758717
 20
1.1307921136
 30
0.0
 40
0.1041666667
 41
0.0
 71
         1
 72
         1
  1
A
  7
SLDTEXTSTYLE0
  0
MTEXT
  5
4B
100
AcDbEntity
  8
0
 62
         7
100
AcDbMText
 10
8.5044054692
 20
0.9369270516
 30
0.0
 40
0.0833333333
 41
0.0
 71
         1
 72
         1
  1
WEIGHT: 
  7
SLDTEXTSTYLE0
  0
INSERT
  5
4F
100
AcDbEntity
  8
0
100
AcDbBlockReference
  2
NOTE3
 10
0.0
 20
0.0
 30
0.0
  0
MTEXT
  5
50
100
AcDbEntity
  8
0
 62
         7
100
AcDbMText
 10
1.7387909509
 20
0.3228564029
 30
0.0
 40
0.09375
 41
0.0
 71
         1
 72
         1
  1
5
  7
SLDTEXTSTYLE0
  0
MTEXT
  5
51
100
AcDbEntity
  8
0
 62
         7
100
AcDbMText
 10
3.723800327
 20
0.32599373
 30
0.0
 40
0.09375
 41
0.0
 71
         1
 72
         1
  1
4
  7
SLDTEXTSTYLE0
  0
MTEXT
  5
52
100
AcDbEntity
  8
0
 62
         7
100
AcDbMText
 10
5.6324457277
 20
0.3238891623
 30
0.0
 40
0.09375
 41
0.0
 71
         1
 72
         1
  1
3
  7
SLDTEXTSTYLE0
  0
MTEXT
  5
53
100
AcDbEntity
  8
0
 62
         7
100
AcDbMText
 10
7.6059721724
 20
0.3247091132
 30
0.0
 40
0.09375
 41
0.0
 71
         1
 72
         1
  1
2
  7
SLDTEXTSTYLE0
  0
MTEXT
  5
54
100
AcDbEntity
  8
0
 62
         7
100
AcDbMText
 10
9.6619921328
 20
0.3136419902
 30
0.0
 40
0.09375
 41
0.0
 71
         1
 72
         1
  1
1
  7
SLDTEXTSTYLE0
  0
MTEXT
  5
55
100
AcDbEntity
  8
0
 62
         7
100
AcDbMText
 10
9.0661489802
 20
0.608503423
 30
0.0
 40
0.125
 41
0.0
 71
         1
 72
         1
  1
KMT601
  7
SLDTEXTSTYLE0
  0
MTEXT
  5
56
100
AcDbEntity
  8
0
 62
         7
100
AcDbMText
 10
7.9301743649
 20
1.2662311489
 30
0.0
 40
0.0833333333
 41
0.0
 71
         1
 72
         1
  1
MATERIAL:
  7
SLDTEXTSTYLE0
  0
MTEXT
  5
57
100
AcDbEntity
  8
0
 62
         7
100
AcDbMText
 10
8.9438302275
 20
0.7619922188
 30
0.0
 40
0.0833333333
 41
0.0
 71
         1
 72
         1
  1
PART  NO.
  7
SLDTEXTSTYLE0
  0
MTEXT
  5
58
100
AcDbEntity
  8
0
 62
         7
100
AcDbMText
 10
4.9872272808
 20
1.678787395
 30
0.0
 40
0.1
 41
0.0
 71
         1
 72
         1
  1
TOLERANCES
  7
SLDTEXTSTYLE0
  0
MTEXT
  5
59
100
AcDbEntity
  8
0
 62
         7
100
AcDbMText
 10
6.3927073562
 20
1.1667586129
 30
0.0
 40
0.06
 41
0.0
 71
         1
 72
         1
  1
PROPRIETARY AND CONFIDENTIAL
  7
SLDTEXTSTYLE0
  0
INSERT
  5
6F
100
AcDbEntity
  8
0
100
AcDbBlockReference
  2
NOTE14
 10
4.9730262909
 20
1.3359640064
 30
0.0
  0
MTEXT
  5
70
100
AcDbEntity
  8
0
 62
         7
100
AcDbMText
 10
6.4985660702
 20
1.5619929057
 30
0.0
 40
0.065
 41
0.0
 71
         1
 72
         1
  1
DRAWN
  7
SLDTEXTSTYLE0
  0
MTEXT
  5
71
100
AcDbEntity
  8
0
 62
         7
100
AcDbMText
 10
6.4369653776
 20
1.4397369011
 30
0.0
 40
0.065
 41
0.0
 71
         1
 72
         1
  1
ENG APPR.
  7
SLDTEXTSTYLE0
  0
MTEXT
  5
72
100
AcDbEntity
  8
0
 62
         7
100
AcDbMText
 10
6.4273055419
 20
1.3196390079
 30
0.0
 40
0.065
 41
0.0
 71
         1
 72
         1
  1
MFG APPR.
  7
SLDTEXTSTYLE0
  0
MTEXT
  5
73
100
AcDbEntity
  8
0
 62
         7
100
AcDbMText
 10
6.9752663896
 20
1.6821505696
 30
0.0
 40
0.065
 41
0.0
 71
         1
 72
         1
  1
NAME
  7
SLDTEXTSTYLE0
  0
INSERT
  5
77
100
AcDbEntity
  8
0
100
AcDbBlockReference
  2
NOTE19
 10
0.0
 20
0.0
 30
0.0
  0
MTEXT
  5
78
100
AcDbEntity
  8
0
 62
         7
100
AcDbMText
 10
7.9309626079
 20
1.6771678405
 30
0.0
 40
0.1
 41
0.0
 71
         1
 72
         1
  1
TITLE:
  7
SLDTEXTSTYLE0
  0
MTEXT
  5
79
100
AcDbEntity
  8
0
 62
         7
100
AcDbMText
 10
10.0657693915
 20
1.2425575667
 30
0.0
 40
0.0833333333
 41
0.0
 71
         1
 72
         1
  1
SIZE
  7
SLDTEXTSTYLE0
  0
MTEXT
  5
7A
100
AcDbEntity
  8
0
 62
         7
100
AcDbMText
 10
10.1162261111
 20
1.1269262436
 30
0.0
 40
0.1041666667
 41
0.0
 71
         1
 72
         1
  1
A
  7
SLDTEXTSTYLE0
  0
MTEXT
  5
7B
100
AcDbEntity
  8
0
 62
         7
100
AcDbMText
 10
10.335100974
 20
1.24415745
 30
0.0
 40
0.0833333333
 41
0.0
 71
         1
 72
         1
  1
REV.
  7
SLDTEXTSTYLE0
  0
INSERT
  5
81
100
AcDbEntity
  8
0
100
AcDbBlockReference
  2
NOTE24
 10
7.9159099546
 20
0.8173954007
 30
0.0
  0
INSERT
  5
85
100
AcDbEntity
  8
0
100
AcDbBlockReference
  2
NOTE25
 10
0.0
 20
0.0
 30
0.0
  0
INSERT
  5
89
100
AcDbEntity
  8
0
100
AcDbBlockReference
  2
NOTE26
 10
0.0
 20
0.0
 30
0.0
  0
INSERT
  5
8D
100
AcDbEntity
  8
0
100
AcDbBlockReference
  2
NOTE27
 10
0.0
 20
0.0
 30
0.0
  0
INSERT
  5
91
100
AcDbEntity
  8
0
100
AcDbBlockReference
  2
NOTE28
 10
0.0
 20
0.0
 30
0.0
  0
INSERT
  5
95
100
AcDbEntity
  8
0
100
AcDbBlockReference
  2
NOTE29
 10
0.0
 20
0.0
 30
0.0
  0
INSERT
  5
99
100
AcDbEntity
  8
0
100
AcDbBlockReference
  2
NOTE30
 10
0.0
 20
0.0
 30
0.0
  0
INSERT
  5
9D
100
AcDbEntity
  8
0
100
AcDbBlockReference
  2
NOTE31
 10
0.0
 20
0.0
 30
0.0
  0
INSERT
  5
A1
100
AcDbEntity
  8
0
100
AcDbBlockReference
  2
NOTE32
 10
0.0
 20
0.0
 30
0.0
  0
INSERT
  5
A5
100
AcDbEntity
  8
0
100
AcDbBlockReference
  2
NOTE33
 10
0.0
 20
0.0
 30
0.0
  0
INSERT
  5
A9
100
AcDbEntity
  8
0
100
AcDbBlockReference
  2
NOTE34
 10
0.0
 20
0.0
 30
0.0
  0
INSERT
  5
B1
100
AcDbEntity
  8
0
100
AcDbBlockReference
  2
NOTE35
 10
9.3533609271
 20
0.8201337505
 30
0.0
  0
MTEXT
  5
B2
100
AcDbEntity
  8
0
 62
         7
100
AcDbMText
 10
7.9966792988
 20
0.6079408784
 30
0.0
 40
0.125
 41
0.0
 71
         1
 72
         1
  1
10934-E01
  7
SLDTEXTSTYLE0
  0
INSERT
  5
BC
100
AcDbEntity
  8
0
100
AcDbBlockReference
  2
NOTE37
 10
6.3891646717
 20
0.9312082413
 30
0.0
  0
MTEXT
  5
BD
100
AcDbEntity
  8
0
 62
         7
100
AcDbMText
 10
4.9869424832
 20
1.5430724242
 30
0.0
 40
0.0625
 41
0.0
 71
         1
 72
         1
  1
UNLESS OTHERWISE SPECIFIED:
  7
SLDTEXTSTYLE0
  0
MTEXT
  5
BE
100
AcDbEntity
  8
0
 62
         7
100
AcDbMText
 10
7.9076399399
 20
0.763088683
 30
0.0
 40
0.0833333333
 41
0.0
 71
         1
 72
         1
  1
DWG.  NO.
  7
SLDTEXTSTYLE0
  0
MTEXT
  5
BF
100
AcDbEntity
  8
0
 62
         7
100
AcDbMText
 10
7.0592138229
 20
1.5647861468
 30
0.0
 40
0.065
 41
0.0
 71
         1
 72
         1
  1
JPS
  7
SLDTEXTSTYLE0
  0
MTEXT
  5
C0
100
AcDbEntity
  8
0
 62
         7
100
AcDbMText
 10
7.0628716471
 20
1.4480432518
 30
0.0
 40
0.065
 41
0.0
 71
         1
 72
         1
  1
JMM
  7
SLDTEXTSTYLE0
  0
MTEXT
  5
C1
100
AcDbEntity
  8
0
 62
         7
100
AcDbMText
 10
7.0636219211
 20
1.3254688473
 30
0.0
 40
0.065
 41
0.0
 71
         1
 72
         1
  1
JMM
  7
SLDTEXTSTYLE0
  0
MTEXT
  5
C2
100
AcDbEntity
  8
0
 62
         7
100
AcDbMText
 10
7.3775562039
 20
1.5664735411
 30
0.0
 40
0.065
 41
0.0
 71
         1
 72
         1
  1
10/10/05
  7
SLDTEXTSTYLE0
  0
MTEXT
  5
C3
100
AcDbEntity
  8
0
 62
         7
100
AcDbMText
 10
7.4731545031
 20
1.6796112043
 30
0.0
 40
0.065
 41
0.0
 71
         1
 72
         1
  1
DATE
  7
SLDTEXTSTYLE0
  0
MTEXT
  5
C4
100
AcDbEntity
  8
0
 62
         7
100
AcDbMText
 10
7.3821011998
 20
1.4397569559
 30
0.0
 40
0.065
 41
0.0
 71
         1
 72
         1
  1
10/10/05
  7
SLDTEXTSTYLE0
  0
MTEXT
  5
C5
100
AcDbEntity
  8
0
 62
         7
100
AcDbMText
 10
7.3821011998
 20
1.3192883921
 30
0.0
 40
0.065
 41
0.0
 71
         1
 72
         1
  1
10/10/05
  7
SLDTEXTSTYLE0
  0
MTEXT
  5
C6
100
AcDbEntity
  8
0
 62
         7
100
AcDbMText
 10
8.0748544469
 20
1.8942605669
 30
0.0
 40
0.1354166667
 41
0.0
 71
         1
 72
         1
  1
THORLABS INC.
  7
SLDTEXTSTYLE0
  0
INSERT
  5
CC
100
AcDbEntity
  8
0
100
AcDbBlockReference
  2
NOTE48
 10
9.7872710762
 20
1.8502066607
 30
0.0
  0
INSERT
  5
D2
100
AcDbEntity
  8
0
100
AcDbBlockReference
  2
NOTE49
 10
8.3487435803
 20
1.4859597447
 30
0.0
  0
MTEXT
  5
D3
100
AcDbEntity
  8
0
 62
         7
100
AcDbMText
 10
8.5234676975
 20
1.2070145964
 30
0.0
 40
0.1354166667
 41
0.0
 71
         1
 72
         1
  1
STAINLESS STEEL
  7
SLDTEXTSTYLE0
  0
POLYLINE
  5
D4
100
AcDbEntity
  8
0
  6
CONTINUOUS
 62
         7
100
AcDb2dPolyline
 66
         1
 10
0.0
 20
0.0
 30
0.0
 70
       128
  0
VERTEX
  5
D5
100
AcDbEntity
  8
0
100
AcDbVertex
100
AcDb2dVertex
 10
9.3387648759
 20
6.3565426901
 30
0.0
  0
VERTEX
  5
D6
100
AcDbEntity
  8
0
100
AcDbVertex
100
AcDb2dVertex
 10
9.3315275366
 20
6.3598745553
 30
0.0
  0
VERTEX
  5
D7
100
AcDbEntity
  8
0
100
AcDbVertex
100
AcDb2dVertex
 10
9.3231873556
 20
6.3621931861
 30
0.0
  0
VERTEX
  5
D8
100
AcDbEntity
  8
0
100
AcDbVertex
100
AcDb2dVertex
 10
9.3141625346
 20
6.3633823163
 30
0.0
  0
VERTEX
  5
D9
100
AcDbEntity
  8
0
100
AcDbVertex
100
AcDb2dVertex
 10
9.3049056286
 20
6.3633823163
 30
0.0
  0
VERTEX
  5
DA
100
AcDbEntity
  8
0
100
AcDbVertex
100
AcDb2dVertex
 10
9.2958808335
 20
6.3621931861
 30
0.0
  0
VERTEX
  5
DB
100
AcDbEntity
  8
0
100
AcDbVertex
100
AcDb2dVertex
 10
9.2875406395
 20
6.3598745628
 30
0.0
  0
VERTEX
  5
DC
100
AcDbEntity
  8
0
100
AcDbVertex
100
AcDb2dVertex
 10
9.2803033002
 20
6.3565426976
 30
0.0
  0
VERTEX
  5
DD
100
AcDbEntity
  8
0
100
AcDbVertex
100
AcDb2dVertex
 10
9.2745317086
 20
6.3523646668
 30
0.0
  0
VERTEX
  5
DE
100
AcDbEntity
  8
0
100
AcDbVertex
100
AcDb2dVertex
 10
9.2705153
 20
6.3475499753
 30
0.0
  0
VERTEX
  5
DF
100
AcDbEntity
  8
0
100
AcDbVertex
100
AcDb2dVertex
 10
9.2684554299
 20
6.3423400645
 30
0.0
  0
VERTEX
  5
E0
100
AcDbEntity
  8
0
100
AcDbVertex
100
AcDb2dVertex
 10
9.2684554363
 20
6.3369961701
 30
0.0
  0
VERTEX
  5
E1
100
AcDbEntity
  8
0
100
AcDbVertex
100
AcDb2dVertex
 10
9.2705152936
 20
6.3317862519
 30
0.0
  0
VERTEX
  5
E2
100
AcDbEntity
  8
0
100
AcDbVertex
100
AcDb2dVertex
 10
9.274531715
 20
6.3269715679
 30
0.0
  0
VERTEX
  5
E3
100
AcDbEntity
  8
0
100
AcDbVertex
100
AcDb2dVertex
 10
9.2803033002
 20
6.3227935408
 30
0.0
  0
VERTEX
  5
E4
100
AcDbEntity
  8
0
100
AcDbVertex
100
AcDb2dVertex
 10
9.2875406395
 20
6.3194616756
 30
0.0
  0
VERTEX
  5
E5
100
AcDbEntity
  8
0
100
AcDbVertex
100
AcDb2dVertex
 10
9.2958808205
 20
6.3171430448
 30
0.0
  0
VERTEX
  5
E6
100
AcDbEntity
  8
0
100
AcDbVertex
100
AcDb2dVertex
 10
9.3049056415
 20
6.3159539146
 30
0.0
  0
VERTEX
  5
E7
100
AcDbEntity
  8
0
100
AcDbVertex
100
AcDb2dVertex
 10
9.3141625411
 20
6.3159539108
 30
0.0
  0
VERTEX
  5
E8
100
AcDbEntity
  8
0
100
AcDbVertex
100
AcDb2dVertex
 10
9.3231873621
 20
6.3171430411
 30
0.0
  0
VERTEX
  5
E9
100
AcDbEntity
  8
0
100
AcDbVertex
100
AcDb2dVertex
 10
9.3315275431
 20
6.3194616719
 30
0.0
  0
VERTEX
  5
EA
100
AcDbEntity
  8
0
100
AcDbVertex
100
AcDb2dVertex
 10
9.3387648889
 20
6.3227935408
 30
0.0
  0
VERTEX
  5
EB
100
AcDbEntity
  8
0
100
AcDbVertex
100
AcDb2dVertex
 10
9.3445364741
 20
6.3269715679
 30
0.0
  0
VERTEX
  5
EC
100
AcDbEntity
  8
0
100
AcDbVertex
100
AcDb2dVertex
 10
9.3485528955
 20
6.3317862519
 30
0.0
  0
VERTEX
  5
ED
100
AcDbEntity
  8
0
100
AcDbVertex
100
AcDb2dVertex
 10
9.3506127398
 20
6.3369961626
 30
0.0
  0
VERTEX
  5
EE
100
AcDbEntity
  8
0
100
AcDbVertex
100
AcDb2dVertex
 10
9.3506127398
 20
6.3423400608
 30
0.0
  0
VERTEX
  5
EF
100
AcDbEntity
  8
0
100
AcDbVertex
100
AcDb2dVertex
 10
9.3485528826
 20
6.347549979
 30
0.0
  0
VERTEX
  5
F0
100
AcDbEntity
  8
0
100
AcDbVertex
100
AcDb2dVertex
 10
9.3445364611
 20
6.352364663
 30
0.0
  0
VERTEX
  5
F1
100
AcDbEntity
  8
0
100
AcDbVertex
100
AcDb2dVertex
 10
9.3387648759
 20
6.3565426901
 30
0.0
  0
SEQEND
  5
F2
100
AcDbEntity
  8
0
  0
POLYLINE
  5
F3
100
AcDbEntity
  8
0
  6
CONTINUOUS
 62
         7
100
AcDb2dPolyline
 66
         1
 10
0.0
 20
0.0
 30
0.0
 70
       128
  0
VERTEX
  5
F4
100
AcDbEntity
  8
0
100
AcDbVertex
100
AcDb2dVertex
 10
9.0046986772
 20
6.5493950016
 30
0.0
  0
VERTEX
  5
F5
100
AcDbEntity
  8
0
100
AcDbVertex
100
AcDb2dVertex
 10
8.9974613508
 20
6.5527268594
 30
0.0
  0
VERTEX
  5
F6
100
AcDbEntity
  8
0
100
AcDbVertex
100
AcDb2dVertex
 10
8.9891211828
 20
6.5550454826
 30
0.0
  0
VERTEX
  5
F7
100
AcDbEntity
  8
0
100
AcDbVertex
100
AcDb2dVertex
 10
8.9800963488
 20
6.5562346204
 30
0.0
  0
VERTEX
  5
F8
100
AcDbEntity
  8
0
100
AcDbVertex
100
AcDb2dVertex
 10
8.9708394169
 20
6.5562346354
 30
0.0
  0
VERTEX
  5
F9
100
AcDbEntity
  8
0
100
AcDbVertex
100
AcDb2dVertex
 10
8.9618146348
 20
6.5550454976
 30
0.0
  0
VERTEX
  5
FA
100
AcDbEntity
  8
0
100
AcDbVertex
100
AcDb2dVertex
 10
8.9534744408
 20
6.5527268743
 30
0.0
  0
VERTEX
  5
FB
100
AcDbEntity
  8
0
100
AcDbVertex
100
AcDb2dVertex
 10
8.9462371274
 20
6.5493949942
 30
0.0
  0
VERTEX
  5
FC
100
AcDbEntity
  8
0
100
AcDbVertex
100
AcDb2dVertex
 10
8.9404655098
 20
6.5452169783
 30
0.0
  0
VERTEX
  5
FD
100
AcDbEntity
  8
0
100
AcDbVertex
100
AcDb2dVertex
 10
8.9364491013
 20
6.5404022868
 30
0.0
  0
VERTEX
  5
FE
100
AcDbEntity
  8
0
100
AcDbVertex
100
AcDb2dVertex
 10
8.9343892182
 20
6.5351923835
 30
0.0
  0
VERTEX
  5
FF
100
AcDbEntity
  8
0
100
AcDbVertex
100
AcDb2dVertex
 10
8.9343892506
 20
6.5298484742
 30
0.0
  0
VERTEX
  5
100
100
AcDbEntity
  8
0
100
AcDbVertex
100
AcDb2dVertex
 10
8.9364491208
 20
6.5246385485
 30
0.0
  0
VERTEX
  5
101
100
AcDbEntity
  8
0
100
AcDbVertex
100
AcDb2dVertex
 10
8.9404655293
 20
6.5198238719
 30
0.0
  0
VERTEX
  5
102
100
AcDbEntity
  8
0
100
AcDbVertex
100
AcDb2dVertex
 10
8.9462371015
 20
6.5156458524
 30
0.0
  0
VERTEX
  5
103
100
AcDbEntity
  8
0
100
AcDbVertex
100
AcDb2dVertex
 10
8.9534744278
 20
6.5123139946
 30
0.0
  0
VERTEX
  5
104
100
AcDbEntity
  8
0
100
AcDbVertex
100
AcDb2dVertex
 10
8.9618146477
 20
6.5099953414
 30
0.0
  0
VERTEX
  5
105
100
AcDbEntity
  8
0
100
AcDbVertex
100
AcDb2dVertex
 10
8.9708394298
 20
6.5088062336
 30
0.0
  0
VERTEX
  5
106
100
AcDbEntity
  8
0
100
AcDbVertex
100
AcDb2dVertex
 10
8.9800963553
 20
6.5088062149
 30
0.0
  0
VERTEX
  5
107
100
AcDbEntity
  8
0
100
AcDbVertex
100
AcDb2dVertex
 10
8.9891211504
 20
6.5099953601
 30
0.0
  0
VERTEX
  5
108
100
AcDbEntity
  8
0
100
AcDbVertex
100
AcDb2dVertex
 10
8.9974613443
 20
6.5123139834
 30
0.0
  0
VERTEX
  5
109
100
AcDbEntity
  8
0
100
AcDbVertex
100
AcDb2dVertex
 10
9.0046987161
 20
6.5156458374
 30
0.0
  0
VERTEX
  5
10A
100
AcDbEntity
  8
0
100
AcDbVertex
100
AcDb2dVertex
 10
9.0104702753
 20
6.5198238794
 30
0.0
  0
VERTEX
  5
10B
100
AcDbEntity
  8
0
100
AcDbVertex
100
AcDb2dVertex
 10
9.0144866838
 20
6.5246385709
 30
0.0
  0
VERTEX
  5
10C
100
AcDbEntity
  8
0
100
AcDbVertex
100
AcDb2dVertex
 10
9.016546554
 20
6.5298484667
 30
0.0
  0
VERTEX
  5
10D
100
AcDbEntity
  8
0
100
AcDbVertex
100
AcDb2dVertex
 10
9.0165465281
 20
6.5351923798
 30
0.0
  0
VERTEX
  5
10E
100
AcDbEntity
  8
0
100
AcDbVertex
100
AcDb2dVertex
 10
9.0144867098
 20
6.5404022756
 30
0.0
  0
VERTEX
  5
10F
100
AcDbEntity
  8
0
100
AcDbVertex
100
AcDb2dVertex
 10
9.0104702494
 20
6.5452169821
 30
0.0
  0
VERTEX
  5
110
100
AcDbEntity
  8
0
100
AcDbVertex
100
AcDb2dVertex
 10
9.0046986772
 20
6.5493950016
 30
0.0
  0
SEQEND
  5
111
100
AcDbEntity
  8
0
  0
LINE
  5
112
100
AcDbEntity
  8
0
  6
CONTINUOUS
 62
         7
100
AcDbLine
 10
8.1403024054
 20
6.9342960711
 30
0.0
 11
8.2377383498
 21
6.8298344198
 31
0.0
  0
LINE
  5
113
100
AcDbEntity
  8
0
  6
CONTINUOUS
 62
         7
100
AcDbLine
 10
8.1403024054
 20
6.9342960711
 30
0.0
 11
8.7388376739
 21
7.2798231268
 31
0.0
  0
LINE
  5
114
100
AcDbEntity
  8
0
  6
CONTINUOUS
 62
         7
100
AcDbLine
 10
8.7388376739
 20
7.2798231268
 30
0.0
 11
10.0194247604
 21
6.5405559375
 31
0.0
  0
LINE
  5
115
100
AcDbEntity
  8
0
  6
CONTINUOUS
 62
         7
100
AcDbLine
 10
10.0194247604
 20
6.5405559375
 30
0.0
 11
9.420889492
 21
6.1950288818
 31
0.0
  0
LINE
  5
116
100
AcDbEntity
  8
0
  6
CONTINUOUS
 62
         7
100
AcDbLine
 10
9.239936972
 20
6.2512774702
 30
0.0
 11
9.420889492
 21
6.1950288818
 31
0.0
  0
LINE
  5
117
100
AcDbEntity
  8
0
  6
CONTINUOUS
 62
         7
100
AcDbLine
 10
9.239936972
 20
6.2512774702
 30
0.0
 11
8.2377383498
 21
6.8298344198
 31
0.0
  0
POLYLINE
  5
118
100
AcDbEntity
  8
0
  6
CONTINUOUS
 62
         7
100
AcDb2dPolyline
 66
         1
 10
0.0
 20
0.0
 30
0.0
 70
       128
  0
VERTEX
  5
119
100
AcDbEntity
  8
0
100
AcDbVertex
100
AcDb2dVertex
 10
8.3365662797
 20
6.9350996248
 30
0.0
  0
VERTEX
  5
11A
100
AcDbEntity
  8
0
100
AcDbVertex
100
AcDb2dVertex
 10
8.3293289533
 20
6.9384314825
 30
0.0
  0
VERTEX
  5
11B
100
AcDbEntity
  8
0
100
AcDbVertex
100
AcDb2dVertex
 10
8.3209887853
 20
6.9407501058
 30
0.0
  0
VERTEX
  5
11C
100
AcDbEntity
  8
0
100
AcDbVertex
100
AcDb2dVertex
 10
8.3119639514
 20
6.9419392435
 30
0.0
  0
VERTEX
  5
11D
100
AcDbEntity
  8
0
100
AcDbVertex
100
AcDb2dVertex
 10
8.3027070194
 20
6.9419392585
 30
0.0
  0
VERTEX
  5
11E
100
AcDbEntity
  8
0
100
AcDbVertex
100
AcDb2dVertex
 10
8.2936822891
 20
6.9407500908
 30
0.0
  0
VERTEX
  5
11F
100
AcDbEntity
  8
0
100
AcDbVertex
100
AcDb2dVertex
 10
8.2853420952
 20
6.9384314675
 30
0.0
  0
VERTEX
  5
120
100
AcDbEntity
  8
0
100
AcDbVertex
100
AcDb2dVertex
 10
8.2781047299
 20
6.9350996173
 30
0.0
  0
VERTEX
  5
121
100
AcDbEntity
  8
0
100
AcDbVertex
100
AcDb2dVertex
 10
8.2723331642
 20
6.9309215715
 30
0.0
  0
VERTEX
  5
122
100
AcDbEntity
  8
0
100
AcDbVertex
100
AcDb2dVertex
 10
8.2683167557
 20
6.92610688
 30
0.0
  0
VERTEX
  5
123
100
AcDbEntity
  8
0
100
AcDbVertex
100
AcDb2dVertex
 10
8.2662568207
 20
6.9208970067
 30
0.0
  0
VERTEX
  5
124
100
AcDbEntity
  8
0
100
AcDbVertex
100
AcDb2dVertex
 10
8.2662568531
 20
6.9155530973
 30
0.0
  0
VERTEX
  5
125
100
AcDbEntity
  8
0
100
AcDbVertex
100
AcDb2dVertex
 10
8.2683167233
 20
6.9103431716
 30
0.0
  0
VERTEX
  5
126
100
AcDbEntity
  8
0
100
AcDbVertex
100
AcDb2dVertex
 10
8.2723331318
 20
6.905528495
 30
0.0
  0
VERTEX
  5
127
100
AcDbEntity
  8
0
100
AcDbVertex
100
AcDb2dVertex
 10
8.278104704
 20
6.9013504755
 30
0.0
  0
VERTEX
  5
128
100
AcDbEntity
  8
0
100
AcDbVertex
100
AcDb2dVertex
 10
8.2853420304
 20
6.8980186177
 30
0.0
  0
VERTEX
  5
129
100
AcDbEntity
  8
0
100
AcDbVertex
100
AcDb2dVertex
 10
8.2936821984
 20
6.8956999945
 30
0.0
  0
VERTEX
  5
12A
100
AcDbEntity
  8
0
100
AcDbVertex
100
AcDb2dVertex
 10
8.3027070323
 20
6.8945108567
 30
0.0
  0
VERTEX
  5
12B
100
AcDbEntity
  8
0
100
AcDbVertex
100
AcDb2dVertex
 10
8.3119639578
 20
6.894510838
 30
0.0
  0
VERTEX
  5
12C
100
AcDbEntity
  8
0
100
AcDbVertex
100
AcDb2dVertex
 10
8.3209888048
 20
6.8956999533
 30
0.0
  0
VERTEX
  5
12D
100
AcDbEntity
  8
0
100
AcDbVertex
100
AcDb2dVertex
 10
8.3293289987
 20
6.8980185766
 30
0.0
  0
VERTEX
  5
12E
100
AcDbEntity
  8
0
100
AcDbVertex
100
AcDb2dVertex
 10
8.3365662667
 20
6.9013504904
 30
0.0
  0
VERTEX
  5
12F
100
AcDbEntity
  8
0
100
AcDbVertex
100
AcDb2dVertex
 10
8.3423379297
 20
6.9055284726
 30
0.0
  0
VERTEX
  5
130
100
AcDbEntity
  8
0
100
AcDbVertex
100
AcDb2dVertex
 10
8.3463543382
 20
6.9103431641
 30
0.0
  0
VERTEX
  5
131
100
AcDbEntity
  8
0
100
AcDbVertex
100
AcDb2dVertex
 10
8.3484141565
 20
6.9155530898
 30
0.0
  0
VERTEX
  5
132
100
AcDbEntity
  8
0
100
AcDbVertex
100
AcDb2dVertex
 10
8.3484141306
 20
6.9208970029
 30
0.0
  0
VERTEX
  5
133
100
AcDbEntity
  8
0
100
AcDbVertex
100
AcDb2dVertex
 10
8.3463542604
 20
6.9261069287
 30
0.0
  0
VERTEX
  5
134
100
AcDbEntity
  8
0
100
AcDbVertex
100
AcDb2dVertex
 10
8.3423378519
 20
6.9309216052
 30
0.0
  0
VERTEX
  5
135
100
AcDbEntity
  8
0
100
AcDbVertex
100
AcDb2dVertex
 10
8.3365662797
 20
6.9350996248
 30
0.0
  0
SEQEND
  5
136
100
AcDbEntity
  8
0
  0
POLYLINE
  5
137
100
AcDbEntity
  8
0
  6
CONTINUOUS
 62
         7
100
AcDb2dPolyline
 66
         1
 10
0.0
 20
0.0
 30
0.0
 70
       128
  0
VERTEX
  5
138
100
AcDbEntity
  8
0
100
AcDbVertex
100
AcDb2dVertex
 10
8.6706324784
 20
6.7422473132
 30
0.0
  0
VERTEX
  5
139
100
AcDbEntity
  8
0
100
AcDbVertex
100
AcDb2dVertex
 10
8.6633951521
 20
6.7455791709
 30
0.0
  0
VERTEX
  5
13A
100
AcDbEntity
  8
0
100
AcDbVertex
100
AcDb2dVertex
 10
8.655054984
 20
6.7478977942
 30
0.0
  0
VERTEX
  5
13B
100
AcDbEntity
  8
0
100
AcDbVertex
100
AcDb2dVertex
 10
8.6460301501
 20
6.7490869319
 30
0.0
  0
VERTEX
  5
13C
100
AcDbEntity
  8
0
100
AcDbVertex
100
AcDb2dVertex
 10
8.63677327
 20
6.749086917
 30
0.0
  0
VERTEX
  5
13D
100
AcDbEntity
  8
0
100
AcDbVertex
100
AcDb2dVertex
 10
8.627748436
 20
6.7478978092
 30
0.0
  0
VERTEX
  5
13E
100
AcDbEntity
  8
0
100
AcDbVertex
100
AcDb2dVertex
 10
8.6194082421
 20
6.7455791859
 30
0.0
  0
VERTEX
  5
13F
100
AcDbEntity
  8
0
100
AcDbVertex
100
AcDb2dVertex
 10
8.6121708768
 20
6.7422473356
 30
0.0
  0
VERTEX
  5
140
100
AcDbEntity
  8
0
100
AcDbVertex
100
AcDb2dVertex
 10
8.6063993111
 20
6.7380692899
 30
0.0
  0
VERTEX
  5
141
100
AcDbEntity
  8
0
100
AcDbVertex
100
AcDb2dVertex
 10
8.6023829026
 20
6.7332545984
 30
0.0
  0
VERTEX
  5
142
100
AcDbEntity
  8
0
100
AcDbVertex
100
AcDb2dVertex
 10
8.6003230713
 20
6.7280446652
 30
0.0
  0
VERTEX
  5
143
100
AcDbEntity
  8
0
100
AcDbVertex
100
AcDb2dVertex
 10
8.6003230518
 20
6.7227007858
 30
0.0
  0
VERTEX
  5
144
100
AcDbEntity
  8
0
100
AcDbVertex
100
AcDb2dVertex
 10
8.602382922
 20
6.71749086
 30
0.0
  0
VERTEX
  5
145
100
AcDbEntity
  8
0
100
AcDbVertex
100
AcDb2dVertex
 10
8.6063993305
 20
6.7126761835
 30
0.0
  0
VERTEX
  5
146
100
AcDbEntity
  8
0
100
AcDbVertex
100
AcDb2dVertex
 10
8.6121709027
 20
6.7084981639
 30
0.0
  0
VERTEX
  5
147
100
AcDbEntity
  8
0
100
AcDbVertex
100
AcDb2dVertex
 10
8.6194082291
 20
6.7051663062
 30
0.0
  0
VERTEX
  5
148
100
AcDbEntity
  8
0
100
AcDbVertex
100
AcDb2dVertex
 10
8.627748449
 20
6.702847653
 30
0.0
  0
VERTEX
  5
149
100
AcDbEntity
  8
0
100
AcDbVertex
100
AcDb2dVertex
 10
8.6367732311
 20
6.7016585452
 30
0.0
  0
VERTEX
  5
14A
100
AcDbEntity
  8
0
100
AcDbVertex
100
AcDb2dVertex
 10
8.6460301566
 20
6.7016585265
 30
0.0
  0
VERTEX
  5
14B
100
AcDbEntity
  8
0
100
AcDbVertex
100
AcDb2dVertex
 10
8.6550549516
 20
6.7028476717
 30
0.0
  0
VERTEX
  5
14C
100
AcDbEntity
  8
0
100
AcDbVertex
100
AcDb2dVertex
 10
8.6633951456
 20
6.705166295
 30
0.0
  0
VERTEX
  5
14D
100
AcDbEntity
  8
0
100
AcDbVertex
100
AcDb2dVertex
 10
8.6706325173
 20
6.7084981489
 30
0.0
  0
VERTEX
  5
14E
100
AcDbEntity
  8
0
100
AcDbVertex
100
AcDb2dVertex
 10
8.6764040766
 20
6.712676191
 30
0.0
  0
VERTEX
  5
14F
100
AcDbEntity
  8
0
100
AcDbVertex
100
AcDb2dVertex
 10
8.6804204851
 20
6.7174908825
 30
0.0
  0
VERTEX
  5
150
100
AcDbEntity
  8
0
100
AcDbVertex
100
AcDb2dVertex
 10
8.6824803553
 20
6.7227007783
 30
0.0
  0
VERTEX
  5
151
100
AcDbEntity
  8
0
100
AcDbVertex
100
AcDb2dVertex
 10
8.6824803294
 20
6.7280446914
 30
0.0
  0
VERTEX
  5
152
100
AcDbEntity
  8
0
100
AcDbVertex
100
AcDb2dVertex
 10
8.680420511
 20
6.7332545872
 30
0.0
  0
VERTEX
  5
153
100
AcDbEntity
  8
0
100
AcDbVertex
100
AcDb2dVertex
 10
8.6764040507
 20
6.7380692936
 30
0.0
  0
VERTEX
  5
154
100
AcDbEntity
  8
0
100
AcDbVertex
100
AcDb2dVertex
 10
8.6706324784
 20
6.7422473132
 30
0.0
  0
SEQEND
  5
155
100
AcDbEntity
  8
0
  0
POLYLINE
  5
156
100
AcDbEntity
  8
0
  6
CONTINUOUS
 62
         7
100
AcDb2dPolyline
 66
         1
 10
0.0
 20
0.0
 30
0.0
 70
       128
  0
VERTEX
  5
157
100
AcDbEntity
  8
0
100
AcDbVertex
100
AcDb2dVertex
 10
8.9211821664
 20
7.0797388509
 30
0.0
  0
VERTEX
  5
158
100
AcDbEntity
  8
0
100
AcDbVertex
100
AcDb2dVertex
 10
8.9139448141
 20
7.0830706937
 30
0.0
  0
VERTEX
  5
159
100
AcDbEntity
  8
0
100
AcDbVertex
100
AcDb2dVertex
 10
8.905604685
 20
7.0853893394
 30
0.0
  0
VERTEX
  5
15A
100
AcDbEntity
  8
0
100
AcDbVertex
100
AcDb2dVertex
 10
8.8965798251
 20
7.0865784622
 30
0.0
  0
VERTEX
  5
15B
100
AcDbEntity
  8
0
100
AcDbVertex
100
AcDb2dVertex
 10
8.887322919
 20
7.0865784921
 30
0.0
  0
VERTEX
  5
15C
100
AcDbEntity
  8
0
100
AcDbVertex
100
AcDb2dVertex
 10
8.8782980592
 20
7.0853893694
 30
0.0
  0
VERTEX
  5
15D
100
AcDbEntity
  8
0
100
AcDbVertex
100
AcDb2dVertex
 10
8.8699578782
 20
7.0830707536
 30
0.0
  0
VERTEX
  5
15E
100
AcDbEntity
  8
0
100
AcDbVertex
100
AcDb2dVertex
 10
8.8627205777
 20
7.079738821
 30
0.0
  0
VERTEX
  5
15F
100
AcDbEntity
  8
0
100
AcDbVertex
100
AcDb2dVertex
 10
8.8569489277
 20
7.0755608463
 30
0.0
  0
VERTEX
  5
160
100
AcDbEntity
  8
0
100
AcDbVertex
100
AcDb2dVertex
 10
8.8529325322
 20
7.0707461623
 30
0.0
  0
VERTEX
  5
161
100
AcDbEntity
  8
0
100
AcDbVertex
100
AcDb2dVertex
 10
8.8508726879
 20
7.0655362216
 30
0.0
  0
VERTEX
  5
162
100
AcDbEntity
  8
0
100
AcDbVertex
100
AcDb2dVertex
 10
8.8508727398
 20
7.0601923235
 30
0.0
  0
VERTEX
  5
163
100
AcDbEntity
  8
0
100
AcDbVertex
100
AcDb2dVertex
 10
8.852932584
 20
7.0549823828
 30
0.0
  0
VERTEX
  5
164
100
AcDbEntity
  8
0
100
AcDbVertex
100
AcDb2dVertex
 10
8.8569489796
 20
7.0501676988
 30
0.0
  0
VERTEX
  5
165
100
AcDbEntity
  8
0
100
AcDbVertex
100
AcDb2dVertex
 10
8.8627205777
 20
7.0459896942
 30
0.0
  0
VERTEX
  5
166
100
AcDbEntity
  8
0
100
AcDbVertex
100
AcDb2dVertex
 10
8.8699578782
 20
7.0426578215
 30
0.0
  0
VERTEX
  5
167
100
AcDbEntity
  8
0
100
AcDbVertex
100
AcDb2dVertex
 10
8.8782980592
 20
7.0403392057
 30
0.0
  0
VERTEX
  5
168
100
AcDbEntity
  8
0
100
AcDbVertex
100
AcDb2dVertex
 10
8.887322919
 20
7.0391500829
 30
0.0
  0
VERTEX
  5
169
100
AcDbEntity
  8
0
100
AcDbVertex
100
AcDb2dVertex
 10
8.8965798251
 20
7.039150053
 30
0.0
  0
VERTEX
  5
16A
100
AcDbEntity
  8
0
100
AcDbVertex
100
AcDb2dVertex
 10
8.9056045812
 20
7.0403392356
 30
0.0
  0
VERTEX
  5
16B
100
AcDbEntity
  8
0
100
AcDbVertex
100
AcDb2dVertex
 10
8.9139447622
 20
7.0426578514
 30
0.0
  0
VERTEX
  5
16C
100
AcDbEntity
  8
0
100
AcDbVertex
100
AcDb2dVertex
 10
8.9211821145
 20
7.0459896942
 30
0.0
  0
VERTEX
  5
16D
100
AcDbEntity
  8
0
100
AcDbVertex
100
AcDb2dVertex
 10
8.9269537127
 20
7.0501677586
 30
0.0
  0
VERTEX
  5
16E
100
AcDbEntity
  8
0
100
AcDbVertex
100
AcDb2dVertex
 10
8.9309701082
 20
7.0549824427
 30
0.0
  0
VERTEX
  5
16F
100
AcDbEntity
  8
0
100
AcDbVertex
100
AcDb2dVertex
 10
8.9330300562
 20
7.0601923235
 30
0.0
  0
VERTEX
  5
170
100
AcDbEntity
  8
0
100
AcDbVertex
100
AcDb2dVertex
 10
8.9330300043
 20
7.0655362216
 30
0.0
  0
VERTEX
  5
171
100
AcDbEntity
  8
0
100
AcDbVertex
100
AcDb2dVertex
 10
8.9309701601
 20
7.0707461623
 30
0.0
  0
VERTEX
  5
172
100
AcDbEntity
  8
0
100
AcDbVertex
100
AcDb2dVertex
 10
8.9269537127
 20
7.0755608164
 30
0.0
  0
VERTEX
  5
173
100
AcDbEntity
  8
0
100
AcDbVertex
100
AcDb2dVertex
 10
8.9211821664
 20
7.0797388509
 30
0.0
  0
SEQEND
  5
174
100
AcDbEntity
  8
0
  0
POLYLINE
  5
175
100
AcDbEntity
  8
0
  6
CONTINUOUS
 62
         7
100
AcDb2dPolyline
 66
         1
 10
0.0
 20
0.0
 30
0.0
 70
       128
  0
VERTEX
  5
176
100
AcDbEntity
  8
0
100
AcDbVertex
100
AcDb2dVertex
 10
9.6728311006
 20
6.6458211574
 30
0.0
  0
VERTEX
  5
177
100
AcDbEntity
  8
0
100
AcDbVertex
100
AcDb2dVertex
 10
9.6655937224
 20
6.6491530151
 30
0.0
  0
VERTEX
  5
178
100
AcDbEntity
  8
0
100
AcDbVertex
100
AcDb2dVertex
 10
9.6572535932
 20
6.6514716609
 30
0.0
  0
VERTEX
  5
179
100
AcDbEntity
  8
0
100
AcDbVertex
100
AcDb2dVertex
 10
9.6482287334
 20
6.6526607836
 30
0.0
  0
VERTEX
  5
17A
100
AcDbEntity
  8
0
100
AcDbVertex
100
AcDb2dVertex
 10
9.6389718532
 20
6.6526607986
 30
0.0
  0
VERTEX
  5
17B
100
AcDbEntity
  8
0
100
AcDbVertex
100
AcDb2dVertex
 10
9.6299470193
 20
6.6514716609
 30
0.0
  0
VERTEX
  5
17C
100
AcDbEntity
  8
0
100
AcDbVertex
100
AcDb2dVertex
 10
9.6216068642
 20
6.6491530301
 30
0.0
  0
VERTEX
  5
17D
100
AcDbEntity
  8
0
100
AcDbVertex
100
AcDb2dVertex
 10
9.614369486
 20
6.6458211425
 30
0.0
  0
VERTEX
  5
17E
100
AcDbEntity
  8
0
100
AcDbVertex
100
AcDb2dVertex
 10
9.6085979138
 20
6.6416431229
 30
0.0
  0
VERTEX
  5
17F
100
AcDbEntity
  8
0
100
AcDbVertex
100
AcDb2dVertex
 10
9.6045814923
 20
6.6368284538
 30
0.0
  0
VERTEX
  5
180
100
AcDbEntity
  8
0
100
AcDbVertex
100
AcDb2dVertex
 10
9.6025216221
 20
6.6316185281
 30
0.0
  0
VERTEX
  5
181
100
AcDbEntity
  8
0
100
AcDbVertex
100
AcDb2dVertex
 10
9.6025216481
 20
6.6262746449
 30
0.0
  0
VERTEX
  5
182
100
AcDbEntity
  8
0
100
AcDbVertex
100
AcDb2dVertex
 10
9.6045814923
 20
6.6210647042
 30
0.0
  0
VERTEX
  5
183
100
AcDbEntity
  8
0
100
AcDbVertex
100
AcDb2dVertex
 10
9.6085978878
 20
6.6162500202
 30
0.0
  0
VERTEX
  5
184
100
AcDbEntity
  8
0
100
AcDbVertex
100
AcDb2dVertex
 10
9.6143695119
 20
6.6120720007
 30
0.0
  0
VERTEX
  5
185
100
AcDbEntity
  8
0
100
AcDbVertex
100
AcDb2dVertex
 10
9.6216068124
 20
6.608740128
 30
0.0
  0
VERTEX
  5
186
100
AcDbEntity
  8
0
100
AcDbVertex
100
AcDb2dVertex
 10
9.6299470193
 20
6.6064214972
 30
0.0
  0
VERTEX
  5
187
100
AcDbEntity
  8
0
100
AcDbVertex
100
AcDb2dVertex
 10
9.6389718532
 20
6.6052323894
 30
0.0
  0
VERTEX
  5
188
100
AcDbEntity
  8
0
100
AcDbVertex
100
AcDb2dVertex
 10
9.6482287334
 20
6.6052323744
 30
0.0
  0
VERTEX
  5
189
100
AcDbEntity
  8
0
100
AcDbVertex
100
AcDb2dVertex
 10
9.6572535673
 20
6.6064215122
 30
0.0
  0
VERTEX
  5
18A
100
AcDbEntity
  8
0
100
AcDbVertex
100
AcDb2dVertex
 10
9.6655937483
 20
6.608740128
 30
0.0
  0
VERTEX
  5
18B
100
AcDbEntity
  8
0
100
AcDbVertex
100
AcDb2dVertex
 10
9.6728310747
 20
6.6120719857
 30
0.0
  0
VERTEX
  5
18C
100
AcDbEntity
  8
0
100
AcDbVertex
100
AcDb2dVertex
 10
9.6786026987
 20
6.6162500352
 30
0.0
  0
VERTEX
  5
18D
100
AcDbEntity
  8
0
100
AcDbVertex
100
AcDb2dVertex
 10
9.6826190943
 20
6.6210647192
 30
0.0
  0
VERTEX
  5
18E
100
AcDbEntity
  8
0
100
AcDbVertex
100
AcDb2dVertex
 10
9.6846789645
 20
6.6262746449
 30
0.0
  0
VERTEX
  5
18F
100
AcDbEntity
  8
0
100
AcDbVertex
100
AcDb2dVertex
 10
9.6846789385
 20
6.6316185281
 30
0.0
  0
VERTEX
  5
190
100
AcDbEntity
  8
0
100
AcDbVertex
100
AcDb2dVertex
 10
9.6826191202
 20
6.6368284538
 30
0.0
  0
VERTEX
  5
191
100
AcDbEntity
  8
0
100
AcDbVertex
100
AcDb2dVertex
 10
9.6786026469
 20
6.6416431229
 30
0.0
  0
VERTEX
  5
192
100
AcDbEntity
  8
0
100
AcDbVertex
100
AcDb2dVertex
 10
9.6728311006
 20
6.6458211574
 30
0.0
  0
SEQEND
  5
193
100
AcDbEntity
  8
0
  0
LINE
  5
194
100
AcDbEntity
  8
0
  6
CONTINUOUS
 62
         7
100
AcDbLine
 10
9.420889492
 20
6.1950288818
 30
0.0
 11
9.420889492
 21
6.0503661457
 31
0.0
  0
LINE
  5
195
100
AcDbEntity
  8
0
  6
CONTINUOUS
 62
         7
100
AcDbLine
 10
9.3846989873
 20
6.0937631316
 30
0.0
 11
9.420889492
 21
6.0503661457
 31
0.0
  0
LINE
  5
196
100
AcDbEntity
  8
0
  6
CONTINUOUS
 62
         7
100
AcDbLine
 10
9.3485084794
 20
6.072865583
 30
0.0
 11
9.3846989873
 21
6.0937631316
 31
0.0
  0
LINE
  5
197
100
AcDbEntity
  8
0
  6
CONTINUOUS
 62
         7
100
AcDbLine
 10
9.312317978
 20
6.116262567
 30
0.0
 11
9.3485084794
 21
6.072865583
 31
0.0
  0
LINE
  5
198
100
AcDbEntity
  8
0
  6
CONTINUOUS
 62
         7
100
AcDbLine
 10
9.2761274685
 20
6.0953650211
 30
0.0
 11
9.312317978
 21
6.116262567
 31
0.0
  0
LINE
  5
199
100
AcDbEntity
  8
0
  6
CONTINUOUS
 62
         7
100
AcDbLine
 10
9.239936972
 20
6.1387620005
 30
0.0
 11
9.2761274685
 21
6.0953650211
 31
0.0
  0
LINE
  5
19A
100
AcDbEntity
  8
0
  6
CONTINUOUS
 62
         7
100
AcDbLine
 10
9.239936972
 20
6.2512774702
 30
0.0
 11
9.239936972
 21
6.1387620005
 31
0.0
  0
LINE
  5
19B
100
AcDbEntity
  8
0
  6
CONTINUOUS
 62
         7
100
AcDbLine
 10
9.963747052
 20
6.3958984109
 30
0.0
 11
9.9359081977
 21
6.3476801161
 31
0.0
  0
LINE
  5
19C
100
AcDbEntity
  8
0
  6
CONTINUOUS
 62
         7
100
AcDbLine
 10
9.9359081977
 20
6.3476801161
 30
0.0
 11
9.9080693435
 21
6.363756354
 31
0.0
  0
LINE
  5
19D
100
AcDbEntity
  8
0
  6
CONTINUOUS
 62
         7
100
AcDbLine
 10
9.9080693435
 20
6.363756354
 30
0.0
 11
9.8802304893
 21
6.3155380592
 31
0.0
  0
LINE
  5
19E
100
AcDbEntity
  8
0
  6
CONTINUOUS
 62
         7
100
AcDbLine
 10
9.8802304893
 20
6.3155380592
 30
0.0
 11
9.852391687
 21
6.331614327
 31
0.0
  0
LINE
  5
19F
100
AcDbEntity
  8
0
  6
CONTINUOUS
 62
         7
100
AcDbLine
 10
9.852391687
 20
6.331614327
 30
0.0
 11
9.8245528327
 21
6.2833960322
 31
0.0
  0
LINE
  5
1A0
100
AcDbEntity
  8
0
  6
CONTINUOUS
 62
         7
100
AcDbLine
 10
9.8245528327
 20
6.2833960322
 30
0.0
 11
9.7410362701
 21
6.2351829468
 31
0.0
  0
LINE
  5
1A1
100
AcDbEntity
  8
0
  6
CONTINUOUS
 62
         7
100
AcDbLine
 10
9.7410362701
 20
6.2351829468
 30
0.0
 11
9.420889492
 21
6.0503661457
 31
0.0
  0
LINE
  5
1A2
100
AcDbEntity
  8
0
  6
CONTINUOUS
 62
         7
100
AcDbLine
 10
10.0194247604
 20
6.3958932014
 30
0.0
 11
10.0194247604
 21
6.5405559375
 31
0.0
  0
LINE
  5
1A3
100
AcDbEntity
  8
0
  6
CONTINUOUS
 62
         7
100
AcDbLine
 10
10.0194247604
 20
6.3958932014
 30
0.0
 11
9.9915859062
 21
6.379822173
 31
0.0
  0
LINE
  5
1A4
100
AcDbEntity
  8
0
  6
CONTINUOUS
 62
         7
100
AcDbLine
 10
9.9915859062
 20
6.379822173
 30
0.0
 11
9.963747052
 21
6.3958984109
 31
0.0
  0
POLYLINE
  5
1A5
100
AcDbEntity
  8
0
  6
CONTINUOUS
 62
         7
100
AcDb2dPolyline
 66
         1
 10
0.0
 20
0.0
 30
0.0
 70
       128
  0
VERTEX
  5
1A6
100
AcDbEntity
  8
0
100
AcDbVertex
100
AcDb2dVertex
 10
9.5600837436
 20
6.230377828
 30
0.0
  0
VERTEX
  5
1A7
100
AcDbEntity
  8
0
100
AcDbVertex
100
AcDb2dVertex
 10
9.5608341343
 20
6.2233973444
 30
0.0
  0
VERTEX
  5
1A8
100
AcDbEntity
  8
0
100
AcDbVertex
100
AcDb2dVertex
 10
9.5630448864
 20
6.2176595867
 30
0.0
  0
VERTEX
  5
1A9
100
AcDbEntity
  8
0
100
AcDbVertex
100
AcDb2dVertex
 10
9.5665967877
 20
6.2134738558
 30
0.0
  0
VERTEX
  5
1AA
100
AcDbEntity
  8
0
100
AcDbVertex
100
AcDb2dVertex
 10
9.5712983806
 20
6.2110658235
 30
0.0
  0
VERTEX
  5
1AB
100
AcDbEntity
  8
0
100
AcDbVertex
100
AcDb2dVertex
 10
9.5768961904
 20
6.2105653014
 30
0.0
  0
VERTEX
  5
1AC
100
AcDbEntity
  8
0
100
AcDbVertex
100
AcDb2dVertex
 10
9.5830884274
 20
6.2119992632
 30
0.0
  0
VERTEX
  5
1AD
100
AcDbEntity
  8
0
100
AcDbVertex
100
AcDb2dVertex
 10
9.5895412691
 20
6.2152904067
 30
0.0
  0
VERTEX
  5
1AE
100
AcDbEntity
  8
0
100
AcDbVertex
100
AcDb2dVertex
 10
9.5959068666
 20
6.2202613206
 30
0.0
  0
VERTEX
  5
1AF
100
AcDbEntity
  8
0
100
AcDbVertex
100
AcDb2dVertex
 10
9.6018420249
 20
6.2266440113
 30
0.0
  0
VERTEX
  5
1B0
100
AcDbEntity
  8
0
100
AcDbVertex
100
AcDb2dVertex
 10
9.6070267666
 20
6.2340943771
 30
0.0
  0
VERTEX
  5
1B1
100
AcDbEntity
  8
0
100
AcDbVertex
100
AcDb2dVertex
 10
9.611181612
 20
6.2422107796
 30
0.0
  0
VERTEX
  5
1B2
100
AcDbEntity
  8
0
100
AcDbVertex
100
AcDb2dVertex
 10
9.6140825524
 20
6.2505556595
 30
0.0
  0
VERTEX
  5
1B3
100
AcDbEntity
  8
0
100
AcDbVertex
100
AcDb2dVertex
 10
9.6155731965
 20
6.2586791346
 30
0.0
  0
VERTEX
  5
1B4
100
AcDbEntity
  8
0
100
AcDbVertex
100
AcDb2dVertex
 10
9.6155731965
 20
6.2661432762
 30
0.0
  0
VERTEX
  5
1B5
100
AcDbEntity
  8
0
100
AcDbVertex
100
AcDb2dVertex
 10
9.6140825524
 20
6.2725456903
 30
0.0
  0
VERTEX
  5
1B6
100
AcDbEntity
  8
0
100
AcDbVertex
100
AcDb2dVertex
 10
9.611181612
 20
6.2775412157
 30
0.0
  0
VERTEX
  5
1B7
100
AcDbEntity
  8
0
100
AcDbVertex
100
AcDb2dVertex
 10
9.6070267666
 20
6.2808605377
 30
0.0
  0
VERTEX
  5
1B8
100
AcDbEntity
  8
0
100
AcDbVertex
100
AcDb2dVertex
 10
9.6018420249
 20
6.2823247262
 30
0.0
  0
VERTEX
  5
1B9
100
AcDbEntity
  8
0
100
AcDbVertex
100
AcDb2dVertex
 10
9.5959068666
 20
6.2818548281
 30
0.0
  0
VERTEX
  5
1BA
100
AcDbEntity
  8
0
100
AcDbVertex
100
AcDb2dVertex
 10
9.5895412691
 20
6.2794761814
 30
0.0
  0
VERTEX
  5
1BB
100
AcDbEntity
  8
0
100
AcDbVertex
100
AcDb2dVertex
 10
9.5830884274
 20
6.2753170343
 30
0.0
  0
VERTEX
  5
1BC
100
AcDbEntity
  8
0
100
AcDbVertex
100
AcDb2dVertex
 10
9.5768961904
 20
6.2696015915
 30
0.0
  0
VERTEX
  5
1BD
100
AcDbEntity
  8
0
100
AcDbVertex
100
AcDb2dVertex
 10
9.5712983806
 20
6.2626379748
 30
0.0
  0
VERTEX
  5
1BE
100
AcDbEntity
  8
0
100
AcDbVertex
100
AcDb2dVertex
 10
9.5665967877
 20
6.254801597
 30
0.0
  0
VERTEX
  5
1BF
100
AcDbEntity
  8
0
100
AcDbVertex
100
AcDb2dVertex
 10
9.5630448864
 20
6.2465149282
 30
0.0
  0
VERTEX
  5
1C0
100
AcDbEntity
  8
0
100
AcDbVertex
100
AcDb2dVertex
 10
9.5608341343
 20
6.2382246904
 30
0.0
  0
VERTEX
  5
1C1
100
AcDbEntity
  8
0
100
AcDbVertex
100
AcDb2dVertex
 10
9.5600837436
 20
6.230377828
 30
0.0
  0
SEQEND
  5
1C2
100
AcDbEntity
  8
0
  0
POLYLINE
  5
1C3
100
AcDbEntity
  8
0
  6
CONTINUOUS
 62
         7
100
AcDb2dPolyline
 66
         1
 10
0.0
 20
0.0
 30
0.0
 70
       128
  0
VERTEX
  5
1C4
100
AcDbEntity
  8
0
100
AcDbVertex
100
AcDb2dVertex
 10
9.8384722339
 20
6.3910880826
 30
0.0
  0
VERTEX
  5
1C5
100
AcDbEntity
  8
0
100
AcDbVertex
100
AcDb2dVertex
 10
9.8392226117
 20
6.3841075916
 30
0.0
  0
VERTEX
  5
1C6
100
AcDbEntity
  8
0
100
AcDbVertex
100
AcDb2dVertex
 10
9.8414334026
 20
6.3783698563
 30
0.0
  0
VERTEX
  5
1C7
100
AcDbEntity
  8
0
100
AcDbVertex
100
AcDb2dVertex
 10
9.844985291
 20
6.3741841179
 30
0.0
  0
VERTEX
  5
1C8
100
AcDbEntity
  8
0
100
AcDbVertex
100
AcDb2dVertex
 10
9.8496868839
 20
6.3717760856
 30
0.0
  0
VERTEX
  5
1C9
100
AcDbEntity
  8
0
100
AcDbVertex
100
AcDb2dVertex
 10
9.8552846678
 20
6.3712755485
 30
0.0
  0
VERTEX
  5
1CA
100
AcDbEntity
  8
0
100
AcDbVertex
100
AcDb2dVertex
 10
9.8614769048
 20
6.3727095104
 30
0.0
  0
VERTEX
  5
1CB
100
AcDbEntity
  8
0
100
AcDbVertex
100
AcDb2dVertex
 10
9.8679297594
 20
6.3760006613
 30
0.0
  0
VERTEX
  5
1CC
100
AcDbEntity
  8
0
100
AcDbVertex
100
AcDb2dVertex
 10
9.874295344
 20
6.3809715677
 30
0.0
  0
VERTEX
  5
1CD
100
AcDbEntity
  8
0
100
AcDbVertex
100
AcDb2dVertex
 10
9.8802304893
 20
6.387354251
 30
0.0
  0
VERTEX
  5
1CE
100
AcDbEntity
  8
0
100
AcDbVertex
100
AcDb2dVertex
 10
9.8854152569
 20
6.3948046317
 30
0.0
  0
VERTEX
  5
1CF
100
AcDbEntity
  8
0
100
AcDbVertex
100
AcDb2dVertex
 10
9.8895701023
 20
6.4029210343
 30
0.0
  0
VERTEX
  5
1D0
100
AcDbEntity
  8
0
100
AcDbVertex
100
AcDb2dVertex
 10
9.8924710687
 20
6.4112659291
 30
0.0
  0
VERTEX
  5
1D1
100
AcDbEntity
  8
0
100
AcDbVertex
100
AcDb2dVertex
 10
9.8939617127
 20
6.4193894042
 30
0.0
  0
VERTEX
  5
1D2
100
AcDbEntity
  8
0
100
AcDbVertex
100
AcDb2dVertex
 10
9.8939617127
 20
6.4268535458
 30
0.0
  0
VERTEX
  5
1D3
100
AcDbEntity
  8
0
100
AcDbVertex
100
AcDb2dVertex
 10
9.8924710687
 20
6.4332559599
 30
0.0
  0
VERTEX
  5
1D4
100
AcDbEntity
  8
0
100
AcDbVertex
100
AcDb2dVertex
 10
9.8895701023
 20
6.4382514703
 30
0.0
  0
VERTEX
  5
1D5
100
AcDbEntity
  8
0
100
AcDbVertex
100
AcDb2dVertex
 10
9.8854152569
 20
6.4415707923
 30
0.0
  0
VERTEX
  5
1D6
100
AcDbEntity
  8
0
100
AcDbVertex
100
AcDb2dVertex
 10
9.8802304893
 20
6.4430349659
 30
0.0
  0
VERTEX
  5
1D7
100
AcDbEntity
  8
0
100
AcDbVertex
100
AcDb2dVertex
 10
9.874295344
 20
6.4425650753
 30
0.0
  0
VERTEX
  5
1D8
100
AcDbEntity
  8
0
100
AcDbVertex
100
AcDb2dVertex
 10
9.8679297594
 20
6.4401864361
 30
0.0
  0
VERTEX
  5
1D9
100
AcDbEntity
  8
0
100
AcDbVertex
100
AcDb2dVertex
 10
9.8614769048
 20
6.4360272815
 30
0.0
  0
VERTEX
  5
1DA
100
AcDbEntity
  8
0
100
AcDbVertex
100
AcDb2dVertex
 10
9.8552846678
 20
6.4303118387
 30
0.0
  0
VERTEX
  5
1DB
100
AcDbEntity
  8
0
100
AcDbVertex
100
AcDb2dVertex
 10
9.8496868839
 20
6.423348237
 30
0.0
  0
VERTEX
  5
1DC
100
AcDbEntity
  8
0
100
AcDbVertex
100
AcDb2dVertex
 10
9.844985291
 20
6.4155118592
 30
0.0
  0
VERTEX
  5
1DD
100
AcDbEntity
  8
0
100
AcDbVertex
100
AcDb2dVertex
 10
9.8414334026
 20
6.4072251978
 30
0.0
  0
VERTEX
  5
1DE
100
AcDbEntity
  8
0
100
AcDbVertex
100
AcDb2dVertex
 10
9.8392226117
 20
6.3989349376
 30
0.0
  0
VERTEX
  5
1DF
100
AcDbEntity
  8
0
100
AcDbVertex
100
AcDb2dVertex
 10
9.8384722339
 20
6.3910880826
 30
0.0
  0
SEQEND
  5
1E0
100
AcDbEntity
  8
0
  0
LINE
  5
1E1
100
AcDbEntity
  8
0
  6
CONTINUOUS
 62
         7
100
AcDbLine
 10
8.6831599654
 20
6.4601825247
 30
0.0
 11
8.6553208001
 21
6.4441064664
 31
0.0
  0
LINE
  5
1E2
100
AcDbEntity
  8
0
  6
CONTINUOUS
 62
         7
100
AcDbLine
 10
8.6553208001
 20
6.4441064664
 30
0.0
 11
8.627482257
 21
6.4923245816
 31
0.0
  0
LINE
  5
1E3
100
AcDbEntity
  8
0
  6
CONTINUOUS
 62
         7
100
AcDbLine
 10
8.627482257
 20
6.4923245816
 30
0.0
 11
8.5996431435
 21
6.4762484934
 31
0.0
  0
LINE
  5
1E4
100
AcDbEntity
  8
0
  6
CONTINUOUS
 62
         7
100
AcDbLine
 10
8.5996431435
 20
6.4762484934
 30
0.0
 11
8.5718046004
 21
6.5244666086
 31
0.0
  0
LINE
  5
1E5
100
AcDbEntity
  8
0
  6
CONTINUOUS
 62
         7
100
AcDbLine
 10
8.5718046004
 20
6.5244666086
 30
0.0
 11
8.5439654351
 21
6.5083905503
 31
0.0
  0
LINE
  5
1E6
100
AcDbEntity
  8
0
  6
CONTINUOUS
 62
         7
100
AcDbLine
 10
8.5439654351
 20
6.5083905503
 30
0.0
 11
8.516126892
 21
6.5566086655
 31
0.0
  0
LINE
  5
1E7
100
AcDbEntity
  8
0
  6
CONTINUOUS
 62
         7
100
AcDbLine
 10
8.516126892
 20
6.5566086655
 30
0.0
 11
8.4882876748
 21
6.5405326372
 31
0.0
  0
LINE
  5
1E8
100
AcDbEntity
  8
0
  6
CONTINUOUS
 62
         7
100
AcDbLine
 10
8.4882876748
 20
6.5405326372
 30
0.0
 11
8.4604491836
 21
6.5887507224
 31
0.0
  0
LINE
  5
1E9
100
AcDbEntity
  8
0
  6
CONTINUOUS
 62
         7
100
AcDbLine
 10
8.4604491836
 20
6.5887507224
 30
0.0
 11
8.4326100701
 21
6.5726746342
 31
0.0
  0
LINE
  5
1EA
100
AcDbEntity
  8
0
  6
CONTINUOUS
 62
         7
100
AcDbLine
 10
8.4326100701
 20
6.5726746342
 30
0.0
 11
8.4047714751
 21
6.6208927794
 31
0.0
  0
LINE
  5
1EB
100
AcDbEntity
  8
0
  6
CONTINUOUS
 62
         7
100
AcDbLine
 10
8.4047714751
 20
6.6208927794
 30
0.0
 11
8.3769326728
 21
6.6048165115
 31
0.0
  0
LINE
  5
1EC
100
AcDbEntity
  8
0
  6
CONTINUOUS
 62
         7
100
AcDbLine
 10
8.3769326728
 20
6.6048165115
 30
0.0
 11
8.3490937667
 21
6.6530348363
 31
0.0
  0
LINE
  5
1ED
100
AcDbEntity
  8
0
  6
CONTINUOUS
 62
         7
100
AcDbLine
 10
8.3490937667
 20
6.6530348363
 30
0.0
 11
8.3212549643
 21
6.6369585684
 31
0.0
  0
LINE
  5
1EE
100
AcDbEntity
  8
0
  6
CONTINUOUS
 62
         7
100
AcDbLine
 10
8.3212549643
 20
6.6369585684
 30
0.0
 11
8.2934160583
 21
6.6851768932
 31
0.0
  0
LINE
  5
1EF
100
AcDbEntity
  8
0
  6
CONTINUOUS
 62
         7
100
AcDbLine
 10
8.2934160583
 20
6.6851768932
 30
0.0
 11
8.2655772559
 21
6.6691006254
 31
0.0
  0
LINE
  5
1F0
100
AcDbEntity
  8
0
  6
CONTINUOUS
 62
         7
100
AcDbLine
 10
8.2655772559
 20
6.6691006254
 30
0.0
 11
8.2377383498
 21
6.7173189501
 31
0.0
  0
LINE
  5
1F1
100
AcDbEntity
  8
0
  6
CONTINUOUS
 62
         7
100
AcDbLine
 10
8.2377383498
 20
6.8298344198
 30
0.0
 11
8.2377383498
 21
6.7173189501
 31
0.0
  0
LINE
  5
1F2
100
AcDbEntity
  8
0
  6
CONTINUOUS
 62
         7
100
AcDbLine
 10
9.2120981178
 20
6.1226857626
 30
0.0
 11
9.239936972
 21
6.1387620005
 31
0.0
  0
LINE
  5
1F3
100
AcDbEntity
  8
0
  6
CONTINUOUS
 62
         7
100
AcDbLine
 10
9.1842592635
 20
6.1709040574
 30
0.0
 11
9.2120981178
 21
6.1226857626
 31
0.0
  0
LINE
  5
1F4
100
AcDbEntity
  8
0
  6
CONTINUOUS
 62
         7
100
AcDbLine
 10
9.1564204093
 20
6.1548278195
 30
0.0
 11
9.1842592635
 21
6.1709040574
 31
0.0
  0
LINE
  5
1F5
100
AcDbEntity
  8
0
  6
CONTINUOUS
 62
         7
100
AcDbLine
 10
9.128581581
 20
6.2030460993
 30
0.0
 11
9.1564204093
 21
6.1548278195
 31
0.0
  0
LINE
  5
1F6
100
AcDbEntity
  8
0
  6
CONTINUOUS
 62
         7
100
AcDbLine
 10
9.1007427268
 20
6.1869698614
 30
0.0
 11
9.128581581
 21
6.2030460993
 31
0.0
  0
LINE
  5
1F7
100
AcDbEntity
  8
0
  6
CONTINUOUS
 62
         7
100
AcDbLine
 10
9.0729038726
 20
6.2351881563
 30
0.0
 11
9.1007427268
 21
6.1869698614
 31
0.0
  0
LINE
  5
1F8
100
AcDbEntity
  8
0
  6
CONTINUOUS
 62
         7
100
AcDbLine
 10
9.0450653295
 20
6.2191117387
 30
0.0
 11
9.0729038726
 21
6.2351881563
 31
0.0
  0
LINE
  5
1F9
100
AcDbEntity
  8
0
  6
CONTINUOUS
 62
         7
100
AcDbLine
 10
9.0172261642
 20
6.2673302132
 30
0.0
 11
9.0450653295
 21
6.2191117387
 31
0.0
  0
LINE
  5
1FA
100
AcDbEntity
  8
0
  6
CONTINUOUS
 62
         7
100
AcDbLine
 10
8.9893876211
 20
6.2512537957
 30
0.0
 11
9.0172261642
 21
6.2673302132
 31
0.0
  0
LINE
  5
1FB
100
AcDbEntity
  8
0
  6
CONTINUOUS
 62
         7
100
AcDbLine
 10
8.9615484817
 20
6.2994722551
 30
0.0
 11
8.9893876211
 21
6.2512537957
 31
0.0
  0
LINE
  5
1FC
100
AcDbEntity
  8
0
  6
CONTINUOUS
 62
         7
100
AcDbLine
 10
8.9337099126
 20
6.2833958526
 30
0.0
 11
8.9615484817
 21
6.2994722551
 31
0.0
  0
LINE
  5
1FD
100
AcDbEntity
  8
0
  6
CONTINUOUS
 62
         7
100
AcDbLine
 10
8.9058707473
 20
6.331614327
 30
0.0
 11
8.9337099126
 21
6.2833958526
 31
0.0
  0
LINE
  5
1FE
100
AcDbEntity
  8
0
  6
CONTINUOUS
 62
         7
100
AcDbLine
 10
8.8780322042
 20
6.3155379095
 30
0.0
 11
8.9058707473
 21
6.331614327
 31
0.0
  0
LINE
  5
1FF
100
AcDbEntity
  8
0
  6
CONTINUOUS
 62
         7
100
AcDbLine
 10
8.8501930907
 20
6.363756354
 30
0.0
 11
8.8780322042
 21
6.3155379095
 31
0.0
  0
LINE
  5
200
100
AcDbEntity
  8
0
  6
CONTINUOUS
 62
         7
100
AcDbLine
 10
8.8223545476
 20
6.3476799365
 30
0.0
 11
8.8501930907
 21
6.363756354
 31
0.0
  0
LINE
  5
201
100
AcDbEntity
  8
0
  6
CONTINUOUS
 62
         7
100
AcDbLine
 10
8.7945153823
 20
6.3958984109
 30
0.0
 11
8.8223545476
 21
6.3476799365
 31
0.0
  0
LINE
  5
202
100
AcDbEntity
  8
0
  6
CONTINUOUS
 62
         7
100
AcDbLine
 10
8.7666768392
 20
6.3798219934
 30
0.0
 11
8.7945153823
 21
6.3958984109
 31
0.0
  0
LINE
  5
203
100
AcDbEntity
  8
0
  6
CONTINUOUS
 62
         7
100
AcDbLine
 10
8.7388376739
 20
6.4280404678
 30
0.0
 11
8.7666768392
 21
6.3798219934
 31
0.0
  0
LINE
  5
204
100
AcDbEntity
  8
0
  6
CONTINUOUS
 62
         7
100
AcDbLine
 10
8.7388376739
 20
6.4280404678
 30
0.0
 11
8.7109985085
 21
6.4119644095
 31
0.0
  0
LINE
  5
205
100
AcDbEntity
  8
0
  6
CONTINUOUS
 62
         7
100
AcDbLine
 10
8.7109985085
 20
6.4119644095
 30
0.0
 11
8.6831599654
 21
6.4601825247
 31
0.0
  0
LINE
  5
206
100
AcDbEntity
  8
0
  6
CONTINUOUS
 62
         7
100
AcDbLine
 10
9.3847019268
 20
6.0937596154
 30
0.0
 11
9.3485084794
 21
6.072865583
 31
0.0
  0
LINE
  5
207
100
AcDbEntity
  8
0
  6
CONTINUOUS
 62
         7
100
AcDbLine
 10
9.3123209143
 20
6.1162590526
 30
0.0
 11
9.2761274685
 21
6.0953650211
 31
0.0
  0
LINE
  5
208
100
AcDbEntity
  8
0
  6
CONTINUOUS
 62
         7
100
AcDbLine
 10
9.2399399082
 20
6.1387584861
 30
0.0
 11
9.2120981178
 21
6.1226857626
 31
0.0
  0
LINE
  5
209
100
AcDbEntity
  8
0
  6
CONTINUOUS
 62
         7
100
AcDbLine
 10
9.1842615224
 20
6.170900152
 30
0.0
 11
9.1564204093
 21
6.1548278195
 31
0.0
  0
LINE
  5
20A
100
AcDbEntity
  8
0
  6
CONTINUOUS
 62
         7
100
AcDbLine
 10
9.1285838399
 20
6.2030421939
 30
0.0
 11
9.1007427268
 21
6.1869698614
 31
0.0
  0
LINE
  5
20B
100
AcDbEntity
  8
0
  6
CONTINUOUS
 62
         7
100
AcDbLine
 10
9.0729062903
 20
6.2351839833
 30
0.0
 11
9.0450653295
 21
6.2191117387
 31
0.0
  0
LINE
  5
20C
100
AcDbEntity
  8
0
  6
CONTINUOUS
 62
         7
100
AcDbLine
 10
9.0172285819
 20
6.2673260402
 30
0.0
 11
8.9893876211
 21
6.2512537957
 31
0.0
  0
LINE
  5
20D
100
AcDbEntity
  8
0
  6
CONTINUOUS
 62
         7
100
AcDbLine
 10
8.9615508734
 20
6.2994680971
 30
0.0
 11
8.9337099126
 21
6.2833958526
 31
0.0
  0
LINE
  5
20E
100
AcDbEntity
  8
0
  6
CONTINUOUS
 62
         7
100
AcDbLine
 10
8.905873165
 20
6.331610154
 30
0.0
 11
8.8780322042
 21
6.3155379095
 31
0.0
  0
LINE
  5
20F
100
AcDbEntity
  8
0
  6
CONTINUOUS
 62
         7
100
AcDbLine
 10
9.8802304893
 20
6.3155380592
 30
0.0
 11
9.8523893762
 21
6.3316103916
 31
0.0
  0
LINE
  5
210
100
AcDbEntity
  8
0
  6
CONTINUOUS
 62
         7
100
AcDbLine
 10
9.9359081977
 20
6.3476801161
 30
0.0
 11
9.9080670846
 21
6.3637524486
 31
0.0
  0
LINE
  5
211
100
AcDbEntity
  8
0
  6
CONTINUOUS
 62
         7
100
AcDbLine
 10
8.8501955084
 20
6.363752181
 30
0.0
 11
8.8223545476
 21
6.3476799365
 31
0.0
  0
LINE
  5
212
100
AcDbEntity
  8
0
  6
CONTINUOUS
 62
         7
100
AcDbLine
 10
8.7945178
 20
6.3958942379
 30
0.0
 11
8.7666768392
 21
6.3798219934
 31
0.0
  0
LINE
  5
213
100
AcDbEntity
  8
0
  6
CONTINUOUS
 62
         7
100
AcDbLine
 10
9.9915859062
 20
6.379822173
 30
0.0
 11
9.9637447931
 21
6.3958945055
 31
0.0
  0
LINE
  5
214
100
AcDbEntity
  8
0
  6
CONTINUOUS
 62
         7
100
AcDbLine
 10
8.7388397739
 20
6.4280368299
 30
0.0
 11
8.7109985085
 21
6.4119644095
 31
0.0
  0
LINE
  5
215
100
AcDbEntity
  8
0
  6
CONTINUOUS
 62
         7
100
AcDbLine
 10
8.6831620655
 20
6.4601788868
 30
0.0
 11
8.6553208001
 21
6.4441064664
 31
0.0
  0
LINE
  5
216
100
AcDbEntity
  8
0
  6
CONTINUOUS
 62
         7
100
AcDbLine
 10
8.6274844089
 20
6.4923209138
 30
0.0
 11
8.5996431435
 21
6.4762484934
 31
0.0
  0
LINE
  5
217
100
AcDbEntity
  8
0
  6
CONTINUOUS
 62
         7
100
AcDbLine
 10
8.5718067005
 20
6.5244629707
 30
0.0
 11
8.5439654351
 21
6.5083905503
 31
0.0
  0
LINE
  5
218
100
AcDbEntity
  8
0
  6
CONTINUOUS
 62
         7
100
AcDbLine
 10
8.5161289402
 20
6.5566050576
 30
0.0
 11
8.4882876748
 21
6.5405326372
 31
0.0
  0
LINE
  5
219
100
AcDbEntity
  8
0
  6
CONTINUOUS
 62
         7
100
AcDbLine
 10
8.4604513355
 20
6.5887470546
 30
0.0
 11
8.4326100701
 21
6.5726746342
 31
0.0
  0
LINE
  5
21A
100
AcDbEntity
  8
0
  6
CONTINUOUS
 62
         7
100
AcDbLine
 10
8.4047737859
 20
6.620888844
 30
0.0
 11
8.3769326728
 21
6.6048165115
 31
0.0
  0
LINE
  5
21B
100
AcDbEntity
  8
0
  6
CONTINUOUS
 62
         7
100
AcDbLine
 10
8.3490960774
 20
6.6530309009
 30
0.0
 11
8.3212549643
 21
6.6369585684
 31
0.0
  0
LINE
  5
21C
100
AcDbEntity
  8
0
  6
CONTINUOUS
 62
         7
100
AcDbLine
 10
8.1792768033
 20
6.7478486622
 30
0.0
 11
8.198763952
 21
6.759103623
 31
0.0
  0
LINE
  5
21D
100
AcDbEntity
  8
0
  6
CONTINUOUS
 62
         7
100
AcDbLine
 10
8.1597895541
 20
6.8008882958
 30
0.0
 11
8.1792768033
 21
6.7478486622
 31
0.0
  0
LINE
  5
21E
100
AcDbEntity
  8
0
  6
CONTINUOUS
 62
         7
100
AcDbLine
 10
8.1403024054
 20
6.789633335
 30
0.0
 11
8.1597895541
 21
6.8008882958
 31
0.0
  0
LINE
  5
21F
100
AcDbEntity
  8
0
  6
CONTINUOUS
 62
         7
100
AcDbLine
 10
8.1403024054
 20
6.9342960711
 30
0.0
 11
8.1403024054
 21
6.789633335
 31
0.0
  0
LINE
  5
220
100
AcDbEntity
  8
0
  6
CONTINUOUS
 62
         7
100
AcDbLine
 10
8.2182512028
 20
6.7060639902
 30
0.0
 11
8.2377383498
 21
6.7173189501
 31
0.0
  0
LINE
  5
221
100
AcDbEntity
  8
0
  6
CONTINUOUS
 62
         7
100
AcDbLine
 10
8.198763952
 20
6.759103623
 30
0.0
 11
8.2182512028
 21
6.7060639902
 31
0.0
  0
LINE
  5
222
100
AcDbEntity
  8
0
  6
CONTINUOUS
 62
         7
100
AcDbLine
 10
8.293418369
 20
6.6851729578
 30
0.0
 11
8.2655772559
 21
6.6691006254
 31
0.0
  0
LINE
  5
223
100
AcDbEntity
  8
0
  6
CONTINUOUS
 62
         7
100
AcDbLine
 10
8.2377406606
 20
6.7173150148
 30
0.0
 11
8.2182512028
 21
6.7060639902
 31
0.0
  0
LINE
  5
224
100
AcDbEntity
  8
0
  6
CONTINUOUS
 62
         7
100
AcDbLine
 10
8.1987655821
 20
6.7590992947
 30
0.0
 11
8.1792768033
 21
6.7478486622
 31
0.0
  0
LINE
  5
225
100
AcDbEntity
  8
0
  6
CONTINUOUS
 62
         7
100
AcDbLine
 10
8.1403024054
 20
6.789633335
 30
0.0
 11
8.1597911811
 21
6.8008839657
 31
0.0
  0
CIRCLE
  5
226
100
AcDbEntity
  8
0
  6
CONTINUOUS
 62
         7
100
AcDbCircle
 10
3.6162704398
 20
3.6242324501
 30
0.0
 40
0.0413385827
  0
CIRCLE
  5
227
100
AcDbEntity
  8
0
  6
CONTINUOUS
 62
         7
100
AcDbCircle
 10
3.1438294949
 20
3.6242324501
 30
0.0
 40
0.0413385827
  0
LINE
  5
228
100
AcDbEntity
  8
0
  6
CONTINUOUS
 62
         7
100
AcDbLine
 10
2.061152326
 20
3.5258072538
 30
0.0
 11
2.2580026787
 21
3.4667521352
 31
0.0
  0
LINE
  5
229
100
AcDbEntity
  8
0
  6
CONTINUOUS
 62
         7
100
AcDbLine
 10
2.061152326
 20
3.5258072538
 30
0.0
 11
2.061152326
 21
4.372263948
 31
0.0
  0
LINE
  5
22A
100
AcDbEntity
  8
0
  6
CONTINUOUS
 62
         7
100
AcDbLine
 10
2.061152326
 20
4.372263948
 30
0.0
 11
3.8721759516
 21
4.372263948
 31
0.0
  0
LINE
  5
22B
100
AcDbEntity
  8
0
  6
CONTINUOUS
 62
         7
100
AcDbLine
 10
3.8721759516
 20
4.372263948
 30
0.0
 11
3.8721759516
 21
3.5258072538
 31
0.0
  0
LINE
  5
22C
100
AcDbEntity
  8
0
  6
CONTINUOUS
 62
         7
100
AcDbLine
 10
3.6753255623
 20
3.4667521352
 30
0.0
 11
3.8721759516
 21
3.5258072538
 31
0.0
  0
LINE
  5
22D
100
AcDbEntity
  8
0
  6
CONTINUOUS
 62
         7
100
AcDbLine
 10
3.6753255623
 20
3.4667521352
 30
0.0
 11
2.2580026787
 21
3.4667521352
 31
0.0
  0
CIRCLE
  5
22E
100
AcDbEntity
  8
0
  6
CONTINUOUS
 62
         7
100
AcDbCircle
 10
2.1989476052
 20
3.6242324501
 30
0.0
 40
0.0413385827
  0
CIRCLE
  5
22F
100
AcDbEntity
  8
0
  6
CONTINUOUS
 62
         7
100
AcDbCircle
 10
2.67138855
 20
3.6242324501
 30
0.0
 40
0.0413385827
  0
CIRCLE
  5
230
100
AcDbEntity
  8
0
  6
CONTINUOUS
 62
         7
100
AcDbCircle
 10
2.4351680776
 20
4.2147836312
 30
0.0
 40
0.0413385827
  0
CIRCLE
  5
231
100
AcDbEntity
  8
0
  6
CONTINUOUS
 62
         7
100
AcDbCircle
 10
3.4981602036
 20
4.2147836312
 30
0.0
 40
0.0413385827
  0
ARC
  5
232
100
AcDbEntity
  8
0
  6
CONTINUOUS
 62
         7
100
AcDbCircle
 10
2.4351680987
 20
4.2171018226
 30
0.0
 40
0.0030780135
100
AcDbArc
 50
228.8642532763
 51
311.1357467198
  0
ARC
  5
233
100
AcDbEntity
  8
0
  6
CONTINUOUS
 62
         7
100
AcDbCircle
 10
2.4351680987
 20
4.2124656981
 30
0.0
 40
0.0030777828
100
AcDbArc
 50
48.8605015658
 51
131.139498438
  0
ARC
  5
234
100
AcDbEntity
  8
0
  6
CONTINUOUS
 62
         7
100
AcDbCircle
 10
3.4981602156
 20
4.2171019158
 30
0.0
 40
0.0030781078
100
AcDbArc
 50
228.864880148
 51
311.1351198692
  0
ARC
  5
235
100
AcDbEntity
  8
0
  6
CONTINUOUS
 62
         7
100
AcDbCircle
 10
3.4981602156
 20
4.212465598
 30
0.0
 40
0.0030778823
100
AcDbArc
 50
48.861212894
 51
131.1387870888
  0
DIMENSION
  5
245
100
AcDbEntity
  8
0
 62
         7
100
AcDbDimension
  2
*D19
 10
2.67138855
 20
2.9184156093
 30
0.0
 11
3.3383330611
 21
2.9184156093
 31
0.0
 70
       160
  1
<>(12mm)\PTYP.
  3
SLDDIMSTYLE0
100
AcDbAlignedDimension
 13
2.1989476052
 23
3.6242324501
 33
0.0
 14
2.67138855
 24
3.6242324501
 34
0.0
100
AcDbRotatedDimension
  0
DIMENSION
  5
253
100
AcDbEntity
  8
0
 62
         7
100
AcDbDimension
  2
*D20
 10
1.4655063703
 20
4.2147836312
 30
0.0
 11
1.4655063703
 21
3.9195080407
 31
0.0
 70
       160
  1
<>\P(15mm)
  3
SLDDIMSTYLE0
100
AcDbAlignedDimension
 13
2.1989476052
 23
3.6242324501
 33
0.0
 14
2.4351680776
 24
4.2147836312
 34
0.0
 50
90.0
100
AcDbRotatedDimension
  0
DIMENSION
  5
262
100
AcDbEntity
  8
0
 62
         7
100
AcDbDimension
  2
*D21
 10
3.8721759516
 20
2.4229465601
 30
0.0
 11
2.9666641406
 21
2.4229465601
 31
0.0
 70
       160
  1
<>\P(46mm)
  3
SLDDIMSTYLE1
100
AcDbAlignedDimension
 13
2.0611523296
 23
3.5258072533
 33
0.0
 14
3.8721759516
 24
3.5258072533
 34
0.0
100
AcDbRotatedDimension
  0
DIMENSION
  5
270
100
AcDbEntity
  8
0
 62
         7
100
AcDbDimension
  2
*D22
 10
4.4626501378
 20
3.5258072533
 30
0.0
 11
4.4626501378
 21
3.9490355997
 31
0.0
 70
       160
  1
<>\P(22mm)
  3
SLDDIMSTYLE0
100
AcDbAlignedDimension
 13
3.8721759516
 23
4.3722639462
 33
0.0
 14
3.8721759516
 24
3.5258072533
 34
0.0
 50
90.0
100
AcDbRotatedDimension
  0
LEADER
  5
271
100
AcDbEntity
  8
0
 62
         7
100
AcDbLeader
  3
SLDDIMSTYLE2
 73
         2
 74
         0
 75
         0
 40
0.0
 76
         3
 10
2.449727183
 20
4.2534735636
 30
0.0
 10
2.6917694775
 20
4.7903089591
 30
0.0
 10
2.9417694775
 20
4.7903089591
 30
0.0
 77
       256
340
27C
  0
INSERT
  5
27C
100
AcDbEntity
  8
0
100
AcDbBlockReference
  2
NOTE51
 10
2.9417694775
 20
4.7903089591
 30
0.0
  0
INSERT
  5
288
100
AcDbEntity
  8
0
100
AcDbBlockReference
  2
SW_CENTERMARK0
 10
0.0
 20
0.0
 30
0.0
  0
INSERT
  5
294
100
AcDbEntity
  8
0
100
AcDbBlockReference
  2
SW_CENTERMARK1
 10
0.0
 20
0.0
 30
0.0
  0
INSERT
  5
2A0
100
AcDbEntity
  8
0
100
AcDbBlockReference
  2
SW_CENTERMARK2
 10
0.0
 20
0.0
 30
0.0
  0
LINE
  5
2A1
100
AcDbEntity
  8
0
  6
CONTINUOUS
 62
         7
100
AcDbLine
 10
7.884073916
 20
4.2935237776
 30
0.0
 11
7.9234439829
 21
4.2541536924
 31
0.0
  0
LINE
  5
2A2
100
AcDbEntity
  8
0
  6
CONTINUOUS
 62
         7
100
AcDbLine
 10
7.9234439829
 20
4.2541536924
 30
0.0
 11
7.884073916
 21
4.2147836072
 31
0.0
  0
LINE
  5
2A3
100
AcDbEntity
  8
0
  6
CONTINUOUS
 62
         7
100
AcDbLine
 10
7.884073916
 20
4.2147836072
 30
0.0
 11
7.9234439829
 21
4.175413522
 31
0.0
  0
LINE
  5
2A4
100
AcDbEntity
  8
0
  6
CONTINUOUS
 62
         7
100
AcDbLine
 10
7.9234439829
 20
4.175413522
 30
0.0
 11
7.884073916
 21
4.1360435101
 31
0.0
  0
LINE
  5
2A5
100
AcDbEntity
  8
0
  6
CONTINUOUS
 62
         7
100
AcDbLine
 10
7.884073916
 20
4.1360435101
 30
0.0
 11
7.9234439829
 21
4.0966734249
 31
0.0
  0
LINE
  5
2A6
100
AcDbEntity
  8
0
  6
CONTINUOUS
 62
         7
100
AcDbLine
 10
7.9234439829
 20
4.0966734249
 30
0.0
 11
7.9234439829
 21
3.9785631694
 31
0.0
  0
LINE
  5
2A7
100
AcDbEntity
  8
0
  6
CONTINUOUS
 62
         7
100
AcDbLine
 10
7.9234439829
 20
3.9785631694
 30
0.0
 11
7.9234439829
 21
3.5258072538
 31
0.0
  0
LINE
  5
2A8
100
AcDbEntity
  8
0
  6
CONTINUOUS
 62
         7
100
AcDbLine
 10
7.7462786361
 20
3.5258072538
 30
0.0
 11
7.9234439829
 21
3.5258072538
 31
0.0
  0
LINE
  5
2A9
100
AcDbEntity
  8
0
  6
CONTINUOUS
 62
         7
100
AcDbLine
 10
7.9234439829
 20
4.372263948
 30
0.0
 11
7.9234439829
 21
4.3328938628
 31
0.0
  0
LINE
  5
2AA
100
AcDbEntity
  8
0
  6
CONTINUOUS
 62
         7
100
AcDbLine
 10
7.9234439829
 20
4.3328938628
 30
0.0
 11
7.884073916
 21
4.2935237776
 31
0.0
  0
CIRCLE
  5
2AB
100
AcDbEntity
  8
0
  6
CONTINUOUS
 62
         7
100
AcDbCircle
 10
7.8013967464
 20
3.7620277257
 30
0.0
 40
0.0393700787
  0
CIRCLE
  5
2AC
100
AcDbEntity
  8
0
  6
CONTINUOUS
 62
         7
100
AcDbCircle
 10
7.8013967464
 20
4.1557285131
 30
0.0
 40
0.0393700787
  0
LINE
  5
2AD
100
AcDbEntity
  8
0
  6
CONTINUOUS
 62
         7
100
AcDbLine
 10
7.9234439829
 20
4.372263948
 30
0.0
 11
7.7462786361
 21
4.372263948
 31
0.0
  0
LINE
  5
2AE
100
AcDbEntity
  8
0
  6
CONTINUOUS
 62
         7
100
AcDbLine
 10
7.7462786361
 20
4.372263948
 30
0.0
 11
7.7462786361
 21
3.5258072538
 31
0.0
  0
LINE
  5
2AF
100
AcDbEntity
  8
0
  6
CONTINUOUS
 62
         7
100
AcDbLine
 10
7.884073916
 20
3.5139962319
 30
0.0
 11
7.9234439829
 21
3.5258072538
 31
0.0
  0
LINE
  5
2B0
100
AcDbEntity
  8
0
  6
CONTINUOUS
 62
         7
100
AcDbLine
 10
7.9234439829
 20
3.5021852054
 30
0.0
 11
7.884073916
 21
3.5139962319
 31
0.0
  0
LINE
  5
2B1
100
AcDbEntity
  8
0
  6
CONTINUOUS
 62
         7
100
AcDbLine
 10
7.884073916
 20
3.4903741835
 30
0.0
 11
7.9234439829
 21
3.5021852054
 31
0.0
  0
LINE
  5
2B2
100
AcDbEntity
  8
0
  6
CONTINUOUS
 62
         7
100
AcDbLine
 10
7.9234439829
 20
3.4785631594
 30
0.0
 11
7.884073916
 21
3.4903741835
 31
0.0
  0
LINE
  5
2B3
100
AcDbEntity
  8
0
  6
CONTINUOUS
 62
         7
100
AcDbLine
 10
7.884073916
 20
3.4667521352
 30
0.0
 11
7.9234439829
 21
3.4785631594
 31
0.0
  0
LINE
  5
2B4
100
AcDbEntity
  8
0
  6
CONTINUOUS
 62
         7
100
AcDbLine
 10
7.7462786361
 20
3.4667521352
 30
0.0
 11
7.884073916
 21
3.4667521352
 31
0.0
  0
LINE
  5
2B5
100
AcDbEntity
  8
0
  6
CONTINUOUS
 62
         7
100
AcDbLine
 10
7.7462786361
 20
3.4667521352
 30
0.0
 11
7.7462786361
 21
3.5258072538
 31
0.0
  0
LINE
  5
2B6
100
AcDbEntity
  8
0
  6
CONTINUOUS
 62
         7
100
AcDbLine
 10
7.9234439829
 20
3.5258072538
 30
0.0
 11
7.9234439829
 21
3.5021852054
 31
0.0
  0
LINE
  5
2B7
100
AcDbEntity
  8
0
  6
CONTINUOUS
 62
         7
100
AcDbLine
 10
7.9234439829
 20
3.5021852054
 30
0.0
 11
7.9234439829
 21
3.4785631594
 31
0.0
  0
CIRCLE
  5
2B8
100
AcDbEntity
  8
0
  6
CONTINUOUS
 62
         7
100
AcDbCircle
 10
7.8013967464
 20
4.1557285131
 30
0.0
 40
0.031496063
  0
CIRCLE
  5
2B9
100
AcDbEntity
  8
0
  6
CONTINUOUS
 62
         7
100
AcDbCircle
 10
7.8013967464
 20
3.7620277257
 30
0.0
 40
0.031496063
  0
LINE
  5
2BA
100
AcDbEntity
  8
0
  6
CONTINUOUS
 62
         7
100
AcDbLine
 10
7.9234439829
 20
3.4785631594
 30
0.0
 11
7.9234439829
 21
3.4667521352
 31
0.0
  0
LINE
  5
2BB
100
AcDbEntity
  8
0
  6
CONTINUOUS
 62
         7
100
AcDbLine
 10
7.9234439829
 20
3.4667521352
 30
0.0
 11
7.884073916
 21
3.4667521352
 31
0.0
  0
DIMENSION
  5
2C9
100
AcDbEntity
  8
0
 62
         7
100
AcDbDimension
  2
*D27
 10
8.3379255363
 20
3.4667521352
 30
0.0
 11
8.3379255363
 21
3.9195080407
 31
0.0
 70
       160
  1
<>\P(23mm)
  3
SLDDIMSTYLE0
100
AcDbAlignedDimension
 13
7.9234439905
 23
4.3722639462
 33
0.0
 14
7.9234439905
 24
3.4667521352
 34
0.0
 50
90.0
100
AcDbRotatedDimension
  0
DIMENSION
  5
2D7
100
AcDbEntity
  8
0
 62
         7
100
AcDbDimension
  2
*D28
 10
7.9234439905
 20
2.9176953296
 30
0.0
 11
7.2099481348
 21
2.9176953296
 31
0.0
 70
       160
  1
<>\P(4.5mm)
  3
SLDDIMSTYLE0
100
AcDbAlignedDimension
 13
7.7462786361
 23
3.4667521352
 33
0.0
 14
7.9234439905
 24
3.4667521352
 34
0.0
100
AcDbRotatedDimension
  0
DIMENSION
  5
2E6
100
AcDbEntity
  8
0
 62
         7
100
AcDbDimension
  2
*D29
 10
7.2099481348
 20
4.1557285131
 30
0.0
 11
7.2099481348
 21
3.9588781194
 31
0.0
 70
       160
  1
<>(10mm)\PTYP.
  3
SLDDIMSTYLE0
100
AcDbAlignedDimension
 13
7.8013967464
 23
3.7620277257
 33
0.0
 14
7.8013967464
 24
4.1557285131
 34
0.0
 50
-90.0
100
AcDbRotatedDimension
  0
LEADER
  5
2E7
100
AcDbEntity
  8
0
 62
         7
100
AcDbLeader
  3
SLDDIMSTYLE2
 73
         2
 74
         0
 75
         0
 40
0.0
 76
         3
 10
7.8291304651
 20
4.1836720982
 30
0.0
 10
8.3161443241
 20
4.919803896
 30
0.0
 10
8.5661443241
 20
4.919803896
 30
0.0
 77
       256
340
2EE
  0
INSERT
  5
2EE
100
AcDbEntity
  8
0
100
AcDbBlockReference
  2
NOTE52
 10
8.5661443241
 20
4.919803896
 30
0.0
  0
INSERT
  5
2FA
100
AcDbEntity
  8
0
100
AcDbBlockReference
  2
SW_CENTERMARK3
 10
0.0
 20
0.0
 30
0.0
  0
INSERT
  5
306
100
AcDbEntity
  8
0
100
AcDbBlockReference
  2
SW_CENTERMARK4
 10
0.0
 20
0.0
 30
0.0
  0
ENDSEC
  0
SECTION
  2
OBJECTS
  0
DICTIONARY
  5
19
100
AcDbDictionary
  3
ACAD_GROUP
350
1A
  3
ACAD_MLINESTYLE
350
1B
  0
DICTIONARY
  5
1A
102
{ACAD_REACTORS
330
19
102
}
100
AcDbDictionary
  0
DICTIONARY
  5
1B
102
{ACAD_REACTORS
330
19
102
}
100
AcDbDictionary
  3
STANDARD
350
1C
  0
MLINESTYLE
  5
1C
102
{ACAD_REACTORS
330
1B
102
}
100
AcDbMlineStyle
  2
STANDARD
 70
         0
  3

 62
         0
 51
90.0
 52
90.0
 71
         2
 49
0.5
 62
       256
  6
BYLAYER
 49
-0.5
 62
       256
  6
BYLAYER
  0
ENDSEC
  0
EOF
