  0
SECTION
  2
HEADER
  9
$ACADVER
  1
AC1015
  9
$ACADMAINTVER
 70
     6
  9
$DWGCODEPAGE
  3
ANSI_1252
  9
$INSBASE
 10
0.0
 20
0.0
 30
0.0
  9
$EXTMIN
 10
0.0
 20
0.0
 30
0.0
  9
$EXTMAX
 10
279.4
 20
215.9
 30
0.0
  9
$LIMMIN
 10
0.0
 20
0.0
  9
$LIMMAX
 10
279.4
 20
215.9
  9
$ORTHOMODE
 70
     0
  9
$REGENMODE
 70
     1
  9
$FILLMODE
 70
     1
  9
$QTEXTMODE
 70
     0
  9
$MIRRTEXT
 70
     1
  9
$LTSCALE
 40
1.0
  9
$ATTMODE
 70
     1
  9
$TEXTSIZE
 40
2.8222222222
  9
$TRACEWID
 40
1.0
  9
$TEXTSTYLE
  7
Standard
  9
$CLAYER
  8
0
  9
$CELTYPE
  6
ByLayer
  9
$CECOLOR
 62
   256
  9
$CELTSCALE
 40
1.0
  9
$DISPSILH
 70
     0
  9
$DIMSCALE
 40
1.0
  9
$DIMASZ
 40
3.175
  9
$DIMEXO
 40
1.27
  9
$DIMDLI
 40
3.75
  9
$DIMRND
 40
0.0
  9
$DIMDLE
 40
0.0
  9
$DIMEXE
 40
1.778
  9
$DIMTP
 40
0.0
  9
$DIMTM
 40
0.0
  9
$DIMTXT
 40
2.8222222222
  9
$DIMCEN
 40
2.5
  9
$DIMTSZ
 40
0.0
  9
$DIMTOL
 70
     0
  9
$DIMLIM
 70
     0
  9
$DIMTIH
 70
     1
  9
$DIMTOH
 70
     1
  9
$DIMSE1
 70
     0
  9
$DIMSE2
 70
     0
  9
$DIMTAD
 70
     0
  9
$DIMZIN
 70
     1
  9
$DIMBLK
  1

  9
$DIMASO
 70
     1
  9
$DIMSHO
 70
     1
  9
$DIMPOST
  1

  9
$DIMAPOST
  1

  9
$DIMALT
 70
     0
  9
$DIMALTD
 70
     3
  9
$DIMALTF
 40
0.0393700787
  9
$DIMLFAC
 40
1.0
  9
$DIMTOFL
 70
     1
  9
$DIMTVP
 40
0.0
  9
$DIMTIX
 70
     0
  9
$DIMSOXD
 70
     0
  9
$DIMSAH
 70
     0
  9
$DIMBLK1
  1

  9
$DIMBLK2
  1

  9
$DIMSTYLE
  2
ISO-25
  9
$DIMCLRD
 70
     0
  9
$DIMCLRE
 70
     0
  9
$DIMCLRT
 70
     0
  9
$DIMTFAC
 40
1.0
  9
$DIMGAP
 40
2.54
  9
$DIMJUST
 70
     0
  9
$DIMSD1
 70
     0
  9
$DIMSD2
 70
     0
  9
$DIMTOLJ
 70
     0
  9
$DIMTZIN
 70
     1
  9
$DIMALTZ
 70
     0
  9
$DIMALTTZ
 70
     0
  9
$DIMUPT
 70
     0
  9
$DIMDEC
 70
     1
  9
$DIMTDEC
 70
     1
  9
$DIMALTU
 70
     2
  9
$DIMALTTD
 70
     3
  9
$DIMTXSTY
  7
Standard
  9
$DIMAUNIT
 70
     0
  9
$DIMADEC
 70
     0
  9
$DIMALTRND
 40
0.0
  9
$DIMAZIN
 70
     0
  9
$DIMDSEP
 70
    44
  9
$DIMATFIT
 70
     3
  9
$DIMFRAC
 70
     0
  9
$DIMLDRBLK
  1

  9
$DIMLUNIT
 70
     2
  9
$DIMLWD
 70
    -2
  9
$DIMLWE
 70
    -2
  9
$DIMTMOVE
 70
     0
  9
$LUNITS
 70
     2
  9
$LUPREC
 70
     1
  9
$SKETCHINC
 40
1.0
  9
$FILLETRAD
 40
10.0
  9
$AUNITS
 70
     0
  9
$AUPREC
 70
     0
  9
$MENU
  1
.
  9
$ELEVATION
 40
0.0
  9
$PELEVATION
 40
0.0
  9
$THICKNESS
 40
0.0
  9
$LIMCHECK
 70
     0
  9
$CHAMFERA
 40
0.0
  9
$CHAMFERB
 40
0.0
  9
$CHAMFERC
 40
0.0
  9
$CHAMFERD
 40
0.0
  9
$SKPOLY
 70
     0
  9
$TDCREATE
 40
2457288.573443113
  9
$TDUCREATE
 40
2457288.74010978
  9
$TDUPDATE
 40
2457288.573444746
  9
$TDUUPDATE
 40
2457288.740111412
  9
$TDINDWG
 40
0.0000000116
  9
$TDUSRTIMER
 40
0.0000000116
  9
$USRTIMER
 70
     1
  9
$ANGBASE
 50
0.0
  9
$ANGDIR
 70
     0
  9
$PDMODE
 70
     0
  9
$PDSIZE
 40
-1.0
  9
$PLINEWID
 40
0.0
  9
$SPLFRAME
 70
     0
  9
$SPLINETYPE
 70
     6
  9
$SPLINESEGS
 70
     8
  9
$HANDSEED
  5
1EF
  9
$SURFTAB1
 70
     6
  9
$SURFTAB2
 70
     6
  9
$SURFTYPE
 70
     6
  9
$SURFU
 70
     6
  9
$SURFV
 70
     6
  9
$UCSBASE
  2

  9
$UCSNAME
  2

  9
$UCSORG
 10
0.0
 20
0.0
 30
0.0
  9
$UCSXDIR
 10
1.0
 20
0.0
 30
0.0
  9
$UCSYDIR
 10
0.0
 20
1.0
 30
0.0
  9
$UCSORTHOREF
  2

  9
$UCSORTHOVIEW
 70
     0
  9
$UCSORGTOP
 10
0.0
 20
0.0
 30
0.0
  9
$UCSORGBOTTOM
 10
0.0
 20
0.0
 30
0.0
  9
$UCSORGLEFT
 10
0.0
 20
0.0
 30
0.0
  9
$UCSORGRIGHT
 10
0.0
 20
0.0
 30
0.0
  9
$UCSORGFRONT
 10
0.0
 20
0.0
 30
0.0
  9
$UCSORGBACK
 10
0.0
 20
0.0
 30
0.0
  9
$PUCSBASE
  2

  9
$PUCSNAME
  2

  9
$PUCSORG
 10
0.0
 20
0.0
 30
0.0
  9
$PUCSXDIR
 10
1.0
 20
0.0
 30
0.0
  9
$PUCSYDIR
 10
0.0
 20
1.0
 30
0.0
  9
$PUCSORTHOREF
  2

  9
$PUCSORTHOVIEW
 70
     0
  9
$PUCSORGTOP
 10
0.0
 20
0.0
 30
0.0
  9
$PUCSORGBOTTOM
 10
0.0
 20
0.0
 30
0.0
  9
$PUCSORGLEFT
 10
0.0
 20
0.0
 30
0.0
  9
$PUCSORGRIGHT
 10
0.0
 20
0.0
 30
0.0
  9
$PUCSORGFRONT
 10
0.0
 20
0.0
 30
0.0
  9
$PUCSORGBACK
 10
0.0
 20
0.0
 30
0.0
  9
$USERI1
 70
     0
  9
$USERI2
 70
     0
  9
$USERI3
 70
     0
  9
$USERI4
 70
     0
  9
$USERI5
 70
     0
  9
$USERR1
 40
0.0
  9
$USERR2
 40
0.0
  9
$USERR3
 40
0.0
  9
$USERR4
 40
0.0
  9
$USERR5
 40
0.0
  9
$WORLDVIEW
 70
     1
  9
$SHADEDGE
 70
     3
  9
$SHADEDIF
 70
    70
  9
$TILEMODE
 70
     1
  9
$MAXACTVP
 70
    64
  9
$PINSBASE
 10
0.0
 20
0.0
 30
0.0
  9
$PLIMCHECK
 70
     0
  9
$PEXTMIN
 10
1.0000000000E+20
 20
1.0000000000E+20
 30
1.0000000000E+20
  9
$PEXTMAX
 10
-1.0000000000E+20
 20
-1.0000000000E+20
 30
-1.0000000000E+20
  9
$PLIMMIN
 10
0.0
 20
0.0
  9
$PLIMMAX
 10
420.0
 20
297.0
  9
$UNITMODE
 70
     0
  9
$VISRETAIN
 70
     1
  9
$PLINEGEN
 70
     0
  9
$PSLTSCALE
 70
     1
  9
$TREEDEPTH
 70
  3020
  9
$CMLSTYLE
  2
Standard
  9
$CMLJUST
 70
     0
  9
$CMLSCALE
 40
20.0
  9
$PROXYGRAPHICS
 70
     1
  9
$MEASUREMENT
 70
     1
  9
$CELWEIGHT
370
    -1
  9
$ENDCAPS
280
     0
  9
$JOINSTYLE
280
     0
  9
$LWDISPLAY
290
     1
  9
$INSUNITS
 70
     4
  9
$HYPERLINKBASE
  1

  9
$STYLESHEET
  1

  9
$XEDIT
290
     1
  9
$CEPSNTYPE
380
     0
  9
$PSTYLEMODE
290
     1
  9
$FINGERPRINTGUID
  2
{EB55B6E2-29B0-4F88-A059-CAA8FEA94920}
  9
$VERSIONGUID
  2
{FAEB1C32-E019-11D5-929B-00C0DF256EC4}
  9
$EXTNAMES
290
     1
  9
$PSVPSCALE
 40
0.0
  9
$OLESTARTUP
290
     0
  0
ENDSEC
  0
SECTION
  2
CLASSES
  0
CLASS
  1
ACDBDICTIONARYWDFLT
  2
AcDbDictionaryWithDefault
  3
ObjectDBX Classes
 90
        0
280
     0
281
     0
  0
CLASS
  1
VISUALSTYLE
  2
AcDbVisualStyle
  3
ObjectDBX Classes
 90
     4095
280
     0
281
     0
  0
CLASS
  1
MATERIAL
  2
AcDbMaterial
  3
ObjectDBX Classes
 90
     1153
280
     0
281
     0
  0
CLASS
  1
SCALE
  2
AcDbScale
  3
ObjectDBX Classes
 90
     1153
280
     0
281
     0
  0
CLASS
  1
SUN
  2
AcDbSun
  3
SCENEOE
 90
     1153
280
     0
281
     0
  0
CLASS
  1
ACDBPLACEHOLDER
  2
AcDbPlaceHolder
  3
ObjectDBX Classes
 90
        0
280
     0
281
     0
  0
CLASS
  1
LAYOUT
  2
AcDbLayout
  3
ObjectDBX Classes
 90
        0
280
     0
281
     0
  0
ENDSEC
  0
SECTION
  2
TABLES
  0
TABLE
  2
VPORT
  5
8
330
0
100
AcDbSymbolTable
 70
     1
  0
VPORT
  5
29
330
8
100
AcDbSymbolTableRecord
100
AcDbViewportTableRecord
  2
*Active
 70
     0
 10
0.0
 20
0.0
 11
1.0
 21
1.0
 12
139.7
 22
107.95
 13
0.0
 23
0.0
 14
10.0
 24
10.0
 15
10.0
 25
10.0
 16
0.0
 26
0.0
 36
1.0
 17
0.0
 27
0.0
 37
0.0
 40
215.9
 41
1.2941176471
 42
50.0
 43
0.0
 44
0.0
 50
0.0
 51
0.0
 71
     0
 72
  2000
 73
     1
 74
     3
 75
     0
 76
     0
 77
     0
 78
     0
281
     0
 65
     1
110
0.0
120
0.0
130
0.0
111
1.0
121
0.0
131
0.0
112
0.0
122
1.0
132
0.0
 79
     0
146
0.0
  0
ENDTAB
  0
TABLE
  2
LTYPE
  5
5
330
0
100
AcDbSymbolTable
 70
     6
  0
LTYPE
  5
14
330
5
100
AcDbSymbolTableRecord
100
AcDbLinetypeTableRecord
  2
ByBlock
 70
     0
  3

 72
    65
 73
     0
 40
0.0
  0
LTYPE
  5
15
330
5
100
AcDbSymbolTableRecord
100
AcDbLinetypeTableRecord
  2
ByLayer
 70
     0
  3

 72
    65
 73
     0
 40
0.0
  0
LTYPE
  5
16
330
5
100
AcDbSymbolTableRecord
100
AcDbLinetypeTableRecord
  2
Continuous
 70
     0
  3
Solid line
 72
    65
 73
     0
 40
0.0
  0
LTYPE
  5
6A
330
5
100
AcDbSymbolTableRecord
100
AcDbLinetypeTableRecord
  2
HIDDEN
 70
     0
  3
Hidden __ __ __ __ __ __ __ __ __ __ __ __ __ __
 72
    65
 73
     2
 40
1.905
 49
1.27
 74
     0
 49
-0.635
 74
     0
  0
LTYPE
  5
6B
330
5
100
AcDbSymbolTableRecord
100
AcDbLinetypeTableRecord
  2
PHANTOM
 70
     0
  3
Phantom ______  __  __  ______  __  __  ______
 72
    65
 73
     6
 40
12.7
 49
6.35
 74
     0
 49
-1.27
 74
     0
 49
1.27
 74
     0
 49
-1.27
 74
     0
 49
1.27
 74
     0
 49
-1.27
 74
     0
  0
LTYPE
  5
6C
330
5
100
AcDbSymbolTableRecord
100
AcDbLinetypeTableRecord
  2
CENTER
 70
     0
  3
Center ____ _ ____ _ ____ _ ____ _ ____ _ ____
 72
    65
 73
     4
 40
10.16
 49
6.35
 74
     0
 49
-1.27
 74
     0
 49
1.27
 74
     0
 49
-1.27
 74
     0
  0
LTYPE
  5
6D
330
5
100
AcDbSymbolTableRecord
100
AcDbLinetypeTableRecord
  2
CENTERX2
 70
     0
  3
Center (2x) ________  __  ________  __  _____
 72
    65
 73
     4
 40
20.32
 49
12.7
 74
     0
 49
-2.54
 74
     0
 49
2.54
 74
     0
 49
-2.54
 74
     0
  0
LTYPE
  5
6E
330
5
100
AcDbSymbolTableRecord
100
AcDbLinetypeTableRecord
  2
DOT2
 70
     0
  3
Dot (.5x) ........................................
 72
    65
 73
     2
 40
0.635
 49
0.0
 74
     0
 49
-0.635
 74
     0
  0
ENDTAB
  0
TABLE
  2
LAYER
  5
2
330
0
100
AcDbSymbolTable
 70
     2
  0
LAYER
  5
10
330
2
100
AcDbSymbolTableRecord
100
AcDbLayerTableRecord
  2
0
 70
     0
 62
     7
  6
Continuous
370
    -3
390
F
  0
LAYER
  5
6F
330
2
100
AcDbSymbolTableRecord
100
AcDbLayerTableRecord
  2
FORMAT
 70
     0
 62
     7
  6
Continuous
370
    -3
390
F
  0
ENDTAB
  0
TABLE
  2
STYLE
  5
3
330
0
100
AcDbSymbolTable
 70
     5
  0
STYLE
  5
11
330
3
100
AcDbSymbolTableRecord
100
AcDbTextStyleTableRecord
  2
Standard
 70
     0
 40
0.0
 41
1.0
 50
0.0
 71
     0
 42
2.8222222222
  3
txt
  4

  0
STYLE
  5
99
330
3
100
AcDbSymbolTableRecord
100
AcDbTextStyleTableRecord
  2
SLDTEXTSTYLE0
 70
     0
 40
0.0
 41
0.75
 50
0.0
 71
     0
 42
2.8222222222
  3
TXT
  4

  0
STYLE
  5
A1
330
3
100
AcDbSymbolTableRecord
100
AcDbTextStyleTableRecord
  2
SLDTEXTSTYLE1
 70
     0
 40
0.0
 41
0.75
 50
0.0
 71
     0
 42
2.8222222222
  3
TXT
  4
bigfont
  0
STYLE
  5
BE
330
3
100
AcDbSymbolTableRecord
100
AcDbTextStyleTableRecord
  2
SLDTEXTSTYLE2
 70
     0
 40
0.0
 41
0.6
 50
0.0
 71
     0
 42
2.8222222222
  3
TXT
  4

  0
STYLE
  5
C3
330
3
100
AcDbSymbolTableRecord
100
AcDbTextStyleTableRecord
  2
SLDTEXTSTYLE3
 70
     0
 40
0.0
 41
0.6875
 50
0.0
 71
     0
 42
2.8222222222
  3
TXT
  4

  0
ENDTAB
  0
TABLE
  2
VIEW
  5
6
330
0
100
AcDbSymbolTable
 70
     0
  0
ENDTAB
  0
TABLE
  2
UCS
  5
7
330
0
100
AcDbSymbolTable
 70
     0
  0
ENDTAB
  0
TABLE
  2
APPID
  5
9
330
0
100
AcDbSymbolTable
 70
     1
  0
APPID
  5
12
330
9
100
AcDbSymbolTableRecord
100
AcDbRegAppTableRecord
  2
ACAD
 70
     0
  0
ENDTAB
  0
TABLE
  2
DIMSTYLE
  5
A
330
0
100
AcDbSymbolTable
 70
     4
100
AcDbDimStyleTable
  0
DIMSTYLE
105
27
330
A
100
AcDbSymbolTableRecord
100
AcDbDimStyleTableRecord
  2
ISO-25
 70
     0
 41
2.5
 42
0.625
 43
3.75
 44
1.25
 73
     0
 74
     0
 77
     1
 78
     8
140
2.5
141
2.5
143
0.0393700787
147
0.625
171
     3
172
     1
178
     0
271
     2
272
     2
274
     3
278
    44
283
     0
284
     8
340
11
  0
DIMSTYLE
105
E3
102
{ACAD_REACTORS
330
E2
102
}
330
A
100
AcDbSymbolTableRecord
100
AcDbDimStyleTableRecord
  2
SLDDIMSTYLE0
 70
     0
 41
3.175
 44
0.0
 45
0.000000001
 78
    12
 79
     3
140
2.1166666667
141
0.0
143
0.0393700787
147
0.5291666667
148
0.000000001
170
     1
173
     1
178
     0
271
     1
272
     1
276
     2
284
    12
340
99
  0
DIMSTYLE
105
162
102
{ACAD_REACTORS
330
161
102
}
330
A
100
AcDbSymbolTableRecord
100
AcDbDimStyleTableRecord
  2
SLDDIMSTYLE1
 70
     0
 41
3.175
 44
0.0
 45
0.000000001
 78
     4
 79
     1
140
2.1166666667
143
0.0393700787
147
0.5291666667
148
0.000000001
170
     1
172
     1
173
     1
178
     0
271
     1
272
     1
276
     2
284
    12
289
     0
340
99
  0
DIMSTYLE
105
177
330
A
100
AcDbSymbolTableRecord
100
AcDbDimStyleTableRecord
  2
SLDDIMSTYLE2
 70
     0
 41
3.175
 44
0.0
 45
0.000000001
146
3.175
147
0.0
173
     1
178
     0
271
     0
272
     0
276
     2
340
11
  0
ENDTAB
  0
TABLE
  2
BLOCK_RECORD
  5
1
330
0
100
AcDbSymbolTable
 70
    10
  0
BLOCK_RECORD
  5
1F
330
1
100
AcDbSymbolTableRecord
100
AcDbBlockTableRecord
  2
*Model_Space
340
22
  0
BLOCK_RECORD
  5
1B
330
1
100
AcDbSymbolTableRecord
100
AcDbBlockTableRecord
  2
*Paper_Space
340
1E
  0
BLOCK_RECORD
  5
23
330
1
100
AcDbSymbolTableRecord
100
AcDbBlockTableRecord
  2
*Paper_Space0
340
26
  0
BLOCK_RECORD
  5
70
330
1
100
AcDbSymbolTableRecord
100
AcDbBlockTableRecord
  2
Third Angle Projection Block
340
0
102
{BLKREFS
331
95
102
}
  0
BLOCK_RECORD
  5
96
330
1
100
AcDbSymbolTableRecord
100
AcDbBlockTableRecord
  2
SW_NOTE_0
340
0
102
{BLKREFS
331
B2
102
}
  0
BLOCK_RECORD
  5
C5
330
1
100
AcDbSymbolTableRecord
100
AcDbBlockTableRecord
  2
SW_NOTE_1
340
0
102
{BLKREFS
331
CA
102
}
  0
BLOCK_RECORD
  5
CB
330
1
100
AcDbSymbolTableRecord
100
AcDbBlockTableRecord
  2
SW_NOTE_2
340
0
102
{BLKREFS
331
D0
102
}
  0
BLOCK_RECORD
  5
D2
330
1
100
AcDbSymbolTableRecord
100
AcDbBlockTableRecord
  2
SW_NOTE_3
340
0
102
{BLKREFS
331
D7
102
}
  0
BLOCK_RECORD
  5
D8
330
1
100
AcDbSymbolTableRecord
100
AcDbBlockTableRecord
  2
SW_NOTE_4
340
0
102
{BLKREFS
331
DE
102
}
  0
BLOCK_RECORD
  5
E4
330
1
100
AcDbSymbolTableRecord
100
AcDbBlockTableRecord
  2
_D
340
0
  0
BLOCK_RECORD
  5
163
330
1
100
AcDbSymbolTableRecord
100
AcDbBlockTableRecord
  2
_D_1
340
0
  0
BLOCK_RECORD
  5
179
330
1
100
AcDbSymbolTableRecord
100
AcDbBlockTableRecord
  2
SW_NOTE_5
340
0
102
{BLKREFS
331
17E
102
}
  0
ENDTAB
  0
ENDSEC
  0
SECTION
  2
BLOCKS
  0
BLOCK
  5
20
330
1F
100
AcDbEntity
  8
0
100
AcDbBlockBegin
  2
*Model_Space
 70
     0
 10
0.0
 20
0.0
 30
0.0
  3
*Model_Space
  1
*Model_Space
  0
ENDBLK
  5
21
330
1F
100
AcDbEntity
  8
0
100
AcDbBlockEnd
  0
BLOCK
  5
1C
330
1B
100
AcDbEntity
 67
     1
  8
0
100
AcDbBlockBegin
  2
*Paper_Space
 70
     0
 10
0.0
 20
0.0
 30
0.0
  3
*Paper_Space
  1
*Paper_Space
  0
ENDBLK
  5
1D
330
1B
100
AcDbEntity
 67
     1
  8
0
100
AcDbBlockEnd
  0
BLOCK
  5
24
330
23
100
AcDbEntity
  8
0
100
AcDbBlockBegin
  2
*Paper_Space0
 70
     0
 10
0.0
 20
0.0
 30
0.0
  3
*Paper_Space0
  1
*Paper_Space0
  0
ENDBLK
  5
25
330
23
100
AcDbEntity
  8
0
100
AcDbBlockEnd
  0
BLOCK
  5
71
330
70
100
AcDbEntity
  8
0
100
AcDbBlockBegin
  2
Third Angle Projection Block
 70
     0
 10
0.0
 20
0.0
 30
0.0
  3
Third Angle Projection Block
  1
Third Angle Projection Block
  0
CIRCLE
  5
73
330
70
100
AcDbEntity
  8
0
  6
Continuous
 62
     7
370
    30
100
AcDbCircle
 10
101.4766388944
 20
18.9404083667
 30
0.0
 40
1.768227153674871
  0
CIRCLE
  5
74
330
70
100
AcDbEntity
  8
0
  6
Continuous
 62
     7
370
    30
100
AcDbCircle
 10
101.4766388944
 20
18.9404083667
 30
0.0
 40
3.901228248531818
  0
LINE
  5
75
330
70
100
AcDbEntity
  8
0
  6
CENTERX2
 62
     7
370
     0
100
AcDbLine
 10
110.1367822585
 20
18.9404083667
 30
0.0
 11
119.4527334874
 21
18.9404083667
 31
0.0
  0
LINE
  5
76
330
70
100
AcDbEntity
  8
0
  6
Continuous
 62
     7
370
    30
100
AcDbLine
 10
111.0016388944
 20
20.7086355204
 30
0.0
 11
111.0016388944
 21
17.172181213
 31
0.0
  0
LINE
  5
77
330
70
100
AcDbEntity
  8
0
  6
Continuous
 62
     7
370
    30
100
AcDbLine
 10
111.0016388944
 20
17.172181213
 30
0.0
 11
118.6216388944
 21
15.1304083667
 31
0.0
  0
LINE
  5
78
330
70
100
AcDbEntity
  8
0
  6
Continuous
 62
     7
370
    30
100
AcDbLine
 10
118.6216388944
 20
15.1304083667
 30
0.0
 11
118.6216388944
 21
22.7504083667
 31
0.0
  0
LINE
  5
79
330
70
100
AcDbEntity
  8
0
  6
Continuous
 62
     7
370
    30
100
AcDbLine
 10
118.6216388944
 20
22.7504083667
 30
0.0
 11
111.0016388944
 21
20.7086355204
 31
0.0
  0
LINE
  5
7A
330
70
100
AcDbEntity
  8
0
  6
CENTERX2
 62
     7
370
     0
100
AcDbLine
 10
96.6025854619
 20
18.9404083667
 30
0.0
 11
106.3506923269
 21
18.9404083667
 31
0.0
  0
LINE
  5
7B
330
70
100
AcDbEntity
  8
0
  6
CENTERX2
 62
     7
370
     0
100
AcDbLine
 10
101.4766388944
 20
23.8144617992
 30
0.0
 11
101.4766388944
 21
14.0663549342
 31
0.0
  0
POINT
  5
7C
330
70
100
AcDbEntity
  8
0
  6
Continuous
 62
     7
370
     0
100
AcDbPoint
 10
101.4766388944
 20
18.9404083667
 30
0.0
  0
ENDBLK
  5
72
330
70
100
AcDbEntity
  8
0
100
AcDbBlockEnd
  0
BLOCK
  5
97
330
96
100
AcDbEntity
  8
0
100
AcDbBlockBegin
  2
SW_NOTE_0
 70
     0
 10
0.0
 20
0.0
 30
0.0
  3
SW_NOTE_0
  1
SW_NOTE_0
  0
MTEXT
  5
9A
330
96
100
AcDbEntity
  8
0
  6
Continuous
 62
     0
370
     0
100
AcDbMText
 10
0.0
 20
3.0695925553
 30
0.0
 40
2.38125
 41
0.0
 71
     1
 72
     1
  1
NOTES/SPECIFICATIONS:
  7
SLDTEXTSTYLE0
 73
     1
 44
1.0
  0
MTEXT
  5
9B
330
96
100
AcDbEntity
  8
0
  6
Continuous
 62
     0
370
     0
100
AcDbMText
 10
9.9999997765
 20
-3.2804073679
 30
0.0
 40
2.38125
 41
0.0
 71
     1
 72
     1
  1
CLEAR APERTURE: >
  7
SLDTEXTSTYLE0
 73
     1
 44
1.0
  0
MTEXT
  5
9C
330
96
100
AcDbEntity
  8
0
  6
Continuous
 62
     0
370
     0
100
AcDbMText
 10
39.5010411739
 20
-3.2804073679
 30
0.0
 40
2.38125
 41
0.0
 71
     1
 72
     1
  1
%%c
  7
SLDTEXTSTYLE0
 73
     1
 44
1.0
  0
MTEXT
  5
9D
330
96
100
AcDbEntity
  8
0
  6
Continuous
 62
     0
370
     0
100
AcDbMText
 10
43.0954080075
 20
-3.2804073679
 30
0.0
 40
2.38125
 41
0.0
 71
     1
 72
     1
  1
45.72 mm
  7
SLDTEXTSTYLE0
 73
     1
 44
1.0
  0
MTEXT
  5
9E
330
96
100
AcDbEntity
  8
0
  6
Continuous
 62
     0
370
     0
100
AcDbMText
 10
0.0
 20
-3.2804073679
 30
0.0
 40
2.38125
 41
0.0
 71
     1
 72
     1
  1
1.
  7
SLDTEXTSTYLE0
 73
     1
 44
1.0
  0
MTEXT
  5
9F
330
96
100
AcDbEntity
  8
0
  6
Continuous
 62
     0
370
     0
100
AcDbMText
 10
9.9999997765
 20
-6.4554073296
 30
0.0
 40
2.38125
 41
0.0
 71
     1
 72
     1
  1
SURFACE QUALITY: 40-20 SCRATCH-DIG
  7
SLDTEXTSTYLE0
 73
     1
 44
1.0
  0
MTEXT
  5
A0
330
96
100
AcDbEntity
  8
0
  6
Continuous
 62
     0
370
     0
100
AcDbMText
 10
0.0
 20
-6.4554073296
 30
0.0
 40
2.38125
 41
0.0
 71
     1
 72
     1
  1
2.
  7
SLDTEXTSTYLE0
 73
     1
 44
1.0
  0
MTEXT
  5
A2
330
96
100
AcDbEntity
  8
0
  6
Continuous
 62
     0
370
     0
100
AcDbMText
 10
9.9999997765
 20
-9.6304072912
 30
0.0
 40
2.38125
 41
0.0
 71
     1
 72
     1
  1
TRANSMITTED WAVEFRONT ERROR: <\M+183C9/4 AT 633nm
  7
SLDTEXTSTYLE1
 73
     1
 44
1.0
  0
MTEXT
  5
A3
330
96
100
AcDbEntity
  8
0
  6
Continuous
 62
     0
370
     0
100
AcDbMText
 10
0.0
 20
-9.6304072912
 30
0.0
 40
2.38125
 41
0.0
 71
     1
 72
     1
  1
3.
  7
SLDTEXTSTYLE0
 73
     1
 44
1.0
  0
MTEXT
  5
A4
330
96
100
AcDbEntity
  8
0
  6
Continuous
 62
     0
370
     0
100
AcDbMText
 10
9.9999997765
 20
-12.8054072528
 30
0.0
 40
2.38125
 41
0.0
 71
     1
 72
     1
  1
PARALLELISM: <3 arcmin
  7
SLDTEXTSTYLE0
 73
     1
 44
1.0
  0
MTEXT
  5
A5
330
96
100
AcDbEntity
  8
0
  6
Continuous
 62
     0
370
     0
100
AcDbMText
 10
0.0
 20
-12.8054072528
 30
0.0
 40
2.38125
 41
0.0
 71
     1
 72
     1
  1
4.
  7
SLDTEXTSTYLE0
 73
     1
 44
1.0
  0
MTEXT
  5
A6
330
96
100
AcDbEntity
  8
0
  6
Continuous
 62
     0
370
     0
100
AcDbMText
 10
9.9999997765
 20
-15.9804072144
 30
0.0
 40
2.38125
 41
0.0
 71
     1
 72
     1
  1
FILTER COATING (S1):
  7
SLDTEXTSTYLE0
 73
     1
 44
1.0
  0
MTEXT
  5
A7
330
96
100
AcDbEntity
  8
0
  6
Continuous
 62
     0
370
     0
100
AcDbMText
 10
0.0
 20
-15.9804072144
 30
0.0
 40
2.38125
 41
0.0
 71
     1
 72
     1
  1
5.
  7
SLDTEXTSTYLE0
 73
     1
 44
1.0
  0
MTEXT
  5
A8
330
96
100
AcDbEntity
  8
0
  6
Continuous
 62
     0
370
     0
100
AcDbMText
 10
20.0
 20
-19.1554071761
 30
0.0
 40
2.38125
 41
0.0
 71
     1
 72
     1
  1
REFLECTION BAND (R): >95% AVERAGE, >90% ABSOLUTE 380-475nm
  7
SLDTEXTSTYLE0
 73
     1
 44
1.0
  0
MTEXT
  5
A9
330
96
100
AcDbEntity
  8
0
  6
Continuous
 62
     0
370
     0
100
AcDbMText
 10
20.0
 20
-22.3304071377
 30
0.0
 40
2.38125
 41
0.0
 71
     1
 72
     1
  1
TRANSMISSION BAND (T): >90% AVERAGE, >85% ABSOLUTE 505-800nm
  7
SLDTEXTSTYLE0
 73
     1
 44
1.0
  0
MTEXT
  5
AA
330
96
100
AcDbEntity
  8
0
  6
Continuous
 62
     0
370
     0
100
AcDbMText
 10
20.0
 20
-25.5054070993
 30
0.0
 40
2.38125
 41
0.0
 71
     1
 72
     1
  1
45
  7
SLDTEXTSTYLE0
 73
     1
 44
1.0
  0
MTEXT
  5
AB
330
96
100
AcDbEntity
  8
0
  6
Continuous
 62
     0
370
     0
100
AcDbMText
 10
23.5189583432
 20
-25.5054070993
 30
0.0
 40
2.38125
 41
0.0
 71
     1
 72
     1
  1
%%d
  7
SLDTEXTSTYLE0
 73
     1
 44
1.0
  0
MTEXT
  5
AC
330
96
100
AcDbEntity
  8
0
  6
Continuous
 62
     0
370
     0
100
AcDbMText
 10
25.9253437392
 20
-25.5054070993
 30
0.0
 40
2.38125
 41
0.0
 71
     1
 72
     1
  1
AOI
  7
SLDTEXTSTYLE0
 73
     1
 44
1.0
  0
MTEXT
  5
AD
330
96
100
AcDbEntity
  8
0
  6
Continuous
 62
     0
370
     0
100
AcDbMText
 10
9.9999997765
 20
-28.680407061
 30
0.0
 40
2.38125
 41
0.0
 71
     1
 72
     1
  1
AR COATING (S2):
  7
SLDTEXTSTYLE0
 73
     1
 44
1.0
  0
MTEXT
  5
AE
330
96
100
AcDbEntity
  8
0
  6
Continuous
 62
     0
370
     0
100
AcDbMText
 10
0.0
 20
-28.680407061
 30
0.0
 40
2.38125
 41
0.0
 71
     1
 72
     1
  1
6.
  7
SLDTEXTSTYLE0
 73
     1
 44
1.0
  0
MTEXT
  5
AF
330
96
100
AcDbEntity
  8
0
  6
Continuous
 62
     0
370
     0
100
AcDbMText
 10
20.0
 20
-31.8554070226
 30
0.0
 40
2.38125
 41
0.0
 71
     1
 72
     1
  1
R: <2% ABSOLUTE 400-800nm, 45
  7
SLDTEXTSTYLE0
 73
     1
 44
1.0
  0
MTEXT
  5
B0
330
96
100
AcDbEntity
  8
0
  6
Continuous
 62
     0
370
     0
100
AcDbMText
 10
68.4937168658
 20
-31.8554070226
 30
0.0
 40
2.38125
 41
0.0
 71
     1
 72
     1
  1
%%d
  7
SLDTEXTSTYLE0
 73
     1
 44
1.0
  0
MTEXT
  5
B1
330
96
100
AcDbEntity
  8
0
  6
Continuous
 62
     0
370
     0
100
AcDbMText
 10
70.9000997007
 20
-31.8554070226
 30
0.0
 40
2.38125
 41
0.0
 71
     1
 72
     1
  1
AOI
  7
SLDTEXTSTYLE0
 73
     1
 44
1.0
  0
ENDBLK
  5
98
330
96
100
AcDbEntity
  8
0
100
AcDbBlockEnd
  0
BLOCK
  5
C6
330
C5
100
AcDbEntity
  8
0
100
AcDbBlockBegin
  2
SW_NOTE_1
 70
     0
 10
0.0
 20
0.0
 30
0.0
  3
SW_NOTE_1
  1
SW_NOTE_1
  0
MTEXT
  5
C8
330
C5
100
AcDbEntity
  8
0
  6
Continuous
 62
     0
370
     0
100
AcDbMText
 10
19.90725
 20
1.9645392354
 30
0.0
 40
1.524
 41
0.0
 71
     2
 72
     1
  1
VALUES IN PARENTHESIS ARE CALCULATED
  7
SLDTEXTSTYLE0
 73
     1
 44
1.0
  0
MTEXT
  5
C9
330
C5
100
AcDbEntity
  8
0
  6
Continuous
 62
     0
370
     0
100
AcDbMText
 10
19.8778795174
 20
-0.5594606586
 30
0.0
 40
1.524
 41
0.0
 71
     2
 72
     1
  1
AND MAY CONTAIN ROUNDOFF ERRORS
  7
SLDTEXTSTYLE0
 73
     1
 44
1.0
  0
ENDBLK
  5
C7
330
C5
100
AcDbEntity
  8
0
100
AcDbBlockEnd
  0
BLOCK
  5
CC
330
CB
100
AcDbEntity
  8
0
100
AcDbBlockBegin
  2
SW_NOTE_2
 70
     0
 10
0.0
 20
0.0
 30
0.0
  3
SW_NOTE_2
  1
SW_NOTE_2
  0
MTEXT
  5
CE
330
CB
100
AcDbEntity
  8
0
  6
Continuous
 62
     0
370
     0
100
AcDbMText
 10
0.0
 20
2.7285267159
 30
0.0
 40
2.1166666667
 41
0.0
 71
     1
 72
     1
  1
DRAWING
  7
SLDTEXTSTYLE0
 73
     1
 44
1.0
  0
MTEXT
  5
CF
330
CB
100
AcDbEntity
  8
0
  6
Continuous
 62
     0
370
     0
100
AcDbMText
 10
0.0
 20
-0.0936954723
 30
0.0
 40
2.1166666667
 41
0.0
 71
     1
 72
     1
  1
PROJECTION
  7
SLDTEXTSTYLE0
 73
     1
 44
1.0
  0
ENDBLK
  5
CD
330
CB
100
AcDbEntity
  8
0
100
AcDbBlockEnd
  0
BLOCK
  5
D3
330
D2
100
AcDbEntity
  8
0
100
AcDbBlockBegin
  2
SW_NOTE_3
 70
     0
 10
0.0
 20
0.0
 30
0.0
  3
SW_NOTE_3
  1
SW_NOTE_3
  0
MTEXT
  5
D5
330
D2
100
AcDbEntity
  8
0
  6
Continuous
 62
     0
370
     0
100
AcDbMText
 10
25.052734375
 20
4.0927900738
 30
0.0
 40
3.175
 41
0.0
 71
     2
 72
     1
  1
FOR INFORMATION ONLY
  7
SLDTEXTSTYLE0
 73
     1
 44
1.0
  0
MTEXT
  5
D6
330
D2
100
AcDbEntity
  8
0
  6
Continuous
 62
     0
370
     0
100
AcDbMText
 10
25.3768468589
 20
-0.1405432084
 30
0.0
 40
3.175
 41
0.0
 71
     2
 72
     1
  1
NOT FOR MANUFACTURING PURPOSES
  7
SLDTEXTSTYLE0
 73
     1
 44
1.0
  0
ENDBLK
  5
D4
330
D2
100
AcDbEntity
  8
0
100
AcDbBlockEnd
  0
BLOCK
  5
D9
330
D8
100
AcDbEntity
  8
0
100
AcDbBlockBegin
  2
SW_NOTE_4
 70
     0
 10
0.0
 20
0.0
 30
0.0
  3
SW_NOTE_4
  1
SW_NOTE_4
  0
MTEXT
  5
DB
330
D8
100
AcDbEntity
  8
0
  6
Continuous
 62
     0
370
     0
100
AcDbMText
 10
1.7115234375
 20
3.0695925553
 30
0.0
 40
2.38125
 41
0.0
 71
     2
 72
     1
  1
%%c
  7
SLDTEXTSTYLE0
 73
     1
 44
1.0
  0
MTEXT
  5
DC
330
D8
100
AcDbEntity
  8
0
  6
Continuous
 62
     0
370
     0
100
AcDbMText
 10
18.1051066928
 20
3.0695925553
 30
0.0
 40
2.38125
 41
0.0
 71
     2
 72
     1
  1
50.8mm LONGPASS
  7
SLDTEXTSTYLE0
 73
     1
 44
1.0
  0
MTEXT
  5
DD
330
D8
100
AcDbEntity
  8
0
  6
Continuous
 62
     0
370
     0
100
AcDbMText
 10
16.8492152989
 20
-0.1054074063
 30
0.0
 40
2.38125
 41
0.0
 71
     2
 72
     1
  1
DICHROIC MIRROR 490nm
  7
SLDTEXTSTYLE0
 73
     1
 44
1.0
  0
ENDBLK
  5
DA
330
D8
100
AcDbEntity
  8
0
100
AcDbBlockEnd
  0
BLOCK
  5
E5
330
E4
100
AcDbEntity
  8
0
100
AcDbBlockBegin
  2
_D
 70
     0
 10
0.0
 20
0.0
 30
0.0
  3
_D
  1
_D
  0
SOLID
  5
E7
330
E4
100
AcDbEntity
  8
0
  6
Continuous
 62
     7
370
     0
100
AcDbTrace
 10
102.592764017
 20
138.8212777371
 30
0.0
 11
105.1970382921
 21
140.7071315225
 31
0.0
 12
104.4786178025
 22
141.4255520122
 32
0.0
 13
104.4786178025
 23
141.4255520122
 33
0.0
  0
LINE
  5
E8
330
E4
100
AcDbEntity
  8
0
  6
Continuous
 62
     7
370
     0
100
AcDbLine
 10
114.0064641978
 20
144.1038491959
 30
0.0
 11
113.5772512381
 21
144.1038491959
 31
0.0
  0
LINE
  5
E9
330
E4
100
AcDbEntity
  8
0
  6
Continuous
 62
     7
370
     0
100
AcDbLine
 10
113.5772512381
 20
144.1038491959
 30
0.0
 11
113.5772512381
 21
140.7407011195
 31
0.0
  0
LINE
  5
EA
330
E4
100
AcDbEntity
  8
0
  6
Continuous
 62
     7
370
     0
100
AcDbLine
 10
113.5772512381
 20
140.7407011195
 30
0.0
 11
114.0064641978
 21
140.7407011195
 31
0.0
  0
LINE
  5
EB
330
E4
100
AcDbEntity
  8
0
  6
Continuous
 62
     7
370
     0
100
AcDbLine
 10
122.836688187
 20
144.1038491959
 30
0.0
 11
123.2659011467
 21
144.1038491959
 31
0.0
  0
LINE
  5
EC
330
E4
100
AcDbEntity
  8
0
  6
Continuous
 62
     7
370
     0
100
AcDbLine
 10
123.2659011467
 20
144.1038491959
 30
0.0
 11
123.2659011467
 21
140.7407011195
 31
0.0
  0
LINE
  5
ED
330
E4
100
AcDbEntity
  8
0
  6
Continuous
 62
     7
370
     0
100
AcDbLine
 10
123.2659011467
 20
140.7407011195
 30
0.0
 11
122.836688187
 21
140.7407011195
 31
0.0
  0
LINE
  5
EE
330
E4
100
AcDbEntity
  8
0
  6
Continuous
 62
     7
370
     0
100
AcDbLine
 10
102.592764017
 20
138.8212777371
 30
0.0
 11
109.445341511
 21
145.6738552311
 31
0.0
  0
LINE
  5
EF
330
E4
100
AcDbEntity
  8
0
  6
Continuous
 62
     7
370
     0
100
AcDbLine
 10
109.445341511
 20
145.6738552311
 30
0.0
 11
113.255341511
 21
145.6738552311
 31
0.0
  0
MTEXT
  5
F0
330
E4
100
AcDbEntity
  8
0
  6
Continuous
 62
     7
370
     0
100
AcDbMText
 10
113.255341511
 20
147.2615888424
 30
0.0
 40
2.1166666667
 41
0.0
 71
     1
 72
     1
  1
%%c
  7
SLDTEXTSTYLE0
 73
     1
 44
1.0
  0
MTEXT
  5
F1
330
E4
100
AcDbEntity
  8
0
  6
Continuous
 62
     7
370
     0
100
AcDbMText
 10
116.4503323117
 20
147.2615888424
 30
0.0
 40
2.1166666667
 41
0.0
 71
     1
 72
     1
  1
50.8mm
  7
SLDTEXTSTYLE0
 73
     1
 44
1.0
  0
MTEXT
  5
F2
330
E4
100
AcDbEntity
  8
0
  6
Continuous
 62
     7
370
     0
100
AcDbMText
 10
114.5429804193
 20
143.4692277189
 30
0.0
 40
2.1166666667
 41
0.0
 71
     1
 72
     1
  1
2.00in
  7
SLDTEXTSTYLE0
 73
     1
 44
1.0
  0
ENDBLK
  5
E6
330
E4
100
AcDbEntity
  8
0
100
AcDbBlockEnd
  0
BLOCK
  5
164
330
163
100
AcDbEntity
  8
0
100
AcDbBlockBegin
  2
_D_1
 70
     0
 10
0.0
 20
0.0
 30
0.0
  3
_D_1
  1
_D_1
  0
SOLID
  5
166
330
163
100
AcDbEntity
  8
0
  6
Continuous
 62
     7
370
     0
100
AcDbTrace
 10
197.1060160774
 20
93.5613848245
 30
0.0
 11
193.9310160774
 21
94.0693848245
 31
0.0
 12
193.9310160774
 22
93.0533848245
 32
0.0
 13
193.9310160774
 23
93.0533848245
 33
0.0
  0
SOLID
  5
167
330
163
100
AcDbEntity
  8
0
  6
Continuous
 62
     7
370
     0
100
AcDbTrace
 10
202.1060160774
 20
93.5613848245
 30
0.0
 11
205.2810160774
 21
93.0533848245
 31
0.0
 12
205.2810160774
 22
94.0693848245
 32
0.0
 13
205.2810160774
 23
94.0693848245
 33
0.0
  0
LINE
  5
168
330
163
100
AcDbEntity
  8
0
  6
Continuous
 62
     7
370
     0
100
AcDbLine
 10
212.0826295846
 20
93.5613845917
 30
0.0
 11
211.6534166249
 21
93.5613845917
 31
0.0
  0
LINE
  5
169
330
163
100
AcDbEntity
  8
0
  6
Continuous
 62
     7
370
     0
100
AcDbLine
 10
211.6534166249
 20
93.5613845917
 30
0.0
 11
211.6534166249
 21
90.1982365152
 31
0.0
  0
LINE
  5
16A
330
163
100
AcDbEntity
  8
0
  6
Continuous
 62
     7
370
     0
100
AcDbLine
 10
211.6534166249
 20
90.1982365152
 30
0.0
 11
212.0826295846
 21
90.1982365152
 31
0.0
  0
LINE
  5
16B
330
163
100
AcDbEntity
  8
0
  6
Continuous
 62
     7
370
     0
100
AcDbLine
 10
220.9128535739
 20
93.5613845917
 30
0.0
 11
221.3420665336
 21
93.5613845917
 31
0.0
  0
LINE
  5
16C
330
163
100
AcDbEntity
  8
0
  6
Continuous
 62
     7
370
     0
100
AcDbLine
 10
221.3420665336
 20
93.5613845917
 30
0.0
 11
221.3420665336
 21
90.1982365152
 31
0.0
  0
LINE
  5
16D
330
163
100
AcDbEntity
  8
0
  6
Continuous
 62
     7
370
     0
100
AcDbLine
 10
221.3420665336
 20
90.1982365152
 30
0.0
 11
220.9128535739
 21
90.1982365152
 31
0.0
  0
LINE
  5
16E
330
163
100
AcDbEntity
  8
0
  6
Continuous
 62
     7
370
     0
100
AcDbLine
 10
197.1060160774
 20
94.390765495
 30
0.0
 11
197.1060160774
 21
91.7833848245
 31
0.0
  0
LINE
  5
16F
330
163
100
AcDbEntity
  8
0
  6
Continuous
 62
     7
370
     0
100
AcDbLine
 10
202.1060160774
 20
94.390765495
 30
0.0
 11
202.1060160774
 21
91.7833848245
 31
0.0
  0
LINE
  5
170
330
163
100
AcDbEntity
  8
0
  6
Continuous
 62
     7
370
     0
100
AcDbLine
 10
197.1060160774
 20
93.5613848245
 30
0.0
 11
190.7560160774
 21
93.5613848245
 31
0.0
  0
LINE
  5
171
330
163
100
AcDbEntity
  8
0
  6
Continuous
 62
     7
370
     0
100
AcDbLine
 10
202.1060160774
 20
93.5613848245
 30
0.0
 11
209.3419275649
 21
93.5613848245
 31
0.0
  0
MTEXT
  5
172
330
163
100
AcDbEntity
  8
0
  6
Continuous
 62
     7
370
     0
100
AcDbMText
 10
211.3589451935
 20
96.7191242381
 30
0.0
 40
2.1166666667
 41
0.0
 71
     1
 72
     1
  1

  7
SLDTEXTSTYLE0
 73
     1
 44
1.0
  0
MTEXT
  5
173
330
163
100
AcDbEntity
  8
0
  6
Continuous
 62
     7
370
     0
100
AcDbMText
 10
211.8979112107
 20
96.7191242381
 30
0.0
 40
2.1166666667
 41
0.0
 71
     1
 72
     1
  1
5.0mm
  7
SLDTEXTSTYLE0
 73
     1
 44
1.0
  0
MTEXT
  5
174
330
163
100
AcDbEntity
  8
0
  6
Continuous
 62
     7
370
     0
100
AcDbMText
 10
212.6191458061
 20
92.9267631147
 30
0.0
 40
2.1166666667
 41
0.0
 71
     1
 72
     1
  1
0.20in
  7
SLDTEXTSTYLE0
 73
     1
 44
1.0
  0
MTEXT
  5
175
330
163
100
AcDbEntity
  8
0
  6
Continuous
 62
     7
370
     0
100
AcDbMText
 10
223.2514762606
 20
96.7191242381
 30
0.0
 40
2.1166666667
 41
0.0
 71
     1
 72
     1
  1

  7
SLDTEXTSTYLE0
 73
     1
 44
1.0
  0
ENDBLK
  5
165
330
163
100
AcDbEntity
  8
0
100
AcDbBlockEnd
  0
BLOCK
  5
17A
330
179
100
AcDbEntity
  8
0
100
AcDbBlockBegin
  2
SW_NOTE_5
 70
     0
 10
0.0
 20
0.0
 30
0.0
  3
SW_NOTE_5
  1
SW_NOTE_5
  0
MTEXT
  5
17C
330
179
100
AcDbEntity
  8
0
  6
Continuous
 62
     0
370
     0
100
AcDbMText
 10
0.5441940225
 20
0.9764743206
 30
0.0
 40
2.1166666667
 41
0.0
 71
     1
 72
     1
  1
S2
  7
SLDTEXTSTYLE0
 73
     1
 44
1.0
  0
MTEXT
  5
17D
330
179
100
AcDbEntity
  8
0
  6
Continuous
 62
     0
370
     0
100
AcDbMText
 10
0.5441940225
 20
-1.8457478675
 30
0.0
 40
2.1166666667
 41
0.0
 71
     1
 72
     1
  1
INDICATED BY ENGRAVED ARROW
  7
SLDTEXTSTYLE0
 73
     1
 44
1.0
  0
ENDBLK
  5
17B
330
179
100
AcDbEntity
  8
0
100
AcDbBlockEnd
  0
ENDSEC
  0
SECTION
  2
ENTITIES
  0
LINE
  5
7D
330
1F
100
AcDbEntity
  8
0
  6
Continuous
 62
     7
370
     0
100
AcDbLine
 10
1.5793501011
 20
214.6453799966
 30
0.0
 11
277.9892068491
 21
214.6453799966
 31
0.0
  0
LINE
  5
7E
330
1F
100
AcDbEntity
  8
0
  6
Continuous
 62
     7
370
     0
100
AcDbLine
 10
1.5793501011
 20
214.6453799966
 30
0.0
 11
1.5793501011
 21
0.9031642596
 31
0.0
  0
LINE
  5
7F
330
1F
100
AcDbEntity
  8
0
  6
Continuous
 62
     7
370
     0
100
AcDbLine
 10
277.9892068491
 20
0.9031642596
 30
0.0
 11
1.5793501011
 21
0.9031642596
 31
0.0
  0
LINE
  5
80
330
1F
100
AcDbEntity
  8
0
  6
Continuous
 62
     7
370
     0
100
AcDbLine
 10
277.9892068491
 20
0.9031642596
 30
0.0
 11
277.9892068491
 21
214.6453799966
 31
0.0
  0
LINE
  5
81
330
1F
100
AcDbEntity
  8
0
  6
Continuous
 62
     7
370
     0
100
AcDbLine
 10
215.7427640041
 20
12.2958890132
 30
0.0
 11
171.6327596684
 21
12.2958890132
 31
0.0
  0
LINE
  5
82
330
1F
100
AcDbEntity
  8
0
  6
Continuous
 62
     7
370
     0
100
AcDbLine
 10
171.6327596684
 20
12.2958890132
 30
0.0
 11
171.6327596684
 21
26.1661402506
 31
0.0
  0
LINE
  5
83
330
1F
100
AcDbEntity
  8
0
  6
Continuous
 62
     7
370
     0
100
AcDbLine
 10
171.6327596684
 20
0.9031642596
 30
0.0
 11
171.6327596684
 21
26.1661402506
 31
0.0
  0
LINE
  5
84
330
1F
100
AcDbEntity
  8
0
  6
Continuous
 62
     7
370
     0
100
AcDbLine
 10
215.7427640041
 20
17.1604579552
 30
0.0
 11
277.9892068491
 21
17.1604579552
 31
0.0
  0
LINE
  5
85
330
1F
100
AcDbEntity
  8
0
  6
Continuous
 62
     7
370
     0
100
AcDbLine
 10
215.7427640041
 20
35.2394508358
 30
0.0
 11
215.7427640041
 21
0.9031642596
 31
0.0
  0
LINE
  5
86
330
1F
100
AcDbEntity
  8
0
  6
Continuous
 62
     7
370
     0
100
AcDbLine
 10
215.7427640041
 20
26.1661402506
 30
0.0
 11
171.6327596684
 21
26.1661402506
 31
0.0
  0
LINE
  5
87
330
1F
100
AcDbEntity
  8
0
  6
Continuous
 62
     7
370
     0
100
AcDbLine
 10
215.7427640041
 20
9.1409200612
 30
0.0
 11
277.9892068491
 21
9.1409200612
 31
0.0
  0
LINE
  5
88
330
1F
100
AcDbEntity
  8
0
  6
Continuous
 62
     7
370
     0
100
AcDbLine
 10
215.7427640041
 20
16.9216824031
 30
0.0
 11
171.6327596684
 21
16.9216824031
 31
0.0
  0
LINE
  5
89
330
1F
100
AcDbEntity
  8
0
  6
Continuous
 62
     7
370
     0
100
AcDbLine
 10
215.7427640041
 20
21.4874005542
 30
0.0
 11
171.6327596684
 21
21.4874005542
 31
0.0
  0
LINE
  5
8A
330
1F
100
AcDbEntity
  8
0
  6
Continuous
 62
     7
370
     0
100
AcDbLine
 10
186.1338100705
 20
26.1661402506
 30
0.0
 11
186.1338100705
 21
12.2958890132
 31
0.0
  0
LINE
  5
8B
330
1F
100
AcDbEntity
  8
0
  6
Continuous
 62
     7
370
     0
100
AcDbLine
 10
198.2145906188
 20
26.1661402506
 30
0.0
 11
198.2145906188
 21
12.2958890132
 31
0.0
  0
LINE
  5
8C
330
1F
100
AcDbEntity
  8
0
  6
Continuous
 62
     7
370
     0
100
AcDbLine
 10
253.7490408369
 20
9.1409200612
 30
0.0
 11
253.7490408369
 21
0.9031642596
 31
0.0
  0
LINE
  5
8D
330
1F
100
AcDbEntity
  8
0
  6
Continuous
 62
     7
370
     0
100
AcDbLine
 10
171.6327596684
 20
12.2958890132
 30
0.0
 11
171.6327596684
 21
7.5627342528
 31
0.0
  0
LINE
  5
8E
330
1F
100
AcDbEntity
  8
0
  6
Continuous
 62
     7
370
     0
100
AcDbLine
 10
171.6327596684
 20
7.5627342528
 30
0.0
 11
215.7427640041
 21
7.5627342528
 31
0.0
  0
LINE
  5
8F
330
1F
100
AcDbEntity
  8
0
  6
Continuous
 62
     7
370
     0
100
AcDbLine
 10
171.6327596684
 20
7.5627342528
 30
0.0
 11
171.6327596684
 21
35.2394508358
 31
0.0
  0
LINE
  5
90
330
1F
100
AcDbEntity
  8
0
  6
Continuous
 62
     7
370
     0
100
AcDbLine
 10
171.6327596684
 20
35.2394508358
 30
0.0
 11
215.7427640041
 21
35.2394508358
 31
0.0
  0
LINE
  5
91
330
1F
100
AcDbEntity
  8
0
  6
Continuous
 62
     7
370
     0
100
AcDbLine
 10
270.1683598194
 20
17.1604579552
 30
0.0
 11
270.1683598194
 21
9.1409200612
 31
0.0
  0
LINE
  5
92
330
1F
100
AcDbEntity
  8
0
  6
Continuous
 62
     7
370
     0
100
AcDbLine
 10
215.7427640041
 20
35.2394508358
 30
0.0
 11
277.9892068491
 21
35.2394508358
 31
0.0
  0
LINE
  5
93
330
1F
100
AcDbEntity
  8
0
  6
Continuous
 62
     7
370
     0
100
AcDbLine
 10
277.9892068491
 20
35.2394508358
 30
0.0
 11
277.9892068491
 21
50.0331356147
 31
0.0
  0
LINE
  5
94
330
1F
100
AcDbEntity
  8
0
  6
Continuous
 62
     7
370
     0
100
AcDbLine
 10
215.7427640041
 20
24.8927335446
 30
0.0
 11
277.9892068491
 21
24.8927335446
 31
0.0
  0
INSERT
  5
95
330
1F
100
AcDbEntity
  8
0
  6
Continuous
 62
     7
100
AcDbBlockReference
  2
Third Angle Projection Block
 10
117.7262204235
 20
15.5162339489
 30
0.0
 41
0.8
 42
0.8
 43
0.8
  0
INSERT
  5
B2
330
1F
100
AcDbEntity
  8
0
  6
Continuous
 62
     7
370
     0
100
AcDbBlockReference
  2
SW_NOTE_0
 10
14.3617258262
 20
69.5994197506
 30
0.0
  0
MTEXT
  5
B3
330
1F
100
AcDbEntity
  8
0
  6
Continuous
 62
     7
370
     0
100
AcDbMText
 10
274.2755418848
 20
13.2559386876
 30
0.0
 40
3.175
 41
0.0
 71
     2
 72
     1
  1
B
  7
SLDTEXTSTYLE0
 73
     1
 44
1.0
  0
MTEXT
  5
B4
330
1F
100
AcDbEntity
  8
0
  6
Continuous
 62
     7
370
     0
100
AcDbMText
 10
234.5491618744
 20
5.1306563898
 30
0.0
 40
3.175
 41
0.0
 71
     2
 72
     1
  1
DMLP490L
  7
SLDTEXTSTYLE0
 73
     1
 44
1.0
  0
MTEXT
  5
B5
330
1F
100
AcDbEntity
  8
0
  6
Continuous
 62
     7
370
     0
100
AcDbMText
 10
216.4199766059
 20
16.8243178599
 30
0.0
 40
2.1166666667
 41
0.0
 71
     1
 72
     1
  1
MATERIAL
  7
SLDTEXTSTYLE0
 73
     1
 44
1.0
  0
MTEXT
  5
B6
330
1F
100
AcDbEntity
  8
0
  6
Continuous
 62
     7
370
     0
100
AcDbMText
 10
174.230946566
 20
20.054553926
 30
0.0
 40
1.8520833333
 41
0.0
 71
     1
 72
     1
  1
DRAWN
  7
SLDTEXTSTYLE0
 73
     1
 44
1.0
  0
MTEXT
  5
B7
330
1F
100
AcDbEntity
  8
0
  6
Continuous
 62
     7
370
     0
100
AcDbMText
 10
172.3960124543
 20
15.5787169747
 30
0.0
 40
1.8520833333
 41
0.0
 71
     1
 72
     1
  1
APPROVAL
  7
SLDTEXTSTYLE0
 73
     1
 44
1.0
  0
MTEXT
  5
B8
330
1F
100
AcDbEntity
  8
0
  6
Continuous
 62
     7
370
     0
100
AcDbMText
 10
271.7160653675
 20
16.1671746307
 30
0.0
 40
2.1166666667
 41
0.0
 71
     1
 72
     1
  1
REV
  7
SLDTEXTSTYLE0
 73
     1
 44
1.0
  0
MTEXT
  5
B9
330
1F
100
AcDbEntity
  8
0
  6
Continuous
 62
     7
370
     0
100
AcDbMText
 10
190.2958696448
 20
20.3177146903
 30
0.0
 40
2.1166666667
 41
0.0
 71
     1
 72
     1
  1
MG
  7
SLDTEXTSTYLE0
 73
     1
 44
1.0
  0
MTEXT
  5
BA
330
1F
100
AcDbEntity
  8
0
  6
Continuous
 62
     7
370
     0
100
AcDbMText
 10
190.2958696448
 20
15.841877739
 30
0.0
 40
2.1166666667
 41
0.0
 71
     1
 72
     1
  1
RS
  7
SLDTEXTSTYLE0
 73
     1
 44
1.0
  0
MTEXT
  5
BB
330
1F
100
AcDbEntity
  8
0
  6
Continuous
 62
     7
370
     0
100
AcDbMText
 10
199.8662436873
 20
20.3177146903
 30
0.0
 40
2.1166666667
 41
0.0
 71
     1
 72
     1
  1
03/JUNE/14
  7
SLDTEXTSTYLE0
 73
     1
 44
1.0
  0
MTEXT
  5
BC
330
1F
100
AcDbEntity
  8
0
  6
Continuous
 62
     7
370
     0
100
AcDbMText
 10
203.6145073853
 20
24.8221395769
 30
0.0
 40
2.1166666667
 41
0.0
 71
     1
 72
     1
  1
DATE
  7
SLDTEXTSTYLE0
 73
     1
 44
1.0
  0
MTEXT
  5
BD
330
1F
100
AcDbEntity
  8
0
  6
Continuous
 62
     7
370
     0
100
AcDbMText
 10
199.8662436873
 20
15.841877739
 30
0.0
 40
2.1166666667
 41
0.0
 71
     1
 72
     1
  1
22/SEP/15
  7
SLDTEXTSTYLE0
 73
     1
 44
1.0
  0
MTEXT
  5
BF
330
1F
100
AcDbEntity
  8
0
  6
Continuous
 62
     7
370
     0
100
AcDbMText
 10
229.402906477
 20
27.7957480569
 30
0.0
 40
2.1166666667
 41
0.0
 71
     1
 72
     1
  1
w w w . t h o r  l a b s . c o m
  7
SLDTEXTSTYLE2
 73
     1
 44
1.0
  0
MTEXT
  5
C0
330
1F
100
AcDbEntity
  8
0
  6
Continuous
 62
     7
370
     0
100
AcDbMText
 10
216.7004035316
 20
8.3494791871
 30
0.0
 40
2.1166666667
 41
0.0
 71
     1
 72
     1
  1
ITEM #
  7
SLDTEXTSTYLE0
 73
     1
 44
1.0
  0
MTEXT
  5
C1
330
1F
100
AcDbEntity
  8
0
  6
Continuous
 62
     7
370
     0
100
AcDbMText
 10
254.5318000914
 20
8.3494791871
 30
0.0
 40
2.1166666667
 41
0.0
 71
     1
 72
     1
  1
APPROX WEIGHT
  7
SLDTEXTSTYLE0
 73
     1
 44
1.0
  0
MTEXT
  5
C2
330
1F
100
AcDbEntity
  8
0
  6
Continuous
 62
     7
370
     0
100
AcDbMText
 10
243.2362589615
 20
13.8247651814
 30
0.0
 40
3.175
 41
0.0
 71
     2
 72
     1
  1
UV GRADE FUSED SILICA
  7
SLDTEXTSTYLE0
 73
     1
 44
1.0
  0
MTEXT
  5
C4
330
1F
100
AcDbEntity
  8
0
  6
Continuous
 62
     7
370
     0
100
AcDbMText
 10
266.2586154088
 20
5.1306563898
 30
0.0
 40
3.175
 41
0.0
 71
     2
 72
     1
  1
20 g
  7
SLDTEXTSTYLE3
 73
     1
 44
1.0
  0
INSERT
  5
CA
330
1F
100
AcDbEntity
  8
0
  6
Continuous
 62
     7
370
     0
100
AcDbBlockReference
  2
SW_NOTE_1
 10
174.8430140051
 20
4.4558554801
 30
0.0
  0
INSERT
  5
D0
330
1F
100
AcDbEntity
  8
0
  6
Continuous
 62
     7
370
     0
100
AcDbBlockReference
  2
SW_NOTE_2
 10
174.5483650337
 20
30.4835322715
 30
0.0
  0
MTEXT
  5
D1
330
1F
100
AcDbEntity
  8
0
  6
Continuous
 62
     7
370
     0
100
AcDbMText
 10
187.9273588276
 20
24.8221395769
 30
0.0
 40
2.1166666667
 41
0.0
 71
     1
 72
     1
  1
NAME
  7
SLDTEXTSTYLE0
 73
     1
 44
1.0
  0
INSERT
  5
D7
330
1F
100
AcDbEntity
  8
0
  6
Continuous
 62
     7
370
     0
100
AcDbBlockReference
  2
SW_NOTE_3
 10
58.6204667508
 20
8.1776609732
 30
0.0
  0
INSERT
  5
DE
330
1F
100
AcDbEntity
  8
0
  6
Continuous
 62
     7
370
     0
100
AcDbBlockReference
  2
SW_NOTE_4
 10
231.2431344853
 20
20.6862828027
 30
0.0
  0
MTEXT
  5
DF
330
1F
100
AcDbEntity
  8
0
  6
Continuous
 62
     7
370
     0
100
AcDbMText
 10
177.6925831922
 20
10.7142101515
 30
0.0
 40
1.5875
 41
0.0
 71
     1
 72
     1
  1
COPYRIGHT © 2015 BY THORLABS
  7
SLDTEXTSTYLE0
 73
     1
 44
1.0
  0
CIRCLE
  5
E0
330
1F
100
AcDbEntity
  8
0
  6
Continuous
 62
     7
370
     0
100
AcDbCircle
 10
84.6322517749
 20
120.860765495
 30
0.0
 40
25.20000000000002
  0
CIRCLE
  5
E1
330
1F
100
AcDbEntity
  8
0
  6
Continuous
 62
     7
370
     0
100
AcDbCircle
 10
84.6322517749
 20
120.860765495
 30
0.0
 40
25.39999999999999
  0
DIMENSION
  5
E2
330
1F
100
AcDbEntity
  8
0
  6
Continuous
 62
     7
370
     0
100
AcDbDimension
  2
_D
 10
66.6717395328
 20
102.9002532528
 30
0.0
 11
120.234657984
 21
145.6738552311
 31
0.0
 70
   163
  1
<>
 71
     1
 42
-1.0
  3
SLDDIMSTYLE0
100
AcDbDiametricDimension
 15
102.592764017
 25
138.8212777371
 35
0.0
 40
0.0
  0
LINE
  5
F3
330
1F
100
AcDbEntity
  8
0
  6
Continuous
 62
     7
370
     0
100
AcDbLine
 10
201.9060161284
 20
95.4607658019
 30
0.0
 11
202.1060160215
 21
95.6607654622
 31
0.0
  0
LINE
  5
F4
330
1F
100
AcDbEntity
  8
0
  6
Continuous
 62
     7
370
     0
100
AcDbLine
 10
202.1060160215
 20
146.0607655277
 30
0.0
 11
201.9060161284
 21
146.260765188
 31
0.0
  0
LINE
  5
F5
330
1F
100
AcDbEntity
  8
0
  6
Continuous
 62
     7
370
     0
100
AcDbLine
 10
201.9060161284
 20
146.260765188
 30
0.0
 11
197.3060160264
 21
146.260765188
 31
0.0
  0
LINE
  5
F6
330
1F
100
AcDbEntity
  8
0
  6
Continuous
 62
     7
370
     0
100
AcDbLine
 10
197.3060160264
 20
95.4607658019
 30
0.0
 11
201.9060161284
 21
95.4607658019
 31
0.0
  0
LINE
  5
F7
330
1F
100
AcDbEntity
  8
0
  6
Continuous
 62
     7
370
     0
100
AcDbLine
 10
197.3060160264
 20
146.260765188
 30
0.0
 11
197.1060161333
 21
146.0607655277
 31
0.0
  0
LINE
  5
F8
330
1F
100
AcDbEntity
  8
0
  6
Continuous
 62
     7
370
     0
100
AcDbLine
 10
197.1060161333
 20
95.6607654622
 30
0.0
 11
197.3060160264
 21
95.4607658019
 31
0.0
  0
LINE
  5
F9
330
1F
100
AcDbEntity
  8
0
  6
Continuous
 62
     7
370
     0
100
AcDbLine
 10
201.9060161284
 20
95.4607658019
 30
0.0
 11
201.9060161284
 21
146.260765188
 31
0.0
  0
LINE
  5
FA
330
1F
100
AcDbEntity
  8
0
  6
Continuous
 62
     7
370
     0
100
AcDbLine
 10
202.1060160215
 20
146.0607655277
 30
0.0
 11
202.1060160215
 21
95.6607654622
 31
0.0
  0
SPLINE
  5
FB
330
1F
100
AcDbEntity
  8
0
  6
Continuous
 62
     7
370
     0
100
AcDbSpline
210
0.0
220
0.0
230
1.0
 70
     8
 71
     3
 72
    14
 73
    10
 74
     0
 42
0.000000001
 43
0.00000001
 40
0.0
 40
0.0
 40
0.0
 40
0.0
 40
0.0626203335203488
 40
0.125196523725376
 40
0.2501754384042169
 40
0.4995238900043193
 40
0.7494969757171994
 40
0.8747361469557821
 40
1.0
 40
1.0
 40
1.0
 40
1.0
 10
199.1337149410349
 20
116.2501952523379
 30
0.0
 10
199.1400168746044
 20
116.2664561810279
 30
0.0
 10
199.1526162992847
 20
116.298966575497
 30
0.0
 10
199.1886672941587
 20
116.3590459834098
 30
0.0
 10
199.2723792849379
 20
116.449811980549
 30
0.0
 10
199.4291226859308
 20
116.5370643235061
 30
0.0
 10
199.6011449364268
 20
116.5799023502803
 30
0.0
 10
199.7417495399773
 20
116.5946045945594
 30
0.0
 10
199.8124460136039
 20
116.5957668388416
 30
0.0
 10
199.8477977332427
 20
116.5963480182401
 30
0.0
  0
SPLINE
  5
FC
330
1F
100
AcDbEntity
  8
0
  6
Continuous
 62
     7
370
     0
100
AcDbSpline
210
0.0
220
0.0
230
1.0
 70
     8
 71
     3
 72
    11
 73
     7
 74
     0
 42
0.000000001
 43
0.00000001
 40
0.0
 40
0.0
 40
0.0
 40
0.0
 40
0.4000017235834427
 40
0.6400060127062173
 40
0.8200150216781176
 40
1.0
 40
1.0
 40
1.0
 40
1.0
 10
199.1060160773986
 20
116.0157301636646
 30
0.0
 10
199.1064778093766
 20
116.0473153927687
 30
0.0
 10
199.1072165842988
 20
116.0978520163566
 30
0.0
 10
199.1140455868587
 20
116.1622889101125
 30
0.0
 10
199.1213779360768
 20
116.2092297508388
 30
0.0
 10
199.1296027890599
 20
116.2365406928666
 30
0.0
 10
199.1337149410349
 20
116.2501952523379
 30
0.0
  0
LINE
  5
FD
330
1F
100
AcDbEntity
  8
0
  6
Continuous
 62
     7
370
     0
100
AcDbLine
 10
199.1060160536
 20
116.0157302326
 30
0.0
 11
199.1060160536
 21
115.6013950637
 31
0.0
  0
LINE
  5
FE
330
1F
100
AcDbEntity
  8
0
  6
Continuous
 62
     7
370
     0
100
AcDbLine
 10
200.6060161249
 20
115.6013950637
 30
0.0
 11
199.1060160536
 21
115.6013950637
 31
0.0
  0
LINE
  5
FF
330
1F
100
AcDbEntity
  8
0
  6
Continuous
 62
     7
370
     0
100
AcDbLine
 10
200.6060161249
 20
116.034854476
 30
0.0
 11
200.6060161249
 21
115.6013950637
 31
0.0
  0
SPLINE
  5
100
330
1F
100
AcDbEntity
  8
0
  6
Continuous
 62
     7
370
     0
100
AcDbSpline
210
0.0
220
0.0
230
1.0
 70
     8
 71
     3
 72
    15
 73
    11
 74
     0
 42
0.000000001
 43
0.00000001
 40
0.0
 40
0.0
 40
0.0
 40
0.0
 40
0.1002492383821552
 40
0.2004810886521584
 40
0.4005534076458178
 40
0.5506171364805615
 40
0.7000987602887071
 40
0.8496801260079839
 40
0.924824378333488
 40
1.0
 40
1.0
 40
1.0
 40
1.0
 10
199.8477977332427
 20
116.5963480182401
 30
0.0
 10
199.883833671669
 20
116.5957345798352
 30
0.0
 10
199.9558992981306
 20
116.5945078094255
 30
0.0
 10
200.09912210236
 20
116.5791335960241
 30
0.0
 10
200.257409767995
 20
116.5393713677301
 30
0.0
 10
200.4182626310496
 20
116.4583679034131
 30
0.0
 10
200.5390944145364
 20
116.3465698464762
 30
0.0
 10
200.5873416826235
 20
116.2191814839647
 30
0.0
 10
200.6041320884601
 20
116.1145079556342
 30
0.0
 10
200.6053879937233
 20
116.061409291995
 30
0.0
 10
200.6060160773986
 20
116.0348544197567
 30
0.0
  0
LINE
  5
101
330
1F
100
AcDbEntity
  8
0
  6
Continuous
 62
     7
370
     0
100
AcDbLine
 10
200.4306913906
 20
119.0321845166
 30
0.0
 11
200.4306913906
 21
118.4110385762
 31
0.0
  0
LINE
  5
102
330
1F
100
AcDbEntity
  8
0
  6
Continuous
 62
     7
370
     0
100
AcDbLine
 10
199.1060160536
 20
118.4110385762
 30
0.0
 11
200.4306913906
 21
118.4110385762
 31
0.0
  0
LINE
  5
103
330
1F
100
AcDbEntity
  8
0
  6
Continuous
 62
     7
370
     0
100
AcDbLine
 10
199.1060160536
 20
118.4110385762
 30
0.0
 11
199.1060160536
 21
118.2559680125
 31
0.0
  0
LINE
  5
104
330
1F
100
AcDbEntity
  8
0
  6
Continuous
 62
     7
370
     0
100
AcDbLine
 10
200.6060161249
 20
118.2559680125
 30
0.0
 11
199.1060160536
 21
118.2559680125
 31
0.0
  0
LINE
  5
105
330
1F
100
AcDbEntity
  8
0
  6
Continuous
 62
     7
370
     0
100
AcDbLine
 10
200.6060161249
 20
119.0321845166
 30
0.0
 11
200.6060161249
 21
118.2559680125
 31
0.0
  0
LINE
  5
106
330
1F
100
AcDbEntity
  8
0
  6
Continuous
 62
     7
370
     0
100
AcDbLine
 10
200.4306913906
 20
119.0321845166
 30
0.0
 11
200.6060161249
 21
119.0321845166
 31
0.0
  0
LINE
  5
107
330
1F
100
AcDbEntity
  8
0
  6
Continuous
 62
     7
370
     0
100
AcDbLine
 10
200.235886182
 20
121.0955330713
 30
0.0
 11
200.235886182
 21
120.9202116803
 31
0.0
  0
LINE
  5
108
330
1F
100
AcDbEntity
  8
0
  6
Continuous
 62
     7
370
     0
100
AcDbLine
 10
200.060561535
 20
121.0955330713
 30
0.0
 11
200.235886182
 21
121.0955330713
 31
0.0
  0
LINE
  5
109
330
1F
100
AcDbEntity
  8
0
  6
Continuous
 62
     7
370
     0
100
AcDbLine
 10
200.060561535
 20
121.0955330713
 30
0.0
 11
200.060561535
 21
120.9202116803
 31
0.0
  0
LINE
  5
10A
330
1F
100
AcDbEntity
  8
0
  6
Continuous
 62
     7
370
     0
100
AcDbLine
 10
199.0865355794
 20
120.9202116803
 30
0.0
 11
200.060561535
 21
120.9202116803
 31
0.0
  0
LINE
  5
10B
330
1F
100
AcDbEntity
  8
0
  6
Continuous
 62
     7
370
     0
100
AcDbLine
 10
199.0865355794
 20
120.9202116803
 30
0.0
 11
199.0865355794
 21
120.7731948631
 31
0.0
  0
SPLINE
  5
10C
330
1F
100
AcDbEntity
  8
0
  6
Continuous
 62
     7
370
     0
100
AcDbSpline
210
0.0
220
0.0
230
1.0
 70
     8
 71
     3
 72
     8
 73
     4
 74
     0
 42
0.000000001
 43
0.00000001
 40
0.0
 40
0.0
 40
0.0
 40
0.0
 40
1.0
 40
1.0
 40
1.0
 40
1.0
 10
200.060561531944
 20
120.2384558298838
 30
0.0
 10
199.7358862072687
 20
120.4166693632478
 30
0.0
 10
199.4112108825934
 20
120.5949288781013
 30
0.0
 10
199.086535557918
 20
120.773194864078
 30
0.0
  0
LINE
  5
10D
330
1F
100
AcDbEntity
  8
0
  6
Continuous
 62
     7
370
     0
100
AcDbLine
 10
200.235886182
 20
120.2384558088
 30
0.0
 11
200.060561535
 21
120.2384558088
 31
0.0
  0
LINE
  5
10E
330
1F
100
AcDbEntity
  8
0
  6
Continuous
 62
     7
370
     0
100
AcDbLine
 10
200.235886182
 20
120.7643678096
 30
0.0
 11
200.235886182
 21
120.2384558088
 31
0.0
  0
LINE
  5
10F
330
1F
100
AcDbEntity
  8
0
  6
Continuous
 62
     7
370
     0
100
AcDbLine
 10
200.6060161249
 20
120.7643678096
 30
0.0
 11
200.235886182
 21
120.7643678096
 31
0.0
  0
LINE
  5
110
330
1F
100
AcDbEntity
  8
0
  6
Continuous
 62
     7
370
     0
100
AcDbLine
 10
200.6060161249
 20
120.9202116803
 30
0.0
 11
200.6060161249
 21
120.7643678096
 31
0.0
  0
LINE
  5
111
330
1F
100
AcDbEntity
  8
0
  6
Continuous
 62
     7
370
     0
100
AcDbLine
 10
200.235886182
 20
120.9202116803
 30
0.0
 11
200.6060161249
 21
120.9202116803
 31
0.0
  0
SPLINE
  5
112
330
1F
100
AcDbEntity
  8
0
  6
Continuous
 62
     7
370
     0
100
AcDbSpline
210
0.0
220
0.0
230
1.0
 70
     8
 71
     3
 72
    12
 73
     8
 74
     0
 42
0.000000001
 43
0.00000001
 40
0.0
 40
0.0
 40
0.0
 40
0.0
 40
0.124992937532014
 40
0.249988352820378
 40
0.499883447594993
 40
0.7499169450320808
 40
1.0
 40
1.0
 40
1.0
 40
1.0
 10
199.2448147786973
 20
122.8801319438327
 30
0.0
 10
199.267676619803
 20
122.8931824877705
 30
0.0
 10
199.3134007552087
 20
122.9192838343492
 30
0.0
 10
199.4127143389072
 20
122.955022834616
 30
0.0
 10
199.5415830157727
 20
122.9827989138614
 30
0.0
 10
199.6987264777834
 20
122.999895222439
 30
0.0
 10
199.80398857814
 20
123.0013535161734
 30
0.0
 10
199.8566248436323
 20
123.0020827352933
 30
0.0
  0
SPLINE
  5
113
330
1F
100
AcDbEntity
  8
0
  6
Continuous
 62
     7
370
     0
100
AcDbSpline
210
0.0
220
0.0
230
1.0
 70
     8
 71
     3
 72
    12
 73
     8
 74
     0
 42
0.000000001
 43
0.00000001
 40
0.0
 40
0.0
 40
0.0
 40
0.0
 40
0.1252396549768587
 40
0.2504179599818341
 40
0.5000538618607597
 40
0.7498676072259411
 40
1.0
 40
1.0
 40
1.0
 40
1.0
 10
199.086535557918
 20
122.6048164685102
 30
0.0
 10
199.0869429574485
 20
122.6186879492824
 30
0.0
 10
199.0877575569404
 20
122.646424115735
 30
0.0
 10
199.0981699950516
 20
122.7009553901275
 30
0.0
 10
199.1241237507855
 20
122.7659728054221
 30
0.0
 10
199.1768973207167
 20
122.8317863100122
 30
0.0
 10
199.222166008501
 20
122.8640098865156
 30
0.0
 10
199.2448147786973
 20
122.8801319438327
 30
0.0
  0
SPLINE
  5
114
330
1F
100
AcDbEntity
  8
0
  6
Continuous
 62
     7
370
     0
100
AcDbSpline
210
0.0
220
0.0
230
1.0
 70
     8
 71
     3
 72
    15
 73
    11
 74
     0
 42
0.000000001
 43
0.00000001
 40
0.0
 40
0.0
 40
0.0
 40
0.0
 40
0.1252511664806186
 40
0.250493711606959
 40
0.5005606681270495
 40
0.6348746860440105
 40
0.7504894127989676
 40
0.8748893802182292
 40
0.9374179621242281
 40
1.0
 40
1.0
 40
1.0
 40
1.0
 10
199.8566248436323
 20
122.2052973227803
 30
0.0
 10
199.8163325996971
 20
122.2057376008942
 30
0.0
 10
199.7357508852435
 20
122.2066181268165
 30
0.0
 10
199.5753349775159
 20
122.2195115981497
 30
0.0
 10
199.4125479223807
 20
122.2481492346907
 30
0.0
 10
199.2635489902524
 20
122.3110151730199
 30
0.0
 10
199.1649930991194
 20
122.3827499691016
 30
0.0
 10
199.1105560872897
 20
122.466672297774
 30
0.0
 10
199.0890947949512
 20
122.544493134424
 30
0.0
 10
199.087388879891
 20
122.5847029636683
 30
0.0
 10
199.086535557918
 20
122.6048164685102
 30
0.0
  0
SPLINE
  5
115
330
1F
100
AcDbEntity
  8
0
  6
Continuous
 62
     7
370
     0
100
AcDbSpline
210
0.0
220
0.0
230
1.0
 70
     8
 71
     3
 72
    16
 73
    12
 74
     0
 42
0.000000001
 43
0.00000001
 40
0.0
 40
0.0
 40
0.0
 40
0.0
 40
0.062547979028406
 40
0.1250348464929097
 40
0.2495127039548125
 40
0.3209827069246105
 40
0.3924643609723396
 40
0.4996337873185574
 40
0.749601422808045
 40
0.8747936019449145
 40
1.0
 40
1.0
 40
1.0
 40
1.0
 10
200.6254965968791
 20
122.6029944755826
 30
0.0
 10
200.6245792446335
 20
122.5829243490243
 30
0.0
 10
200.6227454364275
 20
122.5428037051236
 30
0.0
 10
200.5990788078322
 20
122.4657332373701
 30
0.0
 10
200.5519792124051
 20
122.3950651425502
 30
0.0
 10
200.486779396053
 20
122.3389956526562
 30
0.0
 10
200.4196596044033
 20
122.2945638309226
 30
0.0
 10
200.2914451878184
 20
122.2423571728065
 30
0.0
 10
200.1372167996459
 20
122.2180255724159
 30
0.0
 10
199.9771722809412
 20
122.2065912627814
 30
0.0
 10
199.8968088438849
 20
122.2057286524418
 30
0.0
 10
199.8566248436323
 20
122.2052973227803
 30
0.0
  0
SPLINE
  5
116
330
1F
100
AcDbEntity
  8
0
  6
Continuous
 62
     7
370
     0
100
AcDbSpline
210
0.0
220
0.0
230
1.0
 70
     8
 71
     3
 72
    14
 73
    10
 74
     0
 42
0.000000001
 43
0.00000001
 40
0.0
 40
0.0
 40
0.0
 40
0.0
 40
0.1254827438759681
 40
0.2509572551369186
 40
0.5014869882464025
 40
0.7500309116048791
 40
0.8746627465287558
 40
0.9373002352230878
 40
1.0
 40
1.0
 40
1.0
 40
1.0
 10
199.8566248436323
 20
123.0020827352933
 30
0.0
 10
199.8968574444324
 20
123.0016369779348
 30
0.0
 10
199.9773200064704
 20
123.0007454924628
 30
0.0
 10
200.1378092539085
 20
122.9877043695108
 30
0.0
 10
200.3346152510698
 20
122.953010871946
 30
0.0
 10
200.5230795691153
 20
122.8611778954562
 30
0.0
 10
200.6015277197637
 20
122.7409362085056
 30
0.0
 10
200.6230305081911
 20
122.6632490524527
 30
0.0
 10
200.624674295068
 20
122.6230859864547
 30
0.0
 10
200.6254965968791
 20
122.6029944755826
 30
0.0
  0
SPLINE
  5
117
330
1F
100
AcDbEntity
  8
0
  6
Continuous
 62
     7
370
     0
100
AcDbSpline
210
0.0
220
0.0
230
1.0
 70
     8
 71
     3
 72
    11
 73
     7
 74
     0
 42
0.000000001
 43
0.00000001
 40
0.0
 40
0.0
 40
0.0
 40
0.0
 40
0.4999666558526491
 40
0.7499522648531692
 40
0.8655687366695679
 40
0.9999999999999999
 40
0.9999999999999999
 40
0.9999999999999999
 40
0.9999999999999999
 10
200.6215396163596
 20
124.9154727787839
 30
0.0
 10
200.6841147579179
 20
124.8482061862945
 30
0.0
 10
200.7779777557516
 20
124.7473059906597
 30
0.0
 10
200.9048210567116
 20
124.650252990578
 30
0.0
 10
200.9835429852565
 20
124.6024256091853
 30
0.0
 10
201.0246583107188
 20
124.5816303149957
 30
0.0
 10
201.0467628306453
 20
124.5704502990377
 30
0.0
  0
LINE
  5
118
330
1F
100
AcDbEntity
  8
0
  6
Continuous
 62
     7
370
     0
100
AcDbLine
 10
200.5423999828
 20
124.91547297
 30
0.0
 11
200.6215396424
 21
124.91547297
 31
0.0
  0
SPLINE
  5
119
330
1F
100
AcDbEntity
  8
0
  6
Continuous
 62
     7
370
     0
100
AcDbSpline
210
0.0
220
0.0
230
1.0
 70
     8
 71
     3
 72
    10
 73
     6
 74
     0
 42
0.000000001
 43
0.00000001
 40
0.0
 40
0.0
 40
0.0
 40
0.0
 40
0.2428811558034017
 40
0.4999804408039869
 40
1.0
 40
1.0
 40
1.0
 40
1.0
 10
200.7448147786973
 20
124.6017638123549
 30
0.0
 10
200.7247061521263
 20
124.6245955620271
 30
0.0
 10
200.6833117510512
 20
124.6715956194325
 30
0.0
 10
200.6130813400666
 20
124.7753783481638
 30
0.0
 10
200.5705130995029
 20
124.8597510259081
 30
0.0
 10
200.54240000597
 20
124.9154727787839
 30
0.0
  0
LINE
  5
11A
330
1F
100
AcDbEntity
  8
0
  6
Continuous
 62
     7
370
     0
100
AcDbLine
 10
199.2305087653
 20
124.6017637128
 30
0.0
 11
200.7448147371
 21
124.6017637128
 31
0.0
  0
LINE
  5
11B
330
1F
100
AcDbEntity
  8
0
  6
Continuous
 62
     7
370
     0
100
AcDbLine
 10
199.2305087653
 20
124.6017637128
 30
0.0
 11
199.2305087653
 21
124.499070265
 31
0.0
  0
LINE
  5
11C
330
1F
100
AcDbEntity
  8
0
  6
Continuous
 62
     7
370
     0
100
AcDbLine
 10
200.7448147371
 20
124.499070265
 30
0.0
 11
199.2305087653
 21
124.499070265
 31
0.0
  0
SPLINE
  5
11D
330
1F
100
AcDbEntity
  8
0
  6
Continuous
 62
     7
370
     0
100
AcDbSpline
210
0.0
220
0.0
230
1.0
 70
     8
 71
     3
 72
    11
 73
     7
 74
     0
 42
0.000000001
 43
0.00000001
 40
0.0
 40
0.0
 40
0.0
 40
0.0
 40
0.2843783846391184
 40
0.5000223467489632
 40
0.6940663936897697
 40
1.0
 40
1.0
 40
1.0
 40
1.0
 10
200.5442263046713
 20
124.1845963602851
 30
0.0
 10
200.5601678960547
 20
124.2162548991704
 30
0.0
 10
200.5881979868247
 20
124.2719200895053
 30
0.0
 10
200.630190979422
 20
124.347705779012
 30
0.0
 10
200.6824421118698
 20
124.4202303674364
 30
0.0
 10
200.7211373642533
 20
124.4691416328734
 30
0.0
 10
200.7448147786973
 20
124.4990701701331
 30
0.0
  0
LINE
  5
11E
330
1F
100
AcDbEntity
  8
0
  6
Continuous
 62
     7
370
     0
100
AcDbLine
 10
200.6224528042
 20
124.184596392
 30
0.0
 11
200.5442263063
 21
124.184596392
 31
0.0
  0
SPLINE
  5
11F
330
1F
100
AcDbEntity
  8
0
  6
Continuous
 62
     7
370
     0
100
AcDbSpline
210
0.0
220
0.0
230
1.0
 70
     8
 71
     3
 72
    11
 73
     7
 74
     0
 42
0.000000001
 43
0.00000001
 40
0.0
 40
0.0
 40
0.0
 40
0.0
 40
0.1428746598486543
 40
0.2857531594868727
 40
0.500033204824423
 40
1.0
 40
1.0
 40
1.0
 40
1.0
 10
201.0467628306453
 20
124.5234692404123
 30
0.0
 10
201.023159177094
 20
124.512305177024
 30
0.0
 10
200.9759512356377
 20
124.4899767502107
 30
0.0
 10
200.8991080870616
 20
124.4405478911591
 30
0.0
 10
200.7746633317144
 20
124.3456491882512
 30
0.0
 10
200.6851272627182
 20
124.2509117630161
 30
0.0
 10
200.6224527657102
 20
124.1845963602851
 30
0.0
  0
LINE
  5
120
330
1F
100
AcDbEntity
  8
0
  6
Continuous
 62
     7
370
     0
100
AcDbLine
 10
201.0467627871
 20
124.5704503195
 30
0.0
 11
201.0467627871
 21
124.5234692866
 31
0.0
  0
LINE
  5
121
330
1F
100
AcDbEntity
  8
0
  6
Continuous
 62
     7
370
     0
100
AcDbLine
 10
197.3060160264
 20
146.260765188
 30
0.0
 11
197.3060160264
 21
95.4607658019
 31
0.0
  0
LINE
  5
122
330
1F
100
AcDbEntity
  8
0
  6
Continuous
 62
     7
370
     0
100
AcDbLine
 10
200.4306913906
 20
123.9901620826
 30
0.0
 11
200.4306913906
 21
123.3706546878
 31
0.0
  0
LINE
  5
123
330
1F
100
AcDbEntity
  8
0
  6
Continuous
 62
     7
370
     0
100
AcDbLine
 10
199.1060160536
 20
123.3706546878
 30
0.0
 11
200.4306913906
 21
123.3706546878
 31
0.0
  0
LINE
  5
124
330
1F
100
AcDbEntity
  8
0
  6
Continuous
 62
     7
370
     0
100
AcDbLine
 10
199.1060160536
 20
123.3706546878
 30
0.0
 11
199.1060160536
 21
123.2155268477
 31
0.0
  0
LINE
  5
125
330
1F
100
AcDbEntity
  8
0
  6
Continuous
 62
     7
370
     0
100
AcDbLine
 10
200.6060161249
 20
123.2155268477
 30
0.0
 11
199.1060160536
 21
123.2155268477
 31
0.0
  0
LINE
  5
126
330
1F
100
AcDbEntity
  8
0
  6
Continuous
 62
     7
370
     0
100
AcDbLine
 10
200.6060161249
 20
123.9901620826
 30
0.0
 11
200.6060161249
 21
123.2155268477
 31
0.0
  0
LINE
  5
127
330
1F
100
AcDbEntity
  8
0
  6
Continuous
 62
     7
370
     0
100
AcDbLine
 10
200.4306913906
 20
123.9901620826
 30
0.0
 11
200.6060161249
 21
123.9901620826
 31
0.0
  0
SPLINE
  5
128
330
1F
100
AcDbEntity
  8
0
  6
Continuous
 62
     7
370
     0
100
AcDbSpline
210
0.0
220
0.0
230
1.0
 70
     8
 71
     3
 72
    14
 73
    10
 74
     0
 42
0.000000001
 43
0.00000001
 40
0.0
 40
0.0
 40
0.0
 40
0.0
 40
0.0716016087281245
 40
0.1431885942024413
 40
0.250436580903966
 40
0.4988626624131217
 40
0.7490190627654653
 40
0.8745031295976498
 40
1.0
 40
1.0
 40
1.0
 40
1.0
 10
199.086535557918
 20
121.63387072481
 30
0.0
 10
199.087826165579
 20
121.6561347865877
 30
0.0
 10
199.0904071173191
 20
121.7006583631361
 30
0.0
 10
199.1156685672353
 20
121.774922811701
 30
0.0
 10
199.185058443447
 20
121.8895654627436
 30
0.0
 10
199.3498130378435
 20
121.9984207671679
 30
0.0
 10
199.5414526765977
 20
122.0363651597548
 30
0.0
 10
199.6965376776417
 20
122.0483102981958
 30
0.0
 10
199.7744461950925
 20
122.0492016374296
 30
0.0
 10
199.8134024410349
 20
122.0496473297819
 30
0.0
  0
SPLINE
  5
129
330
1F
100
AcDbEntity
  8
0
  6
Continuous
 62
     7
370
     0
100
AcDbSpline
210
0.0
220
0.0
230
1.0
 70
     8
 71
     3
 72
    14
 73
    10
 74
     0
 42
0.000000001
 43
0.00000001
 40
0.0
 40
0.0
 40
0.0
 40
0.0
 40
0.1254617690397863
 40
0.25087267072351
 40
0.5004509225256248
 40
0.7494963202902862
 40
0.8745639661394663
 40
0.9372734928894273
 40
1.0
 40
1.0
 40
1.0
 40
1.0
 10
199.5908983825934
 20
121.2513651706762
 30
0.0
 10
199.5614133215468
 20
121.2521249892458
 30
0.0
 10
199.5024551539089
 20
121.2536443183232
 30
0.0
 10
199.3862052572075
 20
121.272907576623
 30
0.0
 10
199.2475132088467
 20
121.3284280647649
 30
0.0
 10
199.1399771077245
 20
121.4362077571351
 30
0.0
 10
199.0995847042616
 20
121.5317580995106
 30
0.0
 10
199.0880212039391
 20
121.5896658297977
 30
0.0
 10
199.0870308179481
 20
121.6191344300778
 30
0.0
 10
199.086535557918
 20
121.63387072481
 30
0.0
  0
SPLINE
  5
12A
330
1F
100
AcDbEntity
  8
0
  6
Continuous
 62
     7
370
     0
100
AcDbSpline
210
0.0
220
0.0
230
1.0
 70
     8
 71
     3
 72
    14
 73
    10
 74
     0
 42
0.000000001
 43
0.00000001
 40
0.0
 40
0.0
 40
0.0
 40
0.0
 40
0.0716199506624224
 40
0.1432074749473992
 40
0.2859317447663562
 40
0.4998419029261203
 40
0.7493101428521195
 40
0.8746264539184625
 40
1.0
 40
1.0
 40
1.0
 40
1.0
 10
200.0800420514246
 20
121.6195712246971
 30
0.0
 10
200.0793456898462
 20
121.6033127664177
 30
0.0
 10
200.0779532819716
 20
121.5708032109769
 30
0.0
 10
200.0629879149321
 20
121.507273506149
 30
0.0
 10
200.0173107377607
 20
121.4198827611911
 30
0.0
 10
199.915239456044
 20
121.3228828305353
 30
0.0
 10
199.7885978139577
 20
121.2717356599198
 30
0.0
 10
199.6762979652324
 20
121.2535664691277
 30
0.0
 10
199.6193692426063
 20
121.2520990485023
 30
0.0
 10
199.5908983825934
 20
121.2513651706762
 30
0.0
  0
SPLINE
  5
12B
330
1F
100
AcDbEntity
  8
0
  6
Continuous
 62
     7
370
     0
100
AcDbSpline
210
0.0
220
0.0
230
1.0
 70
     8
 71
     3
 72
    13
 73
     9
 74
     0
 42
0.000000001
 43
0.00000001
 40
0.0
 40
0.0
 40
0.0
 40
0.0
 40
0.1251810157219847
 40
0.2502906965226313
 40
0.5001029637553308
 40
0.7498040235745649
 40
0.8748570671547495
 40
0.9999999999999999
 40
0.9999999999999999
 40
0.9999999999999999
 40
0.9999999999999999
 10
199.8894982202557
 20
121.9091589543391
 30
0.0
 10
199.9026359612845
 20
121.9016003731903
 30
0.0
 10
199.928903956746
 20
121.8864875181816
 30
0.0
 10
199.9766404215532
 20
121.84901686085
 30
0.0
 10
200.0267994817448
 20
121.7915602550534
 30
0.0
 10
200.0620988567987
 20
121.7238045965004
 30
0.0
 10
200.0776640253381
 20
121.6650003562164
 30
0.0
 10
200.079249186226
 20
121.6347178951182
 30
0.0
 10
200.0800420514246
 20
121.6195712246971
 30
0.0
  0
LINE
  5
12C
330
1F
100
AcDbEntity
  8
0
  6
Continuous
 62
     7
370
     0
100
AcDbLine
 10
199.9263285862
 20
121.9091589261
 30
0.0
 11
199.8894982127
 21
121.9091589261
 31
0.0
  0
SPLINE
  5
12D
330
1F
100
AcDbEntity
  8
0
  6
Continuous
 62
     7
370
     0
100
AcDbSpline
210
0.0
220
0.0
230
1.0
 70
     8
 71
     3
 72
    15
 73
    11
 74
     0
 42
0.000000001
 43
0.00000001
 40
0.0
 40
0.0
 40
0.0
 40
0.0
 40
0.0625693194621254
 40
0.12505090878673
 40
0.2495630279782362
 40
0.3595636853153452
 40
0.4995312778108609
 40
0.7495562976704917
 40
0.8747660251780797
 40
0.9999999999999999
 40
0.9999999999999999
 40
0.9999999999999999
 40
0.9999999999999999
 10
200.4696524410349
 20
121.6280901051046
 30
0.0
 10
200.4688315352652
 20
121.6421383677641
 30
0.0
 10
200.4671908747401
 20
121.6702151956338
 30
0.0
 10
200.4492175865714
 20
121.7237023521405
 30
0.0
 10
200.4097030467622
 20
121.7795754652735
 30
0.0
 10
200.3391254469076
 20
121.8267166924347
 30
0.0
 10
200.2354970031119
 20
121.8701579013829
 30
0.0
 10
200.1222482560812
 20
121.8965756328682
 30
0.0
 10
200.0105366095382
 20
121.9076077573106
 30
0.0
 10
199.9543997331211
 20
121.90864185529
 30
0.0
 10
199.9263285773986
 20
121.9091589543391
 30
0.0
  0
SPLINE
  5
12E
330
1F
100
AcDbEntity
  8
0
  6
Continuous
 62
     7
370
     0
100
AcDbSpline
210
0.0
220
0.0
230
1.0
 70
     8
 71
     3
 72
    12
 73
     8
 74
     0
 42
0.000000001
 43
0.00000001
 40
0.0
 40
0.0
 40
0.0
 40
0.0
 40
0.2507849143144574
 40
0.5009313959139029
 40
0.7494324302280816
 40
0.8745957461859821
 40
1.0
 40
1.0
 40
1.0
 40
1.0
 10
200.2358862072687
 20
121.426658417182
 30
0.0
 10
200.2638627808445
 20
121.4318223315063
 30
0.0
 10
200.3197447069664
 20
121.4421370141814
 30
0.0
 10
200.3987220896029
 20
121.476981103612
 30
0.0
 10
200.4486743462052
 20
121.5311950115025
 30
0.0
 10
200.4674508141676
 20
121.5854115411626
 30
0.0
 10
200.4689180951155
 20
121.6138548004108
 30
0.0
 10
200.4696524410349
 20
121.6280901051046
 30
0.0
  0
SPLINE
  5
12F
330
1F
100
AcDbEntity
  8
0
  6
Continuous
 62
     7
370
     0
100
AcDbSpline
210
0.0
220
0.0
230
1.0
 70
     8
 71
     3
 72
     8
 73
     4
 74
     0
 42
0.000000001
 43
0.00000001
 40
0.0
 40
0.0
 40
0.0
 40
0.0
 40
1.0
 40
1.0
 40
1.0
 40
1.0
 10
200.2553667267492
 20
121.2708432698466
 30
0.0
 10
200.2488732202557
 20
121.3227845511097
 30
0.0
 10
200.2423797137622
 20
121.3747232594299
 30
0.0
 10
200.2358862072687
 20
121.426658417182
 30
0.0
  0
SPLINE
  5
130
330
1F
100
AcDbEntity
  8
0
  6
Continuous
 62
     7
370
     0
100
AcDbSpline
210
0.0
220
0.0
230
1.0
 70
     8
 71
     3
 72
    13
 73
     9
 74
     0
 42
0.000000001
 43
0.00000001
 40
0.0
 40
0.0
 40
0.0
 40
0.0
 40
0.1431579759951871
 40
0.2505468097408634
 40
0.4995815884120703
 40
0.7490919788433118
 40
0.8745221176524083
 40
1.0
 40
1.0
 40
1.0
 40
1.0
 10
200.6254965968791
 20
121.6143990055647
 30
0.0
 10
200.6239312424181
 20
121.5876833156598
 30
0.0
 10
200.621191649576
 20
121.5409270603469
 30
0.0
 10
200.591339910141
 20
121.4521221275027
 30
0.0
 10
200.5204073189674
 20
121.3590143349068
 30
0.0
 10
200.4149727626719
 20
121.3041623775687
 30
0.0
 10
200.3249621620153
 20
121.2795524583495
 30
0.0
 10
200.2785681478358
 20
121.2737467009266
 30
0.0
 10
200.2553667267492
 20
121.2708432698466
 30
0.0
  0
SPLINE
  5
131
330
1F
100
AcDbEntity
  8
0
  6
Continuous
 62
     7
370
     0
100
AcDbSpline
210
0.0
220
0.0
230
1.0
 70
     8
 71
     3
 72
    16
 73
    12
 74
     0
 42
0.000000001
 43
0.00000001
 40
0.0
 40
0.0
 40
0.0
 40
0.0
 40
0.1362570160163081
 40
0.2504051408108194
 40
0.350561376973994
 40
0.5006163074813791
 40
0.6434141688815569
 40
0.7504075395745438
 40
0.8749821181983725
 40
0.9250222482766808
 40
1.0
 40
1.0
 40
1.0
 40
1.0
 10
199.8134024410349
 20
122.0496473297819
 30
0.0
 10
199.859961471349
 20
122.0489476619582
 30
0.0
 10
199.9455249225582
 20
122.0476618535277
 30
0.0
 10
200.0650427166485
 20
122.0388045541413
 30
0.0
 10
200.1885561759802
 20
122.0224275350175
 30
0.0
 10
200.319021380636
 20
121.9883133372903
 30
0.0
 10
200.4438789784625
 20
121.9301709357926
 30
0.0
 10
200.5442874238551
 20
121.8486143785412
 30
0.0
 10
200.5958220278616
 20
121.7646554802899
 30
0.0
 10
200.6214286501382
 20
121.6829002366167
 30
0.0
 10
200.6239715360796
 20
121.6400799077126
 30
0.0
 10
200.6254965968791
 20
121.6143990055647
 30
0.0
  0
LINE
  5
132
330
1F
100
AcDbEntity
  8
0
  6
Continuous
 62
     7
370
     0
100
AcDbLine
 10
200.0021199666
 20
119.6787556797
 30
0.0
 11
200.0021199666
 21
119.3626401179
 31
0.0
  0
SPLINE
  5
133
330
1F
100
AcDbEntity
  8
0
  6
Continuous
 62
     7
370
     0
100
AcDbSpline
210
0.0
220
0.0
230
1.0
 70
     8
 71
     3
 72
    15
 73
    11
 74
     0
 42
0.000000001
 43
0.00000001
 40
0.0
 40
0.0
 40
0.0
 40
0.0
 40
0.1429545597213982
 40
0.2858259307256618
 40
0.3930115961467938
 40
0.5001405448350671
 40
0.6181942514790063
 40
0.7497632715744822
 40
0.8748286417272916
 40
1.0
 40
1.0
 40
1.0
 40
1.0
 10
199.5406751683076
 20
120.1410872849996
 30
0.0
 10
199.5763792895053
 20
120.139746926377
 30
0.0
 10
199.6477667548085
 20
120.137066989119
 30
0.0
 10
199.7437614959669
 20
120.1126102894568
 30
0.0
 10
199.8243521604523
 20
120.0739410256248
 30
0.0
 10
199.892821942129
 20
120.0258704783168
 30
0.0
 10
199.9482515926009
 20
119.9543792471991
 30
0.0
 10
199.9826577751681
 20
119.8664996401115
 30
0.0
 10
199.9996762127264
 20
119.7723865600971
 30
0.0
 10
200.0013051565966
 20
119.7099747707455
 30
0.0
 10
200.0021199735025
 20
119.6787556587689
 30
0.0
  0
SPLINE
  5
134
330
1F
100
AcDbEntity
  8
0
  6
Continuous
 62
     7
370
     0
100
AcDbSpline
210
0.0
220
0.0
230
1.0
 70
     8
 71
     3
 72
    14
 73
    10
 74
     0
 42
0.000000001
 43
0.00000001
 40
0.0
 40
0.0
 40
0.0
 40
0.0
 40
0.0745601870303218
 40
0.1430363259402321
 40
0.2502753544418672
 40
0.4996559586217005
 40
0.6996146735485747
 40
0.840656500597625
 40
1.0
 40
1.0
 40
1.0
 40
1.0
 10
199.1349324735025
 20
119.9086653577733
 30
0.0
 10
199.1396743391866
 20
119.9201041428528
 30
0.0
 10
199.1487711383307
 20
119.9420483178363
 30
0.0
 10
199.1694441505244
 20
119.9782092059373
 30
0.0
 10
199.2132786369567
 20
120.033891263846
 30
0.0
 10
199.289484680018
 20
120.0898625340964
 30
0.0
 10
199.3822534772522
 20
120.1236745849625
 30
0.0
 10
199.4643072121152
 20
120.1384156470487
 30
0.0
 10
199.5142057874519
 20
120.1401612866365
 30
0.0
 10
199.5406751683076
 20
120.1410872849996
 30
0.0
  0
SPLINE
  5
135
330
1F
100
AcDbEntity
  8
0
  6
Continuous
 62
     7
370
     0
100
AcDbSpline
210
0.0
220
0.0
230
1.0
 70
     8
 71
     3
 72
    11
 73
     7
 74
     0
 42
0.000000001
 43
0.00000001
 40
0.0
 40
0.0
 40
0.0
 40
0.0
 40
0.2729389191732804
 40
0.500136088788852
 40
0.7501730734356025
 40
1.0
 40
1.0
 40
1.0
 40
1.0
 10
199.1060160773986
 20
119.6684179431016
 30
0.0
 10
199.1061557904433
 20
119.6905325990029
 30
0.0
 10
199.1064118020665
 20
119.7310557224217
 30
0.0
 10
199.1108292139167
 20
119.7916443151009
 30
0.0
 10
199.1174137394389
 20
119.8503774913822
 30
0.0
 10
199.1290945316898
 20
119.8892415129259
 30
0.0
 10
199.1349324735025
 20
119.9086653577733
 30
0.0
  0
LINE
  5
136
330
1F
100
AcDbEntity
  8
0
  6
Continuous
 62
     7
370
     0
100
AcDbLine
 10
199.1060160536
 20
119.6684179991
 30
0.0
 11
199.1060160536
 21
119.2070964422
 31
0.0
  0
LINE
  5
137
330
1F
100
AcDbEntity
  8
0
  6
Continuous
 62
     7
370
     0
100
AcDbLine
 10
200.6060161249
 20
119.2070964422
 30
0.0
 11
199.1060160536
 21
119.2070964422
 31
0.0
  0
LINE
  5
138
330
1F
100
AcDbEntity
  8
0
  6
Continuous
 62
     7
370
     0
100
AcDbLine
 10
200.6060161249
 20
119.3626401179
 30
0.0
 11
200.6060161249
 21
119.2070964422
 31
0.0
  0
LINE
  5
139
330
1F
100
AcDbEntity
  8
0
  6
Continuous
 62
     7
370
     0
100
AcDbLine
 10
200.0021199666
 20
119.3626401179
 30
0.0
 11
200.6060161249
 21
119.3626401179
 31
0.0
  0
SPLINE
  5
13A
330
1F
100
AcDbEntity
  8
0
  6
Continuous
 62
     7
370
     0
100
AcDbSpline
210
0.0
220
0.0
230
1.0
 70
     8
 71
     3
 72
     8
 73
     4
 74
     0
 42
0.000000001
 43
0.00000001
 40
0.0
 40
0.0
 40
0.0
 40
0.0
 40
1.0
 40
1.0
 40
1.0
 40
1.0
 10
200.6060160773986
 20
117.334137902074
 30
0.0
 10
200.1696321488271
 20
117.2162768329023
 30
0.0
 10
199.7332482202557
 20
117.0985319047139
 30
0.0
 10
199.2968642916843
 20
116.9809147499017
 30
0.0
  0
LINE
  5
13B
330
1F
100
AcDbEntity
  8
0
  6
Continuous
 62
     7
370
     0
100
AcDbLine
 10
200.6060161249
 20
117.4921582384
 30
0.0
 11
200.6060161249
 21
117.3341379432
 31
0.0
  0
SPLINE
  5
13C
330
1F
100
AcDbEntity
  8
0
  6
Continuous
 62
     7
370
     0
100
AcDbSpline
210
0.0
220
0.0
230
1.0
 70
     8
 71
     3
 72
     8
 73
     4
 74
     0
 42
0.000000001
 43
0.00000001
 40
0.0
 40
0.0
 40
0.0
 40
0.0
 40
1.0
 40
1.0
 40
1.0
 40
1.0
 10
199.367785557918
 20
117.8493893215183
 30
0.0
 10
199.7805290644116
 20
117.730207459012
 30
0.0
 10
200.193272570905
 20
117.6111264670942
 30
0.0
 10
200.6060160773986
 20
117.4921583115866
 30
0.0
  0
LINE
  5
13D
330
1F
100
AcDbEntity
  8
0
  6
Continuous
 62
     7
370
     0
100
AcDbLine
 10
200.6060161249
 20
117.8493893636
 30
0.0
 11
199.3677855527
 21
117.8493893636
 31
0.0
  0
LINE
  5
13E
330
1F
100
AcDbEntity
  8
0
  6
Continuous
 62
     7
370
     0
100
AcDbLine
 10
200.6060161249
 20
118.0041900767
 30
0.0
 11
200.6060161249
 21
117.8493893636
 31
0.0
  0
LINE
  5
13F
330
1F
100
AcDbEntity
  8
0
  6
Continuous
 62
     7
370
     0
100
AcDbLine
 10
199.1060160536
 20
118.0041900767
 30
0.0
 11
200.6060161249
 21
118.0041900767
 31
0.0
  0
LINE
  5
140
330
1F
100
AcDbEntity
  8
0
  6
Continuous
 62
     7
370
     0
100
AcDbLine
 10
199.1060160536
 20
118.0041900767
 30
0.0
 11
199.1060160536
 21
117.7850228665
 31
0.0
  0
SPLINE
  5
141
330
1F
100
AcDbEntity
  8
0
  6
Continuous
 62
     7
370
     0
100
AcDbSpline
210
0.0
220
0.0
230
1.0
 70
     8
 71
     3
 72
     8
 73
     4
 74
     0
 42
0.000000001
 43
0.00000001
 40
0.0
 40
0.0
 40
0.0
 40
0.0
 40
1.0
 40
1.0
 40
1.0
 40
1.0
 10
200.1497457851908
 20
117.4819009821293
 30
0.0
 10
199.8018358825934
 20
117.5828625260249
 30
0.0
 10
199.4539259799959
 20
117.6839055902058
 30
0.0
 10
199.1060160773986
 20
117.7850228614594
 30
0.0
  0
ARC
  5
142
330
1F
100
AcDbEntity
  8
0
  6
Continuous
 62
     7
370
     0
100
AcDbCircle
 10
204.8558554603
 20
133.8428588505
 30
0.0
 40
17.02434768144768
100
AcDbArc
 50
253.9525064884
 51
254.7928598794
  0
SPLINE
  5
143
330
1F
100
AcDbEntity
  8
0
  6
Continuous
 62
     7
370
     0
100
AcDbSpline
210
0.0
220
0.0
230
1.0
 70
     8
 71
     3
 72
     8
 73
     4
 74
     0
 42
0.000000001
 43
0.00000001
 40
0.0
 40
0.0
 40
0.0
 40
0.0
 40
1.0
 40
1.0
 40
1.0
 40
1.0
 10
200.1680087722038
 20
117.356746945374
 30
0.0
 10
200.2420753306453
 20
117.3760412059326
 30
0.0
 10
200.3161418890869
 20
117.3953385581495
 30
0.0
 10
200.3902084475284
 20
117.4146389509455
 30
0.0
  0
SPLINE
  5
144
330
1F
100
AcDbEntity
  8
0
  6
Continuous
 62
     7
370
     0
100
AcDbSpline
210
0.0
220
0.0
230
1.0
 70
     8
 71
     3
 72
     8
 73
     4
 74
     0
 42
0.000000001
 43
0.00000001
 40
0.0
 40
0.0
 40
0.0
 40
0.0
 40
1.0
 40
1.0
 40
1.0
 40
1.0
 10
199.1060160773986
 20
117.0678722626191
 30
0.0
 10
199.4600136423336
 20
117.1640824530278
 30
0.0
 10
199.8140112072687
 20
117.2603761335213
 30
0.0
 10
200.1680087722038
 20
117.356746945374
 30
0.0
  0
LINE
  5
145
330
1F
100
AcDbEntity
  8
0
  6
Continuous
 62
     7
370
     0
100
AcDbLine
 10
199.1060160536
 20
117.0678723535
 30
0.0
 11
199.1060160536
 21
116.8269736623
 31
0.0
  0
LINE
  5
146
330
1F
100
AcDbEntity
  8
0
  6
Continuous
 62
     7
370
     0
100
AcDbLine
 10
200.6060161249
 20
116.8269736623
 30
0.0
 11
199.1060160536
 21
116.8269736623
 31
0.0
  0
LINE
  5
147
330
1F
100
AcDbEntity
  8
0
  6
Continuous
 62
     7
370
     0
100
AcDbLine
 10
200.6060161249
 20
116.9809147647
 30
0.0
 11
200.6060161249
 21
116.8269736623
 31
0.0
  0
LINE
  5
148
330
1F
100
AcDbEntity
  8
0
  6
Continuous
 62
     7
370
     0
100
AcDbLine
 10
199.2968643055
 20
116.9809147647
 30
0.0
 11
200.6060161249
 21
116.9809147647
 31
0.0
  0
LINE
  5
149
330
1F
100
AcDbEntity
  8
0
  6
Continuous
 62
     7
370
     0
100
AcDbLine
 10
197.1060161333
 20
95.6607654622
 30
0.0
 11
197.1060161333
 21
146.0607655277
 31
0.0
  0
SPLINE
  5
14A
330
1F
100
AcDbEntity
  8
0
  6
Continuous
 62
     7
370
     0
100
AcDbSpline
210
0.0
220
0.0
230
1.0
 70
     8
 71
     3
 72
     8
 73
     4
 74
     0
 42
0.000000001
 43
0.00000001
 40
0.0
 40
0.0
 40
0.0
 40
0.0
 40
1.0
 40
1.0
 40
1.0
 40
1.0
 10
199.3827003306453
 20
120.7643678116155
 30
0.0
 10
199.6086540644116
 20
120.6402818546071
 30
0.0
 10
199.8346077981778
 20
120.516199348732
 30
0.0
 10
200.060561531944
 20
120.3921336197864
 30
0.0
  0
LINE
  5
14B
330
1F
100
AcDbEntity
  8
0
  6
Continuous
 62
     7
370
     0
100
AcDbLine
 10
200.060561535
 20
120.7643678096
 30
0.0
 11
200.060561535
 21
120.3921336088
 31
0.0
  0
LINE
  5
14C
330
1F
100
AcDbEntity
  8
0
  6
Continuous
 62
     7
370
     0
100
AcDbLine
 10
200.060561535
 20
120.7643678096
 30
0.0
 11
199.3827003345
 21
120.7643678096
 31
0.0
  0
SPLINE
  5
14D
330
1F
100
AcDbEntity
  8
0
  6
Continuous
 62
     7
370
     0
100
AcDbSpline
210
0.0
220
0.0
230
1.0
 70
     8
 71
     3
 72
    12
 73
     8
 74
     0
 42
0.000000001
 43
0.00000001
 40
0.0
 40
0.0
 40
0.0
 40
0.0
 40
0.2506229480567906
 40
0.5005037921604097
 40
0.7498496883450435
 40
0.8749507639367238
 40
0.9999999999999999
 40
0.9999999999999999
 40
0.9999999999999999
 40
0.9999999999999999
 10
199.5869414020739
 20
121.8939525808173
 30
0.0
 10
199.5482789227879
 20
121.8922817648442
 30
0.0
 10
199.4710684452677
 20
121.8889450802468
 30
0.0
 10
199.360348018169
 20
121.8485586119
 30
0.0
 10
199.2862635087732
 20
121.7837304320149
 30
0.0
 10
199.2475110684717
 20
121.7153935140733
 30
0.0
 10
199.2440899290071
 20
121.6766598512613
 30
0.0
 10
199.2423797137622
 20
121.6572970333118
 30
0.0
  0
SPLINE
  5
14E
330
1F
100
AcDbEntity
  8
0
  6
Continuous
 62
     7
370
     0
100
AcDbSpline
210
0.0
220
0.0
230
1.0
 70
     8
 71
     3
 72
    15
 73
    11
 74
     0
 42
0.000000001
 43
0.00000001
 40
0.0
 40
0.0
 40
0.0
 40
0.0
 40
0.0668930060763219
 40
0.1250702581396372
 40
0.2499284873082171
 40
0.3749641775443406
 40
0.5000701077257462
 40
0.7495613137331337
 40
0.8627731816119518
 40
1.0
 40
1.0
 40
1.0
 40
1.0
 10
199.2423797137622
 20
121.6572970333118
 30
0.0
 10
199.2430653668937
 20
121.646522460373
 30
0.0
 10
199.2443473367016
 20
121.626377176167
 30
0.0
 10
199.2539301205719
 20
121.5870338415977
 30
0.0
 10
199.2783297025682
 20
121.5427613813224
 30
0.0
 10
199.320025941134
 20
121.4985405362425
 30
0.0
 10
199.384449576998
 20
121.4495260187966
 30
0.0
 10
199.4598986570365
 20
121.4215229120319
 30
0.0
 10
199.5396227467355
 20
121.4092045841202
 30
0.0
 10
199.580023264931
 20
121.4078983267179
 30
0.0
 10
199.602160557918
 20
121.4071825685018
 30
0.0
  0
SPLINE
  5
14F
330
1F
100
AcDbEntity
  8
0
  6
Continuous
 62
     7
370
     0
100
AcDbSpline
210
0.0
220
0.0
230
1.0
 70
     8
 71
     3
 72
    14
 73
    10
 74
     0
 42
0.000000001
 43
0.00000001
 40
0.0
 40
0.0
 40
0.0
 40
0.0
 40
0.1253657079413671
 40
0.2506792852927666
 40
0.5000229958526557
 40
0.6998178555803221
 40
0.8497492347368755
 40
0.9216477014122242
 40
1.0
 40
1.0
 40
1.0
 40
1.0
 10
199.602160557918
 20
121.4071825685018
 30
0.0
 10
199.6210368849333
 20
121.407691717827
 30
0.0
 10
199.6587816896557
 20
121.4087098047587
 30
0.0
 10
199.733072074891
 20
121.4217369867951
 30
0.0
 10
199.8145247660058
 20
121.4559160214996
 30
0.0
 10
199.8814218175634
 20
121.5188608539151
 30
0.0
 10
199.9120436680471
 20
121.5756710167902
 30
0.0
 10
199.9223617168904
 20
121.6198780176696
 30
0.0
 10
199.9235685565918
 20
121.6424722986063
 30
0.0
 10
199.9241978955804
 20
121.6542546934795
 30
0.0
  0
SPLINE
  5
150
330
1F
100
AcDbEntity
  8
0
  6
Continuous
 62
     7
370
     0
100
AcDbSpline
210
0.0
220
0.0
230
1.0
 70
     8
 71
     3
 72
    14
 73
    10
 74
     0
 42
0.000000001
 43
0.00000001
 40
0.0
 40
0.0
 40
0.0
 40
0.0
 40
0.0716366061203063
 40
0.143197864156436
 40
0.2858226613161144
 40
0.4996136464662099
 40
0.7492599472423387
 40
0.8746011118598838
 40
1.0
 40
1.0
 40
1.0
 40
1.0
 10
199.9241978955804
 20
121.6542546934795
 30
0.0
 10
199.9237221685378
 20
121.6652671334481
 30
0.0
 10
199.922771214827
 20
121.687280430393
 30
0.0
 10
199.9120681605652
 20
121.7301472476552
 30
0.0
 10
199.8801353137785
 20
121.7887999060344
 30
0.0
 10
199.8082167561795
 20
121.8518135179492
 30
0.0
 10
199.7209878895603
 20
121.8820009898277
 30
0.0
 10
199.6447648136274
 20
121.892639580745
 30
0.0
 10
199.6062188305156
 20
121.8935148469608
 30
0.0
 10
199.5869414020739
 20
121.8939525808173
 30
0.0
  0
LINE
  5
151
330
1F
100
AcDbEntity
  8
0
  6
Continuous
 62
     7
370
     0
100
AcDbLine
 10
199.8267953051
 20
119.6884854395
 30
0.0
 11
199.8267953051
 21
119.3626401179
 31
0.0
  0
SPLINE
  5
152
330
1F
100
AcDbEntity
  8
0
  6
Continuous
 62
     7
370
     0
100
AcDbSpline
210
0.0
220
0.0
230
1.0
 70
     8
 71
     3
 72
    13
 73
     9
 74
     0
 42
0.000000001
 43
0.00000001
 40
0.0
 40
0.0
 40
0.0
 40
0.0
 40
0.1257431705301028
 40
0.251403204778073
 40
0.5004854116416132
 40
0.7488453632207661
 40
0.9161634980058073
 40
1.0
 40
1.0
 40
1.0
 40
1.0
 10
199.8267952981778
 20
119.6884854527952
 30
0.0
 10
199.8263067582146
 20
119.7080111207264
 30
0.0
 10
199.825330001291
 20
119.7470495470094
 30
0.0
 10
199.8129100324224
 20
119.8235777653772
 30
0.0
 10
199.7723947601759
 20
119.9166943477884
 30
0.0
 10
199.6777025413201
 20
119.9710449372645
 30
0.0
 10
199.600903165628
 20
119.9840191071734
 30
0.0
 10
199.5619096997191
 20
119.9849945983711
 30
0.0
 10
199.5488935124635
 20
119.9853202215442
 30
0.0
  0
SPLINE
  5
153
330
1F
100
AcDbEntity
  8
0
  6
Continuous
 62
     7
370
     0
100
AcDbSpline
210
0.0
220
0.0
230
1.0
 70
     8
 71
     3
 72
    14
 73
    10
 74
     0
 42
0.000000001
 43
0.00000001
 40
0.0
 40
0.0
 40
0.0
 40
0.0
 40
0.1251692025470937
 40
0.2502774400662945
 40
0.3752942969246997
 40
0.5002256764783135
 40
0.624740884272907
 40
0.7496892273597416
 40
0.9999999999999999
 40
0.9999999999999999
 40
0.9999999999999999
 40
0.9999999999999999
 10
199.5488935124635
 20
119.9853202215442
 30
0.0
 10
199.5293712156515
 20
119.9846556019365
 30
0.0
 10
199.4903361305754
 20
119.9833266864316
 30
0.0
 10
199.4330099456669
 20
119.9696164956426
 30
0.0
 10
199.3797524704606
 20
119.9447371075606
 30
0.0
 10
199.3326989697736
 20
119.9093518272302
 30
0.0
 10
199.2984502472497
 20
119.8601674327504
 30
0.0
 10
199.2834173974187
 20
119.7826953793392
 30
0.0
 10
199.2821716855221
 20
119.7243579505801
 30
0.0
 10
199.2813407527233
 20
119.6854448735766
 30
0.0
  0
LINE
  5
154
330
1F
100
AcDbEntity
  8
0
  6
Continuous
 62
     7
370
     0
100
AcDbLine
 10
199.2813407588
 20
119.6854449041
 30
0.0
 11
199.2813407588
 21
119.3626401179
 31
0.0
  0
LINE
  5
155
330
1F
100
AcDbEntity
  8
0
  6
Continuous
 62
     7
370
     0
100
AcDbLine
 10
199.2813407588
 20
119.3626401179
 30
0.0
 11
199.8267953051
 21
119.3626401179
 31
0.0
  0
SPLINE
  5
156
330
1F
100
AcDbEntity
  8
0
  6
Continuous
 62
     7
370
     0
100
AcDbSpline
210
0.0
220
0.0
230
1.0
 70
     8
 71
     3
 72
    14
 73
    10
 74
     0
 42
0.000000001
 43
0.00000001
 40
0.0
 40
0.0
 40
0.0
 40
0.0
 40
0.2504567050928235
 40
0.5007685906461226
 40
0.625864467971912
 40
0.7507010938702152
 40
0.8751098530209156
 40
0.9375424545412298
 40
1.0
 40
1.0
 40
1.0
 40
1.0
 10
199.8560160773986
 20
122.3608967003017
 30
0.0
 10
199.9165798981963
 20
122.3616560376361
 30
0.0
 10
200.0376725204672
 20
122.3631742732395
 30
0.0
 10
200.1885491963702
 20
122.3790789158197
 30
0.0
 10
200.3065130543405
 20
122.4084033929635
 30
0.0
 10
200.3872525562833
 20
122.4514223718669
 30
0.0
 10
200.4417054920669
 20
122.5061578621789
 30
0.0
 10
200.4666747794933
 20
122.5621505042585
 30
0.0
 10
200.4686597550366
 20
122.5924144472388
 30
0.0
 10
200.4696524410349
 20
122.6075494409927
 30
0.0
  0
SPLINE
  5
157
330
1F
100
AcDbEntity
  8
0
  6
Continuous
 62
     7
370
     0
100
AcDbSpline
210
0.0
220
0.0
230
1.0
 70
     8
 71
     3
 72
    15
 73
    11
 74
     0
 42
0.000000001
 43
0.00000001
 40
0.0
 40
0.0
 40
0.0
 40
0.0
 40
0.0357496639709916
 40
0.0714787857971891
 40
0.1249960507389605
 40
0.2494778538486886
 40
0.3743167329173326
 40
0.4993970418671524
 40
0.7496360215701784
 40
1.0
 40
1.0
 40
1.0
 40
1.0
 10
200.4696524410349
 20
122.6075494409927
 30
0.0
 10
200.4693400688015
 20
122.6161183286204
 30
0.0
 10
200.4687155038272
 20
122.6332511801001
 30
0.0
 10
200.4606737763992
 20
122.6622541076812
 30
0.0
 10
200.4381475956212
 20
122.7086587486547
 30
0.0
 10
200.3826978741656
 20
122.758702225521
 30
0.0
 10
200.3026518993016
 20
122.8004278571207
 30
0.0
 10
200.1854605006354
 20
122.8287462334607
 30
0.0
 10
200.0360392727613
 20
122.8444462812954
 30
0.0
 10
199.9160337974955
 20
122.8459846581458
 30
0.0
 10
199.8560160773986
 20
122.8467540386346
 30
0.0
  0
SPLINE
  5
158
330
1F
100
AcDbEntity
  8
0
  6
Continuous
 62
     7
370
     0
100
AcDbSpline
210
0.0
220
0.0
230
1.0
 70
     8
 71
     3
 72
    14
 73
    10
 74
     0
 42
0.000000001
 43
0.00000001
 40
0.0
 40
0.0
 40
0.0
 40
0.0
 40
0.2504552763300965
 40
0.5007650511731642
 40
0.6258584362837313
 40
0.750680307190223
 40
0.8751033703397859
 40
0.9375275944789334
 40
1.0
 40
1.0
 40
1.0
 40
1.0
 10
199.8560160773986
 20
122.8467540386346
 30
0.0
 10
199.7953073558452
 20
122.8459903204757
 30
0.0
 10
199.6739251813479
 20
122.8444633278386
 30
0.0
 10
199.5226602036672
 20
122.828596777814
 30
0.0
 10
199.4044595349249
 20
122.7991465146023
 30
0.0
 10
199.3235022731834
 20
122.755920962799
 30
0.0
 10
199.2697285900616
 20
122.7002412145155
 30
0.0
 10
199.2452289203341
 20
122.6439516035414
 30
0.0
 10
199.2433296935078
 20
122.6136140715369
 30
0.0
 10
199.2423797137622
 20
122.5984394538786
 30
0.0
  0
SPLINE
  5
159
330
1F
100
AcDbEntity
  8
0
  6
Continuous
 62
     7
370
     0
100
AcDbSpline
210
0.0
220
0.0
230
1.0
 70
     8
 71
     3
 72
    14
 73
    10
 74
     0
 42
0.000000001
 43
0.00000001
 40
0.0
 40
0.0
 40
0.0
 40
0.0
 40
0.0623759841546414
 40
0.1248129722817842
 40
0.2492504649310001
 40
0.374121338438643
 40
0.4992563427513284
 40
0.7495574582203581
 40
1.0
 40
1.0
 40
1.0
 40
1.0
 10
199.2423797137622
 20
122.5984394538786
 30
0.0
 10
199.2435966575872
 20
122.5834856467456
 30
0.0
 10
199.2460317354135
 20
122.5535634075939
 30
0.0
 10
199.2732232528593
 20
122.4991641823681
 30
0.0
 10
199.3297767240906
 20
122.4480653882481
 30
0.0
 10
199.4101181775765
 20
122.4068135183959
 30
0.0
 10
199.5271065695764
 20
122.378876988372
 30
0.0
 10
199.6763052025586
 20
122.3632215862583
 30
0.0
 10
199.7961011743577
 20
122.3616718081899
 30
0.0
 10
199.8560160773986
 20
122.3608967003017
 30
0.0
  0
LINE
  5
15A
330
1F
100
AcDbEntity
  8
0
  6
Continuous
 62
     7
370
     0
100
AcDbLine
 10
200.4306913906
 20
116.016327676
 30
0.0
 11
200.4306913906
 21
115.7539601369
 31
0.0
  0
SPLINE
  5
15B
330
1F
100
AcDbEntity
  8
0
  6
Continuous
 62
     7
370
     0
100
AcDbSpline
210
0.0
220
0.0
230
1.0
 70
     8
 71
     3
 72
    12
 73
     8
 74
     0
 42
0.000000001
 43
0.00000001
 40
0.0
 40
0.0
 40
0.0
 40
0.0
 40
0.2506447700527095
 40
0.500496388892758
 40
0.7494550466348047
 40
0.8640021788814772
 40
0.9999999999999999
 40
0.9999999999999999
 40
0.9999999999999999
 40
0.9999999999999999
 10
200.4306914020739
 20
116.0163277535878
 30
0.0
 10
200.4294319906493
 20
116.0545816687211
 30
0.0
 10
200.4269171531363
 20
116.1309684466346
 30
0.0
 10
200.3964454198955
 20
116.2441249863564
 30
0.0
 10
200.3325062111005
 20
116.3182170298048
 30
0.0
 10
200.2672337793339
 20
116.3601348347044
 30
0.0
 10
200.2315265151173
 20
116.3756422061663
 30
0.0
 10
200.2121443241518
 20
116.3840597324496
 30
0.0
  0
SPLINE
  5
15C
330
1F
100
AcDbEntity
  8
0
  6
Continuous
 62
     7
370
     0
100
AcDbSpline
210
0.0
220
0.0
230
1.0
 70
     8
 71
     3
 72
    11
 73
     7
 74
     0
 42
0.000000001
 43
0.00000001
 40
0.0
 40
0.0
 40
0.0
 40
0.0
 40
0.2499306351901286
 40
0.4999282956707934
 40
0.7499583790451344
 40
1.0
 40
1.0
 40
1.0
 40
1.0
 10
200.2121443241518
 20
116.3840597324496
 30
0.0
 10
200.1827312296387
 20
116.3941330540646
 30
0.0
 10
200.123897152739
 20
116.4142823987134
 30
0.0
 10
200.0318835927697
 20
116.4310706873851
 30
0.0
 10
199.93905246197
 20
116.4414115363402
 30
0.0
 10
199.876796000397
 20
116.4423353046182
 30
0.0
 10
199.8456670514245
 20
116.4427971994137
 30
0.0
  0
SPLINE
  5
15D
330
1F
100
AcDbEntity
  8
0
  6
Continuous
 62
     7
370
     0
100
AcDbSpline
210
0.0
220
0.0
230
1.0
 70
     8
 71
     3
 72
    15
 73
    11
 74
     0
 42
0.000000001
 43
0.00000001
 40
0.0
 40
0.0
 40
0.0
 40
0.0
 40
0.1347999632652077
 40
0.2502496014357529
 40
0.5001560835052262
 40
0.6667344581242454
 40
0.750107897762363
 40
0.875014222628859
 40
0.9335799284632379
 40
1.0
 40
1.0
 40
1.0
 40
1.0
 10
199.8456670514245
 20
116.4427971994137
 30
0.0
 10
199.8181895446457
 20
116.4423319617251
 30
0.0
 10
199.7671788844548
 20
116.4414682704944
 30
0.0
 10
199.6656118575795
 20
116.4332778078851
 30
0.0
 10
199.5580862433385
 20
116.4136297357372
 30
0.0
 10
199.4644376704058
 20
116.3722284701382
 30
0.0
 10
199.4002739564962
 20
116.3313144754552
 30
0.0
 10
199.3593521299197
 20
116.295216829963
 30
0.0
 10
199.3291238792896
 20
116.2546698601471
 30
0.0
 10
199.3174004011166
 20
116.2323998998494
 30
0.0
 10
199.3111702981778
 20
116.2205651744334
 30
0.0
  0
SPLINE
  5
15E
330
1F
100
AcDbEntity
  8
0
  6
Continuous
 62
     7
370
     0
100
AcDbSpline
210
0.0
220
0.0
230
1.0
 70
     8
 71
     3
 72
    10
 73
     6
 74
     0
 42
0.000000001
 43
0.00000001
 40
0.0
 40
0.0
 40
0.0
 40
0.0
 40
0.2498028102649144
 40
0.499885997509294
 40
0.9999999999999999
 40
0.9999999999999999
 40
0.9999999999999999
 40
0.9999999999999999
 10
199.3111702981778
 20
116.2205651744334
 30
0.0
 10
199.3051528192577
 20
116.2039021174444
 30
0.0
 10
199.29311110744
 20
116.1705573009641
 30
0.0
 10
199.2836667916081
 20
116.1002537019668
 30
0.0
 10
199.2822711487909
 20
116.047387552209
 30
0.0
 10
199.2813407527233
 20
116.0121446825829
 30
0.0
  0
LINE
  5
15F
330
1F
100
AcDbEntity
  8
0
  6
Continuous
 62
     7
370
     0
100
AcDbLine
 10
199.2813407588
 20
116.0121446406
 30
0.0
 11
199.2813407588
 21
115.7539601369
 31
0.0
  0
LINE
  5
160
330
1F
100
AcDbEntity
  8
0
  6
Continuous
 62
     7
370
     0
100
AcDbLine
 10
199.2813407588
 20
115.7539601369
 30
0.0
 11
200.4306913906
 21
115.7539601369
 31
0.0
  0
DIMENSION
  5
161
330
1F
100
AcDbEntity
  8
0
  6
Continuous
 62
     7
370
     0
100
AcDbDimension
  2
_D_1
 10
202.1060160774
 20
93.5613848245
 30
0.0
 11
216.4977418121
 21
93.5613848245
 31
0.0
 70
   160
  1
<>
 71
     2
 42
-1.0
  3
SLDDIMSTYLE1
100
AcDbAlignedDimension
 13
197.1060160774
 23
95.660765495
 33
0.0
 14
202.1060160774
 24
95.660765495
 34
0.0
100
AcDbRotatedDimension
  0
MTEXT
  5
176
330
1F
100
AcDbEntity
  8
0
  6
Continuous
 62
     7
370
     0
100
AcDbMText
 10
166.5937569487
 20
130.3381959305
 30
0.0
 40
2.1166666667
 41
0.0
 71
     1
 72
     1
  1
S1
  7
SLDTEXTSTYLE0
 73
     1
 44
1.0
  0
LEADER
  5
178
330
1F
100
AcDbEntity
  8
0
  6
Continuous
 62
     7
370
     0
100
AcDbLeader
  3
SLDDIMSTYLE2
 76
     3
 10
197.1060160774
 20
121.2550782554
 30
0.0
 10
176.3415254237
 20
129.2655367232
 30
0.0
 10
169.9915254237
 20
129.2655367232
 30
0.0
  0
INSERT
  5
17E
102
{ACAD_REACTORS
330
17F
102
}
330
1F
100
AcDbEntity
  8
0
  6
Continuous
 62
     7
370
     0
100
AcDbBlockReference
  2
SW_NOTE_5
 10
219.6129943503
 20
114.6892655367
 30
0.0
  0
LEADER
  5
17F
330
1F
100
AcDbEntity
  8
0
  6
Continuous
 62
     7
370
     0
100
AcDbLeader
  3
SLDDIMSTYLE2
 73
     2
 76
     3
 10
202.1060160774
 20
119.1242669799
 30
0.0
 10
213.2629943503
 20
114.6892655367
 30
0.0
 10
219.6129943503
 20
114.6892655367
 30
0.0
340
17E
  0
LINE
  5
180
330
1F
100
AcDbEntity
  8
0
  6
Continuous
 62
     7
370
     0
100
AcDbLine
 10
251.9024267132
 20
196.4220949625
 30
0.0
 11
251.9024267132
 21
196.3404541513
 31
0.0
  0
LINE
  5
181
330
1F
100
AcDbEntity
  8
0
  6
Continuous
 62
     7
370
     0
100
AcDbLine
 10
260.8105241045
 20
180.9095048954
 30
0.0
 11
260.8812232901
 21
180.8686778553
 31
0.0
  0
LINE
  5
182
330
1F
100
AcDbEntity
  8
0
  6
Continuous
 62
     7
370
     0
100
AcDbLine
 10
256.1595444788
 20
203.1755933332
 30
0.0
 11
254.5331988821
 21
202.2367240046
 31
0.0
  0
LINE
  5
183
330
1F
100
AcDbEntity
  8
0
  6
Continuous
 62
     7
370
     0
100
AcDbLine
 10
267.2321667866
 20
180.2390829002
 30
0.0
 11
268.8585123833
 21
181.1779522288
 31
0.0
  0
LINE
  5
184
330
1F
100
AcDbEntity
  8
0
  6
Continuous
 62
     7
370
     0
100
AcDbLine
 10
271.4892845521
 20
186.9925812709
 30
0.0
 11
271.4892845521
 21
187.0742220821
 31
0.0
  0
LINE
  5
185
330
1F
100
AcDbEntity
  8
0
  6
Continuous
 62
     7
370
     0
100
AcDbLine
 10
262.5811871609
 20
202.505171338
 30
0.0
 11
262.5104879752
 21
202.5459983781
 31
0.0
  0
LWPOLYLINE
  5
186
330
1F
100
AcDbEntity
  8
0
  6
Continuous
 62
     7
370
     0
100
AcDbPolyline
 90
      171
 70
   128
 43
0.0
 10
260.8119721562
 20
180.9086688171
 10
261.1411932192
 20
180.725639911
 10
261.4699646058
 20
180.5569137367
 10
261.7978372539
 20
180.4027207537
 10
262.1243633288
 20
180.2632715713
 10
262.4490968353
 20
180.1387566602
 10
262.7715942264
 20
180.0293460927
 10
263.0914150094
 20
179.9351893106
 10
263.4081223477
 20
179.8564149207
 10
263.7212836571
 20
179.7931305193
 10
264.030471197
 20
179.7454225454
 10
264.3352626543
 20
179.7133561622
 10
264.6352417206
 20
179.6969751686
 10
264.9299986605
 20
179.696301939
 10
265.2191308716
 20
179.7113373931
 10
265.502243434
 20
179.7420609942
 10
265.77894965
 20
179.7884307775
 10
266.0488715722
 20
179.8503834075
 10
266.3116405197
 20
179.9278342644
 10
266.5668975818
 20
180.0206775595
 10
266.814294108
 20
180.1287864802
 10
267.0534921844
 20
180.2520133627
 10
267.2841650952
 20
180.3901898938
 10
267.5059977689
 20
180.543127341
 10
267.7186872089
 20
180.7106168102
 10
267.9219429069
 20
180.8924295309
 10
268.1154872401
 20
181.0883171688
 10
268.2990558502
 20
181.2980121649
 10
268.4723980045
 20
181.5212281012
 10
268.6352769386
 20
181.7576600914
 10
268.7874701794
 20
182.006985198
 10
268.9287698492
 20
182.2688628727
 10
269.0589829497
 20
182.5429354223
 10
269.1779316255
 20
182.8288284966
 10
269.2854534069
 20
183.1261516
 10
269.3814014322
 20
183.434498625
 10
269.4656446479
 20
183.7534484065
 10
269.5380679879
 20
184.0825652976
 10
269.5985725306
 20
184.4213997641
 10
269.6470756341
 20
184.769488999
 10
269.683511049
 20
185.1263575543
 10
269.7078290089
 20
185.4915179903
 10
269.7199962983
 20
185.8644715419
 10
269.7199962983
 20
186.2447087993
 10
269.7078290089
 20
186.6317104043
 10
269.683511049
 20
187.0249477592
 10
269.6470756341
 20
187.423883749
 10
269.5985725306
 20
187.8279734752
 10
269.5380679879
 20
188.2366649998
 10
269.4656446479
 20
188.6494000994
 10
269.3814014322
 20
189.0656150274
 10
269.2854534069
 20
189.4847412843
 10
269.1779316255
 20
189.9062063942
 10
269.0589829497
 20
190.3294346862
 10
268.9287698492
 20
190.7538480816
 10
268.7874701794
 20
191.1788668826
 10
268.6352769386
 20
191.6039105647
 10
268.4723980045
 20
192.0283985693
 10
268.2990558502
 20
192.451751097
 10
268.1154872401
 20
192.873389899
 10
267.9219429069
 20
193.2927390674
 10
267.7186872089
 20
193.7092258218
 10
267.5059977689
 20
194.1222812914
 10
267.2841650952
 20
194.531341292
 10
267.0534921844
 20
194.935847097
 10
266.814294108
 20
195.3352461999
 10
266.5668975818
 20
195.7289930698
 10
266.3116405197
 20
196.1165498957
 10
266.0488715722
 20
196.4973873216
 10
265.77894965
 20
196.8709851694
 10
265.502243434
 20
197.2368331494
 10
265.2191308716
 20
197.5944315573
 10
264.9299986605
 20
197.9432919566
 10
264.6352417206
 20
198.2829378461
 10
264.3352626543
 20
198.6129053102
 10
264.030471197
 20
198.9327436531
 10
263.7212836571
 20
199.2420160141
 10
263.4081223477
 20
199.5402999644
 10
263.0914150094
 20
199.8271880839
 10
262.7715942264
 20
200.102288518
 10
262.4490968353
 20
200.3652255127
 10
262.1243633288
 20
200.6156399275
 10
261.7978372539
 20
200.8531897266
 10
261.4699646058
 20
201.0775504454
 10
261.1411932192
 20
201.2884156342
 10
260.8119721562
 20
201.4854972766
 10
260.4827510932
 20
201.6685261827
 10
260.1539797066
 20
201.837252357
 10
259.8261070585
 20
201.9914453399
 10
259.4995809836
 20
202.1308945223
 10
259.1748474771
 20
202.2554094335
 10
258.852350086
 20
202.3648200009
 10
258.532529303
 20
202.458976783
 10
258.2158219647
 20
202.537751173
 10
257.9026606553
 20
202.6010355743
 10
257.5934731154
 20
202.6487435483
 10
257.2886816581
 20
202.6808099315
 10
256.9887025918
 20
202.6971909251
 10
256.6939456519
 20
202.6978641546
 10
256.4048134408
 20
202.6828287005
 10
256.1217008784
 20
202.6521050995
 10
255.8449946624
 20
202.6057353162
 10
255.5750727402
 20
202.5437826862
 10
255.3123037927
 20
202.4663318293
 10
255.0570467306
 20
202.3734885341
 10
254.8096502044
 20
202.2653796134
 10
254.570452128
 20
202.142152731
 10
254.3397792172
 20
202.0039761999
 10
254.1179465434
 20
201.8510387527
 10
253.9052571035
 20
201.6835492835
 10
253.7020014055
 20
201.5017365628
 10
253.5084570723
 20
201.3058489249
 10
253.3248884622
 20
201.0961539287
 10
253.1515463079
 20
200.8729379925
 10
252.9886673738
 20
200.6365060023
 10
252.836474133
 20
200.3871808957
 10
252.6951744632
 20
200.1253032209
 10
252.5649613627
 20
199.8512306713
 10
252.4460126869
 20
199.565337597
 10
252.3384909054
 20
199.2680144936
 10
252.2425428802
 20
198.9596674687
 10
252.1582996645
 20
198.6407176872
 10
252.0858763245
 20
198.3116007961
 10
252.0253717818
 20
197.9727663295
 10
251.9768686783
 20
197.6246770946
 10
251.9404332634
 20
197.2678085394
 10
251.9161153035
 20
196.9026481034
 10
251.903948014
 20
196.5296945518
 10
251.903948014
 20
196.1494572943
 10
251.9161153035
 20
195.7624556893
 10
251.9404332634
 20
195.3692183345
 10
251.9768686783
 20
194.9702823446
 10
252.0253717818
 20
194.5661926185
 10
252.0858763245
 20
194.1575010938
 10
252.1582996645
 20
193.7447659943
 10
252.2425428802
 20
193.3285510663
 10
252.3384909054
 20
192.9094248093
 10
252.4460126869
 20
192.4879596995
 10
252.5649613627
 20
192.0647314074
 10
252.6951744632
 20
191.6403180121
 10
252.836474133
 20
191.2152992111
 10
252.9886673738
 20
190.790255529
 10
253.1515463079
 20
190.3657675243
 10
253.3248884622
 20
189.9424149967
 10
253.5084570723
 20
189.5207761947
 10
253.7020014055
 20
189.1014270262
 10
253.9052571035
 20
188.6849402718
 10
254.1179465434
 20
188.2718848022
 10
254.3397792172
 20
187.8628248016
 10
254.570452128
 20
187.4583189967
 10
254.8096502044
 20
187.0589198937
 10
255.0570467306
 20
186.6651730239
 10
255.3123037927
 20
186.277616198
 10
255.5750727402
 20
185.8967787721
 10
255.8449946624
 20
185.5231809242
 10
256.1217008784
 20
185.1573329442
 10
256.4048134408
 20
184.7997345363
 10
256.6939456519
 20
184.450874137
 10
256.9887025918
 20
184.1112282476
 10
257.2886816581
 20
183.7812607835
 10
257.5934731154
 20
183.4614224406
 10
257.9026606553
 20
183.1521500796
 10
258.2158219647
 20
182.8538661293
 10
258.532529303
 20
182.5669780097
 10
258.852350086
 20
182.2918775756
 10
259.1748474771
 20
182.028940581
 10
259.4995809836
 20
181.7785261661
 10
259.8261070585
 20
181.5409763671
 10
260.1539797066
 20
181.3166156483
 10
260.4827510932
 20
181.1057504594
 10
260.8119721562
 20
180.9086688171
  0
LWPOLYLINE
  5
187
330
1F
100
AcDbEntity
  8
0
  6
Continuous
 62
     7
370
     0
100
AcDbPolyline
 90
      130
 70
   128
 43
0.0
 10
251.9024267132
 20
196.4220949625
 10
251.9039600879
 20
196.6128372709
 10
251.9162239431
 20
196.9887507713
 10
251.9407349027
 20
197.356809306
 10
251.9774594875
 20
197.7165101514
 10
252.0263475363
 20
198.0673619992
 10
252.0873322738
 20
198.4088856282
 10
252.1603304022
 20
198.7406145581
 10
252.2452422148
 20
199.0620956871
 10
252.3419517324
 20
199.3728899107
 10
252.4503268613
 20
199.6725727213
 10
252.5702195742
 20
199.9607347882
 10
252.701466112
 20
200.2369825168
 10
252.8438872078
 20
200.5009385858
 10
252.9972883314
 20
200.752242463
 10
253.1614599554
 20
200.9905508976
 10
253.3361778412
 20
201.2155383889
 10
253.521203345
 20
201.4268976311
 10
253.7162837443
 20
201.6243399328
 10
253.9211525828
 20
201.8075956116
 10
254.1355300342
 20
201.9764143623
 10
254.3591232847
 20
202.1305655988
 10
254.5916269329
 20
202.269838769
 10
254.8327234067
 20
202.3940436426
 10
255.0820833974
 20
202.5030105706
 10
255.3393663092
 20
202.5965907173
 10
255.6042207245
 20
202.6746562635
 10
255.8762848842
 20
202.737100581
 10
256.1551871813
 20
202.7838383785
 10
256.4405466688
 20
202.8148058177
 10
256.73197358
 20
202.8299606007
 10
257.0290698607
 20
202.8292820281
 10
257.3314297132
 20
202.8127710266
 10
257.6386401503
 20
202.7804501483
 10
257.9502815596
 20
202.7323635397
 10
258.2659282762
 20
202.6685768811
 10
258.5851491648
 20
202.5891772977
 10
258.907508208
 20
202.4942732395
 10
259.2325651022
 20
202.3839943342
 10
259.5598758587
 20
202.2584912095
 10
259.8889934104
 20
202.1179352875
 10
260.2194682224
 20
201.9625185508
 10
260.5508489057
 20
201.7924532798
 10
260.8826828343
 20
201.6079717634
 10
261.2145167629
 20
201.409325981
 10
261.5458974462
 20
201.1967872589
 10
261.8763722582
 20
200.9706458995
 10
262.2054898099
 20
200.7312107845
 10
262.5328005664
 20
200.4788089537
 10
262.8578574606
 20
200.2137851575
 10
263.1802165038
 20
199.9365013866
 10
263.4994373924
 20
199.6473363772
 10
263.8150841091
 20
199.346685094
 10
264.1267255183
 20
199.0349581905
 10
264.4339359554
 20
198.712581448
 10
264.7362958079
 20
198.3799951945
 10
265.0333920887
 20
198.0376537028
 10
265.3248189998
 20
197.6860245701
 10
265.6101784873
 20
197.3255880797
 10
265.8890807844
 20
196.9568365442
 10
266.1611449441
 20
196.5802736341
 10
266.4259993595
 20
196.196413689
 10
266.6832822712
 20
195.8057810152
 10
266.9326422619
 20
195.4089091702
 10
267.1737387357
 20
195.0063402331
 10
267.4062423839
 20
194.5986240647
 10
267.6298356345
 20
194.1863175561
 10
267.8442130859
 20
193.7699838685
 10
268.0490819243
 20
193.3501916637
 10
268.2441623236
 20
192.9275143272
 10
268.4291878274
 20
192.5025291855
 10
268.6039057132
 20
192.0758167172
 10
268.7680773372
 20
191.6479597601
 10
268.9214784609
 20
191.2195427155
 10
269.0638995566
 20
190.7911507494
 10
269.1951460945
 20
190.3633689937
 10
269.3150388073
 20
189.936781747
 10
269.4234139363
 20
189.5119716759
 10
269.5201234538
 20
189.0895190201
 10
269.6050352665
 20
188.670000799
 10
269.6780333948
 20
188.2539900241
 10
269.7390181323
 20
187.8420549159
 10
269.7879061811
 20
187.4347581284
 10
269.8246307659
 20
187.0326559799
 10
269.8491417255
 20
186.6362976937
 10
269.8614055808
 20
186.2462246474
 10
269.8614055808
 20
185.8629696339
 10
269.8491417255
 20
185.4870561335
 10
269.8246307659
 20
185.1189975988
 10
269.7879061811
 20
184.7592967535
 10
269.7390181323
 20
184.4084449056
 10
269.6780333948
 20
184.0669212766
 10
269.6050352665
 20
183.7351923467
 10
269.5201234538
 20
183.4137112177
 10
269.4234139363
 20
183.1029169941
 10
269.3150388073
 20
182.8032341835
 10
269.1951460945
 20
182.5150721166
 10
269.0638995566
 20
182.2388243881
 10
268.9214784609
 20
181.974868319
 10
268.7680773372
 20
181.7235644418
 10
268.6039057132
 20
181.4852560072
 10
268.4291878274
 20
181.2602685159
 10
268.2441623236
 20
181.0489092737
 10
268.0490819243
 20
180.8514669721
 10
267.8442130859
 20
180.6682112933
 10
267.6298356345
 20
180.4993925426
 10
267.4062423839
 20
180.3452413061
 10
267.1737387357
 20
180.2059681358
 10
266.9326422619
 20
180.0817632623
 10
266.6832822712
 20
179.9727963343
 10
266.4259993595
 20
179.8792161875
 10
266.1611449441
 20
179.8011506413
 10
265.8890807844
 20
179.7387063238
 10
265.6101784873
 20
179.6919685263
 10
265.3248189998
 20
179.6610010872
 10
265.0333920887
 20
179.6458463041
 10
264.7362958079
 20
179.6465248767
 10
264.4339359554
 20
179.6630358782
 10
264.1267255183
 20
179.6953567565
 10
263.8150841091
 20
179.7434433652
 10
263.4994373924
 20
179.8072300237
 10
263.1802165038
 20
179.8866296072
 10
262.8578574606
 20
179.9815336653
 10
262.5328005664
 20
180.0918125706
 10
262.2054898099
 20
180.2173156953
 10
261.8763722582
 20
180.3578716173
 10
261.5458974462
 20
180.5132883541
 10
261.2145167629
 20
180.683353625
 10
260.8826828343
 20
180.8678351415
 10
260.8826828343
 20
180.8678351415
  0
SPLINE
  5
188
330
1F
100
AcDbEntity
  8
0
  6
Continuous
 62
     7
370
     0
100
AcDbSpline
210
0.0
220
0.0
230
1.0
 70
     8
 71
     3
 72
    14
 73
    10
 74
     0
 42
0.000000001
 43
0.00000001
 40
0.0
 40
0.0
 40
0.0
 40
0.0
 40
0.0626203335203488
 40
0.125196523725376
 40
0.2501754384042169
 40
0.4995238900043193
 40
0.7494969757171994
 40
0.8747361469557821
 40
1.0
 40
1.0
 40
1.0
 40
1.0
 10
270.3599438278321
 20
184.6305118411643
 30
0.0
 10
270.3632296260088
 20
184.637826321053
 30
0.0
 10
270.3697989060852
 20
184.6524501245915
 30
0.0
 10
270.3863993719083
 20
184.6821116862415
 30
0.0
 10
270.42173388135
 20
184.7329421527905
 30
0.0
 10
270.4825185022577
 20
184.7974577795579
 30
0.0
 10
270.5459294308681
 20
184.8485611085996
 30
0.0
 10
270.5965270545149
 20
184.8827495828968
 30
0.0
 10
270.6215919650531
 20
184.8976130152564
 30
0.0
 10
270.6341256551322
 20
184.9050454636756
 30
0.0
  0
SPLINE
  5
189
330
1F
100
AcDbEntity
  8
0
  6
Continuous
 62
     7
370
     0
100
AcDbSpline
210
0.0
220
0.0
230
1.0
 70
     8
 71
     3
 72
    11
 73
     7
 74
     0
 42
0.000000001
 43
0.00000001
 40
0.0
 40
0.0
 40
0.0
 40
0.0
 40
0.4000017235834427
 40
0.6400060127062173
 40
0.8200150216781176
 40
1.0
 40
1.0
 40
1.0
 40
1.0
 10
270.3344464328287
 20
184.5381992285774
 30
0.0
 10
270.3367674239559
 20
184.5499431440941
 30
0.0
 10
270.3404810286462
 20
184.5687335044857
 30
0.0
 10
270.3472013887974
 20
184.5939492264638
 30
0.0
 10
270.3529017310703
 20
184.6128161397038
 30
0.0
 10
270.3575965667096
 20
184.6246135365143
 30
0.0
 10
270.3599438278321
 20
184.6305118411643
 30
0.0
  0
ARC
  5
18A
330
1F
100
AcDbEntity
  8
0
  6
Continuous
 62
     7
370
     0
100
AcDbCircle
 10
261.8303760799
 20
186.1228152973
 30
0.0
 40
8.650446269005114
100
AcDbArc
 50
348.418940838
 51
349.4447750307
  0
LINE
  5
18B
330
1F
100
AcDbEntity
  8
0
  6
Continuous
 62
     7
370
     0
100
AcDbLine
 10
270.8350437812
 20
184.692355938
 30
0.0
 11
270.3047136953
 21
184.386202896
 31
0.0
  0
ARC
  5
18C
330
1F
100
AcDbEntity
  8
0
  6
Continuous
 62
     7
370
     0
100
AcDbCircle
 10
262.3551240659
 20
186.4300768144
 30
0.0
 40
8.656137257634612
100
AcDbArc
 50
348.4191706586
 51
349.4918013463
  0
SPLINE
  5
18D
330
1F
100
AcDbEntity
  8
0
  6
Continuous
 62
     7
370
     0
100
AcDbSpline
210
0.0
220
0.0
230
1.0
 70
     8
 71
     3
 72
    15
 73
    11
 74
     0
 42
0.000000001
 43
0.00000001
 40
0.0
 40
0.0
 40
0.0
 40
0.0
 40
0.1002492383821552
 40
0.2004810886521584
 40
0.4005534076458178
 40
0.5506171364805615
 40
0.7000987602887071
 40
0.8496801260079839
 40
0.924824378333488
 40
1.0
 40
1.0
 40
1.0
 40
1.0
 10
270.6341256551322
 20
184.9050454636756
 30
0.0
 10
270.6468293797667
 20
184.912171327024
 30
0.0
 10
270.6722346255896
 20
184.9264218177482
 30
0.0
 10
270.7219444473608
 20
184.9499122417087
 30
0.0
 10
270.7755020981775
 20
184.9673739940302
 30
0.0
 10
270.8273876165347
 20
184.9700105956919
 30
0.0
 10
270.8630873400958
 20
184.9530817699682
 30
0.0
 10
270.8718810465457
 20
184.9156911033358
 30
0.0
 10
270.8708441306942
 20
184.8804085099753
 30
0.0
 10
270.8676733936051
 20
184.8610729901984
 30
0.0
 10
270.8660876942197
 20
184.8514032128038
 30
0.0
  0
ARC
  5
18E
330
1F
100
AcDbEntity
  8
0
  6
Continuous
 62
     7
370
     0
100
AcDbCircle
 10
260.4667140059
 20
186.6369836138
 30
0.0
 40
10.4996167345534
100
AcDbArc
 50
354.9649374631
 51
356.2942121719
  0
LINE
  5
18F
330
1F
100
AcDbEntity
  8
0
  6
Continuous
 62
     7
370
     0
100
AcDbLine
 10
270.4574711152
 20
185.4451121097
 30
0.0
 11
270.9258145676
 21
185.7154810298
 31
0.0
  0
ARC
  5
190
330
1F
100
AcDbEntity
  8
0
  6
Continuous
 62
     7
370
     0
100
AcDbCircle
 10
260.2554510719
 20
186.3447058757
 30
0.0
 40
10.24160543599404
100
AcDbArc
 50
354.6229298727
 51
354.9608060605
  0
LINE
  5
191
330
1F
100
AcDbEntity
  8
0
  6
Continuous
 62
     7
370
     0
100
AcDbLine
 10
270.9823188924
 20
185.6911192999
 30
0.0
 11
270.4519888065
 21
185.384966258
 31
0.0
  0
ARC
  5
192
330
1F
100
AcDbEntity
  8
0
  6
Continuous
 62
     7
370
     0
100
AcDbCircle
 10
260.5805560789
 20
186.6689555745
 30
0.0
 40
10.4476233377774
100
AcDbArc
 50
354.6295908248
 51
356.2966943383
  0
LINE
  5
193
330
1F
100
AcDbEntity
  8
0
  6
Continuous
 62
     7
370
     0
100
AcDbLine
 10
270.9443770324
 20
185.9583606882
 30
0.0
 11
271.0063636658
 21
185.99414481
 31
0.0
  0
ARC
  5
194
330
1F
100
AcDbEntity
  8
0
  6
Continuous
 62
     7
370
     0
100
AcDbCircle
 10
258.8196870528
 20
186.6514744183
 30
0.0
 40
12.0791177019508
100
AcDbArc
 50
0.1162804735
 51
0.4567920853
  0
LINE
  5
195
330
1F
100
AcDbEntity
  8
0
  6
Continuous
 62
     7
370
     0
100
AcDbLine
 10
270.836434242
 20
186.7119903549
 30
0.0
 11
270.8984208754
 21
186.7477744767
 31
0.0
  0
ARC
  5
196
330
1F
100
AcDbEntity
  8
0
  6
Continuous
 62
     7
370
     0
100
AcDbCircle
 10
258.7577004058
 20
186.6156902965
 30
0.0
 40
12.07911771558592
100
AcDbArc
 50
0.1162804737
 51
0.4567920851
  0
LINE
  5
197
330
1F
100
AcDbEntity
  8
0
  6
Continuous
 62
     7
370
     0
100
AcDbLine
 10
270.4924230601
 20
186.4414038961
 30
0.0
 11
270.8367932458
 21
186.6402045727
 31
0.0
  0
ARC
  5
198
330
1F
100
AcDbEntity
  8
0
  6
Continuous
 62
     7
370
     0
100
AcDbCircle
 10
258.5274296513
 20
186.4171389056
 30
0.0
 40
11.96501801350936
100
AcDbArc
 50
359.8288500503
 51
0.1161956045
  0
SPLINE
  5
199
330
1F
100
AcDbEntity
  8
0
  6
Continuous
 62
     7
370
     0
100
AcDbSpline
210
0.0
220
0.0
230
1.0
 70
     8
 71
     3
 72
     8
 73
     4
 74
     0
 42
0.000000001
 43
0.00000001
 40
0.0
 40
0.0
 40
0.0
 40
0.0
 40
1.0
 40
1.0
 40
1.0
 40
1.0
 10
270.8341221526959
 20
186.3634058235005
 30
0.0
 10
270.7208762742973
 20
186.3690068047686
 30
0.0
 10
270.6069670495498
 20
186.3750095006141
 30
0.0
 10
270.4923942832202
 20
186.3813978928295
 30
0.0
  0
LINE
  5
19A
330
1F
100
AcDbEntity
  8
0
  6
Continuous
 62
     7
370
     0
100
AcDbLine
 10
270.8961087861
 20
186.3991899453
 30
0.0
 11
270.8341221527
 21
186.3634058235
 31
0.0
  0
ARC
  5
19B
330
1F
100
AcDbEntity
  8
0
  6
Continuous
 62
     7
370
     0
100
AcDbCircle
 10
259.1771561916
 20
186.6504258054
 30
0.0
 40
11.72164533541319
100
AcDbArc
 50
358.7718569869
 51
359.814056906
  0
LINE
  5
19C
330
1F
100
AcDbEntity
  8
0
  6
Continuous
 62
     7
370
     0
100
AcDbLine
 10
271.0296004709
 20
186.6879296485
 30
0.0
 11
270.8987398003
 21
186.6123853914
 31
0.0
  0
ARC
  5
19D
330
1F
100
AcDbEntity
  8
0
  6
Continuous
 62
     7
370
     0
100
AcDbCircle
 10
259.0677683738
 20
186.7272689153
 30
0.0
 40
11.96189678504293
100
AcDbArc
 50
359.8115701829
 51
0.1162213526
  0
LINE
  5
19E
330
1F
100
AcDbEntity
  8
0
  6
Continuous
 62
     7
370
     0
100
AcDbLine
 10
270.8987798792
 20
186.6759886945
 30
0.0
 11
271.0296405497
 21
186.7515329516
 31
0.0
  0
SPLINE
  5
19F
330
1F
100
AcDbEntity
  8
0
  6
Continuous
 62
     7
370
     0
100
AcDbSpline
210
0.0
220
0.0
230
1.0
 70
     8
 71
     3
 72
    12
 73
     8
 74
     0
 42
0.000000001
 43
0.00000001
 40
0.0
 40
0.0
 40
0.0
 40
0.0
 40
0.124992937532014
 40
0.249988352820378
 40
0.499883447594993
 40
0.7499169450320808
 40
1.0
 40
1.0
 40
1.0
 40
1.0
 10
270.5199822219234
 20
187.2902819915505
 30
0.0
 10
270.5276947480629
 20
187.3004900921172
 30
0.0
 10
270.5431199532287
 20
187.3209064956076
 30
0.0
 10
270.5771947079547
 20
187.3563669422318
 30
0.0
 10
270.6219380401013
 20
187.3944820341112
 30
0.0
 10
270.6769864720673
 20
187.4338297661634
 30
0.0
 10
270.7141585837398
 20
187.4559345573368
 30
0.0
 10
270.732746481305
 20
187.4669880481271
 30
0.0
  0
SPLINE
  5
1A0
330
1F
100
AcDbEntity
  8
0
  6
Continuous
 62
     7
370
     0
100
AcDbSpline
210
0.0
220
0.0
230
1.0
 70
     8
 71
     3
 72
    12
 73
     8
 74
     0
 42
0.000000001
 43
0.00000001
 40
0.0
 40
0.0
 40
0.0
 40
0.0
 40
0.1252396549768587
 40
0.2504179599818341
 40
0.5000538618607597
 40
0.7498676072259411
 40
1.0
 40
1.0
 40
1.0
 40
1.0
 10
270.4712531907388
 20
187.1413992817144
 30
0.0
 10
270.4710573216795
 20
187.1473419717421
 30
0.0
 10
270.4706656795095
 20
187.1592244407078
 30
0.0
 10
270.4729708345001
 20
187.184407608059
 30
0.0
 10
270.4804513880863
 20
187.2172282912865
 30
0.0
 10
270.4973251073154
 20
187.2558993920447
 30
0.0
 10
270.5124266419985
 20
187.2788162562578
 30
0.0
 10
270.5199822219234
 20
187.2902819915505
 30
0.0
  0
SPLINE
  5
1A1
330
1F
100
AcDbEntity
  8
0
  6
Continuous
 62
     7
370
     0
100
AcDbSpline
210
0.0
220
0.0
230
1.0
 70
     8
 71
     3
 72
    15
 73
    11
 74
     0
 42
0.000000001
 43
0.00000001
 40
0.0
 40
0.0
 40
0.0
 40
0.0
 40
0.1252511664806186
 40
0.250493711606959
 40
0.5005606681270495
 40
0.6348746860440105
 40
0.7504894127989676
 40
0.8748893802182292
 40
0.9374179621242281
 40
1.0
 40
1.0
 40
1.0
 40
1.0
 10
270.7521249765654
 20
187.1304971771185
 30
0.0
 10
270.737871313643
 20
187.122457936704
 30
0.0
 10
270.7093649689137
 20
187.1063800092362
 30
0.0
 10
270.6524063696442
 20
187.0790431073002
 30
0.0
 10
270.5943123001309
 20
187.057821663115
 30
0.0
 10
270.5403893347197
 20
187.0537950621866
 30
0.0
 10
270.5040671214241
 20
187.0638197094199
 30
0.0
 10
270.4829902812892
 20
187.0880287044135
 30
0.0
 10
270.4736109504062
 20
187.1164546348721
 30
0.0
 10
270.4720393344625
 20
187.1330820313063
 30
0.0
 10
270.4712531907388
 20
187.1413992817144
 30
0.0
  0
SPLINE
  5
1A2
330
1F
100
AcDbEntity
  8
0
  6
Continuous
 62
     7
370
     0
100
AcDbSpline
210
0.0
220
0.0
230
1.0
 70
     8
 71
     3
 72
    16
 73
    12
 74
     0
 42
0.000000001
 43
0.00000001
 40
0.0
 40
0.0
 40
0.0
 40
0.0
 40
0.062547979028406
 40
0.1250348464929097
 40
0.2495127039548125
 40
0.3209827069246105
 40
0.3924643609723396
 40
0.4996337873185574
 40
0.749601422808045
 40
0.8747936019449145
 40
1.0
 40
1.0
 40
1.0
 40
1.0
 10
271.0154023964637
 20
187.4547349039096
 30
0.0
 10
271.0155609535012
 20
187.4460748652555
 30
0.0
 10
271.0158779126604
 20
187.4287632491082
 30
0.0
 10
271.0092830444984
 20
187.3914439805227
 30
0.0
 10
270.9941725353182
 20
187.3520891541513
 30
0.0
 10
270.9722914934206
 20
187.3152144678867
 30
0.0
 10
270.9494634673891
 20
187.2828540377266
 30
0.0
 10
270.9051598471231
 20
187.2347778949289
 30
0.0
 10
270.8510895409577
 20
187.1931014923094
 30
0.0
 10
270.7947208186844
 20
187.1556433511259
 30
0.0
 10
270.7663241281084
 20
187.1388795524325
 30
0.0
 10
270.7521249765654
 20
187.1304971771185
 30
0.0
  0
SPLINE
  5
1A3
330
1F
100
AcDbEntity
  8
0
  6
Continuous
 62
     7
370
     0
100
AcDbSpline
210
0.0
220
0.0
230
1.0
 70
     8
 71
     3
 72
    14
 73
    10
 74
     0
 42
0.000000001
 43
0.00000001
 40
0.0
 40
0.0
 40
0.0
 40
0.0
 40
0.1254827438759681
 40
0.2509572551369186
 40
0.5014869882464025
 40
0.7500309116048791
 40
0.8746627465287558
 40
0.9373002352230878
 40
1.0
 40
1.0
 40
1.0
 40
1.0
 10
270.732746481305
 20
187.4669880481271
 30
0.0
 10
270.7469841956354
 20
187.4750099118847
 30
0.0
 10
270.7754586901946
 20
187.4910531131052
 30
0.0
 10
270.832589710367
 20
187.5182601343536
 30
0.0
 10
270.9031983537621
 20
187.5436713100891
 30
0.0
 10
270.9724936722653
 20
187.5431071866425
 30
0.0
 10
271.0034585270588
 20
187.5081632873946
 30
0.0
 10
271.0130508647109
 20
187.479685907449
 30
0.0
 10
271.0146182929444
 20
187.4630546596015
 30
0.0
 10
271.0154023964637
 20
187.4547349039096
 30
0.0
  0
SPLINE
  5
1A4
330
1F
100
AcDbEntity
  8
0
  6
Continuous
 62
     7
370
     0
100
AcDbSpline
210
0.0
220
0.0
230
1.0
 70
     8
 71
     3
 72
    11
 73
     7
 74
     0
 42
0.000000001
 43
0.00000001
 40
0.0
 40
0.0
 40
0.0
 40
0.0
 40
0.4999666558526491
 40
0.7499522648531692
 40
0.8655687366695679
 40
0.9999999999999999
 40
0.9999999999999999
 40
0.9999999999999999
 40
0.9999999999999999
 10
270.9199929446035
 20
188.4523148081701
 30
0.0
 10
270.9459043418062
 20
188.4354369445233
 30
0.0
 10
270.9847715558298
 20
188.4101200720488
 30
0.0
 10
271.0348093173563
 20
188.3933879693549
 30
0.0
 10
271.0651740056582
 20
188.3884669140218
 30
0.0
 10
271.0807984340951
 20
188.3877404628901
 30
0.0
 10
271.0891984768003
 20
188.3873499064897
 30
0.0
  0
LINE
  5
1A5
330
1F
100
AcDbEntity
  8
0
  6
Continuous
 62
     7
370
     0
100
AcDbLine
 10
270.892012867
 20
188.4361622532
 30
0.0
 11
270.9199929446
 21
188.4523148082
 31
0.0
  0
SPLINE
  5
1A6
330
1F
100
AcDbEntity
  8
0
  6
Continuous
 62
     7
370
     0
100
AcDbSpline
210
0.0
220
0.0
230
1.0
 70
     8
 71
     3
 72
    10
 73
     6
 74
     0
 42
0.000000001
 43
0.00000001
 40
0.0
 40
0.0
 40
0.0
 40
0.0
 40
0.2428811558034017
 40
0.4999804408039869
 40
1.0
 40
1.0
 40
1.0
 40
1.0
 10
270.9808022175284
 20
188.3394536963172
 30
0.0
 10
270.972484004984
 20
188.3453688029876
 30
0.0
 10
270.9553606363106
 20
188.3575452834176
 30
0.0
 10
270.9249140505413
 20
188.3888248014339
 30
0.0
 10
270.9050991232643
 20
188.4173340544089
 30
0.0
 10
270.89201286702
 20
188.436162253198
 30
0.0
  0
LINE
  5
1A7
330
1F
100
AcDbEntity
  8
0
  6
Continuous
 62
     7
370
     0
100
AcDbLine
 10
270.4454141945
 20
188.0303807694
 30
0.0
 11
270.9808022175
 21
188.3394536963
 31
0.0
  0
ARC
  5
1A8
330
1F
100
AcDbEntity
  8
0
  6
Continuous
 62
     7
370
     0
100
AcDbCircle
 10
255.9030904841
 20
186.2850447684
 30
0.0
 40
14.64668483501948
100
AcDbArc
 50
6.6664916727
 51
6.8437722044
  0
LINE
  5
1A9
330
1F
100
AcDbEntity
  8
0
  6
Continuous
 62
     7
370
     0
100
AcDbLine
 10
270.9861328922
 20
188.2944495883
 30
0.0
 11
270.4507448692
 21
187.9853766615
 31
0.0
  0
SPLINE
  5
1AA
330
1F
100
AcDbEntity
  8
0
  6
Continuous
 62
     7
370
     0
100
AcDbSpline
210
0.0
220
0.0
230
1.0
 70
     8
 71
     3
 72
    11
 73
     7
 74
     0
 42
0.000000001
 43
0.00000001
 40
0.0
 40
0.0
 40
0.0
 40
0.0
 40
0.2843783846391184
 40
0.5000223467489632
 40
0.6940663936897697
 40
1.0
 40
1.0
 40
1.0
 40
1.0
 10
270.9305972722461
 20
188.1162382406454
 30
0.0
 10
270.9347439735069
 20
188.1332770677445
 30
0.0
 10
270.9420351158993
 20
188.1632364274292
 30
0.0
 10
270.9531967111457
 20
188.2048757397637
 30
0.0
 10
270.9680873719743
 20
188.2472183115906
 30
0.0
 10
270.9792825957129
 20
188.2765200276548
 30
0.0
 10
270.9861328922202
 20
188.2944495883228
 30
0.0
  0
LINE
  5
1AB
330
1F
100
AcDbEntity
  8
0
  6
Continuous
 62
     7
370
     0
100
AcDbLine
 10
270.9582545028
 20
188.13220442
 30
0.0
 11
270.9305972722
 21
188.1162382406
 31
0.0
  0
SPLINE
  5
1AC
330
1F
100
AcDbEntity
  8
0
  6
Continuous
 62
     7
370
     0
100
AcDbSpline
210
0.0
220
0.0
230
1.0
 70
     8
 71
     3
 72
    11
 73
     7
 74
     0
 42
0.000000001
 43
0.00000001
 40
0.0
 40
0.0
 40
0.0
 40
0.0
 40
0.1428746598486543
 40
0.2857531594868727
 40
0.500033204824423
 40
1.0
 40
1.0
 40
1.0
 40
1.0
 10
271.091634855505
 20
188.3667624391249
 30
0.0
 10
271.0838636416876
 20
188.3570556015642
 30
0.0
 10
271.0683210051996
 20
188.3376416655693
 30
0.0
 10
271.0436598484507
 20
188.3003302230582
 30
0.0
 10
271.004418239614
 20
188.2334407358128
 30
0.0
 10
270.9772629662663
 20
188.1738896678614
 30
0.0
 10
270.9582545027805
 20
188.1322044199833
 30
0.0
  0
ARC
  5
1AD
330
1F
100
AcDbEntity
  8
0
  6
Continuous
 62
     7
370
     0
100
AcDbCircle
 10
256.5477438082
 20
186.6560354259
 30
0.0
 40
14.64415766471904
100
AcDbArc
 50
6.7085972877
 51
6.7897085665
  0
LWPOLYLINE
  5
1AE
330
1F
100
AcDbEntity
  8
0
  6
Continuous
 62
     7
370
     0
100
AcDbPolyline
 90
       87
 70
   128
 43
0.0
 10
268.8585123833
 20
181.1779522288
 10
269.0325879807
 20
181.2841106347
 10
269.2561812312
 20
181.4382618712
 10
269.4705586826
 20
181.6070806219
 10
269.675427521
 20
181.7903363007
 10
269.8705079204
 20
181.9877786023
 10
270.0555334242
 20
182.1991378445
 10
270.2302513099
 20
182.4241253358
 10
270.3944229339
 20
182.6624337704
 10
270.5478240576
 20
182.9137376476
 10
270.6902451534
 20
183.1776937166
 10
270.8214916912
 20
183.4539414452
 10
270.9413844041
 20
183.7421035121
 10
271.049759533
 20
184.0417863227
 10
271.1464690505
 20
184.3525805463
 10
271.2313808632
 20
184.6740616753
 10
271.3043789916
 20
185.0057906052
 10
271.3653637291
 20
185.3473142342
 10
271.4142517778
 20
185.6981660821
 10
271.4509763627
 20
186.0578669274
 10
271.4754873222
 20
186.4259254621
 10
271.4877511775
 20
186.8018389625
 10
271.4877511775
 20
187.185093976
 10
271.4754873222
 20
187.5751670223
 10
271.4509763627
 20
187.9715253085
 10
271.4142517778
 20
188.373627457
 10
271.3653637291
 20
188.7809242445
 10
271.3043789916
 20
189.1928593527
 10
271.2313808632
 20
189.6088701276
 10
271.1464690505
 20
190.0283883487
 10
271.049759533
 20
190.4508410045
 10
270.9413844041
 20
190.8756510756
 10
270.8214916912
 20
191.3022383223
 10
270.6902451534
 20
191.730020078
 10
270.5478240576
 20
192.1584120441
 10
270.3944229339
 20
192.5868290887
 10
270.2302513099
 20
193.0146860458
 10
270.0555334242
 20
193.4413985141
 10
269.8705079204
 20
193.8663836558
 10
269.675427521
 20
194.2890609922
 10
269.4705586826
 20
194.7088531971
 10
269.2561812312
 20
195.1251868847
 10
269.0325879807
 20
195.5374933933
 10
268.8000843325
 20
195.9452095617
 10
268.5589878586
 20
196.3477784988
 10
268.309627868
 20
196.7446503438
 10
268.0523449562
 20
197.1352830175
 10
267.7874905408
 20
197.5191429627
 10
267.5154263811
 20
197.8957058728
 10
267.236524084
 20
198.2644574082
 10
266.9511645966
 20
198.6248938987
 10
266.6597376854
 20
198.9765230314
 10
266.3626414046
 20
199.3188645231
 10
266.0602815521
 20
199.6514507766
 10
265.753071115
 20
199.9738275191
 10
265.4414297058
 20
200.2855544226
 10
265.1257829892
 20
200.5862057058
 10
264.8065621006
 20
200.8753707152
 10
264.4842030573
 20
201.1526544861
 10
264.1591461632
 20
201.4176782823
 10
263.8318354066
 20
201.6700801131
 10
263.5027178549
 20
201.909515228
 10
263.172243043
 20
202.1356565875
 10
262.8408623596
 20
202.3481953096
 10
262.509028431
 20
202.546841092
 10
262.1771945025
 20
202.7313226084
 10
261.8458138191
 20
202.9013878794
 10
261.5153390072
 20
203.0568046161
 10
261.1862214554
 20
203.1973605381
 10
260.8589106989
 20
203.3228636628
 10
260.5338538047
 20
203.4331425681
 10
260.2114947615
 20
203.5280466263
 10
259.8922738729
 20
203.6074462097
 10
259.5766271563
 20
203.6712328683
 10
259.2649857471
 20
203.7193194769
 10
258.95777531
 20
203.7516403552
 10
258.6554154574
 20
203.7681513567
 10
258.3583191767
 20
203.7688299293
 10
258.0668922655
 20
203.7536751463
 10
257.781532778
 20
203.7227077071
 10
257.502630481
 20
203.6759699096
 10
257.2305663213
 20
203.6135255921
 10
256.9657119059
 20
203.5354600459
 10
256.7084289941
 20
203.4418798992
 10
256.4590690034
 20
203.3329129712
 10
256.2179725296
 20
203.2087080976
 10
256.1595444788
 20
203.1755933332
  0
ARC
  5
1AF
330
1F
100
AcDbEntity
  8
0
  6
Continuous
 62
     7
370
     0
100
AcDbCircle
 10
256.960771413
 20
186.5969027323
 30
0.0
 40
14.00979560258446
100
AcDbArc
 50
4.6864814892
 51
5.7832309739
  0
LINE
  5
1B0
330
1F
100
AcDbEntity
  8
0
  6
Continuous
 62
     7
370
     0
100
AcDbLine
 10
270.4553844993
 20
187.4711811467
 30
0.0
 11
270.9237279518
 21
187.7415500669
 31
0.0
  0
ARC
  5
1B1
330
1F
100
AcDbEntity
  8
0
  6
Continuous
 62
     7
370
     0
100
AcDbCircle
 10
256.7742110188
 20
186.3503028373
 30
0.0
 40
13.72701263889669
100
AcDbArc
 50
4.4057570368
 51
4.6836977356
  0
LINE
  5
1B2
330
1F
100
AcDbEntity
  8
0
  6
Continuous
 62
     7
370
     0
100
AcDbLine
 10
270.9909909501
 20
187.7109541574
 30
0.0
 11
270.4606608642
 21
187.4048011155
 31
0.0
  0
ARC
  5
1B3
330
1F
100
AcDbEntity
  8
0
  6
Continuous
 62
     7
370
     0
100
AcDbCircle
 10
257.0793124042
 20
186.6380047026
 30
0.0
 40
13.95299324508226
100
AcDbArc
 50
4.4102525098
 51
5.784906052
  0
LINE
  5
1B4
330
1F
100
AcDbEntity
  8
0
  6
Continuous
 62
     7
370
     0
100
AcDbLine
 10
270.8992605581
 20
188.0086014173
 30
0.0
 11
270.9612471915
 21
188.0443855391
 31
0.0
  0
SPLINE
  5
1B5
330
1F
100
AcDbEntity
  8
0
  6
Continuous
 62
     7
370
     0
100
AcDbSpline
210
0.0
220
0.0
230
1.0
 70
     8
 71
     3
 72
    14
 73
    10
 74
     0
 42
0.000000001
 43
0.00000001
 40
0.0
 40
0.0
 40
0.0
 40
0.0
 40
0.0716016087281245
 40
0.1431885942024413
 40
0.250436580903966
 40
0.4988626624131217
 40
0.7490190627654653
 40
0.8745031295976498
 40
1.0
 40
1.0
 40
1.0
 40
1.0
 10
270.4882869285452
 20
186.7351575012588
 30
0.0
 10
270.4884974138516
 20
186.7446525794996
 30
0.0
 10
270.4889183414769
 20
186.7636407967937
 30
0.0
 10
270.4969428465331
 20
186.7996401515059
 30
0.0
 10
270.5199557411057
 20
186.861485520838
 30
0.0
 10
270.5765321681604
 20
186.9405205376946
 30
0.0
 10
270.6436614124158
 20
186.9954873002419
 30
0.0
 10
270.6982957456339
 20
187.0321307439747
 30
0.0
 10
270.7258256976996
 20
187.0484045211771
 30
0.0
 10
270.7395913759405
 20
187.0565418248745
 30
0.0
  0
SPLINE
  5
1B6
330
1F
100
AcDbEntity
  8
0
  6
Continuous
 62
     7
370
     0
100
AcDbSpline
210
0.0
220
0.0
230
1.0
 70
     8
 71
     3
 72
    14
 73
    10
 74
     0
 42
0.000000001
 43
0.00000001
 40
0.0
 40
0.0
 40
0.0
 40
0.0
 40
0.1254617690397863
 40
0.25087267072351
 40
0.5004509225256248
 40
0.7494963202902862
 40
0.8745639661394663
 40
0.9372734928894273
 40
1.0
 40
1.0
 40
1.0
 40
1.0
 10
270.6697049485607
 20
186.6801443603748
 30
0.0
 10
270.6592763283182
 20
186.6744389646226
 30
0.0
 10
270.6384233160244
 20
186.6630304863201
 30
0.0
 10
270.59721590269
 20
186.647229958638
 30
0.0
 10
270.5478607019174
 20
186.6417748251398
 30
0.0
 10
270.509071013725
 20
186.6642742216103
 30
0.0
 10
270.4939365759645
 20
186.6955331807068
 30
0.0
 10
270.4892801601769
 20
186.7171430171427
 30
0.0
 10
270.4886180356332
 20
186.7291521313262
 30
0.0
 10
270.4882869285452
 20
186.7351575012588
 30
0.0
  0
SPLINE
  5
1B7
330
1F
100
AcDbEntity
  8
0
  6
Continuous
 62
     7
370
     0
100
AcDbSpline
210
0.0
220
0.0
230
1.0
 70
     8
 71
     3
 72
    14
 73
    10
 74
     0
 42
0.000000001
 43
0.00000001
 40
0.0
 40
0.0
 40
0.0
 40
0.0
 40
0.0716199506624224
 40
0.1432074749473992
 40
0.2859317447663562
 40
0.4998419029261203
 40
0.7493101428521195
 40
0.8746264539184625
 40
1.0
 40
1.0
 40
1.0
 40
1.0
 10
270.8396970436781
 20
186.9320080773978
 30
0.0
 10
270.8396194212491
 20
186.9251307828899
 30
0.0
 10
270.8394642115352
 20
186.9113793076118
 30
0.0
 10
270.8347773586042
 20
186.8820387483139
 30
0.0
 10
270.8193753575447
 20
186.8366054703635
 30
0.0
 10
270.7839698384344
 20
186.7757765292319
 30
0.0
 10
270.7394898032219
 20
186.7288767989362
 30
0.0
 10
270.6998864226743
 20
186.6984801472551
 30
0.0
 10
270.6797669710896
 20
186.6862572195407
 30
0.0
 10
270.6697049485607
 20
186.6801443603748
 30
0.0
  0
SPLINE
  5
1B8
330
1F
100
AcDbEntity
  8
0
  6
Continuous
 62
     7
370
     0
100
AcDbSpline
210
0.0
220
0.0
230
1.0
 70
     8
 71
     3
 72
    13
 73
     9
 74
     0
 42
0.000000001
 43
0.00000001
 40
0.0
 40
0.0
 40
0.0
 40
0.0
 40
0.1251810157219847
 40
0.2502906965226313
 40
0.5001029637553308
 40
0.7498040235745649
 40
0.8748570671547495
 40
0.9999999999999999
 40
0.9999999999999999
 40
0.9999999999999999
 40
0.9999999999999999
 10
270.7686849450015
 20
187.0134518245982
 30
0.0
 10
270.7734396206242
 20
187.0129839429658
 30
0.0
 10
270.7829462623978
 20
187.0120484463254
 30
0.0
 10
270.8003521831764
 20
187.0061882802118
 30
0.0
 10
270.8188629592752
 20
186.992519536667
 30
0.0
 10
270.8321855002273
 20
186.9715753153274
 30
0.0
 10
270.8383678252985
 20
186.9503520689085
 30
0.0
 10
270.8392538647742
 20
186.9381242056249
 30
0.0
 10
270.8396970436781
 20
186.9320080773978
 30
0.0
  0
LINE
  5
1B9
330
1F
100
AcDbEntity
  8
0
  6
Continuous
 62
     7
370
     0
100
AcDbLine
 10
270.7817064426
 20
187.0209689752
 30
0.0
 11
270.768684945
 21
187.0134518246
 31
0.0
  0
SPLINE
  5
1BA
330
1F
100
AcDbEntity
  8
0
  6
Continuous
 62
     7
370
     0
100
AcDbSpline
210
0.0
220
0.0
230
1.0
 70
     8
 71
     3
 72
    15
 73
    11
 74
     0
 42
0.000000001
 43
0.00000001
 40
0.0
 40
0.0
 40
0.0
 40
0.0
 40
0.0625693194621254
 40
0.12505090878673
 40
0.2495630279782362
 40
0.3595636853153452
 40
0.4995312778108609
 40
0.7495562976704917
 40
0.8747660251780797
 40
0.9999999999999999
 40
0.9999999999999999
 40
0.9999999999999999
 40
0.9999999999999999
 10
270.977354594398
 20
187.0150586129177
 30
0.0
 10
270.9769118093453
 20
187.0207146201219
 30
0.0
 10
270.9760268600808
 20
187.0320187040892
 30
0.0
 10
270.969052168333
 20
187.0505455619021
 30
0.0
 10
270.954387607289
 20
187.0656925759583
 30
0.0
 10
270.9288123111234
 20
187.0708931856004
 30
0.0
 10
270.8915775520582
 20
187.0678225634179
 30
0.0
 10
270.8511576551943
 20
187.055713453294
 30
0.0
 10
270.811501176503
 20
187.0375095938601
 30
0.0
 10
270.7916386616109
 20
187.0264828706006
 30
0.0
 10
270.7817064426462
 20
187.0209689751814
 30
0.0
  0
SPLINE
  5
1BB
330
1F
100
AcDbEntity
  8
0
  6
Continuous
 62
     7
370
     0
100
AcDbSpline
210
0.0
220
0.0
230
1.0
 70
     8
 71
     3
 72
    12
 73
     8
 74
     0
 42
0.000000001
 43
0.00000001
 40
0.0
 40
0.0
 40
0.0
 40
0.0
 40
0.2507849143144574
 40
0.5009313959139029
 40
0.7494324302280816
 40
0.8745957461859821
 40
1.0
 40
1.0
 40
1.0
 40
1.0
 10
270.8965754550503
 20
186.8840284956996
 30
0.0
 10
270.9064257557191
 20
186.8918704623647
 30
0.0
 10
270.9261012807708
 20
186.9075344321016
 30
0.0
 10
270.9537382358158
 20
186.9380446560087
 30
0.0
 10
270.9709153286167
 20
186.9706531793345
 30
0.0
 10
270.9770248134263
 20
186.9969258837778
 30
0.0
 10
270.9772445969618
 20
187.0090104964772
 30
0.0
 10
270.977354594398
 20
187.0150586129177
 30
0.0
  0
SPLINE
  5
1BC
330
1F
100
AcDbEntity
  8
0
  6
Continuous
 62
     7
370
     0
100
AcDbSpline
210
0.0
220
0.0
230
1.0
 70
     8
 71
     3
 72
     8
 73
     4
 74
     0
 42
0.000000001
 43
0.00000001
 40
0.0
 40
0.0
 40
0.0
 40
0.0
 40
1.0
 40
1.0
 40
1.0
 40
1.0
 10
270.904521429675
 20
186.8237786957967
 30
0.0
 10
270.9019291065277
 20
186.8438306243941
 30
0.0
 10
270.8992804461056
 20
186.8639140253516
 30
0.0
 10
270.8965754550503
 20
186.8840284956996
 30
0.0
  0
SPLINE
  5
1BD
330
1F
100
AcDbEntity
  8
0
  6
Continuous
 62
     7
370
     0
100
AcDbSpline
210
0.0
220
0.0
230
1.0
 70
     8
 71
     3
 72
    13
 73
     9
 74
     0
 42
0.000000001
 43
0.00000001
 40
0.0
 40
0.0
 40
0.0
 40
0.0
 40
0.1431579759951871
 40
0.2505468097408634
 40
0.4995815884120703
 40
0.7490919788433118
 40
0.8745221176524083
 40
1.0
 40
1.0
 40
1.0
 40
1.0
 10
271.0325988152975
 20
187.0411933487674
 30
0.0
 10
271.0323170867332
 20
187.0298097776033
 30
0.0
 10
271.0318240216942
 20
187.0098869097449
 30
0.0
 10
271.0220619238564
 20
186.9670804217754
 30
0.0
 10
270.9976895990655
 20
186.9141821376992
 30
0.0
 10
270.9607547110189
 20
186.8700709503136
 30
0.0
 10
270.9290773810945
 20
186.8415676896577
 30
0.0
 10
270.9127077851003
 20
186.8297091125791
 30
0.0
 10
270.904521429675
 20
186.8237786957967
 30
0.0
  0
SPLINE
  5
1BE
330
1F
100
AcDbEntity
  8
0
  6
Continuous
 62
     7
370
     0
100
AcDbSpline
210
0.0
220
0.0
230
1.0
 70
     8
 71
     3
 72
    16
 73
    12
 74
     0
 42
0.000000001
 43
0.00000001
 40
0.0
 40
0.0
 40
0.0
 40
0.0
 40
0.1362570160163081
 40
0.2504051408108194
 40
0.350561376973994
 40
0.5006163074813791
 40
0.6434141688815569
 40
0.7504075395745438
 40
0.8749821181983725
 40
0.9250222482766808
 40
1.0
 40
1.0
 40
1.0
 40
1.0
 10
270.7395913759405
 20
187.0565418248745
 30
0.0
 10
270.7560640836292
 20
187.0657522644882
 30
0.0
 10
270.7863366582746
 20
187.0826786694236
 30
0.0
 10
270.828738733681
 20
187.1033719474098
 30
0.0
 10
270.8726750169736
 20
187.1217405137632
 30
0.0
 10
270.9193501078183
 20
187.1341241656995
 30
0.0
 10
270.9643889994383
 20
187.1353533229835
 30
0.0
 10
271.0010653649153
 20
187.1218705137903
 30
0.0
 10
271.0203894309386
 20
187.0974736688312
 30
0.0
 10
271.0304204732573
 20
187.0687573519103
 30
0.0
 10
271.0317821615247
 20
187.0515270092965
 30
0.0
 10
271.0325988152975
 20
187.0411933487674
 30
0.0
  0
ARC
  5
1BF
330
1F
100
AcDbEntity
  8
0
  6
Continuous
 62
     7
370
     0
100
AcDbCircle
 10
259.7745511886
 20
186.5824919254
 30
0.0
 40
11.04127356353559
100
AcDbArc
 50
356.9830643376
 51
357.6358244547
  0
SPLINE
  5
1C0
330
1F
100
AcDbEntity
  8
0
  6
Continuous
 62
     7
370
     0
100
AcDbSpline
210
0.0
220
0.0
230
1.0
 70
     8
 71
     3
 72
    15
 73
    11
 74
     0
 42
0.000000001
 43
0.00000001
 40
0.0
 40
0.0
 40
0.0
 40
0.0
 40
0.1429545597213982
 40
0.2858259307256618
 40
0.3930115961467938
 40
0.5001405448350671
 40
0.6181942514790063
 40
0.7497632715744822
 40
0.8748286417272916
 40
1.0
 40
1.0
 40
1.0
 40
1.0
 10
270.6494048393768
 20
186.2180684410937
 30
0.0
 10
270.6620147799342
 20
186.2248162156865
 30
0.0
 10
270.6872273230196
 20
186.2383078381787
 30
0.0
 10
270.7209183423525
 20
186.248058922698
 30
0.0
 10
270.7489991204921
 20
186.2489581546016
 30
0.0
 10
270.7726679328868
 20
186.2436183007709
 30
0.0
 10
270.7914070519689
 20
186.22623929178
 30
0.0
 10
270.8024107858218
 20
186.1980530718524
 30
0.0
 10
270.8070693242802
 20
186.1638871646987
 30
0.0
 10
270.8066409126193
 20
186.1393185364066
 30
0.0
 10
270.8064266160617
 20
186.127029019222
 30
0.0
  0
SPLINE
  5
1C1
330
1F
100
AcDbEntity
  8
0
  6
Continuous
 62
     7
370
     0
100
AcDbSpline
210
0.0
220
0.0
230
1.0
 70
     8
 71
     3
 72
    14
 73
    10
 74
     0
 42
0.000000001
 43
0.00000001
 40
0.0
 40
0.0
 40
0.0
 40
0.0
 40
0.0745601870303218
 40
0.1430363259402321
 40
0.2502753544418672
 40
0.4996559586217005
 40
0.6996146735485747
 40
0.840656500597625
 40
1.0
 40
1.0
 40
1.0
 40
1.0
 10
270.5032473884357
 20
186.0419265332972
 30
0.0
 10
270.5050739789862
 20
186.0474778312501
 30
0.0
 10
270.508578111845
 20
186.0581274459443
 30
0.0
 10
270.5163406226417
 20
186.076848471736
 30
0.0
 10
270.532509471108
 20
186.1081411457344
 30
0.0
 10
270.5600695257879
 20
186.1461900939122
 30
0.0
 10
270.5932185397229
 20
186.1787266345256
 30
0.0
 10
270.6223779968904
 20
186.2014062449875
 30
0.0
 10
270.6400372482722
 20
186.2122932699798
 30
0.0
 10
270.6494048393768
 20
186.2180684410937
 30
0.0
  0
SPLINE
  5
1C2
330
1F
100
AcDbEntity
  8
0
  6
Continuous
 62
     7
370
     0
100
AcDbSpline
210
0.0
220
0.0
230
1.0
 70
     8
 71
     3
 72
    11
 73
     7
 74
     0
 42
0.000000001
 43
0.00000001
 40
0.0
 40
0.0
 40
0.0
 40
0.0
 40
0.2729389191732804
 40
0.500136088788852
 40
0.7501730734356025
 40
1.0
 40
1.0
 40
1.0
 40
1.0
 10
270.4894350292222
 20
185.9400105388594
 30
0.0
 10
270.4898460559763
 20
185.9488590491385
 30
0.0
 10
270.4905992256372
 20
185.9650731505794
 30
0.0
 10
270.4930848825005
 20
185.9901779461783
 30
0.0
 10
270.496267343896
 20
186.0150075980675
 30
0.0
 10
270.5009213588422
 20
186.0329560690525
 30
0.0
 10
270.5032473884357
 20
186.0419265332972
 30
0.0
  0
ARC
  5
1C3
330
1F
100
AcDbEntity
  8
0
  6
Continuous
 62
     7
370
     0
100
AcDbCircle
 10
259.5145194951
 20
186.3969578216
 30
0.0
 40
10.98442405414519
100
AcDbArc
 50
356.6597687831
 51
357.6158324092
  0
LINE
  5
1C4
330
1F
100
AcDbEntity
  8
0
  6
Continuous
 62
     7
370
     0
100
AcDbLine
 10
271.0106127566
 20
186.0631032248
 30
0.0
 11
270.4802826707
 21
185.7569501829
 31
0.0
  0
ARC
  5
1C5
330
1F
100
AcDbEntity
  8
0
  6
Continuous
 62
     7
370
     0
100
AcDbCircle
 10
260.1488981021
 20
186.6974251285
 30
0.0
 40
10.88022102315445
100
AcDbArc
 50
356.6577344408
 51
356.9822566639
  0
LINE
  5
1C6
330
1F
100
AcDbEntity
  8
0
  6
Continuous
 62
     7
370
     0
100
AcDbLine
 10
270.8005217845
 20
186.0013771997
 30
0.0
 11
271.0140312996
 21
186.1246336192
 31
0.0
  0
SPLINE
  5
1C7
330
1F
100
AcDbEntity
  8
0
  6
Continuous
 62
     7
370
     0
100
AcDbSpline
210
0.0
220
0.0
230
1.0
 70
     8
 71
     3
 72
     8
 73
     4
 74
     0
 42
0.000000001
 43
0.00000001
 40
0.0
 40
0.0
 40
0.0
 40
0.0
 40
1.0
 40
1.0
 40
1.0
 40
1.0
 10
270.9426852602727
 20
185.3376433739063
 30
0.0
 10
270.7825580186738
 20
185.2038299867185
 30
0.0
 10
270.6221378986448
 20
185.070233091576
 30
0.0
 10
270.4614255062918
 20
184.9368570877428
 30
0.0
  0
ARC
  5
1C8
330
1F
100
AcDbEntity
  8
0
  6
Continuous
 62
     7
370
     0
100
AcDbCircle
 10
261.3809682828
 20
186.5859923866
 30
0.0
 40
9.642862998817826
100
AcDbArc
 50
352.5617071555
 51
352.9216721791
  0
SPLINE
  5
1C9
330
1F
100
AcDbEntity
  8
0
  6
Continuous
 62
     7
370
     0
100
AcDbSpline
210
0.0
220
0.0
230
1.0
 70
     8
 71
     3
 72
     8
 73
     4
 74
     0
 42
0.000000001
 43
0.00000001
 40
0.0
 40
0.0
 40
0.0
 40
0.0
 40
1.0
 40
1.0
 40
1.0
 40
1.0
 10
270.5285478307522
 20
185.2816310090572
 30
0.0
 10
270.6694435111927
 20
185.3201188100682
 30
0.0
 10
270.8100405062051
 20
185.3588202209828
 30
0.0
 10
270.9503393513602
 20
185.3977398179133
 30
0.0
  0
LINE
  5
1CA
330
1F
100
AcDbEntity
  8
0
  6
Continuous
 62
     7
370
     0
100
AcDbLine
 10
270.9663284293
 20
185.5343563692
 30
0.0
 11
270.5285478308
 21
185.2816310091
 31
0.0
  0
ARC
  5
1CB
330
1F
100
AcDbEntity
  8
0
  6
Continuous
 62
     7
370
     0
100
AcDbCircle
 10
261.0515214932
 20
186.624554477
 30
0.0
 40
9.974564075366983
100
AcDbArc
 50
353.7251604431
 51
354.0690405138
  0
LINE
  5
1CC
330
1F
100
AcDbEntity
  8
0
  6
Continuous
 62
     7
370
     0
100
AcDbLine
 10
270.4423629227
 20
185.2877296851
 30
0.0
 11
270.9726930086
 21
185.593882727
 31
0.0
  0
ARC
  5
1CD
330
1F
100
AcDbEntity
  8
0
  6
Continuous
 62
     7
370
     0
100
AcDbCircle
 10
260.5420584954
 20
186.3161826434
 30
0.0
 40
9.953579418454893
100
AcDbArc
 50
353.5817086724
 51
354.0693324645
  0
SPLINE
  5
1CE
330
1F
100
AcDbEntity
  8
0
  6
Continuous
 62
     7
370
     0
100
AcDbSpline
210
0.0
220
0.0
230
1.0
 70
     8
 71
     3
 72
     8
 73
     4
 74
     0
 42
0.000000001
 43
0.00000001
 40
0.0
 40
0.0
 40
0.0
 40
0.0
 40
1.0
 40
1.0
 40
1.0
 40
1.0
 10
270.78853744747
 20
185.3007069208886
 30
0.0
 10
270.6703237098121
 20
185.2681516362171
 30
0.0
 10
270.5518952351982
 20
185.2357535988716
 30
0.0
 10
270.4332516924123
 20
185.2035100142908
 30
0.0
  0
ARC
  5
1CF
330
1F
100
AcDbEntity
  8
0
  6
Continuous
 62
     7
370
     0
100
AcDbCircle
 10
269.3951669777
 20
190.3088833246
 30
0.0
 40
5.198395152068446
100
AcDbArc
 50
285.5475843804
 51
286.4855015372
  0
SPLINE
  5
1D0
330
1F
100
AcDbEntity
  8
0
  6
Continuous
 62
     7
370
     0
100
AcDbSpline
210
0.0
220
0.0
230
1.0
 70
     8
 71
     3
 72
     8
 73
     4
 74
     0
 42
0.000000001
 43
0.00000001
 40
0.0
 40
0.0
 40
0.0
 40
0.0
 40
1.0
 40
1.0
 40
1.0
 40
1.0
 10
270.7889433315468
 20
185.2568309449789
 30
0.0
 10
270.8160799557664
 20
185.2792768504233
 30
0.0
 10
270.8432087323038
 20
185.3017285484708
 30
0.0
 10
270.8703296586646
 20
185.3241860197072
 30
0.0
  0
SPLINE
  5
1D1
330
1F
100
AcDbEntity
  8
0
  6
Continuous
 62
     7
370
     0
100
AcDbSpline
210
0.0
220
0.0
230
1.0
 70
     8
 71
     3
 72
     8
 73
     4
 74
     0
 42
0.000000001
 43
0.00000001
 40
0.0
 40
0.0
 40
0.0
 40
0.0
 40
1.0
 40
1.0
 40
1.0
 40
1.0
 10
270.3986479086764
 20
184.9306949873225
 30
0.0
 10
270.5289419510284
 20
185.039260852998
 30
0.0
 10
270.6590405340897
 20
185.147973641451
 30
0.0
 10
270.7889433315468
 20
185.2568309449789
 30
0.0
  0
ARC
  5
1D2
330
1F
100
AcDbEntity
  8
0
  6
Continuous
 62
     7
370
     0
100
AcDbCircle
 10
261.1430405962
 20
186.239866119
 30
0.0
 40
9.347737468230747
100
AcDbArc
 50
351.3873599297
 51
351.9491335606
  0
LINE
  5
1D3
330
1F
100
AcDbEntity
  8
0
  6
Continuous
 62
     7
370
     0
100
AcDbLine
 10
270.9156971536
 20
185.1461630367
 30
0.0
 11
270.3853670677
 21
184.8400099948
 31
0.0
  0
ARC
  5
1D4
330
1F
100
AcDbEntity
  8
0
  6
Continuous
 62
     7
370
     0
100
AcDbCircle
 10
261.7003159034
 20
186.5420117296
 30
0.0
 40
9.320495971823865
100
AcDbArc
 50
351.3869117961
 51
351.7466972806
  0
LINE
  5
1D5
330
1F
100
AcDbEntity
  8
0
  6
Continuous
 62
     7
370
     0
100
AcDbLine
 10
270.4614255063
 20
184.9368570877
 30
0.0
 11
270.9242805589
 21
185.2040576221
 31
0.0
  0
ARC
  5
1D6
330
1F
100
AcDbEntity
  8
0
  6
Continuous
 62
     7
370
     0
100
AcDbCircle
 10
252.1700803124
 20
186.2082250762
 30
0.0
 40
19.33860396381698
100
AcDbArc
 50
2.5666057311
 51
57.4280177362
  0
SPLINE
  5
1D7
330
1F
100
AcDbEntity
  8
0
  6
Continuous
 62
     7
370
     0
100
AcDbSpline
210
0.0
220
0.0
230
1.0
 70
     8
 71
     3
 72
    14
 73
    10
 74
     0
 42
0.000000001
 43
0.00000001
 40
0.0
 40
0.0
 40
0.0
 40
0.0
 40
0.2504567050928235
 40
0.5007685906461226
 40
0.625864467971912
 40
0.7507010938702152
 40
0.8751098530209156
 40
0.9375424545412298
 40
1.0
 40
1.0
 40
1.0
 40
1.0
 10
270.7488243272151
 20
187.1956807216097
 30
0.0
 10
270.7702209814121
 20
187.2083611083149
 30
0.0
 10
270.8130019177931
 20
187.2337145496487
 30
0.0
 10
270.8660113725932
 20
187.2711947086969
 30
0.0
 10
270.9070916727795
 20
187.3076051976525
 30
0.0
 10
270.9347006964154
 20
187.3421884157103
 30
0.0
 10
270.9527184930259
 20
187.3763617532206
 30
0.0
 10
270.9602374411508
 20
187.4050738599726
 30
0.0
 10
270.9602073483161
 20
187.4182573795499
 30
0.0
 10
270.9601922988937
 20
187.4248504558911
 30
0.0
  0
SPLINE
  5
1D8
330
1F
100
AcDbEntity
  8
0
  6
Continuous
 62
     7
370
     0
100
AcDbSpline
210
0.0
220
0.0
230
1.0
 70
     8
 71
     3
 72
    15
 73
    11
 74
     0
 42
0.000000001
 43
0.00000001
 40
0.0
 40
0.0
 40
0.0
 40
0.0
 40
0.0357496639709916
 40
0.0714787857971891
 40
0.1249960507389605
 40
0.2494778538486886
 40
0.3743167329173326
 40
0.4993970418671524
 40
0.7496360215701784
 40
1.0
 40
1.0
 40
1.0
 40
1.0
 10
270.9601922988937
 20
187.4248504558911
 30
0.0
 10
270.9598721117702
 20
187.4284062076007
 30
0.0
 10
270.9592319215062
 20
187.4355156678464
 30
0.0
 10
270.9556656871523
 20
187.4461327823818
 30
0.0
 10
270.9465253198344
 20
187.4611597673684
 30
0.0
 10
270.9256109420448
 20
187.4710298500899
 30
0.0
 10
270.8961891255701
 20
187.4723749521606
 30
0.0
 10
270.8539824048564
 20
187.4604639241465
 30
0.0
 10
270.8007196952706
 20
187.4366273455481
 30
0.0
 10
270.7582486772051
 20
187.4127866944033
 30
0.0
 10
270.7370078657434
 20
187.4008633923692
 30
0.0
  0
SPLINE
  5
1D9
330
1F
100
AcDbEntity
  8
0
  6
Continuous
 62
     7
370
     0
100
AcDbSpline
210
0.0
220
0.0
230
1.0
 70
     8
 71
     3
 72
    14
 73
    10
 74
     0
 42
0.000000001
 43
0.00000001
 40
0.0
 40
0.0
 40
0.0
 40
0.0
 40
0.2504552763300965
 40
0.5007650511731642
 40
0.6258584362837313
 40
0.750680307190223
 40
0.8751033703397859
 40
0.9375275944789334
 40
1.0
 40
1.0
 40
1.0
 40
1.0
 10
270.7370078657434
 20
187.4008633923692
 30
0.0
 10
270.7155652578846
 20
187.3881485965111
 30
0.0
 10
270.6726924992066
 20
187.3627263914301
 30
0.0
 10
270.6196514353218
 20
187.3251215256207
 30
0.0
 10
270.5786648111568
 20
187.2885089368025
 30
0.0
 10
270.5512036000194
 20
187.2536671603708
 30
0.0
 10
270.533643871576
 20
187.2191211468427
 30
0.0
 10
270.526402654057
 20
187.1903191658629
 30
0.0
 10
270.5264724165393
 20
187.1771177042388
 30
0.0
 10
270.5265073112366
 20
187.1705144270622
 30
0.0
  0
SPLINE
  5
1DA
330
1F
100
AcDbEntity
  8
0
  6
Continuous
 62
     7
370
     0
100
AcDbSpline
210
0.0
220
0.0
230
1.0
 70
     8
 71
     3
 72
    14
 73
    10
 74
     0
 42
0.000000001
 43
0.00000001
 40
0.0
 40
0.0
 40
0.0
 40
0.0
 40
0.0623759841546414
 40
0.1248129722817842
 40
0.2492504649310001
 40
0.374121338438643
 40
0.4992563427513284
 40
0.7495574582203581
 40
1.0
 40
1.0
 40
1.0
 40
1.0
 10
270.5265073112366
 20
187.1705144270622
 30
0.0
 10
270.5272973110025
 20
187.1644499344015
 30
0.0
 10
270.5288780831575
 20
187.1523150179807
 30
0.0
 10
270.5397571147331
 20
187.1349247806746
 30
0.0
 10
270.5609000796986
 20
187.1249424377168
 30
0.0
 10
270.5902024148664
 20
187.1239803492093
 30
0.0
 10
270.6321601912916
 20
187.1361081181081
 30
0.0
 10
270.6852383272754
 20
187.1599786121679
 30
0.0
 10
270.7276250034428
 20
187.1837777779094
 30
0.0
 10
270.7488243272151
 20
187.1956807216097
 30
0.0
  0
SPLINE
  5
1DB
330
1F
100
AcDbEntity
  8
0
  6
Continuous
 62
     7
370
     0
100
AcDbSpline
210
0.0
220
0.0
230
1.0
 70
     8
 71
     3
 72
    12
 73
     8
 74
     0
 42
0.000000001
 43
0.00000001
 40
0.0
 40
0.0
 40
0.0
 40
0.0
 40
0.2506229480567906
 40
0.5005037921604097
 40
0.7498496883450435
 40
0.8749507639367238
 40
0.9999999999999999
 40
0.9999999999999999
 40
0.9999999999999999
 40
0.9999999999999999
 10
270.6619354390772
 20
186.9453637700234
 30
0.0
 10
270.6482903447449
 20
186.93677658974
 30
0.0
 10
270.6210405597167
 20
186.919627656136
 30
0.0
 10
270.5824696769084
 20
186.8802090255851
 30
0.0
 10
270.5571427885588
 20
186.8381209024809
 30
0.0
 10
270.5442856353659
 20
186.8018243344951
 30
0.0
 10
270.5435152397793
 20
186.7850587431555
 30
0.0
 10
270.5431301218119
 20
186.7766776846819
 30
0.0
  0
SPLINE
  5
1DC
330
1F
100
AcDbEntity
  8
0
  6
Continuous
 62
     7
370
     0
100
AcDbSpline
210
0.0
220
0.0
230
1.0
 70
     8
 71
     3
 72
    15
 73
    11
 74
     0
 42
0.000000001
 43
0.00000001
 40
0.0
 40
0.0
 40
0.0
 40
0.0
 40
0.0668930060763219
 40
0.1250702581396372
 40
0.2499284873082171
 40
0.3749641775443406
 40
0.5000701077257462
 40
0.7495613137331337
 40
0.8627731816119518
 40
1.0
 40
1.0
 40
1.0
 40
1.0
 10
270.5431301218119
 20
186.7766776846819
 30
0.0
 10
270.5434906521555
 20
186.7723505020663
 30
0.0
 10
270.5441647379201
 20
186.7642599425521
 30
0.0
 10
270.5479629049422
 20
186.7499163194688
 30
0.0
 10
270.5570250943397
 20
186.7365697018897
 30
0.0
 10
270.5721714066858
 20
186.7267924332158
 30
0.0
 10
270.5953691555551
 20
186.719687470367
 30
0.0
 10
270.6222631598167
 20
186.7235276728981
 30
0.0
 10
270.6505446491764
 20
186.7347156046432
 30
0.0
 10
270.6648382762323
 20
186.742422418531
 30
0.0
 10
270.672670408693
 20
186.7466453345889
 30
0.0
  0
SPLINE
  5
1DD
330
1F
100
AcDbEntity
  8
0
  6
Continuous
 62
     7
370
     0
100
AcDbSpline
210
0.0
220
0.0
230
1.0
 70
     8
 71
     3
 72
    14
 73
    10
 74
     0
 42
0.000000001
 43
0.00000001
 40
0.0
 40
0.0
 40
0.0
 40
0.0
 40
0.1253657079413671
 40
0.2506792852927666
 40
0.5000229958526557
 40
0.6998178555803221
 40
0.8497492347368755
 40
0.9216477014122242
 40
1.0
 40
1.0
 40
1.0
 40
1.0
 10
270.672670408693
 20
186.7466453345889
 30
0.0
 10
270.679340345356
 20
186.7507081259629
 30
0.0
 10
270.6926774451345
 20
186.7588320192881
 30
0.0
 10
270.7188430769403
 20
186.7793711710342
 30
0.0
 10
270.7473726915216
 20
186.8101049823574
 30
0.0
 10
270.7704778404272
 20
186.8497728238649
 30
0.0
 10
270.7807563551494
 20
186.879533035443
 30
0.0
 10
270.7839487111076
 20
186.8999504071571
 30
0.0
 10
270.7841289464833
 20
186.9095635726005
 30
0.0
 10
270.7842229350626
 20
186.914576616014
 30
0.0
  0
SPLINE
  5
1DE
330
1F
100
AcDbEntity
  8
0
  6
Continuous
 62
     7
370
     0
100
AcDbSpline
210
0.0
220
0.0
230
1.0
 70
     8
 71
     3
 72
    14
 73
    10
 74
     0
 42
0.000000001
 43
0.00000001
 40
0.0
 40
0.0
 40
0.0
 40
0.0
 40
0.0716366061203063
 40
0.143197864156436
 40
0.2858226613161144
 40
0.4996136464662099
 40
0.7492599472423387
 40
0.8746011118598838
 40
1.0
 40
1.0
 40
1.0
 40
1.0
 10
270.7842229350626
 20
186.914576616014
 30
0.0
 10
270.7839315682209
 20
186.9190466781396
 30
0.0
 10
270.783349141
 20
186.9279821007355
 30
0.0
 10
270.7790606932325
 20
186.9435899916604
 30
0.0
 10
270.7670425482833
 20
186.9614389461327
 30
0.0
 10
270.7407690164418
 20
186.972975479227
 30
0.0
 10
270.7094993796287
 20
186.9677445305723
 30
0.0
 10
270.6823980615814
 20
186.956618641545
 30
0.0
 10
270.6687573599991
 20
186.9491159696005
 30
0.0
 10
270.6619354390772
 20
186.9453637700234
 30
0.0
  0
SPLINE
  5
1DF
330
1F
100
AcDbEntity
  8
0
  6
Continuous
 62
     7
370
     0
100
AcDbSpline
210
0.0
220
0.0
230
1.0
 70
     8
 71
     3
 72
     8
 73
     4
 74
     0
 42
0.000000001
 43
0.00000001
 40
0.0
 40
0.0
 40
0.0
 40
0.0
 40
1.0
 40
1.0
 40
1.0
 40
1.0
 10
270.597093040855
 20
186.4382484237295
 30
0.0
 10
270.676813249771
 20
186.4338015332495
 30
0.0
 10
270.7562119677614
 20
186.4295416445259
 30
0.0
 10
270.8352892472339
 20
186.4254741678328
 30
0.0
  0
ARC
  5
1E0
330
1F
100
AcDbEntity
  8
0
  6
Continuous
 62
     7
370
     0
100
AcDbCircle
 10
259.0611149042
 20
186.6150974539
 30
0.0
 40
11.77570118724334
100
AcDbArc
 50
359.0773302233
 51
359.8126928679
  0
LINE
  5
1E1
330
1F
100
AcDbEntity
  8
0
  6
Continuous
 62
     7
370
     0
100
AcDbLine
 10
270.8367531669
 20
186.5766012696
 30
0.0
 11
270.5970930409
 21
186.4382484237
 31
0.0
  0
ARC
  5
1E2
330
1F
100
AcDbEntity
  8
0
  6
Continuous
 62
     7
370
     0
100
AcDbCircle
 10
259.7092381394
 20
186.5468702663
 30
0.0
 40
11.04460391968309
100
AcDbArc
 50
356.9831309236
 51
357.6558407138
  0
SPLINE
  5
1E3
330
1F
100
AcDbEntity
  8
0
  6
Continuous
 62
     7
370
     0
100
AcDbSpline
210
0.0
220
0.0
230
1.0
 70
     8
 71
     3
 72
    13
 73
     9
 74
     0
 42
0.000000001
 43
0.00000001
 40
0.0
 40
0.0
 40
0.0
 40
0.0
 40
0.1257431705301028
 40
0.251403204778073
 40
0.5004854116416132
 40
0.7488453632207661
 40
0.9161634980058073
 40
1.0
 40
1.0
 40
1.0
 40
1.0
 10
270.7445995785619
 20
186.0951251516333
 30
0.0
 10
270.7447410788435
 20
186.1028157936376
 30
0.0
 10
270.7450239858525
 20
186.1181919929057
 30
0.0
 10
270.7417872624885
 20
186.1462348386438
 30
0.0
 10
270.7287495816406
 20
186.175239578035
 30
0.0
 10
270.6959464885878
 20
186.1777123900013
 30
0.0
 10
270.6689526941249
 20
186.1672427288138
 30
0.0
 10
270.6551782925197
 20
186.159675494851
 30
0.0
 10
270.6505803377997
 20
186.1571495194864
 30
0.0
  0
SPLINE
  5
1E4
330
1F
100
AcDbEntity
  8
0
  6
Continuous
 62
     7
370
     0
100
AcDbSpline
210
0.0
220
0.0
230
1.0
 70
     8
 71
     3
 72
    14
 73
    10
 74
     0
 42
0.000000001
 43
0.00000001
 40
0.0
 40
0.0
 40
0.0
 40
0.0
 40
0.1251692025470937
 40
0.2502774400662945
 40
0.3752942969246997
 40
0.5002256764783135
 40
0.624740884272907
 40
0.7496892273597416
 40
0.9999999999999999
 40
0.9999999999999999
 40
0.9999999999999999
 40
0.9999999999999999
 10
270.6505803377997
 20
186.1571495194864
 30
0.0
 10
270.6436700768506
 20
186.1528983029633
 30
0.0
 10
270.6298529206706
 20
186.1443979405184
 30
0.0
 10
270.609416980488
 20
186.1271971113221
 30
0.0
 10
270.5902755827626
 20
186.1063497697625
 30
0.0
 10
270.5731817840804
 20
186.0825636171045
 30
0.0
 10
270.560406372987
 20
186.0558777048012
 30
0.0
 10
270.5539861904448
 20
186.0218179803237
 30
0.0
 10
270.5526163040537
 20
185.9982828485344
 30
0.0
 10
270.5517025425844
 20
185.9825841039191
 30
0.0
  0
ARC
  5
1E5
330
1F
100
AcDbEntity
  8
0
  6
Continuous
 62
     7
370
     0
100
AcDbCircle
 10
259.5174303822
 20
186.4354911577
 30
0.0
 40
11.04356314371162
100
AcDbArc
 50
356.9831099016
 51
357.6495862807
  0
LINE
  5
1E6
330
1F
100
AcDbEntity
  8
0
  6
Continuous
 62
     7
370
     0
100
AcDbLine
 10
270.5456878471
 20
185.854264699
 30
0.0
 11
270.7385351511
 21
185.9655930779
 31
0.0
  0
ARC
  5
1E7
330
1F
100
AcDbEntity
  8
0
  6
Continuous
 62
     7
370
     0
100
AcDbCircle
 10
262.2537236724
 20
186.4017963119
 30
0.0
 40
8.696258342449346
100
AcDbArc
 50
348.7978811032
 51
349.4447762701
  0
SPLINE
  5
1E8
330
1F
100
AcDbEntity
  8
0
  6
Continuous
 62
     7
370
     0
100
AcDbSpline
210
0.0
220
0.0
230
1.0
 70
     8
 71
     3
 72
    12
 73
     8
 74
     0
 42
0.000000001
 43
0.00000001
 40
0.0
 40
0.0
 40
0.0
 40
0.0
 40
0.2506447700527095
 40
0.500496388892758
 40
0.7494550466348047
 40
0.8640021788814772
 40
0.9999999999999999
 40
0.9999999999999999
 40
0.9999999999999999
 40
0.9999999999999999
 10
270.8028309380298
 20
184.8087884277722
 30
0.0
 10
270.8049950400266
 20
184.8226429628905
 30
0.0
 10
270.8093163958417
 20
184.8503081912336
 30
0.0
 10
270.8060145636654
 20
184.8859740796841
 30
0.0
 10
270.7881923338911
 20
184.9004119782287
 30
0.0
 10
270.7677916070351
 20
184.9026583949966
 30
0.0
 10
270.756150269327
 20
184.9011341469708
 30
0.0
 10
270.7498312573417
 20
184.9003067728506
 30
0.0
  0
SPLINE
  5
1E9
330
1F
100
AcDbEntity
  8
0
  6
Continuous
 62
     7
370
     0
100
AcDbSpline
210
0.0
220
0.0
230
1.0
 70
     8
 71
     3
 72
    11
 73
     7
 74
     0
 42
0.000000001
 43
0.00000001
 40
0.0
 40
0.0
 40
0.0
 40
0.0
 40
0.2499306351901286
 40
0.4999282956707934
 40
0.7499583790451344
 40
1.0
 40
1.0
 40
1.0
 40
1.0
 10
270.7498312573417
 20
184.9003067728506
 30
0.0
 10
270.7400683166687
 20
184.8980488931628
 30
0.0
 10
270.7205398171404
 20
184.8935325282789
 30
0.0
 10
270.6890594702524
 20
184.8809995987623
 30
0.0
 10
270.6568854580994
 20
184.8659010791202
 30
0.0
 10
270.6349320784248
 20
184.8535383025741
 30
0.0
 10
270.623955135335
 20
184.847356771685
 30
0.0
  0
SPLINE
  5
1EA
330
1F
100
AcDbEntity
  8
0
  6
Continuous
 62
     7
370
     0
100
AcDbSpline
210
0.0
220
0.0
230
1.0
 70
     8
 71
     3
 72
    15
 73
    11
 74
     0
 42
0.000000001
 43
0.00000001
 40
0.0
 40
0.0
 40
0.0
 40
0.0
 40
0.1347999632652077
 40
0.2502496014357529
 40
0.5001560835052262
 40
0.6667344581242454
 40
0.750107897762363
 40
0.875014222628859
 40
0.9335799284632379
 40
1.0
 40
1.0
 40
1.0
 40
1.0
 10
270.623955135335
 20
184.847356771685
 30
0.0
 10
270.6142113381874
 20
184.8415753735538
 30
0.0
 10
270.5961224508199
 20
184.8308424880024
 30
0.0
 10
270.5597009732468
 20
184.8070641636496
 30
0.0
 10
270.5204562609728
 20
184.7778055355705
 30
0.0
 10
270.4847307459915
 20
184.743298797563
 30
0.0
 10
270.4594357929786
 20
184.7150054016369
 30
0.0
 10
270.4426461556019
 20
184.6932557970223
 30
0.0
 10
270.4293264288257
 20
184.6720516892817
 30
0.0
 10
270.4237219859085
 20
184.6614093282403
 30
0.0
 10
270.4207436670364
 20
184.6557537536897
 30
0.0
  0
SPLINE
  5
1EB
330
1F
100
AcDbEntity
  8
0
  6
Continuous
 62
     7
370
     0
100
AcDbSpline
210
0.0
220
0.0
230
1.0
 70
     8
 71
     3
 72
    10
 73
     6
 74
     0
 42
0.000000001
 43
0.00000001
 40
0.0
 40
0.0
 40
0.0
 40
0.0
 40
0.2498028102649144
 40
0.499885997509294
 40
0.9999999999999999
 40
0.9999999999999999
 40
0.9999999999999999
 40
0.9999999999999999
 10
270.4207436670364
 20
184.6557537536897
 30
0.0
 10
270.4175178672151
 20
184.6483565759454
 30
0.0
 10
270.4110626469568
 20
184.6335539179147
 30
0.0
 10
270.4030284086279
 20
184.6056338980482
 30
0.0
 10
270.3989232922615
 20
184.5858503398023
 30
0.0
 10
270.3961866435448
 20
184.5726617613416
 30
0.0
  0
ARC
  5
1EC
330
1F
100
AcDbEntity
  8
0
  6
Continuous
 62
     7
370
     0
100
AcDbCircle
 10
261.8485939756
 20
186.1669732447
 30
0.0
 40
8.695008310729804
100
AcDbArc
 50
348.7978503667
 51
349.4345033047
  0
LINE
  5
1ED
330
1F
100
AcDbEntity
  8
0
  6
Continuous
 62
     7
370
     0
100
AcDbLine
 10
270.3779438345
 20
184.4777839397
 30
0.0
 11
270.7843006535
 21
184.7123687381
 31
0.0
  0
OLE2FRAME
  5
1EE
330
1F
100
AcDbEntity
  8
0
100
AcDbOle2Frame
 70
     2
  3
Paintbrush Picture
 10
229.0524258301
 20
33.6996297921
 30
0.0
 11
265.1686469208
 21
28.555479607
 31
0.0
 71
     2
 72
     0
 73
     1
 90
     7296
310
80557333EF78ADA16C40002412788DD94040000000000000000041161DC7B292
310
7040002412788DD94040000000000000000041161DC7B2927040F6DD59E9338E
310
3C4000000000000000007333EF78ADA16C40F6DD59E9338E3C40000000000000
310
00000000000001000000000100000100000001000000000001000000001C0000
310
D0CF11E0A1B11AE1000000000000000000000000000000003E000300FEFF0900
310
0600000000000000000000000100000001000000000000000010000002000000
310
01000000FEFFFFFF0000000000000000FFFFFFFFFFFFFFFFFFFFFFFFFFFFFFFF
310
FFFFFFFFFFFFFFFFFFFFFFFFFFFFFFFFFFFFFFFFFFFFFFFFFFFFFFFFFFFFFFFF
310
FFFFFFFFFFFFFFFFFFFFFFFFFFFFFFFFFFFFFFFFFFFFFFFFFFFFFFFFFFFFFFFF
310
FFFFFFFFFFFFFFFFFFFFFFFFFFFFFFFFFFFFFFFFFFFFFFFFFFFFFFFFFFFFFFFF
310
FFFFFFFFFFFFFFFFFFFFFFFFFFFFFFFFFFFFFFFFFFFFFFFFFFFFFFFFFFFFFFFF
310
FFFFFFFFFFFFFFFFFFFFFFFFFFFFFFFFFFFFFFFFFFFFFFFFFFFFFFFFFFFFFFFF
310
FFFFFFFFFFFFFFFFFFFFFFFFFFFFFFFFFFFFFFFFFFFFFFFFFFFFFFFFFFFFFFFF
310
FFFFFFFFFFFFFFFFFFFFFFFFFFFFFFFFFFFFFFFFFFFFFFFFFFFFFFFFFFFFFFFF
310
FFFFFFFFFFFFFFFFFFFFFFFFFFFFFFFFFFFFFFFFFFFFFFFFFFFFFFFFFFFFFFFF
310
FFFFFFFFFFFFFFFFFFFFFFFFFFFFFFFFFFFFFFFFFFFFFFFFFFFFFFFFFFFFFFFF
310
FFFFFFFFFFFFFFFFFFFFFFFFFFFFFFFFFFFFFFFFFFFFFFFFFFFFFFFFFFFFFFFF
310
FFFFFFFFFFFFFFFFFFFFFFFFFFFFFFFFFFFFFFFFFFFFFFFFFFFFFFFFFFFFFFFF
310
FFFFFFFFFFFFFFFFFFFFFFFFFFFFFFFFFFFFFFFFFFFFFFFFFFFFFFFFFFFFFFFF
310
FFFFFFFFFFFFFFFFFFFFFFFFFFFFFFFFFFFFFFFFFFFFFFFFFFFFFFFFFFFFFFFF
310
FDFFFFFFFEFFFFFFFEFFFFFFFEFFFFFF05000000060000000700000008000000
310
090000000A0000000B0000000C000000FEFFFFFFFFFFFFFFFFFFFFFFFFFFFFFF
310
FFFFFFFFFFFFFFFFFFFFFFFFFFFFFFFFFFFFFFFFFFFFFFFFFFFFFFFFFFFFFFFF
310
FFFFFFFFFFFFFFFFFFFFFFFFFFFFFFFFFFFFFFFFFFFFFFFFFFFFFFFFFFFFFFFF
310
FFFFFFFFFFFFFFFFFFFFFFFFFFFFFFFFFFFFFFFFFFFFFFFFFFFFFFFFFFFFFFFF
310
FFFFFFFFFFFFFFFFFFFFFFFFFFFFFFFFFFFFFFFFFFFFFFFFFFFFFFFFFFFFFFFF
310
FFFFFFFFFFFFFFFFFFFFFFFFFFFFFFFFFFFFFFFFFFFFFFFFFFFFFFFFFFFFFFFF
310
FFFFFFFFFFFFFFFFFFFFFFFFFFFFFFFFFFFFFFFFFFFFFFFFFFFFFFFFFFFFFFFF
310
FFFFFFFFFFFFFFFFFFFFFFFFFFFFFFFFFFFFFFFFFFFFFFFFFFFFFFFFFFFFFFFF
310
FFFFFFFFFFFFFFFFFFFFFFFFFFFFFFFFFFFFFFFFFFFFFFFFFFFFFFFFFFFFFFFF
310
FFFFFFFFFFFFFFFFFFFFFFFFFFFFFFFFFFFFFFFFFFFFFFFFFFFFFFFFFFFFFFFF
310
FFFFFFFFFFFFFFFFFFFFFFFFFFFFFFFFFFFFFFFFFFFFFFFFFFFFFFFFFFFFFFFF
310
FFFFFFFFFFFFFFFFFFFFFFFFFFFFFFFFFFFFFFFFFFFFFFFFFFFFFFFFFFFFFFFF
310
FFFFFFFFFFFFFFFFFFFFFFFFFFFFFFFFFFFFFFFFFFFFFFFFFFFFFFFFFFFFFFFF
310
FFFFFFFFFFFFFFFFFFFFFFFFFFFFFFFFFFFFFFFFFFFFFFFFFFFFFFFFFFFFFFFF
310
FFFFFFFFFFFFFFFFFFFFFFFFFFFFFFFFFFFFFFFFFFFFFFFFFFFFFFFFFFFFFFFF
310
52006F006F007400200045006E00740072007900000000000000000000000000
310
0000000000000000000000000000000000000000000000000000000000000000
310
16000500FFFFFFFFFFFFFFFF020000000A00030000000000C000000000000046
310
000000000000000000000000A0AF57825EF5D00103000000C000000000000000
310
01004F006C006500000000000000000000000000000000000000000000000000
310
0000000000000000000000000000000000000000000000000000000000000000
310
0A000200FFFFFFFFFFFFFFFFFFFFFFFF00000000000000000000000000000000
310
0000000000000000000000000000000000000000000000001400000000000000
310
010043006F006D0070004F0062006A0000000000000000000000000000000000
310
0000000000000000000000000000000000000000000000000000000000000000
310
120002010100000003000000FFFFFFFF00000000000000000000000000000000
310
0000000000000000000000000000000000000000010000004D00000000000000
310
01004F006C006500310030004E00610074006900760065000000000000000000
310
0000000000000000000000000000000000000000000000000000000000000000
310
1A000200FFFFFFFFFFFFFFFFFFFFFFFF00000000000000000000000000000000
310
000000000000000000000000000000000000000004000000E411000000000000
310
FEFFFFFF02000000FEFFFFFFFFFFFFFFFFFFFFFFFFFFFFFFFFFFFFFFFFFFFFFF
310
FFFFFFFFFFFFFFFFFFFFFFFFFFFFFFFFFFFFFFFFFFFFFFFFFFFFFFFFFFFFFFFF
310
FFFFFFFFFFFFFFFFFFFFFFFFFFFFFFFFFFFFFFFFFFFFFFFFFFFFFFFFFFFFFFFF
310
FFFFFFFFFFFFFFFFFFFFFFFFFFFFFFFFFFFFFFFFFFFFFFFFFFFFFFFFFFFFFFFF
310
FFFFFFFFFFFFFFFFFFFFFFFFFFFFFFFFFFFFFFFFFFFFFFFFFFFFFFFFFFFFFFFF
310
FFFFFFFFFFFFFFFFFFFFFFFFFFFFFFFFFFFFFFFFFFFFFFFFFFFFFFFFFFFFFFFF
310
FFFFFFFFFFFFFFFFFFFFFFFFFFFFFFFFFFFFFFFFFFFFFFFFFFFFFFFFFFFFFFFF
310
FFFFFFFFFFFFFFFFFFFFFFFFFFFFFFFFFFFFFFFFFFFFFFFFFFFFFFFFFFFFFFFF
310
FFFFFFFFFFFFFFFFFFFFFFFFFFFFFFFFFFFFFFFFFFFFFFFFFFFFFFFFFFFFFFFF
310
FFFFFFFFFFFFFFFFFFFFFFFFFFFFFFFFFFFFFFFFFFFFFFFFFFFFFFFFFFFFFFFF
310
FFFFFFFFFFFFFFFFFFFFFFFFFFFFFFFFFFFFFFFFFFFFFFFFFFFFFFFFFFFFFFFF
310
FFFFFFFFFFFFFFFFFFFFFFFFFFFFFFFFFFFFFFFFFFFFFFFFFFFFFFFFFFFFFFFF
310
FFFFFFFFFFFFFFFFFFFFFFFFFFFFFFFFFFFFFFFFFFFFFFFFFFFFFFFFFFFFFFFF
310
FFFFFFFFFFFFFFFFFFFFFFFFFFFFFFFFFFFFFFFFFFFFFFFFFFFFFFFFFFFFFFFF
310
FFFFFFFFFFFFFFFFFFFFFFFFFFFFFFFFFFFFFFFFFFFFFFFFFFFFFFFFFFFFFFFF
310
FFFFFFFFFFFFFFFFFFFFFFFFFFFFFFFFFFFFFFFFFFFFFFFFFFFFFFFFFFFFFFFF
310
0100000200000000000000000000000000000000000000000000000000000000
310
0000000000000000000000000000000000000000000000000000000000000000
310
0100FEFF030A0000FFFFFFFF0A00030000000000C00000000000004607000000
310
5042727573680007000000504272757368000700000050427275736800F439B2
310
7100000000000000000000000000000000000000000000000000000000000000
310
0000000000000000000000000000000000000000000000000000000000000000
310
0000000000000000000000000000000000000000000000000000000000000000
310
0000000000000000000000000000000000000000000000000000000000000000
310
0000000000000000000000000000000000000000000000000000000000000000
310
0000000000000000000000000000000000000000000000000000000000000000
310
0000000000000000000000000000000000000000000000000000000000000000
310
0000000000000000000000000000000000000000000000000000000000000000
310
0000000000000000000000000000000000000000000000000000000000000000
310
0000000000000000000000000000000000000000000000000000000000000000
310
0000000000000000000000000000000000000000000000000000000000000000
310
0000000000000000000000000000000000000000000000000000000000000000
310
E0110000424DDE11000000000000360400002800000096000000170000000100
310
08000000000000000000E7240000E72400000001000000010000000000FF0101
310
01FF020202FF030303FF040404FF050505FF060606FF070707FF080808FF0909
310
09FF0A0A0AFF0B0B0BFF0C0C0CFF0D0D0DFF0E0E0EFF0F0F0FFF101010FF1111
310
11FF121212FF131313FF141414FF151515FF161616FF171717FF181818FF1919
310
19FF1A1A1AFF1B1B1BFF1C1C1CFF1D1D1DFF1E1E1EFF1F1F1FFF202020FF2121
310
21FF222222FF232323FF242424FF252525FF262626FF272727FF282828FF2929
310
29FF2A2A2AFF2B2B2BFF2C2C2CFF2D2D2DFF2E2E2EFF2F2F2FFF303030FF3131
310
31FF323232FF333333FF343434FF353535FF363636FF373737FF383838FF3939
310
39FF3A3A3AFF3B3B3BFF3C3C3CFF3D3D3DFF3E3E3EFF3F3F3FFF404040FF4141
310
41FF424242FF434343FF444444FF454545FF464646FF474747FF484848FF4949
310
49FF4A4A4AFF4B4B4BFF4C4C4CFF4D4D4DFF4E4E4EFF4F4F4FFF505050FF5151
310
51FF525252FF535353FF545454FF555555FF565656FF575757FF585858FF5959
310
59FF5A5A5AFF5B5B5BFF5C5C5CFF5D5D5DFF5E5E5EFF5F5F5FFF606060FF6161
310
61FF626262FF636363FF646464FF656565FF666666FF676767FF686868FF6969
310
69FF6A6A6AFF6B6B6BFF6C6C6CFF6D6D6DFF6E6E6EFF6F6F6FFF707070FF7171
310
71FF727272FF737373FF747474FF757575FF767676FF777777FF787878FF7979
310
79FF7A7A7AFF7B7B7BFF7C7C7CFF7D7D7DFF7E7E7EFF7F7F7FFF808080FF8181
310
81FF828282FF838383FF848484FF858585FF868686FF878787FF888888FF8989
310
89FF8A8A8AFF8B8B8BFF8C8C8CFF8D8D8DFF8E8E8EFF8F8F8FFF909090FF9191
310
91FF929292FF939393FF949494FF959595FF969696FF979797FF989898FF9999
310
99FF9A9A9AFF9B9B9BFF9C9C9CFF9D9D9DFF9E9E9EFF9F9F9FFFA0A0A0FFA1A1
310
A1FFA2A2A2FFA3A3A3FFA4A4A4FFA5A5A5FFA6A6A6FFA7A7A7FFA8A8A8FFA9A9
310
A9FFAAAAAAFFABABABFFACACACFFADADADFFAEAEAEFFAFAFAFFFB0B0B0FFB1B1
310
B1FFB2B2B2FFB3B3B3FFB4B4B4FFB5B5B5FFB6B6B6FFB7B7B7FFB8B8B8FFB9B9
310
B9FFBABABAFFBBBBBBFFBCBCBCFFBDBDBDFFBEBEBEFFBFBFBFFFC0C0C0FFC1C1
310
C1FFC2C2C2FFC3C3C3FFC4C4C4FFC5C5C5FFC6C6C6FFC7C7C7FFC8C8C8FFC9C9
310
C9FFCACACAFFCBCBCBFFCCCCCCFFCDCDCDFFCECECEFFCFCFCFFFD0D0D0FFD1D1
310
D1FFD2D2D2FFD3D3D3FFD4D4D4FFD5D5D5FFD6D6D6FFD7D7D7FFD8D8D8FFD9D9
310
D9FFDADADAFFDBDBDBFFDCDCDCFFDDDDDDFFDEDEDEFFDFDFDFFFE0E0E0FFE1E1
310
E1FFE2E2E2FFE3E3E3FFE4E4E4FFE5E5E5FFE6E6E6FFE7E7E7FFE8E8E8FFE9E9
310
E9FFEAEAEAFFEBEBEBFFECECECFFEDEDEDFFEEEEEEFFEFEFEFFFF0F0F0FFF1F1
310
F1FFF2F2F2FFF3F3F3FFF4F4F4FFF5F5F5FFF6F6F6FFF7F7F7FFF8F8F8FFF9F9
310
F9FFFAFAFAFFFBFBFBFFFCFCFCFFFDFDFDFFFEFEFEFFFFFFFFFFFFFFFFFFFFFF
310
C94E4E4E4F4E4EFFFFFFFFFFC94E4E4E4E4E72FFFFFFFFFFFFFF734E4D4E4E4E
310
C9FFFFFFFFFFAA683516171616265B9BE9FFFFFFFFFF4E4E4E4D4E4EFFFFFFFF
310
FFFFFFFF4E4E4F4E4D4E4E4E4F4E4E4F4D4E4E4E4E4E4D4E4F4E4D4E4E4EAAFF
310
FFFFFFFFFFEA4E4F4F4E4E4E4E4E4D4D4F4F4E4E4E4E4E5B7FAAFFFFFFFFFFFF
310
C9744E1716171616164D8DEAFFFFFFFF0000FFFFFFFFFFFFBA161617161716FF
310
FFFFFFFFB917171616174FFFFFFFFFFFFFFF4E1716161616B9FFFFFFB9341717
310
1716171617171616268CFFFFFFFF161617161617FFFFFFFFFFFFFFB917161717
310
1617167F807F7F7F7F7F7F807F7F807F7F807F7F7F414EFFFFFFFFFFFF8C167F
310
7F807F7F7F7E7F7F807F807F7F807F4E3417258EFFFFEA4E162674AABAEAEBBA
310
AA74341680FFFFFF0000FFFFFFFFFFFFB9171717171617FFFFFFFFFFBB161616
310
16164EFFFFFFFFFFFFFF4E1717171717B9FFFF9C171617171716161616171616
310
171766FFFFFF161717161617FFFFFFFFFFFFFF8E16171717161616FFFFFFFFFF
310
FFFFFFFFFFFFFFFFFFFFFFFFFFAA16D9FFFFFFFFFF3467FFFFFFFFEAFFFFFFFF
310
FFFFFFFFFFFFFFFFFFCA671667EB26278DFFFFFFFFFFFFFFFFFFFF8C2541EAFF
310
0000FFFFFFFFFFFFB9171717171716FFFFFFFFFFBA16171617174EFFFFFFFFFF
310
FFFF4E1717161616BAFF9B1617161616171716171617161616161667FFFF1616
310
16161716FFFFFFFFFFFFFF7F16161617174017FFFFFFFFFFFFFFFFFFFFFFFFFF
310
FFFFFFFFFFFF344E7F7F7F7E7417DAFFFFFFFF80FFFFFFFFFFFFFFFFFFFFFFFF
310
FFFFFF9B163425CAFFFFFFFFFFFFFFFFFFFFFFFFCA2667FF0000FFFFFFFFFFFF
310
BA171717171617FFFFFFFFFFB916171716164EFFFFFFFFFFFFFF4F1716161717
310
B9C91716171616161716161617171616161617168DFF161716161717FFFFFFFF
310
FFFFFF7F17171716164F16FFFFFFFFFFFFFFFFFFFFFFFFFFFFFFFFFFFFFF9B16
310
17161617174EFFFFFFFFFF34FFFFFFFFD9BABABABABADAFFFFFFFFFF7F16AAFF
310
FFFFFFFFFFFFFFFFFFFFFFFFFF9C16BA0000FFFFFFFFFFFFB9161717161717FF
310
FFFFFFFFB917161716174DFFFFFFFFFFFFFF4E1616161616BA4E161617171716
310
419BEAEAAA4E16161617161726E9171717161616FFFFFFFFFFFFFF4F16161717
310
164E16FFFFFFFFFFBAB9B9B9B9B9BABABACAFFFFFFFFFFFFFFFFFFFFFFFFFFFF
310
FFFFBA16FFFFFFFF7F1617161617174DEAFFFFFFEA41FFFFFFFFFFAA4D16174E
310
9BFFFFFFFFFF34730000FFFFFFFFFFFFB9161617171617FFFFFFFFFFBA161616
310
16164EFFFFFFFFFFFFFF4F16161717169B1617161716175BFFFFFFFFFFFF7417
310
16171616168D171717161617FFFFFFFFFFFFEA2616171717167416FFFFFFFFFF
310
16171616171717171717EAFFFFFFFFFFFFFFFFFFFFFFFFFFFFFF6716FFFFFFFF
310
7F4EFFFFFFFFBA2573FFFFFFFFBAFFFFFFFFAA167FB9BB9B269BFFFFFFFF664F
310
0000FFFFFFFFFFFFB9171616161616FFFFFFFFFFBA16161717164EFFFFFFFFFF
310
FFFF4E16161616174E161617171626EAFFFFFFFFFFFFFF4E16161616164E1716
310
16161617FFFFFFFFFFFF671616161716347F16FFFFFFFFFF16B9FFFFFFFFFFFF
310
D9168DFFFFFFFFFFFFFFFFFFFFFFFFFFFFEA1716FFFFFFFF7F4EFFFFFFFFFF7F
310
4EFFFFFFFFFFFFFFFFFF5B66FFFFFFEA347FFFFFFFFF7F4D0000FFFFFFFFFFFF
310
B9171616171617FFFFFFFFFFBA17161716174EFFFFFFFFFFFFFF4D1716161617
310
17161716161673FFFFFFFFFFFFFFFF9B1617161717161616171616174F4E4E4E
310
4E341616171616167E7F16FFFFFFFFFF16BAFFFFFFFFFFFFFF5B41FFFFFFFF34
310
1616171616BAFFFFFF9B1716FFFFFFFF7F4EFFFFFFFFFF4E4EFFFFFFFF734E4E
310
4E4E267EDA9B67164EEAFFFFFFFF744D0000FFFFFFFFFFFFBA171717161617FF
310
FFFFFFFFBA1616171616347F7F7F7F80807F331616161717161717161716B9FF
310
FFFFFFFFFFFFFFE9161616161616171716161716171616161616171616171734
310
EA7F16FFFFFFFFFF16BAFFFFFFFFFFFFFFAA17C9FFFFFF7326BABA5B25FFFFFF
310
FF401716FFFFFFFF7F264F4E4E4E4217AAFFFFFFEA16677F73261616164173CA
310
FFFFFFFFFFFF417F0000FFFFFFFFFFFFBA171616171617FFFFFFFFFFBA161616
310
17171616161616161616161717161616161616161617EAFFFFFFFFFFFFFFFFFF
310
261717161716161617161616161617161617161616174EEAFF8016FFFFFFFFFF
310
17BAFFFFFFFFFFFFFFFF3467FFFFFFC916C9FF3467FFFFFFDA166716FFFFFFFF
310
9C4D4E4E4E4E67AAFFFFFFFF6834FF7F262567AAEAFFFFFFFFFFFFFFFF9B17D9
310
0000FFFFFFFFFFFFB9161616161616FFFFFFFFFFBA1617161717171616161616
310
1716171716161716161617171716FFFFFFFFFFFFFFFFFFFF4E17161716171616
310
1617171616161716171717161616169BFF7F17FFFFFFFFFF17B9FFFFFFFFFFFF
310
FFFF7326FFFFFFFF3473DA16AAFFFFFF7317AA16FFFFFFFFFFFFFFFFFFFFFFFF
310
FFFFEA6725BA4E167FEAFFFFFFFFFFFFFFFFFFFF9C167FFF0000FFFFFFFFFFFF
310
B9161717171716FFFFFFFFFFBA16161716171616171717161617161716161616
310
171617171617EAFFFFFFFFFFFFFFFFFF26161717161616161616161617171616
310
1616161616171616AA8016FFFFFFFFFF16BAFFFFFFFFFFFFFFFFDA179BFFFFFF
310
74348D26FFFFFFFF2566B917FFFFFFFFD8BAB9BAB9BADAFFFFEA41169B7425C9
310
FFFFFFFFFFFFFFFFFFFFAB4F1680FFFF0000FFFFFFFFFFFFBA161717171617FF
310
FFFFFFFFBA17161717161617171617161616161617171616171716171617BBFF
310
FFFFFFFFFFFFFFE9171616161617161617161716FFFFFFFFFFD9671616161617
310
348017FFFFFFFFFF16BAFFFFFFFFFFFFFFFFFF4E5AFFFFFFC916265AFFFFFFAA
310
16AABA16FFFFFFFF7F1617161616179BFFFFEB4127168DFFFFFFFFFFFFFFD99B
310
6734175AC9FFFFFF0000FFFFFFFFFFFFB9161617171617FFFFFFFFFFBB161616
310
1616347F807F7F7F7F8033171716171617171616161672FFFFFFFFFFFFFFFF9C
310
171617171617161716161617FFFFFFFFFFFFFF4117161616174E17FFFFFFFFFF
310
16BAFFFFFFFFFFFFFFFFFF9B16DAFFFFFF34169BFFFFFF5A26FFB917FFFFFFFF
310
7F4EFFFFFFEA5B26FFFFFFEA2616EAFFFFFFFFDA743416331617414E4E4E4ECA
310
0000FFFFFFFFFFFFBA161716161616FFFFFFFFFFBA17171616164EFFFFFFFFFF
310
FFFF4E16161717174E161717171626EBFFFFFFFFFFFFFF4E16161617165B1616
310
16171617FFFFFFFFFFFFFF6716161616161617FFFFFFFFFF16BAFFFFFFFFFFFF
310
FFFFFFEA268CFFFFFF7316EAFFFFEB1774FFB916FFFFFFFF7F4EFFFFFFFF7316
310
FFFFFFFF6826FFFFFFFFEB264D9CEABA257F807F7F6616BA0000FFFFFFFFFFFF
310
BA161716161616FFFFFFFFFFBA16171616164DFFFFFFFFFFFFFF4E1617161617
310
9B1617171717165BEBFFFFFFFFFF671616161617179B171616161616FFFFFFFF
310
FFFFFF3417161617171617FFFFFFFFFF17BAFFFFFFFFFFFFFFFFFFFF6734FFFF
310
FFEBCAFFFFFF8D17C9FFBA17FFFFFFFF7F357F808066174FFFFFFFFF7F16FFFF
310
FFFFD91673B99B415BFFFFFFFFBA16DA00009B7F7F7F807F671617161616167F
310
80807F7E6617161616164EFFFFFFFFFFFFFF4E1616161617B94E171716161616
310
349BC9D9AA4E16171616161634FF161617161717B9B9BAB9BA9B411716171716
310
163416FFFFFFFFFF16B9FFFFFFFFFFFFFFFFFFFFC917CAFFFFFFFFFFFFFF3342
310
FFFFBA17FFFFFFFF9B4E4E4F4E4E66EAFFFFFFFF5B16C9FFFFFFFFAA4E164E73
310
EAFFFFFFFF8D26FF00004E161716161616171617171616171717171617161616
310
17174EFFFFFFFFFFFFFF4E1717171616B9D92616171716171716171717171716
310
16171716AAFF161717171617161617171616161617161716166717FFFFFFFFFF
310
17B9FFFFFFFFFFFFFFFFFFFFFF3467FFFFFFFFFFFFCA168CFFFFBB17FFFFFFFF
310
FFFFFFFFFFFFFFFFFFFFFFEA26265BFFFFFFFFFFFFFFFFFFFFFFFFFFEA3467FF
310
00004D16161616161617161717161617161616171617171616164EFFFFFFFFFF
310
FFFF4D1617161616BAFF9B1616161616161716161616171717161766FFFF1616
310
16171617161617161716171616171717667F16FFFFFFFFFF17BAFFFFFFFFFFFF
310
FFFFFFFFFF8C26EAFFFFFFFFFF6617EAFFFFBA17FFFFFFFFFFFFFFFFFFFFFFFF
310
FFFFEA5A25BA269BFFFFFFFFFFFFFFFFFFFFFFFF6616DAFF00004E1616171616
310
1616161616161716161617171616171616174EFFFFFFFFFFFFFF4D1717171716
310
B9FFFF9C161616161616161716161717171667FFFFFF17161717171716161617
310
1716161616161641E97E16FFFFFFFFFF16B9FFFFFFFFFFFFFFFFFFFFFFEA169B
310
FFFFFFFFEA265BFFFFFFB916FFFFFFFFFFFFFFFFFFFFFFFFFF9B3416AAFF9B17
310
67EAFFFFFFFFFFFFFFFFEA5B169BFFFF00004D17161716161616161717171616
310
161717161716171716174EFFFFFFFFFFFFFF4D1616161616BAFFFFFFBB411616
310
161716161616171634ABFFFFFFFF161716161617171716171617171617267FFF
310
FF7F164E4E4E4E4F17BAFFFFFFFFFFFFFFFFFFFFFFFF66344D4E4E4F4117AAFF
310
FFFFBA174E4E4E4D4E4D4D4E4E4E4E4116174EBBFFFFFFCA342666ABEAFFFFEA
310
AA6725269CFFFFFF0000724F4E4D4D4D4E4D4D4E4E4E4D4E4E4E4E4E4E4E4E4D
310
4E4E74FFFFFFFFFFFFFF734E4E4E4D4ECAFFFFFFFFFFAA663416171717265B9B
310
FFFFFFFFFFFF7F8080807F80807F7F7F7F7F807FBAFFFFFFFF9B4E4E4F4D4D4E
310
4DC9FFFFFFFFFFFFFFFFFFFFFFFFBA4E4E4E4E4D4E4EFFFFFFFFC94E4E4E4F4E
310
4E4E4D4E4E5A807F9CD9FFFFFFFFFFFFFF9B5B2617171716174E8DEAFFFFFFFF
310
0000000000000000000000000000000000000000000000000000000000000000
  1
OLE
  0
ENDSEC
  0
SECTION
  2
OBJECTS
  0
DICTIONARY
  5
C
330
0
100
AcDbDictionary
281
     1
  3
ACAD_GROUP
350
D
  3
ACAD_LAYOUT
350
1A
  3
ACAD_MLINESTYLE
350
17
  3
ACAD_PLOTSETTINGS
350
19
  3
ACAD_PLOTSTYLENAME
350
E
  3
ACAD_SCALELIST
350
47
  0
DICTIONARY
  5
D
102
{ACAD_REACTORS
330
C
102
}
330
C
100
AcDbDictionary
281
     1
  0
DICTIONARY
  5
1A
102
{ACAD_REACTORS
330
C
102
}
330
C
100
AcDbDictionary
281
     1
  3
Layout1
350
1E
  3
Layout2
350
26
  3
Model
350
22
  0
DICTIONARY
  5
17
102
{ACAD_REACTORS
330
C
102
}
330
C
100
AcDbDictionary
281
     1
  3
Standard
350
18
  0
DICTIONARY
  5
19
102
{ACAD_REACTORS
330
C
102
}
330
C
100
AcDbDictionary
281
     1
  0
ACDBDICTIONARYWDFLT
  5
E
102
{ACAD_REACTORS
330
C
102
}
330
C
100
AcDbDictionary
281
     1
  3
Normal
350
F
100
AcDbDictionaryWithDefault
340
F
  0
DICTIONARY
  5
47
102
{ACAD_REACTORS
330
C
102
}
330
C
100
AcDbDictionary
281
     1
  3
A0
350
48
  3
A1
350
49
  3
A2
350
4A
  3
A3
350
4B
  3
A4
350
4C
  3
A5
350
4D
  3
A6
350
4E
  3
A7
350
4F
  3
A8
350
50
  3
A9
350
51
  3
B0
350
52
  3
B1
350
53
  3
B2
350
54
  3
B3
350
55
  3
B4
350
56
  3
B5
350
57
  3
B6
350
58
  3
B7
350
59
  3
B8
350
5A
  3
B9
350
5B
  3
C0
350
5C
  3
C1
350
5D
  3
C2
350
5E
  3
C3
350
5F
  3
C4
350
60
  3
C5
350
61
  3
C6
350
62
  3
C7
350
63
  3
C8
350
64
  3
C9
350
65
  3
D0
350
66
  3
D1
350
67
  3
D2
350
68
  0
LAYOUT
  5
1E
102
{ACAD_REACTORS
330
1A
102
}
330
1A
100
AcDbPlotSettings
  1

  2
none_device
  4

  6

 40
0.0
 41
0.0
 42
0.0
 43
0.0
 44
0.0
 45
0.0
 46
0.0
 47
0.0
 48
0.0
 49
0.0
140
0.0
141
0.0
142
1.0
143
1.0
 70
   688
 72
     1
 73
     0
 74
     5
  7

 75
    16
147
1.0
148
0.0
149
0.0
100
AcDbLayout
  1
Layout1
 70
     1
 71
     1
 10
0.0
 20
0.0
 11
420.0
 21
297.0
 12
0.0
 22
0.0
 32
0.0
 14
1.0000000000E+20
 24
1.0000000000E+20
 34
1.0000000000E+20
 15
-1.0000000000E+20
 25
-1.0000000000E+20
 35
-1.0000000000E+20
146
0.0
 13
0.0
 23
0.0
 33
0.0
 16
1.0
 26
0.0
 36
0.0
 17
0.0
 27
1.0
 37
0.0
 76
     0
330
1B
  0
LAYOUT
  5
26
102
{ACAD_REACTORS
330
1A
102
}
330
1A
100
AcDbPlotSettings
  1

  2
none_device
  4

  6

 40
0.0
 41
0.0
 42
0.0
 43
0.0
 44
0.0
 45
0.0
 46
0.0
 47
0.0
 48
0.0
 49
0.0
140
0.0
141
0.0
142
1.0
143
1.0
 70
   688
 72
     1
 73
     0
 74
     5
  7

 75
    16
147
1.0
148
0.0
149
0.0
100
AcDbLayout
  1
Layout2
 70
     1
 71
     2
 10
0.0
 20
0.0
 11
0.0
 21
0.0
 12
0.0
 22
0.0
 32
0.0
 14
0.0
 24
0.0
 34
0.0
 15
0.0
 25
0.0
 35
0.0
146
0.0
 13
0.0
 23
0.0
 33
0.0
 16
1.0
 26
0.0
 36
0.0
 17
0.0
 27
1.0
 37
0.0
 76
     0
330
23
  0
LAYOUT
  5
22
102
{ACAD_REACTORS
330
1A
102
}
330
1A
100
AcDbPlotSettings
  1

  2
none_device
  4
Letter_(8.50_x_11.00_Inches)
  6

 40
6.35
 41
6.35
 42
6.35000508
 43
6.35000508
 44
215.9
 45
279.4
 46
0.0
 47
0.0
 48
0.0
 49
0.0
140
0.0
141
0.0
142
1.0
143
1.0
 70
  1712
 72
     1
 73
     0
 74
     0
  7

 75
     0
147
1.0
148
0.0
149
0.0
100
AcDbLayout
  1
Model
 70
     1
 71
     0
 10
0.0
 20
0.0
 11
279.4
 21
215.9
 12
0.0
 22
0.0
 32
0.0
 14
0.0
 24
0.0
 34
0.0
 15
279.4
 25
215.9
 35
0.0
146
0.0
 13
0.0
 23
0.0
 33
0.0
 16
1.0
 26
0.0
 36
0.0
 17
0.0
 27
1.0
 37
0.0
 76
     0
330
1F
331
29
  0
MLINESTYLE
  5
18
102
{ACAD_REACTORS
330
17
102
}
330
17
100
AcDbMlineStyle
  2
Standard
 70
     0
  3

 62
   256
 51
90.0
 52
90.0
 71
     2
 49
0.5
 62
   256
  6
BYLAYER
 49
-0.5
 62
   256
  6
BYLAYER
  0
ACDBPLACEHOLDER
  5
F
102
{ACAD_REACTORS
330
E
102
}
330
E
  0
SCALE
  5
48
102
{ACAD_REACTORS
330
47
102
}
330
47
100
AcDbScale
 70
     0
300
1:1
140
1.0
141
1.0
290
     1
  0
SCALE
  5
49
102
{ACAD_REACTORS
330
47
102
}
330
47
100
AcDbScale
 70
     0
300
1:2
140
1.0
141
2.0
290
     0
  0
SCALE
  5
4A
102
{ACAD_REACTORS
330
47
102
}
330
47
100
AcDbScale
 70
     0
300
1:4
140
1.0
141
4.0
290
     0
  0
SCALE
  5
4B
102
{ACAD_REACTORS
330
47
102
}
330
47
100
AcDbScale
 70
     0
300
1:5
140
1.0
141
5.0
290
     0
  0
SCALE
  5
4C
102
{ACAD_REACTORS
330
47
102
}
330
47
100
AcDbScale
 70
     0
300
1:8
140
1.0
141
8.0
290
     0
  0
SCALE
  5
4D
102
{ACAD_REACTORS
330
47
102
}
330
47
100
AcDbScale
 70
     0
300
1:10
140
1.0
141
10.0
290
     0
  0
SCALE
  5
4E
102
{ACAD_REACTORS
330
47
102
}
330
47
100
AcDbScale
 70
     0
300
1:16
140
1.0
141
16.0
290
     0
  0
SCALE
  5
4F
102
{ACAD_REACTORS
330
47
102
}
330
47
100
AcDbScale
 70
     0
300
1:20
140
1.0
141
20.0
290
     0
  0
SCALE
  5
50
102
{ACAD_REACTORS
330
47
102
}
330
47
100
AcDbScale
 70
     0
300
1:30
140
1.0
141
30.0
290
     0
  0
SCALE
  5
51
102
{ACAD_REACTORS
330
47
102
}
330
47
100
AcDbScale
 70
     0
300
1:40
140
1.0
141
40.0
290
     0
  0
SCALE
  5
52
102
{ACAD_REACTORS
330
47
102
}
330
47
100
AcDbScale
 70
     0
300
1:50
140
1.0
141
50.0
290
     0
  0
SCALE
  5
53
102
{ACAD_REACTORS
330
47
102
}
330
47
100
AcDbScale
 70
     0
300
1:100
140
1.0
141
100.0
290
     0
  0
SCALE
  5
54
102
{ACAD_REACTORS
330
47
102
}
330
47
100
AcDbScale
 70
     0
300
2:1
140
2.0
141
1.0
290
     0
  0
SCALE
  5
55
102
{ACAD_REACTORS
330
47
102
}
330
47
100
AcDbScale
 70
     0
300
4:1
140
4.0
141
1.0
290
     0
  0
SCALE
  5
56
102
{ACAD_REACTORS
330
47
102
}
330
47
100
AcDbScale
 70
     0
300
8:1
140
8.0
141
1.0
290
     0
  0
SCALE
  5
57
102
{ACAD_REACTORS
330
47
102
}
330
47
100
AcDbScale
 70
     0
300
10:1
140
10.0
141
1.0
290
     0
  0
SCALE
  5
58
102
{ACAD_REACTORS
330
47
102
}
330
47
100
AcDbScale
 70
     0
300
100:1
140
100.0
141
1.0
290
     0
  0
SCALE
  5
59
102
{ACAD_REACTORS
330
47
102
}
330
47
100
AcDbScale
 70
     0
300
1/128" = 1'-0"
140
0.0078125
141
12.0
290
     0
  0
SCALE
  5
5A
102
{ACAD_REACTORS
330
47
102
}
330
47
100
AcDbScale
 70
     0
300
1/64" = 1'-0"
140
0.015625
141
12.0
290
     0
  0
SCALE
  5
5B
102
{ACAD_REACTORS
330
47
102
}
330
47
100
AcDbScale
 70
     0
300
1/32" = 1'-0"
140
0.03125
141
12.0
290
     0
  0
SCALE
  5
5C
102
{ACAD_REACTORS
330
47
102
}
330
47
100
AcDbScale
 70
     0
300
1/16" = 1'-0"
140
0.0625
141
12.0
290
     0
  0
SCALE
  5
5D
102
{ACAD_REACTORS
330
47
102
}
330
47
100
AcDbScale
 70
     0
300
3/32" = 1'-0"
140
0.09375
141
12.0
290
     0
  0
SCALE
  5
5E
102
{ACAD_REACTORS
330
47
102
}
330
47
100
AcDbScale
 70
     0
300
1/8" = 1'-0"
140
0.125
141
12.0
290
     0
  0
SCALE
  5
5F
102
{ACAD_REACTORS
330
47
102
}
330
47
100
AcDbScale
 70
     0
300
3/16" = 1'-0"
140
0.1875
141
12.0
290
     0
  0
SCALE
  5
60
102
{ACAD_REACTORS
330
47
102
}
330
47
100
AcDbScale
 70
     0
300
1/4" = 1'-0"
140
0.25
141
12.0
290
     0
  0
SCALE
  5
61
102
{ACAD_REACTORS
330
47
102
}
330
47
100
AcDbScale
 70
     0
300
3/8" = 1'-0"
140
0.375
141
12.0
290
     0
  0
SCALE
  5
62
102
{ACAD_REACTORS
330
47
102
}
330
47
100
AcDbScale
 70
     0
300
1/2" = 1'-0"
140
0.5
141
12.0
290
     0
  0
SCALE
  5
63
102
{ACAD_REACTORS
330
47
102
}
330
47
100
AcDbScale
 70
     0
300
3/4" = 1'-0"
140
0.75
141
12.0
290
     0
  0
SCALE
  5
64
102
{ACAD_REACTORS
330
47
102
}
330
47
100
AcDbScale
 70
     0
300
1" = 1'-0"
140
1.0
141
12.0
290
     0
  0
SCALE
  5
65
102
{ACAD_REACTORS
330
47
102
}
330
47
100
AcDbScale
 70
     0
300
1-1/2" = 1'-0"
140
1.5
141
12.0
290
     0
  0
SCALE
  5
66
102
{ACAD_REACTORS
330
47
102
}
330
47
100
AcDbScale
 70
     0
300
3" = 1'-0"
140
3.0
141
12.0
290
     0
  0
SCALE
  5
67
102
{ACAD_REACTORS
330
47
102
}
330
47
100
AcDbScale
 70
     0
300
6" = 1'-0"
140
6.0
141
12.0
290
     0
  0
SCALE
  5
68
102
{ACAD_REACTORS
330
47
102
}
330
47
100
AcDbScale
 70
     0
300
1'-0" = 1'-0"
140
12.0
141
12.0
290
     0
  0
ENDSEC
  0
EOF
