  0
SECTION
  2
HEADER
  9
$ACADVER
  1
AC1015
  9
$ACADMAINTVER
 70
     6
  9
$DWGCODEPAGE
  3
ANSI_1252
  9
$INSBASE
 10
0.0
 20
0.0
 30
0.0
  9
$EXTMIN
 10
-117.0
 20
-25.00000000000003
 30
-0.00000001
  9
$EXTMAX
 10
225.0
 20
207.6131494357564
 30
0.00000001
  9
$LIMMIN
 10
-200.0
 20
-200.0
  9
$LIMMAX
 10
500.0
 20
500.0
  9
$ORTHOMODE
 70
     0
  9
$REGENMODE
 70
     1
  9
$FILLMODE
 70
     1
  9
$QTEXTMODE
 70
     0
  9
$MIRRTEXT
 70
     1
  9
$LTSCALE
 40
5.0
  9
$ATTMODE
 70
     1
  9
$TEXTSIZE
 40
2.5
  9
$TRACEWID
 40
1.0
  9
$TEXTSTYLE
  7
STANDARD
  9
$CLAYER
  8
HILFSLINIEN4
  9
$CELTYPE
  6
BYLAYER
  9
$CECOLOR
 62
   256
  9
$CELTSCALE
 40
1.0
  9
$DISPSILH
 70
     0
  9
$DIMSCALE
 40
1.0
  9
$DIMASZ
 40
3.5
  9
$DIMEXO
 40
0.625
  9
$DIMDLI
 40
3.75
  9
$DIMRND
 40
0.0
  9
$DIMDLE
 40
0.0
  9
$DIMEXE
 40
1.25
  9
$DIMTP
 40
0.0
  9
$DIMTM
 40
0.0
  9
$DIMTXT
 40
2.5
  9
$DIMCEN
 40
2.5
  9
$DIMTSZ
 40
0.0
  9
$DIMTOL
 70
     0
  9
$DIMLIM
 70
     0
  9
$DIMTIH
 70
     0
  9
$DIMTOH
 70
     0
  9
$DIMSE1
 70
     0
  9
$DIMSE2
 70
     0
  9
$DIMTAD
 70
     0
  9
$DIMZIN
 70
     8
  9
$DIMBLK
  1

  9
$DIMASO
 70
     1
  9
$DIMSHO
 70
     1
  9
$DIMPOST
  1
mm\X
  9
$DIMAPOST
  1
"
  9
$DIMALT
 70
     1
  9
$DIMALTD
 70
     4
  9
$DIMALTF
 40
0.03937
  9
$DIMLFAC
 40
1.0
  9
$DIMTOFL
 70
     1
  9
$DIMTVP
 40
0.0
  9
$DIMTIX
 70
     0
  9
$DIMSOXD
 70
     0
  9
$DIMSAH
 70
     0
  9
$DIMBLK1
  1

  9
$DIMBLK2
  1

  9
$DIMSTYLE
  2
STANDARD mit Zoll
  9
$DIMCLRD
 70
     0
  9
$DIMCLRE
 70
     0
  9
$DIMCLRT
 70
     0
  9
$DIMTFAC
 40
1.0
  9
$DIMGAP
 40
0.625
  9
$DIMJUST
 70
     0
  9
$DIMSD1
 70
     0
  9
$DIMSD2
 70
     0
  9
$DIMTOLJ
 70
     1
  9
$DIMTZIN
 70
     8
  9
$DIMALTZ
 70
     8
  9
$DIMALTTZ
 70
     0
  9
$DIMUPT
 70
     0
  9
$DIMDEC
 70
     4
  9
$DIMTDEC
 70
     4
  9
$DIMALTU
 70
     2
  9
$DIMALTTD
 70
     4
  9
$DIMTXSTY
  7
STANDARD
  9
$DIMAUNIT
 70
     1
  9
$DIMADEC
 70
     0
  9
$DIMALTRND
 40
0.01
  9
$DIMAZIN
 70
     0
  9
$DIMDSEP
 70
    46
  9
$DIMATFIT
 70
     3
  9
$DIMFRAC
 70
     0
  9
$DIMLDRBLK
  1

  9
$DIMLUNIT
 70
     2
  9
$DIMLWD
 70
    -2
  9
$DIMLWE
 70
    -2
  9
$DIMTMOVE
 70
     0
  9
$LUNITS
 70
     2
  9
$LUPREC
 70
     4
  9
$SKETCHINC
 40
1.0
  9
$FILLETRAD
 40
3.0
  9
$AUNITS
 70
     0
  9
$AUPREC
 70
     0
  9
$MENU
  1
acad
  9
$ELEVATION
 40
0.0
  9
$PELEVATION
 40
0.0
  9
$THICKNESS
 40
0.0
  9
$LIMCHECK
 70
     0
  9
$CHAMFERA
 40
0.0
  9
$CHAMFERB
 40
0.0
  9
$CHAMFERC
 40
0.0
  9
$CHAMFERD
 40
0.0
  9
$SKPOLY
 70
     1
  9
$TDCREATE
 40
2453353.630561689
  9
$TDUCREATE
 40
2453353.588895023
  9
$TDUPDATE
 40
2453755.494595798
  9
$TDUUPDATE
 40
2453755.452929132
  9
$TDINDWG
 40
9.8058819792
  9
$TDUSRTIMER
 40
9.8058814352
  9
$USRTIMER
 70
     1
  9
$ANGBASE
 50
0.0
  9
$ANGDIR
 70
     0
  9
$PDMODE
 70
     3
  9
$PDSIZE
 40
0.0
  9
$PLINEWID
 40
0.0
  9
$SPLFRAME
 70
     0
  9
$SPLINETYPE
 70
     6
  9
$SPLINESEGS
 70
     8
  9
$HANDSEED
  5
48C0
  9
$SURFTAB1
 70
     6
  9
$SURFTAB2
 70
     6
  9
$SURFTYPE
 70
     6
  9
$SURFU
 70
     6
  9
$SURFV
 70
     6
  9
$UCSBASE
  2

  9
$UCSNAME
  2

  9
$UCSORG
 10
0.0
 20
0.0
 30
0.0
  9
$UCSXDIR
 10
1.0
 20
0.0
 30
0.0
  9
$UCSYDIR
 10
0.0
 20
1.0
 30
0.0
  9
$UCSORTHOREF
  2

  9
$UCSORTHOVIEW
 70
     0
  9
$UCSORGTOP
 10
0.0
 20
0.0
 30
0.0
  9
$UCSORGBOTTOM
 10
0.0
 20
0.0
 30
0.0
  9
$UCSORGLEFT
 10
0.0
 20
0.0
 30
0.0
  9
$UCSORGRIGHT
 10
0.0
 20
0.0
 30
0.0
  9
$UCSORGFRONT
 10
0.0
 20
0.0
 30
0.0
  9
$UCSORGBACK
 10
0.0
 20
0.0
 30
0.0
  9
$PUCSBASE
  2

  9
$PUCSNAME
  2

  9
$PUCSORG
 10
0.0
 20
0.0
 30
0.0
  9
$PUCSXDIR
 10
1.0
 20
0.0
 30
0.0
  9
$PUCSYDIR
 10
0.0
 20
1.0
 30
0.0
  9
$PUCSORTHOREF
  2

  9
$PUCSORTHOVIEW
 70
     0
  9
$PUCSORGTOP
 10
0.0
 20
0.0
 30
0.0
  9
$PUCSORGBOTTOM
 10
0.0
 20
0.0
 30
0.0
  9
$PUCSORGLEFT
 10
0.0
 20
0.0
 30
0.0
  9
$PUCSORGRIGHT
 10
0.0
 20
0.0
 30
0.0
  9
$PUCSORGFRONT
 10
0.0
 20
0.0
 30
0.0
  9
$PUCSORGBACK
 10
0.0
 20
0.0
 30
0.0
  9
$USERI1
 70
     0
  9
$USERI2
 70
     0
  9
$USERI3
 70
     0
  9
$USERI4
 70
     0
  9
$USERI5
 70
     0
  9
$USERR1
 40
0.0
  9
$USERR2
 40
0.0
  9
$USERR3
 40
0.0
  9
$USERR4
 40
0.0
  9
$USERR5
 40
0.0
  9
$WORLDVIEW
 70
     1
  9
$SHADEDGE
 70
     3
  9
$SHADEDIF
 70
    70
  9
$TILEMODE
 70
     0
  9
$MAXACTVP
 70
    48
  9
$PINSBASE
 10
0.0
 20
0.0
 30
0.0
  9
$PLIMCHECK
 70
     0
  9
$PEXTMIN
 10
-5.0
 20
-9.0
 30
0.0
  9
$PEXTMAX
 10
290.0
 20
203.0
 30
0.0
  9
$PLIMMIN
 10
-5.766734619140624
 20
-5.766749877929687
  9
$PLIMMAX
 10
291.2862744140625
 20
204.1219067382812
  9
$UNITMODE
 70
     0
  9
$VISRETAIN
 70
     0
  9
$PLINEGEN
 70
     0
  9
$PSLTSCALE
 70
     1
  9
$TREEDEPTH
 70
  3020
  9
$CMLSTYLE
  2
STANDARD
  9
$CMLJUST
 70
     0
  9
$CMLSCALE
 40
1.0
  9
$PROXYGRAPHICS
 70
     1
  9
$MEASUREMENT
 70
     0
  9
$CELWEIGHT
370
    -1
  9
$ENDCAPS
280
     0
  9
$JOINSTYLE
280
     0
  9
$LWDISPLAY
290
     0
  9
$INSUNITS
 70
     0
  9
$HYPERLINKBASE
  1

  9
$STYLESHEET
  1
Thorlabs Ploteinstellung normal.ctb
  9
$XEDIT
290
     1
  9
$CEPSNTYPE
380
     0
  9
$PSTYLEMODE
290
     1
  9
$FINGERPRINTGUID
  2
{A4AF4F70-9B4A-11D7-A358-0050FC5F506F}
  9
$VERSIONGUID
  2
{DF3D5AA8-9310-41BD-8BC2-64EA59BAA91A}
  9
$EXTNAMES
290
     1
  9
$PSVPSCALE
 40
0.0
  9
$OLESTARTUP
290
     0
  0
ENDSEC
  0
SECTION
  2
CLASSES
  0
CLASS
  1
HATCH
  2
AcDbHatch
  3
AutoCAD 2000
 90
    32768
280
     0
281
     1
  0
CLASS
  1
LWPOLYLINE
  2
AcDbPolyline
  3
AutoCAD 2000
 90
    32768
280
     0
281
     1
  0
CLASS
  1
ACDBDICTIONARYWDFLT
  2
AcDbDictionaryWithDefault
  3
AutoCAD 2000
 90
        0
280
     0
281
     0
  0
CLASS
  1
ACDBPLACEHOLDER
  2
AcDbPlaceHolder
  3
AutoCAD 2000
 90
        0
280
     0
281
     0
  0
CLASS
  1
LAYOUT
  2
AcDbLayout
  3
AutoCAD 2000
 90
        0
280
     0
281
     0
  0
CLASS
  1
DICTIONARYVAR
  2
AcDbDictionaryVar
  3
AutoCAD 2000
 90
        0
280
     0
281
     0
  0
ENDSEC
  0
SECTION
  2
TABLES
  0
TABLE
  2
VPORT
  5
12
330
0
100
AcDbSymbolTable
 70
     1
  0
VPORT
  5
48AC
330
12
100
AcDbSymbolTableRecord
100
AcDbViewportTableRecord
  2
*Active
 70
     0
 10
0.0
 20
0.0
 11
1.0
 21
1.0
 12
33.80291949780652
 22
77.27725295201054
 13
0.0
 23
0.0
 14
1.0
 24
1.0
 15
10.0
 25
10.0
 16
0.0
 26
0.0
 36
1.0
 17
0.0
 27
0.0
 37
0.0
 40
295.1658927424761
 41
1.475967174677608
 42
50.0
 43
0.0
 44
0.0
 50
0.0
 51
0.0
 71
     0
 72
   100
 73
     1
 74
     1
 75
     1
 76
     1
 77
     0
 78
     1
281
     0
 65
     1
110
0.0
120
0.0
130
0.0
111
1.0
121
0.0
131
0.0
112
0.0
122
1.0
132
0.0
 79
     0
146
0.0
  0
ENDTAB
  0
TABLE
  2
LTYPE
  5
D
330
0
100
AcDbSymbolTable
 70
     3
  0
LTYPE
  5
E
330
D
100
AcDbSymbolTableRecord
100
AcDbLinetypeTableRecord
  2
BYBLOCK
 70
     0
  3

 72
    65
 73
     0
 40
0.0
  0
LTYPE
  5
F
330
D
100
AcDbSymbolTableRecord
100
AcDbLinetypeTableRecord
  2
BYLAYER
 70
     0
  3

 72
    65
 73
     0
 40
0.0
  0
LTYPE
  5
5
330
D
100
AcDbSymbolTableRecord
100
AcDbLinetypeTableRecord
  2
CONTINUOUS
 70
     0
  3
Solid line
 72
    65
 73
     0
 40
0.0
  0
LTYPE
  5
8C
330
D
100
AcDbSymbolTableRecord
100
AcDbLinetypeTableRecord
  2
VERDECKTX2
 70
     0
  3
Verdeckt (2x) ____ ____ ____ ____ ____ ____ ___
 72
    65
 73
     2
 40
0.75
 49
0.5
 74
     0
 49
-0.25
 74
     0
  0
LTYPE
  5
9F
330
D
100
AcDbSymbolTableRecord
100
AcDbLinetypeTableRecord
  2
MITTE2
 70
     0
  3
Mitte (.5x) ___ _ ___ _ ___ _ ___ _ ___ _ ___
 72
    65
 73
     4
 40
1.125
 49
0.75
 74
     0
 49
-0.125
 74
     0
 49
0.125
 74
     0
 49
-0.125
 74
     0
  0
ENDTAB
  0
TABLE
  2
LAYER
  5
A
330
0
100
AcDbSymbolTable
 70
    20
  0
LAYER
  5
4
330
A
100
AcDbSymbolTableRecord
100
AcDbLayerTableRecord
  2
0
 70
     0
 62
     7
  6
CONTINUOUS
370
    -3
390
597
  0
LAYER
  5
84
330
A
100
AcDbSymbolTableRecord
100
AcDbLayerTableRecord
  2
MECH_KONTUR1
 70
     0
 62
     7
  6
CONTINUOUS
370
    -3
390
597
  0
LAYER
  5
85
330
A
100
AcDbSymbolTableRecord
100
AcDbLayerTableRecord
  2
MECH_KONTUR2
 70
     0
 62
   221
  6
VERDECKTX2
370
    -3
390
597
  0
LAYER
  5
B7
330
A
100
AcDbSymbolTableRecord
100
AcDbLayerTableRecord
  2
MECH_SICHTLINIE
 70
     0
 62
     1
  6
CONTINUOUS
370
    -3
390
597
  0
LAYER
  5
B8
330
A
100
AcDbSymbolTableRecord
100
AcDbLayerTableRecord
  2
MECH_MITTELLINIE
 70
     0
 62
     3
  6
MITTE2
370
    -3
390
597
  0
LAYER
  5
C0
330
A
100
AcDbSymbolTableRecord
100
AcDbLayerTableRecord
  2
MECH_BEM_NORMAL
 70
     0
 62
     2
  6
CONTINUOUS
370
    -3
390
597
  0
LAYER
  5
EB
330
A
100
AcDbSymbolTableRecord
100
AcDbLayerTableRecord
  2
ANSICHTSFENSTER
 70
     0
 62
   120
  6
CONTINUOUS
290
     0
370
    -3
390
597
  0
LAYER
  5
F3
330
A
100
AcDbSymbolTableRecord
100
AcDbLayerTableRecord
  2
HILFSLINIEN4
 70
     0
 62
   151
  6
CONTINUOUS
370
    -3
390
597
  0
LAYER
  5
1B4
330
A
100
AcDbSymbolTableRecord
100
AcDbLayerTableRecord
  2
DEFPOINTS
 70
     0
 62
     7
  6
CONTINUOUS
290
     0
370
    -3
390
597
  0
LAYER
  5
322C
330
A
100
AcDbSymbolTableRecord
100
AcDbLayerTableRecord
  2
DRUCK_FARBE1
 70
     0
 62
     7
  6
CONTINUOUS
370
    -3
390
597
  0
LAYER
  5
322E
330
A
100
AcDbSymbolTableRecord
100
AcDbLayerTableRecord
  2
Logo Umrandung
 70
     0
 62
     1
  6
CONTINUOUS
370
    -3
390
597
  0
LAYER
  5
35AC
330
A
100
AcDbSymbolTableRecord
100
AcDbLayerTableRecord
  2
HILFSLINIEN3
 70
     0
 62
   121
  6
CONTINUOUS
370
    -3
390
597
  0
LAYER
  5
35AE
330
A
100
AcDbSymbolTableRecord
100
AcDbLayerTableRecord
  2
DRUCK_SCHWARZ
 70
     0
 62
     7
  6
CONTINUOUS
370
    -3
390
597
  0
LAYER
  5
3E8D
330
A
100
AcDbSymbolTableRecord
100
AcDbLayerTableRecord
  2
RAHMEN013
 70
     0
 62
     2
  6
CONTINUOUS
370
    -3
390
597
  0
LAYER
  5
3E8E
330
A
100
AcDbSymbolTableRecord
100
AcDbLayerTableRecord
  2
RAHMEN_FÜR_HP5000
 70
     0
 62
    20
  6
CONTINUOUS
370
    -3
390
597
  0
LAYER
  5
3E8F
330
A
100
AcDbSymbolTableRecord
100
AcDbLayerTableRecord
  2
RAHMEN035
 70
     0
 62
     5
  6
CONTINUOUS
370
    -3
390
597
  0
LAYER
  5
3E90
330
A
100
AcDbSymbolTableRecord
100
AcDbLayerTableRecord
  2
RAHMEN025
 70
     0
 62
     7
  6
CONTINUOUS
370
    -3
390
597
  0
LAYER
  5
3E91
330
A
100
AcDbSymbolTableRecord
100
AcDbLayerTableRecord
  2
Logo Farbe1
 70
     0
 62
   130
  6
CONTINUOUS
370
    -3
390
597
  0
LAYER
  5
3E92
330
A
100
AcDbSymbolTableRecord
100
AcDbLayerTableRecord
  2
Logo Farbe2
 70
     0
 62
   165
  6
CONTINUOUS
370
    -3
390
597
  0
LAYER
  5
437E
330
A
100
AcDbSymbolTableRecord
100
AcDbLayerTableRecord
  2
TEXT025
 70
     0
 62
     7
  6
CONTINUOUS
370
    -3
390
597
  0
ENDTAB
  0
TABLE
  2
STYLE
  5
B
330
0
100
AcDbSymbolTable
 70
     3
  0
STYLE
  5
C
330
B
100
AcDbSymbolTableRecord
100
AcDbTextStyleTableRecord
  2
STANDARD
 70
     0
 40
0.0
 41
1.0
 50
0.0
 71
     0
 42
2.5
  3
simplex.shx
  4

  0
STYLE
  5
30FE
330
B
100
AcDbSymbolTableRecord
100
AcDbTextStyleTableRecord
  2
HELV_N_BOLD
 70
     0
 40
0.0
 41
1.07
 50
0.0
 71
     0
 42
10.0
  3
swiss.ttf
  4

1001
ACAD
1000
Swis721 BT
1071
       34
  0
STYLE
  5
322F
330
B
100
AcDbSymbolTableRecord
100
AcDbTextStyleTableRecord
  2
HELV_N_MEDIUM
 70
     0
 40
0.0
 41
1.08
 50
0.0
 71
     0
 42
10.0
  3
swissl.ttf
  4

1001
ACAD
1000
Swis721 Lt BT
1071
       34
  0
ENDTAB
  0
TABLE
  2
VIEW
  5
10
330
0
100
AcDbSymbolTable
 70
     0
  0
ENDTAB
  0
TABLE
  2
UCS
  5
11
330
0
100
AcDbSymbolTable
 70
     0
  0
ENDTAB
  0
TABLE
  2
APPID
  5
14
330
0
100
AcDbSymbolTable
 70
     6
  0
APPID
  5
15
330
14
100
AcDbSymbolTableRecord
100
AcDbRegAppTableRecord
  2
ACAD
 70
     0
  0
APPID
  5
5A7
330
14
100
AcDbSymbolTableRecord
100
AcDbRegAppTableRecord
  2
CONTENTTABDATA
 70
     0
  0
APPID
  5
5A8
330
14
100
AcDbSymbolTableRecord
100
AcDbRegAppTableRecord
  2
CONTENTCURRENTTAB
 70
     0
  0
APPID
  5
5A9
330
14
100
AcDbSymbolTableRecord
100
AcDbRegAppTableRecord
  2
CONTENTBLOCKDESCRIPTION
 70
     0
  0
APPID
  5
5AA
330
14
100
AcDbSymbolTableRecord
100
AcDbRegAppTableRecord
  2
CONTENTLONGBLOCKNAME
 70
     0
  0
APPID
  5
5AB
330
14
100
AcDbSymbolTableRecord
100
AcDbRegAppTableRecord
  2
CONTENTBLOCKICON
 70
     0
  0
ENDTAB
  0
TABLE
  2
DIMSTYLE
  5
16
330
0
100
AcDbSymbolTable
 70
     2
100
AcDbDimStyleTable
 71
     2
340
3CF8
340
1D
  0
DIMSTYLE
105
1D
102
{ACAD_REACTORS
330
4518
102
}
330
16
100
AcDbSymbolTableRecord
100
AcDbDimStyleTableRecord
  2
STANDARD
 70
     0
 41
2.5
 42
0.625
 43
3.75
 44
1.25
 73
     0
 74
     0
 78
     8
140
2.5
141
2.5
143
0.0394
147
0.625
171
     4
172
     1
273
     8
274
     4
275
     1
284
     8
340
C
  0
DIMSTYLE
105
3CF8
102
{ACAD_REACTORS
330
4540
330
454E
330
455C
330
456A
330
4578
330
4586
330
4595
102
}
330
16
100
AcDbSymbolTableRecord
100
AcDbDimStyleTableRecord
  2
STANDARD mit Zoll
 70
     0
  3
mm\X
  4
"
 41
3.5
 42
0.625
 43
3.75
 44
1.25
 73
     0
 74
     0
 78
     8
140
2.5
141
2.5
143
0.03937
147
0.625
148
0.01
170
     1
171
     4
172
     1
274
     4
275
     1
284
     8
285
     8
340
C
  0
ENDTAB
  0
TABLE
  2
BLOCK_RECORD
  5
1
330
0
100
AcDbSymbolTable
 70
    10
  0
BLOCK_RECORD
  5
2
330
1
100
AcDbSymbolTableRecord
100
AcDbBlockTableRecord
  2
*MODEL_SPACE
340
59A
  0
BLOCK_RECORD
  5
2A7F
330
1
100
AcDbSymbolTableRecord
100
AcDbBlockTableRecord
  2
*PAPER_SPACE
340
2A86
  0
BLOCK_RECORD
  5
44E5
330
1
100
AcDbSymbolTableRecord
100
AcDbBlockTableRecord
  2
*D0
340
0
  0
BLOCK_RECORD
  5
4519
330
1
100
AcDbSymbolTableRecord
100
AcDbBlockTableRecord
  2
*D1
340
0
  0
BLOCK_RECORD
  5
4541
330
1
100
AcDbSymbolTableRecord
100
AcDbBlockTableRecord
  2
*D2
340
0
  0
BLOCK_RECORD
  5
454F
330
1
100
AcDbSymbolTableRecord
100
AcDbBlockTableRecord
  2
*D3
340
0
  0
BLOCK_RECORD
  5
455D
330
1
100
AcDbSymbolTableRecord
100
AcDbBlockTableRecord
  2
*D4
340
0
  0
BLOCK_RECORD
  5
456B
330
1
100
AcDbSymbolTableRecord
100
AcDbBlockTableRecord
  2
*D5
340
0
  0
BLOCK_RECORD
  5
4579
330
1
100
AcDbSymbolTableRecord
100
AcDbBlockTableRecord
  2
*D6
340
0
  0
BLOCK_RECORD
  5
4587
330
1
100
AcDbSymbolTableRecord
100
AcDbBlockTableRecord
  2
*D7
340
0
  0
BLOCK_RECORD
  5
4596
330
1
100
AcDbSymbolTableRecord
100
AcDbBlockTableRecord
  2
*D8
340
0
  0
BLOCK_RECORD
  5
4779
330
1
100
AcDbSymbolTableRecord
100
AcDbBlockTableRecord
  2
Thorlabs_A4_quer_engl_HP5000
340
0
102
{BLKREFS
331
47F8
102
}
  0
ENDTAB
  0
ENDSEC
  0
SECTION
  2
BLOCKS
  0
BLOCK
  5
3
330
2
100
AcDbEntity
  8
0
100
AcDbBlockBegin
  2
*MODEL_SPACE
 70
     2
 10
0.0
 20
0.0
 30
0.0
  3
*MODEL_SPACE
  1

  0
ENDBLK
  5
6
330
2
100
AcDbEntity
  8
0
100
AcDbBlockEnd
  0
BLOCK
  5
2A84
330
2A7F
100
AcDbEntity
 67
     1
  8
0
100
AcDbBlockBegin
  2
*PAPER_SPACE
 70
     0
 10
0.0
 20
0.0
 30
0.0
  3
*PAPER_SPACE
  1

  0
ENDBLK
  5
2A85
330
2A7F
100
AcDbEntity
 67
     1
  8
0
100
AcDbBlockEnd
  0
BLOCK
  5
44F2
330
44E5
100
AcDbEntity
  8
0
100
AcDbBlockBegin
  2
*D0
 70
     1
 10
0.0
 20
0.0
 30
0.0
  3
*D0
  1

  0
LINE
  5
4894
330
44E5
100
AcDbEntity
  8
MECH_BEM_NORMAL
 62
     0
370
    -2
100
AcDbLine
 10
-30.00000000000007
 20
181.4249999999999
 30
0.0
 11
-30.00000000000007
 21
186.25
 31
0.0
  0
LINE
  5
4895
330
44E5
100
AcDbEntity
  8
MECH_BEM_NORMAL
 62
     0
370
    -2
100
AcDbLine
 10
-84.92766123502809
 20
152.7124999999999
 30
0.0
 11
-86.5081575969347
 21
153.625
 31
0.0
  0
ARC
  5
4896
330
44E5
100
AcDbEntity
  8
MECH_BEM_NORMAL
 62
     0
370
    -2
100
AcDbCircle
 10
-30.0
 20
120.9999999999999
 30
0.0
 40
64.00000000000009
100
AcDbArc
 50
93.13375353270025
 51
117.094532469536
  0
ARC
  5
4897
330
44E5
100
AcDbEntity
  8
MECH_BEM_NORMAL
 62
     0
370
    -2
100
AcDbCircle
 10
-30.0
 20
120.9999999999999
 30
0.0
 40
64.00000000000009
100
AcDbArc
 50
122.905467530464
 51
146.8662464672998
  0
SOLID
  5
4898
330
44E5
100
AcDbEntity
  8
MECH_BEM_NORMAL
 62
     0
100
AcDbTrace
 10
-33.51464183500578
 20
185.4874120940287
 30
0.0
 11
-33.4827407933391
 21
184.3211816559712
 31
0.0
 12
-30.00000000000007
 22
185.0
 32
0.0
 13
-30.00000000000007
 23
185.0
 33
0.0
  0
SOLID
  5
4899
330
44E5
100
AcDbEntity
  8
MECH_BEM_NORMAL
 62
     0
100
AcDbTrace
 10
-83.09638151505087
 20
155.6767328298135
 30
0.0
 11
-84.09041618024195
 21
156.2874751613328
 31
0.0
 12
-85.42562584220416
 22
152.9999999999999
 32
0.0
 13
-85.42562584220416
 23
152.9999999999999
 33
0.0
  0
MTEXT
  5
489A
330
44E5
100
AcDbEntity
  8
MECH_BEM_NORMAL
 62
     0
100
AcDbMText
 10
-62.00000000000007
 20
176.425625842204
 30
0.0
 40
2.5
 41
0.0
 71
     5
 72
     1
  1
\A1;60°
 11
0.8660254037844383
 21
0.5000000000000009
 31
0.0
 73
     1
 44
1.0
  0
POINT
  5
489B
330
44E5
100
AcDbEntity
  8
DEFPOINTS
 62
     0
100
AcDbPoint
 10
-51.88928917284289
 20
181.1403277302981
 30
0.0
  0
POINT
  5
489C
330
44E5
100
AcDbEntity
  8
DEFPOINTS
 62
     0
100
AcDbPoint
 10
-84.38639535766283
 20
152.3999999999998
 30
0.0
  0
POINT
  5
489D
330
44E5
100
AcDbEntity
  8
DEFPOINTS
 62
     0
100
AcDbPoint
 10
-30.00000000000007
 20
180.7999999999999
 30
0.0
  0
POINT
  5
489E
330
44E5
100
AcDbEntity
  8
DEFPOINTS
 62
     0
100
AcDbPoint
 10
-30.0
 20
120.9999999999999
 30
0.0
  0
POINT
  5
489F
330
44E5
100
AcDbEntity
  8
DEFPOINTS
 62
     0
100
AcDbPoint
 10
-54.94153162899191
 20
135.3999999999999
 30
0.0
  0
ENDBLK
  5
44F3
330
44E5
100
AcDbEntity
  8
0
100
AcDbBlockEnd
  0
BLOCK
  5
4526
330
4519
100
AcDbEntity
  8
0
100
AcDbBlockBegin
  2
*D1
 70
     1
 10
0.0
 20
0.0
 30
0.0
  3
*D1
  1

  0
LINE
  5
48A0
330
4519
100
AcDbEntity
  8
MECH_BEM_NORMAL
 62
     0
370
    -2
100
AcDbLine
 10
24.92766123502796
 20
152.7125
 30
0.0
 11
26.50815759693456
 21
153.625
 31
0.0
  0
LINE
  5
48A1
330
4519
100
AcDbEntity
  8
MECH_BEM_NORMAL
 62
     0
370
    -2
100
AcDbLine
 10
-30.00000000000007
 20
181.4249999999999
 30
0.0
 11
-30.00000000000012
 21
186.25
 31
0.0
  0
ARC
  5
48A2
330
4519
100
AcDbEntity
  8
MECH_BEM_NORMAL
 62
     0
370
    -2
100
AcDbCircle
 10
-30.0
 20
120.9999999999999
 30
0.0
 40
64.00000000000002
100
AcDbArc
 50
33.13375353270025
 51
57.09453246953611
  0
ARC
  5
48A3
330
4519
100
AcDbEntity
  8
MECH_BEM_NORMAL
 62
     0
370
    -2
100
AcDbCircle
 10
-30.0
 20
120.9999999999999
 30
0.0
 40
64.00000000000002
100
AcDbArc
 50
62.90546753046407
 51
86.86624646729994
  0
SOLID
  5
48A4
330
4519
100
AcDbEntity
  8
MECH_BEM_NORMAL
 62
     0
100
AcDbTrace
 10
24.09041618024181
 20
156.2874751613328
 30
0.0
 11
23.09638151505073
 21
155.6767328298136
 31
0.0
 12
25.42562584220402
 22
153.0
 32
0.0
 13
25.42562584220402
 23
153.0
 33
0.0
  0
SOLID
  5
48A5
330
4519
100
AcDbEntity
  8
MECH_BEM_NORMAL
 62
     0
100
AcDbTrace
 10
-26.51725920666106
 20
184.3211816559712
 30
0.0
 11
-26.48535816499441
 21
185.4874120940286
 31
0.0
 12
-30.00000000000011
 22
184.9999999999999
 32
0.0
 13
-30.00000000000011
 23
184.9999999999999
 33
0.0
  0
MTEXT
  5
48A6
330
4519
100
AcDbEntity
  8
MECH_BEM_NORMAL
 62
     0
100
AcDbMText
 10
1.999999999999928
 20
176.425625842204
 30
0.0
 40
2.5
 41
0.0
 71
     5
 72
     1
  1
\A1;60°
 11
0.866025403784439
 21
-0.4999999999999992
 31
0.0
 73
     1
 44
1.0
  0
POINT
  5
48A7
330
4519
100
AcDbEntity
  8
DEFPOINTS
 62
     0
100
AcDbPoint
 10
11.13840701993845
 20
170.0268443596146
 30
0.0
  0
POINT
  5
48A8
330
4519
100
AcDbEntity
  8
DEFPOINTS
 62
     0
100
AcDbPoint
 10
-30.00000000000007
 20
180.7999999999999
 30
0.0
  0
POINT
  5
48A9
330
4519
100
AcDbEntity
  8
DEFPOINTS
 62
     0
100
AcDbPoint
 10
24.3863953576627
 20
152.4
 30
0.0
  0
POINT
  5
48AA
330
4519
100
AcDbEntity
  8
DEFPOINTS
 62
     0
100
AcDbPoint
 10
-5.058468371008167
 20
135.3999999999999
 30
0.0
  0
POINT
  5
48AB
330
4519
100
AcDbEntity
  8
DEFPOINTS
 62
     0
100
AcDbPoint
 10
-30.0
 20
120.9999999999999
 30
0.0
  0
ENDBLK
  5
4527
330
4519
100
AcDbEntity
  8
0
100
AcDbBlockEnd
  0
BLOCK
  5
454C
330
4541
100
AcDbEntity
  8
0
100
AcDbBlockBegin
  2
*D2
 70
     1
 10
0.0
 20
0.0
 30
0.0
  3
*D2
  1

  0
LINE
  5
4834
330
4541
100
AcDbEntity
  8
MECH_BEM_NORMAL
 62
     0
370
    -2
100
AcDbLine
 10
-19.375
 20
76.69999999999993
 30
0.0
 11
31.25000000000001
 21
76.69999999999993
 31
0.0
  0
LINE
  5
4835
330
4541
100
AcDbEntity
  8
MECH_BEM_NORMAL
 62
     0
370
    -2
100
AcDbLine
 10
5.625
 20
120.9999999999999
 30
0.0
 11
31.25000000000002
 21
120.9999999999999
 31
0.0
  0
LINE
  5
4836
330
4541
100
AcDbEntity
  8
MECH_BEM_NORMAL
 62
     0
370
    -2
100
AcDbLine
 10
30.00000000000001
 20
80.19999999999994
 30
0.0
 11
30.00000000000001
 21
117.4999999999999
 31
0.0
  0
SOLID
  5
4837
330
4541
100
AcDbEntity
  8
MECH_BEM_NORMAL
 62
     0
100
AcDbTrace
 10
29.41666666666668
 20
80.19999999999994
 30
0.0
 11
30.58333333333334
 21
80.19999999999994
 31
0.0
 12
30.00000000000001
 22
76.69999999999993
 32
0.0
 13
30.00000000000001
 23
76.69999999999993
 33
0.0
  0
SOLID
  5
4838
330
4541
100
AcDbEntity
  8
MECH_BEM_NORMAL
 62
     0
100
AcDbTrace
 10
29.41666666666668
 20
117.4999999999999
 30
0.0
 11
30.58333333333335
 21
117.4999999999999
 31
0.0
 12
30.00000000000002
 22
120.9999999999999
 32
0.0
 13
30.00000000000002
 23
120.9999999999999
 33
0.0
  0
MTEXT
  5
4839
330
4541
100
AcDbEntity
  8
MECH_BEM_NORMAL
 62
     0
100
AcDbMText
 10
28.125
 20
98.84999999999992
 30
0.0
 40
2.5
 41
0.0
 71
     5
 72
     1
  1
\A1;44.3mm
 11
0.0000000000000001
 21
1.0
 31
0.0
 73
     1
 44
1.0
  0
MTEXT
  5
483A
330
4541
100
AcDbEntity
  8
MECH_BEM_NORMAL
 62
     0
100
AcDbMText
 10
32.5297619047619
 20
98.84999999999992
 30
0.0
 40
2.5
 41
0.0
 71
     5
 72
     1
  1
\A1;[1.74"]
 11
0.0000000000000001
 21
1.0
 31
0.0
 73
     1
 44
1.0
  0
POINT
  5
483B
330
4541
100
AcDbEntity
  8
DEFPOINTS
 62
     0
100
AcDbPoint
 10
-20.0
 20
76.69999999999993
 30
0.0
  0
POINT
  5
483C
330
4541
100
AcDbEntity
  8
DEFPOINTS
 62
     0
100
AcDbPoint
 10
5.0
 20
120.9999999999999
 30
0.0
  0
POINT
  5
483D
330
4541
100
AcDbEntity
  8
DEFPOINTS
 62
     0
100
AcDbPoint
 10
30.00000000000002
 20
120.9999999999999
 30
0.0
  0
ENDBLK
  5
454D
330
4541
100
AcDbEntity
  8
0
100
AcDbBlockEnd
  0
BLOCK
  5
455A
330
454F
100
AcDbEntity
  8
0
100
AcDbBlockBegin
  2
*D3
 70
     1
 10
0.0
 20
0.0
 30
0.0
  3
*D3
  1

  0
LINE
  5
483E
330
454F
100
AcDbEntity
  8
MECH_BEM_NORMAL
 62
     0
370
    -2
100
AcDbLine
 10
46.49999999999995
 20
83.37500000000002
 30
0.0
 11
46.49999999999995
 21
63.75
 31
0.0
  0
LINE
  5
483F
330
454F
100
AcDbEntity
  8
MECH_BEM_NORMAL
 62
     0
370
    -2
100
AcDbLine
 10
106.4999999999999
 20
83.37500000000021
 30
0.0
 11
106.4999999999999
 21
63.75
 31
0.0
  0
LINE
  5
4840
330
454F
100
AcDbEntity
  8
MECH_BEM_NORMAL
 62
     0
370
    -2
100
AcDbLine
 10
49.99999999999995
 20
65.0
 30
0.0
 11
102.9999999999999
 21
65.0
 31
0.0
  0
SOLID
  5
4841
330
454F
100
AcDbEntity
  8
MECH_BEM_NORMAL
 62
     0
100
AcDbTrace
 10
49.99999999999995
 20
65.58333333333333
 30
0.0
 11
49.99999999999995
 21
64.41666666666667
 31
0.0
 12
46.49999999999995
 22
65.0
 32
0.0
 13
46.49999999999995
 23
65.0
 33
0.0
  0
SOLID
  5
4842
330
454F
100
AcDbEntity
  8
MECH_BEM_NORMAL
 62
     0
100
AcDbTrace
 10
102.9999999999999
 20
65.58333333333333
 30
0.0
 11
102.9999999999999
 21
64.41666666666667
 31
0.0
 12
106.4999999999999
 22
65.0
 32
0.0
 13
106.4999999999999
 23
65.0
 33
0.0
  0
MTEXT
  5
4843
330
454F
100
AcDbEntity
  8
MECH_BEM_NORMAL
 62
     0
100
AcDbMText
 10
76.49999999999995
 20
66.875
 30
0.0
 40
2.5
 41
0.0
 71
     5
 72
     1
  1
\A1;60mm
 73
     1
 44
1.0
  0
MTEXT
  5
4844
330
454F
100
AcDbEntity
  8
MECH_BEM_NORMAL
 62
     0
100
AcDbMText
 10
76.49999999999995
 20
62.4702380952381
 30
0.0
 40
2.5
 41
0.0
 71
     5
 72
     1
  1
\A1;[2.36"]
 73
     1
 44
1.0
  0
POINT
  5
4845
330
454F
100
AcDbEntity
  8
DEFPOINTS
 62
     0
100
AcDbPoint
 10
46.49999999999995
 20
84.00000000000002
 30
0.0
  0
POINT
  5
4846
330
454F
100
AcDbEntity
  8
DEFPOINTS
 62
     0
100
AcDbPoint
 10
106.4999999999999
 20
84.00000000000021
 30
0.0
  0
POINT
  5
4847
330
454F
100
AcDbEntity
  8
DEFPOINTS
 62
     0
100
AcDbPoint
 10
106.4999999999999
 20
65.0
 30
0.0
  0
ENDBLK
  5
455B
330
454F
100
AcDbEntity
  8
0
100
AcDbBlockEnd
  0
BLOCK
  5
4568
330
455D
100
AcDbEntity
  8
0
100
AcDbBlockBegin
  2
*D4
 70
     1
 10
0.0
 20
0.0
 30
0.0
  3
*D4
  1

  0
LINE
  5
4848
330
455D
100
AcDbEntity
  8
MECH_BEM_NORMAL
 62
     0
370
    -2
100
AcDbLine
 10
104.1249999999996
 20
80.99999999999988
 30
0.0
 11
119.2499999999999
 21
80.99999999999988
 31
0.0
  0
LINE
  5
4849
330
455D
100
AcDbEntity
  8
MECH_BEM_NORMAL
 62
     0
370
    -2
100
AcDbLine
 10
104.1249999999996
 20
160.9999999999999
 30
0.0
 11
119.25
 21
160.9999999999999
 31
0.0
  0
LINE
  5
484A
330
455D
100
AcDbEntity
  8
MECH_BEM_NORMAL
 62
     0
370
    -2
100
AcDbLine
 10
117.9999999999999
 20
84.49999999999988
 30
0.0
 11
118.0
 21
157.4999999999999
 31
0.0
  0
SOLID
  5
484B
330
455D
100
AcDbEntity
  8
MECH_BEM_NORMAL
 62
     0
100
AcDbTrace
 10
117.4166666666666
 20
84.49999999999988
 30
0.0
 11
118.5833333333333
 21
84.49999999999988
 31
0.0
 12
117.9999999999999
 22
80.99999999999988
 32
0.0
 13
117.9999999999999
 23
80.99999999999988
 33
0.0
  0
SOLID
  5
484C
330
455D
100
AcDbEntity
  8
MECH_BEM_NORMAL
 62
     0
100
AcDbTrace
 10
117.4166666666666
 20
157.4999999999999
 30
0.0
 11
118.5833333333333
 21
157.4999999999999
 31
0.0
 12
118.0
 22
160.9999999999999
 32
0.0
 13
118.0
 23
160.9999999999999
 33
0.0
  0
MTEXT
  5
484D
330
455D
100
AcDbEntity
  8
MECH_BEM_NORMAL
 62
     0
100
AcDbMText
 10
116.1249999999999
 20
120.9999999999999
 30
0.0
 40
2.5
 41
0.0
 71
     5
 72
     1
  1
\A1;80mm
 11
0.0000000000000001
 21
1.0
 31
0.0
 73
     1
 44
1.0
  0
MTEXT
  5
484E
330
455D
100
AcDbEntity
  8
MECH_BEM_NORMAL
 62
     0
100
AcDbMText
 10
120.5297619047618
 20
120.9999999999999
 30
0.0
 40
2.5
 41
0.0
 71
     5
 72
     1
  1
\A1;[3.15"]
 11
0.0000000000000001
 21
1.0
 31
0.0
 73
     1
 44
1.0
  0
POINT
  5
484F
330
455D
100
AcDbEntity
  8
DEFPOINTS
 62
     0
100
AcDbPoint
 10
103.4999999999996
 20
80.99999999999988
 30
0.0
  0
POINT
  5
4850
330
455D
100
AcDbEntity
  8
DEFPOINTS
 62
     0
100
AcDbPoint
 10
103.4999999999996
 20
160.9999999999999
 30
0.0
  0
POINT
  5
4851
330
455D
100
AcDbEntity
  8
DEFPOINTS
 62
     0
100
AcDbPoint
 10
118.0
 20
160.9999999999999
 30
0.0
  0
ENDBLK
  5
4569
330
455D
100
AcDbEntity
  8
0
100
AcDbBlockEnd
  0
BLOCK
  5
4576
330
456B
100
AcDbEntity
  8
0
100
AcDbBlockBegin
  2
*D5
 70
     1
 10
0.0
 20
0.0
 30
0.0
  3
*D5
  1

  0
LINE
  5
4852
330
456B
100
AcDbEntity
  8
MECH_BEM_NORMAL
 62
     0
370
    -2
100
AcDbLine
 10
104.1249999999998
 20
160.9999999999999
 30
0.0
 11
119.25
 21
160.9999999999999
 31
0.0
  0
LINE
  5
4853
330
456B
100
AcDbEntity
  8
MECH_BEM_NORMAL
 62
     0
370
    -2
100
AcDbLine
 10
79.12499999999994
 20
180.6999999999999
 30
0.0
 11
119.25
 21
180.6999999999999
 31
0.0
  0
LINE
  5
4854
330
456B
100
AcDbEntity
  8
MECH_BEM_NORMAL
 62
     0
370
    -2
100
AcDbLine
 10
118.0
 20
164.4999999999999
 30
0.0
 11
118.0
 21
177.1999999999999
 31
0.0
  0
SOLID
  5
4855
330
456B
100
AcDbEntity
  8
MECH_BEM_NORMAL
 62
     0
100
AcDbTrace
 10
117.4166666666666
 20
164.4999999999999
 30
0.0
 11
118.5833333333333
 21
164.4999999999999
 31
0.0
 12
118.0
 22
160.9999999999999
 32
0.0
 13
118.0
 23
160.9999999999999
 33
0.0
  0
SOLID
  5
4856
330
456B
100
AcDbEntity
  8
MECH_BEM_NORMAL
 62
     0
100
AcDbTrace
 10
117.4166666666666
 20
177.1999999999999
 30
0.0
 11
118.5833333333333
 21
177.1999999999999
 31
0.0
 12
118.0
 22
180.6999999999999
 32
0.0
 13
118.0
 23
180.6999999999999
 33
0.0
  0
MTEXT
  5
4857
330
456B
100
AcDbEntity
  8
MECH_BEM_NORMAL
 62
     0
100
AcDbMText
 10
116.1249999999999
 20
170.8499999999999
 30
0.0
 40
2.5
 41
0.0
 71
     5
 72
     1
  1
\A1;19.7mm
 11
0.0000000000000001
 21
1.0
 31
0.0
 73
     1
 44
1.0
  0
MTEXT
  5
4858
330
456B
100
AcDbEntity
  8
MECH_BEM_NORMAL
 62
     0
100
AcDbMText
 10
120.5297619047618
 20
170.8499999999999
 30
0.0
 40
2.5
 41
0.0
 71
     5
 72
     1
  1
\A1;[0.78"]
 11
0.0000000000000001
 21
1.0
 31
0.0
 73
     1
 44
1.0
  0
POINT
  5
4859
330
456B
100
AcDbEntity
  8
DEFPOINTS
 62
     0
100
AcDbPoint
 10
103.4999999999998
 20
160.9999999999999
 30
0.0
  0
POINT
  5
485A
330
456B
100
AcDbEntity
  8
DEFPOINTS
 62
     0
100
AcDbPoint
 10
78.49999999999994
 20
180.6999999999999
 30
0.0
  0
POINT
  5
485B
330
456B
100
AcDbEntity
  8
DEFPOINTS
 62
     0
100
AcDbPoint
 10
118.0
 20
180.6999999999999
 30
0.0
  0
ENDBLK
  5
4577
330
456B
100
AcDbEntity
  8
0
100
AcDbBlockEnd
  0
BLOCK
  5
4584
330
4579
100
AcDbEntity
  8
0
100
AcDbBlockBegin
  2
*D6
 70
     1
 10
0.0
 20
0.0
 30
0.0
  3
*D6
  1

  0
LINE
  5
485C
330
4579
100
AcDbEntity
  8
MECH_BEM_NORMAL
 62
     0
370
    -2
100
AcDbLine
 10
-88.50000000000006
 20
20.625
 30
0.0
 11
-88.50000000000006
 21
72.25
 31
0.0
  0
LINE
  5
485D
330
4579
100
AcDbEntity
  8
MECH_BEM_NORMAL
 62
     0
370
    -2
100
AcDbLine
 10
-108.5
 20
52.62500000000011
 30
0.0
 11
-108.5
 21
72.25
 31
0.0
  0
LINE
  5
485E
330
4579
100
AcDbEntity
  8
MECH_BEM_NORMAL
 62
     0
370
    -2
100
AcDbLine
 10
-92.00000000000008
 20
71.0
 30
0.0
 11
-105.0
 21
71.0
 31
0.0
  0
SOLID
  5
485F
330
4579
100
AcDbEntity
  8
MECH_BEM_NORMAL
 62
     0
100
AcDbTrace
 10
-92.00000000000008
 20
71.58333333333333
 30
0.0
 11
-92.00000000000008
 21
70.41666666666667
 31
0.0
 12
-88.50000000000006
 22
71.0
 32
0.0
 13
-88.50000000000006
 23
71.0
 33
0.0
  0
SOLID
  5
4860
330
4579
100
AcDbEntity
  8
MECH_BEM_NORMAL
 62
     0
100
AcDbTrace
 10
-105.0
 20
71.58333333333333
 30
0.0
 11
-105.0
 21
70.41666666666667
 31
0.0
 12
-108.5
 22
71.0
 32
0.0
 13
-108.5
 23
71.0
 33
0.0
  0
MTEXT
  5
4861
330
4579
100
AcDbEntity
  8
MECH_BEM_NORMAL
 62
     0
100
AcDbMText
 10
-98.50000000000006
 20
72.875
 30
0.0
 40
2.5
 41
0.0
 71
     5
 72
     1
  1
\A1;20mm
 73
     1
 44
1.0
  0
MTEXT
  5
4862
330
4579
100
AcDbEntity
  8
MECH_BEM_NORMAL
 62
     0
100
AcDbMText
 10
-98.50000000000006
 20
68.4702380952381
 30
0.0
 40
2.5
 41
0.0
 71
     5
 72
     1
  1
\A1;[0.79"]
 73
     1
 44
1.0
  0
POINT
  5
4863
330
4579
100
AcDbEntity
  8
DEFPOINTS
 62
     0
100
AcDbPoint
 10
-88.50000000000006
 20
20.0
 30
0.0
  0
POINT
  5
4864
330
4579
100
AcDbEntity
  8
DEFPOINTS
 62
     0
100
AcDbPoint
 10
-108.5
 20
52.00000000000011
 30
0.0
  0
POINT
  5
4865
330
4579
100
AcDbEntity
  8
DEFPOINTS
 62
     0
100
AcDbPoint
 10
-108.5
 20
71.0
 30
0.0
  0
ENDBLK
  5
4585
330
4579
100
AcDbEntity
  8
0
100
AcDbBlockEnd
  0
BLOCK
  5
4593
330
4587
100
AcDbEntity
  8
0
100
AcDbBlockBegin
  2
*D7
 70
     1
 10
0.0
 20
0.0
 30
0.0
  3
*D7
  1

  0
LINE
  5
4866
330
4587
100
AcDbEntity
  8
MECH_BEM_NORMAL
 62
     0
370
    -2
100
AcDbLine
 10
-78.50000000000007
 20
20.625
 30
0.0
 11
-78.50000000000007
 21
63.25
 31
0.0
  0
LINE
  5
4867
330
4587
100
AcDbEntity
  8
MECH_BEM_NORMAL
 62
     0
370
    -2
100
AcDbLine
 10
-88.50000000000006
 20
20.625
 30
0.0
 11
-88.50000000000006
 21
63.25
 31
0.0
  0
LINE
  5
4868
330
4587
100
AcDbEntity
  8
MECH_BEM_NORMAL
 62
     0
370
    -2
100
AcDbLine
 10
-82.00000000000008
 20
62.0
 30
0.0
 11
-85.00000000000007
 21
62.0
 31
0.0
  0
LINE
  5
4869
330
4587
100
AcDbEntity
  8
MECH_BEM_NORMAL
 62
     0
370
    -2
100
AcDbLine
 10
-88.50000000000006
 20
62.0
 30
0.0
 11
-105.9880952380953
 21
62.0
 31
0.0
  0
SOLID
  5
486A
330
4587
100
AcDbEntity
  8
MECH_BEM_NORMAL
 62
     0
100
AcDbTrace
 10
-82.00000000000008
 20
62.58333333333333
 30
0.0
 11
-82.00000000000008
 21
61.41666666666666
 31
0.0
 12
-78.50000000000007
 22
62.0
 32
0.0
 13
-78.50000000000007
 23
62.0
 33
0.0
  0
SOLID
  5
486B
330
4587
100
AcDbEntity
  8
MECH_BEM_NORMAL
 62
     0
100
AcDbTrace
 10
-85.00000000000007
 20
62.58333333333333
 30
0.0
 11
-85.00000000000007
 21
61.41666666666666
 31
0.0
 12
-88.50000000000006
 22
62.0
 32
0.0
 13
-88.50000000000006
 23
62.0
 33
0.0
  0
MTEXT
  5
486C
330
4587
100
AcDbEntity
  8
MECH_BEM_NORMAL
 62
     0
100
AcDbMText
 10
-98.99404761904769
 20
63.875
 30
0.0
 40
2.5
 41
0.0
 71
     5
 72
     1
  1
\A1;10mm
 73
     1
 44
1.0
  0
MTEXT
  5
486D
330
4587
100
AcDbEntity
  8
MECH_BEM_NORMAL
 62
     0
100
AcDbMText
 10
-98.99404761904769
 20
59.47023809523809
 30
0.0
 40
2.5
 41
0.0
 71
     5
 72
     1
  1
\A1;[0.39"]
 73
     1
 44
1.0
  0
POINT
  5
486E
330
4587
100
AcDbEntity
  8
DEFPOINTS
 62
     0
100
AcDbPoint
 10
-78.50000000000007
 20
20.0
 30
0.0
  0
POINT
  5
486F
330
4587
100
AcDbEntity
  8
DEFPOINTS
 62
     0
100
AcDbPoint
 10
-88.50000000000006
 20
20.0
 30
0.0
  0
POINT
  5
4870
330
4587
100
AcDbEntity
  8
DEFPOINTS
 62
     0
100
AcDbPoint
 10
-88.50000000000006
 20
62.0
 30
0.0
  0
ENDBLK
  5
4594
330
4587
100
AcDbEntity
  8
0
100
AcDbBlockEnd
  0
BLOCK
  5
45A2
330
4596
100
AcDbEntity
  8
0
100
AcDbBlockBegin
  2
*D8
 70
     1
 10
0.0
 20
0.0
 30
0.0
  3
*D8
  1

  0
LINE
  5
4871
330
4596
100
AcDbEntity
  8
MECH_BEM_NORMAL
 62
     0
370
    -2
100
AcDbLine
 10
-78.50000000000007
 20
20.625
 30
0.0
 11
-78.50000000000007
 21
63.25
 31
0.0
  0
LINE
  5
4872
330
4596
100
AcDbEntity
  8
MECH_BEM_NORMAL
 62
     0
370
    -2
100
AcDbLine
 10
-68.50000000000007
 20
20.625
 30
0.0
 11
-68.50000000000007
 21
63.25
 31
0.0
  0
LINE
  5
4873
330
4596
100
AcDbEntity
  8
MECH_BEM_NORMAL
 62
     0
370
    -2
100
AcDbLine
 10
-75.00000000000007
 20
62.0
 30
0.0
 11
-72.00000000000007
 21
62.0
 31
0.0
  0
LINE
  5
4874
330
4596
100
AcDbEntity
  8
MECH_BEM_NORMAL
 62
     0
370
    -2
100
AcDbLine
 10
-68.50000000000007
 20
62.0
 30
0.0
 11
-51.01190476190483
 21
62.0
 31
0.0
  0
SOLID
  5
4875
330
4596
100
AcDbEntity
  8
MECH_BEM_NORMAL
 62
     0
100
AcDbTrace
 10
-75.00000000000007
 20
62.58333333333333
 30
0.0
 11
-75.00000000000007
 21
61.41666666666666
 31
0.0
 12
-78.50000000000007
 22
62.0
 32
0.0
 13
-78.50000000000007
 23
62.0
 33
0.0
  0
SOLID
  5
4876
330
4596
100
AcDbEntity
  8
MECH_BEM_NORMAL
 62
     0
100
AcDbTrace
 10
-72.00000000000007
 20
62.58333333333333
 30
0.0
 11
-72.00000000000007
 21
61.41666666666666
 31
0.0
 12
-68.50000000000007
 22
62.0
 32
0.0
 13
-68.50000000000007
 23
62.0
 33
0.0
  0
MTEXT
  5
4877
330
4596
100
AcDbEntity
  8
MECH_BEM_NORMAL
 62
     0
100
AcDbMText
 10
-58.00595238095245
 20
63.875
 30
0.0
 40
2.5
 41
0.0
 71
     5
 72
     1
  1
\A1;10mm
 73
     1
 44
1.0
  0
MTEXT
  5
4878
330
4596
100
AcDbEntity
  8
MECH_BEM_NORMAL
 62
     0
100
AcDbMText
 10
-58.00595238095245
 20
59.47023809523809
 30
0.0
 40
2.5
 41
0.0
 71
     5
 72
     1
  1
\A1;[0.39"]
 73
     1
 44
1.0
  0
POINT
  5
4879
330
4596
100
AcDbEntity
  8
DEFPOINTS
 62
     0
100
AcDbPoint
 10
-78.50000000000007
 20
20.0
 30
0.0
  0
POINT
  5
487A
330
4596
100
AcDbEntity
  8
DEFPOINTS
 62
     0
100
AcDbPoint
 10
-68.50000000000007
 20
20.0
 30
0.0
  0
POINT
  5
487B
330
4596
100
AcDbEntity
  8
DEFPOINTS
 62
     0
100
AcDbPoint
 10
-68.50000000000007
 20
62.0
 30
0.0
  0
ENDBLK
  5
45A3
330
4596
100
AcDbEntity
  8
0
100
AcDbBlockEnd
  0
BLOCK
  5
47F6
330
4779
100
AcDbEntity
  8
0
100
AcDbBlockBegin
  2
Thorlabs_A4_quer_engl_HP5000
 70
     2
 10
0.0
 20
0.0
 30
0.0
  3
Thorlabs_A4_quer_engl_HP5000
  1

  0
TEXT
  5
477A
330
4779
100
AcDbEntity
  8
RAHMEN_FÜR_HP5000
100
AcDbText
 10
-0.0000000000000002
 20
-9.0
 30
0.0
 40
3.5
  1
frame for HP5000
 11
0.0
 21
-5.5
 31
0.0
100
AcDbText
 73
     3
  0
LINE
  5
477B
330
4779
100
AcDbEntity
  8
RAHMEN025
100
AcDbLine
 10
98.69999999999988
 20
38.24999999999996
 30
0.0
 11
285.8999999999998
 21
38.24999999999996
 31
0.0
  0
LINE
  5
477C
330
4779
100
AcDbEntity
  8
RAHMEN025
100
AcDbLine
 10
153.2999999999998
 20
16.99999999999996
 30
0.0
 11
285.8999999999996
 21
16.99999999999996
 31
0.0
  0
LINE
  5
477D
330
4779
100
AcDbEntity
  8
RAHMEN025
100
AcDbLine
 10
98.69999999999988
 20
55.24999999999996
 30
0.0
 11
285.8999999999998
 21
55.24999999999995
 31
0.0
  0
LINE
  5
477E
330
4779
100
AcDbEntity
  8
RAHMEN013
100
AcDbLine
 10
98.69999999999988
 20
4.249999999999964
 30
0.0
 11
285.8999999999996
 21
4.249999999999964
 31
0.0
  0
LINE
  5
477F
330
4779
100
AcDbEntity
  8
RAHMEN013
100
AcDbLine
 10
98.69999999999988
 20
21.24999999999996
 30
0.0
 11
197.4999999999997
 21
21.24999999999996
 31
0.0
  0
LINE
  5
4780
330
4779
100
AcDbEntity
  8
RAHMEN013
100
AcDbLine
 10
98.69999999999988
 20
25.49999999999996
 30
0.0
 11
197.4999999999997
 21
25.49999999999996
 31
0.0
  0
LINE
  5
4781
330
4779
100
AcDbEntity
  8
RAHMEN013
100
AcDbLine
 10
98.69999999999988
 20
29.74999999999996
 30
0.0
 11
197.4999999999997
 21
29.74999999999996
 31
0.0
  0
LINE
  5
4782
330
4779
100
AcDbEntity
  8
RAHMEN013
100
AcDbLine
 10
98.69999999999988
 20
33.99999999999996
 30
0.0
 11
197.4999999999998
 21
33.99999999999996
 31
0.0
  0
LINE
  5
4783
330
4779
100
AcDbEntity
  8
RAHMEN013
100
AcDbLine
 10
98.69999999999988
 20
12.74999999999996
 30
0.0
 11
153.2999999999998
 21
12.74999999999996
 31
0.0
  0
LINE
  5
4784
330
4779
100
AcDbEntity
  8
RAHMEN013
100
AcDbLine
 10
98.69999999999988
 20
8.499999999999964
 30
0.0
 11
153.2999999999998
 21
8.499999999999964
 31
0.0
  0
LINE
  5
4785
330
4779
100
AcDbEntity
  8
RAHMEN025
100
AcDbLine
 10
98.69999999999988
 20
0.0000000000000213
 30
0.0
 11
98.69999999999988
 21
55.24999999999996
 31
0.0
  0
TEXT
  5
4786
330
4779
100
AcDbEntity
  8
RAHMEN013
100
AcDbText
 10
100.4124999999998
 20
0.8750000000000103
 30
0.0
 40
2.5
  1
rev.
 41
0.75
 72
     1
 11
102.5999999999998
 21
2.12500000000001
 31
0.0
100
AcDbText
 73
     2
  0
LINE
  5
4787
330
4779
100
AcDbEntity
  8
RAHMEN013
100
AcDbLine
 10
132.4999999999998
 20
38.24999999999996
 30
0.0
 11
132.4999999999998
 21
-0.0000000000000355
 31
0.0
  0
LINE
  5
4788
330
4779
100
AcDbEntity
  8
RAHMEN013
100
AcDbLine
 10
106.4999999999998
 20
38.24999999999996
 30
0.0
 11
106.4999999999998
 21
-0.0000000000000355
 31
0.0
  0
TEXT
  5
4789
330
4779
100
AcDbEntity
  8
RAHMEN013
100
AcDbText
 10
108.4880952380951
 20
0.8749999999999644
 30
0.0
 40
2.5
  1
modification
 72
     1
 11
119.4999999999998
 21
2.124999999999964
 31
0.0
100
AcDbText
 73
     2
  0
LINE
  5
478A
330
4779
100
AcDbEntity
  8
RAHMEN025
100
AcDbLine
 10
153.2999999999998
 20
55.24999999999996
 30
0.0
 11
153.2999999999998
 21
-0.0000000000000355
 31
0.0
  0
LINE
  5
478B
330
4779
100
AcDbEntity
  8
RAHMEN013
100
AcDbLine
 10
145.4999999999999
 20
38.24999999999996
 30
0.0
 11
145.4999999999999
 21
-0.0000000000000355
 31
0.0
  0
TEXT
  5
478C
330
4779
100
AcDbEntity
  8
RAHMEN013
100
AcDbText
 10
135.190476190476
 20
0.8749999999999644
 30
0.0
 40
2.5
  1
date
 72
     1
 11
138.9999999999998
 21
2.124999999999964
 31
0.0
100
AcDbText
 73
     2
  0
TEXT
  5
478D
330
4779
100
AcDbEntity
  8
RAHMEN013
100
AcDbText
 10
146.0666666666665
 20
0.8749999999999644
 30
0.0
 40
2.5
  1
name
 41
0.7
 72
     1
 11
149.3999999999998
 21
2.124999999999964
 31
0.0
100
AcDbText
 73
     2
  0
TEXT
  5
478E
330
4779
100
AcDbEntity
  8
RAHMEN013
100
AcDbText
 10
154.5523125273934
 20
0.8749999999999644
 30
0.0
 40
2.5
  1
origin
100
AcDbText
  0
LINE
  5
478F
330
4779
100
AcDbEntity
  8
RAHMEN025
100
AcDbLine
 10
197.4999999999998
 20
55.24999999999996
 30
0.0
 11
197.4999999999997
 21
-0.0000000000000355
 31
0.0
  0
TEXT
  5
4790
330
4779
100
AcDbEntity
  8
RAHMEN013
100
AcDbText
 10
198.1767000439924
 20
0.8749999999999644
 30
0.0
 40
2.5
  1
replacement for
 41
0.6
100
AcDbText
  0
TEXT
  5
4791
330
4779
100
AcDbEntity
  8
RAHMEN013
100
AcDbText
 10
242.6767000439923
 20
0.8749999999999644
 30
0.0
 40
2.5
  1
replaced by
 41
0.6
100
AcDbText
  0
LINE
  5
4792
330
4779
100
AcDbEntity
  8
RAHMEN013
100
AcDbLine
 10
241.6999999999997
 20
4.249999999999964
 30
0.0
 11
241.6999999999997
 21
-0.0000000000001208
 31
0.0
  0
LINE
  5
4793
330
4779
100
AcDbEntity
  8
RAHMEN013
100
AcDbLine
 10
272.8999999999996
 20
8.499999999999964
 30
0.0
 11
285.8999999999996
 21
8.499999999999964
 31
0.0
  0
TEXT
  5
4794
330
4779
100
AcDbEntity
  8
RAHMEN013
100
AcDbText
 10
273.8084594911222
 20
13.63219445009368
 30
0.0
 40
2.5
  1
sheet
100
AcDbText
  0
LINE
  5
4795
330
4779
100
AcDbEntity
  8
RAHMEN013
100
AcDbLine
 10
249.4999999999998
 20
55.24999999999991
 30
0.0
 11
249.4999999999998
 21
48.87499999999996
 31
0.0
  0
LINE
  5
4796
330
4779
100
AcDbEntity
  8
RAHMEN013
100
AcDbLine
 10
197.4999999999998
 20
48.87499999999996
 30
0.0
 11
285.8999999999998
 21
48.87499999999996
 31
0.0
  0
TEXT
  5
4797
330
4779
100
AcDbEntity
  8
RAHMEN013
100
AcDbText
 10
198.6262599024913
 20
50.81249999999997
 30
0.0
 40
2.5
  1
scale
100
AcDbText
  0
TEXT
  5
4798
330
4779
100
AcDbEntity
  8
RAHMEN013
100
AcDbText
 10
100.3036659551067
 20
50.81249999999997
 30
0.0
 40
2.5
  1
usage
100
AcDbText
  0
TEXT
  5
4799
330
4779
100
AcDbEntity
  8
RAHMEN013
100
AcDbText
 10
154.9036659551067
 20
50.81249999999997
 30
0.0
 40
2.5
  1
tolerance
100
AcDbText
  0
LINE
  5
479A
330
4779
100
AcDbEntity
  8
RAHMEN013
100
AcDbLine
 10
179.2999999999999
 20
55.24999999999996
 30
0.0
 11
179.2999999999998
 21
16.99999999999996
 31
0.0
  0
TEXT
  5
479B
330
4779
100
AcDbEntity
  8
RAHMEN013
100
AcDbText
 10
180.746098153156
 20
50.81249999999997
 30
0.0
 40
2.5
  1
surface
100
AcDbText
  0
TEXT
  5
479C
330
4779
100
AcDbEntity
  8
RAHMEN013
100
AcDbText
 10
183.6380952380951
 20
34.87499999999996
 30
0.0
 40
2.5
  1
name
 72
     1
 11
188.3999999999998
 21
36.12499999999996
 31
0.0
100
AcDbText
 73
     2
  0
TEXT
  5
479D
330
4779
100
AcDbEntity
  8
RAHMEN013
100
AcDbText
 10
167.6904761904761
 20
34.87499999999996
 30
0.0
 40
2.5
  1
date
 72
     1
 11
171.4999999999998
 21
36.12499999999996
 31
0.0
100
AcDbText
 73
     2
  0
TEXT
  5
479E
330
4779
100
AcDbEntity
  8
RAHMEN013
100
AcDbText
 10
154.298933563884
 20
30.62499999999996
 30
0.0
 40
2.5
  1
drawn
 41
0.8
100
AcDbText
  0
TEXT
  5
479F
330
4779
100
AcDbEntity
  8
RAHMEN013
100
AcDbText
 10
154.298933563884
 20
26.37499999999996
 30
0.0
 40
2.5
  1
checked
 41
0.6
100
AcDbText
  0
LINE
  5
47A0
330
4779
100
AcDbEntity
  8
RAHMEN013
100
AcDbLine
 10
163.6999999999998
 20
38.24999999999996
 30
0.0
 11
163.6999999999998
 21
16.99999999999999
 31
0.0
  0
LINE
  5
47A1
330
4779
100
AcDbEntity
  8
RAHMEN025
100
AcDbLine
 10
272.8999999999997
 20
16.99999999999996
 30
0.0
 11
272.8999999999997
 21
4.249999999999964
 31
0.0
  0
TEXT
  5
47A2
330
4779
100
AcDbEntity
  8
RAHMEN013
100
AcDbText
 10
273.592229474379
 20
5.255790835553931
 30
0.0
 40
2.5
  1
of   sh.
 41
0.8
100
AcDbText
  0
LINE
  5
47A3
330
4779
100
AcDbEntity
  8
RAHMEN013
100
AcDbLine
 10
98.69999999999988
 20
16.99999999999996
 30
0.0
 11
153.2999999999998
 21
16.99999999999996
 31
0.0
  0
LINE
  5
47A4
330
4779
100
AcDbEntity
  8
RAHMEN025
100
AcDbLine
 10
98.69999999999988
 20
-0.0000000000000355
 30
0.0
 11
285.8999999999998
 21
-0.0000000000000355
 31
0.0
  0
LINE
  5
47A5
330
4779
100
AcDbEntity
  8
RAHMEN025
100
AcDbLine
 10
285.8999999999998
 20
-0.0000000000000355
 30
0.0
 11
285.8999999999998
 21
55.24999999999996
 31
0.0
  0
TEXT
  5
47A6
330
4779
100
AcDbEntity
  8
RAHMEN013
100
AcDbText
 10
198.6620476356914
 20
45.34635004497814
 30
0.0
 40
2.5
  1
material
100
AcDbText
  0
TEXT
  5
47A7
330
4779
100
AcDbEntity
  8
RAHMEN013
100
AcDbText
 10
198.6620476356914
 20
42.25715873595921
 30
0.0
 40
2.5
  1
semif. part
 41
0.9
100
AcDbText
  0
TEXT
  5
47A8
330
4779
100
AcDbEntity
  8
RAHMEN013
100
AcDbText
 10
198.6620476356914
 20
39.12499999999996
 30
0.0
 40
2.5
  1
raw part no.
 41
0.85
100
AcDbText
  0
LINE
  5
47A9
330
4779
100
AcDbEntity
  8
RAHMEN013
100
AcDbLine
 10
179.2999999999999
 20
59.49999999999998
 30
0.0
 11
285.8999999999998
 21
59.49999999999998
 31
0.0
  0
LINE
  5
47AA
330
4779
100
AcDbEntity
  8
RAHMEN013
100
AcDbLine
 10
179.2999999999999
 20
55.24999999999996
 30
0.0
 11
179.2999999999999
 21
59.49999999999998
 31
0.0
  0
TEXT
  5
47AB
330
4779
100
AcDbEntity
  8
RAHMEN013
100
AcDbText
 10
192.7964285714284
 20
56.12499999999997
 30
0.0
 40
2.5
  1
CAD drawing, may only be modified by CAD !
 41
0.9
 72
     1
 11
232.5999999999999
 21
57.37499999999997
 31
0.0
100
AcDbText
 73
     2
  0
ATTDEF
  5
47AC
330
4779
100
AcDbEntity
  8
RAHMEN035
100
AcDbText
 10
241.7450880061338
 20
31.98184564905593
 30
0.0
 40
5.0
  1

 72
     4
 11
241.7450880061338
 21
31.98184564905593
 31
0.0
100
AcDbAttributeDefinition
  3
Benennung Zeile 1
  2
BENENNUNG1A
 70
     0
  0
ATTDEF
  5
47AD
330
4779
100
AcDbEntity
  8
RAHMEN035
100
AcDbText
 10
198.9999999999998
 20
29.49999999999996
 30
0.0
 40
5.0
  1

 41
1.630363636363638
 72
     5
 11
284.3999999999999
 21
29.49999999999996
 31
0.0
100
AcDbAttributeDefinition
  3
oder Zeile 1 eingepaßt
  2
BENENNUNG1B
 70
     0
  0
ATTDEF
  5
47AE
330
4779
100
AcDbEntity
  8
RAHMEN035
100
AcDbText
 10
241.7450880061338
 20
23.41041707762735
 30
0.0
 40
5.0
  1

 41
0.9
 72
     4
 11
241.7450880061338
 21
23.41041707762735
 31
0.0
100
AcDbAttributeDefinition
  3
Benennung Zeile 2
  2
BENENNUNG2A
 70
     0
  0
ATTDEF
  5
47AF
330
4779
100
AcDbEntity
  8
RAHMEN035
100
AcDbText
 10
198.9999999999998
 20
20.92857142857138
 30
0.0
 40
5.0
  1

 41
1.601250000000002
 72
     5
 11
284.3999999999999
 21
20.92857142857138
 31
0.0
100
AcDbAttributeDefinition
  3
oder Zeile 2 eingepaßt
  2
BENENNUNG2B
 70
     0
  0
ATTDEF
  5
47B0
330
4779
100
AcDbEntity
  8
RAHMEN035
100
AcDbText
 10
235.1535696603032
 20
10.32473610229663
 30
0.0
 40
5.0
  1

 72
     4
 11
235.1535696603032
 21
10.32473610229663
 31
0.0
100
AcDbAttributeDefinition
  3
Zeichnungsnummer
  2
ZEICHNUNGSNUMMER
 70
     0
  0
ATTDEF
  5
47B1
330
4779
100
AcDbEntity
  8
RAHMEN013
100
AcDbText
 10
277.8889142732032
 20
10.79845418694659
 30
0.0
 40
2.5
  1

 72
     4
 11
277.8889142732032
 21
10.79845418694659
 31
0.0
100
AcDbAttributeDefinition
  3
Blatt
  2
BLATT
 70
     0
  0
ATTDEF
  5
47B2
330
4779
100
AcDbEntity
  8
RAHMEN013
100
AcDbText
 10
278.8460999999998
 20
6.520830598623625
 30
0.0
 40
2.5
  1

 72
     4
 11
278.8460999999998
 21
6.520830598623625
 31
0.0
100
AcDbAttributeDefinition
  3
von ... Blättern
  2
BLÄTTER
 70
     0
  0
ATTDEF
  5
47B3
330
4779
100
AcDbEntity
  8
RAHMEN013
100
AcDbText
 10
216.2916231867282
 20
50.81249999999997
 30
0.0
 40
2.5
  1

100
AcDbAttributeDefinition
  3
Maßstab
  2
MAßSTAB
 70
     0
  0
ATTDEF
  5
47B4
330
4779
100
AcDbEntity
  8
RAHMEN013
100
AcDbText
 10
222.334696217938
 20
44.31249999999996
 30
0.0
 40
2.5
  1

 11
222.334696217938
 21
45.56249999999996
 31
0.0
100
AcDbAttributeDefinition
  3
Werkstoff, Rohteil Zeile 1
  2
WERKSTOFF1
 70
     0
 74
     2
  0
ATTDEF
  5
47B5
330
4779
100
AcDbEntity
  8
RAHMEN013
100
AcDbText
 10
222.334696217938
 20
40.02678571428568
 30
0.0
 40
2.5
  1

 11
222.334696217938
 21
41.27678571428568
 31
0.0
100
AcDbAttributeDefinition
  3
Werkstoff, Rohteil Zeile 2
  2
WERKSTOFF2
 70
     0
 74
     2
  0
ATTDEF
  5
47B6
330
4779
100
AcDbEntity
  8
RAHMEN025
100
AcDbText
 10
125.9999999999998
 20
43.56249999999996
 30
0.0
 40
3.5
  1

 72
     4
 11
125.9999999999998
 21
43.56249999999996
 31
0.0
100
AcDbAttributeDefinition
  3
Verwendung bei
  2
VERWENDUNGA
 70
     0
  0
ATTDEF
  5
47B7
330
4779
100
AcDbEntity
  8
RAHMEN025
100
AcDbText
 10
100.3999999999998
 20
41.79999999999996
 30
0.0
 40
3.5
  1

 41
1.365333333333332
 72
     5
 11
151.5999999999998
 21
41.79999999999996
 31
0.0
100
AcDbAttributeDefinition
  3
Verwendung bei, eingepaßt
  2
VERWENDUNGB
 70
     0
  0
ATTDEF
  5
47B8
330
4779
100
AcDbEntity
  8
RAHMEN013
100
AcDbText
 10
154.8892857142855
 20
44.31249999999996
 30
0.0
 40
2.5
  1
DIN ISO 2768
 41
0.9
 72
     4
 11
166.2999999999998
 21
45.56249999999996
 31
0.0
100
AcDbAttributeDefinition
  3
Zul. Abweichung Zeile 1
  2
ZUL_ABW1
 70
     0
  0
ATTDEF
  5
47B9
330
4779
100
AcDbEntity
  8
RAHMEN013
100
AcDbText
 10
163.6749999999998
 20
40.02678571428568
 30
0.0
 40
2.5
  1
fein
 41
0.9
 72
     4
 11
166.2999999999998
 21
41.27678571428568
 31
0.0
100
AcDbAttributeDefinition
  3
Zul. Abweichung Zeile 2
  2
ZUL_ABW2
 70
     0
  0
ATTDEF
  5
47BA
330
4779
100
AcDbEntity
  8
RAHMEN013
100
AcDbText
 10
180.0999999999999
 20
44.28571428571424
 30
0.0
 40
2.5
  1

 41
1.133658536585361
 72
     5
 11
196.6999999999998
 21
44.28571428571424
 31
0.0
100
AcDbAttributeDefinition
  3
Oberfläche Zeile 1
  2
OBERFL1
 70
     0
  0
ATTDEF
  5
47BB
330
4779
100
AcDbEntity
  8
RAHMEN013
100
AcDbText
 10
180.0999999999998
 20
39.99999999999996
 30
0.0
 40
2.5
  1

 41
1.056363636363638
 72
     5
 11
196.6999999999998
 21
39.99999999999996
 31
0.0
100
AcDbAttributeDefinition
  3
Oberfläche Zeile 2
  2
OBERFL2
 70
     0
  0
ATTDEF
  5
47BC
330
4779
100
AcDbEntity
  8
RAHMEN013
100
AcDbText
 10
164.3550213503374
 20
30.70603256725524
 30
0.0
 40
2.5
  1

 41
0.9
100
AcDbAttributeDefinition
  3
Bearbeitet am
  2
BEARBETET
 70
     0
  0
ATTDEF
  5
47BD
330
4779
100
AcDbEntity
  8
RAHMEN013
100
AcDbText
 10
180.6181341021421
 20
30.70603256725524
 30
0.0
 40
2.5
  1

100
AcDbAttributeDefinition
  3
Bearbeitet von
  2
NAMEBEARB
 70
     0
  0
ATTDEF
  5
47BE
330
4779
100
AcDbEntity
  8
RAHMEN013
100
AcDbText
 10
164.3550213503374
 20
26.45603256725524
 30
0.0
 40
2.5
  1

 41
0.9
100
AcDbAttributeDefinition
  3
Geprüft am
  2
GEPRÜFT
 70
     0
  0
ATTDEF
  5
47BF
330
4779
100
AcDbEntity
  8
RAHMEN013
100
AcDbText
 10
180.618134102142
 20
26.45603256725524
 30
0.0
 40
2.5
  1

100
AcDbAttributeDefinition
  3
Geprüft von
  2
NAMEGEPR
 70
     0
  0
ATTDEF
  5
47C0
330
4779
100
AcDbEntity
  8
RAHMEN013
100
AcDbText
 10
227.0999999999997
 20
0.8749999999999644
 30
0.0
 40
2.5
  1

 72
     1
 11
227.0999999999997
 21
2.124999999999964
 31
0.0
100
AcDbAttributeDefinition
  3
Ersatz für
  2
ERSATZF
 70
     0
 74
     2
  0
ATTDEF
  5
47C1
330
4779
100
AcDbEntity
  8
RAHMEN013
100
AcDbText
 10
271.2999999999996
 20
0.8749999999998507
 30
0.0
 40
2.5
  1

 72
     1
 11
271.2999999999996
 21
2.12499999999985
 31
0.0
100
AcDbAttributeDefinition
  3
Ersatz durch
  2
ERSATZD
 70
     0
 74
     2
  0
ATTDEF
  5
47C2
330
4779
100
AcDbEntity
  8
RAHMEN013
100
AcDbText
 10
99.19999999999987
 20
66.99999999999997
 30
0.0
 40
2.5
  1

100
AcDbAttributeDefinition
  3
Bemerkung Zeile 1
  2
BEM1
 70
     0
  0
ATTDEF
  5
47C3
330
4779
100
AcDbEntity
  8
RAHMEN013
100
AcDbText
 10
99.19999999999987
 20
62.71428571428568
 30
0.0
 40
2.5
  1

100
AcDbAttributeDefinition
  3
Bemerkung Zeile 2
  2
BEM2
 70
     0
  0
ATTDEF
  5
47C4
330
4779
100
AcDbEntity
  8
RAHMEN013
100
AcDbText
 10
99.19999999999987
 20
58.42857142857139
 30
0.0
 40
2.5
  1

100
AcDbAttributeDefinition
  3
Bemerkung Zeile 3
  2
BEM3
 70
     0
  0
LINE
  5
47C5
330
4779
100
AcDbEntity
  8
RAHMEN013
  6
MITTE2
100
AcDbLine
 10
271.5249999999997
 20
55.21249999999994
 30
0.0
 11
271.5249999999997
 21
48.91249999999993
 31
0.0
  0
LINE
  5
47C6
330
4779
100
AcDbEntity
  8
RAHMEN013
  6
MITTE2
100
AcDbLine
 10
268.3749999999998
 20
52.06249999999993
 30
0.0
 11
274.6749999999997
 21
52.06249999999993
 31
0.0
  0
CIRCLE
  5
47C7
330
4779
100
AcDbEntity
  8
RAHMEN025
100
AcDbCircle
 10
271.5249999999997
 20
52.06249999999993
 30
0.0
 40
2.25
  0
LINE
  5
47C8
330
4779
100
AcDbEntity
  8
RAHMEN025
100
AcDbLine
 10
260.8249999999998
 20
50.82749999999992
 30
0.0
 11
266.0249999999998
 21
49.81249999999992
 31
0.0
  0
LINE
  5
47C9
330
4779
100
AcDbEntity
  8
RAHMEN025
100
AcDbLine
 10
260.8249999999998
 20
53.29749999999995
 30
0.0
 11
266.0249999999998
 21
54.31249999999994
 31
0.0
  0
LINE
  5
47CA
330
4779
100
AcDbEntity
  8
RAHMEN013
  6
MITTE2
100
AcDbLine
 10
259.8249999999998
 20
52.06249999999993
 30
0.0
 11
267.0249999999998
 21
52.06249999999993
 31
0.0
  0
LINE
  5
47CB
330
4779
100
AcDbEntity
  8
RAHMEN025
100
AcDbLine
 10
260.8249999999998
 20
53.29749999999995
 30
0.0
 11
260.8249999999998
 21
50.82749999999992
 31
0.0
  0
LINE
  5
47CC
330
4779
100
AcDbEntity
  8
RAHMEN025
100
AcDbLine
 10
266.0249999999998
 20
54.31249999999994
 30
0.0
 11
266.0249999999998
 21
49.81249999999992
 31
0.0
  0
CIRCLE
  5
47CD
330
4779
100
AcDbEntity
  8
RAHMEN025
100
AcDbCircle
 10
271.5249999999997
 20
52.06249999999993
 30
0.0
 40
1.235
  0
ATTDEF
  5
47CE
330
4779
100
AcDbEntity
  8
RAHMEN013
100
AcDbText
 10
102.5999999999998
 20
36.12499999999996
 30
0.0
 40
2.5
  1

 72
     4
 11
102.5999999999998
 21
36.12499999999996
 31
0.0
100
AcDbAttributeDefinition
  3
Zustand 1
  2
ZUST1
 70
     0
  0
ATTDEF
  5
47CF
330
4779
100
AcDbEntity
  8
RAHMEN013
100
AcDbText
 10
107.6999999999998
 20
34.84999999999996
 30
0.0
 40
2.5
  1

 41
2.832000000000001
 72
     5
 11
131.2999999999999
 21
34.84999999999996
 31
0.0
100
AcDbAttributeDefinition
  3
Änderung 1
  2
ÄND1
 70
     0
  0
ATTDEF
  5
47D0
330
4779
100
AcDbEntity
  8
RAHMEN013
100
AcDbText
 10
133.2999999999999
 20
34.84999999999997
 30
0.0
 40
2.5
  1

 50
359.9999999999999
 41
1.450909090909088
 72
     5
 11
144.6999999999998
 21
34.84999999999996
 31
0.0
100
AcDbAttributeDefinition
  3
Datum 1
  2
DAT1
 70
     0
  0
ATTDEF
  5
47D1
330
4779
100
AcDbEntity
  8
RAHMEN013
100
AcDbText
 10
146.2999999999999
 20
34.84999999999997
 30
0.0
 40
2.5
  1

 41
0.5660869565217329
 72
     5
 11
152.4999999999998
 21
34.84999999999997
 31
0.0
100
AcDbAttributeDefinition
  3
Name 1
  2
NAME1
 70
     0
  0
ATTDEF
  5
47D2
330
4779
100
AcDbEntity
  8
RAHMEN013
100
AcDbText
 10
102.5999999999998
 20
31.87499999999996
 30
0.0
 40
2.5
  1

 72
     4
 11
102.5999999999998
 21
31.87499999999996
 31
0.0
100
AcDbAttributeDefinition
  3
Zustand 2
  2
ZUST2
 70
     0
  0
ATTDEF
  5
47D3
330
4779
100
AcDbEntity
  8
RAHMEN013
100
AcDbText
 10
107.6999999999998
 20
30.59999999999996
 30
0.0
 40
2.5
  1

 41
2.509367088607596
 72
     5
 11
131.2999999999999
 21
30.59999999999996
 31
0.0
100
AcDbAttributeDefinition
  3
Änderung 2
  2
ÄND2
 70
     0
  0
ATTDEF
  5
47D4
330
4779
100
AcDbEntity
  8
RAHMEN013
100
AcDbText
 10
133.2999999999999
 20
30.59999999999997
 30
0.0
 40
2.5
  1

 50
359.9999999999999
 41
1.276799999999997
 72
     5
 11
144.6999999999998
 21
30.59999999999996
 31
0.0
100
AcDbAttributeDefinition
  3
Datum 2
  2
DAT2
 70
     0
  0
ATTDEF
  5
47D5
330
4779
100
AcDbEntity
  8
RAHMEN013
100
AcDbText
 10
146.2999999999999
 20
30.59999999999997
 30
0.0
 40
2.5
  1

 41
0.5156435643564301
 72
     5
 11
152.4999999999998
 21
30.59999999999997
 31
0.0
100
AcDbAttributeDefinition
  3
Name 2
  2
NAME2
 70
     0
  0
ATTDEF
  5
47D6
330
4779
100
AcDbEntity
  8
RAHMEN013
100
AcDbText
 10
102.5999999999998
 20
27.62499999999996
 30
0.0
 40
2.5
  1

 72
     4
 11
102.5999999999998
 21
27.62499999999996
 31
0.0
100
AcDbAttributeDefinition
  3
Zustand 3
  2
ZUST3
 70
     0
  0
ATTDEF
  5
47D7
330
4779
100
AcDbEntity
  8
RAHMEN013
100
AcDbText
 10
107.6999999999998
 20
26.34999999999996
 30
0.0
 40
2.5
  1

 41
2.509367088607595
 72
     5
 11
131.2999999999999
 21
26.34999999999996
 31
0.0
100
AcDbAttributeDefinition
  3
Änderung 3
  2
ÄND3
 70
     0
  0
ATTDEF
  5
47D8
330
4779
100
AcDbEntity
  8
RAHMEN013
100
AcDbText
 10
133.2999999999999
 20
26.34999999999997
 30
0.0
 40
2.5
  1

 50
359.9999999999999
 41
1.276799999999997
 72
     5
 11
144.6999999999998
 21
26.34999999999996
 31
0.0
100
AcDbAttributeDefinition
  3
Datum 3
  2
DAT3
 70
     0
  0
ATTDEF
  5
47D9
330
4779
100
AcDbEntity
  8
RAHMEN013
100
AcDbText
 10
146.2999999999999
 20
26.34999999999997
 30
0.0
 40
2.5
  1

 41
0.51564356435643
 72
     5
 11
152.4999999999998
 21
26.34999999999997
 31
0.0
100
AcDbAttributeDefinition
  3
Name 3
  2
NAME3
 70
     0
  0
ATTDEF
  5
47DA
330
4779
100
AcDbEntity
  8
RAHMEN013
100
AcDbText
 10
102.5999999999998
 20
23.37499999999996
 30
0.0
 40
2.5
  1

 72
     4
 11
102.5999999999998
 21
23.37499999999996
 31
0.0
100
AcDbAttributeDefinition
  3
Zustand 4
  2
ZUST4
 70
     0
  0
ATTDEF
  5
47DB
330
4779
100
AcDbEntity
  8
RAHMEN013
100
AcDbText
 10
107.6999999999998
 20
22.09999999999996
 30
0.0
 40
2.5
  1

 41
2.478
 72
     5
 11
131.2999999999999
 21
22.09999999999996
 31
0.0
100
AcDbAttributeDefinition
  3
Änderung 4
  2
ÄND4
 70
     0
  0
ATTDEF
  5
47DC
330
4779
100
AcDbEntity
  8
RAHMEN013
100
AcDbText
 10
133.2999999999999
 20
22.09999999999997
 30
0.0
 40
2.5
  1

 50
359.9999999999999
 41
1.259999999999997
 72
     5
 11
144.6999999999998
 21
22.09999999999996
 31
0.0
100
AcDbAttributeDefinition
  3
Datum 4
  2
DAT4
 70
     0
  0
ATTDEF
  5
47DD
330
4779
100
AcDbEntity
  8
RAHMEN013
100
AcDbText
 10
146.2999999999999
 20
22.09999999999997
 30
0.0
 40
2.5
  1

 41
0.5105882352941121
 72
     5
 11
152.4999999999998
 21
22.09999999999997
 31
0.0
100
AcDbAttributeDefinition
  3
Name 4
  2
NAME4
 70
     0
  0
ATTDEF
  5
47DE
330
4779
100
AcDbEntity
  8
RAHMEN013
100
AcDbText
 10
102.5999999999998
 20
19.12499999999996
 30
0.0
 40
2.5
  1

 72
     4
 11
102.5999999999998
 21
19.12499999999996
 31
0.0
100
AcDbAttributeDefinition
  3
Zustand 5
  2
ZUST5
 70
     0
  0
ATTDEF
  5
47DF
330
4779
100
AcDbEntity
  8
RAHMEN013
100
AcDbText
 10
107.6999999999998
 20
17.84999999999996
 30
0.0
 40
2.5
  1

 41
2.509367088607595
 72
     5
 11
131.2999999999999
 21
17.84999999999996
 31
0.0
100
AcDbAttributeDefinition
  3
Änderung 5
  2
ÄND5
 70
     0
  0
ATTDEF
  5
47E0
330
4779
100
AcDbEntity
  8
RAHMEN013
100
AcDbText
 10
133.2999999999999
 20
17.84999999999997
 30
0.0
 40
2.5
  1

 50
359.9999999999999
 41
1.276799999999997
 72
     5
 11
144.6999999999998
 21
17.84999999999996
 31
0.0
100
AcDbAttributeDefinition
  3
Datum 5
  2
DAT5
 70
     0
  0
ATTDEF
  5
47E1
330
4779
100
AcDbEntity
  8
RAHMEN013
100
AcDbText
 10
146.2999999999999
 20
17.84999999999997
 30
0.0
 40
2.5
  1

 41
0.5156435643564298
 72
     5
 11
152.4999999999998
 21
17.84999999999997
 31
0.0
100
AcDbAttributeDefinition
  3
Name 5
  2
NAME5
 70
     0
  0
ATTDEF
  5
47E2
330
4779
100
AcDbEntity
  8
RAHMEN013
100
AcDbText
 10
102.5999999999998
 20
14.87499999999996
 30
0.0
 40
2.5
  1

 72
     4
 11
102.5999999999998
 21
14.87499999999996
 31
0.0
100
AcDbAttributeDefinition
  3
Zustand 6
  2
ZUST6
 70
     0
  0
ATTDEF
  5
47E3
330
4779
100
AcDbEntity
  8
RAHMEN013
100
AcDbText
 10
107.6999999999998
 20
13.59999999999996
 30
0.0
 40
2.5
  1

 41
2.541538461538463
 72
     5
 11
131.2999999999999
 21
13.59999999999996
 31
0.0
100
AcDbAttributeDefinition
  3
Änderung 6
  2
ÄND6
 70
     0
  0
ATTDEF
  5
47E4
330
4779
100
AcDbEntity
  8
RAHMEN013
100
AcDbText
 10
133.2999999999999
 20
13.59999999999997
 30
0.0
 40
2.5
  1

 50
359.9999999999999
 41
1.294054054054051
 72
     5
 11
144.6999999999998
 21
13.59999999999996
 31
0.0
100
AcDbAttributeDefinition
  3
Datum 6
  2
DAT6
 70
     0
  0
ATTDEF
  5
47E5
330
4779
100
AcDbEntity
  8
RAHMEN013
100
AcDbText
 10
146.2999999999999
 20
13.59999999999997
 30
0.0
 40
2.5
  1

 41
0.5207999999999944
 72
     5
 11
152.4999999999998
 21
13.59999999999997
 31
0.0
100
AcDbAttributeDefinition
  3
Name 6
  2
NAME6
 70
     0
  0
ATTDEF
  5
47E6
330
4779
100
AcDbEntity
  8
RAHMEN013
100
AcDbText
 10
102.5999999999998
 20
10.62499999999996
 30
0.0
 40
2.5
  1

 72
     4
 11
102.5999999999998
 21
10.62499999999996
 31
0.0
100
AcDbAttributeDefinition
  3
Zustand 7
  2
ZUST7
 70
     0
  0
ATTDEF
  5
47E7
330
4779
100
AcDbEntity
  8
RAHMEN013
100
AcDbText
 10
107.6999999999998
 20
9.349999999999965
 30
0.0
 40
2.5
  1

 41
2.509367088607596
 72
     5
 11
131.2999999999999
 21
9.349999999999965
 31
0.0
100
AcDbAttributeDefinition
  3
Änderung 7
  2
ÄND7
 70
     0
  0
ATTDEF
  5
47E8
330
4779
100
AcDbEntity
  8
RAHMEN013
100
AcDbText
 10
133.2999999999999
 20
9.349999999999972
 30
0.0
 40
2.5
  1

 50
359.9999999999999
 41
1.276799999999997
 72
     5
 11
144.6999999999998
 21
9.349999999999965
 31
0.0
100
AcDbAttributeDefinition
  3
Datum 7
  2
DAT7
 70
     0
  0
ATTDEF
  5
47E9
330
4779
100
AcDbEntity
  8
RAHMEN013
100
AcDbText
 10
146.2999999999999
 20
9.349999999999972
 30
0.0
 40
2.5
  1

 41
0.51564356435643
 72
     5
 11
152.4999999999998
 21
9.349999999999972
 31
0.0
100
AcDbAttributeDefinition
  3
Name 7
  2
NAME7
 70
     0
  0
ATTDEF
  5
47EA
330
4779
100
AcDbEntity
  8
RAHMEN013
100
AcDbText
 10
102.5999999999998
 20
6.374999999999964
 30
0.0
 40
2.5
  1

 72
     4
 11
102.5999999999998
 21
6.374999999999964
 31
0.0
100
AcDbAttributeDefinition
  3
Zustand 8
  2
ZUST8
 70
     0
  0
ATTDEF
  5
47EB
330
4779
100
AcDbEntity
  8
RAHMEN013
100
AcDbText
 10
107.6999999999998
 20
5.099999999999965
 30
0.0
 40
2.5
  1

 41
2.509367088607596
 72
     5
 11
131.2999999999999
 21
5.099999999999965
 31
0.0
100
AcDbAttributeDefinition
  3
Änderung 8
  2
ÄND8
 70
     0
  0
ATTDEF
  5
47EC
330
4779
100
AcDbEntity
  8
RAHMEN013
100
AcDbText
 10
133.2999999999999
 20
5.099999999999972
 30
0.0
 40
2.5
  1

 50
359.9999999999999
 41
1.276799999999997
 72
     5
 11
144.6999999999998
 21
5.099999999999965
 31
0.0
100
AcDbAttributeDefinition
  3
Datum 8
  2
DAT8
 70
     0
  0
ATTDEF
  5
47ED
330
4779
100
AcDbEntity
  8
RAHMEN013
100
AcDbText
 10
146.2999999999999
 20
5.099999999999972
 30
0.0
 40
2.5
  1

 41
0.51564356435643
 72
     5
 11
152.4999999999998
 21
5.099999999999972
 31
0.0
100
AcDbAttributeDefinition
  3
Name 8
  2
NAME8
 70
     0
  0
ATTDEF
  5
47EE
330
4779
100
AcDbEntity
  8
RAHMEN035
 62
   151
100
AcDbText
 10
127.1139741116234
 20
2.96142503840963
 30
0.0
 40
20.0
  1
Preliminary
 50
15.0
  7
HELV_N_BOLD
 72
     4
 11
192.2999999999998
 21
27.62499999999996
 31
0.0
100
AcDbAttributeDefinition
  3
Entwurf
  2
ENTWURF
 70
     0
  0
HATCH
  5
47EF
330
4779
100
AcDbEntity
  8
Logo Farbe1
100
AcDbHatch
 10
0.0
 20
0.0
 30
0.0
210
0.0
220
0.0
230
1.0
  2
SOLID
 70
     1
 71
     0
 91
        1
 92
        7
 72
     1
 73
     1
 93
       63
 10
156.7756874723956
 20
11.34725106956177
 42
0.0
 10
156.8164407412283
 20
11.51026414489278
 42
0.0
 10
156.8566152248981
 20
11.6508748377368
 42
0.0
 10
156.8979535604197
 20
11.78729134495795
 42
0.0
 10
156.9796849596168
 20
11.99979298287031
 42
0.0
 10
157.0603890910026
 20
12.18541248505772
 42
0.0
 10
157.1032396157961
 20
12.27539858712408
 42
0.0
 10
157.1461574129659
 20
12.35265062202978
 42
0.0
 10
157.4035219387341
 20
12.79017031583574
 42
0.0
 10
157.5249999999998
 20
12.40144051978553
 42
0.0
 10
157.6464780612655
 20
12.79017031583573
 42
0.0
 10
157.9038425870337
 20
12.35265062202977
 42
0.0
 10
157.9467603842036
 20
12.27539858712406
 42
0.0
 10
157.989610908997
 20
12.18541248505773
 42
0.0
 10
158.0703150403829
 20
11.99979298287033
 42
0.0
 10
158.1520464395799
 20
11.78729134495793
 42
0.0
 10
158.1933847751015
 20
11.6508748377368
 42
0.0
 10
158.2335592587712
 20
11.51026414489277
 42
0.0
 10
158.274312527604
 20
11.34725106956174
 42
0.0
 10
158.3141584116928
 20
11.14802164911721
 42
0.0
 10
158.3539474386435
 20
10.94509761166894
 42
0.0
 10
158.3928873100401
 20
10.6842004733122
 42
0.0
 10
158.43156527361
 20
10.48307506274832
 42
0.0
 10
158.4702827353119
 20
10.24302680019674
 42
0.0
 10
158.4892356971258
 20
10.15015728730861
 42
0.0
 10
158.5097492969735
 20
10.18297904706491
 42
0.0
 10
158.5486381858624
 20
10.24909015817601
 42
0.0
 10
158.7570462039708
 20
10.58254298714939
 42
0.0
 10
158.9266899938714
 20
10.20932664936777
 42
0.0
 10
159.0080185844752
 20
9.973473736616888
 42
0.0
 10
159.0458829656931
 20
9.856094154841613
 42
0.0
 10
159.0833164288029
 20
9.758767150756099
 42
0.0
 10
159.116760710759
 20
9.66846758947458
 42
0.0
 10
159.1289996943921
 20
9.647661317298215
 42
0.0
 10
159.1585090908472
 20
9.715532929144842
 42
0.0
 10
159.2028363259947
 20
9.821918293498846
 42
0.0
 10
159.2530964967583
 20
9.902334566720547
 42
0.0
 10
159.3277479025233
 20
10.00684653479157
 42
0.0
 10
159.4345212831157
 20
10.04955588702857
 42
0.0
 10
159.508964070195
 20
10.0644444444444
 42
0.0
 10
160.089449740029
 20
10.0644444444444
 42
1.242198474718124
 10
154.9605502599706
 20
10.0644444444444
 42
0.0
 10
155.5410359298047
 20
10.0644444444444
 42
0.0
 10
155.6154787168838
 20
10.04955588702857
 42
0.0
 10
155.7222520974763
 20
10.00684653479158
 42
0.0
 10
155.7969035032414
 20
9.90233456672054
 42
0.0
 10
155.8471636740049
 20
9.821918293498846
 42
0.0
 10
155.8914909091524
 20
9.715532929144906
 42
0.0
 10
155.9210003056074
 20
9.647661317298187
 42
0.0
 10
155.9332392892406
 20
9.66846758947458
 42
0.0
 10
155.9666835711968
 20
9.758767150756234
 42
0.0
 10
156.0041170343066
 20
9.856094154841613
 42
0.0
 10
156.0419814155244
 20
9.973473736616931
 42
0.0
 10
156.1233100061281
 20
10.20932664936777
 42
0.0
 10
156.2929537960288
 20
10.58254298714938
 42
0.0
 10
156.5013618141373
 20
10.24909015817603
 42
0.0
 10
156.5402507030261
 20
10.18297904706489
 42
0.0
 10
156.5607643028738
 20
10.15015728730857
 42
0.0
 10
156.5797172646877
 20
10.24302680019675
 42
0.0
 10
156.6184347263896
 20
10.48307506274832
 42
0.0
 10
156.6571126899596
 20
10.68420047331222
 42
0.0
 10
156.6960525613561
 20
10.94509761166895
 42
0.0
 10
156.7358415883067
 20
11.14802164911734
 42
0.0
 97
        0
 75
     0
 76
     1
 47
0.0260537930419125
 98
        1
 10
156.209475503516
 20
11.29967567327033
  0
HATCH
  5
47F0
330
4779
100
AcDbEntity
  8
Logo Farbe2
100
AcDbHatch
 10
0.0
 20
0.0
 30
0.0
210
0.0
220
0.0
230
1.0
  2
SOLID
 70
     1
 71
     0
 91
        1
 92
        7
 72
     1
 73
     1
 93
      103
 10
158.2737401934817
 20
10.00584527916002
 42
0.0
 10
158.2341361222861
 20
10.19990522801835
 42
0.0
 10
158.1952021209796
 20
10.4412960361188
 42
0.0
 10
158.1562577254278
 20
10.64380689298796
 42
0.0
 10
158.1173822529883
 20
10.90427255833268
 42
0.0
 10
158.0787302425367
 20
11.10139781163572
 42
0.0
 10
158.0400931944899
 20
11.29458305186965
 42
0.0
 10
158.001694931902
 20
11.44817610222115
 42
0.0
 10
157.9631443574291
 20
11.58310311287623
 42
0.0
 10
157.9249000597594
 20
11.70930929518645
 42
0.0
 10
157.886666053023
 20
11.80871771270118
 42
0.0
 10
157.8481627086709
 20
11.90882640801653
 42
0.0
 10
157.8097020527427
 20
11.99728591665147
 42
0.0
 10
157.7711550239479
 20
12.0859440828795
 42
0.0
 10
157.7333086708234
 20
12.16542142444097
 42
0.0
 10
157.7137126267241
 20
12.20069430381973
 42
0.0
 10
157.7088351100126
 20
12.18508625034316
 42
0.0
 10
157.6699462211238
 20
12.06064180589871
 42
0.0
 10
157.6309890472669
 20
11.93597884955678
 42
0.0
 10
157.591792068697
 20
11.81446821599014
 42
0.0
 10
157.5249999999997
 20
11.62745042363789
 42
0.0
 10
157.4582079313026
 20
11.81446821599016
 42
0.0
 10
157.4190109527327
 20
11.93597884955679
 42
0.0
 10
157.3800537788758
 20
12.06064180589871
 42
0.0
 10
157.3411648899869
 20
12.18508625034315
 42
0.0
 10
157.3362873732755
 20
12.20069430381971
 42
0.0
 10
157.3166913291762
 20
12.16542142444098
 42
0.0
 10
157.2788449760517
 20
12.0859440828795
 42
0.0
 10
157.2402979472569
 20
11.99728591665145
 42
0.0
 10
157.2018372913287
 20
11.90882640801653
 42
0.0
 10
157.1633339469766
 20
11.80871771270118
 42
0.0
 10
157.1250999402401
 20
11.70930929518645
 42
0.0
 10
157.0868556425704
 20
11.58310311287623
 42
0.0
 10
157.0483050680975
 20
11.44817610222115
 42
0.0
 10
157.0099068055097
 20
11.29458305186965
 42
0.0
 10
156.9712697574629
 20
11.10139781163576
 42
0.0
 10
156.9326177470113
 20
10.90427255833268
 42
0.0
 10
156.8937422745718
 20
10.64380689298796
 42
0.0
 10
156.8547978790201
 20
10.4412960361188
 42
0.0
 10
156.8158638777135
 20
10.19990522801834
 42
0.0
 10
156.7762598065179
 20
10.00584527916002
 42
0.0
 10
156.7325247262396
 20
9.865893022269276
 42
0.0
 10
156.6768329443278
 20
9.815770418548723
 42
0.0
 10
156.6183156510424
 20
9.79236350123454
 42
0.0
 10
156.5542498889336
 20
9.798770077445425
 42
0.0
 10
156.5021566225497
 20
9.835235363914186
 42
0.0
 10
156.457599501697
 20
9.875336772681592
 42
0.0
 10
156.4144431756011
 20
9.931439996606236
 42
0.0
 10
156.3742667514662
 20
9.995722275222021
 42
0.0
 10
156.3350217448174
 20
10.05851428586006
 42
0.0
 10
156.3288132564483
 20
10.06906871608765
 42
0.0
 10
156.3083797601922
 20
10.00981157694511
 42
0.0
 10
156.2696540134582
 20
9.897506911416556
 42
0.0
 10
156.2304955172875
 20
9.776115573287249
 42
0.0
 10
156.1912236216146
 20
9.674008644537785
 42
0.0
 10
156.1509019414276
 20
9.565140108032956
 42
0.0
 10
156.1076925023815
 20
9.491684061654488
 42
0.0
 10
156.0654993080023
 20
9.441052228399477
 42
0.0
 10
156.0209305384649
 20
9.392026581908382
 42
0.0
 10
155.9682983095311
 20
9.360447244548076
 42
0.0
 10
155.9111111111109
 20
9.349009804864039
 42
0.0
 10
155.8558505412168
 20
9.360061918842859
 42
0.0
 10
155.8049172813384
 20
9.385528548782026
 42
0.0
 10
155.7529221288696
 20
9.432324186003995
 42
0.0
 10
155.7097020527427
 20
9.531730361095881
 42
0.0
 10
155.6706602870649
 20
9.621526422154779
 42
0.0
 10
155.6332025419283
 20
9.711425010482706
 42
0.0
 10
155.597306095638
 20
9.768859324547172
 42
0.0
 10
155.5678283954007
 20
9.81012810487936
 42
0.0
 10
155.5468038464338
 20
9.81853792446612
 42
0.0
 10
155.5172712465424
 20
9.824444444444409
 42
0.0
 10
155.0250528400644
 20
9.824444444444409
 42
0.7297932027057648
 10
160.0249471599352
 20
9.824444444444409
 42
0.0
 10
159.5327287534572
 20
9.824444444444409
 42
0.0
 10
159.5031961535658
 20
9.81853792446612
 42
0.0
 10
159.4821716045989
 20
9.81012810487936
 42
0.0
 10
159.4526939043616
 20
9.768859324547165
 42
0.0
 10
159.4167974580713
 20
9.711425010482706
 42
0.0
 10
159.3793397129347
 20
9.621526422154829
 42
0.0
 10
159.3402979472569
 20
9.531730361095888
 42
0.0
 10
159.29707787113
 20
9.432324186003988
 42
0.0
 10
159.2450827186612
 20
9.385528548782026
 42
0.0
 10
159.1941494587828
 20
9.360061918842859
 42
0.0
 10
159.1388888888887
 20
9.349009804864039
 42
0.0
 10
159.0817016904685
 20
9.360447244548076
 42
0.0
 10
159.0290694615346
 20
9.392026581908382
 42
0.0
 10
158.9845006919973
 20
9.441052228399477
 42
0.0
 10
158.9423074976181
 20
9.491684061654488
 42
0.0
 10
158.8990980585719
 20
9.565140108032963
 42
0.0
 10
158.8587763783849
 20
9.674008644537813
 42
0.0
 10
158.8195044827121
 20
9.776115573287256
 42
0.0
 10
158.7803459865414
 20
9.897506911416549
 42
0.0
 10
158.7416202398074
 20
10.00981157694511
 42
0.0
 10
158.7211867435513
 20
10.06906871608764
 42
0.0
 10
158.7149782551822
 20
10.05851428586007
 42
0.0
 10
158.6757332485334
 20
9.995722275222021
 42
0.0
 10
158.6355568243985
 20
9.931439996606236
 42
0.0
 10
158.5924004983027
 20
9.875336772681592
 42
0.0
 10
158.54784337745
 20
9.835235363914186
 42
0.0
 10
158.495750111066
 20
9.798770077445425
 42
0.0
 10
158.4316843489572
 20
9.79236350123454
 42
0.0
 10
158.3731670556717
 20
9.81577041854873
 42
0.0
 10
158.31747527376
 20
9.865893022269268
 42
0.0
 97
        0
 75
     0
 76
     1
 47
0.0248147754964865
 98
        1
 10
157.8074862715731
 20
9.733795630575407
  0
HATCH
  5
47F1
330
4779
100
AcDbEntity
  8
Logo Farbe2
100
AcDbHatch
 10
0.0
 20
0.0
 30
0.0
210
0.0
220
0.0
230
1.0
  2
SOLID
 70
     1
 71
     0
 91
       17
 92
        7
 72
     0
 73
     1
 93
       88
 10
178.5035285926922
 20
8.14826098626176
 10
183.0849637312834
 20
8.14826098626176
 10
183.3424301545559
 20
8.961473155551672
 10
184.7069863059648
 20
8.961473155551679
 10
184.9828433498877
 20
8.14826098626176
 10
188.9006532724053
 20
8.14826098626176
 10
189.2537464128005
 20
8.21620043423232
 10
189.4875628971751
 20
8.306206693810359
 10
189.7265326472701
 20
8.429243436278973
 10
189.9703290331497
 20
8.593925469453139
 10
190.112465371271
 20
8.735963210197738
 10
190.2214859194969
 20
8.881222237411016
 10
190.3645182069113
 20
8.688542072308912
 10
190.5618031863127
 20
8.528946643020951
 10
190.7548602891814
 20
8.400331205908635
 10
190.9881386616673
 20
8.2604615639924
 10
191.2764755958891
 20
8.176809264398954
 10
191.546256828089
 20
8.111734978776674
 10
192.8604806704157
 20
8.111734978776674
 10
193.1593952211894
 20
8.177077131782191
 10
193.4867693648701
 20
8.298588573829988
 10
193.7015920372101
 20
8.457259812097198
 10
193.9150589144394
 20
8.624205023743783
 10
194.0762164216712
 20
8.82314282744258
 10
194.1983348669982
 20
9.057822847635414
 10
194.2822350215205
 20
9.3093483639758
 10
194.3291223362086
 20
9.552995327489355
 10
194.3291223362086
 20
10.07356215853376
 10
194.2612009936161
 20
10.26749024403753
 10
194.1576556346735
 20
10.45562347175693
 10
194.0173533193218
 20
10.64256220577566
 10
193.8841295107614
 20
10.77569382638729
 10
193.6590715744539
 20
10.92562838991925
 10
193.4004116306599
 20
11.04563661977817
 10
193.1627687504049
 20
11.13697414765401
 10
192.9245481444727
 20
11.21937763898054
 10
192.6670780989739
 20
11.28370067701882
 10
192.4037980801096
 20
11.32906207311324
 10
192.1005747284807
 20
11.39144692682411
 10
191.8911194375231
 20
11.46121693392632
 10
191.7595161833388
 20
11.53084072175394
 10
191.7349026524677
 20
11.59233073722301
 10
191.7349026524677
 20
11.69824028276039
 10
191.8021821056728
 20
11.78564228345803
 10
191.9856856980194
 20
11.83347984240658
 10
192.2516708225082
 20
11.84205375596596
 10
192.4372280639992
 20
11.79368136573668
 10
192.5659405755611
 20
11.6650587021257
 10
192.6278291497249
 20
11.55682864202324
 10
192.6384587537288
 20
11.29128264637609
 10
194.1844973757463
 20
11.29128264637609
 10
194.1844973757463
 20
11.7781612921626
 10
194.126964865328
 20
12.00812905590941
 10
194.0414596432509
 20
12.1695264012524
 10
193.9299919607948
 20
12.34589495430956
 10
193.7995202421866
 20
12.50421433070904
 10
193.6859075237039
 20
12.61774861859706
 10
193.5573046098093
 20
12.70954370973156
 10
193.4448909479376
 20
12.8031562720169
 10
193.3022552572394
 20
12.86967336218035
 10
193.1115964767552
 20
12.95379782181173
 10
192.8854676509084
 20
13.02332454115242
 10
192.6503407624051
 20
13.0552857001824
 10
191.547620830599
 20
13.0552857001824
 10
191.3486917444605
 20
13.01742124918781
 10
191.1806322847254
 20
12.95923849353391
 10
190.9981271722339
 20
12.88419034894649
 10
190.8180821598871
 20
12.7756878204469
 10
190.6768760514354
 20
12.68161586075392
 10
190.5563342148271
 20
12.56115749035083
 10
190.4458859904301
 20
12.45998436012389
 10
190.313861351368
 20
12.29977928952797
 10
190.2068524359509
 20
12.11264447959673
 10
190.2061644675364
 20
12.11906099204941
 10
190.1276262361214
 20
12.31527057455195
 10
189.9102041655979
 20
12.57032714900784
 10
189.7278654796958
 20
12.71320405869374
 10
189.5153202739309
 20
12.82437112084866
 10
189.2643641073759
 20
12.92654139457681
 10
189.0459469707888
 20
12.97399063184924
 10
186.0648607731956
 20
12.97399063184924
 10
186.0648607731956
 20
9.801125010072482
 10
184.7839843648664
 20
13.00108898796033
 10
183.2802645759569
 20
13.00108898796033
 10
181.9394685714975
 20
9.550480312772087
 10
180.0729442096891
 20
9.550480312772087
 10
180.0729442096891
 20
13.06523923812486
 10
178.5035285926922
 20
13.06523923812486
 97
        0
 92
       22
 72
     0
 73
     1
 93
      126
 10
178.6145285926922
 20
12.95423923812487
 10
179.9619442096891
 20
12.95423923812487
 10
179.9619442096891
 20
9.43948031277209
 10
182.0154227359532
 20
9.43948031277209
 10
183.3562187404126
 20
12.89008898796033
 10
184.7088531270912
 20
12.89008898796033
 10
186.1758607731956
 20
9.225120539565317
 10
186.1758607731956
 20
12.86299063184925
 10
189.0340290667791
 20
12.86299063184924
 10
189.2314093919246
 20
12.82011146024631
 10
189.4685645681405
 20
12.72355990065464
 10
189.6674084831823
 20
12.61955899513893
 10
189.8329645205155
 20
12.48983262973826
 10
190.0313413125316
 20
12.25711796143731
 10
190.097428041579
 20
12.0920155739537
 10
190.1234137848463
 20
11.84965292801833
 10
190.1234137848463
 20
11.4271959693354
 10
190.0738540432915
 20
11.26211338564669
 10
189.9534773980826
 20
11.07910292382163
 10
189.8291476390902
 20
10.9495300023773
 10
189.5937493240349
 20
10.83191277416502
 10
189.8305592711647
 20
10.71358953944584
 10
189.9576161222449
 20
10.59508612252354
 10
190.078532229996
 20
10.44836107794313
 10
190.2279683541277
 20
10.17605039487271
 10
190.3218248999911
 20
9.936361509791538
 10
191.430871779552
 20
9.936361509791538
 10
191.4345304841606
 20
9.90345730104552
 10
191.4818763595991
 20
9.581730313120729
 10
191.5945147490525
 20
9.428239673160518
 10
191.7426621404772
 20
9.319673645677944
 10
191.985090101324
 20
9.222770077603748
 10
192.4386482213771
 20
9.222770077603755
 10
192.6732040800617
 20
9.300900687511493
 10
192.7710985462046
 20
9.377350538998818
 10
192.8547644446719
 20
9.533481121969309
 10
192.8657983284671
 20
9.687842621773086
 10
192.7871038952547
 20
9.833887339653166
 10
192.5875522927296
 20
9.943564414848076
 10
192.3632108981085
 20
10.01829301503991
 10
192.0799470918966
 20
10.08221130949084
 10
191.7833935911313
 20
10.14507284704946
 10
191.4803735930423
 20
10.23413423978254
 10
191.1574639324193
 20
10.35962305299307
 10
190.9479185470066
 20
10.44389147290802
 10
190.7527526383025
 20
10.57052150719147
 10
190.5230832216782
 20
10.73824038628458
 10
190.3795914676001
 20
10.89006740739425
 10
190.2955791689766
 20
11.08316032243605
 10
190.2705700249618
 20
11.21645206718114
 10
190.2705700249618
 20
11.9270778456636
 10
190.303207925323
 20
12.05753894718474
 10
190.4055300202875
 20
12.23647754980783
 10
190.5265990620342
 20
12.38338856973399
 10
190.6330896791378
 20
12.48093644006874
 10
190.7475641036842
 20
12.59533159963886
 10
190.877530496503
 20
12.6819156249388
 10
191.0481706157564
 20
12.7847503780994
 10
191.2199282969955
 20
12.85537905868628
 10
191.3773772572413
 20
12.909888423386
 10
191.5580907935272
 20
12.9442857001824
 10
192.642831093153
 20
12.9442857001824
 10
192.8615223811634
 20
12.91455865756697
 10
193.0727480423151
 20
12.84961414107092
 10
193.2563892047851
 20
12.76858606819833
 10
193.3849260153571
 20
12.70864388559106
 10
193.4894511949865
 20
12.62160046288316
 10
193.613943362708
 20
12.53273956902441
 10
193.7172680849186
 20
12.42948617526644
 10
193.8398914479269
 20
12.28069029390162
 10
193.9453612061639
 20
12.11381189254173
 10
194.0225597650107
 20
11.96809398012074
 10
194.0734973757463
 20
11.76448721333259
 10
194.0734973757463
 20
11.40228264637608
 10
192.7451044025217
 20
11.40228264637608
 10
192.7376551860644
 20
11.58837702959043
 10
192.6549187997659
 20
11.7330655150297
 10
192.4943799895959
 20
11.8934922608561
 10
192.2641383685468
 20
11.95351329507125
 10
191.9696996700336
 20
11.94402219306154
 10
191.7374058006476
 20
11.88346549480819
 10
191.6239026524677
 20
11.73601479829068
 10
191.6239026524677
 20
11.57093994995946
 10
191.671603002635
 20
11.45177398043559
 10
191.8473284898363
 20
11.35880763159687
 10
192.071749481073
 20
11.2840525176015
 10
192.3831850130234
 20
11.21997809854134
 10
192.6441711762381
 20
11.1750119185182
 10
192.892891293972
 20
11.11287485102798
 10
193.1247032103493
 20
11.03268820568784
 10
193.3570928524042
 20
10.94336974857075
 10
193.6046230718427
 20
10.82852528121453
 10
193.8134414177292
 20
10.68940960255134
 10
193.9333112899778
 20
10.5696226776209
 10
194.0641828767036
 20
10.39524944165378
 10
194.1594975388003
 20
10.22207069938708
 10
194.2181223362086
 20
10.05468598214688
 10
194.2181223362086
 20
9.563578631024157
 10
194.1746197510114
 20
9.337520200107356
 10
194.0958161246101
 20
9.10127364093303
 10
193.9829183087821
 20
8.884313282264116
 10
193.8367456738209
 20
8.703873267650195
 10
193.6344150893172
 20
8.545637373206162
 10
193.4334388991178
 20
8.397193353709525
 10
193.1280767395648
 20
8.283852098542176
 10
192.8484900476824
 20
8.222734978776664
 10
191.5594547960373
 20
8.222734978776671
 10
191.3049684453504
 20
8.28411996592542
 10
191.0328815565702
 20
8.363057802998305
 10
190.8142048264004
 20
8.49417255495036
 10
190.6276207076522
 20
8.618475663380053
 10
190.4452630646292
 20
8.76599549185606
 10
190.3161391108108
 20
8.939939607482706
 10
190.206376611637
 20
9.275752322857968
 10
190.1275530464535
 20
8.940983205510086
 10
190.0284233569205
 20
8.808902762842592
 10
189.8993871937715
 20
8.679956109718617
 10
189.6698619615378
 20
8.524914098851084
 10
189.4420868843195
 20
8.407641082055718
 10
189.2230811662506
 20
8.323336138534287
 10
188.8900714434309
 20
8.259260986261764
 10
185.0624025450593
 20
8.259260986261757
 10
184.7865455011364
 20
9.072473155551669
 10
183.2611428367249
 20
9.072473155551669
 10
183.0036764134524
 20
8.259260986261757
 10
178.6145285926922
 20
8.259260986261757
 97
        0
 92
        6
 72
     0
 73
     1
 93
        3
 10
183.58769520456
 20
10.10389448054768
 10
183.9975438995205
 20
11.39840870136528
 10
184.4366677588976
 20
10.10389448054768
 97
        0
 92
        6
 72
     0
 73
     1
 93
        3
 10
183.7392686643415
 20
10.21489448054767
 10
184.0011812001558
 20
11.04214977351531
 10
184.2818019388824
 20
10.21489448054767
 97
        0
 92
        6
 72
     0
 73
     1
 93
       15
 10
187.5490862667618
 20
10.2192789505135
 10
188.5907943696881
 20
10.2192789505135
 10
188.6696579646697
 20
10.20634107463887
 10
188.7479770965179
 20
10.18260135395795
 10
188.8573236151403
 20
10.09761307103702
 10
188.9041019425018
 20
10.02664417471716
 10
188.9341306090474
 20
9.944128497543928
 10
188.9358208759225
 20
9.662233474994302
 10
188.9239680429169
 20
9.614856950831395
 10
188.8924933185235
 20
9.55141330031401
 10
188.8372286758478
 20
9.48293009001258
 10
188.7711989954063
 20
9.437512443238631
 10
188.6933696584651
 20
9.398589587754187
 10
188.6030362429595
 20
9.377744643930611
 10
187.5490862667618
 20
9.377744643930611
 97
        0
 92
        6
 72
     0
 73
     1
 93
       11
 10
187.5490862667618
 20
11.15189938848928
 10
187.5490862667618
 20
11.8368906293758
 10
188.4455553345718
 20
11.8368906293758
 10
188.5626594161754
 20
11.81348622554148
 10
188.6459335632359
 20
11.77187796249066
 10
188.7670939355339
 20
11.57815706473463
 10
188.7670939355339
 20
11.46435741376461
 10
188.7546404531267
 20
11.37724596604008
 10
188.691689578486
 20
11.26401279252434
 10
188.5907747118747
 20
11.1883793046425
 10
188.4690905210057
 20
11.15189938848928
 97
        0
 92
        6
 72
     0
 73
     1
 93
       14
 10
187.6600862667618
 20
10.1082789505135
 10
188.5817498327346
 20
10.1082789505135
 10
188.644464442094
 20
10.0979903778
 10
188.6960968130655
 20
10.08233982044535
 10
188.7747330459266
 20
10.02122074239481
 10
188.8042510950765
 20
9.97643796609978
 10
188.8232478863421
 20
9.92423674387696
 10
188.8248038798227
 20
9.664735227424394
 10
188.7984672942254
 20
9.611648531205176
 10
188.76100128783
 20
9.565221154298193
 10
188.7146497928228
 20
9.533338888420168
 10
188.6555375979576
 20
9.50377657286495
 10
188.590395398786
 20
9.488744643930608
 10
187.6600862667618
 20
9.488744643930608
 97
        0
 92
        6
 72
     0
 73
     1
 93
       11
 10
187.6600862667618
 20
11.26289938848928
 10
187.6600862667618
 20
11.72589062937581
 10
188.4345717213677
 20
11.72589062937581
 10
188.5263364297633
 20
11.70755054879432
 10
188.5683841170253
 20
11.68654125246367
 10
188.6560939355339
 20
11.54630377661877
 10
188.6560939355339
 20
11.47225158220155
 10
188.6476599786182
 20
11.41325650171298
 10
188.6061764582594
 20
11.33863782984148
 10
188.5399960127097
 20
11.28903703171753
 10
188.4528100127723
 20
11.26289938848928
 97
        0
 92
       22
 72
     0
 73
     1
 93
       32
 10
189.8420906206924
 20
10.8319124880934
 10
189.8959422265615
 20
10.85881954822093
 10
190.0406193205803
 20
11.00959788069746
 10
190.1618602858459
 20
11.19392238157447
 10
190.1887945407165
 20
11.05037033425269
 10
190.2855648434782
 20
10.82795456708638
 10
190.4494018307861
 20
10.65460048210525
 10
190.6897649364712
 20
10.47907240678131
 10
190.8965242936971
 20
10.34492016335013
 10
191.1166513674346
 20
10.25639633044475
 10
191.4445554296988
 20
10.12896659811325
 10
191.756194315189
 20
10.03737200585339
 10
192.0562208775413
 20
9.973774270641321
 10
192.3333808943319
 20
9.911233292320936
 10
192.542915781905
 20
9.841436771415196
 10
192.7049279813427
 20
9.752392013290602
 10
192.7527810889385
 20
9.66358403395553
 10
192.745736152272
 20
9.565026988217589
 10
192.6843218278681
 20
9.45042050639433
 10
192.6199677754964
 20
9.400163756035816
 10
192.420647351987
 20
9.333770077603752
 10
192.006452907652
 20
9.333770077603759
 10
191.7969257658432
 20
9.417522494522785
 10
191.6739006559977
 20
9.507678300359714
 10
191.5876790244115
 20
9.625171221510292
 10
191.5446335991576
 20
9.917675581871442
 10
191.530213483305
 20
10.04736150979153
 10
190.3975664716643
 20
10.04736150979154
 10
190.328719236604
 20
10.22318213967649
 10
190.1708252185425
 20
10.51090525991208
 10
190.0386476454844
 20
10.67129547309532
 10
189.894530594487
 20
10.805710601715
 97
        0
 92
        5
 93
       56
 72
     1
 10
176.4498840016565
 20
9.928643948394679
 11
176.6545414939758
 21
9.908068713360801
 72
     1
 10
176.6545414939758
 20
9.908068713360805
 11
176.8043260140008
 21
9.861028686969184
 72
     1
 10
176.8043260140008
 20
9.861028686969184
 11
176.8984761596246
 21
9.75411859119308
 72
     1
 10
176.8984761596246
 20
9.754118591193076
 11
176.9840670036588
 21
9.591615661363267
 72
     1
 10
176.9840670036588
 20
9.59161566136327
 11
177.0653785588751
 21
9.287991820858938
 72
     1
 10
177.0653785588751
 20
9.287991820858934
 11
177.1124536316868
 21
8.676467320269487
 72
     1
 10
177.1124536316868
 20
8.676467320269487
 11
177.1593992595545
 21
8.139207681308233
 72
     1
 10
177.1593992595545
 20
8.139207681308235
 11
178.3982355130787
 21
8.139207681308235
 72
     1
 10
178.3982355130787
 20
8.139207681308235
 11
178.3869737218885
 21
8.386802822432795
 72
     1
 10
178.3869737218885
 20
8.386802822432791
 11
178.3081383819427
 21
9.343419637162583
 72
     1
 10
178.3081383819427
 20
9.343419637162583
 11
178.2630898163748
 21
9.759828946961773
 72
     1
 10
178.2630898163747
 20
9.759828946961775
 11
178.1617301936448
 21
10.05244131076748
 72
     1
 10
178.1617301936448
 20
10.05244131076748
 11
178.0153227057506
 21
10.24376450716178
 72
     1
 10
178.0153227057506
 20
10.24376450716178
 11
177.8238659518846
 21
10.42383381426482
 72
     1
 10
177.8238659518846
 20
10.42383381426482
 11
177.6549341812066
 21
10.5363768709675
 72
     1
 10
177.6549341812066
 20
10.5363768709675
 11
177.8238659518846
 21
10.59264839931868
 72
     1
 10
177.8238659518846
 20
10.59264839931867
 11
177.9477498573987
 21
10.6601742333403
 72
     1
 10
177.9477498573987
 20
10.66017423334031
 11
178.1279441196707
 21
10.86275173540479
 72
     1
 10
178.1279441196707
 20
10.86275173540479
 11
178.2743523079686
 21
11.0428210425078
 72
     1
 10
178.2743523079686
 20
11.04282104250779
 11
178.3644494391046
 21
11.3354329899346
 72
     1
 10
178.3644494391046
 20
11.33543298993461
 11
178.3757112302947
 21
11.81936855013448
 72
     1
 10
178.3757112302947
 20
11.81936855013448
 11
178.3194008735366
 21
12.23577827631282
 72
     1
 10
178.3194008735366
 20
12.23577827631282
 11
178.2180412508067
 21
12.43835577837756
 72
     1
 10
178.2180412508067
 20
12.43835577837757
 11
178.1039230787055
 21
12.57098321705276
 72
     1
 10
178.1039230787055
 20
12.57098321705276
 11
178.0014141665966
 21
12.68738488384429
 72
     1
 10
178.0014141665966
 20
12.68738488384429
 11
177.8914388002368
 21
12.77598536486416
 72
     1
 10
177.8914388002368
 20
12.77598536486416
 11
177.6472930625467
 21
12.94812411855699
 72
     1
 10
177.6472930625467
 20
12.94812411855699
 11
177.3395935218267
 21
13.07985161796112
 72
     1
 10
177.3395935218267
 20
13.07985161796112
 11
176.9454182229046
 21
13.11361495135076
 72
     1
 10
176.9454182229046
 20
13.11361495135076
 11
173.983473986202
 21
13.11361495135076
 72
     1
 10
173.983473986202
 20
13.11361495135076
 11
173.983473986202
 21
10.96009555955587
 72
     3
 10
171.488500106806
 20
10.66013592648003
 11
-0.0000000000000225
 21
2.622255303064139
 40
0.9577478129195032
 50
-83.14448672197197
 51
85.86297439398109
 73
     1
 72
     1
 10
168.9830453863521
 20
10.84135662035811
 11
168.9830453863521
 21
13.10523740759818
 72
     1
 10
168.9830453863521
 20
13.10523740759818
 11
167.6777898493798
 21
13.10523740759818
 72
     1
 10
167.6777898493798
 20
13.10523740759818
 11
167.6777898493798
 21
11.30681818181819
 72
     1
 10
167.6777898493798
 20
11.30681818181818
 11
165.9176718339679
 21
11.30681818181818
 72
     1
 10
165.9176718339679
 20
11.30681818181818
 11
165.9176718339679
 21
13.12499999999996
 72
     1
 10
165.9176718339679
 20
13.12499999999996
 11
160.3999999999998
 21
13.12499999999996
 72
     1
 10
160.3999999999998
 20
13.12499999999996
 11
160.3999999999998
 21
12.01828066861788
 72
     1
 10
160.3999999999998
 20
12.01828066861788
 11
161.8832456287811
 21
12.01828066861788
 72
     1
 10
161.8832456287811
 20
12.01828066861788
 11
161.8832456287811
 21
8.124999999999964
 72
     1
 10
161.8832456287811
 20
8.124999999999964
 11
163.2676075619334
 21
8.124999999999964
 72
     1
 10
163.2676075619334
 20
8.124999999999964
 11
163.2676075619334
 21
12.03804367739855
 72
     1
 10
163.2676075619334
 20
12.03804367739855
 11
164.6124162969958
 21
12.03804367739855
 72
     1
 10
164.6124162969958
 20
12.03804367739855
 11
164.6124162969958
 21
8.12499999999996
 72
     1
 10
164.6124162969958
 20
8.124999999999964
 11
165.878118635878
 21
8.124999999999964
 72
     1
 10
165.878118635878
 20
8.124999999999964
 11
165.878118635878
 21
10.18033625803433
 72
     1
 10
165.878118635878
 20
10.18033625803433
 11
167.6975664484249
 21
10.18033625803433
 72
     1
 10
167.6975664484249
 20
10.18033625803433
 11
167.6975664484249
 21
8.124999999999964
 72
     1
 10
167.6975664484249
 20
8.124999999999964
 11
168.9830453863521
 21
8.124999999999964
 72
     1
 10
168.9830453863521
 20
8.124999999999964
 11
168.9830453863521
 21
10.47891523260194
 72
     3
 10
171.488500106806
 20
10.66013592648003
 11
0.0000000000000158
 21
2.622255303064139
 40
0.9577478129195032
 50
94.13702560601873
 51
263.1444867219718
 73
     1
 72
     1
 10
173.983473986202
 20
10.36017629340415
 11
173.983473986202
 21
8.127953375637929
 72
     1
 10
173.983473986202
 20
8.127953375637929
 11
175.3687177276205
 21
8.127953375637929
 72
     1
 10
175.3687177276205
 20
8.127953375637929
 11
175.3687177276205
 21
9.928643948394679
 72
     1
 10
175.3687177276205
 20
9.928643948394679
 11
176.4498840016565
 21
9.928643948394679
 97
        0
 92
        7
 72
     0
 73
     1
 93
      162
 10
194.6367697599839
 20
8.554213097251853
 10
194.6445265071013
 20
8.527927059723019
 10
194.6534766118834
 20
8.502313461133581
 10
194.6636200743301
 20
8.477372612293756
 10
194.6749568944414
 20
8.453104202393681
 10
194.687486916812
 20
8.429508542243411
 10
194.7012104522526
 20
8.406585476437747
 10
194.7161271899524
 20
8.384335160382235
 10
194.7322374407224
 20
8.362757283265821
 10
194.7495408937514
 20
8.341852000494149
 10
194.7680377044452
 20
8.321619467472487
 10
194.7877278728036
 20
8.302059528795332
 10
194.8086113988266
 20
8.283172029057631
 10
194.8294082086656
 20
8.266085677299237
 10
194.8507907412599
 20
8.249975426529317
 10
194.8727589966095
 20
8.234841742964199
 10
194.8953132855251
 20
8.220684315792972
 10
194.9184532971961
 20
8.207503300421038
 10
194.9421790316224
 20
8.195298696848425
 10
194.9664907996146
 20
8.184070505075112
 10
194.9913881349569
 20
8.173818569695761
 10
195.016871503865
 20
8.164543046115731
 10
195.0429405955286
 20
8.15624393433498
 10
195.0695955653528
 20
8.148921078948205
 10
195.0968362579322
 20
8.14257479076609
 10
195.1246629840777
 20
8.137204603572577
 10
195.1530752775731
 20
8.132810983583723
 10
195.1820736046345
 20
8.12939377539417
 10
195.2116576544513
 20
8.126952823598571
 10
195.2418275824287
 20
8.125488283602287
 10
195.2725832331614
 20
8.124999999999964
 10
195.3031491339645
 20
8.125493722789457
 10
195.3331400349814
 20
8.126974424941899
 10
195.3625559362121
 20
8.129442572673326
 10
195.3913969930616
 20
8.132897855173062
 10
195.4196628947196
 20
8.137340272441072
 10
195.4473539519966
 20
8.142770135288088
 10
195.4744700094872
 20
8.149186977498047
 10
195.5010110671916
 20
8.156591265287012
 10
195.5269771251095
 20
8.16498253243887
 10
195.5523681832413
 20
8.174361245169762
 10
195.577184396992
 20
8.184727092668943
 10
195.6014254555511
 20
8.196080074936432
 10
195.6250916697292
 20
8.208420347377561
 10
195.648182884121
 20
8.221747754586935
 10
195.6706990987266
 20
8.236062451970056
 10
195.6926403135455
 20
8.251364439526703
 10
195.7140066839838
 20
8.267653561851702
 10
195.7347978992301
 20
8.284929818944917
 10
195.7558713305881
 20
8.303811879495597
 10
195.7757405259071
 20
8.32335550061105
 10
195.7944054851869
 20
8.343560993102293
 10
195.8118662084278
 20
8.364428201563846
 10
195.8281228510352
 20
8.385957281400919
 10
195.8431752576035
 20
8.408147921803205
 10
195.8570234281329
 20
8.431000433580912
 10
195.8696675180288
 20
8.454514816734445
 10
195.8811072164802
 20
8.478690915858045
 10
195.8913428342981
 20
8.503528730952133
 10
195.9003743714822
 20
8.529028262016474
 10
195.9082015172222
 20
8.555189509051274
 10
195.9148245823284
 20
8.582012627461573
 10
195.9202434113958
 20
8.60949761724742
 10
195.9244580044241
 20
8.637644167598459
 10
195.9274685168189
 20
8.666452589324862
 10
195.9292747931747
 20
8.695922727022164
 10
195.9298769888968
 20
8.726054736094624
 10
195.9290160432708
 20
8.760056182918326
 10
195.9264336726088
 20
8.792766522113765
 10
195.9221297215056
 20
8.824185753680886
 10
195.9161040345557
 20
8.854313877619766
 10
195.9083569225698
 20
8.883150738524996
 10
195.8988880747372
 20
8.910696336396711
 10
195.8876978018688
 20
8.936950826639773
 10
195.8750367727901
 20
8.961017364993558
 10
195.8601520485919
 20
8.985012261481841
 10
195.8430434738687
 20
9.008935360699673
 10
195.8237113594313
 20
9.032786818052173
 10
195.8021555498744
 20
9.05656647813403
 10
195.7783760451978
 20
9.080274340945337
 10
195.7523728454017
 20
9.103910561891311
 10
195.8999999999997
 20
9.137302508941594
 10
195.8999999999997
 20
9.277899747233163
 10
195.2391912861111
 20
9.277899747233163
 10
195.2391912861111
 20
8.743628905239219
 10
195.4061511767679
 20
8.743628905239219
 10
195.4061511767679
 20
9.077548531147463
 10
195.4545912567395
 20
9.075175957704843
 10
195.5132019915005
 20
9.064982786442065
 10
195.5658393170288
 20
9.04775912223679
 10
195.6124993996964
 20
9.023506297471506
 10
195.6532638049271
 20
8.992162788850009
 10
195.687631754596
 20
8.954121019583361
 10
195.7146090108041
 20
8.910184295370008
 10
195.7342046393156
 20
8.860342828082053
 10
195.7464191888304
 20
8.804595821771812
 10
195.7512961046356
 20
8.742381192838685
 10
195.7486562529887
 20
8.679097323316291
 10
195.7379403442238
 20
8.621466328647422
 10
195.7191209185697
 20
8.568816071554756
 10
195.6921973937186
 20
8.521144798067055
 10
195.6571707508359
 20
8.478453357497429
 10
195.6137584367384
 20
8.440495034060568
 10
195.5680026142847
 20
8.411503730984996
 10
195.5198926401994
 20
8.388315426519085
 10
195.4679742456985
 20
8.370008381856692
 10
195.4122446403626
 20
8.356582785666788
 10
195.3527110587824
 20
8.348039981205644
 10
195.289171842464
 20
8.344367230178974
 10
195.2236461294046
 20
8.345617681570288
 10
195.1622081993577
 20
8.351842253839606
 10
195.1045780815451
 20
8.363046340189491
 10
195.0507557785676
 20
8.379229893119209
 10
195.0007418222803
 20
8.400392668236833
 10
194.9543152321737
 20
8.426659514189914
 10
194.9081465583077
 20
8.460713102235864
 10
194.86872555466
 20
8.500793023733969
 10
194.8376032333791
 20
8.545755672628857
 10
194.8147807776468
 20
8.595599314220358
 10
194.8002573882878
 20
8.650324345422255
 10
194.7939754066959
 20
8.710481369023518
 10
194.795842673842
 20
8.7609528717742
 10
194.8016529955164
 20
8.811039681457835
 10
194.8197297668985
 20
8.871798271156329
 10
194.8480237033714
 20
8.926314731001305
 10
194.8880567968404
 20
8.976960415204416
 10
194.9369790585545
 20
9.015050605261215
 10
194.9945086564783
 20
9.040228837205603
 10
195.0441123518499
 20
9.049428710516316
 10
195.0441123518499
 20
9.263839759214917
 10
195.0151946801639
 20
9.25966137563256
 10
194.9871917243542
 20
9.254155985786589
 10
194.9601034844207
 20
9.24732343427167
 10
194.9339296495529
 20
9.23916372108777
 10
194.9086705305614
 20
9.229677001640268
 10
194.8843261274461
 20
9.218863275929166
 10
194.8608961293965
 20
9.206722388549081
 10
194.8383808472231
 20
9.193254494905417
 10
194.8167801255206
 20
9.178459594998059
 10
194.7960939642892
 20
9.162337533421833
 10
194.7763225189339
 20
9.144888310176568
 10
194.7574656340496
 20
9.126112080667688
 10
194.739523154231
 20
9.10600884489537
 10
194.7224953902886
 20
9.084578447453949
 10
194.7066365853712
 20
9.061741787021581
 10
194.6920465097122
 20
9.03811457958578
 10
194.678725007906
 20
9.013697135957109
 10
194.666672235358
 20
8.988489456135653
 10
194.6558883474737
 20
8.962491229310742
 10
194.6463730334422
 20
8.935702921698315
 10
194.638126448669
 20
8.908124067082155
 10
194.6311484377486
 20
8.879754976273382
 10
194.6254393114919
 20
8.850595649271859
 10
194.620998759088
 20
8.820645930672185
 10
194.6178270913478
 20
8.789905820474018
 10
194.6159239974604
 20
8.758375474083457
 10
194.6152896328313
 20
8.726054736094603
 10
194.6158862339609
 20
8.69573297709261
 10
194.6176763481605
 20
8.666083812435196
 10
194.6206596646195
 20
8.637107242122191
 10
194.624836338743
 20
8.608803266154204
 10
194.6302063705311
 20
8.581171884530725
 97
        0
 92
        7
 72
     0
 73
     1
 93
       97
 10
195.8999999999997
 20
9.488503364914251
 10
195.8999999999997
 20
9.688855047215994
 10
195.3604570315866
 20
9.688855047215994
 10
195.32298771443
 20
9.69082341134937
 10
195.2879085315202
 20
9.696728348344159
 10
195.2388745153477
 20
9.711491282957616
 10
195.1970122544884
 20
9.738064150550457
 10
195.1710719938581
 20
9.762035891642042
 10
195.1408085118614
 20
9.802422555687542
 10
195.1278383815463
 20
9.851666858333224
 10
195.1249560785633
 20
9.887449095035755
 10
195.128251293555
 20
9.929079079565191
 10
195.1381369385299
 20
9.964338377272859
 10
195.1627798338588
 20
10.00754555144288
 10
195.2028337388115
 20
10.02958438005306
 10
195.2343583352044
 20
10.03947018043334
 10
195.2722539292297
 20
10.04540169174257
 10
195.3165202100767
 20
10.04737891398077
 10
195.8999999999997
 20
10.04737891398077
 10
195.8999999999997
 20
10.24772997466111
 10
195.3674869478931
 20
10.24772997466111
 10
195.317372666745
 20
10.2492094980811
 10
195.2604515146968
 20
10.259072855581
 10
195.2134299597899
 20
10.27682707777862
 10
195.1763083985546
 20
10.30247146385961
 10
195.1490855764799
 20
10.33600681537744
 10
195.1317618409333
 20
10.37743309896977
 10
195.1240879031997
 20
10.42840774518494
 10
195.1276977397066
 20
10.48098159068249
 10
195.1359227231366
 20
10.51500619290305
 10
195.156484874723
 20
10.55718507297599
 10
195.2016276659828
 20
10.58702286668388
 10
195.2452373311616
 20
10.59739604742035
 10
195.2803867572884
 20
10.60231711315914
 10
195.3217224040894
 20
10.60526965935921
 10
195.369244116159
 20
10.6062538414259
 10
195.8999999999997
 20
10.6062538414259
 10
195.8999999999997
 20
10.80660552372764
 10
195.2725832331614
 20
10.80660552372764
 10
195.242767784782
 20
10.80584543617226
 10
195.2144813696182
 20
10.80356517350615
 10
195.1877239876699
 20
10.79976458032393
 10
195.1624954835319
 20
10.79444381203098
 10
195.1387960126093
 20
10.78760286862726
 10
195.1166255749024
 20
10.77924175011283
 10
195.0959840150057
 20
10.76936030108228
 10
195.0768716437298
 20
10.75795883234633
 10
195.0592881502643
 20
10.74503703309431
 10
195.0432335346089
 20
10.73059490332613
 10
195.0287081075745
 20
10.71463275385269
 10
195.0157115583501
 20
10.697150273863
 10
195.0042440423415
 20
10.67814761876271
 10
194.9943055595484
 20
10.65762463314622
 10
194.9858959545654
 20
10.6355816278244
 10
194.9790155382034
 20
10.61201829198639
 10
194.9736639996516
 20
10.58693478103766
 10
194.9698414943154
 20
10.56033109497813
 10
194.9675480221947
 20
10.53220707840253
 10
194.9667834278843
 20
10.50256304212192
 10
194.9678330356023
 20
10.47373566094276
 10
194.9709818587565
 20
10.44583573887855
 10
194.9762298973467
 20
10.4188635867398
 10
194.9835771513731
 20
10.39281889371591
 10
194.9930236208356
 20
10.36770165980682
 10
195.004569305734
 20
10.34351204041777
 10
195.0182142060688
 20
10.320250035549
 10
195.0339581664342
 20
10.29791564520021
 10
195.0518014976411
 20
10.27650855856096
 10
195.0717438888787
 20
10.25602924184722
 10
195.0937854955524
 20
10.23647738424825
 10
195.1179261622569
 20
10.21785298576405
 10
195.0937854955524
 20
10.20695440873312
 10
195.0717438888787
 20
10.19417604861698
 10
195.0518014976411
 20
10.17951837163165
 10
195.0339581664342
 20
10.16298106696648
 10
195.0182142060688
 20
10.14456429002672
 10
195.0045693057341
 20
10.1242680408125
 10
194.9930236208356
 20
10.10209216391838
 10
194.9835771513731
 20
10.0780368147498
 10
194.9762298973467
 20
10.05210183790129
 10
194.9709818587565
 20
10.02428754418355
 10
194.9678330356023
 20
9.994593467380838
 10
194.9667834278843
 20
9.963020073708662
 10
194.9678330356023
 20
9.933692287310307
 10
194.9709818587565
 20
9.90546290590894
 10
194.9762298973467
 20
9.878332084910375
 10
194.9835771513731
 20
9.852299513503545
 10
194.9930236208356
 20
9.827365347093937
 10
195.0045693057342
 20
9.803529741086826
 10
195.0182142060688
 20
9.780792384671656
 10
195.0339581664342
 20
9.759153588659103
 10
195.0518014976411
 20
9.738613042238341
 10
195.0717438888787
 20
9.719171056220176
 10
195.0937854955524
 20
9.700827475199197
 10
195.1253063505793
 20
9.678310172756319
 10
194.9913882903622
 20
9.678310172756319
 10
194.9913882903622
 20
9.488503364914251
 97
        0
 92
        7
 72
     0
 73
     1
 93
       79
 10
195.8999999999997
 20
11.02277436231354
 10
195.8999999999997
 20
11.21258070393956
 10
195.7752199179923
 20
11.21258070393956
 10
195.7957983833179
 20
11.2242775982414
 10
195.8148524775883
 20
11.23765069462301
 10
195.832382356209
 20
11.25269921605769
 10
195.8483878637745
 20
11.26942254092399
 10
195.8628690002849
 20
11.28782020300599
 10
195.8758259211456
 20
11.30789142527681
 10
195.887258470951
 20
11.32963543070982
 10
195.8971666497013
 20
11.35305175308879
 10
195.9055504573966
 20
11.37813977079257
 10
195.9124100494419
 20
11.40489886219967
 10
195.9177452704323
 20
11.43332825028345
 10
195.9215561203674
 20
11.46342746882756
 10
195.9238425992474
 20
11.4951955854003
 10
195.9246047070723
 20
11.52863228919053
 10
195.9235917750163
 20
11.56016947341668
 10
195.9205528234429
 20
11.59048812431187
 10
195.9154878523522
 20
11.61959057295611
 10
195.9083970171495
 20
11.64747852880855
 10
195.8992800070241
 20
11.67415416754406
 10
195.8881371327866
 20
11.6996195094319
 10
195.8749683944372
 20
11.7238765747418
 10
195.8597736365704
 20
11.74692738374311
 10
195.8425528591862
 20
11.76877411211094
 10
195.8233060622846
 20
11.78941846930391
 10
195.8020334012711
 20
11.80886278640229
 10
195.7787348761456
 20
11.8271090836756
 10
195.7565832424858
 20
11.84234036179911
 10
195.7334799064768
 20
11.85625255933177
 10
195.7094244019028
 20
11.86884443303073
 10
195.6844170395745
 20
11.88011536127468
 10
195.6584576640864
 20
11.89006394541539
 10
195.6315464308439
 20
11.89868940842618
 10
195.6036831844417
 20
11.90599066246965
 10
195.5748680802852
 20
11.91196677511366
 10
195.5451009629689
 20
11.91661650311544
 10
195.5143819878983
 20
11.91993906944828
 10
195.482710999668
 20
11.92193338627471
 10
195.4500879982779
 20
11.92259836575733
 10
195.4181206520495
 20
11.92196928491002
 10
195.3871101365466
 20
11.92008281939486
 10
195.3570564517693
 20
11.91693959083322
 10
195.3279592869068
 20
11.91254037625185
 10
195.2998189527697
 20
11.90688626348817
 10
195.2726354493582
 20
11.89997771875825
 10
195.2464086212668
 20
11.89181567449414
 10
195.2211384684956
 20
11.88240090772259
 10
195.1968251464498
 20
11.87173419547035
 10
195.1734684997243
 20
11.85981647016951
 10
195.1510686837242
 20
11.84664850884681
 10
195.1296255430442
 20
11.83223093312355
 10
195.1091390776846
 20
11.81656467543206
 10
195.0880805652401
 20
11.79837649975868
 10
195.0687066467642
 20
11.77909722313954
 10
195.0510176330675
 20
11.75872762260119
 10
195.0350130579341
 20
11.7372684751704
 10
195.0206932321746
 20
11.71472071327944
 10
195.008058155789
 20
11.69108495854953
 10
194.9971078287772
 20
11.66636198800724
 10
194.9878419403287
 20
11.64055288949038
 10
194.9802609566595
 20
11.61365812921479
 10
194.9743645669588
 20
11.58567879501794
 10
194.9701527712267
 20
11.55661550852111
 10
194.9676258802739
 20
11.52646904675143
 10
194.9667834278843
 20
11.49524034214042
 10
194.9683300219041
 20
11.46357075255821
 10
194.9729698039637
 20
11.43218244665506
 10
194.9807027740629
 20
11.40107542443136
 10
194.9915289322018
 20
11.37024953048157
 10
195.0054482783804
 20
11.33970460940027
 10
195.021968333052
 20
11.31070876882438
 10
195.0405973936966
 20
11.28453881909028
 10
195.0613356157196
 20
11.26120890208447
 10
195.0841828437155
 20
11.24073315969374
 10
195.1091390776845
 20
11.22312557839924
 10
194.6451666217284
 20
11.22312557839924
 10
194.6451666217284
 20
11.02277436231354
 97
        0
 92
       22
 72
     0
 73
     1
 93
       32
 10
195.2324672927887
 20
11.26208201513529
 10
195.1887775159994
 20
11.29586263383245
 10
195.1549446342919
 20
11.33975191527503
 10
195.1334141437636
 20
11.3918332788388
 10
195.1240754894535
 20
11.45280618177849
 10
195.1273862559484
 20
11.51433480510497
 10
195.1435860457037
 20
11.56767287781056
 10
195.1727460550885
 20
11.61418829676058
 10
195.2143219672424
 20
11.65342205522672
 10
195.2631555465825
 20
11.68334728161657
 10
195.3140116497468
 20
11.70399139213859
 10
195.3697001202906
 20
11.71710448909752
 10
195.4299552673186
 20
11.72268946266928
 10
195.4961399602751
 20
11.72092783370239
 10
195.555835688968
 20
11.71211900361862
 10
195.6091612379234
 20
11.69623272778573
 10
195.656686601557
 20
11.67296250337101
 10
195.7014718535715
 20
11.6390469660149
 10
195.7359083222516
 20
11.59570664159003
 10
195.7578227868824
 20
11.54461526670707
 10
195.767259284838
 20
11.48552066607622
 10
195.7640843928787
 20
11.4227724191331
 10
195.7484335720462
 20
11.36822576565348
 10
195.7202623307111
 20
11.32094178777586
 10
195.6797068115355
 20
11.28099954476542
 10
195.6322826401879
 20
11.25148041438259
 10
195.5814832499253
 20
11.23083681022216
 10
195.5251915824938
 20
11.21772363645743
 10
195.4636631064069
 20
11.21213689168471
 10
195.3957697588522
 20
11.21390001531278
 10
195.3348650298461
 20
11.22270893706954
 10
195.2807721728535
 20
11.23859474352495
 97
        0
 92
        7
 72
     0
 73
     1
 93
       12
 10
195.8999999999997
 20
12.11445543635098
 10
195.8999999999997
 20
12.33413923309011
 10
195.3340950008428
 20
12.33413923309011
 10
195.3340950008428
 20
12.90531682488222
 10
195.8999999999997
 20
12.90531682488222
 10
195.8999999999997
 20
13.12499999999996
 10
194.6451666217284
 20
13.12499999999996
 10
194.6451666217283
 20
12.90531682488222
 10
195.1442881930008
 20
12.90531682488222
 10
195.1442881930008
 20
12.33413923309011
 10
194.6451666217284
 20
12.33413923309011
 10
194.6451666217284
 20
12.11445543635098
 97
        0
 92
       20
 93
        1
 72
     3
 10
171.488500106806
 20
10.66013592648003
 11
0.0
 21
1.418043763589117
 40
0.8418553211183608
 50
0.0
 51
360.0
 73
     1
 97
        0
 92
       20
 93
        4
 72
     1
 10
175.3687177276205
 20
12.05514613969573
 11
175.3687177276205
 21
10.96404090281617
 72
     1
 10
175.3687177276205
 20
10.96404090281617
 11
176.6319922776548
 21
10.96404090281617
 72
     3
 10
176.5539433853797
 20
11.5107650562955
 11
-0.4194136260840624
 21
0.3644058831363924
 40
0.9861367087070348
 50
139.1101149142422
 51
302.702408729263
 73
     1
 72
     1
 10
176.6331970553731
 20
12.05514613969573
 11
175.3687177276205
 21
12.05514613969573
 97
        0
 75
     0
 76
     1
 47
0.0690960993340888
 98
       17
 10
178.5579977297879
 20
10.33540167395245
 10
178.5579977297879
 20
10.33540167395245
 10
178.5579977297879
 20
10.33540167395245
 10
178.5579977297879
 20
10.33540167395245
 10
178.5579977297879
 20
10.33540167395245
 10
178.5579977297879
 20
10.33540167395245
 10
178.5579977297879
 20
10.33540167395245
 10
178.5579977297879
 20
10.33540167395245
 10
178.5579977297879
 20
10.33540167395245
 10
176.4150836791374
 20
10.36994970406545
 10
194.6989785594331
 20
8.573451094389049
 10
195.2174254367423
 20
9.54079645945324
 10
195.2174254367423
 20
11.1300067840716
 10
195.2174254367423
 20
11.1300067840716
 10
195.2174254367423
 20
12.20099634385486
 10
170.7812937904023
 20
10.64633404934947
 10
176.4496467938947
 20
11.54458335418768
  0
LINE
  5
47F2
330
4779
100
AcDbEntity
  8
RAHMEN013
100
AcDbLine
 10
285.8999999999999
 20
198.3999999999999
 30
0.0
 11
0.0000000000000568
 21
198.3999999999999
 31
0.0
  0
LINE
  5
47F3
330
4779
100
AcDbEntity
  8
RAHMEN013
100
AcDbLine
 10
285.8999999999999
 20
198.3999999999999
 30
0.0
 11
285.8999999999998
 21
55.24999999999991
 31
0.0
  0
LINE
  5
47F4
330
4779
100
AcDbEntity
  8
RAHMEN013
100
AcDbLine
 10
0.0000000000000568
 20
198.3999999999999
 30
0.0
 11
0.0
 21
0.0
 31
0.0
  0
LINE
  5
47F5
330
4779
100
AcDbEntity
  8
RAHMEN013
100
AcDbLine
 10
98.69999999999988
 20
-0.0000000000000284
 30
0.0
 11
0.0
 21
0.0
 31
0.0
  0
ENDBLK
  5
47F7
330
4779
100
AcDbEntity
  8
0
100
AcDbBlockEnd
  0
ENDSEC
  0
SECTION
  2
ENTITIES
  0
LINE
  5
1796
330
2
100
AcDbEntity
  8
MECH_KONTUR1
100
AcDbLine
 10
-48.50000000000005
 20
51.99999999999994
 30
0.0
 11
-48.50000000000005
 21
-21.99999999999965
 31
0.0
  0
LINE
  5
1797
330
2
100
AcDbEntity
  8
MECH_KONTUR1
100
AcDbLine
 10
-108.5
 20
52.00000000000011
 30
0.0
 11
-108.5
 21
-21.99999999999988
 31
0.0
  0
LINE
  5
1878
330
2
100
AcDbEntity
  8
MECH_KONTUR1
100
AcDbLine
 10
-105.4999999999999
 20
-25.0
 30
0.0
 11
-51.50000000000031
 21
-24.99999999999994
 31
0.0
  0
LINE
  5
1F09
330
2
100
AcDbEntity
  8
MECH_KONTUR1
100
AcDbLine
 10
202.652920792322
 20
99.49334725021103
 30
0.0
 11
206.5066527497887
 21
103.3470792076777
 31
0.0
  0
LINE
  5
1F0A
330
2
100
AcDbEntity
  8
MECH_KONTUR1
100
AcDbLine
 10
196.4445232535042
 20
104.2875312266557
 30
0.0
 11
201.7124687733439
 21
109.5554767464955
 31
0.0
  0
LINE
  5
1F0B
330
2
100
AcDbEntity
  8
MECH_KONTUR1
100
AcDbLine
 10
200.5316004487624
 20
99.49334725021103
 30
0.0
 11
196.4445232535042
 21
103.5804244454692
 31
0.0
  0
LINE
  5
1F0C
330
2
100
AcDbEntity
  8
MECH_KONTUR1
100
AcDbLine
 10
206.5066527497887
 20
105.4683995512373
 30
0.0
 11
202.4195755545305
 21
109.5554767464955
 31
0.0
  0
ARC
  5
1F0D
330
2
100
AcDbEntity
  8
MECH_KONTUR1
100
AcDbCircle
 10
196.7980766440975
 20
103.9339778360625
 30
0.0
 40
0.5
100
AcDbArc
 50
135.0
 51
225.0
  0
ARC
  5
1F0E
330
2
100
AcDbEntity
  8
MECH_KONTUR1
100
AcDbCircle
 10
202.0660221639372
 20
109.2019233559023
 30
0.0
 40
0.5
100
AcDbArc
 50
45.0
 51
135.0
  0
LINE
  5
1F0F
330
2
100
AcDbEntity
  8
MECH_KONTUR1
100
AcDbLine
 10
202.652920792322
 20
99.49334725021103
 30
0.0
 11
200.5316004487624
 21
99.49334725021103
 31
0.0
  0
LINE
  5
1F10
330
2
100
AcDbEntity
  8
MECH_KONTUR1
100
AcDbLine
 10
206.5066527497887
 20
103.3470792076777
 30
0.0
 11
206.5066527497887
 21
105.4683995512373
 31
0.0
  0
LINE
  5
1F11
330
2
100
AcDbEntity
  8
MECH_KONTUR1
100
AcDbLine
 10
200.973542187004
 20
101.0666598383511
 30
0.0
 11
204.9333401616487
 21
105.0264578129957
 31
0.0
  0
LINE
  5
1F12
330
2
100
AcDbEntity
  8
MECH_KONTUR1
100
AcDbLine
 10
198.7249426228308
 20
103.3152594025243
 30
0.0
 11
202.6847405974754
 21
107.2750573771689
 31
0.0
  0
LINE
  5
1F13
330
2
100
AcDbEntity
  8
MECH_KONTUR1
100
AcDbLine
 10
200.973542187004
 20
101.0666598383511
 30
0.0
 11
198.7249426228308
 21
103.3152594025243
 31
0.0
  0
LINE
  5
1F14
330
2
100
AcDbEntity
  8
MECH_KONTUR1
100
AcDbLine
 10
204.9333401616487
 20
105.0264578129957
 30
0.0
 11
202.6847405974754
 21
107.2750573771689
 31
0.0
  0
LINE
  5
2597
330
2
100
AcDbEntity
  8
MECH_KONTUR1
100
AcDbLine
 10
195.0
 20
76.69999999999993
 30
0.0
 11
175.0
 21
76.69999999999991
 31
0.0
  0
CIRCLE
  5
25A4
330
2
100
AcDbEntity
  8
MECH_KONTUR1
100
AcDbCircle
 10
185.0
 20
120.9999999999999
 30
0.0
 40
35.5
  0
LINE
  5
25B1
330
2
100
AcDbEntity
  8
MECH_KONTUR1
100
AcDbLine
 10
195.0
 20
82.27016653792576
 30
0.0
 11
195.0
 21
76.69999999999993
 31
0.0
  0
ARC
  5
2602
330
2
100
AcDbEntity
  8
MECH_KONTUR1
100
AcDbCircle
 10
182.9999999999999
 20
177.7999999999999
 30
0.0
 40
3.0
100
AcDbArc
 50
89.99999999999998
 51
180.0
  0
LINE
  5
2603
330
2
100
AcDbEntity
  8
MECH_KONTUR1
100
AcDbLine
 10
189.9999999999999
 20
160.6862696659687
 30
0.0
 11
189.9999999999999
 21
177.7999999999998
 31
0.0
  0
ARC
  5
2604
330
2
100
AcDbEntity
  8
MECH_KONTUR1
100
AcDbCircle
 10
186.9999999999999
 20
177.7999999999998
 30
0.0
 40
3.0
100
AcDbArc
 50
359.9999999999999
 51
89.99999999999998
  0
LINE
  5
2605
330
2
100
AcDbEntity
  8
MECH_KONTUR1
100
AcDbLine
 10
186.9999999999999
 20
180.7999999999999
 30
0.0
 11
182.9999999999999
 21
180.7999999999999
 31
0.0
  0
LINE
  5
260B
330
2
100
AcDbEntity
  8
MECH_KONTUR1
100
AcDbLine
 10
179.9999999999999
 20
160.6862696659687
 30
0.0
 11
179.9999999999999
 21
177.7999999999998
 31
0.0
  0
ARC
  5
261D
330
2
100
AcDbEntity
  8
MECH_KONTUR1
100
AcDbCircle
 10
199.2709047074994
 20
146.8002807631949
 30
0.0
 40
0.12250000042989
100
AcDbArc
 50
315.0
 51
31.30460116348266
  0
LINE
  5
2643
330
2
100
AcDbEntity
  8
MECH_KONTUR1
100
AcDbLine
 10
175.0
 20
82.27016653792576
 30
0.0
 11
175.0
 21
76.69999999999991
 31
0.0
  0
CIRCLE
  5
31E3
330
2
100
AcDbEntity
  8
MECH_KONTUR1
100
AcDbCircle
 10
185.0
 20
120.9999999999999
 30
0.0
 40
40.0
  0
CIRCLE
  5
31FE
330
2
100
AcDbEntity
  8
MECH_KONTUR1
100
AcDbCircle
 10
185.0
 20
120.9999999999999
 30
0.0
 40
37.0
  0
CIRCLE
  5
32C1
330
2
100
AcDbEntity
  8
MECH_KONTUR1
100
AcDbCircle
 10
185.0
 20
120.9999999999999
 30
0.0
 40
35.0
  0
LINE
  5
33F6
330
2
100
AcDbEntity
  8
MECH_KONTUR1
100
AcDbLine
 10
-108.5000000000001
 20
52.0
 30
0.0
 11
-105.5000000000001
 21
55.0
 31
0.0
  0
LINE
  5
33F7
330
2
100
AcDbEntity
  8
MECH_KONTUR1
100
AcDbLine
 10
-51.50000000000017
 20
55.0
 30
0.0
 11
-48.50000000000014
 21
52.0
 31
0.0
  0
LINE
  5
33F8
330
2
100
AcDbEntity
  8
MECH_KONTUR1
100
AcDbLine
 10
-108.4999999999999
 20
-22.00000000000002
 30
0.0
 11
-105.4999999999999
 21
-25.00000000000003
 31
0.0
  0
LINE
  5
33F9
330
2
100
AcDbEntity
  8
MECH_KONTUR1
100
AcDbLine
 10
-51.50000000000034
 20
-25.0
 30
0.0
 11
-48.50000000000036
 21
-22.0
 31
0.0
  0
LINE
  5
33FA
330
2
100
AcDbEntity
  8
MECH_KONTUR1
100
AcDbLine
 10
-51.50000000000017
 20
55.0
 30
0.0
 11
-51.50000000000028
 21
-25.0
 31
0.0
  0
LINE
  5
33FC
330
2
100
AcDbEntity
  8
MECH_KONTUR1
100
AcDbLine
 10
-105.5000000000001
 20
55.00000000000006
 30
0.0
 11
-51.50000000000011
 21
55.00000000000006
 31
0.0
  0
LINE
  5
344A
330
2
100
AcDbEntity
  8
MECH_KONTUR2
100
AcDbLine
 10
1.869317712168751
 20
145.1732618519065
 30
0.0
 11
16.69024293495607
 21
153.7301270189221
 31
0.0
  0
LINE
  5
344B
330
2
100
AcDbEntity
  8
MECH_KONTUR2
100
AcDbLine
 10
-61.86931771216881
 20
145.1732618519064
 30
0.0
 11
-76.69024293495619
 21
153.730127018922
 31
0.0
  0
LWPOLYLINE
  5
344E
330
2
100
AcDbEntity
  8
DRUCK_FARBE1
100
AcDbPolyline
 90
        2
 70
     0
 43
0.35
 10
-30.0
 20
148.9999999999999
 10
-30.0
 20
155.9999999999999
  0
TEXT
  5
344F
330
2
100
AcDbEntity
  8
DRUCK_FARBE1
100
AcDbText
 10
-32.10244399185336
 20
143.4999999999999
 30
0.0
 40
5.0
  1
Y
 41
1.08
  7
HELV_N_MEDIUM
 72
     1
 11
-30.0
 21
145.9999999999999
 31
0.0
100
AcDbText
 73
     2
  0
CIRCLE
  5
3450
330
2
100
AcDbEntity
  8
MECH_KONTUR1
100
AcDbCircle
 10
-30.0
 20
120.9999999999999
 30
0.0
 40
35.0
  0
LINE
  5
3451
330
2
100
AcDbEntity
  8
MECH_KONTUR2
100
AcDbLine
 10
22.78831914630945
 20
149.1679491924311
 30
0.0
 11
20.78831914630939
 21
152.6320508075689
 31
0.0
  0
CIRCLE
  5
3452
330
2
100
AcDbEntity
  8
MECH_KONTUR1
100
AcDbCircle
 10
-30.0
 20
120.9999999999999
 30
0.0
 40
37.0
  0
CIRCLE
  5
3453
330
2
100
AcDbEntity
  8
MECH_KONTUR1
100
AcDbCircle
 10
-30.0
 20
120.9999999999999
 30
0.0
 40
40.0
  0
CIRCLE
  5
3454
330
2
100
AcDbEntity
  8
MECH_KONTUR1
100
AcDbCircle
 10
-30.0
 20
120.9999999999999
 30
0.0
 40
35.5
  0
LINE
  5
3455
330
2
100
AcDbEntity
  8
MECH_KONTUR2
100
AcDbLine
 10
-82.78831914630956
 20
149.1679491924309
 30
0.0
 11
-80.78831914630951
 21
152.6320508075688
 31
0.0
  0
LINE
  5
3456
330
2
100
AcDbEntity
  8
MECH_MITTELLINIE
100
AcDbLine
 10
-84.38639535766283
 20
152.3999999999998
 30
0.0
 11
-54.94153162899191
 21
135.3999999999999
 31
0.0
  0
LINE
  5
3457
330
2
100
AcDbEntity
  8
MECH_MITTELLINIE
100
AcDbLine
 10
24.3863953576627
 20
152.4
 30
0.0
 11
-5.058468371008174
 21
135.4
 31
0.0
  0
LINE
  5
3458
330
2
100
AcDbEntity
  8
MECH_KONTUR2
100
AcDbLine
 10
-66.86931771216882
 20
136.5130078140621
 30
0.0
 11
-81.69024293495615
 21
145.0698729810776
 31
0.0
  0
ARC
  5
345A
330
2
100
AcDbEntity
  8
MECH_KONTUR2
100
AcDbCircle
 10
-80.1902429349562
 20
147.667949192431
 30
0.0
 40
3.0
100
AcDbArc
 50
150.0000000000001
 51
240.0000000000001
  0
LINE
  5
345B
330
2
100
AcDbEntity
  8
MECH_KONTUR1
100
AcDbLine
 10
-20.0
 20
76.69999999999993
 30
0.0
 11
-40.0
 21
76.69999999999993
 31
0.0
  0
HATCH
  5
345C
330
2
100
AcDbEntity
  8
DRUCK_FARBE1
100
AcDbHatch
 10
0.0
 20
0.0
 30
0.0
210
0.0
220
0.0
230
1.0
  2
SOLID
 70
     1
 71
     1
 91
       12
 92
        5
 93
       55
 72
     1
 10
-47.17349224904775
 20
106.2727272727272
 11
-47.17349224904775
 21
108.9999999999999
 72
     1
 10
-47.17349224904775
 20
108.9999999999999
 11
-55.45000000000005
 21
108.9999999999999
 72
     1
 10
-55.45000000000005
 20
108.9999999999999
 11
-55.45000000000005
 21
107.3399210029267
 72
     1
 10
-55.45000000000005
 20
107.3399210029267
 11
-53.22513155682805
 21
107.3399210029267
 72
     1
 10
-53.22513155682805
 20
107.3399210029267
 11
-53.22513155682806
 21
101.4999999999999
 72
     1
 10
-53.22513155682806
 20
101.4999999999999
 11
-51.14858865709948
 21
101.4999999999999
 72
     1
 10
-51.14858865709948
 20
101.4999999999999
 11
-51.14858865709948
 21
107.3695655160977
 72
     1
 10
-51.14858865709948
 20
107.3695655160977
 11
-49.13137555450589
 21
107.3695655160978
 72
     1
 10
-49.13137555450589
 20
107.3695655160978
 11
-49.13137555450589
 21
101.4999999999999
 72
     1
 10
-49.13137555450589
 20
101.4999999999999
 11
-47.2328220461826
 21
101.4999999999999
 72
     1
 10
-47.2328220461826
 20
101.4999999999999
 11
-47.2328220461826
 21
104.5830043870514
 72
     1
 10
-47.2328220461826
 20
104.5830043870514
 11
-44.50365032736226
 21
104.5830043870514
 72
     1
 10
-44.50365032736226
 20
104.5830043870514
 11
-44.50365032736227
 21
101.4999999999999
 72
     1
 10
-44.50365032736227
 20
101.4999999999999
 11
-42.5754319204716
 21
101.4999999999999
 72
     1
 10
-42.5754319204716
 20
101.4999999999999
 11
-42.5754319204716
 21
105.0308728489033
 72
     3
 10
-38.81724983979063
 20
105.30270388972
 11
0.0
 21
3.933382954596209
 40
0.9577478129195032
 50
94.13702560601839
 51
263.1444867219714
 73
     1
 72
     1
 10
-35.07478902069669
 20
104.8527644401062
 11
-35.07478902069669
 21
101.5044300634568
 72
     1
 10
-35.07478902069669
 20
101.5044300634568
 11
-32.99692340856904
 21
101.5044300634568
 72
     1
 10
-32.99692340856904
 20
101.5044300634568
 11
-32.99692340856904
 21
104.2054659225919
 72
     1
 10
-32.99692340856904
 20
104.2054659225919
 11
-31.3751739975149
 21
104.2054659225919
 72
     1
 10
-31.3751739975149
 20
104.2054659225919
 11
-31.06818775903587
 21
104.1746030700411
 72
     1
 10
-31.06818775903587
 20
104.1746030700411
 11
-30.84351097899844
 21
104.1040430304537
 72
     1
 10
-30.84351097899844
 20
104.1040430304537
 11
-30.61160057952212
 21
103.8407023541835
 72
     1
 10
-30.61160057952212
 20
103.8407023541835
 11
-30.45193216168707
 21
103.2444877312883
 72
     1
 10
-30.45193216168707
 20
103.2444877312883
 11
-30.38131955246943
 21
102.327200980404
 72
     1
 10
-30.38131955246943
 20
102.327200980404
 11
-30.31090111066793
 21
101.5213115219623
 72
     1
 10
-30.31090111066793
 20
101.5213115219623
 11
-28.45264673038172
 21
101.5213115219623
 72
     1
 10
-28.45264673038172
 20
101.5213115219623
 11
-28.46953941716685
 21
101.892704233649
 72
     1
 10
-28.46953941716685
 20
101.892704233649
 11
-28.58779242708554
 21
103.3276294557436
 72
     1
 10
-28.58779242708554
 20
103.3276294557436
 11
-28.65536527543758
 21
103.9522434204426
 72
     1
 10
-28.65536527543758
 20
103.9522434204426
 11
-28.80740470953243
 21
104.3911619661512
 72
     1
 10
-28.80740470953243
 20
104.3911619661512
 11
-29.0270159413739
 21
104.6781467607426
 72
     1
 10
-29.0270159413739
 20
104.6781467607426
 11
-29.31420107217281
 21
104.9482507213972
 72
     1
 10
-29.31420107217281
 20
104.9482507213972
 11
-29.56759872818974
 21
105.1170653064512
 72
     1
 10
-29.56759872818974
 20
105.1170653064512
 11
-29.3142010721727
 21
105.201472598978
 72
     1
 10
-29.3142010721727
 20
105.201472598978
 11
-29.12837521390153
 21
105.3027613500104
 72
     1
 10
-29.12837521390153
 20
105.3027613500104
 11
-28.85808382049333
 21
105.6066276031074
 72
     1
 10
-28.85808382049333
 20
105.6066276031074
 11
-28.6384715380468
 21
105.8767315637616
 72
     1
 10
-28.6384715380468
 20
105.8767315637616
 11
-28.50332584134275
 21
106.3156494849018
 72
     1
 10
-28.50332584134275
 20
106.3156494849018
 11
-28.48643315455763
 21
107.0415528252016
 72
     1
 10
-28.48643315455763
 20
107.0415528252016
 11
-28.57089868969479
 21
107.6661674144692
 72
     1
 10
-28.57089868969479
 20
107.6661674144692
 11
-28.72293812378961
 21
107.9700336675663
 72
     1
 10
-28.72293812378961
 20
107.9700336675663
 11
-28.89411538194096
 21
108.1689748255781
 72
     1
 10
-28.89411538194096
 20
108.1689748255781
 11
-29.04787875010471
 21
108.3435773257664
 72
     1
 10
-29.04787875010471
 20
108.3435773257664
 11
-29.21284179964417
 21
108.4764780472961
 72
     1
 10
-29.21284179964417
 20
108.4764780472961
 11
-29.57906040617967
 21
108.7346861778354
 72
     1
 10
-29.57906040617967
 20
108.7346861778354
 11
-30.04060971725968
 21
108.9322774269416
 72
     1
 10
-30.04060971725968
 20
108.9322774269416
 11
-30.63187266564277
 21
108.9829224270261
 72
     1
 10
-30.63187266564277
 20
108.9829224270261
 11
-35.07478902069669
 21
108.9829224270261
 72
     1
 10
-35.07478902069669
 20
108.9829224270261
 11
-35.07478902069669
 21
105.7526433393338
 72
     3
 10
-38.81724983979063
 20
105.30270388972
 11
0.0
 21
3.933382954596209
 40
0.9577478129195032
 50
276.8555132780285
 51
445.8629743939815
 73
     1
 72
     1
 10
-42.5754319204716
 20
105.5745349305367
 11
-42.57543192047161
 21
108.9703561113972
 72
     1
 10
-42.57543192047161
 20
108.9703561113972
 11
-44.53331522592999
 21
108.9703561113972
 72
     1
 10
-44.53331522592999
 20
108.9703561113972
 11
-44.53331522592999
 21
106.2727272727272
 72
     1
 10
-44.53331522592999
 20
106.2727272727272
 11
-47.17349224904775
 21
106.2727272727272
 97
        4
330
3462
330
3465
330
3469
330
3467
 92
       20
 93
        1
 72
     3
 10
-38.81724983979063
 20
105.30270388972
 11
0.0
 21
2.127065645383675
 40
0.8418553211183608
 50
0.0
 51
360.0
 73
     1
 97
        1
330
3466
 92
       20
 93
        4
 72
     1
 10
-32.99692340856904
 20
105.7585613542242
 11
-32.99692340856904
 21
107.3952192095435
 72
     1
 10
-32.99692340856904
 20
107.3952192095435
 11
-31.10020441693998
 21
107.3952192095435
 72
     3
 10
-31.21908492193017
 20
106.5786475844432
 11
-0.6291204391261124
 21
0.5466088247045665
 40
0.9861367087070355
 50
57.29759127073894
 51
220.8898850857597
 73
     0
 72
     1
 10
-31.10201158351741
 20
105.7585613542242
 11
-32.99692340856904
 21
105.7585613542242
 97
        2
330
346A
330
3468
 92
        7
 72
     0
 73
     1
 93
       85
 10
-16.95270884020624
 20
108.7734859477738
 10
-16.95270884020623
 20
104.0141875151086
 10
-18.87402345270015
 20
108.8141334819404
 10
-21.12960313606437
 20
108.8141334819404
 10
-23.1407971427534
 20
103.6382204691581
 10
-25.94058368546598
 20
103.6382204691581
 10
-25.94058368546598
 20
108.9103588571872
 10
-28.29470711096143
 20
108.9103588571872
 10
-28.29470711096144
 20
101.5348914793926
 10
-21.4225544030745
 20
101.5348914793926
 10
-21.03635476816577
 20
102.7547097333274
 10
-18.98952054105257
 20
102.7547097333275
 10
-18.57573497516819
 20
101.5348914793926
 10
-12.69902009139173
 20
101.5348914793925
 10
-12.16938038079907
 20
101.6368006513484
 10
-11.81865565423702
 20
101.7718100407154
 10
-11.46020102909479
 20
101.9563651544183
 10
-11.09450645027518
 20
102.2033882041797
 10
-10.88130194309317
 20
102.4164448152964
 10
-10.71777112075438
 20
102.6343333561164
 10
-10.50322268963282
 20
102.3453131084633
 10
-10.20729522053053
 20
102.1059199645313
 10
-9.917709566227458
 20
101.912996808863
 10
-9.56779200749869
 20
101.7031923459886
 10
-9.135286606165777
 20
101.5777138965983
 10
-8.730614757866138
 20
101.4801024681649
 10
-6.759278994376075
 20
101.480102468165
 10
-6.310907168215533
 20
101.5781156976732
 10
-5.81984595269457
 20
101.7603828607449
 10
-5.497611944184796
 20
101.9983897181452
 10
-5.177411628340682
 20
102.2488075356156
 10
-4.935675367492847
 20
102.5472142411638
 10
-4.752497699502324
 20
102.8992342714532
 10
-4.626647467718946
 20
103.2765225459637
 10
-4.556316495686814
 20
103.6419929912339
 10
-4.556316495686814
 20
104.4228432378006
 10
-4.65819850957552
 20
104.7137353660562
 10
-4.813516547989386
 20
104.9959352076354
 10
-5.023970021017064
 20
105.2763433086634
 10
-5.223805733857642
 20
105.4760407395809
 10
-5.561392638318672
 20
105.7009425848787
 10
-5.949382554009804
 20
105.8809549296672
 10
-6.305846874392176
 20
106.0179612214807
 10
-6.663177783290596
 20
106.1415664584708
 10
-7.049382851539066
 20
106.2380510155281
 10
-7.444302879835375
 20
106.3060931096698
 10
-7.899137907278584
 20
106.3996703902361
 10
-8.213320843714839
 20
106.5043254008894
 10
-8.447646021298169
 20
106.6282935090326
 10
-8.447646021298167
 20
106.9646548001004
 10
-8.071471452970513
 20
107.0627197636098
 10
-7.67249376623751
 20
107.0755806339489
 10
-7.39415790400085
 20
107.003022048605
 10
-7.111157441383067
 20
106.7202191348606
 10
-7.092311869406558
 20
106.2494239695641
 10
-4.773253936380228
 20
106.2494239695641
 10
-4.773253936380228
 20
106.9797419382438
 10
-4.859552702007703
 20
107.3246935838641
 10
-4.987810535123466
 20
107.5667896018786
 10
-5.155012058807448
 20
107.8313424314643
 10
-5.350719636719646
 20
108.0688214960634
 10
-5.521138714443708
 20
108.2391229278956
 10
-5.714043085285676
 20
108.3768155645972
 10
-5.882663578093248
 20
108.5172344080252
 10
-6.096617114141406
 20
108.6170100432707
 10
-6.382605284866867
 20
108.7431967327176
 10
-6.72179852363693
 20
108.8474868117286
 10
-7.074488856391956
 20
108.8954285502735
 10
-8.728568754101079
 20
108.8954285502735
 10
-9.026962383308926
 20
108.8386318737816
 10
-9.279051572911683
 20
108.7513577403008
 10
-9.552809241648905
 20
108.6387855234197
 10
-9.822876760169087
 20
108.4760317306701
 10
-10.03468592284649
 20
108.3349237911308
 10
-10.21549867775896
 20
108.1542362355262
 10
-10.38117101435436
 20
108.0024765401858
 10
-10.57920797294779
 20
107.7621689342919
 10
-10.73972134607334
 20
107.4814667193951
 10
-10.74075329869515
 20
107.4910914880741
 10
-10.85856064581754
 20
107.7854058618278
 10
-11.18469375160291
 20
108.1679907235117
 10
-11.45820178045605
 20
108.3823060880406
 10
-11.7770195891035
 20
108.549056681273
 10
-12.15345383893576
 20
108.7023120918651
 10
-12.48107954381652
 20
108.7734859477738
 97
        1
330
345F
 92
       22
 72
     0
 73
     1
 93
      123
 10
-16.78620884020631
 20
108.6069859477738
 10
-16.78620884020631
 20
103.1501808093479
 10
-18.9867203093629
 20
108.6476334819404
 10
-21.01567188938088
 20
108.6476334819405
 10
-23.02686589606981
 20
103.4717204691581
 10
-26.10708368546601
 20
103.471720469158
 10
-26.10708368546601
 20
108.7438588571873
 10
-28.12820711096151
 20
108.7438588571872
 10
-28.12820711096151
 20
101.7013914793925
 10
-21.54448537982103
 20
101.7013914793926
 10
-21.15828574491227
 20
102.9212097333274
 10
-18.87018174829495
 20
102.9212097333274
 10
-18.45639618241068
 20
101.7013914793926
 10
-12.7148928348533
 20
101.7013914793925
 10
-12.21537825062382
 20
101.7975042078014
 10
-11.88686967352028
 20
101.9239616230835
 10
-11.54520705769304
 20
102.0998711482766
 10
-11.20091920934248
 20
102.3324341645778
 10
-11.00736496461898
 20
102.5258541442638
 10
-10.8586704303193
 20
102.723974808265
 10
-10.74043508254407
 20
103.2261284842869
 10
-10.57579133378339
 20
102.722409411224
 10
-10.3821054030559
 20
102.4614932377839
 10
-10.10856893852137
 20
102.2402134950701
 10
-9.828692760398903
 20
102.0537588324252
 10
-9.500677665144417
 20
101.8570867044974
 10
-9.092547331974166
 20
101.7386799488881
 10
-8.71081780594377
 20
101.6466024681649
 10
-6.777264928476117
 20
101.6466024681649
 10
-6.357884890652412
 20
101.7382781478132
 10
-5.899841651323003
 20
101.9082900305642
 10
-5.598377366023936
 20
102.1309560598088
 10
-5.294881489268411
 20
102.3683099014751
 10
-5.07562253682646
 20
102.6389699233961
 10
-4.90627581308455
 20
102.9644104613995
 10
-4.788070373482573
 20
103.318780300161
 10
-4.722816495686743
 20
103.6578679465362
 10
-4.722816495686743
 20
104.3945289732203
 10
-4.810753691799168
 20
104.6456060490805
 10
-4.953725684944172
 20
104.9053741624807
 10
-5.150033065033067
 20
105.1669340164314
 10
-5.329837873405922
 20
105.3466144038269
 10
-5.643065392235656
 20
105.5552879218218
 10
-6.014360721393235
 20
105.727554622856
 10
-6.362945184475763
 20
105.8615323085318
 10
-6.710663059041721
 20
105.9818122765418
 10
-7.083743235642378
 20
106.0750178777772
 10
-7.475222480464271
 20
106.142467147812
 10
-7.942375778390212
 20
106.2385787764022
 10
-8.279007265245091
 20
106.3507114473953
 10
-8.614146021298211
 20
106.5280142792201
 10
-8.614146021298211
 20
106.9165221974359
 10
-8.443891299028219
 20
107.1376982422122
 10
-8.095450494949101
 20
107.2285332895922
 10
-7.653792447179363
 20
107.2427699426068
 10
-7.308430015605844
 20
107.152738391284
 10
-7.067621800350928
 20
106.9120982725445
 10
-6.943517220903006
 20
106.6950655443856
 10
-6.932343396217219
 20
106.415923969564
 10
-4.939753936380157
 20
106.4159239695641
 10
-4.939753936380157
 20
106.9592308199988
 10
-5.016160352483666
 20
107.2646409701811
 10
-5.131958190753696
 20
107.4832178388125
 10
-5.290162828109402
 20
107.7335354408524
 10
-5.474097872622032
 20
107.9567292628997
 10
-5.629084955937781
 20
108.1116093535366
 10
-5.815823207519907
 20
108.2449006943248
 10
-5.972610976964035
 20
108.3754658283865
 10
-6.165416192822464
 20
108.4653791022973
 10
-6.440877936526976
 20
108.5869212116064
 10
-6.757716428254435
 20
108.6843379863504
 10
-7.085753360270212
 20
108.7289285502736
 10
-8.712863809708798
 20
108.7289285502736
 10
-8.983934114137872
 20
108.6773326350789
 10
-9.22010755450664
 20
108.5955685880293
 10
-9.477744076365148
 20
108.489625567149
 10
-9.733704255245136
 20
108.3353734374081
 10
-9.928653844473359
 20
108.2054973994583
 10
-10.10036548129285
 20
108.033904660103
 10
-10.26010140694855
 20
107.887582854601
 10
-10.44170496956848
 20
107.6672163247117
 10
-10.59518811201519
 20
107.3988084207771
 10
-10.64414496255699
 20
107.2031167684953
 10
-10.64414496255699
 20
106.1371781007717
 10
-10.60663124653467
 20
105.937240483654
 10
-10.48061279859962
 20
105.6476011110913
 10
-10.2653751674824
 20
105.4198605794268
 10
-9.920871042545982
 20
105.1682822607871
 10
-9.628122179489791
 20
104.978337209362
 10
-9.313804101371699
 20
104.8519345794902
 10
-8.829439610436152
 20
104.6637013596737
 10
-8.374909613302621
 20
104.5301092705741
 10
-7.930079362152969
 20
104.4358169642363
 10
-7.505183652836977
 20
104.3399395225599
 10
-7.168671560905275
 20
104.227846622272
 10
-6.869344157117544
 20
104.0633310094797
 10
-6.751302507299102
 20
103.8442639326595
 10
-6.767853332991761
 20
103.6127216829539
 10
-6.936249074147745
 20
103.2984750697212
 10
-7.392027667933905
 20
103.1466551164055
 10
-8.072364848013762
 20
103.1466551164055
 10
-8.436006789283812
 20
103.2920104685168
 10
-8.658227876420932
 20
103.4548595097407
 10
-8.82718546060096
 20
103.685095469681
 10
-8.905467630395726
 20
104.2170422646872
 10
-10.56726265001316
 20
104.2170422646872
 10
-10.70804746880825
 20
104.5765755923091
 10
-10.93220165500565
 20
104.9850416169146
 10
-11.11357581663214
 20
105.2051291837853
 10
-11.30416109325256
 20
105.3828843091687
 10
-11.65937601394741
 20
105.5603691612474
 10
-11.30627854136447
 20
105.7367950035659
 10
-11.1197839028757
 20
105.9311543857324
 10
-10.93921893506238
 20
106.20567007847
 10
-10.86487932273018
 20
106.453293954003
 10
-10.86487932273019
 20
107.0869793920274
 10
-10.90385793763107
 20
107.4505233609305
 10
-11.00298803120222
 20
107.6981769421559
 10
-11.30055321922649
 20
108.0472489446073
 10
-11.54888727522623
 20
108.2418384927084
 10
-11.84715314778896
 20
108.3978398509819
 10
-12.2028859121129
 20
108.5426671903694
 10
-12.498956399831
 20
108.6069859477738
 97
        1
330
345E
 92
        6
 72
     0
 73
     1
 93
        3
 10
-20.66845719315961
 20
104.4683417208214
 10
-20.05368415071882
 20
106.4101130520478
 10
-19.39499836165328
 20
104.4683417208214
 97
        1
330
3474
 92
        6
 72
     0
 73
     1
 93
        3
 10
-20.44109700348747
 20
104.6348417208214
 10
-20.04822819976606
 20
105.8757246602729
 10
-19.62729709167604
 20
104.6348417208214
 97
        1
330
3473
 92
        6
 72
     0
 73
     1
 93
        8
 10
-14.72637059985657
 20
104.6414184257702
 10
-13.10953759777042
 20
104.6414184257702
 10
-12.82807096946638
 20
104.556101607526
 10
-12.64913954512282
 20
104.2846390217762
 10
-12.64575864804368
 20
103.7207883823143
 10
-12.87023192958998
 20
103.4426240768395
 10
-13.14544563556039
 20
103.3791169658958
 10
-14.72637059985697
 20
103.3791169658958
 97
        1
330
3476
 92
        6
 72
     0
 73
     1
 93
        7
 10
-14.72637059985697
 20
106.0403490827338
 10
-14.72637059985697
 20
107.0678359440637
 10
-13.27627270441655
 20
107.0678359440637
 10
-13.08109965514584
 20
106.9703169437359
 10
-12.87949606258666
 20
106.6479769888425
 10
-12.93390351032043
 20
106.2673997828755
 10
-13.23684856495818
 20
106.0403490827339
 97
        1
330
3478
 92
        6
 72
     0
 73
     1
 93
        6
 10
-14.55987059985706
 20
104.4749184257702
 10
-13.05591497937651
 20
104.4749184257702
 10
-12.81566380650506
 20
104.2881860550526
 10
-12.81229590718028
 20
103.7265031219696
 10
-13.07527419712342
 20
103.5456169658958
 10
-14.55987059985693
 20
103.5456169658958
 97
        1
330
3477
 92
        6
 72
     0
 73
     1
 93
        7
 10
-14.55987059985693
 20
106.2068490827339
 10
-14.55987059985693
 20
106.9013359440637
 10
-13.31555369432865
 20
106.9013359440637
 10
-13.19742382446168
 20
106.8423118786954
 10
-13.01381848429708
 20
106.5487489698427
 10
-13.17051635146659
 20
106.2668879649875
 10
-13.37078498084123
 20
106.2068490827339
 97
        1
330
3475
 92
       22
 72
     0
 73
     1
 93
       29
 10
-11.28686406896115
 20
105.56036873214
 10
-11.20608666015735
 20
105.6007293223313
 10
-10.98907101912912
 20
105.8268968210462
 10
-10.80720957123082
 20
106.1033835723616
 10
-10.76680818892498
 20
105.888055501379
 10
-10.6216527347824
 20
105.5544318506295
 10
-10.37589725382058
 20
105.2944007231579
 10
-10.01535259529286
 20
105.0311086101717
 10
-9.705213559454129
 20
104.8298802450252
 10
-9.375022948847966
 20
104.6970944956669
 10
-8.883166855451475
 20
104.5059498971698
 10
-8.415708527216027
 20
104.36855800878
 10
-7.96566868368811
 20
104.2731614059618
 10
-7.549928658501839
 20
104.1793499384814
 10
-7.23562632714224
 20
104.0746551571227
 10
-6.914379635496012
 20
103.8980923176869
 10
-6.93896406035512
 20
103.5541618609653
 10
-7.120048336755054
 20
103.4127456340537
 10
-7.41902897201909
 20
103.3131551164055
 10
-8.040320638521675
 20
103.3131551164056
 10
-8.475314728874616
 20
103.4870314271214
 10
-8.668481463382475
 20
103.7502568322654
 10
-8.733049601263129
 20
104.1890133728069
 10
-8.75467977504218
 20
104.3835422646872
 10
-10.45365029250319
 20
104.3835422646872
 10
-10.5569211450936
 20
104.6472732095146
 10
-10.79376217218599
 20
105.0788578898681
 10
-10.99202853177305
 20
105.3194432096429
 10
-11.20820410826926
 20
105.5210659025725
 97
        1
330
3472
 75
     0
 76
     1
 47
0.0580558680451376
 98
       12
 10
-45.19074371980742
 20
105.6643448972012
 10
-45.19074371980742
 20
105.6643448972012
 10
-45.19074371980742
 20
105.6643448972012
 10
-28.19134046636918
 20
105.2325149992426
 10
-28.19134046636918
 20
105.2325149992426
 10
-28.19134046636918
 20
105.2325149992426
 10
-28.19134046636918
 20
105.2325149992426
 10
-28.19134046636918
 20
105.2325149992426
 10
-28.19134046636918
 20
105.2325149992426
 10
-28.19134046636918
 20
105.2325149992426
 10
-28.19134046636918
 20
105.2325149992426
 10
-28.19134046636918
 20
105.2325149992426
  0
LWPOLYLINE
  5
345D
330
2
100
AcDbEntity
  8
DRUCK_FARBE1
100
AcDbPolyline
 90
        2
 70
     0
 43
0.35
 10
-25.0
 20
120.9999999999999
 10
-8.0
 20
120.9999999999999
  0
LWPOLYLINE
  5
345E
102
{ACAD_REACTORS
330
345C
102
}
330
2
100
AcDbEntity
  8
Logo Umrandung
100
AcDbPolyline
 90
      126
 70
     1
 43
0.0
 10
-12.49895639983106
 20
108.6069859477738
 10
-12.20288591211283
 20
108.5426671903694
 10
-11.84715314778884
 20
108.3978398509819
 10
-11.5488872752262
 20
108.2418384927083
 10
-11.30055321922645
 20
108.0472489446073
 10
-11.00298803120222
 20
107.6981769421559
 10
-10.90385793763107
 20
107.4505233609305
 10
-10.86487932273018
 20
107.0869793920274
 10
-10.86487932273018
 20
106.453293954003
 10
-10.9392189350624
 20
106.20567007847
 10
-11.11978390287572
 20
105.9311543857324
 10
-11.30627854136446
 20
105.7367950035659
 10
-11.65937601394739
 20
105.5603691612475
 10
-11.30416109325256
 20
105.3828843091687
 10
-11.11357581663219
 20
105.2051291837852
 10
-10.93220165500565
 20
104.9850416169146
 10
-10.70804746880821
 20
104.5765755923091
 10
-10.56726265001316
 20
104.2170422646872
 10
-8.903692330671674
 20
104.2170422646872
 10
-8.898204273758778
 20
104.1676859515684
 10
-8.827185460600958
 20
103.685095469681
 10
-8.658227876420937
 20
103.4548595097407
 10
-8.436006789283851
 20
103.2920104685168
 10
-8.072364848013762
 20
103.1466551164056
 10
-7.392027667933916
 20
103.1466551164056
 10
-7.040193879907064
 20
103.2638510312672
 10
-6.893352180692772
 20
103.3785258084982
 10
-6.767853332991762
 20
103.6127216829539
 10
-6.751302507299101
 20
103.8442639326595
 10
-6.869344157117552
 20
104.0633310094797
 10
-7.168671560905295
 20
104.227846622272
 10
-7.505183652836876
 20
104.3399395225598
 10
-7.930079362154629
 20
104.4358169642362
 10
-8.374909613302634
 20
104.5301092705741
 10
-8.829439610436224
 20
104.6637013596737
 10
-9.313804101371033
 20
104.8519345794896
 10
-9.628122179489764
 20
104.978337209362
 10
-9.920871042545968
 20
105.1682822607872
 10
-10.26537516748237
 20
105.4198605794268
 10
-10.48061279859962
 20
105.6476011110913
 10
-10.60663124653467
 20
105.937240483654
 10
-10.64414496255699
 20
106.1371781007716
 10
-10.64414496255699
 20
107.2031167684953
 10
-10.59518811201519
 20
107.3988084207771
 10
-10.44170496956849
 20
107.6672163247117
 10
-10.26010140694847
 20
107.8875828546009
 10
-10.10036548129301
 20
108.033904660103
 10
-9.928653844473387
 20
108.2054973994583
 10
-9.733704255245129
 20
108.3353734374082
 10
-9.47774407636507
 20
108.489625567149
 10
-9.220107554506512
 20
108.5955685880294
 10
-8.983934114137809
 20
108.6773326350789
 10
-8.712863809708778
 20
108.7289285502736
 10
-7.085753360270246
 20
108.7289285502736
 10
-6.757716428254525
 20
108.6843379863504
 10
-6.440877936527044
 20
108.5869212116063
 10
-6.165416192822021
 20
108.4653791022974
 10
-5.972610976964006
 20
108.3754658283865
 10
-5.81582320751977
 20
108.2449006943246
 10
-5.629084955937742
 20
108.1116093535366
 10
-5.474097872621882
 20
107.9567292628996
 10
-5.290162828109373
 20
107.7335354408524
 10
-5.131958190753721
 20
107.4832178388124
 10
-5.016160352483666
 20
107.264640970181
 10
-4.939753936380157
 20
106.9592308199988
 10
-4.939753936380157
 20
106.4159239695641
 10
-6.93234339621722
 20
106.415923969564
 10
-6.943517220903004
 20
106.6950655443856
 10
-7.067621800350934
 20
106.9120982725445
 10
-7.308430015605836
 20
107.1527383912841
 10
-7.653792447179398
 20
107.2427699426068
 10
-8.095450494949204
 20
107.2285332895922
 10
-8.443891299028223
 20
107.1376982422122
 10
-8.614146021298211
 20
106.9165221974359
 10
-8.614146021298211
 20
106.6689099249391
 10
-8.542595496047169
 20
106.4901609706533
 10
-8.279007265245127
 20
106.3507114473952
 10
-7.942375778390214
 20
106.2385787764022
 10
-7.475222480464594
 20
106.1424671478119
 10
-7.083743235642486
 20
106.0750178777772
 10
-6.710663059041735
 20
105.9818122765419
 10
-6.36294518447562
 20
105.8615323085317
 10
-6.014360721393472
 20
105.7275546228561
 10
-5.643065392235598
 20
105.5552879218217
 10
-5.329837873405949
 20
105.3466144038269
 10
-5.150033065033085
 20
105.1669340164313
 10
-4.953725684944174
 20
104.9053741624807
 10
-4.810753691799163
 20
104.6456060490805
 10
-4.722816495686743
 20
104.3945289732202
 10
-4.722816495686743
 20
103.6578679465362
 10
-4.788070373482582
 20
103.3187803001609
 10
-4.906275813084562
 20
102.9644104613995
 10
-5.075622536826472
 20
102.6389699233961
 10
-5.294881489268391
 20
102.3683099014752
 10
-5.598377366023669
 20
102.1309560598093
 10
-5.899841651322958
 20
101.9082900305642
 10
-6.357884890652485
 20
101.7382781478132
 10
-6.777264928476142
 20
101.6466024681649
 10
-8.710817805943747
 20
101.6466024681649
 10
-9.092547331973946
 20
101.738679948888
 10
-9.500677665144394
 20
101.8570867044974
 10
-9.828692760399235
 20
102.0537588324255
 10
-10.10856893852132
 20
102.24021349507
 10
-10.3821054030559
 20
102.461493237784
 10
-10.57579133378339
 20
102.722409411224
 10
-10.74043508254408
 20
103.2261284842868
 10
-10.8586704303193
 20
102.723974808265
 10
-11.007364964619
 20
102.5258541442638
 10
-11.20091920934248
 20
102.3324341645778
 10
-11.545207057693
 20
102.0998711482766
 10
-11.88686967352032
 20
101.9239616230835
 10
-12.21537825062375
 20
101.7975042078014
 10
-12.71489283485334
 20
101.7013914793926
 10
-18.45639618241068
 20
101.7013914793926
 10
-18.87018174829495
 20
102.9212097333274
 10
-21.15828574491229
 20
102.9212097333274
 10
-21.54448537982102
 20
101.7013914793926
 10
-28.12820711096151
 20
101.7013914793926
 10
-28.12820711096151
 20
108.7438588571872
 10
-26.10708368546602
 20
108.7438588571872
 10
-26.10708368546602
 20
103.4717204691581
 10
-23.02686589606981
 20
103.4717204691581
 10
-21.01567188938088
 20
108.6476334819404
 10
-18.98672030936291
 20
108.6476334819404
 10
-16.78620884020631
 20
103.1501808093479
 10
-16.78620884020631
 20
108.6069859477738
  0
LWPOLYLINE
  5
345F
102
{ACAD_REACTORS
330
345C
102
}
330
2
100
AcDbEntity
  8
Logo Umrandung
100
AcDbPolyline
 90
       88
 70
     1
 43
0.0
 10
-12.48107954381646
 20
108.7734859477738
 10
-12.15345383893577
 20
108.7023120918652
 10
-11.77701958910336
 20
108.5490566812729
 10
-11.45820178045596
 20
108.3823060880406
 10
-11.18469375160293
 20
108.1679907235117
 10
-10.85856064581753
 20
107.7854058618278
 10
-10.74075329869515
 20
107.491091488074
 10
-10.73972134607333
 20
107.481466719395
 10
-10.57920797294775
 20
107.7621689342919
 10
-10.38117101435443
 20
108.0024765401857
 10
-10.21549867775888
 20
108.1542362355262
 10
-10.0346859228465
 20
108.3349237911308
 10
-9.822876760169037
 20
108.4760317306703
 10
-9.552809241648901
 20
108.6387855234197
 10
-9.279051572911612
 20
108.7513577403008
 10
-9.026962383308955
 20
108.8386318737816
 10
-8.728568754101161
 20
108.8954285502735
 10
-7.074488856392008
 20
108.8954285502735
 10
-6.721798523636948
 20
108.8474868117286
 10
-6.382605284866826
 20
108.7431967327175
 10
-6.096617114140599
 20
108.6170100432705
 10
-5.882663578093342
 20
108.5172344080253
 10
-5.714043085285766
 20
108.3768155645973
 10
-5.521138714443736
 20
108.2391229278955
 10
-5.350719636719645
 20
108.0688214960634
 10
-5.155012058807415
 20
107.8313424314643
 10
-4.987810535123458
 20
107.5667896018786
 10
-4.859552702007704
 20
107.3246935838641
 10
-4.773253936380228
 20
106.9797419382439
 10
-4.773253936380228
 20
106.2494239695641
 10
-7.092311869406557
 20
106.2494239695641
 10
-7.108256275412372
 20
106.6477429630348
 10
-7.201089136658083
 20
106.8100880531885
 10
-7.394157904000849
 20
107.003022048605
 10
-7.672493766237494
 20
107.0755806339489
 10
-8.071471452970627
 20
107.0627197636098
 10
-8.346726841490522
 20
106.990963425187
 10
-8.447646021298169
 20
106.8598604241405
 10
-8.447646021298169
 20
106.7009961058345
 10
-8.410725724991493
 20
106.6087610826308
 10
-8.213320843714882
 20
106.5043254008894
 10
-7.8991379072786
 20
106.3996703902361
 10
-7.444302879835277
 20
106.3060931096698
 10
-7.049382851538894
 20
106.2380510155281
 10
-6.66317778329062
 20
106.1415664584708
 10
-6.305846874392386
 20
106.0179612214809
 10
-5.949382554009844
 20
105.8809549296672
 10
-5.561392638318807
 20
105.7009425848788
 10
-5.223805733857602
 20
105.4760407395809
 10
-5.023970021017021
 20
105.2763433086634
 10
-4.813516547989365
 20
104.9959352076353
 10
-4.658198509575527
 20
104.7137353660562
 10
-4.556316495686814
 20
104.4228432378006
 10
-4.556316495686814
 20
103.6419929912339
 10
-4.626647467718953
 20
103.2765225459636
 10
-4.752497699502328
 20
102.8992342714531
 10
-4.935675367492876
 20
102.5472142411638
 10
-5.177411628340678
 20
102.2488075356156
 10
-5.497611944184427
 20
101.9983897181457
 10
-5.819845952694549
 20
101.7603828607449
 10
-6.310907168215635
 20
101.5781156976732
 10
-6.759278994376018
 20
101.480102468165
 10
-8.730614757866078
 20
101.4801024681649
 10
-9.135286606166118
 20
101.5777138965983
 10
-9.56779200749861
 20
101.7031923459885
 10
-9.917709566227586
 20
101.9129968088629
 10
-10.20729522053056
 20
102.1059199645314
 10
-10.50322268963282
 20
102.3453131084633
 10
-10.71777112075437
 20
102.6343333561164
 10
-10.88130194309314
 20
102.4164448152965
 10
-11.09450645027516
 20
102.2033882041796
 10
-11.4602010290946
 20
101.9563651544184
 10
-11.81865565423697
 20
101.7718100407155
 10
-12.16938038079888
 20
101.6368006513484
 10
-12.69902009139173
 20
101.5348914793926
 10
-18.57573497516819
 20
101.5348914793926
 10
-18.98952054105257
 20
102.7547097333274
 10
-21.03635476816577
 20
102.7547097333274
 10
-21.42255440307451
 20
101.5348914793926
 10
-28.29470711096144
 20
101.5348914793926
 10
-28.29470711096144
 20
108.9103588571872
 10
-25.94058368546598
 20
108.9103588571872
 10
-25.94058368546598
 20
103.6382204691581
 10
-23.1407971427534
 20
103.6382204691581
 10
-21.12960313606436
 20
108.8141334819404
 10
-18.87402345270015
 20
108.8141334819404
 10
-16.95270884020624
 20
104.0141875151087
 10
-16.95270884020624
 20
108.7734859477738
  0
LWPOLYLINE
  5
3460
330
2
100
AcDbEntity
  8
DRUCK_FARBE1
100
AcDbPolyline
 90
        2
 70
     0
 43
0.35
 10
-30.0
 20
85.99999999999992
 10
-30.0
 20
99.49999999999988
  0
LINE
  5
3461
330
2
100
AcDbEntity
  8
MECH_KONTUR1
100
AcDbLine
 10
-40.0
 20
82.27016653792578
 30
0.0
 11
-40.0
 21
76.69999999999993
 31
0.0
  0
LWPOLYLINE
  5
3462
102
{ACAD_REACTORS
330
345C
102
}
330
2
100
AcDbEntity
  8
Logo Umrandung
100
AcDbPolyline
 90
       20
 70
     0
 43
0.0
 10
-42.5754319204716
 20
105.5745349305371
 10
-42.5754319204716
 20
108.9703561113972
 10
-44.53331522592998
 20
108.9703561113972
 10
-44.53331522592998
 20
106.2727272727272
 10
-47.17349224904774
 20
106.2727272727272
 10
-47.17349224904774
 20
108.9999999999999
 10
-55.45000000000005
 20
108.9999999999999
 10
-55.45000000000005
 20
107.3399210029267
 10
-53.22513155682805
 20
107.3399210029267
 10
-53.22513155682805
 20
101.4999999999999
 10
-51.14858865709948
 20
101.4999999999999
 10
-51.14858865709948
 20
107.3695655160977
 10
-49.13137555450589
 20
107.3695655160977
 10
-49.13137555450589
 20
101.4999999999999
 10
-47.2328220461826
 20
101.4999999999999
 10
-47.2328220461826
 20
104.5830043870514
 10
-44.50365032736226
 20
104.5830043870514
 10
-44.50365032736226
 20
101.4999999999999
 10
-42.5754319204716
 20
101.4999999999999
 10
-42.5754319204716
 20
105.0308728489029
  0
LWPOLYLINE
  5
3463
330
2
100
AcDbEntity
  8
DRUCK_FARBE1
100
AcDbPolyline
 90
        2
 70
     0
 43
0.35
 10
-65.0
 20
120.9999999999999
 10
-35.0
 20
120.9999999999999
  0
CIRCLE
  5
3464
330
2
100
AcDbEntity
  8
MECH_KONTUR2
100
AcDbCircle
 10
-30.0
 20
120.9999999999999
 30
0.0
 40
4.999999999999971
  0
ELLIPSE
  5
3465
102
{ACAD_REACTORS
330
345C
102
}
330
2
100
AcDbEntity
  8
Logo Umrandung
100
AcDbEllipse
 10
-38.81724983979063
 20
105.30270388972
 30
0.0
 11
0.0
 21
3.933382954596209
 31
0.0
210
0.0
220
0.0
230
1.0
 40
0.9577478129195032
 41
1.639960170867241
 42
4.597748090990032
  0
ELLIPSE
  5
3466
102
{ACAD_REACTORS
330
345C
102
}
330
2
100
AcDbEntity
  8
Logo Umrandung
100
AcDbEllipse
 10
-38.81724983979063
 20
105.30270388972
 30
0.0
 11
0.0
 21
2.127065645383675
 31
0.0
210
0.0
220
0.0
230
1.0
 40
0.8418553211183608
 41
0.0
 42
6.283185307179586
  0
ELLIPSE
  5
3467
102
{ACAD_REACTORS
330
345C
102
}
330
2
100
AcDbEntity
  8
Logo Umrandung
100
AcDbEllipse
 10
-38.81724983979063
 20
105.30270388972
 30
0.0
 11
0.0
 21
3.933382954596209
 31
0.0
210
0.0
220
0.0
230
1.0
 40
0.9577478129195032
 41
4.827029869779346
 42
7.784817789902136
  0
ELLIPSE
  5
3468
102
{ACAD_REACTORS
330
345C
102
}
330
2
100
AcDbEntity
  8
Logo Umrandung
100
AcDbEllipse
 10
-31.21908492193017
 20
106.5786475844432
 30
0.0
 11
-0.629120439126112
 21
0.5466088247045664
 31
0.0
210
0.0
220
0.0
230
0.9999999999999998
 40
0.9861367087070354
 41
2.421014422375696
 42
5.276825416685123
  0
LWPOLYLINE
  5
3469
102
{ACAD_REACTORS
330
345C
102
}
330
2
100
AcDbEntity
  8
Logo Umrandung
100
AcDbPolyline
 90
       36
 70
     0
 43
0.0
 10
-35.07478902069669
 20
105.7526433393338
 10
-35.07478902069669
 20
108.9829224270261
 10
-30.63187266564273
 20
108.9829224270261
 10
-30.04060971725971
 20
108.9322774269416
 10
-29.57906040617968
 20
108.7346861778354
 10
-29.21284179964436
 20
108.4764780472962
 10
-29.0478787501047
 20
108.3435773257664
 10
-28.89411538194167
 20
108.1689748255791
 10
-28.72293812378961
 20
107.9700336675663
 10
-28.57089868969478
 20
107.6661674144692
 10
-28.48643315455763
 20
107.0415528252016
 10
-28.50332584134275
 20
106.3156494849018
 10
-28.63847153804681
 20
105.8767315637616
 10
-28.85808382049367
 20
105.606627603107
 10
-29.12837521390156
 20
105.3027613500104
 10
-29.31420107217275
 20
105.2014725989779
 10
-29.56759872818975
 20
105.1170653064512
 10
-29.31420107217275
 20
104.9482507213972
 10
-29.02701594137386
 20
104.6781467607426
 10
-28.80740470953242
 20
104.3911619661512
 10
-28.65536527543758
 20
103.9522434204426
 10
-28.58779242708556
 20
103.3276294557436
 10
-28.46953941716686
 20
101.8927042336491
 10
-28.45264673038172
 20
101.5213115219623
 10
-30.31090111066794
 20
101.5213115219623
 10
-30.38131955246945
 20
102.3272009804039
 10
-30.45193216168707
 20
103.2444877312883
 10
-30.57389949451158
 20
103.6999234920448
 10
-30.70228576056285
 20
103.9436778867895
 10
-30.84351097899844
 20
104.1040430304537
 10
-31.06818775903593
 20
104.1746030700411
 10
-31.37517399751493
 20
104.2054659225919
 10
-32.99692340856904
 20
104.2054659225919
 10
-32.99692340856904
 20
101.5044300634568
 10
-35.07478902069669
 20
101.5044300634568
 10
-35.07478902069669
 20
104.8527644401062
  0
LWPOLYLINE
  5
346A
102
{ACAD_REACTORS
330
345C
102
}
330
2
100
AcDbEntity
  8
Logo Umrandung
100
AcDbPolyline
 90
        4
 70
     0
 43
0.0
 10
-31.10201158351742
 20
105.7585613542242
 10
-32.99692340856904
 20
105.7585613542242
 10
-32.99692340856904
 20
107.3952192095435
 10
-31.10020441693996
 20
107.3952192095435
  0
LINE
  5
346B
330
2
100
AcDbEntity
  8
MECH_MITTELLINIE
100
AcDbLine
 10
-28.50000000000003
 20
120.9999999999999
 30
0.0
 11
-31.49999999999997
 21
120.9999999999999
 31
0.0
  0
LINE
  5
346C
330
2
100
AcDbEntity
  8
MECH_MITTELLINIE
100
AcDbLine
 10
-30.00000000000003
 20
122.4999999999998
 30
0.0
 11
-30.00000000000002
 21
119.4999999999999
 31
0.0
  0
LWPOLYLINE
  5
346D
330
2
100
AcDbEntity
  8
DRUCK_FARBE1
100
AcDbPolyline
 90
        2
 70
     0
 43
0.35
 10
-30.0
 20
110.9999999999998
 10
-30.0
 20
115.9999999999999
  0
LWPOLYLINE
  5
346E
330
2
100
AcDbEntity
  8
DRUCK_FARBE1
100
AcDbPolyline
 90
        2
 70
     0
 43
0.35
 10
-30.0
 20
125.9999999999998
 10
-30.0
 20
141.9999999999999
  0
LINE
  5
346F
330
2
100
AcDbEntity
  8
MECH_KONTUR1
100
AcDbLine
 10
-20.0
 20
82.27016653792578
 30
0.0
 11
-20.0
 21
76.69999999999993
 31
0.0
  0
LWPOLYLINE
  5
3470
330
2
100
AcDbEntity
  8
DRUCK_FARBE1
100
AcDbPolyline
 90
        2
 70
     0
 43
0.3
 10
-2.0
 20
120.9999999999999
 10
5.0
 20
120.9999999999999
  0
TEXT
  5
3471
330
2
100
AcDbEntity
  8
DRUCK_FARBE1
100
AcDbText
 10
-7.20325865580448
 20
118.4999999999999
 30
0.0
 40
5.0
  1
X
 41
1.08
  7
HELV_N_MEDIUM
 72
     1
 11
-5.0
 21
120.9999999999999
 31
0.0
100
AcDbText
 73
     2
  0
LWPOLYLINE
  5
3472
102
{ACAD_REACTORS
330
345C
102
}
330
2
100
AcDbEntity
  8
Logo Umrandung
100
AcDbPolyline
 90
       32
 70
     1
 43
0.0
 10
-10.80720957123082
 20
106.1033835723616
 10
-10.98907101912914
 20
105.8268968210461
 10
-11.20608666015732
 20
105.6007293223313
 10
-11.2868640689611
 20
105.56036873214
 10
-11.20820410826922
 20
105.5210659025724
 10
-10.99202853177303
 20
105.3194432096429
 10
-10.793762172186
 20
105.0788578898681
 10
-10.55692114509361
 20
104.6472732095147
 10
-10.45365029250319
 20
104.3835422646872
 10
-8.754679775042177
 20
104.3835422646872
 10
-8.733049601263132
 20
104.1890133728069
 10
-8.668481463382477
 20
103.7502568322654
 10
-8.539149016003193
 20
103.5740174505395
 10
-8.354611351234893
 20
103.4387837417841
 10
-8.04032063852162
 20
103.3131551164056
 10
-7.419028972019077
 20
103.3131551164055
 10
-7.120048336755075
 20
103.4127456340536
 10
-7.023517258197443
 20
103.4881307595914
 10
-6.93139577159161
 20
103.6600404823263
 10
-6.920828366591877
 20
103.8078760509332
 10
-6.992608027985625
 20
103.9410880199358
 10
-7.235626327142199
 20
104.0746551571227
 10
-7.549928658501812
 20
104.1793499384813
 10
-7.965668683687567
 20
104.2731614059619
 10
-8.415708527216111
 20
104.36855800878
 10
-8.883166855451463
 20
104.5059498971698
 10
-9.375022948847572
 20
104.697094495667
 10
-9.705213559454023
 20
104.8298802450251
 10
-10.01535259529293
 20
105.0311086101719
 10
-10.37589725382054
 20
105.2944007231578
 10
-10.6216527347824
 20
105.5544318506295
 10
-10.76680818892498
 20
105.888055501379
  0
LWPOLYLINE
  5
3473
102
{ACAD_REACTORS
330
345C
102
}
330
2
100
AcDbEntity
  8
Logo Umrandung
100
AcDbPolyline
 90
        3
 70
     1
 43
0.0
 10
-19.62729709167604
 20
104.6348417208214
 10
-20.44109700348747
 20
104.6348417208214
 10
-20.04822819976607
 20
105.8757246602729
  0
LWPOLYLINE
  5
3474
102
{ACAD_REACTORS
330
345C
102
}
330
2
100
AcDbEntity
  8
Logo Umrandung
100
AcDbPolyline
 90
        3
 70
     1
 43
0.0
 10
-19.39499836165327
 20
104.4683417208214
 10
-20.66845719315961
 20
104.4683417208214
 10
-20.05368415071882
 20
106.4101130520479
  0
LWPOLYLINE
  5
3475
102
{ACAD_REACTORS
330
345C
102
}
330
2
100
AcDbEntity
  8
Logo Umrandung
100
AcDbPolyline
 90
       11
 70
     1
 43
0.0
 10
-13.39814241794806
 20
106.9013359440637
 10
-14.55987059985693
 20
106.9013359440637
 10
-14.55987059985693
 20
106.2068490827339
 10
-13.37078498084122
 20
106.2068490827339
 10
-13.24000598093516
 20
106.2460555475762
 10
-13.14073531261067
 20
106.3204567447622
 10
-13.07851003207235
 20
106.4323847525694
 10
-13.06585909669877
 20
106.5208773733022
 10
-13.06585909669877
 20
106.6319556649281
 10
-13.19742382446168
 20
106.8423118786954
 10
-13.26049535535469
 20
106.8738258231914
  0
LWPOLYLINE
  5
3476
102
{ACAD_REACTORS
330
345C
102
}
330
2
100
AcDbEntity
  8
Logo Umrandung
100
AcDbPolyline
 90
       15
 70
     1
 43
0.0
 10
-13.16380844546756
 20
104.6414184257702
 10
-14.72637059985697
 20
104.6414184257702
 10
-14.72637059985697
 20
103.3791169658959
 10
-13.14544563556035
 20
103.3791169658959
 10
-13.00994551230201
 20
103.4103843816312
 10
-12.89320150689025
 20
103.4687686648579
 10
-12.7941569862279
 20
103.5368951350188
 10
-12.71126002221444
 20
103.6396199504709
 10
-12.66404793562435
 20
103.734785426247
 10
-12.64626868611594
 20
103.8058502124914
 10
-12.64880408642852
 20
104.2286927463158
 10
-12.69384708624693
 20
104.3524662620757
 10
-12.76401457728923
 20
104.4589196065555
 10
-12.92803435522273
 20
104.5864020309369
 10
-13.04551305299503
 20
104.6220116119582
  0
LWPOLYLINE
  5
3477
102
{ACAD_REACTORS
330
345C
102
}
330
2
100
AcDbEntity
  8
Logo Umrandung
100
AcDbPolyline
 90
       15
 70
     1
 43
0.0
 10
-13.17737525089774
 20
104.4749184257702
 10
-14.55987059985693
 20
104.4749184257702
 10
-14.55987059985693
 20
103.5456169658958
 10
-13.1644069018206
 20
103.5456169658958
 10
-13.06669360306329
 20
103.5681648592973
 10
-12.97802531076536
 20
103.6125083326302
 10
-12.90849806825463
 20
103.6603317314472
 10
-12.85229905866162
 20
103.7299727968077
 10
-12.82120110808546
 20
103.7926569837605
 10
-12.81289172034973
 20
103.8258701327732
 10
-12.81512817048656
 20
104.1988551158154
 10
-12.84362335738501
 20
104.2771569491496
 10
-12.88790043110975
 20
104.3443311135922
 10
-13.00585478040147
 20
104.436009730668
 10
-13.08330333685853
 20
104.4594855666999
  0
LWPOLYLINE
  5
3478
102
{ACAD_REACTORS
330
345C
102
}
330
2
100
AcDbEntity
  8
Logo Umrandung
100
AcDbPolyline
 90
       11
 70
     1
 43
0.0
 10
-13.38166699814189
 20
107.0678359440636
 10
-14.72637059985697
 20
107.0678359440636
 10
-14.72637059985697
 20
106.0403490827339
 10
-13.34636421849109
 20
106.0403490827339
 10
-13.16383793218767
 20
106.0950689569637
 10
-13.01246563227062
 20
106.2085191887865
 10
-12.91803932030961
 20
106.37836894906
 10
-12.89935909669884
 20
106.5090361206469
 10
-12.89935909669884
 20
106.6797355971019
 10
-13.08109965514586
 20
106.9703169437359
 10
-13.20601087573663
 20
107.0327293383122
  0
LINE
  5
347A
330
2
100
AcDbEntity
  8
MECH_KONTUR2
100
AcDbLine
 10
6.869317712168765
 20
136.5130078140622
 30
0.0
 11
21.69024293495606
 21
145.0698729810777
 31
0.0
  0
ARC
  5
347B
330
2
100
AcDbEntity
  8
MECH_KONTUR2
100
AcDbCircle
 10
20.19024293495609
 20
147.6679491924311
 30
0.0
 40
3.0
100
AcDbArc
 50
300.0
 51
29.99999999999998
  0
ARC
  5
347C
330
2
100
AcDbEntity
  8
MECH_KONTUR2
100
AcDbCircle
 10
-78.19024293495622
 20
151.1320508075687
 30
0.0
 40
3.0
100
AcDbArc
 50
60.00000000000012
 51
150.0000000000001
  0
LINE
  5
347D
330
2
100
AcDbEntity
  8
MECH_KONTUR1
100
AcDbLine
 10
-25.00000000000007
 20
160.6862696659687
 30
0.0
 11
-25.00000000000007
 21
177.7999999999998
 31
0.0
  0
LINE
  5
347E
330
2
100
AcDbEntity
  8
MECH_KONTUR1
100
AcDbLine
 10
-35.00000000000008
 20
160.6862696659687
 30
0.0
 11
-35.00000000000007
 21
177.7999999999998
 31
0.0
  0
LINE
  5
347F
330
2
100
AcDbEntity
  8
MECH_KONTUR1
100
AcDbLine
 10
-28.00000000000006
 20
180.7999999999999
 30
0.0
 11
-32.00000000000011
 21
180.7999999999999
 31
0.0
  0
ARC
  5
3480
330
2
100
AcDbEntity
  8
MECH_KONTUR1
100
AcDbCircle
 10
-32.00000000000009
 20
177.7999999999999
 30
0.0
 40
3.0
100
AcDbArc
 50
89.99999999999998
 51
180.0
  0
ARC
  5
3481
330
2
100
AcDbEntity
  8
MECH_KONTUR1
100
AcDbCircle
 10
-28.00000000000011
 20
177.7999999999998
 30
0.0
 40
3.0
100
AcDbArc
 50
359.9999999999999
 51
89.99999999999998
  0
ARC
  5
3482
330
2
100
AcDbEntity
  8
MECH_KONTUR2
100
AcDbCircle
 10
18.19024293495608
 20
151.1320508075689
 30
0.0
 40
3.0
100
AcDbArc
 50
29.99999999999998
 51
120.0
  0
LINE
  5
362B
330
2
100
AcDbEntity
  8
MECH_KONTUR1
100
AcDbLine
 10
202.819090885901
 20
109.9691342134897
 30
0.0
 11
208.1931024229187
 21
104.5951226764719
 31
0.0
  0
LINE
  5
362C
330
2
100
AcDbEntity
  8
MECH_KONTUR1
100
AcDbLine
 10
196.0308657865101
 20
103.1809091140989
 30
0.0
 11
201.4048773235279
 21
97.80689757708115
 31
0.0
  0
LINE
  5
362D
330
2
100
AcDbEntity
  8
MECH_KONTUR1
100
AcDbLine
 10
202.819090885901
 20
97.80689757708115
 30
0.0
 11
208.1931024229187
 21
103.1809091140988
 31
0.0
  0
ARC
  5
362E
330
2
100
AcDbEntity
  8
MECH_KONTUR1
100
AcDbCircle
 10
202.1119841047144
 20
98.51400435826775
 30
0.0
 40
1.0
100
AcDbArc
 50
225.0
 51
315.0
  0
ARC
  5
3630
330
2
100
AcDbEntity
  8
MECH_KONTUR1
100
AcDbCircle
 10
207.4859956417321
 20
103.8880158952854
 30
0.0
 40
1.0
100
AcDbArc
 50
315.0
 51
45.0
  0
LINE
  5
3636
330
2
100
AcDbEntity
  8
MECH_KONTUR1
100
AcDbLine
 10
196.0308657865101
 20
104.595122676472
 30
0.0
 11
201.4048773235279
 21
109.9691342134897
 31
0.0
  0
ARC
  5
3637
330
2
100
AcDbEntity
  8
MECH_KONTUR1
100
AcDbCircle
 10
196.7379725676967
 20
103.8880158952855
 30
0.0
 40
1.0
100
AcDbArc
 50
135.0
 51
225.0
  0
ARC
  5
3638
330
2
100
AcDbEntity
  8
MECH_KONTUR1
100
AcDbCircle
 10
202.1119841047144
 20
109.2620274323032
 30
0.0
 40
1.0
100
AcDbArc
 50
45.0
 51
135.0
  0
LINE
  5
364B
330
2
100
AcDbEntity
  8
HILFSLINIEN3
100
AcDbLine
 10
193.3686087553428
 20
107.4482985385597
 30
0.0
 11
193.6054895270403
 21
107.2114177668622
 31
0.0
  0
LINE
  5
364C
330
2
100
AcDbEntity
  8
HILFSLINIEN3
100
AcDbLine
 10
194.0757155365293
 20
106.7411917573731
 30
0.0
 11
193.0150553647495
 21
106.3876383667799
 31
0.0
  0
LINE
  5
364D
330
2
100
AcDbEntity
  8
HILFSLINIEN3
100
AcDbLine
 10
193.0150553647495
 20
106.3876383667799
 30
0.0
 11
193.3686087553428
 21
107.4482985385597
 31
0.0
  0
LINE
  5
364E
330
2
100
AcDbEntity
  8
HILFSLINIEN3
100
AcDbLine
 10
193.8388347648318
 20
106.9780725290707
 30
0.0
 11
194.0757155365293
 21
106.7411917573731
 31
0.0
  0
LINE
  5
364F
330
2
100
AcDbEntity
  8
HILFSLINIEN3
100
AcDbLine
 10
193.5453854506394
 20
109.746395577416
 30
0.0
 11
193.7822662223369
 21
109.5095148057185
 31
0.0
  0
LINE
  5
3650
330
2
100
AcDbEntity
  8
HILFSLINIEN3
100
AcDbLine
 10
192.8382786694529
 20
109.0392887962294
 30
0.0
 11
193.5453854506394
 21
108.3321820150429
 31
0.0
  0
LINE
  5
3651
330
2
100
AcDbEntity
  8
HILFSLINIEN3
100
AcDbLine
 10
194.252492231826
 20
109.0392887962294
 30
0.0
 11
193.5453854506394
 21
108.3321820150429
 31
0.0
  0
LINE
  5
3652
330
2
100
AcDbEntity
  8
HILFSLINIEN3
100
AcDbLine
 10
193.5453854506394
 20
109.746395577416
 30
0.0
 11
192.8382786694529
 21
109.0392887962294
 31
0.0
  0
LINE
  5
3653
330
2
100
AcDbEntity
  8
HILFSLINIEN3
100
AcDbLine
 10
194.513657304595
 20
109.7742154123934
 30
0.0
 11
194.0156114601285
 21
109.2761695679269
 31
0.0
  0
LINE
  5
3654
330
2
100
AcDbEntity
  8
HILFSLINIEN3
100
AcDbLine
 10
194.3896051299498
 20
110.1168537133313
 30
0.0
 11
193.7822662223369
 21
109.5095148057185
 31
0.0
  0
LINE
  5
3655
330
2
100
AcDbEntity
  8
HILFSLINIEN3
100
AcDbLine
 10
194.0156114601285
 20
109.2761695679269
 30
0.0
 11
194.252492231826
 21
109.0392887962294
 31
0.0
  0
ARC
  5
3656
330
2
100
AcDbEntity
  8
HILFSLINIEN3
100
AcDbCircle
 10
198.7885822331376
 20
112.161165235168
 30
0.0
 40
0.8349999999999999
100
AcDbArc
 50
236.3969285288319
 51
213.6030714711681
  0
LINE
  5
3657
330
2
100
AcDbEntity
  8
HILFSLINIEN3
100
AcDbLine
 10
198.0931177691023
 20
111.6990460089243
 30
0.0
 11
196.9965309790997
 21
110.6024592189216
 31
0.0
  0
LINE
  5
3658
330
2
100
AcDbEntity
  8
HILFSLINIEN3
100
AcDbLine
 10
198.3264630068939
 20
111.4657007711327
 30
0.0
 11
198.2026445396951
 21
111.3418823039339
 31
0.0
  0
ARC
  5
3659
330
2
100
AcDbEntity
  8
HILFSLINIEN3
100
AcDbCircle
 10
196.5505892706823
 20
107.801851929153
 30
0.0
 40
0.5
100
AcDbArc
 50
64.26877549148233
 51
25.73122450851767
  0
LINE
  5
365A
330
2
100
AcDbEntity
  8
HILFSLINIEN3
100
AcDbLine
 10
197.6506047980088
 20
108.668522218688
 30
0.0
 11
197.0010095487458
 21
108.0189269694249
 31
0.0
  0
LINE
  5
365B
330
2
100
AcDbEntity
  8
HILFSLINIEN3
100
AcDbLine
 10
197.3168391933274
 20
108.8014470895896
 30
0.0
 11
196.7676643109542
 21
108.2522722072165
 31
0.0
  0
LINE
  5
365C
330
2
100
AcDbEntity
  8
HILFSLINIEN3
100
AcDbLine
 10
197.9431229230356
 20
109.4030159836064
 30
0.0
 11
197.9101264146683
 21
110.6073885390154
 31
0.0
  0
LINE
  5
365D
330
2
100
AcDbEntity
  8
HILFSLINIEN3
100
AcDbLine
 10
197.6093573183542
 20
109.5359408545079
 30
0.0
 11
197.5770198722719
 21
110.7162576365107
 31
0.0
  0
ARC
  5
365E
330
2
100
AcDbEntity
  8
HILFSLINIEN3
100
AcDbCircle
 10
198.9097513208817
 20
110.6347755227474
 30
0.0
 40
1.0
100
AcDbArc
 50
135.0
 51
181.5693548047502
  0
ARC
  5
365F
330
2
100
AcDbEntity
  8
HILFSLINIEN3
100
AcDbCircle
 10
196.6097324121408
 20
109.5085538707762
 30
0.0
 40
1.0
100
AcDbArc
 50
315.0
 51
1.56935480475025
  0
LINE
  5
3660
330
2
100
AcDbEntity
  8
HILFSLINIEN3
100
AcDbLine
 10
193.8388347648318
 20
106.9780725290707
 30
0.0
 11
197.5770198722719
 21
110.7162576365107
 31
0.0
  0
LINE
  5
3661
330
2
100
AcDbEntity
  8
HILFSLINIEN3
100
AcDbLine
 10
196.1988884518707
 20
110.3136727936405
 30
0.0
 11
195.1872476571788
 21
110.4056401386125
 31
0.0
  0
LINE
  5
3662
330
2
100
AcDbEntity
  8
HILFSLINIEN3
100
AcDbLine
 10
196.3615924506837
 20
109.9675206905055
 30
0.0
 11
195.311299831824
 21
110.0630018376746
 31
0.0
  0
ARC
  5
3663
330
2
100
AcDbEntity
  8
HILFSLINIEN3
100
AcDbCircle
 10
196.2894241979132
 20
111.3095660001082
 30
0.0
 40
1.0
100
AcDbArc
 50
264.8055710922662
 51
315.0
  0
ARC
  5
3664
330
2
100
AcDbEntity
  8
HILFSLINIEN3
100
AcDbCircle
 10
195.2207640857815
 20
109.0671086312069
 30
0.0
 40
1.0
100
AcDbArc
 50
84.8055710922663
 51
135.0
  0
ARC
  5
3665
330
2
100
AcDbEntity
  8
HILFSLINIEN3
100
AcDbCircle
 10
196.9434980168223
 20
109.3756289998746
 30
0.0
 40
1.0
100
AcDbArc
 50
315.0
 51
1.56935480475025
  0
ARC
  5
3666
330
2
100
AcDbEntity
  8
HILFSLINIEN3
100
AcDbCircle
 10
195.0967119111363
 20
109.4097469321448
 30
0.0
 40
1.0
100
AcDbArc
 50
84.8055710922663
 51
135.0
  0
LINE
  5
3667
330
2
100
AcDbEntity
  8
HILFSLINIEN3
100
AcDbLine
 10
193.6054895270403
 20
107.2114177668622
 30
0.0
 11
196.3615924506837
 21
109.9675206905055
 31
0.0
  0
HATCH
  5
3668
330
2
100
AcDbEntity
  8
DRUCK_SCHWARZ
100
AcDbHatch
 10
0.0
 20
0.0
 30
0.0
210
0.0
220
0.0
230
1.0
  2
SOLID
 70
     1
 71
     0
 91
        1
 92
        7
 72
     1
 73
     1
 93
       29
 10
197.5770198722719
 20
110.7162576365107
 42
0.0
 10
197.6093573183541
 20
109.535940854508
 42
-0.2060407233684638
 10
197.3168391933273
 20
108.8014470895896
 42
0.0
 10
196.7676643109543
 20
108.2522722072166
 42
5.890851309123966
 10
197.0010095487459
 20
108.018926969425
 42
0.0
 10
197.6506047980088
 20
108.668522218688
 42
0.2060407233684495
 10
197.9431229230356
 20
109.4030159836064
 42
0.0
 10
197.9101264146683
 20
110.6073885390154
 42
-0.2060407233684482
 10
198.2026445396951
 20
111.3418823039339
 42
0.0
 10
198.3264630068939
 20
111.4657007711327
 42
10.02142592234745
 10
198.0931177691023
 20
111.6990460089243
 42
0.0
 10
196.9965309790997
 20
110.6024592189216
 42
-0.2225848818878083
 10
196.1988884518707
 20
110.3136727936405
 42
0.0
 10
195.1872476571788
 20
110.4056401386125
 42
0.2225848818878075
 10
194.3896051299498
 20
110.1168537133313
 42
0.0
 10
193.7822662223369
 20
109.5095148057185
 42
0.0
 10
193.5453854506394
 20
109.746395577416
 42
0.0
 10
192.8382786694529
 20
109.0392887962294
 42
0.0
 10
193.5453854506394
 20
108.3321820150429
 42
0.0
 10
194.252492231826
 20
109.0392887962294
 42
0.0
 10
194.0156114601285
 20
109.2761695679269
 42
0.0
 10
194.513657304595
 20
109.7742154123934
 42
-0.2225848818877871
 10
195.311299831824
 20
110.0630018376746
 42
0.0
 10
196.3615924506837
 20
109.9675206905057
 42
0.0
 10
193.6054895270403
 20
107.2114177668622
 42
0.0
 10
193.3686087553428
 20
107.4482985385597
 42
0.0
 10
193.0150553647495
 20
106.3876383667798
 42
0.0
 10
194.0757155365293
 20
106.7411917573731
 42
0.0
 10
193.8388347648318
 20
106.9780725290707
 42
0.0
 97
        0
 75
     0
 76
     1
 47
0.0261275485112655
 98
        1
 10
196.7731610975037
 20
110.1950521600913
  0
TEXT
  5
366A
330
2
100
AcDbEntity
  8
DRUCK_FARBE1
100
AcDbText
 10
204.6510062972312
 20
132.0868054696137
 30
0.0
 40
2.0
  1
Type:
 50
225.0
 41
1.07
  7
HELV_N_BOLD
 72
     2
 11
198.8946482503156
 21
127.2578950135008
 31
0.0
100
AcDbText
 73
     1
  0
TEXT
  5
366B
330
2
100
AcDbEntity
  8
DRUCK_FARBE1
100
AcDbText
 10
200.1074635920648
 20
144.5138255129244
 30
0.0
 40
2.0
  1
Serial No:
 50
225.0
 41
1.07
  7
HELV_N_BOLD
 72
     2
 11
190.4093668760771
 21
135.7431763877394
 31
0.0
100
AcDbText
 73
     1
  0
TEXT
  5
366C
330
2
100
AcDbEntity
  8
DRUCK_FARBE1
100
AcDbText
 10
208.2236669095163
 20
141.3163203313911
 30
0.0
 40
2.0
  1
Wavelength:
 50
225.0
 41
1.07
  7
HELV_N_BOLD
 72
     2
 11
196.0662211255694
 21
130.086322138247
 31
0.0
100
AcDbText
 73
     1
  0
TEXT
  5
366D
330
2
100
AcDbEntity
  8
DRUCK_FARBE1
100
AcDbText
 10
202.4027235629803
 20
141.1522312343475
 30
0.0
 40
2.0
  1
Aperture:
 50
225.0
 41
1.07
  7
HELV_N_BOLD
 72
     2
 11
193.2377940008232
 21
132.9147492629932
 31
0.0
100
AcDbText
 73
     1
  0
LINE
  5
3672
330
2
100
AcDbEntity
  8
MECH_KONTUR1
100
AcDbLine
 10
200.76848122046
 20
124.3234018715766
 30
0.0
 11
189.8083261120685
 21
135.2835569799681
 31
0.0
  0
LINE
  5
3673
330
2
100
AcDbEntity
  8
MECH_KONTUR1
100
AcDbLine
 10
200.76848122046
 20
122.9091883092035
 30
0.0
 11
171.4235498012183
 21
93.56425688996186
 31
0.0
  0
LINE
  5
3674
330
2
100
AcDbEntity
  8
MECH_KONTUR1
100
AcDbLine
 10
188.3941125496954
 20
135.2835569799681
 30
0.0
 11
159.0491811304537
 21
105.9386255607264
 31
0.0
  0
LINE
  5
3675
330
2
100
AcDbEntity
  8
MECH_KONTUR1
100
AcDbLine
 10
170.0093362388452
 20
93.56425688996187
 30
0.0
 11
159.0491811304537
 21
104.5244119983533
 31
0.0
  0
ARC
  5
3676
330
2
100
AcDbEntity
  8
MECH_KONTUR1
100
AcDbCircle
 10
200.0613744392734
 20
123.6162950903901
 30
0.0
 40
1.0
100
AcDbArc
 50
315.0
 51
45.0
  0
ARC
  5
3677
330
2
100
AcDbEntity
  8
MECH_KONTUR1
100
AcDbCircle
 10
170.7164430200317
 20
94.27136367114846
 30
0.0
 40
1.0
100
AcDbArc
 50
225.0
 51
315.0
  0
ARC
  5
3678
330
2
100
AcDbEntity
  8
MECH_KONTUR1
100
AcDbCircle
 10
159.7562879116402
 20
105.2315187795399
 30
0.0
 40
1.0
100
AcDbArc
 50
135.0
 51
225.0
  0
ARC
  5
3679
330
2
100
AcDbEntity
  8
MECH_KONTUR1
100
AcDbCircle
 10
189.1012193308819
 20
134.5764501987816
 30
0.0
 40
1.0
100
AcDbArc
 50
45.0
 51
135.0
  0
HATCH
  5
3681
330
2
100
AcDbEntity
  8
DRUCK_SCHWARZ
100
AcDbHatch
 10
0.0
 20
0.0
 30
0.0
210
0.0
220
0.0
230
1.0
  2
SOLID
 70
     1
 71
     1
 91
       13
 92
        7
 72
     1
 73
     1
 93
       67
 10
167.3399345935831
 20
125.7154936653805
 42
0.0
 10
167.4001122162668
 20
125.8012550442566
 42
0.0
 10
167.4849650300092
 20
125.7164022305142
 42
0.0
 10
167.7678077424838
 20
125.9992449429888
 42
0.0
 10
167.6122442506228
 20
126.1548084348498
 42
0.0
 10
167.631561050391
 20
126.1931739726623
 42
0.0
 10
167.657449645544
 20
126.2493967114502
 42
0.0
 10
167.6869114673318
 20
126.3252517527317
 42
0.0
 10
167.7063861452259
 20
126.3953308069683
 42
0.0
 10
167.7217411878864
 20
126.4742804349091
 42
0.0
 10
167.7294241945285
 20
126.5279740010317
 42
0.0
 10
167.7324706169343
 20
126.5867182400617
 42
0.0
 10
167.7262341269126
 20
126.6393655550512
 42
0.0
 10
167.7137489376253
 20
126.6804111981749
 42
0.0
 10
167.6905560208551
 20
126.7232393832161
 42
0.0
 10
167.6617417253058
 20
126.7558491988583
 42
0.0
 10
167.8173052171669
 20
126.9114126907194
 42
0.0
 10
167.598102114999
 20
127.1306157928872
 42
0.0
 10
167.3933598017255
 20
126.9258734796136
 42
0.0
 10
167.1102671172324
 20
127.1845515999409
 42
0.0
 10
169.7190000612577
 20
127.0956828511289
 42
0.0
 10
169.542902533881
 20
127.2717803785056
 42
0.0
 10
166.9169055262696
 20
127.3612372426071
 42
0.0
 10
164.7440212539327
 20
129.3467269781099
 42
0.0
 10
164.7060353799461
 20
131.9601551083913
 42
0.0
 10
164.5360533344431
 20
131.9576844391253
 42
0.0
 10
164.5717148336095
 20
129.5041732964752
 42
0.0
 10
163.9571394984292
 20
130.0657462413524
 42
0.0
 10
163.9309244455379
 20
130.0849070169285
 42
0.0
 10
163.8974892378961
 20
130.0951364621523
 42
0.0
 10
163.862232300259
 20
130.0935376417462
 42
0.0
 10
163.8362940390866
 20
130.0721800026233
 42
0.0
 10
163.65951734379
 20
129.8954033073267
 42
0.0
 10
163.3696035635035
 20
130.1853170876131
 42
0.0
 10
163.0938319188407
 20
129.9095454429503
 42
0.0
 10
163.3837456991271
 20
129.6196316626638
 42
0.0
 10
162.5014487361136
 20
128.7373346996503
 42
1.116958201496152
 10
162.1164823373559
 20
127.5247678192207
 42
0.0
 10
160.1946941159759
 20
127.5902352006585
 42
0.0
 10
160.1889062760033
 20
127.4203337559664
 42
0.0
 10
162.8345147969657
 20
127.3302088086647
 42
0.0
 10
164.5071858188932
 20
125.3973445166596
 42
0.0
 10
164.0201418021951
 20
124.9103004999614
 42
0.0
 10
164.5151165490256
 20
124.4153257531308
 42
0.0
 10
164.6438100951963
 20
124.5440192993015
 42
0.0
 10
164.6750354333507
 20
122.3957160342853
 42
0.0
 10
164.847561029219
 20
122.223190438417
 42
0.0
 10
164.8113922642489
 20
124.7116014683541
 42
0.0
 10
164.9664407386329
 20
124.8666499427381
 42
0.0
 10
165.1370211373934
 20
124.6695348152815
 42
0.0
 10
164.8545278039953
 20
124.3870414818834
 42
0.0
 10
164.9933818805684
 20
124.2481874053103
 42
1.222893720549175
 10
165.3852746360025
 20
124.2588030995133
 42
0.0
 10
165.4561748931002
 20
124.2593613503611
 42
0.0
 10
165.5755468082381
 20
124.2780137043643
 42
0.0
 10
165.7073426322283
 20
124.3187479835112
 42
0.0
 10
165.8276797622144
 20
124.3728574290187
 42
0.0
 10
165.9413237478287
 20
124.4336590857402
 42
0.0
 10
166.0582728337613
 20
124.5030499018042
 42
0.0
 10
166.1725799971899
 20
124.5764042247777
 42
0.0
 10
166.2677269540463
 20
124.6438088838873
 42
0.0
 10
166.3465231122988
 20
124.7052395334173
 42
0.0
 10
166.4738023329124
 20
124.5779603128037
 42
0.0
 10
167.1809091140989
 20
125.2850670939903
 42
0.0
 10
167.076302262666
 20
125.3896739454232
 42
0.0
 10
167.1650669475057
 20
125.4903070968989
 42
0.0
 10
167.2544871520327
 20
125.6009141162959
 42
0.0
 97
        1
330
3682
 92
       22
 72
     0
 73
     1
 93
       10
 10
167.0536298934854
 20
126.147737367038
 10
167.2749975312258
 20
125.9263697292975
 10
167.0826644321332
 20
125.66846335588
 10
166.9490230420525
 20
125.5169531660367
 10
166.8697821303769
 20
125.5961940777124
 10
166.1626753491903
 20
124.8890872965258
 10
166.2239697521916
 20
124.8277928935245
 10
165.9215956244407
 20
124.6117834618861
 10
165.5386873115835
 20
124.4353304754968
 10
165.3461242069826
 20
124.4402316805351
 97
        1
330
3684
 92
       22
 72
     0
 73
     1
 93
       10
 10
165.2717208048953
 20
124.8042344827835
 10
164.8021591598589
 20
125.3468390503809
 10
164.7936415298276
 20
125.9328519965428
 10
164.8969542108664
 20
125.829539315504
 10
165.8091219585971
 20
126.7417070632346
 10
165.5262792461224
 20
127.0245497757093
 10
164.7884974028524
 20
126.2867679324392
 10
164.7742915787406
 20
127.2641286313258
 10
166.8176932521505
 20
127.1945183822382
 10
167.2588731633321
 20
126.7913868412203
 97
        1
330
3685
 92
       22
 72
     0
 73
     1
 93
        3
 10
167.33647260596
 20
126.4305800795125
 10
167.5765649600044
 20
126.670672433557
 10
167.4983794721524
 20
126.2686732133202
 97
        1
330
3686
 92
       22
 72
     0
 73
     1
 93
        4
 10
166.8591755286591
 20
125.3451711703912
 10
166.9298862067777
 20
125.2744604922725
 10
166.4738023329125
 20
124.8183766184072
 10
166.4030916547938
 20
124.8890872965259
 97
        1
330
3687
 92
       22
 72
     0
 73
     1
 93
        3
 10
166.6243316611877
 20
127.3712040249044
 10
164.7718179904062
 20
127.4343115087336
 10
164.7478125204852
 20
129.0858878393041
 97
        1
330
3688
 92
       22
 72
     0
 73
     1
 93
        3
 10
164.6292368231329
 20
125.5466604172645
 10
163.0934138483871
 20
127.3213891880818
 10
164.6041893973727
 20
127.2699233095672
 97
        1
330
3689
 92
       22
 72
     0
 73
     1
 93
        4
 10
164.5151165490257
 20
124.669884194358
 10
164.2676291756104
 20
124.9173715677733
 10
164.5151165490257
 20
125.1648589411886
 10
164.762603922441
 20
124.9173715677733
 97
        1
330
368A
 92
       22
 72
     1
 73
     1
 93
        6
 10
164.6017158090383
 20
127.440106186975
 42
0.0
 10
162.9417418230689
 20
127.4966546395605
 42
0.0
 10
162.731175010667
 20
127.7399762894472
 42
0.4121736289231209
 10
162.6575780666808
 20
128.6389055889903
 42
0.0
 10
163.8891603497771
 20
129.8704878720866
 42
0.0
 10
164.5755061001619
 20
129.2433341576694
 42
0.0
 97
        1
330
368B
 92
       22
 72
     1
 73
     1
 93
        3
 10
162.6828427716474
 20
127.5054742601435
 42
0.0
 10
162.324052623094
 20
127.5176967575291
 42
0.111372112156382
 10
162.5885251626395
 20
127.6144634972193
 42
0.0
 97
        1
330
368C
 92
       22
 72
     1
 73
     1
 93
        2
 10
161.906768247511
 20
128.1523850917018
 42
-1.0
 10
162.576768247511
 20
128.1523850917018
 42
-1.0
 97
        1
330
368D
 92
        6
 72
     1
 73
     1
 93
        2
 10
162.026768247511
 20
128.1523850917018
 42
-1.0
 10
162.456768247511
 20
128.1523850917018
 42
-1.0
 97
        1
330
368E
 92
        7
 72
     0
 73
     1
 93
        4
 10
163.3766746313153
 20
132.7238304320728
 10
162.3725830020305
 20
133.7279220613577
 10
158.2147951286535
 20
129.5701341879808
 10
159.2188867579384
 20
128.5660425586959
 97
        1
330
3683
 75
     0
 76
     1
 47
0.0223097176090026
 98
       13
 10
166.8773972069623
 20
126.0774123290554
 10
166.8773972069623
 20
126.0774123290554
 10
166.8773972069623
 20
126.0774123290554
 10
166.8773972069623
 20
126.0774123290554
 10
166.8773972069623
 20
126.0774123290554
 10
166.8773972069623
 20
126.0774123290554
 10
166.8773972069623
 20
126.0774123290554
 10
166.8773972069623
 20
126.0774123290554
 10
166.8773972069623
 20
126.0774123290554
 10
166.8773972069623
 20
126.0774123290554
 10
166.8773972069623
 20
126.0774123290554
 10
166.8773972069623
 20
126.0774123290554
 10
160.7877778833623
 20
130.399526237348
  0
LWPOLYLINE
  5
3682
102
{ACAD_REACTORS
330
3681
102
}
330
2
100
AcDbEntity
  8
HILFSLINIEN3
100
AcDbPolyline
 90
       67
 70
     1
 43
0.0
 10
163.9571394984293
 20
130.0657462413524
 10
164.5717148336095
 20
129.5041732964752
 10
164.5360533344431
 20
131.9576844391253
 10
164.706035379946
 20
131.9601551083913
 10
164.7440212539327
 20
129.34672697811
 10
166.9169055262696
 20
127.3612372426071
 10
169.5429025338809
 20
127.2717803785057
 10
169.7190000612577
 20
127.0956828511289
 10
167.1102671172324
 20
127.1845515999409
 10
167.3933598017254
 20
126.9258734796136
 10
167.598102114999
 20
127.1306157928872
 10
167.8173052171669
 20
126.9114126907194
 10
167.6617417253058
 20
126.7558491988583
 10
167.690556020855
 20
126.723239383216
 10
167.7137489376252
 20
126.6804111981749
 10
167.7262341269126
 20
126.6393655550512
 10
167.7324706169344
 20
126.5867182400617
 10
167.7294241945285
 20
126.5279740010316
 10
167.7217411878864
 20
126.4742804349088
 10
167.7063861452258
 20
126.395330806968
 10
167.6869114673319
 20
126.325251752732
 10
167.657449645544
 20
126.2493967114504
 10
167.6315610503911
 20
126.1931739726625
 10
167.6122442506228
 20
126.1548084348498
 10
167.7678077424838
 20
125.9992449429888
 10
167.4849650300092
 20
125.7164022305142
 10
167.4001122162668
 20
125.8012550442566
 10
167.3399345935831
 20
125.7154936653805
 10
167.2544871520329
 20
125.6009141162962
 10
167.1650669475059
 20
125.4903070968992
 10
167.076302262666
 20
125.3896739454232
 10
167.1809091140989
 20
125.2850670939903
 10
166.4738023329124
 20
124.5779603128037
 10
166.3465231122988
 20
124.7052395334173
 10
166.2677269540462
 20
124.6438088838872
 10
166.1725799971899
 20
124.5764042247777
 10
166.058272833761
 20
124.5030499018041
 10
165.9413237478289
 20
124.4336590857403
 10
165.8276797622143
 20
124.3728574290188
 10
165.7073426322283
 20
124.3187479835112
 10
165.5755468082381
 20
124.2780137043643
 10
165.4561748931001
 20
124.2593613503612
 10
165.3852746360025
 20
124.2588030995133
 42
-1.222893720549175
 10
164.9933818805684
 20
124.2481874053103
 10
164.8545278039952
 20
124.3870414818834
 10
165.1370211373933
 20
124.6695348152815
 10
164.9664407386329
 20
124.8666499427381
 10
164.8113922642489
 20
124.7116014683541
 10
164.847561029219
 20
122.223190438417
 10
164.6750354333507
 20
122.3957160342853
 10
164.6438100951963
 20
124.5440192993015
 10
164.5151165490256
 20
124.4153257531308
 10
164.0201418021951
 20
124.9103004999614
 10
164.5071858188932
 20
125.3973445166596
 10
162.8345147969657
 20
127.3302088086647
 10
160.1889062760034
 20
127.4203337559664
 10
160.1946941159759
 20
127.5902352006585
 10
162.1164823373558
 20
127.5247678192207
 42
-1.116958201495945
 10
162.5014487361136
 20
128.7373346996503
 10
163.3837456991272
 20
129.6196316626639
 10
163.0938319188407
 20
129.9095454429503
 10
163.3696035635035
 20
130.1853170876131
 10
163.65951734379
 20
129.8954033073267
 10
163.8362940390866
 20
130.0721800026233
 10
163.862232300259
 20
130.0935376417463
 10
163.8974892378961
 20
130.0951364621523
 10
163.9309244455379
 20
130.0849070169285
  0
LWPOLYLINE
  5
3683
102
{ACAD_REACTORS
330
3681
102
}
330
2
100
AcDbEntity
  8
HILFSLINIEN3
100
AcDbPolyline
 90
        4
 70
     1
 43
0.0
 10
162.3725830020305
 20
133.7279220613577
 10
163.3766746313153
 20
132.7238304320728
 10
159.2188867579384
 20
128.5660425586959
 10
158.2147951286535
 20
129.5701341879808
  0
LWPOLYLINE
  5
3684
102
{ACAD_REACTORS
330
3681
102
}
330
2
100
AcDbEntity
  8
HILFSLINIEN3
100
AcDbPolyline
 90
       18
 70
     1
 43
0.0
 10
167.2728329956532
 20
125.9285342648701
 10
167.2126553729695
 20
125.8427728859941
 10
167.1272079314194
 20
125.7281933369098
 10
167.0377877268924
 20
125.6175863175128
 10
166.9490230420525
 20
125.5169531660368
 10
166.8697821303769
 20
125.5961940777124
 10
166.1626753491903
 20
124.8890872965258
 10
166.2192438916852
 20
124.8325187540309
 10
166.1065854417288
 20
124.7439361218657
 10
166.0031618282522
 20
124.6700525653219
 10
165.9035952591726
 20
124.612869425619
 10
165.7956783631285
 20
124.5537578822618
 10
165.6813397808623
 20
124.5010680251264
 10
165.5676462513627
 20
124.4631509778638
 10
165.4558819478673
 20
124.4374380758426
 10
165.3807336325253
 20
124.4393507854582
 10
165.3565736186376
 20
124.4506810921902
 10
167.0536298934854
 20
126.147737367038
  0
LWPOLYLINE
  5
3685
102
{ACAD_REACTORS
330
3681
102
}
330
2
100
AcDbEntity
  8
HILFSLINIEN3
100
AcDbPolyline
 90
       10
 70
     1
 43
0.0
 10
166.8176932521505
 20
127.1945183822382
 10
164.7742915787406
 20
127.2641286313258
 10
164.7884974028524
 20
126.2867679324392
 10
165.5262792461225
 20
127.0245497757092
 10
165.8091219585971
 20
126.7417070632346
 10
164.8969542108665
 20
125.829539315504
 10
164.7936415298276
 20
125.9328519965428
 10
164.802159159859
 20
125.3468390503809
 10
165.2717208048953
 20
124.8042344827835
 10
167.2588731633321
 20
126.7913868412202
  0
LWPOLYLINE
  5
3686
102
{ACAD_REACTORS
330
3681
102
}
330
2
100
AcDbEntity
  8
HILFSLINIEN3
100
AcDbPolyline
 90
       12
 70
     1
 43
0.0
 10
167.33647260596
 20
126.4305800795126
 10
167.5342197439984
 20
126.6283272175509
 10
167.542061107606
 20
126.6194529620206
 10
167.5468226410886
 20
126.6106602845366
 10
167.5493667582561
 20
126.6022963804805
 10
167.5519191889627
 20
126.5807492244792
 10
167.5500869879004
 20
126.5454188458194
 10
167.5441932311056
 20
126.5042296558424
 10
167.5310544073518
 20
126.4366749593259
 10
167.5158809533547
 20
126.3820737324708
 10
167.4916510833568
 20
126.3196893421853
 10
167.4776877567627
 20
126.28936492871
  0
LWPOLYLINE
  5
3687
102
{ACAD_REACTORS
330
3681
102
}
330
2
100
AcDbEntity
  8
HILFSLINIEN3
100
AcDbPolyline
 90
        4
 70
     1
 43
0.0
 10
166.4030916547938
 20
124.8890872965259
 10
166.8591755286591
 20
125.3451711703912
 10
166.9298862067777
 20
125.2744604922725
 10
166.4738023329125
 20
124.8183766184072
  0
LWPOLYLINE
  5
3688
102
{ACAD_REACTORS
330
3681
102
}
330
2
100
AcDbEntity
  8
HILFSLINIEN3
100
AcDbPolyline
 90
        3
 70
     1
 43
0.0
 10
164.7718179904062
 20
127.4343115087336
 10
166.6243316611877
 20
127.3712040249044
 10
164.7478125204851
 20
129.0858878393042
  0
LWPOLYLINE
  5
3689
102
{ACAD_REACTORS
330
3681
102
}
330
2
100
AcDbEntity
  8
HILFSLINIEN3
100
AcDbPolyline
 90
        3
 70
     1
 43
0.0
 10
163.0934138483871
 20
127.3213891880818
 10
164.6041893973727
 20
127.2699233095672
 10
164.6292368231329
 20
125.5466604172645
  0
LWPOLYLINE
  5
368A
102
{ACAD_REACTORS
330
3681
102
}
330
2
100
AcDbEntity
  8
HILFSLINIEN3
100
AcDbPolyline
 90
        5
 70
     1
 43
0.0
 10
164.6401631261243
 20
124.7949307714566
 10
164.5151165490257
 20
124.669884194358
 10
164.2676291756104
 20
124.9173715677733
 10
164.5151165490257
 20
125.1648589411886
 10
164.6365513032241
 20
125.0434241869902
  0
LWPOLYLINE
  5
368B
102
{ACAD_REACTORS
330
3681
102
}
330
2
100
AcDbEntity
  8
HILFSLINIEN3
100
AcDbPolyline
 90
        6
 70
     1
 43
0.0
 10
162.731175010667
 20
127.7399762894472
 10
162.9417418230689
 20
127.4966546395605
 10
164.6017158090383
 20
127.440106186975
 10
164.5755061001619
 20
129.2433341576694
 10
163.8891603497771
 20
129.8704878720866
 10
162.6575780666808
 20
128.6389055889903
 42
-0.4121736289231298
  0
LWPOLYLINE
  5
368C
102
{ACAD_REACTORS
330
3681
102
}
330
2
100
AcDbEntity
  8
HILFSLINIEN3
100
AcDbPolyline
 90
        3
 70
     1
 43
0.0
 10
162.5885251626395
 20
127.6144634972193
 42
-0.1113721121563819
 10
162.324052623094
 20
127.5176967575291
 10
162.6828427716475
 20
127.5054742601435
  0
CIRCLE
  5
368D
102
{ACAD_REACTORS
330
3681
102
}
330
2
100
AcDbEntity
  8
HILFSLINIEN3
100
AcDbCircle
 10
162.2417682475109
 20
128.1523850917018
 30
0.0
 40
0.3350000000000023
  0
CIRCLE
  5
368E
102
{ACAD_REACTORS
330
3681
102
}
330
2
100
AcDbEntity
  8
HILFSLINIEN3
100
AcDbCircle
 10
162.2417682475109
 20
128.1523850917018
 30
0.0
 40
0.2150000000000034
  0
LWPOLYLINE
  5
368F
102
{ACAD_REACTORS
330
3691
102
}
330
2
100
AcDbEntity
  8
DRUCK_FARBE1
100
AcDbPolyline
 90
        4
 70
     1
 43
0.0
 10
181.4213600166323
 20
140.8420959506581
 10
182.4896820937167
 20
139.7737738735737
 42
1.105541596785133
 10
175.4540584539816
 20
146.8093975133088
 10
176.522380531066
 20
145.7410754362244
 42
-1.154700538379251
  0
LWPOLYLINE
  5
3690
102
{ACAD_REACTORS
330
3691
102
}
330
2
100
AcDbEntity
  8
DRUCK_FARBE1
100
AcDbPolyline
 90
        8
 70
     1
 43
0.0
 10
174.2166215869051
 20
137.4402326625871
 10
176.2804531470386
 20
139.5040642227206
 42
-0.3931021519214882
 10
175.4286744626118
 20
134.8139662245073
 10
176.4969965396962
 20
133.7456441474229
 42
1.105541596785133
 10
169.4613728999611
 20
140.781267787158
 10
170.5296949770455
 20
139.7129457100736
 42
-0.3931021519214881
 10
175.2197929752588
 20
140.5647243945004
 10
173.1559614151253
 20
138.5008928343669
  0
HATCH
  5
3691
330
2
100
AcDbEntity
  8
DRUCK_FARBE1
100
AcDbHatch
 10
0.0
 20
0.0
 30
0.0
210
0.0
220
0.0
230
1.0
  2
SOLID
 70
     1
 71
     1
 91
        2
 92
        7
 72
     1
 73
     1
 93
        4
 10
181.4213600166323
 20
140.8420959506581
 42
0.0
 10
182.4896820937167
 20
139.7737738735737
 42
1.105541596785134
 10
175.4540584539816
 20
146.8093975133088
 42
0.0
 10
176.522380531066
 20
145.7410754362244
 42
-1.154700538379249
 97
        1
330
368F
 92
        7
 72
     1
 73
     1
 93
        8
 10
169.4613728999611
 20
140.781267787158
 42
0.0
 10
170.5296949770454
 20
139.7129457100737
 42
-0.3931021519214907
 10
175.2197929752588
 20
140.5647243945004
 42
0.0
 10
173.1559614151253
 20
138.5008928343669
 42
0.0
 10
174.2166215869051
 20
137.4402326625871
 42
0.0
 10
176.2804531470385
 20
139.5040642227205
 42
-0.3931021519214845
 10
175.4286744626118
 20
134.8139662245073
 42
0.0
 10
176.4969965396962
 20
133.7456441474229
 42
1.105541596785133
 97
        1
330
3690
 75
     0
 76
     1
 47
0.0677240515209998
 98
        2
 10
182.9068964842683
 20
145.2987006786065
 10
177.4447076359325
 20
139.2139660494008
  0
CIRCLE
  5
3697
330
2
100
AcDbEntity
  8
MECH_KONTUR1
100
AcDbCircle
 10
185.0
 20
120.9999999999999
 30
0.0
 40
33.92264973081042
  0
CIRCLE
  5
3698
330
2
100
AcDbEntity
  8
MECH_KONTUR1
100
AcDbCircle
 10
192.3539105243401
 20
99.36253249569155
 30
0.0
 40
1.55
  0
LINE
  5
37C8
330
2
100
AcDbEntity
  8
MECH_KONTUR1
100
AcDbLine
 10
106.4999999999999
 20
157.9999999999998
 30
0.0
 11
106.4999999999999
 21
84.00000000000021
 31
0.0
  0
LINE
  5
37C9
330
2
100
AcDbEntity
  8
MECH_KONTUR1
100
AcDbLine
 10
46.49999999999994
 20
158.0
 30
0.0
 11
46.49999999999995
 21
84.00000000000002
 31
0.0
  0
LINE
  5
37CA
330
2
100
AcDbEntity
  8
MECH_KONTUR1
100
AcDbLine
 10
103.4999999999998
 20
160.9999999999999
 30
0.0
 11
103.4999999999997
 21
80.99999999999988
 31
0.0
  0
LINE
  5
37CB
330
2
100
AcDbEntity
  8
MECH_KONTUR1
100
AcDbLine
 10
81.49999999999982
 20
156.4999999999999
 30
0.0
 11
81.49999999999982
 21
140.9999999999999
 31
0.0
  0
LINE
  5
37CC
330
2
100
AcDbEntity
  8
MECH_KONTUR1
100
AcDbLine
 10
71.49999999999983
 20
156.4999999999999
 30
0.0
 11
71.49999999999983
 21
140.9999999999999
 31
0.0
  0
LINE
  5
37CE
330
2
100
AcDbEntity
  8
MECH_KONTUR1
100
AcDbLine
 10
49.50000000000006
 20
80.99999999999988
 30
0.0
 11
103.4999999999996
 21
80.99999999999992
 31
0.0
  0
LINE
  5
37CF
330
2
100
AcDbEntity
  8
MECH_KONTUR1
100
AcDbLine
 10
54.09999999999996
 20
76.69999999999994
 30
0.0
 11
98.89999999999995
 21
76.69999999999996
 31
0.0
  0
LINE
  5
37D0
330
2
100
AcDbEntity
  8
MECH_KONTUR1
100
AcDbLine
 10
46.50000000000008
 20
83.99999999999986
 30
0.0
 11
49.50000000000009
 21
80.99999999999985
 31
0.0
  0
LINE
  5
37D1
330
2
100
AcDbEntity
  8
MECH_KONTUR1
100
AcDbLine
 10
54.09999999999996
 20
80.99999999999992
 30
0.0
 11
54.09999999999996
 21
76.69999999999994
 31
0.0
  0
LINE
  5
37D2
330
2
100
AcDbEntity
  8
MECH_KONTUR1
100
AcDbLine
 10
98.89999999999995
 20
80.99999999999992
 30
0.0
 11
98.89999999999995
 21
76.69999999999996
 31
0.0
  0
ELLIPSE
  5
37D3
330
2
100
AcDbEntity
  8
MECH_KONTUR1
100
AcDbEllipse
 10
76.49999999999983
 20
140.9999999999999
 30
0.0
 11
5.0
 21
0.0
 31
0.0
210
0.0
220
0.0
230
1.0
 40
0.8330822928712109
 41
3.141592653589793
 42
6.283185307179586
  0
LINE
  5
37D4
330
2
100
AcDbEntity
  8
MECH_KONTUR1
100
AcDbLine
 10
103.4999999999996
 20
80.99999999999988
 30
0.0
 11
106.4999999999996
 21
83.99999999999989
 31
0.0
  0
LINE
  5
37D6
330
2
100
AcDbEntity
  8
MECH_KONTUR1
100
AcDbLine
 10
81.49999999999995
 20
160.9999999999999
 30
0.0
 11
103.4999999999998
 21
160.9999999999999
 31
0.0
  0
LINE
  5
37D7
330
2
100
AcDbEntity
  8
MECH_KONTUR1
100
AcDbLine
 10
71.49999999999983
 20
156.4999999999999
 30
0.0
 11
81.49999999999982
 21
156.4999999999999
 31
0.0
  0
ARC
  5
37D8
330
2
100
AcDbEntity
  8
MECH_KONTUR1
100
AcDbCircle
 10
74.49999999999994
 20
177.6999999999999
 30
0.0
 40
3.0
100
AcDbArc
 50
90.00000000000003
 51
180.0
  0
LINE
  5
37D9
330
2
100
AcDbEntity
  8
MECH_KONTUR1
100
AcDbLine
 10
71.49999999999995
 20
156.4999999999999
 30
0.0
 11
71.49999999999995
 21
177.7999999999999
 31
0.0
  0
LINE
  5
37DA
330
2
100
AcDbEntity
  8
MECH_KONTUR1
100
AcDbLine
 10
49.49999999999985
 20
160.9999999999999
 30
0.0
 11
71.49999999999995
 21
160.9999999999999
 31
0.0
  0
LINE
  5
37DB
330
2
100
AcDbEntity
  8
MECH_KONTUR1
100
AcDbLine
 10
46.49999999999979
 20
157.9999999999999
 30
0.0
 11
49.4999999999998
 21
160.9999999999999
 31
0.0
  0
LINE
  5
37DC
330
2
100
AcDbEntity
  8
MECH_KONTUR1
100
AcDbLine
 10
81.49999999999982
 20
156.4999999999999
 30
0.0
 11
81.49999999999995
 21
177.7999999999999
 31
0.0
  0
ARC
  5
37DD
330
2
100
AcDbEntity
  8
MECH_KONTUR1
100
AcDbCircle
 10
78.49999999999994
 20
177.6999999999999
 30
0.0
 40
3.0
100
AcDbArc
 50
0.0
 51
90.00000000000003
  0
LINE
  5
37DE
330
2
100
AcDbEntity
  8
MECH_KONTUR1
100
AcDbLine
 10
74.49999999999994
 20
180.6999999999999
 30
0.0
 11
78.49999999999994
 21
180.6999999999999
 31
0.0
  0
LINE
  5
37DF
330
2
100
AcDbEntity
  8
MECH_KONTUR1
100
AcDbLine
 10
103.4999999999998
 20
160.9999999999999
 30
0.0
 11
106.4999999999998
 21
157.9999999999999
 31
0.0
  0
LINE
  5
38FF
330
2
100
AcDbEntity
  8
MECH_KONTUR1
100
AcDbLine
 10
49.49999999999985
 20
160.9999999999999
 30
0.0
 11
49.50000000000009
 21
80.99999999999985
 31
0.0
  0
LINE
  5
3900
330
2
100
AcDbEntity
  8
MECH_KONTUR1
100
AcDbLine
 10
-105.5000000000001
 20
55.00000000000006
 30
0.0
 11
-105.4999999999999
 21
-25.00000000000003
 31
0.0
  0
LINE
  5
3901
330
2
100
AcDbEntity
  8
MECH_KONTUR1
100
AcDbLine
 10
-56.10000000000006
 20
25.0
 30
0.0
 11
-100.9
 21
25.0
 31
0.0
  0
LINE
  5
3902
330
2
100
AcDbEntity
  8
MECH_KONTUR1
100
AcDbLine
 10
-56.10000000000005
 20
5.0
 30
0.0
 11
-56.10000000000006
 21
25.0
 31
0.0
  0
LINE
  5
3903
330
2
100
AcDbEntity
  8
MECH_KONTUR1
100
AcDbLine
 10
-56.10000000000005
 20
5.0
 30
0.0
 11
-100.9
 21
5.0
 31
0.0
  0
LINE
  5
3904
330
2
100
AcDbEntity
  8
MECH_KONTUR1
100
AcDbLine
 10
-100.9
 20
5.0
 30
0.0
 11
-100.9
 21
25.0
 31
0.0
  0
LINE
  5
39B0
330
2
100
AcDbEntity
  8
MECH_MITTELLINIE
100
AcDbLine
 10
-93.50000000000006
 20
15.0
 30
0.0
 11
-63.50000000000007
 21
15.0
 31
0.0
  0
CIRCLE
  5
39C1
330
2
100
AcDbEntity
  8
MECH_KONTUR1
100
AcDbCircle
 10
-88.50000000000006
 20
15.0
 30
0.0
 40
1.62
  0
ARC
  5
39C2
330
2
100
AcDbEntity
  8
MECH_SICHTLINIE
100
AcDbCircle
 10
-88.50000000000006
 20
15.0
 30
0.0
 40
2.0
100
AcDbArc
 50
69.99999999999992
 51
340.0000000000001
  0
LINE
  5
39C4
330
2
100
AcDbEntity
  8
MECH_MITTELLINIE
100
AcDbLine
 10
-88.50000000000006
 20
10.0
 30
0.0
 11
-88.50000000000006
 21
20.0
 31
0.0
  0
LINE
  5
39C5
330
2
100
AcDbEntity
  8
MECH_MITTELLINIE
100
AcDbLine
 10
-88.50000000000006
 20
10.0
 30
0.0
 11
-88.50000000000006
 21
20.0
 31
0.0
  0
CIRCLE
  5
39CD
330
2
100
AcDbEntity
  8
MECH_KONTUR1
100
AcDbCircle
 10
-78.50000000000007
 20
15.0
 30
0.0
 40
2.459999999999999
  0
ARC
  5
39CE
330
2
100
AcDbEntity
  8
MECH_SICHTLINIE
100
AcDbCircle
 10
-78.50000000000007
 20
15.0
 30
0.0
 40
3.0
100
AcDbArc
 50
69.99999999999992
 51
339.9999999999999
  0
LINE
  5
39CF
330
2
100
AcDbEntity
  8
MECH_MITTELLINIE
100
AcDbLine
 10
-78.50000000000007
 20
10.0
 30
0.0
 11
-78.50000000000007
 21
20.0
 31
0.0
  0
LINE
  5
39D0
330
2
100
AcDbEntity
  8
MECH_MITTELLINIE
100
AcDbLine
 10
-68.50000000000007
 20
10.0
 30
0.0
 11
-68.50000000000007
 21
20.0
 31
0.0
  0
CIRCLE
  5
39D1
330
2
100
AcDbEntity
  8
MECH_KONTUR1
100
AcDbCircle
 10
-68.50000000000007
 20
15.0
 30
0.0
 40
1.685
  0
ARC
  5
39D2
330
2
100
AcDbEntity
  8
MECH_SICHTLINIE
100
AcDbCircle
 10
-68.50000000000007
 20
15.0
 30
0.0
 40
2.083
100
AcDbArc
 50
69.99999999999992
 51
339.9999999999999
  0
LINE
  5
39D3
330
2
100
AcDbEntity
  8
MECH_MITTELLINIE
100
AcDbLine
 10
-68.50000000000007
 20
10.0
 30
0.0
 11
-68.50000000000007
 21
20.0
 31
0.0
  0
CIRCLE
  5
3B5C
330
2
100
AcDbEntity
  8
MECH_KONTUR1
100
AcDbCircle
 10
-97.00000000000009
 20
21.0
 30
0.0
 40
2.799999999999999
  0
LINE
  5
3B5D
330
2
100
AcDbEntity
  8
MECH_KONTUR1
100
AcDbLine
 10
-96.05000000000009
 20
21.44999999999999
 30
0.0
 11
-95.25000000000009
 21
21.44999999999999
 31
0.0
  0
LINE
  5
3B5E
330
2
100
AcDbEntity
  8
MECH_KONTUR1
100
AcDbLine
 10
-96.05000000000009
 20
20.55000000000001
 30
0.0
 11
-95.25000000000009
 21
20.55000000000001
 31
0.0
  0
LINE
  5
3B5F
330
2
100
AcDbEntity
  8
MECH_KONTUR1
100
AcDbLine
 10
-96.55000000000008
 20
22.74999999999999
 30
0.0
 11
-97.45000000000009
 21
22.74999999999999
 31
0.0
  0
LINE
  5
3B60
330
2
100
AcDbEntity
  8
MECH_KONTUR1
100
AcDbLine
 10
-97.45000000000009
 20
21.94999999999998
 30
0.0
 11
-97.45000000000009
 21
22.74999999999999
 31
0.0
  0
LINE
  5
3B61
330
2
100
AcDbEntity
  8
MECH_KONTUR1
100
AcDbLine
 10
-96.55000000000008
 20
21.94999999999998
 30
0.0
 11
-96.55000000000008
 21
22.74999999999999
 31
0.0
  0
LINE
  5
3B62
330
2
100
AcDbEntity
  8
MECH_KONTUR1
100
AcDbLine
 10
-97.45000000000009
 20
19.25
 30
0.0
 11
-96.55000000000008
 21
19.25
 31
0.0
  0
ARC
  5
3B63
330
2
100
AcDbEntity
  8
MECH_KONTUR1
100
AcDbCircle
 10
-97.95000000000008
 20
20.05000000000001
 30
0.0
 40
0.5
100
AcDbArc
 50
0.0
 51
90.0
  0
LINE
  5
3B64
330
2
100
AcDbEntity
  8
MECH_KONTUR1
100
AcDbLine
 10
-97.45000000000009
 20
20.05000000000001
 30
0.0
 11
-97.45000000000009
 21
19.25
 31
0.0
  0
LINE
  5
3B65
330
2
100
AcDbEntity
  8
MECH_KONTUR1
100
AcDbLine
 10
-97.95000000000008
 20
20.55000000000001
 30
0.0
 11
-98.75000000000008
 21
20.55000000000001
 31
0.0
  0
LINE
  5
3B66
330
2
100
AcDbEntity
  8
MECH_KONTUR1
100
AcDbLine
 10
-97.95000000000008
 20
21.44999999999999
 30
0.0
 11
-98.75000000000008
 21
21.44999999999999
 31
0.0
  0
LINE
  5
3B67
330
2
100
AcDbEntity
  8
MECH_KONTUR1
100
AcDbLine
 10
-98.75000000000008
 20
21.44999999999999
 30
0.0
 11
-98.75000000000008
 21
20.55000000000001
 31
0.0
  0
ARC
  5
3B68
330
2
100
AcDbEntity
  8
MECH_KONTUR1
100
AcDbCircle
 10
-96.05000000000009
 20
20.05000000000001
 30
0.0
 40
0.5
100
AcDbArc
 50
90.0
 51
180.0
  0
LINE
  5
3B69
330
2
100
AcDbEntity
  8
MECH_KONTUR1
100
AcDbLine
 10
-96.55000000000008
 20
20.05000000000001
 30
0.0
 11
-96.55000000000008
 21
19.25
 31
0.0
  0
ARC
  5
3B6A
330
2
100
AcDbEntity
  8
MECH_KONTUR1
100
AcDbCircle
 10
-97.95000000000008
 20
21.94999999999998
 30
0.0
 40
0.5
100
AcDbArc
 50
270.0
 51
0.0
  0
ARC
  5
3B6B
330
2
100
AcDbEntity
  8
MECH_KONTUR1
100
AcDbCircle
 10
-96.05000000000009
 20
21.94999999999998
 30
0.0
 40
0.5
100
AcDbArc
 50
180.0
 51
270.0
  0
LINE
  5
3B6C
330
2
100
AcDbEntity
  8
MECH_KONTUR1
100
AcDbLine
 10
-95.25000000000009
 20
20.55000000000001
 30
0.0
 11
-95.25000000000009
 21
21.44999999999999
 31
0.0
  0
CIRCLE
  5
3B6D
330
2
100
AcDbEntity
  8
MECH_KONTUR1
100
AcDbCircle
 10
-97.00000000000009
 20
9.0
 30
0.0
 40
2.799999999999999
  0
LINE
  5
3B6E
330
2
100
AcDbEntity
  8
MECH_KONTUR1
100
AcDbLine
 10
-96.05000000000009
 20
9.449999999999988
 30
0.0
 11
-95.25000000000009
 21
9.449999999999988
 31
0.0
  0
LINE
  5
3B6F
330
2
100
AcDbEntity
  8
MECH_KONTUR1
100
AcDbLine
 10
-96.05000000000009
 20
8.550000000000011
 30
0.0
 11
-95.25000000000009
 21
8.550000000000011
 31
0.0
  0
LINE
  5
3B70
330
2
100
AcDbEntity
  8
MECH_KONTUR1
100
AcDbLine
 10
-96.55000000000008
 20
10.74999999999999
 30
0.0
 11
-97.45000000000009
 21
10.74999999999999
 31
0.0
  0
LINE
  5
3B71
330
2
100
AcDbEntity
  8
MECH_KONTUR1
100
AcDbLine
 10
-97.45000000000009
 20
9.949999999999988
 30
0.0
 11
-97.45000000000009
 21
10.74999999999999
 31
0.0
  0
LINE
  5
3B72
330
2
100
AcDbEntity
  8
MECH_KONTUR1
100
AcDbLine
 10
-96.55000000000008
 20
9.949999999999988
 30
0.0
 11
-96.55000000000008
 21
10.74999999999999
 31
0.0
  0
LINE
  5
3B73
330
2
100
AcDbEntity
  8
MECH_KONTUR1
100
AcDbLine
 10
-97.45000000000009
 20
7.25
 30
0.0
 11
-96.55000000000008
 21
7.25
 31
0.0
  0
ARC
  5
3B74
330
2
100
AcDbEntity
  8
MECH_KONTUR1
100
AcDbCircle
 10
-97.95000000000008
 20
8.050000000000011
 30
0.0
 40
0.5
100
AcDbArc
 50
0.0
 51
90.0
  0
LINE
  5
3B75
330
2
100
AcDbEntity
  8
MECH_KONTUR1
100
AcDbLine
 10
-97.45000000000009
 20
8.050000000000011
 30
0.0
 11
-97.45000000000009
 21
7.25
 31
0.0
  0
LINE
  5
3B76
330
2
100
AcDbEntity
  8
MECH_KONTUR1
100
AcDbLine
 10
-97.95000000000008
 20
8.550000000000011
 30
0.0
 11
-98.75000000000008
 21
8.550000000000011
 31
0.0
  0
LINE
  5
3B77
330
2
100
AcDbEntity
  8
MECH_KONTUR1
100
AcDbLine
 10
-97.95000000000008
 20
9.449999999999988
 30
0.0
 11
-98.75000000000008
 21
9.449999999999988
 31
0.0
  0
LINE
  5
3B78
330
2
100
AcDbEntity
  8
MECH_KONTUR1
100
AcDbLine
 10
-98.75000000000008
 20
9.449999999999988
 30
0.0
 11
-98.75000000000008
 21
8.550000000000011
 31
0.0
  0
ARC
  5
3B79
330
2
100
AcDbEntity
  8
MECH_KONTUR1
100
AcDbCircle
 10
-96.05000000000009
 20
8.050000000000011
 30
0.0
 40
0.5
100
AcDbArc
 50
90.0
 51
180.0
  0
LINE
  5
3B7A
330
2
100
AcDbEntity
  8
MECH_KONTUR1
100
AcDbLine
 10
-96.55000000000008
 20
8.050000000000011
 30
0.0
 11
-96.55000000000008
 21
7.25
 31
0.0
  0
ARC
  5
3B7B
330
2
100
AcDbEntity
  8
MECH_KONTUR1
100
AcDbCircle
 10
-97.95000000000008
 20
9.949999999999988
 30
0.0
 40
0.5
100
AcDbArc
 50
270.0
 51
0.0
  0
ARC
  5
3B7C
330
2
100
AcDbEntity
  8
MECH_KONTUR1
100
AcDbCircle
 10
-96.05000000000009
 20
9.949999999999988
 30
0.0
 40
0.5
100
AcDbArc
 50
180.0
 51
270.0
  0
LINE
  5
3B7D
330
2
100
AcDbEntity
  8
MECH_KONTUR1
100
AcDbLine
 10
-95.25000000000009
 20
8.550000000000011
 30
0.0
 11
-95.25000000000009
 21
9.449999999999988
 31
0.0
  0
CIRCLE
  5
3B7E
330
2
100
AcDbEntity
  8
MECH_KONTUR1
100
AcDbCircle
 10
-60.00000000000008
 20
21.0
 30
0.0
 40
2.799999999999999
  0
LINE
  5
3B7F
330
2
100
AcDbEntity
  8
MECH_KONTUR1
100
AcDbLine
 10
-59.05000000000008
 20
21.44999999999999
 30
0.0
 11
-58.25000000000009
 21
21.44999999999999
 31
0.0
  0
LINE
  5
3B80
330
2
100
AcDbEntity
  8
MECH_KONTUR1
100
AcDbLine
 10
-59.05000000000008
 20
20.55000000000001
 30
0.0
 11
-58.25000000000009
 21
20.55000000000001
 31
0.0
  0
LINE
  5
3B81
330
2
100
AcDbEntity
  8
MECH_KONTUR1
100
AcDbLine
 10
-59.55000000000008
 20
22.74999999999999
 30
0.0
 11
-60.45000000000008
 21
22.74999999999999
 31
0.0
  0
LINE
  5
3B82
330
2
100
AcDbEntity
  8
MECH_KONTUR1
100
AcDbLine
 10
-60.45000000000008
 20
21.94999999999998
 30
0.0
 11
-60.45000000000008
 21
22.74999999999999
 31
0.0
  0
LINE
  5
3B83
330
2
100
AcDbEntity
  8
MECH_KONTUR1
100
AcDbLine
 10
-59.55000000000008
 20
21.94999999999998
 30
0.0
 11
-59.55000000000008
 21
22.74999999999999
 31
0.0
  0
LINE
  5
3B84
330
2
100
AcDbEntity
  8
MECH_KONTUR1
100
AcDbLine
 10
-60.45000000000008
 20
19.25
 30
0.0
 11
-59.55000000000008
 21
19.25
 31
0.0
  0
ARC
  5
3B85
330
2
100
AcDbEntity
  8
MECH_KONTUR1
100
AcDbCircle
 10
-60.95000000000009
 20
20.05000000000001
 30
0.0
 40
0.5
100
AcDbArc
 50
0.0
 51
90.0
  0
LINE
  5
3B86
330
2
100
AcDbEntity
  8
MECH_KONTUR1
100
AcDbLine
 10
-60.45000000000008
 20
20.05000000000001
 30
0.0
 11
-60.45000000000008
 21
19.25
 31
0.0
  0
LINE
  5
3B87
330
2
100
AcDbEntity
  8
MECH_KONTUR1
100
AcDbLine
 10
-60.95000000000009
 20
20.55000000000001
 30
0.0
 11
-61.75000000000008
 21
20.55000000000001
 31
0.0
  0
LINE
  5
3B88
330
2
100
AcDbEntity
  8
MECH_KONTUR1
100
AcDbLine
 10
-60.95000000000009
 20
21.44999999999999
 30
0.0
 11
-61.75000000000008
 21
21.44999999999999
 31
0.0
  0
LINE
  5
3B89
330
2
100
AcDbEntity
  8
MECH_KONTUR1
100
AcDbLine
 10
-61.75000000000008
 20
21.44999999999999
 30
0.0
 11
-61.75000000000008
 21
20.55000000000001
 31
0.0
  0
ARC
  5
3B8A
330
2
100
AcDbEntity
  8
MECH_KONTUR1
100
AcDbCircle
 10
-59.05000000000008
 20
20.05000000000001
 30
0.0
 40
0.5
100
AcDbArc
 50
90.0
 51
180.0
  0
LINE
  5
3B8B
330
2
100
AcDbEntity
  8
MECH_KONTUR1
100
AcDbLine
 10
-59.55000000000008
 20
20.05000000000001
 30
0.0
 11
-59.55000000000008
 21
19.25
 31
0.0
  0
ARC
  5
3B8C
330
2
100
AcDbEntity
  8
MECH_KONTUR1
100
AcDbCircle
 10
-60.95000000000009
 20
21.94999999999998
 30
0.0
 40
0.5
100
AcDbArc
 50
270.0
 51
0.0
  0
ARC
  5
3B8D
330
2
100
AcDbEntity
  8
MECH_KONTUR1
100
AcDbCircle
 10
-59.05000000000008
 20
21.94999999999998
 30
0.0
 40
0.5
100
AcDbArc
 50
180.0
 51
270.0
  0
LINE
  5
3B8E
330
2
100
AcDbEntity
  8
MECH_KONTUR1
100
AcDbLine
 10
-58.25000000000009
 20
20.55000000000001
 30
0.0
 11
-58.25000000000009
 21
21.44999999999999
 31
0.0
  0
CIRCLE
  5
3B8F
330
2
100
AcDbEntity
  8
MECH_KONTUR1
100
AcDbCircle
 10
-60.00000000000008
 20
9.0
 30
0.0
 40
2.799999999999999
  0
LINE
  5
3B90
330
2
100
AcDbEntity
  8
MECH_KONTUR1
100
AcDbLine
 10
-59.05000000000008
 20
9.449999999999988
 30
0.0
 11
-58.25000000000009
 21
9.449999999999988
 31
0.0
  0
LINE
  5
3B91
330
2
100
AcDbEntity
  8
MECH_KONTUR1
100
AcDbLine
 10
-59.05000000000008
 20
8.550000000000011
 30
0.0
 11
-58.25000000000009
 21
8.550000000000011
 31
0.0
  0
LINE
  5
3B92
330
2
100
AcDbEntity
  8
MECH_KONTUR1
100
AcDbLine
 10
-59.55000000000008
 20
10.74999999999999
 30
0.0
 11
-60.45000000000008
 21
10.74999999999999
 31
0.0
  0
LINE
  5
3B93
330
2
100
AcDbEntity
  8
MECH_KONTUR1
100
AcDbLine
 10
-60.45000000000008
 20
9.949999999999988
 30
0.0
 11
-60.45000000000008
 21
10.74999999999999
 31
0.0
  0
LINE
  5
3B94
330
2
100
AcDbEntity
  8
MECH_KONTUR1
100
AcDbLine
 10
-59.55000000000008
 20
9.949999999999988
 30
0.0
 11
-59.55000000000008
 21
10.74999999999999
 31
0.0
  0
LINE
  5
3B95
330
2
100
AcDbEntity
  8
MECH_KONTUR1
100
AcDbLine
 10
-60.45000000000008
 20
7.25
 30
0.0
 11
-59.55000000000008
 21
7.25
 31
0.0
  0
ARC
  5
3B96
330
2
100
AcDbEntity
  8
MECH_KONTUR1
100
AcDbCircle
 10
-60.95000000000009
 20
8.050000000000011
 30
0.0
 40
0.5
100
AcDbArc
 50
0.0
 51
90.0
  0
LINE
  5
3B97
330
2
100
AcDbEntity
  8
MECH_KONTUR1
100
AcDbLine
 10
-60.45000000000008
 20
8.050000000000011
 30
0.0
 11
-60.45000000000008
 21
7.25
 31
0.0
  0
LINE
  5
3B98
330
2
100
AcDbEntity
  8
MECH_KONTUR1
100
AcDbLine
 10
-60.95000000000009
 20
8.550000000000011
 30
0.0
 11
-61.75000000000008
 21
8.550000000000011
 31
0.0
  0
LINE
  5
3B99
330
2
100
AcDbEntity
  8
MECH_KONTUR1
100
AcDbLine
 10
-60.95000000000009
 20
9.449999999999988
 30
0.0
 11
-61.75000000000008
 21
9.449999999999988
 31
0.0
  0
LINE
  5
3B9A
330
2
100
AcDbEntity
  8
MECH_KONTUR1
100
AcDbLine
 10
-61.75000000000008
 20
9.449999999999988
 30
0.0
 11
-61.75000000000008
 21
8.550000000000011
 31
0.0
  0
ARC
  5
3B9B
330
2
100
AcDbEntity
  8
MECH_KONTUR1
100
AcDbCircle
 10
-59.05000000000008
 20
8.050000000000011
 30
0.0
 40
0.5
100
AcDbArc
 50
90.0
 51
180.0
  0
LINE
  5
3B9C
330
2
100
AcDbEntity
  8
MECH_KONTUR1
100
AcDbLine
 10
-59.55000000000008
 20
8.050000000000011
 30
0.0
 11
-59.55000000000008
 21
7.25
 31
0.0
  0
ARC
  5
3B9D
330
2
100
AcDbEntity
  8
MECH_KONTUR1
100
AcDbCircle
 10
-60.95000000000009
 20
9.949999999999988
 30
0.0
 40
0.5
100
AcDbArc
 50
270.0
 51
0.0
  0
ARC
  5
3B9E
330
2
100
AcDbEntity
  8
MECH_KONTUR1
100
AcDbCircle
 10
-59.05000000000008
 20
9.949999999999988
 30
0.0
 40
0.5
100
AcDbArc
 50
180.0
 51
270.0
  0
LINE
  5
3B9F
330
2
100
AcDbEntity
  8
MECH_KONTUR1
100
AcDbLine
 10
-58.25000000000009
 20
8.550000000000011
 30
0.0
 11
-58.25000000000009
 21
9.449999999999988
 31
0.0
  0
CIRCLE
  5
3E1D
330
2
100
AcDbEntity
  8
MECH_KONTUR2
100
AcDbCircle
 10
-30.0
 20
120.9999999999999
 30
0.0
 40
2.5
  0
MTEXT
  5
3E88
330
2
100
AcDbEntity
  8
MECH_BEM_NORMAL
100
AcDbMText
 10
-117.0
 20
192.0
 30
0.0
 40
2.5
 41
90.0
 71
     1
 72
     5
  1
Front View with\POptical Input,\Pclear Aperture:\P%%c4mm for BP104\P%%c9mm for BP109
 73
     1
 44
1.0
  0
MTEXT
  5
40F8
330
2
100
AcDbEntity
  8
MECH_BEM_NORMAL
100
AcDbMText
 10
-116.4999994250144
 20
95.78571405276955
 30
0.0
 40
2.5
 41
90.0
 71
     1
 72
     5
  1
Bottom View,\PMount with Threads
 73
     1
 44
1.0
  0
MTEXT
  5
40FF
330
2
100
AcDbEntity
  8
MECH_BEM_NORMAL
100
AcDbMText
 10
38.0
 20
187.0
 30
0.0
 40
2.5
 41
90.0
 71
     1
 72
     5
  1
Side View
 73
     1
 44
1.0
  0
MTEXT
  5
4100
330
2
100
AcDbEntity
  8
MECH_BEM_NORMAL
100
AcDbMText
 10
140.0
 20
187.0
 30
0.0
 40
2.5
 41
90.0
 71
     1
 72
     5
  1
Back View with\PUSB-Connector
 73
     1
 44
1.0
  0
LINE
  5
42F2
330
2
100
AcDbEntity
  8
MECH_BEM_NORMAL
100
AcDbLine
 10
-66.3678717398094
 20
16.30538464909632
 30
0.0
 11
-44.0
 21
30.0
 31
0.0
  0
LINE
  5
42F3
330
2
100
AcDbEntity
  8
MECH_BEM_NORMAL
100
AcDbLine
 10
-44.0
 20
30.0
 30
0.0
 11
-40.0
 21
30.0
 31
0.0
  0
MTEXT
  5
42F4
330
2
100
AcDbEntity
  8
MECH_BEM_NORMAL
100
AcDbMText
 10
-39.0
 20
30.0
 30
0.0
 40
2.5
 41
0.0
 71
     4
 72
     1
  1
\A1;UNC8-32
 73
     1
 44
1.0
  0
LINE
  5
42F5
330
2
100
AcDbEntity
  8
MECH_BEM_NORMAL
100
AcDbLine
 10
-44.0
 20
35.0
 30
0.0
 11
-40.0
 21
35.0
 31
0.0
  0
LINE
  5
42F6
330
2
100
AcDbEntity
  8
MECH_BEM_NORMAL
100
AcDbLine
 10
-75.47200999487252
 20
16.75535652471161
 30
0.0
 11
-44.0
 21
35.0
 31
0.0
  0
MTEXT
  5
42F7
330
2
100
AcDbEntity
  8
MECH_BEM_NORMAL
100
AcDbMText
 10
-39.0
 20
35.0
 30
0.0
 40
2.5
 41
0.0
 71
     4
 72
     1
  1
M6
 73
     1
 44
1.0
  0
LINE
  5
42F8
330
2
100
AcDbEntity
  8
MECH_BEM_NORMAL
100
AcDbLine
 10
-86.32040743703699
 20
16.22449020391183
 30
0.0
 11
-44.0
 21
40.0
 31
0.0
  0
LINE
  5
42F9
330
2
100
AcDbEntity
  8
MECH_BEM_NORMAL
100
AcDbLine
 10
-44.0
 20
40.0
 30
0.0
 11
-40.0
 21
40.0
 31
0.0
  0
MTEXT
  5
42FA
330
2
100
AcDbEntity
  8
MECH_BEM_NORMAL
100
AcDbMText
 10
-39.0
 20
40.0
 30
0.0
 40
2.5
 41
0.0
 71
     4
 72
     1
  1
M4
 73
     1
 44
1.0
  0
LINE
  5
42FF
330
2
100
AcDbEntity
  8
MECH_BEM_NORMAL
100
AcDbLine
 10
-35.44891368782422
 20
121.747890114015
 30
0.0
 11
-81.0
 21
128.0
 31
0.0
  0
MTEXT
  5
4300
330
2
100
AcDbEntity
  8
MECH_BEM_NORMAL
100
AcDbMText
 10
-100.0
 20
126.0
 30
0.0
 40
2.5
 41
0.0
 71
     4
 72
     1
  1
Optical\PInput
 73
     1
 44
1.0
  0
LINE
  5
4301
330
2
100
AcDbEntity
  8
MECH_BEM_NORMAL
100
AcDbLine
 10
-87.0
 20
128.0
 30
0.0
 11
-81.0
 21
128.0
 31
0.0
  0
LINE
  5
4303
330
2
100
AcDbEntity
  8
MECH_BEM_NORMAL
100
AcDbLine
 10
195.7379725676967
 20
103.8880158952855
 30
0.0
 11
157.0
 21
91.0
 31
0.0
  0
MTEXT
  5
4304
330
2
100
AcDbEntity
  8
MECH_BEM_NORMAL
100
AcDbMText
 10
122.5
 20
91.0
 30
0.0
 40
2.5
 41
0.0
 71
     4
 72
     1
  1
USB-Connector
 73
     1
 44
1.0
  0
LINE
  5
4305
330
2
100
AcDbEntity
  8
MECH_BEM_NORMAL
100
AcDbLine
 10
153.0
 20
91.0
 30
0.0
 11
157.0
 21
91.0
 31
0.0
  0
MTEXT
  5
4306
330
2
100
AcDbEntity
  8
MECH_BEM_NORMAL
100
AcDbMText
 10
132.0
 20
86.0
 30
0.0
 40
2.5
 41
0.0
 71
     4
 72
     1
  1
Power LED
 73
     1
 44
1.0
  0
LINE
  5
4307
330
2
100
AcDbEntity
  8
MECH_BEM_NORMAL
100
AcDbLine
 10
153.0
 20
86.0
 30
0.0
 11
157.0
 21
86.0
 31
0.0
  0
LINE
  5
4308
330
2
100
AcDbEntity
  8
MECH_BEM_NORMAL
100
AcDbLine
 10
190.9783822248116
 20
98.64809432678104
 30
0.0
 11
157.0
 21
86.0
 31
0.0
  0
LINE
  5
430D
330
2
100
AcDbEntity
  8
MECH_BEM_NORMAL
100
AcDbLine
 10
24.92766123502796
 20
152.7125
 30
0.0
 11
26.50815759693463
 21
153.625
 31
0.0
  0
MTEXT
  5
432D
330
2
100
AcDbEntity
  8
TEXT025
100
AcDbMText
 10
50.0
 20
202.0
 30
0.0
 40
5.0
 41
270.0
 71
     5
 72
     5
  1
{\fArial|b0|i0|c0|p34;COPYRIGHT \fSymbol|b0|i0|c2|p18;Ó\fArial|b0|i0|c0|p34; 2006 by THORLABS INC.}
 73
     1
 44
1.0
  0
LINE
  5
439A
330
2
100
AcDbEntity
  8
TEXT025
100
AcDbLine
 10
158.0
 20
44.98058446892712
 30
0.0
 11
22.0
 21
44.98058446892712
 31
0.0
  0
LINE
  5
439B
330
2
100
AcDbEntity
  8
TEXT025
100
AcDbLine
 10
25.0
 20
47.0
 30
0.0
 11
155.0
 21
46.99999999999999
 31
0.0
  0
TEXT
  5
439C
330
2
100
AcDbEntity
  8
TEXT025
100
AcDbText
 10
27.16666666666668
 20
49.25
 30
0.0
 40
3.5
  1
INFORMATION ONLY, NOT FOR MANUFACTURING
 72
     1
 11
90.0
 21
51.0
 31
0.0
100
AcDbText
 73
     2
  0
DIMENSION
  5
44E4
330
2
100
AcDbEntity
  8
MECH_BEM_NORMAL
100
AcDbDimension
  2
*D0
 10
-54.94153162899191
 20
135.3999999999999
 30
0.0
 11
-62.00000000000007
 21
176.425625842204
 31
0.0
 70
    34
  1
<>
 71
     5
 42
1.047197551196596
  3
STANDARD
100
AcDb2LineAngularDimension
 13
-30.00000000000008
 23
180.7999999999999
 33
0.0
 14
-30.0
 24
120.9999999999999
 34
0.0
 15
-84.38639535766283
 25
152.3999999999998
 35
0.0
 16
-51.88928917284289
 26
181.1403277302981
 36
0.0
1001
ACAD
1000
DSTYLE
1002
{
1070
    41
1040
3.5
1002
}
  0
DIMENSION
  5
4518
330
2
100
AcDbEntity
  8
MECH_BEM_NORMAL
100
AcDbDimension
  2
*D1
 10
-30.0
 20
120.9999999999999
 30
0.0
 11
1.999999999999928
 21
176.425625842204
 31
0.0
 70
    34
 71
     5
 42
1.047197551196598
  3
STANDARD
100
AcDb2LineAngularDimension
 13
24.3863953576627
 23
152.4
 33
0.0
 14
-5.058468371008174
 24
135.4
 34
0.0
 15
-30.00000000000008
 25
180.7999999999999
 35
0.0
 16
11.13840701993845
 26
170.0268443596146
 36
0.0
1001
ACAD
1000
DSTYLE
1002
{
1070
    41
1040
3.5
1002
}
  0
DIMENSION
  5
4540
330
2
100
AcDbEntity
  8
MECH_BEM_NORMAL
100
AcDbDimension
  2
*D2
 10
30.00000000000002
 20
120.9999999999999
 30
0.0
 11
30.0
 21
98.84999999999992
 31
0.0
 70
    32
 71
     5
 42
44.29999999999998
  3
STANDARD mit Zoll
100
AcDbAlignedDimension
 13
-20.0
 23
76.69999999999993
 33
0.0
 14
5.0
 24
120.9999999999999
 34
0.0
 50
90.0
100
AcDbRotatedDimension
  0
DIMENSION
  5
454E
330
2
100
AcDbEntity
  8
MECH_BEM_NORMAL
100
AcDbDimension
  2
*D3
 10
106.4999999999999
 20
65.0
 30
0.0
 11
76.49999999999995
 21
65.0
 31
0.0
 70
    32
 71
     5
 42
60.0
  3
STANDARD mit Zoll
100
AcDbAlignedDimension
 13
46.49999999999995
 23
84.00000000000002
 33
0.0
 14
106.4999999999999
 24
84.00000000000021
 34
0.0
100
AcDbRotatedDimension
  0
DIMENSION
  5
455C
330
2
100
AcDbEntity
  8
MECH_BEM_NORMAL
100
AcDbDimension
  2
*D4
 10
118.0
 20
160.9999999999999
 30
0.0
 11
117.9999999999999
 21
120.9999999999999
 31
0.0
 70
    32
 71
     5
 42
80.00000000000008
  3
STANDARD mit Zoll
100
AcDbAlignedDimension
 13
103.4999999999996
 23
80.99999999999988
 33
0.0
 14
103.4999999999996
 24
160.9999999999999
 34
0.0
 50
90.0
100
AcDbRotatedDimension
  0
DIMENSION
  5
456A
330
2
100
AcDbEntity
  8
MECH_BEM_NORMAL
100
AcDbDimension
  2
*D5
 10
118.0
 20
180.6999999999999
 30
0.0
 11
117.9999999999999
 21
170.8499999999999
 31
0.0
 70
    32
 71
     5
 42
19.69999999999998
  3
STANDARD mit Zoll
100
AcDbAlignedDimension
 13
103.4999999999998
 23
160.9999999999999
 33
0.0
 14
78.49999999999994
 24
180.6999999999999
 34
0.0
 50
90.0
100
AcDbRotatedDimension
  0
DIMENSION
  5
4578
330
2
100
AcDbEntity
  8
MECH_BEM_NORMAL
100
AcDbDimension
  2
*D6
 10
-108.5
 20
71.0
 30
0.0
 11
-98.50000000000006
 21
71.0
 31
0.0
 70
    32
 71
     5
 42
19.99999999999998
  3
STANDARD mit Zoll
100
AcDbAlignedDimension
 13
-88.50000000000006
 23
20.0
 33
0.0
 14
-108.5
 24
52.00000000000011
 34
0.0
100
AcDbRotatedDimension
  0
DIMENSION
  5
4586
330
2
100
AcDbEntity
  8
MECH_BEM_NORMAL
100
AcDbDimension
  2
*D7
 10
-88.50000000000006
 20
62.0
 30
0.0
 11
-98.99404761904769
 21
62.0
 31
0.0
 70
    32
 71
     5
 42
10.0
  3
STANDARD mit Zoll
100
AcDbAlignedDimension
 13
-78.50000000000007
 23
20.0
 33
0.0
 14
-88.50000000000006
 24
20.0
 34
0.0
100
AcDbRotatedDimension
  0
DIMENSION
  5
4595
330
2
100
AcDbEntity
  8
MECH_BEM_NORMAL
100
AcDbDimension
  2
*D8
 10
-68.50000000000007
 20
62.0
 30
0.0
 11
-58.00595238095245
 21
62.0
 31
0.0
 70
    32
 71
     5
 42
10.0
  3
STANDARD mit Zoll
100
AcDbAlignedDimension
 13
-78.50000000000007
 23
20.0
 33
0.0
 14
-68.50000000000007
 24
20.0
 34
0.0
100
AcDbRotatedDimension
  0
VIEWPORT
  5
2A80
330
2A7F
100
AcDbEntity
 67
     1
  8
0
100
AcDbViewport
 10
142.9818954067802
 20
97.51709409078006
 30
0.0
 40
335.9501995338639
 41
227.6135982544765
 68
     1
 69
     1
 12
142.9818954067802
 22
97.51709409078006
 13
0.0
 23
0.0
 14
10.0
 24
10.0
 15
10.0
 25
10.0
 16
0.0
 26
0.0
 36
1.0
 17
0.0
 27
0.0
 37
0.0
 42
50.0
 43
0.0
 44
0.0
 45
227.6135982544765
 50
0.0
 51
0.0
 72
   100
 90
    32800
  1

281
     0
 71
     1
 74
     0
110
0.0
120
0.0
130
0.0
111
1.0
121
0.0
131
0.0
112
0.0
122
1.0
132
0.0
 79
     0
146
0.0
  0
VIEWPORT
  5
2A81
330
2A7F
100
AcDbEntity
 67
     1
  8
HILFSLINIEN4
100
AcDbViewport
 10
0.0
 20
0.0
 30
0.0
 40
0.0
 41
0.0
 68
    -1
 69
     2
 12
268.6364942016535
 22
178.768723357769
 13
0.0
 23
0.0
 14
1.0
 24
1.0
 15
10.0
 25
10.0
 16
0.0
 26
0.0
 36
1.0
 17
0.0
 27
0.0
 37
0.0
 42
50.0
 43
0.0
 44
0.0
 45
155.8300819085496
 50
0.0
 51
0.0
 72
   100
 90
    37408
  1

281
     0
 71
     1
 74
     0
110
0.0
120
0.0
130
0.0
111
1.0
121
0.0
131
0.0
112
0.0
122
1.0
132
0.0
 79
     0
146
0.0
  0
VIEWPORT
  5
2A82
330
2A7F
100
AcDbEntity
 67
     1
  8
ANSICHTSFENSTER
100
AcDbViewport
 10
142.5
 20
99.0
 30
0.0
 40
295.0
 41
208.0
 68
     2
 69
     3
 12
50.54056108045379
 22
87.75753084500317
 13
0.0
 23
0.0
 14
1.0
 24
1.0
 15
10.0
 25
10.0
 16
0.0
 26
0.0
 36
1.0
 17
0.0
 27
0.0
 37
0.0
 42
50.0
 43
0.0
 44
0.0
 45
262.6480937357835
 50
0.0
 51
0.0
 72
   100
341
F3
341
322E
341
35AC
 90
    37664
  1

281
     0
 71
     1
 74
     0
110
0.0
120
0.0
130
0.0
111
1.0
121
0.0
131
0.0
112
0.0
122
1.0
132
0.0
 79
     0
146
0.0
  0
INSERT
  5
47F8
330
2A7F
100
AcDbEntity
 67
     1
  8
HILFSLINIEN4
100
AcDbBlockReference
 66
     1
  2
Thorlabs_A4_quer_engl_HP5000
 10
0.0
 20
0.0
 30
0.0
  0
ATTRIB
  5
47F9
330
47F8
100
AcDbEntity
 67
     1
  8
RAHMEN035
100
AcDbText
 10
241.7450880061337
 20
31.98184564905593
 30
0.0
 40
5.0
  1

 72
     4
 11
241.7450880061337
 21
31.98184564905593
 31
0.0
100
AcDbAttribute
  2
BENENNUNG1A
 70
     0
  0
ATTRIB
  5
47FA
330
47F8
100
AcDbEntity
 67
     1
  8
RAHMEN035
100
AcDbText
 10
198.9999999999997
 20
29.49999999999996
 30
0.0
 40
5.0
  1

 41
1.630363636363637
 72
     5
 11
284.3999999999998
 21
29.49999999999996
 31
0.0
100
AcDbAttribute
  2
BENENNUNG1B
 70
     0
  0
ATTRIB
  5
47FB
330
47F8
100
AcDbEntity
 67
     1
  8
RAHMEN035
100
AcDbText
 10
241.7450880061337
 20
23.41041707762735
 30
0.0
 40
5.0
  1

 41
0.9
 72
     4
 11
241.7450880061337
 21
23.41041707762735
 31
0.0
100
AcDbAttribute
  2
BENENNUNG2A
 70
     0
  0
ATTRIB
  5
47FC
330
47F8
100
AcDbEntity
 67
     1
  8
RAHMEN035
100
AcDbText
 10
198.9999999999997
 20
20.92857142857138
 30
0.0
 40
5.0
  1

 41
0.6978210116731527
 72
     5
 11
284.3999999999998
 21
20.92857142857138
 31
0.0
100
AcDbAttribute
  2
BENENNUNG2B
 70
     0
  0
ATTRIB
  5
47FD
330
47F8
100
AcDbEntity
 67
     1
  8
RAHMEN035
100
AcDbText
 10
203.010712517446
 20
7.82473610229664
 30
0.0
 40
5.0
  1
M0005-50-0023
 72
     4
 11
235.1535696603032
 21
10.32473610229664
 31
0.0
100
AcDbAttribute
  2
ZEICHNUNGSNUMMER
 70
     0
  0
ATTRIB
  5
47FE
330
47F8
100
AcDbEntity
 67
     1
  8
RAHMEN013
100
AcDbText
 10
277.5912952255842
 20
9.548454186946599
 30
0.0
 40
2.5
  1
1
 72
     4
 11
277.8889142732032
 21
10.79845418694659
 31
0.0
100
AcDbAttribute
  2
BLATT
 70
     0
  0
ATTRIB
  5
47FF
330
47F8
100
AcDbEntity
 67
     1
  8
RAHMEN013
100
AcDbText
 10
278.5484809523808
 20
5.270830598623632
 30
0.0
 40
2.5
  1
1
 72
     4
 11
278.8460999999998
 21
6.520830598623632
 31
0.0
100
AcDbAttribute
  2
BLÄTTER
 70
     0
  0
ATTRIB
  5
4800
330
47F8
100
AcDbEntity
 67
     1
  8
RAHMEN013
100
AcDbText
 10
216.2916231867281
 20
50.81249999999997
 30
0.0
 40
2.5
  1
 -
100
AcDbAttribute
  2
MAßSTAB
 70
     0
  0
ATTRIB
  5
4801
330
47F8
100
AcDbEntity
 67
     1
  8
RAHMEN013
100
AcDbText
 10
222.334696217938
 20
44.31249999999997
 30
0.0
 40
2.5
  1

 11
222.334696217938
 21
45.56249999999997
 31
0.0
100
AcDbAttribute
  2
WERKSTOFF1
 70
     0
 74
     2
  0
ATTRIB
  5
4802
330
47F8
100
AcDbEntity
 67
     1
  8
RAHMEN013
100
AcDbText
 10
222.334696217938
 20
40.02678571428569
 30
0.0
 40
2.5
  1

 11
222.334696217938
 21
41.27678571428569
 31
0.0
100
AcDbAttribute
  2
WERKSTOFF2
 70
     0
 74
     2
  0
ATTRIB
  5
4803
330
47F8
100
AcDbEntity
 67
     1
  8
RAHMEN025
100
AcDbText
 10
102.0833333333331
 20
42.39583333333331
 30
0.0
 40
3.5
  1
Customer Support
 72
     4
 11
125.9999999999998
 21
43.56249999999997
 31
0.0
100
AcDbAttribute
  2
VERWENDUNGA
 70
     0
  0
ATTRIB
  5
4804
330
47F8
100
AcDbEntity
 67
     1
  8
RAHMEN025
100
AcDbText
 10
100.3999999999998
 20
41.79999999999995
 30
0.0
 40
3.5
  1

 41
1.365333333333332
 72
     5
 11
151.5999999999998
 21
41.79999999999995
 31
0.0
100
AcDbAttribute
  2
VERWENDUNGB
 70
     0
  0
ATTRIB
  5
4805
330
47F8
100
AcDbEntity
 67
     1
  8
RAHMEN013
100
AcDbText
 10
166.2999999999998
 20
45.56249999999997
 30
0.0
 40
2.5
  1

 41
0.9
 72
     4
 11
166.2999999999998
 21
45.56249999999997
 31
0.0
100
AcDbAttribute
  2
ZUL_ABW1
 70
     0
  0
ATTRIB
  5
4806
330
47F8
100
AcDbEntity
 67
     1
  8
RAHMEN013
100
AcDbText
 10
166.2999999999998
 20
41.27678571428569
 30
0.0
 40
2.5
  1

 41
0.9
 72
     4
 11
166.2999999999998
 21
41.27678571428569
 31
0.0
100
AcDbAttribute
  2
ZUL_ABW2
 70
     0
  0
ATTRIB
  5
4807
330
47F8
100
AcDbEntity
 67
     1
  8
RAHMEN013
100
AcDbText
 10
180.0999999999999
 20
44.28571428571425
 30
0.0
 40
2.5
  1

 41
1.133658536585361
 72
     5
 11
196.6999999999998
 21
44.28571428571425
 31
0.0
100
AcDbAttribute
  2
OBERFL1
 70
     0
  0
ATTRIB
  5
4808
330
47F8
100
AcDbEntity
 67
     1
  8
RAHMEN013
100
AcDbText
 10
180.0999999999998
 20
39.99999999999997
 30
0.0
 40
2.5
  1

 41
1.056363636363638
 72
     5
 11
196.6999999999998
 21
39.99999999999997
 31
0.0
100
AcDbAttribute
  2
OBERFL2
 70
     0
  0
ATTRIB
  5
4809
330
47F8
100
AcDbEntity
 67
     1
  8
RAHMEN013
100
AcDbText
 10
164.3550213503374
 20
30.70603256725524
 30
0.0
 40
2.5
  1
16.01.06
 41
0.9
100
AcDbAttribute
  2
BEARBETET
 70
     0
  0
ATTRIB
  5
480A
330
47F8
100
AcDbEntity
 67
     1
  8
RAHMEN013
100
AcDbText
 10
180.6181341021421
 20
30.70603256725524
 30
0.0
 40
2.5
  1
Hit.
100
AcDbAttribute
  2
NAMEBEARB
 70
     0
  0
ATTRIB
  5
480B
330
47F8
100
AcDbEntity
 67
     1
  8
RAHMEN013
100
AcDbText
 10
164.3550213503374
 20
26.45603256725524
 30
0.0
 40
2.5
  1

 41
0.9
100
AcDbAttribute
  2
GEPRÜFT
 70
     0
  0
ATTRIB
  5
480C
330
47F8
100
AcDbEntity
 67
     1
  8
RAHMEN013
100
AcDbText
 10
180.618134102142
 20
26.45603256725524
 30
0.0
 40
2.5
  1

100
AcDbAttribute
  2
NAMEGEPR
 70
     0
  0
ATTRIB
  5
480D
330
47F8
100
AcDbEntity
 67
     1
  8
RAHMEN013
100
AcDbText
 10
227.0999999999996
 20
0.8749999999999715
 30
0.0
 40
2.5
  1

 72
     1
 11
227.0999999999996
 21
2.124999999999971
 31
0.0
100
AcDbAttribute
  2
ERSATZF
 70
     0
 74
     2
  0
ATTRIB
  5
480E
330
47F8
100
AcDbEntity
 67
     1
  8
RAHMEN013
100
AcDbText
 10
271.2999999999997
 20
0.8749999999998578
 30
0.0
 40
2.5
  1

 72
     1
 11
271.2999999999997
 21
2.124999999999857
 31
0.0
100
AcDbAttribute
  2
ERSATZD
 70
     0
 74
     2
  0
ATTRIB
  5
480F
330
47F8
100
AcDbEntity
 67
     1
  8
RAHMEN013
100
AcDbText
 10
99.19999999999987
 20
66.99999999999997
 30
0.0
 40
2.5
  1

100
AcDbAttribute
  2
BEM1
 70
     0
  0
ATTRIB
  5
4810
330
47F8
100
AcDbEntity
 67
     1
  8
RAHMEN013
100
AcDbText
 10
99.19999999999987
 20
62.71428571428568
 30
0.0
 40
2.5
  1

100
AcDbAttribute
  2
BEM2
 70
     0
  0
ATTRIB
  5
4811
330
47F8
100
AcDbEntity
 67
     1
  8
RAHMEN013
100
AcDbText
 10
99.19999999999987
 20
58.42857142857138
 30
0.0
 40
2.5
  1

100
AcDbAttribute
  2
BEM3
 70
     0
  0
ATTRIB
  5
4812
330
47F8
100
AcDbEntity
 67
     1
  8
RAHMEN013
100
AcDbText
 10
102.5999999999999
 20
36.12499999999997
 30
0.0
 40
2.5
  1

 72
     4
 11
102.5999999999999
 21
36.12499999999997
 31
0.0
100
AcDbAttribute
  2
ZUST1
 70
     0
  0
ATTRIB
  5
4813
330
47F8
100
AcDbEntity
 67
     1
  8
RAHMEN013
100
AcDbText
 10
107.6999999999998
 20
34.84999999999996
 30
0.0
 40
2.5
  1

 41
2.832000000000001
 72
     5
 11
131.2999999999999
 21
34.84999999999996
 31
0.0
100
AcDbAttribute
  2
ÄND1
 70
     0
  0
ATTRIB
  5
4814
330
47F8
100
AcDbEntity
 67
     1
  8
RAHMEN013
100
AcDbText
 10
133.2999999999999
 20
34.84999999999996
 30
0.0
 40
2.5
  1

 41
1.450909090909088
 72
     5
 11
144.6999999999998
 21
34.84999999999996
 31
0.0
100
AcDbAttribute
  2
DAT1
 70
     0
  0
ATTRIB
  5
4815
330
47F8
100
AcDbEntity
 67
     1
  8
RAHMEN013
100
AcDbText
 10
146.2999999999999
 20
34.84999999999996
 30
0.0
 40
2.5
  1

 41
0.5660869565217329
 72
     5
 11
152.4999999999998
 21
34.84999999999996
 31
0.0
100
AcDbAttribute
  2
NAME1
 70
     0
  0
ATTRIB
  5
4816
330
47F8
100
AcDbEntity
 67
     1
  8
RAHMEN013
100
AcDbText
 10
102.5999999999999
 20
31.87499999999996
 30
0.0
 40
2.5
  1

 72
     4
 11
102.5999999999999
 21
31.87499999999996
 31
0.0
100
AcDbAttribute
  2
ZUST2
 70
     0
  0
ATTRIB
  5
4817
330
47F8
100
AcDbEntity
 67
     1
  8
RAHMEN013
100
AcDbText
 10
107.6999999999998
 20
30.59999999999996
 30
0.0
 40
2.5
  1

 41
2.509367088607596
 72
     5
 11
131.2999999999999
 21
30.59999999999996
 31
0.0
100
AcDbAttribute
  2
ÄND2
 70
     0
  0
ATTRIB
  5
4818
330
47F8
100
AcDbEntity
 67
     1
  8
RAHMEN013
100
AcDbText
 10
133.2999999999999
 20
30.59999999999997
 30
0.0
 40
2.5
  1

 50
359.9999999999999
 41
1.276799999999997
 72
     5
 11
144.6999999999998
 21
30.59999999999996
 31
0.0
100
AcDbAttribute
  2
DAT2
 70
     0
  0
ATTRIB
  5
4819
330
47F8
100
AcDbEntity
 67
     1
  8
RAHMEN013
100
AcDbText
 10
146.2999999999999
 20
30.59999999999997
 30
0.0
 40
2.5
  1

 41
0.5156435643564301
 72
     5
 11
152.4999999999998
 21
30.59999999999997
 31
0.0
100
AcDbAttribute
  2
NAME2
 70
     0
  0
ATTRIB
  5
481A
330
47F8
100
AcDbEntity
 67
     1
  8
RAHMEN013
100
AcDbText
 10
102.5999999999999
 20
27.62499999999996
 30
0.0
 40
2.5
  1

 72
     4
 11
102.5999999999999
 21
27.62499999999996
 31
0.0
100
AcDbAttribute
  2
ZUST3
 70
     0
  0
ATTRIB
  5
481B
330
47F8
100
AcDbEntity
 67
     1
  8
RAHMEN013
100
AcDbText
 10
107.6999999999998
 20
26.34999999999996
 30
0.0
 40
2.5
  1

 41
2.509367088607595
 72
     5
 11
131.2999999999999
 21
26.34999999999996
 31
0.0
100
AcDbAttribute
  2
ÄND3
 70
     0
  0
ATTRIB
  5
481C
330
47F8
100
AcDbEntity
 67
     1
  8
RAHMEN013
100
AcDbText
 10
133.2999999999999
 20
26.34999999999997
 30
0.0
 40
2.5
  1

 50
359.9999999999999
 41
1.276799999999997
 72
     5
 11
144.6999999999998
 21
26.34999999999996
 31
0.0
100
AcDbAttribute
  2
DAT3
 70
     0
  0
ATTRIB
  5
481D
330
47F8
100
AcDbEntity
 67
     1
  8
RAHMEN013
100
AcDbText
 10
146.2999999999999
 20
26.34999999999997
 30
0.0
 40
2.5
  1

 41
0.51564356435643
 72
     5
 11
152.4999999999998
 21
26.34999999999997
 31
0.0
100
AcDbAttribute
  2
NAME3
 70
     0
  0
ATTRIB
  5
481E
330
47F8
100
AcDbEntity
 67
     1
  8
RAHMEN013
100
AcDbText
 10
102.5999999999999
 20
23.37499999999996
 30
0.0
 40
2.5
  1

 72
     4
 11
102.5999999999999
 21
23.37499999999996
 31
0.0
100
AcDbAttribute
  2
ZUST4
 70
     0
  0
ATTRIB
  5
481F
330
47F8
100
AcDbEntity
 67
     1
  8
RAHMEN013
100
AcDbText
 10
107.6999999999998
 20
22.09999999999996
 30
0.0
 40
2.5
  1

 41
2.478
 72
     5
 11
131.2999999999999
 21
22.09999999999996
 31
0.0
100
AcDbAttribute
  2
ÄND4
 70
     0
  0
ATTRIB
  5
4820
330
47F8
100
AcDbEntity
 67
     1
  8
RAHMEN013
100
AcDbText
 10
133.2999999999999
 20
22.09999999999997
 30
0.0
 40
2.5
  1

 50
359.9999999999999
 41
1.259999999999997
 72
     5
 11
144.6999999999998
 21
22.09999999999996
 31
0.0
100
AcDbAttribute
  2
DAT4
 70
     0
  0
ATTRIB
  5
4821
330
47F8
100
AcDbEntity
 67
     1
  8
RAHMEN013
100
AcDbText
 10
146.2999999999999
 20
22.09999999999997
 30
0.0
 40
2.5
  1

 41
0.5105882352941121
 72
     5
 11
152.4999999999998
 21
22.09999999999997
 31
0.0
100
AcDbAttribute
  2
NAME4
 70
     0
  0
ATTRIB
  5
4822
330
47F8
100
AcDbEntity
 67
     1
  8
RAHMEN013
100
AcDbText
 10
102.5999999999999
 20
19.12499999999996
 30
0.0
 40
2.5
  1

 72
     4
 11
102.5999999999999
 21
19.12499999999996
 31
0.0
100
AcDbAttribute
  2
ZUST5
 70
     0
  0
ATTRIB
  5
4823
330
47F8
100
AcDbEntity
 67
     1
  8
RAHMEN013
100
AcDbText
 10
107.6999999999998
 20
17.84999999999996
 30
0.0
 40
2.5
  1

 41
2.509367088607595
 72
     5
 11
131.2999999999999
 21
17.84999999999996
 31
0.0
100
AcDbAttribute
  2
ÄND5
 70
     0
  0
ATTRIB
  5
4824
330
47F8
100
AcDbEntity
 67
     1
  8
RAHMEN013
100
AcDbText
 10
133.2999999999999
 20
17.84999999999997
 30
0.0
 40
2.5
  1

 50
359.9999999999999
 41
1.276799999999997
 72
     5
 11
144.6999999999998
 21
17.84999999999996
 31
0.0
100
AcDbAttribute
  2
DAT5
 70
     0
  0
ATTRIB
  5
4825
330
47F8
100
AcDbEntity
 67
     1
  8
RAHMEN013
100
AcDbText
 10
146.2999999999999
 20
17.84999999999997
 30
0.0
 40
2.5
  1

 41
0.5156435643564298
 72
     5
 11
152.4999999999998
 21
17.84999999999997
 31
0.0
100
AcDbAttribute
  2
NAME5
 70
     0
  0
ATTRIB
  5
4826
330
47F8
100
AcDbEntity
 67
     1
  8
RAHMEN013
100
AcDbText
 10
102.5999999999999
 20
14.87499999999996
 30
0.0
 40
2.5
  1

 72
     4
 11
102.5999999999999
 21
14.87499999999996
 31
0.0
100
AcDbAttribute
  2
ZUST6
 70
     0
  0
ATTRIB
  5
4827
330
47F8
100
AcDbEntity
 67
     1
  8
RAHMEN013
100
AcDbText
 10
107.6999999999998
 20
13.59999999999996
 30
0.0
 40
2.5
  1

 41
2.541538461538463
 72
     5
 11
131.2999999999999
 21
13.59999999999996
 31
0.0
100
AcDbAttribute
  2
ÄND6
 70
     0
  0
ATTRIB
  5
4828
330
47F8
100
AcDbEntity
 67
     1
  8
RAHMEN013
100
AcDbText
 10
133.2999999999999
 20
13.59999999999997
 30
0.0
 40
2.5
  1

 50
359.9999999999999
 41
1.294054054054051
 72
     5
 11
144.6999999999998
 21
13.59999999999996
 31
0.0
100
AcDbAttribute
  2
DAT6
 70
     0
  0
ATTRIB
  5
4829
330
47F8
100
AcDbEntity
 67
     1
  8
RAHMEN013
100
AcDbText
 10
146.2999999999999
 20
13.59999999999997
 30
0.0
 40
2.5
  1

 41
0.5207999999999944
 72
     5
 11
152.4999999999998
 21
13.59999999999997
 31
0.0
100
AcDbAttribute
  2
NAME6
 70
     0
  0
ATTRIB
  5
482A
330
47F8
100
AcDbEntity
 67
     1
  8
RAHMEN013
100
AcDbText
 10
102.5999999999999
 20
10.62499999999997
 30
0.0
 40
2.5
  1

 72
     4
 11
102.5999999999999
 21
10.62499999999997
 31
0.0
100
AcDbAttribute
  2
ZUST7
 70
     0
  0
ATTRIB
  5
482B
330
47F8
100
AcDbEntity
 67
     1
  8
RAHMEN013
100
AcDbText
 10
107.6999999999998
 20
9.349999999999965
 30
0.0
 40
2.5
  1

 41
2.509367088607596
 72
     5
 11
131.2999999999999
 21
9.349999999999965
 31
0.0
100
AcDbAttribute
  2
ÄND7
 70
     0
  0
ATTRIB
  5
482C
330
47F8
100
AcDbEntity
 67
     1
  8
RAHMEN013
100
AcDbText
 10
133.2999999999999
 20
9.349999999999965
 30
0.0
 40
2.5
  1

 41
1.276799999999997
 72
     5
 11
144.6999999999998
 21
9.349999999999965
 31
0.0
100
AcDbAttribute
  2
DAT7
 70
     0
  0
ATTRIB
  5
482D
330
47F8
100
AcDbEntity
 67
     1
  8
RAHMEN013
100
AcDbText
 10
146.2999999999999
 20
9.349999999999965
 30
0.0
 40
2.5
  1

 41
0.51564356435643
 72
     5
 11
152.4999999999998
 21
9.349999999999965
 31
0.0
100
AcDbAttribute
  2
NAME7
 70
     0
  0
ATTRIB
  5
482E
330
47F8
100
AcDbEntity
 67
     1
  8
RAHMEN013
100
AcDbText
 10
102.5999999999999
 20
6.374999999999971
 30
0.0
 40
2.5
  1

 72
     4
 11
102.5999999999999
 21
6.374999999999971
 31
0.0
100
AcDbAttribute
  2
ZUST8
 70
     0
  0
ATTRIB
  5
482F
330
47F8
100
AcDbEntity
 67
     1
  8
RAHMEN013
100
AcDbText
 10
107.6999999999998
 20
5.099999999999965
 30
0.0
 40
2.5
  1

 41
2.509367088607596
 72
     5
 11
131.2999999999999
 21
5.099999999999965
 31
0.0
100
AcDbAttribute
  2
ÄND8
 70
     0
  0
ATTRIB
  5
4830
330
47F8
100
AcDbEntity
 67
     1
  8
RAHMEN013
100
AcDbText
 10
133.2999999999999
 20
5.099999999999965
 30
0.0
 40
2.5
  1

 41
1.276799999999997
 72
     5
 11
144.6999999999998
 21
5.099999999999965
 31
0.0
100
AcDbAttribute
  2
DAT8
 70
     0
  0
ATTRIB
  5
4831
330
47F8
100
AcDbEntity
 67
     1
  8
RAHMEN013
100
AcDbText
 10
146.2999999999999
 20
5.099999999999965
 30
0.0
 40
2.5
  1

 41
0.51564356435643
 72
     5
 11
152.4999999999998
 21
5.099999999999965
 31
0.0
100
AcDbAttribute
  2
NAME8
 70
     0
  0
ATTRIB
  5
4832
330
47F8
100
AcDbEntity
 67
     1
  8
RAHMEN035
 62
   151
100
AcDbText
 10
192.2999999999998
 20
27.62499999999996
 30
0.0
 40
20.0
  1

 50
15.0
  7
HELV_N_BOLD
 72
     4
 11
192.2999999999998
 21
27.62499999999996
 31
0.0
100
AcDbAttribute
  2
ENTWURF
 70
     0
  0
SEQEND
  5
4833
330
47F8
100
AcDbEntity
 67
     1
  8
HILFSLINIEN4
  0
MTEXT
  5
48B3
330
2A7F
100
AcDbEntity
 67
     1
  8
RAHMEN035
100
AcDbMText
 10
203.0
 20
36.29999999999999
 30
0.0
 40
4.0
 41
100.0
 71
     1
 72
     5
  1
Beam Profiler\PBP104-VIS, BP104-IR\PBP109-VIS, BP109-IR
 73
     1
 44
1.0
  0
ENDSEC
  0
SECTION
  2
OBJECTS
  0
DICTIONARY
  5
1A
330
0
100
AcDbDictionary
281
     1
  3
ACAD_GROUP
350
18
  3
ACAD_LAYOUT
350
598
  3
ACAD_MLINESTYLE
350
19
  3
ACAD_PLOTSETTINGS
350
599
  3
ACAD_PLOTSTYLENAME
350
596
  3
AcDbVariableDictionary
350
2C4A
  0
DICTIONARY
  5
18
102
{ACAD_REACTORS
330
1A
102
}
330
1A
100
AcDbDictionary
281
     1
  0
DICTIONARY
  5
598
102
{ACAD_REACTORS
330
1A
102
}
330
1A
100
AcDbDictionary
281
     1
  3
Layout1
350
2A86
  3
Model
350
59A
  0
DICTIONARY
  5
19
102
{ACAD_REACTORS
330
1A
102
}
330
1A
100
AcDbDictionary
281
     1
  3
STANDARD
350
1C
  0
DICTIONARY
  5
599
102
{ACAD_REACTORS
330
1A
102
}
330
1A
100
AcDbDictionary
281
     1
  0
ACDBDICTIONARYWDFLT
  5
596
102
{ACAD_REACTORS
330
1A
102
}
330
1A
100
AcDbDictionary
281
     1
  3
Normal
350
597
100
AcDbDictionaryWithDefault
340
597
  0
DICTIONARY
  5
2C4A
102
{ACAD_REACTORS
330
1A
102
}
330
1A
100
AcDbDictionary
281
     1
  3
SORTENTS
350
2C4B
  0
LAYOUT
  5
2A86
102
{ACAD_REACTORS
330
598
102
}
330
598
100
AcDbPlotSettings
  1

  2
Acrobat Distiller A4q.pc3
  4
A4
  6

 40
3.174999952316284
 41
3.174999952316284
 42
3.17498779296875
 43
3.175003051757812
 44
297.0318298339843
 45
209.9098358154297
 46
2.39
 47
2.58
 48
0.0
 49
0.0
140
285.8999999999999
141
198.4
142
1.0
143
1.0
 70
   692
 72
     1
 73
     0
 74
     4
  7
Thorlabs Ploteinstellung normal.ctb
 75
    16
147
1.0
148
0.0
149
0.0
100
AcDbLayout
  1
Layout1
 70
     1
 71
     1
 10
-5.766734619140624
 20
-5.766749877929687
 11
291.2862744140625
 21
204.1219067382812
 12
0.0
 22
0.0
 32
0.0
 14
-5.0
 24
-9.0
 34
0.0
 15
290.0
 25
203.0
 35
0.0
146
0.0
 13
0.0
 23
0.0
 33
0.0
 16
1.0
 26
0.0
 36
0.0
 17
0.0
 27
1.0
 37
0.0
 76
     0
330
2A7F
331
2A80
  0
LAYOUT
  5
59A
102
{ACAD_REACTORS
330
598
102
}
330
598
100
AcDbPlotSettings
  1

  2
\\file-server01\HP LaserJet 5000 Series PS
  4
A4
  6

 40
5.746749877929687
 41
5.365768432617187
 42
5.70440673828125
 43
5.746734619140625
 44
209.8886566162109
 45
297.0530090332031
 46
0.0
 47
6.74
 48
29.13369226337499
 49
64.92780210221383
140
116.9602582227819
141
185.5194933070301
142
1.0
143
0.4425905686143342
 70
 11956
 72
     1
 73
     0
 74
     4
  7
Thorlabs Ploteinstellung normal.ctb
 75
     0
147
2.259424558301835
148
-29.13369226337499
149
-64.92780210221383
100
AcDbLayout
  1
Model
 70
     1
 71
     0
 10
0.0
 20
0.0
 11
12.0
 21
9.0
 12
0.0
 22
0.0
 32
0.0
 14
0.0
 24
0.0
 34
0.0
 15
0.0
 25
0.0
 35
0.0
146
0.0
 13
0.0
 23
0.0
 33
0.0
 16
1.0
 26
0.0
 36
0.0
 17
0.0
 27
1.0
 37
0.0
 76
     0
330
2
  0
MLINESTYLE
  5
1C
102
{ACAD_REACTORS
330
19
102
}
330
19
100
AcDbMlineStyle
  2
STANDARD
 70
     0
  3

 62
     0
 51
90.0
 52
90.0
 71
     2
 49
0.5
 62
   256
  6
BYLAYER
 49
-0.5
 62
   256
  6
BYLAYER
  0
ACDBPLACEHOLDER
  5
597
102
{ACAD_REACTORS
330
596
102
}
330
596
  0
DICTIONARYVAR
  5
2C4B
102
{ACAD_REACTORS
330
2C4A
102
}
330
2C4A
100
DictionaryVariables
280
     0
  1
96
  0
ENDSEC
  0
EOF
