  0
SECTION
  2
HEADER
  9
$ACADVER
  1
AC1015
  9
$ACADMAINTVER
 70
     6
  9
$DWGCODEPAGE
  3
ANSI_1252
  9
$INSBASE
 10
0.0
 20
0.0
 30
0.0
  9
$EXTMIN
 10
0.0
 20
0.0
 30
0.0
  9
$EXTMAX
 10
279.4
 20
215.9
 30
0.0
  9
$LIMMIN
 10
0.0
 20
0.0
  9
$LIMMAX
 10
279.4
 20
215.9
  9
$ORTHOMODE
 70
     0
  9
$REGENMODE
 70
     1
  9
$FILLMODE
 70
     1
  9
$QTEXTMODE
 70
     0
  9
$MIRRTEXT
 70
     1
  9
$LTSCALE
 40
1.0
  9
$ATTMODE
 70
     1
  9
$TEXTSIZE
 40
2.8222222222
  9
$TRACEWID
 40
1.0
  9
$TEXTSTYLE
  7
Standard
  9
$CLAYER
  8
0
  9
$CELTYPE
  6
ByLayer
  9
$CECOLOR
 62
   256
  9
$CELTSCALE
 40
1.0
  9
$DISPSILH
 70
     0
  9
$DIMSCALE
 40
1.0
  9
$DIMASZ
 40
3.175
  9
$DIMEXO
 40
1.27
  9
$DIMDLI
 40
3.75
  9
$DIMRND
 40
0.0
  9
$DIMDLE
 40
0.0
  9
$DIMEXE
 40
1.778
  9
$DIMTP
 40
0.0
  9
$DIMTM
 40
0.0
  9
$DIMTXT
 40
2.8222222222
  9
$DIMCEN
 40
2.5
  9
$DIMTSZ
 40
0.0
  9
$DIMTOL
 70
     0
  9
$DIMLIM
 70
     0
  9
$DIMTIH
 70
     1
  9
$DIMTOH
 70
     1
  9
$DIMSE1
 70
     0
  9
$DIMSE2
 70
     0
  9
$DIMTAD
 70
     0
  9
$DIMZIN
 70
     1
  9
$DIMBLK
  1

  9
$DIMASO
 70
     1
  9
$DIMSHO
 70
     1
  9
$DIMPOST
  1

  9
$DIMAPOST
  1

  9
$DIMALT
 70
     0
  9
$DIMALTD
 70
     3
  9
$DIMALTF
 40
0.0393700787
  9
$DIMLFAC
 40
0.5
  9
$DIMTOFL
 70
     1
  9
$DIMTVP
 40
0.0
  9
$DIMTIX
 70
     0
  9
$DIMSOXD
 70
     0
  9
$DIMSAH
 70
     0
  9
$DIMBLK1
  1

  9
$DIMBLK2
  1

  9
$DIMSTYLE
  2
ISO-25
  9
$DIMCLRD
 70
     0
  9
$DIMCLRE
 70
     0
  9
$DIMCLRT
 70
     0
  9
$DIMTFAC
 40
1.0
  9
$DIMGAP
 40
2.54
  9
$DIMJUST
 70
     0
  9
$DIMSD1
 70
     0
  9
$DIMSD2
 70
     0
  9
$DIMTOLJ
 70
     0
  9
$DIMTZIN
 70
     1
  9
$DIMALTZ
 70
     0
  9
$DIMALTTZ
 70
     0
  9
$DIMUPT
 70
     0
  9
$DIMDEC
 70
     1
  9
$DIMTDEC
 70
     1
  9
$DIMALTU
 70
     2
  9
$DIMALTTD
 70
     3
  9
$DIMTXSTY
  7
Standard
  9
$DIMAUNIT
 70
     0
  9
$DIMADEC
 70
     0
  9
$DIMALTRND
 40
0.0
  9
$DIMAZIN
 70
     0
  9
$DIMDSEP
 70
    44
  9
$DIMATFIT
 70
     3
  9
$DIMFRAC
 70
     0
  9
$DIMLDRBLK
  1

  9
$DIMLUNIT
 70
     2
  9
$DIMLWD
 70
    -2
  9
$DIMLWE
 70
    -2
  9
$DIMTMOVE
 70
     0
  9
$LUNITS
 70
     2
  9
$LUPREC
 70
     1
  9
$SKETCHINC
 40
1.0
  9
$FILLETRAD
 40
10.0
  9
$AUNITS
 70
     0
  9
$AUPREC
 70
     0
  9
$MENU
  1
.
  9
$ELEVATION
 40
0.0
  9
$PELEVATION
 40
0.0
  9
$THICKNESS
 40
0.0
  9
$LIMCHECK
 70
     0
  9
$CHAMFERA
 40
10.0
  9
$CHAMFERB
 40
10.0
  9
$CHAMFERC
 40
20.0
  9
$CHAMFERD
 40
0.0
  9
$SKPOLY
 70
     0
  9
$TDCREATE
 40
2456349.372905116
  9
$TDUCREATE
 40
2456349.581238449
  9
$TDUPDATE
 40
2456349.372910359
  9
$TDUUPDATE
 40
2456349.581243692
  9
$TDINDWG
 40
0.0000000116
  9
$TDUSRTIMER
 40
0.0000000116
  9
$USRTIMER
 70
     1
  9
$ANGBASE
 50
0.0
  9
$ANGDIR
 70
     0
  9
$PDMODE
 70
     0
  9
$PDSIZE
 40
-1.0
  9
$PLINEWID
 40
0.0
  9
$SPLFRAME
 70
     0
  9
$SPLINETYPE
 70
     6
  9
$SPLINESEGS
 70
     8
  9
$HANDSEED
  5
2B6
  9
$SURFTAB1
 70
     6
  9
$SURFTAB2
 70
     6
  9
$SURFTYPE
 70
     6
  9
$SURFU
 70
     6
  9
$SURFV
 70
     6
  9
$UCSBASE
  2

  9
$UCSNAME
  2

  9
$UCSORG
 10
0.0
 20
0.0
 30
0.0
  9
$UCSXDIR
 10
1.0
 20
0.0
 30
0.0
  9
$UCSYDIR
 10
0.0
 20
1.0
 30
0.0
  9
$UCSORTHOREF
  2

  9
$UCSORTHOVIEW
 70
     0
  9
$UCSORGTOP
 10
0.0
 20
0.0
 30
0.0
  9
$UCSORGBOTTOM
 10
0.0
 20
0.0
 30
0.0
  9
$UCSORGLEFT
 10
0.0
 20
0.0
 30
0.0
  9
$UCSORGRIGHT
 10
0.0
 20
0.0
 30
0.0
  9
$UCSORGFRONT
 10
0.0
 20
0.0
 30
0.0
  9
$UCSORGBACK
 10
0.0
 20
0.0
 30
0.0
  9
$PUCSBASE
  2

  9
$PUCSNAME
  2

  9
$PUCSORG
 10
0.0
 20
0.0
 30
0.0
  9
$PUCSXDIR
 10
1.0
 20
0.0
 30
0.0
  9
$PUCSYDIR
 10
0.0
 20
1.0
 30
0.0
  9
$PUCSORTHOREF
  2

  9
$PUCSORTHOVIEW
 70
     0
  9
$PUCSORGTOP
 10
0.0
 20
0.0
 30
0.0
  9
$PUCSORGBOTTOM
 10
0.0
 20
0.0
 30
0.0
  9
$PUCSORGLEFT
 10
0.0
 20
0.0
 30
0.0
  9
$PUCSORGRIGHT
 10
0.0
 20
0.0
 30
0.0
  9
$PUCSORGFRONT
 10
0.0
 20
0.0
 30
0.0
  9
$PUCSORGBACK
 10
0.0
 20
0.0
 30
0.0
  9
$USERI1
 70
     0
  9
$USERI2
 70
     0
  9
$USERI3
 70
     0
  9
$USERI4
 70
     0
  9
$USERI5
 70
     0
  9
$USERR1
 40
0.0
  9
$USERR2
 40
0.0
  9
$USERR3
 40
0.0
  9
$USERR4
 40
0.0
  9
$USERR5
 40
0.0
  9
$WORLDVIEW
 70
     1
  9
$SHADEDGE
 70
     3
  9
$SHADEDIF
 70
    70
  9
$TILEMODE
 70
     1
  9
$MAXACTVP
 70
    64
  9
$PINSBASE
 10
0.0
 20
0.0
 30
0.0
  9
$PLIMCHECK
 70
     0
  9
$PEXTMIN
 10
1.0000000000E+20
 20
1.0000000000E+20
 30
1.0000000000E+20
  9
$PEXTMAX
 10
-1.0000000000E+20
 20
-1.0000000000E+20
 30
-1.0000000000E+20
  9
$PLIMMIN
 10
0.0
 20
0.0
  9
$PLIMMAX
 10
420.0
 20
297.0
  9
$UNITMODE
 70
     0
  9
$VISRETAIN
 70
     1
  9
$PLINEGEN
 70
     0
  9
$PSLTSCALE
 70
     1
  9
$TREEDEPTH
 70
  3020
  9
$CMLSTYLE
  2
Standard
  9
$CMLJUST
 70
     0
  9
$CMLSCALE
 40
20.0
  9
$PROXYGRAPHICS
 70
     1
  9
$MEASUREMENT
 70
     1
  9
$CELWEIGHT
370
    -1
  9
$ENDCAPS
280
     0
  9
$JOINSTYLE
280
     0
  9
$LWDISPLAY
290
     1
  9
$INSUNITS
 70
     4
  9
$HYPERLINKBASE
  1

  9
$STYLESHEET
  1

  9
$XEDIT
290
     1
  9
$CEPSNTYPE
380
     0
  9
$PSTYLEMODE
290
     1
  9
$FINGERPRINTGUID
  2
{A6705579-091E-4AC2-BB61-ECA730A5E762}
  9
$VERSIONGUID
  2
{FAEB1C32-E019-11D5-929B-00C0DF256EC4}
  9
$EXTNAMES
290
     1
  9
$PSVPSCALE
 40
0.0
  9
$OLESTARTUP
290
     0
  0
ENDSEC
  0
SECTION
  2
CLASSES
  0
CLASS
  1
ACDBDICTIONARYWDFLT
  2
AcDbDictionaryWithDefault
  3
ObjectDBX Classes
 90
        0
280
     0
281
     0
  0
CLASS
  1
VISUALSTYLE
  2
AcDbVisualStyle
  3
ObjectDBX Classes
 90
     4095
280
     0
281
     0
  0
CLASS
  1
MATERIAL
  2
AcDbMaterial
  3
ObjectDBX Classes
 90
     1153
280
     0
281
     0
  0
CLASS
  1
ACDBPLACEHOLDER
  2
AcDbPlaceHolder
  3
ObjectDBX Classes
 90
        0
280
     0
281
     0
  0
CLASS
  1
LAYOUT
  2
AcDbLayout
  3
ObjectDBX Classes
 90
        0
280
     0
281
     0
  0
ENDSEC
  0
SECTION
  2
TABLES
  0
TABLE
  2
VPORT
  5
8
330
0
100
AcDbSymbolTable
 70
     1
  0
VPORT
  5
29
330
8
100
AcDbSymbolTableRecord
100
AcDbViewportTableRecord
  2
*Active
 70
     0
 10
0.0
 20
0.0
 11
1.0
 21
1.0
 12
139.7
 22
107.95
 13
0.0
 23
0.0
 14
10.0
 24
10.0
 15
10.0
 25
10.0
 16
0.0
 26
0.0
 36
1.0
 17
0.0
 27
0.0
 37
0.0
 40
215.9
 41
1.2941176471
 42
50.0
 43
0.0
 44
0.0
 50
0.0
 51
0.0
 71
     0
 72
  2000
 73
     1
 74
     3
 75
     0
 76
     0
 77
     0
 78
     0
281
     0
 65
     1
110
0.0
120
0.0
130
0.0
111
1.0
121
0.0
131
0.0
112
0.0
122
1.0
132
0.0
 79
     0
146
0.0
  0
ENDTAB
  0
TABLE
  2
LTYPE
  5
5
330
0
100
AcDbSymbolTable
 70
     6
  0
LTYPE
  5
14
330
5
100
AcDbSymbolTableRecord
100
AcDbLinetypeTableRecord
  2
ByBlock
 70
     0
  3

 72
    65
 73
     0
 40
0.0
  0
LTYPE
  5
15
330
5
100
AcDbSymbolTableRecord
100
AcDbLinetypeTableRecord
  2
ByLayer
 70
     0
  3

 72
    65
 73
     0
 40
0.0
  0
LTYPE
  5
16
330
5
100
AcDbSymbolTableRecord
100
AcDbLinetypeTableRecord
  2
Continuous
 70
     0
  3
Solid line
 72
    65
 73
     0
 40
0.0
  0
LTYPE
  5
3F
330
5
100
AcDbSymbolTableRecord
100
AcDbLinetypeTableRecord
  2
HIDDEN
 70
     0
  3
Hidden __ __ __ __ __ __ __ __ __ __ __ __ __ __
 72
    65
 73
     2
 40
1.905
 49
1.27
 74
     0
 49
-0.635
 74
     0
  0
LTYPE
  5
40
330
5
100
AcDbSymbolTableRecord
100
AcDbLinetypeTableRecord
  2
PHANTOM
 70
     0
  3
Phantom ______  __  __  ______  __  __  ______
 72
    65
 73
     6
 40
12.7
 49
6.35
 74
     0
 49
-1.27
 74
     0
 49
1.27
 74
     0
 49
-1.27
 74
     0
 49
1.27
 74
     0
 49
-1.27
 74
     0
  0
LTYPE
  5
41
330
5
100
AcDbSymbolTableRecord
100
AcDbLinetypeTableRecord
  2
CENTER
 70
     0
  3
Center ____ _ ____ _ ____ _ ____ _ ____ _ ____
 72
    65
 73
     4
 40
10.16
 49
6.35
 74
     0
 49
-1.27
 74
     0
 49
1.27
 74
     0
 49
-1.27
 74
     0
  0
LTYPE
  5
42
330
5
100
AcDbSymbolTableRecord
100
AcDbLinetypeTableRecord
  2
CENTERX2
 70
     0
  3
Center (2x) ________  __  ________  __  _____
 72
    65
 73
     4
 40
20.32
 49
12.7
 74
     0
 49
-2.54
 74
     0
 49
2.54
 74
     0
 49
-2.54
 74
     0
  0
LTYPE
  5
43
330
5
100
AcDbSymbolTableRecord
100
AcDbLinetypeTableRecord
  2
DOT2
 70
     0
  3
Dot (.5x) ........................................
 72
    65
 73
     2
 40
0.635
 49
0.0
 74
     0
 49
-0.635
 74
     0
  0
ENDTAB
  0
TABLE
  2
LAYER
  5
2
330
0
100
AcDbSymbolTable
 70
     2
  0
LAYER
  5
10
330
2
100
AcDbSymbolTableRecord
100
AcDbLayerTableRecord
  2
0
 70
     0
 62
     7
  6
Continuous
370
    -3
390
F
  0
LAYER
  5
44
330
2
100
AcDbSymbolTableRecord
100
AcDbLayerTableRecord
  2
FORMAT
 70
     0
 62
     7
  6
Continuous
370
    -3
390
F
  0
ENDTAB
  0
TABLE
  2
STYLE
  5
3
330
0
100
AcDbSymbolTable
 70
     4
  0
STYLE
  5
11
330
3
100
AcDbSymbolTableRecord
100
AcDbTextStyleTableRecord
  2
Standard
 70
     0
 40
0.0
 41
1.0
 50
0.0
 71
     0
 42
2.8222222222
  3
txt
  4

  0
STYLE
  5
6C
330
3
100
AcDbSymbolTableRecord
100
AcDbTextStyleTableRecord
  2
SLDTEXTSTYLE0
 70
     0
 40
0.0
 41
0.75
 50
0.0
 71
     0
 42
0.2
  3
TXT
  4

  0
STYLE
  5
78
330
3
100
AcDbSymbolTableRecord
100
AcDbTextStyleTableRecord
  2
SLDTEXTSTYLE1
 70
     0
 40
0.0
 41
0.6
 50
0.0
 71
     0
 42
0.2
  3
TXT
  4

  0
STYLE
  5
A9
330
3
100
AcDbSymbolTableRecord
100
AcDbTextStyleTableRecord
  2
SLDTEXTSTYLE2
 70
     0
 40
0.0
 41
0.7
 50
0.0
 71
     0
 42
0.2
  3
TXT
  4

  0
ENDTAB
  0
TABLE
  2
VIEW
  5
6
330
0
100
AcDbSymbolTable
 70
     0
  0
ENDTAB
  0
TABLE
  2
UCS
  5
7
330
0
100
AcDbSymbolTable
 70
     0
  0
ENDTAB
  0
TABLE
  2
APPID
  5
9
330
0
100
AcDbSymbolTable
 70
     1
  0
APPID
  5
12
330
9
100
AcDbSymbolTableRecord
100
AcDbRegAppTableRecord
  2
ACAD
 70
     0
  0
ENDTAB
  0
TABLE
  2
DIMSTYLE
  5
A
330
0
100
AcDbSymbolTable
 70
     8
100
AcDbDimStyleTable
  0
DIMSTYLE
105
27
330
A
100
AcDbSymbolTableRecord
100
AcDbDimStyleTableRecord
  2
ISO-25
 70
     0
 41
2.5
 42
0.625
 43
3.75
 44
1.25
 73
     0
 74
     0
 77
     1
 78
     8
140
2.5
141
2.5
143
0.0393700787
147
0.625
171
     3
172
     1
178
     0
271
     2
272
     2
274
     3
278
    44
283
     0
284
     8
340
11
  0
DIMSTYLE
105
178
102
{ACAD_REACTORS
330
177
330
18B
330
19D
102
}
330
A
100
AcDbSymbolTableRecord
100
AcDbDimStyleTableRecord
  2
SLDDIMSTYLE0
 70
     0
 41
3.175
 44
0.0
 45
0.000000001
 78
    12
 79
     3
140
2.1166666667
143
0.0393700787
147
0.5291666667
148
0.000000001
170
     1
173
     1
178
     0
271
     1
272
     1
276
     2
284
    12
340
6C
  0
DIMSTYLE
105
1B2
102
{ACAD_REACTORS
330
1B1
330
1C5
330
1D8
330
1EC
330
22D
102
}
330
A
100
AcDbSymbolTableRecord
100
AcDbDimStyleTableRecord
  2
SLDDIMSTYLE1
 70
     0
 41
3.175
 44
0.0
 45
0.000000001
 78
    12
 79
     3
140
2.1166666667
143
0.0393700787
147
0.5291666667
148
0.000000001
170
     1
172
     1
173
     1
178
     0
271
     1
272
     1
276
     2
284
    12
289
     0
340
6C
  0
DIMSTYLE
105
201
330
A
100
AcDbSymbolTableRecord
100
AcDbDimStyleTableRecord
  2
SLDDIMSTYLE2
 70
     0
 41
3.175
 44
0.0
 45
0.000000001
140
0.0
146
3.175
147
0.0
173
     1
178
     0
271
     0
272
     0
276
     2
340
11
  0
DIMSTYLE
105
210
102
{ACAD_REACTORS
330
20F
102
}
330
A
100
AcDbSymbolTableRecord
100
AcDbDimStyleTableRecord
  2
SLDDIMSTYLE3
 70
     0
 41
3.175
 44
0.0
 78
    12
 79
     3
140
2.1166666667
143
0.0393700787
147
0.5291666667
148
0.000000001
170
     1
173
     1
178
     0
272
     0
276
     2
284
    12
340
6C
  0
DIMSTYLE
105
21D
102
{ACAD_REACTORS
330
21C
330
23F
102
}
330
A
100
AcDbSymbolTableRecord
100
AcDbDimStyleTableRecord
  2
SLDDIMSTYLE4
 70
     0
 41
3.175
 44
0.0
 45
0.000000001
 78
    12
 79
     3
140
2.1166666667
141
0.0
143
0.0393700787
147
0.5291666667
148
0.000000001
170
     1
173
     1
178
     0
271
     1
272
     1
276
     2
284
    12
340
6C
  0
DIMSTYLE
105
24B
102
{ACAD_REACTORS
330
24A
102
}
330
A
100
AcDbSymbolTableRecord
100
AcDbDimStyleTableRecord
  2
SLDDIMSTYLE5
 70
     0
  3
<>
  4
<>
 41
3.175
 44
0.0
 45
0.000000001
 78
    12
 79
     3
140
2.1166666667
141
0.0
143
0.0393700787
147
0.5291666667
148
0.000000001
170
     1
173
     1
178
     0
271
     1
272
     1
276
     2
284
    12
340
6C
  0
DIMSTYLE
105
28A
330
A
100
AcDbSymbolTableRecord
100
AcDbDimStyleTableRecord
  2
SLDDIMSTYLE6
 70
     0
 41
1.016
 44
0.0
 45
0.000000001
140
0.0
146
1.016
147
0.0
173
     1
178
     0
271
     0
272
     0
276
     2
340
11
341
28B
343
28B
344
28B
  0
ENDTAB
  0
TABLE
  2
BLOCK_RECORD
  5
1
330
0
100
AcDbSymbolTable
 70
    25
  0
BLOCK_RECORD
  5
1F
330
1
100
AcDbSymbolTableRecord
100
AcDbBlockTableRecord
  2
*Model_Space
340
22
  0
BLOCK_RECORD
  5
1B
330
1
100
AcDbSymbolTableRecord
100
AcDbBlockTableRecord
  2
*Paper_Space
340
1E
  0
BLOCK_RECORD
  5
23
330
1
100
AcDbSymbolTableRecord
100
AcDbBlockTableRecord
  2
*Paper_Space0
340
26
  0
BLOCK_RECORD
  5
45
330
1
100
AcDbSymbolTableRecord
100
AcDbBlockTableRecord
  2
Third Angle Projection Block
340
0
102
{BLKREFS
331
6A
102
}
  0
BLOCK_RECORD
  5
7E
330
1
100
AcDbSymbolTableRecord
100
AcDbBlockTableRecord
  2
SW_NOTE_0
340
0
102
{BLKREFS
331
83
102
}
  0
BLOCK_RECORD
  5
84
330
1
100
AcDbSymbolTableRecord
100
AcDbBlockTableRecord
  2
SW_NOTE_1
340
0
102
{BLKREFS
331
89
102
}
  0
BLOCK_RECORD
  5
8B
330
1
100
AcDbSymbolTableRecord
100
AcDbBlockTableRecord
  2
SW_NOTE_2
340
0
102
{BLKREFS
331
90
102
}
  0
BLOCK_RECORD
  5
92
330
1
100
AcDbSymbolTableRecord
100
AcDbBlockTableRecord
  2
SW_NOTE_3
340
0
102
{BLKREFS
331
99
102
}
  0
BLOCK_RECORD
  5
9A
330
1
100
AcDbSymbolTableRecord
100
AcDbBlockTableRecord
  2
SW_NOTE_4
340
0
102
{BLKREFS
331
B8
102
}
  0
BLOCK_RECORD
  5
179
330
1
100
AcDbSymbolTableRecord
100
AcDbBlockTableRecord
  2
_D
340
0
  0
BLOCK_RECORD
  5
18C
330
1
100
AcDbSymbolTableRecord
100
AcDbBlockTableRecord
  2
_D_1
340
0
  0
BLOCK_RECORD
  5
19E
330
1
100
AcDbSymbolTableRecord
100
AcDbBlockTableRecord
  2
_D_2
340
0
  0
BLOCK_RECORD
  5
1B3
330
1
100
AcDbSymbolTableRecord
100
AcDbBlockTableRecord
  2
_D_3
340
0
  0
BLOCK_RECORD
  5
1C6
330
1
100
AcDbSymbolTableRecord
100
AcDbBlockTableRecord
  2
_D_4
340
0
  0
BLOCK_RECORD
  5
1D9
330
1
100
AcDbSymbolTableRecord
100
AcDbBlockTableRecord
  2
_D_5
340
0
  0
BLOCK_RECORD
  5
1ED
330
1
100
AcDbSymbolTableRecord
100
AcDbBlockTableRecord
  2
_D_6
340
0
  0
BLOCK_RECORD
  5
211
330
1
100
AcDbSymbolTableRecord
100
AcDbBlockTableRecord
  2
_D_7
340
0
  0
BLOCK_RECORD
  5
21E
330
1
100
AcDbSymbolTableRecord
100
AcDbBlockTableRecord
  2
_D_8
340
0
  0
BLOCK_RECORD
  5
22E
330
1
100
AcDbSymbolTableRecord
100
AcDbBlockTableRecord
  2
_D_9
340
0
  0
BLOCK_RECORD
  5
240
330
1
100
AcDbSymbolTableRecord
100
AcDbBlockTableRecord
  2
_D_10
340
0
  0
BLOCK_RECORD
  5
24C
330
1
100
AcDbSymbolTableRecord
100
AcDbBlockTableRecord
  2
_D_11
340
0
  0
BLOCK_RECORD
  5
255
330
1
100
AcDbSymbolTableRecord
100
AcDbBlockTableRecord
  2
SW_SYMBOL_HOLE_DEPTH
340
0
102
{BLKREFS
331
25C
331
298
102
}
  0
BLOCK_RECORD
  5
25E
330
1
100
AcDbSymbolTableRecord
100
AcDbBlockTableRecord
  2
SW_CENTERMARKSYMBOL_0
340
0
102
{BLKREFS
331
265
102
}
  0
BLOCK_RECORD
  5
266
330
1
100
AcDbSymbolTableRecord
100
AcDbBlockTableRecord
  2
SW_CENTERMARKSYMBOL_1
340
0
102
{BLKREFS
331
26D
102
}
  0
BLOCK_RECORD
  5
284
330
1
100
AcDbSymbolTableRecord
100
AcDbBlockTableRecord
  2
SW_NOTE_5
340
0
102
{BLKREFS
331
289
102
}
  0
BLOCK_RECORD
  5
28B
330
1
100
AcDbSymbolTableRecord
100
AcDbBlockTableRecord
  2
_DOT
340
0
  0
BLOCK_RECORD
  5
294
330
1
100
AcDbSymbolTableRecord
100
AcDbBlockTableRecord
  2
SW_NOTE_6
340
0
102
{BLKREFS
331
29B
102
}
  0
ENDTAB
  0
ENDSEC
  0
SECTION
  2
BLOCKS
  0
BLOCK
  5
20
330
1F
100
AcDbEntity
  8
0
100
AcDbBlockBegin
  2
*Model_Space
 70
     0
 10
0.0
 20
0.0
 30
0.0
  3
*Model_Space
  1

  0
ENDBLK
  5
21
330
1F
100
AcDbEntity
  8
0
100
AcDbBlockEnd
  0
BLOCK
  5
1C
330
1B
100
AcDbEntity
 67
     1
  8
0
100
AcDbBlockBegin
  2
*Paper_Space
 70
     0
 10
0.0
 20
0.0
 30
0.0
  3
*Paper_Space
  1

  0
ENDBLK
  5
1D
330
1B
100
AcDbEntity
 67
     1
  8
0
100
AcDbBlockEnd
  0
BLOCK
  5
24
330
23
100
AcDbEntity
  8
0
100
AcDbBlockBegin
  2
*Paper_Space0
 70
     0
 10
0.0
 20
0.0
 30
0.0
  3
*Paper_Space0
  1

  0
ENDBLK
  5
25
330
23
100
AcDbEntity
  8
0
100
AcDbBlockEnd
  0
BLOCK
  5
46
330
45
100
AcDbEntity
  8
0
100
AcDbBlockBegin
  2
Third Angle Projection Block
 70
     0
 10
0.0
 20
0.0
 30
0.0
  3
Third Angle Projection Block
  1

  0
CIRCLE
  5
48
330
45
100
AcDbEntity
  8
0
  6
Continuous
 62
     7
370
    30
100
AcDbCircle
 10
101.4766388944
 20
18.9404083667
 30
0.0
 40
1.768227153674871
  0
CIRCLE
  5
49
330
45
100
AcDbEntity
  8
0
  6
Continuous
 62
     7
370
    30
100
AcDbCircle
 10
101.4766388944
 20
18.9404083667
 30
0.0
 40
3.901228248531818
  0
LINE
  5
4A
330
45
100
AcDbEntity
  8
0
  6
CENTERX2
 62
     7
370
     0
100
AcDbLine
 10
110.1367822585
 20
18.9404083667
 30
0.0
 11
119.4527334874
 21
18.9404083667
 31
0.0
  0
LINE
  5
4B
330
45
100
AcDbEntity
  8
0
  6
Continuous
 62
     7
370
    30
100
AcDbLine
 10
111.0016388944
 20
20.7086355204
 30
0.0
 11
111.0016388944
 21
17.172181213
 31
0.0
  0
LINE
  5
4C
330
45
100
AcDbEntity
  8
0
  6
Continuous
 62
     7
370
    30
100
AcDbLine
 10
111.0016388944
 20
17.172181213
 30
0.0
 11
118.6216388944
 21
15.1304083667
 31
0.0
  0
LINE
  5
4D
330
45
100
AcDbEntity
  8
0
  6
Continuous
 62
     7
370
    30
100
AcDbLine
 10
118.6216388944
 20
15.1304083667
 30
0.0
 11
118.6216388944
 21
22.7504083667
 31
0.0
  0
LINE
  5
4E
330
45
100
AcDbEntity
  8
0
  6
Continuous
 62
     7
370
    30
100
AcDbLine
 10
118.6216388944
 20
22.7504083667
 30
0.0
 11
111.0016388944
 21
20.7086355204
 31
0.0
  0
LINE
  5
4F
330
45
100
AcDbEntity
  8
0
  6
CENTERX2
 62
     7
370
     0
100
AcDbLine
 10
96.6025854619
 20
18.9404083667
 30
0.0
 11
106.3506923269
 21
18.9404083667
 31
0.0
  0
LINE
  5
50
330
45
100
AcDbEntity
  8
0
  6
CENTERX2
 62
     7
370
     0
100
AcDbLine
 10
101.4766388944
 20
23.8144617992
 30
0.0
 11
101.4766388944
 21
14.0663549342
 31
0.0
  0
POINT
  5
51
330
45
100
AcDbEntity
  8
0
  6
Continuous
 62
     7
370
     0
100
AcDbPoint
 10
101.4766388944
 20
18.9404083667
 30
0.0
  0
ENDBLK
  5
47
330
45
100
AcDbEntity
  8
0
100
AcDbBlockEnd
  0
BLOCK
  5
7F
330
7E
100
AcDbEntity
  8
0
100
AcDbBlockBegin
  2
SW_NOTE_0
 70
     0
 10
0.0
 20
0.0
 30
0.0
  3
SW_NOTE_0
  1

  0
MTEXT
  5
81
330
7E
100
AcDbEntity
  8
0
  6
Continuous
 62
     0
370
     0
100
AcDbMText
 10
19.90725
 20
1.9645392354
 30
0.0
 40
1.524
 41
0.0
 71
     2
 72
     1
  1
VALUES IN PARENTHESIS ARE CALCULATED
  7
SLDTEXTSTYLE0
 73
     1
 44
1.0
  0
MTEXT
  5
82
330
7E
100
AcDbEntity
  8
0
  6
Continuous
 62
     0
370
     0
100
AcDbMText
 10
19.8778795174
 20
-0.5594606586
 30
0.0
 40
1.524
 41
0.0
 71
     2
 72
     1
  1
AND MAY CONTAIN ROUNDOFF ERRORS
  7
SLDTEXTSTYLE0
 73
     1
 44
1.0
  0
ENDBLK
  5
80
330
7E
100
AcDbEntity
  8
0
100
AcDbBlockEnd
  0
BLOCK
  5
85
330
84
100
AcDbEntity
  8
0
100
AcDbBlockBegin
  2
SW_NOTE_1
 70
     0
 10
0.0
 20
0.0
 30
0.0
  3
SW_NOTE_1
  1

  0
MTEXT
  5
87
330
84
100
AcDbEntity
  8
0
  6
Continuous
 62
     0
370
     0
100
AcDbMText
 10
0.0
 20
2.7285267159
 30
0.0
 40
2.1166666667
 41
0.0
 71
     1
 72
     1
  1
DRAWING
  7
SLDTEXTSTYLE0
 73
     1
 44
1.0
  0
MTEXT
  5
88
330
84
100
AcDbEntity
  8
0
  6
Continuous
 62
     0
370
     0
100
AcDbMText
 10
0.0
 20
-0.0936954723
 30
0.0
 40
2.1166666667
 41
0.0
 71
     1
 72
     1
  1
PROJECTION
  7
SLDTEXTSTYLE0
 73
     1
 44
1.0
  0
ENDBLK
  5
86
330
84
100
AcDbEntity
  8
0
100
AcDbBlockEnd
  0
BLOCK
  5
8C
330
8B
100
AcDbEntity
  8
0
100
AcDbBlockBegin
  2
SW_NOTE_2
 70
     0
 10
0.0
 20
0.0
 30
0.0
  3
SW_NOTE_2
  1

  0
MTEXT
  5
8E
330
8B
100
AcDbEntity
  8
0
  6
Continuous
 62
     0
370
     0
100
AcDbMText
 10
25.052734375
 20
4.0927900738
 30
0.0
 40
3.175
 41
0.0
 71
     2
 72
     1
  1
FOR INFORMATION ONLY
  7
SLDTEXTSTYLE0
 73
     1
 44
1.0
  0
MTEXT
  5
8F
330
8B
100
AcDbEntity
  8
0
  6
Continuous
 62
     0
370
     0
100
AcDbMText
 10
25.3768468589
 20
-0.1405432084
 30
0.0
 40
3.175
 41
0.0
 71
     2
 72
     1
  1
NOT FOR MANUFACTURING PURPOSES
  7
SLDTEXTSTYLE0
 73
     1
 44
1.0
  0
ENDBLK
  5
8D
330
8B
100
AcDbEntity
  8
0
100
AcDbBlockEnd
  0
BLOCK
  5
93
330
92
100
AcDbEntity
  8
0
100
AcDbBlockBegin
  2
SW_NOTE_3
 70
     0
 10
0.0
 20
0.0
 30
0.0
  3
SW_NOTE_3
  1

  0
MTEXT
  5
95
330
92
100
AcDbEntity
  8
0
  6
Continuous
 62
     0
370
     0
100
AcDbMText
 10
9.82265625
 20
3.0695925553
 30
0.0
 40
2.38125
 41
0.0
 71
     2
 72
     1
  1
Ø 25.4mm 90
  7
SLDTEXTSTYLE0
 73
     1
 44
1.0
  0
MTEXT
  5
96
330
92
100
AcDbEntity
  8
0
  6
Continuous
 62
     0
370
     0
100
AcDbMText
 10
20.8461360693
 20
3.0695925553
 30
0.0
 40
2.38125
 41
0.0
 71
     2
 72
     1
  1
%%d
  7
SLDTEXTSTYLE0
 73
     1
 44
1.0
  0
MTEXT
  5
97
330
92
100
AcDbEntity
  8
0
  6
Continuous
 62
     0
370
     0
100
AcDbMText
 10
37.6144348294
 20
3.0695925553
 30
0.0
 40
2.38125
 41
0.0
 71
     2
 72
     1
  1
OFF AXIS PARABOLA
  7
SLDTEXTSTYLE0
 73
     1
 44
1.0
  0
MTEXT
  5
98
330
92
100
AcDbEntity
  8
0
  6
Continuous
 62
     0
370
     0
100
AcDbMText
 10
25.6159659207
 20
-0.1054074063
 30
0.0
 40
2.38125
 41
0.0
 71
     2
 72
     1
  1
PFL=50.8mm, UV ENHANCED ALUMINUM
  7
SLDTEXTSTYLE0
 73
     1
 44
1.0
  0
ENDBLK
  5
94
330
92
100
AcDbEntity
  8
0
100
AcDbBlockEnd
  0
BLOCK
  5
9B
330
9A
100
AcDbEntity
  8
0
100
AcDbBlockBegin
  2
SW_NOTE_4
 70
     0
 10
0.0
 20
0.0
 30
0.0
  3
SW_NOTE_4
  1

  0
MTEXT
  5
9D
330
9A
100
AcDbEntity
  8
0
  6
Continuous
 62
     0
370
     0
100
AcDbMText
 10
0.0
 20
2.9468088531
 30
0.0
 40
2.286
 41
0.0
 71
     1
 72
     1
  1
NOTES/SPECIFICATIONS:
  7
SLDTEXTSTYLE0
 73
     1
 44
1.0
  0
MTEXT
  5
9E
330
9A
100
AcDbEntity
  8
0
  6
Continuous
 62
     0
370
     0
100
AcDbMText
 10
9.9999997765
 20
-3.6251913636
 30
0.0
 40
2.286
 41
0.0
 71
     1
 72
     1
  1
PFL(PARENT FOCAL LENGTH): 50.8mm
  7
SLDTEXTSTYLE0
 73
     1
 44
1.0
  0
MTEXT
  5
9F
330
9A
100
AcDbEntity
  8
0
  6
Continuous
 62
     0
370
     0
100
AcDbMText
 10
65.476777032
 20
-3.5336285044
 30
0.0
 40
2.38125
 41
0.0
 71
     1
 72
     1
  1
±
  7
SLDTEXTSTYLE0
 73
     1
 44
1.0
  0
MTEXT
  5
A0
330
9A
100
AcDbEntity
  8
0
  6
Continuous
 62
     0
370
     0
100
AcDbMText
 10
67.2186147422
 20
-3.6251913636
 30
0.0
 40
2.286
 41
0.0
 71
     1
 72
     1
  1
1%
  7
SLDTEXTSTYLE0
 73
     1
 44
1.0
  0
MTEXT
  5
A1
330
9A
100
AcDbEntity
  8
0
  6
Continuous
 62
     0
370
     0
100
AcDbMText
 10
0.0
 20
-3.6251913636
 30
0.0
 40
2.286
 41
0.0
 71
     1
 72
     1
  1
1.
  7
SLDTEXTSTYLE0
 73
     1
 44
1.0
  0
MTEXT
  5
A2
330
9A
100
AcDbEntity
  8
0
  6
Continuous
 62
     0
370
     0
100
AcDbMText
 10
9.9999997765
 20
-6.9424121986
 30
0.0
 40
2.286
 41
0.0
 71
     1
 72
     1
  1
REFLECTED FOCAL LENGTH: 101.6mm
  7
SLDTEXTSTYLE0
 73
     1
 44
1.0
  0
MTEXT
  5
A3
330
9A
100
AcDbEntity
  8
0
  6
Continuous
 62
     0
370
     0
100
AcDbMText
 10
64.8163761944
 20
-6.8508493395
 30
0.0
 40
2.38125
 41
0.0
 71
     1
 72
     1
  1
±
  7
SLDTEXTSTYLE0
 73
     1
 44
1.0
  0
MTEXT
  5
A4
330
9A
100
AcDbEntity
  8
0
  6
Continuous
 62
     0
370
     0
100
AcDbMText
 10
66.5582176298
 20
-6.9424121986
 30
0.0
 40
2.286
 41
0.0
 71
     1
 72
     1
  1
1%
  7
SLDTEXTSTYLE0
 73
     1
 44
1.0
  0
MTEXT
  5
A5
330
9A
100
AcDbEntity
  8
0
  6
Continuous
 62
     0
370
     0
100
AcDbMText
 10
0.0
 20
-6.9424121986
 30
0.0
 40
2.286
 41
0.0
 71
     1
 72
     1
  1
2.
  7
SLDTEXTSTYLE0
 73
     1
 44
1.0
  0
MTEXT
  5
A6
330
9A
100
AcDbEntity
  8
0
  6
Continuous
 62
     0
370
     0
100
AcDbMText
 10
9.9999997765
 20
-10.2596330336
 30
0.0
 40
2.286
 41
0.0
 71
     1
 72
     1
  1
CLEAR APERTURE: >90% OF DIAMETER
  7
SLDTEXTSTYLE0
 73
     1
 44
1.0
  0
MTEXT
  5
A7
330
9A
100
AcDbEntity
  8
0
  6
Continuous
 62
     0
370
     0
100
AcDbMText
 10
0.0
 20
-10.2596330336
 30
0.0
 40
2.286
 41
0.0
 71
     1
 72
     1
  1
3.
  7
SLDTEXTSTYLE0
 73
     1
 44
1.0
  0
MTEXT
  5
A8
330
9A
100
AcDbEntity
  8
0
  6
Continuous
 62
     0
370
     0
100
AcDbMText
 10
9.9999997765
 20
-13.545633142
 30
0.0
 40
2.286
 41
0.0
 71
     1
 72
     1
  1
SURFACE IRREGULARITY: 0.25
  7
SLDTEXTSTYLE0
 73
     1
 44
1.0
  0
MTEXT
  5
AA
330
9A
100
AcDbEntity
  8
0
  6
Continuous
 62
     0
370
     0
100
AcDbMText
 10
51.6369510442
 20
-13.5996081164
 30
0.0
 40
2.286
 41
0.0
 71
     1
 72
     1
  1
l
  7
SLDTEXTSTYLE2
 73
     1
 44
1.0
  0
MTEXT
  5
AB
330
9A
100
AcDbEntity
  8
0
  6
Continuous
 62
     0
370
     0
100
AcDbMText
 10
54.3039507965
 20
-13.545633142
 30
0.0
 40
2.286
 41
0.0
 71
     1
 72
     1
  1
@ 633nm
  7
SLDTEXTSTYLE0
 73
     1
 44
1.0
  0
MTEXT
  5
AC
330
9A
100
AcDbEntity
  8
0
  6
Continuous
 62
     0
370
     0
100
AcDbMText
 10
0.0
 20
-13.545633142
 30
0.0
 40
2.286
 41
0.0
 71
     1
 72
     1
  1
4.
  7
SLDTEXTSTYLE0
 73
     1
 44
1.0
  0
MTEXT
  5
AD
330
9A
100
AcDbEntity
  8
0
  6
Continuous
 62
     0
370
     0
100
AcDbMText
 10
9.9999997765
 20
-16.8856082829
 30
0.0
 40
2.286
 41
0.0
 71
     1
 72
     1
  1
SURFACE QUALITY: 40-20 SCRATCH-DIG
  7
SLDTEXTSTYLE0
 73
     1
 44
1.0
  0
MTEXT
  5
AE
330
9A
100
AcDbEntity
  8
0
  6
Continuous
 62
     0
370
     0
100
AcDbMText
 10
0.0
 20
-16.8856082829
 30
0.0
 40
2.286
 41
0.0
 71
     1
 72
     1
  1
5.
  7
SLDTEXTSTYLE0
 73
     1
 44
1.0
  0
MTEXT
  5
AF
330
9A
100
AcDbEntity
  8
0
  6
Continuous
 62
     0
370
     0
100
AcDbMText
 10
9.9999997765
 20
-20.1716083913
 30
0.0
 40
2.286
 41
0.0
 71
     1
 72
     1
  1
SURFACE ROUGHNESS: <100A RMS
  7
SLDTEXTSTYLE0
 73
     1
 44
1.0
  0
MTEXT
  5
B0
330
9A
100
AcDbEntity
  8
0
  6
Continuous
 62
     0
370
     0
100
AcDbMText
 10
0.0
 20
-20.1716083913
 30
0.0
 40
2.286
 41
0.0
 71
     1
 72
     1
  1
6.
  7
SLDTEXTSTYLE0
 73
     1
 44
1.0
  0
MTEXT
  5
B1
330
9A
100
AcDbEntity
  8
0
  6
Continuous
 62
     0
370
     0
100
AcDbMText
 10
9.9999997765
 20
-23.4576084996
 30
0.0
 40
2.286
 41
0.0
 71
     1
 72
     1
  1
COATING (PARABOLIC SURFACE): UV
  7
SLDTEXTSTYLE0
 73
     1
 44
1.0
  0
MTEXT
  5
B2
330
9A
100
AcDbEntity
  8
0
  6
Continuous
 62
     0
370
     0
100
AcDbMText
 10
0.0
 20
-23.4576084996
 30
0.0
 40
2.286
 41
0.0
 71
     1
 72
     1
  1
7.
  7
SLDTEXTSTYLE0
 73
     1
 44
1.0
  0
MTEXT
  5
B3
330
9A
100
AcDbEntity
  8
0
  6
Continuous
 62
     0
370
     0
100
AcDbMText
 10
9.9999997765
 20
-26.743608608
 30
0.0
 40
2.286
 41
0.0
 71
     1
 72
     1
  1
ENHANCED ALUMINUM
  7
SLDTEXTSTYLE0
 73
     1
 44
1.0
  0
MTEXT
  5
B4
330
9A
100
AcDbEntity
  8
0
  6
Continuous
 62
     0
370
     0
100
AcDbMText
 10
10.0
 20
-30.0255616999
 30
0.0
 40
2.3
 41
0.0
 71
     1
 72
     1
  1
Ravg>90% FROM 250-450nm
  7
SLDTEXTSTYLE0
 73
     1
 44
1.0
  0
MTEXT
  5
B5
330
9A
100
AcDbEntity
  8
0
  6
Continuous
 62
     0
370
     0
100
AcDbMText
 10
9.9999997765
 20
-33.3296086984
 30
0.0
 40
2.286
 41
0.0
 71
     1
 72
     1
  1
BLACK ANODIZED FINISH (NON-OPTICAL
  7
SLDTEXTSTYLE0
 73
     1
 44
1.0
  0
MTEXT
  5
B6
330
9A
100
AcDbEntity
  8
0
  6
Continuous
 62
     0
370
     0
100
AcDbMText
 10
0.0
 20
-33.3296086984
 30
0.0
 40
2.286
 41
0.0
 71
     1
 72
     1
  1
8.
  7
SLDTEXTSTYLE0
 73
     1
 44
1.0
  0
MTEXT
  5
B7
330
9A
100
AcDbEntity
  8
0
  6
Continuous
 62
     0
370
     0
100
AcDbMText
 10
9.9999997765
 20
-36.6156088068
 30
0.0
 40
2.286
 41
0.0
 71
     1
 72
     1
  1
SURFACES)
  7
SLDTEXTSTYLE0
 73
     1
 44
1.0
  0
ENDBLK
  5
9C
330
9A
100
AcDbEntity
  8
0
100
AcDbBlockEnd
  0
BLOCK
  5
17A
330
179
100
AcDbEntity
  8
0
100
AcDbBlockBegin
  2
_D
 70
     0
 10
0.0
 20
0.0
 30
0.0
  3
_D
  1

  0
SOLID
  5
17C
330
179
100
AcDbEntity
  8
0
  6
Continuous
 62
     7
370
     0
100
AcDbTrace
 10
84.5634123546
 20
203.4786350119
 30
0.0
 11
87.7384123546
 21
202.9706350119
 31
0.0
 12
87.7384123546
 22
203.9866350119
 32
0.0
 13
87.7384123546
 23
203.9866350119
 33
0.0
  0
SOLID
  5
17D
330
179
100
AcDbEntity
  8
0
  6
Continuous
 62
     7
370
     0
100
AcDbTrace
 10
186.1634123546
 20
203.4786350119
 30
0.0
 11
182.9884123546
 21
203.9866350119
 31
0.0
 12
182.9884123546
 22
202.9706350119
 32
0.0
 13
182.9884123546
 23
202.9706350119
 33
0.0
  0
LINE
  5
17E
330
179
100
AcDbEntity
  8
0
  6
Continuous
 62
     7
370
     0
100
AcDbLine
 10
127.455380566
 20
204.907518677
 30
0.0
 11
127.455380566
 21
202.0497513467
 31
0.0
  0
LINE
  5
17F
330
179
100
AcDbEntity
  8
0
  6
Continuous
 62
     7
370
     0
100
AcDbLine
 10
127.455380566
 20
202.0497513467
 30
0.0
 11
127.8841636792
 21
202.0497513467
 31
0.0
  0
LINE
  5
180
330
179
100
AcDbEntity
  8
0
  6
Continuous
 62
     7
370
     0
100
AcDbLine
 10
127.455380566
 20
204.907518677
 30
0.0
 11
127.8841636792
 21
204.907518677
 31
0.0
  0
LINE
  5
181
330
179
100
AcDbEntity
  8
0
  6
Continuous
 62
     7
370
     0
100
AcDbLine
 10
136.9253244311
 20
204.907518677
 30
0.0
 11
136.9253244311
 21
202.0497513467
 31
0.0
  0
LINE
  5
182
330
179
100
AcDbEntity
  8
0
  6
Continuous
 62
     7
370
     0
100
AcDbLine
 10
136.9253244311
 20
202.0497513467
 30
0.0
 11
136.4965413179
 21
202.0497513467
 31
0.0
  0
LINE
  5
183
330
179
100
AcDbEntity
  8
0
  6
Continuous
 62
     7
370
     0
100
AcDbLine
 10
136.9253244311
 20
204.907518677
 30
0.0
 11
136.4965413179
 21
204.907518677
 31
0.0
  0
LINE
  5
184
330
179
100
AcDbEntity
  8
0
  6
Continuous
 62
     7
370
     0
100
AcDbLine
 10
84.5634123546
 20
200.2046852727
 30
0.0
 11
84.5634123546
 21
205.2566350119
 31
0.0
  0
LINE
  5
185
330
179
100
AcDbEntity
  8
0
  6
Continuous
 62
     7
370
     0
100
AcDbLine
 10
186.1634123546
 20
200.2046852727
 30
0.0
 11
186.1634123546
 21
205.2566350119
 31
0.0
  0
LINE
  5
186
330
179
100
AcDbEntity
  8
0
  6
Continuous
 62
     7
370
     0
100
AcDbLine
 10
84.5634123546
 20
203.4786350119
 30
0.0
 11
112.1278076234
 21
203.4786350119
 31
0.0
  0
LINE
  5
187
330
179
100
AcDbEntity
  8
0
  6
Continuous
 62
     7
370
     0
100
AcDbLine
 10
186.1634123546
 20
203.4786350119
 30
0.0
 11
152.2528973737
 21
203.4786350119
 31
0.0
  0
MTEXT
  5
188
330
179
100
AcDbEntity
  8
0
  6
Continuous
 62
     7
370
     0
100
AcDbMText
 10
126.0274147851
 20
207.8882012174
 30
0.0
 40
2.1166666667
 41
0.0
 71
     1
 72
     1
  1
101.6mm
  7
SLDTEXTSTYLE0
 73
     1
 44
1.0
  0
MTEXT
  5
189
330
179
100
AcDbEntity
  8
0
  6
Continuous
 62
     7
370
     0
100
AcDbMText
 10
114.5416213683
 20
201.164042793
 30
0.0
 40
2.1166666667
 41
0.0
 71
     1
 72
     1
  1
REFLECTED FOCAL LENGTH
  7
SLDTEXTSTYLE0
 73
     1
 44
1.0
  0
MTEXT
  5
18A
330
179
100
AcDbEntity
  8
0
  6
Continuous
 62
     7
370
     0
100
AcDbMText
 10
128.3129467925
 20
204.5261220052
 30
0.0
 40
2.1166666667
 41
0.0
 71
     1
 72
     1
  1
4.00in
  7
SLDTEXTSTYLE0
 73
     1
 44
1.0
  0
ENDBLK
  5
17B
330
179
100
AcDbEntity
  8
0
100
AcDbBlockEnd
  0
BLOCK
  5
18D
330
18C
100
AcDbEntity
  8
0
100
AcDbBlockBegin
  2
_D_1
 70
     0
 10
0.0
 20
0.0
 30
0.0
  3
_D_1
  1

  0
SOLID
  5
18F
330
18C
100
AcDbEntity
  8
0
  6
Continuous
 62
     7
370
     0
100
AcDbTrace
 10
55.7106527541
 20
193.9984352727
 30
0.0
 11
55.2026527541
 21
190.8234352727
 31
0.0
 12
56.2186527541
 22
190.8234352727
 32
0.0
 13
56.2186527541
 23
190.8234352727
 33
0.0
  0
SOLID
  5
190
330
18C
100
AcDbEntity
  8
0
  6
Continuous
 62
     7
370
     0
100
AcDbTrace
 10
55.7106527541
 20
162.2446852727
 30
0.0
 11
56.2186527541
 21
165.4196852727
 31
0.0
 12
55.2026527541
 22
165.4196852727
 32
0.0
 13
55.2026527541
 23
165.4196852727
 33
0.0
  0
LINE
  5
191
330
18C
100
AcDbEntity
  8
0
  6
Continuous
 62
     7
370
     0
100
AcDbLine
 10
50.9756808215
 20
177.8079846207
 30
0.0
 11
50.9756808215
 21
174.9502172904
 31
0.0
  0
LINE
  5
192
330
18C
100
AcDbEntity
  8
0
  6
Continuous
 62
     7
370
     0
100
AcDbLine
 10
50.9756808215
 20
174.9502172904
 30
0.0
 11
51.4044639347
 21
174.9502172904
 31
0.0
  0
LINE
  5
193
330
18C
100
AcDbEntity
  8
0
  6
Continuous
 62
     7
370
     0
100
AcDbLine
 10
50.9756808215
 20
177.8079846207
 30
0.0
 11
51.4044639347
 21
177.8079846207
 31
0.0
  0
LINE
  5
194
330
18C
100
AcDbEntity
  8
0
  6
Continuous
 62
     7
370
     0
100
AcDbLine
 10
60.4456246867
 20
177.8079846207
 30
0.0
 11
60.4456246867
 21
174.9502172904
 31
0.0
  0
LINE
  5
195
330
18C
100
AcDbEntity
  8
0
  6
Continuous
 62
     7
370
     0
100
AcDbLine
 10
60.4456246867
 20
174.9502172904
 30
0.0
 11
60.0168415734
 21
174.9502172904
 31
0.0
  0
LINE
  5
196
330
18C
100
AcDbEntity
  8
0
  6
Continuous
 62
     7
370
     0
100
AcDbLine
 10
60.4456246867
 20
177.8079846207
 30
0.0
 11
60.0168415734
 21
177.8079846207
 31
0.0
  0
LINE
  5
197
330
18C
100
AcDbEntity
  8
0
  6
Continuous
 62
     7
370
     0
100
AcDbLine
 10
70.5934123546
 20
193.9984352727
 30
0.0
 11
53.9326527541
 21
193.9984352727
 31
0.0
  0
LINE
  5
198
330
18C
100
AcDbEntity
  8
0
  6
Continuous
 62
     7
370
     0
100
AcDbLine
 10
70.5934123546
 20
162.2446852727
 30
0.0
 11
53.9326527541
 21
162.2446852727
 31
0.0
  0
LINE
  5
199
330
18C
100
AcDbEntity
  8
0
  6
Continuous
 62
     7
370
     0
100
AcDbLine
 10
55.7106527541
 20
193.9984352727
 30
0.0
 11
55.7106527541
 21
181.4222197738
 31
0.0
  0
LINE
  5
19A
330
18C
100
AcDbEntity
  8
0
  6
Continuous
 62
     7
370
     0
100
AcDbLine
 10
55.7106527541
 20
162.2446852727
 30
0.0
 11
55.7106527541
 21
174.6980613494
 31
0.0
  0
MTEXT
  5
19B
330
18C
100
AcDbEntity
  8
0
  6
Continuous
 62
     7
370
     0
100
AcDbMText
 10
50.3292279933
 20
180.788667161
 30
0.0
 40
2.1166666667
 41
0.0
 71
     1
 72
     1
  1
31.8mm
  7
SLDTEXTSTYLE0
 73
     1
 44
1.0
  0
MTEXT
  5
19C
330
18C
100
AcDbEntity
  8
0
  6
Continuous
 62
     7
370
     0
100
AcDbMText
 10
51.833247048
 20
177.4265879489
 30
0.0
 40
2.1166666667
 41
0.0
 71
     1
 72
     1
  1
1.25in
  7
SLDTEXTSTYLE0
 73
     1
 44
1.0
  0
ENDBLK
  5
18E
330
18C
100
AcDbEntity
  8
0
100
AcDbBlockEnd
  0
BLOCK
  5
19F
330
19E
100
AcDbEntity
  8
0
100
AcDbBlockBegin
  2
_D_2
 70
     0
 10
0.0
 20
0.0
 30
0.0
  3
_D_2
  1

  0
SOLID
  5
1A1
330
19E
100
AcDbEntity
  8
0
  6
Continuous
 62
     7
370
     0
100
AcDbTrace
 10
207.8486703878
 20
129.7046852727
 30
0.0
 11
208.3566703878
 21
132.8796852727
 31
0.0
 12
207.3406703878
 22
132.8796852727
 32
0.0
 13
207.3406703878
 23
132.8796852727
 33
0.0
  0
SOLID
  5
1A2
330
19E
100
AcDbEntity
  8
0
  6
Continuous
 62
     7
370
     0
100
AcDbTrace
 10
207.8486703878
 20
180.5046852727
 30
0.0
 11
207.3406703878
 21
177.3296852727
 31
0.0
 12
208.3566703878
 22
177.3296852727
 32
0.0
 13
208.3566703878
 23
177.3296852727
 33
0.0
  0
LINE
  5
1A3
330
19E
100
AcDbEntity
  8
0
  6
Continuous
 62
     7
370
     0
100
AcDbLine
 10
203.1136984552
 20
158.242460985
 30
0.0
 11
203.1136984552
 21
155.3846936546
 31
0.0
  0
LINE
  5
1A4
330
19E
100
AcDbEntity
  8
0
  6
Continuous
 62
     7
370
     0
100
AcDbLine
 10
203.1136984552
 20
155.3846936546
 30
0.0
 11
203.5424815684
 21
155.3846936546
 31
0.0
  0
LINE
  5
1A5
330
19E
100
AcDbEntity
  8
0
  6
Continuous
 62
     7
370
     0
100
AcDbLine
 10
203.1136984552
 20
158.242460985
 30
0.0
 11
203.5424815684
 21
158.242460985
 31
0.0
  0
LINE
  5
1A6
330
19E
100
AcDbEntity
  8
0
  6
Continuous
 62
     7
370
     0
100
AcDbLine
 10
212.5836423204
 20
158.242460985
 30
0.0
 11
212.5836423204
 21
155.3846936546
 31
0.0
  0
LINE
  5
1A7
330
19E
100
AcDbEntity
  8
0
  6
Continuous
 62
     7
370
     0
100
AcDbLine
 10
212.5836423204
 20
155.3846936546
 30
0.0
 11
212.1548592071
 21
155.3846936546
 31
0.0
  0
LINE
  5
1A8
330
19E
100
AcDbEntity
  8
0
  6
Continuous
 62
     7
370
     0
100
AcDbLine
 10
212.5836423204
 20
158.242460985
 30
0.0
 11
212.1548592071
 21
158.242460985
 31
0.0
  0
LINE
  5
1A9
330
19E
100
AcDbEntity
  8
0
  6
Continuous
 62
     7
370
     0
100
AcDbLine
 10
187.4334123546
 20
129.7046852727
 30
0.0
 11
209.6266703878
 21
129.7046852727
 31
0.0
  0
LINE
  5
1AA
330
19E
100
AcDbEntity
  8
0
  6
Continuous
 62
     7
370
     0
100
AcDbLine
 10
187.4334123546
 20
180.5046852727
 30
0.0
 11
209.6266703878
 21
180.5046852727
 31
0.0
  0
LINE
  5
1AB
330
19E
100
AcDbEntity
  8
0
  6
Continuous
 62
     7
370
     0
100
AcDbLine
 10
207.8486703878
 20
129.7046852727
 30
0.0
 11
207.8486703878
 21
148.4083792894
 31
0.0
  0
LINE
  5
1AC
330
19E
100
AcDbEntity
  8
0
  6
Continuous
 62
     7
370
     0
100
AcDbLine
 10
207.8486703878
 20
180.5046852727
 30
0.0
 11
207.8486703878
 21
161.8566961381
 31
0.0
  0
MTEXT
  5
1AD
330
19E
100
AcDbEntity
  8
0
  6
Continuous
 62
     7
370
     0
100
AcDbMText
 10
202.4672456269
 20
161.2231435253
 30
0.0
 40
2.1166666667
 41
0.0
 71
     1
 72
     1
  1
50.8mm
  7
SLDTEXTSTYLE0
 73
     1
 44
1.0
  0
MTEXT
  5
1AE
330
19E
100
AcDbEntity
  8
0
  6
Continuous
 62
     7
370
     0
100
AcDbMText
 10
195.1604484852
 20
154.498985101
 30
0.0
 40
2.1166666667
 41
0.0
 71
     1
 72
     1
  1
FOCAL LENGTH OF
  7
SLDTEXTSTYLE0
 73
     1
 44
1.0
  0
MTEXT
  5
1AF
330
19E
100
AcDbEntity
  8
0
  6
Continuous
 62
     7
370
     0
100
AcDbMText
 10
195.2037201755
 20
151.1369058888
 30
0.0
 40
2.1166666667
 41
0.0
 71
     1
 72
     1
  1
PARENT PARABOLA
  7
SLDTEXTSTYLE0
 73
     1
 44
1.0
  0
MTEXT
  5
1B0
330
19E
100
AcDbEntity
  8
0
  6
Continuous
 62
     7
370
     0
100
AcDbMText
 10
203.9712646817
 20
157.8610643132
 30
0.0
 40
2.1166666667
 41
0.0
 71
     1
 72
     1
  1
2.00in
  7
SLDTEXTSTYLE0
 73
     1
 44
1.0
  0
ENDBLK
  5
1A0
330
19E
100
AcDbEntity
  8
0
100
AcDbBlockEnd
  0
BLOCK
  5
1B4
330
1B3
100
AcDbEntity
  8
0
100
AcDbBlockBegin
  2
_D_3
 70
     0
 10
0.0
 20
0.0
 30
0.0
  3
_D_3
  1

  0
SOLID
  5
1B6
330
1B3
100
AcDbEntity
  8
0
  6
Continuous
 62
     7
370
     0
100
AcDbTrace
 10
99.8363039549
 20
162.2446852727
 30
0.0
 11
99.3283039549
 21
159.0696852727
 31
0.0
 12
100.3443039549
 22
159.0696852727
 32
0.0
 13
100.3443039549
 23
159.0696852727
 33
0.0
  0
SOLID
  5
1B7
330
1B3
100
AcDbEntity
  8
0
  6
Continuous
 62
     7
370
     0
100
AcDbTrace
 10
99.8363039549
 20
168.5984352727
 30
0.0
 11
100.3443039549
 21
171.7734352727
 31
0.0
 12
99.3283039549
 22
171.7734352727
 32
0.0
 13
99.3283039549
 23
171.7734352727
 33
0.0
  0
LINE
  5
1B8
330
1B3
100
AcDbEntity
  8
0
  6
Continuous
 62
     7
370
     0
100
AcDbLine
 10
107.3796864162
 20
177.8079846207
 30
0.0
 11
107.3796864162
 21
174.9502172904
 31
0.0
  0
LINE
  5
1B9
330
1B3
100
AcDbEntity
  8
0
  6
Continuous
 62
     7
370
     0
100
AcDbLine
 10
107.3796864162
 20
174.9502172904
 30
0.0
 11
107.8084695294
 21
174.9502172904
 31
0.0
  0
LINE
  5
1BA
330
1B3
100
AcDbEntity
  8
0
  6
Continuous
 62
     7
370
     0
100
AcDbLine
 10
107.3796864162
 20
177.8079846207
 30
0.0
 11
107.8084695294
 21
177.8079846207
 31
0.0
  0
LINE
  5
1BB
330
1B3
100
AcDbEntity
  8
0
  6
Continuous
 62
     7
370
     0
100
AcDbLine
 10
116.8496302814
 20
177.8079846207
 30
0.0
 11
116.8496302814
 21
174.9502172904
 31
0.0
  0
LINE
  5
1BC
330
1B3
100
AcDbEntity
  8
0
  6
Continuous
 62
     7
370
     0
100
AcDbLine
 10
116.8496302814
 20
174.9502172904
 30
0.0
 11
116.4208471681
 21
174.9502172904
 31
0.0
  0
LINE
  5
1BD
330
1B3
100
AcDbEntity
  8
0
  6
Continuous
 62
     7
370
     0
100
AcDbLine
 10
116.8496302814
 20
177.8079846207
 30
0.0
 11
116.4208471681
 21
177.8079846207
 31
0.0
  0
LINE
  5
1BE
330
1B3
100
AcDbEntity
  8
0
  6
Continuous
 62
     7
370
     0
100
AcDbLine
 10
98.5334123546
 20
162.2446852727
 30
0.0
 11
101.6143039549
 21
162.2446852727
 31
0.0
  0
LINE
  5
1BF
330
1B3
100
AcDbEntity
  8
0
  6
Continuous
 62
     7
370
     0
100
AcDbLine
 10
98.5334123546
 20
168.5984352727
 30
0.0
 11
101.6143039549
 21
168.5984352727
 31
0.0
  0
LINE
  5
1C0
330
1B3
100
AcDbEntity
  8
0
  6
Continuous
 62
     7
370
     0
100
AcDbLine
 10
103.6463039549
 20
178.0601405616
 30
0.0
 11
99.8363039549
 21
178.0601405616
 31
0.0
  0
LINE
  5
1C1
330
1B3
100
AcDbEntity
  8
0
  6
Continuous
 62
     7
370
     0
100
AcDbLine
 10
99.8363039549
 20
178.0601405616
 30
0.0
 11
99.8363039549
 21
168.5984352727
 31
0.0
  0
LINE
  5
1C2
330
1B3
100
AcDbEntity
  8
0
  6
Continuous
 62
     7
370
     0
100
AcDbLine
 10
99.8363039549
 20
162.2446852727
 30
0.0
 11
99.8363039549
 21
155.8946852727
 31
0.0
  0
MTEXT
  5
1C3
330
1B3
100
AcDbEntity
  8
0
  6
Continuous
 62
     7
370
     0
100
AcDbMText
 10
107.5160578039
 20
180.788667161
 30
0.0
 40
2.1166666667
 41
0.0
 71
     1
 72
     1
  1
6.4mm
  7
SLDTEXTSTYLE0
 73
     1
 44
1.0
  0
MTEXT
  5
1C4
330
1B3
100
AcDbEntity
  8
0
  6
Continuous
 62
     7
370
     0
100
AcDbMText
 10
108.2372526427
 20
177.4265879489
 30
0.0
 40
2.1166666667
 41
0.0
 71
     1
 72
     1
  1
0.25in
  7
SLDTEXTSTYLE0
 73
     1
 44
1.0
  0
ENDBLK
  5
1B5
330
1B3
100
AcDbEntity
  8
0
100
AcDbBlockEnd
  0
BLOCK
  5
1C7
330
1C6
100
AcDbEntity
  8
0
100
AcDbBlockBegin
  2
_D_4
 70
     0
 10
0.0
 20
0.0
 30
0.0
  3
_D_4
  1

  0
SOLID
  5
1C9
330
1C6
100
AcDbEntity
  8
0
  6
Continuous
 62
     7
370
     0
100
AcDbTrace
 10
78.2134123546
 20
152.2446852727
 30
0.0
 11
75.0384123546
 21
152.7526852727
 31
0.0
 12
75.0384123546
 22
151.7366852727
 32
0.0
 13
75.0384123546
 23
151.7366852727
 33
0.0
  0
SOLID
  5
1CA
330
1C6
100
AcDbEntity
  8
0
  6
Continuous
 62
     7
370
     0
100
AcDbTrace
 10
90.9134123546
 20
152.2446852727
 30
0.0
 11
94.0884123546
 21
151.7366852727
 31
0.0
 12
94.0884123546
 22
152.7526852727
 32
0.0
 13
94.0884123546
 23
152.7526852727
 33
0.0
  0
LINE
  5
1CB
330
1C6
100
AcDbEntity
  8
0
  6
Continuous
 62
     7
370
     0
100
AcDbLine
 10
57.2999535983
 20
151.9925293317
 30
0.0
 11
57.2999535983
 21
149.1347620014
 31
0.0
  0
LINE
  5
1CC
330
1C6
100
AcDbEntity
  8
0
  6
Continuous
 62
     7
370
     0
100
AcDbLine
 10
57.2999535983
 20
149.1347620014
 30
0.0
 11
57.7287367116
 21
149.1347620014
 31
0.0
  0
LINE
  5
1CD
330
1C6
100
AcDbEntity
  8
0
  6
Continuous
 62
     7
370
     0
100
AcDbLine
 10
57.2999535983
 20
151.9925293317
 30
0.0
 11
57.7287367116
 21
151.9925293317
 31
0.0
  0
LINE
  5
1CE
330
1C6
100
AcDbEntity
  8
0
  6
Continuous
 62
     7
370
     0
100
AcDbLine
 10
66.7698974635
 20
151.9925293317
 30
0.0
 11
66.7698974635
 21
149.1347620014
 31
0.0
  0
LINE
  5
1CF
330
1C6
100
AcDbEntity
  8
0
  6
Continuous
 62
     7
370
     0
100
AcDbLine
 10
66.7698974635
 20
149.1347620014
 30
0.0
 11
66.3411143502
 21
149.1347620014
 31
0.0
  0
LINE
  5
1D0
330
1C6
100
AcDbEntity
  8
0
  6
Continuous
 62
     7
370
     0
100
AcDbLine
 10
66.7698974635
 20
151.9925293317
 30
0.0
 11
66.3411143502
 21
151.9925293317
 31
0.0
  0
LINE
  5
1D1
330
1C6
100
AcDbEntity
  8
0
  6
Continuous
 62
     7
370
     0
100
AcDbLine
 10
78.2134123546
 20
160.9746852727
 30
0.0
 11
78.2134123546
 21
150.4666852727
 31
0.0
  0
LINE
  5
1D2
330
1C6
100
AcDbEntity
  8
0
  6
Continuous
 62
     7
370
     0
100
AcDbLine
 10
90.9134123546
 20
160.9746852727
 30
0.0
 11
90.9134123546
 21
150.4666852727
 31
0.0
  0
LINE
  5
1D3
330
1C6
100
AcDbEntity
  8
0
  6
Continuous
 62
     7
370
     0
100
AcDbLine
 10
78.2134123546
 20
152.2446852727
 30
0.0
 11
70.7736624262
 21
152.2446852727
 31
0.0
  0
LINE
  5
1D4
330
1C6
100
AcDbEntity
  8
0
  6
Continuous
 62
     7
370
     0
100
AcDbLine
 10
90.9134123546
 20
152.2446852727
 30
0.0
 11
97.2634123546
 21
152.2446852727
 31
0.0
  0
MTEXT
  5
1D5
330
1C6
100
AcDbEntity
  8
0
  6
Continuous
 62
     7
370
     0
100
AcDbMText
 10
55.1405651246
 20
154.9732118721
 30
0.0
 40
2.1166666667
 41
0.0
 71
     1
 72
     1
  1
%%c
  7
SLDTEXTSTYLE0
 73
     1
 44
1.0
  0
MTEXT
  5
1D6
330
1C6
100
AcDbEntity
  8
0
  6
Continuous
 62
     7
370
     0
100
AcDbMText
 10
58.1664364155
 20
154.9732118721
 30
0.0
 40
2.1166666667
 41
0.0
 71
     1
 72
     1
  1
12.7mm
  7
SLDTEXTSTYLE0
 73
     1
 44
1.0
  0
MTEXT
  5
1D7
330
1C6
100
AcDbEntity
  8
0
  6
Continuous
 62
     7
370
     0
100
AcDbMText
 10
58.1575198248
 20
151.6111326599
 30
0.0
 40
2.1166666667
 41
0.0
 71
     1
 72
     1
  1
0.50in
  7
SLDTEXTSTYLE0
 73
     1
 44
1.0
  0
ENDBLK
  5
1C8
330
1C6
100
AcDbEntity
  8
0
100
AcDbBlockEnd
  0
BLOCK
  5
1DA
330
1D9
100
AcDbEntity
  8
0
100
AcDbBlockBegin
  2
_D_5
 70
     0
 10
0.0
 20
0.0
 30
0.0
  3
_D_5
  1

  0
SOLID
  5
1DC
330
1D9
100
AcDbEntity
  8
0
  6
Continuous
 62
     7
370
     0
100
AcDbTrace
 10
43.7107234427
 20
162.8796852727
 30
0.0
 11
44.2187234427
 21
166.0546852727
 31
0.0
 12
43.2027234427
 22
166.0546852727
 32
0.0
 13
43.2027234427
 23
166.0546852727
 33
0.0
  0
SOLID
  5
1DD
330
1D9
100
AcDbEntity
  8
0
  6
Continuous
 62
     7
370
     0
100
AcDbTrace
 10
43.7107234427
 20
162.2446852727
 30
0.0
 11
43.2027234427
 21
159.0696852727
 31
0.0
 12
44.2187234427
 22
159.0696852727
 32
0.0
 13
44.2187234427
 23
159.0696852727
 33
0.0
  0
LINE
  5
1DE
330
1D9
100
AcDbEntity
  8
0
  6
Continuous
 62
     7
370
     0
100
AcDbLine
 10
23.3650565038
 20
170.5086107229
 30
0.0
 11
22.935843544
 21
170.5086107229
 31
0.0
  0
LINE
  5
1DF
330
1D9
100
AcDbEntity
  8
0
  6
Continuous
 62
     7
370
     0
100
AcDbLine
 10
22.935843544
 20
170.5086107229
 30
0.0
 11
22.935843544
 21
167.1454626464
 31
0.0
  0
LINE
  5
1E0
330
1D9
100
AcDbEntity
  8
0
  6
Continuous
 62
     7
370
     0
100
AcDbLine
 10
22.935843544
 20
167.1454626464
 30
0.0
 11
23.3650565038
 21
167.1454626464
 31
0.0
  0
LINE
  5
1E1
330
1D9
100
AcDbEntity
  8
0
  6
Continuous
 62
     7
370
     0
100
AcDbLine
 10
32.195280493
 20
170.5086107229
 30
0.0
 11
32.6244934527
 21
170.5086107229
 31
0.0
  0
LINE
  5
1E2
330
1D9
100
AcDbEntity
  8
0
  6
Continuous
 62
     7
370
     0
100
AcDbLine
 10
32.6244934527
 20
170.5086107229
 30
0.0
 11
32.6244934527
 21
167.1454626464
 31
0.0
  0
LINE
  5
1E3
330
1D9
100
AcDbEntity
  8
0
  6
Continuous
 62
     7
370
     0
100
AcDbLine
 10
32.6244934527
 20
167.1454626464
 30
0.0
 11
32.195280493
 21
167.1454626464
 31
0.0
  0
LINE
  5
1E4
330
1D9
100
AcDbEntity
  8
0
  6
Continuous
 62
     7
370
     0
100
AcDbLine
 10
76.9434123546
 20
162.8796852727
 30
0.0
 11
41.9327234427
 21
162.8796852727
 31
0.0
  0
LINE
  5
1E5
330
1D9
100
AcDbEntity
  8
0
  6
Continuous
 62
     7
370
     0
100
AcDbLine
 10
76.9434123546
 20
162.2446852727
 30
0.0
 11
41.9327234427
 21
162.2446852727
 31
0.0
  0
LINE
  5
1E6
330
1D9
100
AcDbEntity
  8
0
  6
Continuous
 62
     7
370
     0
100
AcDbLine
 10
39.9007234427
 20
170.5086109557
 30
0.0
 11
43.7107234427
 21
170.5086109557
 31
0.0
  0
LINE
  5
1E7
330
1D9
100
AcDbEntity
  8
0
  6
Continuous
 62
     7
370
     0
100
AcDbLine
 10
43.7107234427
 20
170.5086109557
 30
0.0
 11
43.7107234427
 21
162.8796852727
 31
0.0
  0
LINE
  5
1E8
330
1D9
100
AcDbEntity
  8
0
  6
Continuous
 62
     7
370
     0
100
AcDbLine
 10
43.7107234427
 20
162.2446852727
 30
0.0
 11
43.7107234427
 21
155.8946852727
 31
0.0
  0
MTEXT
  5
1E9
330
1D9
100
AcDbEntity
  8
0
  6
Continuous
 62
     7
370
     0
100
AcDbMText
 10
22.3219120358
 20
173.6663503694
 30
-1.3661624879
 40
2.1166666667
 41
0.0
 71
     1
 72
     1
  1
0.6mm
  7
SLDTEXTSTYLE0
 73
     1
 44
1.0
  0
MTEXT
  5
1EA
330
1D9
100
AcDbEntity
  8
0
  6
Continuous
 62
     7
370
     0
100
AcDbMText
 10
23.9015727252
 20
169.8739892459
 30
-1.3661624879
 40
2.1166666667
 41
0.0
 71
     1
 72
     1
  1
0.03in
  7
SLDTEXTSTYLE0
 73
     1
 44
1.0
  0
MTEXT
  5
1EB
330
1D9
100
AcDbEntity
  8
0
  6
Continuous
 62
     7
370
     0
100
AcDbMText
 10
34.0321744953
 20
173.6663503694
 30
-1.3661624879
 40
2.1166666667
 41
0.0
 71
     1
 72
     1
  1
REF
  7
SLDTEXTSTYLE0
 73
     1
 44
1.0
  0
ENDBLK
  5
1DB
330
1D9
100
AcDbEntity
  8
0
100
AcDbBlockEnd
  0
BLOCK
  5
1EE
330
1ED
100
AcDbEntity
  8
0
100
AcDbBlockBegin
  2
_D_6
 70
     0
 10
0.0
 20
0.0
 30
0.0
  3
_D_6
  1

  0
SOLID
  5
1F0
330
1ED
100
AcDbEntity
  8
0
  6
Continuous
 62
     7
370
     0
100
AcDbTrace
 10
145.5159786633
 20
162.2446852727
 30
0.0
 11
145.0079786633
 21
159.0696852727
 31
0.0
 12
146.0239786633
 22
159.0696852727
 32
0.0
 13
146.0239786633
 23
159.0696852727
 33
0.0
  0
SOLID
  5
1F1
330
1ED
100
AcDbEntity
  8
0
  6
Continuous
 62
     7
370
     0
100
AcDbTrace
 10
145.5159786633
 20
180.5046852727
 30
0.0
 11
146.0239786633
 21
183.6796852727
 31
0.0
 12
145.0079786633
 22
183.6796852727
 32
0.0
 13
145.0079786633
 23
183.6796852727
 33
0.0
  0
LINE
  5
1F2
330
1ED
100
AcDbEntity
  8
0
  6
Continuous
 62
     7
370
     0
100
AcDbLine
 10
141.1008669015
 20
172.426125928
 30
0.0
 11
140.6716539418
 21
172.426125928
 31
0.0
  0
LINE
  5
1F3
330
1ED
100
AcDbEntity
  8
0
  6
Continuous
 62
     7
370
     0
100
AcDbLine
 10
140.6716539418
 20
172.426125928
 30
0.0
 11
140.6716539418
 21
169.0629778515
 31
0.0
  0
LINE
  5
1F4
330
1ED
100
AcDbEntity
  8
0
  6
Continuous
 62
     7
370
     0
100
AcDbLine
 10
140.6716539418
 20
169.0629778515
 30
0.0
 11
141.1008669015
 21
169.0629778515
 31
0.0
  0
LINE
  5
1F5
330
1ED
100
AcDbEntity
  8
0
  6
Continuous
 62
     7
370
     0
100
AcDbLine
 10
149.9310908907
 20
172.426125928
 30
0.0
 11
150.3603038504
 21
172.426125928
 31
0.0
  0
LINE
  5
1F6
330
1ED
100
AcDbEntity
  8
0
  6
Continuous
 62
     7
370
     0
100
AcDbLine
 10
150.3603038504
 20
172.426125928
 30
0.0
 11
150.3603038504
 21
169.0629778515
 31
0.0
  0
LINE
  5
1F7
330
1ED
100
AcDbEntity
  8
0
  6
Continuous
 62
     7
370
     0
100
AcDbLine
 10
150.3603038504
 20
169.0629778515
 30
0.0
 11
149.9310908907
 21
169.0629778515
 31
0.0
  0
LINE
  5
1F8
330
1ED
100
AcDbEntity
  8
0
  6
Continuous
 62
     7
370
     0
100
AcDbLine
 10
98.5334123546
 20
162.2446852727
 30
0.0
 11
147.2939786633
 21
162.2446852727
 31
0.0
  0
LINE
  5
1F9
330
1ED
100
AcDbEntity
  8
0
  6
Continuous
 62
     7
370
     0
100
AcDbLine
 10
184.8934123546
 20
180.5046852727
 30
0.0
 11
143.7379786633
 21
180.5046852727
 31
0.0
  0
LINE
  5
1FA
330
1ED
100
AcDbEntity
  8
0
  6
Continuous
 62
     7
370
     0
100
AcDbLine
 10
145.5159786633
 20
162.2446852727
 30
0.0
 11
145.5159786633
 21
155.8946852727
 31
0.0
  0
LINE
  5
1FB
330
1ED
100
AcDbEntity
  8
0
  6
Continuous
 62
     7
370
     0
100
AcDbLine
 10
145.5159786633
 20
180.5046852727
 30
0.0
 11
145.5159786633
 21
186.8546852727
 31
0.0
  0
MTEXT
  5
1FC
330
1ED
100
AcDbEntity
  8
0
  6
Continuous
 62
     7
370
     0
100
AcDbMText
 10
139.3031696758
 20
175.5838655744
 30
-1.3661624879
 40
2.1166666667
 41
0.0
 71
     1
 72
     1
  1

  7
SLDTEXTSTYLE0
 73
     1
 44
1.0
  0
MTEXT
  5
1FD
330
1ED
100
AcDbEntity
  8
0
  6
Continuous
 62
     7
370
     0
100
AcDbMText
 10
139.2757313801
 20
175.5838655744
 30
-1.3661624879
 40
2.1166666667
 41
0.0
 71
     1
 72
     1
  1
18.3mm
  7
SLDTEXTSTYLE0
 73
     1
 44
1.0
  0
MTEXT
  5
1FE
330
1ED
100
AcDbEntity
  8
0
  6
Continuous
 62
     7
370
     0
100
AcDbMText
 10
141.637383123
 20
171.7915044509
 30
-1.3661624879
 40
2.1166666667
 41
0.0
 71
     1
 72
     1
  1
0.72in
  7
SLDTEXTSTYLE0
 73
     1
 44
1.0
  0
MTEXT
  5
1FF
330
1ED
100
AcDbEntity
  8
0
  6
Continuous
 62
     7
370
     0
100
AcDbMText
 10
153.3437254807
 20
175.5838655744
 30
-1.3661624879
 40
2.1166666667
 41
0.0
 71
     1
 72
     1
  1

  7
SLDTEXTSTYLE0
 73
     1
 44
1.0
  0
ENDBLK
  5
1EF
330
1ED
100
AcDbEntity
  8
0
100
AcDbBlockEnd
  0
BLOCK
  5
212
330
211
100
AcDbEntity
  8
0
100
AcDbBlockBegin
  2
_D_7
 70
     0
 10
0.0
 20
0.0
 30
0.0
  3
_D_7
  1

  0
ARC
  5
214
330
211
100
AcDbEntity
  8
0
  6
Continuous
 62
     7
370
     0
100
AcDbCircle
 10
84.5634123546
 20
98.8783685744
 30
0.0
 40
21.33117771250024
100
AcDbArc
 50
60.0
 51
111.783303839
  0
ARC
  5
215
330
211
100
AcDbEntity
  8
0
  6
Continuous
 62
     7
370
     0
100
AcDbCircle
 10
84.5634123546
 20
98.8783685744
 30
0.0
 40
21.33117771250026
100
AcDbArc
 50
139.0326062725
 51
180.0
  0
SOLID
  5
216
330
211
100
AcDbEntity
  8
0
  6
Continuous
 62
     7
370
     0
100
AcDbTrace
 10
95.2290012109
 20
117.351710366
 30
0.0
 11
92.590528733
 21
119.1894132755
 31
0.0
 12
92.1488603046
 22
118.274435134
 32
0.0
 13
92.1488603046
 23
118.274435134
 33
0.0
  0
SOLID
  5
217
330
211
100
AcDbEntity
  8
0
  6
Continuous
 62
     7
370
     0
100
AcDbTrace
 10
63.2322346421
 20
98.8783685744
 30
0.0
 11
63.9732020055
 21
102.0072112304
 31
0.0
 12
62.9599734769
 22
102.0822042221
 32
0.0
 13
62.9599734769
 23
102.0822042221
 33
0.0
  0
LINE
  5
218
330
211
100
AcDbEntity
  8
0
  6
Continuous
 62
     7
370
     0
100
AcDbLine
 10
87.1827873546
 20
103.4152591584
 30
0.0
 11
96.1180012109
 21
118.891503534
 31
0.0
  0
LINE
  5
219
330
211
100
AcDbEntity
  8
0
  6
Continuous
 62
     7
370
     0
100
AcDbLine
 10
79.3246623546
 20
98.8783685744
 30
0.0
 11
61.4542346421
 21
98.8783685744
 31
0.0
  0
MTEXT
  5
21A
330
211
100
AcDbEntity
  8
0
  6
Continuous
 62
     7
370
     0
100
AcDbMText
 10
69.2405841155
 20
118.9543222177
 30
0.0
 40
2.1166666667
 41
0.0
 71
     1
 72
     1
  1
120°
  7
SLDTEXTSTYLE0
 73
     1
 44
1.0
  0
MTEXT
  5
21B
330
211
100
AcDbEntity
  8
0
  6
Continuous
 62
     7
370
     0
100
AcDbMText
 10
69.8865991507
 20
115.5922430055
 30
0.0
 40
2.1166666667
 41
0.0
 71
     1
 72
     1
  1
TYP.
  7
SLDTEXTSTYLE0
 73
     1
 44
1.0
  0
ENDBLK
  5
213
330
211
100
AcDbEntity
  8
0
100
AcDbBlockEnd
  0
BLOCK
  5
21F
330
21E
100
AcDbEntity
  8
0
100
AcDbBlockBegin
  2
_D_8
 70
     0
 10
0.0
 20
0.0
 30
0.0
  3
_D_8
  1

  0
SOLID
  5
221
330
21E
100
AcDbEntity
  8
0
  6
Continuous
 62
     7
370
     0
100
AcDbTrace
 10
96.8297272482
 20
95.5878490211
 30
0.0
 11
99.7646851895
 21
94.274566537
 31
0.0
 12
100.0279267538
 22
95.2558717285
 32
0.0
 13
100.0279267538
 23
95.2558717285
 33
0.0
  0
LINE
  5
222
330
21E
100
AcDbEntity
  8
0
  6
Continuous
 62
     7
370
     0
100
AcDbLine
 10
113.7145555511
 20
90.8488781161
 30
0.0
 11
113.7145555511
 21
87.9911107857
 31
0.0
  0
LINE
  5
223
330
21E
100
AcDbEntity
  8
0
  6
Continuous
 62
     7
370
     0
100
AcDbLine
 10
113.7145555511
 20
87.9911107857
 30
0.0
 11
114.1433386643
 21
87.9911107857
 31
0.0
  0
LINE
  5
224
330
21E
100
AcDbEntity
  8
0
  6
Continuous
 62
     7
370
     0
100
AcDbLine
 10
113.7145555511
 20
90.8488781161
 30
0.0
 11
114.1433386643
 21
90.8488781161
 31
0.0
  0
LINE
  5
225
330
21E
100
AcDbEntity
  8
0
  6
Continuous
 62
     7
370
     0
100
AcDbLine
 10
123.1844994162
 20
90.8488781161
 30
0.0
 11
123.1844994162
 21
87.9911107857
 31
0.0
  0
LINE
  5
226
330
21E
100
AcDbEntity
  8
0
  6
Continuous
 62
     7
370
     0
100
AcDbLine
 10
123.1844994162
 20
87.9911107857
 30
0.0
 11
122.755716303
 21
87.9911107857
 31
0.0
  0
LINE
  5
227
330
21E
100
AcDbEntity
  8
0
  6
Continuous
 62
     7
370
     0
100
AcDbLine
 10
123.1844994162
 20
90.8488781161
 30
0.0
 11
122.755716303
 21
90.8488781161
 31
0.0
  0
LINE
  5
228
330
21E
100
AcDbEntity
  8
0
  6
Continuous
 62
     7
370
     0
100
AcDbLine
 10
96.8297272482
 20
95.5878490211
 30
0.0
 11
107.2890250899
 21
92.7820736631
 31
0.0
  0
LINE
  5
229
330
21E
100
AcDbEntity
  8
0
  6
Continuous
 62
     7
370
     0
100
AcDbLine
 10
107.2890250899
 20
92.7820736631
 30
0.0
 11
111.0990250899
 21
92.7820736631
 31
0.0
  0
MTEXT
  5
22A
330
21E
100
AcDbEntity
  8
0
  6
Continuous
 62
     7
370
     0
100
AcDbMText
 10
112.8569893246
 20
93.8295606564
 30
0.0
 40
2.1166666667
 41
0.0
 71
     1
 72
     1
  1
%%c
  7
SLDTEXTSTYLE0
 73
     1
 44
1.0
  0
MTEXT
  5
22B
330
21E
100
AcDbEntity
  8
0
  6
Continuous
 62
     7
370
     0
100
AcDbMText
 10
115.8828606155
 20
93.8295606564
 30
0.0
 40
2.1166666667
 41
0.0
 71
     1
 72
     1
  1
25.4mm
  7
SLDTEXTSTYLE0
 73
     1
 44
1.0
  0
MTEXT
  5
22C
330
21E
100
AcDbEntity
  8
0
  6
Continuous
 62
     7
370
     0
100
AcDbMText
 10
114.5721217776
 20
90.4674814442
 30
0.0
 40
2.1166666667
 41
0.0
 71
     1
 72
     1
  1
1.00in
  7
SLDTEXTSTYLE0
 73
     1
 44
1.0
  0
ENDBLK
  5
220
330
21E
100
AcDbEntity
  8
0
100
AcDbBlockEnd
  0
BLOCK
  5
22F
330
22E
100
AcDbEntity
  8
0
100
AcDbBlockBegin
  2
_D_9
 70
     0
 10
0.0
 20
0.0
 30
0.0
  3
_D_9
  1

  0
SOLID
  5
231
330
22E
100
AcDbEntity
  8
0
  6
Continuous
 62
     7
370
     0
100
AcDbTrace
 10
84.5634123546
 20
77.2361770555
 30
0.0
 11
81.3884123546
 21
77.7441770555
 31
0.0
 12
81.3884123546
 22
76.7281770555
 32
0.0
 13
81.3884123546
 23
76.7281770555
 33
0.0
  0
SOLID
  5
232
330
22E
100
AcDbEntity
  8
0
  6
Continuous
 62
     7
370
     0
100
AcDbTrace
 10
94.0884123546
 20
77.2361770555
 30
0.0
 11
97.2634123546
 21
76.7281770555
 31
0.0
 12
97.2634123546
 22
77.7441770555
 32
0.0
 13
97.2634123546
 23
77.7441770555
 33
0.0
  0
LINE
  5
233
330
22E
100
AcDbEntity
  8
0
  6
Continuous
 62
     7
370
     0
100
AcDbLine
 10
105.3278310526
 20
76.9840211146
 30
0.0
 11
105.3278310526
 21
74.1262537842
 31
0.0
  0
LINE
  5
234
330
22E
100
AcDbEntity
  8
0
  6
Continuous
 62
     7
370
     0
100
AcDbLine
 10
105.3278310526
 20
74.1262537842
 30
0.0
 11
105.7566141658
 21
74.1262537842
 31
0.0
  0
LINE
  5
235
330
22E
100
AcDbEntity
  8
0
  6
Continuous
 62
     7
370
     0
100
AcDbLine
 10
105.3278310526
 20
76.9840211146
 30
0.0
 11
105.7566141658
 21
76.9840211146
 31
0.0
  0
LINE
  5
236
330
22E
100
AcDbEntity
  8
0
  6
Continuous
 62
     7
370
     0
100
AcDbLine
 10
114.7977749178
 20
76.9840211146
 30
0.0
 11
114.7977749178
 21
74.1262537842
 31
0.0
  0
LINE
  5
237
330
22E
100
AcDbEntity
  8
0
  6
Continuous
 62
     7
370
     0
100
AcDbLine
 10
114.7977749178
 20
74.1262537842
 30
0.0
 11
114.3689918045
 21
74.1262537842
 31
0.0
  0
LINE
  5
238
330
22E
100
AcDbEntity
  8
0
  6
Continuous
 62
     7
370
     0
100
AcDbLine
 10
114.7977749178
 20
76.9840211146
 30
0.0
 11
114.3689918045
 21
76.9840211146
 31
0.0
  0
LINE
  5
239
330
22E
100
AcDbEntity
  8
0
  6
Continuous
 62
     7
370
     0
100
AcDbLine
 10
84.5634123546
 20
96.3383685744
 30
0.0
 11
84.5634123546
 21
75.4581770555
 31
0.0
  0
LINE
  5
23A
330
22E
100
AcDbEntity
  8
0
  6
Continuous
 62
     7
370
     0
100
AcDbLine
 10
94.0884123546
 20
96.3383685744
 30
0.0
 11
94.0884123546
 21
75.4581770555
 31
0.0
  0
LINE
  5
23B
330
22E
100
AcDbEntity
  8
0
  6
Continuous
 62
     7
370
     0
100
AcDbLine
 10
84.5634123546
 20
77.2361770555
 30
0.0
 11
78.2134123546
 21
77.2361770555
 31
0.0
  0
LINE
  5
23C
330
22E
100
AcDbEntity
  8
0
  6
Continuous
 62
     7
370
     0
100
AcDbLine
 10
94.0884123546
 20
77.2361770555
 30
0.0
 11
102.4533260812
 21
77.2361770555
 31
0.0
  0
MTEXT
  5
23D
330
22E
100
AcDbEntity
  8
0
  6
Continuous
 62
     7
370
     0
100
AcDbMText
 10
105.4642024403
 20
79.9647036549
 30
0.0
 40
2.1166666667
 41
0.0
 71
     1
 72
     1
  1
9.5mm
  7
SLDTEXTSTYLE0
 73
     1
 44
1.0
  0
MTEXT
  5
23E
330
22E
100
AcDbEntity
  8
0
  6
Continuous
 62
     7
370
     0
100
AcDbMText
 10
106.1853972791
 20
76.6026244428
 30
0.0
 40
2.1166666667
 41
0.0
 71
     1
 72
     1
  1
0.38in
  7
SLDTEXTSTYLE0
 73
     1
 44
1.0
  0
ENDBLK
  5
230
330
22E
100
AcDbEntity
  8
0
100
AcDbBlockEnd
  0
BLOCK
  5
241
330
240
100
AcDbEntity
  8
0
100
AcDbBlockBegin
  2
_D_10
 70
     0
 10
0.0
 20
0.0
 30
0.0
  3
_D_10
  1

  0
SOLID
  5
243
330
240
100
AcDbEntity
  8
0
  6
Continuous
 62
     7
370
     0
100
AcDbTrace
 10
74.4736777393
 20
97.8992603555
 30
0.0
 11
72.4472959124
 21
95.4027696802
 31
0.0
 12
73.3273931878
 22
94.8951430597
 32
0.0
 13
73.3273931878
 23
94.8951430597
 33
0.0
  0
LINE
  5
244
330
240
100
AcDbEntity
  8
0
  6
Continuous
 62
     7
370
     0
100
AcDbLine
 10
74.4736777393
 20
97.8992603555
 30
0.0
 11
69.9371719815
 21
90.0340968756
 31
0.0
  0
LINE
  5
245
330
240
100
AcDbEntity
  8
0
  6
Continuous
 62
     7
370
     0
100
AcDbLine
 10
69.9371719815
 20
90.0340968756
 30
0.0
 11
66.1271719815
 21
90.0340968756
 31
0.0
  0
MTEXT
  5
246
330
240
100
AcDbEntity
  8
0
  6
Continuous
 62
     7
370
     0
100
AcDbMText
 10
18.1314397361
 20
87.7195046568
 30
0.0
 40
2.1166666667
 41
0.0
 71
     1
 72
     1
  1
LOCATED ON A
  7
SLDTEXTSTYLE0
 73
     1
 44
1.0
  0
MTEXT
  5
247
330
240
100
AcDbEntity
  8
0
  6
Continuous
 62
     7
370
     0
100
AcDbMText
 10
40.0624584164
 20
87.7195046568
 30
0.0
 40
2.1166666667
 41
0.0
 71
     1
 72
     1
  1
%%c
  7
SLDTEXTSTYLE0
 73
     1
 44
1.0
  0
MTEXT
  5
248
330
240
100
AcDbEntity
  8
0
  6
Continuous
 62
     7
370
     0
100
AcDbMText
 10
43.2574499156
 20
87.7195046568
 30
0.0
 40
2.1166666667
 41
0.0
 71
     1
 72
     1
  1
19.1mm [0.75in]
  7
SLDTEXTSTYLE0
 73
     1
 44
1.0
  0
MTEXT
  5
249
330
240
100
AcDbEntity
  8
0
  6
Continuous
 62
     7
370
     0
100
AcDbMText
 10
38.4979819839
 20
91.081583869
 30
0.0
 40
2.1166666667
 41
0.0
 71
     1
 72
     1
  1
4-40 TAPPED HOLES
  7
SLDTEXTSTYLE0
 73
     1
 44
1.0
  0
ENDBLK
  5
242
330
240
100
AcDbEntity
  8
0
100
AcDbBlockEnd
  0
BLOCK
  5
24D
330
24C
100
AcDbEntity
  8
0
100
AcDbBlockBegin
  2
_D_11
 70
     0
 10
0.0
 20
0.0
 30
0.0
  3
_D_11
  1

  0
SOLID
  5
24F
330
24C
100
AcDbEntity
  8
0
  6
Continuous
 62
     7
370
     0
100
AcDbTrace
 10
94.8851534566
 20
100.2587893214
 30
0.0
 11
96.9122618661
 21
102.7546900599
 31
0.0
 12
96.0323123859
 22
103.2625728341
 32
0.0
 13
96.0323123859
 23
103.2625728341
 33
0.0
  0
LINE
  5
250
330
24C
100
AcDbEntity
  8
0
  6
Continuous
 62
     7
370
     0
100
AcDbLine
 10
94.8851534566
 20
100.2587893214
 30
0.0
 11
102.7258286553
 21
113.8434163569
 31
0.0
  0
LINE
  5
251
330
24C
100
AcDbEntity
  8
0
  6
Continuous
 62
     7
370
     0
100
AcDbLine
 10
102.7258286553
 20
113.8434163569
 30
0.0
 11
106.5358286553
 21
113.8434163569
 31
0.0
  0
MTEXT
  5
252
330
24C
100
AcDbEntity
  8
0
  6
Continuous
 62
     7
370
     0
100
AcDbMText
 10
108.1233286553
 20
108.1667449259
 30
0.0
 40
2.1166666667
 41
0.0
 71
     1
 72
     1
  1
2 PLACES
  7
SLDTEXTSTYLE0
 73
     1
 44
1.0
  0
MTEXT
  5
253
330
24C
100
AcDbEntity
  8
0
  6
Continuous
 62
     7
370
     0
100
AcDbMText
 10
108.1233286553
 20
114.8909033503
 30
0.0
 40
2.1166666667
 41
0.0
 71
     1
 72
     1
  1
%%c
  7
SLDTEXTSTYLE0
 73
     1
 44
1.0
  0
MTEXT
  5
254
330
24C
100
AcDbEntity
  8
0
  6
Continuous
 62
     7
370
     0
100
AcDbMText
 10
111.318319456
 20
114.8909033503
 30
0.0
 40
2.1166666667
 41
0.0
 71
     1
 72
     1
  1
3.2mm [0.13in]
  7
SLDTEXTSTYLE0
 73
     1
 44
1.0
  0
INSERT
  5
25C
330
24C
100
AcDbEntity
  8
0
  6
Continuous
 62
     7
370
     0
100
AcDbBlockReference
  2
SW_SYMBOL_HOLE_DEPTH
 10
108.1233286553
 20
109.0938195577
 30
0.0
 41
0.0027037109
 42
0.0027037109
 43
0.0027037109
  0
MTEXT
  5
25D
330
24C
100
AcDbEntity
  8
0
  6
Continuous
 62
     7
370
     0
100
AcDbMText
 10
111.1501619474
 20
111.5288241381
 30
0.0
 40
2.1166666667
 41
0.0
 71
     1
 72
     1
  1
3.2mm [0.13in]
  7
SLDTEXTSTYLE0
 73
     1
 44
1.0
  0
ENDBLK
  5
24E
330
24C
100
AcDbEntity
  8
0
100
AcDbBlockEnd
  0
BLOCK
  5
256
330
255
100
AcDbEntity
  8
0
100
AcDbBlockBegin
  2
SW_SYMBOL_HOLE_DEPTH
 70
     0
 10
0.0
 20
0.0
 30
0.0
  3
SW_SYMBOL_HOLE_DEPTH
  1

  0
LINE
  5
258
330
255
100
AcDbEntity
  8
0
  6
Continuous
 62
     0
370
     0
100
AcDbLine
 10
0.0
 20
875.0
 30
0.0
 11
800.0
 21
875.0
 31
0.0
  0
LINE
  5
259
330
255
100
AcDbEntity
  8
0
  6
Continuous
 62
     0
370
     0
100
AcDbLine
 10
400.0
 20
875.0
 30
0.0
 11
400.0
 21
75.0
 31
0.0
  0
LINE
  5
25A
330
255
100
AcDbEntity
  8
0
  6
Continuous
 62
     0
370
     0
100
AcDbLine
 10
100.0
 20
555.0
 30
0.0
 11
400.0
 21
75.0
 31
0.0
  0
LINE
  5
25B
330
255
100
AcDbEntity
  8
0
  6
Continuous
 62
     0
370
     0
100
AcDbLine
 10
700.0
 20
555.0
 30
0.0
 11
400.0
 21
75.0
 31
0.0
  0
ENDBLK
  5
257
330
255
100
AcDbEntity
  8
0
100
AcDbBlockEnd
  0
BLOCK
  5
25F
330
25E
100
AcDbEntity
  8
0
100
AcDbBlockBegin
  2
SW_CENTERMARKSYMBOL_0
 70
     0
 10
0.0
 20
0.0
 30
0.0
  3
SW_CENTERMARKSYMBOL_0
  1

  0
LINE
  5
261
330
25E
100
AcDbEntity
  8
0
  6
Continuous
 62
     0
370
     0
100
AcDbLine
 10
0.0
 20
0.0
 30
0.0
 11
0.0
 21
1.27
 31
0.0
  0
LINE
  5
262
330
25E
100
AcDbEntity
  8
0
  6
Continuous
 62
     0
370
     0
100
AcDbLine
 10
0.0
 20
0.0
 30
0.0
 11
-1.27
 21
0.0
 31
0.0
  0
LINE
  5
263
330
25E
100
AcDbEntity
  8
0
  6
Continuous
 62
     0
370
     0
100
AcDbLine
 10
0.0
 20
0.0
 30
0.0
 11
0.0
 21
-1.27
 31
0.0
  0
LINE
  5
264
330
25E
100
AcDbEntity
  8
0
  6
Continuous
 62
     0
370
     0
100
AcDbLine
 10
0.0
 20
0.0
 30
0.0
 11
1.27
 21
0.0
 31
0.0
  0
ENDBLK
  5
260
330
25E
100
AcDbEntity
  8
0
100
AcDbBlockEnd
  0
BLOCK
  5
267
330
266
100
AcDbEntity
  8
0
100
AcDbBlockBegin
  2
SW_CENTERMARKSYMBOL_1
 70
     0
 10
0.0
 20
0.0
 30
0.0
  3
SW_CENTERMARKSYMBOL_1
  1

  0
LINE
  5
269
330
266
100
AcDbEntity
  8
0
  6
Continuous
 62
     0
370
     0
100
AcDbLine
 10
0.0
 20
0.0
 30
0.0
 11
0.0
 21
1.27
 31
0.0
  0
LINE
  5
26A
330
266
100
AcDbEntity
  8
0
  6
Continuous
 62
     0
370
     0
100
AcDbLine
 10
0.0
 20
0.0
 30
0.0
 11
-1.27
 21
0.0
 31
0.0
  0
LINE
  5
26B
330
266
100
AcDbEntity
  8
0
  6
Continuous
 62
     0
370
     0
100
AcDbLine
 10
0.0
 20
0.0
 30
0.0
 11
0.0
 21
-1.27
 31
0.0
  0
LINE
  5
26C
330
266
100
AcDbEntity
  8
0
  6
Continuous
 62
     0
370
     0
100
AcDbLine
 10
0.0
 20
0.0
 30
0.0
 11
1.27
 21
0.0
 31
0.0
  0
ENDBLK
  5
268
330
266
100
AcDbEntity
  8
0
100
AcDbBlockEnd
  0
BLOCK
  5
285
330
284
100
AcDbEntity
  8
0
100
AcDbBlockBegin
  2
SW_NOTE_5
 70
     0
 10
0.0
 20
0.0
 30
0.0
  3
SW_NOTE_5
  1

  0
MTEXT
  5
287
330
284
100
AcDbEntity
  8
0
  6
Continuous
 62
     0
370
     0
100
AcDbMText
 10
0.5454554665
 20
0.8868189808
 30
0.0
 40
2.1166666667
 41
0.0
 71
     1
 72
     1
  1
PARABOLIC SURFACE
  7
SLDTEXTSTYLE0
 73
     1
 44
1.0
  0
MTEXT
  5
288
330
284
100
AcDbEntity
  8
0
  6
Continuous
 62
     0
370
     0
100
AcDbMText
 10
0.5454554665
 20
-1.9354032073
 30
0.0
 40
2.1166666667
 41
0.0
 71
     1
 72
     1
  1
UV ENHANCED ALUMINUM COATED
  7
SLDTEXTSTYLE0
 73
     1
 44
1.0
  0
ENDBLK
  5
286
330
284
100
AcDbEntity
  8
0
100
AcDbBlockEnd
  0
BLOCK
  5
28C
330
28B
100
AcDbEntity
  8
0
100
AcDbBlockBegin
  2
_DOT
 70
     0
 10
0.0
 20
0.0
 30
0.0
  3
_DOT
  1

  0
POLYLINE
  5
28E
330
28B
100
AcDbEntity
  8
0
  6
ByBlock
 62
     0
100
AcDb2dPolyline
 66
     1
 10
0.0
 20
0.0
 30
0.0
 70
     1
 40
0.5
 41
0.5
  0
VERTEX
  5
290
330
28E
100
AcDbEntity
  8
0
  6
ByBlock
 62
     0
100
AcDbVertex
100
AcDb2dVertex
 10
-0.25
 20
0.0
 30
0.0
 42
1.0
  0
VERTEX
  5
291
330
28E
100
AcDbEntity
  8
0
  6
ByBlock
 62
     0
100
AcDbVertex
100
AcDb2dVertex
 10
0.25
 20
0.0
 30
0.0
 42
1.0
  0
SEQEND
  5
292
330
28E
100
AcDbEntity
  8
0
  6
ByBlock
 62
     0
  0
LINE
  5
28F
330
28B
100
AcDbEntity
  8
0
  6
ByBlock
 62
     0
370
    -2
100
AcDbLine
 10
-0.5
 20
0.0
 30
0.0
 11
-1.0
 21
0.0
 31
0.0
  0
ENDBLK
  5
28D
330
28B
100
AcDbEntity
  8
0
100
AcDbBlockEnd
  0
BLOCK
  5
295
330
294
100
AcDbEntity
  8
0
100
AcDbBlockBegin
  2
SW_NOTE_6
 70
     0
 10
0.0
 20
0.0
 30
0.0
  3
SW_NOTE_6
  1

  0
MTEXT
  5
297
330
294
100
AcDbEntity
  8
0
  6
Continuous
 62
     0
370
     0
100
AcDbMText
 10
0.5175861636
 20
1.0392557479
 30
0.0
 40
2.1166666667
 41
0.0
 71
     1
 72
     1
  1
4-40 TAP
  7
SLDTEXTSTYLE0
 73
     1
 44
1.0
  0
INSERT
  5
298
330
294
100
AcDbEntity
  8
0
  6
Continuous
 62
     0
370
     0
100
AcDbBlockReference
  2
SW_SYMBOL_HOLE_DEPTH
 10
12.6688209468
 20
-1.3957488325
 30
0.0
 41
0.0027037109
 42
0.0027037109
 43
0.0027037109
  0
MTEXT
  5
299
330
294
100
AcDbEntity
  8
0
  6
Continuous
 62
     0
370
     0
100
AcDbMText
 10
15.6956537733
 20
1.0392557479
 30
0.0
 40
2.1166666667
 41
0.0
 71
     1
 72
     1
  1
6.4mm [0.25in]
  7
SLDTEXTSTYLE0
 73
     1
 44
1.0
  0
MTEXT
  5
29A
330
294
100
AcDbEntity
  8
0
  6
Continuous
 62
     0
370
     0
100
AcDbMText
 10
0.5175861636
 20
-1.7829664402
 30
0.0
 40
2.1166666667
 41
0.0
 71
     1
 72
     1
  1
3 PLACES IN RADIAL PATTERN
  7
SLDTEXTSTYLE0
 73
     1
 44
1.0
  0
ENDBLK
  5
296
330
294
100
AcDbEntity
  8
0
100
AcDbBlockEnd
  0
ENDSEC
  0
SECTION
  2
ENTITIES
  0
LINE
  5
52
330
1F
100
AcDbEntity
  8
0
  6
Continuous
 62
     7
370
     0
100
AcDbLine
 10
1.5793501011
 20
214.6453799966
 30
0.0
 11
277.9892068491
 21
214.6453799966
 31
0.0
  0
LINE
  5
53
330
1F
100
AcDbEntity
  8
0
  6
Continuous
 62
     7
370
     0
100
AcDbLine
 10
1.5793501011
 20
214.6453799966
 30
0.0
 11
1.5793501011
 21
0.9031642596
 31
0.0
  0
LINE
  5
54
330
1F
100
AcDbEntity
  8
0
  6
Continuous
 62
     7
370
     0
100
AcDbLine
 10
277.9892068491
 20
0.9031642596
 30
0.0
 11
1.5793501011
 21
0.9031642596
 31
0.0
  0
LINE
  5
55
330
1F
100
AcDbEntity
  8
0
  6
Continuous
 62
     7
370
     0
100
AcDbLine
 10
277.9892068491
 20
0.9031642596
 30
0.0
 11
277.9892068491
 21
214.6453799966
 31
0.0
  0
LINE
  5
56
330
1F
100
AcDbEntity
  8
0
  6
Continuous
 62
     7
370
     0
100
AcDbLine
 10
215.7427640041
 20
12.2958890132
 30
0.0
 11
171.6327596684
 21
12.2958890132
 31
0.0
  0
LINE
  5
57
330
1F
100
AcDbEntity
  8
0
  6
Continuous
 62
     7
370
     0
100
AcDbLine
 10
171.6327596684
 20
12.2958890132
 30
0.0
 11
171.6327596684
 21
26.1661402506
 31
0.0
  0
LINE
  5
58
330
1F
100
AcDbEntity
  8
0
  6
Continuous
 62
     7
370
     0
100
AcDbLine
 10
171.6327596684
 20
0.9031642596
 30
0.0
 11
171.6327596684
 21
26.1661402506
 31
0.0
  0
LINE
  5
59
330
1F
100
AcDbEntity
  8
0
  6
Continuous
 62
     7
370
     0
100
AcDbLine
 10
215.7427640041
 20
17.1604579552
 30
0.0
 11
277.9892068491
 21
17.1604579552
 31
0.0
  0
LINE
  5
5A
330
1F
100
AcDbEntity
  8
0
  6
Continuous
 62
     7
370
     0
100
AcDbLine
 10
215.7427640041
 20
35.2394508358
 30
0.0
 11
215.7427640041
 21
0.9031642596
 31
0.0
  0
LINE
  5
5B
330
1F
100
AcDbEntity
  8
0
  6
Continuous
 62
     7
370
     0
100
AcDbLine
 10
215.7427640041
 20
26.1661402506
 30
0.0
 11
171.6327596684
 21
26.1661402506
 31
0.0
  0
LINE
  5
5C
330
1F
100
AcDbEntity
  8
0
  6
Continuous
 62
     7
370
     0
100
AcDbLine
 10
215.7427640041
 20
9.1409200612
 30
0.0
 11
277.9892068491
 21
9.1409200612
 31
0.0
  0
LINE
  5
5D
330
1F
100
AcDbEntity
  8
0
  6
Continuous
 62
     7
370
     0
100
AcDbLine
 10
215.7427640041
 20
16.9216824031
 30
0.0
 11
171.6327596684
 21
16.9216824031
 31
0.0
  0
LINE
  5
5E
330
1F
100
AcDbEntity
  8
0
  6
Continuous
 62
     7
370
     0
100
AcDbLine
 10
215.7427640041
 20
21.4874005542
 30
0.0
 11
171.6327596684
 21
21.4874005542
 31
0.0
  0
LINE
  5
5F
330
1F
100
AcDbEntity
  8
0
  6
Continuous
 62
     7
370
     0
100
AcDbLine
 10
186.1338100705
 20
26.1661402506
 30
0.0
 11
186.1338100705
 21
12.2958890132
 31
0.0
  0
LINE
  5
60
330
1F
100
AcDbEntity
  8
0
  6
Continuous
 62
     7
370
     0
100
AcDbLine
 10
198.2145906188
 20
26.1661402506
 30
0.0
 11
198.2145906188
 21
12.2958890132
 31
0.0
  0
LINE
  5
61
330
1F
100
AcDbEntity
  8
0
  6
Continuous
 62
     7
370
     0
100
AcDbLine
 10
253.7490408369
 20
9.1409200612
 30
0.0
 11
253.7490408369
 21
0.9031642596
 31
0.0
  0
LINE
  5
62
330
1F
100
AcDbEntity
  8
0
  6
Continuous
 62
     7
370
     0
100
AcDbLine
 10
171.6327596684
 20
12.2958890132
 30
0.0
 11
171.6327596684
 21
7.5627342528
 31
0.0
  0
LINE
  5
63
330
1F
100
AcDbEntity
  8
0
  6
Continuous
 62
     7
370
     0
100
AcDbLine
 10
171.6327596684
 20
7.5627342528
 30
0.0
 11
215.7427640041
 21
7.5627342528
 31
0.0
  0
LINE
  5
64
330
1F
100
AcDbEntity
  8
0
  6
Continuous
 62
     7
370
     0
100
AcDbLine
 10
171.6327596684
 20
7.5627342528
 30
0.0
 11
171.6327596684
 21
35.2394508358
 31
0.0
  0
LINE
  5
65
330
1F
100
AcDbEntity
  8
0
  6
Continuous
 62
     7
370
     0
100
AcDbLine
 10
171.6327596684
 20
35.2394508358
 30
0.0
 11
215.7427640041
 21
35.2394508358
 31
0.0
  0
LINE
  5
66
330
1F
100
AcDbEntity
  8
0
  6
Continuous
 62
     7
370
     0
100
AcDbLine
 10
270.1683598194
 20
17.1604579552
 30
0.0
 11
270.1683598194
 21
9.1409200612
 31
0.0
  0
LINE
  5
67
330
1F
100
AcDbEntity
  8
0
  6
Continuous
 62
     7
370
     0
100
AcDbLine
 10
215.7427640041
 20
35.2394508358
 30
0.0
 11
277.9892068491
 21
35.2394508358
 31
0.0
  0
LINE
  5
68
330
1F
100
AcDbEntity
  8
0
  6
Continuous
 62
     7
370
     0
100
AcDbLine
 10
277.9892068491
 20
35.2394508358
 30
0.0
 11
277.9892068491
 21
50.0331356147
 31
0.0
  0
LINE
  5
69
330
1F
100
AcDbEntity
  8
0
  6
Continuous
 62
     7
370
     0
100
AcDbLine
 10
215.7427640041
 20
24.8927335446
 30
0.0
 11
277.9892068491
 21
24.8927335446
 31
0.0
  0
INSERT
  5
6A
330
1F
100
AcDbEntity
  8
0
  6
Continuous
 62
     7
100
AcDbBlockReference
  2
Third Angle Projection Block
 10
117.7262204235
 20
15.5162339489
 30
0.0
 41
0.8
 42
0.8
 43
0.8
  0
POINT
  5
6B
330
1F
100
AcDbEntity
  8
0
  6
Continuous
 62
     7
370
     0
100
AcDbPoint
 10
186.1634123546
 20
180.5046852727
 30
0.0
  0
MTEXT
  5
6D
330
1F
100
AcDbEntity
  8
0
  6
Continuous
 62
     7
370
     0
100
AcDbMText
 10
242.3743488307
 20
161.8795552182
 30
0.0
 40
2.1166666667
 41
0.0
 71
     1
 72
     1
  1
1:1 ISOMETRIC VIEW
  7
SLDTEXTSTYLE0
 73
     1
 44
1.0
  0
MTEXT
  5
6E
330
1F
100
AcDbEntity
  8
0
  6
Continuous
 62
     7
370
     0
100
AcDbMText
 10
172.3627544876
 20
113.2328971615
 30
0.0
 40
2.1166666667
 41
0.0
 71
     1
 72
     1
  1
SCALE: 1:1
  7
SLDTEXTSTYLE0
 73
     1
 44
1.0
  0
MTEXT
  5
6F
330
1F
100
AcDbEntity
  8
0
  6
Continuous
 62
     7
370
     0
100
AcDbMText
 10
273.7514466724
 20
13.1125292762
 30
0.0
 40
3.175
 41
0.0
 71
     2
 72
     1
  1
A
  7
SLDTEXTSTYLE0
 73
     1
 44
1.0
  0
MTEXT
  5
70
330
1F
100
AcDbEntity
  8
0
  6
Continuous
 62
     7
370
     0
100
AcDbMText
 10
234.5881148673
 20
5.1657920755
 30
0.0
 40
2.38125
 41
0.0
 71
     2
 72
     1
  1
MPD254508-90-F01
  7
SLDTEXTSTYLE0
 73
     1
 44
1.0
  0
MTEXT
  5
71
330
1F
100
AcDbEntity
  8
0
  6
Continuous
 62
     7
370
     0
100
AcDbMText
 10
216.4199766059
 20
16.8243178599
 30
0.0
 40
2.1166666667
 41
0.0
 71
     1
 72
     1
  1
MATERIAL
  7
SLDTEXTSTYLE0
 73
     1
 44
1.0
  0
MTEXT
  5
72
330
1F
100
AcDbEntity
  8
0
  6
Continuous
 62
     7
370
     0
100
AcDbMText
 10
174.230946566
 20
20.054553926
 30
0.0
 40
1.8520833333
 41
0.0
 71
     1
 72
     1
  1
DRAWN
  7
SLDTEXTSTYLE0
 73
     1
 44
1.0
  0
MTEXT
  5
73
330
1F
100
AcDbEntity
  8
0
  6
Continuous
 62
     7
370
     0
100
AcDbMText
 10
172.3960124543
 20
15.5787169747
 30
0.0
 40
1.8520833333
 41
0.0
 71
     1
 72
     1
  1
APPROVAL
  7
SLDTEXTSTYLE0
 73
     1
 44
1.0
  0
MTEXT
  5
74
330
1F
100
AcDbEntity
  8
0
  6
Continuous
 62
     7
370
     0
100
AcDbMText
 10
271.321689486
 20
16.0237652193
 30
0.0
 40
2.1166666667
 41
0.0
 71
     1
 72
     1
  1
REV
  7
SLDTEXTSTYLE0
 73
     1
 44
1.0
  0
MTEXT
  5
75
330
1F
100
AcDbEntity
  8
0
  6
Continuous
 62
     7
370
     0
100
AcDbMText
 10
190.2958696448
 20
20.3177146903
 30
0.0
 40
2.1166666667
 41
0.0
 71
     1
 72
     1
  1
MG
  7
SLDTEXTSTYLE0
 73
     1
 44
1.0
  0
MTEXT
  5
76
330
1F
100
AcDbEntity
  8
0
  6
Continuous
 62
     7
370
     0
100
AcDbMText
 10
199.8662436873
 20
20.3177146903
 30
0.0
 40
2.1166666667
 41
0.0
 71
     1
 72
     1
  1
25/JULY/12
  7
SLDTEXTSTYLE0
 73
     1
 44
1.0
  0
MTEXT
  5
77
330
1F
100
AcDbEntity
  8
0
  6
Continuous
 62
     7
370
     0
100
AcDbMText
 10
203.6145073853
 20
24.8221395769
 30
0.0
 40
2.1166666667
 41
0.0
 71
     1
 72
     1
  1
DATE
  7
SLDTEXTSTYLE0
 73
     1
 44
1.0
  0
MTEXT
  5
79
330
1F
100
AcDbEntity
  8
0
  6
Continuous
 62
     7
370
     0
100
AcDbMText
 10
229.402906477
 20
27.7957480569
 30
0.0
 40
2.1166666667
 41
0.0
 71
     1
 72
     1
  1
w w w . t h o r  l a b s . c o m
  7
SLDTEXTSTYLE1
 73
     1
 44
1.0
  0
MTEXT
  5
7A
330
1F
100
AcDbEntity
  8
0
  6
Continuous
 62
     7
370
     0
100
AcDbMText
 10
216.7004035316
 20
8.3494791871
 30
0.0
 40
2.1166666667
 41
0.0
 71
     1
 72
     1
  1
ITEM #
  7
SLDTEXTSTYLE0
 73
     1
 44
1.0
  0
MTEXT
  5
7B
330
1F
100
AcDbEntity
  8
0
  6
Continuous
 62
     7
370
     0
100
AcDbMText
 10
254.5318000914
 20
8.3494791871
 30
0.0
 40
2.1166666667
 41
0.0
 71
     1
 72
     1
  1
APPROX WEIGHT
  7
SLDTEXTSTYLE0
 73
     1
 44
1.0
  0
MTEXT
  5
7C
330
1F
100
AcDbEntity
  8
0
  6
Continuous
 62
     7
370
     0
100
AcDbMText
 10
243.4275635722
 20
13.1476649618
 30
0.0
 40
2.38125
 41
0.0
 71
     2
 72
     1
  1
6061-T6 ALUMINUM
  7
SLDTEXTSTYLE0
 73
     1
 44
1.0
  0
MTEXT
  5
7D
330
1F
100
AcDbEntity
  8
0
  6
Continuous
 62
     7
370
     0
100
AcDbMText
 10
266.1678480997
 20
5.1306563898
 30
0.0
 40
3.175
 41
0.0
 71
     2
 72
     1
  1
0.01 kg
  7
SLDTEXTSTYLE0
 73
     1
 44
1.0
  0
INSERT
  5
83
330
1F
100
AcDbEntity
  8
0
  6
Continuous
 62
     7
370
     0
100
AcDbBlockReference
  2
SW_NOTE_0
 10
174.8430140051
 20
4.4558554801
 30
0.0
  0
INSERT
  5
89
330
1F
100
AcDbEntity
  8
0
  6
Continuous
 62
     7
370
     0
100
AcDbBlockReference
  2
SW_NOTE_1
 10
174.5483650337
 20
30.4835322715
 30
0.0
  0
MTEXT
  5
8A
330
1F
100
AcDbEntity
  8
0
  6
Continuous
 62
     7
370
     0
100
AcDbMText
 10
187.9273588276
 20
24.8221395769
 30
0.0
 40
2.1166666667
 41
0.0
 71
     1
 72
     1
  1
NAME
  7
SLDTEXTSTYLE0
 73
     1
 44
1.0
  0
INSERT
  5
90
330
1F
100
AcDbEntity
  8
0
  6
Continuous
 62
     7
370
     0
100
AcDbBlockReference
  2
SW_NOTE_2
 10
58.6204667508
 20
8.1776609732
 30
0.0
  0
MTEXT
  5
91
330
1F
100
AcDbEntity
  8
0
  6
Continuous
 62
     7
370
     0
100
AcDbMText
 10
179.1174811218
 20
10.6680638482
 30
0.0
 40
1.5875
 41
0.0
 71
     1
 72
     1
  1
COPYRIGHT © 2012 BY THORLABS
  7
SLDTEXTSTYLE0
 73
     1
 44
1.0
  0
INSERT
  5
99
330
1F
100
AcDbEntity
  8
0
  6
Continuous
 62
     7
370
     0
100
AcDbBlockReference
  2
SW_NOTE_3
 10
220.3914404209
 20
20.6862828027
 30
0.0
  0
INSERT
  5
B8
330
1F
100
AcDbEntity
  8
0
  6
Continuous
 62
     7
370
     0
100
AcDbBlockReference
  2
SW_NOTE_4
 10
8.6190902456
 20
62.1918079206
 30
0.0
  0
MTEXT
  5
B9
330
1F
100
AcDbEntity
  8
0
  6
Continuous
 62
     7
370
     0
100
AcDbMText
 10
199.9780419374
 20
15.8787451852
 30
0.0
 40
2.1166666667
 41
0.0
 71
     1
 72
     1
  1
30/JULY/12
  7
SLDTEXTSTYLE0
 73
     1
 44
1.0
  0
MTEXT
  5
BA
330
1F
100
AcDbEntity
  8
0
  6
Continuous
 62
     7
370
     0
100
AcDbMText
 10
190.4076678949
 20
15.8787451852
 30
0.0
 40
2.1166666667
 41
0.0
 71
     1
 72
     1
  1
DD
  7
SLDTEXTSTYLE0
 73
     1
 44
1.0
  0
LINE
  5
BB
330
1F
100
AcDbEntity
  8
0
  6
CENTERX2
 62
     7
100
AcDbLine
 10
84.5634123546
 20
198.9346852727
 30
0.0
 11
84.5634123546
 21
162.2446852727
 31
0.0
  0
LINE
  5
BC
330
1F
100
AcDbEntity
  8
0
  6
CENTERX2
 62
     7
100
AcDbLine
 10
186.1634123546
 20
198.9346852727
 30
0.0
 11
186.1634123546
 21
129.7046852727
 31
0.0
  0
LWPOLYLINE
  5
BD
330
1F
100
AcDbEntity
  8
0
  6
Continuous
 62
     7
100
AcDbPolyline
 90
       28
 70
   128
 43
0.0
 10
186.1634123546
 20
129.7046852727
 10
182.0812694975
 20
129.7866926068
 10
177.9991266403
 20
130.0327146094
 10
173.9169837832
 20
130.4427512803
 10
169.834840926
 20
131.0168026196
 10
165.7526980689
 20
131.7548686272
 10
161.6705552118
 20
132.6569493033
 10
157.5884123546
 20
133.7230446477
 10
153.5062694975
 20
134.9531546604
 10
149.4241266403
 20
136.3472793415
 10
145.3419837832
 20
137.905418691
 10
141.2598409261
 20
139.6275727089
 10
137.1776980689
 20
141.5137413951
 10
133.0955552118
 20
143.5639247497
 10
129.0134123546
 20
145.7781227726
 10
124.9312694975
 20
148.156335464
 10
120.8491266403
 20
150.6985628237
 10
116.7669837832
 20
153.4048048517
 10
112.6848409261
 20
156.2750615482
 10
108.6026980689
 20
159.3093329129
 10
104.5205552118
 20
162.5076189461
 10
100.4384123546
 20
165.8699196476
 10
96.3562694975
 20
169.3962350175
 10
92.2741266404
 20
173.0865650558
 10
88.1919837832
 20
176.9409097624
 10
84.1098409261
 20
180.9592691374
 10
80.0276980689
 20
185.1416431808
 10
75.9455552118
 20
189.4880318925
  0
LINE
  5
BE
330
1F
100
AcDbEntity
  8
0
  6
Continuous
 62
     7
370
     0
100
AcDbLine
 10
97.2634123546
 20
162.2446852727
 30
0.0
 11
97.2634123546
 21
168.6038652413
 31
0.0
  0
LINE
  5
BF
330
1F
100
AcDbEntity
  8
0
  6
Continuous
 62
     7
370
     0
100
AcDbLine
 10
71.8634123546
 20
168.7572390262
 30
0.0
 11
71.8634123546
 21
162.2446852727
 31
0.0
  0
LINE
  5
C0
330
1F
100
AcDbEntity
  8
0
  6
Continuous
 62
     7
370
     0
100
AcDbLine
 10
71.8634123546
 20
169.8453214346
 30
0.0
 11
71.8634123546
 21
169.3158374815
 31
0.0
  0
LINE
  5
C1
330
1F
100
AcDbEntity
  8
0
  6
Continuous
 62
     7
370
     0
100
AcDbLine
 10
71.8634123546
 20
172.5565082964
 30
0.0
 11
71.8634123546
 21
170.6603570001
 31
0.0
  0
LINE
  5
C2
330
1F
100
AcDbEntity
  8
0
  6
Continuous
 62
     7
370
     0
100
AcDbLine
 10
71.8634123546
 20
193.9984352717
 30
0.0
 11
71.8634123546
 21
173.9564410771
 31
0.0
  0
LINE
  5
C3
330
1F
100
AcDbEntity
  8
0
  6
Continuous
 62
     7
370
     0
100
AcDbLine
 10
71.8634123546
 20
173.9564410771
 30
0.0
 11
71.8634123546
 21
172.5565082964
 31
0.0
  0
LINE
  5
C4
330
1F
100
AcDbEntity
  8
0
  6
Continuous
 62
     7
370
     0
100
AcDbLine
 10
71.8634123546
 20
169.3158374815
 30
0.0
 11
71.8634123546
 21
168.7572390262
 31
0.0
  0
LINE
  5
C5
330
1F
100
AcDbEntity
  8
0
  6
Continuous
 62
     7
370
     0
100
AcDbLine
 10
71.8634123546
 20
170.6603570001
 30
0.0
 11
71.8634123546
 21
169.8453214346
 31
0.0
  0
SPLINE
  5
C6
330
1F
100
AcDbEntity
  8
0
  6
Continuous
 62
     7
370
     0
100
AcDbSpline
210
0.0
220
0.0
230
1.0
 70
     8
 71
     3
 72
    63
 73
    59
 74
     0
 42
0.00000001
 43
0.00000001
 12
1.0
 22
0.0
 32
0.0
 13
1.0
 23
0.0
 33
0.0
 40
0.0
 40
0.0
 40
0.0
 40
0.0
 40
0.0114779836937968
 40
0.0229670667870502
 40
0.0344454803119493
 40
0.04632456986868
 40
0.0582152041162285
 40
0.0700955443003746
 40
0.0872926918161062
 40
0.1044917324198244
 40
0.1221138892292744
 40
0.1397379633053475
 40
0.155884519001856
 40
0.1720465273382767
 40
0.1881966781385432
 40
0.2047993776495378
 40
0.2214140208183837
 40
0.2380193474705664
 40
0.2604358468224668
 40
0.2828735388759634
 40
0.3052950736718837
 40
0.3283404422960244
 40
0.3514022410473056
 40
0.3744504992690859
 40
0.3956391776859732
 40
0.416847010276631
 40
0.4380561899747929
 40
0.4592467069956643
 40
0.4810495347691116
 40
0.5028714306841914
 40
0.5246932786884375
 40
0.5464960410717652
 40
0.5677628719160809
 40
0.5890487661042095
 40
0.610333178576196
 40
0.6315979870615565
 40
0.6535802829876592
 40
0.6755894944084186
 40
0.6975943061357148
 40
0.7195705949134392
 40
0.7368042138328517
 40
0.7540460545861294
 40
0.7712776090978705
 40
0.78889992173124
 40
0.8065340472111775
 40
0.8241526819202726
 40
0.8375104486146551
 40
0.8508754820333261
 40
0.8642314567695077
 40
0.8779296532210712
 40
0.891638290400379
 40
0.9053339655924916
 40
0.9218111592811351
 40
0.9382867793304891
 40
0.9552197954970696
 40
0.9721514797229609
 40
0.9886464034657525
 40
1.0
 40
1.0
 40
1.0
 40
1.0
 10
71.86341228559947
 20
193.9984353503107
 30
0.0
 10
71.86579037103658
 20
193.9960572643304
 30
0.0
 10
71.87054884155859
 20
193.9912987927216
 30
0.0
 10
71.90851167853873
 20
193.9533359504649
 30
0.0
 10
71.96926651108434
 20
193.8925811157198
 30
0.0
 10
72.05585694785897
 20
193.8059906795541
 30
0.0
 10
72.1674433735742
 20
193.6944042536743
 30
0.0
 10
72.32234156607005
 20
193.5395060612266
 30
0.0
 10
72.53276376079832
 20
193.3290838664809
 30
0.0
 10
72.81200562592394
 20
193.0498420013615
 30
0.0
 10
73.13357751386536
 20
192.7282701134185
 30
0.0
 10
73.48402556160754
 20
192.3778220656771
 30
0.0
 10
73.85405346184167
 20
192.0077941654423
 30
0.0
 10
74.23760295429197
 20
191.6242446729909
 30
0.0
 10
74.64681831998831
 20
191.2150293072938
 30
0.0
 10
75.08003687360836
 20
190.7818107536745
 30
0.0
 10
75.53553582837456
 20
190.3263117989096
 30
0.0
 10
76.06229068757727
 20
189.7995569397076
 30
0.0
 10
76.66509453653478
 20
189.1967530907497
 30
0.0
 10
77.34710802086775
 20
188.5147396064162
 30
0.0
 10
78.05444000457523
 20
187.8074076227084
 30
0.0
 10
78.78460036794415
 20
187.0772472593394
 30
0.0
 10
79.53533331598064
 20
186.3265143113025
 30
0.0
 10
80.27705015490821
 20
185.5847974723748
 30
0.0
 10
81.0067250554399
 20
184.8551225718431
 30
0.0
 10
81.7222040825473
 20
184.1396435447357
 30
0.0
 10
82.4425947456648
 20
183.4192528816182
 30
0.0
 10
83.17332405974945
 20
182.6885235675336
 30
0.0
 10
83.91342283953131
 20
181.9484247877518
 30
0.0
 10
84.66185828955243
 20
181.199989337731
 30
0.0
 10
85.41012245957894
 20
180.4517251677049
 30
0.0
 10
86.15058072982775
 20
179.7112668974561
 30
0.0
 10
86.88219710602644
 20
178.9796505212574
 30
0.0
 10
87.60397126039447
 20
178.2578763668893
 30
0.0
 10
88.3204102562371
 20
177.5414373710467
 30
0.0
 10
89.03781930730075
 20
176.824028319983
 30
0.0
 10
89.75460638706355
 20
176.1072412402202
 30
0.0
 10
90.46864541899802
 20
175.3932022082857
 30
0.0
 10
91.16954311930458
 20
174.692304507979
 30
0.0
 10
91.80531151700875
 20
174.0565361102749
 30
0.0
 10
92.37753495682188
 20
173.4843126704615
 30
0.0
 10
92.88881553206917
 20
172.9730320952137
 30
0.0
 10
93.38922754718406
 20
172.4726200800985
 30
0.0
 10
93.87638030653547
 20
171.9854673207475
 30
0.0
 10
94.347438191863
 20
171.5144094354205
 30
0.0
 10
94.75998315818687
 20
171.101864469097
 30
0.0
 10
95.11751712293767
 20
170.7443305043459
 30
0.0
 10
95.42469691699758
 20
170.4371507102854
 30
0.0
 10
95.71682291240491
 20
170.1450247148776
 30
0.0
 10
95.99156643955345
 20
169.8702811877296
 30
0.0
 10
96.24659386319881
 20
169.6152537640853
 30
0.0
 10
96.49330711239081
 20
169.368540514894
 30
0.0
 10
96.72296245478252
 20
169.1388851725011
 30
0.0
 10
96.92730886745383
 20
168.9345387598288
 30
0.0
 10
97.0881572484252
 20
168.7736903788578
 30
0.0
 10
97.19835645030479
 20
168.6634911769784
 30
0.0
 10
97.2573247449033
 20
168.6045228823793
 30
0.0
 10
97.25779120581585
 20
168.6040564214665
 30
0.0
 10
97.2579813778231
 20
168.6038662494591
 30
0.0
  0
SPLINE
  5
C7
330
1F
100
AcDbEntity
  8
0
  6
Continuous
 62
     7
370
     0
100
AcDbSpline
210
0.0
220
0.0
230
1.0
 70
     8
 71
     3
 72
    14
 73
    10
 74
     0
 42
0.00000001
 43
0.00000001
 12
1.0
 22
0.0
 32
0.0
 13
1.0
 23
0.0
 33
0.0
 40
0.0
 40
0.0
 40
0.0
 40
0.0
 40
0.1337513677888549
 40
0.2504640037618258
 40
0.5001315782704874
 40
0.7495519040627692
 40
0.8497292700247969
 40
0.918779413198226
 40
1.0
 40
1.0
 40
1.0
 40
1.0
 10
73.83105236532471
 20
169.8246962068176
 30
0.0
 10
73.84504219704607
 20
169.812067088857
 30
0.0
 10
73.87123968065178
 20
169.788417689971
 30
0.0
 10
73.92102374216303
 20
169.7306650583576
 30
0.0
 10
73.97540548677475
 20
169.6381951552281
 30
0.0
 10
74.00917949622325
 20
169.5202065649524
 30
0.0
 10
74.02106519100612
 20
169.431908942931
 30
0.0
 10
74.0249960722744
 20
169.3780418391396
 30
0.0
 10
74.0255348634104
 20
169.345497626668
 30
0.0
 10
74.0258260773563
 20
169.3279076406847
 30
0.0
  0
SPLINE
  5
C8
330
1F
100
AcDbEntity
  8
0
  6
Continuous
 62
     7
370
     0
100
AcDbSpline
210
0.0
220
0.0
230
1.0
 70
     8
 71
     3
 72
    16
 73
    12
 74
     0
 42
0.00000001
 43
0.00000001
 12
1.0
 22
0.0
 32
0.0
 13
1.0
 23
0.0
 33
0.0
 40
0.0
 40
0.0
 40
0.0
 40
0.0
 40
0.0624101665906384
 40
0.1248967125771873
 40
0.2498787543055656
 40
0.3748952116312222
 40
0.4999251056351537
 40
0.6398105160121551
 40
0.7499861779030769
 40
0.881202834756436
 40
1.0
 40
1.0
 40
1.0
 40
1.0
 10
73.42107662298122
 20
170.1004611938177
 30
0.0
 10
73.42782454014869
 20
170.0893531885029
 30
0.0
 10
73.44132863278294
 20
170.06712358357
 30
0.0
 10
73.47280310505501
 20
170.0364821984233
 30
0.0
 10
73.51387346871843
 20
170.0058661162028
 30
0.0
 10
73.56494163088834
 20
169.9752713303683
 30
0.0
 10
73.61945957664688
 20
169.9486430852409
 30
0.0
 10
73.67257282616579
 20
169.9221623572758
 30
0.0
 10
73.72707432644324
 20
169.8935535958821
 30
0.0
 10
73.7787502960717
 20
169.8633246475309
 30
0.0
 10
73.8142054226443
 20
169.8371387570996
 30
0.0
 10
73.83105236532471
 20
169.8246962068176
 30
0.0
  0
SPLINE
  5
C9
330
1F
100
AcDbEntity
  8
0
  6
Continuous
 62
     7
370
     0
100
AcDbSpline
210
0.0
220
0.0
230
1.0
 70
     8
 71
     3
 72
    11
 73
     7
 74
     0
 42
0.00000001
 43
0.00000001
 12
1.0
 22
0.0
 32
0.0
 13
1.0
 23
0.0
 33
0.0
 40
0.0
 40
0.0
 40
0.0
 40
0.0
 40
0.2501932676829366
 40
0.5000551820616771
 40
0.7498736249915013
 40
1.0
 40
1.0
 40
1.0
 40
1.0
 10
73.38591141565621
 20
170.2819721777983
 30
0.0
 10
73.38623917240444
 20
170.2651463034742
 30
0.0
 10
73.38689425182336
 20
170.2315168388349
 30
0.0
 10
73.39366847644672
 20
170.1828513216412
 30
0.0
 10
73.40459912497573
 20
170.1374919109691
 30
0.0
 10
73.41558186877111
 20
170.1128098336963
 30
0.0
 10
73.42107662298122
 20
170.1004611938177
 30
0.0
  0
SPLINE
  5
CA
330
1F
100
AcDbEntity
  8
0
  6
Continuous
 62
     7
370
     0
100
AcDbSpline
210
0.0
220
0.0
230
1.0
 70
     8
 71
     3
 72
    15
 73
    11
 74
     0
 42
0.00000001
 43
0.00000001
 12
1.0
 22
0.0
 32
0.0
 13
1.0
 23
0.0
 33
0.0
 40
0.0
 40
0.0
 40
0.0
 40
0.0
 40
0.1635147289340674
 40
0.2861646913272631
 40
0.5000355399745618
 40
0.6000916548547134
 40
0.749980125868436
 40
0.8748041901132104
 40
0.9373995216984701
 40
1.0
 40
1.0
 40
1.0
 40
1.0
 10
73.59897067742386
 20
170.588606379761
 30
0.0
 10
73.58258336427603
 20
170.5877888515039
 30
0.0
 10
73.55390417164791
 20
170.5863581074794
 30
0.0
 10
73.50518237874066
 20
170.5711919606837
 30
0.0
 10
73.46394692321392
 20
170.5434032136378
 30
0.0
 10
73.42791594190801
 20
170.4881318260807
 30
0.0
 10
73.40413204685966
 20
170.4308773685079
 30
0.0
 10
73.39132132070684
 20
170.3683513847873
 30
0.0
 10
73.38653795712095
 20
170.3193977692167
 30
0.0
 10
73.38612026853477
 20
170.2944477168311
 30
0.0
 10
73.38591141565621
 20
170.2819721777983
 30
0.0
  0
SPLINE
  5
CB
330
1F
100
AcDbEntity
  8
0
  6
Continuous
 62
     7
370
     0
100
AcDbSpline
210
0.0
220
0.0
230
1.0
 70
     8
 71
     3
 72
    14
 73
    10
 74
     0
 42
0.00000001
 43
0.00000001
 12
1.0
 22
0.0
 32
0.0
 13
1.0
 23
0.0
 33
0.0
 40
0.0
 40
0.0
 40
0.0
 40
0.0
 40
0.1252374663807693
 40
0.2504120111316574
 40
0.3769583298682836
 40
0.5005277051032828
 40
0.7494493238949633
 40
0.8746887143862877
 40
1.0
 40
1.0
 40
1.0
 40
1.0
 10
73.83854092494292
 20
170.2198221583401
 30
0.0
 10
73.83651799853314
 20
170.2471995373885
 30
0.0
 10
73.83247316206939
 20
170.3019405405816
 30
0.0
 10
73.81734324327635
 20
170.3806510573744
 30
0.0
 10
73.79433710838863
 20
170.4519222511776
 30
0.0
 10
73.75174705559634
 20
170.5286494950791
 30
0.0
 10
73.69673928859662
 20
170.5699887246024
 30
0.0
 10
73.64091885888882
 20
170.5866790201074
 30
0.0
 10
73.61295607920407
 20
170.5879638036543
 30
0.0
 10
73.59897067742386
 20
170.588606379761
 30
0.0
  0
LINE
  5
CC
330
1F
100
AcDbEntity
  8
0
  6
Continuous
 62
     7
370
     0
100
AcDbLine
 10
73.9965108617
 20
170.2198221583
 30
0.0
 11
73.8385409249
 21
170.2198221583
 31
0.0
  0
SPLINE
  5
CD
330
1F
100
AcDbEntity
  8
0
  6
Continuous
 62
     7
370
     0
100
AcDbSpline
210
0.0
220
0.0
230
1.0
 70
     8
 71
     3
 72
    14
 73
    10
 74
     0
 42
0.00000001
 43
0.00000001
 12
1.0
 22
0.0
 32
0.0
 13
1.0
 23
0.0
 33
0.0
 40
0.0
 40
0.0
 40
0.0
 40
0.0
 40
0.1255055557520072
 40
0.2509460799149094
 40
0.5006404521539535
 40
0.7492166145835422
 40
0.8745048573331566
 40
0.9372351209519852
 40
1.0
 40
1.0
 40
1.0
 40
1.0
 10
73.59315970180305
 20
170.8256819506745
 30
0.0
 10
73.61621326883608
 20
170.8245154026311
 30
0.0
 10
73.66230845753374
 20
170.8221829109995
 30
0.0
 10
73.75483464010748
 20
170.7897548035587
 30
0.0
 10
73.86958303633881
 20
170.7056426898739
 30
0.0
 10
73.95407763058066
 20
170.5267072198979
 30
0.0
 10
73.98449487606534
 20
170.3773089965473
 30
0.0
 10
73.99395795629177
 20
170.2878857983173
 30
0.0
 10
73.99565973678806
 20
170.2425142099601
 30
0.0
 10
73.99651086173795
 20
170.2198221583401
 30
0.0
  0
SPLINE
  5
CE
330
1F
100
AcDbEntity
  8
0
  6
Continuous
 62
     7
370
     0
100
AcDbSpline
210
0.0
220
0.0
230
1.0
 70
     8
 71
     3
 72
    15
 73
    11
 74
     0
 42
0.00000001
 43
0.00000001
 12
1.0
 22
0.0
 32
0.0
 13
1.0
 23
0.0
 33
0.0
 40
0.0
 40
0.0
 40
0.0
 40
0.0
 40
0.062651101384566
 40
0.1252584965520679
 40
0.250306332136846
 40
0.4166460947544269
 40
0.5001078090843741
 40
0.749487348619546
 40
0.8747153905286494
 40
1.0
 40
1.0
 40
1.0
 40
1.0
 10
73.2512680267502
 20
170.2630390592878
 30
0.0
 10
73.2516166959882
 20
170.284257131167
 30
0.0
 10
73.25231379122806
 20
170.3266784729246
 30
0.0
 10
73.2593073017724
 20
170.4103307728725
 30
0.0
 10
73.27934479225739
 20
170.5229209568488
 30
0.0
 10
73.314784698836
 20
170.6270823994209
 30
0.0
 10
73.37701058558966
 20
170.7324278885228
 30
0.0
 10
73.44757742898891
 20
170.7909536181625
 30
0.0
 10
73.52930891151665
 20
170.8217511333332
 30
0.0
 10
73.57187290128903
 20
170.8243714809962
 30
0.0
 10
73.59315970180305
 20
170.8256819506745
 30
0.0
  0
SPLINE
  5
CF
330
1F
100
AcDbEntity
  8
0
  6
Continuous
 62
     7
370
     0
100
AcDbSpline
210
0.0
220
0.0
230
1.0
 70
     8
 71
     3
 72
    13
 73
     9
 74
     0
 42
0.00000001
 43
0.00000001
 12
1.0
 22
0.0
 32
0.0
 13
1.0
 23
0.0
 33
0.0
 40
0.0
 40
0.0
 40
0.0
 40
0.0
 40
0.1252751749067504
 40
0.250491537221231
 40
0.5001990111867026
 40
0.7496191367255391
 40
0.8747757515173119
 40
1.0
 40
1.0
 40
1.0
 40
1.0
 10
73.39236614035626
 20
169.8189339533579
 30
0.0
 10
73.3824538254787
 20
169.8302009085261
 30
0.0
 10
73.3626338492308
 20
169.8527295293958
 30
0.0
 10
73.32585725015602
 20
169.9060914850007
 30
0.0
 10
73.28657594226729
 20
169.9911698915857
 30
0.0
 10
73.26255643886667
 20
170.0993125686955
 30
0.0
 10
73.25237618035118
 20
170.1917783974265
 30
0.0
 10
73.25163747779743
 20
170.2392812281278
 30
0.0
 10
73.2512680267502
 20
170.2630390592878
 30
0.0
  0
SPLINE
  5
D0
330
1F
100
AcDbEntity
  8
0
  6
Continuous
 62
     7
370
     0
100
AcDbSpline
210
0.0
220
0.0
230
1.0
 70
     8
 71
     3
 72
    12
 73
     8
 74
     0
 42
0.00000001
 43
0.00000001
 12
1.0
 22
0.0
 32
0.0
 13
1.0
 23
0.0
 33
0.0
 40
0.0
 40
0.0
 40
0.0
 40
0.0
 40
0.1023773544567198
 40
0.2500285226377124
 40
0.5001090627863747
 40
0.7873244436081454
 40
1.0
 40
1.0
 40
1.0
 40
1.0
 10
73.75040364131797
 20
169.5913249416997
 30
0.0
 10
73.7377973443925
 20
169.6001426939062
 30
0.0
 10
73.70700993234288
 20
169.6216776277682
 30
0.0
 10
73.64472275838239
 20
169.6556205808662
 30
0.0
 10
73.56074742729257
 20
169.6992668307966
 30
0.0
 10
73.47106795921266
 20
169.7488581786371
 30
0.0
 10
73.41585581221783
 20
169.7980188464703
 30
0.0
 10
73.39236614035626
 20
169.8189339533579
 30
0.0
  0
SPLINE
  5
D1
330
1F
100
AcDbEntity
  8
0
  6
Continuous
 62
     7
370
     0
100
AcDbSpline
210
0.0
220
0.0
230
1.0
 70
     8
 71
     3
 72
    12
 73
     8
 74
     0
 42
0.00000001
 43
0.00000001
 12
1.0
 22
0.0
 32
0.0
 13
1.0
 23
0.0
 33
0.0
 40
0.0
 40
0.0
 40
0.0
 40
0.0
 40
0.125299271625629
 40
0.2504266042119616
 40
0.4997820719171098
 40
0.7495611375362357
 40
1.0
 40
1.0
 40
1.0
 40
1.0
 10
73.8668498647418
 20
169.3139135965683
 30
0.0
 10
73.86646025919889
 20
169.3297020892166
 30
0.0
 10
73.86568158274034
 20
169.3612574091179
 30
0.0
 10
73.85771648809552
 20
169.4228362771795
 30
0.0
 10
73.8358898985238
 20
169.4925805909141
 30
0.0
 10
73.7959100338192
 20
169.5527071861619
 30
0.0
 10
73.76558577157559
 20
169.5784410420407
 30
0.0
 10
73.75040364131797
 20
169.5913249416997
 30
0.0
  0
SPLINE
  5
D2
330
1F
100
AcDbEntity
  8
0
  6
Continuous
 62
     7
370
     0
100
AcDbSpline
210
0.0
220
0.0
230
1.0
 70
     8
 71
     3
 72
    15
 73
    11
 74
     0
 42
0.00000001
 43
0.00000001
 12
1.0
 22
0.0
 32
0.0
 13
1.0
 23
0.0
 33
0.0
 40
0.0
 40
0.0
 40
0.0
 40
0.0
 40
0.1252347300335
 40
0.250450592521568
 40
0.4998104181213201
 40
0.6248337430338524
 40
0.7497939259513577
 40
0.8747887439180624
 40
0.9373726807993273
 40
1.0
 40
1.0
 40
1.0
 40
1.0
 10
73.62126003960392
 20
168.9554191134683
 30
0.0
 10
73.63527067715987
 20
168.9561126401506
 30
0.0
 10
73.66328984146479
 20
168.9574995890304
 30
0.0
 10
73.71914763407534
 20
168.9768514116891
 30
0.0
 10
73.77373130722509
 20
169.0178406787233
 30
0.0
 10
73.81958320502522
 20
169.087215210294
 30
0.0
 10
73.84529623339179
 20
169.1550473436743
 30
0.0
 10
73.85998934330438
 20
169.2186428101828
 30
0.0
 10
73.86591687945041
 20
169.2726818692965
 30
0.0
 10
73.86653879781868
 20
169.3001665132487
 30
0.0
 10
73.8668498647418
 20
169.3139135965683
 30
0.0
  0
SPLINE
  5
D3
330
1F
100
AcDbEntity
  8
0
  6
Continuous
 62
     7
370
     0
100
AcDbSpline
210
0.0
220
0.0
230
1.0
 70
     8
 71
     3
 72
    14
 73
    10
 74
     0
 42
0.00000001
 43
0.00000001
 12
1.0
 22
0.0
 32
0.0
 13
1.0
 23
0.0
 33
0.0
 40
0.0
 40
0.0
 40
0.0
 40
0.0
 40
0.125269340222887
 40
0.250475354704463
 40
0.3931796899930411
 40
0.5003858073600834
 40
0.7495639495851886
 40
0.8747432320133751
 40
0.9999999999999999
 40
0.9999999999999999
 40
0.9999999999999999
 40
0.9999999999999999
 10
73.34861047074449
 20
169.4559119853967
 30
0.0
 10
73.35073171474657
 20
169.4212457310853
 30
0.0
 10
73.35497313042649
 20
169.3519307468324
 30
0.0
 10
73.36993051157305
 20
169.2465736985365
 30
0.0
 10
73.39360574419311
 20
169.153083694809
 30
0.0
 10
73.4408093928572
 20
169.0534284365068
 30
0.0
 10
73.50065515197967
 20
168.991123311469
 30
0.0
 10
73.56824180479909
 20
168.9592444022739
 30
0.0
 10
73.6035836497164
 20
168.9566944727217
 30
0.0
 10
73.62126003960392
 20
168.9554191134683
 30
0.0
  0
LINE
  5
D4
330
1F
100
AcDbEntity
  8
0
  6
Continuous
 62
     7
370
     0
100
AcDbLine
 10
73.3486104707
 20
169.4559119854
 30
0.0
 11
73.2155661694
 21
169.4559119854
 31
0.0
  0
SPLINE
  5
D5
330
1F
100
AcDbEntity
  8
0
  6
Continuous
 62
     7
370
     0
100
AcDbSpline
210
0.0
220
0.0
230
1.0
 70
     8
 71
     3
 72
    15
 73
    11
 74
     0
 42
0.00000001
 43
0.00000001
 12
1.0
 22
0.0
 32
0.0
 13
1.0
 23
0.0
 33
0.0
 40
0.0
 40
0.0
 40
0.0
 40
0.0
 40
0.1253466878244326
 40
0.2506295514077055
 40
0.3811471272955117
 40
0.5009146342170124
 40
0.7494639004670852
 40
0.8746414613335408
 40
0.9247926052646752
 40
1.0
 40
1.0
 40
1.0
 40
1.0
 10
73.62774230014583
 20
168.7183435425548
 30
0.0
 10
73.60081592082402
 20
168.7196920878268
 30
0.0
 10
73.54697687260035
 20
168.722388491716
 30
0.0
 10
73.46828880825971
 20
168.7506018870983
 30
0.0
 10
73.39532679748739
 20
168.8037148665268
 30
0.0
 10
73.310246711314
 20
168.917612555581
 30
0.0
 10
73.25073579270097
 20
169.0934137000842
 30
0.0
 10
73.22589479887293
 20
169.2657513232614
 30
0.0
 10
73.21765347287575
 20
169.3707566964563
 30
0.0
 10
73.21634885792803
 20
169.4239808028647
 30
0.0
 10
73.21556616939003
 20
169.4559119853967
 30
0.0
  0
SPLINE
  5
D6
330
1F
100
AcDbEntity
  8
0
  6
Continuous
 62
     7
370
     0
100
AcDbSpline
210
0.0
220
0.0
230
1.0
 70
     8
 71
     3
 72
    15
 73
    11
 74
     0
 42
0.00000001
 43
0.00000001
 12
1.0
 22
0.0
 32
0.0
 13
1.0
 23
0.0
 33
0.0
 40
0.0
 40
0.0
 40
0.0
 40
0.0
 40
0.0626377556146458
 40
0.1252329915457511
 40
0.2502503669557045
 40
0.3754516770102389
 40
0.5002816482321539
 40
0.7495655360820843
 40
0.8747642521766511
 40
1.0
 40
1.0
 40
1.0
 40
1.0
 10
74.0258260773563
 20
169.3279076406847
 30
0.0
 10
74.02535366818817
 20
169.3054863547648
 30
0.0
 10
74.02440917053212
 20
169.2606590029145
 30
0.0
 10
74.01525616777565
 20
169.1723182128528
 30
0.0
 10
73.99247660488119
 20
169.0669996585868
 30
0.0
 10
73.95065880601871
 20
168.9547832384515
 30
0.0
 10
73.8779144790462
 20
168.8332525757541
 30
0.0
 10
73.78829783403532
 20
168.758911270411
 30
0.0
 10
73.69654873523459
 20
168.7226355035428
 30
0.0
 10
73.65068003937581
 20
168.7197743372443
 30
0.0
 10
73.62774230014583
 20
168.7183435425548
 30
0.0
  0
LINE
  5
D7
330
1F
100
AcDbEntity
  8
0
  6
Continuous
 62
     7
370
     0
100
AcDbLine
 10
72.3057856116
 20
169.3768867951
 30
0.0
 11
72.1059513704
 21
169.3768867951
 31
0.0
  0
SPLINE
  5
D8
330
1F
100
AcDbEntity
  8
0
  6
Continuous
 62
     7
370
     0
100
AcDbSpline
210
0.0
220
0.0
230
1.0
 70
     8
 71
     3
 72
     8
 73
     4
 74
     0
 42
0.00000001
 43
0.00000001
 12
1.0
 22
0.0
 32
0.0
 13
1.0
 23
0.0
 33
0.0
 40
0.0
 40
0.0
 40
0.0
 40
0.0
 40
1.0
 40
1.0
 40
1.0
 40
1.0
 10
72.36902418276776
 20
168.7446852726563
 30
0.0
 10
72.34725475452255
 20
168.9554191134683
 30
0.0
 10
72.32617404030253
 20
169.1661529542802
 30
0.0
 10
72.30578561161154
 20
169.3768867950922
 30
0.0
  0
LINE
  5
D9
330
1F
100
AcDbEntity
  8
0
  6
Continuous
 62
     7
370
     0
100
AcDbLine
 10
72.4584787003
 20
168.7446852727
 30
0.0
 11
72.3690241828
 21
168.7446852727
 31
0.0
  0
SPLINE
  5
DA
330
1F
100
AcDbEntity
  8
0
  6
Continuous
 62
     7
370
     0
100
AcDbSpline
210
0.0
220
0.0
230
1.0
 70
     8
 71
     3
 72
     8
 73
     4
 74
     0
 42
0.00000001
 43
0.00000001
 12
1.0
 22
0.0
 32
0.0
 13
1.0
 23
0.0
 33
0.0
 40
0.0
 40
0.0
 40
0.0
 40
0.0
 40
1.0
 40
1.0
 40
1.0
 40
1.0
 10
72.23682880013743
 20
170.799340220573
 30
0.0
 10
72.30228344938503
 20
170.1144552379341
 30
0.0
 10
72.37621755991715
 20
169.4295702552952
 30
0.0
 10
72.4584787002567
 20
168.7446852726563
 30
0.0
  0
LINE
  5
DB
330
1F
100
AcDbEntity
  8
0
  6
Continuous
 62
     7
370
     0
100
AcDbLine
 10
72.2368288001
 20
170.7993402206
 30
0.0
 11
72.162253867
 21
170.7993402206
 31
0.0
  0
SPLINE
  5
DC
330
1F
100
AcDbEntity
  8
0
  6
Continuous
 62
     7
370
     0
100
AcDbSpline
210
0.0
220
0.0
230
1.0
 70
     8
 71
     3
 72
     8
 73
     4
 74
     0
 42
0.00000001
 43
0.00000001
 12
1.0
 22
0.0
 32
0.0
 13
1.0
 23
0.0
 33
0.0
 40
0.0
 40
0.0
 40
0.0
 40
0.0
 40
1.0
 40
1.0
 40
1.0
 40
1.0
 10
72.01202293760295
 20
168.7446852726563
 30
0.0
 10
72.05350024017608
 20
169.4295702552952
 30
0.0
 10
72.10361165520825
 20
170.1144552379341
 30
0.0
 10
72.16225386696392
 20
170.799340220573
 30
0.0
  0
LINE
  5
DD
330
1F
100
AcDbEntity
  8
0
  6
Continuous
 62
     7
370
     0
100
AcDbLine
 10
72.062593677
 20
168.7446852727
 30
0.0
 11
72.0120229376
 21
168.7446852727
 31
0.0
  0
SPLINE
  5
DE
330
1F
100
AcDbEntity
  8
0
  6
Continuous
 62
     7
370
     0
100
AcDbSpline
210
0.0
220
0.0
230
1.0
 70
     8
 71
     3
 72
     8
 73
     4
 74
     0
 42
0.00000001
 43
0.00000001
 12
1.0
 22
0.0
 32
0.0
 13
1.0
 23
0.0
 33
0.0
 40
0.0
 40
0.0
 40
0.0
 40
0.0
 40
1.0
 40
1.0
 40
1.0
 40
1.0
 10
72.10595137043586
 20
169.3768867950922
 30
0.0
 10
72.09079441788367
 20
169.1661529542802
 30
0.0
 10
72.0763410371558
 20
168.9554191134683
 30
0.0
 10
72.06259367695036
 20
168.7446852726563
 30
0.0
  0
LINE
  5
DF
330
1F
100
AcDbEntity
  8
0
  6
Continuous
 62
     7
370
     0
100
AcDbLine
 10
71.8679515299
 20
168.7446852727
 30
0.0
 11
71.8634145155
 21
168.7446852727
 31
0.0
  0
SPLINE
  5
E0
330
1F
100
AcDbEntity
  8
0
  6
Continuous
 62
     7
370
     0
100
AcDbSpline
210
0.0
220
0.0
230
1.0
 70
     8
 71
     3
 72
     8
 73
     4
 74
     0
 42
0.00000001
 43
0.00000001
 12
1.0
 22
0.0
 32
0.0
 13
1.0
 23
0.0
 33
0.0
 40
0.0
 40
0.0
 40
0.0
 40
0.0
 40
1.0
 40
1.0
 40
1.0
 40
1.0
 10
71.86341259471378
 20
169.3118556489041
 30
0.0
 10
71.86343444407864
 20
169.1227988568216
 30
0.0
 10
71.86494760011891
 20
168.9337420647389
 30
0.0
 10
71.86795152987189
 20
168.7446852726563
 30
0.0
  0
SPLINE
  5
E1
330
1F
100
AcDbEntity
  8
0
  6
Continuous
 62
     7
370
     0
100
AcDbSpline
210
0.0
220
0.0
230
1.0
 70
     8
 71
     3
 72
    13
 73
     9
 74
     0
 42
0.00000001
 43
0.00000001
 12
1.0
 22
0.0
 32
0.0
 13
1.0
 23
0.0
 33
0.0
 40
0.0
 40
0.0
 40
0.0
 40
0.0
 40
0.1250710948756941
 40
0.2501214874970382
 40
0.5000711849036208
 40
0.7499674618706477
 40
0.8749904195716316
 40
1.0
 40
1.0
 40
1.0
 40
1.0
 10
76.80563084757894
 20
173.7856764835938
 30
0.0
 10
76.82851203700399
 20
173.8005114014466
 30
0.0
 10
76.87427062847055
 20
173.830178781619
 30
0.0
 10
76.96278505643225
 20
173.8976108190446
 30
0.0
 10
77.06705026791691
 20
173.9956981432948
 30
0.0
 10
77.15985093811948
 20
174.1111071677022
 30
0.0
 10
77.2252672551051
 20
174.2134826963645
 30
0.0
 10
77.25038660066451
 20
174.2707220666462
 30
0.0
 10
77.262945601475
 20
174.299340220573
 30
0.0
  0
LINE
  5
E2
330
1F
100
AcDbEntity
  8
0
  6
Continuous
 62
     7
370
     0
100
AcDbLine
 10
76.8056308476
 20
173.5428386592
 30
0.0
 11
76.8056308476
 21
173.7856764836
 31
0.0
  0
SPLINE
  5
E3
330
1F
100
AcDbEntity
  8
0
  6
Continuous
 62
     7
370
     0
100
AcDbSpline
210
0.0
220
0.0
230
1.0
 70
     8
 71
     3
 72
    13
 73
     9
 74
     0
 42
0.00000001
 43
0.00000001
 12
1.0
 22
0.0
 32
0.0
 13
1.0
 23
0.0
 33
0.0
 40
0.0
 40
0.0
 40
0.0
 40
0.0
 40
0.1250146390037964
 40
0.2500229927051413
 40
0.4999840770000871
 40
0.7500009713535511
 40
0.8675848207443115
 40
1.0
 40
1.0
 40
1.0
 40
1.0
 10
77.18635755410627
 20
173.8457685553878
 30
0.0
 10
77.17251997709033
 20
173.8294301691129
 30
0.0
 10
77.14484551876386
 20
173.7967542180003
 30
0.0
 10
77.08497051420069
 20
173.7380004293391
 30
0.0
 10
77.00611870927537
 20
173.6719545376683
 30
0.0
 10
76.9255390841801
 20
173.6130996540871
 30
0.0
 10
76.85830477190534
 20
173.5709156700983
 30
0.0
 10
76.82386978061976
 20
173.5525606369911
 30
0.0
 10
76.80563084757894
 20
173.5428386592206
 30
0.0
  0
LINE
  5
E4
330
1F
100
AcDbEntity
  8
0
  6
Continuous
 62
     7
370
     0
100
AcDbLine
 10
77.1863575541
 20
172.2446852727
 30
0.0
 11
77.1863575541
 21
173.8457685554
 31
0.0
  0
LINE
  5
E5
330
1F
100
AcDbEntity
  8
0
  6
Continuous
 62
     7
370
     0
100
AcDbLine
 10
77.4023496003
 20
172.2446852727
 30
0.0
 11
77.1863575541
 21
172.2446852727
 31
0.0
  0
LINE
  5
E6
330
1F
100
AcDbEntity
  8
0
  6
Continuous
 62
     7
370
     0
100
AcDbLine
 10
77.4023496003
 20
174.2993402206
 30
0.0
 11
77.4023496003
 21
172.2446852727
 31
0.0
  0
LINE
  5
E7
330
1F
100
AcDbEntity
  8
0
  6
Continuous
 62
     7
370
     0
100
AcDbLine
 10
77.4023496003
 20
174.2993402206
 30
0.0
 11
77.2629456015
 21
174.2993402206
 31
0.0
  0
LINE
  5
E8
330
1F
100
AcDbEntity
  8
0
  6
Continuous
 62
     7
370
     0
100
AcDbLine
 10
75.1977974318
 20
173.1666458262
 30
0.0
 11
74.6003184047
 21
173.1666458262
 31
0.0
  0
LINE
  5
E9
330
1F
100
AcDbEntity
  8
0
  6
Continuous
 62
     7
370
     0
100
AcDbLine
 10
75.1977974318
 20
173.4037213971
 30
0.0
 11
75.1977974318
 21
173.1666458262
 31
0.0
  0
LINE
  5
EA
330
1F
100
AcDbEntity
  8
0
  6
Continuous
 62
     7
370
     0
100
AcDbLine
 10
75.1977974318
 20
173.4037213971
 30
0.0
 11
74.6003184047
 21
173.4037213971
 31
0.0
  0
LINE
  5
EB
330
1F
100
AcDbEntity
  8
0
  6
Continuous
 62
     7
370
     0
100
AcDbLine
 10
74.6003184047
 20
174.0622646497
 30
0.0
 11
74.6003184047
 21
173.4037213971
 31
0.0
  0
LINE
  5
EC
330
1F
100
AcDbEntity
  8
0
  6
Continuous
 62
     7
370
     0
100
AcDbLine
 10
75.3052674224
 20
174.0622646497
 30
0.0
 11
74.6003184047
 21
174.0622646497
 31
0.0
  0
LINE
  5
ED
330
1F
100
AcDbEntity
  8
0
  6
Continuous
 62
     7
370
     0
100
AcDbLine
 10
75.3052674224
 20
174.2993402206
 30
0.0
 11
75.3052674224
 21
174.0622646497
 31
0.0
  0
LINE
  5
EE
330
1F
100
AcDbEntity
  8
0
  6
Continuous
 62
     7
370
     0
100
AcDbLine
 10
75.3052674224
 20
174.2993402206
 30
0.0
 11
74.423237507
 21
174.2993402206
 31
0.0
  0
LINE
  5
EF
330
1F
100
AcDbEntity
  8
0
  6
Continuous
 62
     7
370
     0
100
AcDbLine
 10
74.423237507
 20
172.2446852727
 30
0.0
 11
74.423237507
 21
174.2993402206
 31
0.0
  0
LINE
  5
F0
330
1F
100
AcDbEntity
  8
0
  6
Continuous
 62
     7
370
     0
100
AcDbLine
 10
74.6003184047
 20
172.2446852727
 30
0.0
 11
74.423237507
 21
172.2446852727
 31
0.0
  0
LINE
  5
F1
330
1F
100
AcDbEntity
  8
0
  6
Continuous
 62
     7
370
     0
100
AcDbLine
 10
74.6003184047
 20
173.1666458262
 30
0.0
 11
74.6003184047
 21
172.2446852727
 31
0.0
  0
SPLINE
  5
F2
330
1F
100
AcDbEntity
  8
0
  6
Continuous
 62
     7
370
     0
100
AcDbSpline
210
0.0
220
0.0
230
1.0
 70
     8
 71
     3
 72
    16
 73
    12
 74
     0
 42
0.00000001
 43
0.00000001
 12
1.0
 22
0.0
 32
0.0
 13
1.0
 23
0.0
 33
0.0
 40
0.0
 40
0.0
 40
0.0
 40
0.0
 40
0.1252037281425977
 40
0.2503884232617786
 40
0.3755474586374118
 40
0.5006311301699863
 40
0.6432480406832873
 40
0.7502093923383356
 40
0.8748537122524779
 40
0.9374211602822597
 40
1.0
 40
1.0
 40
1.0
 40
1.0
 10
73.68615363009704
 20
173.2580187024982
 30
0.0
 10
73.68573962516649
 20
173.1999000603009
 30
0.0
 10
73.68491167824094
 20
173.0836716108946
 30
0.0
 10
73.67656423490911
 20
172.9099329049379
 30
0.0
 10
73.660422675153
 20
172.7381709360521
 30
0.0
 10
73.63099858013167
 20
172.5644459484778
 30
0.0
 10
73.58556735452326
 20
172.412487684389
 30
0.0
 10
73.5201664048357
 20
172.2945992540464
 30
0.0
 10
73.45717468151587
 20
172.2415992257718
 30
0.0
 10
73.40224084397873
 20
172.2205946057481
 30
0.0
 10
73.37474507755066
 20
172.2190939424862
 30
0.0
 10
73.3609959429084
 20
172.2183435425548
 30
0.0
  0
SPLINE
  5
F3
330
1F
100
AcDbEntity
  8
0
  6
Continuous
 62
     7
370
     0
100
AcDbSpline
210
0.0
220
0.0
230
1.0
 70
     8
 71
     3
 72
    15
 73
    11
 74
     0
 42
0.00000001
 43
0.00000001
 12
1.0
 22
0.0
 32
0.0
 13
1.0
 23
0.0
 33
0.0
 40
0.0
 40
0.0
 40
0.0
 40
0.0
 40
0.0626253064539668
 40
0.1252128026006864
 40
0.250041140169059
 40
0.3746316374763781
 40
0.4996312845618919
 40
0.7494694892746687
 40
0.8496821103872486
 40
1.0
 40
1.0
 40
1.0
 40
1.0
 10
73.3609959429084
 20
174.299340220573
 30
0.0
 10
73.37475334310301
 20
174.2984550278104
 30
0.0
 10
73.40225983740069
 20
174.2966851767243
 30
0.0
 10
73.45719641677728
 20
174.2747851628382
 30
0.0
 10
73.52375898412248
 20
174.2189028503657
 30
0.0
 10
73.58963639072326
 20
174.0990961650555
 30
0.0
 10
73.64373567429658
 20
173.8906988763853
 30
0.0
 10
73.6738701881358
 20
173.6755943943811
 30
0.0
 10
73.68454444480744
 20
173.4440807537755
 30
0.0
 10
73.68555018665926
 20
173.3277918508042
 30
0.0
 10
73.68615363009704
 20
173.2580187024982
 30
0.0
  0
SPLINE
  5
F4
330
1F
100
AcDbEntity
  8
0
  6
Continuous
 62
     7
370
     0
100
AcDbSpline
210
0.0
220
0.0
230
1.0
 70
     8
 71
     3
 72
    17
 73
    13
 74
     0
 42
0.00000001
 43
0.00000001
 12
1.0
 22
0.0
 32
0.0
 13
1.0
 23
0.0
 33
0.0
 40
0.0
 40
0.0
 40
0.0
 40
0.0
 40
0.1251492432292964
 40
0.2502781713676313
 40
0.3837262973071731
 40
0.5004108843270384
 40
0.6316207721929139
 40
0.7498824272032896
 40
0.8124001134504832
 40
0.8749148898799504
 40
0.9374491704395487
 40
1.0
 40
1.0
 40
1.0
 40
1.0
 10
73.06595274935576
 20
173.2580187024982
 30
0.0
 10
73.06627266427928
 20
173.3161921649285
 30
0.0
 10
73.06691244219553
 20
173.4325296466701
 30
0.0
 10
73.07408583235616
 20
173.6102327889959
 30
0.0
 10
73.08749791425164
 20
173.7822170855698
 30
0.0
 10
73.11198992961033
 20
173.9506747999873
 30
0.0
 10
73.14936008490203
 20
174.0998353484035
 30
0.0
 10
73.19737014657301
 20
174.1997205121672
 30
0.0
 10
73.24232999907665
 20
174.2540470589801
 30
0.0
 10
73.28035150809153
 20
174.2806394774287
 30
0.0
 10
73.32002177531429
 20
174.2971732851859
 30
0.0
 10
73.34733668243875
 20
174.2986178450713
 30
0.0
 10
73.3609959429084
 20
174.299340220573
 30
0.0
  0
SPLINE
  5
F5
330
1F
100
AcDbEntity
  8
0
  6
Continuous
 62
     7
370
     0
100
AcDbSpline
210
0.0
220
0.0
230
1.0
 70
     8
 71
     3
 72
    12
 73
     8
 74
     0
 42
0.00000001
 43
0.00000001
 12
1.0
 22
0.0
 32
0.0
 13
1.0
 23
0.0
 33
0.0
 40
0.0
 40
0.0
 40
0.0
 40
0.0
 40
0.1249981802678287
 40
0.2500181699043173
 40
0.4998430409763996
 40
0.7498766444739975
 40
1.0
 40
1.0
 40
1.0
 40
1.0
 10
73.15215803896795
 20
172.4163181078489
 30
0.0
 10
73.1431603995868
 20
172.4466889332099
 30
0.0
 10
73.12516355093899
 20
172.5074358829573
 30
0.0
 10
73.10006284610311
 20
172.6424959179642
 30
0.0
 10
73.07954117691516
 20
172.8198213351719
 30
0.0
 10
73.06770255237961
 20
173.0382649224178
 30
0.0
 10
73.06653608680358
 20
173.1847586798143
 30
0.0
 10
73.06595274935576
 20
173.2580187024982
 30
0.0
  0
SPLINE
  5
F6
330
1F
100
AcDbEntity
  8
0
  6
Continuous
 62
     7
370
     0
100
AcDbSpline
210
0.0
220
0.0
230
1.0
 70
     8
 71
     3
 72
    12
 73
     8
 74
     0
 42
0.00000001
 43
0.00000001
 12
1.0
 22
0.0
 32
0.0
 13
1.0
 23
0.0
 33
0.0
 40
0.0
 40
0.0
 40
0.0
 40
0.0
 40
0.250111839928144
 40
0.5000203913628468
 40
0.7497554808353026
 40
0.8748530671024365
 40
1.0
 40
1.0
 40
1.0
 40
1.0
 10
73.3609959429084
 20
172.2183435425548
 30
0.0
 10
73.34080196240906
 20
172.2202154915867
 30
0.0
 10
73.30043041488315
 20
172.2239578681485
 30
0.0
 10
73.24301902018487
 20
172.2594202043237
 30
0.0
 10
73.20076440978828
 20
172.3134192519708
 30
0.0
 10
73.17108544260603
 20
172.3680028802951
 30
0.0
 10
73.15846800287365
 20
172.4002109149243
 30
0.0
 10
73.15215803896795
 20
172.4163181078489
 30
0.0
  0
LINE
  5
F7
330
1F
100
AcDbEntity
  8
0
  6
Continuous
 62
     7
370
     0
100
AcDbLine
 10
72.4141194187
 20
173.0876206359
 30
0.0
 11
72.213712183
 21
173.0876206359
 31
0.0
  0
LINE
  5
F8
330
1F
100
AcDbEntity
  8
0
  6
Continuous
 62
     7
370
     0
100
AcDbLine
 10
72.213712183
 20
172.850545065
 30
0.0
 11
72.213712183
 21
173.0876206359
 31
0.0
  0
LINE
  5
F9
330
1F
100
AcDbEntity
  8
0
  6
Continuous
 62
     7
370
     0
100
AcDbLine
 10
72.4141194187
 20
172.850545065
 30
0.0
 11
72.213712183
 21
172.850545065
 31
0.0
  0
LINE
  5
FA
330
1F
100
AcDbEntity
  8
0
  6
Continuous
 62
     7
370
     0
100
AcDbLine
 10
72.4141194187
 20
173.0876206359
 30
0.0
 11
72.4141194187
 21
172.850545065
 31
0.0
  0
SPLINE
  5
FB
330
1F
100
AcDbEntity
  8
0
  6
Continuous
 62
     7
370
     0
100
AcDbSpline
210
0.0
220
0.0
230
1.0
 70
     8
 71
     3
 72
    16
 73
    12
 74
     0
 42
0.00000001
 43
0.00000001
 12
1.0
 22
0.0
 32
0.0
 13
1.0
 23
0.0
 33
0.0
 40
0.0
 40
0.0
 40
0.0
 40
0.0
 40
0.125203728142597
 40
0.2503884232617771
 40
0.3755474586374103
 40
0.5006311301699857
 40
0.64324804068329
 40
0.7502093923383378
 40
0.8748537122524714
 40
0.9374211602822525
 40
1.0
 40
1.0
 40
1.0
 40
1.0
 10
71.91992625858978
 20
173.2580187024982
 30
0.0
 10
71.91985052599773
 20
173.1999000603009
 30
0.0
 10
71.91969907232624
 20
173.0836716108946
 30
0.0
 10
71.91818184696861
 20
172.9099329049379
 30
0.0
 10
71.91529291476202
 20
172.7381709360521
 30
0.0
 10
71.91018244034147
 20
172.5644459484778
 30
0.0
 10
71.90270690338005
 20
172.412487684389
 30
0.0
 10
71.89297011986679
 20
172.2945992540464
 30
0.0
 10
71.88484697300643
 20
172.2415992257718
 30
0.0
 10
71.87877373889762
 20
172.2205946057481
 30
0.0
 10
71.87618543979268
 20
172.2190939424862
 30
0.0
 10
71.8748911724377
 20
172.2183435425548
 30
0.0
  0
SPLINE
  5
FC
330
1F
100
AcDbEntity
  8
0
  6
Continuous
 62
     7
370
     0
100
AcDbSpline
210
0.0
220
0.0
230
1.0
 70
     8
 71
     3
 72
    15
 73
    11
 74
     0
 42
0.00000001
 43
0.00000001
 12
1.0
 22
0.0
 32
0.0
 13
1.0
 23
0.0
 33
0.0
 40
0.0
 40
0.0
 40
0.0
 40
0.0
 40
0.0626253064539656
 40
0.1252128026006794
 40
0.2500411401690657
 40
0.3746316374763822
 40
0.4996312845618967
 40
0.7494694892746648
 40
0.8496821103872472
 40
1.0
 40
1.0
 40
1.0
 40
1.0
 10
71.8748911724377
 20
174.299340220573
 30
0.0
 10
71.87618618975436
 20
174.2984550278104
 30
0.0
 10
71.87877544251525
 20
174.2966851767243
 30
0.0
 10
71.88485096717703
 20
174.2747851628382
 30
0.0
 10
71.89342470053951
 20
174.2189028503657
 30
0.0
 10
71.9033697332455
 20
174.0990961650555
 30
0.0
 10
71.91229480796908
 20
173.8906988763853
 30
0.0
 10
71.91769536663531
 20
173.6755943943811
 30
0.0
 10
71.91963155612811
 20
173.4440807537755
 30
0.0
 10
71.91981574535818
 20
173.3277918508042
 30
0.0
 10
71.91992625858978
 20
173.2580187024982
 30
0.0
  0
SPLINE
  5
FD
330
1F
100
AcDbEntity
  8
0
  6
Continuous
 62
     7
370
     0
100
AcDbSpline
210
0.0
220
0.0
230
1.0
 70
     8
 71
     3
 72
    12
 73
     8
 74
     0
 42
0.00000001
 43
0.00000001
 12
1.0
 22
0.0
 32
0.0
 13
1.0
 23
0.0
 33
0.0
 40
0.0
 40
0.0
 40
0.0
 40
0.0
 40
0.2501118399281562
 40
0.5000203913628625
 40
0.7497554808352959
 40
0.8748530671024373
 40
1.0
 40
1.0
 40
1.0
 40
1.0
 10
71.8748911724377
 20
172.2183435425548
 30
0.0
 10
71.87318614722867
 20
172.2202154915867
 30
0.0
 10
71.86977748263865
 20
172.2239578681485
 30
0.0
 10
71.86643755052962
 20
172.2594202043237
 30
0.0
 10
71.86476733371362
 20
172.3134192519708
 30
0.0
 10
71.86398512419439
 20
172.368002880295
 30
0.0
 10
71.86377584938096
 20
172.4002109149243
 30
0.0
 10
71.86367119134042
 20
172.4163181078489
 30
0.0
  0
LINE
  5
FE
330
1F
100
AcDbEntity
  8
0
  6
Continuous
 62
     7
370
     0
100
AcDbLine
 10
84.5634123546
 20
162.2446852727
 30
0.0
 11
97.2634123546
 21
162.2446852727
 31
0.0
  0
LINE
  5
FF
330
1F
100
AcDbEntity
  8
0
  6
Continuous
 62
     7
370
     0
100
AcDbLine
 10
71.8634123546
 20
162.2446852727
 30
0.0
 11
84.5634123546
 21
162.2446852727
 31
0.0
  0
SPLINE
  5
100
330
1F
100
AcDbEntity
  8
0
  6
Continuous
 62
     7
370
     0
100
AcDbSpline
210
0.0
220
0.0
230
1.0
 70
     8
 71
     3
 72
    15
 73
    11
 74
     0
 42
0.00000001
 43
0.00000001
 12
1.0
 22
0.0
 32
0.0
 13
1.0
 23
0.0
 33
0.0
 40
0.0
 40
0.0
 40
0.0
 40
0.0
 40
0.0626668316750487
 40
0.125316531279549
 40
0.2504237887292408
 40
0.4993422858951303
 40
0.6240097216799005
 40
0.7495744539354795
 40
0.8747423044984939
 40
1.0
 40
1.0
 40
1.0
 40
1.0
 10
72.16626135150737
 20
172.8427248638668
 30
0.0
 10
72.16614891787954
 20
172.8215214689286
 30
0.0
 10
72.16592408136133
 20
172.7791204757079
 30
0.0
 10
72.16333575823214
 20
172.6951220700716
 30
0.0
 10
72.15453846047352
 20
172.5521610677777
 30
0.0
 10
72.13303835577724
 20
172.4102009831489
 30
0.0
 10
72.10624894104757
 20
172.3068942669503
 30
0.0
 10
72.0841451714111
 20
172.2531597902937
 30
0.0
 10
72.06153765610205
 20
172.2230079500609
 30
0.0
 10
72.04720184016905
 20
172.2198987168891
 30
0.0
 10
72.04003136057894
 20
172.2183435425548
 30
0.0
  0
SPLINE
  5
101
330
1F
100
AcDbEntity
  8
0
  6
Continuous
 62
     7
370
     0
100
AcDbSpline
210
0.0
220
0.0
230
1.0
 70
     8
 71
     3
 72
    14
 73
    10
 74
     0
 42
0.00000001
 43
0.00000001
 12
1.0
 22
0.0
 32
0.0
 13
1.0
 23
0.0
 33
0.0
 40
0.0
 40
0.0
 40
0.0
 40
0.0
 40
0.0802123015101673
 40
0.1604211916608718
 40
0.2806532995948585
 40
0.4008795060843203
 40
0.6995385582924868
 40
0.8497013039966904
 40
1.0
 40
1.0
 40
1.0
 40
1.0
 10
72.08865620664123
 20
173.371617413561
 30
0.0
 10
72.09200901644093
 20
173.3655140828115
 30
0.0
 10
72.09871449344826
 20
173.353307680882
 30
0.0
 10
72.1101431356
 20
173.3241940777941
 30
0.0
 10
72.1230039850143
 20
173.2858793790622
 30
0.0
 10
72.14239606071018
 20
173.2021220688137
 30
0.0
 10
72.15775015990056
 20
173.0850091559541
 30
0.0
 10
72.16530436072618
 20
172.9483274984918
 30
0.0
 10
72.1659422583701
 20
172.8779363587414
 30
0.0
 10
72.16626135150737
 20
172.8427248638668
 30
0.0
  0
SPLINE
  5
102
330
1F
100
AcDbEntity
  8
0
  6
Continuous
 62
     7
370
     0
100
AcDbSpline
210
0.0
220
0.0
230
1.0
 70
     8
 71
     3
 72
    13
 73
     9
 74
     0
 42
0.00000001
 43
0.00000001
 12
1.0
 22
0.0
 32
0.0
 13
1.0
 23
0.0
 33
0.0
 40
0.0
 40
0.0
 40
0.0
 40
0.0
 40
0.1253010756993208
 40
0.2504995542168234
 40
0.4998325642670797
 40
0.7494027973204079
 40
0.8746623251745315
 40
1.0
 40
1.0
 40
1.0
 40
1.0
 10
72.1493466064706
 20
173.7745635662072
 30
0.0
 10
72.14918312547958
 20
173.7519368640916
 30
0.0
 10
72.1488562973566
 20
173.7067019867233
 30
0.0
 10
72.14447633015588
 20
173.6185279953874
 30
0.0
 10
72.13335845750794
 20
173.5165225887619
 30
0.0
 10
72.1159470950341
 20
173.4408604621288
 30
0.0
 10
72.10055154283
 20
173.3968919301761
 30
0.0
 10
72.09262214294664
 20
173.380044003735
 30
0.0
 10
72.08865620664123
 20
173.371617413561
 30
0.0
  0
SPLINE
  5
103
330
1F
100
AcDbEntity
  8
0
  6
Continuous
 62
     7
370
     0
100
AcDbSpline
210
0.0
220
0.0
230
1.0
 70
     8
 71
     3
 72
    15
 73
    11
 74
     0
 42
0.00000001
 43
0.00000001
 12
1.0
 22
0.0
 32
0.0
 13
1.0
 23
0.0
 33
0.0
 40
0.0
 40
0.0
 40
0.0
 40
0.0
 40
0.1252580288246225
 40
0.2504411376472449
 40
0.3771276107402986
 40
0.5006926130409707
 40
0.74961063781741
 40
0.8747071549312612
 40
0.9373404137403267
 40
1.0
 40
1.0
 40
1.0
 40
1.0
 10
72.0394845501658
 20
174.299340220573
 30
0.0
 10
72.0456497373588
 20
174.2980904010448
 30
0.0
 10
72.05797642419009
 20
174.295591509537
 30
0.0
 10
72.0773383863648
 20
174.2711397117705
 30
0.0
 10
72.09632610490294
 20
174.2279492430726
 30
0.0
 10
72.1195033199109
 20
174.1428911282263
 30
0.0
 10
72.1385129640056
 20
174.0242711103809
 30
0.0
 10
72.14672337727136
 20
173.9018828333371
 30
0.0
 10
72.14905151600557
 20
173.8294592081575
 30
0.0
 10
72.14924822920399
 20
173.7928646766943
 30
0.0
 10
72.1493466064706
 20
173.7745635662072
 30
0.0
  0
SPLINE
  5
104
330
1F
100
AcDbEntity
  8
0
  6
Continuous
 62
     7
370
     0
100
AcDbSpline
210
0.0
220
0.0
230
1.0
 70
     8
 71
     3
 72
    14
 73
    10
 74
     0
 42
0.00000001
 43
0.00000001
 12
1.0
 22
0.0
 32
0.0
 13
1.0
 23
0.0
 33
0.0
 40
0.0
 40
0.0
 40
0.0
 40
0.0
 40
0.0627611066036661
 40
0.1255007539591321
 40
0.2507847239056491
 40
0.4998855572886463
 40
0.7491508865885949
 40
0.8745377927464123
 40
0.9999999999999999
 40
0.9999999999999999
 40
0.9999999999999999
 40
0.9999999999999999
 10
71.95678801847659
 20
173.7811489987326
 30
0.0
 10
71.95684364418949
 20
173.7992601454891
 30
0.0
 10
71.95695487659576
 20
173.8354762464473
 30
0.0
 10
71.95826222550268
 20
173.9071685964185
 30
0.0
 10
71.96293152968148
 20
174.028345934556
 30
0.0
 10
71.97724725564383
 20
174.176293149403
 30
0.0
 10
72.00005358471408
 20
174.2648708543084
 30
0.0
 10
72.02172634769387
 20
174.2953958350568
 30
0.0
 10
72.03356396485083
 20
174.2980251623062
 30
0.0
 10
72.0394845501658
 20
174.299340220573
 30
0.0
  0
SPLINE
  5
105
330
1F
100
AcDbEntity
  8
0
  6
Continuous
 62
     7
370
     0
100
AcDbSpline
210
0.0
220
0.0
230
1.0
 70
     8
 71
     3
 72
    13
 73
     9
 74
     0
 42
0.00000001
 43
0.00000001
 12
1.0
 22
0.0
 32
0.0
 13
1.0
 23
0.0
 33
0.0
 40
0.0
 40
0.0
 40
0.0
 40
0.0
 40
0.1253406105761396
 40
0.2506037175682544
 40
0.5001204114684374
 40
0.7494804445249207
 40
0.874680690364966
 40
1.0
 40
1.0
 40
1.0
 40
1.0
 10
71.99823103392838
 20
173.371617413561
 30
0.0
 10
71.99513701642033
 20
173.3800079003756
 30
0.0
 10
71.9889508945706
 20
173.3967836857998
 30
0.0
 10
71.97779579137854
 20
173.4406840506824
 30
0.0
 10
71.9661592249046
 20
173.5168640978656
 30
0.0
 10
71.95951578910059
 20
173.62161188047
 30
0.0
 10
71.95712966752447
 20
173.7119226370747
 30
0.0
 10
71.9569019375701
 20
173.758066234663
 30
0.0
 10
71.95678801847659
 20
173.7811489987326
 30
0.0
  0
SPLINE
  5
106
330
1F
100
AcDbEntity
  8
0
  6
Continuous
 62
     7
370
     0
100
AcDbSpline
210
0.0
220
0.0
230
1.0
 70
     8
 71
     3
 72
    14
 73
    10
 74
     0
 42
0.00000001
 43
0.00000001
 12
1.0
 22
0.0
 32
0.0
 13
1.0
 23
0.0
 33
0.0
 40
0.0
 40
0.0
 40
0.0
 40
0.0
 40
0.1430155837951294
 40
0.2859859627398361
 40
0.4290981023216441
 40
0.5716799951809758
 40
0.7854381651816399
 40
0.8927142085110692
 40
1.0
 40
1.0
 40
1.0
 40
1.0
 10
71.94746689888862
 20
172.849721885925
 30
0.0
 10
71.94759495948662
 20
172.8834550265124
 30
0.0
 10
71.9478510402048
 20
172.9509106452016
 30
0.0
 10
71.95060382687358
 20
173.0498331734607
 30
0.0
 10
71.9554001236842
 20
173.1429663114815
 30
0.0
 10
71.9640057232457
 20
173.238306657874
 30
0.0
 10
71.97529913723218
 20
173.3065398007529
 30
0.0
 10
71.98777639345501
 20
173.3500863083209
 30
0.0
 10
71.99474604822012
 20
173.364440161102
 30
0.0
 10
71.99823103392838
 20
173.371617413561
 30
0.0
  0
SPLINE
  5
107
330
1F
100
AcDbEntity
  8
0
  6
Continuous
 62
     7
370
     0
100
AcDbSpline
210
0.0
220
0.0
230
1.0
 70
     8
 71
     3
 72
    15
 73
    11
 74
     0
 42
0.00000001
 43
0.00000001
 12
1.0
 22
0.0
 32
0.0
 13
1.0
 23
0.0
 33
0.0
 40
0.0
 40
0.0
 40
0.0
 40
0.0
 40
0.1252647643002627
 40
0.2504479081602828
 40
0.3755765427712525
 40
0.5006498090863887
 40
0.7495399527615296
 40
0.8746744095015154
 40
0.9373284349147349
 40
1.0
 40
1.0
 40
1.0
 40
1.0
 10
72.04003136057894
 20
172.2183435425548
 30
0.0
 10
72.03305973035268
 20
172.2198459930177
 30
0.0
 10
72.01912101249867
 20
172.2228499149718
 30
0.0
 10
72.00030659992845
 20
172.2542511210695
 30
0.0
 10
71.9837410928986
 20
172.3082492428598
 30
0.0
 10
71.96578587820866
 20
172.412858335927
 30
0.0
 10
71.95358025672151
 20
172.5569951741883
 30
0.0
 10
71.94898349749731
 20
172.7011616232579
 30
0.0
 10
71.94763539189086
 20
172.7857221059796
 30
0.0
 10
71.94752306846267
 20
172.8283866356026
 30
0.0
 10
71.94746689888862
 20
172.849721885925
 30
0.0
  0
SPLINE
  5
108
330
1F
100
AcDbEntity
  8
0
  6
Continuous
 62
     7
370
     0
100
AcDbSpline
210
0.0
220
0.0
230
1.0
 70
     8
 71
     3
 72
    17
 73
    13
 74
     0
 42
0.00000001
 43
0.00000001
 12
1.0
 22
0.0
 32
0.0
 13
1.0
 23
0.0
 33
0.0
 40
0.0
 40
0.0
 40
0.0
 40
0.0
 40
0.062540309940438
 40
0.1250778739838914
 40
0.2498441509250195
 40
0.3212915976448158
 40
0.3927532396738467
 40
0.499821194258285
 40
0.6247169125947597
 40
0.7497597156393037
 40
0.8498579354880786
 40
0.9999999999999999
 40
0.9999999999999999
 40
0.9999999999999999
 40
0.9999999999999999
 10
72.69469608177253
 20
174.299340220573
 30
0.0
 10
72.70483125057767
 20
174.2984164342354
 30
0.0
 10
72.72510114319283
 20
174.2965689021201
 30
0.0
 10
72.76579293400627
 20
174.274179049964
 30
0.0
 10
72.80670008518638
 20
174.2281703630423
 30
0.0
 10
72.84525806092616
 20
174.1600981553416
 30
0.0
 10
72.87736901197016
 20
174.0820860624628
 30
0.0
 10
72.90902544751266
 20
173.9693055841068
 30
0.0
 10
72.9350314703738
 20
173.8198528673737
 30
0.0
 10
72.9478146309862
 20
173.6638999941859
 30
0.0
 10
72.95524467806091
 20
173.4949116441586
 30
0.0
 10
72.95605923572886
 20
173.3815808263105
 30
0.0
 10
72.95654796347405
 20
173.3135832894311
 30
0.0
  0
SPLINE
  5
109
330
1F
100
AcDbEntity
  8
0
  6
Continuous
 62
     7
370
     0
100
AcDbSpline
210
0.0
220
0.0
230
1.0
 70
     8
 71
     3
 72
    15
 73
    11
 74
     0
 42
0.00000001
 43
0.00000001
 12
1.0
 22
0.0
 32
0.0
 13
1.0
 23
0.0
 33
0.0
 40
0.0
 40
0.0
 40
0.0
 40
0.0
 40
0.1252887505648341
 40
0.2504882286805288
 40
0.3770365728000305
 40
0.5007435852616746
 40
0.7495387817024969
 40
0.8746650576213734
 40
0.9373212665592902
 40
1.0
 40
1.0
 40
1.0
 40
1.0
 10
72.48528802460802
 20
173.6173363646639
 30
0.0
 10
72.48575231944663
 20
173.6607679733249
 30
0.0
 10
72.48668057829819
 20
173.7476002441645
 30
0.0
 10
72.4958379380708
 20
173.8756604992415
 30
0.0
 10
72.51230169658542
 20
173.9955823048298
 30
0.0
 10
72.54481164372817
 20
174.1360050853326
 30
0.0
 10
72.5918159034366
 20
174.2421097147382
 30
0.0
 10
72.6416136194959
 20
174.2860355513827
 30
0.0
 10
72.67161347191744
 20
174.2977615637431
 30
0.0
 10
72.68700095670295
 20
174.2988139385873
 30
0.0
 10
72.69469608177253
 20
174.299340220573
 30
0.0
  0
SPLINE
  5
10A
330
1F
100
AcDbEntity
  8
0
  6
Continuous
 62
     7
370
     0
100
AcDbSpline
210
0.0
220
0.0
230
1.0
 70
     8
 71
     3
 72
    14
 73
    10
 74
     0
 42
0.00000001
 43
0.00000001
 12
1.0
 22
0.0
 32
0.0
 13
1.0
 23
0.0
 33
0.0
 40
0.0
 40
0.0
 40
0.0
 40
0.0
 40
0.0627517291583978
 40
0.1254851502985826
 40
0.2506939512229764
 40
0.4998334182028718
 40
0.7491751218864988
 40
0.8745705794196739
 40
1.0
 40
1.0
 40
1.0
 40
1.0
 10
72.67822544382172
 20
172.9559119853967
 30
0.0
 10
72.67100271612166
 20
172.9564738932396
 30
0.0
 10
72.65655936797555
 20
172.9575975449869
 30
0.0
 10
72.6284697707065
 20
172.970530636682
 30
0.0
 10
72.58208160148592
 20
173.0164272336299
 30
0.0
 10
72.52819138854875
 20
173.1477799296697
 30
0.0
 10
72.49731792063857
 20
173.3328439730872
 30
0.0
 10
72.48661034478998
 20
173.4939386646862
 30
0.0
 10
72.48572883778895
 20
173.5762000851241
 30
0.0
 10
72.48528802460802
 20
173.6173363646639
 30
0.0
  0
SPLINE
  5
10B
330
1F
100
AcDbEntity
  8
0
  6
Continuous
 62
     7
370
     0
100
AcDbSpline
210
0.0
220
0.0
230
1.0
 70
     8
 71
     3
 72
    13
 73
     9
 74
     0
 42
0.00000001
 43
0.00000001
 12
1.0
 22
0.0
 32
0.0
 13
1.0
 23
0.0
 33
0.0
 40
0.0
 40
0.0
 40
0.0
 40
0.0
 40
0.1430245461696658
 40
0.2859740178866188
 40
0.5712824636310109
 40
0.7854617564667296
 40
0.8926986585742568
 40
1.0
 40
1.0
 40
1.0
 40
1.0
 10
72.8521363951604
 20
173.2242683608057
 30
0.0
 10
72.84637714087472
 20
173.2017827647838
 30
0.0
 10
72.83486165537089
 20
173.156823375566
 30
0.0
 10
72.80605941549736
 20
173.0794385846679
 30
0.0
 10
72.76794269070662
 20
173.0108417751555
 30
0.0
 10
72.72837606191845
 20
172.9711663936861
 30
0.0
 10
72.69966927407106
 20
172.9578527740336
 30
0.0
 10
72.68537481841263
 20
172.9565590444718
 30
0.0
 10
72.6782254438217
 20
172.9559119853967
 30
0.0
  0
LINE
  5
10C
330
1F
100
AcDbEntity
  8
0
  6
Continuous
 62
     7
370
     0
100
AcDbLine
 10
72.8526141059
 20
173.1740544378
 30
0.0
 11
72.8521363952
 21
173.2242683608
 31
0.0
  0
SPLINE
  5
10D
330
1F
100
AcDbEntity
  8
0
  6
Continuous
 62
     7
370
     0
100
AcDbSpline
210
0.0
220
0.0
230
1.0
 70
     8
 71
     3
 72
    16
 73
    12
 74
     0
 42
0.00000001
 43
0.00000001
 12
1.0
 22
0.0
 32
0.0
 13
1.0
 23
0.0
 33
0.0
 40
0.0
 40
0.0
 40
0.0
 40
0.0
 40
0.0625816197474825
 40
0.1251285240635742
 40
0.2498181409520578
 40
0.3744392268407878
 40
0.4993354886444154
 40
0.6423482163700263
 40
0.7853959263790783
 40
0.8926927347061667
 40
0.9999999999999999
 40
0.9999999999999999
 40
0.9999999999999999
 40
0.9999999999999999
 10
72.68680528559992
 20
172.4554191134683
 30
0.0
 10
72.69383202353892
 20
172.4561906100761
 30
0.0
 10
72.70788160152745
 20
172.4577331753252
 30
0.0
 10
72.73582924927327
 20
172.4745468591783
 30
0.0
 10
72.76896787498005
 20
172.517501684212
 30
0.0
 10
72.80169601390578
 20
172.6010542100474
 30
0.0
 10
72.82167973151819
 20
172.7149089528516
 30
0.0
 10
72.83649889830771
 20
172.8386068850553
 30
0.0
 10
72.84662051859551
 20
172.9601920282416
 30
0.0
 10
72.85188051340506
 20
173.0724217838123
 30
0.0
 10
72.852369567097
 20
173.1401757859923
 30
0.0
 10
72.85261410585797
 20
173.1740544377997
 30
0.0
  0
SPLINE
  5
10E
330
1F
100
AcDbEntity
  8
0
  6
Continuous
 62
     7
370
     0
100
AcDbSpline
210
0.0
220
0.0
230
1.0
 70
     8
 71
     3
 72
    13
 73
     9
 74
     0
 42
0.00000001
 43
0.00000001
 12
1.0
 22
0.0
 32
0.0
 13
1.0
 23
0.0
 33
0.0
 40
0.0
 40
0.0
 40
0.0
 40
0.0
 40
0.1917161088474281
 40
0.3567959472825016
 40
0.5009115742301312
 40
0.7493888557882891
 40
0.8746309851730116
 40
1.0
 40
1.0
 40
1.0
 40
1.0
 10
72.57798484800021
 20
172.7715198746862
 30
0.0
 10
72.58011662664397
 20
172.7405404077755
 30
0.0
 10
72.58408400312148
 20
172.6828856373487
 30
0.0
 10
72.59459048789157
 20
172.6060296777095
 30
0.0
 10
72.61197564059727
 20
172.5290914620518
 30
0.0
 10
72.6372097150869
 20
172.4801059046749
 30
0.0
 10
72.6648876571452
 20
172.4577241002139
 30
0.0
 10
72.6794969438679
 20
172.4561877016784
 30
0.0
 10
72.68680528559992
 20
172.4554191134683
 30
0.0
  0
SPLINE
  5
10F
330
1F
100
AcDbEntity
  8
0
  6
Continuous
 62
     7
370
     0
100
AcDbSpline
210
0.0
220
0.0
230
1.0
 70
     8
 71
     3
 72
     8
 73
     4
 74
     0
 42
0.00000001
 43
0.00000001
 12
1.0
 22
0.0
 32
0.0
 13
1.0
 23
0.0
 33
0.0
 40
0.0
 40
0.0
 40
0.0
 40
0.0
 40
1.0
 40
1.0
 40
1.0
 40
1.0
 10
72.4934559145887
 20
172.7451781445847
 30
0.0
 10
72.52076877780557
 20
172.7539587212852
 30
0.0
 10
72.54894710924873
 20
172.7627392979857
 30
0.0
 10
72.57798484800021
 20
172.7715198746862
 30
0.0
  0
SPLINE
  5
110
330
1F
100
AcDbEntity
  8
0
  6
Continuous
 62
     7
370
     0
100
AcDbSpline
210
0.0
220
0.0
230
1.0
 70
     8
 71
     3
 72
    13
 73
     9
 74
     0
 42
0.00000001
 43
0.00000001
 12
1.0
 22
0.0
 32
0.0
 13
1.0
 23
0.0
 33
0.0
 40
0.0
 40
0.0
 40
0.0
 40
0.0
 40
0.1254044199167787
 40
0.2507436796072439
 40
0.4998501634744774
 40
0.7491806965812852
 40
0.8745524567700772
 40
1.0
 40
1.0
 40
1.0
 40
1.0
 10
72.68200103759182
 20
172.2183435425548
 30
0.0
 10
72.66943580544114
 20
172.2197045073296
 30
0.0
 10
72.64431187004338
 20
172.2224257297208
 30
0.0
 10
72.59682042287028
 20
172.2564103654188
 30
0.0
 10
72.54480985970606
 20
172.3505176729684
 30
0.0
 10
72.51285454026414
 20
172.5032948910067
 30
0.0
 10
72.49853773407006
 20
172.6389547247528
 30
0.0
 10
72.49515019558835
 20
172.7097632065691
 30
0.0
 10
72.4934559145887
 20
172.7451781445847
 30
0.0
  0
SPLINE
  5
111
330
1F
100
AcDbEntity
  8
0
  6
Continuous
 62
     7
370
     0
100
AcDbSpline
210
0.0
220
0.0
230
1.0
 70
     8
 71
     3
 72
    16
 73
    12
 74
     0
 42
0.00000001
 43
0.00000001
 12
1.0
 22
0.0
 32
0.0
 13
1.0
 23
0.0
 33
0.0
 40
0.0
 40
0.0
 40
0.0
 40
0.0
 40
0.143061634105677
 40
0.2503572317568964
 40
0.3754829729345314
 40
0.5005081395809543
 40
0.6281730483492081
 40
0.7501510608234792
 40
0.874880390892666
 40
0.9374219514180525
 40
1.0
 40
1.0
 40
1.0
 40
1.0
 10
72.95654796347405
 20
173.3135832894311
 30
0.0
 10
72.95604951133507
 20
173.2429250835756
 30
0.0
 10
72.95517722227963
 20
173.1192735334624
 30
0.0
 10
72.94746742988251
 20
172.9346865097087
 30
0.0
 10
72.93375052624323
 20
172.7610083908056
 30
0.0
 10
72.90746728771323
 20
172.58525035498
 30
0.0
 10
72.86724941652834
 20
172.4284127058224
 30
0.0
 10
72.81237879507127
 20
172.3062828102578
 30
0.0
 10
72.75915023430834
 20
172.2451697569096
 30
0.0
 10
72.71495055072056
 20
172.2212775243178
 30
0.0
 10
72.69298634374164
 20
172.2193217265959
 30
0.0
 10
72.68200103759182
 20
172.2183435425548
 30
0.0
  0
LINE
  5
112
330
1F
100
AcDbEntity
  8
0
  6
Continuous
 62
     7
370
     0
100
AcDbLine
 10
74.2207721808
 20
173.0876206359
 30
0.0
 11
73.7964237127
 21
173.0876206359
 31
0.0
  0
LINE
  5
113
330
1F
100
AcDbEntity
  8
0
  6
Continuous
 62
     7
370
     0
100
AcDbLine
 10
73.7964237127
 20
172.850545065
 30
0.0
 11
73.7964237127
 21
173.0876206359
 31
0.0
  0
LINE
  5
114
330
1F
100
AcDbEntity
  8
0
  6
Continuous
 62
     7
370
     0
100
AcDbLine
 10
74.2207721808
 20
172.850545065
 30
0.0
 11
73.7964237127
 21
172.850545065
 31
0.0
  0
LINE
  5
115
330
1F
100
AcDbEntity
  8
0
  6
Continuous
 62
     7
370
     0
100
AcDbLine
 10
74.2207721808
 20
173.0876206359
 30
0.0
 11
74.2207721808
 21
172.850545065
 31
0.0
  0
SPLINE
  5
116
330
1F
100
AcDbEntity
  8
0
  6
Continuous
 62
     7
370
     0
100
AcDbSpline
210
0.0
220
0.0
230
1.0
 70
     8
 71
     3
 72
    16
 73
    12
 74
     0
 42
0.00000001
 43
0.00000001
 12
1.0
 22
0.0
 32
0.0
 13
1.0
 23
0.0
 33
0.0
 40
0.0
 40
0.0
 40
0.0
 40
0.0
 40
0.1252037281425954
 40
0.2503884232617769
 40
0.3755474586374111
 40
0.5006311301699825
 40
0.6432480406832909
 40
0.7502093923383418
 40
0.874853712252479
 40
0.9374211602822597
 40
0.9999999999999999
 40
0.9999999999999999
 40
0.9999999999999999
 40
0.9999999999999999
 10
76.45597463895001
 20
173.2580187024982
 30
0.0
 10
76.45535740261438
 20
173.1999000603009
 30
0.0
 10
76.4541230237732
 20
173.0836716108946
 30
0.0
 10
76.44167047526146
 20
172.9099329049379
 30
0.0
 10
76.41755660825561
 20
172.7381709360521
 30
0.0
 10
76.37348145675767
 20
172.5644459484778
 30
0.0
 10
76.30511281845216
 20
172.412487684389
 30
0.0
 10
76.20591212576123
 20
172.2945992540464
 30
0.0
 10
76.10941052577711
 20
172.2415992257718
 30
0.0
 10
76.02448398889007
 20
172.2205946057481
 30
0.0
 10
75.98163244621091
 20
172.2190939424862
 30
0.0
 10
75.96020472454818
 20
172.2183435425548
 30
0.0
  0
SPLINE
  5
117
330
1F
100
AcDbEntity
  8
0
  6
Continuous
 62
     7
370
     0
100
AcDbSpline
210
0.0
220
0.0
230
1.0
 70
     8
 71
     3
 72
    15
 73
    11
 74
     0
 42
0.00000001
 43
0.00000001
 12
1.0
 22
0.0
 32
0.0
 13
1.0
 23
0.0
 33
0.0
 40
0.0
 40
0.0
 40
0.0
 40
0.0
 40
0.0626253064539612
 40
0.1252128026006806
 40
0.250041140169065
 40
0.3746316374763725
 40
0.499631284561891
 40
0.7494694892746663
 40
0.8496821103872468
 40
1.0
 40
1.0
 40
1.0
 40
1.0
 10
75.96020472454818
 20
174.299340220573
 30
0.0
 10
75.98164534928897
 20
174.2984550278104
 30
0.0
 10
76.02451365389803
 20
174.2966851767243
 30
0.0
 10
76.10944291682824
 20
174.2747851628382
 30
0.0
 10
76.21142248378528
 20
174.2189028503657
 30
0.0
 10
76.31124134927558
 20
174.0990961650555
 30
0.0
 10
76.39263670201407
 20
173.8906988763853
 30
0.0
 10
76.43764912393509
 20
173.6755943943811
 30
0.0
 10
76.45357577697112
 20
173.4440807537755
 30
0.0
 10
76.45507506726697
 20
173.3277918508042
 30
0.0
 10
76.45597463895002
 20
173.2580187024982
 30
0.0
  0
SPLINE
  5
118
330
1F
100
AcDbEntity
  8
0
  6
Continuous
 62
     7
370
     0
100
AcDbSpline
210
0.0
220
0.0
230
1.0
 70
     8
 71
     3
 72
    17
 73
    13
 74
     0
 42
0.00000001
 43
0.00000001
 12
1.0
 22
0.0
 32
0.0
 13
1.0
 23
0.0
 33
0.0
 40
0.0
 40
0.0
 40
0.0
 40
0.0
 40
0.1251492432292499
 40
0.2502781713675302
 40
0.3837262972916673
 40
0.5004108843265641
 40
0.6316207721799518
 40
0.7498824272033874
 40
0.8124001134505571
 40
0.8749148898799889
 40
0.9374491704395687
 40
1.0
 40
1.0
 40
1.0
 40
1.0
 10
75.4875620741136
 20
173.2580187024982
 30
0.0
 10
75.48808912874632
 20
173.3161921649285
 30
0.0
 10
75.48914315245665
 20
173.4325296466701
 30
0.0
 10
75.50094960058576
 20
173.610232788989
 30
0.0
 10
75.5229848372876
 20
173.7822170855617
 30
0.0
 10
75.5630699347277
 20
173.9506747999753
 30
0.0
 10
75.62390024528828
 20
174.099835348402
 30
0.0
 10
75.70131912247172
 20
174.1997205121638
 30
0.0
 10
75.77316050407583
 20
174.2540470589802
 30
0.0
 10
75.83351703717106
 20
174.2806394774287
 30
0.0
 10
75.89610360005074
 20
174.2971732851859
 30
0.0
 10
75.93883579853167
 20
174.2986178450713
 30
0.0
 10
75.96020472454818
 20
174.299340220573
 30
0.0
  0
SPLINE
  5
119
330
1F
100
AcDbEntity
  8
0
  6
Continuous
 62
     7
370
     0
100
AcDbSpline
210
0.0
220
0.0
230
1.0
 70
     8
 71
     3
 72
    12
 73
     8
 74
     0
 42
0.00000001
 43
0.00000001
 12
1.0
 22
0.0
 32
0.0
 13
1.0
 23
0.0
 33
0.0
 40
0.0
 40
0.0
 40
0.0
 40
0.0
 40
0.1249981802678309
 40
0.2500181699043221
 40
0.4998430409763986
 40
0.7498766444739986
 40
1.0
 40
1.0
 40
1.0
 40
1.0
 10
75.62831202135317
 20
172.4163181078489
 30
0.0
 10
75.61371980481108
 20
172.4466889332099
 30
0.0
 10
75.58453282571362
 20
172.5074358829573
 30
0.0
 10
75.54356894473283
 20
172.6424959179642
 30
0.0
 10
75.50992744223964
 20
172.8198213351719
 30
0.0
 10
75.4904439688758
 20
173.0382649224178
 30
0.0
 10
75.48852282061621
 20
173.1847586798143
 30
0.0
 10
75.4875620741136
 20
173.2580187024982
 30
0.0
  0
SPLINE
  5
11A
330
1F
100
AcDbEntity
  8
0
  6
Continuous
 62
     7
370
     0
100
AcDbSpline
210
0.0
220
0.0
230
1.0
 70
     8
 71
     3
 72
    12
 73
     8
 74
     0
 42
0.00000001
 43
0.00000001
 12
1.0
 22
0.0
 32
0.0
 13
1.0
 23
0.0
 33
0.0
 40
0.0
 40
0.0
 40
0.0
 40
0.0
 40
0.2501118399281581
 40
0.5000203913628579
 40
0.7497554808353056
 40
0.8748530671024488
 40
1.0
 40
1.0
 40
1.0
 40
1.0
 10
75.96020472454818
 20
172.2183435425548
 30
0.0
 10
75.92858372065135
 20
172.2202154915867
 30
0.0
 10
75.86536741410498
 20
172.2239578681485
 30
0.0
 10
75.7743216118211
 20
172.2594202043237
 30
0.0
 10
75.70671240225457
 20
172.3134192519708
 30
0.0
 10
75.65892720526195
 20
172.3680028802951
 30
0.0
 10
75.63851842415012
 20
172.4002109149243
 30
0.0
 10
75.62831202135317
 20
172.4163181078489
 30
0.0
  0
LINE
  5
11B
330
1F
100
AcDbEntity
  8
0
  6
Continuous
 62
     7
370
     0
100
AcDbLine
 10
72.0067341842
 20
168.9817608436
 30
0.0
 11
71.8978247856
 21
168.9817608436
 31
0.0
  0
LINE
  5
11C
330
1F
100
AcDbEntity
  8
0
  6
Continuous
 62
     7
370
     0
100
AcDbLine
 10
71.8978247856
 20
170.7993402206
 30
0.0
 11
71.8978247856
 21
168.9817608436
 31
0.0
  0
LINE
  5
11D
330
1F
100
AcDbEntity
  8
0
  6
Continuous
 62
     7
370
     0
100
AcDbLine
 10
71.8978247856
 20
170.7993402206
 30
0.0
 11
71.8798066812
 21
170.7993402206
 31
0.0
  0
LINE
  5
11E
330
1F
100
AcDbEntity
  8
0
  6
Continuous
 62
     7
370
     0
100
AcDbLine
 10
71.8798066812
 20
168.7446852727
 30
0.0
 11
71.8798066812
 21
170.7993402206
 31
0.0
  0
LINE
  5
11F
330
1F
100
AcDbEntity
  8
0
  6
Continuous
 62
     7
370
     0
100
AcDbLine
 10
72.0067341842
 20
168.7446852727
 30
0.0
 11
71.8798066812
 21
168.7446852727
 31
0.0
  0
LINE
  5
120
330
1F
100
AcDbEntity
  8
0
  6
Continuous
 62
     7
370
     0
100
AcDbLine
 10
72.0067341842
 20
168.9817608436
 30
0.0
 11
72.0067341842
 21
168.7446852727
 31
0.0
  0
SPLINE
  5
121
330
1F
100
AcDbEntity
  8
0
  6
Continuous
 62
     7
370
     0
100
AcDbSpline
210
0.0
220
0.0
230
1.0
 70
     8
 71
     3
 72
    13
 73
     9
 74
     0
 42
0.00000001
 43
0.00000001
 12
1.0
 22
0.0
 32
0.0
 13
1.0
 23
0.0
 33
0.0
 40
0.0
 40
0.0
 40
0.0
 40
0.0
 40
0.1253186234496431
 40
0.2505910238134536
 40
0.5000704273050903
 40
0.7494867868263316
 40
0.874715313907132
 40
1.0
 40
1.0
 40
1.0
 40
1.0
 10
72.93841131685981
 20
169.8246962068176
 30
0.0
 10
72.94925278575073
 20
169.8159647025678
 30
0.0
 10
72.97093172471634
 20
169.7985049146355
 30
0.0
 10
73.01235368453706
 20
169.7475182213116
 30
0.0
 10
73.05779426784372
 20
169.6537715484438
 30
0.0
 10
73.0870130215664
 20
169.5277098428813
 30
0.0
 10
73.09836635819855
 20
169.4178277962928
 30
0.0
 10
73.09928263901007
 20
169.3614523478433
 30
0.0
 10
73.09974088211983
 20
169.3332583046116
 30
0.0
  0
SPLINE
  5
122
330
1F
100
AcDbEntity
  8
0
  6
Continuous
 62
     7
370
     0
100
AcDbSpline
210
0.0
220
0.0
230
1.0
 70
     8
 71
     3
 72
    13
 73
     9
 74
     0
 42
0.00000001
 43
0.00000001
 12
1.0
 22
0.0
 32
0.0
 13
1.0
 23
0.0
 33
0.0
 40
0.0
 40
0.0
 40
0.0
 40
0.0
 40
0.1252061738134367
 40
0.2503351135328766
 40
0.4999252578982683
 40
0.7495649115786374
 40
0.8747464467681102
 40
1.0
 40
1.0
 40
1.0
 40
1.0
 10
73.06595274935576
 20
170.2667433650834
 30
0.0
 10
73.06548813004613
 20
170.2429527192521
 30
0.0
 10
73.06455917802981
 20
170.1953861029757
 30
0.0
 10
73.05451736139116
 20
170.1029873479604
 30
0.0
 10
73.03161492232846
 20
169.9955956999032
 30
0.0
 10
72.99650679377707
 20
169.9098482861235
 30
0.0
 10
72.96413567109913
 20
169.856882518863
 30
0.0
 10
72.94698774535894
 20
169.8354270341628
 30
0.0
 10
72.93841131685981
 20
169.8246962068176
 30
0.0
  0
SPLINE
  5
123
330
1F
100
AcDbEntity
  8
0
  6
Continuous
 62
     7
370
     0
100
AcDbSpline
210
0.0
220
0.0
230
1.0
 70
     8
 71
     3
 72
    14
 73
    10
 74
     0
 42
0.00000001
 43
0.00000001
 12
1.0
 22
0.0
 32
0.0
 13
1.0
 23
0.0
 33
0.0
 40
0.0
 40
0.0
 40
0.0
 40
0.0
 40
0.136146650747592
 40
0.2510781391734752
 40
0.5004260964969107
 40
0.7491549946763698
 40
0.8744769730917459
 40
0.937218148644604
 40
1.0
 40
1.0
 40
1.0
 40
1.0
 10
72.79391429551863
 20
170.799340220573
 30
0.0
 10
72.81059712085383
 20
170.7983660717411
 30
0.0
 10
72.84136315672998
 20
170.7965695716095
 30
0.0
 10
72.90382021519711
 20
170.7746461269762
 30
0.0
 10
72.98135332835759
 20
170.7036135434888
 30
0.0
 10
73.0371129233865
 20
170.5402781422266
 30
0.0
 10
73.0585996516821
 20
170.4076956954153
 30
0.0
 10
73.0650111416281
 20
170.3276637104101
 30
0.0
 10
73.0656388123142
 20
170.287054533334
 30
0.0
 10
73.06595274935576
 20
170.2667433650834
 30
0.0
  0
LINE
  5
124
330
1F
100
AcDbEntity
  8
0
  6
Continuous
 62
     7
370
     0
100
AcDbLine
 10
72.7939142955
 20
170.7993402206
 30
0.0
 11
72.526646382
 21
170.7993402206
 31
0.0
  0
LINE
  5
125
330
1F
100
AcDbEntity
  8
0
  6
Continuous
 62
     7
370
     0
100
AcDbLine
 10
72.526646382
 20
168.7446852727
 30
0.0
 11
72.526646382
 21
170.7993402206
 31
0.0
  0
LINE
  5
126
330
1F
100
AcDbEntity
  8
0
  6
Continuous
 62
     7
370
     0
100
AcDbLine
 10
72.7946876677
 20
168.7446852727
 30
0.0
 11
72.526646382
 21
168.7446852727
 31
0.0
  0
SPLINE
  5
127
330
1F
100
AcDbEntity
  8
0
  6
Continuous
 62
     7
370
     0
100
AcDbSpline
210
0.0
220
0.0
230
1.0
 70
     8
 71
     3
 72
    16
 73
    12
 74
     0
 42
0.00000001
 43
0.00000001
 12
1.0
 22
0.0
 32
0.0
 13
1.0
 23
0.0
 33
0.0
 40
0.0
 40
0.0
 40
0.0
 40
0.0
 40
0.0625870036469715
 40
0.1251447828607021
 40
0.2500628880183388
 40
0.3800112864287626
 40
0.4996715219971214
 40
0.6171428121950017
 40
0.7497005418904292
 40
0.8498234508633088
 40
1.0
 40
1.0
 40
1.0
 40
1.0
 10
73.09974088211983
 20
169.3332583046116
 30
0.0
 10
73.099444796604
 20
169.3105287276984
 30
0.0
 10
73.0988527638268
 20
169.2650801872416
 30
0.0
 10
73.09266092529427
 20
169.1751513557551
 30
0.0
 10
73.07583980055587
 20
169.0657949448321
 30
0.0
 10
73.045311949876
 20
168.9488071013611
 30
0.0
 10
73.00348236967457
 20
168.8577425964754
 30
0.0
 10
72.95348598643602
 20
168.7985026714854
 30
0.0
 10
72.9040116764849
 20
168.7659097948782
 30
0.0
 10
72.8498545456991
 20
168.7479545125055
 30
0.0
 10
72.8153749778495
 20
168.7459112216519
 30
0.0
 10
72.79468766771912
 20
168.7446852726563
 30
0.0
  0
SPLINE
  5
128
330
1F
100
AcDbEntity
  8
0
  6
Continuous
 62
     7
370
     0
100
AcDbSpline
210
0.0
220
0.0
230
1.0
 70
     8
 71
     3
 72
    14
 73
    10
 74
     0
 42
0.00000001
 43
0.00000001
 12
1.0
 22
0.0
 32
0.0
 13
1.0
 23
0.0
 33
0.0
 40
0.0
 40
0.0
 40
0.0
 40
0.0
 40
0.2504465544088781
 40
0.5006271577129474
 40
0.6256173980224436
 40
0.7503619177354579
 40
0.8749139347613022
 40
0.9374334541801438
 40
1.0
 40
1.0
 40
1.0
 40
1.0
 10
75.67376111325818
 20
173.2588418815639
 30
0.0
 10
75.6747100046956
 20
173.1753806396528
 30
0.0
 10
75.67660677993536
 20
173.0085467839594
 30
0.0
 10
75.69610827632707
 20
172.8011472809114
 30
0.0
 10
75.73441302731545
 20
172.6412862402509
 30
0.0
 10
75.79205523515037
 20
172.5426558562056
 30
0.0
 10
75.85539334092101
 20
172.4826064884963
 30
0.0
 10
75.91420481125724
 20
172.4585043855533
 30
0.0
 10
75.94486757753812
 20
172.4564477952233
 30
0.0
 10
75.96020472454818
 20
172.4554191134683
 30
0.0
  0
SPLINE
  5
129
330
1F
100
AcDbEntity
  8
0
  6
Continuous
 62
     7
370
     0
100
AcDbSpline
210
0.0
220
0.0
230
1.0
 70
     8
 71
     3
 72
    14
 73
    10
 74
     0
 42
0.00000001
 43
0.00000001
 12
1.0
 22
0.0
 32
0.0
 13
1.0
 23
0.0
 33
0.0
 40
0.0
 40
0.0
 40
0.0
 40
0.0
 40
0.0625718350622503
 40
0.125083785944381
 40
0.2496290621893436
 40
0.3743665145366759
 40
0.4993488336595844
 40
0.7495426014132965
 40
1.0
 40
1.0
 40
1.0
 40
1.0
 10
75.96020472454818
 20
172.4554191134683
 30
0.0
 10
75.97559301335194
 20
172.4563818427411
 30
0.0
 10
76.00635486364551
 20
172.4583063799095
 30
0.0
 10
76.06574274000586
 20
172.4833859391801
 30
0.0
 10
76.13122978053067
 20
172.5423427544921
 30
0.0
 10
76.1906985974455
 20
172.641694622565
 30
0.0
 10
76.23134974428888
 20
172.8011454237403
 30
0.0
 10
76.2519232271599
 20
173.0086395229735
 30
0.0
 10
76.25395761525994
 20
173.1754118226098
 30
0.0
 10
76.25497534493981
 20
173.2588418815639
 30
0.0
  0
SPLINE
  5
12A
330
1F
100
AcDbEntity
  8
0
  6
Continuous
 62
     7
370
     0
100
AcDbSpline
210
0.0
220
0.0
230
1.0
 70
     8
 71
     3
 72
    15
 73
    11
 74
     0
 42
0.00000001
 43
0.00000001
 12
1.0
 22
0.0
 32
0.0
 13
1.0
 23
0.0
 33
0.0
 40
0.0
 40
0.0
 40
0.0
 40
0.0
 40
0.1252519376079487
 40
0.2504961104472857
 40
0.5006645979650206
 40
0.6256249858635162
 40
0.7503965025560787
 40
0.874908349513979
 40
0.937433701457942
 40
1.0
 40
1.0
 40
1.0
 40
1.0
 10
76.25497534493981
 20
173.2588418815639
 30
0.0
 10
76.25476135608717
 20
173.3006940507864
 30
0.0
 10
76.25433339164778
 20
173.3843957946815
 30
0.0
 10
76.24685507395371
 20
173.5513269879431
 30
0.0
 10
76.23125479782746
 20
173.7180227470732
 30
0.0
 10
76.18935723045212
 20
173.8773265557947
 30
0.0
 10
76.13049550674296
 20
173.9776010029265
 30
0.0
 10
76.0642903084497
 20
174.0364252499503
 30
0.0
 10
76.00432804549501
 20
174.0594707495225
 30
0.0
 10
75.97350310772592
 20
174.061333146406
 30
0.0
 10
75.95808559383504
 20
174.0622646496595
 30
0.0
  0
SPLINE
  5
12B
330
1F
100
AcDbEntity
  8
0
  6
Continuous
 62
     7
370
     0
100
AcDbSpline
210
0.0
220
0.0
230
1.0
 70
     8
 71
     3
 72
    11
 73
     7
 74
     0
 42
0.00000001
 43
0.00000001
 12
1.0
 22
0.0
 32
0.0
 13
1.0
 23
0.0
 33
0.0
 40
0.0
 40
0.0
 40
0.0
 40
0.0
 40
0.2499762991228572
 40
0.4998291777062579
 40
0.7498121573677361
 40
1.0
 40
1.0
 40
1.0
 40
1.0
 10
75.95808559383504
 20
174.0622646496595
 30
0.0
 10
75.93849376056285
 20
174.0607873832434
 30
0.0
 10
75.89931976707402
 20
174.0578335797804
 30
0.0
 10
75.84424578876586
 20
174.0289033620237
 30
0.0
 10
75.79599309474952
 20
173.983192100057
 30
0.0
 10
75.77140094338073
 20
173.9420703339388
 30
0.0
 10
75.75909983139577
 20
173.9215010294297
 30
0.0
  0
SPLINE
  5
12C
330
1F
100
AcDbEntity
  8
0
  6
Continuous
 62
     7
370
     0
100
AcDbSpline
210
0.0
220
0.0
230
1.0
 70
     8
 71
     3
 72
    12
 73
     8
 74
     0
 42
0.00000001
 43
0.00000001
 12
1.0
 22
0.0
 32
0.0
 13
1.0
 23
0.0
 33
0.0
 40
0.0
 40
0.0
 40
0.0
 40
0.0
 40
0.1249202996239226
 40
0.2499253403448435
 40
0.4998213365461343
 40
0.7498857599247363
 40
1.0
 40
1.0
 40
1.0
 40
1.0
 10
75.75909983139577
 20
173.9215010294297
 30
0.0
 10
75.74896699875812
 20
173.8968021005849
 30
0.0
 10
75.72869445976127
 20
173.847387488098
 30
0.0
 10
75.70431350952397
 20
173.7385692359238
 30
0.0
 10
75.68554700156106
 20
173.5989685140269
 30
0.0
 10
75.6753019177612
 20
173.429110070415
 30
0.0
 10
75.67427474886044
 20
173.3156017129087
 30
0.0
 10
75.67376111325818
 20
173.2588418815639
 30
0.0
  0
SPLINE
  5
12D
330
1F
100
AcDbEntity
  8
0
  6
Continuous
 62
     7
370
     0
100
AcDbSpline
210
0.0
220
0.0
230
1.0
 70
     8
 71
     3
 72
    14
 73
    10
 74
     0
 42
0.00000001
 43
0.00000001
 12
1.0
 22
0.0
 32
0.0
 13
1.0
 23
0.0
 33
0.0
 40
0.0
 40
0.0
 40
0.0
 40
0.0
 40
0.2504465544088817
 40
0.5006271577129537
 40
0.6256173980224428
 40
0.750361917735466
 40
0.8749139347613057
 40
0.9374334541801488
 40
1.0
 40
1.0
 40
1.0
 40
1.0
 10
73.18030368738968
 20
173.2588418815639
 30
0.0
 10
73.18089288898909
 20
173.1753806396528
 30
0.0
 10
73.18207066651023
 20
173.0085467839594
 30
0.0
 10
73.19418591511389
 20
172.8011472809114
 30
0.0
 10
73.21807251471735
 20
172.6412862402509
 30
0.0
 10
73.2541922232467
 20
172.5426558562056
 30
0.0
 10
73.29418947669828
 20
172.4826064884963
 30
0.0
 10
73.33157659163112
 20
172.4585043855533
 30
0.0
 10
73.35118703495185
 20
172.4564477952233
 30
0.0
 10
73.3609959429084
 20
172.4554191134683
 30
0.0
  0
SPLINE
  5
12E
330
1F
100
AcDbEntity
  8
0
  6
Continuous
 62
     7
370
     0
100
AcDbSpline
210
0.0
220
0.0
230
1.0
 70
     8
 71
     3
 72
    14
 73
    10
 74
     0
 42
0.00000001
 43
0.00000001
 12
1.0
 22
0.0
 32
0.0
 13
1.0
 23
0.0
 33
0.0
 40
0.0
 40
0.0
 40
0.0
 40
0.0
 40
0.0625718350622505
 40
0.125083785944382
 40
0.24962906218934
 40
0.3743665145366735
 40
0.4993488336595895
 40
0.7495426014132985
 40
1.0
 40
1.0
 40
1.0
 40
1.0
 10
73.3609959429084
 20
172.4554191134683
 30
0.0
 10
73.37086461599384
 20
172.4563818427411
 30
0.0
 10
73.3905925173818
 20
172.4583063799095
 30
0.0
 10
73.42890213288328
 20
172.4833859391801
 30
0.0
 10
73.47141205282925
 20
172.5423427544921
 30
0.0
 10
73.51028658382688
 20
172.641694622565
 30
0.0
 10
73.5369705730212
 20
172.8011454237403
 30
0.0
 10
73.55052032883066
 20
173.0086395229735
 30
0.0
 10
73.5518605216818
 20
173.1754118226098
 30
0.0
 10
73.55253097096401
 20
173.2588418815639
 30
0.0
  0
SPLINE
  5
12F
330
1F
100
AcDbEntity
  8
0
  6
Continuous
 62
     7
370
     0
100
AcDbSpline
210
0.0
220
0.0
230
1.0
 70
     8
 71
     3
 72
    15
 73
    11
 74
     0
 42
0.00000001
 43
0.00000001
 12
1.0
 22
0.0
 32
0.0
 13
1.0
 23
0.0
 33
0.0
 40
0.0
 40
0.0
 40
0.0
 40
0.0
 40
0.1252519376079516
 40
0.2504961104472873
 40
0.500664597965015
 40
0.6256249858635157
 40
0.7503965025560762
 40
0.8749083495139837
 40
0.9374337014579487
 40
1.0
 40
1.0
 40
1.0
 40
1.0
 10
73.55253097096401
 20
173.2588418815639
 30
0.0
 10
73.55238989774261
 20
173.3006940507864
 30
0.0
 10
73.55210776004542
 20
173.3843957946815
 30
0.0
 10
73.54718272606563
 20
173.5513269879431
 30
0.0
 10
73.53690708133581
 20
173.7180227470732
 30
0.0
 10
73.50940809855679
 20
173.8773265557947
 30
0.0
 10
73.4709339069581
 20
173.9776010029265
 30
0.0
 10
73.4279609796374
 20
174.0364252499503
 30
0.0
 10
73.38928828435063
 20
174.0594707495225
 30
0.0
 10
73.36952420698759
 20
174.061333146406
 30
0.0
 10
73.35963893359084
 20
174.0622646496595
 30
0.0
  0
SPLINE
  5
130
330
1F
100
AcDbEntity
  8
0
  6
Continuous
 62
     7
370
     0
100
AcDbSpline
210
0.0
220
0.0
230
1.0
 70
     8
 71
     3
 72
    11
 73
     7
 74
     0
 42
0.00000001
 43
0.00000001
 12
1.0
 22
0.0
 32
0.0
 13
1.0
 23
0.0
 33
0.0
 40
0.0
 40
0.0
 40
0.0
 40
0.0
 40
0.2499762991228478
 40
0.4998291777062709
 40
0.7498121573677392
 40
1.0
 40
1.0
 40
1.0
 40
1.0
 10
73.35963893359084
 20
174.0622646496595
 30
0.0
 10
73.34711656361999
 20
174.0607873832434
 30
0.0
 10
73.32207800633503
 20
174.0578335797804
 30
0.0
 10
73.2871486913409
 20
174.0289033620237
 30
0.0
 10
73.25669928775702
 20
173.983192100057
 30
0.0
 10
73.24126734653588
 20
173.9420703339388
 30
0.0
 10
73.23354821557172
 20
173.9215010294297
 30
0.0
  0
SPLINE
  5
131
330
1F
100
AcDbEntity
  8
0
  6
Continuous
 62
     7
370
     0
100
AcDbSpline
210
0.0
220
0.0
230
1.0
 70
     8
 71
     3
 72
    12
 73
     8
 74
     0
 42
0.00000001
 43
0.00000001
 12
1.0
 22
0.0
 32
0.0
 13
1.0
 23
0.0
 33
0.0
 40
0.0
 40
0.0
 40
0.0
 40
0.0
 40
0.1249202996239215
 40
0.2499253403448343
 40
0.4998213365461327
 40
0.7498857599247338
 40
1.0
 40
1.0
 40
1.0
 40
1.0
 10
73.23354821557172
 20
173.9215010294297
 30
0.0
 10
73.22720314720148
 20
173.8968021005849
 30
0.0
 10
73.21450870621219
 20
173.847387488098
 30
0.0
 10
73.19930291949713
 20
173.7385692359238
 30
0.0
 10
73.18762316934057
 20
173.5989685140269
 30
0.0
 10
73.18126047352855
 20
173.429110070415
 30
0.0
 10
73.18062263727833
 20
173.3156017129087
 30
0.0
 10
73.18030368738968
 20
173.2588418815639
 30
0.0
  0
LINE
  5
132
330
1F
100
AcDbEntity
  8
0
  6
Continuous
 62
     7
370
     0
100
AcDbLine
 10
72.7729971637
 20
169.9300631272
 30
0.0
 11
72.6221852019
 21
169.9300631272
 31
0.0
  0
SPLINE
  5
133
330
1F
100
AcDbEntity
  8
0
  6
Continuous
 62
     7
370
     0
100
AcDbSpline
210
0.0
220
0.0
230
1.0
 70
     8
 71
     3
 72
    11
 73
     7
 74
     0
 42
0.00000001
 43
0.00000001
 12
1.0
 22
0.0
 32
0.0
 13
1.0
 23
0.0
 33
0.0
 40
0.0
 40
0.0
 40
0.0
 40
0.0
 40
0.5000385172520717
 40
0.7000835348038064
 40
0.8538625669759329
 40
1.0
 40
1.0
 40
1.0
 40
1.0
 10
72.7729971637208
 20
169.9300631272236
 30
0.0
 10
72.78853071384331
 20
169.9304911804751
 30
0.0
 10
72.81027860386105
 20
169.931090480375
 30
0.0
 10
72.83727269177355
 20
169.9382687102725
 30
0.0
 10
72.85310263038699
 20
169.9445822244874
 30
0.0
 10
72.86244480836987
 20
169.9511477760333
 30
0.0
 10
72.86699688225612
 20
169.9543469096609
 30
0.0
  0
SPLINE
  5
134
330
1F
100
AcDbEntity
  8
0
  6
Continuous
 62
     7
370
     0
100
AcDbSpline
210
0.0
220
0.0
230
1.0
 70
     8
 71
     3
 72
    12
 73
     8
 74
     0
 42
0.00000001
 43
0.00000001
 12
1.0
 22
0.0
 32
0.0
 13
1.0
 23
0.0
 33
0.0
 40
0.0
 40
0.0
 40
0.0
 40
0.0
 40
0.1253736807326057
 40
0.2506251700065261
 40
0.499984228559935
 40
0.74966675687502
 40
1.0
 40
1.0
 40
1.0
 40
1.0
 10
72.86699688225612
 20
169.9543469096609
 30
0.0
 10
72.87280264838276
 20
169.9595458665825
 30
0.0
 10
72.88440852223128
 20
169.9699387134281
 30
0.0
 10
72.905954221577
 20
170.001441775678
 30
0.0
 10
72.92847266316053
 20
170.0582314964244
 30
0.0
 10
72.94386411809899
 20
170.1467733178103
 30
0.0
 10
72.94520835878333
 20
170.2097136786797
 30
0.0
 10
72.94588135381522
 20
170.2412248140475
 30
0.0
  0
SPLINE
  5
135
330
1F
100
AcDbEntity
  8
0
  6
Continuous
 62
     7
370
     0
100
AcDbSpline
210
0.0
220
0.0
230
1.0
 70
     8
 71
     3
 72
    14
 73
    10
 74
     0
 42
0.00000001
 43
0.00000001
 12
1.0
 22
0.0
 32
0.0
 13
1.0
 23
0.0
 33
0.0
 40
0.0
 40
0.0
 40
0.0
 40
0.0
 40
0.1251021859846648
 40
0.250070063423144
 40
0.3784065021126542
 40
0.4993789957172051
 40
0.6242625680628628
 40
0.749509842144001
 40
1.0
 40
1.0
 40
1.0
 40
1.0
 10
72.94588135381522
 20
170.2412248140475
 30
0.0
 10
72.94534987986934
 20
170.2690922133503
 30
0.0
 10
72.94428750256303
 20
170.3247970937744
 30
0.0
 10
72.93279851944433
 20
170.4049953690941
 30
0.0
 10
72.91416819900938
 20
170.4753078046987
 30
0.0
 10
72.88682072864584
 20
170.5250810023525
 30
0.0
 10
72.85547196386368
 20
170.547492994386
 30
0.0
 10
72.81295028948928
 20
170.5601954976905
 30
0.0
 10
72.78184238412359
 20
170.5614369917732
 30
0.0
 10
72.76110390170665
 20
170.5622646496595
 30
0.0
  0
LINE
  5
136
330
1F
100
AcDbEntity
  8
0
  6
Continuous
 62
     7
370
     0
100
AcDbLine
 10
72.7611039017
 20
170.5622646497
 30
0.0
 11
72.6221852019
 21
170.5622646497
 31
0.0
  0
LINE
  5
137
330
1F
100
AcDbEntity
  8
0
  6
Continuous
 62
     7
370
     0
100
AcDbLine
 10
72.6221852019
 20
170.5622646497
 30
0.0
 11
72.6221852019
 21
169.9300631272
 31
0.0
  0
LINE
  5
138
330
1F
100
AcDbEntity
  8
0
  6
Continuous
 62
     7
370
     0
100
AcDbLine
 10
72.7963901743
 20
168.9817608436
 30
0.0
 11
72.6221852019
 21
168.9817608436
 31
0.0
  0
SPLINE
  5
139
330
1F
100
AcDbEntity
  8
0
  6
Continuous
 62
     7
370
     0
100
AcDbSpline
210
0.0
220
0.0
230
1.0
 70
     8
 71
     3
 72
    10
 73
     6
 74
     0
 42
0.00000001
 43
0.00000001
 12
1.0
 22
0.0
 32
0.0
 13
1.0
 23
0.0
 33
0.0
 40
0.0
 40
0.0
 40
0.0
 40
0.0
 40
0.5000649138273806
 40
0.7438622150386596
 40
1.0
 40
1.0
 40
1.0
 40
1.0
 10
72.79639017429206
 20
168.9817608435698
 30
0.0
 10
72.80749280791777
 20
168.9819503723785
 30
0.0
 10
72.82400832303033
 20
168.9822323024151
 30
0.0
 10
72.84655012015365
 20
168.9857516255788
 30
0.0
 10
72.85784510171541
 20
168.9896445059219
 30
0.0
 10
72.86363199613118
 20
168.9916389923578
 30
0.0
  0
SPLINE
  5
13A
330
1F
100
AcDbEntity
  8
0
  6
Continuous
 62
     7
370
     0
100
AcDbSpline
210
0.0
220
0.0
230
1.0
 70
     8
 71
     3
 72
    14
 73
    10
 74
     0
 42
0.00000001
 43
0.00000001
 12
1.0
 22
0.0
 32
0.0
 13
1.0
 23
0.0
 33
0.0
 40
0.0
 40
0.0
 40
0.0
 40
0.0
 40
0.1430922649552996
 40
0.2504176231409879
 40
0.4169163683940548
 40
0.5003920208688027
 40
0.7496250923183507
 40
0.8747493348582986
 40
1.0
 40
1.0
 40
1.0
 40
1.0
 10
72.86363199613118
 20
168.9916389923578
 30
0.0
 10
72.87259826620812
 20
168.9968559764749
 30
0.0
 10
72.8882896247998
 20
169.0059859232472
 30
0.0
 10
72.91349471967808
 20
169.0318022240664
 30
0.0
 10
72.93336929550287
 20
169.0650473662711
 30
0.0
 10
72.95530879687445
 20
169.126734371864
 30
0.0
 10
72.96983289534586
 20
169.1950740252794
 30
0.0
 10
72.97717834678842
 20
169.2755886825752
 30
0.0
 10
72.97774664563302
 20
169.3167720958609
 30
0.0
 10
72.97803093853177
 20
169.33737419994
 30
0.0
  0
SPLINE
  5
13B
330
1F
100
AcDbEntity
  8
0
  6
Continuous
 62
     7
370
     0
100
AcDbSpline
210
0.0
220
0.0
230
1.0
 70
     8
 71
     3
 72
    15
 73
    11
 74
     0
 42
0.00000001
 43
0.00000001
 12
1.0
 22
0.0
 32
0.0
 13
1.0
 23
0.0
 33
0.0
 40
0.0
 40
0.0
 40
0.0
 40
0.0
 40
0.071665808245723
 40
0.1432828771087773
 40
0.2861015597592857
 40
0.4987034456032666
 40
0.5822269887803014
 40
0.7491627774275499
 40
0.874568751537157
 40
1.0
 40
1.0
 40
1.0
 40
1.0
 10
72.97803093853177
 20
169.33737419994
 30
0.0
 10
72.97783207209213
 20
169.3540504553292
 30
0.0
 10
72.97743447446042
 20
169.3873916247104
 30
0.0
 10
72.972758129131
 20
169.4531881704189
 30
0.0
 10
72.95736384405292
 20
169.5464484592795
 30
0.0
 10
72.9269535599955
 20
169.6227968338383
 30
0.0
 10
72.88775346382559
 20
169.6670234718717
 30
0.0
 10
72.85389876419976
 20
169.6835463067676
 30
0.0
 10
72.81677535576671
 20
169.6920930304928
 30
0.0
 10
72.7948515797497
 20
169.6926893610089
 30
0.0
 10
72.7838885872216
 20
169.6929875563102
 30
0.0
  0
LINE
  5
13C
330
1F
100
AcDbEntity
  8
0
  6
Continuous
 62
     7
370
     0
100
AcDbLine
 10
72.7838885872
 20
169.6929875563
 30
0.0
 11
72.6221852019
 21
169.6929875563
 31
0.0
  0
LINE
  5
13D
330
1F
100
AcDbEntity
  8
0
  6
Continuous
 62
     7
370
     0
100
AcDbLine
 10
72.6221852019
 20
169.6929875563
 30
0.0
 11
72.6221852019
 21
168.9817608436
 31
0.0
  0
SPLINE
  5
13E
330
1F
100
AcDbEntity
  8
0
  6
Continuous
 62
     7
370
     0
100
AcDbSpline
210
0.0
220
0.0
230
1.0
 70
     8
 71
     3
 72
    13
 73
     9
 74
     0
 42
0.00000001
 43
0.00000001
 12
1.0
 22
0.0
 32
0.0
 13
1.0
 23
0.0
 33
0.0
 40
0.0
 40
0.0
 40
0.0
 40
0.0
 40
0.1255310813075864
 40
0.2510110657283649
 40
0.5005061337007841
 40
0.7493091568965187
 40
0.8746101741559525
 40
1.0
 40
1.0
 40
1.0
 40
1.0
 10
72.8521363951604
 20
173.6230986181236
 30
0.0
 10
72.85181152878225
 20
173.6504903518567
 30
0.0
 10
72.85116192826143
 20
173.7052626696354
 30
0.0
 10
72.84313183322426
 20
173.8128207612262
 30
0.0
 10
72.8192825007827
 20
173.938174341682
 30
0.0
 10
72.77744001079292
 20
174.0255887786148
 30
0.0
 10
72.7387354198506
 20
174.0583668215065
 30
0.0
 10
72.71898696862051
 20
174.0609650667944
 30
0.0
 10
72.70910924500774
 20
174.0622646496595
 30
0.0
  0
SPLINE
  5
13F
330
1F
100
AcDbEntity
  8
0
  6
Continuous
 62
     7
370
     0
100
AcDbSpline
210
0.0
220
0.0
230
1.0
 70
     8
 71
     3
 72
    14
 73
    10
 74
     0
 42
0.00000001
 43
0.00000001
 12
1.0
 22
0.0
 32
0.0
 13
1.0
 23
0.0
 33
0.0
 40
0.0
 40
0.0
 40
0.0
 40
0.0
 40
0.1251829179250734
 40
0.2503028730773531
 40
0.3712219923633225
 40
0.5005239778409131
 40
0.749534333307843
 40
0.8747344041222334
 40
1.0
 40
1.0
 40
1.0
 40
1.0
 10
72.70910924500774
 20
174.0622646496595
 30
0.0
 10
72.69886651596981
 20
174.0609348230331
 30
0.0
 10
72.67838620964015
 20
174.058275838638
 30
0.0
 10
72.64998379939553
 20
174.0308096329996
 30
0.0
 10
72.62449431949429
 20
173.9864665114566
 30
0.0
 10
72.59679681213072
 20
173.9056532429922
 30
0.0
 10
72.57834894347006
 20
173.8013655297251
 30
0.0
 10
72.57016787850598
 20
173.6893354978282
 30
0.0
 10
72.56958888592865
 20
173.6320117118561
 30
0.0
 10
72.569299313904
 20
173.6033423205475
 30
0.0
  0
SPLINE
  5
140
330
1F
100
AcDbEntity
  8
0
  6
Continuous
 62
     7
370
     0
100
AcDbSpline
210
0.0
220
0.0
230
1.0
 70
     8
 71
     3
 72
    14
 73
    10
 74
     0
 42
0.00000001
 43
0.00000001
 12
1.0
 22
0.0
 32
0.0
 13
1.0
 23
0.0
 33
0.0
 40
0.0
 40
0.0
 40
0.0
 40
0.0
 40
0.0717443965839383
 40
0.1434798238951346
 40
0.2509745611906209
 40
0.5002162242785693
 40
0.7491627706355863
 40
0.8745517969464577
 40
1.0
 40
1.0
 40
1.0
 40
1.0
 10
72.569299313904
 20
173.6033423205475
 30
0.0
 10
72.56939379902046
 20
173.5879556808386
 30
0.0
 10
72.56958275744108
 20
173.5571843250131
 30
0.0
 10
72.5720208917265
 20
173.5037971172817
 30
0.0
 10
72.5792152169826
 20
173.4143609302163
 30
0.0
 10
72.60211345919288
 20
173.2991034167191
 30
0.0
 10
72.64144821394771
 20
173.2230470997072
 30
0.0
 10
72.6779426898174
 20
173.1960040271964
 30
0.0
 10
72.69714465586111
 20
173.1939932047346
 30
0.0
 10
72.70674790391715
 20
173.1929875563102
 30
0.0
  0
SPLINE
  5
141
330
1F
100
AcDbEntity
  8
0
  6
Continuous
 62
     7
370
     0
100
AcDbSpline
210
0.0
220
0.0
230
1.0
 70
     8
 71
     3
 72
    13
 73
     9
 74
     0
 42
0.00000001
 43
0.00000001
 12
1.0
 22
0.0
 32
0.0
 13
1.0
 23
0.0
 33
0.0
 40
0.0
 40
0.0
 40
0.0
 40
0.0
 40
0.1254170497574888
 40
0.2507818791335617
 40
0.4998973322105328
 40
0.7490309258202812
 40
0.8744945763186043
 40
0.9999999999999999
 40
0.9999999999999999
 40
0.9999999999999999
 40
0.9999999999999999
 10
72.70674790391715
 20
173.1929875563102
 30
0.0
 10
72.71658155865713
 20
173.1941951635055
 30
0.0
 10
72.73624477366026
 20
173.1966098750802
 30
0.0
 10
72.77482006326755
 20
173.2282225845728
 30
0.0
 10
72.81777686215334
 20
173.3103246299276
 30
0.0
 10
72.84258836152202
 20
173.4344059547527
 30
0.0
 10
72.85110837718062
 20
173.5412277871242
 30
0.0
 10
72.8517936844779
 20
173.5958053130257
 30
0.0
 10
72.8521363951604
 20
173.6230986181236
 30
0.0
  0
LINE
  5
142
330
1F
100
AcDbEntity
  8
0
  6
Continuous
 62
     7
370
     0
100
AcDbLine
 10
72.2832458071
 20
169.613962366
 30
0.0
 11
72.1232167836
 21
169.613962366
 31
0.0
  0
SPLINE
  5
143
330
1F
100
AcDbEntity
  8
0
  6
Continuous
 62
     7
370
     0
100
AcDbSpline
210
0.0
220
0.0
230
1.0
 70
     8
 71
     3
 72
     8
 73
     4
 74
     0
 42
0.00000001
 43
0.00000001
 12
1.0
 22
0.0
 32
0.0
 13
1.0
 23
0.0
 33
0.0
 40
0.0
 40
0.0
 40
0.0
 40
0.0
 40
1.0
 40
1.0
 40
1.0
 40
1.0
 10
72.28324580708356
 20
169.6139623660057
 30
0.0
 10
72.26627833006857
 20
169.7939641883659
 30
0.0
 10
72.24981652241567
 20
169.9739660107261
 30
0.0
 10
72.23386241758715
 20
170.1539678330863
 30
0.0
  0
SPLINE
  5
144
330
1F
100
AcDbEntity
  8
0
  6
Continuous
 62
     7
370
     0
100
AcDbSpline
210
0.0
220
0.0
230
1.0
 70
     8
 71
     3
 72
     8
 73
     4
 74
     0
 42
0.00000001
 43
0.00000001
 12
1.0
 22
0.0
 32
0.0
 13
1.0
 23
0.0
 33
0.0
 40
0.0
 40
0.0
 40
0.0
 40
0.0
 40
1.0
 40
1.0
 40
1.0
 40
1.0
 10
72.23386241758715
 20
170.1539678330863
 30
0.0
 10
72.22178993001586
 20
170.2900667719441
 30
0.0
 10
72.21000814873493
 20
170.4261657108018
 30
0.0
 10
72.1985179070898
 20
170.5622646496595
 30
0.0
  0
SPLINE
  5
145
330
1F
100
AcDbEntity
  8
0
  6
Continuous
 62
     7
370
     0
100
AcDbSpline
210
0.0
220
0.0
230
1.0
 70
     8
 71
     3
 72
    11
 73
     7
 74
     0
 42
0.00000001
 43
0.00000001
 12
1.0
 22
0.0
 32
0.0
 13
1.0
 23
0.0
 33
0.0
 40
0.0
 40
0.0
 40
0.0
 40
0.0
 40
0.2500100509549102
 40
0.4999938043210293
 40
0.7499834612580794
 40
0.9999999999999999
 40
0.9999999999999999
 40
0.9999999999999999
 40
0.9999999999999999
 10
72.1985179070898
 20
170.5622646496595
 30
0.0
 10
72.19670660787585
 20
170.5293834633353
 30
0.0
 10
72.19308419997155
 20
170.4636245493313
 30
0.0
 10
72.18560130622573
 20
170.3676902288363
 30
0.0
 10
72.17720316404143
 20
170.2734446130393
 30
0.0
 10
72.17056448673456
 20
170.2130020211269
 30
0.0
 10
72.16724496962371
 20
170.1827791003848
 30
0.0
  0
SPLINE
  5
146
330
1F
100
AcDbEntity
  8
0
  6
Continuous
 62
     7
370
     0
100
AcDbSpline
210
0.0
220
0.0
230
1.0
 70
     8
 71
     3
 72
     8
 73
     4
 74
     0
 42
0.00000001
 43
0.00000001
 12
1.0
 22
0.0
 32
0.0
 13
1.0
 23
0.0
 33
0.0
 40
0.0
 40
0.0
 40
0.0
 40
0.0
 40
1.0
 40
1.0
 40
1.0
 40
1.0
 10
72.16724496962371
 20
170.1827791003848
 30
0.0
 10
72.15200159429861
 20
169.9931735222584
 30
0.0
 10
72.13732486144525
 20
169.8035679441321
 30
0.0
 10
72.12321678360368
 20
169.6139623660057
 30
0.0
  0
SPLINE
  5
147
330
1F
100
AcDbEntity
  8
0
  6
Continuous
 62
     7
370
     0
100
AcDbSpline
210
0.0
220
0.0
230
1.0
 70
     8
 71
     3
 72
    13
 73
     9
 74
     0
 42
0.00000001
 43
0.00000001
 12
1.0
 22
0.0
 32
0.0
 13
1.0
 23
0.0
 33
0.0
 40
0.0
 40
0.0
 40
0.0
 40
0.0
 40
0.1255328300285028
 40
0.2508979652557298
 40
0.4999230989420503
 40
0.7490329449433442
 40
0.86196760770715
 40
1.0
 40
1.0
 40
1.0
 40
1.0
 10
71.99138151448282
 20
173.7799142301341
 30
0.0
 10
71.99149055252515
 20
173.7593293581937
 30
0.0
 10
71.99170848294983
 20
173.7181871129044
 30
0.0
 10
71.99490358521395
 20
173.6389512394508
 30
0.0
 10
72.0032758205051
 20
173.550464470289
 30
0.0
 10
72.01718892194972
 20
173.5017380552754
 30
0.0
 10
72.0299391124616
 20
173.4850243478375
 30
0.0
 10
72.03671517346407
 20
173.483554826926
 30
0.0
 10
72.04044202083966
 20
173.4827465874266
 30
0.0
  0
SPLINE
  5
148
330
1F
100
AcDbEntity
  8
0
  6
Continuous
 62
     7
370
     0
100
AcDbSpline
210
0.0
220
0.0
230
1.0
 70
     8
 71
     3
 72
    13
 73
     9
 74
     0
 42
0.00000001
 43
0.00000001
 12
1.0
 22
0.0
 32
0.0
 13
1.0
 23
0.0
 33
0.0
 40
0.0
 40
0.0
 40
0.0
 40
0.0
 40
0.1348461971617706
 40
0.250898026667051
 40
0.4999826263433758
 40
0.7492245354826794
 40
0.8745261640659463
 40
1.0
 40
1.0
 40
1.0
 40
1.0
 10
72.04044202083966
 20
173.4827465874266
 30
0.0
 10
72.04402880009441
 20
173.4836123659997
 30
0.0
 10
72.05070244648597
 20
173.4852232541085
 30
0.0
 10
72.06424984148653
 20
173.500527858754
 30
0.0
 10
72.08028565991592
 20
173.5481006393287
 30
0.0
 10
72.09136376167505
 20
173.631554516829
 30
0.0
 10
72.09592648145197
 20
173.7077978740084
 30
0.0
 10
72.09626813716079
 20
173.7476345354989
 30
0.0
 10
72.09643908232258
 20
173.767566544149
 30
0.0
  0
SPLINE
  5
149
330
1F
100
AcDbEntity
  8
0
  6
Continuous
 62
     7
370
     0
100
AcDbSpline
210
0.0
220
0.0
230
1.0
 70
     8
 71
     3
 72
    13
 73
     9
 74
     0
 42
0.00000001
 43
0.00000001
 12
1.0
 22
0.0
 32
0.0
 13
1.0
 23
0.0
 33
0.0
 40
0.0
 40
0.0
 40
0.0
 40
0.0
 40
0.1253940828574065
 40
0.2505988143623943
 40
0.499785671258055
 40
0.699373549946482
 40
0.8196484181912083
 40
0.9999999999999999
 40
0.9999999999999999
 40
0.9999999999999999
 40
0.9999999999999999
 10
72.09643908232258
 20
173.767566544149
 30
0.0
 10
72.0962420179008
 20
173.7878408852573
 30
0.0
 10
72.09584818663444
 20
173.8283589522021
 30
0.0
 10
72.09144943863062
 20
173.9063542872778
 30
0.0
 10
72.08113353469986
 20
173.9849963633624
 30
0.0
 10
72.06677923521337
 20
174.0348036811753
 30
0.0
 10
72.0531275866707
 20
174.0585949866206
 30
0.0
 10
72.04494203203357
 20
174.0608886418381
 30
0.0
 10
72.04003136057894
 20
174.0622646496595
 30
0.0
  0
SPLINE
  5
14A
330
1F
100
AcDbEntity
  8
0
  6
Continuous
 62
     7
370
     0
100
AcDbSpline
210
0.0
220
0.0
230
1.0
 70
     8
 71
     3
 72
    13
 73
     9
 74
     0
 42
0.00000001
 43
0.00000001
 12
1.0
 22
0.0
 32
0.0
 13
1.0
 23
0.0
 33
0.0
 40
0.0
 40
0.0
 40
0.0
 40
0.0
 40
0.1352482518657967
 40
0.2508332115744616
 40
0.5000751427032987
 40
0.749334272271318
 40
0.8745783227168273
 40
1.0
 40
1.0
 40
1.0
 40
1.0
 10
72.04003136057894
 20
174.0622646496595
 30
0.0
 10
72.03651025951166
 20
174.0614147772401
 30
0.0
 10
72.02997997851509
 20
174.0598385925173
 30
0.0
 10
72.01762665783434
 20
174.0443475430327
 30
0.0
 10
72.00419034556165
 20
173.9968436682198
 30
0.0
 10
71.9954752307621
 20
173.915023468564
 30
0.0
 10
71.99184659622799
 20
173.8394618848732
 30
0.0
 10
71.99153661495089
 20
173.7997728232062
 30
0.0
 10
71.99138151448282
 20
173.7799142301341
 30
0.0
  0
SPLINE
  5
14B
330
1F
100
AcDbEntity
  8
0
  6
Continuous
 62
     7
370
     0
100
AcDbSpline
210
0.0
220
0.0
230
1.0
 70
     8
 71
     3
 72
    14
 73
    10
 74
     0
 42
0.00000001
 43
0.00000001
 12
1.0
 22
0.0
 32
0.0
 13
1.0
 23
0.0
 33
0.0
 40
0.0
 40
0.0
 40
0.0
 40
0.0
 40
0.1252576291453301
 40
0.2505080008907354
 40
0.3824154181237455
 40
0.5004813835413636
 40
0.7495169630044469
 40
0.8747601283946332
 40
1.0
 40
1.0
 40
1.0
 40
1.0
 10
71.98043485860502
 20
172.8546609603191
 30
0.0
 10
71.98058169855122
 20
172.8281550277539
 30
0.0
 10
71.98087536993575
 20
172.7751446983715
 30
0.0
 10
71.98372564999994
 20
172.6966758715086
 30
0.0
 10
71.98796393722759
 20
172.6230273298317
 30
0.0
 10
71.99730333267131
 20
172.5391725732905
 30
0.0
 10
72.01130371471572
 20
172.487969182139
 30
0.0
 10
72.0272920724755
 20
172.4594999402129
 30
0.0
 10
72.03601309210464
 20
172.4567793771249
 30
0.0
 10
72.04037354457967
 20
172.4554191134683
 30
0.0
  0
SPLINE
  5
14C
330
1F
100
AcDbEntity
  8
0
  6
Continuous
 62
     7
370
     0
100
AcDbSpline
210
0.0
220
0.0
230
1.0
 70
     8
 71
     3
 72
    14
 73
    10
 74
     0
 42
0.00000001
 43
0.00000001
 12
1.0
 22
0.0
 32
0.0
 13
1.0
 23
0.0
 33
0.0
 40
0.0
 40
0.0
 40
0.0
 40
0.0
 40
0.1252859137506948
 40
0.2505373887745801
 40
0.4991474387674222
 40
0.6243066061091285
 40
0.7494653206727557
 40
0.8747205438389898
 40
0.9999999999999999
 40
0.9999999999999999
 40
0.9999999999999999
 40
0.9999999999999999
 10
72.04037354457967
 20
172.4554191134683
 30
0.0
 10
72.04475384187518
 20
172.4564309098103
 30
0.0
 10
72.05351323240536
 20
172.4584542243706
 30
0.0
 10
72.07135759242675
 20
172.4822812426885
 30
0.0
 10
72.08827008485488
 20
172.5393258402983
 30
0.0
 10
72.1004649804334
 20
172.6217719332718
 30
0.0
 10
72.10730487464198
 20
172.6919584441675
 30
0.0
 10
72.11108184847816
 20
172.7683111539776
 30
0.0
 10
72.11152672931465
 20
172.8203881520496
 30
0.0
 10
72.11174919124845
 20
172.8464291696624
 30
0.0
  0
SPLINE
  5
14D
330
1F
100
AcDbEntity
  8
0
  6
Continuous
 62
     7
370
     0
100
AcDbSpline
210
0.0
220
0.0
230
1.0
 70
     8
 71
     3
 72
    14
 73
    10
 74
     0
 42
0.00000001
 43
0.00000001
 12
1.0
 22
0.0
 32
0.0
 13
1.0
 23
0.0
 33
0.0
 40
0.0
 40
0.0
 40
0.0
 40
0.0
 40
0.1252464831928796
 40
0.2504559153951194
 40
0.4993451042509529
 40
0.6238945041992465
 40
0.7495550692617524
 40
0.874751324428328
 40
0.9999999999999999
 40
0.9999999999999999
 40
0.9999999999999999
 40
0.9999999999999999
 10
72.11174919124845
 20
172.8464291696624
 30
0.0
 10
72.11154235495907
 20
172.8729930485177
 30
0.0
 10
72.11112874356758
 20
172.9261129479796
 30
0.0
 10
72.10583746535642
 20
173.0291595345391
 30
0.0
 10
72.0944915078473
 20
173.1211270856021
 30
0.0
 10
72.07917495954253
 20
173.1888425730646
 30
0.0
 10
72.06606490274567
 20
173.2230761649416
 30
0.0
 10
72.05242645529194
 20
173.2428979794517
 30
0.0
 10
72.04352610262355
 20
173.2447465418524
 30
0.0
 10
72.0390749948269
 20
173.2456710165131
 30
0.0
  0
SPLINE
  5
14E
330
1F
100
AcDbEntity
  8
0
  6
Continuous
 62
     7
370
     0
100
AcDbSpline
210
0.0
220
0.0
230
1.0
 70
     8
 71
     3
 72
    14
 73
    10
 74
     0
 42
0.00000001
 43
0.00000001
 12
1.0
 22
0.0
 32
0.0
 13
1.0
 23
0.0
 33
0.0
 40
0.0
 40
0.0
 40
0.0
 40
0.0
 40
0.1252624412503162
 40
0.2504472294726348
 40
0.3765524147640715
 40
0.5006168833123104
 40
0.7495903114995736
 40
0.8747478307175374
 40
1.0
 40
1.0
 40
1.0
 40
1.0
 10
72.0390749948269
 20
173.2456710165131
 30
0.0
 10
72.0348274609364
 20
173.2447116320944
 30
0.0
 10
72.02633502629791
 20
173.2427934580009
 30
0.0
 10
72.01445121947454
 20
173.2237316207703
 30
0.0
 10
72.00382755430942
 20
173.1896426224304
 30
0.0
 10
71.99222576170295
 20
173.1229962706052
 30
0.0
 10
71.98443647931755
 20
173.0328382517177
 30
0.0
 10
71.98089639537083
 20
172.9323347038641
 30
0.0
 10
71.98058874295586
 20
172.8805587316093
 30
0.0
 10
71.98043485860502
 20
172.8546609603191
 30
0.0
  0
SPLINE
  5
14F
330
1F
100
AcDbEntity
  8
0
  6
Continuous
 62
     7
370
     0
100
AcDbSpline
210
0.0
220
0.0
230
1.0
 70
     8
 71
     3
 72
    14
 73
    10
 74
     0
 42
0.00000001
 43
0.00000001
 12
1.0
 22
0.0
 32
0.0
 13
1.0
 23
0.0
 33
0.0
 40
0.0
 40
0.0
 40
0.0
 40
0.0
 40
0.2504465544088831
 40
0.5006271577129494
 40
0.6256173980224415
 40
0.7503619177354667
 40
0.8749139347613037
 40
0.9374334541801482
 40
1.0
 40
1.0
 40
1.0
 40
1.0
 10
71.86423872651615
 20
173.2588418815639
 30
0.0
 10
71.86425394532135
 20
173.1753806396528
 30
0.0
 10
71.8642843667708
 20
173.0085467839594
 30
0.0
 10
71.86461010290027
 20
172.8011472809114
 30
0.0
 10
71.86544240558769
 20
172.6412862402509
 30
0.0
 10
71.86706836163225
 20
172.5426558562056
 30
0.0
 10
71.86951542513357
 20
172.4826064884963
 30
0.0
 10
71.87231952634265
 20
172.4585043855533
 30
0.0
 10
71.87403374225151
 20
172.4564477952233
 30
0.0
 10
71.8748911724377
 20
172.4554191134683
 30
0.0
  0
SPLINE
  5
150
330
1F
100
AcDbEntity
  8
0
  6
Continuous
 62
     7
370
     0
100
AcDbSpline
210
0.0
220
0.0
230
1.0
 70
     8
 71
     3
 72
    14
 73
    10
 74
     0
 42
0.00000001
 43
0.00000001
 12
1.0
 22
0.0
 32
0.0
 13
1.0
 23
0.0
 33
0.0
 40
0.0
 40
0.0
 40
0.0
 40
0.0
 40
0.0625718350622613
 40
0.1250837859443814
 40
0.2496290621893405
 40
0.3743665145366781
 40
0.4993488336595933
 40
0.7495426014132971
 40
1.0
 40
1.0
 40
1.0
 40
1.0
 10
71.8748911724377
 20
172.4554191134683
 30
0.0
 10
71.87580940747038
 20
172.4563818427411
 30
0.0
 10
71.87764499874181
 20
172.4583063799095
 30
0.0
 10
71.88166746562932
 20
172.4833859391801
 30
0.0
 10
71.88667246651873
 20
172.5423427544921
 30
0.0
 10
71.89179841768897
 20
172.641694622565
 30
0.0
 10
71.89553900358325
 20
172.8011454237403
 30
0.0
 10
71.89752854425532
 20
173.0086395229735
 30
0.0
 10
71.89772600379948
 20
173.1754118226098
 30
0.0
 10
71.89782478556029
 20
173.2588418815639
 30
0.0
  0
SPLINE
  5
151
330
1F
100
AcDbEntity
  8
0
  6
Continuous
 62
     7
370
     0
100
AcDbSpline
210
0.0
220
0.0
230
1.0
 70
     8
 71
     3
 72
    15
 73
    11
 74
     0
 42
0.00000001
 43
0.00000001
 12
1.0
 22
0.0
 32
0.0
 13
1.0
 23
0.0
 33
0.0
 40
0.0
 40
0.0
 40
0.0
 40
0.0
 40
0.1252519376079559
 40
0.2504961104472863
 40
0.5006645979650193
 40
0.6256249858635095
 40
0.7503965025560818
 40
0.8749083495139751
 40
0.9374337014579476
 40
1.0
 40
1.0
 40
1.0
 40
1.0
 10
71.89782478556029
 20
173.2588418815639
 30
0.0
 10
71.89780379311915
 20
173.3006940507864
 30
0.0
 10
71.89776180953828
 20
173.3843957946815
 30
0.0
 10
71.89703907051589
 20
173.5513269879431
 30
0.0
 10
71.89552776664584
 20
173.7180227470732
 30
0.0
 10
71.89167928775149
 20
173.8773265557947
 30
0.0
 10
71.8866131287392
 20
173.9776010029265
 30
0.0
 10
71.88156003807451
 20
174.0364252499503
 30
0.0
 10
71.87751460551344
 20
174.0594707495225
 30
0.0
 10
71.87568442154401
 20
174.061333146406
 30
0.0
 10
71.87476903001968
 20
174.0622646496595
 30
0.0
  0
SPLINE
  5
152
330
1F
100
AcDbEntity
  8
0
  6
Continuous
 62
     7
370
     0
100
AcDbSpline
210
0.0
220
0.0
230
1.0
 70
     8
 71
     3
 72
    11
 73
     7
 74
     0
 42
0.00000001
 43
0.00000001
 12
1.0
 22
0.0
 32
0.0
 13
1.0
 23
0.0
 33
0.0
 40
0.0
 40
0.0
 40
0.0
 40
0.0
 40
0.2499762991228552
 40
0.4998291777062594
 40
0.749812157367715
 40
1.0
 40
1.0
 40
1.0
 40
1.0
 10
71.87476903001968
 20
174.0622646496595
 30
0.0
 10
71.87369008529595
 20
174.0607873832434
 30
0.0
 10
71.87153272855473
 20
174.0578335797804
 30
0.0
 10
71.86908208463609
 20
174.0289033620238
 30
0.0
 10
71.86726408942353
 20
173.983192100057
 30
0.0
 10
71.86652322249049
 20
173.9420703339388
 30
0.0
 10
71.8661526372996
 20
173.9215010294297
 30
0.0
  0
SPLINE
  5
153
330
1F
100
AcDbEntity
  8
0
  6
Continuous
 62
     7
370
     0
100
AcDbSpline
210
0.0
220
0.0
230
1.0
 70
     8
 71
     3
 72
    12
 73
     8
 74
     0
 42
0.00000001
 43
0.00000001
 12
1.0
 22
0.0
 32
0.0
 13
1.0
 23
0.0
 33
0.0
 40
0.0
 40
0.0
 40
0.0
 40
0.0
 40
0.1249202996239197
 40
0.2499253403448363
 40
0.4998213365461301
 40
0.7498857599247302
 40
1.0
 40
1.0
 40
1.0
 40
1.0
 10
71.8661526372996
 20
173.9215010294297
 30
0.0
 10
71.86587614638837
 20
173.8968021005849
 30
0.0
 10
71.86532297700516
 20
173.847387488098
 30
0.0
 10
71.86478897459956
 20
173.7385692359238
 30
0.0
 10
71.86443030385253
 20
173.5989685140269
 30
0.0
 10
71.86426353283319
 20
173.429110070415
 30
0.0
 10
71.86424699583752
 20
173.3156017129087
 30
0.0
 10
71.86423872651615
 20
173.2588418815639
 30
0.0
  0
LINE
  5
154
330
1F
100
AcDbEntity
  8
0
  6
Continuous
 62
     8
370
     0
100
AcDbLine
 10
71.8634145155
 20
168.7446852727
 30
0.0
 11
71.8634848613
 21
168.7572390262
 31
0.0
  0
SPLINE
  5
155
330
1F
100
AcDbEntity
  8
0
  6
Continuous
 62
     8
370
     0
100
AcDbSpline
210
0.0
220
0.0
230
1.0
 70
     8
 71
     3
 72
    14
 73
    10
 74
     0
 42
0.00000001
 43
0.00000001
 12
1.0
 22
0.0
 32
0.0
 13
1.0
 23
0.0
 33
0.0
 40
0.0
 40
0.0
 40
0.0
 40
0.0
 40
0.1718011085691169
 40
0.3217016387127697
 40
0.4779768379285787
 40
0.7178261309111198
 40
0.8364058495986899
 40
0.9557879053245675
 40
1.0
 40
1.0
 40
1.0
 40
1.0
 10
71.86456653850487
 20
170.2453407093759
 30
0.0
 10
71.8645548305071
 20
170.2196202235321
 30
0.0
 10
71.86453290700443
 20
170.171458005527
 30
0.0
 10
71.86436600839109
 20
170.1008372782708
 30
0.0
 10
71.86407942558137
 20
170.0227647761538
 30
0.0
 10
71.8637372928495
 20
169.9537379209477
 30
0.0
 10
71.86351199250088
 20
169.8968177532696
 30
0.0
 10
71.86340481446776
 20
169.8648246240174
 30
0.0
 10
71.86342767944659
 20
169.8494708616283
 30
0.0
 10
71.86343385881551
 20
169.8453214345571
 30
0.0
  0
SPLINE
  5
156
330
1F
100
AcDbEntity
  8
0
  6
Continuous
 62
     8
370
     0
100
AcDbSpline
210
0.0
220
0.0
230
1.0
 70
     8
 71
     3
 72
    13
 73
     9
 74
     0
 42
0.00000001
 43
0.00000001
 12
1.0
 22
0.0
 32
0.0
 13
1.0
 23
0.0
 33
0.0
 40
0.0
 40
0.0
 40
0.0
 40
0.0
 40
0.1779900458639241
 40
0.4517210340583238
 40
0.5864338782120374
 40
0.7258551770164673
 40
0.8628927760156411
 40
1.0
 40
1.0
 40
1.0
 40
1.0
 10
71.86348216444098
 20
170.6603570000556
 30
0.0
 10
71.86348604181728
 20
170.6415209529273
 30
0.0
 10
71.86349588221267
 20
170.5937169386912
 30
0.0
 10
71.86391711416007
 20
170.5122103471152
 30
0.0
 10
71.86422495543043
 20
170.4334620050914
 30
0.0
 10
71.86442088280198
 20
170.3719374867215
 30
0.0
 10
71.86454094223636
 20
170.308728019148
 30
0.0
 10
71.86455800497089
 20
170.2664733897912
 30
0.0
 10
71.86456653850487
 20
170.2453407093759
 30
0.0
  0
SPLINE
  5
157
330
1F
100
AcDbEntity
  8
0
  6
Continuous
 62
     8
370
     0
100
AcDbSpline
210
0.0
220
0.0
230
1.0
 70
     8
 71
     3
 72
    14
 73
    10
 74
     0
 42
0.00000001
 43
0.00000001
 12
1.0
 22
0.0
 32
0.0
 13
1.0
 23
0.0
 33
0.0
 40
0.0
 40
0.0
 40
0.0
 40
0.0
 40
0.2446412281473643
 40
0.3680495338519389
 40
0.4876545342893661
 40
0.6157169199798946
 40
0.7437733451459018
 40
0.8718697229331255
 40
1.0
 40
1.0
 40
1.0
 40
1.0
 10
71.86344098694124
 20
173.9564410770548
 30
0.0
 10
71.86345788976557
 20
174.0059865635842
 30
0.0
 10
71.86348331915319
 20
174.0805250759997
 30
0.0
 10
71.86414956150533
 20
174.1613349154758
 30
0.0
 10
71.86505289298445
 20
174.2129669247681
 30
0.0
 10
71.86648715190198
 20
174.2540809243266
 30
0.0
 10
71.8686202945227
 20
174.2806304437806
 30
0.0
 10
71.87135436128221
 20
174.2971755445888
 30
0.0
 10
71.87371213140669
 20
174.298618598272
 30
0.0
 10
71.8748911724377
 20
174.299340220573
 30
0.0
  0
SPLINE
  5
158
330
1F
100
AcDbEntity
  8
0
  6
Continuous
 62
     8
370
     0
100
AcDbSpline
210
0.0
220
0.0
230
1.0
 70
     8
 71
     3
 72
    10
 73
     6
 74
     0
 42
0.00000001
 43
0.00000001
 12
1.0
 22
0.0
 32
0.0
 13
1.0
 23
0.0
 33
0.0
 40
0.0
 40
0.0
 40
0.0
 40
0.0
 40
0.4952611003003654
 40
0.8851218243124036
 40
1.0
 40
1.0
 40
1.0
 40
1.0
 10
71.86367119134042
 20
172.4163181078489
 30
0.0
 10
71.86359206101233
 20
172.4384517266271
 30
0.0
 10
71.86345064069825
 20
172.4780085361964
 30
0.0
 10
71.86340815383376
 20
172.5255745597659
 30
0.0
 10
71.86341686416966
 20
172.550773123189
 30
0.0
 10
71.86341884663524
 20
172.5565082963601
 30
0.0
  0
LINE
  5
159
330
1F
100
AcDbEntity
  8
0
  6
HIDDEN
 62
     7
370
     0
100
AcDbLine
 10
88.1956123546
 20
168.5946852727
 30
0.0
 11
90.4562123546
 21
168.5946852727
 31
0.0
  0
LINE
  5
15A
330
1F
100
AcDbEntity
  8
0
  6
HIDDEN
 62
     7
370
     0
100
AcDbLine
 10
88.1956123546
 20
162.2446852727
 30
0.0
 11
90.4562123546
 21
162.2446852727
 31
0.0
  0
LINE
  5
15B
330
1F
100
AcDbEntity
  8
0
  6
HIDDEN
 62
     7
370
     0
100
AcDbLine
 10
78.2134123546
 20
162.8796852727
 30
0.0
 11
90.9134123546
 21
162.8796852727
 31
0.0
  0
LINE
  5
15C
330
1F
100
AcDbEntity
  8
0
  6
HIDDEN
 62
     7
370
     0
100
AcDbLine
 10
78.2140047082
 20
162.2446852727
 30
0.0
 11
90.912820001
 21
162.2446852727
 31
0.0
  0
LINE
  5
15D
330
1F
100
AcDbEntity
  8
0
  6
HIDDEN
 62
     7
370
     0
100
AcDbLine
 10
92.4945623546
 20
165.4196852727
 30
0.0
 11
95.6822623546
 21
165.4196852727
 31
0.0
  0
LINE
  5
15E
330
1F
100
AcDbEntity
  8
0
  6
HIDDEN
 62
     7
370
     0
100
AcDbLine
 10
92.4951675283
 20
162.2446852727
 30
0.0
 11
95.681657181
 21
162.2446852727
 31
0.0
  0
LINE
  5
15F
330
1F
100
AcDbEntity
  8
0
  6
HIDDEN
 62
     7
370
     0
100
AcDbLine
 10
82.9695623546
 20
165.4196852727
 30
0.0
 11
86.1572623546
 21
165.4196852727
 31
0.0
  0
LINE
  5
160
330
1F
100
AcDbEntity
  8
0
  6
HIDDEN
 62
     7
370
     0
100
AcDbLine
 10
82.9701675283
 20
162.8796852727
 30
0.0
 11
86.156657181
 21
162.8796852727
 31
0.0
  0
LINE
  5
161
330
1F
100
AcDbEntity
  8
0
  6
HIDDEN
 62
     7
370
     0
100
AcDbLine
 10
73.9081123546
 20
168.5946852727
 30
0.0
 11
76.1687123546
 21
168.5946852727
 31
0.0
  0
LINE
  5
162
330
1F
100
AcDbEntity
  8
0
  6
HIDDEN
 62
     7
370
     0
100
AcDbLine
 10
73.9081123546
 20
162.2446852727
 30
0.0
 11
76.1687123546
 21
162.2446852727
 31
0.0
  0
LINE
  5
163
330
1F
100
AcDbEntity
  8
0
  6
HIDDEN
 62
     7
370
     0
100
AcDbLine
 10
88.1956123546
 20
168.5946852727
 30
0.0
 11
90.4562123546
 21
168.5946852727
 31
0.0
  0
LINE
  5
164
330
1F
100
AcDbEntity
  8
0
  6
HIDDEN
 62
     7
370
     0
100
AcDbLine
 10
88.1956123546
 20
162.2446852727
 30
0.0
 11
90.4562123546
 21
162.2446852727
 31
0.0
  0
LINE
  5
165
330
1F
100
AcDbEntity
  8
0
  6
HIDDEN
 62
     7
370
     0
100
AcDbLine
 10
90.4562123546
 20
168.5946852727
 30
0.0
 11
89.3259123546
 21
169.2738380303
 31
0.0
  0
LINE
  5
166
330
1F
100
AcDbEntity
  8
0
  6
HIDDEN
 62
     7
370
     0
100
AcDbLine
 10
89.3259123546
 20
169.2738380303
 30
0.0
 11
88.1956123546
 21
168.5946852727
 31
0.0
  0
LINE
  5
167
330
1F
100
AcDbEntity
  8
0
  6
HIDDEN
 62
     7
370
     0
100
AcDbLine
 10
90.4562123546
 20
162.2446852727
 30
0.0
 11
90.4562123546
 21
168.5946852727
 31
0.0
  0
LINE
  5
168
330
1F
100
AcDbEntity
  8
0
  6
HIDDEN
 62
     7
370
     0
100
AcDbLine
 10
88.1956123546
 20
168.5946852727
 30
0.0
 11
88.1956123546
 21
162.2446852727
 31
0.0
  0
LINE
  5
169
330
1F
100
AcDbEntity
  8
0
  6
HIDDEN
 62
     7
370
     0
100
AcDbLine
 10
90.9134123546
 20
162.2446852727
 30
0.0
 11
90.9134123546
 21
162.8796852727
 31
0.0
  0
LINE
  5
16A
330
1F
100
AcDbEntity
  8
0
  6
HIDDEN
 62
     7
370
     0
100
AcDbLine
 10
78.2134123546
 20
162.8796852727
 30
0.0
 11
78.2134123546
 21
162.2446852727
 31
0.0
  0
LINE
  5
16B
330
1F
100
AcDbEntity
  8
0
  6
HIDDEN
 62
     7
370
     0
100
AcDbLine
 10
95.6822623546
 20
162.2446852727
 30
0.0
 11
95.6822623546
 21
165.4196852727
 31
0.0
  0
LINE
  5
16C
330
1F
100
AcDbEntity
  8
0
  6
HIDDEN
 62
     7
370
     0
100
AcDbLine
 10
92.4945623546
 20
165.4196852727
 30
0.0
 11
92.4945623546
 21
162.2446852727
 31
0.0
  0
LINE
  5
16D
330
1F
100
AcDbEntity
  8
0
  6
HIDDEN
 62
     7
370
     0
100
AcDbLine
 10
86.1572623546
 20
162.8796852727
 30
0.0
 11
86.1572623546
 21
165.4196852727
 31
0.0
  0
LINE
  5
16E
330
1F
100
AcDbEntity
  8
0
  6
HIDDEN
 62
     7
370
     0
100
AcDbLine
 10
82.9695623546
 20
165.4196852727
 30
0.0
 11
82.9695623546
 21
162.8796852727
 31
0.0
  0
LINE
  5
16F
330
1F
100
AcDbEntity
  8
0
  6
HIDDEN
 62
     7
370
     0
100
AcDbLine
 10
76.1687123546
 20
162.2446852727
 30
0.0
 11
76.1687123546
 21
168.5946852727
 31
0.0
  0
LINE
  5
170
330
1F
100
AcDbEntity
  8
0
  6
HIDDEN
 62
     7
370
     0
100
AcDbLine
 10
73.9081123546
 20
168.5946852727
 30
0.0
 11
73.9081123546
 21
162.2446852727
 31
0.0
  0
LINE
  5
171
330
1F
100
AcDbEntity
  8
0
  6
HIDDEN
 62
     7
370
     0
100
AcDbLine
 10
76.1687123546
 20
168.5946852727
 30
0.0
 11
75.0384123546
 21
169.2738380303
 31
0.0
  0
LINE
  5
172
330
1F
100
AcDbEntity
  8
0
  6
HIDDEN
 62
     7
370
     0
100
AcDbLine
 10
75.0384123546
 20
169.2738380303
 30
0.0
 11
73.9081123546
 21
168.5946852727
 31
0.0
  0
LINE
  5
173
330
1F
100
AcDbEntity
  8
0
  6
HIDDEN
 62
     7
370
     0
100
AcDbLine
 10
90.4562123546
 20
162.2446852727
 30
0.0
 11
90.4562123546
 21
168.5946852727
 31
0.0
  0
LINE
  5
174
330
1F
100
AcDbEntity
  8
0
  6
HIDDEN
 62
     7
370
     0
100
AcDbLine
 10
88.1956123546
 20
168.5946852727
 30
0.0
 11
88.1956123546
 21
162.2446852727
 31
0.0
  0
LINE
  5
175
330
1F
100
AcDbEntity
  8
0
  6
HIDDEN
 62
     7
370
     0
100
AcDbLine
 10
90.4562123546
 20
168.5946852727
 30
0.0
 11
89.3259123546
 21
169.2738380303
 31
0.0
  0
LINE
  5
176
330
1F
100
AcDbEntity
  8
0
  6
HIDDEN
 62
     7
370
     0
100
AcDbLine
 10
89.3259123546
 20
169.2738380303
 30
0.0
 11
88.1956123546
 21
168.5946852727
 31
0.0
  0
DIMENSION
  5
177
330
1F
100
AcDbEntity
  8
0
  6
Continuous
 62
     7
370
     0
100
AcDbDimension
  2
_D
 10
186.1634123546
 20
203.4786350119
 30
0.0
 11
132.1903524986
 21
203.4786350119
 31
0.0
 70
   160
  1
<>\PREFLECTED FOCAL LENGTH
 71
     2
 42
-1.0
  3
SLDDIMSTYLE0
100
AcDbAlignedDimension
 13
84.5634123546
 23
198.9346852727
 33
0.0
 14
186.1634123546
 24
198.9346852727
 34
0.0
100
AcDbRotatedDimension
  0
DIMENSION
  5
18B
330
1F
100
AcDbEntity
  8
0
  6
Continuous
 62
     7
370
     0
100
AcDbDimension
  2
_D_1
 10
55.7106527541
 20
162.2446852727
 30
0.0
 11
55.7106527541
 21
178.0601405616
 31
0.0
 70
   160
  1
<>
 71
     2
 42
-1.0
  3
SLDDIMSTYLE0
100
AcDbAlignedDimension
 13
71.8634123546
 23
193.9984352727
 33
0.0
 14
71.8634123546
 24
162.2446852727
 34
0.0
 50
90.0
100
AcDbRotatedDimension
  0
DIMENSION
  5
19D
330
1F
100
AcDbEntity
  8
0
  6
Continuous
 62
     7
370
     0
100
AcDbDimension
  2
_D_2
 10
207.8486703878
 20
180.5046852727
 30
0.0
 11
207.8486703878
 21
155.1325377137
 31
0.0
 70
   160
  1
<>\PFOCAL LENGTH OF \PPARENT PARABOLA
 71
     2
 42
-1.0
  3
SLDDIMSTYLE0
100
AcDbAlignedDimension
 13
186.1634123546
 23
129.7046852727
 33
0.0
 14
186.1634123546
 24
180.5046852727
 34
0.0
 50
90.0
100
AcDbRotatedDimension
  0
DIMENSION
  5
1B1
330
1F
100
AcDbEntity
  8
0
  6
Continuous
 62
     7
370
     0
100
AcDbDimension
  2
_D_3
 10
99.8363039549
 20
168.5984352727
 30
0.0
 11
99.8363039549
 21
178.0601405616
 31
0.0
 70
   160
  1
<>
 71
     2
 42
-1.0
  3
SLDDIMSTYLE1
100
AcDbAlignedDimension
 13
97.2634123546
 23
162.2446852727
 33
0.0
 14
97.2634123546
 24
168.5984352727
 34
0.0
 50
90.0
100
AcDbRotatedDimension
  0
DIMENSION
  5
1C5
330
1F
100
AcDbEntity
  8
0
  6
Continuous
 62
     7
370
     0
100
AcDbDimension
  2
_D_4
 10
90.9134123546
 20
152.2446852727
 30
0.0
 11
61.8634122856
 21
152.2446852727
 31
0.0
 70
   160
  1
%%c<>
 71
     2
 42
-1.0
  3
SLDDIMSTYLE1
100
AcDbAlignedDimension
 13
78.2134123546
 23
162.2446852727
 33
0.0
 14
90.9134123546
 24
162.2446852727
 34
0.0
100
AcDbRotatedDimension
  0
DIMENSION
  5
1D8
330
1F
100
AcDbEntity
  8
0
  6
Continuous
 62
     7
370
     0
100
AcDbDimension
  2
_D_5
 10
43.7107234427
 20
162.2446852727
 30
0.0
 11
43.7107234427
 21
170.5086109557
 31
0.0
 70
   160
  1
<> REF
 71
     2
 42
-1.0
  3
SLDDIMSTYLE1
100
AcDbAlignedDimension
 13
78.2134123546
 23
162.8796852727
 33
0.0
 14
78.2134123546
 24
162.2446852727
 34
0.0
 50
90.0
100
AcDbRotatedDimension
  0
DIMENSION
  5
1EC
330
1F
100
AcDbEntity
  8
0
  6
Continuous
 62
     7
370
     0
100
AcDbDimension
  2
_D_6
 10
145.5159786633
 20
180.5046852727
 30
0.0
 11
145.5159786633
 21
172.4261261608
 31
0.0
 70
   160
  1
<>
 71
     2
 42
-1.0
  3
SLDDIMSTYLE1
100
AcDbAlignedDimension
 13
97.2634123546
 23
162.2446852727
 33
0.0
 14
186.1634123546
 24
180.5046852727
 34
0.0
 50
90.0
100
AcDbRotatedDimension
  0
MTEXT
  5
200
330
1F
100
AcDbEntity
  8
0
  6
Continuous
 62
     7
370
     0
100
AcDbMText
 10
29.1033092354
 20
200.0884473095
 30
0.0
 40
2.1166666667
 41
0.0
 71
     1
 72
     1
  1
MIRROR MECHANICAL AXIS
  7
SLDTEXTSTYLE0
 73
     1
 44
1.0
  0
LEADER
  5
202
330
1F
100
AcDbEntity
  8
0
  6
Continuous
 62
     7
370
     0
100
AcDbLeader
  3
SLDDIMSTYLE2
 76
     3
 10
84.5634123546
 20
194.9473785904
 30
0.0
 10
72.9526837806
 20
198.9498249708
 30
0.0
 10
66.6026837806
 20
198.9498249708
 30
0.0
  0
MTEXT
  5
203
330
1F
100
AcDbEntity
  8
0
  6
Continuous
 62
     7
370
     0
100
AcDbMText
 10
151.9295689144
 20
156.6722101801
 30
0.0
 40
2.1166666667
 41
0.0
 71
     1
 72
     1
  1
OPTICAL AXIS
  7
SLDTEXTSTYLE0
 73
     1
 44
1.0
  0
LEADER
  5
204
330
1F
100
AcDbEntity
  8
0
  6
Continuous
 62
     7
370
     0
100
AcDbLeader
  3
SLDDIMSTYLE2
 76
     3
 10
186.1634123546
 20
160.1711021017
 30
0.0
 10
177.036697783
 20
155.5425904317
 30
0.0
 10
170.686697783
 20
155.5425904317
 30
0.0
  0
CIRCLE
  5
205
330
1F
100
AcDbEntity
  8
0
  6
Continuous
 62
     7
370
     0
100
AcDbCircle
 10
84.5634123546
 20
98.8783685744
 30
0.0
 40
6.350000000000009
  0
CIRCLE
  5
206
330
1F
100
AcDbEntity
  8
0
  6
Continuous
 62
     7
370
     0
100
AcDbCircle
 10
75.0384123546
 20
98.8783685744
 30
0.0
 40
1.130300000000005
  0
CIRCLE
  5
207
330
1F
100
AcDbEntity
  8
0
  6
Continuous
 62
     7
370
     0
100
AcDbCircle
 10
89.3259123546
 20
107.1272605454
 30
0.0
 40
1.130300000000005
  0
CIRCLE
  5
208
330
1F
100
AcDbEntity
  8
0
  6
Continuous
 62
     7
370
     0
100
AcDbCircle
 10
89.3259123546
 20
90.6294766033
 30
0.0
 40
1.130300000000005
  0
CIRCLE
  5
209
330
1F
100
AcDbEntity
  8
0
  6
Continuous
 62
     7
370
     0
100
AcDbCircle
 10
84.5634123546
 20
98.8783685744
 30
0.0
 40
12.7
  0
CIRCLE
  5
20A
330
1F
100
AcDbEntity
  8
0
  6
Continuous
 62
     7
370
     0
100
AcDbCircle
 10
94.0884123546
 20
98.8783685744
 30
0.0
 40
1.593850000000003
  0
CIRCLE
  5
20B
330
1F
100
AcDbEntity
  8
0
  6
Continuous
 62
     7
370
     0
100
AcDbCircle
 10
84.5634123546
 20
98.8783685744
 30
0.0
 40
1.593850000000003
  0
LINE
  5
20C
330
1F
100
AcDbEntity
  8
0
  6
CENTERX2
 62
     7
370
     0
100
AcDbLine
 10
84.5634123546
 20
98.8783685744
 30
0.0
 11
86.5477873546
 21
102.3154068956
 31
0.0
  0
LINE
  5
20D
330
1F
100
AcDbEntity
  8
0
  6
CENTERX2
 62
     7
370
     0
100
AcDbLine
 10
84.5634123546
 20
98.8783685744
 30
0.0
 11
80.5946623546
 21
98.8783685744
 31
0.0
  0
CIRCLE
  5
20E
330
1F
100
AcDbEntity
  8
0
  6
CENTERX2
 62
     7
370
     0
100
AcDbCircle
 10
84.5634123546
 20
98.8783685744
 30
0.0
 40
9.524999999999995
  0
DIMENSION
  5
20F
330
1F
100
AcDbEntity
  8
0
  6
Continuous
 62
     7
370
     0
100
AcDbDimension
  2
_D_7
 10
84.5634123546
 20
98.8783685744
 30
0.0
 11
72.1502774742
 21
116.2257956183
 31
0.0
 70
   162
  1
<>\PTYP.
 71
     1
 42
-1.0
  3
SLDDIMSTYLE3
100
AcDb2LineAngularDimension
 13
86.5477873546
 23
102.3154068956
 33
0.0
 14
84.5634123546
 24
98.8783685744
 34
0.0
 15
80.5946623546
 25
98.8783685744
 35
0.0
 16
86.0916370599
 26
120.154732734
 36
0.0
  0
DIMENSION
  5
21C
330
1F
100
AcDbEntity
  8
0
  6
Continuous
 62
     7
370
     0
100
AcDbDimension
  2
_D_8
 10
72.297097461
 20
102.1688881277
 30
0.0
 11
119.5798364856
 21
92.7820736631
 31
0.0
 70
   163
  1
<>
 71
     1
 42
-1.0
  3
SLDDIMSTYLE4
100
AcDbDiametricDimension
 15
96.8297272482
 25
95.5878490211
 35
0.0
 40
0.0
  0
DIMENSION
  5
22D
330
1F
100
AcDbEntity
  8
0
  6
Continuous
 62
     7
370
     0
100
AcDbDimension
  2
_D_9
 10
94.0884123546
 20
77.2361770555
 30
0.0
 11
110.0628029852
 21
77.2361770555
 31
0.0
 70
   160
  1
<>
 71
     2
 42
-1.0
  3
SLDDIMSTYLE1
100
AcDbAlignedDimension
 13
84.5634123546
 23
97.6083685744
 33
0.0
 14
94.0884123546
 24
97.6083685744
 34
0.0
100
AcDbRotatedDimension
  0
DIMENSION
  5
23F
330
1F
100
AcDbEntity
  8
0
  6
Continuous
 62
     7
370
     0
100
AcDbDimension
  2
_D_10
 10
75.6031469699
 20
99.8574767932
 30
0.0
 11
41.3355558588
 21
90.0340968756
 31
0.0
 70
   163
  1
4-40 TAPPED HOLES\PLOCATED ON A %%c19.1mm [0.75in]
 71
     1
 42
-1.0
  3
SLDDIMSTYLE4
100
AcDbDiametricDimension
 15
74.4736777393
 25
97.8992603555
 35
0.0
 40
0.0
  0
DIMENSION
  5
24A
330
1F
100
AcDbEntity
  8
0
  6
Continuous
 62
     7
370
     0
100
AcDbDimension
  2
_D_11
 10
93.2916712526
 20
97.4979478273
 30
0.0
 11
119.5798364856
 21
113.8434163569
 31
0.0
 70
   163
  1
%%c3.2mm [0.13in]\P{\fGDT;x}3.2mm [0.13in]\P2 PLACES
 71
     1
 42
-1.0
  3
SLDDIMSTYLE5
100
AcDbDiametricDimension
 15
94.8851534566
 25
100.2587893214
 35
0.0
 40
0.0
  0
INSERT
  5
265
330
1F
100
AcDbEntity
  8
0
  6
Continuous
 62
     7
370
     0
100
AcDbBlockReference
  2
SW_CENTERMARKSYMBOL_0
 10
84.5634123546
 20
98.8783685744
 30
0.0
  0
INSERT
  5
26D
330
1F
100
AcDbEntity
  8
0
  6
Continuous
 62
     7
370
     0
100
AcDbBlockReference
  2
SW_CENTERMARKSYMBOL_1
 10
94.0884123546
 20
98.8783685744
 30
0.0
  0
LINE
  5
26E
330
1F
100
AcDbEntity
  8
0
  6
Continuous
 62
     7
370
     0
100
AcDbLine
 10
193.2127874227
 20
108.6460435987
 30
0.0
 11
174.1590726563
 21
108.6460435987
 31
0.0
  0
LINE
  5
26F
330
1F
100
AcDbEntity
  8
0
  6
Continuous
 62
     7
370
     0
100
AcDbLine
 10
174.1590921715
 20
83.2460435987
 30
0.0
 11
193.2127874227
 21
83.2460435987
 31
0.0
  0
SPLINE
  5
270
330
1F
100
AcDbEntity
  8
0
  6
Continuous
 62
     7
370
     0
100
AcDbSpline
210
0.0
220
0.0
230
1.0
 70
     8
 71
     3
 72
   110
 73
   106
 74
     0
 42
0.00000001
 43
0.00000001
 12
1.0
 22
0.0
 32
0.0
 13
1.0
 23
0.0
 33
0.0
 40
-0.0312500000000001
 40
-0.0312500000000001
 40
0.0
 40
0.0
 40
0.03125
 40
0.03125
 40
0.0390625
 40
0.0390625
 40
0.046875
 40
0.046875
 40
0.0625
 40
0.0625
 40
0.078125
 40
0.078125
 40
0.09375
 40
0.09375
 40
0.109375
 40
0.109375
 40
0.1250000000000001
 40
0.1250000000000001
 40
0.1562500000000001
 40
0.1562500000000001
 40
0.1875000000000001
 40
0.1875000000000001
 40
0.2187500000000001
 40
0.2187500000000001
 40
0.2500000000000002
 40
0.2500000000000002
 40
0.2656250000000002
 40
0.2656250000000002
 40
0.2812500000000002
 40
0.2812500000000002
 40
0.3125000000000003
 40
0.3125000000000003
 40
0.3437500000000004
 40
0.3437500000000004
 40
0.3593750000000004
 40
0.3593750000000004
 40
0.3750000000000005
 40
0.3750000000000005
 40
0.4062500000000004
 40
0.4062500000000004
 40
0.4218750000000004
 40
0.4218750000000004
 40
0.4375000000000004
 40
0.4375000000000004
 40
0.4531250000000004
 40
0.4531250000000004
 40
0.4687500000000004
 40
0.4687500000000004
 40
0.4843750000000004
 40
0.4843750000000004
 40
0.4921875000000004
 40
0.4921875000000004
 40
0.5000000000000003
 40
0.5000000000000003
 40
0.5156250000000003
 40
0.5156250000000003
 40
0.5234375000000003
 40
0.5234375000000003
 40
0.5312500000000003
 40
0.5312500000000003
 40
0.5468750000000003
 40
0.5468750000000003
 40
0.5546875000000003
 40
0.5546875000000003
 40
0.5625000000000002
 40
0.5625000000000002
 40
0.5937500000000002
 40
0.5937500000000002
 40
0.6250000000000002
 40
0.6250000000000002
 40
0.6406250000000002
 40
0.6406250000000002
 40
0.6562500000000002
 40
0.6562500000000002
 40
0.6875000000000001
 40
0.6875000000000001
 40
0.7187500000000001
 40
0.7187500000000001
 40
0.7343750000000001
 40
0.7343750000000001
 40
0.7500000000000001
 40
0.7500000000000001
 40
0.7812500000000001
 40
0.7812500000000001
 40
0.8125
 40
0.8125
 40
0.84375
 40
0.84375
 40
0.875
 40
0.875
 40
0.890625
 40
0.890625
 40
0.90625
 40
0.90625
 40
0.921875
 40
0.921875
 40
0.9374999999999999
 40
0.9374999999999999
 40
0.9531249999999999
 40
0.9531249999999999
 40
0.9609374999999999
 40
0.9609374999999999
 40
0.9687499999999999
 40
0.9687499999999999
 40
1.0
 40
1.0
 40
1.03125
 40
1.03125
 10
161.4590373450868
 20
96.9714821435623
 30
0.0
 10
161.4590373450868
 20
94.92060505376969
 30
0.0
 10
161.5813252824957
 20
93.92773461027157
 30
0.0
 10
161.8722146390489
 20
92.72340698425826
 30
0.0
 10
161.9376502782555
 20
92.48375079999157
 30
0.0
 10
162.0799624198745
 20
92.01593899010025
 30
0.0
 10
162.1570168296449
 20
91.78686824260689
 30
0.0
 10
162.4047601618219
 20
91.11324752283518
 30
0.0
 10
162.5919649589434
 20
90.68223642230473
 30
0.0
 10
163.0064422748261
 20
89.85305969590136
 30
0.0
 10
163.2348273482993
 20
89.45372434753307
 30
0.0
 10
163.7167380544486
 20
88.70401633331332
 30
0.0
 10
163.9714041905121
 20
88.35100002167789
 30
0.0
 10
164.5049044936223
 20
87.68346075807375
 30
0.0
 10
164.7837558716378
 20
87.36896521868199
 30
0.0
 10
165.3636253917858
 20
86.77528000425608
 30
0.0
 10
165.6660847563378
 20
86.49501466411108
 30
0.0
 10
166.5898867324524
 20
85.71634519210792
 30
0.0
 10
167.2294571425147
 20
85.27619092561866
 30
0.0
 10
168.5481174273775
 20
84.52753162335928
 30
0.0
 10
169.2277247408825
 20
84.21919219294118
 30
0.0
 10
170.6221438314604
 20
83.72608973696416
 30
0.0
 10
171.3229768880573
 20
83.54616903291247
 30
0.0
 10
172.7311712113125
 20
83.30637087010903
 30
0.0
 10
173.4385383855225
 20
83.24660204168212
 30
0.0
 10
174.5044194446476
 20
83.24577017879851
 30
0.0
 10
174.8605224036758
 20
83.26037410895975
 30
0.0
 10
175.5743866086979
 20
83.3200751897744
 30
0.0
 10
175.9330843963687
 20
83.36541096749818
 30
0.0
 10
176.997638360336
 20
83.5464232424861
 30
0.0
 10
177.6958211658982
 20
83.72676787001224
 30
0.0
 10
179.0683895087112
 20
84.21072082190929
 30
0.0
 10
179.7428053447988
 20
84.51417220614374
 30
0.0
 10
180.7342221483299
 20
85.07401606191536
 30
0.0
 10
181.0613058333313
 20
85.2781826634778
 30
0.0
 10
181.7079388316139
 20
85.72554196403762
 30
0.0
 10
182.024211093429
 20
85.96656004555594
 30
0.0
 10
182.9457596234381
 20
86.74127807226712
 30
0.0
 10
183.5262522239586
 20
87.32709601452899
 30
0.0
 10
184.3342690345027
 20
88.33421699171451
 30
0.0
 10
184.5935034392665
 20
88.69273910709715
 30
0.0
 10
185.0761458677869
 20
89.44179496438635
 30
0.0
 10
185.301081586541
 20
89.83399350639537
 30
0.0
 10
185.7147039231312
 20
90.65748271594532
 30
0.0
 10
185.9034623321766
 20
91.08883170398443
 30
0.0
 10
186.2389299109148
 20
91.99633205003869
 30
0.0
 10
186.3816419374295
 20
92.46182094091775
 30
0.0
 10
186.6144847283848
 20
93.41746671283188
 30
0.0
 10
186.7046437341141
 20
93.90761034474026
 30
0.0
 10
186.7966192584669
 20
94.66312220290664
 30
0.0
 10
186.8198707069854
 20
94.9176615858132
 30
0.0
 10
186.8508249480047
 20
95.42374250796313
 30
0.0
 10
186.8586839314961
 20
95.67645448201507
 30
0.0
 10
186.8597094582522
 20
96.43361800763556
 30
0.0
 10
186.8304039038387
 20
96.93710058313421
 30
0.0
 10
186.7412169343266
 20
97.6903742293435
 30
0.0
 10
186.7037134133585
 20
97.94207793181313
 30
0.0
 10
186.6150123094249
 20
98.43637257110711
 30
0.0
 10
186.5637766462
 20
98.67977995789686
 30
0.0
 10
186.3904760606853
 20
99.39935904655137
 30
0.0
 10
186.2488892744086
 20
99.86492664082401
 30
0.0
 10
186.0001231434747
 20
100.5435134982216
 30
0.0
 10
185.9108043139263
 20
100.7670421970233
 30
0.0
 10
185.7229547776331
 20
101.2016946486646
 30
0.0
 10
185.6242359846862
 20
101.4134510455678
 30
0.0
 10
185.1084024465845
 20
102.4463944864719
 30
0.0
 10
184.6251928486729
 20
103.1917288390636
 30
0.0
 10
183.5444177435491
 20
104.545752909829
 30
0.0
 10
182.9644485554487
 20
105.1326934387136
 30
0.0
 10
182.0477965244743
 20
105.9068382436501
 30
0.0
 10
181.7343430020471
 20
106.1469028893948
 30
0.0
 10
181.0926807009758
 20
106.5934552925625
 30
0.0
 10
180.7631423510246
 20
106.8006465937107
 30
0.0
 10
179.7642699238407
 20
107.3678561056429
 30
0.0
 10
179.0863126252948
 20
107.674012857225
 30
0.0
 10
177.7095154988246
 20
108.1615013994485
 30
0.0
 10
177.0106431566438
 20
108.3426388366872
 30
0.0
 10
175.9473290400001
 20
108.5246492559257
 30
0.0
 10
175.5893676013676
 20
108.5703549919506
 30
0.0
 10
174.8733723603361
 20
108.6310271686774
 30
0.0
 10
174.5162679736007
 20
108.6460155976291
 30
0.0
 10
173.4475669109553
 20
108.6460994833694
 30
0.0
 10
172.7385641447387
 20
108.5866260452735
 30
0.0
 10
171.3275793372908
 20
108.3470481560954
 30
0.0
 10
170.6248229026916
 20
108.1667752159729
 30
0.0
 10
169.2302146959205
 20
107.6739445218318
 30
0.0
 10
168.5509639045221
 20
107.3659810035554
 30
0.0
 10
167.2314293212711
 20
106.6172059022687
 30
0.0
 10
166.5910494428262
 20
106.1767219020315
 30
0.0
 10
165.6655054398814
 20
105.3965843032566
 30
0.0
 10
165.3635008282069
 20
105.1166775863081
 30
0.0
 10
164.7839424910306
 20
104.523315119524
 30
0.0
 10
164.5049981133217
 20
104.2087617064451
 30
0.0
 10
163.9708909073825
 20
103.540426792714
 30
0.0
 10
163.7157098213253
 20
103.186675408669
 30
0.0
 10
163.2324525051085
 20
102.4344627001344
 30
0.0
 10
163.0045188231954
 20
102.035409538545
 30
0.0
 10
162.5913549002944
 20
101.2083989455867
 30
0.0
 10
162.4044850137191
 20
100.7781409856158
 30
0.0
 10
162.1569196095268
 20
100.1049298523873
 30
0.0
 10
162.0798707674477
 20
99.87587484781022
 30
0.0
 10
161.9374961514008
 20
99.40780177711125
 30
0.0
 10
161.8720581910204
 20
99.16807188261106
 30
0.0
 10
161.5813938198584
 20
97.96447859772091
 30
0.0
 10
161.4590373450868
 20
96.9714821435623
 30
0.0
 10
161.4590373450868
 20
94.92060505376969
 30
0.0
  0
LINE
  5
271
330
1F
100
AcDbEntity
  8
0
  6
Continuous
 62
     7
370
     0
100
AcDbLine
 10
193.2127874227
 20
83.2460435987
 30
0.0
 11
193.2127874227
 21
108.6460435987
 31
0.0
  0
LINE
  5
272
330
1F
100
AcDbEntity
  8
0
  6
HIDDEN
 62
     7
370
     0
100
AcDbLine
 10
186.8627874227
 20
86.5668516276
 30
0.0
 11
186.8627874227
 21
88.8274516276
 31
0.0
  0
LINE
  5
273
330
1F
100
AcDbEntity
  8
0
  6
HIDDEN
 62
     7
370
     0
100
AcDbLine
 10
193.2127874227
 20
88.8274516276
 30
0.0
 11
193.2127874227
 21
86.5668516276
 31
0.0
  0
LINE
  5
274
330
1F
100
AcDbEntity
  8
0
  6
HIDDEN
 62
     7
370
     0
100
AcDbLine
 10
186.8627874227
 20
103.0646355697
 30
0.0
 11
186.8627874227
 21
105.3252355697
 31
0.0
  0
LINE
  5
275
330
1F
100
AcDbEntity
  8
0
  6
HIDDEN
 62
     7
370
     0
100
AcDbLine
 10
193.2127874227
 20
105.3252355697
 30
0.0
 11
193.2127874227
 21
103.0646355697
 31
0.0
  0
LINE
  5
276
330
1F
100
AcDbEntity
  8
0
  6
HIDDEN
 62
     7
370
     0
100
AcDbLine
 10
186.8627874227
 20
94.8157435987
 30
0.0
 11
186.8627874227
 21
97.0763435987
 31
0.0
  0
LINE
  5
277
330
1F
100
AcDbEntity
  8
0
  6
HIDDEN
 62
     7
370
     0
100
AcDbLine
 10
193.2127874227
 20
97.0763435987
 30
0.0
 11
193.2127874227
 21
94.8157435987
 31
0.0
  0
LINE
  5
278
330
1F
100
AcDbEntity
  8
0
  6
HIDDEN
 62
     7
370
     0
100
AcDbLine
 10
193.2127874227
 20
88.8274516276
 30
0.0
 11
186.8627874227
 21
88.8274516276
 31
0.0
  0
LINE
  5
279
330
1F
100
AcDbEntity
  8
0
  6
HIDDEN
 62
     7
370
     0
100
AcDbLine
 10
186.8627874227
 20
86.5668516276
 30
0.0
 11
193.2127874227
 21
86.5668516276
 31
0.0
  0
LINE
  5
27A
330
1F
100
AcDbEntity
  8
0
  6
HIDDEN
 62
     7
370
     0
100
AcDbLine
 10
193.2127874227
 20
105.3252355697
 30
0.0
 11
186.8627874227
 21
105.3252355697
 31
0.0
  0
LINE
  5
27B
330
1F
100
AcDbEntity
  8
0
  6
HIDDEN
 62
     7
370
     0
100
AcDbLine
 10
186.8627874227
 20
103.0646355697
 30
0.0
 11
193.2127874227
 21
103.0646355697
 31
0.0
  0
LINE
  5
27C
330
1F
100
AcDbEntity
  8
0
  6
HIDDEN
 62
     7
370
     0
100
AcDbLine
 10
186.8627874227
 20
88.8274516276
 30
0.0
 11
186.1836346651
 21
87.6971516276
 31
0.0
  0
LINE
  5
27D
330
1F
100
AcDbEntity
  8
0
  6
HIDDEN
 62
     7
370
     0
100
AcDbLine
 10
186.1836346651
 20
87.6971516276
 30
0.0
 11
186.8627874227
 21
86.5668516276
 31
0.0
  0
LINE
  5
27E
330
1F
100
AcDbEntity
  8
0
  6
HIDDEN
 62
     7
370
     0
100
AcDbLine
 10
186.8627874227
 20
105.3252355697
 30
0.0
 11
186.1836346651
 21
104.1949355697
 31
0.0
  0
LINE
  5
27F
330
1F
100
AcDbEntity
  8
0
  6
HIDDEN
 62
     7
370
     0
100
AcDbLine
 10
186.1836346651
 20
104.1949355697
 30
0.0
 11
186.8627874227
 21
103.0646355697
 31
0.0
  0
LINE
  5
280
330
1F
100
AcDbEntity
  8
0
  6
HIDDEN
 62
     7
370
     0
100
AcDbLine
 10
186.8627874227
 20
97.0763435987
 30
0.0
 11
186.1836346651
 21
95.9460435987
 31
0.0
  0
LINE
  5
281
330
1F
100
AcDbEntity
  8
0
  6
HIDDEN
 62
     7
370
     0
100
AcDbLine
 10
186.1836346651
 20
95.9460435987
 30
0.0
 11
186.8627874227
 21
94.8157435987
 31
0.0
  0
LINE
  5
282
330
1F
100
AcDbEntity
  8
0
  6
HIDDEN
 62
     7
370
     0
100
AcDbLine
 10
193.2127874227
 20
97.0763435987
 30
0.0
 11
186.8627874227
 21
97.0763435987
 31
0.0
  0
LINE
  5
283
330
1F
100
AcDbEntity
  8
0
  6
HIDDEN
 62
     7
370
     0
100
AcDbLine
 10
186.8627874227
 20
94.8157435987
 30
0.0
 11
193.2127874227
 21
94.8157435987
 31
0.0
  0
INSERT
  5
289
102
{ACAD_REACTORS
330
293
102
}
330
1F
100
AcDbEntity
  8
0
  6
Continuous
 62
     7
370
     0
100
AcDbBlockReference
  2
SW_NOTE_5
 10
179.955075846
 20
68.6114352392
 30
0.0
  0
LEADER
  5
293
330
1F
100
AcDbEntity
  8
0
  6
Continuous
 62
     7
370
     0
100
AcDbLeader
  3
SLDDIMSTYLE6
 73
     2
 76
     3
 10
173.6347978758
 20
93.5875100775
 30
0.0
 10
173.605075846
 20
68.6114352392
 30
0.0
 10
179.955075846
 20
68.6114352392
 30
0.0
340
289
  0
INSERT
  5
29B
102
{ACAD_REACTORS
330
29C
102
}
330
1F
100
AcDbEntity
  8
0
  6
Continuous
 62
     7
370
     0
100
AcDbBlockReference
  2
SW_NOTE_6
 10
207.1429404901
 20
109.1015169195
 30
0.0
  0
LEADER
  5
29C
330
1F
100
AcDbEntity
  8
0
  6
Continuous
 62
     7
370
     0
100
AcDbLeader
  3
SLDDIMSTYLE2
 73
     2
 76
     3
 10
193.2127874227
 20
104.1456154928
 30
0.0
 10
200.7929404901
 20
109.1015169195
 30
0.0
 10
207.1429404901
 20
109.1015169195
 30
0.0
340
29B
  0
LINE
  5
29D
330
1F
100
AcDbEntity
  8
0
  6
Continuous
 62
     7
370
     0
100
AcDbLine
 10
267.991573186
 20
177.5741266215
 30
0.0
 11
267.991573186
 21
185.8026549997
 31
0.0
  0
LINE
  5
29E
330
1F
100
AcDbEntity
  8
0
  6
Continuous
 62
     7
370
     0
100
AcDbLine
 10
242.591573186
 20
185.9765654797
 30
0.0
 11
242.591573186
 21
177.5741266215
 31
0.0
  0
LINE
  5
29F
330
1F
100
AcDbEntity
  8
0
  6
Continuous
 62
     7
370
     0
100
AcDbLine
 10
242.591573186
 20
200.4597491881
 30
0.0
 11
242.591573186
 21
187.1608335254
 31
0.0
  0
LINE
  5
2A0
330
1F
100
AcDbEntity
  8
0
  6
Continuous
 62
     7
370
     0
100
AcDbLine
 10
242.591573186
 20
187.1608335254
 30
0.0
 11
242.591573186
 21
185.9765654797
 31
0.0
  0
SPLINE
  5
2A1
330
1F
100
AcDbEntity
  8
0
  6
Continuous
 62
     7
370
     0
100
AcDbSpline
210
0.0
220
0.0
230
1.0
 70
     8
 71
     3
 72
   110
 73
   106
 74
     0
 42
0.00000001
 43
0.00000001
 12
1.0
 22
0.0
 32
0.0
 13
1.0
 23
0.0
 33
0.0
 40
-0.0312500000000001
 40
-0.0312500000000001
 40
0.0
 40
0.0
 40
0.03125
 40
0.03125
 40
0.0390625
 40
0.0390625
 40
0.046875
 40
0.046875
 40
0.0625
 40
0.0625
 40
0.078125
 40
0.078125
 40
0.09375
 40
0.09375
 40
0.109375
 40
0.109375
 40
0.1250000000000001
 40
0.1250000000000001
 40
0.1562500000000001
 40
0.1562500000000001
 40
0.1875000000000001
 40
0.1875000000000001
 40
0.2187500000000001
 40
0.2187500000000001
 40
0.2500000000000002
 40
0.2500000000000002
 40
0.2656250000000002
 40
0.2656250000000002
 40
0.2812500000000002
 40
0.2812500000000002
 40
0.3125000000000003
 40
0.3125000000000003
 40
0.3437500000000004
 40
0.3437500000000004
 40
0.3593750000000004
 40
0.3593750000000004
 40
0.3750000000000005
 40
0.3750000000000005
 40
0.4062500000000004
 40
0.4062500000000004
 40
0.4218750000000004
 40
0.4218750000000004
 40
0.4375000000000004
 40
0.4375000000000004
 40
0.4531250000000004
 40
0.4531250000000004
 40
0.4687500000000004
 40
0.4687500000000004
 40
0.4843750000000004
 40
0.4843750000000004
 40
0.4921875000000004
 40
0.4921875000000004
 40
0.5000000000000003
 40
0.5000000000000003
 40
0.5156250000000003
 40
0.5156250000000003
 40
0.5234375000000003
 40
0.5234375000000003
 40
0.5312500000000003
 40
0.5312500000000003
 40
0.5468750000000003
 40
0.5468750000000003
 40
0.5546875000000003
 40
0.5546875000000003
 40
0.5625000000000002
 40
0.5625000000000002
 40
0.5937500000000002
 40
0.5937500000000002
 40
0.6250000000000002
 40
0.6250000000000002
 40
0.6406250000000002
 40
0.6406250000000002
 40
0.6562500000000002
 40
0.6562500000000002
 40
0.6875000000000001
 40
0.6875000000000001
 40
0.7187500000000001
 40
0.7187500000000001
 40
0.7343750000000001
 40
0.7343750000000001
 40
0.7500000000000001
 40
0.7500000000000001
 40
0.7812500000000001
 40
0.7812500000000001
 40
0.8125
 40
0.8125
 40
0.84375
 40
0.84375
 40
0.875
 40
0.875
 40
0.890625
 40
0.890625
 40
0.90625
 40
0.90625
 40
0.921875
 40
0.921875
 40
0.9374999999999999
 40
0.9374999999999999
 40
0.9531249999999999
 40
0.9531249999999999
 40
0.9609374999999999
 40
0.9609374999999999
 40
0.9687499999999999
 40
0.9687499999999999
 40
1.0
 40
1.0
 40
1.03125
 40
1.03125
 10
247.0364115648933
 20
209.1051392017264
 30
0.0
 10
245.5862224673209
 20
208.2679628554974
 30
0.0
 10
244.970627667583
 20
207.7128975932532
 30
0.0
 10
244.3247292730525
 20
206.8650209251331
 30
0.0
 10
244.2015367442185
 20
206.6870503354019
 30
0.0
 10
243.9713737215092
 20
206.321791592128
 30
0.0
 10
243.8638819382541
 20
206.1339119910031
 30
0.0
 10
243.5627411495319
 20
205.5555149064317
 30
0.0
 10
243.3903440590948
 20
205.150296312551
 30
0.0
 10
243.0971072937616
 20
204.3041940443202
 30
0.0
 10
242.9762271951378
 20
203.8614702888297
 30
0.0
 10
242.7868659026178
 20
202.965218772583
 30
0.0
 10
242.7173218265404
 20
202.5092150392248
 30
0.0
 10
242.6225419686319
 20
201.5833210461392
 30
0.0
 10
242.5973377404126
 20
201.113420897291
 30
0.0
 10
242.5875685693019
 20
200.1608839660345
 30
0.0
 10
242.6032621144616
 20
199.6760429630039
 30
0.0
 10
242.7058862922894
 20
198.2267651972106
 30
0.0
 10
242.8468947996887
 20
197.2637818630839
 30
0.0
 10
243.2499463597705
 20
195.3431536831523
 30
0.0
 10
243.5124723975377
 20
194.3849427077258
 30
0.0
 10
244.1497995018602
 20
192.4758486604726
 30
0.0
 10
244.5181401587488
 20
191.5440626100865
 30
0.0
 10
245.3443210069166
 20
189.7214972571622
 30
0.0
 10
245.8022421887048
 20
188.8307550627197
 30
0.0
 10
246.5553456976644
 20
187.524983136071
 30
0.0
 10
246.8174750528432
 20
187.0948092481177
 30
0.0
 10
247.3644683121488
 20
186.2448779500437
 30
0.0
 10
247.6501631860662
 20
185.8240709238485
 30
0.0
 10
248.5309115200484
 20
184.5941538648064
 30
0.0
 10
249.1521242254433
 20
183.812675465328
 30
0.0
 10
250.4648830223501
 20
182.3291809896017
 30
0.0
 10
251.1563395649403
 20
181.6270637414084
 30
0.0
 10
252.2532464965211
 20
180.6413616320389
 30
0.0
 10
252.6288971766577
 20
180.3241092023327
 30
0.0
 10
253.402466549735
 20
179.714762637276
 30
0.0
 10
253.7965303305963
 20
179.4257943662148
 30
0.0
 10
254.9959719155532
 20
178.6133755743514
 30
0.0
 10
255.8206780093231
 20
178.1415535011272
 30
0.0
 10
257.1041742478147
 20
177.5630499270001
 30
0.0
 10
257.5409940723326
 20
177.3919041018422
 30
0.0
 10
258.4119362826045
 20
177.1065579035802
 30
0.0
 10
258.8483161032925
 20
176.9911660720225
 30
0.0
 10
259.7230860666523
 20
176.8207358734151
 30
0.0
 10
260.1615682121948
 20
176.7656333871139
 30
0.0
 10
261.0404792606129
 20
176.7252165137423
 30
0.0
 10
261.4705422536259
 20
176.740445144934
 30
0.0
 10
262.3109305757935
 20
176.8453706118179
 30
0.0
 10
262.7212665060077
 20
176.9350274507892
 30
0.0
 10
263.3205305811572
 20
177.1307839041677
 30
0.0
 10
263.5169583618091
 20
177.2062108204175
 30
0.0
 10
263.8966995674218
 20
177.3748840576336
 30
0.0
 10
264.0809510584804
 20
177.4684168607221
 30
0.0
 10
264.6170716788373
 20
177.7762380742372
 30
0.0
 10
264.9523654659305
 20
178.0176535310017
 30
0.0
 10
265.4219456583187
 20
178.4343741717798
 30
0.0
 10
265.5734080591898
 20
178.5830528888458
 30
0.0
 10
265.8602059984486
 20
178.8934621872314
 30
0.0
 10
265.9960919273333
 20
179.0555726853408
 30
0.0
 10
266.3823691613198
 20
179.561556790574
 30
0.0
 10
266.6114581876289
 20
179.9250110606968
 30
0.0
 10
266.9153873380059
 20
180.5066880103177
 30
0.0
 10
267.0102880466561
 20
180.7073261098687
 30
0.0
 10
267.1848040617154
 20
181.1148207590336
 30
0.0
 10
267.2647337180012
 20
181.322165914132
 30
0.0
 10
267.6303856368914
 20
182.3755820946638
 30
0.0
 10
267.8157358284436
 20
183.2716390755137
 30
0.0
 10
268.008952025001
 20
185.148030956245
 30
0.0
 10
268.0138815073435
 20
186.0979367473209
 30
0.0
 10
267.913113681444
 20
187.5366106670504
 30
0.0
 10
267.8612199090777
 20
188.0185066220102
 30
0.0
 10
267.7232563771934
 20
188.9866637342562
 30
0.0
 10
267.636743949327
 20
189.4748404665792
 30
0.0
 10
267.3315121747657
 20
190.929741568679
 30
0.0
 10
267.0686094867581
 20
191.8850407183996
 30
0.0
 10
266.4397733562699
 20
193.7702607331876
 30
0.0
 10
266.0736794941289
 20
194.7001420840769
 30
0.0
 10
265.4505036734088
 20
196.0767279826437
 30
0.0
 10
265.2297055486307
 20
196.533796684302
 30
0.0
 10
264.7663221659929
 20
197.4354748097434
 30
0.0
 10
264.5244096522924
 20
197.8789549121549
 30
0.0
 10
263.7687832000104
 20
199.1878752963386
 30
0.0
 10
263.2253884647602
 20
200.0319454968668
 30
0.0
 10
262.0582643892024
 20
201.662245232259
 30
0.0
 10
261.4338683303498
 20
202.4493544235167
 30
0.0
 10
260.0992474844396
 20
203.9562181791214
 30
0.0
 10
259.4011815515842
 20
204.6624151426005
 30
0.0
 10
257.9386657480537
 20
205.9728553180073
 30
0.0
 10
257.1743795698981
 20
206.5773499321123
 30
0.0
 10
255.9682805427771
 20
207.3924498676504
 30
0.0
 10
255.556807096258
 20
207.6480694087149
 30
0.0
 10
254.7274268419827
 20
208.1156675421937
 30
0.0
 10
254.3077605294973
 20
208.3289012581742
 30
0.0
 10
253.4575055526941
 20
208.7102292950095
 30
0.0
 10
253.0269252738004
 20
208.8783582707653
 30
0.0
 10
252.1533160413461
 20
209.1631689100953
 30
0.0
 10
251.7099693925908
 20
209.2794343981313
 30
0.0
 10
250.833033582572
 20
209.447865713936
 30
0.0
 10
250.39665829742
 20
209.5011006041167
 30
0.0
 10
249.7455709638523
 20
209.5294975472768
 30
0.0
 10
249.5291228581353
 20
209.5303615392872
 30
0.0
 10
249.0974711592777
 20
209.513664793673
 30
0.0
 10
248.8816848996909
 20
209.4959508845502
 30
0.0
 10
247.8250851782566
 20
209.3606289208224
 30
0.0
 10
247.0364115648933
 20
209.1051392017264
 30
0.0
 10
245.5862224673209
 20
208.2679628554974
 30
0.0
  0
SPLINE
  5
2A2
330
1F
100
AcDbEntity
  8
0
  6
Continuous
 62
     7
370
     0
100
AcDbSpline
210
0.0
220
0.0
230
1.0
 70
     8
 71
     3
 72
    13
 73
     9
 74
     0
 42
0.00000001
 43
0.00000001
 12
1.0
 22
0.0
 32
0.0
 13
1.0
 23
0.0
 33
0.0
 40
0.0
 40
0.0
 40
0.0
 40
0.0
 40
0.1250710948756941
 40
0.2501214874970382
 40
0.5000711849036208
 40
0.7499674618706477
 40
0.8749904195716316
 40
1.0
 40
1.0
 40
1.0
 40
1.0
 10
242.6959009381138
 20
186.0600058928292
 30
0.0
 10
242.6996493417074
 20
186.0556027273767
 30
0.0
 10
242.7071455284442
 20
186.0467971253009
 30
0.0
 10
242.7224914993962
 20
186.0384532793469
 30
0.0
 10
242.7416412226619
 20
186.0444775182201
 30
0.0
 10
242.7598806810808
 20
186.0734798919929
 30
0.0
 10
242.7732351460053
 20
186.1113766459538
 30
0.0
 10
242.7784959818115
 20
186.1406443062233
 30
0.0
 10
242.7811262589816
 20
186.155277353417
 30
0.0
  0
LINE
  5
2A3
330
1F
100
AcDbEntity
  8
0
  6
Continuous
 62
     7
370
     0
100
AcDbLine
 10
242.6959009381
 20
185.8617188986
 30
0.0
 11
242.6959009381
 21
186.0600058928
 31
0.0
  0
SPLINE
  5
2A4
330
1F
100
AcDbEntity
  8
0
  6
Continuous
 62
     7
370
     0
100
AcDbSpline
210
0.0
220
0.0
230
1.0
 70
     8
 71
     3
 72
    13
 73
     9
 74
     0
 42
0.00000001
 43
0.00000001
 12
1.0
 22
0.0
 32
0.0
 13
1.0
 23
0.0
 33
0.0
 40
0.0
 40
0.0
 40
0.0
 40
0.0
 40
0.1250146390037964
 40
0.2500229927051413
 40
0.4999840770000871
 40
0.7500009713535511
 40
0.8675848207443115
 40
1.0
 40
1.0
 40
1.0
 40
1.0
 10
242.7653150147962
 20
185.8383170438378
 30
0.0
 10
242.7625292047212
 20
185.8346649808433
 30
0.0
 10
242.7569577246322
 20
185.8273610384672
 30
0.0
 10
242.745235950359
 20
185.8215017753414
 30
0.0
 10
242.7303422989068
 20
185.8233499405363
 30
0.0
 10
242.7159772730402
 20
185.8327856327723
 30
0.0
 10
242.7045047263123
 20
185.8466083659191
 30
0.0
 10
242.6988800956164
 20
185.8564867083139
 30
0.0
 10
242.6959009381138
 20
185.8617188985589
 30
0.0
  0
LINE
  5
2A5
330
1F
100
AcDbEntity
  8
0
  6
Continuous
 62
     7
370
     0
100
AcDbLine
 10
242.7653150148
 20
184.5309672003
 30
0.0
 11
242.7653150148
 21
185.8383170438
 31
0.0
  0
ARC
  5
2A6
330
1F
100
AcDbEntity
  8
0
  6
Continuous
 62
     7
370
     0
100
AcDbCircle
 10
247.210516906
 20
185.8181740921
 30
0.0
 40
4.627820376354308
100
AcDbArc
 50
196.1495467762
 51
198.0891722046
  0
LINE
  5
2A7
330
1F
100
AcDbEntity
  8
0
  6
Continuous
 62
     7
370
     0
100
AcDbLine
 10
242.8114292058
 20
186.0589603168
 30
0.0
 11
242.8114292058
 21
184.3812506975
 31
0.0
  0
ARC
  5
2A8
330
1F
100
AcDbEntity
  8
0
  6
Continuous
 62
     7
370
     0
100
AcDbCircle
 10
247.2264464502
 20
187.5009238338
 30
0.0
 40
4.644527538091006
100
AcDbArc
 50
196.8416313127
 51
198.0872593426
  0
LWPOLYLINE
  5
2A9
330
1F
100
AcDbEntity
  8
0
  6
Continuous
 62
     7
370
     0
100
AcDbPolyline
 90
       50
 70
   128
 43
0.0
 10
246.3113170649
 20
172.3899351115
 10
246.7591943313
 20
172.1436773985
 10
247.2273094577
 20
171.9103001112
 10
247.7145521268
 20
171.6903567946
 10
248.2197666526
 20
171.48436913
 10
248.7417547223
 20
171.2928256973
 10
249.2792782377
 20
171.1161808165
 10
249.8310622524
 20
170.9548534696
 10
250.3957979958
 20
170.8092263073
 10
250.9721459771
 20
170.6796447412
 10
251.5587391625
 20
170.5664161244
 10
252.1541862178
 20
170.4698090227
 10
252.7570748084
 20
170.3900525774
 10
253.3659749491
 20
170.327335962
 10
253.979442396
 20
170.2818079335
 10
254.5960220723
 20
170.2535764792
 10
255.2142515189
 20
170.242708561
 10
255.832664364
 20
170.2492299565
 10
256.4497938006
 20
170.2731251977
 10
257.0641760658
 20
170.3143376076
 10
257.6743539129
 20
170.3727694349
 10
258.2788800673
 20
170.4482820859
 10
258.8763206599
 20
170.5406964528
 10
259.4652586275
 20
170.6497933391
 10
260.0442970743
 20
170.7753139788
 10
260.6120625852
 20
170.9169606511
 10
261.167208483
 20
171.0743973855
 10
261.7084180231
 20
171.2472507595
 10
262.2344075161
 20
171.4351107841
 10
262.7439293732
 20
171.637531876
 10
263.2357750647
 20
171.8540339148
 10
263.7087779871
 20
172.0841033815
 10
264.1618162296
 20
172.3271945768
 10
264.5938152357
 20
172.5827309151
 10
265.0037503513
 20
172.8501062927
 10
265.3906492557
 20
173.1286865246
 10
265.7535942674
 20
173.4178108492
 10
266.091724521
 20
173.7167934956
 10
266.4042380088
 20
174.0249253101
 10
266.6903934834
 20
174.3414754379
 10
266.9495122157
 20
174.6656930572
 10
267.1809796045
 20
174.9968091596
 10
267.3842466349
 20
175.3340383743
 10
267.5588311798
 20
175.6765808308
 10
267.7043191442
 20
176.0236240562
 10
267.8203654465
 20
176.3743449025
 10
267.9066948377
 20
176.7279114984
 10
267.9631025541
 20
177.0834852231
 10
267.9894548029
 20
177.440222695
 10
267.991573186
 20
177.5741266215
  0
ARC
  5
2AA
330
1F
100
AcDbEntity
  8
0
  6
Continuous
 62
     7
370
     0
100
AcDbCircle
 10
248.9209317335
 20
178.1889620572
 30
0.0
 40
6.359151062529028
100
AcDbArc
 50
185.5483179893
 51
245.7718229683
  0
SPLINE
  5
2AB
330
1F
100
AcDbEntity
  8
0
  6
Continuous
 62
     7
370
     0
100
AcDbSpline
210
0.0
220
0.0
230
1.0
 70
     8
 71
     3
 72
    16
 73
    12
 74
     0
 42
0.00000001
 43
0.00000001
 12
1.0
 22
0.0
 32
0.0
 13
1.0
 23
0.0
 33
0.0
 40
0.0
 40
0.0
 40
0.0
 40
0.0
 40
0.1252037281425954
 40
0.2503884232617769
 40
0.3755474586374111
 40
0.5006311301699825
 40
0.6432480406832909
 40
0.7502093923383418
 40
0.874853712252479
 40
0.9374211602822597
 40
0.9999999999999999
 40
0.9999999999999999
 40
0.9999999999999999
 40
0.9999999999999999
 10
242.6464608944137
 20
185.8860728152163
 30
0.0
 10
242.6463862543482
 20
185.8390773998895
 30
0.0
 10
242.6462369855638
 20
185.745093713311
 30
0.0
 10
242.6447418162004
 20
185.6125321880101
 30
0.0
 10
242.6418956619154
 20
185.4903252372205
 30
0.0
 10
242.6368636096862
 20
185.381550064116
 30
0.0
 10
242.6295103395004
 20
185.3090416981692
 30
0.0
 10
242.6199524835134
 20
185.2882516009414
 30
0.0
 10
242.6120052456502
 20
185.3191717610915
 30
0.0
 10
242.6060882959814
 20
185.3679395628909
 30
0.0
 10
242.6035795065748
 20
185.4002502638434
 30
0.0
 10
242.6023249976878
 20
185.4164070848923
 30
0.0
  0
SPLINE
  5
2AC
330
1F
100
AcDbEntity
  8
0
  6
Continuous
 62
     7
370
     0
100
AcDbSpline
210
0.0
220
0.0
230
1.0
 70
     8
 71
     3
 72
    15
 73
    11
 74
     0
 42
0.00000001
 43
0.00000001
 12
1.0
 22
0.0
 32
0.0
 13
1.0
 23
0.0
 33
0.0
 40
0.0
 40
0.0
 40
0.0
 40
0.0
 40
0.0626253064539612
 40
0.1252128026006806
 40
0.250041140169065
 40
0.3746316374763725
 40
0.499631284561891
 40
0.7494694892746663
 40
0.8496821103872468
 40
1.0
 40
1.0
 40
1.0
 40
1.0
 10
242.6023249976878
 20
187.1156258018928
 30
0.0
 10
242.6035802325549
 20
187.0981233375794
 30
0.0
 10
242.6060899444356
 20
187.0631289761433
 30
0.0
 10
242.6120091825149
 20
186.9793268852451
 30
0.0
 10
242.6203970068682
 20
186.8552819386752
 30
0.0
 10
242.6301621994569
 20
186.681599284771
 30
0.0
 10
242.6389417456626
 20
186.4500508913874
 30
0.0
 10
242.6442624632751
 20
186.2407323815195
 30
0.0
 10
242.6461704374998
 20
186.0397908467988
 30
0.0
 10
242.6463519732597
 20
185.9437169771574
 30
0.0
 10
242.6464608944137
 20
185.8860728152163
 30
0.0
  0
SPLINE
  5
2AD
330
1F
100
AcDbEntity
  8
0
  6
Continuous
 62
     7
370
     0
100
AcDbSpline
210
0.0
220
0.0
230
1.0
 70
     8
 71
     3
 72
    12
 73
     8
 74
     0
 42
0.00000001
 43
0.00000001
 12
1.0
 22
0.0
 32
0.0
 13
1.0
 23
0.0
 33
0.0
 40
0.0
 40
0.0
 40
0.0
 40
0.0
 40
0.2501118399281581
 40
0.5000203913628579
 40
0.7497554808353056
 40
0.8748530671024488
 40
1.0
 40
1.0
 40
1.0
 40
1.0
 10
242.6023249976878
 20
185.4164070848923
 30
0.0
 10
242.6006789253341
 20
185.442800994417
 30
0.0
 10
242.5973881185384
 20
185.495567360751
 30
0.0
 10
242.5942200807196
 20
185.5970254677506
 30
0.0
 10
242.5926786208468
 20
185.6954247352382
 30
0.0
 10
242.591987961092
 20
185.7786080084859
 30
0.0
 10
242.5918179578235
 20
185.8214709368855
 30
0.0
 10
242.5917329394274
 20
185.842906627234
 30
0.0
  0
SPLINE
  5
2AE
330
1F
100
AcDbEntity
  8
0
  6
Continuous
 62
     7
370
     0
100
AcDbSpline
210
0.0
220
0.0
230
1.0
 70
     8
 71
     3
 72
    14
 73
    10
 74
     0
 42
0.00000001
 43
0.00000001
 12
1.0
 22
0.0
 32
0.0
 13
1.0
 23
0.0
 33
0.0
 40
0.0
 40
0.0
 40
0.0
 40
0.0
 40
0.2504465544088781
 40
0.5006271577129474
 40
0.6256173980224436
 40
0.7503619177354579
 40
0.8749139347613022
 40
0.9374334541801438
 40
1.0
 40
1.0
 40
1.0
 40
1.0
 10
242.5922131585052
 20
186.4940338907228
 30
0.0
 10
242.5922265589364
 20
186.4251174337292
 30
0.0
 10
242.5922533455688
 20
186.287357702653
 30
0.0
 10
242.592541728484
 20
186.1022528441159
 30
0.0
 10
242.5933009261673
 20
185.9408857462514
 30
0.0
 10
242.5948173837161
 20
185.8141658786355
 30
0.0
 10
242.5971450344725
 20
185.714767100014
 30
0.0
 10
242.5998389866537
 20
185.6486277733492
 30
0.0
 10
242.6014961196754
 20
185.6228717948195
 30
0.0
 10
242.6023249976878
 20
185.6099889640442
 30
0.0
  0
SPLINE
  5
2AF
330
1F
100
AcDbEntity
  8
0
  6
Continuous
 62
     7
370
     0
100
AcDbSpline
210
0.0
220
0.0
230
1.0
 70
     8
 71
     3
 72
    14
 73
    10
 74
     0
 42
0.00000001
 43
0.00000001
 12
1.0
 22
0.0
 32
0.0
 13
1.0
 23
0.0
 33
0.0
 40
0.0
 40
0.0
 40
0.0
 40
0.0
 40
0.0625718350622503
 40
0.125083785944381
 40
0.2496290621893436
 40
0.3743665145366759
 40
0.4993488336595844
 40
0.7495426014132965
 40
1.0
 40
1.0
 40
1.0
 40
1.0
 10
242.6023249976878
 20
185.6099889640442
 30
0.0
 10
242.6032146648137
 20
185.5987255418794
 30
0.0
 10
242.6049931476124
 20
185.576209477173
 30
0.0
 10
242.6089060192442
 20
185.550462069569
 30
0.0
 10
242.6137909503746
 20
185.5479585750223
 30
0.0
 10
242.6188086628641
 20
185.583429269274
 30
0.0
 10
242.6224755845093
 20
185.6825562986907
 30
0.0
 10
242.6244279760831
 20
185.8363144323005
 30
0.0
 10
242.6246217631717
 20
185.9709418012031
 30
0.0
 10
242.6247187077377
 20
186.0382909314176
 30
0.0
  0
SPLINE
  5
2B0
330
1F
100
AcDbEntity
  8
0
  6
Continuous
 62
     7
370
     0
100
AcDbSpline
210
0.0
220
0.0
230
1.0
 70
     8
 71
     3
 72
    15
 73
    11
 74
     0
 42
0.00000001
 43
0.00000001
 12
1.0
 22
0.0
 32
0.0
 13
1.0
 23
0.0
 33
0.0
 40
0.0
 40
0.0
 40
0.0
 40
0.0
 40
0.1252519376079487
 40
0.2504961104472857
 40
0.5006645979650206
 40
0.6256249858635162
 40
0.7503965025560787
 40
0.874908349513979
 40
0.937433701457942
 40
1.0
 40
1.0
 40
1.0
 40
1.0
 10
242.6247187077377
 20
186.0382909314176
 30
0.0
 10
242.6246981012818
 20
186.0726277420351
 30
0.0
 10
242.6246568896475
 20
186.1412992346212
 30
0.0
 10
242.6239476546741
 20
186.2833012932892
 30
0.0
 10
242.6224645161959
 20
186.4312951781446
 30
0.0
 10
242.618691969523
 20
186.5934009084879
 30
0.0
 10
242.6137329544627
 20
186.720471497214
 30
0.0
 10
242.6088012596136
 20
186.8197073497326
 30
0.0
 10
242.6048665041503
 20
186.885207132564
 30
0.0
 10
242.603093558353
 20
186.9108700850455
 30
0.0
 10
242.6022067952828
 20
186.9237057614491
 30
0.0
  0
SPLINE
  5
2B1
330
1F
100
AcDbEntity
  8
0
  6
Continuous
 62
     7
370
     0
100
AcDbSpline
210
0.0
220
0.0
230
1.0
 70
     8
 71
     3
 72
    11
 73
     7
 74
     0
 42
0.00000001
 43
0.00000001
 12
1.0
 22
0.0
 32
0.0
 13
1.0
 23
0.0
 33
0.0
 40
0.0
 40
0.0
 40
0.0
 40
0.0
 40
0.2499762991228572
 40
0.4998291777062579
 40
0.7498121573677361
 40
1.0
 40
1.0
 40
1.0
 40
1.0
 10
242.6022067952828
 20
186.9237057614491
 30
0.0
 10
242.6011643458254
 20
186.9378926514769
 30
0.0
 10
242.5990799615981
 20
186.9662594270542
 30
0.0
 10
242.5967327070618
 20
186.9862445249993
 30
0.0
 10
242.5950057471562
 20
186.9873163521201
 30
0.0
 10
242.5943115313469
 20
186.9734152214363
 30
0.0
 10
242.5939642812718
 20
186.96646180924
 30
0.0
  0
SPLINE
  5
2B2
330
1F
100
AcDbEntity
  8
0
  6
Continuous
 62
     7
370
     0
100
AcDbSpline
210
0.0
220
0.0
230
1.0
 70
     8
 71
     3
 72
    12
 73
     8
 74
     0
 42
0.00000001
 43
0.00000001
 12
1.0
 22
0.0
 32
0.0
 13
1.0
 23
0.0
 33
0.0
 40
0.0
 40
0.0
 40
0.0
 40
0.0
 40
0.1249202996239226
 40
0.2499253403448435
 40
0.4998213365461343
 40
0.7498857599247363
 40
1.0
 40
1.0
 40
1.0
 40
1.0
 10
242.5939642812718
 20
186.96646180924
 30
0.0
 10
242.5937070517291
 20
186.9544181571354
 30
0.0
 10
242.593192418149
 20
186.9303226829786
 30
0.0
 10
242.5927049412148
 20
186.8610915301039
 30
0.0
 10
242.5923821538749
 20
186.7622366314729
 30
0.0
 10
242.592235012286
 20
186.6318195065097
 30
0.0
 10
242.5922204435824
 20
186.5399654788049
 30
0.0
 10
242.5922131585052
 20
186.4940338907228
 30
0.0
  0
SPLINE
  5
2B3
330
1F
100
AcDbEntity
  8
0
  6
Continuous
 62
     8
370
     0
100
AcDbSpline
210
0.0
220
0.0
230
1.0
 70
     8
 71
     3
 72
    11
 73
     7
 74
     0
 42
0.00000001
 43
0.00000001
 12
1.0
 22
0.0
 32
0.0
 13
1.0
 23
0.0
 33
0.0
 40
0.0
 40
0.0
 40
0.0
 40
0.0
 40
0.2057772973204177
 40
0.4612636257595143
 40
0.7303456723118481
 40
1.0
 40
1.0
 40
1.0
 40
1.0
 10
242.5916428885869
 20
187.1608335929778
 30
0.0
 10
242.5916333070565
 20
187.1808697489224
 30
0.0
 10
242.591611829413
 20
187.225782137498
 30
0.0
 10
242.5927209286624
 20
187.2432488064695
 30
0.0
 10
242.5958433675022
 20
187.2080877220515
 30
0.0
 10
242.6001629247869
 20
187.1464682606911
 30
0.0
 10
242.6023249976878
 20
187.1156258018928
 30
0.0
  0
LINE
  5
2B4
330
1F
100
AcDbEntity
  8
0
  6
Continuous
 62
     8
370
     0
100
AcDbLine
 10
242.5917329394
 20
185.8429066272
 30
0.0
 11
242.591673313
 21
185.9765655338
 31
0.0
  0
OLE2FRAME
  5
2B5
330
1F
100
AcDbEntity
  8
0
100
AcDbOle2Frame
 70
     2
  3
Paintbrush Picture
 10
229.0524258301
 20
33.6996297921
 30
0.0
 11
265.1686469208
 21
28.555479607
 31
0.0
 71
     2
 72
     0
 73
     1
 90
     7296
310
80557333EF78ADA16C40002412788DD94040000000000000000041161DC7B292
310
7040002412788DD94040000000000000000041161DC7B2927040F6DD59E9338E
310
3C4000000000000000007333EF78ADA16C40F6DD59E9338E3C40000000000000
310
00000000000001000000000100000100000001000000000001000000001C0000
310
D0CF11E0A1B11AE1000000000000000000000000000000003E000300FEFF0900
310
0600000000000000000000000100000001000000000000000010000002000000
310
01000000FEFFFFFF0000000000000000FFFFFFFFFFFFFFFFFFFFFFFFFFFFFFFF
310
FFFFFFFFFFFFFFFFFFFFFFFFFFFFFFFFFFFFFFFFFFFFFFFFFFFFFFFFFFFFFFFF
310
FFFFFFFFFFFFFFFFFFFFFFFFFFFFFFFFFFFFFFFFFFFFFFFFFFFFFFFFFFFFFFFF
310
FFFFFFFFFFFFFFFFFFFFFFFFFFFFFFFFFFFFFFFFFFFFFFFFFFFFFFFFFFFFFFFF
310
FFFFFFFFFFFFFFFFFFFFFFFFFFFFFFFFFFFFFFFFFFFFFFFFFFFFFFFFFFFFFFFF
310
FFFFFFFFFFFFFFFFFFFFFFFFFFFFFFFFFFFFFFFFFFFFFFFFFFFFFFFFFFFFFFFF
310
FFFFFFFFFFFFFFFFFFFFFFFFFFFFFFFFFFFFFFFFFFFFFFFFFFFFFFFFFFFFFFFF
310
FFFFFFFFFFFFFFFFFFFFFFFFFFFFFFFFFFFFFFFFFFFFFFFFFFFFFFFFFFFFFFFF
310
FFFFFFFFFFFFFFFFFFFFFFFFFFFFFFFFFFFFFFFFFFFFFFFFFFFFFFFFFFFFFFFF
310
FFFFFFFFFFFFFFFFFFFFFFFFFFFFFFFFFFFFFFFFFFFFFFFFFFFFFFFFFFFFFFFF
310
FFFFFFFFFFFFFFFFFFFFFFFFFFFFFFFFFFFFFFFFFFFFFFFFFFFFFFFFFFFFFFFF
310
FFFFFFFFFFFFFFFFFFFFFFFFFFFFFFFFFFFFFFFFFFFFFFFFFFFFFFFFFFFFFFFF
310
FFFFFFFFFFFFFFFFFFFFFFFFFFFFFFFFFFFFFFFFFFFFFFFFFFFFFFFFFFFFFFFF
310
FFFFFFFFFFFFFFFFFFFFFFFFFFFFFFFFFFFFFFFFFFFFFFFFFFFFFFFFFFFFFFFF
310
FDFFFFFFFEFFFFFFFEFFFFFFFEFFFFFF05000000060000000700000008000000
310
090000000A0000000B0000000C000000FEFFFFFFFFFFFFFFFFFFFFFFFFFFFFFF
310
FFFFFFFFFFFFFFFFFFFFFFFFFFFFFFFFFFFFFFFFFFFFFFFFFFFFFFFFFFFFFFFF
310
FFFFFFFFFFFFFFFFFFFFFFFFFFFFFFFFFFFFFFFFFFFFFFFFFFFFFFFFFFFFFFFF
310
FFFFFFFFFFFFFFFFFFFFFFFFFFFFFFFFFFFFFFFFFFFFFFFFFFFFFFFFFFFFFFFF
310
FFFFFFFFFFFFFFFFFFFFFFFFFFFFFFFFFFFFFFFFFFFFFFFFFFFFFFFFFFFFFFFF
310
FFFFFFFFFFFFFFFFFFFFFFFFFFFFFFFFFFFFFFFFFFFFFFFFFFFFFFFFFFFFFFFF
310
FFFFFFFFFFFFFFFFFFFFFFFFFFFFFFFFFFFFFFFFFFFFFFFFFFFFFFFFFFFFFFFF
310
FFFFFFFFFFFFFFFFFFFFFFFFFFFFFFFFFFFFFFFFFFFFFFFFFFFFFFFFFFFFFFFF
310
FFFFFFFFFFFFFFFFFFFFFFFFFFFFFFFFFFFFFFFFFFFFFFFFFFFFFFFFFFFFFFFF
310
FFFFFFFFFFFFFFFFFFFFFFFFFFFFFFFFFFFFFFFFFFFFFFFFFFFFFFFFFFFFFFFF
310
FFFFFFFFFFFFFFFFFFFFFFFFFFFFFFFFFFFFFFFFFFFFFFFFFFFFFFFFFFFFFFFF
310
FFFFFFFFFFFFFFFFFFFFFFFFFFFFFFFFFFFFFFFFFFFFFFFFFFFFFFFFFFFFFFFF
310
FFFFFFFFFFFFFFFFFFFFFFFFFFFFFFFFFFFFFFFFFFFFFFFFFFFFFFFFFFFFFFFF
310
FFFFFFFFFFFFFFFFFFFFFFFFFFFFFFFFFFFFFFFFFFFFFFFFFFFFFFFFFFFFFFFF
310
FFFFFFFFFFFFFFFFFFFFFFFFFFFFFFFFFFFFFFFFFFFFFFFFFFFFFFFFFFFFFFFF
310
52006F006F007400200045006E00740072007900000000000000000000000000
310
0000000000000000000000000000000000000000000000000000000000000000
310
16000500FFFFFFFFFFFFFFFF020000000A00030000000000C000000000000046
310
000000000000000000000000F0F404FB5F13CE0103000000C000000000000000
310
01004F006C006500000000000000000000000000000000000000000000000000
310
0000000000000000000000000000000000000000000000000000000000000000
310
0A000200FFFFFFFFFFFFFFFFFFFFFFFF00000000000000000000000000000000
310
0000000000000000000000000000000000000000000000001400000000000000
310
010043006F006D0070004F0062006A0000000000000000000000000000000000
310
0000000000000000000000000000000000000000000000000000000000000000
310
120002010100000003000000FFFFFFFF00000000000000000000000000000000
310
0000000000000000000000000000000000000000010000004D00000000000000
310
01004F006C006500310030004E00610074006900760065000000000000000000
310
0000000000000000000000000000000000000000000000000000000000000000
310
1A000200FFFFFFFFFFFFFFFFFFFFFFFF00000000000000000000000000000000
310
000000000000000000000000000000000000000004000000E411000000000000
310
FEFFFFFF02000000FEFFFFFFFFFFFFFFFFFFFFFFFFFFFFFFFFFFFFFFFFFFFFFF
310
FFFFFFFFFFFFFFFFFFFFFFFFFFFFFFFFFFFFFFFFFFFFFFFFFFFFFFFFFFFFFFFF
310
FFFFFFFFFFFFFFFFFFFFFFFFFFFFFFFFFFFFFFFFFFFFFFFFFFFFFFFFFFFFFFFF
310
FFFFFFFFFFFFFFFFFFFFFFFFFFFFFFFFFFFFFFFFFFFFFFFFFFFFFFFFFFFFFFFF
310
FFFFFFFFFFFFFFFFFFFFFFFFFFFFFFFFFFFFFFFFFFFFFFFFFFFFFFFFFFFFFFFF
310
FFFFFFFFFFFFFFFFFFFFFFFFFFFFFFFFFFFFFFFFFFFFFFFFFFFFFFFFFFFFFFFF
310
FFFFFFFFFFFFFFFFFFFFFFFFFFFFFFFFFFFFFFFFFFFFFFFFFFFFFFFFFFFFFFFF
310
FFFFFFFFFFFFFFFFFFFFFFFFFFFFFFFFFFFFFFFFFFFFFFFFFFFFFFFFFFFFFFFF
310
FFFFFFFFFFFFFFFFFFFFFFFFFFFFFFFFFFFFFFFFFFFFFFFFFFFFFFFFFFFFFFFF
310
FFFFFFFFFFFFFFFFFFFFFFFFFFFFFFFFFFFFFFFFFFFFFFFFFFFFFFFFFFFFFFFF
310
FFFFFFFFFFFFFFFFFFFFFFFFFFFFFFFFFFFFFFFFFFFFFFFFFFFFFFFFFFFFFFFF
310
FFFFFFFFFFFFFFFFFFFFFFFFFFFFFFFFFFFFFFFFFFFFFFFFFFFFFFFFFFFFFFFF
310
FFFFFFFFFFFFFFFFFFFFFFFFFFFFFFFFFFFFFFFFFFFFFFFFFFFFFFFFFFFFFFFF
310
FFFFFFFFFFFFFFFFFFFFFFFFFFFFFFFFFFFFFFFFFFFFFFFFFFFFFFFFFFFFFFFF
310
FFFFFFFFFFFFFFFFFFFFFFFFFFFFFFFFFFFFFFFFFFFFFFFFFFFFFFFFFFFFFFFF
310
FFFFFFFFFFFFFFFFFFFFFFFFFFFFFFFFFFFFFFFFFFFFFFFFFFFFFFFFFFFFFFFF
310
0100000200000000000000000000000000000000000000000000000000000000
310
0000000000000000000000000000000000000000000000000000000000000000
310
0100FEFF030A0000FFFFFFFF0A00030000000000C00000000000004607000000
310
5042727573680007000000504272757368000700000050427275736800F439B2
310
7100000000000000000000000000000000000000000000000000000000000000
310
0000000000000000000000000000000000000000000000000000000000000000
310
0000000000000000000000000000000000000000000000000000000000000000
310
0000000000000000000000000000000000000000000000000000000000000000
310
0000000000000000000000000000000000000000000000000000000000000000
310
0000000000000000000000000000000000000000000000000000000000000000
310
0000000000000000000000000000000000000000000000000000000000000000
310
0000000000000000000000000000000000000000000000000000000000000000
310
0000000000000000000000000000000000000000000000000000000000000000
310
0000000000000000000000000000000000000000000000000000000000000000
310
0000000000000000000000000000000000000000000000000000000000000000
310
0000000000000000000000000000000000000000000000000000000000000000
310
E0110000424DDE11000000000000360400002800000096000000170000000100
310
08000000000000000000E7240000E72400000001000000010000000000FF0101
310
01FF020202FF030303FF040404FF050505FF060606FF070707FF080808FF0909
310
09FF0A0A0AFF0B0B0BFF0C0C0CFF0D0D0DFF0E0E0EFF0F0F0FFF101010FF1111
310
11FF121212FF131313FF141414FF151515FF161616FF171717FF181818FF1919
310
19FF1A1A1AFF1B1B1BFF1C1C1CFF1D1D1DFF1E1E1EFF1F1F1FFF202020FF2121
310
21FF222222FF232323FF242424FF252525FF262626FF272727FF282828FF2929
310
29FF2A2A2AFF2B2B2BFF2C2C2CFF2D2D2DFF2E2E2EFF2F2F2FFF303030FF3131
310
31FF323232FF333333FF343434FF353535FF363636FF373737FF383838FF3939
310
39FF3A3A3AFF3B3B3BFF3C3C3CFF3D3D3DFF3E3E3EFF3F3F3FFF404040FF4141
310
41FF424242FF434343FF444444FF454545FF464646FF474747FF484848FF4949
310
49FF4A4A4AFF4B4B4BFF4C4C4CFF4D4D4DFF4E4E4EFF4F4F4FFF505050FF5151
310
51FF525252FF535353FF545454FF555555FF565656FF575757FF585858FF5959
310
59FF5A5A5AFF5B5B5BFF5C5C5CFF5D5D5DFF5E5E5EFF5F5F5FFF606060FF6161
310
61FF626262FF636363FF646464FF656565FF666666FF676767FF686868FF6969
310
69FF6A6A6AFF6B6B6BFF6C6C6CFF6D6D6DFF6E6E6EFF6F6F6FFF707070FF7171
310
71FF727272FF737373FF747474FF757575FF767676FF777777FF787878FF7979
310
79FF7A7A7AFF7B7B7BFF7C7C7CFF7D7D7DFF7E7E7EFF7F7F7FFF808080FF8181
310
81FF828282FF838383FF848484FF858585FF868686FF878787FF888888FF8989
310
89FF8A8A8AFF8B8B8BFF8C8C8CFF8D8D8DFF8E8E8EFF8F8F8FFF909090FF9191
310
91FF929292FF939393FF949494FF959595FF969696FF979797FF989898FF9999
310
99FF9A9A9AFF9B9B9BFF9C9C9CFF9D9D9DFF9E9E9EFF9F9F9FFFA0A0A0FFA1A1
310
A1FFA2A2A2FFA3A3A3FFA4A4A4FFA5A5A5FFA6A6A6FFA7A7A7FFA8A8A8FFA9A9
310
A9FFAAAAAAFFABABABFFACACACFFADADADFFAEAEAEFFAFAFAFFFB0B0B0FFB1B1
310
B1FFB2B2B2FFB3B3B3FFB4B4B4FFB5B5B5FFB6B6B6FFB7B7B7FFB8B8B8FFB9B9
310
B9FFBABABAFFBBBBBBFFBCBCBCFFBDBDBDFFBEBEBEFFBFBFBFFFC0C0C0FFC1C1
310
C1FFC2C2C2FFC3C3C3FFC4C4C4FFC5C5C5FFC6C6C6FFC7C7C7FFC8C8C8FFC9C9
310
C9FFCACACAFFCBCBCBFFCCCCCCFFCDCDCDFFCECECEFFCFCFCFFFD0D0D0FFD1D1
310
D1FFD2D2D2FFD3D3D3FFD4D4D4FFD5D5D5FFD6D6D6FFD7D7D7FFD8D8D8FFD9D9
310
D9FFDADADAFFDBDBDBFFDCDCDCFFDDDDDDFFDEDEDEFFDFDFDFFFE0E0E0FFE1E1
310
E1FFE2E2E2FFE3E3E3FFE4E4E4FFE5E5E5FFE6E6E6FFE7E7E7FFE8E8E8FFE9E9
310
E9FFEAEAEAFFEBEBEBFFECECECFFEDEDEDFFEEEEEEFFEFEFEFFFF0F0F0FFF1F1
310
F1FFF2F2F2FFF3F3F3FFF4F4F4FFF5F5F5FFF6F6F6FFF7F7F7FFF8F8F8FFF9F9
310
F9FFFAFAFAFFFBFBFBFFFCFCFCFFFDFDFDFFFEFEFEFFFFFFFFFFFFFFFFFFFFFF
310
C94E4E4E4F4E4EFFFFFFFFFFC94E4E4E4E4E72FFFFFFFFFFFFFF734E4D4E4E4E
310
C9FFFFFFFFFFAA683516171616265B9BE9FFFFFFFFFF4E4E4E4D4E4EFFFFFFFF
310
FFFFFFFF4E4E4F4E4D4E4E4E4F4E4E4F4D4E4E4E4E4E4D4E4F4E4D4E4E4EAAFF
310
FFFFFFFFFFEA4E4F4F4E4E4E4E4E4D4D4F4F4E4E4E4E4E5B7FAAFFFFFFFFFFFF
310
C9744E1716171616164D8DEAFFFFFFFF0000FFFFFFFFFFFFBA161617161716FF
310
FFFFFFFFB917171616174FFFFFFFFFFFFFFF4E1716161616B9FFFFFFB9341717
310
1716171617171616268CFFFFFFFF161617161617FFFFFFFFFFFFFFB917161717
310
1617167F807F7F7F7F7F7F807F7F807F7F807F7F7F414EFFFFFFFFFFFF8C167F
310
7F807F7F7F7E7F7F807F807F7F807F4E3417258EFFFFEA4E162674AABAEAEBBA
310
AA74341680FFFFFF0000FFFFFFFFFFFFB9171717171617FFFFFFFFFFBB161616
310
16164EFFFFFFFFFFFFFF4E1717171717B9FFFF9C171617171716161616171616
310
171766FFFFFF161717161617FFFFFFFFFFFFFF8E16171717161616FFFFFFFFFF
310
FFFFFFFFFFFFFFFFFFFFFFFFFFAA16D9FFFFFFFFFF3467FFFFFFFFEAFFFFFFFF
310
FFFFFFFFFFFFFFFFFFCA671667EB26278DFFFFFFFFFFFFFFFFFFFF8C2541EAFF
310
0000FFFFFFFFFFFFB9171717171716FFFFFFFFFFBA16171617174EFFFFFFFFFF
310
FFFF4E1717161616BAFF9B1617161616171716171617161616161667FFFF1616
310
16161716FFFFFFFFFFFFFF7F16161617174017FFFFFFFFFFFFFFFFFFFFFFFFFF
310
FFFFFFFFFFFF344E7F7F7F7E7417DAFFFFFFFF80FFFFFFFFFFFFFFFFFFFFFFFF
310
FFFFFF9B163425CAFFFFFFFFFFFFFFFFFFFFFFFFCA2667FF0000FFFFFFFFFFFF
310
BA171717171617FFFFFFFFFFB916171716164EFFFFFFFFFFFFFF4F1716161717
310
B9C91716171616161716161617171616161617168DFF161716161717FFFFFFFF
310
FFFFFF7F17171716164F16FFFFFFFFFFFFFFFFFFFFFFFFFFFFFFFFFFFFFF9B16
310
17161617174EFFFFFFFFFF34FFFFFFFFD9BABABABABADAFFFFFFFFFF7F16AAFF
310
FFFFFFFFFFFFFFFFFFFFFFFFFF9C16BA0000FFFFFFFFFFFFB9161717161717FF
310
FFFFFFFFB917161716174DFFFFFFFFFFFFFF4E1616161616BA4E161617171716
310
419BEAEAAA4E16161617161726E9171717161616FFFFFFFFFFFFFF4F16161717
310
164E16FFFFFFFFFFBAB9B9B9B9B9BABABACAFFFFFFFFFFFFFFFFFFFFFFFFFFFF
310
FFFFBA16FFFFFFFF7F1617161617174DEAFFFFFFEA41FFFFFFFFFFAA4D16174E
310
9BFFFFFFFFFF34730000FFFFFFFFFFFFB9161617171617FFFFFFFFFFBA161616
310
16164EFFFFFFFFFFFFFF4F16161717169B1617161716175BFFFFFFFFFFFF7417
310
16171616168D171717161617FFFFFFFFFFFFEA2616171717167416FFFFFFFFFF
310
16171616171717171717EAFFFFFFFFFFFFFFFFFFFFFFFFFFFFFF6716FFFFFFFF
310
7F4EFFFFFFFFBA2573FFFFFFFFBAFFFFFFFFAA167FB9BB9B269BFFFFFFFF664F
310
0000FFFFFFFFFFFFB9171616161616FFFFFFFFFFBA16161717164EFFFFFFFFFF
310
FFFF4E16161616174E161617171626EAFFFFFFFFFFFFFF4E16161616164E1716
310
16161617FFFFFFFFFFFF671616161716347F16FFFFFFFFFF16B9FFFFFFFFFFFF
310
D9168DFFFFFFFFFFFFFFFFFFFFFFFFFFFFEA1716FFFFFFFF7F4EFFFFFFFFFF7F
310
4EFFFFFFFFFFFFFFFFFF5B66FFFFFFEA347FFFFFFFFF7F4D0000FFFFFFFFFFFF
310
B9171616171617FFFFFFFFFFBA17161716174EFFFFFFFFFFFFFF4D1716161617
310
17161716161673FFFFFFFFFFFFFFFF9B1617161717161616171616174F4E4E4E
310
4E341616171616167E7F16FFFFFFFFFF16BAFFFFFFFFFFFFFF5B41FFFFFFFF34
310
1616171616BAFFFFFF9B1716FFFFFFFF7F4EFFFFFFFFFF4E4EFFFFFFFF734E4E
310
4E4E267EDA9B67164EEAFFFFFFFF744D0000FFFFFFFFFFFFBA171717161617FF
310
FFFFFFFFBA1616171616347F7F7F7F80807F331616161717161717161716B9FF
310
FFFFFFFFFFFFFFE9161616161616171716161716171616161616171616171734
310
EA7F16FFFFFFFFFF16BAFFFFFFFFFFFFFFAA17C9FFFFFF7326BABA5B25FFFFFF
310
FF401716FFFFFFFF7F264F4E4E4E4217AAFFFFFFEA16677F73261616164173CA
310
FFFFFFFFFFFF417F0000FFFFFFFFFFFFBA171616171617FFFFFFFFFFBA161616
310
17171616161616161616161717161616161616161617EAFFFFFFFFFFFFFFFFFF
310
261717161716161617161616161617161617161616174EEAFF8016FFFFFFFFFF
310
17BAFFFFFFFFFFFFFFFF3467FFFFFFC916C9FF3467FFFFFFDA166716FFFFFFFF
310
9C4D4E4E4E4E67AAFFFFFFFF6834FF7F262567AAEAFFFFFFFFFFFFFFFF9B17D9
310
0000FFFFFFFFFFFFB9161616161616FFFFFFFFFFBA1617161717171616161616
310
1716171716161716161617171716FFFFFFFFFFFFFFFFFFFF4E17161716171616
310
1617171616161716171717161616169BFF7F17FFFFFFFFFF17B9FFFFFFFFFFFF
310
FFFF7326FFFFFFFF3473DA16AAFFFFFF7317AA16FFFFFFFFFFFFFFFFFFFFFFFF
310
FFFFEA6725BA4E167FEAFFFFFFFFFFFFFFFFFFFF9C167FFF0000FFFFFFFFFFFF
310
B9161717171716FFFFFFFFFFBA16161716171616171717161617161716161616
310
171617171617EAFFFFFFFFFFFFFFFFFF26161717161616161616161617171616
310
1616161616171616AA8016FFFFFFFFFF16BAFFFFFFFFFFFFFFFFDA179BFFFFFF
310
74348D26FFFFFFFF2566B917FFFFFFFFD8BAB9BAB9BADAFFFFEA41169B7425C9
310
FFFFFFFFFFFFFFFFFFFFAB4F1680FFFF0000FFFFFFFFFFFFBA161717171617FF
310
FFFFFFFFBA17161717161617171617161616161617171616171716171617BBFF
310
FFFFFFFFFFFFFFE9171616161617161617161716FFFFFFFFFFD9671616161617
310
348017FFFFFFFFFF16BAFFFFFFFFFFFFFFFFFF4E5AFFFFFFC916265AFFFFFFAA
310
16AABA16FFFFFFFF7F1617161616179BFFFFEB4127168DFFFFFFFFFFFFFFD99B
310
6734175AC9FFFFFF0000FFFFFFFFFFFFB9161617171617FFFFFFFFFFBB161616
310
1616347F807F7F7F7F8033171716171617171616161672FFFFFFFFFFFFFFFF9C
310
171617171617161716161617FFFFFFFFFFFFFF4117161616174E17FFFFFFFFFF
310
16BAFFFFFFFFFFFFFFFFFF9B16DAFFFFFF34169BFFFFFF5A26FFB917FFFFFFFF
310
7F4EFFFFFFEA5B26FFFFFFEA2616EAFFFFFFFFDA743416331617414E4E4E4ECA
310
0000FFFFFFFFFFFFBA161716161616FFFFFFFFFFBA17171616164EFFFFFFFFFF
310
FFFF4E16161717174E161717171626EBFFFFFFFFFFFFFF4E16161617165B1616
310
16171617FFFFFFFFFFFFFF6716161616161617FFFFFFFFFF16BAFFFFFFFFFFFF
310
FFFFFFEA268CFFFFFF7316EAFFFFEB1774FFB916FFFFFFFF7F4EFFFFFFFF7316
310
FFFFFFFF6826FFFFFFFFEB264D9CEABA257F807F7F6616BA0000FFFFFFFFFFFF
310
BA161716161616FFFFFFFFFFBA16171616164DFFFFFFFFFFFFFF4E1617161617
310
9B1617171717165BEBFFFFFFFFFF671616161617179B171616161616FFFFFFFF
310
FFFFFF3417161617171617FFFFFFFFFF17BAFFFFFFFFFFFFFFFFFFFF6734FFFF
310
FFEBCAFFFFFF8D17C9FFBA17FFFFFFFF7F357F808066174FFFFFFFFF7F16FFFF
310
FFFFD91673B99B415BFFFFFFFFBA16DA00009B7F7F7F807F671617161616167F
310
80807F7E6617161616164EFFFFFFFFFFFFFF4E1616161617B94E171716161616
310
349BC9D9AA4E16171616161634FF161617161717B9B9BAB9BA9B411716171716
310
163416FFFFFFFFFF16B9FFFFFFFFFFFFFFFFFFFFC917CAFFFFFFFFFFFFFF3342
310
FFFFBA17FFFFFFFF9B4E4E4F4E4E66EAFFFFFFFF5B16C9FFFFFFFFAA4E164E73
310
EAFFFFFFFF8D26FF00004E161716161616171617171616171717171617161616
310
17174EFFFFFFFFFFFFFF4E1717171616B9D92616171716171716171717171716
310
16171716AAFF161717171617161617171616161617161716166717FFFFFFFFFF
310
17B9FFFFFFFFFFFFFFFFFFFFFF3467FFFFFFFFFFFFCA168CFFFFBB17FFFFFFFF
310
FFFFFFFFFFFFFFFFFFFFFFEA26265BFFFFFFFFFFFFFFFFFFFFFFFFFFEA3467FF
310
00004D16161616161617161717161617161616171617171616164EFFFFFFFFFF
310
FFFF4D1617161616BAFF9B1616161616161716161616171717161766FFFF1616
310
16171617161617161716171616171717667F16FFFFFFFFFF17BAFFFFFFFFFFFF
310
FFFFFFFFFF8C26EAFFFFFFFFFF6617EAFFFFBA17FFFFFFFFFFFFFFFFFFFFFFFF
310
FFFFEA5A25BA269BFFFFFFFFFFFFFFFFFFFFFFFF6616DAFF00004E1616171616
310
1616161616161716161617171616171616174EFFFFFFFFFFFFFF4D1717171716
310
B9FFFF9C161616161616161716161717171667FFFFFF17161717171716161617
310
1716161616161641E97E16FFFFFFFFFF16B9FFFFFFFFFFFFFFFFFFFFFFEA169B
310
FFFFFFFFEA265BFFFFFFB916FFFFFFFFFFFFFFFFFFFFFFFFFF9B3416AAFF9B17
310
67EAFFFFFFFFFFFFFFFFEA5B169BFFFF00004D17161716161616161717171616
310
161717161716171716174EFFFFFFFFFFFFFF4D1616161616BAFFFFFFBB411616
310
161716161616171634ABFFFFFFFF161716161617171716171617171617267FFF
310
FF7F164E4E4E4E4F17BAFFFFFFFFFFFFFFFFFFFFFFFF66344D4E4E4F4117AAFF
310
FFFFBA174E4E4E4D4E4D4D4E4E4E4E4116174EBBFFFFFFCA342666ABEAFFFFEA
310
AA6725269CFFFFFF0000724F4E4D4D4D4E4D4D4E4E4E4D4E4E4E4E4E4E4E4E4D
310
4E4E74FFFFFFFFFFFFFF734E4E4E4D4ECAFFFFFFFFFFAA663416171717265B9B
310
FFFFFFFFFFFF7F8080807F80807F7F7F7F7F807FBAFFFFFFFF9B4E4E4F4D4D4E
310
4DC9FFFFFFFFFFFFFFFFFFFFFFFFBA4E4E4E4E4D4E4EFFFFFFFFC94E4E4E4F4E
310
4E4E4D4E4E5A807F9CD9FFFFFFFFFFFFFF9B5B2617171716174E8DEAFFFFFFFF
310
0000000000000000000000000000000000000000000000000000000000000000
  1
OLE
  0
ENDSEC
  0
SECTION
  2
OBJECTS
  0
DICTIONARY
  5
C
330
0
100
AcDbDictionary
281
     1
  3
ACAD_GROUP
350
D
  3
ACAD_LAYOUT
350
1A
  3
ACAD_MLINESTYLE
350
17
  3
ACAD_PLOTSETTINGS
350
19
  3
ACAD_PLOTSTYLENAME
350
E
  0
DICTIONARY
  5
D
102
{ACAD_REACTORS
330
C
102
}
330
C
100
AcDbDictionary
281
     1
  0
DICTIONARY
  5
1A
102
{ACAD_REACTORS
330
C
102
}
330
C
100
AcDbDictionary
281
     1
  3
Layout1
350
1E
  3
Layout2
350
26
  3
Model
350
22
  0
DICTIONARY
  5
17
102
{ACAD_REACTORS
330
C
102
}
330
C
100
AcDbDictionary
281
     1
  3
Standard
350
18
  0
DICTIONARY
  5
19
102
{ACAD_REACTORS
330
C
102
}
330
C
100
AcDbDictionary
281
     1
  0
ACDBDICTIONARYWDFLT
  5
E
102
{ACAD_REACTORS
330
C
102
}
330
C
100
AcDbDictionary
281
     1
  3
Normal
350
F
100
AcDbDictionaryWithDefault
340
F
  0
LAYOUT
  5
1E
102
{ACAD_REACTORS
330
1A
102
}
330
1A
100
AcDbPlotSettings
  1

  2
none_device
  4

  6

 40
0.0
 41
0.0
 42
0.0
 43
0.0
 44
0.0
 45
0.0
 46
0.0
 47
0.0
 48
0.0
 49
0.0
140
0.0
141
0.0
142
1.0
143
1.0
 70
   688
 72
     0
 73
     0
 74
     5
  7

 75
    16
147
1.0
148
0.0
149
0.0
100
AcDbLayout
  1
Layout1
 70
     1
 71
     1
 10
0.0
 20
0.0
 11
420.0
 21
297.0
 12
0.0
 22
0.0
 32
0.0
 14
1.0000000000E+20
 24
1.0000000000E+20
 34
1.0000000000E+20
 15
-1.0000000000E+20
 25
-1.0000000000E+20
 35
-1.0000000000E+20
146
0.0
 13
0.0
 23
0.0
 33
0.0
 16
1.0
 26
0.0
 36
0.0
 17
0.0
 27
1.0
 37
0.0
 76
     0
330
1B
  0
LAYOUT
  5
26
102
{ACAD_REACTORS
330
1A
102
}
330
1A
100
AcDbPlotSettings
  1

  2
none_device
  4

  6

 40
0.0
 41
0.0
 42
0.0
 43
0.0
 44
0.0
 45
0.0
 46
0.0
 47
0.0
 48
0.0
 49
0.0
140
0.0
141
0.0
142
1.0
143
1.0
 70
   688
 72
     0
 73
     0
 74
     5
  7

 75
    16
147
1.0
148
0.0
149
0.0
100
AcDbLayout
  1
Layout2
 70
     1
 71
     2
 10
0.0
 20
0.0
 11
0.0
 21
0.0
 12
0.0
 22
0.0
 32
0.0
 14
0.0
 24
0.0
 34
0.0
 15
0.0
 25
0.0
 35
0.0
146
0.0
 13
0.0
 23
0.0
 33
0.0
 16
1.0
 26
0.0
 36
0.0
 17
0.0
 27
1.0
 37
0.0
 76
     0
330
23
  0
LAYOUT
  5
22
102
{ACAD_REACTORS
330
1A
102
}
330
1A
100
AcDbPlotSettings
  1

  2
none_device
  4

  6

 40
0.0
 41
0.0
 42
0.0
 43
0.0
 44
0.0
 45
0.0
 46
0.0
 47
0.0
 48
0.0
 49
0.0
140
0.0
141
0.0
142
1.0
143
1.0
 70
  1712
 72
     0
 73
     0
 74
     0
  7

 75
     0
147
1.0
148
0.0
149
0.0
100
AcDbLayout
  1
Model
 70
     1
 71
     0
 10
0.0
 20
0.0
 11
279.4
 21
215.9
 12
0.0
 22
0.0
 32
0.0
 14
0.0
 24
0.0
 34
0.0
 15
279.4
 25
215.9
 35
0.0
146
0.0
 13
0.0
 23
0.0
 33
0.0
 16
1.0
 26
0.0
 36
0.0
 17
0.0
 27
1.0
 37
0.0
 76
     0
330
1F
331
29
  0
MLINESTYLE
  5
18
102
{ACAD_REACTORS
330
17
102
}
330
17
100
AcDbMlineStyle
  2
Standard
 70
     0
  3

 62
   256
 51
90.0
 52
90.0
 71
     2
 49
0.5
 62
   256
  6
BYLAYER
 49
-0.5
 62
   256
  6
BYLAYER
  0
ACDBPLACEHOLDER
  5
F
102
{ACAD_REACTORS
330
E
102
}
330
E
  0
ENDSEC
  0
EOF
