  0
SECTION
  2
HEADER
  9
$ACADVER
  1
AC1015
  9
$ACADMAINTVER
 70
     6
  9
$DWGCODEPAGE
  3
ANSI_1252
  9
$INSBASE
 10
0.0
 20
0.0
 30
0.0
  9
$EXTMIN
 10
0.0
 20
0.0
 30
0.0
  9
$EXTMAX
 10
11.0
 20
8.5
 30
0.0
  9
$LIMMIN
 10
0.0
 20
0.0
  9
$LIMMAX
 10
11.0
 20
8.5
  9
$ORTHOMODE
 70
     0
  9
$REGENMODE
 70
     1
  9
$FILLMODE
 70
     1
  9
$QTEXTMODE
 70
     0
  9
$MIRRTEXT
 70
     1
  9
$LTSCALE
 40
1.0
  9
$ATTMODE
 70
     1
  9
$TEXTSIZE
 40
0.1111111111
  9
$TRACEWID
 40
0.05
  9
$TEXTSTYLE
  7
Standard
  9
$CLAYER
  8
0
  9
$CELTYPE
  6
ByLayer
  9
$CECOLOR
 62
   256
  9
$CELTSCALE
 40
1.0
  9
$DISPSILH
 70
     0
  9
$DIMSCALE
 40
1.0
  9
$DIMASZ
 40
0.125
  9
$DIMEXO
 40
0.05
  9
$DIMDLI
 40
0.38
  9
$DIMRND
 40
0.0
  9
$DIMDLE
 40
0.0
  9
$DIMEXE
 40
0.07
  9
$DIMTP
 40
0.0
  9
$DIMTM
 40
0.0
  9
$DIMTXT
 40
0.1111111111
  9
$DIMCEN
 40
0.09
  9
$DIMTSZ
 40
0.0
  9
$DIMTOL
 70
     0
  9
$DIMLIM
 70
     0
  9
$DIMTIH
 70
     1
  9
$DIMTOH
 70
     1
  9
$DIMSE1
 70
     0
  9
$DIMSE2
 70
     0
  9
$DIMTAD
 70
     0
  9
$DIMZIN
 70
     0
  9
$DIMBLK
  1

  9
$DIMASO
 70
     1
  9
$DIMSHO
 70
     1
  9
$DIMPOST
  1

  9
$DIMAPOST
  1

  9
$DIMALT
 70
     0
  9
$DIMALTD
 70
     2
  9
$DIMALTF
 40
25.4
  9
$DIMLFAC
 40
1.0
  9
$DIMTOFL
 70
     0
  9
$DIMTVP
 40
0.0
  9
$DIMTIX
 70
     0
  9
$DIMSOXD
 70
     0
  9
$DIMSAH
 70
     0
  9
$DIMBLK1
  1

  9
$DIMBLK2
  1

  9
$DIMSTYLE
  2
Standard
  9
$DIMCLRD
 70
     0
  9
$DIMCLRE
 70
     0
  9
$DIMCLRT
 70
     0
  9
$DIMTFAC
 40
1.0
  9
$DIMGAP
 40
0.1
  9
$DIMJUST
 70
     0
  9
$DIMSD1
 70
     0
  9
$DIMSD2
 70
     0
  9
$DIMTOLJ
 70
     1
  9
$DIMTZIN
 70
     0
  9
$DIMALTZ
 70
     0
  9
$DIMALTTZ
 70
     0
  9
$DIMUPT
 70
     0
  9
$DIMDEC
 70
     2
  9
$DIMTDEC
 70
     2
  9
$DIMALTU
 70
     2
  9
$DIMALTTD
 70
     2
  9
$DIMTXSTY
  7
Standard
  9
$DIMAUNIT
 70
     0
  9
$DIMADEC
 70
     2
  9
$DIMALTRND
 40
0.0
  9
$DIMAZIN
 70
     0
  9
$DIMDSEP
 70
    46
  9
$DIMATFIT
 70
     3
  9
$DIMFRAC
 70
     0
  9
$DIMLDRBLK
  1

  9
$DIMLUNIT
 70
     2
  9
$DIMLWD
 70
    -2
  9
$DIMLWE
 70
    -2
  9
$DIMTMOVE
 70
     0
  9
$LUNITS
 70
     2
  9
$LUPREC
 70
     2
  9
$SKETCHINC
 40
0.1
  9
$FILLETRAD
 40
0.5
  9
$AUNITS
 70
     0
  9
$AUPREC
 70
     2
  9
$MENU
  1
.
  9
$ELEVATION
 40
0.0
  9
$PELEVATION
 40
0.0
  9
$THICKNESS
 40
0.0
  9
$LIMCHECK
 70
     0
  9
$CHAMFERA
 40
0.5
  9
$CHAMFERB
 40
0.5
  9
$CHAMFERC
 40
1.0
  9
$CHAMFERD
 40
0.0
  9
$SKPOLY
 70
     0
  9
$TDCREATE
 40
2455993.628969711
  9
$TDUCREATE
 40
2455993.837303044
  9
$TDUPDATE
 40
2455993.628969722
  9
$TDUUPDATE
 40
2455993.837303055
  9
$TDINDWG
 40
0.0000000116
  9
$TDUSRTIMER
 40
0.0000000116
  9
$USRTIMER
 70
     1
  9
$ANGBASE
 50
0.0
  9
$ANGDIR
 70
     0
  9
$PDMODE
 70
     0
  9
$PDSIZE
 40
-1.0
  9
$PLINEWID
 40
0.0
  9
$SPLFRAME
 70
     0
  9
$SPLINETYPE
 70
     6
  9
$SPLINESEGS
 70
     8
  9
$HANDSEED
  5
3CA
  9
$SURFTAB1
 70
     6
  9
$SURFTAB2
 70
     6
  9
$SURFTYPE
 70
     6
  9
$SURFU
 70
     6
  9
$SURFV
 70
     6
  9
$UCSBASE
  2

  9
$UCSNAME
  2

  9
$UCSORG
 10
0.0
 20
0.0
 30
0.0
  9
$UCSXDIR
 10
1.0
 20
0.0
 30
0.0
  9
$UCSYDIR
 10
0.0
 20
1.0
 30
0.0
  9
$UCSORTHOREF
  2

  9
$UCSORTHOVIEW
 70
     0
  9
$UCSORGTOP
 10
0.0
 20
0.0
 30
0.0
  9
$UCSORGBOTTOM
 10
0.0
 20
0.0
 30
0.0
  9
$UCSORGLEFT
 10
0.0
 20
0.0
 30
0.0
  9
$UCSORGRIGHT
 10
0.0
 20
0.0
 30
0.0
  9
$UCSORGFRONT
 10
0.0
 20
0.0
 30
0.0
  9
$UCSORGBACK
 10
0.0
 20
0.0
 30
0.0
  9
$PUCSBASE
  2

  9
$PUCSNAME
  2

  9
$PUCSORG
 10
0.0
 20
0.0
 30
0.0
  9
$PUCSXDIR
 10
1.0
 20
0.0
 30
0.0
  9
$PUCSYDIR
 10
0.0
 20
1.0
 30
0.0
  9
$PUCSORTHOREF
  2

  9
$PUCSORTHOVIEW
 70
     0
  9
$PUCSORGTOP
 10
0.0
 20
0.0
 30
0.0
  9
$PUCSORGBOTTOM
 10
0.0
 20
0.0
 30
0.0
  9
$PUCSORGLEFT
 10
0.0
 20
0.0
 30
0.0
  9
$PUCSORGRIGHT
 10
0.0
 20
0.0
 30
0.0
  9
$PUCSORGFRONT
 10
0.0
 20
0.0
 30
0.0
  9
$PUCSORGBACK
 10
0.0
 20
0.0
 30
0.0
  9
$USERI1
 70
     0
  9
$USERI2
 70
     0
  9
$USERI3
 70
     0
  9
$USERI4
 70
     0
  9
$USERI5
 70
     0
  9
$USERR1
 40
0.0
  9
$USERR2
 40
0.0
  9
$USERR3
 40
0.0
  9
$USERR4
 40
0.0
  9
$USERR5
 40
0.0
  9
$WORLDVIEW
 70
     1
  9
$SHADEDGE
 70
     3
  9
$SHADEDIF
 70
    70
  9
$TILEMODE
 70
     1
  9
$MAXACTVP
 70
    64
  9
$PINSBASE
 10
0.0
 20
0.0
 30
0.0
  9
$PLIMCHECK
 70
     0
  9
$PEXTMIN
 10
1.0000000000E+20
 20
1.0000000000E+20
 30
1.0000000000E+20
  9
$PEXTMAX
 10
-1.0000000000E+20
 20
-1.0000000000E+20
 30
-1.0000000000E+20
  9
$PLIMMIN
 10
0.0
 20
0.0
  9
$PLIMMAX
 10
12.0
 20
9.0
  9
$UNITMODE
 70
     0
  9
$VISRETAIN
 70
     1
  9
$PLINEGEN
 70
     0
  9
$PSLTSCALE
 70
     1
  9
$TREEDEPTH
 70
  3020
  9
$CMLSTYLE
  2
Standard
  9
$CMLJUST
 70
     0
  9
$CMLSCALE
 40
1.0
  9
$PROXYGRAPHICS
 70
     1
  9
$MEASUREMENT
 70
     0
  9
$CELWEIGHT
370
    -1
  9
$ENDCAPS
280
     0
  9
$JOINSTYLE
280
     0
  9
$LWDISPLAY
290
     1
  9
$INSUNITS
 70
     1
  9
$HYPERLINKBASE
  1

  9
$STYLESHEET
  1

  9
$XEDIT
290
     1
  9
$CEPSNTYPE
380
     0
  9
$PSTYLEMODE
290
     1
  9
$FINGERPRINTGUID
  2
{881E8DBC-9668-4615-BE3B-2659C849F6D1}
  9
$VERSIONGUID
  2
{FAEB1C32-E019-11D5-929B-00C0DF256EC4}
  9
$EXTNAMES
290
     1
  9
$PSVPSCALE
 40
0.0
  9
$OLESTARTUP
290
     0
  0
ENDSEC
  0
SECTION
  2
CLASSES
  0
CLASS
  1
ACDBDICTIONARYWDFLT
  2
AcDbDictionaryWithDefault
  3
ObjectDBX Classes
 90
        0
280
     0
281
     0
  0
CLASS
  1
VISUALSTYLE
  2
AcDbVisualStyle
  3
ObjectDBX Classes
 90
     4095
280
     0
281
     0
  0
CLASS
  1
MATERIAL
  2
AcDbMaterial
  3
ObjectDBX Classes
 90
     1153
280
     0
281
     0
  0
CLASS
  1
ACDBPLACEHOLDER
  2
AcDbPlaceHolder
  3
ObjectDBX Classes
 90
        0
280
     0
281
     0
  0
CLASS
  1
LAYOUT
  2
AcDbLayout
  3
ObjectDBX Classes
 90
        0
280
     0
281
     0
  0
ENDSEC
  0
SECTION
  2
TABLES
  0
TABLE
  2
VPORT
  5
8
330
0
100
AcDbSymbolTable
 70
     1
  0
VPORT
  5
29
330
8
100
AcDbSymbolTableRecord
100
AcDbViewportTableRecord
  2
*Active
 70
     0
 10
0.0
 20
0.0
 11
1.0
 21
1.0
 12
5.5
 22
4.25
 13
0.0
 23
0.0
 14
0.5
 24
0.5
 15
0.5
 25
0.5
 16
0.0
 26
0.0
 36
1.0
 17
0.0
 27
0.0
 37
0.0
 40
8.5
 41
1.2941176471
 42
50.0
 43
0.0
 44
0.0
 50
0.0
 51
0.0
 71
     0
 72
  2000
 73
     1
 74
     3
 75
     0
 76
     0
 77
     0
 78
     0
281
     0
 65
     1
110
0.0
120
0.0
130
0.0
111
1.0
121
0.0
131
0.0
112
0.0
122
1.0
132
0.0
 79
     0
146
0.0
  0
ENDTAB
  0
TABLE
  2
LTYPE
  5
5
330
0
100
AcDbSymbolTable
 70
     6
  0
LTYPE
  5
14
330
5
100
AcDbSymbolTableRecord
100
AcDbLinetypeTableRecord
  2
ByBlock
 70
     0
  3

 72
    65
 73
     0
 40
0.0
  0
LTYPE
  5
15
330
5
100
AcDbSymbolTableRecord
100
AcDbLinetypeTableRecord
  2
ByLayer
 70
     0
  3

 72
    65
 73
     0
 40
0.0
  0
LTYPE
  5
16
330
5
100
AcDbSymbolTableRecord
100
AcDbLinetypeTableRecord
  2
Continuous
 70
     0
  3
Solid line
 72
    65
 73
     0
 40
0.0
  0
LTYPE
  5
3F
330
5
100
AcDbSymbolTableRecord
100
AcDbLinetypeTableRecord
  2
HIDDEN
 70
     0
  3
Hidden __ __ __ __ __ __ __ __ __ __ __ __ __ __
 72
    65
 73
     2
 40
0.075
 49
0.05
 74
     0
 49
-0.025
 74
     0
  0
LTYPE
  5
40
330
5
100
AcDbSymbolTableRecord
100
AcDbLinetypeTableRecord
  2
PHANTOM
 70
     0
  3
Phantom ______  __  __  ______  __  __  ______
 72
    65
 73
     6
 40
0.5
 49
0.25
 74
     0
 49
-0.05
 74
     0
 49
0.05
 74
     0
 49
-0.05
 74
     0
 49
0.05
 74
     0
 49
-0.05
 74
     0
  0
LTYPE
  5
41
330
5
100
AcDbSymbolTableRecord
100
AcDbLinetypeTableRecord
  2
CENTER
 70
     0
  3
Center ____ _ ____ _ ____ _ ____ _ ____ _ ____
 72
    65
 73
     4
 40
0.4
 49
0.25
 74
     0
 49
-0.05
 74
     0
 49
0.05
 74
     0
 49
-0.05
 74
     0
  0
LTYPE
  5
42
330
5
100
AcDbSymbolTableRecord
100
AcDbLinetypeTableRecord
  2
CENTERX2
 70
     0
  3
Center (2x) ________  __  ________  __  _____
 72
    65
 73
     4
 40
0.8
 49
0.5
 74
     0
 49
-0.1
 74
     0
 49
0.1
 74
     0
 49
-0.1
 74
     0
  0
LTYPE
  5
43
330
5
100
AcDbSymbolTableRecord
100
AcDbLinetypeTableRecord
  2
DOT2
 70
     0
  3
Dot (.5x) ........................................
 72
    65
 73
     2
 40
0.025
 49
0.0
 74
     0
 49
-0.025
 74
     0
  0
ENDTAB
  0
TABLE
  2
LAYER
  5
2
330
0
100
AcDbSymbolTable
 70
     2
  0
LAYER
  5
10
330
2
100
AcDbSymbolTableRecord
100
AcDbLayerTableRecord
  2
0
 70
     0
 62
     7
  6
Continuous
370
    -3
390
F
  0
LAYER
  5
44
330
2
100
AcDbSymbolTableRecord
100
AcDbLayerTableRecord
  2
FORMAT
 70
     0
 62
     7
  6
Continuous
370
    -3
390
F
  0
ENDTAB
  0
TABLE
  2
STYLE
  5
3
330
0
100
AcDbSymbolTable
 70
     4
  0
STYLE
  5
11
330
3
100
AcDbSymbolTableRecord
100
AcDbTextStyleTableRecord
  2
Standard
 70
     0
 40
0.0
 41
1.0
 50
0.0
 71
     0
 42
0.2
  3
txt
  4

  0
STYLE
  5
6B
330
3
100
AcDbSymbolTableRecord
100
AcDbTextStyleTableRecord
  2
SLDTEXTSTYLE0
 70
     0
 40
0.0
 41
0.75
 50
0.0
 71
     0
 42
0.2
  3
TXT
  4

  0
STYLE
  5
74
330
3
100
AcDbSymbolTableRecord
100
AcDbTextStyleTableRecord
  2
SLDTEXTSTYLE1
 70
     0
 40
0.0
 41
0.6944444444
 50
0.0
 71
     0
 42
0.2
  3
TXT
  4

  0
STYLE
  5
78
330
3
100
AcDbSymbolTableRecord
100
AcDbTextStyleTableRecord
  2
SLDTEXTSTYLE2
 70
     0
 40
0.0
 41
0.6
 50
0.0
 71
     0
 42
0.2
  3
TXT
  4

  0
ENDTAB
  0
TABLE
  2
VIEW
  5
6
330
0
100
AcDbSymbolTable
 70
     0
  0
ENDTAB
  0
TABLE
  2
UCS
  5
7
330
0
100
AcDbSymbolTable
 70
     0
  0
ENDTAB
  0
TABLE
  2
APPID
  5
9
330
0
100
AcDbSymbolTable
 70
     1
  0
APPID
  5
12
330
9
100
AcDbSymbolTableRecord
100
AcDbRegAppTableRecord
  2
ACAD
 70
     0
  0
ENDTAB
  0
TABLE
  2
DIMSTYLE
  5
A
330
0
100
AcDbSymbolTable
 70
     9
100
AcDbDimStyleTable
  0
DIMSTYLE
105
27
330
A
100
AcDbSymbolTableRecord
100
AcDbDimStyleTableRecord
  2
Standard
 70
     0
178
     0
340
11
  0
DIMSTYLE
105
CB
102
{ACAD_REACTORS
330
CA
330
1C0
330
1D0
102
}
330
A
100
AcDbSymbolTableRecord
100
AcDbDimStyleTableRecord
  2
SLDDIMSTYLE0
 70
     0
 41
0.125
 44
0.0
 45
0.000000001
 78
    12
 79
     3
140
0.0833333333
147
0.0208333333
172
     1
173
     1
178
     0
271
     2
272
     2
276
     2
284
    12
289
     0
340
6B
  0
DIMSTYLE
105
DA
102
{ACAD_REACTORS
330
D9
102
}
330
A
100
AcDbSymbolTableRecord
100
AcDbDimStyleTableRecord
  2
SLDDIMSTYLE1
 70
     0
 41
0.125
 44
0.0
 45
0.000000001
 78
     4
 79
     1
140
0.0833333333
147
0.0208333333
173
     1
178
     0
271
     2
272
     2
276
     2
284
    12
340
6B
  0
DIMSTYLE
105
ED
102
{ACAD_REACTORS
330
EC
330
12C
330
144
330
1B2
330
3AD
102
}
330
A
100
AcDbSymbolTableRecord
100
AcDbDimStyleTableRecord
  2
SLDDIMSTYLE2
 70
     0
 41
0.125
 44
0.0
 45
0.000000001
 78
    12
 79
     3
140
0.0833333333
147
0.0208333333
173
     1
178
     0
271
     2
272
     2
276
     2
284
    12
340
6B
  0
DIMSTYLE
105
13B
102
{ACAD_REACTORS
330
13A
330
3A4
102
}
330
A
100
AcDbSymbolTableRecord
100
AcDbDimStyleTableRecord
  2
SLDDIMSTYLE3
 70
     0
  3
<>
 41
0.125
 44
0.0
 45
0.000000001
 78
    12
 79
     3
140
0.0833333333
141
0.0
147
0.0208333333
173
     1
178
     0
271
     2
272
     2
276
     2
284
    12
340
6B
  0
DIMSTYLE
105
153
102
{ACAD_REACTORS
330
152
102
}
330
A
100
AcDbSymbolTableRecord
100
AcDbDimStyleTableRecord
  2
SLDDIMSTYLE4
 70
     0
 41
0.125
 44
0.0
 45
0.000000001
 78
    12
 79
     3
140
0.0833333333
141
0.0
147
0.0208333333
173
     1
178
     0
271
     2
272
     2
276
     2
284
    12
340
6B
  0
DIMSTYLE
105
161
102
{ACAD_REACTORS
330
160
102
}
330
A
100
AcDbSymbolTableRecord
100
AcDbDimStyleTableRecord
  2
SLDDIMSTYLE5
 70
     0
 41
0.125
 44
0.0
 45
0.000000001
 78
     4
 79
     1
140
0.0833333333
141
0.0
147
0.0208333333
173
     1
178
     0
271
     2
272
     2
276
     2
284
    12
340
6B
  0
DIMSTYLE
105
1DF
102
{ACAD_REACTORS
330
1DE
102
}
330
A
100
AcDbSymbolTableRecord
100
AcDbDimStyleTableRecord
  2
SLDDIMSTYLE6
 70
     0
  3
<>
 41
0.125
 44
0.0
 45
0.000000001
 78
    12
 79
     3
140
0.0833333333
141
0.0
147
0.0208333333
173
     1
178
     0
271
     2
272
     2
276
     2
284
    12
340
6B
  0
DIMSTYLE
105
1F0
330
A
100
AcDbSymbolTableRecord
100
AcDbDimStyleTableRecord
  2
SLDDIMSTYLE7
 70
     0
 41
0.04
 44
0.0
 45
0.000000001
140
0.0
146
0.04
147
0.0
173
     1
178
     0
271
     0
272
     0
276
     2
340
11
341
1F1
343
1F1
344
1F1
  0
ENDTAB
  0
TABLE
  2
BLOCK_RECORD
  5
1
330
0
100
AcDbSymbolTable
 70
    27
  0
BLOCK_RECORD
  5
1F
330
1
100
AcDbSymbolTableRecord
100
AcDbBlockTableRecord
  2
*Model_Space
340
22
  0
BLOCK_RECORD
  5
1B
330
1
100
AcDbSymbolTableRecord
100
AcDbBlockTableRecord
  2
*Paper_Space
340
1E
  0
BLOCK_RECORD
  5
23
330
1
100
AcDbSymbolTableRecord
100
AcDbBlockTableRecord
  2
*Paper_Space0
340
26
  0
BLOCK_RECORD
  5
45
330
1
100
AcDbSymbolTableRecord
100
AcDbBlockTableRecord
  2
Third Angle Projection Block
340
0
102
{BLKREFS
331
6A
102
}
  0
BLOCK_RECORD
  5
7E
330
1
100
AcDbSymbolTableRecord
100
AcDbBlockTableRecord
  2
SW_NOTE_0
340
0
102
{BLKREFS
331
83
102
}
  0
BLOCK_RECORD
  5
84
330
1
100
AcDbSymbolTableRecord
100
AcDbBlockTableRecord
  2
SW_NOTE_1
340
0
102
{BLKREFS
331
89
102
}
  0
BLOCK_RECORD
  5
8B
330
1
100
AcDbSymbolTableRecord
100
AcDbBlockTableRecord
  2
SW_NOTE_2
340
0
102
{BLKREFS
331
90
102
}
  0
BLOCK_RECORD
  5
92
330
1
100
AcDbSymbolTableRecord
100
AcDbBlockTableRecord
  2
SW_NOTE_3
340
0
102
{BLKREFS
331
97
102
}
  0
BLOCK_RECORD
  5
98
330
1
100
AcDbSymbolTableRecord
100
AcDbBlockTableRecord
  2
SW_BROKEN_VIEW_0
340
0
102
{BLKREFS
331
9B
102
}
  0
BLOCK_RECORD
  5
CC
330
1
100
AcDbSymbolTableRecord
100
AcDbBlockTableRecord
  2
*D7
340
0
  0
BLOCK_RECORD
  5
DB
330
1
100
AcDbSymbolTableRecord
100
AcDbBlockTableRecord
  2
*D8
340
0
  0
BLOCK_RECORD
  5
EE
330
1
100
AcDbSymbolTableRecord
100
AcDbBlockTableRecord
  2
*D9
340
0
  0
BLOCK_RECORD
  5
12D
330
1
100
AcDbSymbolTableRecord
100
AcDbBlockTableRecord
  2
*D10
340
0
  0
BLOCK_RECORD
  5
13C
330
1
100
AcDbSymbolTableRecord
100
AcDbBlockTableRecord
  2
*D11
340
0
  0
BLOCK_RECORD
  5
145
330
1
100
AcDbSymbolTableRecord
100
AcDbBlockTableRecord
  2
*D12
340
0
  0
BLOCK_RECORD
  5
154
330
1
100
AcDbSymbolTableRecord
100
AcDbBlockTableRecord
  2
*D13
340
0
  0
BLOCK_RECORD
  5
162
330
1
100
AcDbSymbolTableRecord
100
AcDbBlockTableRecord
  2
*D14
340
0
  0
BLOCK_RECORD
  5
16E
330
1
100
AcDbSymbolTableRecord
100
AcDbBlockTableRecord
  2
SW_CENTERMARKSYMBOL_0
340
0
102
{BLKREFS
331
175
102
}
  0
BLOCK_RECORD
  5
176
330
1
100
AcDbSymbolTableRecord
100
AcDbBlockTableRecord
  2
SW_CENTERMARKSYMBOL_1
340
0
102
{BLKREFS
331
17D
102
}
  0
BLOCK_RECORD
  5
1B3
330
1
100
AcDbSymbolTableRecord
100
AcDbBlockTableRecord
  2
*D17
340
0
  0
BLOCK_RECORD
  5
1C1
330
1
100
AcDbSymbolTableRecord
100
AcDbBlockTableRecord
  2
*D18
340
0
  0
BLOCK_RECORD
  5
1D1
330
1
100
AcDbSymbolTableRecord
100
AcDbBlockTableRecord
  2
*D19
340
0
  0
BLOCK_RECORD
  5
1E0
330
1
100
AcDbSymbolTableRecord
100
AcDbBlockTableRecord
  2
*D20
340
0
  0
BLOCK_RECORD
  5
1E8
330
1
100
AcDbSymbolTableRecord
100
AcDbBlockTableRecord
  2
SW_NOTE_4
340
0
102
{BLKREFS
331
1EF
102
}
  0
BLOCK_RECORD
  5
1F1
330
1
100
AcDbSymbolTableRecord
100
AcDbBlockTableRecord
  2
_DOT
340
0
  0
BLOCK_RECORD
  5
1FA
330
1
100
AcDbSymbolTableRecord
100
AcDbBlockTableRecord
  2
SW_CENTERMARKSYMBOL_2
340
0
102
{BLKREFS
331
201
102
}
  0
BLOCK_RECORD
  5
249
330
1
100
AcDbSymbolTableRecord
100
AcDbBlockTableRecord
  2
SW_BROKEN_VIEW_1
340
0
102
{BLKREFS
331
24C
102
}
  0
BLOCK_RECORD
  5
3A5
330
1
100
AcDbSymbolTableRecord
100
AcDbBlockTableRecord
  2
*D25
340
0
  0
BLOCK_RECORD
  5
3AE
330
1
100
AcDbSymbolTableRecord
100
AcDbBlockTableRecord
  2
*D26
340
0
  0
ENDTAB
  0
ENDSEC
  0
SECTION
  2
BLOCKS
  0
BLOCK
  5
20
330
1F
100
AcDbEntity
  8
0
100
AcDbBlockBegin
  2
*Model_Space
 70
     0
 10
0.0
 20
0.0
 30
0.0
  3
*Model_Space
  1

  0
ENDBLK
  5
21
330
1F
100
AcDbEntity
  8
0
100
AcDbBlockEnd
  0
BLOCK
  5
1C
330
1B
100
AcDbEntity
 67
     1
  8
0
100
AcDbBlockBegin
  2
*Paper_Space
 70
     0
 10
0.0
 20
0.0
 30
0.0
  3
*Paper_Space
  1

  0
ENDBLK
  5
1D
330
1B
100
AcDbEntity
 67
     1
  8
0
100
AcDbBlockEnd
  0
BLOCK
  5
24
330
23
100
AcDbEntity
  8
0
100
AcDbBlockBegin
  2
*Paper_Space0
 70
     0
 10
0.0
 20
0.0
 30
0.0
  3
*Paper_Space0
  1

  0
ENDBLK
  5
25
330
23
100
AcDbEntity
  8
0
100
AcDbBlockEnd
  0
BLOCK
  5
46
330
45
100
AcDbEntity
  8
0
100
AcDbBlockBegin
  2
Third Angle Projection Block
 70
     0
 10
0.0
 20
0.0
 30
0.0
  3
Third Angle Projection Block
  1

  0
CIRCLE
  5
48
330
45
100
AcDbEntity
  8
0
  6
Continuous
 62
     7
370
    30
100
AcDbCircle
 10
3.9951432636
 20
0.7456853688
 30
0.0
 40
0.0696152422706639
  0
CIRCLE
  5
49
330
45
100
AcDbEntity
  8
0
  6
Continuous
 62
     7
370
    30
100
AcDbCircle
 10
3.9951432636
 20
0.7456853688
 30
0.0
 40
0.1535916633280245
  0
LINE
  5
4A
330
45
100
AcDbEntity
  8
0
  6
CENTERX2
 62
     7
370
     0
100
AcDbLine
 10
4.3360937897
 20
0.7456853688
 30
0.0
 11
4.7028635231
 21
0.7456853688
 31
0.0
  0
LINE
  5
4B
330
45
100
AcDbEntity
  8
0
  6
Continuous
 62
     7
370
    30
100
AcDbLine
 10
4.3701432636
 20
0.815300611
 30
0.0
 11
4.3701432636
 21
0.6760701265
 31
0.0
  0
LINE
  5
4C
330
45
100
AcDbEntity
  8
0
  6
Continuous
 62
     7
370
    30
100
AcDbLine
 10
4.3701432636
 20
0.6760701265
 30
0.0
 11
4.6701432636
 21
0.5956853688
 31
0.0
  0
LINE
  5
4D
330
45
100
AcDbEntity
  8
0
  6
Continuous
 62
     7
370
    30
100
AcDbLine
 10
4.6701432636
 20
0.5956853688
 30
0.0
 11
4.6701432636
 21
0.8956853688
 31
0.0
  0
LINE
  5
4E
330
45
100
AcDbEntity
  8
0
  6
Continuous
 62
     7
370
    30
100
AcDbLine
 10
4.6701432636
 20
0.8956853688
 30
0.0
 11
4.3701432636
 21
0.815300611
 31
0.0
  0
LINE
  5
4F
330
45
100
AcDbEntity
  8
0
  6
CENTERX2
 62
     7
370
     0
100
AcDbLine
 10
3.8032513961
 20
0.7456853688
 30
0.0
 11
4.187035131
 21
0.7456853688
 31
0.0
  0
LINE
  5
50
330
45
100
AcDbEntity
  8
0
  6
CENTERX2
 62
     7
370
     0
100
AcDbLine
 10
3.9951432636
 20
0.9375772362
 30
0.0
 11
3.9951432636
 21
0.5537935013
 31
0.0
  0
POINT
  5
51
330
45
100
AcDbEntity
  8
0
  6
Continuous
 62
     7
370
     0
100
AcDbPoint
 10
3.9951432636
 20
0.7456853688
 30
0.0
  0
ENDBLK
  5
47
330
45
100
AcDbEntity
  8
0
100
AcDbBlockEnd
  0
BLOCK
  5
7F
330
7E
100
AcDbEntity
  8
0
100
AcDbBlockBegin
  2
SW_NOTE_0
 70
     0
 10
0.0
 20
0.0
 30
0.0
  3
SW_NOTE_0
  1

  0
MTEXT
  5
81
330
7E
100
AcDbEntity
  8
0
  6
Continuous
 62
     0
370
     0
100
AcDbMText
 10
0.78375
 20
0.0773440644
 30
0.0
 40
0.06
 41
0.0
 71
     2
 72
     1
  1
VALUES IN PARENTHESIS ARE CALCULATED
  7
SLDTEXTSTYLE0
 73
     1
 44
1.0
  0
MTEXT
  5
82
330
7E
100
AcDbEntity
  8
0
  6
Continuous
 62
     0
370
     0
100
AcDbMText
 10
0.7825936818
 20
-0.0220260102
 30
0.0
 40
0.06
 41
0.0
 71
     2
 72
     1
  1
AND MAY CONTAIN ROUNDOFF ERRORS
  7
SLDTEXTSTYLE0
 73
     1
 44
1.0
  0
ENDBLK
  5
80
330
7E
100
AcDbEntity
  8
0
100
AcDbBlockEnd
  0
BLOCK
  5
85
330
84
100
AcDbEntity
  8
0
100
AcDbBlockBegin
  2
SW_NOTE_1
 70
     0
 10
0.0
 20
0.0
 30
0.0
  3
SW_NOTE_1
  1

  0
MTEXT
  5
87
330
84
100
AcDbEntity
  8
0
  6
Continuous
 62
     0
370
     0
100
AcDbMText
 10
0.0
 20
0.1074223116
 30
0.0
 40
0.0833333333
 41
0.0
 71
     1
 72
     1
  1
DRAWING
  7
SLDTEXTSTYLE0
 73
     1
 44
1.0
  0
MTEXT
  5
88
330
84
100
AcDbEntity
  8
0
  6
Continuous
 62
     0
370
     0
100
AcDbMText
 10
0.0
 20
-0.0036887981
 30
0.0
 40
0.0833333333
 41
0.0
 71
     1
 72
     1
  1
PROJECTION
  7
SLDTEXTSTYLE0
 73
     1
 44
1.0
  0
ENDBLK
  5
86
330
84
100
AcDbEntity
  8
0
100
AcDbBlockEnd
  0
BLOCK
  5
8C
330
8B
100
AcDbEntity
  8
0
100
AcDbBlockBegin
  2
SW_NOTE_2
 70
     0
 10
0.0
 20
0.0
 30
0.0
  3
SW_NOTE_2
  1

  0
MTEXT
  5
8E
330
8B
100
AcDbEntity
  8
0
  6
Continuous
 62
     0
370
     0
100
AcDbMText
 10
0.986328125
 20
0.1611334675
 30
0.0
 40
0.125
 41
0.0
 71
     2
 72
     1
  1
FOR INFORMATION ONLY
  7
SLDTEXTSTYLE0
 73
     1
 44
1.0
  0
MTEXT
  5
8F
330
8B
100
AcDbEntity
  8
0
  6
Continuous
 62
     0
370
     0
100
AcDbMText
 10
0.999088459
 20
-0.0055331972
 30
0.0
 40
0.125
 41
0.0
 71
     2
 72
     1
  1
NOT FOR MANUFACTURING PURPOSES
  7
SLDTEXTSTYLE0
 73
     1
 44
1.0
  0
ENDBLK
  5
8D
330
8B
100
AcDbEntity
  8
0
100
AcDbBlockEnd
  0
BLOCK
  5
93
330
92
100
AcDbEntity
  8
0
100
AcDbBlockBegin
  2
SW_NOTE_3
 70
     0
 10
0.0
 20
0.0
 30
0.0
  3
SW_NOTE_3
  1

  0
MTEXT
  5
95
330
92
100
AcDbEntity
  8
0
  6
Continuous
 62
     0
370
     0
100
AcDbMText
 10
0.6731770833
 20
0.1477056785
 30
0.0
 40
0.1145833333
 41
0.0
 71
     2
 72
     1
  1
METRIC UNIVERSAL
  7
SLDTEXTSTYLE0
 73
     1
 44
1.0
  0
MTEXT
  5
96
330
92
100
AcDbEntity
  8
0
  6
Continuous
 62
     0
370
     0
100
AcDbMText
 10
0.6786276985
 20
-0.0050720974
 30
0.0
 40
0.1145833333
 41
0.0
 71
     2
 72
     1
  1
POST HOLDER 3"
  7
SLDTEXTSTYLE0
 73
     1
 44
1.0
  0
ENDBLK
  5
94
330
92
100
AcDbEntity
  8
0
100
AcDbBlockEnd
  0
BLOCK
  5
99
330
98
100
AcDbEntity
  8
0
100
AcDbBlockBegin
  2
SW_BROKEN_VIEW_0
 70
     0
 10
0.0
 20
0.0
 30
0.0
  3
SW_BROKEN_VIEW_0
  1

  0
ENDBLK
  5
9A
330
98
100
AcDbEntity
  8
0
100
AcDbBlockEnd
  0
BLOCK
  5
CD
330
CC
100
AcDbEntity
  8
0
100
AcDbBlockBegin
  2
*D7
 70
     1
 10
0.0
 20
0.0
 30
0.0
  3
*D7
  1

  0
SOLID
  5
CF
330
CC
100
AcDbEntity
  8
0
  6
Continuous
 62
     7
370
     0
100
AcDbTrace
 10
6.610166629
 20
3.3967653786
 30
0.0
 11
6.590166629
 21
3.2717653786
 31
0.0
 12
6.630166629
 22
3.2717653786
 32
0.0
 13
6.630166629
 23
3.2717653786
 33
0.0
  0
SOLID
  5
D0
330
CC
100
AcDbEntity
  8
0
  6
Continuous
 62
     7
370
     0
100
AcDbTrace
 10
6.610166629
 20
3.8267653786
 30
0.0
 11
6.630166629
 21
3.9517653786
 31
0.0
 12
6.590166629
 22
3.9517653786
 32
0.0
 13
6.590166629
 23
3.9517653786
 33
0.0
  0
LINE
  5
D1
330
CC
100
AcDbEntity
  8
0
  6
Continuous
 62
     7
370
     0
100
AcDbLine
 10
6.2664658416
 20
3.3967653786
 30
0.0
 11
6.680166629
 21
3.3967653786
 31
0.0
  0
LINE
  5
D2
330
CC
100
AcDbEntity
  8
0
  6
Continuous
 62
     7
370
     0
100
AcDbLine
 10
6.2664658416
 20
3.8267653786
 30
0.0
 11
6.680166629
 21
3.8267653786
 31
0.0
  0
LINE
  5
D3
330
CC
100
AcDbEntity
  8
0
  6
Continuous
 62
     7
370
     0
100
AcDbLine
 10
6.610166629
 20
3.3967653786
 30
0.0
 11
6.610166629
 21
3.1467653786
 31
0.0
  0
LINE
  5
D4
330
CC
100
AcDbEntity
  8
0
  6
Continuous
 62
     7
370
     0
100
AcDbLine
 10
6.610166629
 20
3.8267653786
 30
0.0
 11
6.610166629
 21
4.0767653786
 31
0.0
  0
MTEXT
  5
D5
330
CC
100
AcDbEntity
  8
0
  6
Continuous
 62
     7
370
     0
100
AcDbMText
 10
6.4442755761
 20
3.5868999954
 30
0.0
 40
0.0833333333
 41
0.0
 71
     1
 72
     1
  1
(
  7
SLDTEXTSTYLE0
 73
     1
 44
1.0
  0
MTEXT
  5
D6
330
CC
100
AcDbEntity
  8
0
  6
Continuous
 62
     7
370
     0
100
AcDbMText
 10
6.4853190992
 20
3.5868999954
 30
0.0
 40
0.0833333333
 41
0.0
 71
     1
 72
     1
  1
0.43
  7
SLDTEXTSTYLE0
 73
     1
 44
1.0
  0
MTEXT
  5
D7
330
CC
100
AcDbEntity
  8
0
  6
Continuous
 62
     7
370
     0
100
AcDbMText
 10
6.700674956
 20
3.5868999954
 30
0.0
 40
0.0833333333
 41
0.0
 71
     1
 72
     1
  1
")
  7
SLDTEXTSTYLE0
 73
     1
 44
1.0
  0
MTEXT
  5
D8
330
CC
100
AcDbEntity
  8
0
  6
Continuous
 62
     7
370
     0
100
AcDbMText
 10
6.3985805713
 20
3.7191876857
 30
0.0
 40
0.0833333333
 41
0.0
 71
     1
 72
     1
  1
10.9 mm
  7
SLDTEXTSTYLE0
 73
     1
 44
1.0
  0
ENDBLK
  5
CE
330
CC
100
AcDbEntity
  8
0
100
AcDbBlockEnd
  0
BLOCK
  5
DC
330
DB
100
AcDbEntity
  8
0
100
AcDbBlockBegin
  2
*D8
 70
     1
 10
0.0
 20
0.0
 30
0.0
  3
*D8
  1

  0
SOLID
  5
DE
330
DB
100
AcDbEntity
  8
0
  6
Continuous
 62
     7
370
     0
100
AcDbTrace
 10
7.2180526577
 20
3.3967653786
 30
0.0
 11
7.2380526577
 21
3.5217653786
 31
0.0
 12
7.1980526577
 22
3.5217653786
 32
0.0
 13
7.1980526577
 23
3.5217653786
 33
0.0
  0
SOLID
  5
DF
330
DB
100
AcDbEntity
  8
0
  6
Continuous
 62
     7
370
     0
100
AcDbTrace
 10
7.2180526577
 20
5.3968815414
 30
0.0
 11
7.1980526577
 21
5.2718815414
 31
0.0
 12
7.2380526577
 22
5.2718815414
 32
0.0
 13
7.2380526577
 23
5.2718815414
 33
0.0
  0
LINE
  5
E0
330
DB
100
AcDbEntity
  8
0
  6
Continuous
 62
     7
370
     0
100
AcDbLine
 10
6.2664658416
 20
3.3967653786
 30
0.0
 11
7.2880526577
 21
3.3967653786
 31
0.0
  0
LINE
  5
E1
330
DB
100
AcDbEntity
  8
0
  6
Continuous
 62
     7
370
     0
100
AcDbLine
 10
4.7033593642
 20
5.3968815414
 30
0.0
 11
7.2880526577
 21
5.3968815414
 31
0.0
  0
LINE
  5
E2
330
DB
100
AcDbEntity
  8
0
  6
Continuous
 62
     7
370
     0
100
AcDbLine
 10
7.2180526577
 20
3.3967653786
 30
0.0
 11
7.2180526577
 21
3.5816078983
 31
0.0
  0
LINE
  5
E3
330
DB
100
AcDbEntity
  8
0
  6
Continuous
 62
     7
370
     0
100
AcDbLine
 10
7.2180526577
 20
5.3968815414
 30
0.0
 11
7.2180526577
 21
4.5291111503
 31
0.0
  0
LINE
  5
E4
330
DB
100
AcDbEntity
  8
0
  6
Continuous
 62
     7
370
     0
100
AcDbLine
 10
7.2180526577
 20
3.5816078983
 30
0.0
 11
7.1624971022
 21
3.6093856761
 31
0.0
  0
LINE
  5
E5
330
DB
100
AcDbEntity
  8
0
  6
Continuous
 62
     7
370
     0
100
AcDbLine
 10
7.1624971022
 20
3.6093856761
 30
0.0
 11
7.2736082133
 21
3.6649412317
 31
0.0
  0
LINE
  5
E6
330
DB
100
AcDbEntity
  8
0
  6
Continuous
 62
     7
370
     0
100
AcDbLine
 10
7.2736082133
 20
3.6649412317
 30
0.0
 11
7.2180526577
 21
3.6927190094
 31
0.0
  0
LINE
  5
E7
330
DB
100
AcDbEntity
  8
0
  6
Continuous
 62
     7
370
     0
100
AcDbLine
 10
7.2180526577
 20
3.6927190094
 30
0.0
 11
7.2180526577
 21
4.2645357697
 31
0.0
  0
MTEXT
  5
E8
330
DB
100
AcDbEntity
  8
0
  6
Continuous
 62
     7
370
     0
100
AcDbMText
 10
7.0521616048
 20
4.3719580768
 30
0.0
 40
0.0833333333
 41
0.0
 71
     1
 72
     1
  1
(
  7
SLDTEXTSTYLE0
 73
     1
 44
1.0
  0
MTEXT
  5
E9
330
DB
100
AcDbEntity
  8
0
  6
Continuous
 62
     7
370
     0
100
AcDbMText
 10
7.093205128
 20
4.3719580768
 30
0.0
 40
0.0833333333
 41
0.0
 71
     1
 72
     1
  1
3.00
  7
SLDTEXTSTYLE0
 73
     1
 44
1.0
  0
MTEXT
  5
EA
330
DB
100
AcDbEntity
  8
0
  6
Continuous
 62
     7
370
     0
100
AcDbMText
 10
7.3085609848
 20
4.3719580768
 30
0.0
 40
0.0833333333
 41
0.0
 71
     1
 72
     1
  1
")
  7
SLDTEXTSTYLE0
 73
     1
 44
1.0
  0
MTEXT
  5
EB
330
DB
100
AcDbEntity
  8
0
  6
Continuous
 62
     7
370
     0
100
AcDbMText
 10
7.0064666
 20
4.5042457671
 30
0.0
 40
0.0833333333
 41
0.0
 71
     1
 72
     1
  1
76.2 mm
  7
SLDTEXTSTYLE0
 73
     1
 44
1.0
  0
ENDBLK
  5
DD
330
DB
100
AcDbEntity
  8
0
100
AcDbBlockEnd
  0
BLOCK
  5
EF
330
EE
100
AcDbEntity
  8
0
100
AcDbBlockBegin
  2
*D9
 70
     1
 10
0.0
 20
0.0
 30
0.0
  3
*D9
  1

  0
SOLID
  5
F1
330
EE
100
AcDbEntity
  8
0
  6
Continuous
 62
     7
370
     0
100
AcDbTrace
 10
3.7559619045
 20
3.0405887381
 30
0.0
 11
3.8809619045
 21
3.0205887381
 31
0.0
 12
3.8809619045
 22
3.0605887381
 32
0.0
 13
3.8809619045
 23
3.0605887381
 33
0.0
  0
SOLID
  5
F2
330
EE
100
AcDbEntity
  8
0
  6
Continuous
 62
     7
370
     0
100
AcDbTrace
 10
6.2164658416
 20
3.0405887381
 30
0.0
 11
6.0914658416
 21
3.0605887381
 31
0.0
 12
6.0914658416
 22
3.0205887381
 32
0.0
 13
6.0914658416
 23
3.0205887381
 33
0.0
  0
LINE
  5
F3
330
EE
100
AcDbEntity
  8
0
  6
Continuous
 62
     7
370
     0
100
AcDbLine
 10
3.7559619045
 20
3.8057653786
 30
0.0
 11
3.7559619045
 21
2.9705887381
 31
0.0
  0
LINE
  5
F4
330
EE
100
AcDbEntity
  8
0
  6
Continuous
 62
     7
370
     0
100
AcDbLine
 10
6.2164658416
 20
3.3467653786
 30
0.0
 11
6.2164658416
 21
2.9705887381
 31
0.0
  0
LINE
  5
F5
330
EE
100
AcDbEntity
  8
0
  6
Continuous
 62
     7
370
     0
100
AcDbLine
 10
3.7559619045
 20
3.0405887381
 30
0.0
 11
4.6965028154
 21
3.0405887381
 31
0.0
  0
LINE
  5
F6
330
EE
100
AcDbEntity
  8
0
  6
Continuous
 62
     7
370
     0
100
AcDbLine
 10
6.2164658416
 20
3.0405887381
 30
0.0
 11
5.2759249307
 21
3.0405887381
 31
0.0
  0
MTEXT
  5
F7
330
EE
100
AcDbEntity
  8
0
  6
Continuous
 62
     7
370
     0
100
AcDbMText
 10
4.8203228202
 20
3.0157233549
 30
0.0
 40
0.0833333333
 41
0.0
 71
     1
 72
     1
  1
(
  7
SLDTEXTSTYLE0
 73
     1
 44
1.0
  0
MTEXT
  5
F8
330
EE
100
AcDbEntity
  8
0
  6
Continuous
 62
     7
370
     0
100
AcDbMText
 10
4.8613663433
 20
3.0157233549
 30
0.0
 40
0.0833333333
 41
0.0
 71
     1
 72
     1
  1
2.46
  7
SLDTEXTSTYLE0
 73
     1
 44
1.0
  0
MTEXT
  5
F9
330
EE
100
AcDbEntity
  8
0
  6
Continuous
 62
     7
370
     0
100
AcDbMText
 10
5.0767222001
 20
3.0157233549
 30
0.0
 40
0.0833333333
 41
0.0
 71
     1
 72
     1
  1
")
  7
SLDTEXTSTYLE0
 73
     1
 44
1.0
  0
MTEXT
  5
FA
330
EE
100
AcDbEntity
  8
0
  6
Continuous
 62
     7
370
     0
100
AcDbMText
 10
4.7746278154
 20
3.1480110452
 30
0.0
 40
0.0833333333
 41
0.0
 71
     1
 72
     1
  1
62.5 mm
  7
SLDTEXTSTYLE0
 73
     1
 44
1.0
  0
ENDBLK
  5
F0
330
EE
100
AcDbEntity
  8
0
100
AcDbBlockEnd
  0
BLOCK
  5
12E
330
12D
100
AcDbEntity
  8
0
100
AcDbBlockBegin
  2
*D10
 70
     1
 10
0.0
 20
0.0
 30
0.0
  3
*D10
  1

  0
SOLID
  5
130
330
12D
100
AcDbEntity
  8
0
  6
Continuous
 62
     7
370
     0
100
AcDbTrace
 10
6.3348022897
 20
7.6771229111
 30
0.0
 11
6.2098022897
 21
7.6971229111
 31
0.0
 12
6.2098022897
 22
7.6571229111
 32
0.0
 13
6.2098022897
 23
7.6571229111
 33
0.0
  0
SOLID
  5
131
330
12D
100
AcDbEntity
  8
0
  6
Continuous
 62
     7
370
     0
100
AcDbTrace
 10
5.1162983526
 20
7.6771229111
 30
0.0
 11
5.2412983526
 21
7.6571229111
 31
0.0
 12
5.2412983526
 22
7.6971229111
 32
0.0
 13
5.2412983526
 23
7.6971229111
 33
0.0
  0
LINE
  5
132
330
12D
100
AcDbEntity
  8
0
  6
Continuous
 62
     7
370
     0
100
AcDbLine
 10
6.3348022897
 20
7.3304221237
 30
0.0
 11
6.3348022897
 21
7.7471229111
 31
0.0
  0
LINE
  5
133
330
12D
100
AcDbEntity
  8
0
  6
Continuous
 62
     7
370
     0
100
AcDbLine
 10
5.1162983526
 20
6.8884221237
 30
0.0
 11
5.1162983526
 21
7.7471229111
 31
0.0
  0
LINE
  5
134
330
12D
100
AcDbEntity
  8
0
  6
Continuous
 62
     7
370
     0
100
AcDbLine
 10
6.3348022897
 20
7.6771229111
 30
0.0
 11
6.0152613788
 21
7.6771229111
 31
0.0
  0
LINE
  5
135
330
12D
100
AcDbEntity
  8
0
  6
Continuous
 62
     7
370
     0
100
AcDbLine
 10
5.1162983526
 20
7.6771229111
 30
0.0
 11
5.4358392635
 21
7.6771229111
 31
0.0
  0
MTEXT
  5
136
330
12D
100
AcDbEntity
  8
0
  6
Continuous
 62
     7
370
     0
100
AcDbMText
 10
5.5596592682
 20
7.6522575278
 30
0.0
 40
0.0833333333
 41
0.0
 71
     1
 72
     1
  1
(
  7
SLDTEXTSTYLE0
 73
     1
 44
1.0
  0
MTEXT
  5
137
330
12D
100
AcDbEntity
  8
0
  6
Continuous
 62
     7
370
     0
100
AcDbMText
 10
5.6007027914
 20
7.6522575278
 30
0.0
 40
0.0833333333
 41
0.0
 71
     1
 72
     1
  1
1.22
  7
SLDTEXTSTYLE0
 73
     1
 44
1.0
  0
MTEXT
  5
138
330
12D
100
AcDbEntity
  8
0
  6
Continuous
 62
     7
370
     0
100
AcDbMText
 10
5.8160586482
 20
7.6522575278
 30
0.0
 40
0.0833333333
 41
0.0
 71
     1
 72
     1
  1
")
  7
SLDTEXTSTYLE0
 73
     1
 44
1.0
  0
MTEXT
  5
139
330
12D
100
AcDbEntity
  8
0
  6
Continuous
 62
     7
370
     0
100
AcDbMText
 10
5.5139642635
 20
7.7845452181
 30
0.0
 40
0.0833333333
 41
0.0
 71
     1
 72
     1
  1
31.0 mm
  7
SLDTEXTSTYLE0
 73
     1
 44
1.0
  0
ENDBLK
  5
12F
330
12D
100
AcDbEntity
  8
0
100
AcDbBlockEnd
  0
BLOCK
  5
13D
330
13C
100
AcDbEntity
  8
0
100
AcDbBlockBegin
  2
*D11
 70
     1
 10
0.0
 20
0.0
 30
0.0
  3
*D11
  1

  0
SOLID
  5
13F
330
13C
100
AcDbEntity
  8
0
  6
Continuous
 62
     7
370
     0
100
AcDbTrace
 10
5.022606901
 20
6.8821139691
 30
0.0
 11
4.9483609044
 21
6.9846446083
 31
0.0
 12
4.9200765738
 22
6.9563603965
 32
0.0
 13
4.9200765738
 23
6.9563603965
 33
0.0
  0
LINE
  5
140
330
13C
100
AcDbEntity
  8
0
  6
Continuous
 62
     7
370
     0
100
AcDbLine
 10
5.022606901
 20
6.8821139691
 30
0.0
 11
3.9123867169
 21
7.9923388192
 31
0.0
  0
LINE
  5
141
330
13C
100
AcDbEntity
  8
0
  6
Continuous
 62
     7
370
     0
100
AcDbLine
 10
3.9123867169
 20
7.9923388192
 30
0.0
 11
3.7623867169
 21
7.9923388192
 31
0.0
  0
MTEXT
  5
142
330
13C
100
AcDbEntity
  8
0
  6
Continuous
 62
     7
370
     0
100
AcDbMText
 10
1.6254718355
 20
7.9013295908
 30
0.0
 40
0.0833333333
 41
0.0
 71
     1
 72
     1
  1
FOR USE WITH M6 (1/4"-20) CAP SCREW
  7
SLDTEXTSTYLE0
 73
     1
 44
1.0
  0
MTEXT
  5
143
330
13C
100
AcDbEntity
  8
0
  6
Continuous
 62
     7
370
     0
100
AcDbMText
 10
2.7532693632
 20
8.0336172811
 30
0.0
 40
0.0833333333
 41
0.0
 71
     1
 72
     1
  1
CLEARANCE SLOT
  7
SLDTEXTSTYLE0
 73
     1
 44
1.0
  0
ENDBLK
  5
13E
330
13C
100
AcDbEntity
  8
0
100
AcDbBlockEnd
  0
BLOCK
  5
146
330
145
100
AcDbEntity
  8
0
100
AcDbBlockBegin
  2
*D12
 70
     1
 10
0.0
 20
0.0
 30
0.0
  3
*D12
  1

  0
SOLID
  5
148
330
145
100
AcDbEntity
  8
0
  6
Continuous
 62
     7
370
     0
100
AcDbTrace
 10
6.9647235495
 20
7.2804221237
 30
0.0
 11
6.9447235495
 21
7.1554221237
 31
0.0
 12
6.9847235495
 22
7.1554221237
 32
0.0
 13
6.9847235495
 23
7.1554221237
 33
0.0
  0
SOLID
  5
149
330
145
100
AcDbEntity
  8
0
  6
Continuous
 62
     7
370
     0
100
AcDbTrace
 10
6.9647235495
 20
6.2964221237
 30
0.0
 11
6.9847235495
 21
6.4214221237
 31
0.0
 12
6.9447235495
 22
6.4214221237
 32
0.0
 13
6.9447235495
 23
6.4214221237
 33
0.0
  0
LINE
  5
14A
330
145
100
AcDbEntity
  8
0
  6
Continuous
 62
     7
370
     0
100
AcDbLine
 10
6.3848022897
 20
7.2804221237
 30
0.0
 11
7.0347235495
 21
7.2804221237
 31
0.0
  0
LINE
  5
14B
330
145
100
AcDbEntity
  8
0
  6
Continuous
 62
     7
370
     0
100
AcDbLine
 10
6.3848022897
 20
6.2964221237
 30
0.0
 11
7.0347235495
 21
6.2964221237
 31
0.0
  0
LINE
  5
14C
330
145
100
AcDbEntity
  8
0
  6
Continuous
 62
     7
370
     0
100
AcDbLine
 10
6.9647235495
 20
7.2804221237
 30
0.0
 11
6.9647235495
 21
6.920709814
 31
0.0
  0
LINE
  5
14D
330
145
100
AcDbEntity
  8
0
  6
Continuous
 62
     7
370
     0
100
AcDbLine
 10
6.9647235495
 20
6.2964221237
 30
0.0
 11
6.9647235495
 21
6.6561344334
 31
0.0
  0
MTEXT
  5
14E
330
145
100
AcDbEntity
  8
0
  6
Continuous
 62
     7
370
     0
100
AcDbMText
 10
6.7988324966
 20
6.7635567404
 30
0.0
 40
0.0833333333
 41
0.0
 71
     1
 72
     1
  1
(
  7
SLDTEXTSTYLE0
 73
     1
 44
1.0
  0
MTEXT
  5
14F
330
145
100
AcDbEntity
  8
0
  6
Continuous
 62
     7
370
     0
100
AcDbMText
 10
6.8398760198
 20
6.7635567404
 30
0.0
 40
0.0833333333
 41
0.0
 71
     1
 72
     1
  1
0.98
  7
SLDTEXTSTYLE0
 73
     1
 44
1.0
  0
MTEXT
  5
150
330
145
100
AcDbEntity
  8
0
  6
Continuous
 62
     7
370
     0
100
AcDbMText
 10
7.0552318765
 20
6.7635567404
 30
0.0
 40
0.0833333333
 41
0.0
 71
     1
 72
     1
  1
")
  7
SLDTEXTSTYLE0
 73
     1
 44
1.0
  0
MTEXT
  5
151
330
145
100
AcDbEntity
  8
0
  6
Continuous
 62
     7
370
     0
100
AcDbMText
 10
6.7531374918
 20
6.8958444307
 30
0.0
 40
0.0833333333
 41
0.0
 71
     1
 72
     1
  1
25.0 mm
  7
SLDTEXTSTYLE0
 73
     1
 44
1.0
  0
ENDBLK
  5
147
330
145
100
AcDbEntity
  8
0
100
AcDbBlockEnd
  0
BLOCK
  5
155
330
154
100
AcDbEntity
  8
0
100
AcDbBlockBegin
  2
*D13
 70
     1
 10
0.0
 20
0.0
 30
0.0
  3
*D13
  1

  0
SOLID
  5
157
330
154
100
AcDbEntity
  8
0
  6
Continuous
 62
     7
370
     0
100
AcDbTrace
 10
4.0072484668
 20
6.4520485524
 30
0.0
 11
3.9023527205
 21
6.3811833111
 31
0.0
 12
3.9297001653
 22
6.3519922635
 32
0.0
 13
3.9297001653
 23
6.3519922635
 33
0.0
  0
LINE
  5
158
330
154
100
AcDbEntity
  8
0
  6
Continuous
 62
     7
370
     0
100
AcDbLine
 10
4.0072484668
 20
6.4520485524
 30
0.0
 11
3.716590759
 21
6.1797477523
 31
0.0
  0
LINE
  5
159
330
154
100
AcDbEntity
  8
0
  6
Continuous
 62
     7
370
     0
100
AcDbLine
 10
3.716590759
 20
6.1797477523
 30
0.0
 11
3.566590759
 21
6.1797477523
 31
0.0
  0
MTEXT
  5
15A
330
154
100
AcDbEntity
  8
0
  6
Continuous
 62
     7
370
     0
100
AcDbMText
 10
3.0465617634
 20
6.088738524
 30
0.0
 40
0.0833333333
 41
0.0
 71
     1
 72
     1
  1
(
  7
SLDTEXTSTYLE0
 73
     1
 44
1.0
  0
MTEXT
  5
15B
330
154
100
AcDbEntity
  8
0
  6
Continuous
 62
     7
370
     0
100
AcDbMText
 10
3.0876111442
 20
6.088738524
 30
0.0
 40
0.0833333333
 41
0.0
 71
     1
 72
     1
  1
%%c
  7
SLDTEXTSTYLE0
 73
     1
 44
1.0
  0
MTEXT
  5
15C
330
154
100
AcDbEntity
  8
0
  6
Continuous
 62
     7
370
     0
100
AcDbMText
 10
3.2133521764
 20
6.088738524
 30
0.0
 40
0.0833333333
 41
0.0
 71
     1
 72
     1
  1
0.98
  7
SLDTEXTSTYLE0
 73
     1
 44
1.0
  0
MTEXT
  5
15D
330
154
100
AcDbEntity
  8
0
  6
Continuous
 62
     7
370
     0
100
AcDbMText
 10
3.4287080332
 20
6.088738524
 30
0.0
 40
0.0833333333
 41
0.0
 71
     1
 72
     1
  1
")
  7
SLDTEXTSTYLE0
 73
     1
 44
1.0
  0
MTEXT
  5
15E
330
154
100
AcDbEntity
  8
0
  6
Continuous
 62
     7
370
     0
100
AcDbMText
 10
2.9239217539
 20
6.2210262143
 30
0.0
 40
0.0833333333
 41
0.0
 71
     1
 72
     1
  1
%%c
  7
SLDTEXTSTYLE0
 73
     1
 44
1.0
  0
MTEXT
  5
15F
330
154
100
AcDbEntity
  8
0
  6
Continuous
 62
     7
370
     0
100
AcDbMText
 10
3.0497087933
 20
6.2210262143
 30
0.0
 40
0.0833333333
 41
0.0
 71
     1
 72
     1
  1
25.0 mm
  7
SLDTEXTSTYLE0
 73
     1
 44
1.0
  0
ENDBLK
  5
156
330
154
100
AcDbEntity
  8
0
100
AcDbBlockEnd
  0
BLOCK
  5
163
330
162
100
AcDbEntity
  8
0
100
AcDbBlockBegin
  2
*D14
 70
     1
 10
0.0
 20
0.0
 30
0.0
  3
*D14
  1

  0
SOLID
  5
165
330
162
100
AcDbEntity
  8
0
  6
Continuous
 62
     7
370
     0
100
AcDbTrace
 10
4.1884667531
 20
6.9662652348
 30
0.0
 11
4.1142238595
 21
7.0687981211
 31
0.0
 12
4.0859386729
 22
7.0405147653
 32
0.0
 13
4.0859386729
 23
7.0405147653
 33
0.0
  0
LINE
  5
166
330
162
100
AcDbEntity
  8
0
  6
Continuous
 62
     7
370
     0
100
AcDbLine
 10
4.1884667531
 20
6.9662652348
 30
0.0
 11
3.6519389919
 21
7.5028277271
 31
0.0
  0
LINE
  5
167
330
162
100
AcDbEntity
  8
0
  6
Continuous
 62
     7
370
     0
100
AcDbLine
 10
3.6519389919
 20
7.5028277271
 30
0.0
 11
3.5019389919
 21
7.5028277271
 31
0.0
  0
MTEXT
  5
168
330
162
100
AcDbEntity
  8
0
  6
Continuous
 62
     7
370
     0
100
AcDbMText
 10
2.0768267259
 20
7.544106189
 30
0.0
 40
0.0833333333
 41
0.0
 71
     1
 72
     1
  1
%%c
  7
SLDTEXTSTYLE0
 73
     1
 44
1.0
  0
MTEXT
  5
169
330
162
100
AcDbEntity
  8
0
  6
Continuous
 62
     7
370
     0
100
AcDbMText
 10
2.2026137653
 20
7.544106189
 30
0.0
 40
0.0833333333
 41
0.0
 71
     1
 72
     1
  1
12.8 mm (
  7
SLDTEXTSTYLE1
 73
     1
 44
1.0
  0
MTEXT
  5
16A
330
162
100
AcDbEntity
  8
0
  6
Continuous
 62
     7
370
     0
100
AcDbMText
 10
2.7288483737
 20
7.544106189
 30
0.0
 40
0.0833333333
 41
0.0
 71
     1
 72
     1
  1
%%c
  7
SLDTEXTSTYLE0
 73
     1
 44
1.0
  0
MTEXT
  5
16B
330
162
100
AcDbEntity
  8
0
  6
Continuous
 62
     7
370
     0
100
AcDbMText
 10
2.8545279064
 20
7.544106189
 30
0.0
 40
0.0833333333
 41
0.0
 71
     1
 72
     1
  1
0.50
  7
SLDTEXTSTYLE0
 73
     1
 44
1.0
  0
MTEXT
  5
16C
330
162
100
AcDbEntity
  8
0
  6
Continuous
 62
     7
370
     0
100
AcDbMText
 10
3.0698837632
 20
7.544106189
 30
0.0
 40
0.0833333333
 41
0.0
 71
     1
 72
     1
  1
") THRU
  7
SLDTEXTSTYLE0
 73
     1
 44
1.0
  0
MTEXT
  5
16D
330
162
100
AcDbEntity
  8
0
  6
Continuous
 62
     7
370
     0
100
AcDbMText
 10
1.8675211097
 20
7.4118184987
 30
0.0
 40
0.0833333333
 41
0.0
 71
     1
 72
     1
  1
FOR USE WITH TR SERIES POSTS
  7
SLDTEXTSTYLE0
 73
     1
 44
1.0
  0
ENDBLK
  5
164
330
162
100
AcDbEntity
  8
0
100
AcDbBlockEnd
  0
BLOCK
  5
16F
330
16E
100
AcDbEntity
  8
0
100
AcDbBlockBegin
  2
SW_CENTERMARKSYMBOL_0
 70
     0
 10
0.0
 20
0.0
 30
0.0
  3
SW_CENTERMARKSYMBOL_0
  1

  0
LINE
  5
171
330
16E
100
AcDbEntity
  8
0
  6
Continuous
 62
     0
370
     0
100
AcDbLine
 10
0.0
 20
0.0
 30
0.0
 11
0.0
 21
0.05
 31
0.0
  0
LINE
  5
172
330
16E
100
AcDbEntity
  8
0
  6
Continuous
 62
     0
370
     0
100
AcDbLine
 10
0.0
 20
0.0
 30
0.0
 11
-0.05
 21
0.0
 31
0.0
  0
LINE
  5
173
330
16E
100
AcDbEntity
  8
0
  6
Continuous
 62
     0
370
     0
100
AcDbLine
 10
0.0
 20
0.0
 30
0.0
 11
0.0
 21
-0.05
 31
0.0
  0
LINE
  5
174
330
16E
100
AcDbEntity
  8
0
  6
Continuous
 62
     0
370
     0
100
AcDbLine
 10
0.0
 20
0.0
 30
0.0
 11
0.05
 21
0.0
 31
0.0
  0
ENDBLK
  5
170
330
16E
100
AcDbEntity
  8
0
100
AcDbBlockEnd
  0
BLOCK
  5
177
330
176
100
AcDbEntity
  8
0
100
AcDbBlockBegin
  2
SW_CENTERMARKSYMBOL_1
 70
     0
 10
0.0
 20
0.0
 30
0.0
  3
SW_CENTERMARKSYMBOL_1
  1

  0
LINE
  5
179
330
176
100
AcDbEntity
  8
0
  6
Continuous
 62
     0
370
     0
100
AcDbLine
 10
0.0
 20
0.0
 30
0.0
 11
0.0
 21
0.05
 31
0.0
  0
LINE
  5
17A
330
176
100
AcDbEntity
  8
0
  6
Continuous
 62
     0
370
     0
100
AcDbLine
 10
0.0
 20
0.0
 30
0.0
 11
-0.05
 21
0.0
 31
0.0
  0
LINE
  5
17B
330
176
100
AcDbEntity
  8
0
  6
Continuous
 62
     0
370
     0
100
AcDbLine
 10
0.0
 20
0.0
 30
0.0
 11
0.0
 21
-0.05
 31
0.0
  0
LINE
  5
17C
330
176
100
AcDbEntity
  8
0
  6
Continuous
 62
     0
370
     0
100
AcDbLine
 10
0.0
 20
0.0
 30
0.0
 11
0.05
 21
0.0
 31
0.0
  0
ENDBLK
  5
178
330
176
100
AcDbEntity
  8
0
100
AcDbBlockEnd
  0
BLOCK
  5
1B4
330
1B3
100
AcDbEntity
  8
0
100
AcDbBlockBegin
  2
*D17
 70
     1
 10
0.0
 20
0.0
 30
0.0
  3
*D17
  1

  0
SOLID
  5
1B6
330
1B3
100
AcDbEntity
  8
0
  6
Continuous
 62
     7
370
     0
100
AcDbTrace
 10
6.3348022897
 20
0.7903970383
 30
0.0
 11
6.2098022897
 21
0.8103970383
 31
0.0
 12
6.2098022897
 22
0.7703970383
 32
0.0
 13
6.2098022897
 23
0.7703970383
 33
0.0
  0
SOLID
  5
1B7
330
1B3
100
AcDbEntity
  8
0
  6
Continuous
 62
     7
370
     0
100
AcDbTrace
 10
4.3662983526
 20
0.7903970383
 30
0.0
 11
4.4912983526
 21
0.7703970383
 31
0.0
 12
4.4912983526
 22
0.8103970383
 32
0.0
 13
4.4912983526
 23
0.8103970383
 33
0.0
  0
LINE
  5
1B8
330
1B3
100
AcDbEntity
  8
0
  6
Continuous
 62
     7
370
     0
100
AcDbLine
 10
6.3348022897
 20
1.2189478022
 30
0.0
 11
6.3348022897
 21
0.7203970383
 31
0.0
  0
LINE
  5
1B9
330
1B3
100
AcDbEntity
  8
0
  6
Continuous
 62
     7
370
     0
100
AcDbLine
 10
4.3662983526
 20
1.6609478022
 30
0.0
 11
4.3662983526
 21
0.7203970383
 31
0.0
  0
LINE
  5
1BA
330
1B3
100
AcDbEntity
  8
0
  6
Continuous
 62
     7
370
     0
100
AcDbLine
 10
6.3348022897
 20
0.7903970383
 30
0.0
 11
5.6402613788
 21
0.7903970383
 31
0.0
  0
LINE
  5
1BB
330
1B3
100
AcDbEntity
  8
0
  6
Continuous
 62
     7
370
     0
100
AcDbLine
 10
4.3662983526
 20
0.7903970383
 30
0.0
 11
5.0608392635
 21
0.7903970383
 31
0.0
  0
MTEXT
  5
1BC
330
1B3
100
AcDbEntity
  8
0
  6
Continuous
 62
     7
370
     0
100
AcDbMText
 10
5.1846592682
 20
0.7655316551
 30
0.0
 40
0.0833333333
 41
0.0
 71
     1
 72
     1
  1
(
  7
SLDTEXTSTYLE0
 73
     1
 44
1.0
  0
MTEXT
  5
1BD
330
1B3
100
AcDbEntity
  8
0
  6
Continuous
 62
     7
370
     0
100
AcDbMText
 10
5.2257027914
 20
0.7655316551
 30
0.0
 40
0.0833333333
 41
0.0
 71
     1
 72
     1
  1
1.97
  7
SLDTEXTSTYLE0
 73
     1
 44
1.0
  0
MTEXT
  5
1BE
330
1B3
100
AcDbEntity
  8
0
  6
Continuous
 62
     7
370
     0
100
AcDbMText
 10
5.4410586482
 20
0.7655316551
 30
0.0
 40
0.0833333333
 41
0.0
 71
     1
 72
     1
  1
")
  7
SLDTEXTSTYLE0
 73
     1
 44
1.0
  0
MTEXT
  5
1BF
330
1B3
100
AcDbEntity
  8
0
  6
Continuous
 62
     7
370
     0
100
AcDbMText
 10
5.1389642635
 20
0.8978193454
 30
0.0
 40
0.0833333333
 41
0.0
 71
     1
 72
     1
  1
50.0 mm
  7
SLDTEXTSTYLE0
 73
     1
 44
1.0
  0
ENDBLK
  5
1B5
330
1B3
100
AcDbEntity
  8
0
100
AcDbBlockEnd
  0
BLOCK
  5
1C2
330
1C1
100
AcDbEntity
  8
0
100
AcDbBlockBegin
  2
*D18
 70
     1
 10
0.0
 20
0.0
 30
0.0
  3
*D18
  1

  0
SOLID
  5
1C4
330
1C1
100
AcDbEntity
  8
0
  6
Continuous
 62
     7
370
     0
100
AcDbTrace
 10
2.9652391295
 20
2.0459478022
 30
0.0
 11
2.9852391295
 21
2.1709478022
 31
0.0
 12
2.9452391295
 22
2.1709478022
 32
0.0
 13
2.9452391295
 23
2.1709478022
 33
0.0
  0
SOLID
  5
1C5
330
1C1
100
AcDbEntity
  8
0
  6
Continuous
 62
     7
370
     0
100
AcDbTrace
 10
2.9652391295
 20
1.4759478022
 30
0.0
 11
2.9452391295
 21
1.3509478022
 31
0.0
 12
2.9852391295
 22
1.3509478022
 32
0.0
 13
2.9852391295
 23
1.3509478022
 33
0.0
  0
LINE
  5
1C6
330
1C1
100
AcDbEntity
  8
0
  6
Continuous
 62
     7
370
     0
100
AcDbLine
 10
3.4342983526
 20
2.0459478022
 30
0.0
 11
2.8952391295
 21
2.0459478022
 31
0.0
  0
LINE
  5
1C7
330
1C1
100
AcDbEntity
  8
0
  6
Continuous
 62
     7
370
     0
100
AcDbLine
 10
3.4342983526
 20
1.4759478022
 30
0.0
 11
2.8952391295
 21
1.4759478022
 31
0.0
  0
LINE
  5
1C8
330
1C1
100
AcDbEntity
  8
0
  6
Continuous
 62
     7
370
     0
100
AcDbLine
 10
2.9652391295
 20
2.0459478022
 30
0.0
 11
2.9652391295
 21
2.2959478022
 31
0.0
  0
LINE
  5
1C9
330
1C1
100
AcDbEntity
  8
0
  6
Continuous
 62
     7
370
     0
100
AcDbLine
 10
2.9652391295
 20
1.4759478022
 30
0.0
 11
2.9652391295
 21
1.2259478022
 31
0.0
  0
MTEXT
  5
1CA
330
1C1
100
AcDbEntity
  8
0
  6
Continuous
 62
     7
370
     0
100
AcDbMText
 10
2.7364746317
 20
1.736082419
 30
0.0
 40
0.0833333333
 41
0.0
 71
     1
 72
     1
  1
(
  7
SLDTEXTSTYLE0
 73
     1
 44
1.0
  0
MTEXT
  5
1CB
330
1C1
100
AcDbEntity
  8
0
  6
Continuous
 62
     7
370
     0
100
AcDbMText
 10
2.7775240125
 20
1.736082419
 30
0.0
 40
0.0833333333
 41
0.0
 71
     1
 72
     1
  1
%%c
  7
SLDTEXTSTYLE0
 73
     1
 44
1.0
  0
MTEXT
  5
1CC
330
1C1
100
AcDbEntity
  8
0
  6
Continuous
 62
     7
370
     0
100
AcDbMText
 10
2.9032650447
 20
1.736082419
 30
0.0
 40
0.0833333333
 41
0.0
 71
     1
 72
     1
  1
0.57
  7
SLDTEXTSTYLE0
 73
     1
 44
1.0
  0
MTEXT
  5
1CD
330
1C1
100
AcDbEntity
  8
0
  6
Continuous
 62
     7
370
     0
100
AcDbMText
 10
3.1186209014
 20
1.736082419
 30
0.0
 40
0.0833333333
 41
0.0
 71
     1
 72
     1
  1
")
  7
SLDTEXTSTYLE0
 73
     1
 44
1.0
  0
MTEXT
  5
1CE
330
1C1
100
AcDbEntity
  8
0
  6
Continuous
 62
     7
370
     0
100
AcDbMText
 10
2.6907796269
 20
1.8683701093
 30
0.0
 40
0.0833333333
 41
0.0
 71
     1
 72
     1
  1
%%c
  7
SLDTEXTSTYLE0
 73
     1
 44
1.0
  0
MTEXT
  5
1CF
330
1C1
100
AcDbEntity
  8
0
  6
Continuous
 62
     7
370
     0
100
AcDbMText
 10
2.8165666663
 20
1.8683701093
 30
0.0
 40
0.0833333333
 41
0.0
 71
     1
 72
     1
  1
14.5 mm
  7
SLDTEXTSTYLE0
 73
     1
 44
1.0
  0
ENDBLK
  5
1C3
330
1C1
100
AcDbEntity
  8
0
100
AcDbBlockEnd
  0
BLOCK
  5
1D2
330
1D1
100
AcDbEntity
  8
0
100
AcDbBlockBegin
  2
*D19
 70
     1
 10
0.0
 20
0.0
 30
0.0
  3
*D19
  1

  0
SOLID
  5
1D4
330
1D1
100
AcDbEntity
  8
0
  6
Continuous
 62
     7
370
     0
100
AcDbTrace
 10
3.4642983526
 20
2.5852519244
 30
0.0
 11
3.3392983526
 21
2.6052519244
 31
0.0
 12
3.3392983526
 22
2.5652519244
 32
0.0
 13
3.3392983526
 23
2.5652519244
 33
0.0
  0
SOLID
  5
1D5
330
1D1
100
AcDbEntity
  8
0
  6
Continuous
 62
     7
370
     0
100
AcDbTrace
 10
3.7742983526
 20
2.5852519244
 30
0.0
 11
3.8992983526
 21
2.5652519244
 31
0.0
 12
3.8992983526
 22
2.6052519244
 32
0.0
 13
3.8992983526
 23
2.6052519244
 33
0.0
  0
LINE
  5
1D6
330
1D1
100
AcDbEntity
  8
0
  6
Continuous
 62
     7
370
     0
100
AcDbLine
 10
3.4642983526
 20
2.0759478022
 30
0.0
 11
3.4642983526
 21
2.6552519244
 31
0.0
  0
LINE
  5
1D7
330
1D1
100
AcDbEntity
  8
0
  6
Continuous
 62
     7
370
     0
100
AcDbLine
 10
3.7742983526
 20
2.0759478022
 30
0.0
 11
3.7742983526
 21
2.6552519244
 31
0.0
  0
LINE
  5
1D8
330
1D1
100
AcDbEntity
  8
0
  6
Continuous
 62
     7
370
     0
100
AcDbLine
 10
3.4642983526
 20
2.5852519244
 30
0.0
 11
3.2142983526
 21
2.5852519244
 31
0.0
  0
LINE
  5
1D9
330
1D1
100
AcDbEntity
  8
0
  6
Continuous
 62
     7
370
     0
100
AcDbLine
 10
3.7742983526
 20
2.5852519244
 30
0.0
 11
4.0234046064
 21
2.5852519244
 31
0.0
  0
MTEXT
  5
1DA
330
1D1
100
AcDbEntity
  8
0
  6
Continuous
 62
     7
370
     0
100
AcDbMText
 10
4.0859046064
 20
2.494242696
 30
0.0
 40
0.0833333333
 41
0.0
 71
     1
 72
     1
  1
(
  7
SLDTEXTSTYLE0
 73
     1
 44
1.0
  0
MTEXT
  5
1DB
330
1D1
100
AcDbEntity
  8
0
  6
Continuous
 62
     7
370
     0
100
AcDbMText
 10
4.1269481296
 20
2.494242696
 30
0.0
 40
0.0833333333
 41
0.0
 71
     1
 72
     1
  1
0.31
  7
SLDTEXTSTYLE0
 73
     1
 44
1.0
  0
MTEXT
  5
1DC
330
1D1
100
AcDbEntity
  8
0
  6
Continuous
 62
     7
370
     0
100
AcDbMText
 10
4.3423039864
 20
2.494242696
 30
0.0
 40
0.0833333333
 41
0.0
 71
     1
 72
     1
  1
")
  7
SLDTEXTSTYLE0
 73
     1
 44
1.0
  0
MTEXT
  5
1DD
330
1D1
100
AcDbEntity
  8
0
  6
Continuous
 62
     7
370
     0
100
AcDbMText
 10
4.0859046064
 20
2.6265303863
 30
0.0
 40
0.0833333333
 41
0.0
 71
     1
 72
     1
  1
7.9 mm
  7
SLDTEXTSTYLE0
 73
     1
 44
1.0
  0
ENDBLK
  5
1D3
330
1D1
100
AcDbEntity
  8
0
100
AcDbBlockEnd
  0
BLOCK
  5
1E1
330
1E0
100
AcDbEntity
  8
0
100
AcDbBlockBegin
  2
*D20
 70
     1
 10
0.0
 20
0.0
 30
0.0
  3
*D20
  1

  0
SOLID
  5
1E3
330
1E0
100
AcDbEntity
  8
0
  6
Continuous
 62
     7
370
     0
100
AcDbTrace
 10
3.9641223529
 20
1.6595255904
 30
0.0
 11
3.9124514557
 21
1.5439612431
 31
0.0
 12
3.9510884888
 22
1.5336084812
 32
0.0
 13
3.9510884888
 23
1.5336084812
 33
0.0
  0
LINE
  5
1E4
330
1E0
100
AcDbEntity
  8
0
  6
Continuous
 62
     7
370
     0
100
AcDbLine
 10
3.9641223529
 20
1.6595255904
 30
0.0
 11
3.7820828269
 21
0.9801448303
 31
0.0
  0
LINE
  5
1E5
330
1E0
100
AcDbEntity
  8
0
  6
Continuous
 62
     7
370
     0
100
AcDbLine
 10
3.7820828269
 20
0.9801448303
 30
0.0
 11
3.6320828269
 21
0.9801448303
 31
0.0
  0
MTEXT
  5
1E6
330
1E0
100
AcDbEntity
  8
0
  6
Continuous
 62
     7
370
     0
100
AcDbMText
 10
3.1615581291
 20
1.021303578
 30
0.7128425529
 40
0.0833333333
 41
0.0
 71
     1
 72
     1
  1
MAGNET
  7
SLDTEXTSTYLE0
 73
     1
 44
1.0
  0
MTEXT
  5
1E7
330
1E0
100
AcDbEntity
  8
0
  6
Continuous
 62
     7
370
     0
100
AcDbMText
 10
3.1351692506
 20
0.8888961734
 30
0.7128425529
 40
0.0833333333
 41
0.0
 71
     1
 72
     1
  1
3 PLACES
  7
SLDTEXTSTYLE0
 73
     1
 44
1.0
  0
ENDBLK
  5
1E2
330
1E0
100
AcDbEntity
  8
0
100
AcDbBlockEnd
  0
BLOCK
  5
1E9
330
1E8
100
AcDbEntity
  8
0
100
AcDbBlockBegin
  2
SW_NOTE_4
 70
     0
 10
0.0
 20
0.0
 30
0.0
  3
SW_NOTE_4
  1

  0
MTEXT
  5
1EB
330
1E8
100
AcDbEntity
  8
0
  6
Continuous
 62
     0
370
     0
100
AcDbMText
 10
0.0197520489
 20
0.039550915
 30
0.0
 40
0.0833333333
 41
0.0
 71
     1
 72
     1
  1
CLAMPING BASE
  7
SLDTEXTSTYLE0
 73
     1
 44
1.0
  0
MTEXT
  5
1EC
330
1E8
100
AcDbEntity
  8
0
  6
Continuous
 62
     0
370
     0
100
AcDbMText
 10
0.0197520489
 20
-0.0715601947
 30
0.0
 40
0.0833333333
 41
0.0
 71
     1
 72
     1
  1
PROVIDES 360
  7
SLDTEXTSTYLE0
 73
     1
 44
1.0
  0
MTEXT
  5
1ED
330
1E8
100
AcDbEntity
  8
0
  6
Continuous
 62
     0
370
     0
100
AcDbMText
 10
0.7658940361
 20
-0.0715601947
 30
0.0
 40
0.0833333333
 41
0.0
 71
     1
 72
     1
  1
%%d
  7
SLDTEXTSTYLE0
 73
     1
 44
1.0
  0
MTEXT
  5
1EE
330
1E8
100
AcDbEntity
  8
0
  6
Continuous
 62
     0
370
     0
100
AcDbMText
 10
0.8501069576
 20
-0.0715601947
 30
0.0
 40
0.0833333333
 41
0.0
 71
     1
 72
     1
  1
ROTATION
  7
SLDTEXTSTYLE0
 73
     1
 44
1.0
  0
ENDBLK
  5
1EA
330
1E8
100
AcDbEntity
  8
0
100
AcDbBlockEnd
  0
BLOCK
  5
1F2
330
1F1
100
AcDbEntity
  8
0
100
AcDbBlockBegin
  2
_DOT
 70
     0
 10
0.0
 20
0.0
 30
0.0
  3
_DOT
  1

  0
POLYLINE
  5
1F4
330
1F1
100
AcDbEntity
  8
0
  6
ByBlock
 62
     0
100
AcDb2dPolyline
 66
     1
 10
0.0
 20
0.0
 30
0.0
 70
     1
 40
0.5
 41
0.5
  0
VERTEX
  5
1F6
330
1F4
100
AcDbEntity
  8
0
  6
ByBlock
 62
     0
100
AcDbVertex
100
AcDb2dVertex
 10
-0.25
 20
0.0
 30
0.0
 42
1.0
  0
VERTEX
  5
1F7
330
1F4
100
AcDbEntity
  8
0
  6
ByBlock
 62
     0
100
AcDbVertex
100
AcDb2dVertex
 10
0.25
 20
0.0
 30
0.0
 42
1.0
  0
SEQEND
  5
1F8
330
1F4
100
AcDbEntity
  8
0
  6
ByBlock
 62
     0
  0
LINE
  5
1F5
330
1F1
100
AcDbEntity
  8
0
  6
ByBlock
 62
     0
370
    -2
100
AcDbLine
 10
-0.5
 20
0.0
 30
0.0
 11
-1.0
 21
0.0
 31
0.0
  0
ENDBLK
  5
1F3
330
1F1
100
AcDbEntity
  8
0
100
AcDbBlockEnd
  0
BLOCK
  5
1FB
330
1FA
100
AcDbEntity
  8
0
100
AcDbBlockBegin
  2
SW_CENTERMARKSYMBOL_2
 70
     0
 10
0.0
 20
0.0
 30
0.0
  3
SW_CENTERMARKSYMBOL_2
  1

  0
LINE
  5
1FD
330
1FA
100
AcDbEntity
  8
0
  6
Continuous
 62
     0
370
     0
100
AcDbLine
 10
0.0
 20
0.0
 30
0.0
 11
0.0
 21
0.05
 31
0.0
  0
LINE
  5
1FE
330
1FA
100
AcDbEntity
  8
0
  6
Continuous
 62
     0
370
     0
100
AcDbLine
 10
0.0
 20
0.0
 30
0.0
 11
-0.05
 21
0.0
 31
0.0
  0
LINE
  5
1FF
330
1FA
100
AcDbEntity
  8
0
  6
Continuous
 62
     0
370
     0
100
AcDbLine
 10
0.0
 20
0.0
 30
0.0
 11
0.0
 21
-0.05
 31
0.0
  0
LINE
  5
200
330
1FA
100
AcDbEntity
  8
0
  6
Continuous
 62
     0
370
     0
100
AcDbLine
 10
0.0
 20
0.0
 30
0.0
 11
0.05
 21
0.0
 31
0.0
  0
ENDBLK
  5
1FC
330
1FA
100
AcDbEntity
  8
0
100
AcDbBlockEnd
  0
BLOCK
  5
24A
330
249
100
AcDbEntity
  8
0
100
AcDbBlockBegin
  2
SW_BROKEN_VIEW_1
 70
     0
 10
0.0
 20
0.0
 30
0.0
  3
SW_BROKEN_VIEW_1
  1

  0
ENDBLK
  5
24B
330
249
100
AcDbEntity
  8
0
100
AcDbBlockEnd
  0
BLOCK
  5
3A6
330
3A5
100
AcDbEntity
  8
0
100
AcDbBlockBegin
  2
*D25
 70
     1
 10
0.0
 20
0.0
 30
0.0
  3
*D25
  1

  0
SOLID
  5
3A8
330
3A5
100
AcDbEntity
  8
0
  6
Continuous
 62
     7
370
     0
100
AcDbTrace
 10
2.4154842778
 20
5.3417659541
 30
0.0
 11
2.4953149367
 21
5.4400108822
 31
0.0
 12
2.4606759871
 22
5.4600144611
 32
0.0
 13
2.4606759871
 23
5.4600144611
 33
0.0
  0
LINE
  5
3A9
330
3A5
100
AcDbEntity
  8
0
  6
Continuous
 62
     7
370
     0
100
AcDbLine
 10
2.4154842778
 20
5.3417659541
 30
0.0
 11
2.7035196248
 21
5.8405387947
 31
0.0
  0
LINE
  5
3AA
330
3A5
100
AcDbEntity
  8
0
  6
Continuous
 62
     7
370
     0
100
AcDbLine
 10
2.7035196248
 20
5.8405387947
 30
0.0
 11
2.5535196248
 21
5.8405387947
 31
0.0
  0
MTEXT
  5
3AB
330
3A5
100
AcDbEntity
  8
0
  6
Continuous
 62
     7
370
     0
100
AcDbMText
 10
1.4188189014
 20
5.7495295663
 30
0.0
 40
0.0833333333
 41
0.0
 71
     1
 72
     1
  1
5.0 mm HEX SOCKET
  7
SLDTEXTSTYLE0
 73
     1
 44
1.0
  0
MTEXT
  5
3AC
330
3A5
100
AcDbEntity
  8
0
  6
Continuous
 62
     7
370
     0
100
AcDbMText
 10
0.8402850964
 20
5.8818172566
 30
0.0
 40
0.0833333333
 41
0.0
 71
     1
 72
     1
  1
SPRING LOADED THUMBSCREW
  7
SLDTEXTSTYLE0
 73
     1
 44
1.0
  0
ENDBLK
  5
3A7
330
3A5
100
AcDbEntity
  8
0
100
AcDbBlockEnd
  0
BLOCK
  5
3AF
330
3AE
100
AcDbEntity
  8
0
100
AcDbBlockBegin
  2
*D26
 70
     1
 10
0.0
 20
0.0
 30
0.0
  3
*D26
  1

  0
SOLID
  5
3B1
330
3AE
100
AcDbEntity
  8
0
  6
Continuous
 62
     7
370
     0
100
AcDbTrace
 10
1.2930475522
 20
3.3806834819
 30
0.0
 11
1.3130475522
 21
3.5056834819
 31
0.0
 12
1.2730475522
 22
3.5056834819
 32
0.0
 13
1.2730475522
 23
3.5056834819
 33
0.0
  0
SOLID
  5
3B2
330
3AE
100
AcDbEntity
  8
0
  6
Continuous
 62
     7
370
     0
100
AcDbTrace
 10
1.2930475522
 20
5.0949634381
 30
0.0
 11
1.2730475522
 21
4.9699634381
 31
0.0
 12
1.3130475522
 22
4.9699634381
 32
0.0
 13
1.3130475522
 23
4.9699634381
 33
0.0
  0
LINE
  5
3B3
330
3AE
100
AcDbEntity
  8
0
  6
Continuous
 62
     7
370
     0
100
AcDbLine
 10
1.7309587781
 20
3.3806834819
 30
0.0
 11
1.2230475522
 21
3.3806834819
 31
0.0
  0
LINE
  5
3B4
330
3AE
100
AcDbEntity
  8
0
  6
Continuous
 62
     7
370
     0
100
AcDbLine
 10
2.2229587781
 20
5.0949634381
 30
0.0
 11
1.2230475522
 21
5.0949634381
 31
0.0
  0
LINE
  5
3B5
330
3AE
100
AcDbEntity
  8
0
  6
Continuous
 62
     7
370
     0
100
AcDbLine
 10
1.2930475522
 20
3.3806834819
 30
0.0
 11
1.2930475522
 21
3.6030648994
 31
0.0
  0
LINE
  5
3B6
330
3AE
100
AcDbEntity
  8
0
  6
Continuous
 62
     7
370
     0
100
AcDbLine
 10
1.2930475522
 20
5.0949634381
 30
0.0
 11
1.2930475522
 21
4.3701111503
 31
0.0
  0
LINE
  5
3B7
330
3AE
100
AcDbEntity
  8
0
  6
Continuous
 62
     7
370
     0
100
AcDbLine
 10
1.2930475522
 20
3.6030648994
 30
0.0
 11
1.3486031078
 21
3.6308426772
 31
0.0
  0
LINE
  5
3B8
330
3AE
100
AcDbEntity
  8
0
  6
Continuous
 62
     7
370
     0
100
AcDbLine
 10
1.3486031078
 20
3.6308426772
 30
0.0
 11
1.2374919967
 21
3.6863982327
 31
0.0
  0
LINE
  5
3B9
330
3AE
100
AcDbEntity
  8
0
  6
Continuous
 62
     7
370
     0
100
AcDbLine
 10
1.2374919967
 20
3.6863982327
 30
0.0
 11
1.2930475522
 21
3.7141760105
 31
0.0
  0
LINE
  5
3BA
330
3AE
100
AcDbEntity
  8
0
  6
Continuous
 62
     7
370
     0
100
AcDbLine
 10
1.2930475522
 20
3.7141760105
 30
0.0
 11
1.2930475522
 21
4.1055357697
 31
0.0
  0
MTEXT
  5
3BB
330
3AE
100
AcDbEntity
  8
0
  6
Continuous
 62
     7
370
     0
100
AcDbMText
 10
1.1271564993
 20
4.2129580768
 30
0.0
 40
0.0833333333
 41
0.0
 71
     1
 72
     1
  1
(
  7
SLDTEXTSTYLE0
 73
     1
 44
1.0
  0
MTEXT
  5
3BC
330
3AE
100
AcDbEntity
  8
0
  6
Continuous
 62
     7
370
     0
100
AcDbMText
 10
1.1682000225
 20
4.2129580768
 30
0.0
 40
0.0833333333
 41
0.0
 71
     1
 72
     1
  1
2.68
  7
SLDTEXTSTYLE0
 73
     1
 44
1.0
  0
MTEXT
  5
3BD
330
3AE
100
AcDbEntity
  8
0
  6
Continuous
 62
     7
370
     0
100
AcDbMText
 10
1.3835558793
 20
4.2129580768
 30
0.0
 40
0.0833333333
 41
0.0
 71
     1
 72
     1
  1
")
  7
SLDTEXTSTYLE0
 73
     1
 44
1.0
  0
MTEXT
  5
3BE
330
3AE
100
AcDbEntity
  8
0
  6
Continuous
 62
     7
370
     0
100
AcDbMText
 10
1.0814614945
 20
4.3452457671
 30
0.0
 40
0.0833333333
 41
0.0
 71
     1
 72
     1
  1
68.1 mm
  7
SLDTEXTSTYLE0
 73
     1
 44
1.0
  0
ENDBLK
  5
3B0
330
3AE
100
AcDbEntity
  8
0
100
AcDbBlockEnd
  0
ENDSEC
  0
SECTION
  2
ENTITIES
  0
LINE
  5
52
330
1F
100
AcDbEntity
  8
0
  6
Continuous
 62
     7
370
     0
100
AcDbLine
 10
0.0621791378
 20
8.4506055117
 30
0.0
 11
10.9444569626
 21
8.4506055117
 31
0.0
  0
LINE
  5
53
330
1F
100
AcDbEntity
  8
0
  6
Continuous
 62
     7
370
     0
100
AcDbLine
 10
0.0621791378
 20
8.4506055117
 30
0.0
 11
0.0621791378
 21
0.035557648
 31
0.0
  0
LINE
  5
54
330
1F
100
AcDbEntity
  8
0
  6
Continuous
 62
     7
370
     0
100
AcDbLine
 10
10.9444569626
 20
0.035557648
 30
0.0
 11
0.0621791378
 21
0.035557648
 31
0.0
  0
LINE
  5
55
330
1F
100
AcDbEntity
  8
0
  6
Continuous
 62
     7
370
     0
100
AcDbLine
 10
10.9444569626
 20
0.035557648
 30
0.0
 11
10.9444569626
 21
8.4506055117
 31
0.0
  0
LINE
  5
56
330
1F
100
AcDbEntity
  8
0
  6
Continuous
 62
     7
370
     0
100
AcDbLine
 10
8.4938096065
 20
0.4840901186
 30
0.0
 11
6.7571952625
 21
0.4840901186
 31
0.0
  0
LINE
  5
57
330
1F
100
AcDbEntity
  8
0
  6
Continuous
 62
     7
370
     0
100
AcDbLine
 10
6.7571952625
 20
0.4840901186
 30
0.0
 11
6.7571952625
 21
1.030163002
 31
0.0
  0
LINE
  5
58
330
1F
100
AcDbEntity
  8
0
  6
Continuous
 62
     7
370
     0
100
AcDbLine
 10
6.7571952625
 20
0.035557648
 30
0.0
 11
6.7571952625
 21
1.030163002
 31
0.0
  0
LINE
  5
59
330
1F
100
AcDbEntity
  8
0
  6
Continuous
 62
     7
370
     0
100
AcDbLine
 10
8.4938096065
 20
0.6756085809
 30
0.0
 11
10.9444569626
 21
0.6756085809
 31
0.0
  0
LINE
  5
5A
330
1F
100
AcDbEntity
  8
0
  6
Continuous
 62
     7
370
     0
100
AcDbLine
 10
8.4938096065
 20
1.3873799542
 30
0.0
 11
8.4938096065
 21
0.035557648
 31
0.0
  0
LINE
  5
5B
330
1F
100
AcDbEntity
  8
0
  6
Continuous
 62
     7
370
     0
100
AcDbLine
 10
8.4938096065
 20
1.030163002
 30
0.0
 11
6.7571952625
 21
1.030163002
 31
0.0
  0
LINE
  5
5C
330
1F
100
AcDbEntity
  8
0
  6
Continuous
 62
     7
370
     0
100
AcDbLine
 10
8.4938096065
 20
0.3598787426
 30
0.0
 11
10.9444569626
 21
0.3598787426
 31
0.0
  0
LINE
  5
5D
330
1F
100
AcDbEntity
  8
0
  6
Continuous
 62
     7
370
     0
100
AcDbLine
 10
8.4938096065
 20
0.6662079686
 30
0.0
 11
6.7571952625
 21
0.6662079686
 31
0.0
  0
LINE
  5
5E
330
1F
100
AcDbEntity
  8
0
  6
Continuous
 62
     7
370
     0
100
AcDbLine
 10
8.4938096065
 20
0.8459606517
 30
0.0
 11
6.7571952625
 21
0.8459606517
 31
0.0
  0
LINE
  5
5F
330
1F
100
AcDbEntity
  8
0
  6
Continuous
 62
     7
370
     0
100
AcDbLine
 10
7.3281027587
 20
1.030163002
 30
0.0
 11
7.3281027587
 21
0.4840901186
 31
0.0
  0
LINE
  5
60
330
1F
100
AcDbEntity
  8
0
  6
Continuous
 62
     7
370
     0
100
AcDbLine
 10
7.8037240401
 20
1.030163002
 30
0.0
 11
7.8037240401
 21
0.4840901186
 31
0.0
  0
LINE
  5
61
330
1F
100
AcDbEntity
  8
0
  6
Continuous
 62
     7
370
     0
100
AcDbLine
 10
9.990119718
 20
0.3598787426
 30
0.0
 11
9.990119718
 21
0.035557648
 31
0.0
  0
LINE
  5
62
330
1F
100
AcDbEntity
  8
0
  6
Continuous
 62
     7
370
     0
100
AcDbLine
 10
6.7571952625
 20
0.4840901186
 30
0.0
 11
6.7571952625
 21
0.297745443
 31
0.0
  0
LINE
  5
63
330
1F
100
AcDbEntity
  8
0
  6
Continuous
 62
     7
370
     0
100
AcDbLine
 10
6.7571952625
 20
0.297745443
 30
0.0
 11
8.4938096065
 21
0.297745443
 31
0.0
  0
LINE
  5
64
330
1F
100
AcDbEntity
  8
0
  6
Continuous
 62
     7
370
     0
100
AcDbLine
 10
6.7571952625
 20
0.297745443
 30
0.0
 11
6.7571952625
 21
1.3873799542
 31
0.0
  0
LINE
  5
65
330
1F
100
AcDbEntity
  8
0
  6
Continuous
 62
     7
370
     0
100
AcDbLine
 10
6.7571952625
 20
1.3873799542
 30
0.0
 11
8.4938096065
 21
1.3873799542
 31
0.0
  0
LINE
  5
66
330
1F
100
AcDbEntity
  8
0
  6
Continuous
 62
     7
370
     0
100
AcDbLine
 10
10.6365495992
 20
0.6756085809
 30
0.0
 11
10.6365495992
 21
0.3598787426
 31
0.0
  0
LINE
  5
67
330
1F
100
AcDbEntity
  8
0
  6
Continuous
 62
     7
370
     0
100
AcDbLine
 10
8.4938096065
 20
1.3873799542
 30
0.0
 11
10.9444569626
 21
1.3873799542
 31
0.0
  0
LINE
  5
68
330
1F
100
AcDbEntity
  8
0
  6
Continuous
 62
     7
370
     0
100
AcDbLine
 10
10.9444569626
 20
1.3873799542
 30
0.0
 11
10.9444569626
 21
1.9698084888
 31
0.0
  0
LINE
  5
69
330
1F
100
AcDbEntity
  8
0
  6
Continuous
 62
     7
370
     0
100
AcDbLine
 10
8.4938096065
 20
0.9800288797
 30
0.0
 11
10.9444569626
 21
0.9800288797
 31
0.0
  0
INSERT
  5
6A
330
1F
100
AcDbEntity
  8
0
  6
Continuous
 62
     7
100
AcDbBlockReference
  2
Third Angle Projection Block
 10
4.6348905679
 20
0.6108753523
 30
0.0
 41
0.8
 42
0.8
 43
0.8
  0
MTEXT
  5
6C
330
1F
100
AcDbEntity
  8
0
  6
Continuous
 62
     7
370
     0
100
AcDbMText
 10
10.7776160107
 20
0.5162413101
 30
0.0
 40
0.125
 41
0.0
 71
     2
 72
     1
  1
A
  7
SLDTEXTSTYLE0
 73
     1
 44
1.0
  0
MTEXT
  5
6D
330
1F
100
AcDbEntity
  8
0
  6
Continuous
 62
     7
370
     0
100
AcDbMText
 10
9.2385592488
 20
0.2019943461
 30
0.0
 40
0.125
 41
0.0
 71
     2
 72
     1
  1
UPH3/M
  7
SLDTEXTSTYLE0
 73
     1
 44
1.0
  0
MTEXT
  5
6E
330
1F
100
AcDbEntity
  8
0
  6
Continuous
 62
     7
370
     0
100
AcDbMText
 10
8.5204715199
 20
0.6623747189
 30
0.0
 40
0.0833333333
 41
0.0
 71
     1
 72
     1
  1
MATERIAL
  7
SLDTEXTSTYLE0
 73
     1
 44
1.0
  0
MTEXT
  5
6F
330
1F
100
AcDbEntity
  8
0
  6
Continuous
 62
     7
370
     0
100
AcDbMText
 10
6.8055665782
 20
0.7895493672
 30
0.0
 40
0.0729166667
 41
0.0
 71
     1
 72
     1
  1
REDRAWN
  7
SLDTEXTSTYLE0
 73
     1
 44
1.0
  0
MTEXT
  5
70
330
1F
100
AcDbEntity
  8
0
  6
Continuous
 62
     7
370
     0
100
AcDbMText
 10
6.7872445848
 20
0.613335314
 30
0.0
 40
0.0729166667
 41
0.0
 71
     1
 72
     1
  1
APPROVAL
  7
SLDTEXTSTYLE0
 73
     1
 44
1.0
  0
MTEXT
  5
71
330
1F
100
AcDbEntity
  8
0
  6
Continuous
 62
     7
370
     0
100
AcDbMText
 10
10.681956279
 20
0.6308568984
 30
0.0
 40
0.0833333333
 41
0.0
 71
     1
 72
     1
  1
REV
  7
SLDTEXTSTYLE0
 73
     1
 44
1.0
  0
MTEXT
  5
72
330
1F
100
AcDbEntity
  8
0
  6
Continuous
 62
     7
370
     0
100
AcDbMText
 10
7.4919633718
 20
0.7999100272
 30
0.0
 40
0.0833333333
 41
0.0
 71
     1
 72
     1
  1
TLB
  7
SLDTEXTSTYLE0
 73
     1
 44
1.0
  0
MTEXT
  5
73
330
1F
100
AcDbEntity
  8
0
  6
Continuous
 62
     7
370
     0
100
AcDbMText
 10
7.4919633718
 20
0.623695974
 30
0.0
 40
0.0833333333
 41
0.0
 71
     1
 72
     1
  1
TLB
  7
SLDTEXTSTYLE0
 73
     1
 44
1.0
  0
MTEXT
  5
75
330
1F
100
AcDbEntity
  8
0
  6
Continuous
 62
     7
370
     0
100
AcDbMText
 10
7.8687497515
 20
0.7999100272
 30
0.0
 40
0.0833333333
 41
0.0
 71
     1
 72
     1
  1
05 MAR 12
  7
SLDTEXTSTYLE1
 73
     1
 44
1.0
  0
MTEXT
  5
76
330
1F
100
AcDbEntity
  8
0
  6
Continuous
 62
     7
370
     0
100
AcDbMText
 10
8.0163191884
 20
0.9772495896
 30
0.0
 40
0.0833333333
 41
0.0
 71
     1
 72
     1
  1
DATE
  7
SLDTEXTSTYLE0
 73
     1
 44
1.0
  0
MTEXT
  5
77
330
1F
100
AcDbEntity
  8
0
  6
Continuous
 62
     7
370
     0
100
AcDbMText
 10
7.8687497515
 20
0.623695974
 30
0.0
 40
0.0833333333
 41
0.0
 71
     1
 72
     1
  1
05 MAR 12
  7
SLDTEXTSTYLE1
 73
     1
 44
1.0
  0
MTEXT
  5
79
330
1F
100
AcDbEntity
  8
0
  6
Continuous
 62
     7
370
     0
100
AcDbMText
 10
9.0316104912
 20
1.0943207896
 30
0.0
 40
0.0833333333
 41
0.0
 71
     1
 72
     1
  1
w w w . t h o r  l a b s . c o m
  7
SLDTEXTSTYLE2
 73
     1
 44
1.0
  0
MTEXT
  5
7A
330
1F
100
AcDbEntity
  8
0
  6
Continuous
 62
     7
370
     0
100
AcDbMText
 10
8.5315119501
 20
0.328719653
 30
0.0
 40
0.0833333333
 41
0.0
 71
     1
 72
     1
  1
ITEM #
  7
SLDTEXTSTYLE0
 73
     1
 44
1.0
  0
MTEXT
  5
7B
330
1F
100
AcDbEntity
  8
0
  6
Continuous
 62
     7
370
     0
100
AcDbMText
 10
10.0209370115
 20
0.328719653
 30
0.0
 40
0.0833333333
 41
0.0
 71
     1
 72
     1
  1
APPROX WEIGHT
  7
SLDTEXTSTYLE0
 73
     1
 44
1.0
  0
MTEXT
  5
7C
330
1F
100
AcDbEntity
  8
0
  6
Continuous
 62
     7
370
     0
100
AcDbMText
 10
9.5853574294
 20
0.5162413101
 30
0.0
 40
0.125
 41
0.0
 71
     2
 72
     1
  1
ALUMINUM
  7
SLDTEXTSTYLE0
 73
     1
 44
1.0
  0
MTEXT
  5
7D
330
1F
100
AcDbEntity
  8
0
  6
Continuous
 62
     7
370
     0
100
AcDbMText
 10
10.4790491378
 20
0.2019943461
 30
0.0
 40
0.125
 41
0.0
 71
     2
 72
     1
  1
0.10 kg
  7
SLDTEXTSTYLE0
 73
     1
 44
1.0
  0
INSERT
  5
83
330
1F
100
AcDbEntity
  8
0
  6
Continuous
 62
     7
370
     0
100
AcDbBlockReference
  2
SW_NOTE_0
 10
6.8835832285
 20
0.1754273811
 30
0.0
  0
INSERT
  5
89
330
1F
100
AcDbEntity
  8
0
  6
Continuous
 62
     7
370
     0
100
AcDbBlockReference
  2
SW_NOTE_1
 10
6.8719828753
 20
1.2001390658
 30
0.0
  0
MTEXT
  5
8A
330
1F
100
AcDbEntity
  8
0
  6
Continuous
 62
     7
370
     0
100
AcDbMText
 10
7.3987149145
 20
0.9772495896
 30
0.0
 40
0.0833333333
 41
0.0
 71
     1
 72
     1
  1
NAME
  7
SLDTEXTSTYLE0
 73
     1
 44
1.0
  0
INSERT
  5
90
330
1F
100
AcDbEntity
  8
0
  6
Continuous
 62
     7
370
     0
100
AcDbBlockReference
  2
SW_NOTE_2
 10
2.3078923918
 20
0.3219551564
 30
0.0
  0
MTEXT
  5
91
330
1F
100
AcDbEntity
  8
0
  6
Continuous
 62
     7
370
     0
100
AcDbMText
 10
7.0518693355
 20
0.4200025137
 30
0.0
 40
0.0625
 41
0.0
 71
     1
 72
     1
  1
COPYRIGHT © 2012 BY THORLABS
  7
SLDTEXTSTYLE0
 73
     1
 44
1.0
  0
INSERT
  5
97
330
1F
100
AcDbEntity
  8
0
  6
Continuous
 62
     7
370
     0
100
AcDbBlockReference
  2
SW_NOTE_3
 10
9.0468496418
 20
0.817603407
 30
0.0
  0
INSERT
  5
9B
330
1F
100
AcDbEntity
  8
0
  6
Continuous
 62
     7
100
AcDbBlockReference
  2
SW_BROKEN_VIEW_0
 10
0.0
 20
0.0
 30
0.0
  0
LINE
  5
9C
330
1F
100
AcDbEntity
  8
0
  6
Continuous
 62
     7
370
     0
100
AcDbLine
 10
4.7399619388
 20
4.6863237186
 30
0.0
 11
4.7399619388
 21
5.246881643
 31
0.0
  0
LINE
  5
9D
330
1F
100
AcDbEntity
  8
0
  6
Continuous
 62
     7
370
     0
100
AcDbLine
 10
3.7559619169
 20
4.9518814775
 30
0.0
 11
3.7559619169
 21
4.6318214748
 31
0.0
  0
LINE
  5
9E
330
1F
100
AcDbEntity
  8
0
  6
Continuous
 62
     7
370
     0
100
AcDbLine
 10
3.7559619169
 20
5.246881643
 30
0.0
 11
3.7559619169
 21
5.2018816028
 31
0.0
  0
LINE
  5
9F
330
1F
100
AcDbEntity
  8
0
  6
Continuous
 62
     7
370
     0
100
AcDbLine
 10
4.7399619388
 20
5.246881643
 30
0.0
 11
4.6533593525
 21
5.3968814835
 31
0.0
  0
LINE
  5
A0
330
1F
100
AcDbEntity
  8
0
  6
Continuous
 62
     7
370
     0
100
AcDbLine
 10
3.8425644297
 20
5.3968814835
 30
0.0
 11
3.7559619169
 21
5.246881643
 31
0.0
  0
LINE
  5
A1
330
1F
100
AcDbEntity
  8
0
  6
Continuous
 62
     7
370
     0
100
AcDbLine
 10
3.3659618622
 20
4.7918815792
 30
0.0
 11
3.6359618831
 21
4.7918815792
 31
0.0
  0
LINE
  5
A2
330
1F
100
AcDbEntity
  8
0
  6
Continuous
 62
     7
370
     0
100
AcDbLine
 10
3.6359618831
 20
5.3618816478
 30
0.0
 11
3.3659618622
 21
5.3618816478
 31
0.0
  0
LINE
  5
A3
330
1F
100
AcDbEntity
  8
0
  6
Continuous
 62
     7
370
     0
100
AcDbLine
 10
3.6359618831
 20
4.7918815792
 30
0.0
 11
3.6559619254
 21
4.8118815481
 31
0.0
  0
LINE
  5
A4
330
1F
100
AcDbEntity
  8
0
  6
Continuous
 62
     7
370
     0
100
AcDbLine
 10
3.6559619254
 20
5.3418815322
 30
0.0
 11
3.6359618831
 21
5.3618816478
 31
0.0
  0
LINE
  5
A5
330
1F
100
AcDbEntity
  8
0
  6
Continuous
 62
     7
370
     0
100
AcDbLine
 10
3.3659618622
 20
5.3618816478
 30
0.0
 11
3.3459618932
 21
5.3418815322
 31
0.0
  0
LINE
  5
A6
330
1F
100
AcDbEntity
  8
0
  6
Continuous
 62
     7
370
     0
100
AcDbLine
 10
3.3459618932
 20
4.8118815481
 30
0.0
 11
3.3659618622
 21
4.7918815792
 31
0.0
  0
ARC
  5
A7
330
1F
100
AcDbEntity
  8
0
  6
Continuous
 62
     7
370
     0
100
AcDbCircle
 10
3.6659618138
 20
4.9418815891
 30
0.0
 40
0.0099998883912223
100
AcDbArc
 50
89.9994494494
 51
180.0001303842
  0
ARC
  5
A8
330
1F
100
AcDbEntity
  8
0
  6
Continuous
 62
     7
370
     0
100
AcDbCircle
 10
3.6659618138
 20
5.2118814912
 30
0.0
 40
0.0099998883912223
100
AcDbArc
 50
179.9998696158
 51
270.0005505506
  0
LINE
  5
A9
330
1F
100
AcDbEntity
  8
0
  6
Continuous
 62
     7
370
     0
100
AcDbLine
 10
3.6659619099
 20
4.9518814775
 30
0.0
 11
3.7559619169
 21
4.9518814775
 31
0.0
  0
LINE
  5
AA
330
1F
100
AcDbEntity
  8
0
  6
Continuous
 62
     7
370
     0
100
AcDbLine
 10
3.7559619169
 20
5.2018816028
 30
0.0
 11
3.6659619099
 21
5.2018816028
 31
0.0
  0
SPLINE
  5
AB
330
1F
100
AcDbEntity
  8
0
  6
Continuous
 62
     7
370
     0
100
AcDbSpline
210
0.0
220
0.0
230
1.0
 70
     8
 71
     3
 72
    24
 73
    20
 74
     0
 42
0.00000001
 43
0.00000001
 40
0.0
 40
0.0
 40
0.0
 40
0.0
 40
0.0000480876486175
 40
0.0099318281353402
 40
0.0395172934039072
 40
0.0864533009751434
 40
0.1487669510511428
 40
0.2242542520036066
 40
0.3106588120597186
 40
0.404391713473491
 40
0.5003637638520795
 40
0.5961927827273468
 40
0.6900343673699878
 40
0.7762885570130006
 40
0.851715865362679
 40
0.9138515426521951
 40
0.9607009101789219
 40
0.9902077788096347
 40
1.0
 40
1.0
 40
1.0
 40
1.0
 10
3.755964850151259
 20
5.195288425630505
 30
0.0
 10
3.755963867295153
 20
5.195292160433214
 30
0.0
 10
3.755760872176918
 20
5.19606353145437
 30
0.0
 10
3.757544713625883
 20
5.189310601348507
 30
0.0
 10
3.758298311233755
 20
5.186111954873694
 30
0.0
 10
3.761388349971515
 20
5.173435648963321
 30
0.0
 10
3.76418293360271
 20
5.159759113523714
 30
0.0
 10
3.767294764778392
 20
5.141821421716484
 30
0.0
 10
3.769842322216252
 20
5.121645472975564
 30
0.0
 10
3.77164111121804
 20
5.099621212422866
 30
0.0
 10
3.77225674264088
 20
5.076812813776895
 30
0.0
 10
3.771639073458195
 20
5.053985696811024
 30
0.0
 10
3.769839948057051
 20
5.032005176288584
 30
0.0
 10
3.767261637311146
 20
5.011746333778963
 30
0.0
 10
3.76422027007196
 20
4.99412009087767
 30
0.0
 10
3.761220201089481
 20
4.979692027033405
 30
0.0
 10
3.758633891639633
 20
4.968932872402977
 30
0.0
 10
3.756964425348734
 20
4.962255300096787
 30
0.0
 10
3.756161886759822
 20
4.95921973770796
 30
0.0
 10
3.755961916851811
 20
4.958463361453855
 30
0.0
  0
LINE
  5
AC
330
1F
100
AcDbEntity
  8
0
  6
Continuous
 62
     7
370
     0
100
AcDbLine
 10
4.7399619388
 20
5.246881643
 30
0.0
 11
3.7559619169
 21
5.246881643
 31
0.0
  0
LINE
  5
AD
330
1F
100
AcDbEntity
  8
0
  6
Continuous
 62
     7
370
     0
100
AcDbLine
 10
3.8425644297
 20
5.3968814835
 30
0.0
 11
4.6533593525
 21
5.3968814835
 31
0.0
  0
LINE
  5
AE
330
1F
100
AcDbEntity
  8
0
  6
Continuous
 62
     7
370
     0
100
AcDbLine
 10
3.3659618622
 20
4.7918815792
 30
0.0
 11
3.3659618622
 21
5.3618816478
 31
0.0
  0
LINE
  5
AF
330
1F
100
AcDbEntity
  8
0
  6
Continuous
 62
     7
370
     0
100
AcDbLine
 10
3.6359618831
 20
4.7918815792
 30
0.0
 11
3.6359618831
 21
5.3618816478
 31
0.0
  0
LINE
  5
B0
330
1F
100
AcDbEntity
  8
0
  6
Continuous
 62
     7
370
     0
100
AcDbLine
 10
3.6559619254
 20
4.8118815481
 30
0.0
 11
3.6559619254
 21
5.3418815322
 31
0.0
  0
LINE
  5
B1
330
1F
100
AcDbEntity
  8
0
  6
Continuous
 62
     7
370
     0
100
AcDbLine
 10
3.3459618932
 20
4.8118815481
 30
0.0
 11
3.3459618932
 21
5.3418815322
 31
0.0
  0
LINE
  5
B2
330
1F
100
AcDbEntity
  8
0
  6
Continuous
 62
     7
370
     0
100
AcDbLine
 10
4.7399619388
 20
3.8557653475
 30
0.0
 11
4.7399619388
 21
4.3863237584
 31
0.0
  0
LINE
  5
B3
330
1F
100
AcDbEntity
  8
0
  6
Continuous
 62
     7
370
     0
100
AcDbLine
 10
3.7559619169
 20
4.331821478
 30
0.0
 11
3.7559619169
 21
3.8557653475
 31
0.0
  0
LINE
  5
B4
330
1F
100
AcDbEntity
  8
0
  6
Continuous
 62
     7
370
     0
100
AcDbLine
 10
3.7559619169
 20
3.8557653475
 30
0.0
 11
3.7809619147
 21
3.8307653496
 31
0.0
  0
LINE
  5
B5
330
1F
100
AcDbEntity
  8
0
  6
Continuous
 62
     7
370
     0
100
AcDbLine
 10
4.7149619409
 20
3.8307653496
 30
0.0
 11
4.7399619388
 21
3.8557653475
 31
0.0
  0
LINE
  5
B6
330
1F
100
AcDbEntity
  8
0
  6
Continuous
 62
     7
370
     0
100
AcDbLine
 10
3.7559619169
 20
3.5487653473
 30
0.0
 11
3.7559619169
 21
3.3987653601
 31
0.0
  0
LINE
  5
B7
330
1F
100
AcDbEntity
  8
0
  6
Continuous
 62
     7
370
     0
100
AcDbLine
 10
4.7399619388
 20
3.3987653601
 30
0.0
 11
4.7399619388
 21
3.4767653124
 31
0.0
  0
LINE
  5
B8
330
1F
100
AcDbEntity
  8
0
  6
Continuous
 62
     7
370
     0
100
AcDbLine
 10
3.8532119401
 20
3.8307653496
 30
0.0
 11
3.8532119401
 21
3.8267653558
 31
0.0
  0
LINE
  5
B9
330
1F
100
AcDbEntity
  8
0
  6
Continuous
 62
     7
370
     0
100
AcDbLine
 10
4.6427119155
 20
3.8267653558
 30
0.0
 11
4.6427119155
 21
3.8307653496
 31
0.0
  0
LINE
  5
BA
330
1F
100
AcDbEntity
  8
0
  6
Continuous
 62
     7
370
     0
100
AcDbLine
 10
3.7559619169
 20
3.8267653558
 30
0.0
 11
3.7559619169
 21
3.5487653473
 31
0.0
  0
LINE
  5
BB
330
1F
100
AcDbEntity
  8
0
  6
Continuous
 62
     7
370
     0
100
AcDbLine
 10
3.7559619169
 20
3.8557653475
 30
0.0
 11
4.7399619388
 21
3.8557653475
 31
0.0
  0
LINE
  5
BC
330
1F
100
AcDbEntity
  8
0
  6
Continuous
 62
     7
370
     0
100
AcDbLine
 10
4.7149619409
 20
3.8307653496
 30
0.0
 11
3.7809619147
 21
3.8307653496
 31
0.0
  0
LINE
  5
BD
330
1F
100
AcDbEntity
  8
0
  6
Continuous
 62
     7
370
     0
100
AcDbLine
 10
3.7559619169
 20
3.3987653601
 30
0.0
 11
4.7399619388
 21
3.3987653601
 31
0.0
  0
LINE
  5
BE
330
1F
100
AcDbEntity
  8
0
  6
Continuous
 62
     7
370
     0
100
AcDbLine
 10
3.7559619169
 20
3.5487653473
 30
0.0
 11
4.2479618866
 21
3.5487653473
 31
0.0
  0
LINE
  5
BF
330
1F
100
AcDbEntity
  8
0
  6
Continuous
 62
     7
370
     0
100
AcDbLine
 10
3.7559619169
 20
3.8267653558
 30
0.0
 11
4.2479618866
 21
3.8267653558
 31
0.0
  0
SPLINE
  5
C0
330
1F
100
AcDbEntity
  8
0
  6
Continuous
 62
     7
370
     0
100
AcDbSpline
210
0.0
220
0.0
230
1.0
 70
     8
 71
     3
 72
    17
 73
    13
 74
     0
 42
0.00000001
 43
0.00000001
 40
0.0
 40
0.0
 40
0.0
 40
0.0
 40
0.1072262679943487
 40
0.2144100616380041
 40
0.3217331068332553
 40
0.4291886277997993
 40
0.5365037755013876
 40
0.6436248350004559
 40
0.7508014661640382
 40
0.8581953389132083
 40
0.9656308378286504
 40
1.0
 40
1.0
 40
1.0
 40
1.0
 10
4.24796188655951
 20
3.654265421868023
 30
0.0
 10
4.244200013071217
 20
3.654634787612685
 30
0.0
 10
4.236677756243797
 20
3.655373372789259
 30
0.0
 10
4.226659183850301
 20
3.661132886938339
 30
0.0
 10
4.21903083476524
 20
3.669624294770395
 30
0.0
 10
4.21466107152585
 20
3.680237689766247
 30
0.0
 10
4.214046797853615
 20
3.691673173735791
 30
0.0
 10
4.21724454244535
 20
3.702661088703836
 30
0.0
 10
4.223896719196389
 20
3.711986537698008
 30
0.0
 10
4.233257941266715
 20
3.718558827074776
 30
0.0
 10
4.241810198454985
 20
3.721061253533079
 30
0.0
 10
4.246761774294352
 20
3.721225537161566
 30
0.0
 10
4.24796188655951
 20
3.72126535454575
 30
0.0
  0
LINE
  5
C1
330
1F
100
AcDbEntity
  8
0
  6
Continuous
 62
     7
370
     0
100
AcDbLine
 10
6.01646587
 20
3.3967654365
 30
0.0
 11
6.2164658529
 21
3.3967654365
 31
0.0
  0
LINE
  5
C2
330
1F
100
AcDbEntity
  8
0
  6
Continuous
 62
     7
370
     0
100
AcDbLine
 10
4.4479619061
 20
3.4767653124
 30
0.0
 11
6.01646587
 21
3.4767653124
 31
0.0
  0
LINE
  5
C3
330
1F
100
AcDbEntity
  8
0
  6
Continuous
 62
     7
370
     0
100
AcDbLine
 10
6.2164658529
 20
3.8267653558
 30
0.0
 11
6.2164658529
 21
3.3967654365
 31
0.0
  0
LINE
  5
C4
330
1F
100
AcDbEntity
  8
0
  6
Continuous
 62
     7
370
     0
100
AcDbLine
 10
4.2479618866
 20
3.8267653558
 30
0.0
 11
6.2164658529
 21
3.8267653558
 31
0.0
  0
LINE
  5
C5
330
1F
100
AcDbEntity
  8
0
  6
Continuous
 62
     7
370
     0
100
AcDbLine
 10
4.4479619061
 20
3.5487653473
 30
0.0
 11
4.4479619061
 21
3.4767653124
 31
0.0
  0
ARC
  5
C6
330
1F
100
AcDbEntity
  8
0
  6
Continuous
 62
     7
370
     0
100
AcDbCircle
 10
4.2479619232
 20
3.6877653882
 30
0.0
 40
0.0334999663388836
100
AcDbArc
 50
269.9999372889
 51
90.0000627111
  0
LINE
  5
C7
330
1F
100
AcDbEntity
  8
0
  6
Continuous
 62
     7
370
     0
100
AcDbLine
 10
4.2479618866
 20
3.5487653473
 30
0.0
 11
4.4479619061
 21
3.5487653473
 31
0.0
  0
LINE
  5
C8
330
1F
100
AcDbEntity
  8
0
  6
Continuous
 62
     7
370
     0
100
AcDbLine
 10
6.01646587
 20
3.4767653124
 30
0.0
 11
6.01646587
 21
3.3967654365
 31
0.0
  0
CIRCLE
  5
C9
330
1F
100
AcDbEntity
  8
0
  6
Continuous
 62
     7
370
     0
100
AcDbCircle
 10
4.247961908
 20
3.6877654017
 30
0.0
 40
0.0312500095703249
  0
DIMENSION
  5
CA
330
1F
100
AcDbEntity
  8
0
  6
Continuous
 62
     7
370
     0
100
AcDbDimension
  2
*D7
 10
6.610166629
 20
3.8267653786
 30
0.0
 11
6.610166629
 21
3.6117653786
 31
0.0
 70
   160
  1
10.9 mm\P(<>")
 71
     2
 42
-1.0
  3
SLDDIMSTYLE0
100
AcDbAlignedDimension
 13
6.2164658416
 23
3.3967653786
 33
0.0
 14
6.2164658416
 24
3.8267653786
 34
0.0
 50
90.0
100
AcDbRotatedDimension
  0
DIMENSION
  5
D9
330
1F
100
AcDbEntity
  8
0
  6
Continuous
 62
     7
370
     0
100
AcDbDimension
  2
*D8
 10
7.2180526577
 20
5.3968815414
 30
0.0
 11
7.2180526577
 21
4.39682346
 31
0.0
 70
   160
  1
76.2 mm\P(3.00")
 71
     2
 42
-1.0
  3
SLDDIMSTYLE1
100
AcDbAlignedDimension
 13
6.2164658416
 23
3.3967653786
 33
0.0
 14
4.6533593642
 24
5.3968815414
 34
0.0
 50
90.0
100
AcDbRotatedDimension
  0
DIMENSION
  5
EC
330
1F
100
AcDbEntity
  8
0
  6
Continuous
 62
     7
370
     0
100
AcDbDimension
  2
*D9
 10
6.2164658416
 20
3.0405887381
 30
0.0
 11
4.9862138731
 21
3.0405887381
 31
0.0
 70
   160
  1
62.5 mm\P(<>")
 71
     2
 42
-1.0
  3
SLDDIMSTYLE2
100
AcDbAlignedDimension
 13
3.7559619045
 23
3.8557653786
 33
0.0
 14
6.2164658416
 24
3.3967653786
 34
0.0
100
AcDbRotatedDimension
  0
LINE
  5
FB
330
1F
100
AcDbEntity
  8
0
  6
HIDDEN
 62
     7
370
     0
100
AcDbLine
 10
4.8099619385
 20
4.3590726127
 30
0.0
 11
4.6077020837
 21
4.4378127702
 31
0.0
  0
LINE
  5
FC
330
1F
100
AcDbEntity
  8
0
  6
HIDDEN
 62
     7
370
     0
100
AcDbLine
 10
4.6077020837
 20
4.4378127702
 30
0.0
 11
4.4502217687
 21
4.2803324552
 31
0.0
  0
LINE
  5
FD
330
1F
100
AcDbEntity
  8
0
  6
HIDDEN
 62
     7
370
     0
100
AcDbLine
 10
4.4502217687
 20
4.2803324552
 30
0.0
 11
4.0457020589
 21
4.4378127702
 31
0.0
  0
LINE
  5
FE
330
1F
100
AcDbEntity
  8
0
  6
HIDDEN
 62
     7
370
     0
100
AcDbLine
 10
4.0457020589
 20
4.4378127702
 30
0.0
 11
3.888221744
 21
4.2803324552
 31
0.0
  0
LINE
  5
FF
330
1F
100
AcDbEntity
  8
0
  6
HIDDEN
 62
     7
370
     0
100
AcDbLine
 10
3.888221744
 20
4.2803324552
 30
0.0
 11
3.6859618891
 21
4.3590726127
 31
0.0
  0
LINE
  5
100
330
1F
100
AcDbEntity
  8
0
  6
HIDDEN
 62
     7
370
     0
100
AcDbLine
 10
4.8099619385
 20
4.6590726127
 30
0.0
 11
4.6077020837
 21
4.7378127702
 31
0.0
  0
LINE
  5
101
330
1F
100
AcDbEntity
  8
0
  6
HIDDEN
 62
     7
370
     0
100
AcDbLine
 10
4.6077020837
 20
4.7378127702
 30
0.0
 11
4.4502217687
 21
4.5803324552
 31
0.0
  0
LINE
  5
102
330
1F
100
AcDbEntity
  8
0
  6
HIDDEN
 62
     7
370
     0
100
AcDbLine
 10
4.4502217687
 20
4.5803324552
 30
0.0
 11
4.0457020589
 21
4.7378127702
 31
0.0
  0
LINE
  5
103
330
1F
100
AcDbEntity
  8
0
  6
HIDDEN
 62
     7
370
     0
100
AcDbLine
 10
4.0457020589
 20
4.7378127702
 30
0.0
 11
3.888221744
 21
4.5803324552
 31
0.0
  0
LINE
  5
104
330
1F
100
AcDbEntity
  8
0
  6
HIDDEN
 62
     7
370
     0
100
AcDbLine
 10
3.888221744
 20
4.5803324552
 30
0.0
 11
3.6859618891
 21
4.6590726127
 31
0.0
  0
SPLINE
  5
105
330
1F
100
AcDbEntity
  8
0
  6
Continuous
 62
     7
370
     0
100
AcDbSpline
210
0.0
220
0.0
230
1.0
 70
     8
 71
     3
 72
     9
 73
     5
 74
     0
 42
0.00000001
 43
0.00000001
 40
0.0
 40
0.0
 40
0.0
 40
0.0
 40
0.5881768989324343
 40
1.0
 40
1.0
 40
1.0
 40
1.0
 10
3.773348323389397
 20
6.788538899068306
 30
0.0
 10
3.773542258554325
 20
6.790939598546296
 30
0.0
 10
3.773871981066855
 20
6.795021192846152
 30
0.0
 10
3.774173976891129
 20
6.798888169177547
 30
0.0
 10
3.77429834574799
 20
6.800480679362098
 30
0.0
  0
ARC
  5
106
330
1F
100
AcDbEntity
  8
0
  6
Continuous
 62
     7
370
     0
100
AcDbCircle
 10
4.0942983526
 20
6.7884221237
 30
0.0
 40
0.0450000000000001
100
AcDbArc
 50
301.4066750694
 51
58.5933249306
  0
LINE
  5
107
330
1F
100
AcDbEntity
  8
0
  6
Continuous
 62
     7
370
     0
100
AcDbLine
 10
3.4842983192
 20
6.503422126
 30
0.0
 11
3.7542983401
 21
6.503422126
 31
0.0
  0
LINE
  5
108
330
1F
100
AcDbEntity
  8
0
  6
Continuous
 62
     7
370
     0
100
AcDbLine
 10
3.7542983401
 20
7.0734221213
 30
0.0
 11
3.4842983192
 21
7.0734221213
 31
0.0
  0
LINE
  5
109
330
1F
100
AcDbEntity
  8
0
  6
Continuous
 62
     7
370
     0
100
AcDbLine
 10
3.4842983192
 20
7.0734221213
 30
0.0
 11
3.4642983502
 21
7.0534221157
 31
0.0
  0
LINE
  5
10A
330
1F
100
AcDbEntity
  8
0
  6
Continuous
 62
     7
370
     0
100
AcDbLine
 10
3.4642983502
 20
6.5234221316
 30
0.0
 11
3.4842983192
 21
6.503422126
 31
0.0
  0
LINE
  5
10B
330
1F
100
AcDbEntity
  8
0
  6
Continuous
 62
     7
370
     0
100
AcDbLine
 10
3.7542983401
 20
6.503422126
 30
0.0
 11
3.7742983457
 21
6.5234221316
 31
0.0
  0
LINE
  5
10C
330
1F
100
AcDbEntity
  8
0
  6
Continuous
 62
     7
370
     0
100
AcDbLine
 10
3.7742983457
 20
7.0534221157
 30
0.0
 11
3.7542983401
 21
7.0734221213
 31
0.0
  0
ARC
  5
10D
330
1F
100
AcDbEntity
  8
0
  6
Continuous
 62
     7
370
     0
100
AcDbCircle
 10
3.7842983526
 20
6.6534221237
 30
0.0
 40
0.0100000000000007
100
AcDbArc
 50
90.0
 51
180.0
  0
ARC
  5
10E
330
1F
100
AcDbEntity
  8
0
  6
Continuous
 62
     7
370
     0
100
AcDbCircle
 10
3.7842983526
 20
6.9234221237
 30
0.0
 40
0.0099999999999998
100
AcDbArc
 50
180.0
 51
270.0
  0
LINE
  5
10F
330
1F
100
AcDbEntity
  8
0
  6
Continuous
 62
     7
370
     0
100
AcDbLine
 10
3.7842983669
 20
6.6634221252
 30
0.0
 11
3.8904422824
 21
6.6634221252
 31
0.0
  0
LINE
  5
110
330
1F
100
AcDbEntity
  8
0
  6
Continuous
 62
     7
370
     0
100
AcDbLine
 10
3.8904422824
 20
6.9134221222
 30
0.0
 11
3.7842983669
 21
6.9134221222
 31
0.0
  0
LINE
  5
111
330
1F
100
AcDbEntity
  8
0
  6
Continuous
 62
     7
370
     0
100
AcDbLine
 10
3.4642358709
 20
6.5683244196
 30
0.0
 11
3.4642983502
 21
6.5683244196
 31
0.0
  0
CIRCLE
  5
112
330
1F
100
AcDbEntity
  8
0
  6
Continuous
 62
     7
370
     0
100
AcDbCircle
 10
4.3662983526
 20
6.7884221237
 30
0.0
 40
0.4053974596215566
  0
CIRCLE
  5
113
330
1F
100
AcDbEntity
  8
0
  6
Continuous
 62
     7
370
     0
100
AcDbCircle
 10
4.3662983526
 20
6.7884221237
 30
0.0
 40
0.492
  0
LINE
  5
114
330
1F
100
AcDbEntity
  8
0
  6
Continuous
 62
     7
370
     0
100
AcDbLine
 10
4.6612983624
 20
6.9454221183
 30
0.0
 11
4.6612983624
 21
6.631422129
 31
0.0
  0
LINE
  5
115
330
1F
100
AcDbEntity
  8
0
  6
Continuous
 62
     7
370
     0
100
AcDbLine
 10
4.5999503477
 20
6.9454221183
 30
0.0
 11
4.6612983624
 21
6.9454221183
 31
0.0
  0
ARC
  5
116
330
1F
100
AcDbEntity
  8
0
  6
Continuous
 62
     7
370
     0
100
AcDbCircle
 10
4.3662983526
 20
6.7884221237
 30
0.0
 40
0.2815000000000002
100
AcDbArc
 50
33.8987130402
 51
326.1012869598
  0
LINE
  5
117
330
1F
100
AcDbEntity
  8
0
  6
Continuous
 62
     7
370
     0
100
AcDbLine
 10
4.6612983624
 20
6.631422129
 30
0.0
 11
4.5999503477
 21
6.631422129
 31
0.0
  0
ARC
  5
118
330
1F
100
AcDbEntity
  8
0
  6
Continuous
 62
     7
370
     0
100
AcDbCircle
 10
4.3662983526
 20
6.7884221237
 30
0.0
 40
0.2515000000000006
100
AcDbArc
 50
30.3293727942
 51
329.6706272058
  0
LINE
  5
119
330
1F
100
AcDbEntity
  8
0
  6
Continuous
 62
     7
370
     0
100
AcDbLine
 10
4.5999503477
 20
6.631422129
 30
0.0
 11
4.5833772425
 21
6.6614221191
 31
0.0
  0
LINE
  5
11A
330
1F
100
AcDbEntity
  8
0
  6
Continuous
 62
     7
370
     0
100
AcDbLine
 10
4.5833772425
 20
6.9154221282
 30
0.0
 11
4.5999503477
 21
6.9454221183
 31
0.0
  0
LINE
  5
11B
330
1F
100
AcDbEntity
  8
0
  6
Continuous
 62
     7
370
     0
100
AcDbLine
 10
4.6312983356
 20
6.9154221282
 30
0.0
 11
4.5833772425
 21
6.9154221282
 31
0.0
  0
LINE
  5
11C
330
1F
100
AcDbEntity
  8
0
  6
Continuous
 62
     7
370
     0
100
AcDbLine
 10
4.6312983356
 20
6.9154221282
 30
0.0
 11
4.6612983624
 21
6.9454221183
 31
0.0
  0
LINE
  5
11D
330
1F
100
AcDbEntity
  8
0
  6
Continuous
 62
     7
370
     0
100
AcDbLine
 10
4.6312983356
 20
6.6614221191
 30
0.0
 11
4.6312983356
 21
6.9154221282
 31
0.0
  0
LINE
  5
11E
330
1F
100
AcDbEntity
  8
0
  6
Continuous
 62
     7
370
     0
100
AcDbLine
 10
4.6612983624
 20
6.631422129
 30
0.0
 11
4.6312983356
 21
6.6614221191
 31
0.0
  0
LINE
  5
11F
330
1F
100
AcDbEntity
  8
0
  6
Continuous
 62
     7
370
     0
100
AcDbLine
 10
4.5833772425
 20
6.6614221191
 30
0.0
 11
4.6312983356
 21
6.6614221191
 31
0.0
  0
ARC
  5
120
330
1F
100
AcDbEntity
  8
0
  6
Continuous
 62
     7
370
     0
100
AcDbCircle
 10
4.3662983526
 20
6.7884221237
 30
0.0
 40
0.2550000000000002
100
AcDbArc
 50
330.1296398799
 51
29.8703601201
  0
LINE
  5
121
330
1F
100
AcDbEntity
  8
0
  6
Continuous
 62
     7
370
     0
100
AcDbLine
 10
4.3662983436
 20
7.28042213
 30
0.0
 11
6.3348022366
 21
7.28042213
 31
0.0
  0
LINE
  5
122
330
1F
100
AcDbEntity
  8
0
  6
Continuous
 62
     7
370
     0
100
AcDbLine
 10
6.3348022366
 20
6.9209221197
 30
0.0
 11
5.1162983528
 21
6.9209221197
 31
0.0
  0
ARC
  5
123
330
1F
100
AcDbEntity
  8
0
  6
Continuous
 62
     7
370
     0
100
AcDbCircle
 10
5.1162983526
 20
6.7884221237
 30
0.0
 40
0.1324999999999994
100
AcDbArc
 50
90.0
 51
270.0
  0
LINE
  5
124
330
1F
100
AcDbEntity
  8
0
  6
Continuous
 62
     7
370
     0
100
AcDbLine
 10
6.3348022366
 20
6.6559221276
 30
0.0
 11
5.1162983528
 21
6.6559221276
 31
0.0
  0
LINE
  5
125
330
1F
100
AcDbEntity
  8
0
  6
Continuous
 62
     7
370
     0
100
AcDbLine
 10
6.3348022366
 20
6.2964221173
 30
0.0
 11
6.3348022366
 21
6.6559221276
 31
0.0
  0
LINE
  5
126
330
1F
100
AcDbEntity
  8
0
  6
Continuous
 62
     7
370
     0
100
AcDbLine
 10
4.3662983436
 20
6.2964221173
 30
0.0
 11
6.3348022366
 21
6.2964221173
 31
0.0
  0
LINE
  5
127
330
1F
100
AcDbEntity
  8
0
  6
Continuous
 62
     7
370
     0
100
AcDbLine
 10
6.3348022366
 20
7.28042213
 30
0.0
 11
6.3348022366
 21
6.9209221197
 31
0.0
  0
LINE
  5
128
330
1F
100
AcDbEntity
  8
0
  6
Continuous
 62
     7
370
     0
100
AcDbLine
 10
3.4842983192
 20
6.503422126
 30
0.0
 11
3.4842983192
 21
7.0734221213
 31
0.0
  0
LINE
  5
129
330
1F
100
AcDbEntity
  8
0
  6
Continuous
 62
     7
370
     0
100
AcDbLine
 10
3.7542983401
 20
6.503422126
 30
0.0
 11
3.7542983401
 21
7.0734221213
 31
0.0
  0
LINE
  5
12A
330
1F
100
AcDbEntity
  8
0
  6
Continuous
 62
     7
370
     0
100
AcDbLine
 10
3.4642983502
 20
6.5234221316
 30
0.0
 11
3.4642983502
 21
7.0534221157
 31
0.0
  0
LINE
  5
12B
330
1F
100
AcDbEntity
  8
0
  6
Continuous
 62
     7
370
     0
100
AcDbLine
 10
3.7742983457
 20
6.5234221316
 30
0.0
 11
3.7742983457
 21
7.0534221157
 31
0.0
  0
DIMENSION
  5
12C
330
1F
100
AcDbEntity
  8
0
  6
Continuous
 62
     7
370
     0
100
AcDbDimension
  2
*D10
 10
5.1162983526
 20
7.6771229111
 30
0.0
 11
5.7255503211
 21
7.6771229111
 31
0.0
 70
   160
  1
31.0 mm\P(<>")
 71
     2
 42
-1.0
  3
SLDDIMSTYLE2
100
AcDbAlignedDimension
 13
6.3348022897
 23
7.2804221237
 33
0.0
 14
5.1162983526
 24
6.8384221237
 34
0.0
100
AcDbRotatedDimension
  0
DIMENSION
  5
13A
330
1F
100
AcDbEntity
  8
0
  6
Continuous
 62
     7
370
     0
100
AcDbDimension
  2
*D11
 10
5.2099898043
 20
6.6947302783
 30
0.0
 11
2.6626792762
 21
7.9923388192
 31
0.0
 70
   163
  1
CLEARANCE SLOT\PFOR USE WITH M6 (1/4"-20) CAP SCREW
 71
     1
 42
-1.0
  3
SLDDIMSTYLE3
100
AcDbDiametricDimension
 15
5.022606901
 25
6.8821139691
 35
0.0
 40
0.0
  0
DIMENSION
  5
144
330
1F
100
AcDbEntity
  8
0
  6
Continuous
 62
     7
370
     0
100
AcDbDimension
  2
*D12
 10
6.9647235495
 20
6.2964221237
 30
0.0
 11
6.9647235495
 21
6.7884221237
 31
0.0
 70
   160
  1
25.0 mm\P(<>")
 71
     2
 42
-1.0
  3
SLDDIMSTYLE2
100
AcDbAlignedDimension
 13
6.3348022897
 23
7.2804221237
 33
0.0
 14
6.3348022897
 24
6.2964221237
 34
0.0
 50
90.0
100
AcDbRotatedDimension
  0
DIMENSION
  5
152
330
1F
100
AcDbEntity
  8
0
  6
Continuous
 62
     7
370
     0
100
AcDbDimension
  2
*D13
 10
4.7253482385
 20
7.1247956949
 30
0.0
 11
3.2140062565
 21
6.1797477523
 31
0.0
 70
   163
  1
%%c25.0 mm\P(<>")
 71
     1
 42
-1.0
  3
SLDDIMSTYLE4
100
AcDbDiametricDimension
 15
4.0072484668
 25
6.4520485524
 35
0.0
 40
0.0
  0
DIMENSION
  5
160
330
1F
100
AcDbEntity
  8
0
  6
Continuous
 62
     7
370
     0
100
AcDbDimension
  2
*D14
 10
4.5441299522
 20
6.6105790125
 30
0.0
 11
2.6534800508
 21
7.5028277271
 31
0.0
 70
   163
  1
%%c12.8 mm (<>") THRU\PFOR USE WITH TR SERIES POSTS
 71
     1
 42
-1.0
  3
SLDDIMSTYLE5
100
AcDbDiametricDimension
 15
4.1884667531
 25
6.9662652348
 35
0.0
 40
0.0
  0
INSERT
  5
175
330
1F
100
AcDbEntity
  8
0
  6
Continuous
 62
     7
370
     0
100
AcDbBlockReference
  2
SW_CENTERMARKSYMBOL_0
 10
5.1162983526
 20
6.7884221237
 30
0.0
  0
INSERT
  5
17D
330
1F
100
AcDbEntity
  8
0
  6
Continuous
 62
     7
370
     0
100
AcDbBlockReference
  2
SW_CENTERMARKSYMBOL_1
 10
4.3662983526
 20
6.7884221237
 30
0.0
  0
ARC
  5
17E
330
1F
100
AcDbEntity
  8
0
  6
Continuous
 62
     7
370
     0
100
AcDbCircle
 10
4.0942983526
 20
1.7609478022
 30
0.0
 40
0.0450000000000001
100
AcDbArc
 50
301.4066750694
 51
58.5933249306
  0
LINE
  5
17F
330
1F
100
AcDbEntity
  8
0
  6
Continuous
 62
     7
370
     0
100
AcDbLine
 10
3.7542983401
 20
1.4759478045
 30
0.0
 11
3.7742983457
 21
1.4959478102
 31
0.0
  0
LINE
  5
180
330
1F
100
AcDbEntity
  8
0
  6
Continuous
 62
     7
370
     0
100
AcDbLine
 10
3.7742983457
 20
2.0259477942
 30
0.0
 11
3.7542983401
 21
2.0459477999
 31
0.0
  0
LINE
  5
181
330
1F
100
AcDbEntity
  8
0
  6
Continuous
 62
     7
370
     0
100
AcDbLine
 10
3.4842983192
 20
2.0459477999
 30
0.0
 11
3.4642983502
 21
2.0259477942
 31
0.0
  0
LINE
  5
182
330
1F
100
AcDbEntity
  8
0
  6
Continuous
 62
     7
370
     0
100
AcDbLine
 10
3.4642983502
 20
1.4959478102
 30
0.0
 11
3.4842983192
 21
1.4759478045
 31
0.0
  0
LINE
  5
183
330
1F
100
AcDbEntity
  8
0
  6
Continuous
 62
     7
370
     0
100
AcDbLine
 10
3.4842983192
 20
1.4759478045
 30
0.0
 11
3.7542983401
 21
1.4759478045
 31
0.0
  0
LINE
  5
184
330
1F
100
AcDbEntity
  8
0
  6
Continuous
 62
     7
370
     0
100
AcDbLine
 10
3.7542983401
 20
2.0459477999
 30
0.0
 11
3.4842983192
 21
2.0459477999
 31
0.0
  0
ARC
  5
185
330
1F
100
AcDbEntity
  8
0
  6
Continuous
 62
     7
370
     0
100
AcDbCircle
 10
3.7842983526
 20
1.6259478022
 30
0.0
 40
0.0099999999999998
100
AcDbArc
 50
90.0
 51
180.0
  0
ARC
  5
186
330
1F
100
AcDbEntity
  8
0
  6
Continuous
 62
     7
370
     0
100
AcDbCircle
 10
3.7842983526
 20
1.8959478022
 30
0.0
 40
0.0100000000000002
100
AcDbArc
 50
180.0
 51
270.0
  0
LINE
  5
187
330
1F
100
AcDbEntity
  8
0
  6
Continuous
 62
     7
370
     0
100
AcDbLine
 10
3.7842983669
 20
1.6359478037
 30
0.0
 11
3.8904422824
 21
1.6359478037
 31
0.0
  0
LINE
  5
188
330
1F
100
AcDbEntity
  8
0
  6
Continuous
 62
     7
370
     0
100
AcDbLine
 10
3.8904422824
 20
1.8859478007
 30
0.0
 11
3.7842983669
 21
1.8859478007
 31
0.0
  0
LINE
  5
189
330
1F
100
AcDbEntity
  8
0
  6
Continuous
 62
     7
370
     0
100
AcDbLine
 10
3.4642983502
 20
1.9810455063
 30
0.0
 11
3.4642358709
 21
1.9810455063
 31
0.0
  0
LINE
  5
18A
330
1F
100
AcDbEntity
  8
0
  6
Continuous
 62
     7
370
     0
100
AcDbLine
 10
4.5833772425
 20
1.6339477976
 30
0.0
 11
4.5874227391
 21
1.6339477976
 31
0.0
  0
LINE
  5
18B
330
1F
100
AcDbEntity
  8
0
  6
Continuous
 62
     7
370
     0
100
AcDbLine
 10
4.5833772425
 20
1.8879478067
 30
0.0
 11
4.5874227391
 21
1.8879478067
 31
0.0
  0
ARC
  5
18C
330
1F
100
AcDbEntity
  8
0
  6
Continuous
 62
     7
370
     0
100
AcDbCircle
 10
4.3662983526
 20
1.7609478022
 30
0.0
 40
0.2514999999999999
100
AcDbArc
 50
30.3293727942
 51
329.6706272058
  0
CIRCLE
  5
18D
330
1F
100
AcDbEntity
  8
0
  6
Continuous
 62
     7
370
     0
100
AcDbCircle
 10
4.3662983526
 20
1.7609478022
 30
0.0
 40
0.2549999999999999
  0
CIRCLE
  5
18E
330
1F
100
AcDbEntity
  8
0
  6
Continuous
 62
     7
370
     0
100
AcDbCircle
 10
4.3662983526
 20
1.7609478022
 30
0.0
 40
0.492
  0
CIRCLE
  5
18F
330
1F
100
AcDbEntity
  8
0
  6
Continuous
 62
     7
370
     0
100
AcDbCircle
 10
3.9912983526
 20
1.7609478022
 30
0.0
 40
0.1050000000000004
  0
CIRCLE
  5
190
330
1F
100
AcDbEntity
  8
0
  6
Continuous
 62
     7
370
     0
100
AcDbCircle
 10
4.5537983526
 20
2.0857073286
 30
0.0
 40
0.1049999999999995
  0
CIRCLE
  5
191
330
1F
100
AcDbEntity
  8
0
  6
Continuous
 62
     7
370
     0
100
AcDbCircle
 10
4.5537983526
 20
1.4361882758
 30
0.0
 40
0.1050000000000004
  0
CIRCLE
  5
192
330
1F
100
AcDbEntity
  8
0
  6
Continuous
 62
     7
370
     0
100
AcDbCircle
 10
4.5537983526
 20
1.4361882758
 30
0.0
 40
0.0949999999999998
  0
CIRCLE
  5
193
330
1F
100
AcDbEntity
  8
0
  6
Continuous
 62
     7
370
     0
100
AcDbCircle
 10
3.9912983526
 20
1.7609478022
 30
0.0
 40
0.0950000000000002
  0
CIRCLE
  5
194
330
1F
100
AcDbEntity
  8
0
  6
Continuous
 62
     7
370
     0
100
AcDbCircle
 10
4.5537983526
 20
2.0857073286
 30
0.0
 40
0.0949999999999998
  0
LINE
  5
195
330
1F
100
AcDbEntity
  8
0
  6
Continuous
 62
     7
370
     0
100
AcDbLine
 10
6.3348022366
 20
1.2689477958
 30
0.0
 11
6.3348022366
 21
1.6284478062
 31
0.0
  0
LINE
  5
196
330
1F
100
AcDbEntity
  8
0
  6
Continuous
 62
     7
370
     0
100
AcDbLine
 10
6.1348022537
 20
1.2689477958
 30
0.0
 11
6.3348022366
 21
1.2689477958
 31
0.0
  0
LINE
  5
197
330
1F
100
AcDbEntity
  8
0
  6
Continuous
 62
     7
370
     0
100
AcDbLine
 10
6.1348022537
 20
1.2689477958
 30
0.0
 11
6.1348022537
 21
1.6284478062
 31
0.0
  0
LINE
  5
198
330
1F
100
AcDbEntity
  8
0
  6
Continuous
 62
     7
370
     0
100
AcDbLine
 10
6.3348022366
 20
1.6284478062
 30
0.0
 11
6.1348022537
 21
1.6284478062
 31
0.0
  0
LINE
  5
199
330
1F
100
AcDbEntity
  8
0
  6
Continuous
 62
     7
370
     0
100
AcDbLine
 10
6.1348022537
 20
2.2529478086
 30
0.0
 11
6.3348022366
 21
2.2529478086
 31
0.0
  0
LINE
  5
19A
330
1F
100
AcDbEntity
  8
0
  6
Continuous
 62
     7
370
     0
100
AcDbLine
 10
6.3348022366
 20
2.2529478086
 30
0.0
 11
6.3348022366
 21
1.8934477982
 31
0.0
  0
LINE
  5
19B
330
1F
100
AcDbEntity
  8
0
  6
Continuous
 62
     7
370
     0
100
AcDbLine
 10
6.3348022366
 20
1.8934477982
 30
0.0
 11
6.1348022537
 21
1.8934477982
 31
0.0
  0
LINE
  5
19C
330
1F
100
AcDbEntity
  8
0
  6
Continuous
 62
     7
370
     0
100
AcDbLine
 10
6.1348022537
 20
1.8934477982
 30
0.0
 11
6.1348022537
 21
2.2529478086
 31
0.0
  0
LINE
  5
19D
330
1F
100
AcDbEntity
  8
0
  6
Continuous
 62
     7
370
     0
100
AcDbLine
 10
4.5662983632
 20
2.2300959759
 30
0.0
 11
4.5662983632
 21
2.2529478086
 31
0.0
  0
ARC
  5
19E
330
1F
100
AcDbEntity
  8
0
  6
Continuous
 62
     7
370
     0
100
AcDbCircle
 10
5.1162983526
 20
1.7609478022
 30
0.0
 40
0.1325000000000003
100
AcDbArc
 50
90.0
 51
270.0
  0
ARC
  5
19F
330
1F
100
AcDbEntity
  8
0
  6
Continuous
 62
     7
370
     0
100
AcDbCircle
 10
4.3662983526
 20
1.7609478022
 30
0.0
 40
0.5100000000000001
100
AcDbArc
 50
293.088772437
 51
66.911227563
  0
LINE
  5
1A0
330
1F
100
AcDbEntity
  8
0
  6
Continuous
 62
     7
370
     0
100
AcDbLine
 10
4.5662983632
 20
1.2689477958
 30
0.0
 11
4.5662983632
 21
1.2917996285
 31
0.0
  0
LINE
  5
1A1
330
1F
100
AcDbEntity
  8
0
  6
Continuous
 62
     7
370
     0
100
AcDbLine
 10
4.5662983632
 20
2.2529478086
 30
0.0
 11
6.1348022537
 21
2.2529478086
 31
0.0
  0
LINE
  5
1A2
330
1F
100
AcDbEntity
  8
0
  6
Continuous
 62
     7
370
     0
100
AcDbLine
 10
6.1348022537
 20
1.8934477982
 30
0.0
 11
5.1162983528
 21
1.8934477982
 31
0.0
  0
LINE
  5
1A3
330
1F
100
AcDbEntity
  8
0
  6
Continuous
 62
     7
370
     0
100
AcDbLine
 10
6.1348022537
 20
1.6284478062
 30
0.0
 11
5.1162983528
 21
1.6284478062
 31
0.0
  0
LINE
  5
1A4
330
1F
100
AcDbEntity
  8
0
  6
Continuous
 62
     7
370
     0
100
AcDbLine
 10
4.5662983632
 20
1.2689477958
 30
0.0
 11
6.1348022537
 21
1.2689477958
 31
0.0
  0
LINE
  5
1A5
330
1F
100
AcDbEntity
  8
0
  6
Continuous
 62
     7
370
     0
100
AcDbLine
 10
4.3662983436
 20
2.2529478086
 30
0.0
 11
4.5662983632
 21
2.2529478086
 31
0.0
  0
LINE
  5
1A6
330
1F
100
AcDbEntity
  8
0
  6
Continuous
 62
     7
370
     0
100
AcDbLine
 10
4.3662983436
 20
1.2689477958
 30
0.0
 11
4.5662983632
 21
1.2689477958
 31
0.0
  0
CIRCLE
  5
1A7
330
1F
100
AcDbEntity
  8
0
  6
Continuous
 62
     7
370
     0
100
AcDbCircle
 10
4.5537983526
 20
1.4361882758
 30
0.0
 40
0.0937500000000002
  0
CIRCLE
  5
1A8
330
1F
100
AcDbEntity
  8
0
  6
Continuous
 62
     7
370
     0
100
AcDbCircle
 10
4.5537983526
 20
2.0857073286
 30
0.0
 40
0.0937500000000005
  0
CIRCLE
  5
1A9
330
1F
100
AcDbEntity
  8
0
  6
Continuous
 62
     7
370
     0
100
AcDbCircle
 10
3.9912983526
 20
1.7609478022
 30
0.0
 40
0.0937500000000001
  0
LINE
  5
1AA
330
1F
100
AcDbEntity
  8
0
  6
Continuous
 62
     7
370
     0
100
AcDbLine
 10
3.7542983401
 20
1.7609478022
 30
0.0
 11
3.7542983401
 21
2.0459477999
 31
0.0
  0
LINE
  5
1AB
330
1F
100
AcDbEntity
  8
0
  6
Continuous
 62
     7
370
     0
100
AcDbLine
 10
3.7542983401
 20
1.4759478045
 30
0.0
 11
3.7542983401
 21
1.7609478022
 31
0.0
  0
LINE
  5
1AC
330
1F
100
AcDbEntity
  8
0
  6
Continuous
 62
     7
370
     0
100
AcDbLine
 10
3.7742983457
 20
1.7609478022
 30
0.0
 11
3.7742983457
 21
2.0259477942
 31
0.0
  0
LINE
  5
1AD
330
1F
100
AcDbEntity
  8
0
  6
Continuous
 62
     7
370
     0
100
AcDbLine
 10
3.7742983457
 20
1.4959478102
 30
0.0
 11
3.7742983457
 21
1.7609478022
 31
0.0
  0
LINE
  5
1AE
330
1F
100
AcDbEntity
  8
0
  6
Continuous
 62
     7
370
     0
100
AcDbLine
 10
3.4642983502
 20
1.7609478022
 30
0.0
 11
3.4642983502
 21
2.0259477942
 31
0.0
  0
LINE
  5
1AF
330
1F
100
AcDbEntity
  8
0
  6
Continuous
 62
     7
370
     0
100
AcDbLine
 10
3.4642983502
 20
1.4959478102
 30
0.0
 11
3.4642983502
 21
1.7609478022
 31
0.0
  0
LINE
  5
1B0
330
1F
100
AcDbEntity
  8
0
  6
Continuous
 62
     7
370
     0
100
AcDbLine
 10
3.4842983192
 20
1.7609478022
 30
0.0
 11
3.4842983192
 21
2.0459477999
 31
0.0
  0
LINE
  5
1B1
330
1F
100
AcDbEntity
  8
0
  6
Continuous
 62
     7
370
     0
100
AcDbLine
 10
3.4842983192
 20
1.4759478045
 30
0.0
 11
3.4842983192
 21
1.7609478022
 31
0.0
  0
DIMENSION
  5
1B2
330
1F
100
AcDbEntity
  8
0
  6
Continuous
 62
     7
370
     0
100
AcDbDimension
  2
*D17
 10
4.3662983526
 20
0.7903970383
 30
0.0
 11
5.3505503211
 21
0.7903970383
 31
0.0
 70
   160
  1
50.0 mm\P(<>")
 71
     2
 42
-1.0
  3
SLDDIMSTYLE2
100
AcDbAlignedDimension
 13
6.3348022897
 23
1.2689478022
 33
0.0
 14
4.3662983526
 24
1.7109478022
 34
0.0
 50
0.0
100
AcDbRotatedDimension
  0
DIMENSION
  5
1C0
330
1F
100
AcDbEntity
  8
0
  6
Continuous
 62
     7
370
     0
100
AcDbDimension
  2
*D18
 10
2.9652391295
 20
1.4759478022
 30
0.0
 11
2.9652391295
 21
1.7609478022
 31
0.0
 70
   160
  1
%%c14.5 mm\P(%%c<>")
 71
     2
 42
-1.0
  3
SLDDIMSTYLE0
100
AcDbAlignedDimension
 13
3.4842983526
 23
2.0459478022
 33
0.0
 14
3.4842983526
 24
1.4759478022
 34
0.0
 50
90.0
100
AcDbRotatedDimension
  0
DIMENSION
  5
1D0
330
1F
100
AcDbEntity
  8
0
  6
Continuous
 62
     7
370
     0
100
AcDbDimension
  2
*D19
 10
3.7742983526
 20
2.5852519244
 30
0.0
 11
4.2822921417
 21
2.5852519244
 31
0.0
 70
   160
  1
7.9 mm\P(<>")
 71
     1
 42
-1.0
  3
SLDDIMSTYLE0
100
AcDbAlignedDimension
 13
3.4642983526
 23
2.0259478022
 33
0.0
 14
3.7742983526
 24
2.0259478022
 34
0.0
 50
0.0
100
AcDbRotatedDimension
  0
DIMENSION
  5
1DE
330
1F
100
AcDbEntity
  8
0
  6
Continuous
 62
     7
370
     0
100
AcDbDimension
  2
*D20
 10
4.0184743524
 20
1.862370014
 30
0.0
 11
3.3836260387
 21
0.9801448303
 31
0.0
 70
   163
  1
MAGNET\P3 PLACES
 71
     1
 42
-1.0
  3
SLDDIMSTYLE6
100
AcDbDiametricDimension
 15
3.9641223529
 25
1.6595255904
 35
0.0
 40
0.0
  0
INSERT
  5
1EF
102
{ACAD_REACTORS
330
1F9
102
}
330
1F
100
AcDbEntity
  8
0
  6
Continuous
 62
     7
370
     0
100
AcDbBlockReference
  2
SW_NOTE_4
 10
6.0250630826
 20
2.5726117095
 30
0.0
  0
LEADER
  5
1F9
330
1F
100
AcDbEntity
  8
0
  6
Continuous
 62
     7
370
     0
100
AcDbLeader
  3
SLDDIMSTYLE7
 73
     2
 76
     3
 10
5.4567650614
 20
2.0844803279
 30
0.0
 10
5.7750630826
 20
2.5726117095
 30
0.0
 10
6.0250630826
 20
2.5726117095
 30
0.0
340
1EF
  0
INSERT
  5
201
330
1F
100
AcDbEntity
  8
0
  6
Continuous
 62
     7
370
     0
100
AcDbBlockReference
  2
SW_CENTERMARKSYMBOL_2
 10
4.3662983526
 20
1.7609478022
 30
0.0
  0
LINE
  5
202
330
1F
100
AcDbEntity
  8
0
  6
Continuous
 62
     7
370
     0
100
AcDbLine
 10
8.9983783609
 20
6.10116842
 30
0.0
 11
8.91931885
 21
6.2032426559
 31
0.0
  0
LINE
  5
203
330
1F
100
AcDbEntity
  8
0
  6
Continuous
 62
     7
370
     0
100
AcDbLine
 10
8.179143684
 20
6.2032426559
 30
0.0
 11
8.1000841731
 21
6.10116842
 31
0.0
  0
LINE
  5
204
330
1F
100
AcDbEntity
  8
0
  6
Continuous
 62
     7
370
     0
100
AcDbLine
 10
9.041231267
 20
4.0296190726
 30
0.0
 11
9.041231267
 21
5.9852343171
 31
0.0
  0
LINE
  5
205
330
1F
100
AcDbEntity
  8
0
  6
Continuous
 62
     7
370
     0
100
AcDbLine
 10
8.057231267
 20
5.9852343171
 30
0.0
 11
8.057231267
 21
4.0296190726
 31
0.0
  0
LINE
  5
206
330
1F
100
AcDbEntity
  8
0
  6
Continuous
 62
     7
370
     0
100
AcDbLine
 10
8.2012782015
 20
3.828815316
 30
0.0
 11
8.2189587434
 21
3.8186052386
 31
0.0
  0
LINE
  5
207
330
1F
100
AcDbEntity
  8
0
  6
Continuous
 62
     7
370
     0
100
AcDbLine
 10
8.8795037906
 20
3.8186052386
 30
0.0
 11
8.8971843325
 21
3.828815316
 31
0.0
  0
LINE
  5
208
330
1F
100
AcDbEntity
  8
0
  6
Continuous
 62
     7
370
     0
100
AcDbLine
 10
8.057231267
 20
3.7789410434
 30
0.0
 11
8.057231267
 21
3.6564599216
 31
0.0
  0
LINE
  5
209
330
1F
100
AcDbEntity
  8
0
  6
Continuous
 62
     7
370
     0
100
AcDbLine
 10
8.057231267
 20
4.0059393891
 30
0.0
 11
8.057231267
 21
3.7789410434
 31
0.0
  0
ARC
  5
20A
330
1F
100
AcDbEntity
  8
0
  6
Continuous
 62
     7
370
     0
100
AcDbCircle
 10
8.3568982225
 20
5.9574538823
 30
0.0
 40
0.0449999999999997
100
AcDbArc
 50
16.0146835306
 51
60.0026882663
  0
LINE
  5
20B
330
1F
100
AcDbEntity
  8
0
  6
Continuous
 62
     7
370
     0
100
AcDbLine
 10
8.379396394
 20
5.9964260811
 30
0.0
 11
8.3578916594
 21
6.0088405001
 31
0.0
  0
LINE
  5
20C
330
1F
100
AcDbEntity
  8
0
  6
Continuous
 62
     7
370
     0
100
AcDbLine
 10
7.7830746666
 20
5.9596344306
 30
0.0
 11
7.9739934975
 21
5.8494193355
 31
0.0
  0
LINE
  5
20D
330
1F
100
AcDbEntity
  8
0
  6
Continuous
 62
     7
370
     0
100
AcDbLine
 10
8.2589703363
 20
6.343067187
 30
0.0
 11
8.0680515054
 21
6.4532822821
 31
0.0
  0
LINE
  5
20E
330
1F
100
AcDbEntity
  8
0
  6
Continuous
 62
     7
370
     0
100
AcDbLine
 10
8.228116129
 20
6.2569587083
 30
0.0
 11
8.2210450612
 21
6.2610407489
 31
0.0
  0
LINE
  5
20F
330
1F
100
AcDbEntity
  8
0
  6
Continuous
 62
     7
370
     0
100
AcDbLine
 10
8.0260609083
 20
5.9232816925
 30
0.0
 11
8.0331319761
 21
5.919199652
 31
0.0
  0
LINE
  5
210
330
1F
100
AcDbEntity
  8
0
  6
Continuous
 62
     7
370
     0
100
AcDbLine
 10
7.9255303325
 20
6.4391535765
 30
0.0
 11
7.9113904953
 21
6.4309881684
 31
0.0
  0
LINE
  5
211
330
1F
100
AcDbEntity
  8
0
  6
Continuous
 62
     7
370
     0
100
AcDbLine
 10
7.7240376534
 20
6.1064483627
 30
0.0
 11
7.7240376534
 21
6.0901202004
 31
0.0
  0
LWPOLYLINE
  5
212
330
1F
100
AcDbEntity
  8
0
  6
Continuous
 62
     7
370
     0
100
AcDbPolyline
 90
       86
 70
   128
 43
0.0
 10
8.2625719742
 20
6.2732003261
 10
8.2421842778
 20
6.2605269384
 10
8.2234735655
 20
6.2470189473
 10
8.2065420288
 20
6.2327501287
 10
8.1914821419
 20
6.217798414
 10
8.1783761566
 20
6.2022454642
 10
8.1672956534
 20
6.1861762242
 10
8.1583011501
 20
6.1696784587
 10
8.1514417715
 20
6.1528422726
 10
8.1467549811
 20
6.1357596194
 10
8.1442663767
 20
6.1185237986
 10
8.1439895501
 20
6.1012289463
 10
8.1459260132
 20
6.0839695209
 10
8.1500651897
 20
6.0668397875
 10
8.156384473
 20
6.0499333028
 10
8.1648493492
 20
6.033342404
 10
8.1754135861
 20
6.017157705
 10
8.1880194856
 20
6.0014676009
 10
8.2025981986
 20
5.9863577857
 10
8.2190701012
 20
5.9719107839
 10
8.2373452296
 20
5.9582055
 10
8.2573237714
 20
5.9453167875
 10
8.2788966106
 20
5.9333150402
 10
8.3019459241
 20
5.9222658074
 10
8.3263458243
 20
5.9122294361
 10
8.3519630476
 20
5.9032607416
 10
8.3786576814
 20
5.8954087078
 10
8.406283929
 20
5.8887162197
 10
8.4346909054
 20
5.8832198294
 10
8.4637234616
 20
5.8789495563
 10
8.4932230317
 20
5.8759287231
 10
8.5230284994
 20
5.8741738285
 10
8.5529770775
 20
5.8736944573
 10
8.5829051973
 20
5.8744932275
 10
8.6126494017
 20
5.8765657765
 10
8.6420472383
 20
5.8799007849
 10
8.6709381463
 20
5.8844800378
 10
8.6991643335
 20
5.8902785252
 10
8.7265716382
 20
5.8972645775
 10
8.7530103714
 20
5.9054000395
 10
8.7783361338
 20
5.914640478
 10
8.8024106048
 20
5.924935425
 10
8.825102298
 20
5.9362286531
 10
8.8462872794
 20
5.9484584825
 10
8.8658498438
 20
5.9615581182
 10
8.8836831474
 20
5.9754560145
 10
8.8996897908
 20
5.9900762659
 10
8.9137823512
 20
6.0053390217
 10
8.9258838601
 20
6.0211609219
 10
8.935928223
 20
6.037455553
 10
8.9438605813
 20
6.0541339191
 10
8.9496376112
 20
6.071104929
 10
8.9532277604
 20
6.0882758927
 10
8.9546114209
 20
6.1055530285
 10
8.9537810356
 20
6.1228419746
 10
8.9507411397
 20
6.1400483049
 10
8.9455083361
 20
6.1570780442
 10
8.9381112046
 20
6.1738381821
 10
8.9285901457
 20
6.1902371806
 10
8.9169971602
 20
6.2061854738
 10
8.9033955648
 20
6.2215959579
 10
8.887859647
 20
6.2363844661
 10
8.8704742583
 20
6.2504702287
 10
8.8513343518
 20
6.2637763141
 10
8.830544463
 20
6.2762300492
 10
8.8082181391
 20
6.2877634158
 10
8.7844773187
 20
6.2983134229
 10
8.759451666
 20
6.3078224499
 10
8.7332778623
 20
6.3162385617
 10
8.7060988599
 20
6.3235157926
 10
8.6780631012
 20
6.3296143968
 10
8.6493237076
 20
6.3345010658
 10
8.6200376439
 20
6.3381491104
 10
8.5903648603
 20
6.3405386061
 10
8.5604674192
 20
6.3416565025
 10
8.5305086102
 20
6.3414966939
 10
8.5006520578
 20
6.3400600531
 10
8.4710608283
 20
6.3373544266
 10
8.4418965385
 20
6.3333945916
 10
8.4133184739
 20
6.3282021754
 10
8.3854827177
 20
6.321805537
 10
8.3585412994
 20
6.3142396128
 10
8.3326413636
 20
6.3055457251
 10
8.3079243667
 20
6.2957713571
 10
8.2845253044
 20
6.2849698928
 10
8.2625719742
 20
6.2732003261
  0
LWPOLYLINE
  5
213
330
1F
100
AcDbEntity
  8
0
  6
Continuous
 62
     7
370
     0
100
AcDbPolyline
 90
       61
 70
   128
 43
0.0
 10
8.9983783609
 20
6.10116842
 10
9.0029809204
 20
6.0950332442
 10
9.0147859566
 20
6.0770989707
 10
9.0244667735
 20
6.0587455398
 10
9.0319791999
 20
6.0400566941
 10
9.0372889581
 20
6.0211177065
 10
9.0403718211
 20
6.0020149912
 10
9.0412137223
 20
5.9828357096
 10
9.0398108204
 20
5.9636673722
 10
9.0361695166
 20
5.9445974399
 10
9.0303064252
 20
5.9257129243
 10
9.0222482982
 20
5.9070999911
 10
9.0120319029
 20
5.888843567
 10
8.9997038546
 20
5.8710269518
 10
8.9853204031
 20
5.8537314386
 10
8.9689471769
 20
5.8370359428
 10
8.9506588833
 20
5.8210166423
 10
8.9305389675
 20
5.8057466293
 10
8.9086792322
 20
5.7912955775
 10
8.8851794182
 20
5.7777294236
 10
8.8601467499
 20
5.765110067
 10
8.8336954456
 20
5.7534950869
 10
8.8059461964
 20
5.7429374797
 10
8.7770256159
 20
5.7334854174
 10
8.747065662
 20
5.7251820276
 10
8.7162030352
 20
5.7180651968
 10
8.6845785545
 20
5.7121673974
 10
8.6523365151
 20
5.7075155397
 10
8.6196240302
 20
5.704130849
 10
8.5865903592
 20
5.7020287691
 10
8.5533862273
 20
5.7012188911
 10
8.5201631372
 20
5.7017049103
 10
8.4870726783
 20
5.7034846092
 10
8.4542658348
 20
5.7065498674
 10
8.4218922968
 20
5.7108866988
 10
8.3900997773
 20
5.7164753155
 10
8.3590333383
 20
5.7232902178
 10
8.3288347289
 20
5.731300311
 10
8.2996417382
 20
5.7404690468
 10
8.2715875674
 20
5.7507545904
 10
8.2448002211
 20
5.7621100113
 10
8.2194019238
 20
5.7744834971
 10
8.1955085621
 20
5.7878185906
 10
8.1732291561
 20
5.8020544468
 10
8.1526653614
 20
5.8171261107
 10
8.133911006
 20
5.8329648139
 10
8.1170516617
 20
5.8494982878
 10
8.1021642538
 20
5.8666510941
 10
8.0893167101
 20
5.8843449684
 10
8.0785676511
 20
5.9024991777
 10
8.0699661222
 20
5.9210308885
 10
8.0635513702
 20
5.9398555448
 10
8.0593526642
 20
5.958887254
 10
8.057389162
 20
5.9780391788
 10
8.0576698224
 20
5.9972239334
 10
8.060193365
 20
6.0163539822
 10
8.0649482753
 20
6.035342039
 10
8.0719128579
 20
6.0541014658
 10
8.0810553348
 20
6.0725466675
 10
8.0923339912
 20
6.0905934831
 10
8.1000841731
 20
6.10116842
  0
LWPOLYLINE
  5
214
330
1F
100
AcDbEntity
  8
0
  6
Continuous
 62
     7
370
     0
100
AcDbPolyline
 90
       49
 70
   128
 43
0.0
 10
8.057231267
 20
4.0296190726
 10
8.057389162
 20
4.0224239344
 10
8.0593526642
 20
4.0032720096
 10
8.0635513702
 20
3.9842403003
 10
8.0699661222
 20
3.965415644
 10
8.0785676511
 20
3.9468839333
 10
8.0893167101
 20
3.928729724
 10
8.1021642538
 20
3.9110358496
 10
8.1170516617
 20
3.8938830433
 10
8.133911006
 20
3.8773495694
 10
8.1526653614
 20
3.8615108663
 10
8.1732291561
 20
3.8464392024
 10
8.1955085621
 20
3.8322033462
 10
8.2194019238
 20
3.8188682527
 10
8.2448002211
 20
3.8064947668
 10
8.2715875674
 20
3.795139346
 10
8.2996417382
 20
3.7848538024
 10
8.3288347289
 20
3.7756850665
 10
8.3590333383
 20
3.7676749734
 10
8.3900997773
 20
3.760860071
 10
8.4218922968
 20
3.7552714543
 10
8.4542658348
 20
3.7509346229
 10
8.4870726783
 20
3.7478693647
 10
8.5201631372
 20
3.7460896658
 10
8.5533862273
 20
3.7456036466
 10
8.5865903592
 20
3.7464135246
 10
8.6196240302
 20
3.7485156046
 10
8.6523365151
 20
3.7519002952
 10
8.6845785545
 20
3.7565521529
 10
8.7162030352
 20
3.7624499523
 10
8.747065662
 20
3.7695667832
 10
8.7770256159
 20
3.777870173
 10
8.8059461964
 20
3.7873222352
 10
8.8336954456
 20
3.7978798424
 10
8.8601467499
 20
3.8094948226
 10
8.8851794182
 20
3.8221141792
 10
8.9086792322
 20
3.835680333
 10
8.9305389675
 20
3.8501313848
 10
8.9506588833
 20
3.8654013978
 10
8.9689471769
 20
3.8814206983
 10
8.9853204031
 20
3.8981161941
 10
8.9997038546
 20
3.9154117073
 10
9.0120319029
 20
3.9332283226
 10
9.0222482982
 20
3.9514847467
 10
9.0303064252
 20
3.9700976798
 10
9.0361695166
 20
3.9889821954
 10
9.0398108204
 20
4.0080521277
 10
9.0412137223
 20
4.0272204651
 10
9.041231267
 20
4.0296190726
  0
LINE
  5
215
330
1F
100
AcDbEntity
  8
0
  6
Continuous
 62
     7
370
     0
100
AcDbLine
 10
8.8688435321
 20
6.0513832791
 30
0.0
 11
8.6468120028
 21
5.9232072056
 31
0.0
  0
LINE
  5
216
330
1F
100
AcDbEntity
  8
0
  6
Continuous
 62
     7
370
     0
100
AcDbLine
 10
8.8254639345
 20
6.0764257878
 30
0.0
 11
8.8688435321
 21
6.0513832791
 31
0.0
  0
LWPOLYLINE
  5
217
330
1F
100
AcDbEntity
  8
0
  6
Continuous
 62
     7
370
     0
100
AcDbPolyline
 90
       58
 70
   128
 43
0.0
 10
8.6034324053
 20
5.9482497142
 10
8.5785335104
 20
5.9460917572
 10
8.5534002012
 20
5.94522677
 10
8.528233541
 20
5.9456616722
 10
8.5032348601
 20
5.9473929848
 10
8.4786041448
 20
5.9504068575
 10
8.4545384379
 20
5.9546791796
 10
8.431230262
 20
5.9601757731
 10
8.4088660798
 20
5.9668526659
 10
8.3876248019
 20
5.9746564438
 10
8.3676763561
 20
5.9835246773
 10
8.3491803273
 20
5.9933864218
 10
8.3322846817
 20
6.0041627844
 10
8.3171245822
 20
6.0157675556
 10
8.303821308
 20
6.0281078987
 10
8.2924812834
 20
6.0410850924
 10
8.2831952273
 20
6.0545953208
 10
8.2760374271
 20
6.0685305035
 10
8.2710651443
 20
6.082779161
 10
8.2683181565
 20
6.0972273057
 10
8.2678184393
 20
6.1117593541
 10
8.2695699903
 20
6.1262590518
 10
8.2735587975
 20
6.1406104028
 10
8.2797529507
 20
6.154698598
 10
8.2881028976
 20
6.1684109338
 10
8.2985418396
 20
6.181637713
 10
8.3109862663
 20
6.194273123
 10
8.325336624
 20
6.2062160821
 10
8.3414781115
 20
6.2173710481
 10
8.3592815989
 20
6.2276487826
 10
8.3786046605
 20
6.236967065
 10
8.3992927141
 20
6.2452513502
 10
8.4211802578
 20
6.2524353649
 10
8.4440921939
 20
6.2584616378
 10
8.4678452298
 20
6.2632819595
 10
8.4922493441
 20
6.2668577681
 10
8.5171093068
 20
6.2691604574
 10
8.5422262412
 20
6.2701716063
 10
8.567399215
 20
6.2698831257
 10
8.5924268475
 20
6.2682973234
 10
8.6171089205
 20
6.2654268856
 10
8.6412479807
 20
6.2612947755
 10
8.6646509183
 20
6.2559340495
 10
8.6871305128
 20
6.2493875926
 10
8.7085069302
 20
6.2417077759
 10
8.7286091617
 20
6.2329560367
 10
8.747276392
 20
6.2232023881
 10
8.7643592854
 20
6.212524858
 10
8.779721181
 20
6.2010088653
 10
8.7932391854
 20
6.1887465366
 10
8.8048051562
 20
6.175835969
 10
8.8143265671
 20
6.1623804455
 10
8.8217272479
 20
6.1484876086
 10
8.8269479942
 20
6.1342685994
 10
8.8299470405
 20
6.119837168
 10
8.830700395
 20
6.1053087644
 10
8.8292020307
 20
6.0907996138
 10
8.8254639345
 20
6.0764257878
  0
LINE
  5
218
330
1F
100
AcDbEntity
  8
0
  6
Continuous
 62
     7
370
     0
100
AcDbLine
 10
8.6468120028
 20
5.9232072056
 30
0.0
 11
8.6034324053
 21
5.9482497142
 31
0.0
  0
LWPOLYLINE
  5
219
330
1F
100
AcDbEntity
  8
0
  6
Continuous
 62
     7
370
     0
100
AcDbPolyline
 90
       45
 70
   128
 43
0.0
 10
8.7925317924
 20
6.0464486411
 10
8.7974763162
 20
6.0599362229
 10
8.8001825491
 20
6.0736337349
 10
8.8006260906
 20
6.087417674
 10
8.7988029415
 20
6.1011637578
 10
8.7947295401
 20
6.1147480454
 10
8.7884426141
 20
6.1280480547
 10
8.7799988492
 20
6.1409438666
 10
8.7694743783
 20
6.1533192067
 10
8.7569640949
 20
6.1650624933
 10
8.7425807974
 20
6.1760678434
 10
8.7264541721
 20
6.1862360278
 10
8.7087296241
 20
6.1954753656
 10
8.689566966
 20
6.2037025506
 10
8.6691389772
 20
6.2108434028
 10
8.6476298456
 20
6.216833537
 10
8.6252335074
 20
6.2216189434
 10
8.6021518983
 20
6.2251564745
 10
8.5785931326
 20
6.2274142345
 10
8.5547696269
 20
6.2283718662
 10
8.5308961849
 20
6.2280207353
 10
8.5071880603
 20
6.2263640078
 10
8.4838590164
 20
6.2234166213
 10
8.4611193987
 20
6.2192051509
 10
8.4391742378
 20
6.2137675692
 10
8.4182214015
 20
6.2071529038
 10
8.3984498099
 20
6.1994207957
 10
8.3800377329
 20
6.190640961
 10
8.3631511821
 20
6.1808925627
 10
8.3479424144
 20
6.1702634969
 10
8.334548559
 20
6.1588496
 10
8.323090381
 20
6.1467537851
 10
8.3136711926
 20
6.1340851134
 10
8.3063759215
 20
6.1209578115
 10
8.3012703452
 20
6.1074902411
 10
8.2984004978
 20
6.0938038321
 10
8.2977922554
 20
6.0800219874
 10
8.299451102
 20
6.0662689703
 10
8.3033620807
 20
6.0526687843
 10
8.3094899284
 20
6.039344055
 10
8.3177793935
 20
6.0264149242
 10
8.3281557346
 20
6.0139979668
 10
8.3405253936
 20
6.0022051399
 10
8.3547768403
 20
5.9911427728
 10
8.3613549249
 20
5.9866986252
  0
LINE
  5
21A
330
1F
100
AcDbEntity
  8
0
  6
Continuous
 62
     7
370
     0
100
AcDbLine
 10
8.7925317924
 20
6.0464486411
 30
0.0
 11
8.8254639345
 21
6.0764257878
 31
0.0
  0
LINE
  5
21B
330
1F
100
AcDbEntity
  8
0
  6
Continuous
 62
     7
370
     0
100
AcDbLine
 10
8.7925317924
 20
6.0464486411
 30
0.0
 11
8.7925317924
 21
6.0073294495
 31
0.0
  0
SPLINE
  5
21C
330
1F
100
AcDbEntity
  8
0
  6
Continuous
 62
     7
370
     0
100
AcDbSpline
210
0.0
220
0.0
230
1.0
 70
     8
 71
     3
 72
    20
 73
    16
 74
     0
 42
0.00000001
 43
0.00000001
 40
0.0
 40
0.0
 40
0.0
 40
0.0
 40
0.0769675784926521
 40
0.1562991749663889
 40
0.2332330350983886
 40
0.3121959045098737
 40
0.3931006872906391
 40
0.4761715651139206
 40
0.5600468075372458
 40
0.646592851822877
 40
0.7263558060224223
 40
0.8087150854700245
 40
0.8841540689980378
 40
0.9617261126767743
 40
1.0
 40
1.0
 40
1.0
 40
1.0
 10
8.45727402753956
 20
5.981557178667865
 30
0.0
 10
8.4570250220096
 20
5.985839992939523
 30
0.0
 10
8.456519362878089
 20
5.994537165831072
 30
0.0
 10
8.452508434829761
 20
6.006360232130066
 30
0.0
 10
8.44634240584241
 20
6.016938425110048
 30
0.0
 10
8.438106426655914
 20
6.025873775209338
 30
0.0
 10
8.427995639480644
 20
6.032967974421546
 30
0.0
 10
8.416360515938516
 20
6.037762634316726
 30
0.0
 10
8.403567826826212
 20
6.039862660913599
 30
0.0
 10
8.39053755369799
 20
6.038896971858636
 30
0.0
 10
8.37773299086208
 20
6.034879172519879
 30
0.0
 10
8.366040428749814
 20
6.028268221697043
 30
0.0
 10
8.35544451061177
 20
6.019157267481739
 30
0.0
 10
8.347540150717538
 20
6.010284431132517
 30
0.0
 10
8.343575996652552
 20
6.003853447642547
 30
0.0
 10
8.342266295183517
 20
6.001728739978293
 30
0.0
  0
SPLINE
  5
21D
330
1F
100
AcDbEntity
  8
0
  6
Continuous
 62
     7
370
     0
100
AcDbSpline
210
0.0
220
0.0
230
1.0
 70
     8
 71
     3
 72
    10
 73
     6
 74
     0
 42
0.00000001
 43
0.00000001
 40
0.0
 40
0.0
 40
0.0
 40
0.0
 40
0.2662247348187946
 40
0.7825981759308358
 40
1.0
 40
1.0
 40
1.0
 40
1.0
 10
8.452171483722886
 20
5.955385405335003
 30
0.0
 10
8.453054970368033
 20
5.957725949681955
 30
0.0
 10
8.455652080803405
 20
5.964606248531185
 30
0.0
 10
8.457042198426507
 20
5.973423856325091
 30
0.0
 10
8.457221040485285
 20
5.97969821977047
 30
0.0
 10
8.457274027539556
 20
5.981557178667868
 30
0.0
  0
LINE
  5
21E
330
1F
100
AcDbEntity
  8
0
  6
Continuous
 62
     7
370
     0
100
AcDbLine
 10
8.8264136772
 20
6.0268890453
 30
0.0
 11
8.7925317924
 21
6.0464486411
 31
0.0
  0
ARC
  5
21F
330
1F
100
AcDbEntity
  8
0
  6
Continuous
 62
     7
370
     0
100
AcDbCircle
 10
8.549231267
 20
4.4543307939
 30
0.0
 40
0.7163985772068037
100
AcDbArc
 50
242.5471937152
 51
297.4528062848
  0
LWPOLYLINE
  5
220
330
1F
100
AcDbEntity
  8
0
  6
Continuous
 62
     7
370
     0
100
AcDbPolyline
 90
       22
 70
   128
 43
0.0
 10
8.057231267
 20
3.6564599216
 10
8.057389162
 20
3.6492647833
 10
8.0593526642
 20
3.6301128585
 10
8.0635513702
 20
3.6110811493
 10
8.0699661222
 20
3.592256493
 10
8.0785676511
 20
3.5737247822
 10
8.0893167101
 20
3.5555705729
 10
8.1021642538
 20
3.5378766986
 10
8.1170516617
 20
3.5207238923
 10
8.133911006
 20
3.5041904184
 10
8.1526653614
 20
3.4883517153
 10
8.1732291561
 20
3.4732800513
 10
8.1955085621
 20
3.4590441951
 10
8.2194019238
 20
3.4457091016
 10
8.2448002211
 20
3.4333356158
 10
8.2715875674
 20
3.4219801949
 10
8.2996417382
 20
3.4116946513
 10
8.3288347289
 20
3.4025259155
 10
8.3590333383
 20
3.3945158223
 10
8.3900997773
 20
3.38770092
 10
8.4218922968
 20
3.3821123033
 10
8.4444853876
 20
3.378945823
  0
ARC
  5
221
330
1F
100
AcDbEntity
  8
0
  6
Continuous
 62
     7
370
     0
100
AcDbCircle
 10
8.3057480459
 20
3.8051394602
 30
0.0
 40
0.2498938703347296
100
AcDbArc
 50
186.0178431133
 51
245.3022978443
  0
LINE
  5
222
330
1F
100
AcDbEntity
  8
0
  6
Continuous
 62
     7
370
     0
100
AcDbLine
 10
9.5932772133
 20
3.0015517024
 30
0.0
 11
9.5932772133
 21
2.6504391533
 31
0.0
  0
LINE
  5
223
330
1F
100
AcDbEntity
  8
0
  6
Continuous
 62
     7
370
     0
100
AcDbLine
 10
9.5932772133
 20
3.0015517024
 30
0.0
 11
9.8474821012
 21
3.1483010605
 31
0.0
  0
LINE
  5
224
330
1F
100
AcDbEntity
  8
0
  6
Continuous
 62
     7
370
     0
100
AcDbLine
 10
9.8474821012
 20
3.1483010605
 30
0.0
 11
9.8474821012
 21
2.7971885114
 31
0.0
  0
LINE
  5
225
330
1F
100
AcDbEntity
  8
0
  6
Continuous
 62
     7
370
     0
100
AcDbLine
 10
9.5932772133
 20
2.6504391533
 30
0.0
 11
9.8474821012
 21
2.7971885114
 31
0.0
  0
LINE
  5
226
330
1F
100
AcDbEntity
  8
0
  6
Continuous
 62
     7
370
     0
100
AcDbLine
 10
8.2013347307
 20
3.8051029935
 30
0.0
 11
9.5932772133
 21
3.0015517024
 31
0.0
  0
LINE
  5
227
330
1F
100
AcDbEntity
  8
0
  6
Continuous
 62
     7
370
     0
100
AcDbLine
 10
9.4518558571
 20
2.7320799645
 30
0.0
 11
9.5932772133
 21
2.6504391533
 31
0.0
  0
LINE
  5
228
330
1F
100
AcDbEntity
  8
0
  6
Continuous
 62
     7
370
     0
100
AcDbLine
 10
9.4518558571
 20
2.7974032294
 30
0.0
 11
9.4518558571
 21
2.7320799645
 31
0.0
  0
LINE
  5
229
330
1F
100
AcDbEntity
  8
0
  6
Continuous
 62
     7
370
     0
100
AcDbLine
 10
8.3427560869
 20
3.4376728982
 30
0.0
 11
9.4518558571
 21
2.7974032294
 31
0.0
  0
LINE
  5
22A
330
1F
100
AcDbEntity
  8
0
  6
Continuous
 62
     7
370
     0
100
AcDbLine
 10
8.3427560869
 20
3.4964638367
 30
0.0
 11
8.3427560869
 21
3.4376728982
 31
0.0
  0
LINE
  5
22B
330
1F
100
AcDbEntity
  8
0
  6
Continuous
 62
     7
370
     0
100
AcDbLine
 10
8.2013347307
 20
3.5781046478
 30
0.0
 11
8.3427560869
 21
3.4964638367
 31
0.0
  0
LWPOLYLINE
  5
22C
330
1F
100
AcDbEntity
  8
0
  6
Continuous
 62
     7
370
     0
100
AcDbPolyline
 90
       13
 70
   128
 43
0.0
 10
8.2013347307
 20
3.6642497035
 10
8.2074656562
 20
3.6616424645
 10
8.2131787692
 20
3.6610770424
 10
8.2180847307
 20
3.6625919698
 10
8.2218492073
 20
3.6660840068
 10
8.2242156562
 20
3.6713151771
 10
8.2250228078
 20
3.6779289848
 10
8.2242156562
 20
3.68547471
 10
8.2218492073
 20
3.693438124
 10
8.2180847307
 20
3.7012765333
 10
8.2131787692
 20
3.7084557632
 10
8.2074656562
 20
3.714486561
 10
8.2013347307
 20
3.7189579379
  0
ARC
  5
22D
330
1F
100
AcDbEntity
  8
0
  6
Continuous
 62
     7
370
     0
100
AcDbCircle
 10
8.2971034631
 20
4.0246696405
 30
0.0
 40
0.2395436548339471
100
AcDbArc
 50
181.6483252547
 51
246.4345380617
  0
LINE
  5
22E
330
1F
100
AcDbEntity
  8
0
  6
Continuous
 62
     7
370
     0
100
AcDbLine
 10
9.041231267
 20
4.1235866257
 30
0.0
 11
10.289070286
 21
3.4032244934
 31
0.0
  0
LINE
  5
22F
330
1F
100
AcDbEntity
  8
0
  6
Continuous
 62
     7
370
     0
100
AcDbLine
 10
10.289070286
 20
3.4032244934
 30
0.0
 11
10.0348653982
 21
3.2564751353
 31
0.0
  0
LINE
  5
230
330
1F
100
AcDbEntity
  8
0
  6
Continuous
 62
     7
370
     0
100
AcDbLine
 10
10.0348653982
 20
3.2564751353
 30
0.0
 11
9.1732530014
 21
3.7538733845
 31
0.0
  0
LWPOLYLINE
  5
231
330
1F
100
AcDbEntity
  8
0
  6
Continuous
 62
     7
370
     0
100
AcDbPolyline
 90
       25
 70
   128
 43
0.0
 10
9.1732530014
 20
3.7538733845
 10
9.1602222422
 20
3.7604704375
 10
9.1458113529
 20
3.7660291688
 10
9.1302669077
 20
3.7704544671
 10
9.1138548764
 20
3.7736706142
 10
9.0968560734
 20
3.7756225811
 10
9.0795613529
 20
3.776276969
 10
9.0622666324
 20
3.7756225811
 10
9.0452678294
 20
3.7736706142
 10
9.0288557981
 20
3.7704544671
 10
9.0133113529
 20
3.7660291688
 10
8.9989004636
 20
3.7604704375
 10
8.9858697044
 20
3.7538733845
 10
8.9744420353
 20
3.7463508874
 10
8.9648129869
 20
3.738031658
 10
8.9571473148
 20
3.7290580408
 10
8.9515761809
 20
3.7195835768
 10
8.9481949088
 20
3.7097703767
 10
8.9470613529
 20
3.6997863471
 10
8.9481949088
 20
3.6898023175
 10
8.9515761809
 20
3.6799891174
 10
8.9571473148
 20
3.6705146534
 10
8.9648129869
 20
3.6615410362
 10
8.9744420353
 20
3.6532218069
 10
8.9858697044
 20
3.6456993097
  0
LINE
  5
232
330
1F
100
AcDbEntity
  8
0
  6
Continuous
 62
     7
370
     0
100
AcDbLine
 10
9.8474821012
 20
3.1483010605
 30
0.0
 11
8.9858697044
 21
3.6456993097
 31
0.0
  0
LINE
  5
233
330
1F
100
AcDbEntity
  8
0
  6
Continuous
 62
     7
370
     0
100
AcDbLine
 10
10.0348653982
 20
3.2564751353
 30
0.0
 11
10.0348653982
 21
2.9053625862
 31
0.0
  0
LINE
  5
234
330
1F
100
AcDbEntity
  8
0
  6
Continuous
 62
     7
370
     0
100
AcDbLine
 10
10.0348653982
 20
2.9053625862
 30
0.0
 11
9.8934440419
 21
2.9870033974
 31
0.0
  0
LINE
  5
235
330
1F
100
AcDbEntity
  8
0
  6
Continuous
 62
     7
370
     0
100
AcDbLine
 10
9.8934440419
 20
3.0523266623
 30
0.0
 11
9.8934440419
 21
2.9870033974
 31
0.0
  0
LINE
  5
236
330
1F
100
AcDbEntity
  8
0
  6
Continuous
 62
     7
370
     0
100
AcDbLine
 10
9.8934440419
 20
3.0523266623
 30
0.0
 11
9.8474821012
 21
3.078859926
 31
0.0
  0
LINE
  5
237
330
1F
100
AcDbEntity
  8
0
  6
Continuous
 62
     7
370
     0
100
AcDbLine
 10
10.289070286
 20
3.4032244934
 30
0.0
 11
10.289070286
 21
3.0521119443
 31
0.0
  0
LINE
  5
238
330
1F
100
AcDbEntity
  8
0
  6
Continuous
 62
     7
370
     0
100
AcDbLine
 10
10.289070286
 20
3.0521119443
 30
0.0
 11
10.0348653982
 21
2.9053625862
 31
0.0
  0
SPLINE
  5
239
330
1F
100
AcDbEntity
  8
0
  6
Continuous
 62
     7
370
     0
100
AcDbSpline
210
0.0
220
0.0
230
1.0
 70
     8
 71
     3
 72
    17
 73
    13
 74
     0
 42
0.00000001
 43
0.00000001
 40
0.0
 40
0.0
 40
0.0
 40
0.0
 40
0.1072028223541184
 40
0.2143996562184857
 40
0.3217520362771944
 40
0.4292072669282309
 40
0.5364929531126954
 40
0.6436012507253206
 40
0.750801142258701
 40
0.8582184677951123
 40
0.9656401968878034
 40
1.0
 40
1.0
 40
1.0
 40
1.0
 10
8.201334730665048
 20
3.664249703497607
 30
0.0
 10
8.19869278223576
 20
3.66609771399932
 30
0.0
 10
8.193409032959876
 20
3.669793631770466
 30
0.0
 10
8.18658035607817
 20
3.678732694069828
 30
0.0
 10
8.181470879540775
 20
3.688941237509188
 30
0.0
 10
8.178584641346106
 20
3.699509242489157
 30
0.0
 10
8.178180716727951
 20
3.709117662168921
 30
0.0
 10
8.18028812100084
 20
3.716695545369511
 30
0.0
 10
8.184718688370737
 20
3.721435806845697
 30
0.0
 10
8.191066551039738
 20
3.722825571172188
 30
0.0
 10
8.196994158115887
 20
3.721308234661084
 30
0.0
 10
8.20048801732593
 20
3.719416409121211
 30
0.0
 10
8.201334730665048
 20
3.718957937893952
 30
0.0
  0
ARC
  5
23A
330
1F
100
AcDbEntity
  8
0
  6
Continuous
 62
     7
370
     0
100
AcDbCircle
 10
8.3017891992
 20
3.8022989217
 30
0.0
 40
0.245670862454478
100
AcDbArc
 50
185.4558054699
 51
245.8643354877
  0
LWPOLYLINE
  5
23B
330
1F
100
AcDbEntity
  8
0
  6
Continuous
 62
     7
370
     0
100
AcDbPolyline
 90
       47
 70
   128
 43
0.0
 10
8.057231267
 20
5.8396099329
 10
8.0466259641
 20
5.8376304796
 10
8.0301927605
 20
5.8361273489
 10
8.0144348864
 20
5.8366599778
 10
7.9994756687
 20
5.8392241978
 10
7.9854321836
 20
5.8437999405
 10
7.9724143403
 20
5.8503513945
 10
7.9605240211
 20
5.8588272857
 10
7.949854284
 20
5.8691612788
 10
7.9404886339
 20
5.8812724964
 10
7.93250037
 20
5.8950661516
 10
7.925952011
 20
5.9104342905
 10
7.920894807
 20
5.9272566365
 10
7.9173683372
 20
5.9454015319
 10
7.9154002012
 20
5.9647269685
 10
7.9150058023
 20
5.9850816983
 10
7.9161882271
 20
6.0063064181
 10
7.9189382216
 20
6.0282350156
 10
7.9232342633
 20
6.0506958698
 10
7.92904273
 20
6.0735131941
 10
7.9363181624
 20
6.0965084121
 10
7.9450036205
 20
6.1195015548
 10
7.9550311288
 20
6.1423126699
 10
7.9663222084
 20
6.1647632294
 10
7.9787884913
 20
6.1866775273
 10
7.9923324119
 20
6.2078840544
 10
8.0068479708
 20
6.2282168409
 10
8.0222215639
 20
6.2475167552
 10
8.0383328721
 20
6.2656327493
 10
8.0550558025
 20
6.2824230411
 10
8.0722594756
 20
6.2977562236
 10
8.0898092492
 20
6.3115122939
 10
8.1075677726
 20
6.3235835922
 10
8.1253960613
 20
6.3338756442
 10
8.1431545847
 20
6.3423079006
 10
8.1607043583
 20
6.3488143676
 10
8.1779080313
 20
6.3533441232
 10
8.1946309618
 20
6.3558617159
 10
8.21074227
 20
6.3563474423
 10
8.2261158631
 20
6.3547975008
 10
8.2406314219
 20
6.3512240218
 10
8.2541753426
 20
6.3456549726
 10
8.2666416255
 20
6.3381339386
 10
8.277932705
 20
6.3287197821
 10
8.2879602133
 20
6.3174861816
 10
8.2966456714
 20
6.3045210553
 10
8.3024007213
 20
6.2933668786
  0
LWPOLYLINE
  5
23C
330
1F
100
AcDbEntity
  8
0
  6
Continuous
 62
     7
370
     0
100
AcDbPolyline
 90
       43
 70
   128
 43
0.0
 10
8.057231267
 20
5.8466150738
 10
8.0471001298
 20
5.8461634453
 10
8.0319794582
 20
5.8471600655
 10
8.0177003875
 20
5.8502121227
 10
8.0043847417
 20
5.8552935778
 10
7.9921461251
 20
5.8623610775
 10
7.9810889534
 20
5.8713543245
 10
7.9713075625
 20
5.8821965915
 10
7.9628854036
 20
5.8947953762
 10
7.9558943318
 20
5.9090431901
 10
7.9503939924
 20
5.924818476
 10
7.9464313123
 20
5.9419866447
 10
7.9440400996
 20
5.9604012234
 10
7.9432407555
 20
5.9799051053
 10
7.9440400996
 20
6.0003318904
 10
7.9464313123
 20
6.0215073043
 10
7.9503939924
 20
6.0432506861
 10
7.9558943318
 20
6.0653765287
 10
7.9628854036
 20
6.0876960624
 10
7.9713075625
 20
6.1100188647
 10
7.9810889534
 20
6.1321544853
 10
7.9921461251
 20
6.153914071
 10
8.0043847417
 20
6.1751119766
 10
8.0177003875
 20
6.1955673491
 10
8.0319794582
 20
6.2151056704
 10
8.0471001298
 20
6.2335602465
 10
8.0629333981
 20
6.2507736294
 10
8.0793441792
 20
6.2665989606
 10
8.0961924621
 20
6.2809012241
 10
8.1133345031
 20
6.2935583978
 10
8.1306240525
 20
6.3044624953
 10
8.147913602
 20
6.3135204866
 10
8.165055643
 20
6.3206550922
 10
8.1819039259
 20
6.3258054422
 10
8.198314707
 20
6.3289275955
 10
8.2141479753
 20
6.329994915
 10
8.2292686469
 20
6.3289982947
 10
8.2435477176
 20
6.3259462376
 10
8.2568633634
 20
6.3208647825
 10
8.26910198
 20
6.3137972828
 10
8.2801591517
 20
6.3048040358
 10
8.2899405426
 20
6.2939617688
 10
8.2933885209
 20
6.2892552972
  0
LWPOLYLINE
  5
23D
330
1F
100
AcDbEntity
  8
0
  6
Continuous
 62
     7
370
     0
100
AcDbPolyline
 90
       14
 70
   128
 43
0.0
 10
8.3436994422
 20
5.9995445139
 10
8.3472656044
 20
6.0029091008
 10
8.355996837
 20
6.009779239
 10
8.3648706759
 20
6.0149019971
 10
8.3736019085
 20
6.0181127255
 10
8.3819099058
 20
6.0193082287
 10
8.3895276421
 20
6.0184500822
 10
8.3962102769
 20
6.0155658676
 10
8.4017430249
 20
6.0107482859
 10
8.4059480591
 20
6.0041521781
 10
8.4086902261
 20
5.9959895486
 10
8.4098813905
 20
5.986522751
 10
8.4094832672
 20
5.976056056
 10
8.4080161025
 20
5.9671360694
  0
LWPOLYLINE
  5
23E
330
1F
100
AcDbEntity
  8
0
  6
Continuous
 62
     7
370
     0
100
AcDbPolyline
 90
       38
 70
   128
 43
0.0
 10
7.7830746666
 20
5.9596344306
 10
7.7814955094
 20
5.9605664896
 10
7.7696051902
 20
5.9690423808
 10
7.758935453
 20
5.9793763739
 10
7.749569803
 20
5.9914875915
 10
7.741581539
 20
6.0052812467
 10
7.7350331801
 20
6.0206493856
 10
7.7299759761
 20
6.0374717316
 10
7.7264495063
 20
6.055616627
 10
7.7244813703
 20
6.0749420636
 10
7.7240869713
 20
6.0952967934
 10
7.7252693961
 20
6.1165215132
 10
7.7280193907
 20
6.1384501107
 10
7.7323154324
 20
6.1609109649
 10
7.7381238991
 20
6.1837282892
 10
7.7453993315
 20
6.2067235072
 10
7.7540847896
 20
6.2297166499
 10
7.7641122979
 20
6.252527765
 10
7.7754033775
 20
6.2749783245
 10
7.7878696604
 20
6.2968926224
 10
7.801413581
 20
6.3180991495
 10
7.8159291399
 20
6.338431936
 10
7.831302733
 20
6.3577318503
 10
7.8474140412
 20
6.3758478444
 10
7.8641369716
 20
6.3926381362
 10
7.8813406446
 20
6.4079713187
 10
7.8988904183
 20
6.421727389
 10
7.9166489417
 20
6.4337986873
 10
7.9344772303
 20
6.4440907393
 10
7.9522357537
 20
6.4525229957
 10
7.9697855274
 20
6.4590294627
 10
7.9869892004
 20
6.4635592183
 10
8.0037121308
 20
6.466076811
 10
8.019823439
 20
6.4665625374
 10
8.0351970322
 20
6.4650125959
 10
8.049712591
 20
6.4614391169
 10
8.0632565116
 20
6.4558700677
 10
8.0680515054
 20
6.4532822821
  0
LWPOLYLINE
  5
23F
330
1F
100
AcDbEntity
  8
0
  6
Continuous
 62
     7
370
     0
100
AcDbPolyline
 90
       26
 70
   128
 43
0.0
 10
8.1306240525
 20
6.2513873425
 10
8.1155918836
 20
6.2417842828
 10
8.1007300352
 20
6.2304396828
 10
8.086206898
 20
6.2174820814
 10
8.0721870248
 20
6.2030582935
 10
8.0588292665
 20
6.1873317462
 10
8.0462849719
 20
6.1704806277
 10
8.0346962727
 20
6.1526958679
 10
8.0241944736
 20
6.1341789752
 10
8.0148985642
 20
6.1151397534
 10
8.0069138707
 20
6.0957939245
 10
8.0003308631
 20
6.0763606845
 10
7.9952241294
 20
6.0570602197
 10
7.9916515309
 20
6.0381112121
 10
7.9896535466
 20
6.0197283616
 10
7.9892528145
 20
6.0021199531
 10
7.9904538749
 20
5.9854854971
 10
7.9932431196
 20
5.9700134684
 10
7.997588945
 20
5.9558791715
 10
8.0034421114
 20
5.9432427534
 10
8.0107363
 20
5.93224739
 10
8.0193888648
 20
5.923017663
 10
8.0293017686
 20
5.915658149
 10
8.0403626945
 20
5.9102522341
 10
8.0524463176
 20
5.9068611696
 10
8.057231267
 20
5.9061153823
  0
ARC
  5
240
330
1F
100
AcDbEntity
  8
0
  6
Continuous
 62
     7
370
     0
100
AcDbCircle
 10
8.1880537578
 20
6.1750887953
 30
0.0
 40
0.0954968028674725
100
AcDbArc
 50
59.1109112477
 51
126.968675224
  0
ARC
  5
241
330
1F
100
AcDbEntity
  8
0
  6
Continuous
 62
     7
370
     0
100
AcDbCircle
 10
8.3611032082
 20
5.9895322843
 30
0.0
 40
0.0197642153353346
100
AcDbArc
 50
19.8886156117
 51
114.9749775901
  0
ARC
  5
242
330
1F
100
AcDbEntity
  8
0
  6
Continuous
 62
     7
370
     0
100
AcDbCircle
 10
8.0590506529
 20
5.9820049549
 30
0.0
 40
0.0723897870276836
100
AcDbArc
 50
243.8608605097
 51
268.5598229564
  0
LWPOLYLINE
  5
243
330
1F
100
AcDbEntity
  8
0
  6
Continuous
 62
     7
370
     0
100
AcDbPolyline
 90
        3
 70
   128
 43
0.0
 10
8.2358954546
 20
6.2562117137
 10
8.2299825637
 20
6.261141992
 10
8.2270178876
 20
6.2632217005
  0
LWPOLYLINE
  5
244
330
1F
100
AcDbEntity
  8
0
  6
Continuous
 62
     7
370
     0
100
AcDbPolyline
 90
       26
 70
   128
 43
0.0
 10
8.1306240525
 20
6.2473046385
 10
8.1159676879
 20
6.2379416552
 10
8.1014773857
 20
6.2268806702
 10
8.0873173268
 20
6.2142470089
 10
8.0736479505
 20
6.2001838156
 10
8.0606241362
 20
6.1848504321
 10
8.0483934489
 20
6.1684205916
 10
8.0370944672
 20
6.1510804507
 10
8.0268552131
 20
6.1330264804
 10
8.0177917014
 20
6.1144632391
 10
8.0100066253
 20
6.0956010559
 10
8.0035881929
 20
6.0766536469
 10
7.9986091275
 20
6.0578356937
 10
7.9951258439
 20
6.0393604113
 10
7.9931778092
 20
6.021437132
 10
7.9927870954
 20
6.0042689338
 10
7.9939581294
 20
5.9880503391
 10
7.9966776429
 20
5.9729651112
 10
8.0009148227
 20
5.9591841717
 10
8.0066216599
 20
5.9468636641
 10
8.0137334938
 20
5.9361431847
 10
8.0221697445
 20
5.9271442009
 10
8.0318348257
 20
5.9199686747
 10
8.0426192284
 20
5.9146979077
 10
8.0544007609
 20
5.9113916198
 10
8.057231267
 20
5.9109144064
  0
ARC
  5
245
330
1F
100
AcDbEntity
  8
0
  6
Continuous
 62
     7
370
     0
100
AcDbCircle
 10
8.1869114742
 20
6.1711095122
 30
0.0
 40
0.094731046190009
100
AcDbArc
 50
61.0391177625
 51
126.4542949542
  0
ARC
  5
246
330
1F
100
AcDbEntity
  8
0
  6
Continuous
 62
     7
370
     0
100
AcDbCircle
 10
8.0617401638
 20
5.9839769441
 30
0.0
 40
0.0704054176032475
100
AcDbArc
 50
208.497251633
 51
239.5511729575
  0
ARC
  5
247
330
1F
100
AcDbEntity
  8
0
  6
Continuous
 62
     7
370
     0
100
AcDbCircle
 10
8.1862021699
 20
6.1992915318
 30
0.0
 40
0.0709012897090185
100
AcDbArc
 50
60.5655054601
 51
91.3968230263
  0
ARC
  5
248
330
1F
100
AcDbEntity
  8
0
  6
Continuous
 62
     7
370
     0
100
AcDbCircle
 10
8.1300286134
 20
6.0884229199
 30
0.0
 40
0.4063909155022495
100
AcDbArc
 50
122.547561162
 51
177.4578153707
  0
INSERT
  5
24C
330
1F
100
AcDbEntity
  8
0
  6
Continuous
 62
     7
100
AcDbBlockReference
  2
SW_BROKEN_VIEW_1
 10
0.0
 20
0.0
 30
0.0
  0
LINE
  5
24D
330
1F
100
AcDbEntity
  8
0
  6
Continuous
 62
     7
370
     0
100
AcDbLine
 10
2.7649587844
 20
4.550860369
 30
0.0
 11
2.7649587844
 21
5.2649635397
 31
0.0
  0
LINE
  5
24E
330
1F
100
AcDbEntity
  8
0
  6
Continuous
 62
     7
370
     0
100
AcDbLine
 10
1.7809587717
 20
5.2649635397
 30
0.0
 11
1.7809587717
 21
4.4963580887
 31
0.0
  0
LINE
  5
24F
330
1F
100
AcDbEntity
  8
0
  6
Continuous
 62
     7
370
     0
100
AcDbLine
 10
2.7649587844
 20
5.2649635397
 30
0.0
 11
2.6783562349
 21
5.4149633802
 31
0.0
  0
LINE
  5
250
330
1F
100
AcDbEntity
  8
0
  6
Continuous
 62
     7
370
     0
100
AcDbLine
 10
1.8675613212
 20
5.4149633802
 30
0.0
 11
1.7809587717
 21
5.2649635397
 31
0.0
  0
LINE
  5
251
330
1F
100
AcDbEntity
  8
0
  6
Continuous
 62
     7
370
     0
100
AcDbLine
 10
2.0442121856
 20
5.2649635397
 30
0.0
 11
1.7809587717
 21
5.2649635397
 31
0.0
  0
LINE
  5
252
330
1F
100
AcDbEntity
  8
0
  6
Continuous
 62
     7
370
     0
100
AcDbLine
 10
2.7649587844
 20
5.2649635397
 30
0.0
 11
2.5017053706
 21
5.2649635397
 31
0.0
  0
LINE
  5
253
330
1F
100
AcDbEntity
  8
0
  6
Continuous
 62
     7
370
     0
100
AcDbLine
 10
2.2729587781
 20
5.4149633802
 30
0.0
 11
2.6783562349
 21
5.4149633802
 31
0.0
  0
LINE
  5
254
330
1F
100
AcDbEntity
  8
0
  6
Continuous
 62
     7
370
     0
100
AcDbLine
 10
1.8675613212
 20
5.4149633802
 30
0.0
 11
2.2729587781
 21
5.4149633802
 31
0.0
  0
CIRCLE
  5
255
330
1F
100
AcDbEntity
  8
0
  6
Continuous
 62
     7
370
     0
100
AcDbCircle
 10
2.2729587671
 20
5.0949633686
 30
0.0
 40
0.0540999888382802
  0
LINE
  5
256
330
1F
100
AcDbEntity
  8
0
  6
Continuous
 62
     7
370
     0
100
AcDbLine
 10
2.2774751761
 20
5.1307640633
 30
0.0
 11
2.2442127185
 21
5.1167750116
 31
0.0
  0
LINE
  5
257
330
1F
100
AcDbEntity
  8
0
  6
Continuous
 62
     7
370
     0
100
AcDbLine
 10
2.2396963196
 20
5.0809743851
 30
0.0
 11
2.2442127185
 21
5.1167750116
 31
0.0
  0
LINE
  5
258
330
1F
100
AcDbEntity
  8
0
  6
Continuous
 62
     7
370
     0
100
AcDbLine
 10
2.2684423801
 20
5.0591628104
 30
0.0
 11
2.2396963196
 21
5.0809743851
 31
0.0
  0
LINE
  5
259
330
1F
100
AcDbEntity
  8
0
  6
Continuous
 62
     7
370
     0
100
AcDbLine
 10
2.2684423801
 20
5.0591628104
 30
0.0
 11
2.3017048377
 21
5.0731517155
 31
0.0
  0
LINE
  5
25A
330
1F
100
AcDbEntity
  8
0
  6
Continuous
 62
     7
370
     0
100
AcDbLine
 10
2.3062212365
 20
5.1089523419
 30
0.0
 11
2.3017048377
 21
5.0731517155
 31
0.0
  0
LINE
  5
25B
330
1F
100
AcDbEntity
  8
0
  6
Continuous
 62
     7
370
     0
100
AcDbLine
 10
2.3062212365
 20
5.1089523419
 30
0.0
 11
2.2774751761
 21
5.1307640633
 31
0.0
  0
LINE
  5
25C
330
1F
100
AcDbEntity
  8
0
  6
Continuous
 62
     7
370
     0
100
AcDbLine
 10
2.2161329624
 20
5.1933886865
 30
0.0
 11
2.3297845937
 21
5.1933886865
 31
0.0
  0
LWPOLYLINE
  5
25D
330
1F
100
AcDbEntity
  8
0
  6
Continuous
 62
     7
370
     0
100
AcDbPolyline
 90
        8
 70
   128
 43
0.0
 10
2.1593071468
 20
5.0949634369
 10
2.1711508933
 20
5.1154773199
 10
2.1775770649
 20
5.1266078713
 10
2.184151414
 20
5.1379949398
 10
2.1932593638
 20
5.1537703708
 10
2.2024885184
 20
5.1697556795
 10
2.209404221
 20
5.1817341011
 10
2.2161329624
 20
5.1933886865
  0
LWPOLYLINE
  5
25E
330
1F
100
AcDbEntity
  8
0
  6
Continuous
 62
     7
370
     0
100
AcDbPolyline
 90
        8
 70
   128
 43
0.0
 10
2.2161329624
 20
4.9965381872
 10
2.2042892205
 20
5.0170522169
 10
2.1978630535
 20
5.0281826216
 10
2.1912886999
 20
5.0395696901
 10
2.1821807501
 20
5.0553451212
 10
2.1729516
 20
5.0713305765
 10
2.1660358974
 20
5.0833088515
 10
2.1593071468
 20
5.0949634369
  0
LINE
  5
25F
330
1F
100
AcDbEntity
  8
0
  6
Continuous
 62
     7
370
     0
100
AcDbLine
 10
2.3297845937
 20
4.9965381872
 30
0.0
 11
2.2161329624
 21
4.9965381872
 31
0.0
  0
LWPOLYLINE
  5
260
330
1F
100
AcDbEntity
  8
0
  6
Continuous
 62
     7
370
     0
100
AcDbPolyline
 90
        8
 70
   128
 43
0.0
 10
2.3866104093
 20
5.0949634369
 10
2.3747666628
 20
5.0744494072
 10
2.3683404912
 20
5.0633190024
 10
2.3617661422
 20
5.051931934
 10
2.3526581924
 20
5.0361565029
 10
2.3434290377
 20
5.0201710475
 10
2.3365133351
 20
5.0081927726
 10
2.3297845937
 20
4.9965381872
  0
LWPOLYLINE
  5
261
330
1F
100
AcDbEntity
  8
0
  6
Continuous
 62
     7
370
     0
100
AcDbPolyline
 90
        8
 70
   128
 43
0.0
 10
2.3297845937
 20
5.1933886865
 10
2.3416283356
 20
5.1728746568
 10
2.3480545026
 20
5.1617442521
 10
2.3546288563
 20
5.1503570369
 10
2.3637368061
 20
5.1345816058
 10
2.3729659561
 20
5.1185962972
 10
2.3798816587
 20
5.1066178756
 10
2.3866104093
 20
5.0949634369
  0
CIRCLE
  5
262
330
1F
100
AcDbEntity
  8
0
  6
Continuous
 62
     7
370
     0
100
AcDbCircle
 10
2.2729587921
 20
5.094963488
 30
0.0
 40
0.1199999979901855
  0
LINE
  5
263
330
1F
100
AcDbEntity
  8
0
  6
Continuous
 62
     7
370
     0
100
AcDbLine
 10
2.3599246718
 20
4.9551676651
 30
0.0
 11
2.3802084924
 21
4.9476202856
 31
0.0
  0
LINE
  5
264
330
1F
100
AcDbEntity
  8
0
  6
Continuous
 62
     7
370
     0
100
AcDbLine
 10
2.3544420784
 20
4.951109152
 30
0.0
 11
2.3599246718
 21
4.9551676651
 31
0.0
  0
LINE
  5
265
330
1F
100
AcDbEntity
  8
0
  6
Continuous
 62
     7
370
     0
100
AcDbLine
 10
2.3797545735
 20
4.9420575766
 30
0.0
 11
2.3544420784
 21
4.951109152
 31
0.0
  0
LINE
  5
266
330
1F
100
AcDbEntity
  8
0
  6
Continuous
 62
     7
370
     0
100
AcDbLine
 10
2.3804310015
 20
4.9148047314
 30
0.0
 11
2.3797545735
 21
4.9420575766
 31
0.0
  0
LINE
  5
267
330
1F
100
AcDbEntity
  8
0
  6
Continuous
 62
     7
370
     0
100
AcDbLine
 10
2.3860026022
 20
4.9189255771
 30
0.0
 11
2.3804310015
 21
4.9148047314
 31
0.0
  0
LINE
  5
268
330
1F
100
AcDbEntity
  8
0
  6
Continuous
 62
     7
370
     0
100
AcDbLine
 10
2.3848277607
 20
4.9409272296
 30
0.0
 11
2.3860026022
 21
4.9189255771
 31
0.0
  0
LINE
  5
269
330
1F
100
AcDbEntity
  8
0
  6
Continuous
 62
     7
370
     0
100
AcDbLine
 10
2.4056633992
 20
4.9334776757
 30
0.0
 11
2.3848277607
 21
4.9409272296
 31
0.0
  0
LINE
  5
26A
330
1F
100
AcDbEntity
  8
0
  6
Continuous
 62
     7
370
     0
100
AcDbLine
 10
2.4111904962
 20
4.9375718284
 30
0.0
 11
2.4056633992
 21
4.9334776757
 31
0.0
  0
LINE
  5
26B
330
1F
100
AcDbEntity
  8
0
  6
Continuous
 62
     7
370
     0
100
AcDbLine
 10
2.3852905712
 20
4.9464899387
 30
0.0
 11
2.4111904962
 21
4.9375718284
 31
0.0
  0
LINE
  5
26C
330
1F
100
AcDbEntity
  8
0
  6
Continuous
 62
     7
370
     0
100
AcDbLine
 10
2.3846319538
 20
4.9734578138
 30
0.0
 11
2.3852905712
 21
4.9464899387
 31
0.0
  0
LINE
  5
26D
330
1F
100
AcDbEntity
  8
0
  6
Continuous
 62
     7
370
     0
100
AcDbLine
 10
2.3790692539
 20
4.9693369681
 30
0.0
 11
2.3846319538
 21
4.9734578138
 31
0.0
  0
LINE
  5
26E
330
1F
100
AcDbEntity
  8
0
  6
Continuous
 62
     7
370
     0
100
AcDbLine
 10
2.3802084924
 20
4.9476202856
 30
0.0
 11
2.3790692539
 21
4.9693369681
 31
0.0
  0
LINE
  5
26F
330
1F
100
AcDbEntity
  8
0
  6
Continuous
 62
     7
370
     0
100
AcDbLine
 10
2.3191800379
 20
4.9194831974
 30
0.0
 11
2.315673315
 21
4.9365717199
 31
0.0
  0
LINE
  5
270
330
1F
100
AcDbEntity
  8
0
  6
Continuous
 62
     7
370
     0
100
AcDbLine
 10
2.2963952288
 20
4.9148104513
 30
0.0
 11
2.3191800379
 21
4.9194831974
 31
0.0
  0
LINE
  5
271
330
1F
100
AcDbEntity
  8
0
  6
Continuous
 62
     7
370
     0
100
AcDbLine
 10
2.2928885037
 20
4.9318991206
 30
0.0
 11
2.2963952288
 21
4.9148104513
 31
0.0
  0
LINE
  5
272
330
1F
100
AcDbEntity
  8
0
  6
Continuous
 62
     7
370
     0
100
AcDbLine
 10
2.2871923008
 20
4.9307243342
 30
0.0
 11
2.2928885037
 21
4.9318991206
 31
0.0
  0
LINE
  5
273
330
1F
100
AcDbEntity
  8
0
  6
Continuous
 62
     7
370
     0
100
AcDbLine
 10
2.2961994219
 20
4.8868634408
 30
0.0
 11
2.2871923008
 21
4.9307243342
 31
0.0
  0
LINE
  5
274
330
1F
100
AcDbEntity
  8
0
  6
Continuous
 62
     7
370
     0
100
AcDbLine
 10
2.3018956236
 20
4.8880383739
 30
0.0
 11
2.2961994219
 21
4.8868634408
 31
0.0
  0
LINE
  5
275
330
1F
100
AcDbEntity
  8
0
  6
Continuous
 62
     7
370
     0
100
AcDbLine
 10
2.2974543653
 20
4.9096839239
 30
0.0
 11
2.3018956236
 21
4.8880383739
 31
0.0
  0
LINE
  5
276
330
1F
100
AcDbEntity
  8
0
  6
Continuous
 62
     7
370
     0
100
AcDbLine
 10
2.3202391744
 20
4.9143565232
 30
0.0
 11
2.2974543653
 21
4.9096839239
 31
0.0
  0
LINE
  5
277
330
1F
100
AcDbEntity
  8
0
  6
Continuous
 62
     7
370
     0
100
AcDbLine
 10
2.3246804327
 20
4.8927109733
 30
0.0
 11
2.3202391744
 21
4.9143565232
 31
0.0
  0
LINE
  5
278
330
1F
100
AcDbEntity
  8
0
  6
Continuous
 62
     7
370
     0
100
AcDbLine
 10
2.3303766343
 20
4.8938859064
 30
0.0
 11
2.3246804327
 21
4.8927109733
 31
0.0
  0
LINE
  5
279
330
1F
100
AcDbEntity
  8
0
  6
Continuous
 62
     7
370
     0
100
AcDbLine
 10
2.3213695167
 20
4.937746653
 30
0.0
 11
2.3303766343
 21
4.8938859064
 31
0.0
  0
LINE
  5
27A
330
1F
100
AcDbEntity
  8
0
  6
Continuous
 62
     7
370
     0
100
AcDbLine
 10
2.315673315
 20
4.9365717199
 30
0.0
 11
2.3213695167
 21
4.937746653
 31
0.0
  0
SPLINE
  5
27B
330
1F
100
AcDbEntity
  8
0
  6
Continuous
 62
     7
370
     0
100
AcDbSpline
210
0.0
220
0.0
230
1.0
 70
     8
 71
     3
 72
     9
 73
     5
 74
     0
 42
0.00000001
 43
0.00000001
 40
0.0
 40
0.0
 40
0.0
 40
0.0
 40
0.5607290784003369
 40
1.0
 40
1.0
 40
1.0
 40
1.0
 10
2.187711165349859
 20
4.937454203081937
 30
0.0
 10
2.190257168564935
 20
4.937838380658706
 30
0.0
 10
2.194797691454063
 20
4.938523520045207
 30
0.0
 10
2.199013814995636
 20
4.936772647317031
 30
0.0
 10
2.20086583546932
 20
4.936003539840122
 30
0.0
  0
SPLINE
  5
27C
330
1F
100
AcDbEntity
  8
0
  6
Continuous
 62
     7
370
     0
100
AcDbSpline
210
0.0
220
0.0
230
1.0
 70
     8
 71
     3
 72
    10
 73
     6
 74
     0
 42
0.00000001
 43
0.00000001
 40
0.0
 40
0.0
 40
0.0
 40
0.0
 40
0.2815184249965161
 40
0.5625228738419893
 40
1.0
 40
1.0
 40
1.0
 40
1.0
 10
2.182068368035935
 20
4.946425846107418
 30
0.0
 10
2.182951784095489
 20
4.945868941162582
 30
0.0
 10
2.18471700333691
 20
4.944756148030019
 30
0.0
 10
2.18721441361135
 20
4.941827875961728
 30
0.0
 10
2.187523167696692
 20
4.939109436820204
 30
0.0
 10
2.187711165349859
 20
4.937454203081937
 30
0.0
  0
SPLINE
  5
27D
330
1F
100
AcDbEntity
  8
0
  6
Continuous
 62
     7
370
     0
100
AcDbSpline
210
0.0
220
0.0
230
1.0
 70
     8
 71
     3
 72
     9
 73
     5
 74
     0
 42
0.00000001
 43
0.00000001
 40
0.0
 40
0.0
 40
0.0
 40
0.0
 40
0.5606378864318682
 40
1.0
 40
1.0
 40
1.0
 40
1.0
 10
2.17053355295377
 20
4.947858762887575
 30
0.0
 10
2.172769400104029
 20
4.948139961585851
 30
0.0
 10
2.176757441591002
 20
4.948641530789578
 30
0.0
 10
2.180447219441113
 20
4.947102178974441
 30
0.0
 10
2.182068368035935
 20
4.946425846107418
 30
0.0
  0
LINE
  5
27E
330
1F
100
AcDbEntity
  8
0
  6
Continuous
 62
     7
370
     0
100
AcDbLine
 10
2.1723136166
 20
4.951080699
 30
0.0
 11
2.170533553
 21
4.9478587629
 31
0.0
  0
LINE
  5
27F
330
1F
100
AcDbEntity
  8
0
  6
Continuous
 62
     7
370
     0
100
AcDbLine
 10
2.1671870341
 20
4.9539287861
 30
0.0
 11
2.1723136166
 21
4.951080699
 31
0.0
  0
LINE
  5
280
330
1F
100
AcDbEntity
  8
0
  6
Continuous
 62
     7
370
     0
100
AcDbLine
 10
2.1510863643
 20
4.9248781217
 30
0.0
 11
2.1671870341
 21
4.9539287861
 31
0.0
  0
LINE
  5
281
330
1F
100
AcDbEntity
  8
0
  6
Continuous
 62
     7
370
     0
100
AcDbLine
 10
2.1562129467
 20
4.9220300346
 30
0.0
 11
2.1510863643
 21
4.9248781217
 31
0.0
  0
LINE
  5
282
330
1F
100
AcDbEntity
  8
0
  6
Continuous
 62
     7
370
     0
100
AcDbLine
 10
2.1681749694
 20
4.943604452
 30
0.0
 11
2.1562129467
 21
4.9220300346
 31
0.0
  0
SPLINE
  5
283
330
1F
100
AcDbEntity
  8
0
  6
Continuous
 62
     7
370
     0
100
AcDbSpline
210
0.0
220
0.0
230
1.0
 70
     8
 71
     3
 72
     9
 73
     5
 74
     0
 42
0.00000001
 43
0.00000001
 40
0.0
 40
0.0
 40
0.0
 40
0.0
 40
0.5575481288725944
 40
1.0
 40
1.0
 40
1.0
 40
1.0
 10
2.178027619715004
 20
4.942705395753045
 30
0.0
 10
2.176225991231614
 20
4.943272313955636
 30
0.0
 10
2.172994649594734
 20
4.94428911981191
 30
0.0
 10
2.169653338647581
 20
4.9438144642675
 30
0.0
 10
2.168174969366995
 20
4.943604452033736
 30
0.0
  0
SPLINE
  5
284
330
1F
100
AcDbEntity
  8
0
  6
Continuous
 62
     7
370
     0
100
AcDbSpline
210
0.0
220
0.0
230
1.0
 70
     8
 71
     3
 72
    10
 73
     6
 74
     0
 42
0.00000001
 43
0.00000001
 40
0.0
 40
0.0
 40
0.0
 40
0.0
 40
0.2796936245710467
 40
0.5592432732211798
 40
0.9999999999999999
 40
0.9999999999999999
 40
0.9999999999999999
 40
0.9999999999999999
 10
2.181667853496046
 20
4.937774666046589
 30
0.0
 10
2.181619051547665
 20
4.938385632826117
 30
0.0
 10
2.181521472772339
 20
4.9396072518821
 30
0.0
 10
2.18018577491766
 20
4.941417155842951
 30
0.0
 10
2.178846887351014
 20
4.942216360828931
 30
0.0
 10
2.178027619715004
 20
4.942705395753045
 30
0.0
  0
SPLINE
  5
285
330
1F
100
AcDbEntity
  8
0
  6
Continuous
 62
     7
370
     0
100
AcDbSpline
210
0.0
220
0.0
230
1.0
 70
     8
 71
     3
 72
     9
 73
     5
 74
     0
 42
0.00000001
 43
0.00000001
 40
0.0
 40
0.0
 40
0.0
 40
0.0
 40
0.5613145582765929
 40
1.0
 40
1.0
 40
1.0
 40
1.0
 10
2.178997753507936
 20
4.930903558755539
 30
0.0
 10
2.179689135078286
 20
4.932117426041973
 30
0.0
 10
2.180920853657744
 20
4.934279969786001
 30
0.0
 10
2.181440077538544
 20
4.93670905967545
 30
0.0
 10
2.181667853496046
 20
4.937774666046589
 30
0.0
  0
LINE
  5
286
330
1F
100
AcDbEntity
  8
0
  6
Continuous
 62
     7
370
     0
100
AcDbLine
 10
2.1698838363
 20
4.9144558154
 30
0.0
 11
2.1789977535
 21
4.9309035588
 31
0.0
  0
LINE
  5
287
330
1F
100
AcDbEntity
  8
0
  6
Continuous
 62
     7
370
     0
100
AcDbLine
 10
2.1750104187
 20
4.9116166749
 30
0.0
 11
2.1698838363
 21
4.9144558154
 31
0.0
  0
LINE
  5
288
330
1F
100
AcDbEntity
  8
0
  6
Continuous
 62
     7
370
     0
100
AcDbLine
 10
2.1852635745
 20
4.9301115679
 30
0.0
 11
2.1750104187
 21
4.9116166749
 31
0.0
  0
SPLINE
  5
289
330
1F
100
AcDbEntity
  8
0
  6
Continuous
 62
     7
370
     0
100
AcDbSpline
210
0.0
220
0.0
230
1.0
 70
     8
 71
     3
 72
     9
 73
     5
 74
     0
 42
0.00000001
 43
0.00000001
 40
0.0
 40
0.0
 40
0.0
 40
0.0
 40
0.5600231130162816
 40
1.0
 40
1.0
 40
1.0
 40
1.0
 10
2.186705428634882
 20
4.933155452741468
 30
0.0
 10
2.186461246213702
 20
4.932575294731446
 30
0.0
 10
2.186025224171924
 20
4.931539341042146
 30
0.0
 10
2.185496292269726
 20
4.930547816004233
 30
0.0
 10
2.185263574457971
 20
4.930111567904685
 30
0.0
  0
SPLINE
  5
28A
330
1F
100
AcDbEntity
  8
0
  6
Continuous
 62
     7
370
     0
100
AcDbSpline
210
0.0
220
0.0
230
1.0
 70
     8
 71
     3
 72
     9
 73
     5
 74
     0
 42
0.00000001
 43
0.00000001
 40
0.0
 40
0.0
 40
0.0
 40
0.0
 40
0.5574892740399147
 40
1.0
 40
1.0
 40
1.0
 40
1.0
 10
2.19682509173167
 20
4.932292036049065
 30
0.0
 10
2.194972520142755
 20
4.932865251828987
 30
0.0
 10
2.191649457843293
 20
4.933893461350885
 30
0.0
 10
2.188222080064095
 20
4.933381847401584
 30
0.0
 10
2.186705428634882
 20
4.933155452741468
 30
0.0
  0
SPLINE
  5
28B
330
1F
100
AcDbEntity
  8
0
  6
Continuous
 62
     7
370
     0
100
AcDbSpline
210
0.0
220
0.0
230
1.0
 70
     8
 71
     3
 72
    10
 73
     6
 74
     0
 42
0.00000001
 43
0.00000001
 40
0.0
 40
0.0
 40
0.0
 40
0.0
 40
0.2796550197769812
 40
0.5592268090015068
 40
1.0
 40
1.0
 40
1.0
 40
1.0
 10
2.200456420198921
 20
4.927334613317635
 30
0.0
 10
2.200401356741907
 20
4.927944442987326
 30
0.0
 10
2.20029124621579
 20
4.929163920830019
 30
0.0
 10
2.198988283293381
 20
4.930996458397843
 30
0.0
 10
2.197646262970764
 20
4.93180022056493
 30
0.0
 10
2.19682509173167
 20
4.932292036049065
 30
0.0
  0
SPLINE
  5
28C
330
1F
100
AcDbEntity
  8
0
  6
Continuous
 62
     7
370
     0
100
AcDbSpline
210
0.0
220
0.0
230
1.0
 70
     8
 71
     3
 72
     9
 73
     5
 74
     0
 42
0.00000001
 43
0.00000001
 40
0.0
 40
0.0
 40
0.0
 40
0.0
 40
0.5612887607473473
 40
0.9999999999999999
 40
0.9999999999999999
 40
0.9999999999999999
 40
0.9999999999999999
 10
2.197795225524602
 20
4.920481399153216
 30
0.0
 10
2.198484032400089
 20
4.921692238175224
 30
0.0
 10
2.199711220478057
 20
4.92384948611369
 30
0.0
 10
2.200229183847309
 20
4.926271881316326
 30
0.0
 10
2.200456420198921
 20
4.927334613317635
 30
0.0
  0
LINE
  5
28D
330
1F
100
AcDbEntity
  8
0
  6
Continuous
 62
     7
370
     0
100
AcDbLine
 10
2.1886812991
 20
4.9040335092
 30
0.0
 11
2.1977952255
 21
4.9204813992
 31
0.0
  0
LINE
  5
28E
330
1F
100
AcDbEntity
  8
0
  6
Continuous
 62
     7
370
     0
100
AcDbLine
 10
2.1938078816
 20
4.9011943686
 30
0.0
 11
2.1886812991
 21
4.9040335092
 31
0.0
  0
LINE
  5
28F
330
1F
100
AcDbEntity
  8
0
  6
Continuous
 62
     7
370
     0
100
AcDbLine
 10
2.2041767514
 20
4.9199028058
 30
0.0
 11
2.1938078816
 21
4.9011943686
 31
0.0
  0
SPLINE
  5
290
330
1F
100
AcDbEntity
  8
0
  6
Continuous
 62
     7
370
     0
100
AcDbSpline
210
0.0
220
0.0
230
1.0
 70
     8
 71
     3
 72
    11
 73
     7
 74
     0
 42
0.00000001
 43
0.00000001
 40
0.0
 40
0.0
 40
0.0
 40
0.0
 40
0.2801463579147481
 40
0.5577995705228916
 40
0.7785967316519835
 40
0.9999999999999999
 40
0.9999999999999999
 40
0.9999999999999999
 40
0.9999999999999999
 10
2.20086583546932
 20
4.936003539840122
 30
0.0
 10
2.202364246581809
 20
4.935030054934713
 30
0.0
 10
2.205347733789118
 20
4.933091748593022
 30
0.0
 10
2.206861741605215
 20
4.928074256840702
 30
0.0
 10
2.206013292791361
 20
4.923608779736094
 30
0.0
 10
2.204789490995231
 20
4.921139258762802
 30
0.0
 10
2.204176751388004
 20
4.919902805837175
 30
0.0
  0
LINE
  5
291
330
1F
100
AcDbEntity
  8
0
  6
Continuous
 62
     7
370
     0
100
AcDbLine
 10
2.0814417688
 20
5.1472096066
 30
0.0
 11
2.0461253201
 21
5.1524251597
 31
0.0
  0
LINE
  5
292
330
1F
100
AcDbEntity
  8
0
  6
Continuous
 62
     7
370
     0
100
AcDbLine
 10
2.0747131465
 20
5.1016400664
 30
0.0
 11
2.0814417688
 21
5.1472096066
 31
0.0
  0
LINE
  5
293
330
1F
100
AcDbEntity
  8
0
  6
Continuous
 62
     7
370
     0
100
AcDbLine
 10
2.0393966795
 20
5.1068556195
 30
0.0
 11
2.0747131465
 21
5.1016400664
 31
0.0
  0
LINE
  5
294
330
1F
100
AcDbEntity
  8
0
  6
Continuous
 62
     7
370
     0
100
AcDbLine
 10
2.0377234155
 20
5.0954631244
 30
0.0
 11
2.0393966795
 21
5.1068556195
 31
0.0
  0
LINE
  5
295
330
1F
100
AcDbEntity
  8
0
  6
Continuous
 62
     7
370
     0
100
AcDbLine
 10
2.126584184
 20
5.0823440893
 30
0.0
 11
2.0377234155
 21
5.0954631244
 31
0.0
  0
LINE
  5
296
330
1F
100
AcDbEntity
  8
0
  6
Continuous
 62
     7
370
     0
100
AcDbLine
 10
2.1282574388
 20
5.0937365844
 30
0.0
 11
2.126584184
 21
5.0823440893
 31
0.0
  0
LINE
  5
297
330
1F
100
AcDbEntity
  8
0
  6
Continuous
 62
     7
370
     0
100
AcDbLine
 10
2.0849662931
 20
5.1001269239
 30
0.0
 11
2.1282574388
 21
5.0937365844
 31
0.0
  0
LINE
  5
298
330
1F
100
AcDbEntity
  8
0
  6
Continuous
 62
     7
370
     0
100
AcDbLine
 10
2.0916949337
 20
5.1456966108
 30
0.0
 11
2.0849662931
 21
5.1001269239
 31
0.0
  0
LINE
  5
299
330
1F
100
AcDbEntity
  8
0
  6
Continuous
 62
     7
370
     0
100
AcDbLine
 10
2.1349860794
 20
5.1393061246
 30
0.0
 11
2.0916949337
 21
5.1456966108
 31
0.0
  0
LINE
  5
29A
330
1F
100
AcDbEntity
  8
0
  6
Continuous
 62
     7
370
     0
100
AcDbLine
 10
2.1366771449
 20
5.1506986197
 30
0.0
 11
2.1349860794
 21
5.1393061246
 31
0.0
  0
LINE
  5
29B
330
1F
100
AcDbEntity
  8
0
  6
Continuous
 62
     7
370
     0
100
AcDbLine
 10
2.0478163856
 20
5.1638176548
 30
0.0
 11
2.1366771449
 21
5.1506986197
 31
0.0
  0
LINE
  5
29C
330
1F
100
AcDbEntity
  8
0
  6
Continuous
 62
     7
370
     0
100
AcDbLine
 10
2.0461253201
 20
5.1524251597
 30
0.0
 11
2.0478163856
 21
5.1638176548
 31
0.0
  0
SPLINE
  5
29D
330
1F
100
AcDbEntity
  8
0
  6
Continuous
 62
     7
370
     0
100
AcDbSpline
210
0.0
220
0.0
230
1.0
 70
     8
 71
     3
 72
    11
 73
     7
 74
     0
 42
0.00000001
 43
0.00000001
 40
0.0
 40
0.0
 40
0.0
 40
0.0
 40
0.2798963761170981
 40
0.559613067147219
 40
0.7797494015463352
 40
1.0
 40
1.0
 40
1.0
 40
1.0
 10
2.248489510316565
 20
5.32290500365473
 30
0.0
 10
2.250446063366181
 20
5.321991747370966
 30
0.0
 10
2.25435791341698
 20
5.320165821086607
 30
0.0
 10
2.258648967031709
 20
5.315787217782395
 30
0.0
 10
2.261178832114322
 20
5.310807089122132
 30
0.0
 10
2.261928080080821
 20
5.307503964710828
 30
0.0
 10
2.262302801265082
 20
5.305851973986118
 30
0.0
  0
SPLINE
  5
29E
330
1F
100
AcDbEntity
  8
0
  6
Continuous
 62
     7
370
     0
100
AcDbSpline
210
0.0
220
0.0
230
1.0
 70
     8
 71
     3
 72
     9
 73
     5
 74
     0
 42
0.00000001
 43
0.00000001
 40
0.0
 40
0.0
 40
0.0
 40
0.0
 40
0.5610255822995638
 40
1.0
 40
1.0
 40
1.0
 40
1.0
 10
2.22456546043923
 20
5.32322531995441
 30
0.0
 10
2.229067608122103
 20
5.324080592320341
 30
0.0
 10
2.237092460864857
 20
5.325605072474038
 30
0.0
 10
2.245012719426452
 20
5.323728688303413
 30
0.0
 10
2.248489510316565
 20
5.32290500365473
 30
0.0
  0
LINE
  5
29F
330
1F
100
AcDbEntity
  8
0
  6
Continuous
 62
     7
370
     0
100
AcDbLine
 10
2.1997335773
 20
5.3185258809
 30
0.0
 11
2.2245654604
 21
5.32322532
 31
0.0
  0
LINE
  5
2A0
330
1F
100
AcDbEntity
  8
0
  6
Continuous
 62
     7
370
     0
100
AcDbLine
 10
2.2163237644
 20
5.2308043876
 30
0.0
 11
2.1997335773
 21
5.3185258809
 31
0.0
  0
LINE
  5
2A1
330
1F
100
AcDbEntity
  8
0
  6
Continuous
 62
     7
370
     0
100
AcDbLine
 10
2.2277161724
 20
5.2329583094
 30
0.0
 11
2.2163237644
 21
5.2308043876
 31
0.0
  0
LINE
  5
2A2
330
1F
100
AcDbEntity
  8
0
  6
Continuous
 62
     7
370
     0
100
AcDbLine
 10
2.2210409362
 20
5.2682749414
 30
0.0
 11
2.2277161724
 21
5.2329583094
 31
0.0
  0
LINE
  5
2A3
330
1F
100
AcDbEntity
  8
0
  6
Continuous
 62
     7
370
     0
100
AcDbLine
 10
2.2394289883
 20
5.2717459146
 30
0.0
 11
2.2210409362
 21
5.2682749414
 31
0.0
  0
LINE
  5
2A4
330
1F
100
AcDbEntity
  8
0
  6
Continuous
 62
     7
370
     0
100
AcDbLine
 10
2.2758490829
 20
5.242054471
 30
0.0
 11
2.2394289883
 21
5.2717459146
 31
0.0
  0
LINE
  5
2A5
330
1F
100
AcDbEntity
  8
0
  6
Continuous
 62
     7
370
     0
100
AcDbLine
 10
2.2892351583
 20
5.2445999882
 30
0.0
 11
2.2758490829
 21
5.242054471
 31
0.0
  0
LINE
  5
2A6
330
1F
100
AcDbEntity
  8
0
  6
Continuous
 62
     7
370
     0
100
AcDbLine
 10
2.248578513
 20
5.2770683865
 30
0.0
 11
2.2892351583
 21
5.2445999882
 31
0.0
  0
SPLINE
  5
2A7
330
1F
100
AcDbEntity
  8
0
  6
Continuous
 62
     7
370
     0
100
AcDbSpline
210
0.0
220
0.0
230
1.0
 70
     8
 71
     3
 72
    11
 73
     7
 74
     0
 42
0.00000001
 43
0.00000001
 40
0.0
 40
0.0
 40
0.0
 40
0.0
 40
0.2799529209882021
 40
0.559199432556198
 40
0.7795095851055012
 40
1.0
 40
1.0
 40
1.0
 40
1.0
 10
2.262302801265082
 20
5.305851973986118
 30
0.0
 10
2.262672735478825
 20
5.302652565124725
 30
0.0
 10
2.263411670445739
 20
5.296261820518487
 30
0.0
 10
2.26006010769056
 20
5.287709931152968
 30
0.0
 10
2.254828628598569
 20
5.281298621291501
 30
0.0
 10
2.250662452801386
 20
5.278478849136994
 30
0.0
 10
2.248578513038398
 20
5.277068386496577
 30
0.0
  0
LINE
  5
2A8
330
1F
100
AcDbEntity
  8
0
  6
Continuous
 62
     7
370
     0
100
AcDbLine
 10
2.3529815795
 20
5.2213409769
 30
0.0
 11
2.4409879053
 21
5.2567640877
 31
0.0
  0
LINE
  5
2A9
330
1F
100
AcDbEntity
  8
0
  6
Continuous
 62
     7
370
     0
100
AcDbLine
 10
2.361739495
 20
5.2116396757
 30
0.0
 11
2.3529815795
 21
5.2213409769
 31
0.0
  0
LINE
  5
2AA
330
1F
100
AcDbEntity
  8
0
  6
Continuous
 62
     7
370
     0
100
AcDbLine
 10
2.3858059519
 20
5.2216434001
 30
0.0
 11
2.361739495
 21
5.2116396757
 31
0.0
  0
LINE
  5
2AB
330
1F
100
AcDbEntity
  8
0
  6
Continuous
 62
     7
370
     0
100
AcDbLine
 10
2.4111362485
 20
5.1936254038
 30
0.0
 11
2.3858059519
 21
5.2216434001
 31
0.0
  0
LINE
  5
2AC
330
1F
100
AcDbEntity
  8
0
  6
Continuous
 62
     7
370
     0
100
AcDbLine
 10
2.3987648106
 20
5.1706802555
 30
0.0
 11
2.4111362485
 21
5.1936254038
 31
0.0
  0
LINE
  5
2AD
330
1F
100
AcDbEntity
  8
0
  6
Continuous
 62
     7
370
     0
100
AcDbLine
 10
2.4075405184
 20
5.1609612078
 30
0.0
 11
2.3987648106
 21
5.1706802555
 31
0.0
  0
LINE
  5
2AE
330
1F
100
AcDbEntity
  8
0
  6
Continuous
 62
     7
370
     0
100
AcDbLine
 10
2.4516682869
 20
5.2449446509
 30
0.0
 11
2.4075405184
 21
5.1609612078
 31
0.0
  0
LINE
  5
2AF
330
1F
100
AcDbEntity
  8
0
  6
Continuous
 62
     7
370
     0
100
AcDbLine
 10
2.4409879053
 20
5.2567640877
 30
0.0
 11
2.4516682869
 21
5.2449446509
 31
0.0
  0
SPLINE
  5
2B0
330
1F
100
AcDbEntity
  8
0
  6
Continuous
 62
     7
370
     0
100
AcDbSpline
210
0.0
220
0.0
230
1.0
 70
     8
 71
     3
 72
    11
 73
     7
 74
     0
 42
0.00000001
 43
0.00000001
 40
0.0
 40
0.0
 40
0.0
 40
0.0
 40
0.2803165711656301
 40
0.5583106815214267
 40
0.77892225502804
 40
1.0
 40
1.0
 40
1.0
 40
1.0
 10
2.476453805603573
 20
5.03393790182735
 30
0.0
 10
2.474575300127658
 20
5.034576042909146
 30
0.0
 10
2.470833852848466
 20
5.035847037987329
 30
0.0
 10
2.465256079127344
 20
5.034323886733453
 30
0.0
 10
2.461473012880581
 20
5.030948675850136
 30
0.0
 10
2.459593778473584
 20
5.028515902397947
 30
0.0
 10
2.458653169571372
 20
5.027298231862717
 30
0.0
  0
SPLINE
  5
2B1
330
1F
100
AcDbEntity
  8
0
  6
Continuous
 62
     7
370
     0
100
AcDbSpline
210
0.0
220
0.0
230
1.0
 70
     8
 71
     3
 72
    11
 73
     7
 74
     0
 42
0.00000001
 43
0.00000001
 40
0.0
 40
0.0
 40
0.0
 40
0.0
 40
0.2809810573826517
 40
0.5609406247873863
 40
0.7806495691130286
 40
1.0
 40
1.0
 40
1.0
 40
1.0
 10
2.482559413404404
 20
5.008892364488867
 30
0.0
 10
2.48345353620119
 20
5.011441571967245
 30
0.0
 10
2.485238531264339
 20
5.016530719431325
 30
0.0
 10
2.4849327820505
 20
5.024135854837553
 30
0.0
 10
2.482047736095142
 20
5.030751208641021
 30
0.0
 10
2.478317433776042
 20
5.032876249165056
 30
0.0
 10
2.476453805603573
 20
5.03393790182735
 30
0.0
  0
SPLINE
  5
2B2
330
1F
100
AcDbEntity
  8
0
  6
Continuous
 62
     7
370
     0
100
AcDbSpline
210
0.0
220
0.0
230
1.0
 70
     8
 71
     3
 72
    11
 73
     7
 74
     0
 42
0.00000001
 43
0.00000001
 40
0.0
 40
0.0
 40
0.0
 40
0.0
 40
0.2796593457051402
 40
0.559734522670544
 40
0.779898825598908
 40
0.9999999999999999
 40
0.9999999999999999
 40
0.9999999999999999
 40
0.9999999999999999
 10
2.460913845122522
 20
4.985306583620488
 30
0.0
 10
2.46357506777218
 20
4.98681652891407
 30
0.0
 10
2.468901470098448
 20
4.989838664670097
 30
0.0
 10
2.474851267647046
 20
4.996019470295963
 30
0.0
 10
2.479531771680833
 20
5.002349744041528
 30
0.0
 10
2.481550295973538
 20
5.006711699489586
 30
0.0
 10
2.482559413404404
 20
5.008892364488867
 30
0.0
  0
LINE
  5
2B3
330
1F
100
AcDbEntity
  8
0
  6
Continuous
 62
     7
370
     0
100
AcDbLine
 10
2.4606112386
 20
4.9845411391
 30
0.0
 11
2.4609138451
 21
4.9853065836
 31
0.0
  0
LINE
  5
2B4
330
1F
100
AcDbEntity
  8
0
  6
Continuous
 62
     7
370
     0
100
AcDbLine
 10
2.4740151154
 20
4.9790407627
 30
0.0
 11
2.4606112386
 21
4.9845411391
 31
0.0
  0
SPLINE
  5
2B5
330
1F
100
AcDbEntity
  8
0
  6
Continuous
 62
     7
370
     0
100
AcDbSpline
210
0.0
220
0.0
230
1.0
 70
     8
 71
     3
 72
     9
 73
     5
 74
     0
 42
0.00000001
 43
0.00000001
 40
0.0
 40
0.0
 40
0.0
 40
0.0
 40
0.5597443575315811
 40
1.0
 40
1.0
 40
1.0
 40
1.0
 10
2.491673339786215
 20
5.005154314337808
 30
0.0
 10
2.489119050283849
 20
4.999767497289445
 30
0.0
 10
2.484555735856474
 20
4.990143787865883
 30
0.0
 10
2.477237159831865
 20
4.982434722288884
 30
0.0
 10
2.474015115442196
 20
4.979040762670452
 30
0.0
  0
SPLINE
  5
2B6
330
1F
100
AcDbEntity
  8
0
  6
Continuous
 62
     7
370
     0
100
AcDbSpline
210
0.0
220
0.0
230
1.0
 70
     8
 71
     3
 72
    12
 73
     8
 74
     0
 42
0.00000001
 43
0.00000001
 40
0.0
 40
0.0
 40
0.0
 40
0.0
 40
0.1863547519443941
 40
0.3726698919960859
 40
0.5594659128179643
 40
0.7795486859355442
 40
1.0
 40
1.0
 40
1.0
 40
1.0
 10
2.480031734271035
 20
5.045775231748171
 30
0.0
 10
2.482652829863094
 20
5.044398878534411
 30
0.0
 10
2.487894463902536
 20
5.041646464666942
 30
0.0
 10
2.492930023834523
 20
5.034061890455699
 30
0.0
 10
2.49533393640822
 20
5.025000014207041
 30
0.0
 10
2.495107307790559
 20
5.01497435958175
 30
0.0
 10
2.492818634005399
 20
5.008429487850138
 30
0.0
 10
2.491673339786215
 20
5.005154314337808
 30
0.0
  0
SPLINE
  5
2B7
330
1F
100
AcDbEntity
  8
0
  6
Continuous
 62
     7
370
     0
100
AcDbSpline
210
0.0
220
0.0
230
1.0
 70
     8
 71
     3
 72
    11
 73
     7
 74
     0
 42
0.00000001
 43
0.00000001
 40
0.0
 40
0.0
 40
0.0
 40
0.0
 40
0.2807152206842589
 40
0.5600199004666211
 40
0.7796938606408528
 40
1.0
 40
1.0
 40
1.0
 40
1.0
 10
2.448079596718188
 20
5.033902262239061
 30
0.0
 10
2.450197999800632
 20
5.03669352664253
 30
0.0
 10
2.454424161390612
 20
5.042262029873659
 30
0.0
 10
2.462987016853959
 20
5.04751119869855
 30
0.0
 10
2.472184538938671
 20
5.048391114666943
 30
0.0
 10
2.477413498108231
 20
5.046648027564447
 30
0.0
 10
2.480031734271035
 20
5.045775231748171
 30
0.0
  0
SPLINE
  5
2B8
330
1F
100
AcDbEntity
  8
0
  6
Continuous
 62
     7
370
     0
100
AcDbSpline
210
0.0
220
0.0
230
1.0
 70
     8
 71
     3
 72
     9
 73
     5
 74
     0
 42
0.00000001
 43
0.00000001
 40
0.0
 40
0.0
 40
0.0
 40
0.0
 40
0.5599165647910925
 40
0.9999999999999999
 40
0.9999999999999999
 40
0.9999999999999999
 40
0.9999999999999999
 10
2.436473575791932
 20
5.016333118532642
 30
0.0
 10
2.438670271268078
 20
5.019592049065794
 30
0.0
 10
2.442593526292629
 20
5.025412435062714
 30
0.0
 10
2.446403076691883
 20
5.031307806795197
 30
0.0
 10
2.448079596718188
 20
5.033902262239061
 30
0.0
  0
SPLINE
  5
2B9
330
1F
100
AcDbEntity
  8
0
  6
Continuous
 62
     7
370
     0
100
AcDbSpline
210
0.0
220
0.0
230
1.0
 70
     8
 71
     3
 72
    10
 73
     6
 74
     0
 42
0.00000001
 43
0.00000001
 40
0.0
 40
0.0
 40
0.0
 40
0.0
 40
0.281111975533812
 40
0.5592654930682105
 40
1.0
 40
1.0
 40
1.0
 40
1.0
 10
2.419616380527691
 20
5.01065469079699
 30
0.0
 10
2.421357053545686
 20
5.010024556302734
 30
0.0
 10
2.42482008051859
 20
5.008770918929373
 30
0.0
 10
2.431550472186323
 20
5.010395022807168
 30
0.0
 10
2.434602465511265
 20
5.014076243022879
 30
0.0
 10
2.436473575791932
 20
5.016333118532642
 30
0.0
  0
SPLINE
  5
2BA
330
1F
100
AcDbEntity
  8
0
  6
Continuous
 62
     7
370
     0
100
AcDbSpline
210
0.0
220
0.0
230
1.0
 70
     8
 71
     3
 72
    11
 73
     7
 74
     0
 42
0.00000001
 43
0.00000001
 40
0.0
 40
0.0
 40
0.0
 40
0.0
 40
0.2513678165435592
 40
0.5020482655768592
 40
0.7513549604817978
 40
1.0
 40
1.0
 40
1.0
 40
1.0
 10
2.41331495665561
 20
5.037978668481402
 30
0.0
 10
2.412411596385214
 20
5.035504717655925
 30
0.0
 10
2.410607346091046
 20
5.030563581045316
 30
0.0
 10
2.410122347427134
 20
5.02266805391393
 30
0.0
 10
2.412693016892452
 20
5.014720931581603
 30
0.0
 10
2.417310637876815
 20
5.012008903185617
 30
0.0
 10
2.419616380527691
 20
5.01065469079699
 30
0.0
  0
SPLINE
  5
2BB
330
1F
100
AcDbEntity
  8
0
  6
Continuous
 62
     7
370
     0
100
AcDbSpline
210
0.0
220
0.0
230
1.0
 70
     8
 71
     3
 72
    11
 73
     7
 74
     0
 42
0.00000001
 43
0.00000001
 40
0.0
 40
0.0
 40
0.0
 40
0.0
 40
0.2799211259714512
 40
0.5598761390758751
 40
0.7799998789427292
 40
1.0
 40
1.0
 40
1.0
 40
1.0
 10
2.436740597707272
 20
5.062632463678655
 30
0.0
 10
2.433909116178022
 20
5.061039287185993
 30
0.0
 10
2.428245810341567
 20
5.057852741331399
 30
0.0
 10
2.421829041779157
 20
5.051416480277671
 30
0.0
 10
2.416623056562313
 20
5.044878775607792
 30
0.0
 10
2.414417450126245
 20
5.040278273471599
 30
0.0
 10
2.41331495665561
 20
5.037978668481402
 30
0.0
  0
LINE
  5
2BC
330
1F
100
AcDbEntity
  8
0
  6
Continuous
 62
     7
370
     0
100
AcDbLine
 10
2.4370432042
 20
5.0633979082
 30
0.0
 11
2.4367405977
 21
5.0626324637
 31
0.0
  0
LINE
  5
2BD
330
1F
100
AcDbEntity
  8
0
  6
Continuous
 62
     7
370
     0
100
AcDbLine
 10
2.4231943092
 20
5.0690763359
 30
0.0
 11
2.4370432042
 21
5.0633979082
 31
0.0
  0
SPLINE
  5
2BE
330
1F
100
AcDbEntity
  8
0
  6
Continuous
 62
     7
370
     0
100
AcDbSpline
210
0.0
220
0.0
230
1.0
 70
     8
 71
     3
 72
    10
 73
     6
 74
     0
 42
0.00000001
 43
0.00000001
 40
0.0
 40
0.0
 40
0.0
 40
0.0
 40
0.2801110178011603
 40
0.5601399776334639
 40
1.0
 40
1.0
 40
1.0
 40
1.0
 10
2.404218840901382
 20
5.04173461175909
 30
0.0
 10
2.405480390686822
 20
5.044603505247952
 30
0.0
 10
2.408003120689185
 20
5.050340451789001
 30
0.0
 10
2.414082753728398
 20
5.059802824627891
 30
0.0
 10
2.419738553703557
 20
5.065559155151584
 30
0.0
 10
2.423194309195153
 20
5.06907633590516
 30
0.0
  0
SPLINE
  5
2BF
330
1F
100
AcDbEntity
  8
0
  6
Continuous
 62
     7
370
     0
100
AcDbSpline
210
0.0
220
0.0
230
1.0
 70
     8
 71
     3
 72
    10
 73
     6
 74
     0
 42
0.00000001
 43
0.00000001
 40
0.0
 40
0.0
 40
0.0
 40
0.0
 40
0.2800306681766619
 40
0.5601066132552582
 40
1.0
 40
1.0
 40
1.0
 40
1.0
 10
2.40201156056674
 20
5.014392740948049
 30
0.0
 10
2.401415343131452
 20
5.016941401386352
 30
0.0
 10
2.400222811861156
 20
5.022039134344428
 30
0.0
 10
2.40056152374708
 20
5.03149531780186
 30
0.0
 10
2.402831754650872
 20
5.037851223126441
 30
0.0
 10
2.404218840901382
 20
5.04173461175909
 30
0.0
  0
SPLINE
  5
2C0
330
1F
100
AcDbEntity
  8
0
  6
Continuous
 62
     7
370
     0
100
AcDbSpline
210
0.0
220
0.0
230
1.0
 70
     8
 71
     3
 72
    10
 73
     6
 74
     0
 42
0.00000001
 43
0.00000001
 40
0.0
 40
0.0
 40
0.0
 40
0.0
 40
0.2803992726432886
 40
0.5608982697663407
 40
1.0
 40
1.0
 40
1.0
 40
1.0
 10
2.416554675896764
 20
4.99860367001141
 30
0.0
 10
2.414709625103504
 20
4.999535479776474
 30
0.0
 10
2.411018867321522
 20
5.001399430706337
 30
0.0
 10
2.405575444392159
 20
5.00656620300734
 30
0.0
 10
2.403362129510339
 20
5.011426797164128
 30
0.0
 10
2.40201156056674
 20
5.014392740948049
 30
0.0
  0
SPLINE
  5
2C1
330
1F
100
AcDbEntity
  8
0
  6
Continuous
 62
     7
370
     0
100
AcDbSpline
210
0.0
220
0.0
230
1.0
 70
     8
 71
     3
 72
    11
 73
     7
 74
     0
 42
0.00000001
 43
0.00000001
 40
0.0
 40
0.0
 40
0.0
 40
0.0
 40
0.2805852868930331
 40
0.5598719358070248
 40
0.779535034470411
 40
0.9999999999999999
 40
0.9999999999999999
 40
0.9999999999999999
 40
0.9999999999999999
 10
2.445801119706016
 20
5.008055787486409
 30
0.0
 10
2.443760183605764
 20
5.005670168540544
 30
0.0
 10
2.439687757506879
 20
5.000909972052304
 30
0.0
 10
2.431833279263417
 20
4.996448374705369
 30
0.0
 10
2.4235503948389
 20
4.996156468857047
 30
0.0
 10
2.418889412816529
 20
4.997786946107484
 30
0.0
 10
2.416554675896764
 20
4.99860367001141
 30
0.0
  0
SPLINE
  5
2C2
330
1F
100
AcDbEntity
  8
0
  6
Continuous
 62
     7
370
     0
100
AcDbSpline
210
0.0
220
0.0
230
1.0
 70
     8
 71
     3
 72
     9
 73
     5
 74
     0
 42
0.00000001
 43
0.00000001
 40
0.0
 40
0.0
 40
0.0
 40
0.0
 40
0.5600369766616691
 40
1.0
 40
1.0
 40
1.0
 40
1.0
 10
2.458653169571372
 20
5.027298231862717
 30
0.0
 10
2.456314406301048
 20
5.023665577950225
 30
0.0
 10
2.452138319064336
 20
5.017179124262569
 30
0.0
 10
2.44773737316808
 20
5.010843311031053
 30
0.0
 10
2.445801119706016
 20
5.008055787486409
 30
0.0
  0
CIRCLE
  5
2C3
330
1F
100
AcDbEntity
  8
0
  6
Continuous
 62
     7
370
     0
100
AcDbCircle
 10
2.2729588322
 20
5.09496339
 30
0.0
 40
0.2650000525150144
  0
SPLINE
  5
2C4
330
1F
100
AcDbEntity
  8
0
  6
Continuous
 62
     7
370
     0
100
AcDbSpline
210
0.0
220
0.0
230
1.0
 70
     8
 71
     3
 72
    10
 73
     6
 74
     0
 42
0.00000001
 43
0.00000001
 40
0.0
 40
0.0
 40
0.0
 40
0.0
 40
0.2804496307014359
 40
0.5604710092817103
 40
1.0
 40
1.0
 40
1.0
 40
1.0
 10
2.488089489520493
 20
5.102042075082128
 30
0.0
 10
2.485944703805845
 20
5.101833704877844
 30
0.0
 10
2.481658407506667
 20
5.101417282654692
 30
0.0
 10
2.4742520320732
 20
5.10420700637417
 30
0.0
 10
2.470520897425641
 20
5.108310935956544
 30
0.0
 10
2.468241777136293
 20
5.110817773704509
 30
0.0
  0
SPLINE
  5
2C5
330
1F
100
AcDbEntity
  8
0
  6
Continuous
 62
     7
370
     0
100
AcDbSpline
210
0.0
220
0.0
230
1.0
 70
     8
 71
     3
 72
    10
 73
     6
 74
     0
 42
0.00000001
 43
0.00000001
 40
0.0
 40
0.0
 40
0.0
 40
0.0
 40
0.2807019493912032
 40
0.5606959989918512
 40
1.0
 40
1.0
 40
1.0
 40
1.0
 10
2.502507994623358
 20
5.114110842329366
 30
0.0
 10
2.501828918867719
 20
5.112373526518512
 30
0.0
 10
2.500472479911648
 20
5.108903276218349
 30
0.0
 10
2.495629713226203
 20
5.104027463102861
 30
0.0
 10
2.49094849571489
 20
5.102794869279104
 30
0.0
 10
2.488089489520493
 20
5.102042075082128
 30
0.0
  0
SPLINE
  5
2C6
330
1F
100
AcDbEntity
  8
0
  6
Continuous
 62
     7
370
     0
100
AcDbSpline
210
0.0
220
0.0
230
1.0
 70
     8
 71
     3
 72
     9
 73
     5
 74
     0
 42
0.00000001
 43
0.00000001
 40
0.0
 40
0.0
 40
0.0
 40
0.0
 40
0.5611065964166632
 40
1.0
 40
1.0
 40
1.0
 40
1.0
 10
2.502027373508867
 20
5.138479960815229
 30
0.0
 10
2.502942990761672
 20
5.133925649308949
 30
0.0
 10
2.504574797014979
 20
5.125808989238716
 30
0.0
 10
2.503138413759295
 20
5.117679028478441
 30
0.0
 10
2.502507994623358
 20
5.114110842329366
 30
0.0
  0
LINE
  5
2C7
330
1F
100
AcDbEntity
  8
0
  6
Continuous
 62
     7
370
     0
100
AcDbLine
 10
2.497452618
 20
5.164718031
 30
0.0
 11
2.5020273735
 21
5.1384799608
 31
0.0
  0
LINE
  5
2C8
330
1F
100
AcDbEntity
  8
0
  6
Continuous
 62
     7
370
     0
100
AcDbLine
 10
2.4097310972
 20
5.1494095812
 30
0.0
 11
2.497452618
 21
5.164718031
 31
0.0
  0
LINE
  5
2C9
330
1F
100
AcDbEntity
  8
0
  6
Continuous
 62
     7
370
     0
100
AcDbLine
 10
2.415231492
 20
5.1178133996
 30
0.0
 11
2.4097310972
 21
5.1494095812
 31
0.0
  0
SPLINE
  5
2CA
330
1F
100
AcDbEntity
  8
0
  6
Continuous
 62
     7
370
     0
100
AcDbSpline
210
0.0
220
0.0
230
1.0
 70
     8
 71
     3
 72
    10
 73
     6
 74
     0
 42
0.00000001
 43
0.00000001
 40
0.0
 40
0.0
 40
0.0
 40
0.0
 40
0.2798586946627368
 40
0.5597524138143322
 40
0.9999999999999999
 40
0.9999999999999999
 40
0.9999999999999999
 40
0.9999999999999999
 10
2.427015518385552
 20
5.09271447616868
 30
0.0
 10
2.425182269524313
 20
5.094626788956223
 30
0.0
 10
2.421515542369606
 20
5.098451653858435
 30
0.0
 10
2.417421660098857
 20
5.107089855927183
 30
0.0
 10
2.416062434313532
 20
5.113744923692749
 30
0.0
 10
2.41523149201563
 20
5.117813399557109
 30
0.0
  0
SPLINE
  5
2CB
330
1F
100
AcDbEntity
  8
0
  6
Continuous
 62
     7
370
     0
100
AcDbSpline
210
0.0
220
0.0
230
1.0
 70
     8
 71
     3
 72
    11
 73
     7
 74
     0
 42
0.00000001
 43
0.00000001
 40
0.0
 40
0.0
 40
0.0
 40
0.0
 40
0.2800642106061949
 40
0.5598672407908915
 40
0.7799565304624051
 40
1.0
 40
1.0
 40
1.0
 40
1.0
 10
2.448376281624192
 20
5.08689378340982
 30
0.0
 10
2.446240201210296
 20
5.086634480794507
 30
0.0
 10
2.44197003243419
 20
5.086116117382594
 30
0.0
 10
2.436032391513741
 20
5.087288288158774
 30
0.0
 10
2.430940680016038
 20
5.089509851132343
 30
0.0
 10
2.428323814785905
 20
5.09164634196321
 30
0.0
 10
2.427015518385552
 20
5.09271447616868
 30
0.0
  0
SPLINE
  5
2CC
330
1F
100
AcDbEntity
  8
0
  6
Continuous
 62
     7
370
     0
100
AcDbSpline
210
0.0
220
0.0
230
1.0
 70
     8
 71
     3
 72
    11
 73
     7
 74
     0
 42
0.00000001
 43
0.00000001
 40
0.0
 40
0.0
 40
0.0
 40
0.0
 40
0.2802179316715085
 40
0.5596846420406341
 40
0.7796369671363838
 40
1.0
 40
1.0
 40
1.0
 40
1.0
 10
2.467778957482825
 20
5.110728748066274
 30
0.0
 10
2.467476468645581
 20
5.107585224477195
 30
0.0
 10
2.466872301897278
 20
5.101306604603711
 30
0.0
 10
2.462188652785179
 20
5.093596496990878
 30
0.0
 10
2.455608510885644
 20
5.08863717568579
 30
0.0
 10
2.450788523339005
 20
5.087475275425814
 30
0.0
 10
2.448376281624192
 20
5.08689378340982
 30
0.0
  0
LINE
  5
2CD
330
1F
100
AcDbEntity
  8
0
  6
Continuous
 62
     7
370
     0
100
AcDbLine
 10
2.4682417771
 20
5.1108177737
 30
0.0
 11
2.4677789575
 21
5.1107287481
 31
0.0
  0
LINE
  5
2CE
330
1F
100
AcDbEntity
  8
0
  6
Continuous
 62
     7
370
     0
100
AcDbLine
 10
2.3390606582
 20
5.320829401
 30
0.0
 11
2.3139973652
 21
5.2467788431
 31
0.0
  0
LINE
  5
2CF
330
1F
100
AcDbEntity
  8
0
  6
Continuous
 62
     7
370
     0
100
AcDbLine
 10
2.3276682548
 20
5.3246743699
 30
0.0
 11
2.3390606582
 21
5.320829401
 31
0.0
  0
LINE
  5
2D0
330
1F
100
AcDbEntity
  8
0
  6
Continuous
 62
     7
370
     0
100
AcDbLine
 10
2.2991338396
 20
5.2403704638
 30
0.0
 11
2.3276682548
 21
5.3246743699
 31
0.0
  0
LINE
  5
2D1
330
1F
100
AcDbEntity
  8
0
  6
Continuous
 62
     7
370
     0
100
AcDbLine
 10
2.3526781388
 20
5.2222494198
 30
0.0
 11
2.2991338396
 21
5.2403704638
 31
0.0
  0
LINE
  5
2D2
330
1F
100
AcDbEntity
  8
0
  6
Continuous
 62
     7
370
     0
100
AcDbLine
 10
2.3561492679
 20
5.2325024747
 30
0.0
 11
2.3526781388
 21
5.2222494198
 31
0.0
  0
LINE
  5
2D3
330
1F
100
AcDbEntity
  8
0
  6
Continuous
 62
     7
370
     0
100
AcDbLine
 10
2.3139973652
 20
5.2467788431
 30
0.0
 11
2.3561492679
 21
5.2325024747
 31
0.0
  0
SPLINE
  5
2D4
330
1F
100
AcDbEntity
  8
0
  6
Continuous
 62
     7
370
     0
100
AcDbSpline
210
0.0
220
0.0
230
1.0
 70
     8
 71
     3
 72
    11
 73
     7
 74
     0
 42
0.00000001
 43
0.00000001
 40
0.0
 40
0.0
 40
0.0
 40
0.0
 40
0.2801075185992692
 40
0.5600643741469894
 40
0.7800771871527231
 40
0.9999999999999999
 40
0.9999999999999999
 40
0.9999999999999999
 40
0.9999999999999999
 10
2.110784956507988
 20
5.196688061723614
 30
0.0
 10
2.108407200735702
 20
5.199201824780729
 30
0.0
 10
2.103652968128382
 20
5.204227998802679
 30
0.0
 10
2.098591662191404
 20
5.21248266340288
 30
0.0
 10
2.095331724064981
 20
5.220817995522306
 30
0.0
 10
2.094692371825053
 20
5.226223048856922
 30
0.0
 10
2.09437276110307
 20
5.228925022652824
 30
0.0
  0
SPLINE
  5
2D5
330
1F
100
AcDbEntity
  8
0
  6
Continuous
 62
     7
370
     0
100
AcDbSpline
210
0.0
220
0.0
230
1.0
 70
     8
 71
     3
 72
    10
 73
     6
 74
     0
 42
0.00000001
 43
0.00000001
 40
0.0
 40
0.0
 40
0.0
 40
0.0
 40
0.2799338420951137
 40
0.560065489423197
 40
1.0
 40
1.0
 40
1.0
 40
1.0
 10
2.143182103086719
 20
5.180916737248634
 30
0.0
 10
2.139753720321285
 20
5.181309648616002
 30
0.0
 10
2.132894532246409
 20
5.182095748987499
 30
0.0
 10
2.121535073306861
 20
5.1872677912396
 30
0.0
 10
2.114861977755524
 20
5.193115389571355
 30
0.0
 10
2.110784956507988
 20
5.196688061723614
 30
0.0
  0
SPLINE
  5
2D6
330
1F
100
AcDbEntity
  8
0
  6
Continuous
 62
     7
370
     0
100
AcDbSpline
210
0.0
220
0.0
230
1.0
 70
     8
 71
     3
 72
    11
 73
     7
 74
     0
 42
0.00000001
 43
0.00000001
 40
0.0
 40
0.0
 40
0.0
 40
0.0
 40
0.2800965706092675
 40
0.560046431836374
 40
0.7800609059523518
 40
1.0
 40
1.0
 40
1.0
 40
1.0
 10
2.17344318434146
 20
5.194409474712712
 30
0.0
 10
2.171106485838484
 20
5.192238201309459
 30
0.0
 10
2.166434312751814
 20
5.187896791775638
 30
0.0
 10
2.158571129971451
 20
5.183637554932673
 30
0.0
 10
2.150698582582971
 20
5.181177222586855
 30
0.0
 10
2.145687310047642
 20
5.181003555776224
 30
0.0
 10
2.143182103086719
 20
5.180916737248634
 30
0.0
  0
SPLINE
  5
2D7
330
1F
100
AcDbEntity
  8
0
  6
Continuous
 62
     7
370
     0
100
AcDbSpline
210
0.0
220
0.0
230
1.0
 70
     8
 71
     3
 72
    10
 73
     6
 74
     0
 42
0.00000001
 43
0.00000001
 40
0.0
 40
0.0
 40
0.0
 40
0.0
 40
0.2801446948665983
 40
0.5602656484784878
 40
1.0
 40
1.0
 40
1.0
 40
1.0
 10
2.186402042972952
 20
5.22491989558706
 30
0.0
 10
2.186302875909862
 20
5.221727423277486
 30
0.0
 10
2.186104550187734
 20
5.21534274920888
 30
0.0
 10
2.182066099694288
 20
5.204478130836885
 30
0.0
 10
2.176713127350299
 20
5.19822766500619
 30
0.0
 10
2.17344318434146
 20
5.194409474712712
 30
0.0
  0
SPLINE
  5
2D8
330
1F
100
AcDbEntity
  8
0
  6
Continuous
 62
     7
370
     0
100
AcDbSpline
210
0.0
220
0.0
230
1.0
 70
     8
 71
     3
 72
    11
 73
     7
 74
     0
 42
0.00000001
 43
0.00000001
 40
0.0
 40
0.0
 40
0.0
 40
0.0
 40
0.2801205070979341
 40
0.5600745093883163
 40
0.7801061831641405
 40
0.9999999999999999
 40
0.9999999999999999
 40
0.9999999999999999
 40
0.9999999999999999
 10
2.170096665500731
 20
5.257067684213062
 30
0.0
 10
2.172469143244437
 20
5.254562792475222
 30
0.0
 10
2.177212688521101
 20
5.249554497917727
 30
0.0
 10
2.182206230124356
 20
5.241300591141898
 30
0.0
 10
2.185513161956341
 20
5.233012367823182
 30
0.0
 10
2.186105811205786
 20
5.227616822742045
 30
0.0
 10
2.186402042972952
 20
5.22491989558706
 30
0.0
  0
SPLINE
  5
2D9
330
1F
100
AcDbEntity
  8
0
  6
Continuous
 62
     7
370
     0
100
AcDbSpline
210
0.0
220
0.0
230
1.0
 70
     8
 71
     3
 72
    10
 73
     6
 74
     0
 42
0.00000001
 43
0.00000001
 40
0.0
 40
0.0
 40
0.0
 40
0.0
 40
0.2799332523860865
 40
0.5601167124954678
 40
1.0
 40
1.0
 40
1.0
 40
1.0
 10
2.137574908694841
 20
5.272892541402962
 30
0.0
 10
2.141015486107235
 20
5.272496111276199
 30
0.0
 10
2.147899716161684
 20
5.271702896688637
 30
0.0
 10
2.159292194014395
 20
5.26649902536588
 30
0.0
 10
2.165999328293725
 20
5.260644294606848
 30
0.0
 10
2.170096665500731
 20
5.257067684213062
 30
0.0
  0
SPLINE
  5
2DA
330
1F
100
AcDbEntity
  8
0
  6
Continuous
 62
     7
370
     0
100
AcDbSpline
210
0.0
220
0.0
230
1.0
 70
     8
 71
     3
 72
    11
 73
     7
 74
     0
 42
0.00000001
 43
0.00000001
 40
0.0
 40
0.0
 40
0.0
 40
0.0
 40
0.2801014182865925
 40
0.5600332627627171
 40
0.7800530780537805
 40
0.9999999999999999
 40
0.9999999999999999
 40
0.9999999999999999
 40
0.9999999999999999
 10
2.107367222656607
 20
5.259328378097334
 30
0.0
 10
2.109696168432436
 20
5.261504869280823
 30
0.0
 10
2.114352650036895
 20
5.265856533996837
 30
0.0
 10
2.122209911124471
 20
5.270111697147863
 30
0.0
 10
2.130065550789704
 20
5.272597280224594
 30
0.0
 10
2.135072065884963
 20
5.272794131881581
 30
0.0
 10
2.137574908694841
 20
5.272892541402962
 30
0.0
  0
SPLINE
  5
2DB
330
1F
100
AcDbEntity
  8
0
  6
Continuous
 62
     7
370
     0
100
AcDbSpline
210
0.0
220
0.0
230
1.0
 70
     8
 71
     3
 72
    11
 73
     7
 74
     0
 42
0.00000001
 43
0.00000001
 40
0.0
 40
0.0
 40
0.0
 40
0.0
 40
0.2797137758389149
 40
0.5595872814459215
 40
0.779775694171492
 40
1.0
 40
1.0
 40
1.0
 40
1.0
 10
2.09437276110307
 20
5.228925022652824
 30
0.0
 10
2.094491053498106
 20
5.232109996813404
 30
0.0
 10
2.094727705838721
 20
5.238481763905135
 30
0.0
 10
2.098068195613416
 20
5.246801266610664
 30
0.0
 10
2.102314843951278
 20
5.253792317546173
 30
0.0
 10
2.105683004921152
 20
5.257482924320287
 30
0.0
 10
2.107367222656607
 20
5.259328378097334
 30
0.0
  0
LINE
  5
2DC
330
1F
100
AcDbEntity
  8
0
  6
Continuous
 62
     7
370
     0
100
AcDbLine
 10
2.0835973772
 20
4.9701861583
 30
0.0
 11
2.0733442124
 21
4.9656647705
 31
0.0
  0
LINE
  5
2DD
330
1F
100
AcDbEntity
  8
0
  6
Continuous
 62
     7
370
     0
100
AcDbLine
 10
2.0705317099
 20
4.9998064694
 30
0.0
 11
2.0835973772
 21
4.9701861583
 31
0.0
  0
LINE
  5
2DE
330
1F
100
AcDbEntity
  8
0
  6
Continuous
 62
     7
370
     0
100
AcDbLine
 10
2.1423038641
 20
5.0314558905
 30
0.0
 11
2.0705317099
 21
4.9998064694
 31
0.0
  0
LINE
  5
2DF
330
1F
100
AcDbEntity
  8
0
  6
Continuous
 62
     7
370
     0
100
AcDbLine
 10
2.1372840904
 20
5.0428483856
 30
0.0
 11
2.1423038641
 21
5.0314558905
 31
0.0
  0
LINE
  5
2E0
330
1F
100
AcDbEntity
  8
0
  6
Continuous
 62
     7
370
     0
100
AcDbLine
 10
2.0655119362
 20
5.0111988178
 30
0.0
 11
2.1372840904
 21
5.0428483856
 31
0.0
  0
LINE
  5
2E1
330
1F
100
AcDbEntity
  8
0
  6
Continuous
 62
     7
370
     0
100
AcDbLine
 10
2.0524462688
 20
5.040819129
 30
0.0
 11
2.0655119362
 21
5.0111988178
 31
0.0
  0
LINE
  5
2E2
330
1F
100
AcDbEntity
  8
0
  6
Continuous
 62
     7
370
     0
100
AcDbLine
 10
2.0421931039
 20
5.0362977412
 30
0.0
 11
2.0524462688
 21
5.040819129
 31
0.0
  0
LINE
  5
2E3
330
1F
100
AcDbEntity
  8
0
  6
Continuous
 62
     7
370
     0
100
AcDbLine
 10
2.0733442124
 20
4.9656647705
 30
0.0
 11
2.0421931039
 21
5.0362977412
 31
0.0
  0
SPLINE
  5
2E4
330
1F
100
AcDbEntity
  8
0
  6
Continuous
 62
     7
370
     0
100
AcDbSpline
210
0.0
220
0.0
230
1.0
 70
     8
 71
     3
 72
     9
 73
     5
 74
     0
 42
0.00000001
 43
0.00000001
 40
0.0
 40
0.0
 40
0.0
 40
0.0
 40
0.5599799942347059
 40
1.0
 40
1.0
 40
1.0
 40
1.0
 10
2.142460273092027
 20
4.969203062983065
 30
0.0
 10
2.143204444470294
 20
4.968608184319558
 30
0.0
 10
2.144533369406771
 20
4.967545863040888
 30
0.0
 10
2.145788517842034
 20
4.96639753514425
 30
0.0
 10
2.146340808263754
 20
4.96589224789655
 30
0.0
  0
LINE
  5
2E5
330
1F
100
AcDbEntity
  8
0
  6
Continuous
 62
     7
370
     0
100
AcDbLine
 10
2.1511914864
 20
4.9784950223
 30
0.0
 11
2.1424602731
 21
4.969203063
 31
0.0
  0
LINE
  5
2E6
330
1F
100
AcDbEntity
  8
0
  6
Continuous
 62
     7
370
     0
100
AcDbLine
 10
2.167140853
 20
4.9635158353
 30
0.0
 11
2.1511914864
 21
4.9784950223
 31
0.0
  0
LINE
  5
2E7
330
1F
100
AcDbEntity
  8
0
  6
Continuous
 62
     7
370
     0
100
AcDbLine
 10
2.1703449601
 20
4.9669335692
 30
0.0
 11
2.167140853
 21
4.9635158353
 31
0.0
  0
LINE
  5
2E8
330
1F
100
AcDbEntity
  8
0
  6
Continuous
 62
     7
370
     0
100
AcDbLine
 10
2.1504082588
 20
4.985650953
 30
0.0
 11
2.1703449601
 21
4.9669335692
 31
0.0
  0
LINE
  5
2E9
330
1F
100
AcDbEntity
  8
0
  6
Continuous
 62
     7
370
     0
100
AcDbLine
 10
2.1349039012
 20
4.9691319305
 30
0.0
 11
2.1504082588
 21
4.985650953
 31
0.0
  0
SPLINE
  5
2EA
330
1F
100
AcDbEntity
  8
0
  6
Continuous
 62
     7
370
     0
100
AcDbSpline
210
0.0
220
0.0
230
1.0
 70
     8
 71
     3
 72
     9
 73
     5
 74
     0
 42
0.00000001
 43
0.00000001
 40
0.0
 40
0.0
 40
0.0
 40
0.0
 40
0.5599113011573318
 40
1.0
 40
1.0
 40
1.0
 40
1.0
 10
2.142219962534782
 20
4.963337784072601
 30
0.0
 10
2.140909781725316
 20
4.964489587618281
 30
0.0
 10
2.138569802505824
 20
4.966546705492666
 30
0.0
 10
2.136024194522401
 20
4.96834189003989
 30
0.0
 10
2.134903901217214
 20
4.969131930471461
 30
0.0
  0
SPLINE
  5
2EB
330
1F
100
AcDbEntity
  8
0
  6
Continuous
 62
     7
370
     0
100
AcDbSpline
210
0.0
220
0.0
230
1.0
 70
     8
 71
     3
 72
     9
 73
     5
 74
     0
 42
0.00000001
 43
0.00000001
 40
0.0
 40
0.0
 40
0.0
 40
0.0
 40
0.5577461164053987
 40
1.0
 40
1.0
 40
1.0
 40
1.0
 10
2.14713293661302
 20
4.955728071980644
 30
0.0
 10
2.146523438887178
 20
4.957346615722275
 30
0.0
 10
2.145430651850364
 20
4.960248552094443
 30
0.0
 10
2.143204490872673
 20
4.962390499509733
 30
0.0
 10
2.142219962534782
 20
4.963337784072601
 30
0.0
  0
SPLINE
  5
2EC
330
1F
100
AcDbEntity
  8
0
  6
Continuous
 62
     7
370
     0
100
AcDbSpline
210
0.0
220
0.0
230
1.0
 70
     8
 71
     3
 72
     9
 73
     5
 74
     0
 42
0.00000001
 43
0.00000001
 40
0.0
 40
0.0
 40
0.0
 40
0.0
 40
0.5604362621095506
 40
1.0
 40
1.0
 40
1.0
 40
1.0
 10
2.144649751965647
 20
4.948696806539756
 30
0.0
 10
2.145601506551934
 20
4.949854796596276
 30
0.0
 10
2.147299745318112
 20
4.951921026308397
 30
0.0
 10
2.147183870834266
 20
4.954565609227544
 30
0.0
 10
2.14713293661302
 20
4.955728071980644
 30
0.0
  0
SPLINE
  5
2ED
330
1F
100
AcDbEntity
  8
0
  6
Continuous
 62
     7
370
     0
100
AcDbSpline
210
0.0
220
0.0
230
1.0
 70
     8
 71
     3
 72
     9
 73
     5
 74
     0
 42
0.00000001
 43
0.00000001
 40
0.0
 40
0.0
 40
0.0
 40
0.0
 40
0.5579459034980182
 40
1.0
 40
1.0
 40
1.0
 40
1.0
 10
2.137484993900211
 20
4.944905223673778
 30
0.0
 10
2.139021002975823
 20
4.945245733055771
 30
0.0
 10
2.14177397430509
 20
4.945856024089109
 30
0.0
 10
2.143768197453537
 20
4.947825979625131
 30
0.0
 10
2.144649751965647
 20
4.948696806539756
 30
0.0
  0
SPLINE
  5
2EE
330
1F
100
AcDbEntity
  8
0
  6
Continuous
 62
     7
370
     0
100
AcDbSpline
210
0.0
220
0.0
230
1.0
 70
     8
 71
     3
 72
     9
 73
     5
 74
     0
 42
0.00000001
 43
0.00000001
 40
0.0
 40
0.0
 40
0.0
 40
0.0
 40
0.5604496674276067
 40
0.9999999999999999
 40
0.9999999999999999
 40
0.9999999999999999
 40
0.9999999999999999
 10
2.130008728599999
 20
4.948002494560507
 30
0.0
 10
2.131238102535117
 20
4.946988415051921
 30
0.0
 10
2.133431651762758
 20
4.945179011696861
 30
0.0
 10
2.136247351947558
 20
4.944988821734837
 30
0.0
 10
2.137484993900211
 20
4.944905223673778
 30
0.0
  0
SPLINE
  5
2EF
330
1F
100
AcDbEntity
  8
0
  6
Continuous
 62
     7
370
     0
100
AcDbSpline
210
0.0
220
0.0
230
1.0
 70
     8
 71
     3
 72
     9
 73
     5
 74
     0
 42
0.00000001
 43
0.00000001
 40
0.0
 40
0.0
 40
0.0
 40
0.0
 40
0.5603154058206069
 40
1.0
 40
1.0
 40
1.0
 40
1.0
 10
2.124437127963605
 20
4.959661919869832
 30
0.0
 10
2.124968639297236
 20
4.957228495102246
 30
0.0
 10
2.12591723240767
 20
4.952885539791174
 30
0.0
 10
2.12875917168303
 20
4.949493793258351
 30
0.0
 10
2.130008728599999
 20
4.948002494560507
 30
0.0
  0
LINE
  5
2F0
330
1F
100
AcDbEntity
  8
0
  6
Continuous
 62
     7
370
     0
100
AcDbLine
 10
2.1241345215
 20
4.9599467432
 30
0.0
 11
2.124437128
 21
4.9596619199
 31
0.0
  0
LINE
  5
2F1
330
1F
100
AcDbEntity
  8
0
  6
Continuous
 62
     7
370
     0
100
AcDbLine
 10
2.119586459
 20
4.9551050392
 30
0.0
 11
2.1241345215
 21
4.9599467432
 31
0.0
  0
SPLINE
  5
2F2
330
1F
100
AcDbEntity
  8
0
  6
Continuous
 62
     7
370
     0
100
AcDbSpline
210
0.0
220
0.0
230
1.0
 70
     8
 71
     3
 72
     9
 73
     5
 74
     0
 42
0.00000001
 43
0.00000001
 40
0.0
 40
0.0
 40
0.0
 40
0.0
 40
0.5598794533020844
 40
0.9999999999999999
 40
0.9999999999999999
 40
0.9999999999999999
 40
0.9999999999999999
 10
2.126973726160606
 20
4.944424602559288
 30
0.0
 10
2.125287678151417
 20
4.94621097332148
 30
0.0
 10
2.122276229884752
 20
4.949401607933372
 30
0.0
 10
2.120408489790374
 20
4.95336199253984
 30
0.0
 10
2.119586458998946
 20
4.955105039177973
 30
0.0
  0
SPLINE
  5
2F3
330
1F
100
AcDbEntity
  8
0
  6
Continuous
 62
     7
370
     0
100
AcDbSpline
210
0.0
220
0.0
230
1.0
 70
     8
 71
     3
 72
     9
 73
     5
 74
     0
 42
0.00000001
 43
0.00000001
 40
0.0
 40
0.0
 40
0.0
 40
0.0
 40
0.5583284466040577
 40
1.0
 40
1.0
 40
1.0
 40
1.0
 10
2.138704338980899
 20
4.939422593676254
 30
0.0
 10
2.136238668193264
 20
4.939731577711824
 30
0.0
 10
2.131822502757612
 20
4.940284986798268
 30
0.0
 10
2.128459200911512
 20
4.943156386841689
 30
0.0
 10
2.126973726160606
 20
4.944424602559288
 30
0.0
  0
SPLINE
  5
2F4
330
1F
100
AcDbEntity
  8
0
  6
Continuous
 62
     7
370
     0
100
AcDbSpline
210
0.0
220
0.0
230
1.0
 70
     8
 71
     3
 72
     9
 73
     5
 74
     0
 42
0.00000001
 43
0.00000001
 40
0.0
 40
0.0
 40
0.0
 40
0.0
 40
0.559668895125733
 40
1.0
 40
1.0
 40
1.0
 40
1.0
 10
2.149215615887064
 20
4.944424602559288
 30
0.0
 10
2.147502459666858
 20
4.942938102405098
 30
0.0
 10
2.144441442277601
 20
4.940282067440257
 30
0.0
 10
2.140458258635113
 20
4.939685347865782
 30
0.0
 10
2.138704338980899
 20
4.939422593676254
 30
0.0
  0
SPLINE
  5
2F5
330
1F
100
AcDbEntity
  8
0
  6
Continuous
 62
     7
370
     0
100
AcDbSpline
210
0.0
220
0.0
230
1.0
 70
     8
 71
     3
 72
    10
 73
     6
 74
     0
 42
0.00000001
 43
0.00000001
 40
0.0
 40
0.0
 40
0.0
 40
0.0
 40
0.2801811538408395
 40
0.5602871556268715
 40
1.0
 40
1.0
 40
1.0
 40
1.0
 10
2.152900344154102
 20
4.955879283567168
 30
0.0
 10
2.153059567749742
 20
4.954713517948211
 30
0.0
 10
2.153377972233006
 20
4.952382299399717
 30
0.0
 10
2.152331055215329
 20
4.948206344664664
 30
0.0
 10
2.150397039991027
 20
4.94585869926524
 30
0.0
 10
2.149215615887064
 20
4.944424602559288
 30
0.0
  0
SPLINE
  5
2F6
330
1F
100
AcDbEntity
  8
0
  6
Continuous
 62
     7
370
     0
100
AcDbSpline
210
0.0
220
0.0
230
1.0
 70
     8
 71
     3
 72
     9
 73
     5
 74
     0
 42
0.00000001
 43
0.00000001
 40
0.0
 40
0.0
 40
0.0
 40
0.0
 40
0.5607439471025607
 40
1.0
 40
1.0
 40
1.0
 40
1.0
 10
2.146340808263754
 20
4.96589224789655
 30
0.0
 10
2.148001096682953
 20
4.964293279281192
 30
0.0
 10
2.150961963987502
 20
4.961441766351596
 30
0.0
 10
2.152308757119063
 20
4.957576934396761
 30
0.0
 10
2.152900344154102
 20
4.955879283567168
 30
0.0
  0
SPLINE
  5
2F7
330
1F
100
AcDbEntity
  8
0
  6
Continuous
 62
     7
370
     0
100
AcDbSpline
210
0.0
220
0.0
230
1.0
 70
     8
 71
     3
 72
     9
 73
     5
 74
     0
 42
0.00000001
 43
0.00000001
 40
0.0
 40
0.0
 40
0.0
 40
0.0
 40
0.5611431695887731
 40
1.0
 40
1.0
 40
1.0
 40
1.0
 10
2.238571270934579
 20
4.919908672436071
 30
0.0
 10
2.240855023912558
 20
4.921219327159106
 30
0.0
 10
2.244924846199894
 20
4.923555014010637
 30
0.0
 10
2.249577351048301
 20
4.923272489491108
 30
0.0
 10
2.251619134579545
 20
4.923148501675954
 30
0.0
  0
SPLINE
  5
2F8
330
1F
100
AcDbEntity
  8
0
  6
Continuous
 62
     7
370
     0
100
AcDbSpline
210
0.0
220
0.0
230
1.0
 70
     8
 71
     3
 72
    10
 73
     6
 74
     0
 42
0.00000001
 43
0.00000001
 40
0.0
 40
0.0
 40
0.0
 40
0.0
 40
0.2813648466536025
 40
0.5622244790777076
 40
1.0
 40
1.0
 40
1.0
 40
1.0
 10
2.230543185550706
 20
4.927251454278295
 30
0.0
 10
2.231588247432605
 20
4.926979484277107
 30
0.0
 10
2.233676494699961
 20
4.926436032619725
 30
0.0
 10
2.236945949197826
 20
4.924150861543097
 30
0.0
 10
2.23795598253764
 20
4.921514612771543
 30
0.0
 10
2.238571270934579
 20
4.919908672436071
 30
0.0
  0
SPLINE
  5
2F9
330
1F
100
AcDbEntity
  8
0
  6
Continuous
 62
     7
370
     0
100
AcDbSpline
210
0.0
220
0.0
230
1.0
 70
     8
 71
     3
 72
     9
 73
     5
 74
     0
 42
0.00000001
 43
0.00000001
 40
0.0
 40
0.0
 40
0.0
 40
0.0
 40
0.5610006315807291
 40
1.0
 40
1.0
 40
1.0
 40
1.0
 10
2.219035077243356
 20
4.924492392817875
 30
0.0
 10
2.221057684606363
 20
4.925610438984006
 30
0.0
 10
2.224663041265781
 20
4.927603388908111
 30
0.0
 10
2.228749314278802
 20
4.927358819912779
 30
0.0
 10
2.230543185550706
 20
4.927251454278295
 30
0.0
  0
LINE
  5
2FA
330
1F
100
AcDbEntity
  8
0
  6
Continuous
 62
     7
370
     0
100
AcDbLine
 10
2.219747099
 20
4.9281593105
 30
0.0
 11
2.2190350772
 21
4.9244923928
 31
0.0
  0
LINE
  5
2FB
330
1F
100
AcDbEntity
  8
0
  6
Continuous
 62
     7
370
     0
100
AcDbLine
 10
2.2140508973
 20
4.9292719109
 30
0.0
 11
2.219747099
 21
4.9281593105
 31
0.0
  0
LINE
  5
2FC
330
1F
100
AcDbEntity
  8
0
  6
Continuous
 62
     7
370
     0
100
AcDbLine
 10
2.2076337685
 20
4.8962338659
 30
0.0
 11
2.2140508973
 21
4.9292719109
 31
0.0
  0
LINE
  5
2FD
330
1F
100
AcDbEntity
  8
0
  6
Continuous
 62
     7
370
     0
100
AcDbLine
 10
2.2133299748
 20
4.8951214121
 30
0.0
 11
2.2076337685
 21
4.8962338659
 31
0.0
  0
LINE
  5
2FE
330
1F
100
AcDbEntity
  8
0
  6
Continuous
 62
     7
370
     0
100
AcDbLine
 10
2.2181895445
 20
4.9201223633
 30
0.0
 11
2.2133299748
 21
4.8951214121
 31
0.0
  0
SPLINE
  5
2FF
330
1F
100
AcDbEntity
  8
0
  6
Continuous
 62
     7
370
     0
100
AcDbSpline
210
0.0
220
0.0
230
1.0
 70
     8
 71
     3
 72
     9
 73
     5
 74
     0
 42
0.00000001
 43
0.00000001
 40
0.0
 40
0.0
 40
0.0
 40
0.0
 40
0.5574545400933653
 40
1.0
 40
1.0
 40
1.0
 40
1.0
 10
2.227890891606899
 20
4.922445389798362
 30
0.0
 10
2.225984828200432
 20
4.922413921480085
 30
0.0
 10
2.222565601574081
 20
4.922357471463064
 30
0.0
 10
2.219532035433752
 20
4.920808051895808
 30
0.0
 10
2.218189544511022
 20
4.920122363300829
 30
0.0
  0
SPLINE
  5
300
330
1F
100
AcDbEntity
  8
0
  6
Continuous
 62
     7
370
     0
100
AcDbSpline
210
0.0
220
0.0
230
1.0
 70
     8
 71
     3
 72
    10
 73
     6
 74
     0
 42
0.00000001
 43
0.00000001
 40
0.0
 40
0.0
 40
0.0
 40
0.0
 40
0.2797917817256629
 40
0.5591827068563802
 40
1.0
 40
1.0
 40
1.0
 40
1.0
 10
2.232875066945947
 20
4.918796218620566
 30
0.0
 10
2.232642126898527
 20
4.919367921608984
 30
0.0
 10
2.232176580535983
 20
4.920510508509177
 30
0.0
 10
2.230367230732276
 20
4.921878036744899
 30
0.0
 10
2.228831106183943
 20
4.922229977617643
 30
0.0
 10
2.227890891606899
 20
4.922445389798362
 30
0.0
  0
SPLINE
  5
301
330
1F
100
AcDbEntity
  8
0
  6
Continuous
 62
     7
370
     0
100
AcDbSpline
210
0.0
220
0.0
230
1.0
 70
     8
 71
     3
 72
     9
 73
     5
 74
     0
 42
0.00000001
 43
0.00000001
 40
0.0
 40
0.0
 40
0.0
 40
0.0
 40
0.5612321038662414
 40
1.0
 40
1.0
 40
1.0
 40
1.0
 10
2.232412251875759
 20
4.911204252990267
 30
0.0
 10
2.23270649923829
 20
4.912614468967147
 30
0.0
 10
2.233230787425839
 20
4.915127183345326
 30
0.0
 10
2.232983547769709
 20
4.917677306464627
 30
0.0
 10
2.232875066945947
 20
4.918796218620566
 30
0.0
  0
LINE
  5
302
330
1F
100
AcDbEntity
  8
0
  6
Continuous
 62
     7
370
     0
100
AcDbLine
 10
2.2287097176
 20
4.8921397132
 30
0.0
 11
2.2324122519
 21
4.911204253
 31
0.0
  0
LINE
  5
303
330
1F
100
AcDbEntity
  8
0
  6
Continuous
 62
     7
370
     0
100
AcDbLine
 10
2.2344059238
 20
4.8910272594
 30
0.0
 11
2.2287097176
 21
4.8921397132
 31
0.0
  0
LINE
  5
304
330
1F
100
AcDbEntity
  8
0
  6
Continuous
 62
     7
370
     0
100
AcDbLine
 10
2.2385712709
 20
4.9124591185
 30
0.0
 11
2.2344059238
 21
4.8910272594
 31
0.0
  0
SPLINE
  5
305
330
1F
100
AcDbEntity
  8
0
  6
Continuous
 62
     7
370
     0
100
AcDbSpline
210
0.0
220
0.0
230
1.0
 70
     8
 71
     3
 72
     9
 73
     5
 74
     0
 42
0.00000001
 43
0.00000001
 40
0.0
 40
0.0
 40
0.0
 40
0.0
 40
0.5599770092732175
 40
1.0
 40
1.0
 40
1.0
 40
1.0
 10
2.239025187565896
 20
4.915921438496937
 30
0.0
 10
2.238968719145789
 20
4.915271355659676
 30
0.0
 10
2.238867878541316
 20
4.914110445789277
 30
0.0
 10
2.238661904325177
 20
4.912963709031629
 30
0.0
 10
2.238571270934579
 20
4.912459118493953
 30
0.0
  0
SPLINE
  5
306
330
1F
100
AcDbEntity
  8
0
  6
Continuous
 62
     7
370
     0
100
AcDbSpline
210
0.0
220
0.0
230
1.0
 70
     8
 71
     3
 72
     9
 73
     5
 74
     0
 42
0.00000001
 43
0.00000001
 40
0.0
 40
0.0
 40
0.0
 40
0.0
 40
0.5572309135768913
 40
1.0
 40
1.0
 40
1.0
 40
1.0
 10
2.248966840635737
 20
4.918351237094363
 30
0.0
 10
2.247012150375322
 20
4.918310493326079
 30
0.0
 10
2.243504286377132
 20
4.918237375041914
 30
0.0
 10
2.240399771002228
 20
4.916632172541549
 30
0.0
 10
2.239025187565896
 20
4.915921438496937
 30
0.0
  0
SPLINE
  5
307
330
1F
100
AcDbEntity
  8
0
  6
Continuous
 62
     7
370
     0
100
AcDbSpline
210
0.0
220
0.0
230
1.0
 70
     8
 71
     3
 72
    10
 73
     6
 74
     0
 42
0.00000001
 43
0.00000001
 40
0.0
 40
0.0
 40
0.0
 40
0.0
 40
0.2798286006534409
 40
0.5592659535567998
 40
0.9999999999999999
 40
0.9999999999999999
 40
0.9999999999999999
 40
0.9999999999999999
 10
2.253942116390094
 20
4.914675372891593
 30
0.0
 10
2.253709031283852
 20
4.915247348840149
 30
0.0
 10
2.253243186963799
 20
4.916390501018065
 30
0.0
 10
2.251448833658914
 20
4.917781247390278
 30
0.0
 10
2.249909121363523
 20
4.91813484232283
 30
0.0
 10
2.248966840635737
 20
4.918351237094363
 30
0.0
  0
SPLINE
  5
308
330
1F
100
AcDbEntity
  8
0
  6
Continuous
 62
     7
370
     0
100
AcDbSpline
210
0.0
220
0.0
230
1.0
 70
     8
 71
     3
 72
     9
 73
     5
 74
     0
 42
0.00000001
 43
0.00000001
 40
0.0
 40
0.0
 40
0.0
 40
0.0
 40
0.5612342414430678
 40
1.0
 40
1.0
 40
1.0
 40
1.0
 10
2.253488200904598
 20
4.907110100286268
 30
0.0
 10
2.253775265087616
 20
4.908515731459277
 30
0.0
 10
2.254286752380836
 20
4.911020267122309
 30
0.0
 10
2.254047216522624
 20
4.913560712464121
 30
0.0
 10
2.253942116390094
 20
4.914675372891593
 30
0.0
  0
LINE
  5
309
330
1F
100
AcDbEntity
  8
0
  6
Continuous
 62
     7
370
     0
100
AcDbLine
 10
2.2497856689
 20
4.8880455605
 30
0.0
 11
2.2534882009
 21
4.9071101003
 31
0.0
  0
LINE
  5
30A
330
1F
100
AcDbEntity
  8
0
  6
Continuous
 62
     7
370
     0
100
AcDbLine
 10
2.2554818717
 20
4.8869331067
 30
0.0
 11
2.2497856689
 21
4.8880455605
 31
0.0
  0
LINE
  5
30B
330
1F
100
AcDbEntity
  8
0
  6
Continuous
 62
     7
370
     0
100
AcDbLine
 10
2.259673921
 20
4.908516324
 30
0.0
 11
2.2554818717
 21
4.8869331067
 31
0.0
  0
SPLINE
  5
30C
330
1F
100
AcDbEntity
  8
0
  6
Continuous
 62
     7
370
     0
100
AcDbSpline
210
0.0
220
0.0
230
1.0
 70
     8
 71
     3
 72
    11
 73
     7
 74
     0
 42
0.00000001
 43
0.00000001
 40
0.0
 40
0.0
 40
0.0
 40
0.0
 40
0.2800038152803699
 40
0.5576372860960435
 40
0.7785250852799117
 40
1.0
 40
1.0
 40
1.0
 40
1.0
 10
2.251619134579545
 20
4.923148501675954
 30
0.0
 10
2.253372461267876
 20
4.922667685315691
 30
0.0
 10
2.256864272031745
 20
4.921710122898268
 30
0.0
 10
2.259761267816538
 20
4.917240073169697
 30
0.0
 10
2.260295645793225
 20
4.912670829168348
 30
0.0
 10
2.259881345893771
 20
4.909902383868447
 30
0.0
 10
2.259673921009131
 20
4.908516324041451
 30
0.0
  0
LINE
  5
30D
330
1F
100
AcDbEntity
  8
0
  6
Continuous
 62
     7
370
     0
100
AcDbLine
 10
2.3415352629
 20
4.9206808635
 30
0.0
 11
2.3484864081
 21
4.9053011345
 31
0.0
  0
LINE
  5
30E
330
1F
100
AcDbEntity
  8
0
  6
Continuous
 62
     7
370
     0
100
AcDbLine
 10
2.3631808358
 20
4.930453444
 30
0.0
 11
2.3415352629
 21
4.9206808635
 31
0.0
  0
LINE
  5
30F
330
1F
100
AcDbEntity
  8
0
  6
Continuous
 62
     7
370
     0
100
AcDbLine
 10
2.3611248587
 20
4.9350104713
 30
0.0
 11
2.3631808358
 21
4.930453444
 31
0.0
  0
LINE
  5
310
330
1F
100
AcDbEntity
  8
0
  6
Continuous
 62
     7
370
     0
100
AcDbLine
 10
2.3394792904
 20
4.9252378909
 30
0.0
 11
2.3611248587
 21
4.9350104713
 31
0.0
  0
LINE
  5
311
330
1F
100
AcDbEntity
  8
0
  6
Continuous
 62
     7
370
     0
100
AcDbLine
 10
2.3343349065
 20
4.9366302393
 30
0.0
 11
2.3394792904
 21
4.9252378909
 31
0.0
  0
LINE
  5
312
330
1F
100
AcDbEntity
  8
0
  6
Continuous
 62
     7
370
     0
100
AcDbLine
 10
2.3559804748
 20
4.9464028197
 30
0.0
 11
2.3343349065
 21
4.9366302393
 31
0.0
  0
LINE
  5
313
330
1F
100
AcDbEntity
  8
0
  6
Continuous
 62
     7
370
     0
100
AcDbLine
 10
2.3539245069
 20
4.9509598471
 30
0.0
 11
2.3559804748
 21
4.9464028197
 31
0.0
  0
LINE
  5
314
330
1F
100
AcDbEntity
  8
0
  6
Continuous
 62
     7
370
     0
100
AcDbLine
 10
2.3271523516
 20
4.9388731867
 30
0.0
 11
2.3539245069
 21
4.9509598471
 31
0.0
  0
LINE
  5
315
330
1F
100
AcDbEntity
  8
0
  6
Continuous
 62
     7
370
     0
100
AcDbLine
 10
2.3454158027
 20
4.8984301739
 30
0.0
 11
2.3271523516
 21
4.9388731867
 31
0.0
  0
LINE
  5
316
330
1F
100
AcDbEntity
  8
0
  6
Continuous
 62
     7
370
     0
100
AcDbLine
 10
2.3721879534
 20
4.9105166876
 30
0.0
 11
2.3454158027
 21
4.8984301739
 31
0.0
  0
LINE
  5
317
330
1F
100
AcDbEntity
  8
0
  6
Continuous
 62
     7
370
     0
100
AcDbLine
 10
2.3701319763
 20
4.915073715
 30
0.0
 11
2.3721879534
 21
4.9105166876
 31
0.0
  0
LINE
  5
318
330
1F
100
AcDbEntity
  8
0
  6
Continuous
 62
     7
370
     0
100
AcDbLine
 10
2.3484864081
 20
4.9053011345
 30
0.0
 11
2.3701319763
 21
4.915073715
 31
0.0
  0
CIRCLE
  5
319
330
1F
100
AcDbEntity
  8
0
  6
Continuous
 62
     7
370
     0
100
AcDbCircle
 10
2.2729588917
 20
5.0949634285
 30
0.0
 40
0.2850000953990425
  0
SPLINE
  5
31A
330
1F
100
AcDbEntity
  8
0
  6
Continuous
 62
     7
370
     0
100
AcDbSpline
210
0.0
220
0.0
230
1.0
 70
     8
 71
     3
 72
    12
 73
     8
 74
     0
 42
0.00000001
 43
0.00000001
 40
0.0
 40
0.0
 40
0.0
 40
0.0
 40
0.1873380416106024
 40
0.3744347178830963
 40
0.5611488672165814
 40
0.7802796152514138
 40
0.9999999999999999
 40
0.9999999999999999
 40
0.9999999999999999
 40
0.9999999999999999
 10
2.161142943101563
 20
5.247953922829345
 30
0.0
 10
2.158691979637296
 20
5.250195244799467
 30
0.0
 10
2.153793210517077
 20
5.254675001032384
 30
0.0
 10
2.145063949089948
 20
5.25966430540849
 30
0.0
 10
2.134733007633632
 20
5.262171072172976
 30
0.0
 10
2.123225369677032
 20
5.260364201160872
 30
0.0
 10
2.117236655320056
 20
5.255225942876822
 30
0.0
 10
2.114238274948292
 20
5.252653361874358
 30
0.0
  0
SPLINE
  5
31B
330
1F
100
AcDbEntity
  8
0
  6
Continuous
 62
     7
370
     0
100
AcDbSpline
210
0.0
220
0.0
230
1.0
 70
     8
 71
     3
 72
    12
 73
     8
 74
     0
 42
0.00000001
 43
0.00000001
 40
0.0
 40
0.0
 40
0.0
 40
0.0
 40
0.1866354382927373
 40
0.372900512437123
 40
0.5594147974607783
 40
0.7794460138485403
 40
1.0
 40
1.0
 40
1.0
 40
1.0
 10
2.166643337893866
 20
5.201156063442211
 30
0.0
 10
2.168796245486228
 20
5.203704575346105
 30
0.0
 10
2.173097788385935
 20
5.208796541821537
 30
0.0
 10
2.175682605808011
 20
5.218719717307722
 30
0.0
 10
2.174362026830884
 20
5.229325499496738
 30
0.0
 10
2.169167027778161
 20
5.239398890029327
 30
0.0
 10
2.163819752903362
 20
5.245099990377637
 30
0.0
 10
2.161142943101563
 20
5.247953922829345
 30
0.0
  0
SPLINE
  5
31C
330
1F
100
AcDbEntity
  8
0
  6
Continuous
 62
     7
370
     0
100
AcDbSpline
210
0.0
220
0.0
230
1.0
 70
     8
 71
     3
 72
    13
 73
     9
 74
     0
 42
0.00000001
 43
0.00000001
 40
0.0
 40
0.0
 40
0.0
 40
0.0
 40
0.1869955685876515
 40
0.3737395772965679
 40
0.5600795764228349
 40
0.7066577061343943
 40
0.8532341382680128
 40
1.0
 40
1.0
 40
1.0
 40
1.0
 10
2.119738669740595
 20
5.205801823107332
 30
0.0
 10
2.12219042390054
 20
5.203561929695947
 30
0.0
 10
2.12709063394452
 20
5.199085156138784
 30
0.0
 10
2.135783751380878
 20
5.194064277587107
 30
0.0
 10
2.144932680750385
 20
5.191907590062876
 30
0.0
 10
2.153503309196689
 20
5.192787066296523
 30
0.0
 10
2.160838249366318
 20
5.195877587081198
 30
0.0
 10
2.164707475516994
 20
5.199395814008287
 30
0.0
 10
2.166643337893866
 20
5.201156063442211
 30
0.0
  0
SPLINE
  5
31D
330
1F
100
AcDbEntity
  8
0
  6
Continuous
 62
     7
370
     0
100
AcDbSpline
210
0.0
220
0.0
230
1.0
 70
     8
 71
     3
 72
    12
 73
     8
 74
     0
 42
0.00000001
 43
0.00000001
 40
0.0
 40
0.0
 40
0.0
 40
0.0
 40
0.1867017937430245
 40
0.3729864998442125
 40
0.5594612968414251
 40
0.7794624645200499
 40
1.0
 40
1.0
 40
1.0
 40
1.0
 10
2.114238274948292
 20
5.252653361874358
 30
0.0
 10
2.112067637186144
 20
5.250110135271266
 30
0.0
 10
2.107731210818182
 20
5.245029363576575
 30
0.0
 10
2.105115690991361
 20
5.235082773138543
 30
0.0
 10
2.106504446721469
 20
5.22446366793991
 30
0.0
 10
2.111713758144347
 20
5.214384962017011
 30
0.0
 10
2.117061528856624
 20
5.208665190736035
 30
0.0
 10
2.119738669740595
 20
5.205801823107332
 30
0.0
  0
LINE
  5
31E
330
1F
100
AcDbEntity
  8
0
  6
Continuous
 62
     7
370
     0
100
AcDbLine
 10
2.219100664
 20
5.2785279963
 30
0.0
 11
2.2310804927
 21
5.2807886902
 31
0.0
  0
LINE
  5
31F
330
1F
100
AcDbEntity
  8
0
  6
Continuous
 62
     7
370
     0
100
AcDbLine
 10
2.2130662483
 20
5.3104267478
 30
0.0
 11
2.219100664
 21
5.2785279963
 31
0.0
  0
LINE
  5
320
330
1F
100
AcDbEntity
  8
0
  6
Continuous
 62
     7
370
     0
100
AcDbLine
 10
2.227004146
 20
5.313061144
 30
0.0
 11
2.2130662483
 21
5.3104267478
 31
0.0
  0
SPLINE
  5
321
330
1F
100
AcDbEntity
  8
0
  6
Continuous
 62
     7
370
     0
100
AcDbSpline
210
0.0
220
0.0
230
1.0
 70
     8
 71
     3
 72
     9
 73
     5
 74
     0
 42
0.00000001
 43
0.00000001
 40
0.0
 40
0.0
 40
0.0
 40
0.0
 40
0.5580879352149672
 40
0.9999999999999999
 40
0.9999999999999999
 40
0.9999999999999999
 40
0.9999999999999999
 10
2.241992279539796
 20
5.312829706712087
 30
0.0
 10
2.239204223771782
 20
5.313395446503215
 30
0.0
 10
2.234208495335296
 20
5.314409157345952
 30
0.0
 10
2.22921210929074
 20
5.313474278347176
 30
0.0
 10
2.227004146017327
 20
5.313061144038503
 30
0.0
  0
SPLINE
  5
322
330
1F
100
AcDbEntity
  8
0
  6
Continuous
 62
     7
370
     0
100
AcDbSpline
210
0.0
220
0.0
230
1.0
 70
     8
 71
     3
 72
     9
 73
     5
 74
     0
 42
0.00000001
 43
0.00000001
 40
0.0
 40
0.0
 40
0.0
 40
0.0
 40
0.5598674168828547
 40
1.0
 40
1.0
 40
1.0
 40
1.0
 10
2.249913560740813
 20
5.302754703099389
 30
0.0
 10
2.249191287431116
 20
5.305272581807635
 30
0.0
 10
2.247901208230369
 20
5.309769858541943
 30
0.0
 10
2.243798163302531
 20
5.311894557480093
 30
0.0
 10
2.241992279539796
 20
5.312829706712087
 30
0.0
  0
SPLINE
  5
323
330
1F
100
AcDbEntity
  8
0
  6
Continuous
 62
     7
370
     0
100
AcDbSpline
210
0.0
220
0.0
230
1.0
 70
     8
 71
     3
 72
    10
 73
     6
 74
     0
 42
0.00000001
 43
0.00000001
 40
0.0
 40
0.0
 40
0.0
 40
0.0
 40
0.2801908182245918
 40
0.5600893043962639
 40
1.0
 40
1.0
 40
1.0
 40
1.0
 10
2.247172264075172
 20
5.28842524196788
 30
0.0
 10
2.247957107480662
 20
5.289600530576685
 30
0.0
 10
2.249525975439384
 20
5.291949881578057
 30
0.0
 10
2.250737166333949
 20
5.296945699794628
 30
0.0
 10
2.250225974899134
 20
5.300551203155647
 30
0.0
 10
2.249913560740813
 20
5.302754703099389
 30
0.0
  0
SPLINE
  5
324
330
1F
100
AcDbEntity
  8
0
  6
Continuous
 62
     7
370
     0
100
AcDbSpline
210
0.0
220
0.0
230
1.0
 70
     8
 71
     3
 72
     9
 73
     5
 74
     0
 42
0.00000001
 43
0.00000001
 40
0.0
 40
0.0
 40
0.0
 40
0.0
 40
0.5618981841174256
 40
1.0
 40
1.0
 40
1.0
 40
1.0
 10
2.231080492677022
 20
5.280788690185978
 30
0.0
 10
2.23448989192653
 20
5.281432427985647
 30
0.0
 10
2.240557537891366
 20
5.282578076464085
 30
0.0
 10
2.24515716088798
 20
5.286643967654276
 30
0.0
 10
2.247172264075172
 20
5.28842524196788
 30
0.0
  0
LINE
  5
325
330
1F
100
AcDbEntity
  8
0
  6
Continuous
 62
     7
370
     0
100
AcDbLine
 10
2.4164764393
 20
5.2037537934
 30
0.0
 11
2.4372319804
 21
5.2426481708
 31
0.0
  0
LINE
  5
326
330
1F
100
AcDbEntity
  8
0
  6
Continuous
 62
     7
370
     0
100
AcDbLine
 10
2.3964151277
 20
5.2259512437
 30
0.0
 11
2.4164764393
 21
5.2037537934
 31
0.0
  0
LINE
  5
327
330
1F
100
AcDbEntity
  8
0
  6
Continuous
 62
     7
370
     0
100
AcDbLine
 10
2.4372319804
 20
5.2426481708
 30
0.0
 11
2.3964151277
 21
5.2259512437
 31
0.0
  0
LINE
  5
328
330
1F
100
AcDbEntity
  8
0
  6
Continuous
 62
     7
370
     0
100
AcDbLine
 10
2.4219601326
 20
5.1398150521
 30
0.0
 11
2.4247192307
 21
5.1240437276
 31
0.0
  0
LINE
  5
329
330
1F
100
AcDbEntity
  8
0
  6
Continuous
 62
     7
370
     0
100
AcDbLine
 10
2.453858875
 20
5.1453688146
 30
0.0
 11
2.4219601326
 21
5.1398150521
 31
0.0
  0
LINE
  5
32A
330
1F
100
AcDbEntity
  8
0
  6
Continuous
 62
     7
370
     0
100
AcDbLine
 10
2.4571341788
 20
5.1266424842
 30
0.0
 11
2.453858875
 21
5.1453688146
 31
0.0
  0
SPLINE
  5
32B
330
1F
100
AcDbEntity
  8
0
  6
Continuous
 62
     7
370
     0
100
AcDbSpline
210
0.0
220
0.0
230
1.0
 70
     8
 71
     3
 72
     9
 73
     5
 74
     0
 42
0.00000001
 43
0.00000001
 40
0.0
 40
0.0
 40
0.0
 40
0.0
 40
0.5584154325352696
 40
1.0
 40
1.0
 40
1.0
 40
1.0
 10
2.45781061597129
 20
5.109215752211198
 30
0.0
 10
2.458119831476569
 20
5.112481169551207
 30
0.0
 10
2.458673568868595
 20
5.118328818362031
 30
0.0
 10
2.457605723028825
 20
5.124095851427614
 30
0.0
 10
2.45713417878555
 20
5.126642484229436
 30
0.0
  0
SPLINE
  5
32C
330
1F
100
AcDbEntity
  8
0
  6
Continuous
 62
     7
370
     0
100
AcDbSpline
210
0.0
220
0.0
230
1.0
 70
     8
 71
     3
 72
    10
 73
     6
 74
     0
 42
0.00000001
 43
0.00000001
 40
0.0
 40
0.0
 40
0.0
 40
0.0
 40
0.2806779291910266
 40
0.5606203533440959
 40
1.0
 40
1.0
 40
1.0
 40
1.0
 10
2.432017490602342
 20
5.103644096575439
 30
0.0
 10
2.43304518305571
 20
5.10268214033463
 30
0.0
 10
2.435097874936389
 20
5.10076074862001
 30
0.0
 10
2.439833080266769
 20
5.098678415068248
 30
0.0
 10
2.443479096132335
 20
5.099086891935373
 30
0.0
 10
2.445706172469521
 20
5.099336399671655
 30
0.0
  0
SPLINE
  5
32D
330
1F
100
AcDbEntity
  8
0
  6
Continuous
 62
     7
370
     0
100
AcDbSpline
210
0.0
220
0.0
230
1.0
 70
     8
 71
     3
 72
    10
 73
     6
 74
     0
 42
0.00000001
 43
0.00000001
 40
0.0
 40
0.0
 40
0.0
 40
0.0
 40
0.5602858853278849
 40
0.78032977918524
 40
1.0
 40
1.0
 40
1.0
 40
1.0
 10
2.424719230745796
 20
5.124043727583828
 30
0.0
 10
2.425482733055338
 20
5.120022551462759
 30
0.0
 10
2.426546089467153
 20
5.114422118618046
 30
0.0
 10
2.429090843907484
 20
5.107501508200579
 30
0.0
 10
2.431042494547528
 20
5.104929171785548
 30
0.0
 10
2.432017490602342
 20
5.103644096575439
 30
0.0
  0
SPLINE
  5
32E
330
1F
100
AcDbEntity
  8
0
  6
Continuous
 62
     7
370
     0
100
AcDbSpline
210
0.0
220
0.0
230
1.0
 70
     8
 71
     3
 72
    10
 73
     6
 74
     0
 42
0.00000001
 43
0.00000001
 40
0.0
 40
0.0
 40
0.0
 40
0.0
 40
0.2815435442858232
 40
0.561882505888462
 40
1.0
 40
1.0
 40
1.0
 40
1.0
 10
2.445706172469521
 20
5.099336399671655
 30
0.0
 10
2.447223144141454
 20
5.099664472156994
 30
0.0
 10
2.45025059712941
 20
5.100319213471144
 30
0.0
 10
2.455356052455231
 20
5.103040133479857
 30
0.0
 10
2.456880811857203
 20
5.106876388953387
 30
0.0
 10
2.45781061597129
 20
5.109215752211198
 30
0.0
  0
LINE
  5
32F
330
1F
100
AcDbEntity
  8
0
  6
Continuous
 62
     7
370
     0
100
AcDbLine
 10
2.4641120398
 20
5.1471666338
 30
0.0
 11
2.4667821307
 21
5.1318936769
 31
0.0
  0
LINE
  5
330
330
1F
100
AcDbEntity
  8
0
  6
Continuous
 62
     7
370
     0
100
AcDbLine
 10
2.4891753236
 20
5.1515278634
 30
0.0
 11
2.4641120398
 21
5.1471666338
 31
0.0
  0
LINE
  5
331
330
1F
100
AcDbEntity
  8
0
  6
Continuous
 62
     7
370
     0
100
AcDbLine
 10
2.4916318153
 20
5.1374475861
 30
0.0
 11
2.4891753236
 21
5.1515278634
 31
0.0
  0
SPLINE
  5
332
330
1F
100
AcDbEntity
  8
0
  6
Continuous
 62
     7
370
     0
100
AcDbSpline
210
0.0
220
0.0
230
1.0
 70
     8
 71
     3
 72
     9
 73
     5
 74
     0
 42
0.00000001
 43
0.00000001
 40
0.0
 40
0.0
 40
0.0
 40
0.0
 40
0.5578160402082947
 40
0.9999999999999999
 40
0.9999999999999999
 40
0.9999999999999999
 40
0.9999999999999999
 10
2.492219226813415
 20
5.120358916817743
 30
0.0
 10
2.492579114156128
 20
5.123558051647146
 30
0.0
 10
2.493224286250101
 20
5.12929315892052
 30
0.0
 10
2.492120078306739
 20
5.134947380144352
 30
0.0
 10
2.49163181526591
 20
5.137447586074644
 30
0.0
  0
SPLINE
  5
333
330
1F
100
AcDbEntity
  8
0
  6
Continuous
 62
     7
370
     0
100
AcDbSpline
210
0.0
220
0.0
230
1.0
 70
     8
 71
     3
 72
     9
 73
     5
 74
     0
 42
0.00000001
 43
0.00000001
 40
0.0
 40
0.0
 40
0.0
 40
0.0
 40
0.5603126856269085
 40
1.0
 40
1.0
 40
1.0
 40
1.0
 10
2.484226755809789
 20
5.114271147144177
 30
0.0
 10
2.486237818652375
 20
5.114776864290034
 30
0.0
 10
2.489826998219738
 20
5.115679426660706
 30
0.0
 10
2.491488628887588
 20
5.118929778393558
 30
0.0
 10
2.492219226813415
 20
5.120358916817743
 30
0.0
  0
SPLINE
  5
334
330
1F
100
AcDbEntity
  8
0
  6
Continuous
 62
     7
370
     0
100
AcDbSpline
210
0.0
220
0.0
230
1.0
 70
     8
 71
     3
 72
     9
 73
     5
 74
     0
 42
0.00000001
 43
0.00000001
 40
0.0
 40
0.0
 40
0.0
 40
0.0
 40
0.5613733927762822
 40
0.9999999999999999
 40
0.9999999999999999
 40
0.9999999999999999
 40
0.9999999999999999
 10
2.46678213066492
 20
5.131893676900543
 30
0.0
 10
2.467234153922313
 20
5.128969541917379
 30
0.0
 10
2.468039363544303
 20
5.123760647052049
 30
0.0
 10
2.470951695006
 20
5.119391579435971
 30
0.0
 10
2.472229121074156
 20
5.1174751901308
 30
0.0
  0
SPLINE
  5
335
330
1F
100
AcDbEntity
  8
0
  6
Continuous
 62
     7
370
     0
100
AcDbSpline
210
0.0
220
0.0
230
1.0
 70
     8
 71
     3
 72
    10
 73
     6
 74
     0
 42
0.00000001
 43
0.00000001
 40
0.0
 40
0.0
 40
0.0
 40
0.0
 40
0.2800054956510212
 40
0.5598088977306811
 40
1.0
 40
1.0
 40
1.0
 40
1.0
 10
2.472229121074156
 20
5.1174751901308
 30
0.0
 10
2.473121918289332
 20
5.116636726189712
 30
0.0
 10
2.474906868344554
 20
5.114960403467701
 30
0.0
 10
2.479205829918596
 20
5.113704939102735
 30
0.0
 10
2.482321744327273
 20
5.114056319671353
 30
0.0
 10
2.484226755809789
 20
5.114271147144177
 30
0.0
  0
SPLINE
  5
336
330
1F
100
AcDbEntity
  8
0
  6
Continuous
 62
     7
370
     0
100
AcDbSpline
210
0.0
220
0.0
230
1.0
 70
     8
 71
     3
 72
    10
 73
     6
 74
     0
 42
0.00000001
 43
0.00000001
 40
0.0
 40
0.0
 40
0.0
 40
0.0
 40
0.2799332523860865
 40
0.5601167124954678
 40
1.0
 40
1.0
 40
1.0
 40
1.0
 10
2.137574908694841
 20
5.272892541402962
 30
0.0
 10
2.141015486107235
 20
5.272496111276199
 30
0.0
 10
2.147899716161684
 20
5.271702896688637
 30
0.0
 10
2.159292194014395
 20
5.26649902536588
 30
0.0
 10
2.165999328293725
 20
5.260644294606848
 30
0.0
 10
2.170096665500731
 20
5.257067684213062
 30
0.0
  0
SPLINE
  5
337
330
1F
100
AcDbEntity
  8
0
  6
Continuous
 62
     7
370
     0
100
AcDbSpline
210
0.0
220
0.0
230
1.0
 70
     8
 71
     3
 72
    12
 73
     8
 74
     0
 42
0.00000001
 43
0.00000001
 40
0.0
 40
0.0
 40
0.0
 40
0.0
 40
0.1866354382927373
 40
0.372900512437123
 40
0.5594147974607783
 40
0.7794460138485403
 40
1.0
 40
1.0
 40
1.0
 40
1.0
 10
2.166643337893866
 20
5.201156063442211
 30
0.0
 10
2.168796245486228
 20
5.203704575346105
 30
0.0
 10
2.173097788385935
 20
5.208796541821537
 30
0.0
 10
2.175682605808011
 20
5.218719717307722
 30
0.0
 10
2.174362026830884
 20
5.229325499496738
 30
0.0
 10
2.169167027778161
 20
5.239398890029327
 30
0.0
 10
2.163819752903362
 20
5.245099990377637
 30
0.0
 10
2.161142943101563
 20
5.247953922829345
 30
0.0
  0
SPLINE
  5
338
330
1F
100
AcDbEntity
  8
0
  6
Continuous
 62
     7
370
     0
100
AcDbSpline
210
0.0
220
0.0
230
1.0
 70
     8
 71
     3
 72
    11
 73
     7
 74
     0
 42
0.00000001
 43
0.00000001
 40
0.0
 40
0.0
 40
0.0
 40
0.0
 40
0.2801205070979341
 40
0.5600745093883163
 40
0.7801061831641405
 40
0.9999999999999999
 40
0.9999999999999999
 40
0.9999999999999999
 40
0.9999999999999999
 10
2.170096665500731
 20
5.257067684213062
 30
0.0
 10
2.172469143244437
 20
5.254562792475222
 30
0.0
 10
2.177212688521101
 20
5.249554497917727
 30
0.0
 10
2.182206230124356
 20
5.241300591141898
 30
0.0
 10
2.185513161956341
 20
5.233012367823182
 30
0.0
 10
2.186105811205786
 20
5.227616822742045
 30
0.0
 10
2.186402042972952
 20
5.22491989558706
 30
0.0
  0
SPLINE
  5
339
330
1F
100
AcDbEntity
  8
0
  6
Continuous
 62
     7
370
     0
100
AcDbSpline
210
0.0
220
0.0
230
1.0
 70
     8
 71
     3
 72
    11
 73
     7
 74
     0
 42
0.00000001
 43
0.00000001
 40
0.0
 40
0.0
 40
0.0
 40
0.0
 40
0.2800965706092675
 40
0.560046431836374
 40
0.7800609059523518
 40
1.0
 40
1.0
 40
1.0
 40
1.0
 10
2.17344318434146
 20
5.194409474712712
 30
0.0
 10
2.171106485838484
 20
5.192238201309459
 30
0.0
 10
2.166434312751814
 20
5.187896791775638
 30
0.0
 10
2.158571129971451
 20
5.183637554932673
 30
0.0
 10
2.150698582582971
 20
5.181177222586855
 30
0.0
 10
2.145687310047642
 20
5.181003555776224
 30
0.0
 10
2.143182103086719
 20
5.180916737248634
 30
0.0
  0
SPLINE
  5
33A
330
1F
100
AcDbEntity
  8
0
  6
Continuous
 62
     7
370
     0
100
AcDbSpline
210
0.0
220
0.0
230
1.0
 70
     8
 71
     3
 72
    10
 73
     6
 74
     0
 42
0.00000001
 43
0.00000001
 40
0.0
 40
0.0
 40
0.0
 40
0.0
 40
0.2801446948665983
 40
0.5602656484784878
 40
1.0
 40
1.0
 40
1.0
 40
1.0
 10
2.186402042972952
 20
5.22491989558706
 30
0.0
 10
2.186302875909862
 20
5.221727423277486
 30
0.0
 10
2.186104550187734
 20
5.21534274920888
 30
0.0
 10
2.182066099694288
 20
5.204478130836885
 30
0.0
 10
2.176713127350299
 20
5.19822766500619
 30
0.0
 10
2.17344318434146
 20
5.194409474712712
 30
0.0
  0
SPLINE
  5
33B
330
1F
100
AcDbEntity
  8
0
  6
Continuous
 62
     7
370
     0
100
AcDbSpline
210
0.0
220
0.0
230
1.0
 70
     8
 71
     3
 72
    10
 73
     6
 74
     0
 42
0.00000001
 43
0.00000001
 40
0.0
 40
0.0
 40
0.0
 40
0.0
 40
0.2799338420951137
 40
0.560065489423197
 40
1.0
 40
1.0
 40
1.0
 40
1.0
 10
2.143182103086719
 20
5.180916737248634
 30
0.0
 10
2.139753720321285
 20
5.181309648616002
 30
0.0
 10
2.132894532246409
 20
5.182095748987499
 30
0.0
 10
2.121535073306861
 20
5.1872677912396
 30
0.0
 10
2.114861977755524
 20
5.193115389571355
 30
0.0
 10
2.110784956507988
 20
5.196688061723614
 30
0.0
  0
SPLINE
  5
33C
330
1F
100
AcDbEntity
  8
0
  6
Continuous
 62
     7
370
     0
100
AcDbSpline
210
0.0
220
0.0
230
1.0
 70
     8
 71
     3
 72
    13
 73
     9
 74
     0
 42
0.00000001
 43
0.00000001
 40
0.0
 40
0.0
 40
0.0
 40
0.0
 40
0.1869955685876515
 40
0.3737395772965679
 40
0.5600795764228349
 40
0.7066577061343943
 40
0.8532341382680128
 40
1.0
 40
1.0
 40
1.0
 40
1.0
 10
2.119738669740595
 20
5.205801823107332
 30
0.0
 10
2.12219042390054
 20
5.203561929695947
 30
0.0
 10
2.12709063394452
 20
5.199085156138784
 30
0.0
 10
2.135783751380878
 20
5.194064277587107
 30
0.0
 10
2.144932680750385
 20
5.191907590062876
 30
0.0
 10
2.153503309196689
 20
5.192787066296523
 30
0.0
 10
2.160838249366318
 20
5.195877587081198
 30
0.0
 10
2.164707475516994
 20
5.199395814008287
 30
0.0
 10
2.166643337893866
 20
5.201156063442211
 30
0.0
  0
SPLINE
  5
33D
330
1F
100
AcDbEntity
  8
0
  6
Continuous
 62
     7
370
     0
100
AcDbSpline
210
0.0
220
0.0
230
1.0
 70
     8
 71
     3
 72
    11
 73
     7
 74
     0
 42
0.00000001
 43
0.00000001
 40
0.0
 40
0.0
 40
0.0
 40
0.0
 40
0.2801014182865925
 40
0.5600332627627171
 40
0.7800530780537805
 40
0.9999999999999999
 40
0.9999999999999999
 40
0.9999999999999999
 40
0.9999999999999999
 10
2.107367222656607
 20
5.259328378097334
 30
0.0
 10
2.109696168432436
 20
5.261504869280823
 30
0.0
 10
2.114352650036895
 20
5.265856533996837
 30
0.0
 10
2.122209911124471
 20
5.270111697147863
 30
0.0
 10
2.130065550789704
 20
5.272597280224594
 30
0.0
 10
2.135072065884963
 20
5.272794131881581
 30
0.0
 10
2.137574908694841
 20
5.272892541402962
 30
0.0
  0
SPLINE
  5
33E
330
1F
100
AcDbEntity
  8
0
  6
Continuous
 62
     7
370
     0
100
AcDbSpline
210
0.0
220
0.0
230
1.0
 70
     8
 71
     3
 72
    12
 73
     8
 74
     0
 42
0.00000001
 43
0.00000001
 40
0.0
 40
0.0
 40
0.0
 40
0.0
 40
0.1873380416106024
 40
0.3744347178830963
 40
0.5611488672165814
 40
0.7802796152514138
 40
0.9999999999999999
 40
0.9999999999999999
 40
0.9999999999999999
 40
0.9999999999999999
 10
2.161142943101563
 20
5.247953922829345
 30
0.0
 10
2.158691979637296
 20
5.250195244799467
 30
0.0
 10
2.153793210517077
 20
5.254675001032384
 30
0.0
 10
2.145063949089948
 20
5.25966430540849
 30
0.0
 10
2.134733007633632
 20
5.262171072172976
 30
0.0
 10
2.123225369677032
 20
5.260364201160872
 30
0.0
 10
2.117236655320056
 20
5.255225942876822
 30
0.0
 10
2.114238274948292
 20
5.252653361874358
 30
0.0
  0
SPLINE
  5
33F
330
1F
100
AcDbEntity
  8
0
  6
Continuous
 62
     7
370
     0
100
AcDbSpline
210
0.0
220
0.0
230
1.0
 70
     8
 71
     3
 72
    12
 73
     8
 74
     0
 42
0.00000001
 43
0.00000001
 40
0.0
 40
0.0
 40
0.0
 40
0.0
 40
0.1867017937430245
 40
0.3729864998442125
 40
0.5594612968414251
 40
0.7794624645200499
 40
1.0
 40
1.0
 40
1.0
 40
1.0
 10
2.114238274948292
 20
5.252653361874358
 30
0.0
 10
2.112067637186144
 20
5.250110135271266
 30
0.0
 10
2.107731210818182
 20
5.245029363576575
 30
0.0
 10
2.105115690991361
 20
5.235082773138543
 30
0.0
 10
2.106504446721469
 20
5.22446366793991
 30
0.0
 10
2.111713758144347
 20
5.214384962017011
 30
0.0
 10
2.117061528856624
 20
5.208665190736035
 30
0.0
 10
2.119738669740595
 20
5.205801823107332
 30
0.0
  0
SPLINE
  5
340
330
1F
100
AcDbEntity
  8
0
  6
Continuous
 62
     7
370
     0
100
AcDbSpline
210
0.0
220
0.0
230
1.0
 70
     8
 71
     3
 72
    11
 73
     7
 74
     0
 42
0.00000001
 43
0.00000001
 40
0.0
 40
0.0
 40
0.0
 40
0.0
 40
0.2801075185992692
 40
0.5600643741469894
 40
0.7800771871527231
 40
0.9999999999999999
 40
0.9999999999999999
 40
0.9999999999999999
 40
0.9999999999999999
 10
2.110784956507988
 20
5.196688061723614
 30
0.0
 10
2.108407200735702
 20
5.199201824780729
 30
0.0
 10
2.103652968128382
 20
5.204227998802679
 30
0.0
 10
2.098591662191404
 20
5.21248266340288
 30
0.0
 10
2.095331724064981
 20
5.220817995522306
 30
0.0
 10
2.094692371825053
 20
5.226223048856922
 30
0.0
 10
2.09437276110307
 20
5.228925022652824
 30
0.0
  0
SPLINE
  5
341
330
1F
100
AcDbEntity
  8
0
  6
Continuous
 62
     7
370
     0
100
AcDbSpline
210
0.0
220
0.0
230
1.0
 70
     8
 71
     3
 72
    11
 73
     7
 74
     0
 42
0.00000001
 43
0.00000001
 40
0.0
 40
0.0
 40
0.0
 40
0.0
 40
0.2797137758389149
 40
0.5595872814459215
 40
0.779775694171492
 40
1.0
 40
1.0
 40
1.0
 40
1.0
 10
2.09437276110307
 20
5.228925022652824
 30
0.0
 10
2.094491053498106
 20
5.232109996813404
 30
0.0
 10
2.094727705838721
 20
5.238481763905135
 30
0.0
 10
2.098068195613416
 20
5.246801266610664
 30
0.0
 10
2.102314843951278
 20
5.253792317546173
 30
0.0
 10
2.105683004921152
 20
5.257482924320287
 30
0.0
 10
2.107367222656607
 20
5.259328378097334
 30
0.0
  0
SPLINE
  5
342
330
1F
100
AcDbEntity
  8
0
  6
Continuous
 62
     7
370
     0
100
AcDbSpline
210
0.0
220
0.0
230
1.0
 70
     8
 71
     3
 72
    10
 73
     6
 74
     0
 42
0.00000001
 43
0.00000001
 40
0.0
 40
0.0
 40
0.0
 40
0.0
 40
0.2801811538408395
 40
0.5602871556268715
 40
1.0
 40
1.0
 40
1.0
 40
1.0
 10
2.152900344154102
 20
4.955879283567168
 30
0.0
 10
2.153059567749742
 20
4.954713517948211
 30
0.0
 10
2.153377972233006
 20
4.952382299399717
 30
0.0
 10
2.152331055215329
 20
4.948206344664664
 30
0.0
 10
2.150397039991027
 20
4.94585869926524
 30
0.0
 10
2.149215615887064
 20
4.944424602559288
 30
0.0
  0
SPLINE
  5
343
330
1F
100
AcDbEntity
  8
0
  6
Continuous
 62
     7
370
     0
100
AcDbSpline
210
0.0
220
0.0
230
1.0
 70
     8
 71
     3
 72
     9
 73
     5
 74
     0
 42
0.00000001
 43
0.00000001
 40
0.0
 40
0.0
 40
0.0
 40
0.0
 40
0.5607439471025607
 40
1.0
 40
1.0
 40
1.0
 40
1.0
 10
2.146340808263754
 20
4.96589224789655
 30
0.0
 10
2.148001096682953
 20
4.964293279281192
 30
0.0
 10
2.150961963987502
 20
4.961441766351596
 30
0.0
 10
2.152308757119063
 20
4.957576934396761
 30
0.0
 10
2.152900344154102
 20
4.955879283567168
 30
0.0
  0
SPLINE
  5
344
330
1F
100
AcDbEntity
  8
0
  6
Continuous
 62
     7
370
     0
100
AcDbSpline
210
0.0
220
0.0
230
1.0
 70
     8
 71
     3
 72
     9
 73
     5
 74
     0
 42
0.00000001
 43
0.00000001
 40
0.0
 40
0.0
 40
0.0
 40
0.0
 40
0.5579459034980182
 40
1.0
 40
1.0
 40
1.0
 40
1.0
 10
2.137484993900211
 20
4.944905223673778
 30
0.0
 10
2.139021002975823
 20
4.945245733055771
 30
0.0
 10
2.14177397430509
 20
4.945856024089109
 30
0.0
 10
2.143768197453537
 20
4.947825979625131
 30
0.0
 10
2.144649751965647
 20
4.948696806539756
 30
0.0
  0
SPLINE
  5
345
330
1F
100
AcDbEntity
  8
0
  6
Continuous
 62
     7
370
     0
100
AcDbSpline
210
0.0
220
0.0
230
1.0
 70
     8
 71
     3
 72
     9
 73
     5
 74
     0
 42
0.00000001
 43
0.00000001
 40
0.0
 40
0.0
 40
0.0
 40
0.0
 40
0.5604362621095506
 40
1.0
 40
1.0
 40
1.0
 40
1.0
 10
2.144649751965647
 20
4.948696806539756
 30
0.0
 10
2.145601506551934
 20
4.949854796596276
 30
0.0
 10
2.147299745318112
 20
4.951921026308397
 30
0.0
 10
2.147183870834266
 20
4.954565609227544
 30
0.0
 10
2.14713293661302
 20
4.955728071980644
 30
0.0
  0
SPLINE
  5
346
330
1F
100
AcDbEntity
  8
0
  6
Continuous
 62
     7
370
     0
100
AcDbSpline
210
0.0
220
0.0
230
1.0
 70
     8
 71
     3
 72
     9
 73
     5
 74
     0
 42
0.00000001
 43
0.00000001
 40
0.0
 40
0.0
 40
0.0
 40
0.0
 40
0.559668895125733
 40
1.0
 40
1.0
 40
1.0
 40
1.0
 10
2.149215615887064
 20
4.944424602559288
 30
0.0
 10
2.147502459666858
 20
4.942938102405098
 30
0.0
 10
2.144441442277601
 20
4.940282067440257
 30
0.0
 10
2.140458258635113
 20
4.939685347865782
 30
0.0
 10
2.138704338980899
 20
4.939422593676254
 30
0.0
  0
SPLINE
  5
347
330
1F
100
AcDbEntity
  8
0
  6
Continuous
 62
     7
370
     0
100
AcDbSpline
210
0.0
220
0.0
230
1.0
 70
     8
 71
     3
 72
     9
 73
     5
 74
     0
 42
0.00000001
 43
0.00000001
 40
0.0
 40
0.0
 40
0.0
 40
0.0
 40
0.5577461164053987
 40
1.0
 40
1.0
 40
1.0
 40
1.0
 10
2.14713293661302
 20
4.955728071980644
 30
0.0
 10
2.146523438887178
 20
4.957346615722275
 30
0.0
 10
2.145430651850364
 20
4.960248552094443
 30
0.0
 10
2.143204490872673
 20
4.962390499509733
 30
0.0
 10
2.142219962534782
 20
4.963337784072601
 30
0.0
  0
SPLINE
  5
348
330
1F
100
AcDbEntity
  8
0
  6
Continuous
 62
     7
370
     0
100
AcDbSpline
210
0.0
220
0.0
230
1.0
 70
     8
 71
     3
 72
     9
 73
     5
 74
     0
 42
0.00000001
 43
0.00000001
 40
0.0
 40
0.0
 40
0.0
 40
0.0
 40
0.5599113011573318
 40
1.0
 40
1.0
 40
1.0
 40
1.0
 10
2.142219962534782
 20
4.963337784072601
 30
0.0
 10
2.140909781725316
 20
4.964489587618281
 30
0.0
 10
2.138569802505824
 20
4.966546705492666
 30
0.0
 10
2.136024194522401
 20
4.96834189003989
 30
0.0
 10
2.134903901217214
 20
4.969131930471461
 30
0.0
  0
SPLINE
  5
349
330
1F
100
AcDbEntity
  8
0
  6
Continuous
 62
     7
370
     0
100
AcDbSpline
210
0.0
220
0.0
230
1.0
 70
     8
 71
     3
 72
     9
 73
     5
 74
     0
 42
0.00000001
 43
0.00000001
 40
0.0
 40
0.0
 40
0.0
 40
0.0
 40
0.5603154058206069
 40
1.0
 40
1.0
 40
1.0
 40
1.0
 10
2.124437127963605
 20
4.959661919869832
 30
0.0
 10
2.124968639297236
 20
4.957228495102246
 30
0.0
 10
2.12591723240767
 20
4.952885539791174
 30
0.0
 10
2.12875917168303
 20
4.949493793258351
 30
0.0
 10
2.130008728599999
 20
4.948002494560507
 30
0.0
  0
SPLINE
  5
34A
330
1F
100
AcDbEntity
  8
0
  6
Continuous
 62
     7
370
     0
100
AcDbSpline
210
0.0
220
0.0
230
1.0
 70
     8
 71
     3
 72
     9
 73
     5
 74
     0
 42
0.00000001
 43
0.00000001
 40
0.0
 40
0.0
 40
0.0
 40
0.0
 40
0.5604496674276067
 40
0.9999999999999999
 40
0.9999999999999999
 40
0.9999999999999999
 40
0.9999999999999999
 10
2.130008728599999
 20
4.948002494560507
 30
0.0
 10
2.131238102535117
 20
4.946988415051921
 30
0.0
 10
2.133431651762758
 20
4.945179011696861
 30
0.0
 10
2.136247351947558
 20
4.944988821734837
 30
0.0
 10
2.137484993900211
 20
4.944905223673778
 30
0.0
  0
SPLINE
  5
34B
330
1F
100
AcDbEntity
  8
0
  6
Continuous
 62
     7
370
     0
100
AcDbSpline
210
0.0
220
0.0
230
1.0
 70
     8
 71
     3
 72
     9
 73
     5
 74
     0
 42
0.00000001
 43
0.00000001
 40
0.0
 40
0.0
 40
0.0
 40
0.0
 40
0.5583284466040577
 40
1.0
 40
1.0
 40
1.0
 40
1.0
 10
2.138704338980899
 20
4.939422593676254
 30
0.0
 10
2.136238668193264
 20
4.939731577711824
 30
0.0
 10
2.131822502757612
 20
4.940284986798268
 30
0.0
 10
2.128459200911512
 20
4.943156386841689
 30
0.0
 10
2.126973726160606
 20
4.944424602559288
 30
0.0
  0
SPLINE
  5
34C
330
1F
100
AcDbEntity
  8
0
  6
Continuous
 62
     7
370
     0
100
AcDbSpline
210
0.0
220
0.0
230
1.0
 70
     8
 71
     3
 72
     9
 73
     5
 74
     0
 42
0.00000001
 43
0.00000001
 40
0.0
 40
0.0
 40
0.0
 40
0.0
 40
0.5598794533020844
 40
0.9999999999999999
 40
0.9999999999999999
 40
0.9999999999999999
 40
0.9999999999999999
 10
2.126973726160606
 20
4.944424602559288
 30
0.0
 10
2.125287678151417
 20
4.94621097332148
 30
0.0
 10
2.122276229884752
 20
4.949401607933372
 30
0.0
 10
2.120408489790374
 20
4.95336199253984
 30
0.0
 10
2.119586458998946
 20
4.955105039177973
 30
0.0
  0
SPLINE
  5
34D
330
1F
100
AcDbEntity
  8
0
  6
Continuous
 62
     7
370
     0
100
AcDbSpline
210
0.0
220
0.0
230
1.0
 70
     8
 71
     3
 72
    10
 73
     6
 74
     0
 42
0.00000001
 43
0.00000001
 40
0.0
 40
0.0
 40
0.0
 40
0.0
 40
0.2796550197769812
 40
0.5592268090015068
 40
1.0
 40
1.0
 40
1.0
 40
1.0
 10
2.200456420198921
 20
4.927334613317635
 30
0.0
 10
2.200401356741907
 20
4.927944442987326
 30
0.0
 10
2.20029124621579
 20
4.929163920830019
 30
0.0
 10
2.198988283293381
 20
4.930996458397843
 30
0.0
 10
2.197646262970764
 20
4.93180022056493
 30
0.0
 10
2.19682509173167
 20
4.932292036049065
 30
0.0
  0
SPLINE
  5
34E
330
1F
100
AcDbEntity
  8
0
  6
Continuous
 62
     7
370
     0
100
AcDbSpline
210
0.0
220
0.0
230
1.0
 70
     8
 71
     3
 72
     9
 73
     5
 74
     0
 42
0.00000001
 43
0.00000001
 40
0.0
 40
0.0
 40
0.0
 40
0.0
 40
0.5612887607473473
 40
0.9999999999999999
 40
0.9999999999999999
 40
0.9999999999999999
 40
0.9999999999999999
 10
2.197795225524602
 20
4.920481399153216
 30
0.0
 10
2.198484032400089
 20
4.921692238175224
 30
0.0
 10
2.199711220478057
 20
4.92384948611369
 30
0.0
 10
2.200229183847309
 20
4.926271881316326
 30
0.0
 10
2.200456420198921
 20
4.927334613317635
 30
0.0
  0
SPLINE
  5
34F
330
1F
100
AcDbEntity
  8
0
  6
Continuous
 62
     7
370
     0
100
AcDbSpline
210
0.0
220
0.0
230
1.0
 70
     8
 71
     3
 72
     9
 73
     5
 74
     0
 42
0.00000001
 43
0.00000001
 40
0.0
 40
0.0
 40
0.0
 40
0.0
 40
0.5613145582765929
 40
1.0
 40
1.0
 40
1.0
 40
1.0
 10
2.178997753507936
 20
4.930903558755539
 30
0.0
 10
2.179689135078286
 20
4.932117426041973
 30
0.0
 10
2.180920853657744
 20
4.934279969786001
 30
0.0
 10
2.181440077538544
 20
4.93670905967545
 30
0.0
 10
2.181667853496046
 20
4.937774666046589
 30
0.0
  0
SPLINE
  5
350
330
1F
100
AcDbEntity
  8
0
  6
Continuous
 62
     7
370
     0
100
AcDbSpline
210
0.0
220
0.0
230
1.0
 70
     8
 71
     3
 72
     9
 73
     5
 74
     0
 42
0.00000001
 43
0.00000001
 40
0.0
 40
0.0
 40
0.0
 40
0.0
 40
0.5607290784003369
 40
1.0
 40
1.0
 40
1.0
 40
1.0
 10
2.187711165349859
 20
4.937454203081937
 30
0.0
 10
2.190257168564935
 20
4.937838380658706
 30
0.0
 10
2.194797691454063
 20
4.938523520045207
 30
0.0
 10
2.199013814995636
 20
4.936772647317031
 30
0.0
 10
2.20086583546932
 20
4.936003539840122
 30
0.0
  0
SPLINE
  5
351
330
1F
100
AcDbEntity
  8
0
  6
Continuous
 62
     7
370
     0
100
AcDbSpline
210
0.0
220
0.0
230
1.0
 70
     8
 71
     3
 72
    11
 73
     7
 74
     0
 42
0.00000001
 43
0.00000001
 40
0.0
 40
0.0
 40
0.0
 40
0.0
 40
0.2801463579147481
 40
0.5577995705228916
 40
0.7785967316519835
 40
0.9999999999999999
 40
0.9999999999999999
 40
0.9999999999999999
 40
0.9999999999999999
 10
2.20086583546932
 20
4.936003539840122
 30
0.0
 10
2.202364246581809
 20
4.935030054934713
 30
0.0
 10
2.205347733789118
 20
4.933091748593022
 30
0.0
 10
2.206861741605215
 20
4.928074256840702
 30
0.0
 10
2.206013292791361
 20
4.923608779736094
 30
0.0
 10
2.204789490995231
 20
4.921139258762802
 30
0.0
 10
2.204176751388004
 20
4.919902805837175
 30
0.0
  0
SPLINE
  5
352
330
1F
100
AcDbEntity
  8
0
  6
Continuous
 62
     7
370
     0
100
AcDbSpline
210
0.0
220
0.0
230
1.0
 70
     8
 71
     3
 72
    10
 73
     6
 74
     0
 42
0.00000001
 43
0.00000001
 40
0.0
 40
0.0
 40
0.0
 40
0.0
 40
0.2796936245710467
 40
0.5592432732211798
 40
0.9999999999999999
 40
0.9999999999999999
 40
0.9999999999999999
 40
0.9999999999999999
 10
2.181667853496046
 20
4.937774666046589
 30
0.0
 10
2.181619051547665
 20
4.938385632826117
 30
0.0
 10
2.181521472772339
 20
4.9396072518821
 30
0.0
 10
2.18018577491766
 20
4.941417155842951
 30
0.0
 10
2.178846887351014
 20
4.942216360828931
 30
0.0
 10
2.178027619715004
 20
4.942705395753045
 30
0.0
  0
SPLINE
  5
353
330
1F
100
AcDbEntity
  8
0
  6
Continuous
 62
     7
370
     0
100
AcDbSpline
210
0.0
220
0.0
230
1.0
 70
     8
 71
     3
 72
     9
 73
     5
 74
     0
 42
0.00000001
 43
0.00000001
 40
0.0
 40
0.0
 40
0.0
 40
0.0
 40
0.5606378864318682
 40
1.0
 40
1.0
 40
1.0
 40
1.0
 10
2.17053355295377
 20
4.947858762887575
 30
0.0
 10
2.172769400104029
 20
4.948139961585851
 30
0.0
 10
2.176757441591002
 20
4.948641530789578
 30
0.0
 10
2.180447219441113
 20
4.947102178974441
 30
0.0
 10
2.182068368035935
 20
4.946425846107418
 30
0.0
  0
SPLINE
  5
354
330
1F
100
AcDbEntity
  8
0
  6
Continuous
 62
     7
370
     0
100
AcDbSpline
210
0.0
220
0.0
230
1.0
 70
     8
 71
     3
 72
     9
 73
     5
 74
     0
 42
0.00000001
 43
0.00000001
 40
0.0
 40
0.0
 40
0.0
 40
0.0
 40
0.5575481288725944
 40
1.0
 40
1.0
 40
1.0
 40
1.0
 10
2.178027619715004
 20
4.942705395753045
 30
0.0
 10
2.176225991231614
 20
4.943272313955636
 30
0.0
 10
2.172994649594734
 20
4.94428911981191
 30
0.0
 10
2.169653338647581
 20
4.9438144642675
 30
0.0
 10
2.168174969366995
 20
4.943604452033736
 30
0.0
  0
SPLINE
  5
355
330
1F
100
AcDbEntity
  8
0
  6
Continuous
 62
     7
370
     0
100
AcDbSpline
210
0.0
220
0.0
230
1.0
 70
     8
 71
     3
 72
    10
 73
     6
 74
     0
 42
0.00000001
 43
0.00000001
 40
0.0
 40
0.0
 40
0.0
 40
0.0
 40
0.2815184249965161
 40
0.5625228738419893
 40
1.0
 40
1.0
 40
1.0
 40
1.0
 10
2.182068368035935
 20
4.946425846107418
 30
0.0
 10
2.182951784095489
 20
4.945868941162582
 30
0.0
 10
2.18471700333691
 20
4.944756148030019
 30
0.0
 10
2.18721441361135
 20
4.941827875961728
 30
0.0
 10
2.187523167696692
 20
4.939109436820204
 30
0.0
 10
2.187711165349859
 20
4.937454203081937
 30
0.0
  0
SPLINE
  5
356
330
1F
100
AcDbEntity
  8
0
  6
Continuous
 62
     7
370
     0
100
AcDbSpline
210
0.0
220
0.0
230
1.0
 70
     8
 71
     3
 72
     9
 73
     5
 74
     0
 42
0.00000001
 43
0.00000001
 40
0.0
 40
0.0
 40
0.0
 40
0.0
 40
0.5574892740399147
 40
1.0
 40
1.0
 40
1.0
 40
1.0
 10
2.19682509173167
 20
4.932292036049065
 30
0.0
 10
2.194972520142755
 20
4.932865251828987
 30
0.0
 10
2.191649457843293
 20
4.933893461350885
 30
0.0
 10
2.188222080064095
 20
4.933381847401584
 30
0.0
 10
2.186705428634882
 20
4.933155452741468
 30
0.0
  0
SPLINE
  5
357
330
1F
100
AcDbEntity
  8
0
  6
Continuous
 62
     7
370
     0
100
AcDbSpline
210
0.0
220
0.0
230
1.0
 70
     8
 71
     3
 72
     9
 73
     5
 74
     0
 42
0.00000001
 43
0.00000001
 40
0.0
 40
0.0
 40
0.0
 40
0.0
 40
0.5610006315807291
 40
1.0
 40
1.0
 40
1.0
 40
1.0
 10
2.219035077243356
 20
4.924492392817875
 30
0.0
 10
2.221057684606363
 20
4.925610438984006
 30
0.0
 10
2.224663041265781
 20
4.927603388908111
 30
0.0
 10
2.228749314278802
 20
4.927358819912779
 30
0.0
 10
2.230543185550706
 20
4.927251454278295
 30
0.0
  0
SPLINE
  5
358
330
1F
100
AcDbEntity
  8
0
  6
Continuous
 62
     7
370
     0
100
AcDbSpline
210
0.0
220
0.0
230
1.0
 70
     8
 71
     3
 72
     9
 73
     5
 74
     0
 42
0.00000001
 43
0.00000001
 40
0.0
 40
0.0
 40
0.0
 40
0.0
 40
0.5612342414430678
 40
1.0
 40
1.0
 40
1.0
 40
1.0
 10
2.253488200904598
 20
4.907110100286268
 30
0.0
 10
2.253775265087616
 20
4.908515731459277
 30
0.0
 10
2.254286752380836
 20
4.911020267122309
 30
0.0
 10
2.254047216522624
 20
4.913560712464121
 30
0.0
 10
2.253942116390094
 20
4.914675372891593
 30
0.0
  0
SPLINE
  5
359
330
1F
100
AcDbEntity
  8
0
  6
Continuous
 62
     7
370
     0
100
AcDbSpline
210
0.0
220
0.0
230
1.0
 70
     8
 71
     3
 72
     9
 73
     5
 74
     0
 42
0.00000001
 43
0.00000001
 40
0.0
 40
0.0
 40
0.0
 40
0.0
 40
0.5611431695887731
 40
1.0
 40
1.0
 40
1.0
 40
1.0
 10
2.238571270934579
 20
4.919908672436071
 30
0.0
 10
2.240855023912558
 20
4.921219327159106
 30
0.0
 10
2.244924846199894
 20
4.923555014010637
 30
0.0
 10
2.249577351048301
 20
4.923272489491108
 30
0.0
 10
2.251619134579545
 20
4.923148501675954
 30
0.0
  0
SPLINE
  5
35A
330
1F
100
AcDbEntity
  8
0
  6
Continuous
 62
     7
370
     0
100
AcDbSpline
210
0.0
220
0.0
230
1.0
 70
     8
 71
     3
 72
    10
 73
     6
 74
     0
 42
0.00000001
 43
0.00000001
 40
0.0
 40
0.0
 40
0.0
 40
0.0
 40
0.2813648466536025
 40
0.5622244790777076
 40
1.0
 40
1.0
 40
1.0
 40
1.0
 10
2.230543185550706
 20
4.927251454278295
 30
0.0
 10
2.231588247432605
 20
4.926979484277107
 30
0.0
 10
2.233676494699961
 20
4.926436032619725
 30
0.0
 10
2.236945949197826
 20
4.924150861543097
 30
0.0
 10
2.23795598253764
 20
4.921514612771543
 30
0.0
 10
2.238571270934579
 20
4.919908672436071
 30
0.0
  0
SPLINE
  5
35B
330
1F
100
AcDbEntity
  8
0
  6
Continuous
 62
     7
370
     0
100
AcDbSpline
210
0.0
220
0.0
230
1.0
 70
     8
 71
     3
 72
     9
 73
     5
 74
     0
 42
0.00000001
 43
0.00000001
 40
0.0
 40
0.0
 40
0.0
 40
0.0
 40
0.5572309135768913
 40
1.0
 40
1.0
 40
1.0
 40
1.0
 10
2.248966840635737
 20
4.918351237094363
 30
0.0
 10
2.247012150375322
 20
4.918310493326079
 30
0.0
 10
2.243504286377132
 20
4.918237375041914
 30
0.0
 10
2.240399771002228
 20
4.916632172541549
 30
0.0
 10
2.239025187565896
 20
4.915921438496937
 30
0.0
  0
SPLINE
  5
35C
330
1F
100
AcDbEntity
  8
0
  6
Continuous
 62
     7
370
     0
100
AcDbSpline
210
0.0
220
0.0
230
1.0
 70
     8
 71
     3
 72
     9
 73
     5
 74
     0
 42
0.00000001
 43
0.00000001
 40
0.0
 40
0.0
 40
0.0
 40
0.0
 40
0.5612321038662414
 40
1.0
 40
1.0
 40
1.0
 40
1.0
 10
2.232412251875759
 20
4.911204252990267
 30
0.0
 10
2.23270649923829
 20
4.912614468967147
 30
0.0
 10
2.233230787425839
 20
4.915127183345326
 30
0.0
 10
2.232983547769709
 20
4.917677306464627
 30
0.0
 10
2.232875066945947
 20
4.918796218620566
 30
0.0
  0
SPLINE
  5
35D
330
1F
100
AcDbEntity
  8
0
  6
Continuous
 62
     7
370
     0
100
AcDbSpline
210
0.0
220
0.0
230
1.0
 70
     8
 71
     3
 72
     9
 73
     5
 74
     0
 42
0.00000001
 43
0.00000001
 40
0.0
 40
0.0
 40
0.0
 40
0.0
 40
0.5574545400933653
 40
1.0
 40
1.0
 40
1.0
 40
1.0
 10
2.227890891606899
 20
4.922445389798362
 30
0.0
 10
2.225984828200432
 20
4.922413921480085
 30
0.0
 10
2.222565601574081
 20
4.922357471463064
 30
0.0
 10
2.219532035433752
 20
4.920808051895808
 30
0.0
 10
2.218189544511022
 20
4.920122363300829
 30
0.0
  0
SPLINE
  5
35E
330
1F
100
AcDbEntity
  8
0
  6
Continuous
 62
     7
370
     0
100
AcDbSpline
210
0.0
220
0.0
230
1.0
 70
     8
 71
     3
 72
    10
 73
     6
 74
     0
 42
0.00000001
 43
0.00000001
 40
0.0
 40
0.0
 40
0.0
 40
0.0
 40
0.2797917817256629
 40
0.5591827068563802
 40
1.0
 40
1.0
 40
1.0
 40
1.0
 10
2.232875066945947
 20
4.918796218620566
 30
0.0
 10
2.232642126898527
 20
4.919367921608984
 30
0.0
 10
2.232176580535983
 20
4.920510508509177
 30
0.0
 10
2.230367230732276
 20
4.921878036744899
 30
0.0
 10
2.228831106183943
 20
4.922229977617643
 30
0.0
 10
2.227890891606899
 20
4.922445389798362
 30
0.0
  0
SPLINE
  5
35F
330
1F
100
AcDbEntity
  8
0
  6
Continuous
 62
     7
370
     0
100
AcDbSpline
210
0.0
220
0.0
230
1.0
 70
     8
 71
     3
 72
    10
 73
     6
 74
     0
 42
0.00000001
 43
0.00000001
 40
0.0
 40
0.0
 40
0.0
 40
0.0
 40
0.2798286006534409
 40
0.5592659535567998
 40
0.9999999999999999
 40
0.9999999999999999
 40
0.9999999999999999
 40
0.9999999999999999
 10
2.253942116390094
 20
4.914675372891593
 30
0.0
 10
2.253709031283852
 20
4.915247348840149
 30
0.0
 10
2.253243186963799
 20
4.916390501018065
 30
0.0
 10
2.251448833658914
 20
4.917781247390278
 30
0.0
 10
2.249909121363523
 20
4.91813484232283
 30
0.0
 10
2.248966840635737
 20
4.918351237094363
 30
0.0
  0
SPLINE
  5
360
330
1F
100
AcDbEntity
  8
0
  6
Continuous
 62
     7
370
     0
100
AcDbSpline
210
0.0
220
0.0
230
1.0
 70
     8
 71
     3
 72
    11
 73
     7
 74
     0
 42
0.00000001
 43
0.00000001
 40
0.0
 40
0.0
 40
0.0
 40
0.0
 40
0.2800038152803699
 40
0.5576372860960435
 40
0.7785250852799117
 40
1.0
 40
1.0
 40
1.0
 40
1.0
 10
2.251619134579545
 20
4.923148501675954
 30
0.0
 10
2.253372461267876
 20
4.922667685315691
 30
0.0
 10
2.256864272031745
 20
4.921710122898268
 30
0.0
 10
2.259761267816538
 20
4.917240073169697
 30
0.0
 10
2.260295645793225
 20
4.912670829168348
 30
0.0
 10
2.259881345893771
 20
4.909902383868447
 30
0.0
 10
2.259673921009131
 20
4.908516324041451
 30
0.0
  0
SPLINE
  5
361
330
1F
100
AcDbEntity
  8
0
  6
Continuous
 62
     7
370
     0
100
AcDbSpline
210
0.0
220
0.0
230
1.0
 70
     8
 71
     3
 72
     9
 73
     5
 74
     0
 42
0.00000001
 43
0.00000001
 40
0.0
 40
0.0
 40
0.0
 40
0.0
 40
0.5610255822995638
 40
1.0
 40
1.0
 40
1.0
 40
1.0
 10
2.22456546043923
 20
5.32322531995441
 30
0.0
 10
2.229067608122103
 20
5.324080592320341
 30
0.0
 10
2.237092460864857
 20
5.325605072474038
 30
0.0
 10
2.245012719426452
 20
5.323728688303413
 30
0.0
 10
2.248489510316565
 20
5.32290500365473
 30
0.0
  0
SPLINE
  5
362
330
1F
100
AcDbEntity
  8
0
  6
Continuous
 62
     7
370
     0
100
AcDbSpline
210
0.0
220
0.0
230
1.0
 70
     8
 71
     3
 72
     9
 73
     5
 74
     0
 42
0.00000001
 43
0.00000001
 40
0.0
 40
0.0
 40
0.0
 40
0.0
 40
0.5580879352149672
 40
0.9999999999999999
 40
0.9999999999999999
 40
0.9999999999999999
 40
0.9999999999999999
 10
2.241992279539796
 20
5.312829706712087
 30
0.0
 10
2.239204223771782
 20
5.313395446503215
 30
0.0
 10
2.234208495335296
 20
5.314409157345952
 30
0.0
 10
2.22921210929074
 20
5.313474278347176
 30
0.0
 10
2.227004146017327
 20
5.313061144038503
 30
0.0
  0
SPLINE
  5
363
330
1F
100
AcDbEntity
  8
0
  6
Continuous
 62
     7
370
     0
100
AcDbSpline
210
0.0
220
0.0
230
1.0
 70
     8
 71
     3
 72
    11
 73
     7
 74
     0
 42
0.00000001
 43
0.00000001
 40
0.0
 40
0.0
 40
0.0
 40
0.0
 40
0.2799529209882021
 40
0.559199432556198
 40
0.7795095851055012
 40
1.0
 40
1.0
 40
1.0
 40
1.0
 10
2.262302801265082
 20
5.305851973986118
 30
0.0
 10
2.262672735478825
 20
5.302652565124725
 30
0.0
 10
2.263411670445739
 20
5.296261820518487
 30
0.0
 10
2.26006010769056
 20
5.287709931152968
 30
0.0
 10
2.254828628598569
 20
5.281298621291501
 30
0.0
 10
2.250662452801386
 20
5.278478849136994
 30
0.0
 10
2.248578513038398
 20
5.277068386496577
 30
0.0
  0
SPLINE
  5
364
330
1F
100
AcDbEntity
  8
0
  6
Continuous
 62
     7
370
     0
100
AcDbSpline
210
0.0
220
0.0
230
1.0
 70
     8
 71
     3
 72
    11
 73
     7
 74
     0
 42
0.00000001
 43
0.00000001
 40
0.0
 40
0.0
 40
0.0
 40
0.0
 40
0.2798963761170981
 40
0.559613067147219
 40
0.7797494015463352
 40
1.0
 40
1.0
 40
1.0
 40
1.0
 10
2.248489510316565
 20
5.32290500365473
 30
0.0
 10
2.250446063366181
 20
5.321991747370966
 30
0.0
 10
2.25435791341698
 20
5.320165821086607
 30
0.0
 10
2.258648967031709
 20
5.315787217782395
 30
0.0
 10
2.261178832114322
 20
5.310807089122132
 30
0.0
 10
2.261928080080821
 20
5.307503964710828
 30
0.0
 10
2.262302801265082
 20
5.305851973986118
 30
0.0
  0
SPLINE
  5
365
330
1F
100
AcDbEntity
  8
0
  6
Continuous
 62
     7
370
     0
100
AcDbSpline
210
0.0
220
0.0
230
1.0
 70
     8
 71
     3
 72
     9
 73
     5
 74
     0
 42
0.00000001
 43
0.00000001
 40
0.0
 40
0.0
 40
0.0
 40
0.0
 40
0.5598674168828547
 40
1.0
 40
1.0
 40
1.0
 40
1.0
 10
2.249913560740813
 20
5.302754703099389
 30
0.0
 10
2.249191287431116
 20
5.305272581807635
 30
0.0
 10
2.247901208230369
 20
5.309769858541943
 30
0.0
 10
2.243798163302531
 20
5.311894557480093
 30
0.0
 10
2.241992279539796
 20
5.312829706712087
 30
0.0
  0
SPLINE
  5
366
330
1F
100
AcDbEntity
  8
0
  6
Continuous
 62
     7
370
     0
100
AcDbSpline
210
0.0
220
0.0
230
1.0
 70
     8
 71
     3
 72
     9
 73
     5
 74
     0
 42
0.00000001
 43
0.00000001
 40
0.0
 40
0.0
 40
0.0
 40
0.0
 40
0.5618981841174256
 40
1.0
 40
1.0
 40
1.0
 40
1.0
 10
2.231080492677022
 20
5.280788690185978
 30
0.0
 10
2.23448989192653
 20
5.281432427985647
 30
0.0
 10
2.240557537891366
 20
5.282578076464085
 30
0.0
 10
2.24515716088798
 20
5.286643967654276
 30
0.0
 10
2.247172264075172
 20
5.28842524196788
 30
0.0
  0
SPLINE
  5
367
330
1F
100
AcDbEntity
  8
0
  6
Continuous
 62
     7
370
     0
100
AcDbSpline
210
0.0
220
0.0
230
1.0
 70
     8
 71
     3
 72
    10
 73
     6
 74
     0
 42
0.00000001
 43
0.00000001
 40
0.0
 40
0.0
 40
0.0
 40
0.0
 40
0.2801908182245918
 40
0.5600893043962639
 40
1.0
 40
1.0
 40
1.0
 40
1.0
 10
2.247172264075172
 20
5.28842524196788
 30
0.0
 10
2.247957107480662
 20
5.289600530576685
 30
0.0
 10
2.249525975439384
 20
5.291949881578057
 30
0.0
 10
2.250737166333949
 20
5.296945699794628
 30
0.0
 10
2.250225974899134
 20
5.300551203155647
 30
0.0
 10
2.249913560740813
 20
5.302754703099389
 30
0.0
  0
SPLINE
  5
368
330
1F
100
AcDbEntity
  8
0
  6
Continuous
 62
     7
370
     0
100
AcDbSpline
210
0.0
220
0.0
230
1.0
 70
     8
 71
     3
 72
     9
 73
     5
 74
     0
 42
0.00000001
 43
0.00000001
 40
0.0
 40
0.0
 40
0.0
 40
0.0
 40
0.5578160402082947
 40
0.9999999999999999
 40
0.9999999999999999
 40
0.9999999999999999
 40
0.9999999999999999
 10
2.492219226813415
 20
5.120358916817743
 30
0.0
 10
2.492579114156128
 20
5.123558051647146
 30
0.0
 10
2.493224286250101
 20
5.12929315892052
 30
0.0
 10
2.492120078306739
 20
5.134947380144352
 30
0.0
 10
2.49163181526591
 20
5.137447586074644
 30
0.0
  0
SPLINE
  5
369
330
1F
100
AcDbEntity
  8
0
  6
Continuous
 62
     7
370
     0
100
AcDbSpline
210
0.0
220
0.0
230
1.0
 70
     8
 71
     3
 72
     9
 73
     5
 74
     0
 42
0.00000001
 43
0.00000001
 40
0.0
 40
0.0
 40
0.0
 40
0.0
 40
0.5611065964166632
 40
1.0
 40
1.0
 40
1.0
 40
1.0
 10
2.502027373508867
 20
5.138479960815229
 30
0.0
 10
2.502942990761672
 20
5.133925649308949
 30
0.0
 10
2.504574797014979
 20
5.125808989238716
 30
0.0
 10
2.503138413759295
 20
5.117679028478441
 30
0.0
 10
2.502507994623358
 20
5.114110842329366
 30
0.0
  0
SPLINE
  5
36A
330
1F
100
AcDbEntity
  8
0
  6
Continuous
 62
     7
370
     0
100
AcDbSpline
210
0.0
220
0.0
230
1.0
 70
     8
 71
     3
 72
    10
 73
     6
 74
     0
 42
0.00000001
 43
0.00000001
 40
0.0
 40
0.0
 40
0.0
 40
0.0
 40
0.2807019493912032
 40
0.5606959989918512
 40
1.0
 40
1.0
 40
1.0
 40
1.0
 10
2.502507994623358
 20
5.114110842329366
 30
0.0
 10
2.501828918867719
 20
5.112373526518512
 30
0.0
 10
2.500472479911648
 20
5.108903276218349
 30
0.0
 10
2.495629713226203
 20
5.104027463102861
 30
0.0
 10
2.49094849571489
 20
5.102794869279104
 30
0.0
 10
2.488089489520493
 20
5.102042075082128
 30
0.0
  0
SPLINE
  5
36B
330
1F
100
AcDbEntity
  8
0
  6
Continuous
 62
     7
370
     0
100
AcDbSpline
210
0.0
220
0.0
230
1.0
 70
     8
 71
     3
 72
    10
 73
     6
 74
     0
 42
0.00000001
 43
0.00000001
 40
0.0
 40
0.0
 40
0.0
 40
0.0
 40
0.2804496307014359
 40
0.5604710092817103
 40
1.0
 40
1.0
 40
1.0
 40
1.0
 10
2.488089489520493
 20
5.102042075082128
 30
0.0
 10
2.485944703805845
 20
5.101833704877844
 30
0.0
 10
2.481658407506667
 20
5.101417282654692
 30
0.0
 10
2.4742520320732
 20
5.10420700637417
 30
0.0
 10
2.470520897425641
 20
5.108310935956544
 30
0.0
 10
2.468241777136293
 20
5.110817773704509
 30
0.0
  0
SPLINE
  5
36C
330
1F
100
AcDbEntity
  8
0
  6
Continuous
 62
     7
370
     0
100
AcDbSpline
210
0.0
220
0.0
230
1.0
 70
     8
 71
     3
 72
     9
 73
     5
 74
     0
 42
0.00000001
 43
0.00000001
 40
0.0
 40
0.0
 40
0.0
 40
0.0
 40
0.5603126856269085
 40
1.0
 40
1.0
 40
1.0
 40
1.0
 10
2.484226755809789
 20
5.114271147144177
 30
0.0
 10
2.486237818652375
 20
5.114776864290034
 30
0.0
 10
2.489826998219738
 20
5.115679426660706
 30
0.0
 10
2.491488628887588
 20
5.118929778393558
 30
0.0
 10
2.492219226813415
 20
5.120358916817743
 30
0.0
  0
SPLINE
  5
36D
330
1F
100
AcDbEntity
  8
0
  6
Continuous
 62
     7
370
     0
100
AcDbSpline
210
0.0
220
0.0
230
1.0
 70
     8
 71
     3
 72
     9
 73
     5
 74
     0
 42
0.00000001
 43
0.00000001
 40
0.0
 40
0.0
 40
0.0
 40
0.0
 40
0.5613733927762822
 40
0.9999999999999999
 40
0.9999999999999999
 40
0.9999999999999999
 40
0.9999999999999999
 10
2.46678213066492
 20
5.131893676900543
 30
0.0
 10
2.467234153922313
 20
5.128969541917379
 30
0.0
 10
2.468039363544303
 20
5.123760647052049
 30
0.0
 10
2.470951695006
 20
5.119391579435971
 30
0.0
 10
2.472229121074156
 20
5.1174751901308
 30
0.0
  0
SPLINE
  5
36E
330
1F
100
AcDbEntity
  8
0
  6
Continuous
 62
     7
370
     0
100
AcDbSpline
210
0.0
220
0.0
230
1.0
 70
     8
 71
     3
 72
    10
 73
     6
 74
     0
 42
0.00000001
 43
0.00000001
 40
0.0
 40
0.0
 40
0.0
 40
0.0
 40
0.2800054956510212
 40
0.5598088977306811
 40
1.0
 40
1.0
 40
1.0
 40
1.0
 10
2.472229121074156
 20
5.1174751901308
 30
0.0
 10
2.473121918289332
 20
5.116636726189712
 30
0.0
 10
2.474906868344554
 20
5.114960403467701
 30
0.0
 10
2.479205829918596
 20
5.113704939102735
 30
0.0
 10
2.482321744327273
 20
5.114056319671353
 30
0.0
 10
2.484226755809789
 20
5.114271147144177
 30
0.0
  0
SPLINE
  5
36F
330
1F
100
AcDbEntity
  8
0
  6
Continuous
 62
     7
370
     0
100
AcDbSpline
210
0.0
220
0.0
230
1.0
 70
     8
 71
     3
 72
     9
 73
     5
 74
     0
 42
0.00000001
 43
0.00000001
 40
0.0
 40
0.0
 40
0.0
 40
0.0
 40
0.5584154325352696
 40
1.0
 40
1.0
 40
1.0
 40
1.0
 10
2.45781061597129
 20
5.109215752211198
 30
0.0
 10
2.458119831476569
 20
5.112481169551207
 30
0.0
 10
2.458673568868595
 20
5.118328818362031
 30
0.0
 10
2.457605723028825
 20
5.124095851427614
 30
0.0
 10
2.45713417878555
 20
5.126642484229436
 30
0.0
  0
SPLINE
  5
370
330
1F
100
AcDbEntity
  8
0
  6
Continuous
 62
     7
370
     0
100
AcDbSpline
210
0.0
220
0.0
230
1.0
 70
     8
 71
     3
 72
    11
 73
     7
 74
     0
 42
0.00000001
 43
0.00000001
 40
0.0
 40
0.0
 40
0.0
 40
0.0
 40
0.2802179316715085
 40
0.5596846420406341
 40
0.7796369671363838
 40
1.0
 40
1.0
 40
1.0
 40
1.0
 10
2.467778957482825
 20
5.110728748066274
 30
0.0
 10
2.467476468645581
 20
5.107585224477195
 30
0.0
 10
2.466872301897278
 20
5.101306604603711
 30
0.0
 10
2.462188652785179
 20
5.093596496990878
 30
0.0
 10
2.455608510885644
 20
5.08863717568579
 30
0.0
 10
2.450788523339005
 20
5.087475275425814
 30
0.0
 10
2.448376281624192
 20
5.08689378340982
 30
0.0
  0
SPLINE
  5
371
330
1F
100
AcDbEntity
  8
0
  6
Continuous
 62
     7
370
     0
100
AcDbSpline
210
0.0
220
0.0
230
1.0
 70
     8
 71
     3
 72
    10
 73
     6
 74
     0
 42
0.00000001
 43
0.00000001
 40
0.0
 40
0.0
 40
0.0
 40
0.0
 40
0.2806779291910266
 40
0.5606203533440959
 40
1.0
 40
1.0
 40
1.0
 40
1.0
 10
2.432017490602342
 20
5.103644096575439
 30
0.0
 10
2.43304518305571
 20
5.10268214033463
 30
0.0
 10
2.435097874936389
 20
5.10076074862001
 30
0.0
 10
2.439833080266769
 20
5.098678415068248
 30
0.0
 10
2.443479096132335
 20
5.099086891935373
 30
0.0
 10
2.445706172469521
 20
5.099336399671655
 30
0.0
  0
SPLINE
  5
372
330
1F
100
AcDbEntity
  8
0
  6
Continuous
 62
     7
370
     0
100
AcDbSpline
210
0.0
220
0.0
230
1.0
 70
     8
 71
     3
 72
    10
 73
     6
 74
     0
 42
0.00000001
 43
0.00000001
 40
0.0
 40
0.0
 40
0.0
 40
0.0
 40
0.5602858853278849
 40
0.78032977918524
 40
1.0
 40
1.0
 40
1.0
 40
1.0
 10
2.424719230745796
 20
5.124043727583828
 30
0.0
 10
2.425482733055338
 20
5.120022551462759
 30
0.0
 10
2.426546089467153
 20
5.114422118618046
 30
0.0
 10
2.429090843907484
 20
5.107501508200579
 30
0.0
 10
2.431042494547528
 20
5.104929171785548
 30
0.0
 10
2.432017490602342
 20
5.103644096575439
 30
0.0
  0
SPLINE
  5
373
330
1F
100
AcDbEntity
  8
0
  6
Continuous
 62
     7
370
     0
100
AcDbSpline
210
0.0
220
0.0
230
1.0
 70
     8
 71
     3
 72
    10
 73
     6
 74
     0
 42
0.00000001
 43
0.00000001
 40
0.0
 40
0.0
 40
0.0
 40
0.0
 40
0.2815435442858232
 40
0.561882505888462
 40
1.0
 40
1.0
 40
1.0
 40
1.0
 10
2.445706172469521
 20
5.099336399671655
 30
0.0
 10
2.447223144141454
 20
5.099664472156994
 30
0.0
 10
2.45025059712941
 20
5.100319213471144
 30
0.0
 10
2.455356052455231
 20
5.103040133479857
 30
0.0
 10
2.456880811857203
 20
5.106876388953387
 30
0.0
 10
2.45781061597129
 20
5.109215752211198
 30
0.0
  0
SPLINE
  5
374
330
1F
100
AcDbEntity
  8
0
  6
Continuous
 62
     7
370
     0
100
AcDbSpline
210
0.0
220
0.0
230
1.0
 70
     8
 71
     3
 72
    11
 73
     7
 74
     0
 42
0.00000001
 43
0.00000001
 40
0.0
 40
0.0
 40
0.0
 40
0.0
 40
0.2800642106061949
 40
0.5598672407908915
 40
0.7799565304624051
 40
1.0
 40
1.0
 40
1.0
 40
1.0
 10
2.448376281624192
 20
5.08689378340982
 30
0.0
 10
2.446240201210296
 20
5.086634480794507
 30
0.0
 10
2.44197003243419
 20
5.086116117382594
 30
0.0
 10
2.436032391513741
 20
5.087288288158774
 30
0.0
 10
2.430940680016038
 20
5.089509851132343
 30
0.0
 10
2.428323814785905
 20
5.09164634196321
 30
0.0
 10
2.427015518385552
 20
5.09271447616868
 30
0.0
  0
SPLINE
  5
375
330
1F
100
AcDbEntity
  8
0
  6
Continuous
 62
     7
370
     0
100
AcDbSpline
210
0.0
220
0.0
230
1.0
 70
     8
 71
     3
 72
    10
 73
     6
 74
     0
 42
0.00000001
 43
0.00000001
 40
0.0
 40
0.0
 40
0.0
 40
0.0
 40
0.2798586946627368
 40
0.5597524138143322
 40
0.9999999999999999
 40
0.9999999999999999
 40
0.9999999999999999
 40
0.9999999999999999
 10
2.427015518385552
 20
5.09271447616868
 30
0.0
 10
2.425182269524313
 20
5.094626788956223
 30
0.0
 10
2.421515542369606
 20
5.098451653858435
 30
0.0
 10
2.417421660098857
 20
5.107089855927183
 30
0.0
 10
2.416062434313532
 20
5.113744923692749
 30
0.0
 10
2.41523149201563
 20
5.117813399557109
 30
0.0
  0
SPLINE
  5
376
330
1F
100
AcDbEntity
  8
0
  6
Continuous
 62
     7
370
     0
100
AcDbSpline
210
0.0
220
0.0
230
1.0
 70
     8
 71
     3
 72
    11
 73
     7
 74
     0
 42
0.00000001
 43
0.00000001
 40
0.0
 40
0.0
 40
0.0
 40
0.0
 40
0.2796593457051402
 40
0.559734522670544
 40
0.779898825598908
 40
0.9999999999999999
 40
0.9999999999999999
 40
0.9999999999999999
 40
0.9999999999999999
 10
2.460913845122522
 20
4.985306583620488
 30
0.0
 10
2.46357506777218
 20
4.98681652891407
 30
0.0
 10
2.468901470098448
 20
4.989838664670097
 30
0.0
 10
2.474851267647046
 20
4.996019470295963
 30
0.0
 10
2.479531771680833
 20
5.002349744041528
 30
0.0
 10
2.481550295973538
 20
5.006711699489586
 30
0.0
 10
2.482559413404404
 20
5.008892364488867
 30
0.0
  0
SPLINE
  5
377
330
1F
100
AcDbEntity
  8
0
  6
Continuous
 62
     7
370
     0
100
AcDbSpline
210
0.0
220
0.0
230
1.0
 70
     8
 71
     3
 72
     9
 73
     5
 74
     0
 42
0.00000001
 43
0.00000001
 40
0.0
 40
0.0
 40
0.0
 40
0.0
 40
0.5597443575315811
 40
1.0
 40
1.0
 40
1.0
 40
1.0
 10
2.491673339786215
 20
5.005154314337808
 30
0.0
 10
2.489119050283849
 20
4.999767497289445
 30
0.0
 10
2.484555735856474
 20
4.990143787865883
 30
0.0
 10
2.477237159831865
 20
4.982434722288884
 30
0.0
 10
2.474015115442196
 20
4.979040762670452
 30
0.0
  0
SPLINE
  5
378
330
1F
100
AcDbEntity
  8
0
  6
Continuous
 62
     7
370
     0
100
AcDbSpline
210
0.0
220
0.0
230
1.0
 70
     8
 71
     3
 72
    11
 73
     7
 74
     0
 42
0.00000001
 43
0.00000001
 40
0.0
 40
0.0
 40
0.0
 40
0.0
 40
0.2803165711656301
 40
0.5583106815214267
 40
0.77892225502804
 40
1.0
 40
1.0
 40
1.0
 40
1.0
 10
2.476453805603573
 20
5.03393790182735
 30
0.0
 10
2.474575300127658
 20
5.034576042909146
 30
0.0
 10
2.470833852848466
 20
5.035847037987329
 30
0.0
 10
2.465256079127344
 20
5.034323886733453
 30
0.0
 10
2.461473012880581
 20
5.030948675850136
 30
0.0
 10
2.459593778473584
 20
5.028515902397947
 30
0.0
 10
2.458653169571372
 20
5.027298231862717
 30
0.0
  0
SPLINE
  5
379
330
1F
100
AcDbEntity
  8
0
  6
Continuous
 62
     7
370
     0
100
AcDbSpline
210
0.0
220
0.0
230
1.0
 70
     8
 71
     3
 72
    11
 73
     7
 74
     0
 42
0.00000001
 43
0.00000001
 40
0.0
 40
0.0
 40
0.0
 40
0.0
 40
0.2809810573826517
 40
0.5609406247873863
 40
0.7806495691130286
 40
1.0
 40
1.0
 40
1.0
 40
1.0
 10
2.482559413404404
 20
5.008892364488867
 30
0.0
 10
2.48345353620119
 20
5.011441571967245
 30
0.0
 10
2.485238531264339
 20
5.016530719431325
 30
0.0
 10
2.4849327820505
 20
5.024135854837553
 30
0.0
 10
2.482047736095142
 20
5.030751208641021
 30
0.0
 10
2.478317433776042
 20
5.032876249165056
 30
0.0
 10
2.476453805603573
 20
5.03393790182735
 30
0.0
  0
SPLINE
  5
37A
330
1F
100
AcDbEntity
  8
0
  6
Continuous
 62
     7
370
     0
100
AcDbSpline
210
0.0
220
0.0
230
1.0
 70
     8
 71
     3
 72
    12
 73
     8
 74
     0
 42
0.00000001
 43
0.00000001
 40
0.0
 40
0.0
 40
0.0
 40
0.0
 40
0.1863547519443941
 40
0.3726698919960859
 40
0.5594659128179643
 40
0.7795486859355442
 40
1.0
 40
1.0
 40
1.0
 40
1.0
 10
2.480031734271035
 20
5.045775231748171
 30
0.0
 10
2.482652829863094
 20
5.044398878534411
 30
0.0
 10
2.487894463902536
 20
5.041646464666942
 30
0.0
 10
2.492930023834523
 20
5.034061890455699
 30
0.0
 10
2.49533393640822
 20
5.025000014207041
 30
0.0
 10
2.495107307790559
 20
5.01497435958175
 30
0.0
 10
2.492818634005399
 20
5.008429487850138
 30
0.0
 10
2.491673339786215
 20
5.005154314337808
 30
0.0
  0
SPLINE
  5
37B
330
1F
100
AcDbEntity
  8
0
  6
Continuous
 62
     7
370
     0
100
AcDbSpline
210
0.0
220
0.0
230
1.0
 70
     8
 71
     3
 72
    11
 73
     7
 74
     0
 42
0.00000001
 43
0.00000001
 40
0.0
 40
0.0
 40
0.0
 40
0.0
 40
0.2805852868930331
 40
0.5598719358070248
 40
0.779535034470411
 40
0.9999999999999999
 40
0.9999999999999999
 40
0.9999999999999999
 40
0.9999999999999999
 10
2.445801119706016
 20
5.008055787486409
 30
0.0
 10
2.443760183605764
 20
5.005670168540544
 30
0.0
 10
2.439687757506879
 20
5.000909972052304
 30
0.0
 10
2.431833279263417
 20
4.996448374705369
 30
0.0
 10
2.4235503948389
 20
4.996156468857047
 30
0.0
 10
2.418889412816529
 20
4.997786946107484
 30
0.0
 10
2.416554675896764
 20
4.99860367001141
 30
0.0
  0
SPLINE
  5
37C
330
1F
100
AcDbEntity
  8
0
  6
Continuous
 62
     7
370
     0
100
AcDbSpline
210
0.0
220
0.0
230
1.0
 70
     8
 71
     3
 72
     9
 73
     5
 74
     0
 42
0.00000001
 43
0.00000001
 40
0.0
 40
0.0
 40
0.0
 40
0.0
 40
0.5599165647910925
 40
0.9999999999999999
 40
0.9999999999999999
 40
0.9999999999999999
 40
0.9999999999999999
 10
2.436473575791932
 20
5.016333118532642
 30
0.0
 10
2.438670271268078
 20
5.019592049065794
 30
0.0
 10
2.442593526292629
 20
5.025412435062714
 30
0.0
 10
2.446403076691883
 20
5.031307806795197
 30
0.0
 10
2.448079596718188
 20
5.033902262239061
 30
0.0
  0
SPLINE
  5
37D
330
1F
100
AcDbEntity
  8
0
  6
Continuous
 62
     7
370
     0
100
AcDbSpline
210
0.0
220
0.0
230
1.0
 70
     8
 71
     3
 72
    11
 73
     7
 74
     0
 42
0.00000001
 43
0.00000001
 40
0.0
 40
0.0
 40
0.0
 40
0.0
 40
0.2799211259714512
 40
0.5598761390758751
 40
0.7799998789427292
 40
1.0
 40
1.0
 40
1.0
 40
1.0
 10
2.436740597707272
 20
5.062632463678655
 30
0.0
 10
2.433909116178022
 20
5.061039287185993
 30
0.0
 10
2.428245810341567
 20
5.057852741331399
 30
0.0
 10
2.421829041779157
 20
5.051416480277671
 30
0.0
 10
2.416623056562313
 20
5.044878775607792
 30
0.0
 10
2.414417450126245
 20
5.040278273471599
 30
0.0
 10
2.41331495665561
 20
5.037978668481402
 30
0.0
  0
SPLINE
  5
37E
330
1F
100
AcDbEntity
  8
0
  6
Continuous
 62
     7
370
     0
100
AcDbSpline
210
0.0
220
0.0
230
1.0
 70
     8
 71
     3
 72
    11
 73
     7
 74
     0
 42
0.00000001
 43
0.00000001
 40
0.0
 40
0.0
 40
0.0
 40
0.0
 40
0.2807152206842589
 40
0.5600199004666211
 40
0.7796938606408528
 40
1.0
 40
1.0
 40
1.0
 40
1.0
 10
2.448079596718188
 20
5.033902262239061
 30
0.0
 10
2.450197999800632
 20
5.03669352664253
 30
0.0
 10
2.454424161390612
 20
5.042262029873659
 30
0.0
 10
2.462987016853959
 20
5.04751119869855
 30
0.0
 10
2.472184538938671
 20
5.048391114666943
 30
0.0
 10
2.477413498108231
 20
5.046648027564447
 30
0.0
 10
2.480031734271035
 20
5.045775231748171
 30
0.0
  0
SPLINE
  5
37F
330
1F
100
AcDbEntity
  8
0
  6
Continuous
 62
     7
370
     0
100
AcDbSpline
210
0.0
220
0.0
230
1.0
 70
     8
 71
     3
 72
     9
 73
     5
 74
     0
 42
0.00000001
 43
0.00000001
 40
0.0
 40
0.0
 40
0.0
 40
0.0
 40
0.5600369766616691
 40
1.0
 40
1.0
 40
1.0
 40
1.0
 10
2.458653169571372
 20
5.027298231862717
 30
0.0
 10
2.456314406301048
 20
5.023665577950225
 30
0.0
 10
2.452138319064336
 20
5.017179124262569
 30
0.0
 10
2.44773737316808
 20
5.010843311031053
 30
0.0
 10
2.445801119706016
 20
5.008055787486409
 30
0.0
  0
SPLINE
  5
380
330
1F
100
AcDbEntity
  8
0
  6
Continuous
 62
     7
370
     0
100
AcDbSpline
210
0.0
220
0.0
230
1.0
 70
     8
 71
     3
 72
    10
 73
     6
 74
     0
 42
0.00000001
 43
0.00000001
 40
0.0
 40
0.0
 40
0.0
 40
0.0
 40
0.281111975533812
 40
0.5592654930682105
 40
1.0
 40
1.0
 40
1.0
 40
1.0
 10
2.419616380527691
 20
5.01065469079699
 30
0.0
 10
2.421357053545686
 20
5.010024556302734
 30
0.0
 10
2.42482008051859
 20
5.008770918929373
 30
0.0
 10
2.431550472186323
 20
5.010395022807168
 30
0.0
 10
2.434602465511265
 20
5.014076243022879
 30
0.0
 10
2.436473575791932
 20
5.016333118532642
 30
0.0
  0
SPLINE
  5
381
330
1F
100
AcDbEntity
  8
0
  6
Continuous
 62
     7
370
     0
100
AcDbSpline
210
0.0
220
0.0
230
1.0
 70
     8
 71
     3
 72
    11
 73
     7
 74
     0
 42
0.00000001
 43
0.00000001
 40
0.0
 40
0.0
 40
0.0
 40
0.0
 40
0.2513678165435592
 40
0.5020482655768592
 40
0.7513549604817978
 40
1.0
 40
1.0
 40
1.0
 40
1.0
 10
2.41331495665561
 20
5.037978668481402
 30
0.0
 10
2.412411596385214
 20
5.035504717655925
 30
0.0
 10
2.410607346091046
 20
5.030563581045316
 30
0.0
 10
2.410122347427134
 20
5.02266805391393
 30
0.0
 10
2.412693016892452
 20
5.014720931581603
 30
0.0
 10
2.417310637876815
 20
5.012008903185617
 30
0.0
 10
2.419616380527691
 20
5.01065469079699
 30
0.0
  0
SPLINE
  5
382
330
1F
100
AcDbEntity
  8
0
  6
Continuous
 62
     7
370
     0
100
AcDbSpline
210
0.0
220
0.0
230
1.0
 70
     8
 71
     3
 72
    10
 73
     6
 74
     0
 42
0.00000001
 43
0.00000001
 40
0.0
 40
0.0
 40
0.0
 40
0.0
 40
0.2800306681766619
 40
0.5601066132552582
 40
1.0
 40
1.0
 40
1.0
 40
1.0
 10
2.40201156056674
 20
5.014392740948049
 30
0.0
 10
2.401415343131452
 20
5.016941401386352
 30
0.0
 10
2.400222811861156
 20
5.022039134344428
 30
0.0
 10
2.40056152374708
 20
5.03149531780186
 30
0.0
 10
2.402831754650872
 20
5.037851223126441
 30
0.0
 10
2.404218840901382
 20
5.04173461175909
 30
0.0
  0
SPLINE
  5
383
330
1F
100
AcDbEntity
  8
0
  6
Continuous
 62
     7
370
     0
100
AcDbSpline
210
0.0
220
0.0
230
1.0
 70
     8
 71
     3
 72
    10
 73
     6
 74
     0
 42
0.00000001
 43
0.00000001
 40
0.0
 40
0.0
 40
0.0
 40
0.0
 40
0.2801110178011603
 40
0.5601399776334639
 40
1.0
 40
1.0
 40
1.0
 40
1.0
 10
2.404218840901382
 20
5.04173461175909
 30
0.0
 10
2.405480390686822
 20
5.044603505247952
 30
0.0
 10
2.408003120689185
 20
5.050340451789001
 30
0.0
 10
2.414082753728398
 20
5.059802824627891
 30
0.0
 10
2.419738553703557
 20
5.065559155151584
 30
0.0
 10
2.423194309195153
 20
5.06907633590516
 30
0.0
  0
SPLINE
  5
384
330
1F
100
AcDbEntity
  8
0
  6
Continuous
 62
     7
370
     0
100
AcDbSpline
210
0.0
220
0.0
230
1.0
 70
     8
 71
     3
 72
    10
 73
     6
 74
     0
 42
0.00000001
 43
0.00000001
 40
0.0
 40
0.0
 40
0.0
 40
0.0
 40
0.2803992726432886
 40
0.5608982697663407
 40
1.0
 40
1.0
 40
1.0
 40
1.0
 10
2.416554675896764
 20
4.99860367001141
 30
0.0
 10
2.414709625103504
 20
4.999535479776474
 30
0.0
 10
2.411018867321522
 20
5.001399430706337
 30
0.0
 10
2.405575444392159
 20
5.00656620300734
 30
0.0
 10
2.403362129510339
 20
5.011426797164128
 30
0.0
 10
2.40201156056674
 20
5.014392740948049
 30
0.0
  0
CIRCLE
  5
385
330
1F
100
AcDbEntity
  8
0
  6
Continuous
 62
     7
370
     0
100
AcDbCircle
 10
2.2729588254
 20
5.0949633707
 30
0.0
 40
0.0690000245283869
  0
LINE
  5
386
330
1F
100
AcDbEntity
  8
0
  6
Continuous
 62
     7
370
     0
100
AcDbLine
 10
2.7649587844
 20
3.8376834507
 30
0.0
 11
2.7649587844
 21
4.2508603844
 31
0.0
  0
LINE
  5
387
330
1F
100
AcDbEntity
  8
0
  6
Continuous
 62
     7
370
     0
100
AcDbLine
 10
1.7809587717
 20
4.1963580673
 30
0.0
 11
1.7809587717
 21
3.8376834507
 31
0.0
  0
LINE
  5
388
330
1F
100
AcDbEntity
  8
0
  6
Continuous
 62
     7
370
     0
100
AcDbLine
 10
1.7809587717
 20
3.8376834507
 30
0.0
 11
1.8059587696
 21
3.8126834529
 31
0.0
  0
LINE
  5
389
330
1F
100
AcDbEntity
  8
0
  6
Continuous
 62
     7
370
     0
100
AcDbLine
 10
2.7399587866
 20
3.8126834529
 30
0.0
 11
2.7649587844
 21
3.8376834507
 31
0.0
  0
LINE
  5
38A
330
1F
100
AcDbEntity
  8
0
  6
Continuous
 62
     7
370
     0
100
AcDbLine
 10
1.7809587717
 20
3.5306834506
 30
0.0
 11
1.7809587717
 21
3.3806834634
 31
0.0
  0
LINE
  5
38B
330
1F
100
AcDbEntity
  8
0
  6
Continuous
 62
     7
370
     0
100
AcDbLine
 10
2.7649587844
 20
3.3806834634
 30
0.0
 11
2.7649587844
 21
3.5306834506
 31
0.0
  0
LINE
  5
38C
330
1F
100
AcDbEntity
  8
0
  6
Continuous
 62
     7
370
     0
100
AcDbLine
 10
1.8782087949
 20
3.8126834529
 30
0.0
 11
1.8782087949
 21
3.8086834591
 31
0.0
  0
LINE
  5
38D
330
1F
100
AcDbEntity
  8
0
  6
Continuous
 62
     7
370
     0
100
AcDbLine
 10
2.6677087612
 20
3.8086834591
 30
0.0
 11
2.6677087612
 21
3.8126834529
 31
0.0
  0
LINE
  5
38E
330
1F
100
AcDbEntity
  8
0
  6
Continuous
 62
     7
370
     0
100
AcDbLine
 10
2.2729587781
 20
3.8376834507
 30
0.0
 11
2.7649587844
 21
3.8376834507
 31
0.0
  0
LINE
  5
38F
330
1F
100
AcDbEntity
  8
0
  6
Continuous
 62
     7
370
     0
100
AcDbLine
 10
1.7809587717
 20
3.8376834507
 30
0.0
 11
2.2729587781
 21
3.8376834507
 31
0.0
  0
LINE
  5
390
330
1F
100
AcDbEntity
  8
0
  6
Continuous
 62
     7
370
     0
100
AcDbLine
 10
2.2729587781
 20
3.8126834529
 30
0.0
 11
1.8059587696
 21
3.8126834529
 31
0.0
  0
LINE
  5
391
330
1F
100
AcDbEntity
  8
0
  6
Continuous
 62
     7
370
     0
100
AcDbLine
 10
2.7399587866
 20
3.8126834529
 30
0.0
 11
2.2729587781
 21
3.8126834529
 31
0.0
  0
LINE
  5
392
330
1F
100
AcDbEntity
  8
0
  6
Continuous
 62
     7
370
     0
100
AcDbLine
 10
2.2729587781
 20
3.3806834634
 30
0.0
 11
2.7649587844
 21
3.3806834634
 31
0.0
  0
LINE
  5
393
330
1F
100
AcDbEntity
  8
0
  6
Continuous
 62
     7
370
     0
100
AcDbLine
 10
1.7809587717
 20
3.3806834634
 30
0.0
 11
2.2729587781
 21
3.3806834634
 31
0.0
  0
LINE
  5
394
330
1F
100
AcDbEntity
  8
0
  6
Continuous
 62
     7
370
     0
100
AcDbLine
 10
2.2729587781
 20
3.5306834506
 30
0.0
 11
2.7649587844
 21
3.5306834506
 31
0.0
  0
LINE
  5
395
330
1F
100
AcDbEntity
  8
0
  6
Continuous
 62
     7
370
     0
100
AcDbLine
 10
1.7809587717
 20
3.5306834506
 30
0.0
 11
2.2729587781
 21
3.5306834506
 31
0.0
  0
LINE
  5
396
330
1F
100
AcDbEntity
  8
0
  6
Continuous
 62
     7
370
     0
100
AcDbLine
 10
1.7809587717
 20
3.8086834591
 30
0.0
 11
1.7809587717
 21
3.5306834506
 31
0.0
  0
LINE
  5
397
330
1F
100
AcDbEntity
  8
0
  6
Continuous
 62
     7
370
     0
100
AcDbLine
 10
2.7649587844
 20
3.8086834591
 30
0.0
 11
2.7649587844
 21
3.7031834578
 31
0.0
  0
SPLINE
  5
398
330
1F
100
AcDbEntity
  8
0
  6
Continuous
 62
     7
370
     0
100
AcDbSpline
210
0.0
220
0.0
230
1.0
 70
     8
 71
     3
 72
    17
 73
    13
 74
     0
 42
0.00000001
 43
0.00000001
 40
0.0
 40
0.0
 40
0.0
 40
0.0
 40
0.0281495007377314
 40
0.1093533431404806
 40
0.2345983482483976
 40
0.389863000065336
 40
0.5572931266291907
 40
0.7180211046849077
 40
0.8544244702918413
 40
0.9512179983003177
 40
0.9971082232878514
 40
1.0
 40
1.0
 40
1.0
 40
1.0
 10
2.764958784436105
 20
3.63618352515648
 30
0.0
 10
2.764916775382104
 20
3.636811270447882
 30
0.0
 10
2.764753581351064
 20
3.639249894382818
 30
0.0
 10
2.764447570539026
 20
3.644484415347941
 30
0.0
 10
2.764085202105197
 20
3.652561056045887
 30
0.0
 10
2.763828840058211
 20
3.662570115745412
 30
0.0
 10
2.76378970808458
 20
3.67337561768208
 30
0.0
 10
2.763985015267522
 20
3.683757695346908
 30
0.0
 10
2.764328673667492
 20
3.692555821245413
 30
0.0
 10
2.764670854838086
 20
3.69878428053795
 30
0.0
 10
2.764880521742046
 20
3.702031189941649
 30
0.0
 10
2.764954404686006
 20
3.703118974423853
 30
0.0
 10
2.764958784436105
 20
3.703183457834207
 30
0.0
  0
LINE
  5
399
330
1F
100
AcDbEntity
  8
0
  6
Continuous
 62
     7
370
     0
100
AcDbLine
 10
2.7649587844
 20
3.6361835252
 30
0.0
 11
2.7649587844
 21
3.5306834506
 31
0.0
  0
LINE
  5
39A
330
1F
100
AcDbEntity
  8
0
  6
Continuous
 62
     7
370
     0
100
AcDbLine
 10
1.7809587717
 20
3.8086834591
 30
0.0
 11
2.7649587844
 21
3.8086834591
 31
0.0
  0
LINE
  5
39B
330
1F
100
AcDbEntity
  8
0
  6
Continuous
 62
     7
370
     0
100
AcDbLine
 10
1.7809587717
 20
3.5306834506
 30
0.0
 11
2.7649587844
 21
3.5306834506
 31
0.0
  0
LINE
  5
39C
330
1F
100
AcDbEntity
  8
0
  6
Continuous
 62
     7
370
     0
100
AcDbLine
 10
1.7809587717
 20
3.5306834506
 30
0.0
 11
1.7809587717
 21
3.4586834157
 31
0.0
  0
LINE
  5
39D
330
1F
100
AcDbEntity
  8
0
  6
Continuous
 62
     7
370
     0
100
AcDbLine
 10
2.7649587844
 20
3.5306834506
 30
0.0
 11
2.7649587844
 21
3.4586834157
 31
0.0
  0
LINE
  5
39E
330
1F
100
AcDbEntity
  8
0
  6
Continuous
 62
     7
370
     0
100
AcDbLine
 10
1.7809587717
 20
3.3786835398
 30
0.0
 11
2.140458782
 21
3.3786835398
 31
0.0
  0
LINE
  5
39F
330
1F
100
AcDbEntity
  8
0
  6
Continuous
 62
     7
370
     0
100
AcDbLine
 10
2.140458782
 20
3.3806834634
 30
0.0
 11
2.140458782
 21
3.3786835398
 31
0.0
  0
LINE
  5
3A0
330
1F
100
AcDbEntity
  8
0
  6
Continuous
 62
     7
370
     0
100
AcDbLine
 10
1.7809587717
 20
3.4586834157
 30
0.0
 11
1.7809587717
 21
3.3786835398
 31
0.0
  0
LINE
  5
3A1
330
1F
100
AcDbEntity
  8
0
  6
Continuous
 62
     7
370
     0
100
AcDbLine
 10
2.4054587741
 20
3.3786835398
 30
0.0
 11
2.7649587844
 21
3.3786835398
 31
0.0
  0
LINE
  5
3A2
330
1F
100
AcDbEntity
  8
0
  6
Continuous
 62
     7
370
     0
100
AcDbLine
 10
2.4054587741
 20
3.3806834634
 30
0.0
 11
2.4054587741
 21
3.3786835398
 31
0.0
  0
LINE
  5
3A3
330
1F
100
AcDbEntity
  8
0
  6
Continuous
 62
     7
370
     0
100
AcDbLine
 10
2.7649587844
 20
3.4586834157
 30
0.0
 11
2.7649587844
 21
3.3786835398
 31
0.0
  0
DIMENSION
  5
3A4
330
1F
100
AcDbEntity
  8
0
  6
Continuous
 62
     7
370
     0
100
AcDbDimension
  2
*D25
 10
2.1304332783
 20
4.848160922
 30
0.0
 11
1.6656523606
 21
5.8405387947
 31
0.0
 70
   163
  1
SPRING LOADED THUMBSCREW\P5.0 mm HEX SOCKET
 71
     1
 42
-1.0
  3
SLDDIMSTYLE3
100
AcDbDiametricDimension
 15
2.4154842778
 25
5.3417659541
 35
0.0
 40
0.0
  0
DIMENSION
  5
3AD
330
1F
100
AcDbEntity
  8
0
  6
Continuous
 62
     7
370
     0
100
AcDbDimension
  2
*D26
 10
1.2930475522
 20
5.0949634381
 30
0.0
 11
1.2930475522
 21
4.23782346
 31
0.0
 70
   160
  1
68.1 mm\P(2.68")
 71
     2
 42
-1.0
  3
SLDDIMSTYLE2
100
AcDbAlignedDimension
 13
1.7809587781
 23
3.3806834819
 33
0.0
 14
2.2729587781
 24
5.0949634381
 34
0.0
 50
90.0
100
AcDbRotatedDimension
  0
LINE
  5
3BF
330
1F
100
AcDbEntity
  8
0
  6
HIDDEN
 62
     7
370
     0
100
AcDbLine
 10
2.8349587844
 20
4.2236092305
 30
0.0
 11
2.6326989387
 21
4.302349388
 31
0.0
  0
LINE
  5
3C0
330
1F
100
AcDbEntity
  8
0
  6
HIDDEN
 62
     7
370
     0
100
AcDbLine
 10
2.6326989387
 20
4.302349388
 30
0.0
 11
2.4752186238
 21
4.144869073
 31
0.0
  0
LINE
  5
3C1
330
1F
100
AcDbEntity
  8
0
  6
HIDDEN
 62
     7
370
     0
100
AcDbLine
 10
2.4752186238
 20
4.144869073
 30
0.0
 11
2.0706989324
 21
4.302349388
 31
0.0
  0
LINE
  5
3C2
330
1F
100
AcDbEntity
  8
0
  6
HIDDEN
 62
     7
370
     0
100
AcDbLine
 10
2.0706989324
 20
4.302349388
 30
0.0
 11
1.9132186174
 21
4.144869073
 31
0.0
  0
LINE
  5
3C3
330
1F
100
AcDbEntity
  8
0
  6
HIDDEN
 62
     7
370
     0
100
AcDbLine
 10
1.9132186174
 20
4.144869073
 30
0.0
 11
1.7109587717
 21
4.2236092305
 31
0.0
  0
LINE
  5
3C4
330
1F
100
AcDbEntity
  8
0
  6
HIDDEN
 62
     7
370
     0
100
AcDbLine
 10
2.8349587844
 20
4.5236092305
 30
0.0
 11
2.6326989387
 21
4.602349388
 31
0.0
  0
LINE
  5
3C5
330
1F
100
AcDbEntity
  8
0
  6
HIDDEN
 62
     7
370
     0
100
AcDbLine
 10
2.6326989387
 20
4.602349388
 30
0.0
 11
2.4752186238
 21
4.444869073
 31
0.0
  0
LINE
  5
3C6
330
1F
100
AcDbEntity
  8
0
  6
HIDDEN
 62
     7
370
     0
100
AcDbLine
 10
2.4752186238
 20
4.444869073
 30
0.0
 11
2.0706989324
 21
4.602349388
 31
0.0
  0
LINE
  5
3C7
330
1F
100
AcDbEntity
  8
0
  6
HIDDEN
 62
     7
370
     0
100
AcDbLine
 10
2.0706989324
 20
4.602349388
 30
0.0
 11
1.9132186174
 21
4.444869073
 31
0.0
  0
LINE
  5
3C8
330
1F
100
AcDbEntity
  8
0
  6
HIDDEN
 62
     7
370
     0
100
AcDbLine
 10
1.9132186174
 20
4.444869073
 30
0.0
 11
1.7109587717
 21
4.5236092305
 31
0.0
  0
OLE2FRAME
  5
3C9
330
1F
100
AcDbEntity
  8
0
100
AcDbOle2Frame
 70
     2
  3
Bitmap Image
 10
9.0178120406
 20
1.3267570784
 30
0.0
 11
10.4397105087
 21
1.1242314806
 31
0.0
 71
     2
 72
     0
 73
     1
 90
     7296
310
8055C64EE7A81E092240C05F59A1653AF53F0000000000000000FD155DBC21E1
310
2440C05F59A1653AF53F0000000000000000FD155DBC21E12440A1732426DAFC
310
F13F0000000000000000C64EE7A81E092240A1732426DAFCF13F000000000000
310
00000000000001000000000100000100000001000000000001000000001C0000
310
D0CF11E0A1B11AE1000000000000000000000000000000003E000300FEFF0900
310
0600000000000000000000000100000001000000000000000010000002000000
310
01000000FEFFFFFF0000000000000000FFFFFFFFFFFFFFFFFFFFFFFFFFFFFFFF
310
FFFFFFFFFFFFFFFFFFFFFFFFFFFFFFFFFFFFFFFFFFFFFFFFFFFFFFFFFFFFFFFF
310
FFFFFFFFFFFFFFFFFFFFFFFFFFFFFFFFFFFFFFFFFFFFFFFFFFFFFFFFFFFFFFFF
310
FFFFFFFFFFFFFFFFFFFFFFFFFFFFFFFFFFFFFFFFFFFFFFFFFFFFFFFFFFFFFFFF
310
FFFFFFFFFFFFFFFFFFFFFFFFFFFFFFFFFFFFFFFFFFFFFFFFFFFFFFFFFFFFFFFF
310
FFFFFFFFFFFFFFFFFFFFFFFFFFFFFFFFFFFFFFFFFFFFFFFFFFFFFFFFFFFFFFFF
310
FFFFFFFFFFFFFFFFFFFFFFFFFFFFFFFFFFFFFFFFFFFFFFFFFFFFFFFFFFFFFFFF
310
FFFFFFFFFFFFFFFFFFFFFFFFFFFFFFFFFFFFFFFFFFFFFFFFFFFFFFFFFFFFFFFF
310
FFFFFFFFFFFFFFFFFFFFFFFFFFFFFFFFFFFFFFFFFFFFFFFFFFFFFFFFFFFFFFFF
310
FFFFFFFFFFFFFFFFFFFFFFFFFFFFFFFFFFFFFFFFFFFFFFFFFFFFFFFFFFFFFFFF
310
FFFFFFFFFFFFFFFFFFFFFFFFFFFFFFFFFFFFFFFFFFFFFFFFFFFFFFFFFFFFFFFF
310
FFFFFFFFFFFFFFFFFFFFFFFFFFFFFFFFFFFFFFFFFFFFFFFFFFFFFFFFFFFFFFFF
310
FFFFFFFFFFFFFFFFFFFFFFFFFFFFFFFFFFFFFFFFFFFFFFFFFFFFFFFFFFFFFFFF
310
FFFFFFFFFFFFFFFFFFFFFFFFFFFFFFFFFFFFFFFFFFFFFFFFFFFFFFFFFFFFFFFF
310
FDFFFFFFFEFFFFFFFEFFFFFFFEFFFFFF05000000060000000700000008000000
310
090000000A0000000B0000000C000000FEFFFFFFFFFFFFFFFFFFFFFFFFFFFFFF
310
FFFFFFFFFFFFFFFFFFFFFFFFFFFFFFFFFFFFFFFFFFFFFFFFFFFFFFFFFFFFFFFF
310
FFFFFFFFFFFFFFFFFFFFFFFFFFFFFFFFFFFFFFFFFFFFFFFFFFFFFFFFFFFFFFFF
310
FFFFFFFFFFFFFFFFFFFFFFFFFFFFFFFFFFFFFFFFFFFFFFFFFFFFFFFFFFFFFFFF
310
FFFFFFFFFFFFFFFFFFFFFFFFFFFFFFFFFFFFFFFFFFFFFFFFFFFFFFFFFFFFFFFF
310
FFFFFFFFFFFFFFFFFFFFFFFFFFFFFFFFFFFFFFFFFFFFFFFFFFFFFFFFFFFFFFFF
310
FFFFFFFFFFFFFFFFFFFFFFFFFFFFFFFFFFFFFFFFFFFFFFFFFFFFFFFFFFFFFFFF
310
FFFFFFFFFFFFFFFFFFFFFFFFFFFFFFFFFFFFFFFFFFFFFFFFFFFFFFFFFFFFFFFF
310
FFFFFFFFFFFFFFFFFFFFFFFFFFFFFFFFFFFFFFFFFFFFFFFFFFFFFFFFFFFFFFFF
310
FFFFFFFFFFFFFFFFFFFFFFFFFFFFFFFFFFFFFFFFFFFFFFFFFFFFFFFFFFFFFFFF
310
FFFFFFFFFFFFFFFFFFFFFFFFFFFFFFFFFFFFFFFFFFFFFFFFFFFFFFFFFFFFFFFF
310
FFFFFFFFFFFFFFFFFFFFFFFFFFFFFFFFFFFFFFFFFFFFFFFFFFFFFFFFFFFFFFFF
310
FFFFFFFFFFFFFFFFFFFFFFFFFFFFFFFFFFFFFFFFFFFFFFFFFFFFFFFFFFFFFFFF
310
FFFFFFFFFFFFFFFFFFFFFFFFFFFFFFFFFFFFFFFFFFFFFFFFFFFFFFFFFFFFFFFF
310
FFFFFFFFFFFFFFFFFFFFFFFFFFFFFFFFFFFFFFFFFFFFFFFFFFFFFFFFFFFFFFFF
310
52006F006F007400200045006E00740072007900000000000000000000000000
310
0000000000000000000000000000000000000000000000000000000000000000
310
16000500FFFFFFFFFFFFFFFF020000000A00030000000000C000000000000046
310
000000000000000000000000B0604A83D4FBCC0103000000C000000000000000
310
01004F006C006500000000000000000000000000000000000000000000000000
310
0000000000000000000000000000000000000000000000000000000000000000
310
0A000200FFFFFFFFFFFFFFFFFFFFFFFF00000000000000000000000000000000
310
0000000000000000000000000000000000000000000000001400000000000000
310
010043006F006D0070004F0062006A0000000000000000000000000000000000
310
0000000000000000000000000000000000000000000000000000000000000000
310
120002010100000003000000FFFFFFFF00000000000000000000000000000000
310
0000000000000000000000000000000000000000010000004D00000000000000
310
01004F006C006500310030004E00610074006900760065000000000000000000
310
0000000000000000000000000000000000000000000000000000000000000000
310
1A000200FFFFFFFFFFFFFFFFFFFFFFFF00000000000000000000000000000000
310
000000000000000000000000000000000000000004000000E411000000000000
310
FEFFFFFF02000000FEFFFFFFFFFFFFFFFFFFFFFFFFFFFFFFFFFFFFFFFFFFFFFF
310
FFFFFFFFFFFFFFFFFFFFFFFFFFFFFFFFFFFFFFFFFFFFFFFFFFFFFFFFFFFFFFFF
310
FFFFFFFFFFFFFFFFFFFFFFFFFFFFFFFFFFFFFFFFFFFFFFFFFFFFFFFFFFFFFFFF
310
FFFFFFFFFFFFFFFFFFFFFFFFFFFFFFFFFFFFFFFFFFFFFFFFFFFFFFFFFFFFFFFF
310
FFFFFFFFFFFFFFFFFFFFFFFFFFFFFFFFFFFFFFFFFFFFFFFFFFFFFFFFFFFFFFFF
310
FFFFFFFFFFFFFFFFFFFFFFFFFFFFFFFFFFFFFFFFFFFFFFFFFFFFFFFFFFFFFFFF
310
FFFFFFFFFFFFFFFFFFFFFFFFFFFFFFFFFFFFFFFFFFFFFFFFFFFFFFFFFFFFFFFF
310
FFFFFFFFFFFFFFFFFFFFFFFFFFFFFFFFFFFFFFFFFFFFFFFFFFFFFFFFFFFFFFFF
310
FFFFFFFFFFFFFFFFFFFFFFFFFFFFFFFFFFFFFFFFFFFFFFFFFFFFFFFFFFFFFFFF
310
FFFFFFFFFFFFFFFFFFFFFFFFFFFFFFFFFFFFFFFFFFFFFFFFFFFFFFFFFFFFFFFF
310
FFFFFFFFFFFFFFFFFFFFFFFFFFFFFFFFFFFFFFFFFFFFFFFFFFFFFFFFFFFFFFFF
310
FFFFFFFFFFFFFFFFFFFFFFFFFFFFFFFFFFFFFFFFFFFFFFFFFFFFFFFFFFFFFFFF
310
FFFFFFFFFFFFFFFFFFFFFFFFFFFFFFFFFFFFFFFFFFFFFFFFFFFFFFFFFFFFFFFF
310
FFFFFFFFFFFFFFFFFFFFFFFFFFFFFFFFFFFFFFFFFFFFFFFFFFFFFFFFFFFFFFFF
310
FFFFFFFFFFFFFFFFFFFFFFFFFFFFFFFFFFFFFFFFFFFFFFFFFFFFFFFFFFFFFFFF
310
FFFFFFFFFFFFFFFFFFFFFFFFFFFFFFFFFFFFFFFFFFFFFFFFFFFFFFFFFFFFFFFF
310
0100000200000000000000000000000000000000F8995C160000000000000000
310
0000000000000000000000000000000000000000000000000000000000000000
310
0100FEFF030A0000FFFFFFFF0A00030000000000C00000000000004607000000
310
5042727573680007000000504272757368000700000050427275736800F439B2
310
7100000000000000000000000000000000000000000000000000000000000000
310
0000000000000000000000000000000000000000000000000000000000000000
310
0000000000000000000000000000000000000000000000000000000000000000
310
0000000000000000000000000000000000000000000000000000000000000000
310
0000000000000000000000000000000000000000000000000000000000000000
310
0000000000000000000000000000000000000000000000000000000000000000
310
0000000000000000000000000000000000000000000000000000000000000000
310
0000000000000000000000000000000000000000000000000000000000000000
310
0000000000000000000000000000000000000000000000000000000000000000
310
0000000000000000000000000000000000000000000000000000000000000000
310
0000000000000000000000000000000000000000000000000000000000000000
310
0000000000000000000000000000000000000000000000000000000000000000
310
E0110000424DDE11000000000000360400002800000096000000170000000100
310
08000000000000000000E7240000E72400000001000000010000000000FF0101
310
01FF020202FF030303FF040404FF050505FF060606FF070707FF080808FF0909
310
09FF0A0A0AFF0B0B0BFF0C0C0CFF0D0D0DFF0E0E0EFF0F0F0FFF101010FF1111
310
11FF121212FF131313FF141414FF151515FF161616FF171717FF181818FF1919
310
19FF1A1A1AFF1B1B1BFF1C1C1CFF1D1D1DFF1E1E1EFF1F1F1FFF202020FF2121
310
21FF222222FF232323FF242424FF252525FF262626FF272727FF282828FF2929
310
29FF2A2A2AFF2B2B2BFF2C2C2CFF2D2D2DFF2E2E2EFF2F2F2FFF303030FF3131
310
31FF323232FF333333FF343434FF353535FF363636FF373737FF383838FF3939
310
39FF3A3A3AFF3B3B3BFF3C3C3CFF3D3D3DFF3E3E3EFF3F3F3FFF404040FF4141
310
41FF424242FF434343FF444444FF454545FF464646FF474747FF484848FF4949
310
49FF4A4A4AFF4B4B4BFF4C4C4CFF4D4D4DFF4E4E4EFF4F4F4FFF505050FF5151
310
51FF525252FF535353FF545454FF555555FF565656FF575757FF585858FF5959
310
59FF5A5A5AFF5B5B5BFF5C5C5CFF5D5D5DFF5E5E5EFF5F5F5FFF606060FF6161
310
61FF626262FF636363FF646464FF656565FF666666FF676767FF686868FF6969
310
69FF6A6A6AFF6B6B6BFF6C6C6CFF6D6D6DFF6E6E6EFF6F6F6FFF707070FF7171
310
71FF727272FF737373FF747474FF757575FF767676FF777777FF787878FF7979
310
79FF7A7A7AFF7B7B7BFF7C7C7CFF7D7D7DFF7E7E7EFF7F7F7FFF808080FF8181
310
81FF828282FF838383FF848484FF858585FF868686FF878787FF888888FF8989
310
89FF8A8A8AFF8B8B8BFF8C8C8CFF8D8D8DFF8E8E8EFF8F8F8FFF909090FF9191
310
91FF929292FF939393FF949494FF959595FF969696FF979797FF989898FF9999
310
99FF9A9A9AFF9B9B9BFF9C9C9CFF9D9D9DFF9E9E9EFF9F9F9FFFA0A0A0FFA1A1
310
A1FFA2A2A2FFA3A3A3FFA4A4A4FFA5A5A5FFA6A6A6FFA7A7A7FFA8A8A8FFA9A9
310
A9FFAAAAAAFFABABABFFACACACFFADADADFFAEAEAEFFAFAFAFFFB0B0B0FFB1B1
310
B1FFB2B2B2FFB3B3B3FFB4B4B4FFB5B5B5FFB6B6B6FFB7B7B7FFB8B8B8FFB9B9
310
B9FFBABABAFFBBBBBBFFBCBCBCFFBDBDBDFFBEBEBEFFBFBFBFFFC0C0C0FFC1C1
310
C1FFC2C2C2FFC3C3C3FFC4C4C4FFC5C5C5FFC6C6C6FFC7C7C7FFC8C8C8FFC9C9
310
C9FFCACACAFFCBCBCBFFCCCCCCFFCDCDCDFFCECECEFFCFCFCFFFD0D0D0FFD1D1
310
D1FFD2D2D2FFD3D3D3FFD4D4D4FFD5D5D5FFD6D6D6FFD7D7D7FFD8D8D8FFD9D9
310
D9FFDADADAFFDBDBDBFFDCDCDCFFDDDDDDFFDEDEDEFFDFDFDFFFE0E0E0FFE1E1
310
E1FFE2E2E2FFE3E3E3FFE4E4E4FFE5E5E5FFE6E6E6FFE7E7E7FFE8E8E8FFE9E9
310
E9FFEAEAEAFFEBEBEBFFECECECFFEDEDEDFFEEEEEEFFEFEFEFFFF0F0F0FFF1F1
310
F1FFF2F2F2FFF3F3F3FFF4F4F4FFF5F5F5FFF6F6F6FFF7F7F7FFF8F8F8FFF9F9
310
F9FFFAFAFAFFFBFBFBFFFCFCFCFFFDFDFDFFFEFEFEFFFFFFFFFFFFFFFFFFFFFF
310
C94E4E4E4F4E4EFFFFFFFFFFC94E4E4E4E4E72FFFFFFFFFFFFFF734E4D4E4E4E
310
C9FFFFFFFFFFAA683516171616265B9BE9FFFFFFFFFF4E4E4E4D4E4EFFFFFFFF
310
FFFFFFFF4E4E4F4E4D4E4E4E4F4E4E4F4D4E4E4E4E4E4D4E4F4E4D4E4E4EAAFF
310
FFFFFFFFFFEA4E4F4F4E4E4E4E4E4D4D4F4F4E4E4E4E4E5B7FAAFFFFFFFFFFFF
310
C9744E1716171616164D8DEAFFFFFFFF0000FFFFFFFFFFFFBA161617161716FF
310
FFFFFFFFB917171616174FFFFFFFFFFFFFFF4E1716161616B9FFFFFFB9341717
310
1716171617171616268CFFFFFFFF161617161617FFFFFFFFFFFFFFB917161717
310
1617167F807F7F7F7F7F7F807F7F807F7F807F7F7F414EFFFFFFFFFFFF8C167F
310
7F807F7F7F7E7F7F807F807F7F807F4E3417258EFFFFEA4E162674AABAEAEBBA
310
AA74341680FFFFFF0000FFFFFFFFFFFFB9171717171617FFFFFFFFFFBB161616
310
16164EFFFFFFFFFFFFFF4E1717171717B9FFFF9C171617171716161616171616
310
171766FFFFFF161717161617FFFFFFFFFFFFFF8E16171717161616FFFFFFFFFF
310
FFFFFFFFFFFFFFFFFFFFFFFFFFAA16D9FFFFFFFFFF3467FFFFFFFFEAFFFFFFFF
310
FFFFFFFFFFFFFFFFFFCA671667EB26278DFFFFFFFFFFFFFFFFFFFF8C2541EAFF
310
0000FFFFFFFFFFFFB9171717171716FFFFFFFFFFBA16171617174EFFFFFFFFFF
310
FFFF4E1717161616BAFF9B1617161616171716171617161616161667FFFF1616
310
16161716FFFFFFFFFFFFFF7F16161617174017FFFFFFFFFFFFFFFFFFFFFFFFFF
310
FFFFFFFFFFFF344E7F7F7F7E7417DAFFFFFFFF80FFFFFFFFFFFFFFFFFFFFFFFF
310
FFFFFF9B163425CAFFFFFFFFFFFFFFFFFFFFFFFFCA2667FF0000FFFFFFFFFFFF
310
BA171717171617FFFFFFFFFFB916171716164EFFFFFFFFFFFFFF4F1716161717
310
B9C91716171616161716161617171616161617168DFF161716161717FFFFFFFF
310
FFFFFF7F17171716164F16FFFFFFFFFFFFFFFFFFFFFFFFFFFFFFFFFFFFFF9B16
310
17161617174EFFFFFFFFFF34FFFFFFFFD9BABABABABADAFFFFFFFFFF7F16AAFF
310
FFFFFFFFFFFFFFFFFFFFFFFFFF9C16BA0000FFFFFFFFFFFFB9161717161717FF
310
FFFFFFFFB917161716174DFFFFFFFFFFFFFF4E1616161616BA4E161617171716
310
419BEAEAAA4E16161617161726E9171717161616FFFFFFFFFFFFFF4F16161717
310
164E16FFFFFFFFFFBAB9B9B9B9B9BABABACAFFFFFFFFFFFFFFFFFFFFFFFFFFFF
310
FFFFBA16FFFFFFFF7F1617161617174DEAFFFFFFEA41FFFFFFFFFFAA4D16174E
310
9BFFFFFFFFFF34730000FFFFFFFFFFFFB9161617171617FFFFFFFFFFBA161616
310
16164EFFFFFFFFFFFFFF4F16161717169B1617161716175BFFFFFFFFFFFF7417
310
16171616168D171717161617FFFFFFFFFFFFEA2616171717167416FFFFFFFFFF
310
16171616171717171717EAFFFFFFFFFFFFFFFFFFFFFFFFFFFFFF6716FFFFFFFF
310
7F4EFFFFFFFFBA2573FFFFFFFFBAFFFFFFFFAA167FB9BB9B269BFFFFFFFF664F
310
0000FFFFFFFFFFFFB9171616161616FFFFFFFFFFBA16161717164EFFFFFFFFFF
310
FFFF4E16161616174E161617171626EAFFFFFFFFFFFFFF4E16161616164E1716
310
16161617FFFFFFFFFFFF671616161716347F16FFFFFFFFFF16B9FFFFFFFFFFFF
310
D9168DFFFFFFFFFFFFFFFFFFFFFFFFFFFFEA1716FFFFFFFF7F4EFFFFFFFFFF7F
310
4EFFFFFFFFFFFFFFFFFF5B66FFFFFFEA347FFFFFFFFF7F4D0000FFFFFFFFFFFF
310
B9171616171617FFFFFFFFFFBA17161716174EFFFFFFFFFFFFFF4D1716161617
310
17161716161673FFFFFFFFFFFFFFFF9B1617161717161616171616174F4E4E4E
310
4E341616171616167E7F16FFFFFFFFFF16BAFFFFFFFFFFFFFF5B41FFFFFFFF34
310
1616171616BAFFFFFF9B1716FFFFFFFF7F4EFFFFFFFFFF4E4EFFFFFFFF734E4E
310
4E4E267EDA9B67164EEAFFFFFFFF744D0000FFFFFFFFFFFFBA171717161617FF
310
FFFFFFFFBA1616171616347F7F7F7F80807F331616161717161717161716B9FF
310
FFFFFFFFFFFFFFE9161616161616171716161716171616161616171616171734
310
EA7F16FFFFFFFFFF16BAFFFFFFFFFFFFFFAA17C9FFFFFF7326BABA5B25FFFFFF
310
FF401716FFFFFFFF7F264F4E4E4E4217AAFFFFFFEA16677F73261616164173CA
310
FFFFFFFFFFFF417F0000FFFFFFFFFFFFBA171616171617FFFFFFFFFFBA161616
310
17171616161616161616161717161616161616161617EAFFFFFFFFFFFFFFFFFF
310
261717161716161617161616161617161617161616174EEAFF8016FFFFFFFFFF
310
17BAFFFFFFFFFFFFFFFF3467FFFFFFC916C9FF3467FFFFFFDA166716FFFFFFFF
310
9C4D4E4E4E4E67AAFFFFFFFF6834FF7F262567AAEAFFFFFFFFFFFFFFFF9B17D9
310
0000FFFFFFFFFFFFB9161616161616FFFFFFFFFFBA1617161717171616161616
310
1716171716161716161617171716FFFFFFFFFFFFFFFFFFFF4E17161716171616
310
1617171616161716171717161616169BFF7F17FFFFFFFFFF17B9FFFFFFFFFFFF
310
FFFF7326FFFFFFFF3473DA16AAFFFFFF7317AA16FFFFFFFFFFFFFFFFFFFFFFFF
310
FFFFEA6725BA4E167FEAFFFFFFFFFFFFFFFFFFFF9C167FFF0000FFFFFFFFFFFF
310
B9161717171716FFFFFFFFFFBA16161716171616171717161617161716161616
310
171617171617EAFFFFFFFFFFFFFFFFFF26161717161616161616161617171616
310
1616161616171616AA8016FFFFFFFFFF16BAFFFFFFFFFFFFFFFFDA179BFFFFFF
310
74348D26FFFFFFFF2566B917FFFFFFFFD8BAB9BAB9BADAFFFFEA41169B7425C9
310
FFFFFFFFFFFFFFFFFFFFAB4F1680FFFF0000FFFFFFFFFFFFBA161717171617FF
310
FFFFFFFFBA17161717161617171617161616161617171616171716171617BBFF
310
FFFFFFFFFFFFFFE9171616161617161617161716FFFFFFFFFFD9671616161617
310
348017FFFFFFFFFF16BAFFFFFFFFFFFFFFFFFF4E5AFFFFFFC916265AFFFFFFAA
310
16AABA16FFFFFFFF7F1617161616179BFFFFEB4127168DFFFFFFFFFFFFFFD99B
310
6734175AC9FFFFFF0000FFFFFFFFFFFFB9161617171617FFFFFFFFFFBB161616
310
1616347F807F7F7F7F8033171716171617171616161672FFFFFFFFFFFFFFFF9C
310
171617171617161716161617FFFFFFFFFFFFFF4117161616174E17FFFFFFFFFF
310
16BAFFFFFFFFFFFFFFFFFF9B16DAFFFFFF34169BFFFFFF5A26FFB917FFFFFFFF
310
7F4EFFFFFFEA5B26FFFFFFEA2616EAFFFFFFFFDA743416331617414E4E4E4ECA
310
0000FFFFFFFFFFFFBA161716161616FFFFFFFFFFBA17171616164EFFFFFFFFFF
310
FFFF4E16161717174E161717171626EBFFFFFFFFFFFFFF4E16161617165B1616
310
16171617FFFFFFFFFFFFFF6716161616161617FFFFFFFFFF16BAFFFFFFFFFFFF
310
FFFFFFEA268CFFFFFF7316EAFFFFEB1774FFB916FFFFFFFF7F4EFFFFFFFF7316
310
FFFFFFFF6826FFFFFFFFEB264D9CEABA257F807F7F6616BA0000FFFFFFFFFFFF
310
BA161716161616FFFFFFFFFFBA16171616164DFFFFFFFFFFFFFF4E1617161617
310
9B1617171717165BEBFFFFFFFFFF671616161617179B171616161616FFFFFFFF
310
FFFFFF3417161617171617FFFFFFFFFF17BAFFFFFFFFFFFFFFFFFFFF6734FFFF
310
FFEBCAFFFFFF8D17C9FFBA17FFFFFFFF7F357F808066174FFFFFFFFF7F16FFFF
310
FFFFD91673B99B415BFFFFFFFFBA16DA00009B7F7F7F807F671617161616167F
310
80807F7E6617161616164EFFFFFFFFFFFFFF4E1616161617B94E171716161616
310
349BC9D9AA4E16171616161634FF161617161717B9B9BAB9BA9B411716171716
310
163416FFFFFFFFFF16B9FFFFFFFFFFFFFFFFFFFFC917CAFFFFFFFFFFFFFF3342
310
FFFFBA17FFFFFFFF9B4E4E4F4E4E66EAFFFFFFFF5B16C9FFFFFFFFAA4E164E73
310
EAFFFFFFFF8D26FF00004E161716161616171617171616171717171617161616
310
17174EFFFFFFFFFFFFFF4E1717171616B9D92616171716171716171717171716
310
16171716AAFF161717171617161617171616161617161716166717FFFFFFFFFF
310
17B9FFFFFFFFFFFFFFFFFFFFFF3467FFFFFFFFFFFFCA168CFFFFBB17FFFFFFFF
310
FFFFFFFFFFFFFFFFFFFFFFEA26265BFFFFFFFFFFFFFFFFFFFFFFFFFFEA3467FF
310
00004D16161616161617161717161617161616171617171616164EFFFFFFFFFF
310
FFFF4D1617161616BAFF9B1616161616161716161616171717161766FFFF1616
310
16171617161617161716171616171717667F16FFFFFFFFFF17BAFFFFFFFFFFFF
310
FFFFFFFFFF8C26EAFFFFFFFFFF6617EAFFFFBA17FFFFFFFFFFFFFFFFFFFFFFFF
310
FFFFEA5A25BA269BFFFFFFFFFFFFFFFFFFFFFFFF6616DAFF00004E1616171616
310
1616161616161716161617171616171616174EFFFFFFFFFFFFFF4D1717171716
310
B9FFFF9C161616161616161716161717171667FFFFFF17161717171716161617
310
1716161616161641E97E16FFFFFFFFFF16B9FFFFFFFFFFFFFFFFFFFFFFEA169B
310
FFFFFFFFEA265BFFFFFFB916FFFFFFFFFFFFFFFFFFFFFFFFFF9B3416AAFF9B17
310
67EAFFFFFFFFFFFFFFFFEA5B169BFFFF00004D17161716161616161717171616
310
161717161716171716174EFFFFFFFFFFFFFF4D1616161616BAFFFFFFBB411616
310
161716161616171634ABFFFFFFFF161716161617171716171617171617267FFF
310
FF7F164E4E4E4E4F17BAFFFFFFFFFFFFFFFFFFFFFFFF66344D4E4E4F4117AAFF
310
FFFFBA174E4E4E4D4E4D4D4E4E4E4E4116174EBBFFFFFFCA342666ABEAFFFFEA
310
AA6725269CFFFFFF0000724F4E4D4D4D4E4D4D4E4E4E4D4E4E4E4E4E4E4E4E4D
310
4E4E74FFFFFFFFFFFFFF734E4E4E4D4ECAFFFFFFFFFFAA663416171717265B9B
310
FFFFFFFFFFFF7F8080807F80807F7F7F7F7F807FBAFFFFFFFF9B4E4E4F4D4D4E
310
4DC9FFFFFFFFFFFFFFFFFFFFFFFFBA4E4E4E4E4D4E4EFFFFFFFFC94E4E4E4F4E
310
4E4E4D4E4E5A807F9CD9FFFFFFFFFFFFFF9B5B2617171716174E8DEAFFFFFFFF
310
0000000000000000000000000000000000000000000000000000000000000000
  1
OLE
  0
ENDSEC
  0
SECTION
  2
OBJECTS
  0
DICTIONARY
  5
C
330
0
100
AcDbDictionary
281
     1
  3
ACAD_GROUP
350
D
  3
ACAD_LAYOUT
350
1A
  3
ACAD_MLINESTYLE
350
17
  3
ACAD_PLOTSETTINGS
350
19
  3
ACAD_PLOTSTYLENAME
350
E
  0
DICTIONARY
  5
D
102
{ACAD_REACTORS
330
C
102
}
330
C
100
AcDbDictionary
281
     1
  0
DICTIONARY
  5
1A
102
{ACAD_REACTORS
330
C
102
}
330
C
100
AcDbDictionary
281
     1
  3
Layout1
350
1E
  3
Layout2
350
26
  3
Model
350
22
  0
DICTIONARY
  5
17
102
{ACAD_REACTORS
330
C
102
}
330
C
100
AcDbDictionary
281
     1
  3
Standard
350
18
  0
DICTIONARY
  5
19
102
{ACAD_REACTORS
330
C
102
}
330
C
100
AcDbDictionary
281
     1
  0
ACDBDICTIONARYWDFLT
  5
E
102
{ACAD_REACTORS
330
C
102
}
330
C
100
AcDbDictionary
281
     1
  3
Normal
350
F
100
AcDbDictionaryWithDefault
340
F
  0
LAYOUT
  5
1E
102
{ACAD_REACTORS
330
1A
102
}
330
1A
100
AcDbPlotSettings
  1

  2
none_device
  4

  6

 40
0.0
 41
0.0
 42
0.0
 43
0.0
 44
0.0
 45
0.0
 46
0.0
 47
0.0
 48
0.0
 49
0.0
140
0.0
141
0.0
142
1.0
143
1.0
 70
   688
 72
     0
 73
     0
 74
     5
  7

 75
    16
147
1.0
148
0.0
149
0.0
100
AcDbLayout
  1
Layout1
 70
     1
 71
     1
 10
0.0
 20
0.0
 11
12.0
 21
9.0
 12
0.0
 22
0.0
 32
0.0
 14
1.0000000000E+20
 24
1.0000000000E+20
 34
1.0000000000E+20
 15
-1.0000000000E+20
 25
-1.0000000000E+20
 35
-1.0000000000E+20
146
0.0
 13
0.0
 23
0.0
 33
0.0
 16
1.0
 26
0.0
 36
0.0
 17
0.0
 27
1.0
 37
0.0
 76
     0
330
1B
  0
LAYOUT
  5
26
102
{ACAD_REACTORS
330
1A
102
}
330
1A
100
AcDbPlotSettings
  1

  2
none_device
  4

  6

 40
0.0
 41
0.0
 42
0.0
 43
0.0
 44
0.0
 45
0.0
 46
0.0
 47
0.0
 48
0.0
 49
0.0
140
0.0
141
0.0
142
1.0
143
1.0
 70
   688
 72
     0
 73
     0
 74
     5
  7

 75
    16
147
1.0
148
0.0
149
0.0
100
AcDbLayout
  1
Layout2
 70
     1
 71
     2
 10
0.0
 20
0.0
 11
0.0
 21
0.0
 12
0.0
 22
0.0
 32
0.0
 14
0.0
 24
0.0
 34
0.0
 15
0.0
 25
0.0
 35
0.0
146
0.0
 13
0.0
 23
0.0
 33
0.0
 16
1.0
 26
0.0
 36
0.0
 17
0.0
 27
1.0
 37
0.0
 76
     0
330
23
  0
LAYOUT
  5
22
102
{ACAD_REACTORS
330
1A
102
}
330
1A
100
AcDbPlotSettings
  1

  2
none_device
  4

  6

 40
0.0
 41
0.0
 42
0.0
 43
0.0
 44
0.0
 45
0.0
 46
0.0
 47
0.0
 48
0.0
 49
0.0
140
0.0
141
0.0
142
1.0
143
1.0
 70
  1712
 72
     0
 73
     0
 74
     0
  7

 75
     0
147
1.0
148
0.0
149
0.0
100
AcDbLayout
  1
Model
 70
     1
 71
     0
 10
0.0
 20
0.0
 11
11.0
 21
8.5
 12
0.0
 22
0.0
 32
0.0
 14
0.0
 24
0.0
 34
0.0
 15
11.0
 25
8.5
 35
0.0
146
0.0
 13
0.0
 23
0.0
 33
0.0
 16
1.0
 26
0.0
 36
0.0
 17
0.0
 27
1.0
 37
0.0
 76
     0
330
1F
331
29
  0
MLINESTYLE
  5
18
102
{ACAD_REACTORS
330
17
102
}
330
17
100
AcDbMlineStyle
  2
Standard
 70
     0
  3

 62
   256
 51
90.0
 52
90.0
 71
     2
 49
0.5
 62
   256
  6
BYLAYER
 49
-0.5
 62
   256
  6
BYLAYER
  0
ACDBPLACEHOLDER
  5
F
102
{ACAD_REACTORS
330
E
102
}
330
E
  0
ENDSEC
  0
EOF
