  0
SECTION
  2
HEADER
  9
$ACADVER
  1
AC1015
  9
$ACADMAINTVER
 70
     6
  9
$DWGCODEPAGE
  3
ANSI_1252
  9
$INSBASE
 10
0.0
 20
0.0
 30
0.0
  9
$EXTMIN
 10
0.0
 20
0.0
 30
0.0
  9
$EXTMAX
 10
279.4
 20
215.9
 30
0.0
  9
$LIMMIN
 10
0.0
 20
0.0
  9
$LIMMAX
 10
279.4
 20
215.9
  9
$ORTHOMODE
 70
     0
  9
$REGENMODE
 70
     1
  9
$FILLMODE
 70
     1
  9
$QTEXTMODE
 70
     0
  9
$MIRRTEXT
 70
     1
  9
$LTSCALE
 40
1.0
  9
$ATTMODE
 70
     1
  9
$TEXTSIZE
 40
2.8222222222
  9
$TRACEWID
 40
1.0
  9
$TEXTSTYLE
  7
Standard
  9
$CLAYER
  8
0
  9
$CELTYPE
  6
ByLayer
  9
$CECOLOR
 62
   256
  9
$CELTSCALE
 40
1.0
  9
$DISPSILH
 70
     0
  9
$DIMSCALE
 40
1.0
  9
$DIMASZ
 40
3.175
  9
$DIMEXO
 40
1.27
  9
$DIMDLI
 40
3.75
  9
$DIMRND
 40
0.0
  9
$DIMDLE
 40
0.0
  9
$DIMEXE
 40
1.778
  9
$DIMTP
 40
0.0
  9
$DIMTM
 40
0.0
  9
$DIMTXT
 40
2.8222222222
  9
$DIMCEN
 40
2.5
  9
$DIMTSZ
 40
0.0
  9
$DIMTOL
 70
     0
  9
$DIMLIM
 70
     0
  9
$DIMTIH
 70
     1
  9
$DIMTOH
 70
     1
  9
$DIMSE1
 70
     0
  9
$DIMSE2
 70
     0
  9
$DIMTAD
 70
     0
  9
$DIMZIN
 70
     1
  9
$DIMBLK
  1

  9
$DIMASO
 70
     1
  9
$DIMSHO
 70
     1
  9
$DIMPOST
  1

  9
$DIMAPOST
  1

  9
$DIMALT
 70
     0
  9
$DIMALTD
 70
     3
  9
$DIMALTF
 40
0.0393700787
  9
$DIMLFAC
 40
1.0
  9
$DIMTOFL
 70
     1
  9
$DIMTVP
 40
0.0
  9
$DIMTIX
 70
     0
  9
$DIMSOXD
 70
     0
  9
$DIMSAH
 70
     0
  9
$DIMBLK1
  1

  9
$DIMBLK2
  1

  9
$DIMSTYLE
  2
ISO-25
  9
$DIMCLRD
 70
     0
  9
$DIMCLRE
 70
     0
  9
$DIMCLRT
 70
     0
  9
$DIMTFAC
 40
1.0
  9
$DIMGAP
 40
2.54
  9
$DIMJUST
 70
     0
  9
$DIMSD1
 70
     0
  9
$DIMSD2
 70
     0
  9
$DIMTOLJ
 70
     0
  9
$DIMTZIN
 70
     1
  9
$DIMALTZ
 70
     0
  9
$DIMALTTZ
 70
     0
  9
$DIMUPT
 70
     0
  9
$DIMDEC
 70
     1
  9
$DIMTDEC
 70
     1
  9
$DIMALTU
 70
     2
  9
$DIMALTTD
 70
     3
  9
$DIMTXSTY
  7
Standard
  9
$DIMAUNIT
 70
     0
  9
$DIMADEC
 70
     0
  9
$DIMALTRND
 40
0.0
  9
$DIMAZIN
 70
     0
  9
$DIMDSEP
 70
    44
  9
$DIMATFIT
 70
     3
  9
$DIMFRAC
 70
     0
  9
$DIMLDRBLK
  1

  9
$DIMLUNIT
 70
     2
  9
$DIMLWD
 70
    -2
  9
$DIMLWE
 70
    -2
  9
$DIMTMOVE
 70
     0
  9
$LUNITS
 70
     2
  9
$LUPREC
 70
     1
  9
$SKETCHINC
 40
1.0
  9
$FILLETRAD
 40
10.0
  9
$AUNITS
 70
     0
  9
$AUPREC
 70
     0
  9
$MENU
  1
.
  9
$ELEVATION
 40
0.0
  9
$PELEVATION
 40
0.0
  9
$THICKNESS
 40
0.0
  9
$LIMCHECK
 70
     0
  9
$CHAMFERA
 40
0.0
  9
$CHAMFERB
 40
0.0
  9
$CHAMFERC
 40
0.0
  9
$CHAMFERD
 40
0.0
  9
$SKPOLY
 70
     0
  9
$TDCREATE
 40
2458470.636860428
  9
$TDUCREATE
 40
2458470.845193761
  9
$TDUPDATE
 40
2458470.636871099
  9
$TDUUPDATE
 40
2458470.845204433
  9
$TDINDWG
 40
0.0000000116
  9
$TDUSRTIMER
 40
0.0000000116
  9
$USRTIMER
 70
     1
  9
$ANGBASE
 50
0.0
  9
$ANGDIR
 70
     0
  9
$PDMODE
 70
     0
  9
$PDSIZE
 40
-1.0
  9
$PLINEWID
 40
0.0
  9
$SPLFRAME
 70
     0
  9
$SPLINETYPE
 70
     6
  9
$SPLINESEGS
 70
     8
  9
$HANDSEED
  5
26D
  9
$SURFTAB1
 70
     6
  9
$SURFTAB2
 70
     6
  9
$SURFTYPE
 70
     6
  9
$SURFU
 70
     6
  9
$SURFV
 70
     6
  9
$UCSBASE
  2

  9
$UCSNAME
  2

  9
$UCSORG
 10
0.0
 20
0.0
 30
0.0
  9
$UCSXDIR
 10
1.0
 20
0.0
 30
0.0
  9
$UCSYDIR
 10
0.0
 20
1.0
 30
0.0
  9
$UCSORTHOREF
  2

  9
$UCSORTHOVIEW
 70
     0
  9
$UCSORGTOP
 10
0.0
 20
0.0
 30
0.0
  9
$UCSORGBOTTOM
 10
0.0
 20
0.0
 30
0.0
  9
$UCSORGLEFT
 10
0.0
 20
0.0
 30
0.0
  9
$UCSORGRIGHT
 10
0.0
 20
0.0
 30
0.0
  9
$UCSORGFRONT
 10
0.0
 20
0.0
 30
0.0
  9
$UCSORGBACK
 10
0.0
 20
0.0
 30
0.0
  9
$PUCSBASE
  2

  9
$PUCSNAME
  2

  9
$PUCSORG
 10
0.0
 20
0.0
 30
0.0
  9
$PUCSXDIR
 10
1.0
 20
0.0
 30
0.0
  9
$PUCSYDIR
 10
0.0
 20
1.0
 30
0.0
  9
$PUCSORTHOREF
  2

  9
$PUCSORTHOVIEW
 70
     0
  9
$PUCSORGTOP
 10
0.0
 20
0.0
 30
0.0
  9
$PUCSORGBOTTOM
 10
0.0
 20
0.0
 30
0.0
  9
$PUCSORGLEFT
 10
0.0
 20
0.0
 30
0.0
  9
$PUCSORGRIGHT
 10
0.0
 20
0.0
 30
0.0
  9
$PUCSORGFRONT
 10
0.0
 20
0.0
 30
0.0
  9
$PUCSORGBACK
 10
0.0
 20
0.0
 30
0.0
  9
$USERI1
 70
     0
  9
$USERI2
 70
     0
  9
$USERI3
 70
     0
  9
$USERI4
 70
     0
  9
$USERI5
 70
     0
  9
$USERR1
 40
0.0
  9
$USERR2
 40
0.0
  9
$USERR3
 40
0.0
  9
$USERR4
 40
0.0
  9
$USERR5
 40
0.0
  9
$WORLDVIEW
 70
     1
  9
$SHADEDGE
 70
     3
  9
$SHADEDIF
 70
    70
  9
$TILEMODE
 70
     1
  9
$MAXACTVP
 70
    64
  9
$PINSBASE
 10
0.0
 20
0.0
 30
0.0
  9
$PLIMCHECK
 70
     0
  9
$PEXTMIN
 10
1.0000000000E+20
 20
1.0000000000E+20
 30
1.0000000000E+20
  9
$PEXTMAX
 10
-1.0000000000E+20
 20
-1.0000000000E+20
 30
-1.0000000000E+20
  9
$PLIMMIN
 10
0.0
 20
0.0
  9
$PLIMMAX
 10
420.0
 20
297.0
  9
$UNITMODE
 70
     0
  9
$VISRETAIN
 70
     1
  9
$PLINEGEN
 70
     0
  9
$PSLTSCALE
 70
     1
  9
$TREEDEPTH
 70
  3020
  9
$CMLSTYLE
  2
Standard
  9
$CMLJUST
 70
     0
  9
$CMLSCALE
 40
20.0
  9
$PROXYGRAPHICS
 70
     1
  9
$MEASUREMENT
 70
     1
  9
$CELWEIGHT
370
    -1
  9
$ENDCAPS
280
     0
  9
$JOINSTYLE
280
     0
  9
$LWDISPLAY
290
     1
  9
$INSUNITS
 70
     4
  9
$HYPERLINKBASE
  1

  9
$STYLESHEET
  1

  9
$XEDIT
290
     1
  9
$CEPSNTYPE
380
     0
  9
$PSTYLEMODE
290
     1
  9
$FINGERPRINTGUID
  2
{15EF1591-C558-439C-ADD6-B1B20E9FFD4E}
  9
$VERSIONGUID
  2
{FAEB1C32-E019-11D5-929B-00C0DF256EC4}
  9
$EXTNAMES
290
     1
  9
$PSVPSCALE
 40
0.0
  9
$OLESTARTUP
290
     0
  0
ENDSEC
  0
SECTION
  2
CLASSES
  0
CLASS
  1
ACDBDICTIONARYWDFLT
  2
AcDbDictionaryWithDefault
  3
ObjectDBX Classes
 90
        0
280
     0
281
     0
  0
CLASS
  1
VISUALSTYLE
  2
AcDbVisualStyle
  3
ObjectDBX Classes
 90
     4095
280
     0
281
     0
  0
CLASS
  1
MATERIAL
  2
AcDbMaterial
  3
ObjectDBX Classes
 90
     1153
280
     0
281
     0
  0
CLASS
  1
SCALE
  2
AcDbScale
  3
ObjectDBX Classes
 90
     1153
280
     0
281
     0
  0
CLASS
  1
TABLESTYLE
  2
AcDbTableStyle
  3
ObjectDBX Classes
 90
     4095
280
     0
281
     0
  0
CLASS
  1
MLEADERSTYLE
  2
AcDbMLeaderStyle
  3
ACDB_MLEADERSTYLE_CLASS
 90
     4095
280
     0
281
     0
  0
CLASS
  1
SUN
  2
AcDbSun
  3
SCENEOE
 90
     1153
280
     0
281
     0
  0
CLASS
  1
ACDBPLACEHOLDER
  2
AcDbPlaceHolder
  3
ObjectDBX Classes
 90
        0
280
     0
281
     0
  0
CLASS
  1
LAYOUT
  2
AcDbLayout
  3
ObjectDBX Classes
 90
        0
280
     0
281
     0
  0
ENDSEC
  0
SECTION
  2
TABLES
  0
TABLE
  2
VPORT
  5
8
330
0
100
AcDbSymbolTable
 70
     1
  0
VPORT
  5
29
330
8
100
AcDbSymbolTableRecord
100
AcDbViewportTableRecord
  2
*Active
 70
     0
 10
0.0
 20
0.0
 11
1.0
 21
1.0
 12
139.7
 22
107.95
 13
0.0
 23
0.0
 14
10.0
 24
10.0
 15
10.0
 25
10.0
 16
0.0
 26
0.0
 36
1.0
 17
0.0
 27
0.0
 37
0.0
 40
215.9
 41
1.2941176471
 42
50.0
 43
0.0
 44
0.0
 50
0.0
 51
0.0
 71
     0
 72
  2000
 73
     1
 74
     3
 75
     0
 76
     0
 77
     0
 78
     0
281
     0
 65
     1
110
0.0
120
0.0
130
0.0
111
1.0
121
0.0
131
0.0
112
0.0
122
1.0
132
0.0
 79
     0
146
0.0
  0
ENDTAB
  0
TABLE
  2
LTYPE
  5
5
330
0
100
AcDbSymbolTable
 70
     6
  0
LTYPE
  5
14
330
5
100
AcDbSymbolTableRecord
100
AcDbLinetypeTableRecord
  2
ByBlock
 70
     0
  3

 72
    65
 73
     0
 40
0.0
  0
LTYPE
  5
15
330
5
100
AcDbSymbolTableRecord
100
AcDbLinetypeTableRecord
  2
ByLayer
 70
     0
  3

 72
    65
 73
     0
 40
0.0
  0
LTYPE
  5
16
330
5
100
AcDbSymbolTableRecord
100
AcDbLinetypeTableRecord
  2
Continuous
 70
     0
  3
Solid line
 72
    65
 73
     0
 40
0.0
  0
LTYPE
  5
6E
330
5
100
AcDbSymbolTableRecord
100
AcDbLinetypeTableRecord
  2
HIDDEN
 70
     0
  3
Hidden __ __ __ __ __ __ __ __ __ __ __ __ __ __
 72
    65
 73
     2
 40
1.905
 49
1.27
 74
     0
 49
-0.635
 74
     0
  0
LTYPE
  5
6F
330
5
100
AcDbSymbolTableRecord
100
AcDbLinetypeTableRecord
  2
PHANTOM
 70
     0
  3
Phantom ______  __  __  ______  __  __  ______
 72
    65
 73
     6
 40
12.7
 49
6.35
 74
     0
 49
-1.27
 74
     0
 49
1.27
 74
     0
 49
-1.27
 74
     0
 49
1.27
 74
     0
 49
-1.27
 74
     0
  0
LTYPE
  5
70
330
5
100
AcDbSymbolTableRecord
100
AcDbLinetypeTableRecord
  2
CENTER
 70
     0
  3
Center ____ _ ____ _ ____ _ ____ _ ____ _ ____
 72
    65
 73
     4
 40
10.16
 49
6.35
 74
     0
 49
-1.27
 74
     0
 49
1.27
 74
     0
 49
-1.27
 74
     0
  0
LTYPE
  5
71
330
5
100
AcDbSymbolTableRecord
100
AcDbLinetypeTableRecord
  2
CENTERX2
 70
     0
  3
Center (2x) ________  __  ________  __  _____
 72
    65
 73
     4
 40
20.32
 49
12.7
 74
     0
 49
-2.54
 74
     0
 49
2.54
 74
     0
 49
-2.54
 74
     0
  0
LTYPE
  5
72
330
5
100
AcDbSymbolTableRecord
100
AcDbLinetypeTableRecord
  2
DOT2
 70
     0
  3
Dot (.5x) ........................................
 72
    65
 73
     2
 40
0.635
 49
0.0
 74
     0
 49
-0.635
 74
     0
  0
ENDTAB
  0
TABLE
  2
LAYER
  5
2
330
0
100
AcDbSymbolTable
 70
     2
  0
LAYER
  5
10
330
2
100
AcDbSymbolTableRecord
100
AcDbLayerTableRecord
  2
0
 70
     0
 62
     7
  6
Continuous
370
    -3
390
F
  0
LAYER
  5
73
330
2
100
AcDbSymbolTableRecord
100
AcDbLayerTableRecord
  2
FORMAT
 70
     0
 62
     7
  6
Continuous
370
    -3
390
F
  0
ENDTAB
  0
TABLE
  2
STYLE
  5
3
330
0
100
AcDbSymbolTable
 70
     5
  0
STYLE
  5
11
330
3
100
AcDbSymbolTableRecord
100
AcDbTextStyleTableRecord
  2
Standard
 70
     0
 40
0.0
 41
1.0
 50
0.0
 71
     0
 42
2.8222222222
  3
txt
  4

  0
STYLE
  5
9D
330
3
100
AcDbSymbolTableRecord
100
AcDbTextStyleTableRecord
  2
SLDTEXTSTYLE0
 70
     0
 40
0.0
 41
0.75
 50
0.0
 71
     0
 42
2.8222222222
  3
TXT
  4

  0
STYLE
  5
A3
330
3
100
AcDbSymbolTableRecord
100
AcDbTextStyleTableRecord
  2
SLDTEXTSTYLE1
 70
     0
 40
0.0
 41
0.75
 50
0.0
 71
     0
 42
2.8222222222
  3
TXT
  4
bigfont
  0
STYLE
  5
B6
330
3
100
AcDbSymbolTableRecord
100
AcDbTextStyleTableRecord
  2
SLDTEXTSTYLE2
 70
     0
 40
0.0
 41
0.7
 50
0.0
 71
     0
 42
2.8222222222
  3
TXT
  4

  0
STYLE
  5
C5
330
3
100
AcDbSymbolTableRecord
100
AcDbTextStyleTableRecord
  2
SLDTEXTSTYLE3
 70
     0
 40
0.0
 41
0.6
 50
0.0
 71
     0
 42
2.8222222222
  3
TXT
  4

  0
ENDTAB
  0
TABLE
  2
VIEW
  5
6
330
0
100
AcDbSymbolTable
 70
     0
  0
ENDTAB
  0
TABLE
  2
UCS
  5
7
330
0
100
AcDbSymbolTable
 70
     0
  0
ENDTAB
  0
TABLE
  2
APPID
  5
9
330
0
100
AcDbSymbolTable
 70
     1
  0
APPID
  5
12
330
9
100
AcDbSymbolTableRecord
100
AcDbRegAppTableRecord
  2
ACAD
 70
     0
  0
ENDTAB
  0
TABLE
  2
DIMSTYLE
  5
A
330
0
100
AcDbSymbolTable
 70
     6
100
AcDbDimStyleTable
  0
DIMSTYLE
105
27
330
A
100
AcDbSymbolTableRecord
100
AcDbDimStyleTableRecord
  2
ISO-25
 70
     0
 41
2.5
 42
0.625
 43
3.75
 44
1.25
 73
     0
 74
     0
 77
     1
 78
     8
140
2.5
141
2.5
143
0.0393700787
147
0.625
171
     3
172
     1
178
     0
271
     2
272
     2
274
     3
278
    44
283
     0
284
     8
340
11
  0
DIMSTYLE
105
F4
102
{ACAD_REACTORS
330
F3
102
}
330
A
100
AcDbSymbolTableRecord
100
AcDbDimStyleTableRecord
  2
SLDDIMSTYLE0
 70
     0
 41
3.175
 44
0.0
 45
0.000000001
 78
    12
 79
     3
140
2.1166666667
141
0.0
143
0.0393700787
147
0.5291666667
148
0.000000001
170
     1
173
     1
178
     0
271
     1
272
     1
276
     2
284
    12
340
9D
  0
DIMSTYLE
105
11B
102
{ACAD_REACTORS
330
11A
102
}
330
A
100
AcDbSymbolTableRecord
100
AcDbDimStyleTableRecord
  2
SLDDIMSTYLE1
 70
     0
 41
3.175
 44
0.0
 45
0.000000001
 78
    12
 79
     3
140
2.1166666667
143
0.0393700787
147
0.5291666667
148
0.000000001
170
     1
172
     1
173
     1
178
     0
271
     1
272
     1
276
     2
284
    12
289
     0
340
9D
  0
DIMSTYLE
105
12F
102
{ACAD_REACTORS
330
12E
102
}
330
A
100
AcDbSymbolTableRecord
100
AcDbDimStyleTableRecord
  2
SLDDIMSTYLE2
 70
     0
 41
3.175
 44
0.0
 45
0.000000001
 78
     4
 79
     1
140
2.1166666667
141
0.0
143
0.0393700787
147
0.5291666667
148
0.000000001
170
     1
173
     1
178
     0
271
     1
272
     1
276
     2
284
    12
340
9D
  0
DIMSTYLE
105
140
102
{ACAD_REACTORS
330
13F
102
}
330
A
100
AcDbSymbolTableRecord
100
AcDbDimStyleTableRecord
  2
SLDDIMSTYLE3
 70
     0
 41
3.175
 44
0.0
 45
0.000000001
 78
     4
 79
     1
140
2.1166666667
143
0.0393700787
147
0.5291666667
148
0.000000001
170
     1
172
     1
173
     1
178
     0
271
     1
272
     1
276
     2
284
    12
289
     0
340
9D
  0
DIMSTYLE
105
156
330
A
100
AcDbSymbolTableRecord
100
AcDbDimStyleTableRecord
  2
SLDDIMSTYLE4
 70
     0
 41
3.175
 44
0.0
 45
0.000000001
146
3.175
147
0.0
173
     1
178
     0
271
     0
272
     0
276
     2
340
11
  0
ENDTAB
  0
TABLE
  2
BLOCK_RECORD
  5
1
330
0
100
AcDbSymbolTable
 70
    11
  0
BLOCK_RECORD
  5
1F
330
1
100
AcDbSymbolTableRecord
100
AcDbBlockTableRecord
  2
*Model_Space
340
22
  0
BLOCK_RECORD
  5
1B
330
1
100
AcDbSymbolTableRecord
100
AcDbBlockTableRecord
  2
*Paper_Space
340
1E
  0
BLOCK_RECORD
  5
23
330
1
100
AcDbSymbolTableRecord
100
AcDbBlockTableRecord
  2
*Paper_Space0
340
26
  0
BLOCK_RECORD
  5
74
330
1
100
AcDbSymbolTableRecord
100
AcDbBlockTableRecord
  2
Third Angle Projection Block
340
0
102
{BLKREFS
331
99
102
}
  0
BLOCK_RECORD
  5
9A
330
1
100
AcDbSymbolTableRecord
100
AcDbBlockTableRecord
  2
SW_NOTE_0
340
0
102
{BLKREFS
331
B9
102
}
  0
BLOCK_RECORD
  5
CB
330
1
100
AcDbSymbolTableRecord
100
AcDbBlockTableRecord
  2
SW_NOTE_1
340
0
102
{BLKREFS
331
D0
102
}
  0
BLOCK_RECORD
  5
D1
330
1
100
AcDbSymbolTableRecord
100
AcDbBlockTableRecord
  2
SW_NOTE_2
340
0
102
{BLKREFS
331
D6
102
}
  0
BLOCK_RECORD
  5
D8
330
1
100
AcDbSymbolTableRecord
100
AcDbBlockTableRecord
  2
SW_NOTE_3
340
0
102
{BLKREFS
331
DD
102
}
  0
BLOCK_RECORD
  5
DE
330
1
100
AcDbSymbolTableRecord
100
AcDbBlockTableRecord
  2
SW_NOTE_4
340
0
102
{BLKREFS
331
E4
102
}
  0
BLOCK_RECORD
  5
F5
330
1
100
AcDbSymbolTableRecord
100
AcDbBlockTableRecord
  2
_D
340
0
  0
BLOCK_RECORD
  5
11C
330
1
100
AcDbSymbolTableRecord
100
AcDbBlockTableRecord
  2
_D_1
340
0
  0
BLOCK_RECORD
  5
130
330
1
100
AcDbSymbolTableRecord
100
AcDbBlockTableRecord
  2
_D_2
340
0
  0
BLOCK_RECORD
  5
141
330
1
100
AcDbSymbolTableRecord
100
AcDbBlockTableRecord
  2
_D_3
340
0
  0
ENDTAB
  0
ENDSEC
  0
SECTION
  2
BLOCKS
  0
BLOCK
  5
20
330
1F
100
AcDbEntity
  8
0
100
AcDbBlockBegin
  2
*Model_Space
 70
     0
 10
0.0
 20
0.0
 30
0.0
  3
*Model_Space
  1

  0
ENDBLK
  5
21
330
1F
100
AcDbEntity
  8
0
100
AcDbBlockEnd
  0
BLOCK
  5
1C
330
1B
100
AcDbEntity
 67
     1
  8
0
100
AcDbBlockBegin
  2
*Paper_Space
 70
     0
 10
0.0
 20
0.0
 30
0.0
  3
*Paper_Space
  1

  0
ENDBLK
  5
1D
330
1B
100
AcDbEntity
 67
     1
  8
0
100
AcDbBlockEnd
  0
BLOCK
  5
24
330
23
100
AcDbEntity
  8
0
100
AcDbBlockBegin
  2
*Paper_Space0
 70
     0
 10
0.0
 20
0.0
 30
0.0
  3
*Paper_Space0
  1

  0
ENDBLK
  5
25
330
23
100
AcDbEntity
  8
0
100
AcDbBlockEnd
  0
BLOCK
  5
75
330
74
100
AcDbEntity
  8
0
100
AcDbBlockBegin
  2
Third Angle Projection Block
 70
     0
 10
0.0
 20
0.0
 30
0.0
  3
Third Angle Projection Block
  1

  0
CIRCLE
  5
77
330
74
100
AcDbEntity
  8
0
  6
Continuous
 62
     7
370
    35
100
AcDbCircle
 10
101.4766388944
 20
18.9404083667
 30
0.0
 40
1.768227153674871
  0
CIRCLE
  5
78
330
74
100
AcDbEntity
  8
0
  6
Continuous
 62
     7
370
    35
100
AcDbCircle
 10
101.4766388944
 20
18.9404083667
 30
0.0
 40
3.901228248531818
  0
LINE
  5
79
330
74
100
AcDbEntity
  8
0
  6
CENTERX2
 62
     7
370
    18
100
AcDbLine
 10
110.1367822585
 20
18.9404083667
 30
0.0
 11
119.4527334874
 21
18.9404083667
 31
0.0
  0
LINE
  5
7A
330
74
100
AcDbEntity
  8
0
  6
Continuous
 62
     7
370
    35
100
AcDbLine
 10
111.0016388944
 20
20.7086355204
 30
0.0
 11
111.0016388944
 21
17.172181213
 31
0.0
  0
LINE
  5
7B
330
74
100
AcDbEntity
  8
0
  6
Continuous
 62
     7
370
    35
100
AcDbLine
 10
111.0016388944
 20
17.172181213
 30
0.0
 11
118.6216388944
 21
15.1304083667
 31
0.0
  0
LINE
  5
7C
330
74
100
AcDbEntity
  8
0
  6
Continuous
 62
     7
370
    35
100
AcDbLine
 10
118.6216388944
 20
15.1304083667
 30
0.0
 11
118.6216388944
 21
22.7504083667
 31
0.0
  0
LINE
  5
7D
330
74
100
AcDbEntity
  8
0
  6
Continuous
 62
     7
370
    35
100
AcDbLine
 10
118.6216388944
 20
22.7504083667
 30
0.0
 11
111.0016388944
 21
20.7086355204
 31
0.0
  0
LINE
  5
7E
330
74
100
AcDbEntity
  8
0
  6
CENTERX2
 62
     7
370
    18
100
AcDbLine
 10
96.6025854619
 20
18.9404083667
 30
0.0
 11
106.3506923269
 21
18.9404083667
 31
0.0
  0
LINE
  5
7F
330
74
100
AcDbEntity
  8
0
  6
CENTERX2
 62
     7
370
    18
100
AcDbLine
 10
101.4766388944
 20
23.8144617992
 30
0.0
 11
101.4766388944
 21
14.0663549342
 31
0.0
  0
POINT
  5
80
330
74
100
AcDbEntity
  8
0
  6
Continuous
 62
     7
370
     0
100
AcDbPoint
 10
101.4766388944
 20
18.9404083667
 30
0.0
  0
ENDBLK
  5
76
330
74
100
AcDbEntity
  8
0
100
AcDbBlockEnd
  0
BLOCK
  5
9B
330
9A
100
AcDbEntity
  8
0
100
AcDbBlockBegin
  2
SW_NOTE_0
 70
     0
 10
0.0
 20
0.0
 30
0.0
  3
SW_NOTE_0
  1

  0
MTEXT
  5
9E
330
9A
100
AcDbEntity
  8
0
  6
Continuous
 62
     0
370
     0
100
AcDbMText
 10
0.0
 20
3.4106583948
 30
0.0
 40
2.6458333333
 41
0.0
 71
     1
 72
     1
  1
NOTES/SPECIFICATIONS:
  7
SLDTEXTSTYLE0
 73
     1
 44
1.0
  0
MTEXT
  5
9F
330
9A
100
AcDbEntity
  8
0
  6
Continuous
 62
     0
370
     0
100
AcDbMText
 10
9.9999997765
 20
-5.6448974033
 30
0.0
 40
2.6458333333
 41
0.0
 71
     1
 72
     1
  1
CLEAR APERTURE: >
  7
SLDTEXTSTYLE0
 73
     1
 44
1.0
  0
MTEXT
  5
A0
330
9A
100
AcDbEntity
  8
0
  6
Continuous
 62
     0
370
     0
100
AcDbMText
 10
42.7789334208
 20
-5.6448974033
 30
0.0
 40
2.6458333333
 41
0.0
 71
     1
 72
     1
  1
%%c
  7
SLDTEXTSTYLE0
 73
     1
 44
1.0
  0
MTEXT
  5
A1
330
9A
100
AcDbEntity
  8
0
  6
Continuous
 62
     0
370
     0
100
AcDbMText
 10
46.7726718634
 20
-5.6448974033
 30
0.0
 40
2.6458333333
 41
0.0
 71
     1
 72
     1
  1
45.72mm
  7
SLDTEXTSTYLE0
 73
     1
 44
1.0
  0
MTEXT
  5
A2
330
9A
100
AcDbEntity
  8
0
  6
Continuous
 62
     0
370
     0
100
AcDbMText
 10
0.0
 20
-5.6448974033
 30
0.0
 40
2.6458333333
 41
0.0
 71
     1
 72
     1
  1
1.
  7
SLDTEXTSTYLE0
 73
     1
 44
1.0
  0
MTEXT
  5
A4
330
9A
100
AcDbEntity
  8
0
  6
Continuous
 62
     0
370
     0
100
AcDbMText
 10
9.9999997765
 20
-10.1726753024
 30
0.0
 40
2.6458333333
 41
0.0
 71
     1
 72
     1
  1
SURFACE IRREGULARITY (S1): \U+2264\M+183C9/4 AT 633nm OVER CLEAR APERTURE
  7
SLDTEXTSTYLE1
 73
     1
 44
1.0
  0
MTEXT
  5
A5
330
9A
100
AcDbEntity
  8
0
  6
Continuous
 62
     0
370
     0
100
AcDbMText
 10
0.0
 20
-10.1726753024
 30
0.0
 40
2.6458333333
 41
0.0
 71
     1
 72
     1
  1
2.
  7
SLDTEXTSTYLE0
 73
     1
 44
1.0
  0
MTEXT
  5
A6
330
9A
100
AcDbEntity
  8
0
  6
Continuous
 62
     0
370
     0
100
AcDbMText
 10
9.9999997765
 20
-14.7004532014
 30
0.0
 40
2.6458333333
 41
0.0
 71
     1
 72
     1
  1
BACK SURFACE (S2): UNIFORM FINE GRIND #12-#20 GRIT
  7
SLDTEXTSTYLE0
 73
     1
 44
1.0
  0
MTEXT
  5
A7
330
9A
100
AcDbEntity
  8
0
  6
Continuous
 62
     0
370
     0
100
AcDbMText
 10
0.0
 20
-14.7004532014
 30
0.0
 40
2.6458333333
 41
0.0
 71
     1
 72
     1
  1
3.
  7
SLDTEXTSTYLE0
 73
     1
 44
1.0
  0
MTEXT
  5
A8
330
9A
100
AcDbEntity
  8
0
  6
Continuous
 62
     0
370
     0
100
AcDbMText
 10
9.9999997765
 20
-19.2282311005
 30
0.0
 40
2.6458333333
 41
0.0
 71
     1
 72
     1
  1
SURFACE QUALITY(S1): 40-20 SCRATCH-DIG
  7
SLDTEXTSTYLE0
 73
     1
 44
1.0
  0
MTEXT
  5
A9
330
9A
100
AcDbEntity
  8
0
  6
Continuous
 62
     0
370
     0
100
AcDbMText
 10
0.0
 20
-19.2282311005
 30
0.0
 40
2.6458333333
 41
0.0
 71
     1
 72
     1
  1
4.
  7
SLDTEXTSTYLE0
 73
     1
 44
1.0
  0
MTEXT
  5
AA
330
9A
100
AcDbEntity
  8
0
  6
Continuous
 62
     0
370
     0
100
AcDbMText
 10
9.9999997765
 20
-23.7560089995
 30
0.0
 40
2.6458333333
 41
0.0
 71
     1
 72
     1
  1
THICKNESS TOLERANCE:
  7
SLDTEXTSTYLE0
 73
     1
 44
1.0
  0
MTEXT
  5
AB
330
9A
100
AcDbEntity
  8
0
  6
Continuous
 62
     0
370
     0
100
AcDbMText
 10
50.8242268115
 20
-23.7560089995
 30
0.0
 40
2.6458333333
 41
0.0
 71
     1
 72
     1
  1
%%p
  7
SLDTEXTSTYLE0
 73
     1
 44
1.0
  0
MTEXT
  5
AC
330
9A
100
AcDbEntity
  8
0
  6
Continuous
 62
     0
370
     0
100
AcDbMText
 10
53.3465910703
 20
-23.7560089995
 30
0.0
 40
2.6458333333
 41
0.0
 71
     1
 72
     1
  1
0.1 mm
  7
SLDTEXTSTYLE0
 73
     1
 44
1.0
  0
MTEXT
  5
AD
330
9A
100
AcDbEntity
  8
0
  6
Continuous
 62
     0
370
     0
100
AcDbMText
 10
0.0
 20
-23.7560089995
 30
0.0
 40
2.6458333333
 41
0.0
 71
     1
 72
     1
  1
5.
  7
SLDTEXTSTYLE0
 73
     1
 44
1.0
  0
MTEXT
  5
AE
330
9A
100
AcDbEntity
  8
0
  6
Continuous
 62
     0
370
     0
100
AcDbMText
 10
9.9999997765
 20
-28.2837868986
 30
0.0
 40
2.6458333333
 41
0.0
 71
     1
 72
     1
  1
DIAMETER TOLERANCE: +0.0/-0.2 mm
  7
SLDTEXTSTYLE0
 73
     1
 44
1.0
  0
MTEXT
  5
AF
330
9A
100
AcDbEntity
  8
0
  6
Continuous
 62
     0
370
     0
100
AcDbMText
 10
0.0
 20
-28.2837868986
 30
0.0
 40
2.6458333333
 41
0.0
 71
     1
 72
     1
  1
6.
  7
SLDTEXTSTYLE0
 73
     1
 44
1.0
  0
MTEXT
  5
B0
330
9A
100
AcDbEntity
  8
0
  6
Continuous
 62
     0
370
     0
100
AcDbMText
 10
9.9999997765
 20
-32.8115647976
 30
0.0
 40
2.6458333333
 41
0.0
 71
     1
 72
     1
  1
COATING(S1): PROTECTED ALUMINUM
  7
SLDTEXTSTYLE0
 73
     1
 44
1.0
  0
MTEXT
  5
B1
330
9A
100
AcDbEntity
  8
0
  6
Continuous
 62
     0
370
     0
100
AcDbMText
 10
0.0
 20
-32.8115647976
 30
0.0
 40
2.6458333333
 41
0.0
 71
     1
 72
     1
  1
7.
  7
SLDTEXTSTYLE0
 73
     1
 44
1.0
  0
MTEXT
  5
B2
330
9A
100
AcDbEntity
  8
0
  6
Continuous
 62
     0
370
     0
100
AcDbMText
 10
34.9609375
 20
-37.3393426967
 30
0.0
 40
2.6458333333
 41
0.0
 71
     1
 72
     1
  1
Ravg: >90% FROM 450nm-2\M+183CAm
  7
SLDTEXTSTYLE1
 73
     1
 44
1.0
  0
MTEXT
  5
B3
330
9A
100
AcDbEntity
  8
0
  6
Continuous
 62
     0
370
     0
100
AcDbMText
 10
34.9609375
 20
-41.8671205958
 30
0.0
 40
2.6458333333
 41
0.0
 71
     1
 72
     1
  1
Ravg: >95% FROM 2\M+183CAm-20\M+183CAm
  7
SLDTEXTSTYLE1
 73
     1
 44
1.0
  0
MTEXT
  5
B4
330
9A
100
AcDbEntity
  8
0
  6
Continuous
 62
     0
370
     0
100
AcDbMText
 10
34.9609375
 20
-46.3948984948
 30
0.0
 40
2.6458333333
 41
0.0
 71
     1
 72
     1
  1
AOI: 0
  7
SLDTEXTSTYLE0
 73
     1
 44
1.0
  0
MTEXT
  5
B5
330
9A
100
AcDbEntity
  8
0
  6
Continuous
 62
     0
370
     0
100
AcDbMText
 10
45.2576388791
 20
-46.3948984948
 30
0.0
 40
2.6458333333
 41
0.0
 71
     1
 72
     1
  1
%%d
  7
SLDTEXTSTYLE0
 73
     1
 44
1.0
  0
MTEXT
  5
B7
330
9A
100
AcDbEntity
  8
0
  6
Continuous
 62
     0
370
     0
100
AcDbMText
 10
47.9314009994
 20
-46.3948984948
 30
0.0
 40
2.6458333333
 41
0.0
 71
     1
 72
     1
  1
TO 45
  7
SLDTEXTSTYLE2
 73
     1
 44
1.0
  0
MTEXT
  5
B8
330
9A
100
AcDbEntity
  8
0
  6
Continuous
 62
     0
370
     0
100
AcDbMText
 10
57.3706559092
 20
-46.3948984948
 30
0.0
 40
2.6458333333
 41
0.0
 71
     1
 72
     1
  1
%%d
  7
SLDTEXTSTYLE0
 73
     1
 44
1.0
  0
ENDBLK
  5
9C
330
9A
100
AcDbEntity
  8
0
100
AcDbBlockEnd
  0
BLOCK
  5
CC
330
CB
100
AcDbEntity
  8
0
100
AcDbBlockBegin
  2
SW_NOTE_1
 70
     0
 10
0.0
 20
0.0
 30
0.0
  3
SW_NOTE_1
  1

  0
MTEXT
  5
CE
330
CB
100
AcDbEntity
  8
0
  6
Continuous
 62
     0
370
     0
100
AcDbMText
 10
19.90725
 20
1.9645392354
 30
0.0
 40
1.524
 41
0.0
 71
     2
 72
     1
  1
VALUES IN PARENTHESIS ARE CALCULATED
  7
SLDTEXTSTYLE0
 73
     1
 44
1.0
  0
MTEXT
  5
CF
330
CB
100
AcDbEntity
  8
0
  6
Continuous
 62
     0
370
     0
100
AcDbMText
 10
19.8778795174
 20
-0.5594606586
 30
0.0
 40
1.524
 41
0.0
 71
     2
 72
     1
  1
AND MAY CONTAIN ROUNDOFF ERRORS
  7
SLDTEXTSTYLE0
 73
     1
 44
1.0
  0
ENDBLK
  5
CD
330
CB
100
AcDbEntity
  8
0
100
AcDbBlockEnd
  0
BLOCK
  5
D2
330
D1
100
AcDbEntity
  8
0
100
AcDbBlockBegin
  2
SW_NOTE_2
 70
     0
 10
0.0
 20
0.0
 30
0.0
  3
SW_NOTE_2
  1

  0
MTEXT
  5
D4
330
D1
100
AcDbEntity
  8
0
  6
Continuous
 62
     0
370
     0
100
AcDbMText
 10
0.0
 20
2.7285267159
 30
0.0
 40
2.1166666667
 41
0.0
 71
     1
 72
     1
  1
DRAWING
  7
SLDTEXTSTYLE0
 73
     1
 44
1.0
  0
MTEXT
  5
D5
330
D1
100
AcDbEntity
  8
0
  6
Continuous
 62
     0
370
     0
100
AcDbMText
 10
0.0
 20
-0.0936954723
 30
0.0
 40
2.1166666667
 41
0.0
 71
     1
 72
     1
  1
PROJECTION
  7
SLDTEXTSTYLE0
 73
     1
 44
1.0
  0
ENDBLK
  5
D3
330
D1
100
AcDbEntity
  8
0
100
AcDbBlockEnd
  0
BLOCK
  5
D9
330
D8
100
AcDbEntity
  8
0
100
AcDbBlockBegin
  2
SW_NOTE_3
 70
     0
 10
0.0
 20
0.0
 30
0.0
  3
SW_NOTE_3
  1

  0
MTEXT
  5
DB
330
D8
100
AcDbEntity
  8
0
  6
Continuous
 62
     0
370
     0
100
AcDbMText
 10
25.052734375
 20
4.0927900738
 30
0.0
 40
3.175
 41
0.0
 71
     2
 72
     1
  1
FOR INFORMATION ONLY
  7
SLDTEXTSTYLE0
 73
     1
 44
1.0
  0
MTEXT
  5
DC
330
D8
100
AcDbEntity
  8
0
  6
Continuous
 62
     0
370
     0
100
AcDbMText
 10
25.3768468589
 20
-0.1405432084
 30
0.0
 40
3.175
 41
0.0
 71
     2
 72
     1
  1
NOT FOR MANUFACTURING PURPOSES
  7
SLDTEXTSTYLE0
 73
     1
 44
1.0
  0
ENDBLK
  5
DA
330
D8
100
AcDbEntity
  8
0
100
AcDbBlockEnd
  0
BLOCK
  5
DF
330
DE
100
AcDbEntity
  8
0
100
AcDbBlockBegin
  2
SW_NOTE_4
 70
     0
 10
0.0
 20
0.0
 30
0.0
  3
SW_NOTE_4
  1

  0
MTEXT
  5
E1
330
DE
100
AcDbEntity
  8
0
  6
Continuous
 62
     0
370
     0
100
AcDbMText
 10
1.9016927083
 20
3.4106583948
 30
0.0
 40
2.6458333333
 41
0.0
 71
     2
 72
     1
  1
%%c
  7
SLDTEXTSTYLE0
 73
     1
 44
1.0
  0
MTEXT
  5
E2
330
DE
100
AcDbEntity
  8
0
  6
Continuous
 62
     0
370
     0
100
AcDbMText
 10
28.5917202135
 20
3.4106583948
 30
0.0
 40
2.6458333333
 41
0.0
 71
     2
 72
     1
  1
50.8mm, f=500mm CONCAVE
  7
SLDTEXTSTYLE0
 73
     1
 44
1.0
  0
MTEXT
  5
E3
330
DE
100
AcDbEntity
  8
0
  6
Continuous
 62
     0
370
     0
100
AcDbMText
 10
26.7115269403
 20
-0.1171193403
 30
0.0
 40
2.6458333333
 41
0.0
 71
     2
 72
     1
  1
PROTECTED ALUMINUM MIRROR
  7
SLDTEXTSTYLE0
 73
     1
 44
1.0
  0
ENDBLK
  5
E0
330
DE
100
AcDbEntity
  8
0
100
AcDbBlockEnd
  0
BLOCK
  5
F6
330
F5
100
AcDbEntity
  8
0
100
AcDbBlockBegin
  2
_D
 70
     0
 10
0.0
 20
0.0
 30
0.0
  3
_D
  1

  0
SOLID
  5
F8
330
F5
100
AcDbEntity
  8
0
  6
Continuous
 62
     7
370
    18
100
AcDbTrace
 10
73.2088747676
 20
142.6117314518
 30
0.0
 11
75.8131490427
 21
144.4975852372
 31
0.0
 12
75.094728553
 22
145.2160057269
 32
0.0
 13
75.094728553
 23
145.2160057269
 33
0.0
  0
LINE
  5
F9
330
F5
100
AcDbEntity
  8
0
  6
Continuous
 62
     7
370
    18
100
AcDbLine
 10
93.7512548009
 20
156.4853637368
 30
0.0
 11
93.1074353468
 21
156.4853637368
 31
0.0
  0
LINE
  5
FA
330
F5
100
AcDbEntity
  8
0
  6
Continuous
 62
     7
370
    18
100
AcDbLine
 10
93.1074353468
 20
156.4853637368
 30
0.0
 11
93.1074353468
 21
153.1222156603
 31
0.0
  0
LINE
  5
FB
330
F5
100
AcDbEntity
  8
0
  6
Continuous
 62
     7
370
    18
100
AcDbLine
 10
93.1074353468
 20
153.1222156603
 30
0.0
 11
93.7512548009
 21
153.1222156603
 31
0.0
  0
LINE
  5
FC
330
F5
100
AcDbEntity
  8
0
  6
Continuous
 62
     7
370
    18
100
AcDbLine
 10
101.5084463471
 20
156.4853637368
 30
0.0
 11
102.1522658013
 21
156.4853637368
 31
0.0
  0
LINE
  5
FD
330
F5
100
AcDbEntity
  8
0
  6
Continuous
 62
     7
370
    18
100
AcDbLine
 10
102.1522658013
 20
156.4853637368
 30
0.0
 11
102.1522658013
 21
153.1222156603
 31
0.0
  0
LINE
  5
FE
330
F5
100
AcDbEntity
  8
0
  6
Continuous
 62
     7
370
    18
100
AcDbLine
 10
102.1522658013
 20
153.1222156603
 30
0.0
 11
101.5084463471
 21
153.1222156603
 31
0.0
  0
LINE
  5
FF
330
F5
100
AcDbEntity
  8
0
  6
Continuous
 62
     7
370
    18
100
AcDbLine
 10
73.2088747676
 20
142.6117314518
 30
0.0
 11
88.6536158926
 21
158.0564725768
 31
0.0
  0
LINE
  5
100
330
F5
100
AcDbEntity
  8
0
  6
Continuous
 62
     7
370
    18
100
AcDbLine
 10
88.6536158926
 20
158.0564725768
 30
0.0
 11
92.4636158926
 21
158.0564725768
 31
0.0
  0
MTEXT
  5
101
330
F5
100
AcDbEntity
  8
0
  6
Continuous
 62
     7
370
    18
100
AcDbMText
 10
92.4636158926
 20
159.6431033832
 30
0.0
 40
2.1166666667
 41
0.0
 71
     1
 72
     1
  1
%%c
  7
SLDTEXTSTYLE0
 73
     1
 44
1.0
  0
MTEXT
  5
102
330
F5
100
AcDbEntity
  8
0
  6
Continuous
 62
     7
370
    18
100
AcDbMText
 10
95.6586066933
 20
159.6431033832
 30
0.0
 40
2.1166666667
 41
0.0
 71
     1
 72
     1
  1
50.8mm
  7
SLDTEXTSTYLE0
 73
     1
 44
1.0
  0
MTEXT
  5
103
330
F5
100
AcDbEntity
  8
0
  6
Continuous
 62
     7
370
    18
100
AcDbMText
 10
93.7512548009
 20
155.8507422598
 30
0.0
 40
2.1166666667
 41
0.0
 71
     1
 72
     1
  1
2.00in
  7
SLDTEXTSTYLE0
 73
     1
 44
1.0
  0
ENDBLK
  5
F7
330
F5
100
AcDbEntity
  8
0
100
AcDbBlockEnd
  0
BLOCK
  5
11D
330
11C
100
AcDbEntity
  8
0
100
AcDbBlockBegin
  2
_D_1
 70
     0
 10
0.0
 20
0.0
 30
0.0
  3
_D_1
  1

  0
SOLID
  5
11F
330
11C
100
AcDbEntity
  8
0
  6
Continuous
 62
     7
370
    18
100
AcDbTrace
 10
135.015850926
 20
163.2907946531
 30
0.0
 11
131.8411205448
 21
163.8004769138
 31
0.0
 12
131.8405821986
 22
162.7844770564
 32
0.0
 13
131.8405821986
 23
162.7844770564
 33
0.0
  0
SOLID
  5
120
330
11C
100
AcDbEntity
  8
0
  6
Continuous
 62
     7
370
    18
100
AcDbTrace
 10
144.3335458092
 20
163.285857501
 30
0.0
 11
147.5082761904
 21
162.7761752404
 31
0.0
 12
147.5088145366
 22
163.7921750978
 32
0.0
 13
147.5088145366
 23
163.7921750978
 33
0.0
  0
LINE
  5
121
330
11C
100
AcDbEntity
  8
0
  6
Continuous
 62
     7
370
    18
100
AcDbLine
 10
155.8761575861
 20
163.2762623059
 30
0.0
 11
155.232338132
 21
163.2762623059
 31
0.0
  0
LINE
  5
122
330
11C
100
AcDbEntity
  8
0
  6
Continuous
 62
     7
370
    18
100
AcDbLine
 10
155.232338132
 20
163.2762623059
 30
0.0
 11
155.232338132
 21
159.9131142294
 31
0.0
  0
LINE
  5
123
330
11C
100
AcDbEntity
  8
0
  6
Continuous
 62
     7
370
    18
100
AcDbLine
 10
155.232338132
 20
159.9131142294
 30
0.0
 11
155.8761575861
 21
159.9131142294
 31
0.0
  0
LINE
  5
124
330
11C
100
AcDbEntity
  8
0
  6
Continuous
 62
     7
370
    18
100
AcDbLine
 10
163.6333491323
 20
163.2762623059
 30
0.0
 11
164.2771685865
 21
163.2762623059
 31
0.0
  0
LINE
  5
125
330
11C
100
AcDbEntity
  8
0
  6
Continuous
 62
     7
370
    18
100
AcDbLine
 10
164.2771685865
 20
163.2762623059
 30
0.0
 11
164.2771685865
 21
159.9131142294
 31
0.0
  0
LINE
  5
126
330
11C
100
AcDbEntity
  8
0
  6
Continuous
 62
     7
370
    18
100
AcDbLine
 10
164.2771685865
 20
159.9131142294
 30
0.0
 11
163.6333491323
 21
159.9131142294
 31
0.0
  0
LINE
  5
127
330
11C
100
AcDbEntity
  8
0
  6
Continuous
 62
     7
370
    18
100
AcDbLine
 10
135.0094052684
 20
151.1261561835
 30
0.0
 11
135.0167930319
 21
165.0687944035
 31
0.0
  0
LINE
  5
128
330
11C
100
AcDbEntity
  8
0
  6
Continuous
 62
     7
370
    18
100
AcDbLine
 10
144.3271001517
 20
151.1212190314
 30
0.0
 11
144.3344879151
 21
165.0638572514
 31
0.0
  0
LINE
  5
129
330
11C
100
AcDbEntity
  8
0
  6
Continuous
 62
     7
370
    18
100
AcDbLine
 10
135.015850926
 20
163.2907946531
 30
0.0
 11
128.6658518174
 21
163.294159317
 31
0.0
  0
LINE
  5
12A
330
11C
100
AcDbEntity
  8
0
  6
Continuous
 62
     7
370
    18
100
AcDbLine
 10
144.3335458092
 20
163.285857501
 30
0.0
 11
154.1590051951
 21
163.2806513005
 31
0.0
  0
MTEXT
  5
12B
330
11C
100
AcDbEntity
  8
0
  6
Continuous
 62
     7
370
    18
100
AcDbMText
 10
155.1549229907
 20
166.4340019523
 30
0.0
 40
2.1166666667
 41
0.0
 71
     1
 72
     1
  1
9.3mm
  7
SLDTEXTSTYLE0
 73
     1
 44
1.0
  0
MTEXT
  5
12C
330
11C
100
AcDbEntity
  8
0
  6
Continuous
 62
     7
370
    18
100
AcDbMText
 10
155.8761575861
 20
162.6416408288
 30
0.0
 40
2.1166666667
 41
0.0
 71
     1
 72
     1
  1
0.37in
  7
SLDTEXTSTYLE0
 73
     1
 44
1.0
  0
MTEXT
  5
12D
330
11C
100
AcDbEntity
  8
0
  6
Continuous
 62
     7
370
    18
100
AcDbMText
 10
165.7147375749
 20
166.4340019523
 30
0.0
 40
2.1166666667
 41
0.0
 71
     1
 72
     1
  1
REF
  7
SLDTEXTSTYLE0
 73
     1
 44
1.0
  0
ENDBLK
  5
11E
330
11C
100
AcDbEntity
  8
0
100
AcDbBlockEnd
  0
BLOCK
  5
131
330
130
100
AcDbEntity
  8
0
100
AcDbBlockBegin
  2
_D_2
 70
     0
 10
0.0
 20
0.0
 30
0.0
  3
_D_2
  1

  0
ARC
  5
133
330
130
100
AcDbEntity
  8
0
  6
Continuous
 62
     7
370
    18
100
AcDbCircle
 10
-864.6736048164
 20
124.6512192096
 30
0.0
 40
1000.000032035271
100
AcDbArc
 50
358.0107660231
 51
358.482944975
  0
SOLID
  5
134
330
130
100
AcDbEntity
  8
0
  6
Continuous
 62
     7
370
    18
100
AcDbTrace
 10
134.7839319138
 20
91.7164906725
 30
0.0
 11
137.9404786497
 21
91.1041985004
 31
0.0
 12
137.9739403328
 22
92.1196473251
 32
0.0
 13
137.9739403328
 23
92.1196473251
 33
0.0
  0
LINE
  5
135
330
130
100
AcDbEntity
  8
0
  6
Continuous
 62
     7
370
    18
100
AcDbLine
 10
155.9271149008
 20
89.6166393706
 30
0.0
 11
155.2832954466
 21
89.6166393706
 31
0.0
  0
LINE
  5
136
330
130
100
AcDbEntity
  8
0
  6
Continuous
 62
     7
370
    18
100
AcDbLine
 10
155.2832954466
 20
89.6166393706
 30
0.0
 11
155.2832954466
 21
86.2534912942
 31
0.0
  0
LINE
  5
137
330
130
100
AcDbEntity
  8
0
  6
Continuous
 62
     7
370
    18
100
AcDbLine
 10
155.2832954466
 20
86.2534912942
 30
0.0
 11
155.9271149008
 21
86.2534912942
 31
0.0
  0
LINE
  5
138
330
130
100
AcDbEntity
  8
0
  6
Continuous
 62
     7
370
    18
100
AcDbLine
 10
165.2482885538
 20
89.6166393706
 30
0.0
 11
165.8921080079
 21
89.6166393706
 31
0.0
  0
LINE
  5
139
330
130
100
AcDbEntity
  8
0
  6
Continuous
 62
     7
370
    18
100
AcDbLine
 10
165.8921080079
 20
89.6166393706
 30
0.0
 11
165.8921080079
 21
86.2534912942
 31
0.0
  0
LINE
  5
13A
330
130
100
AcDbEntity
  8
0
  6
Continuous
 62
     7
370
    18
100
AcDbLine
 10
165.8921080079
 20
86.2534912942
 30
0.0
 11
165.2482885538
 21
86.2534912942
 31
0.0
  0
LINE
  5
13B
330
130
100
AcDbEntity
  8
0
  6
Continuous
 62
     7
370
    18
100
AcDbLine
 10
134.7839319138
 20
91.7164906725
 30
0.0
 11
150.8294759925
 21
91.1877482107
 31
0.0
  0
LINE
  5
13C
330
130
100
AcDbEntity
  8
0
  6
Continuous
 62
     7
370
    18
100
AcDbLine
 10
150.8294759925
 20
91.1877482107
 30
0.0
 11
154.6394759925
 21
91.1877482107
 31
0.0
  0
MTEXT
  5
13D
330
130
100
AcDbEntity
  8
0
  6
Continuous
 62
     7
370
    18
100
AcDbMText
 10
154.6394759925
 20
92.7743790171
 30
0.0
 40
2.1166666667
 41
0.0
 71
     1
 72
     1
  1
R1000.0mm
  7
SLDTEXTSTYLE0
 73
     1
 44
1.0
  0
MTEXT
  5
13E
330
130
100
AcDbEntity
  8
0
  6
Continuous
 62
     7
370
    18
100
AcDbMText
 10
155.9271149008
 20
88.9820178936
 30
0.0
 40
2.1166666667
 41
0.0
 71
     1
 72
     1
  1
39.37in
  7
SLDTEXTSTYLE0
 73
     1
 44
1.0
  0
ENDBLK
  5
132
330
130
100
AcDbEntity
  8
0
100
AcDbBlockEnd
  0
BLOCK
  5
142
330
141
100
AcDbEntity
  8
0
100
AcDbBlockBegin
  2
_D_3
 70
     0
 10
0.0
 20
0.0
 30
0.0
  3
_D_3
  1

  0
SOLID
  5
144
330
141
100
AcDbEntity
  8
0
  6
Continuous
 62
     7
370
    18
100
AcDbTrace
 10
144.3264272189
 20
153.9866017441
 30
0.0
 11
147.5014272189
 21
153.4786017441
 31
0.0
 12
147.5014272189
 22
154.4946017441
 32
0.0
 13
147.5014272189
 23
154.4946017441
 33
0.0
  0
SOLID
  5
145
330
141
100
AcDbEntity
  8
0
  6
Continuous
 62
     7
370
    18
100
AcDbTrace
 10
135.3264272189
 20
153.9866017441
 30
0.0
 11
132.1514272189
 21
154.4946017441
 31
0.0
 12
132.1514272189
 22
153.4786017441
 32
0.0
 13
132.1514272189
 23
153.4786017441
 33
0.0
  0
LINE
  5
146
330
141
100
AcDbEntity
  8
0
  6
Continuous
 62
     7
370
    18
100
AcDbLine
 10
156.4478312129
 20
153.9866015112
 30
0.0
 11
155.8040117588
 21
153.9866015112
 31
0.0
  0
LINE
  5
147
330
141
100
AcDbEntity
  8
0
  6
Continuous
 62
     7
370
    18
100
AcDbLine
 10
155.8040117588
 20
153.9866015112
 30
0.0
 11
155.8040117588
 21
150.6234534348
 31
0.0
  0
LINE
  5
148
330
141
100
AcDbEntity
  8
0
  6
Continuous
 62
     7
370
    18
100
AcDbLine
 10
155.8040117588
 20
150.6234534348
 30
0.0
 11
156.4478312129
 21
150.6234534348
 31
0.0
  0
LINE
  5
149
330
141
100
AcDbEntity
  8
0
  6
Continuous
 62
     7
370
    18
100
AcDbLine
 10
164.2050227592
 20
153.9866015112
 30
0.0
 11
164.8488422133
 21
153.9866015112
 31
0.0
  0
LINE
  5
14A
330
141
100
AcDbEntity
  8
0
  6
Continuous
 62
     7
370
    18
100
AcDbLine
 10
164.8488422133
 20
153.9866015112
 30
0.0
 11
164.8488422133
 21
150.6234534348
 31
0.0
  0
LINE
  5
14B
330
141
100
AcDbEntity
  8
0
  6
Continuous
 62
     7
370
    18
100
AcDbLine
 10
164.8488422133
 20
150.6234534348
 30
0.0
 11
164.2050227592
 21
150.6234534348
 31
0.0
  0
LINE
  5
14C
330
141
100
AcDbEntity
  8
0
  6
Continuous
 62
     7
370
    18
100
AcDbLine
 10
144.3264272189
 20
151.1212192096
 30
0.0
 11
144.3264272189
 21
155.7646017441
 31
0.0
  0
LINE
  5
14D
330
141
100
AcDbEntity
  8
0
  6
Continuous
 62
     7
370
    18
100
AcDbLine
 10
135.3264272189
 20
125.9212192096
 30
0.0
 11
135.3264272189
 21
155.7646017441
 31
0.0
  0
LINE
  5
14E
330
141
100
AcDbEntity
  8
0
  6
Continuous
 62
     7
370
    18
100
AcDbLine
 10
144.3264272189
 20
153.9866017441
 30
0.0
 11
153.1706171176
 21
153.9866017441
 31
0.0
  0
LINE
  5
14F
330
141
100
AcDbEntity
  8
0
  6
Continuous
 62
     7
370
    18
100
AcDbLine
 10
135.3264272189
 20
153.9866017441
 30
0.0
 11
128.9764272189
 21
153.9866017441
 31
0.0
  0
MTEXT
  5
150
330
141
100
AcDbEntity
  8
0
  6
Continuous
 62
     7
370
    18
100
AcDbMText
 10
155.1876306003
 20
157.1443411577
 30
0.0
 40
2.1166666667
 41
0.0
 71
     1
 72
     1
  1

  7
SLDTEXTSTYLE0
 73
     1
 44
1.0
  0
MTEXT
  5
151
330
141
100
AcDbEntity
  8
0
  6
Continuous
 62
     7
370
    18
100
AcDbMText
 10
155.7265966175
 20
157.1443411577
 30
0.0
 40
2.1166666667
 41
0.0
 71
     1
 72
     1
  1
9.0mm
  7
SLDTEXTSTYLE0
 73
     1
 44
1.0
  0
MTEXT
  5
152
330
141
100
AcDbEntity
  8
0
  6
Continuous
 62
     7
370
    18
100
AcDbMText
 10
156.4478312129
 20
153.3519800342
 30
0.0
 40
2.1166666667
 41
0.0
 71
     1
 72
     1
  1
0.35in
  7
SLDTEXTSTYLE0
 73
     1
 44
1.0
  0
MTEXT
  5
153
330
141
100
AcDbEntity
  8
0
  6
Continuous
 62
     7
370
    18
100
AcDbMText
 10
167.0801616674
 20
157.1443411577
 30
0.0
 40
2.1166666667
 41
0.0
 71
     1
 72
     1
  1

  7
SLDTEXTSTYLE0
 73
     1
 44
1.0
  0
ENDBLK
  5
143
330
141
100
AcDbEntity
  8
0
100
AcDbBlockEnd
  0
ENDSEC
  0
SECTION
  2
ENTITIES
  0
LINE
  5
81
330
1F
100
AcDbEntity
  8
0
  6
Continuous
 62
     7
370
    18
100
AcDbLine
 10
1.5793501011
 20
214.6453799966
 30
0.0
 11
277.9892068491
 21
214.6453799966
 31
0.0
  0
LINE
  5
82
330
1F
100
AcDbEntity
  8
0
  6
Continuous
 62
     7
370
    18
100
AcDbLine
 10
1.5793501011
 20
214.6453799966
 30
0.0
 11
1.5793501011
 21
0.9031642596
 31
0.0
  0
LINE
  5
83
330
1F
100
AcDbEntity
  8
0
  6
Continuous
 62
     7
370
    18
100
AcDbLine
 10
277.9892068491
 20
0.9031642596
 30
0.0
 11
1.5793501011
 21
0.9031642596
 31
0.0
  0
LINE
  5
84
330
1F
100
AcDbEntity
  8
0
  6
Continuous
 62
     7
370
    18
100
AcDbLine
 10
277.9892068491
 20
0.9031642596
 30
0.0
 11
277.9892068491
 21
214.6453799966
 31
0.0
  0
LINE
  5
85
330
1F
100
AcDbEntity
  8
0
  6
Continuous
 62
     7
370
    18
100
AcDbLine
 10
215.7427640041
 20
12.2958890132
 30
0.0
 11
171.6327596684
 21
12.2958890132
 31
0.0
  0
LINE
  5
86
330
1F
100
AcDbEntity
  8
0
  6
Continuous
 62
     7
370
    18
100
AcDbLine
 10
171.6327596684
 20
12.2958890132
 30
0.0
 11
171.6327596684
 21
26.1661402506
 31
0.0
  0
LINE
  5
87
330
1F
100
AcDbEntity
  8
0
  6
Continuous
 62
     7
370
    18
100
AcDbLine
 10
171.6327596684
 20
0.9031642596
 30
0.0
 11
171.6327596684
 21
26.1661402506
 31
0.0
  0
LINE
  5
88
330
1F
100
AcDbEntity
  8
0
  6
Continuous
 62
     7
370
    18
100
AcDbLine
 10
215.7427640041
 20
17.1604579552
 30
0.0
 11
277.9892068491
 21
17.1604579552
 31
0.0
  0
LINE
  5
89
330
1F
100
AcDbEntity
  8
0
  6
Continuous
 62
     7
370
    18
100
AcDbLine
 10
215.7427640041
 20
35.2394508358
 30
0.0
 11
215.7427640041
 21
0.9031642596
 31
0.0
  0
LINE
  5
8A
330
1F
100
AcDbEntity
  8
0
  6
Continuous
 62
     7
370
    18
100
AcDbLine
 10
215.7427640041
 20
26.1661402506
 30
0.0
 11
171.6327596684
 21
26.1661402506
 31
0.0
  0
LINE
  5
8B
330
1F
100
AcDbEntity
  8
0
  6
Continuous
 62
     7
370
    18
100
AcDbLine
 10
215.7427640041
 20
9.1409200612
 30
0.0
 11
277.9892068491
 21
9.1409200612
 31
0.0
  0
LINE
  5
8C
330
1F
100
AcDbEntity
  8
0
  6
Continuous
 62
     7
370
    18
100
AcDbLine
 10
215.7427640041
 20
16.9216824031
 30
0.0
 11
171.6327596684
 21
16.9216824031
 31
0.0
  0
LINE
  5
8D
330
1F
100
AcDbEntity
  8
0
  6
Continuous
 62
     7
370
    18
100
AcDbLine
 10
215.7427640041
 20
21.4874005542
 30
0.0
 11
171.6327596684
 21
21.4874005542
 31
0.0
  0
LINE
  5
8E
330
1F
100
AcDbEntity
  8
0
  6
Continuous
 62
     7
370
    18
100
AcDbLine
 10
186.1338100705
 20
26.1661402506
 30
0.0
 11
186.1338100705
 21
12.2958890132
 31
0.0
  0
LINE
  5
8F
330
1F
100
AcDbEntity
  8
0
  6
Continuous
 62
     7
370
    18
100
AcDbLine
 10
198.2145906188
 20
26.1661402506
 30
0.0
 11
198.2145906188
 21
12.2958890132
 31
0.0
  0
LINE
  5
90
330
1F
100
AcDbEntity
  8
0
  6
Continuous
 62
     7
370
    18
100
AcDbLine
 10
253.7490408369
 20
9.1409200612
 30
0.0
 11
253.7490408369
 21
0.9031642596
 31
0.0
  0
LINE
  5
91
330
1F
100
AcDbEntity
  8
0
  6
Continuous
 62
     7
370
    18
100
AcDbLine
 10
171.6327596684
 20
12.2958890132
 30
0.0
 11
171.6327596684
 21
7.5627342528
 31
0.0
  0
LINE
  5
92
330
1F
100
AcDbEntity
  8
0
  6
Continuous
 62
     7
370
    18
100
AcDbLine
 10
171.6327596684
 20
7.5627342528
 30
0.0
 11
215.7427640041
 21
7.5627342528
 31
0.0
  0
LINE
  5
93
330
1F
100
AcDbEntity
  8
0
  6
Continuous
 62
     7
370
    18
100
AcDbLine
 10
171.6327596684
 20
7.5627342528
 30
0.0
 11
171.6327596684
 21
35.2394508358
 31
0.0
  0
LINE
  5
94
330
1F
100
AcDbEntity
  8
0
  6
Continuous
 62
     7
370
    18
100
AcDbLine
 10
171.6327596684
 20
35.2394508358
 30
0.0
 11
215.7427640041
 21
35.2394508358
 31
0.0
  0
LINE
  5
95
330
1F
100
AcDbEntity
  8
0
  6
Continuous
 62
     7
370
    18
100
AcDbLine
 10
270.1683598194
 20
17.1604579552
 30
0.0
 11
270.1683598194
 21
9.1409200612
 31
0.0
  0
LINE
  5
96
330
1F
100
AcDbEntity
  8
0
  6
Continuous
 62
     7
370
    18
100
AcDbLine
 10
215.7427640041
 20
35.2394508358
 30
0.0
 11
277.9892068491
 21
35.2394508358
 31
0.0
  0
LINE
  5
97
330
1F
100
AcDbEntity
  8
0
  6
Continuous
 62
     7
370
    18
100
AcDbLine
 10
277.9892068491
 20
35.2394508358
 30
0.0
 11
277.9892068491
 21
50.0331356147
 31
0.0
  0
LINE
  5
98
330
1F
100
AcDbEntity
  8
0
  6
Continuous
 62
     7
370
    18
100
AcDbLine
 10
215.7427640041
 20
24.8927335446
 30
0.0
 11
277.9892068491
 21
24.8927335446
 31
0.0
  0
INSERT
  5
99
330
1F
100
AcDbEntity
  8
0
  6
Continuous
 62
     7
100
AcDbBlockReference
  2
Third Angle Projection Block
 10
117.7262204235
 20
15.5162339489
 30
0.0
 41
0.8
 42
0.8
 43
0.8
  0
INSERT
  5
B9
330
1F
100
AcDbEntity
  8
0
  6
Continuous
 62
     7
370
     0
100
AcDbBlockReference
  2
SW_NOTE_0
 10
17.8904218024
 20
69.7127158952
 30
0.0
  0
MTEXT
  5
BA
330
1F
100
AcDbEntity
  8
0
  6
Continuous
 62
     7
370
     0
100
AcDbMText
 10
274.1458225539
 20
13.2559386876
 30
0.0
 40
3.175
 41
0.0
 71
     2
 72
     1
  1
A
  7
SLDTEXTSTYLE0
 73
     1
 44
1.0
  0
MTEXT
  5
BB
330
1F
100
AcDbEntity
  8
0
  6
Continuous
 62
     7
370
     0
100
AcDbMText
 10
234.5759898282
 20
5.1306563898
 30
0.0
 40
3.175
 41
0.0
 71
     2
 72
     1
  1
CM508-500-G01
  7
SLDTEXTSTYLE0
 73
     1
 44
1.0
  0
MTEXT
  5
BC
330
1F
100
AcDbEntity
  8
0
  6
Continuous
 62
     7
370
     0
100
AcDbMText
 10
216.4199766059
 20
16.8243178599
 30
0.0
 40
2.1166666667
 41
0.0
 71
     1
 72
     1
  1
MATERIAL
  7
SLDTEXTSTYLE0
 73
     1
 44
1.0
  0
MTEXT
  5
BD
330
1F
100
AcDbEntity
  8
0
  6
Continuous
 62
     7
370
     0
100
AcDbMText
 10
174.230946566
 20
20.054553926
 30
0.0
 40
1.8520833333
 41
0.0
 71
     1
 72
     1
  1
DRAWN
  7
SLDTEXTSTYLE0
 73
     1
 44
1.0
  0
MTEXT
  5
BE
330
1F
100
AcDbEntity
  8
0
  6
Continuous
 62
     7
370
     0
100
AcDbMText
 10
172.3960124543
 20
15.5787169747
 30
0.0
 40
1.8520833333
 41
0.0
 71
     1
 72
     1
  1
APPROVAL
  7
SLDTEXTSTYLE0
 73
     1
 44
1.0
  0
MTEXT
  5
BF
330
1F
100
AcDbEntity
  8
0
  6
Continuous
 62
     7
370
     0
100
AcDbMText
 10
271.7160653675
 20
16.1671746307
 30
0.0
 40
2.1166666667
 41
0.0
 71
     1
 72
     1
  1
REV
  7
SLDTEXTSTYLE0
 73
     1
 44
1.0
  0
MTEXT
  5
C0
330
1F
100
AcDbEntity
  8
0
  6
Continuous
 62
     7
370
     0
100
AcDbMText
 10
190.2958696448
 20
20.3177146903
 30
0.0
 40
2.1166666667
 41
0.0
 71
     1
 72
     1
  1
YB
  7
SLDTEXTSTYLE0
 73
     1
 44
1.0
  0
MTEXT
  5
C1
330
1F
100
AcDbEntity
  8
0
  6
Continuous
 62
     7
370
     0
100
AcDbMText
 10
190.2958696448
 20
15.841877739
 30
0.0
 40
2.1166666667
 41
0.0
 71
     1
 72
     1
  1
DD
  7
SLDTEXTSTYLE0
 73
     1
 44
1.0
  0
MTEXT
  5
C2
330
1F
100
AcDbEntity
  8
0
  6
Continuous
 62
     7
370
     0
100
AcDbMText
 10
199.8662436873
 20
20.3177146903
 30
0.0
 40
2.1166666667
 41
0.0
 71
     1
 72
     1
  1
16/APR/18
  7
SLDTEXTSTYLE0
 73
     1
 44
1.0
  0
MTEXT
  5
C3
330
1F
100
AcDbEntity
  8
0
  6
Continuous
 62
     7
370
     0
100
AcDbMText
 10
203.6145073853
 20
24.8221395769
 30
0.0
 40
2.1166666667
 41
0.0
 71
     1
 72
     1
  1
DATE
  7
SLDTEXTSTYLE0
 73
     1
 44
1.0
  0
MTEXT
  5
C4
330
1F
100
AcDbEntity
  8
0
  6
Continuous
 62
     7
370
     0
100
AcDbMText
 10
199.8662436873
 20
15.841877739
 30
0.0
 40
2.1166666667
 41
0.0
 71
     1
 72
     1
  1
16/APR/18
  7
SLDTEXTSTYLE0
 73
     1
 44
1.0
  0
MTEXT
  5
C6
330
1F
100
AcDbEntity
  8
0
  6
Continuous
 62
     7
370
     0
100
AcDbMText
 10
229.402906477
 20
27.7957480569
 30
0.0
 40
2.1166666667
 41
0.0
 71
     1
 72
     1
  1
w w w . t h o r  l a b s . c o m
  7
SLDTEXTSTYLE3
 73
     1
 44
1.0
  0
MTEXT
  5
C7
330
1F
100
AcDbEntity
  8
0
  6
Continuous
 62
     7
370
     0
100
AcDbMText
 10
216.7004035316
 20
8.3494791871
 30
0.0
 40
2.1166666667
 41
0.0
 71
     1
 72
     1
  1
ITEM #
  7
SLDTEXTSTYLE0
 73
     1
 44
1.0
  0
MTEXT
  5
C8
330
1F
100
AcDbEntity
  8
0
  6
Continuous
 62
     7
370
     0
100
AcDbMText
 10
254.5318000914
 20
8.3494791871
 30
0.0
 40
2.1166666667
 41
0.0
 71
     1
 72
     1
  1
APPROX WEIGHT
  7
SLDTEXTSTYLE0
 73
     1
 44
1.0
  0
MTEXT
  5
C9
330
1F
100
AcDbEntity
  8
0
  6
Continuous
 62
     7
370
     0
100
AcDbMText
 10
243.5159064132
 20
13.8247651814
 30
0.0
 40
3.175
 41
0.0
 71
     2
 72
     1
  1
N-BK7
  7
SLDTEXTSTYLE0
 73
     1
 44
1.0
  0
MTEXT
  5
CA
330
1F
100
AcDbEntity
  8
0
  6
Continuous
 62
     7
370
     0
100
AcDbMText
 10
266.1553537756
 20
5.1306563898
 30
0.0
 40
3.175
 41
0.0
 71
     2
 72
     1
  1
46.61 g
  7
SLDTEXTSTYLE0
 73
     1
 44
1.0
  0
INSERT
  5
D0
330
1F
100
AcDbEntity
  8
0
  6
Continuous
 62
     7
370
     0
100
AcDbBlockReference
  2
SW_NOTE_1
 10
174.8430140051
 20
4.4558554801
 30
0.0
  0
INSERT
  5
D6
330
1F
100
AcDbEntity
  8
0
  6
Continuous
 62
     7
370
     0
100
AcDbBlockReference
  2
SW_NOTE_2
 10
174.5483650337
 20
30.4835322715
 30
0.0
  0
MTEXT
  5
D7
330
1F
100
AcDbEntity
  8
0
  6
Continuous
 62
     7
370
     0
100
AcDbMText
 10
187.9273588276
 20
24.8221395769
 30
0.0
 40
2.1166666667
 41
0.0
 71
     1
 72
     1
  1
NAME
  7
SLDTEXTSTYLE0
 73
     1
 44
1.0
  0
INSERT
  5
DD
330
1F
100
AcDbEntity
  8
0
  6
Continuous
 62
     7
370
     0
100
AcDbBlockReference
  2
SW_NOTE_3
 10
58.6204667508
 20
8.1776609732
 30
0.0
  0
INSERT
  5
E4
330
1F
100
AcDbEntity
  8
0
  6
Continuous
 62
     7
370
     0
100
AcDbBlockReference
  2
SW_NOTE_4
 10
220.0050186217
 20
20.7222222066
 30
0.0
  0
MTEXT
  5
E5
330
1F
100
AcDbEntity
  8
0
  6
Continuous
 62
     7
370
     0
100
AcDbMText
 10
177.6925831922
 20
10.7142101515
 30
0.0
 40
1.5875
 41
0.0
 71
     1
 72
     1
  1
COPYRIGHT © 2018 BY THORLABS
  7
SLDTEXTSTYLE0
 73
     1
 44
1.0
  0
LINE
  5
E6
330
1F
100
AcDbEntity
  8
0
  6
Continuous
 62
     7
370
    18
100
AcDbLine
 10
228.1611425349
 20
192.8665634131
 30
0.0
 11
228.1611425349
 21
192.7073125217
 31
0.0
  0
LINE
  5
E7
330
1F
100
AcDbEntity
  8
0
  6
Continuous
 62
     7
370
    18
100
AcDbLine
 10
245.9808278437
 20
161.8393675858
 30
0.0
 11
246.1187356886
 21
161.7597291988
 31
0.0
  0
LINE
  5
E8
330
1F
100
AcDbEntity
  8
0
  6
Continuous
 62
     7
370
    18
100
AcDbLine
 10
258.8206226815
 20
160.5005392885
 30
0.0
 11
265.1298762997
 21
164.1427938747
 31
0.0
  0
LINE
  5
E9
330
1F
100
AcDbEntity
  8
0
  6
Continuous
 62
     7
370
    18
100
AcDbLine
 10
239.7319404908
 20
208.1380760836
 30
0.0
 11
233.4226868725
 21
204.4958214974
 31
0.0
  0
LINE
  5
EA
330
1F
100
AcDbEntity
  8
0
  6
Continuous
 62
     7
370
    18
100
AcDbLine
 10
270.3914206374
 20
175.772051959
 30
0.0
 11
270.3914206374
 21
175.9353335814
 31
0.0
  0
LINE
  5
EB
330
1F
100
AcDbEntity
  8
0
  6
Continuous
 62
     7
370
    18
100
AcDbLine
 10
252.5752258549
 20
206.7972320932
 30
0.0
 11
252.4338274836
 21
206.8788861733
 31
0.0
  0
LWPOLYLINE
  5
EC
330
1F
100
AcDbEntity
  8
0
  6
Continuous
 62
     7
370
    18
100
AcDbPolyline
 90
      167
 70
   128
 43
0.0
 10
263.8063064941
 20
172.1297973728
 10
263.7935411556
 20
172.9159767745
 10
263.7552634264
 20
173.715768528
 10
263.6915281388
 20
174.5280269391
 10
263.6024265931
 20
175.3515884556
 10
263.4880864263
 20
176.1852733336
 10
263.3486714298
 20
177.0278873274
 10
263.1843813141
 20
177.8782234006
 10
262.9954514231
 20
178.7350634551
 10
262.7821523973
 20
179.5971800756
 10
262.5447897853
 20
180.4633382885
 10
262.2837036069
 20
181.3322973304
 10
261.9992678654
 20
182.2028124258
 10
261.6918900124
 20
183.0736365704
 10
261.3620103636
 20
183.9435223168
 10
261.0101014684
 20
184.8112235622
 10
260.636667433
 20
185.6754973328
 10
260.242243198
 20
186.5351055648
 10
259.8273937723
 20
187.3888168778
 10
259.3927134238
 20
188.2354083383
 10
258.9388248279
 20
189.0736672125
 10
258.4663781755
 20
189.9023927024
 10
257.976050242
 20
190.7203976668
 10
257.4685434174
 20
191.5265103215
 10
256.9445847004
 20
192.3195759179
 10
256.4049246567
 20
193.0984583971
 10
255.8503363442
 20
193.8620420174
 10
255.2816142053
 20
194.6092329528
 10
254.699572929
 20
195.3389608594
 10
254.1050462838
 20
196.0501804089
 10
253.4988859234
 20
196.7418727863
 10
252.8819601666
 20
197.4130471489
 10
252.2551527538
 20
198.0627420458
 10
251.6193615804
 20
198.6900267954
 10
250.9754974111
 20
199.2940028183
 10
250.3244825753
 20
199.8738049247
 10
249.6672496454
 20
200.4286025536
 10
249.0047401012
 20
200.9576009628
 10
248.3379029813
 20
201.4600423672
 10
247.6676935234
 20
201.9352070243
 10
246.9950717962
 20
202.3824142652
 10
246.3210013236
 20
202.8010234701
 10
245.6464477054
 20
203.190434985
 10
244.9723772328
 20
203.550090982
 10
244.2997555056
 20
203.8794762571
 10
243.6295460477
 20
204.1781189691
 10
242.9627089278
 20
204.4455913153
 10
242.3001993836
 20
204.6815101441
 10
241.6429664537
 20
204.885537504
 10
240.9919516179
 20
205.0573811278
 10
240.3480874486
 20
205.1967948512
 10
239.7122962752
 20
205.3035789653
 10
239.0854888624
 20
205.377580503
 10
238.4685631056
 20
205.4186934577
 10
237.8624027452
 20
205.4268589355
 10
237.2678761
 20
205.4020652396
 10
236.6858348237
 20
205.3443478865
 10
236.1171126848
 20
205.2537895558
 10
235.5625243723
 20
205.1305199716
 10
235.0228643286
 20
204.9747157162
 10
234.4989056116
 20
204.7865999779
 10
233.991398787
 20
204.5664422304
 10
233.5010708535
 20
204.3145578478
 10
233.0286242011
 20
204.0313076519
 10
232.5747356052
 20
203.717097396
 10
232.1400552567
 20
203.3723771832
 10
231.725205831
 20
202.9976408219
 10
231.330781596
 20
202.5934251183
 10
230.9573475606
 20
202.1603091075
 10
230.6054386654
 20
201.698913224
 10
230.2755590166
 20
201.209898413
 10
229.9681811636
 20
200.6939651836
 10
229.6837454221
 20
200.151852605
 10
229.4226592437
 20
199.5843372483
 10
229.1852966317
 20
198.9922320738
 10
228.9719976059
 20
198.3763852665
 10
228.7830677149
 20
197.737679021
 10
228.6187775992
 20
197.0770282778
 10
228.4793626027
 20
196.3953794128
 10
228.3650224359
 20
195.6937088813
 10
228.2759208902
 20
194.9730218197
 10
228.2121856026
 20
194.2343506053
 10
228.1739078734
 20
193.4787533774
 10
228.1611425349
 20
192.7073125217
 10
228.1739078734
 20
191.92113312
 10
228.2121856026
 20
191.1213413666
 10
228.2759208902
 20
190.3090829554
 10
228.3650224359
 20
189.4855214389
 10
228.4793626027
 20
188.651836561
 10
228.6187775992
 20
187.8092225671
 10
228.7830677149
 20
186.9588864939
 10
228.9719976059
 20
186.1020464394
 10
229.1852966317
 20
185.2399298189
 10
229.4226592437
 20
184.373771606
 10
229.6837454221
 20
183.5048125642
 10
229.9681811636
 20
182.6342974687
 10
230.2755590166
 20
181.7634733241
 10
230.6054386654
 20
180.8935875777
 10
230.9573475606
 20
180.0258863323
 10
231.330781596
 20
179.1616125617
 10
231.725205831
 20
178.3020043297
 10
232.1400552567
 20
177.4482930168
 10
232.5747356052
 20
176.6017015562
 10
233.0286242011
 20
175.763442682
 10
233.5010708535
 20
174.9347171921
 10
233.991398787
 20
174.1167122277
 10
234.4989056116
 20
173.310599573
 10
235.0228643286
 20
172.5175339767
 10
235.5625243723
 20
171.7386514975
 10
236.1171126848
 20
170.9750678771
 10
236.6858348237
 20
170.2278769417
 10
237.2678761
 20
169.4981490351
 10
237.8624027452
 20
168.7869294856
 10
238.4685631056
 20
168.0952371082
 10
239.0854888624
 20
167.4240627457
 10
239.7122962752
 20
166.7743678487
 10
240.3480874486
 20
166.1470830991
 10
240.9919516179
 20
165.5431070762
 10
241.6429664537
 20
164.9633049699
 10
242.3001993836
 20
164.4085073409
 10
242.9627089278
 20
163.8795089317
 10
243.6295460477
 20
163.3770675273
 10
244.2997555056
 20
162.9019028702
 10
244.9723772328
 20
162.4546956293
 10
245.6464477054
 20
162.0360864245
 10
246.3210013236
 20
161.6466749095
 10
246.9950717962
 20
161.2870189126
 10
247.6676935234
 20
160.9576336375
 10
248.3379029813
 20
160.6589909254
 10
249.0047401012
 20
160.3915185792
 10
249.6672496454
 20
160.1555997505
 10
250.3244825753
 20
159.9515723905
 10
250.9754974111
 20
159.7797287667
 10
251.6193615804
 20
159.6403150434
 10
252.2551527538
 20
159.5335309292
 10
252.8819601666
 20
159.4595293916
 10
253.4988859234
 20
159.4184164368
 10
254.1050462838
 20
159.410250959
 10
254.699572929
 20
159.435044655
 10
255.2816142053
 20
159.492762008
 10
255.8503363442
 20
159.5833203387
 10
256.4049246567
 20
159.7065899229
 10
256.9445847004
 20
159.8623941783
 10
257.4685434174
 20
160.0505099167
 10
257.976050242
 20
160.2706676641
 10
258.4663781755
 20
160.5225520467
 10
258.9388248279
 20
160.8058022426
 10
259.3927134238
 20
161.1200124985
 10
259.8273937723
 20
161.4647327113
 10
260.242243198
 20
161.8394690726
 10
260.636667433
 20
162.2436847763
 10
261.0101014684
 20
162.676800787
 10
261.3620103636
 20
163.1381966705
 10
261.6918900124
 20
163.6272114815
 10
261.9992678654
 20
164.143144711
 10
262.2837036069
 20
164.6852572896
 10
262.5447897853
 20
165.2527726462
 10
262.7821523973
 20
165.8448778207
 10
262.9954514231
 20
166.460724628
 10
263.1843813141
 20
167.0994308735
 10
263.3486714298
 20
167.7600816167
 10
263.4880864263
 20
168.4417304818
 10
263.6024265931
 20
169.1434010132
 10
263.6915281388
 20
169.8640880748
 10
263.7552634264
 20
170.6027592892
 10
263.7935411556
 20
171.3583565172
 10
263.8063064941
 20
172.1297973728
  0
LWPOLYLINE
  5
ED
330
1F
100
AcDbEntity
  8
0
  6
Continuous
 62
     7
370
    18
100
AcDbPolyline
 90
      127
 70
   128
 43
0.0
 10
228.1611425349
 20
192.8665634131
 10
228.1738530832
 20
193.6393657661
 10
228.2119667378
 20
194.3963990171
 10
228.2754295531
 20
195.1365916701
 10
228.3641517046
 20
195.8588960652
 10
228.478007616
 20
196.5622898614
 10
228.6168361369
 20
197.2457774833
 10
228.7804407711
 20
197.9083915307
 10
228.9685899546
 20
198.5491941474
 10
229.1810173833
 20
199.1672783491
 10
229.4174223898
 20
199.7617693066
 10
229.6774703692
 20
200.3318255845
 10
229.9607932529
 20
200.8766403319
 10
230.2669900289
 20
201.3954424244
 10
230.5956273099
 20
201.8874975556
 10
230.9462399466
 20
202.3521092766
 10
231.318331686
 20
202.7886199814
 10
231.7113758738
 20
203.196411838
 10
232.1248162001
 20
203.5749076624
 10
232.5580674861
 20
203.9235717364
 10
233.0105165133
 20
204.2419105647
 10
233.4815228905
 20
204.5294735745
 10
233.9704199609
 20
204.7858537524
 10
234.4765157454
 20
205.010688221
 10
234.9990939219
 20
205.2036587522
 10
235.5374148396
 20
205.3644922177
 10
236.0907165654
 20
205.492960976
 10
236.6582159625
 20
205.5888831936
 10
237.239109799
 20
205.6521231036
 10
237.8325758846
 20
205.6825911968
 10
238.4377742345
 20
205.6802443491
 10
239.053848258
 20
205.6450858822
 10
239.6799259713
 20
205.5771655589
 10
240.3151212314
 20
205.476579513
 10
240.9585349905
 20
205.3434701126
 10
241.6092565682
 20
205.1780257593
 10
242.266364941
 20
204.980480621
 10
242.9289300454
 20
204.7511143008
 10
243.5960140947
 20
204.4902514411
 10
244.2666729059
 20
204.1982612641
 10
244.9399572365
 20
203.8755570492
 10
245.6149141279
 20
203.5225955481
 10
246.290588254
 20
203.1398763384
 10
246.9660232736
 20
202.7279411164
 10
247.6402631841
 20
202.2873729302
 10
248.3123536742
 20
201.8187953549
 10
248.9813434749
 20
201.3228716097
 10
249.6462857061
 20
200.800303619
 10
250.3062392163
 20
200.2518310196
 10
250.9602699152
 20
199.678230113
 10
251.6074520955
 20
199.0803127672
 10
252.2468697431
 20
198.4589252672
 10
252.8776178338
 20
197.8149471177
 10
253.4988036144
 20
197.1492897977
 10
254.1095478657
 20
196.4628954707
 10
254.7089861475
 20
195.7567356511
 10
255.2962700221
 20
195.0318098291
 10
255.8705682548
 20
194.2891440562
 10
256.4310679906
 20
193.5297894928
 10
256.9769759048
 20
192.7548209203
 10
257.5075193258
 20
191.9653352201
 10
258.0219473288
 20
191.1624498209
 10
258.5195317985
 20
190.3473011171
 10
258.9995684596
 20
189.5210428608
 10
259.4613778739
 20
188.6848445279
 10
259.9043064019
 20
187.8398896637
 10
260.3277271278
 20
186.9873742074
 10
260.7310407468
 20
186.1285047993
 10
261.1136764137
 20
185.2644970729
 10
261.4750925504
 20
184.3965739346
 10
261.8147776128
 20
183.5259638326
 10
262.1322508148
 20
182.653899018
 10
262.4270628084
 20
181.7816138011
 10
262.6987963203
 20
180.9103428041
 10
262.947066742
 20
180.0413192136
 10
263.1715226746
 20
179.1757730354
 10
263.3718464258
 20
178.3149293533
 10
263.5477544597
 20
177.4600065952
 10
263.6989977982
 20
176.6122148088
 10
263.8253623731
 20
175.7727539485
 10
263.9266693297
 20
174.9428121772
 10
264.0027752792
 20
174.1235641847
 10
264.0535725022
 20
173.3161695251
 10
264.0789891009
 20
172.521770975
 10
264.0789891009
 20
171.7414929169
 10
264.0535725022
 20
170.976439747
 10
264.0027752792
 20
170.2276943126
 10
263.9266693297
 20
169.4963163791
 10
263.8253623731
 20
168.7833411302
 10
263.6989977982
 20
168.0897777026
 10
263.5477544597
 20
167.4166077578
 10
263.3718464258
 20
166.7647840926
 10
263.1715226746
 20
166.1352292905
 10
262.947066742
 20
165.5288344159
 10
262.6987963203
 20
164.9464577529
 10
262.4270628084
 20
164.3889235907
 10
262.1322508148
 20
163.8570210563
 10
261.8147776128
 20
163.3515029985
 10
261.4750925504
 20
162.8730849215
 10
261.1136764137
 20
162.4224439726
 10
260.7310407468
 20
162.0002179836
 10
260.3277271278
 20
161.6070045682
 10
259.9043064019
 20
161.2433602761
 10
259.4613778739
 20
160.909799805
 10
258.9995684596
 20
160.6067952726
 10
258.5195317985
 20
160.3347755478
 10
258.0219473288
 20
160.0941256442
 10
257.5075193258
 20
159.8851861747
 10
256.9769759048
 20
159.7082528699
 10
256.4310679906
 20
159.563576159
 10
255.8705682548
 20
159.4513608158
 10
255.2962700221
 20
159.3717656685
 10
254.7089861475
 20
159.3249033751
 10
254.1095478657
 20
159.3108402641
 10
253.4988036144
 20
159.32959624
 10
252.8776178338
 20
159.3811447561
 10
252.2468697431
 20
159.465412851
 10
251.6074520955
 20
159.5822812528
 10
250.9602699152
 20
159.7315845472
 10
250.3062392163
 20
159.9131114122
 10
249.6462857061
 20
160.1266049168
 10
248.9813434749
 20
160.3717628848
 10
248.3123536742
 20
160.6482383225
 10
247.6402631841
 20
160.9556399099
 10
246.9660232736
 20
161.2935325543
 10
246.290588254
 20
161.6614380066
 10
246.1187356886
 20
161.7597291988
  0
LWPOLYLINE
  5
EE
330
1F
100
AcDbEntity
  8
0
  6
Continuous
 62
     7
370
    18
100
AcDbPolyline
 90
       64
 70
   128
 43
0.0
 10
270.3914206374
 20
175.772051959
 10
270.3787100891
 20
176.5595295988
 10
270.3405964344
 20
177.3605679387
 10
270.2771336191
 20
178.1740331986
 10
270.1884114676
 20
178.9987740095
 10
270.0745555563
 20
179.8336230428
 10
269.9357270354
 20
180.6773986631
 10
269.7721224011
 20
181.5289066005
 10
269.5839732176
 20
182.3869416406
 10
269.371545789
 20
183.2502893308
 10
269.1351407825
 20
184.1177276989
 10
268.875092803
 20
184.9880289831
 10
268.5917699193
 20
185.859961369
 10
268.2855731434
 20
186.732290734
 10
267.9569358624
 20
187.6037823933
 10
267.6063232257
 20
188.473202848
 10
267.2342314863
 20
189.3393215307
 10
266.8411872984
 20
190.2009125472
 10
266.4277469722
 20
191.0567564117
 10
265.9944956861
 20
191.905641773
 10
265.542046659
 20
192.7463671287
 10
265.0710402818
 20
193.5777425263
 10
264.5821432114
 20
194.3985912466
 10
264.0760474269
 20
195.2077514702
 10
263.5534692503
 20
196.0040779213
 10
263.0151483326
 20
196.7864434888
 10
262.4618466069
 20
197.5537408217
 10
261.8943472098
 20
198.3048838965
 10
261.3134533733
 20
199.0388095541
 10
260.7199872876
 20
199.7544790049
 10
260.1147889378
 20
200.4508792987
 10
259.4987149142
 20
201.1270247588
 10
258.8726372009
 20
201.781958377
 10
258.2374419408
 20
202.4147531679
 10
257.5940281818
 20
203.0245134813
 10
256.9433066041
 20
203.6103762696
 10
256.2861982313
 20
204.1715123095
 10
255.6236331268
 20
204.7071273758
 10
254.9565490776
 20
205.2164633653
 10
254.2858902663
 20
205.6987993697
 10
253.6126059357
 20
206.1534526964
 10
252.9376490443
 20
206.5797798345
 10
252.2619749183
 20
206.9771773655
 10
251.5865398986
 20
207.3450828178
 10
250.9122999882
 20
207.6829754622
 10
250.2402094981
 20
207.9903770496
 10
249.5712196973
 20
208.2668524873
 10
248.9062774662
 20
208.5120104553
 10
248.2463239559
 20
208.7255039599
 10
247.592293257
 20
208.9070308249
 10
246.9451110768
 20
209.0563341193
 10
246.3056934292
 20
209.1732025211
 10
245.6749453384
 20
209.257470616
 10
245.0537595579
 20
209.3090191321
 10
244.4430153066
 20
209.327775108
 10
243.8435770247
 20
209.313711997
 10
243.2562931501
 20
209.2668497036
 10
242.6819949175
 20
209.1872545563
 10
242.1214951817
 20
209.0750392131
 10
241.5755872675
 20
208.9303625022
 10
241.0450438464
 20
208.7534291974
 10
240.5306158434
 20
208.5444897279
 10
240.0330313738
 20
208.3038398243
 10
239.7319404908
 20
208.1380760836
  0
LWPOLYLINE
  5
EF
330
1F
100
AcDbEntity
  8
0
  6
Continuous
 62
     7
370
    18
100
AcDbPolyline
 90
       22
 70
   128
 43
0.0
 10
265.1298762997
 20
164.1427938747
 10
265.542046659
 20
164.3967048074
 10
265.9944956861
 20
164.7150436357
 10
266.4277469722
 20
165.0637077097
 10
266.8411872984
 20
165.4422035341
 10
267.2342314863
 20
165.8499953907
 10
267.6063232257
 20
166.2865060955
 10
267.9569358624
 20
166.7511178165
 10
268.2855731434
 20
167.2431729477
 10
268.5917699193
 20
167.7619750402
 10
268.875092803
 20
168.3067897876
 10
269.1351407825
 20
168.8768460655
 10
269.371545789
 20
169.471337023
 10
269.5839732176
 20
170.0894212246
 10
269.7721224011
 20
170.7302238414
 10
269.9357270354
 20
171.3928378888
 10
270.0745555563
 20
172.0763255107
 10
270.1884114676
 20
172.7797193068
 10
270.2771336191
 20
173.502023702
 10
270.3405964344
 20
174.242216355
 10
270.3787100891
 20
174.999249606
 10
270.3914206374
 20
175.772051959
  0
ARC
  5
F0
330
1F
100
AcDbEntity
  8
0
  6
Continuous
 62
     7
370
    18
100
AcDbCircle
 10
231.7819122006
 20
174.2200232091
 30
0.0
 40
38.64759282808853
100
AcDbArc
 50
2.5438153591
 51
57.4508081082
  0
CIRCLE
  5
F1
330
1F
100
AcDbEntity
  8
0
  6
Continuous
 62
     7
370
    18
100
AcDbCircle
 10
55.2483625255
 20
124.6512192096
 30
0.0
 40
25.20493715211659
  0
CIRCLE
  5
F2
330
1F
100
AcDbEntity
  8
0
  6
Continuous
 62
     7
370
    18
100
AcDbCircle
 10
55.2483625255
 20
124.6512192096
 30
0.0
 40
25.40000000000002
  0
DIMENSION
  5
F3
330
1F
100
AcDbEntity
  8
0
  6
Continuous
 62
     7
370
    18
100
AcDbDimension
  2
_D
 10
37.2878502833
 20
106.6907069675
 30
0.0
 11
99.4429323656
 21
158.0564725768
 31
0.0
 70
   163
  1
<>
 71
     1
 42
-1.0
  3
SLDDIMSTYLE0
100
AcDbDiametricDimension
 15
73.2088747676
 25
142.6117314518
 35
0.0
 40
0.0
  0
LINE
  5
104
330
1F
100
AcDbEntity
  8
0
  6
PHANTOM
 62
     7
370
    35
100
AcDbLine
 10
55.2483625255
 20
156.1472192096
 30
0.0
 11
55.2483625255
 21
93.1552192096
 31
0.0
  0
LINE
  5
105
330
1F
100
AcDbEntity
  8
0
  6
Continuous
 62
     7
370
    35
100
AcDbLine
 10
55.2483625255
 20
156.1472192096
 30
0.0
 11
46.3583625255
 21
156.1472192096
 31
0.0
  0
SOLID
  5
106
330
1F
100
AcDbEntity
  8
0
  6
Continuous
 62
     7
370
    35
100
AcDbTrace
 10
46.3583625255
 20
156.1472192096
 30
0.0
 11
50.1683625255
 21
155.5122192096
 31
0.0
 12
50.1683625255
 22
156.7822192096
 32
0.0
 13
50.1683625255
 23
156.7822192096
 33
0.0
  0
LINE
  5
107
330
1F
100
AcDbEntity
  8
0
  6
Continuous
 62
     7
370
    35
100
AcDbLine
 10
55.2483625255
 20
93.1552192096
 30
0.0
 11
46.3583625255
 21
93.1552192096
 31
0.0
  0
SOLID
  5
108
330
1F
100
AcDbEntity
  8
0
  6
Continuous
 62
     7
370
    35
100
AcDbTrace
 10
46.3583625255
 20
93.1552192096
 30
0.0
 11
50.1683625255
 21
92.5202192096
 31
0.0
 12
50.1683625255
 22
93.7902192096
 32
0.0
 13
50.1683625255
 23
93.7902192096
 33
0.0
  0
MTEXT
  5
109
330
1F
100
AcDbEntity
  8
0
  6
Continuous
 62
     7
100
AcDbMText
 10
42.9527269043
 20
158.2483527331
 30
0.0
 40
2.6458333333
 41
0.0
 71
     1
 72
     1
  1
A
  7
SLDTEXTSTYLE0
 73
     1
 44
1.0
  0
MTEXT
  5
10A
330
1F
100
AcDbEntity
  8
0
  6
Continuous
 62
     7
100
AcDbMText
 10
42.9527269043
 20
95.2563527331
 30
0.0
 40
2.6458333333
 41
0.0
 71
     1
 72
     1
  1
A
  7
SLDTEXTSTYLE0
 73
     1
 44
1.0
  0
LINE
  5
10B
330
1F
100
AcDbEntity
  8
0
  6
Continuous
 62
     7
370
    18
100
AcDbLine
 10
144.3264272189
 20
99.4512192096
 30
0.0
 11
144.1264272189
 21
99.2512192096
 31
0.0
  0
LINE
  5
10C
330
1F
100
AcDbEntity
  8
0
  6
Continuous
 62
     7
370
    18
100
AcDbLine
 10
135.2037951835
 20
99.2512192096
 30
0.0
 11
144.1264272189
 21
99.2512192096
 31
0.0
  0
LINE
  5
10D
330
1F
100
AcDbEntity
  8
0
  6
Continuous
 62
     7
370
    18
100
AcDbLine
 10
135.2037951835
 20
99.2512192096
 30
0.0
 11
135.0087323356
 21
99.4462820575
 31
0.0
  0
ARC
  5
10E
330
1F
100
AcDbEntity
  8
0
  6
Continuous
 62
     7
370
    18
100
AcDbCircle
 10
-864.6736048164
 20
124.6512192096
 30
0.0
 40
1000.000032035271
100
AcDbArc
 50
358.5557105735
 51
1.4442894265
  0
LINE
  5
10F
330
1F
100
AcDbEntity
  8
0
  6
Continuous
 62
     7
370
    18
100
AcDbLine
 10
135.0087323356
 20
149.8561563618
 30
0.0
 11
135.2037951835
 21
150.0512192096
 31
0.0
  0
LINE
  5
110
330
1F
100
AcDbEntity
  8
0
  6
Continuous
 62
     7
370
    18
100
AcDbLine
 10
144.1264272189
 20
150.0512192096
 30
0.0
 11
135.2037951835
 21
150.0512192096
 31
0.0
  0
LINE
  5
111
330
1F
100
AcDbEntity
  8
0
  6
Continuous
 62
     7
370
    18
100
AcDbLine
 10
144.1264272189
 20
150.0512192096
 30
0.0
 11
144.3264272189
 21
149.8512192096
 31
0.0
  0
LINE
  5
112
330
1F
100
AcDbEntity
  8
0
  6
Continuous
 62
     7
370
    18
100
AcDbLine
 10
144.3264272189
 20
122.2741829448
 30
0.0
 11
144.3264272189
 21
123.2903438545
 31
0.0
  0
LINE
  5
113
330
1F
100
AcDbEntity
  8
0
  6
Continuous
 62
     7
370
    18
100
AcDbLine
 10
144.3264272189
 20
121.6135215966
 30
0.0
 11
144.3264272189
 21
122.2741829448
 31
0.0
  0
LINE
  5
114
330
1F
100
AcDbEntity
  8
0
  6
Continuous
 62
     7
370
    18
100
AcDbLine
 10
144.3264272189
 20
121.3011315098
 30
0.0
 11
144.3264272189
 21
121.6135215966
 31
0.0
  0
LINE
  5
115
330
1F
100
AcDbEntity
  8
0
  6
Continuous
 62
     7
370
    18
100
AcDbLine
 10
144.3264272189
 20
123.2903438545
 30
0.0
 11
144.3264272189
 21
125.6512192096
 31
0.0
  0
LINE
  5
116
330
1F
100
AcDbEntity
  8
0
  6
Continuous
 62
     7
370
    18
100
AcDbLine
 10
144.3264272189
 20
125.7536924875
 30
0.0
 11
144.3264272189
 21
149.8512192096
 31
0.0
  0
LINE
  5
117
330
1F
100
AcDbEntity
  8
0
  6
Continuous
 62
     7
370
    18
100
AcDbLine
 10
144.3264272189
 20
99.4512192096
 30
0.0
 11
144.3264272189
 21
121.3011315098
 31
0.0
  0
LINE
  5
118
330
1F
100
AcDbEntity
  8
0
  6
Continuous
 62
     7
370
    18
100
AcDbLine
 10
144.3264272189
 20
125.6512192096
 30
0.0
 11
144.3264272189
 21
125.7536924875
 31
0.0
  0
HATCH
  5
119
330
1F
100
AcDbEntity
  8
0
  6
Continuous
 62
     7
370
    18
100
AcDbHatch
 10
0.0
 20
0.0
 30
0.0
210
0.0
220
0.0
230
1.0
  2
ANSI31
 70
     0
 71
     0
 91
        1
 92
        0
 93
       14
 72
     1
 10
144.3264272188792
 20
121.3011315097911
 11
144.3264272188792
 21
121.6135215966195
 72
     1
 10
144.3264272188792
 20
121.6135215966195
 11
144.3264272188792
 21
122.2741829448216
 72
     1
 10
144.3264272188792
 20
122.2741829448216
 11
144.3264272188792
 21
123.290343854525
 72
     1
 10
144.3264272188792
 20
123.290343854525
 11
144.3264272188792
 21
125.6512192096386
 72
     1
 10
144.3264272188792
 20
125.6512192096386
 11
144.3264272188792
 21
125.7536924874521
 72
     1
 10
144.3264272188792
 20
125.7536924874521
 11
144.3264272188792
 21
149.8512192096386
 72
     1
 10
144.3264272188792
 20
149.8512192096386
 11
144.1264272188792
 21
150.0512192096386
 72
     1
 10
144.1264272188792
 20
150.0512192096386
 11
135.2037951834997
 21
150.0512192096386
 72
     1
 10
135.2037951834997
 20
150.0512192096386
 11
135.0087323356164
 21
149.8561563617554
 72
     2
 10
-864.6736048163912
 20
124.6512192096386
 40
1000.00003203527
 50
358.5557105735338
 51
361.4442894264678
 73
     0
 72
     1
 10
135.0087323356164
 20
99.44628205752517
 11
135.2037951834997
 21
99.2512192096386
 72
     1
 10
135.2037951834997
 20
99.2512192096386
 11
144.1264272188792
 21
99.2512192096386
 72
     1
 10
144.1264272188792
 20
99.2512192096386
 11
144.3264272188792
 21
99.45121920963862
 72
     1
 10
144.3264272188792
 20
99.45121920963862
 11
144.3264272188792
 21
121.3011315097911
 97
        0
 75
     0
 76
     1
 52
0.0
 41
1.0
 77
     0
 78
     1
 53
45.0
 43
0.0
 44
0.0
 45
-2.245064030267288
 46
2.245064030267288
 79
     0
 98
        1
 10
0.0
 20
0.0
  0
DIMENSION
  5
11A
330
1F
100
AcDbEntity
  8
0
  6
Continuous
 62
     7
370
    18
100
AcDbDimension
  2
_D_1
 10
144.3335458092
 20
163.285857501
 30
0.0
 11
162.4417444827
 21
163.2762625387
 31
0.0
 70
   160
  1
<> REF
 71
     2
 42
-1.0
  3
SLDDIMSTYLE1
100
AcDbAlignedDimension
 13
135.0087323356
 23
149.8561563618
 33
0.0
 14
144.3264272189
 24
149.8512192096
 34
0.0
 50
-0.0303592204
100
AcDbRotatedDimension
  0
DIMENSION
  5
12E
330
1F
100
AcDbEntity
  8
0
  6
Continuous
 62
     7
370
    18
100
AcDbDimension
  2
_D_2
 10
-864.6736048164
 20
124.6512192096
 30
0.0
 11
162.4417444827
 21
91.1877482107
 31
0.0
 70
   164
  1
<>
 71
     1
 42
-1.0
  3
SLDDIMSTYLE2
100
AcDbRadialDimension
 15
134.7839319138
 25
91.7164906725
 35
0.0
 40
0.0
  0
DIMENSION
  5
13F
330
1F
100
AcDbEntity
  8
0
  6
Continuous
 62
     7
370
    18
100
AcDbDimension
  2
_D_3
 10
135.3264272189
 20
153.9866017441
 30
0.0
 11
160.3264272189
 21
153.9866017441
 31
0.0
 70
   160
  1
<>
 71
     2
 42
-1.0
  3
SLDDIMSTYLE3
100
AcDbAlignedDimension
 13
144.3264272189
 23
149.8512192096
 33
0.0
 14
135.3264272189
 24
124.6512192096
 34
0.0
100
AcDbRotatedDimension
  0
MTEXT
  5
154
330
1F
100
AcDbEntity
  8
0
  6
Continuous
 62
     7
370
     0
100
AcDbMText
 10
139.4865357272
 20
81.6664126952
 30
0.0
 40
2.1166666667
 41
0.0
 71
     2
 72
     1
  1
SECTION A-A
  7
SLDTEXTSTYLE0
 73
     1
 44
1.0
  0
MTEXT
  5
155
330
1F
100
AcDbEntity
  8
0
  6
Continuous
 62
     7
370
     0
100
AcDbMText
 10
117.030955844
 20
103.9290979219
 30
0.0
 40
2.1166666667
 41
0.0
 71
     1
 72
     1
  1
S1
  7
SLDTEXTSTYLE0
 73
     1
 44
1.0
  0
LEADER
  5
157
330
1F
100
AcDbEntity
  8
0
  6
Continuous
 62
     7
370
     0
100
AcDbLeader
  3
SLDDIMSTYLE4
 76
     3
 10
135.2916211797
 20
116.3079063698
 30
0.0
 10
126.7556598194
 20
103.3448850136
 30
0.0
 10
120.4056598194
 20
103.3448850136
 30
0.0
  0
MTEXT
  5
158
330
1F
100
AcDbEntity
  8
0
  6
Continuous
 62
     7
370
     0
100
AcDbMText
 10
159.2946385261
 20
133.3592315087
 30
0.0
 40
2.1166666667
 41
0.0
 71
     1
 72
     1
  1
S2
  7
SLDTEXTSTYLE0
 73
     1
 44
1.0
  0
LEADER
  5
159
330
1F
100
AcDbEntity
  8
0
  6
Continuous
 62
     7
370
     0
100
AcDbLeader
  3
SLDDIMSTYLE4
 76
     3
 10
144.3264272189
 20
118.1906325432
 30
0.0
 10
152.3588998764
 20
132.7639208603
 30
0.0
 10
158.7088998764
 20
132.7639208603
 30
0.0
  0
SPLINE
  5
15A
330
1F
100
AcDbEntity
  8
0
  6
Continuous
 62
     7
370
    18
100
AcDbSpline
210
0.0
220
0.0
230
1.0
 70
     8
 71
     3
 72
    13
 73
     9
 74
     0
 42
0.000000001
 43
0.00000001
 40
0.0
 40
0.0
 40
0.0
 40
0.0
 40
0.1943389941804442
 40
0.3816850483972331
 40
0.5594858099433007
 40
0.6963399801806504
 40
0.8391066529687213
 40
0.9999999999999999
 40
0.9999999999999999
 40
0.9999999999999999
 40
0.9999999999999999
 10
223.3389159985552
 20
126.7705766459213
 30
0.0
 10
223.3360909061634
 20
126.8322090682328
 30
0.0
 10
223.3305423772598
 20
126.9532561807385
 30
0.0
 10
223.2815466691258
 20
127.1252747352777
 30
0.0
 10
223.2015352836449
 20
127.2653967578156
 30
0.0
 10
223.0933017631259
 20
127.3643564853652
 30
0.0
 10
222.9642625047497
 20
127.4251270058402
 30
0.0
 10
222.8676106019219
 20
127.4317262117835
 30
0.0
 10
222.8163998822752
 20
127.4352227811791
 30
0.0
  0
SPLINE
  5
15B
330
1F
100
AcDbEntity
  8
0
  6
Continuous
 62
     7
370
    18
100
AcDbSpline
210
0.0
220
0.0
230
1.0
 70
     8
 71
     3
 72
    12
 73
     8
 74
     0
 42
0.000000001
 43
0.00000001
 40
0.0
 40
0.0
 40
0.0
 40
0.0
 40
0.20089083816314
 40
0.3780365369998075
 40
0.5535498386387533
 40
0.7713747335183486
 40
0.9999999999999999
 40
0.9999999999999999
 40
0.9999999999999999
 40
0.9999999999999999
 10
222.8163998822752
 20
126.1059124486456
 30
0.0
 10
222.8805380537844
 20
126.1114346519535
 30
0.0
 10
223.0012333152933
 20
126.1218263384743
 30
0.0
 10
223.1539278033207
 20
126.2200867211272
 30
0.0
 10
223.2619097245208
 20
126.3676046994732
 30
0.0
 10
223.3275184770469
 20
126.5567285502014
 30
0.0
 10
223.3350560426383
 20
126.698153512366
 30
0.0
 10
223.3389159985552
 20
126.7705766459213
 30
0.0
  0
SPLINE
  5
15C
330
1F
100
AcDbEntity
  8
0
  6
Continuous
 62
     7
370
    18
100
AcDbSpline
210
0.0
220
0.0
230
1.0
 70
     8
 71
     3
 72
    13
 73
     9
 74
     0
 42
0.000000001
 43
0.00000001
 40
0.0
 40
0.0
 40
0.0
 40
0.0
 40
0.1943256494037773
 40
0.3816748644005021
 40
0.559488170496602
 40
0.6963511211546937
 40
0.8391184169589753
 40
0.9999999999999999
 40
0.9999999999999999
 40
0.9999999999999999
 40
0.9999999999999999
 10
222.2938657039772
 20
126.7705766459213
 30
0.0
 10
222.2966921582195
 20
126.7089479769359
 30
0.0
 10
222.3022435949082
 20
126.5879031537212
 30
0.0
 10
222.3512521238877
 20
126.4158857458438
 30
0.0
 10
222.4312720374522
 20
126.2757592736448
 30
0.0
 10
222.5395078525064
 20
126.1767913000932
 30
0.0
 10
222.668543288146
 20
126.1160112071306
 30
0.0
 10
222.7651924698916
 20
126.1094099679368
 30
0.0
 10
222.8163998822752
 20
126.1059124486456
 30
0.0
  0
SPLINE
  5
15D
330
1F
100
AcDbEntity
  8
0
  6
Continuous
 62
     7
370
    18
100
AcDbSpline
210
0.0
220
0.0
230
1.0
 70
     8
 71
     3
 72
    12
 73
     8
 74
     0
 42
0.000000001
 43
0.00000001
 40
0.0
 40
0.0
 40
0.0
 40
0.0
 40
0.2008792258750616
 40
0.3780217100331192
 40
0.5535332757399339
 40
0.7713595773327312
 40
0.9999999999999999
 40
0.9999999999999999
 40
0.9999999999999999
 40
0.9999999999999999
 10
222.8163998822752
 20
127.4352227811791
 30
0.0
 10
222.752266089722
 20
127.4297011176822
 30
0.0
 10
222.6315768256815
 20
127.4193102538771
 30
0.0
 10
222.4788832919636
 20
127.3210631762523
 30
0.0
 10
222.3708897219021
 20
127.173556906113
 30
0.0
 10
222.3052662459051
 20
126.9844335382121
 30
0.0
 10
222.2977267573476
 20
126.8430041568227
 30
0.0
 10
222.2938657039772
 20
126.7705766459213
 30
0.0
  0
SPLINE
  5
15E
330
1F
100
AcDbEntity
  8
0
  6
Continuous
 62
     7
370
    18
100
AcDbSpline
210
0.0
220
0.0
230
1.0
 70
     8
 71
     3
 72
    19
 73
    15
 74
     0
 42
0.000000001
 43
0.00000001
 40
0.0
 40
0.0
 40
0.0
 40
0.0
 40
0.0915873397066451
 40
0.1741182870805898
 40
0.2526289966153892
 40
0.3313197891920882
 40
0.413163267198843
 40
0.4999972215981987
 40
0.5868350001903235
 40
0.6686802724867941
 40
0.747371487938393
 40
0.8258819896397946
 40
0.908412700828622
 40
0.9999999999999999
 40
0.9999999999999999
 40
0.9999999999999999
 40
0.9999999999999999
 10
222.8200050464215
 20
125.5700394927627
 30
0.0
 10
222.9306426211133
 20
125.5774842053141
 30
0.0
 10
223.1409776418026
 20
125.5916374780417
 30
0.0
 10
223.4253052167717
 20
125.7149568748347
 30
0.0
 10
223.6494765033612
 20
125.9022225542044
 30
0.0
 10
223.8101557921619
 20
126.1453659796643
 30
0.0
 10
223.9062578722799
 20
126.4301233438551
 30
0.0
 10
223.936245500152
 20
126.7383759574898
 30
0.0
 10
223.9051078593121
 20
127.0465166551969
 30
0.0
 10
223.8079442456676
 20
127.3309212290958
 30
0.0
 10
223.6463580546795
 20
127.5734661294458
 30
0.0
 10
223.4214884952527
 20
127.759893037832
 30
0.0
 10
223.1367021319518
 20
127.8821475201898
 30
0.0
 10
222.9263161096312
 20
127.8955149824126
 30
0.0
 10
222.8156515808562
 20
127.9025463616434
 30
0.0
  0
SPLINE
  5
15F
330
1F
100
AcDbEntity
  8
0
  6
Continuous
 62
     7
370
    18
100
AcDbSpline
210
0.0
220
0.0
230
1.0
 70
     8
 71
     3
 72
    14
 73
    10
 74
     0
 42
0.000000001
 43
0.00000001
 40
0.0
 40
0.0
 40
0.0
 40
0.0
 40
0.146686810909716
 40
0.2859932799578306
 40
0.4198155341096281
 40
0.5510853201411035
 40
0.6904104027401207
 40
0.8377115977293305
 40
0.9999999999999999
 40
0.9999999999999999
 40
0.9999999999999999
 40
0.9999999999999999
 10
221.7141529509028
 20
126.7424299285024
 30
0.0
 10
221.718035267782
 20
126.6537554342721
 30
0.0
 10
221.7256045681931
 20
126.4808679790453
 30
0.0
 10
221.7954237717476
 20
126.2349289795344
 30
0.0
 10
221.9077221508202
 20
126.0164256694681
 30
0.0
 10
222.0679647012332
 20
125.8289853811888
 30
0.0
 10
222.2769583585691
 20
125.683519350644
 30
0.0
 10
222.534438815785
 20
125.5871519927262
 30
0.0
 10
222.7217930353539
 20
125.5759248281263
 30
0.0
 10
222.8200050464215
 20
125.5700394927627
 30
0.0
  0
SPLINE
  5
160
330
1F
100
AcDbEntity
  8
0
  6
Continuous
 62
     7
370
    18
100
AcDbSpline
210
0.0
220
0.0
230
1.0
 70
     8
 71
     3
 72
    14
 73
    10
 74
     0
 42
0.000000001
 43
0.00000001
 40
0.0
 40
0.0
 40
0.0
 40
0.0
 40
0.1553989656922841
 40
0.2968771122070974
 40
0.4305153137104962
 40
0.56176750401189
 40
0.7014063449726637
 40
0.8467289956139475
 40
1.0
 40
1.0
 40
1.0
 40
1.0
 10
222.8156515808562
 20
127.9025463616434
 30
0.0
 10
222.7224104402215
 20
127.8971914094202
 30
0.0
 10
222.5442808082308
 20
127.8869612077909
 30
0.0
 10
222.2981014055567
 20
127.7999587793479
 30
0.0
 10
222.0923330275267
 20
127.6663545406704
 30
0.0
 10
221.9263893401962
 20
127.4865403258569
 30
0.0
 10
221.8050183025678
 20
127.2668214590777
 30
0.0
 10
221.7279458611361
 20
127.0133402724456
 30
0.0
 10
221.718831460631
 20
126.8343218250022
 30
0.0
 10
221.7141529509028
 20
126.7424299285024
 30
0.0
  0
LINE
  5
161
330
1F
100
AcDbEntity
  8
0
  6
Continuous
 62
     7
370
    18
100
AcDbLine
 10
218.5765539855
 20
127.3859315343
 30
0.0
 11
218.5765539855
 21
125.6512192096
 31
0.0
  0
LINE
  5
162
330
1F
100
AcDbEntity
  8
0
  6
Continuous
 62
     7
370
    18
100
AcDbLine
 10
217.9060596917
 20
127.3859315343
 30
0.0
 11
218.5765539855
 21
127.3859315343
 31
0.0
  0
LINE
  5
163
330
1F
100
AcDbEntity
  8
0
  6
Continuous
 62
     7
370
    18
100
AcDbLine
 10
217.9060596917
 20
127.8875679579
 30
0.0
 11
217.9060596917
 21
127.3859315343
 31
0.0
  0
LINE
  5
164
330
1F
100
AcDbEntity
  8
0
  6
Continuous
 62
     7
370
    18
100
AcDbLine
 10
220.3548719567
 20
127.8875679579
 30
0.0
 11
217.9060596917
 21
127.8875679579
 31
0.0
  0
LINE
  5
165
330
1F
100
AcDbEntity
  8
0
  6
Continuous
 62
     7
370
    18
100
AcDbLine
 10
220.3548719567
 20
127.0723929653
 30
0.0
 11
220.3548719567
 21
127.8875679579
 31
0.0
  0
LINE
  5
166
330
1F
100
AcDbEntity
  8
0
  6
Continuous
 62
     7
370
    18
100
AcDbLine
 10
221.1261381837
 20
127.0723929653
 30
0.0
 11
220.3548719567
 21
127.0723929653
 31
0.0
  0
LINE
  5
167
330
1F
100
AcDbEntity
  8
0
  6
Continuous
 62
     7
370
    18
100
AcDbLine
 10
221.1261381837
 20
127.8875679579
 30
0.0
 11
221.1261381837
 21
127.0723929653
 31
0.0
  0
LINE
  5
168
330
1F
100
AcDbEntity
  8
0
  6
Continuous
 62
     7
370
    18
100
AcDbLine
 10
221.7116506832
 20
127.8875679579
 30
0.0
 11
221.1261381837
 21
127.8875679579
 31
0.0
  0
LINE
  5
169
330
1F
100
AcDbEntity
  8
0
  6
Continuous
 62
     7
370
    18
100
AcDbLine
 10
221.7116506832
 20
125.6512192096
 30
0.0
 11
221.7116506832
 21
127.8875679579
 31
0.0
  0
LINE
  5
16A
330
1F
100
AcDbEntity
  8
0
  6
Continuous
 62
     7
370
    18
100
AcDbLine
 10
221.1261342484
 20
125.6512192096
 30
0.0
 11
221.7116506832
 21
125.6512192096
 31
0.0
  0
LINE
  5
16B
330
1F
100
AcDbEntity
  8
0
  6
Continuous
 62
     7
370
    18
100
AcDbLine
 10
221.1261342484
 20
126.573032356
 30
0.0
 11
221.1261342484
 21
125.6512192096
 31
0.0
  0
LINE
  5
16C
330
1F
100
AcDbEntity
  8
0
  6
Continuous
 62
     7
370
    18
100
AcDbLine
 10
220.3548680214
 20
126.573032356
 30
0.0
 11
221.1261342484
 21
126.573032356
 31
0.0
  0
LINE
  5
16D
330
1F
100
AcDbEntity
  8
0
  6
Continuous
 62
     7
370
    18
100
AcDbLine
 10
220.3548680214
 20
125.6512192096
 30
0.0
 11
220.3548680214
 21
126.573032356
 31
0.0
  0
LINE
  5
16E
330
1F
100
AcDbEntity
  8
0
  6
Continuous
 62
     7
370
    18
100
AcDbLine
 10
219.7694238347
 20
125.6512192096
 30
0.0
 11
220.3548680214
 21
125.6512192096
 31
0.0
  0
LINE
  5
16F
330
1F
100
AcDbEntity
  8
0
  6
Continuous
 62
     7
370
    18
100
AcDbLine
 10
219.7694238347
 20
127.3881351005
 30
0.0
 11
219.7694238347
 21
125.6512192096
 31
0.0
  0
LINE
  5
170
330
1F
100
AcDbEntity
  8
0
  6
Continuous
 62
     7
370
    18
100
AcDbLine
 10
219.1620523583
 20
127.3881351005
 30
0.0
 11
219.7694238347
 21
127.3881351005
 31
0.0
  0
LINE
  5
171
330
1F
100
AcDbEntity
  8
0
  6
Continuous
 62
     7
370
    18
100
AcDbLine
 10
219.1620523583
 20
125.6512192096
 30
0.0
 11
219.1620523583
 21
127.3881351005
 31
0.0
  0
LINE
  5
172
330
1F
100
AcDbEntity
  8
0
  6
Continuous
 62
     7
370
    18
100
AcDbLine
 10
218.5765539855
 20
125.6512192096
 30
0.0
 11
219.1620523583
 21
125.6512192096
 31
0.0
  0
SPLINE
  5
173
330
1F
100
AcDbEntity
  8
0
  6
Continuous
 62
     7
370
    18
100
AcDbSpline
210
0.0
220
0.0
230
1.0
 70
     8
 71
     3
 72
    12
 73
     8
 74
     0
 42
0.000000001
 43
0.00000001
 40
0.0
 40
0.0
 40
0.0
 40
0.0
 40
0.1970292569794018
 40
0.3714318737747027
 40
0.5434083414909525
 40
0.7603083066182476
 40
1.0
 40
1.0
 40
1.0
 40
1.0
 10
225.2743154042641
 20
127.1812708092859
 30
0.0
 10
225.2721056915463
 20
127.2097089714488
 30
0.0
 10
225.2679400272797
 20
127.2633194860537
 30
0.0
 10
225.2279025336268
 20
127.3330520201072
 30
0.0
 10
225.1644410160458
 20
127.3848437934433
 30
0.0
 10
225.0784434482381
 20
127.4173060855826
 30
0.0
 10
225.012878454578
 20
127.4208469799849
 30
0.0
 10
224.9784595508068
 20
127.4227058027636
 30
0.0
  0
SPLINE
  5
174
330
1F
100
AcDbEntity
  8
0
  6
Continuous
 62
     7
370
    18
100
AcDbSpline
210
0.0
220
0.0
230
1.0
 70
     8
 71
     3
 72
    12
 73
     8
 74
     0
 42
0.000000001
 43
0.00000001
 40
0.0
 40
0.0
 40
0.0
 40
0.0
 40
0.2111291888127867
 40
0.3927062339152226
 40
0.5599129747574085
 40
0.7634359056262757
 40
0.9999999999999999
 40
0.9999999999999999
 40
0.9999999999999999
 40
0.9999999999999999
 10
225.0036380037811
 20
126.9179807741304
 30
0.0
 10
225.033935958648
 20
126.9195193955463
 30
0.0
 10
225.0902910075071
 20
126.9223812746879
 30
0.0
 10
225.166615977317
 20
126.9515602983093
 30
0.0
 10
225.2279400755884
 20
127.0037207071022
 30
0.0
 10
225.2683876003786
 20
127.0839205060787
 30
0.0
 10
225.2722429839028
 20
127.1472361559061
 30
0.0
 10
225.2743154042641
 20
127.1812708092859
 30
0.0
  0
LINE
  5
175
330
1F
100
AcDbEntity
  8
0
  6
Continuous
 62
     7
370
    18
100
AcDbLine
 10
224.5125678607
 20
126.9179807741
 30
0.0
 11
225.0036380038
 21
126.9179807741
 31
0.0
  0
LINE
  5
176
330
1F
100
AcDbEntity
  8
0
  6
Continuous
 62
     7
370
    18
100
AcDbLine
 10
224.5125678607
 20
127.4227058028
 30
0.0
 11
224.5125678607
 21
126.9179807741
 31
0.0
  0
LINE
  5
177
330
1F
100
AcDbEntity
  8
0
  6
Continuous
 62
     7
370
    18
100
AcDbLine
 10
224.9784595508
 20
127.4227058028
 30
0.0
 11
224.5125678607
 21
127.4227058028
 31
0.0
  0
SPLINE
  5
178
330
1F
100
AcDbEntity
  8
0
  6
Continuous
 62
     7
370
    18
100
AcDbSpline
210
0.0
220
0.0
230
1.0
 70
     8
 71
     3
 72
    14
 73
    10
 74
     0
 42
0.000000001
 43
0.00000001
 40
0.0
 40
0.0
 40
0.0
 40
0.0
 40
0.2575826845002104
 40
0.4580339644254275
 40
0.6128287983994991
 40
0.7093883131761901
 40
0.7998028883084931
 40
0.894133880561337
 40
1.0
 40
1.0
 40
1.0
 40
1.0
 10
231.894424272703
 20
126.2452428548464
 30
0.0
 10
231.9225015478862
 20
126.2381287912316
 30
0.0
 10
231.9724286060165
 20
126.2254785513018
 30
0.0
 10
232.0411152954227
 20
126.2178822346077
 30
0.0
 10
232.0923194167311
 20
126.2225751155224
 30
0.0
 10
232.1282470669768
 20
126.2376841410249
 30
0.0
 10
232.1523391970231
 20
126.2589250762394
 30
0.0
 10
232.1696482165838
 20
126.287168821709
 30
0.0
 10
232.1759840793564
 20
126.3088220474324
 30
0.0
 10
232.1793345433035
 20
126.3202724772678
 30
0.0
  0
SPLINE
  5
179
330
1F
100
AcDbEntity
  8
0
  6
Continuous
 62
     7
370
    18
100
AcDbSpline
210
0.0
220
0.0
230
1.0
 70
     8
 71
     3
 72
    12
 73
     8
 74
     0
 42
0.000000001
 43
0.00000001
 40
0.0
 40
0.0
 40
0.0
 40
0.0
 40
0.2545415383352772
 40
0.493353884876836
 40
0.629981892889335
 40
0.793357868069172
 40
0.9999999999999999
 40
0.9999999999999999
 40
0.9999999999999999
 40
0.9999999999999999
 10
231.6948028507
 20
126.5288887841928
 30
0.0
 10
231.6946481558972
 20
126.4962263350435
 30
0.0
 10
231.6943483255338
 20
126.4329197867969
 30
0.0
 10
231.7193421488516
 20
126.3527139420463
 30
0.0
 10
231.767399585688
 20
126.3014883702613
 30
0.0
 10
231.8235953606367
 20
126.2673641885103
 30
0.0
 10
231.8690432313188
 20
126.2531698788373
 30
0.0
 10
231.894424272703
 20
126.2452428548464
 30
0.0
  0
SPLINE
  5
17A
330
1F
100
AcDbEntity
  8
0
  6
Continuous
 62
     7
370
    18
100
AcDbSpline
210
0.0
220
0.0
230
1.0
 70
     8
 71
     3
 72
    14
 73
    10
 74
     0
 42
0.000000001
 43
0.00000001
 40
0.0
 40
0.0
 40
0.0
 40
0.0
 40
0.0123761948722826
 40
0.0260544786030459
 40
0.0423069896658994
 40
0.1107691877094688
 40
0.3353734156282128
 40
0.6465637489690592
 40
1.0
 40
1.0
 40
1.0
 40
1.0
 10
232.1793345433035
 20
126.3202724772678
 30
0.0
 10
232.1796007827728
 20
126.3225090972511
 30
0.0
 10
232.1801612725378
 20
126.3272176500899
 30
0.0
 10
232.177319884836
 20
126.3345234932416
 30
0.0
 10
232.1671965140246
 20
126.3490583338187
 30
0.0
 10
232.120825486069
 20
126.3818354898391
 30
0.0
 10
232.0211124842117
 20
126.4243478608051
 30
0.0
 10
231.8701717891973
 20
126.4771700490342
 30
0.0
 10
231.7556848886395
 20
126.5109338257886
 30
0.0
 10
231.6948028507
 20
126.5288887841928
 30
0.0
  0
LINE
  5
17B
330
1F
100
AcDbEntity
  8
0
  6
Continuous
 62
     7
370
    18
100
AcDbLine
 10
231.1712933234
 20
126.5328985522
 30
0.0
 11
231.681003469
 21
126.5328985522
 31
0.0
  0
SPLINE
  5
17C
330
1F
100
AcDbEntity
  8
0
  6
Continuous
 62
     7
370
    18
100
AcDbSpline
210
0.0
220
0.0
230
1.0
 70
     8
 71
     3
 72
    11
 73
     7
 74
     0
 42
0.000000001
 43
0.00000001
 40
0.0
 40
0.0
 40
0.0
 40
0.0
 40
0.2403133392799503
 40
0.5276554281052284
 40
0.7630136347472203
 40
0.9999999999999999
 40
0.9999999999999999
 40
0.9999999999999999
 40
0.9999999999999999
 10
230.9555605814508
 20
126.8738913883985
 30
0.0
 10
230.9822564291981
 20
126.8535835534387
 30
0.0
 10
231.0408724386711
 20
126.8089936884661
 30
0.0
 10
231.1085537586513
 20
126.7262343268007
 30
0.0
 10
231.160305405779
 20
126.6319315060699
 30
0.0
 10
231.1676222771986
 20
126.5659853083735
 30
0.0
 10
231.1712933234346
 20
126.5328985521701
 30
0.0
  0
SPLINE
  5
17D
330
1F
100
AcDbEntity
  8
0
  6
Continuous
 62
     7
370
    18
100
AcDbSpline
210
0.0
220
0.0
230
1.0
 70
     8
 71
     3
 72
    10
 73
     6
 74
     0
 42
0.000000001
 43
0.00000001
 40
0.0
 40
0.0
 40
0.0
 40
0.0
 40
0.3052209345869937
 40
0.5892711010915017
 40
0.9999999999999999
 40
0.9999999999999999
 40
0.9999999999999999
 40
0.9999999999999999
 10
231.0808748617492
 20
127.0548366838768
 30
0.0
 10
231.0733738720676
 20
127.0332909724017
 30
0.0
 10
231.0588921771769
 20
126.991694005464
 30
0.0
 10
231.011966900689
 20
126.9331746787303
 30
0.0
 10
230.9765171969976
 20
126.8959168837793
 30
0.0
 10
230.9555605814508
 20
126.8738913883985
 30
0.0
  0
SPLINE
  5
17E
330
1F
100
AcDbEntity
  8
0
  6
Continuous
 62
     7
370
    18
100
AcDbSpline
210
0.0
220
0.0
230
1.0
 70
     8
 71
     3
 72
    11
 73
     7
 74
     0
 42
0.000000001
 43
0.00000001
 40
0.0
 40
0.0
 40
0.0
 40
0.0
 40
0.3113820865694061
 40
0.5952152429024645
 40
0.7995709864930258
 40
1.0
 40
1.0
 40
1.0
 40
1.0
 10
231.5819152387275
 20
126.5607501837959
 30
0.0
 10
231.5076113639992
 20
126.5860577359118
 30
0.0
 10
231.3655775067137
 20
126.6344338032246
 30
0.0
 10
231.203550653134
 20
126.7575073542704
 30
0.0
 10
231.0996633563069
 20
126.9020594027787
 30
0.0
 10
231.0870970589503
 20
127.0042413385228
 30
0.0
 10
231.0808748617492
 20
127.0548366838768
 30
0.0
  0
SPLINE
  5
17F
330
1F
100
AcDbEntity
  8
0
  6
Continuous
 62
     7
370
    18
100
AcDbSpline
210
0.0
220
0.0
230
1.0
 70
     8
 71
     3
 72
     9
 73
     5
 74
     0
 42
0.000000001
 43
0.00000001
 40
0.0
 40
0.0
 40
0.0
 40
0.0
 40
0.5632377239369363
 40
1.0
 40
1.0
 40
1.0
 40
1.0
 10
231.6810034690125
 20
126.5328985521701
 30
0.0
 10
231.6624172533282
 20
126.5381888218272
 30
0.0
 10
231.629418370451
 20
126.5475814271734
 30
0.0
 10
231.5963557458854
 20
126.5567470051134
 30
0.0
 10
231.5819152387275
 20
126.5607501837959
 30
0.0
  0
SPLINE
  5
180
330
1F
100
AcDbEntity
  8
0
  6
Continuous
 62
     7
370
    18
100
AcDbSpline
210
0.0
220
0.0
230
1.0
 70
     8
 71
     3
 72
    13
 73
     9
 74
     0
 42
0.000000001
 43
0.00000001
 40
0.0
 40
0.0
 40
0.0
 40
0.0
 40
0.2070940199890577
 40
0.3978649646626732
 40
0.5739369280037266
 40
0.7077750174858438
 40
0.8462504046616516
 40
1.0
 40
1.0
 40
1.0
 40
1.0
 10
230.3175378606006
 20
125.75363085122
 30
0.0
 10
230.3889768528898
 20
125.7560974067581
 30
0.0
 10
230.5262240420853
 20
125.7608361048242
 30
0.0
 10
230.7199800880369
 20
125.807265538
 30
0.0
 10
230.8762639520686
 20
125.8857415542605
 30
0.0
 10
230.9894920257018
 20
125.9932728441904
 30
0.0
 10
231.06579629625
 20
126.1218451875916
 30
0.0
 10
231.0859731053838
 20
126.221093360006
 30
0.0
 10
231.0965888173358
 20
126.2733112306873
 30
0.0
  0
LINE
  5
181
330
1F
100
AcDbEntity
  8
0
  6
Continuous
 62
     7
370
    18
100
AcDbLine
 10
228.8390171981
 20
125.7536308512
 30
0.0
 11
230.3175378606
 21
125.7536308512
 31
0.0
  0
LINE
  5
182
330
1F
100
AcDbEntity
  8
0
  6
Continuous
 62
     7
370
    18
100
AcDbLine
 10
228.6884160927
 20
126.0970620599
 30
0.0
 11
228.8390171981
 21
125.7536308512
 31
0.0
  0
LINE
  5
183
330
1F
100
AcDbEntity
  8
0
  6
Continuous
 62
     7
370
    18
100
AcDbLine
 10
228.0350045326
 20
126.0970620599
 30
0.0
 11
228.6884160927
 21
126.0970620599
 31
0.0
  0
LINE
  5
184
330
1F
100
AcDbEntity
  8
0
  6
Continuous
 62
     7
370
    18
100
AcDbLine
 10
227.8814412563
 20
125.756412402
 30
0.0
 11
228.0350045326
 21
126.0970620599
 31
0.0
  0
LINE
  5
185
330
1F
100
AcDbEntity
  8
0
  6
Continuous
 62
     7
370
    18
100
AcDbLine
 10
226.012022402
 20
125.756412402
 30
0.0
 11
227.8814412563
 21
125.756412402
 31
0.0
  0
LINE
  5
186
330
1F
100
AcDbEntity
  8
0
  6
Continuous
 62
     7
370
    18
100
AcDbLine
 10
226.012022402
 20
127.7766491058
 30
0.0
 11
226.012022402
 21
125.756412402
 31
0.0
  0
LINE
  5
187
330
1F
100
AcDbEntity
  8
0
  6
Continuous
 62
     7
370
    18
100
AcDbLine
 10
226.5390720848
 20
127.7766491058
 30
0.0
 11
226.012022402
 21
127.7766491058
 31
0.0
  0
LINE
  5
188
330
1F
100
AcDbEntity
  8
0
  6
Continuous
 62
     7
370
    18
100
AcDbLine
 10
226.5390720848
 20
126.2133814552
 30
0.0
 11
226.5390720848
 21
127.7766491058
 31
0.0
  0
LINE
  5
189
330
1F
100
AcDbEntity
  8
0
  6
Continuous
 62
     7
370
    18
100
AcDbLine
 10
227.5085328344
 20
126.2133814552
 30
0.0
 11
226.5390720848
 21
126.2133814552
 31
0.0
  0
LINE
  5
18A
330
1F
100
AcDbEntity
  8
0
  6
Continuous
 62
     7
370
    18
100
AcDbLine
 10
228.0967766338
 20
127.7766491058
 30
0.0
 11
227.5085328344
 21
126.2133814552
 31
0.0
  0
LINE
  5
18B
330
1F
100
AcDbEntity
  8
0
  6
Continuous
 62
     7
370
    18
100
AcDbLine
 10
228.632243217
 20
127.7766491058
 30
0.0
 11
228.0967766338
 21
127.7766491058
 31
0.0
  0
LINE
  5
18C
330
1F
100
AcDbEntity
  8
0
  6
Continuous
 62
     7
370
    18
100
AcDbLine
 10
229.3457651727
 20
125.8932502497
 30
0.0
 11
228.632243217
 21
127.7766491058
 31
0.0
  0
LINE
  5
18D
330
1F
100
AcDbEntity
  8
0
  6
Continuous
 62
     7
370
    18
100
AcDbLine
 10
229.3457651727
 20
127.7766491058
 30
0.0
 11
229.3457651727
 21
125.8932502497
 31
0.0
  0
LINE
  5
18E
330
1F
100
AcDbEntity
  8
0
  6
Continuous
 62
     7
370
    18
100
AcDbLine
 10
230.2919981673
 20
127.7766491058
 30
0.0
 11
229.3457651727
 21
127.7766491058
 31
0.0
  0
SPLINE
  5
18F
330
1F
100
AcDbEntity
  8
0
  6
Continuous
 62
     7
370
    18
100
AcDbSpline
210
0.0
220
0.0
230
1.0
 70
     8
 71
     3
 72
    14
 73
    10
 74
     0
 42
0.000000001
 43
0.00000001
 40
0.0
 40
0.0
 40
0.0
 40
0.0
 40
0.1423816612635867
 40
0.2654010250778306
 40
0.380208570789929
 40
0.4953201289099357
 40
0.6562432766114736
 40
0.8263515868701826
 40
1.0
 40
1.0
 40
1.0
 40
1.0
 10
231.0229680323118
 20
127.271544774828
 30
0.0
 10
231.0201441710682
 20
127.3196476855581
 30
0.0
 10
231.014880461809
 20
127.4093120545764
 30
0.0
 10
230.9642999933085
 20
127.5295552752881
 30
0.0
 10
230.88707769979
 20
127.6217565754787
 30
0.0
 10
230.7770728484664
 20
127.6962794989294
 30
0.0
 10
230.6345179618242
 20
127.747397211217
 30
0.0
 10
230.466212185811
 20
127.7748798642865
 30
0.0
 10
230.3504668327871
 20
127.7760553235843
 30
0.0
 10
230.291998167268
 20
127.7766491058374
 30
0.0
  0
SPLINE
  5
190
330
1F
100
AcDbEntity
  8
0
  6
Continuous
 62
     7
370
    18
100
AcDbSpline
210
0.0
220
0.0
230
1.0
 70
     8
 71
     3
 72
    11
 73
     7
 74
     0
 42
0.000000001
 43
0.00000001
 40
0.0
 40
0.0
 40
0.0
 40
0.0
 40
0.2840562052455262
 40
0.5588619016419718
 40
0.775099383828582
 40
1.0
 40
1.0
 40
1.0
 40
1.0
 10
230.7566255161286
 20
126.8652396818169
 30
0.0
 10
230.7985316881117
 20
126.8900942525823
 30
0.0
 10
230.8809793253489
 20
126.9389939858954
 30
0.0
 10
230.96491816566
 20
127.0443089165076
 30
0.0
 10
231.0145484323131
 20
127.1576509951893
 30
0.0
 10
231.0201249945329
 20
127.233086377951
 30
0.0
 10
231.0229680323118
 20
127.271544774828
 30
0.0
  0
SPLINE
  5
191
330
1F
100
AcDbEntity
  8
0
  6
Continuous
 62
     7
370
    18
100
AcDbSpline
210
0.0
220
0.0
230
1.0
 70
     8
 71
     3
 72
    11
 73
     7
 74
     0
 42
0.000000001
 43
0.00000001
 40
0.0
 40
0.0
 40
0.0
 40
0.0
 40
0.284983949711208
 40
0.5578557580524994
 40
0.7738896021956474
 40
1.0
 40
1.0
 40
1.0
 40
1.0
 10
231.1026215313195
 20
126.4391205551524
 30
0.0
 10
231.0929238964303
 20
126.4941709865594
 30
0.0
 10
231.0739407871431
 20
126.6019321435466
 30
0.0
 10
230.9875835956237
 20
126.7298191020798
 30
0.0
 10
230.8792738973722
 20
126.8200516943624
 30
0.0
 10
230.7981247779719
 20
126.849949890753
 30
0.0
 10
230.7566255161286
 20
126.8652396818169
 30
0.0
  0
LINE
  5
192
330
1F
100
AcDbEntity
  8
0
  6
Continuous
 62
     7
370
    18
100
AcDbLine
 10
231.606371211
 20
126.4391205552
 30
0.0
 11
231.1026215313
 21
126.4391205552
 31
0.0
  0
SPLINE
  5
193
330
1F
100
AcDbEntity
  8
0
  6
Continuous
 62
     7
370
    18
100
AcDbSpline
210
0.0
220
0.0
230
1.0
 70
     8
 71
     3
 72
    12
 73
     8
 74
     0
 42
0.000000001
 43
0.00000001
 40
0.0
 40
0.0
 40
0.0
 40
0.0
 40
0.3029848175181616
 40
0.5555954840373166
 40
0.6861253068640307
 40
0.8302562633026854
 40
1.0
 40
1.0
 40
1.0
 40
1.0
 10
231.9887802542941
 20
126.1258890404602
 30
0.0
 10
231.9319160557054
 20
126.1281578184908
 30
0.0
 10
231.8276418805237
 20
126.1323181683011
 30
0.0
 10
231.7067510829968
 20
126.1913205837384
 30
0.0
 10
231.6453863875071
 20
126.270270890688
 30
0.0
 10
231.6147379973167
 20
126.3487917815467
 30
0.0
 10
231.6093078434385
 20
126.4074163383209
 30
0.0
 10
231.6063712109852
 20
126.4391205551524
 30
0.0
  0
SPLINE
  5
194
330
1F
100
AcDbEntity
  8
0
  6
Continuous
 62
     7
370
    18
100
AcDbSpline
210
0.0
220
0.0
230
1.0
 70
     8
 71
     3
 72
    12
 73
     8
 74
     0
 42
0.000000001
 43
0.00000001
 40
0.0
 40
0.0
 40
0.0
 40
0.0
 40
0.1228977808113462
 40
0.2361517003655365
 40
0.4654549568724395
 40
0.722943542278525
 40
1.0
 40
1.0
 40
1.0
 40
1.0
 10
232.3118013826964
 20
126.3319405408413
 30
0.0
 10
232.3104801306299
 20
126.3144144320449
 30
0.0
 10
232.3079413059247
 20
126.2807374985338
 30
0.0
 10
232.2781309105318
 20
126.2200828135317
 30
0.0
 10
232.2088846126844
 20
126.1650715883621
 30
0.0
 10
232.1041154911084
 20
126.1316514532747
 30
0.0
 10
232.0281522516706
 20
126.1278561557017
 30
0.0
 10
231.9887802542941
 20
126.1258890404602
 30
0.0
  0
SPLINE
  5
195
330
1F
100
AcDbEntity
  8
0
  6
Continuous
 62
     7
370
    18
100
AcDbSpline
210
0.0
220
0.0
230
1.0
 70
     8
 71
     3
 72
    12
 73
     8
 74
     0
 42
0.000000001
 43
0.00000001
 40
0.0
 40
0.0
 40
0.0
 40
0.0
 40
0.32103069194576
 40
0.6029592976098672
 40
0.8214028303124048
 40
0.9104117121954224
 40
1.0
 40
1.0
 40
1.0
 40
1.0
 10
231.730963010567
 20
126.6253399598621
 30
0.0
 10
231.8023381062095
 20
126.6069471866578
 30
0.0
 10
231.9363946890073
 20
126.5724019114222
 30
0.0
 10
232.1179788631095
 20
126.5244271913202
 30
0.0
 10
232.2439607300835
 20
126.4673225518397
 30
0.0
 10
232.3044462007622
 20
126.3942573913471
 30
0.0
 10
232.3093443585082
 20
126.3527577021833
 30
0.0
 10
232.3118013826964
 20
126.3319405408413
 30
0.0
  0
SPLINE
  5
196
330
1F
100
AcDbEntity
  8
0
  6
Continuous
 62
     7
370
    18
100
AcDbSpline
210
0.0
220
0.0
230
1.0
 70
     8
 71
     3
 72
    12
 73
     8
 74
     0
 42
0.000000001
 43
0.00000001
 40
0.0
 40
0.0
 40
0.0
 40
0.0
 40
0.205930330155996
 40
0.3857152088822376
 40
0.5622731912300352
 40
0.7785006333333756
 40
1.0
 40
1.0
 40
1.0
 40
1.0
 10
231.1388539392582
 20
127.2066660064753
 30
0.0
 10
231.1438227809826
 20
127.1442661605204
 30
0.0
 10
231.1531296073358
 20
127.027388915685
 30
0.0
 10
231.2419556370561
 20
126.8774544645588
 30
0.0
 10
231.3742232782403
 20
126.7647205702702
 30
0.0
 10
231.5413153252042
 20
126.6826606756988
 30
0.0
 10
231.6672415690302
 20
126.6445996657533
 30
0.0
 10
231.730963010567
 20
126.6253399598621
 30
0.0
  0
SPLINE
  5
197
330
1F
100
AcDbEntity
  8
0
  6
Continuous
 62
     7
370
    18
100
AcDbSpline
210
0.0
220
0.0
230
1.0
 70
     8
 71
     3
 72
    14
 73
    10
 74
     0
 42
0.000000001
 43
0.00000001
 40
0.0
 40
0.0
 40
0.0
 40
0.0
 40
0.1687571149027781
 40
0.3389805425085106
 40
0.5046286467510813
 40
0.6247827513896863
 40
0.7433698504427186
 40
0.8656643973442344
 40
1.0
 40
1.0
 40
1.0
 40
1.0
 10
231.9632766849973
 20
127.8189322897778
 30
0.0
 10
231.8987410986694
 20
127.8161040681267
 30
0.0
 10
231.7691091831372
 20
127.8104230507061
 30
0.0
 10
231.5806258467274
 20
127.7641192540264
 30
0.0
 10
231.4204944385887
 20
127.6922140232907
 30
0.0
 10
231.2962388533412
 20
127.5982200500475
 30
0.0
 10
231.2084159008503
 20
127.4902408870993
 30
0.0
 10
231.1491325409542
 20
127.3566837558931
 30
0.0
 10
231.1423856607593
 20
127.2582120169967
 30
0.0
 10
231.1388539392582
 20
127.2066660064753
 30
0.0
  0
SPLINE
  5
198
330
1F
100
AcDbEntity
  8
0
  6
Continuous
 62
     7
370
    18
100
AcDbSpline
210
0.0
220
0.0
230
1.0
 70
     8
 71
     3
 72
    12
 73
     8
 74
     0
 42
0.000000001
 43
0.00000001
 40
0.0
 40
0.0
 40
0.0
 40
0.0
 40
0.1993974480574494
 40
0.3779257523812719
 40
0.5550669356786537
 40
0.7731143074051402
 40
1.0
 40
1.0
 40
1.0
 40
1.0
 10
232.773647180798
 20
127.1700001101066
 30
0.0
 10
232.7662602868901
 20
127.2477519442132
 30
0.0
 10
232.7522596190526
 20
127.3951180248228
 30
0.0
 10
232.6321319216918
 20
127.5821345106373
 30
0.0
 10
232.4533150008878
 20
127.717896685007
 30
0.0
 10
232.2236023273661
 20
127.8034129251723
 30
0.0
 10
232.0511934974724
 20
127.8136911116313
 30
0.0
 10
231.9632766849973
 20
127.8189322897778
 30
0.0
  0
LINE
  5
199
330
1F
100
AcDbEntity
  8
0
  6
Continuous
 62
     7
370
    18
100
AcDbLine
 10
232.2466697461
 20
127.1700001101
 30
0.0
 11
232.7736471808
 21
127.1700001101
 31
0.0
  0
SPLINE
  5
19A
330
1F
100
AcDbEntity
  8
0
  6
Continuous
 62
     7
370
    18
100
AcDbSpline
210
0.0
220
0.0
230
1.0
 70
     8
 71
     3
 72
    13
 73
     9
 74
     0
 42
0.000000001
 43
0.00000001
 40
0.0
 40
0.0
 40
0.0
 40
0.0
 40
0.2626041787201647
 40
0.5099839566452454
 40
0.6263386331431486
 40
0.7414049134888223
 40
0.8625801387792086
 40
1.0
 40
1.0
 40
1.0
 40
1.0
 10
231.920758694824
 20
127.4126271967667
 30
0.0
 10
231.9611012524298
 20
127.4106071635647
 30
0.0
 10
232.0394475196115
 20
127.4066842079974
 30
0.0
 10
232.1321823331724
 20
127.3737636446047
 30
0.0
 10
232.1914319212261
 20
127.3292233963944
 30
0.0
 10
232.2248172919853
 20
127.2858030859887
 30
0.0
 10
232.2456720656364
 20
127.2311545787313
 30
0.0
 10
232.2463235442369
 20
127.1912211237061
 30
0.0
 10
232.2466697460928
 20
127.1700001101066
 30
0.0
  0
SPLINE
  5
19B
330
1F
100
AcDbEntity
  8
0
  6
Continuous
 62
     7
370
    18
100
AcDbSpline
210
0.0
220
0.0
230
1.0
 70
     8
 71
     3
 72
    12
 73
     8
 74
     0
 42
0.000000001
 43
0.00000001
 40
0.0
 40
0.0
 40
0.0
 40
0.0
 40
0.1338350776842874
 40
0.2542572338768613
 40
0.4899325118163957
 40
0.7434916633797847
 40
1.0
 40
1.0
 40
1.0
 40
1.0
 10
231.6659036220351
 20
127.240532290067
 30
0.0
 10
231.667011607534
 20
127.255908818283
 30
0.0
 10
231.6691165364736
 20
127.2851208425031
 30
0.0
 10
231.6939204921403
 20
127.3367774797906
 30
0.0
 10
231.7505150758714
 20
127.3821087137522
 30
0.0
 10
231.8330209902952
 20
127.4081524782212
 30
0.0
 10
231.8914002779272
 20
127.4111298855108
 30
0.0
 10
231.920758694824
 20
127.4126271967667
 30
0.0
  0
SPLINE
  5
19C
330
1F
100
AcDbEntity
  8
0
  6
Continuous
 62
     7
370
    18
100
AcDbSpline
210
0.0
220
0.0
230
1.0
 70
     8
 71
     3
 72
    12
 73
     8
 74
     0
 42
0.000000001
 43
0.00000001
 40
0.0
 40
0.0
 40
0.0
 40
0.0
 40
0.3295920737084753
 40
0.6175980183821521
 40
0.8358975487564478
 40
0.9197397490046667
 40
1.0
 40
1.0
 40
1.0
 40
1.0
 10
232.2523050956825
 20
126.9752373709228
 30
0.0
 10
232.1803081143989
 20
126.9934024098765
 30
0.0
 10
232.0453983379899
 20
127.0274405223086
 30
0.0
 10
231.8629164894134
 20
127.0718319374537
 30
0.0
 10
231.7372506038975
 20
127.1205515112433
 30
0.0
 10
231.6739145145446
 20
127.1847276748454
 30
0.0
 10
231.6685347774349
 20
127.2222034191577
 30
0.0
 10
231.6659036220351
 20
127.240532290067
 30
0.0
  0
SPLINE
  5
19D
330
1F
100
AcDbEntity
  8
0
  6
Continuous
 62
     7
370
    18
100
AcDbSpline
210
0.0
220
0.0
230
1.0
 70
     8
 71
     3
 72
    12
 73
     8
 74
     0
 42
0.000000001
 43
0.00000001
 40
0.0
 40
0.0
 40
0.0
 40
0.0
 40
0.2045378821184115
 40
0.3838943514216838
 40
0.5601975822227042
 40
0.7766167962242728
 40
1.0
 40
1.0
 40
1.0
 40
1.0
 10
232.8387788174016
 20
126.3940016343992
 30
0.0
 10
232.8339148585735
 20
126.4556281550067
 30
0.0
 10
232.8247857608225
 20
126.5712941280478
 30
0.0
 10
232.7381142013418
 20
126.7205119941562
 30
0.0
 10
232.6080389865681
 20
126.834144055417
 30
0.0
 10
232.4420909187606
 20
126.9177639646867
 30
0.0
 10
232.3162313386718
 20
126.9558783963014
 30
0.0
 10
232.2523050956825
 20
126.9752373709228
 30
0.0
  0
SPLINE
  5
19E
330
1F
100
AcDbEntity
  8
0
  6
Continuous
 62
     7
370
    18
100
AcDbSpline
210
0.0
220
0.0
230
1.0
 70
     8
 71
     3
 72
    13
 73
     9
 74
     0
 42
0.000000001
 43
0.00000001
 40
0.0
 40
0.0
 40
0.0
 40
0.0
 40
0.1943984829390969
 40
0.3808229110812403
 40
0.5574598692554756
 40
0.6939226743571336
 40
0.8373010797229385
 40
1.0
 40
1.0
 40
1.0
 40
1.0
 10
231.9575690873359
 20
125.6935565796328
 30
0.0
 10
232.039810614744
 20
125.6972338145167
 30
0.0
 10
232.2009201944372
 20
125.7044374473437
 30
0.0
 10
232.429683361812
 20
125.7692178573182
 30
0.0
 10
232.6154205836623
 20
125.8761189112707
 30
0.0
 10
232.7459758107449
 20
126.0213835137217
 30
0.0
 10
232.8256672755857
 20
126.1950037528456
 30
0.0
 10
232.8342281736453
 20
126.3249351218615
 30
0.0
 10
232.8387788174016
 20
126.3940016343992
 30
0.0
  0
SPLINE
  5
19F
330
1F
100
AcDbEntity
  8
0
  6
Continuous
 62
     7
370
    18
100
AcDbSpline
210
0.0
220
0.0
230
1.0
 70
     8
 71
     3
 72
    12
 73
     8
 74
     0
 42
0.000000001
 43
0.00000001
 40
0.0
 40
0.0
 40
0.0
 40
0.0
 40
0.1886637132768469
 40
0.3661825608804964
 40
0.5448728808046002
 40
0.7656579321773193
 40
0.9999999999999999
 40
0.9999999999999999
 40
0.9999999999999999
 40
0.9999999999999999
 10
231.0965888173358
 20
126.2733112306873
 30
0.0
 10
231.116824405763
 20
126.2047950237165
 30
0.0
 10
231.1561002127665
 20
126.0718100437509
 30
0.0
 10
231.2894062326743
 20
125.9100048621501
 30
0.0
 10
231.4699860862215
 20
125.7873755934614
 30
0.0
 10
231.6982775892453
 20
125.7078031773587
 30
0.0
 10
231.869439107091
 20
125.6983988223803
 30
0.0
 10
231.9575690873359
 20
125.6935565796328
 30
0.0
  0
LINE
  5
1A0
330
1F
100
AcDbEntity
  8
0
  6
Continuous
 62
     7
370
    18
100
AcDbLine
 10
228.6651160896
 20
126.4358332679
 30
0.0
 11
228.4096830322
 21
127.2443794999
 31
0.0
  0
LINE
  5
1A1
330
1F
100
AcDbEntity
  8
0
  6
Continuous
 62
     7
370
    18
100
AcDbLine
 10
228.4096830322
 20
127.2443794999
 30
0.0
 11
228.3273924786
 21
127.2443794999
 31
0.0
  0
LINE
  5
1A2
330
1F
100
AcDbEntity
  8
0
  6
Continuous
 62
     7
370
    18
100
AcDbLine
 10
228.3273924786
 20
127.2443794999
 30
0.0
 11
228.0631812805
 21
126.4358332679
 31
0.0
  0
LINE
  5
1A3
330
1F
100
AcDbEntity
  8
0
  6
Continuous
 62
     7
370
    18
100
AcDbLine
 10
228.0631812805
 20
126.4358332679
 30
0.0
 11
228.6651160896
 21
126.4358332679
 31
0.0
  0
LINE
  5
1A4
330
1F
100
AcDbEntity
  8
0
  6
Continuous
 62
     7
370
    18
100
AcDbLine
 10
229.8260342291
 20
126.9063307726
 30
0.0
 11
230.2950687103
 21
126.9063307726
 31
0.0
  0
SPLINE
  5
1A5
330
1F
100
AcDbEntity
  8
0
  6
Continuous
 62
     7
370
    18
100
AcDbSpline
210
0.0
220
0.0
230
1.0
 70
     8
 71
     3
 72
    12
 73
     8
 74
     0
 42
0.000000001
 43
0.00000001
 40
0.0
 40
0.0
 40
0.0
 40
0.0
 40
0.2424663205121403
 40
0.5040777209641347
 40
0.6506173645415597
 40
0.8119564965867925
 40
1.0
 40
1.0
 40
1.0
 40
1.0
 10
230.2950687103136
 20
126.9063307725748
 30
0.0
 10
230.3265369088254
 20
126.9093237950423
 30
0.0
 10
230.3919580269219
 20
126.9155461682815
 30
0.0
 10
230.4675349420603
 20
126.9606261091333
 30
0.0
 10
230.5136685132541
 20
127.0188687208854
 30
0.0
 10
230.5385208245755
 20
127.0793644502654
 30
0.0
 10
230.5412370555665
 20
127.1247482779902
 30
0.0
 10
230.5426989759364
 20
127.1491746034499
 30
0.0
  0
SPLINE
  5
1A6
330
1F
100
AcDbEntity
  8
0
  6
Continuous
 62
     7
370
    18
100
AcDbSpline
210
0.0
220
0.0
230
1.0
 70
     8
 71
     3
 72
    12
 73
     8
 74
     0
 42
0.000000001
 43
0.00000001
 40
0.0
 40
0.0
 40
0.0
 40
0.0
 40
0.232506103955079
 40
0.4222580038951613
 40
0.5928278045028542
 40
0.7922143842709256
 40
1.0
 40
1.0
 40
1.0
 40
1.0
 10
230.5426989759364
 20
127.1491746034499
 30
0.0
 10
230.5408772793214
 20
127.1800445254818
 30
0.0
 10
230.537568867356
 20
127.2361078779523
 30
0.0
 10
230.5033565844896
 20
127.3089088732688
 30
0.0
 10
230.4486835981471
 20
127.3606884425482
 30
0.0
 10
230.3765079006345
 20
127.3909224088884
 30
0.0
 10
230.3225858700218
 20
127.3940399258079
 30
0.0
 10
230.2950687103136
 20
127.3956308379081
 30
0.0
  0
LINE
  5
1A7
330
1F
100
AcDbEntity
  8
0
  6
Continuous
 62
     7
370
    18
100
AcDbLine
 10
230.2950687103
 20
127.3956308379
 30
0.0
 11
229.8260342291
 21
127.3956308379
 31
0.0
  0
LINE
  5
1A8
330
1F
100
AcDbEntity
  8
0
  6
Continuous
 62
     7
370
    18
100
AcDbLine
 10
229.8260342291
 20
127.3956308379
 30
0.0
 11
229.8260342291
 21
126.9063307726
 31
0.0
  0
LINE
  5
1A9
330
1F
100
AcDbEntity
  8
0
  6
Continuous
 62
     7
370
    18
100
AcDbLine
 10
229.8260342291
 20
126.1084411312
 30
0.0
 11
230.3470150738
 21
126.1084411312
 31
0.0
  0
SPLINE
  5
1AA
330
1F
100
AcDbEntity
  8
0
  6
Continuous
 62
     7
370
    18
100
AcDbSpline
210
0.0
220
0.0
230
1.0
 70
     8
 71
     3
 72
    12
 73
     8
 74
     0
 42
0.000000001
 43
0.00000001
 40
0.0
 40
0.0
 40
0.0
 40
0.0
 40
0.2382584506409
 40
0.4976556531040025
 40
0.6448887038896327
 40
0.8084522641844492
 40
1.0
 40
1.0
 40
1.0
 40
1.0
 10
230.3470150738389
 20
126.1084411311538
 30
0.0
 10
230.3820076163389
 20
126.1119100870873
 30
0.0
 10
230.4550973075745
 20
126.1191557714525
 30
0.0
 10
230.538959023538
 20
126.1714752109615
 30
0.0
 10
230.5898745447944
 20
126.2384287102336
 30
0.0
 10
230.6173428009656
 20
126.3080683170381
 30
0.0
 10
230.6203389706781
 20
126.3602301103042
 30
0.0
 10
230.6219551105499
 20
126.3883662848096
 30
0.0
  0
SPLINE
  5
1AB
330
1F
100
AcDbEntity
  8
0
  6
Continuous
 62
     7
370
    18
100
AcDbSpline
210
0.0
220
0.0
230
1.0
 70
     8
 71
     3
 72
    12
 73
     8
 74
     0
 42
0.000000001
 43
0.00000001
 40
0.0
 40
0.0
 40
0.0
 40
0.0
 40
0.2366945835519314
 40
0.4286648826954245
 40
0.5991110185125257
 40
0.7959723284782181
 40
1.0
 40
1.0
 40
1.0
 40
1.0
 10
230.6219551105499
 20
126.3883662848096
 30
0.0
 10
230.6199416832544
 20
126.4239001669725
 30
0.0
 10
230.6162952729204
 20
126.4882536777311
 30
0.0
 10
230.5785702495255
 20
126.5719781539969
 30
0.0
 10
230.5180106146467
 20
126.6317991452131
 30
0.0
 10
230.4376681086588
 20
126.6668896302126
 30
0.0
 10
230.3775907366491
 20
126.6704999176798
 30
0.0
 10
230.3470150738389
 20
126.6723373304784
 30
0.0
  0
LINE
  5
1AC
330
1F
100
AcDbEntity
  8
0
  6
Continuous
 62
     7
370
    18
100
AcDbLine
 10
230.3470150738
 20
126.6723373305
 30
0.0
 11
229.8260342291
 21
126.6723373305
 31
0.0
  0
LINE
  5
1AD
330
1F
100
AcDbEntity
  8
0
  6
Continuous
 62
     7
370
    18
100
AcDbLine
 10
229.8260342291
 20
126.6723373305
 30
0.0
 11
229.8260342291
 21
126.1084411312
 31
0.0
  0
SPLINE
  5
1AE
330
1F
100
AcDbEntity
  8
0
  6
Continuous
 62
     7
370
    18
100
AcDbSpline
210
0.0
220
0.0
230
1.0
 70
     8
 71
     3
 72
    13
 73
     9
 74
     0
 42
0.000000001
 43
0.00000001
 40
0.0
 40
0.0
 40
0.0
 40
0.0
 40
0.5894795511906021
 40
0.8525979839264239
 40
0.9412877217975677
 40
0.9634735681078044
 40
0.9825903643577518
 40
1.0
 40
1.0
 40
1.0
 40
1.0
 10
231.9606757544174
 20
127.2786973339226
 30
0.0
 10
231.9229577110871
 20
127.2767693615645
 30
0.0
 10
231.8684039481345
 20
127.2739808248929
 30
0.0
 10
231.8098754804338
 20
127.2595806983983
 30
0.0
 10
231.7880348267733
 20
127.2487612356798
 30
0.0
 10
231.7821916705366
 20
127.2428374957328
 30
0.0
 10
231.7801409040393
 20
127.2395827106675
 30
0.0
 10
231.7798629435634
 20
127.2372411963726
 30
0.0
 10
231.7797304589391
 20
127.2361251576956
 30
0.0
  0
SPLINE
  5
1AF
330
1F
100
AcDbEntity
  8
0
  6
Continuous
 62
     7
370
    18
100
AcDbSpline
210
0.0
220
0.0
230
1.0
 70
     8
 71
     3
 72
    12
 73
     8
 74
     0
 42
0.000000001
 43
0.00000001
 40
0.0
 40
0.0
 40
0.0
 40
0.0
 40
0.1687932262470739
 40
0.3139712558223947
 40
0.4643534436981242
 40
0.6895611553267743
 40
1.0
 40
1.0
 40
1.0
 40
1.0
 10
232.1309644593256
 20
127.1776042196491
 30
0.0
 10
232.1285046520722
 20
127.1898347848163
 30
0.0
 10
232.1239291795274
 20
127.2125847848629
 30
0.0
 10
232.105369612577
 20
127.2424531591557
 30
0.0
 10
232.0725749056557
 20
127.2639869102579
 30
0.0
 10
232.0228270414431
 20
127.2757448441265
 30
0.0
 10
231.9834798043596
 20
127.277614030133
 30
0.0
 10
231.9606757544174
 20
127.2786973339226
 30
0.0
  0
SPLINE
  5
1B0
330
1F
100
AcDbEntity
  8
0
  6
Continuous
 62
     7
370
    18
100
AcDbSpline
210
0.0
220
0.0
230
1.0
 70
     8
 71
     3
 72
     9
 73
     5
 74
     0
 42
0.000000001
 43
0.00000001
 40
0.0
 40
0.0
 40
0.0
 40
0.0
 40
0.5915228225857069
 40
0.9999999999999999
 40
0.9999999999999999
 40
0.9999999999999999
 40
0.9999999999999999
 10
232.1362746925927
 20
127.0934713401982
 30
0.0
 10
232.1363458789604
 20
127.1101406058597
 30
0.0
 10
232.1364662232057
 20
127.1383208637044
 30
0.0
 10
232.1325600442712
 20
127.1662115221933
 30
0.0
 10
232.1309644593256
 20
127.1776042196491
 30
0.0
  0
SPLINE
  5
1B1
330
1F
100
AcDbEntity
  8
0
  6
Continuous
 62
     7
370
    18
100
AcDbSpline
210
0.0
220
0.0
230
1.0
 70
     8
 71
     3
 72
    13
 73
     9
 74
     0
 42
0.000000001
 43
0.00000001
 40
0.0
 40
0.0
 40
0.0
 40
0.0
 40
0.0518958002713989
 40
0.1049388400652587
 40
0.1730026251899439
 40
0.2659228894279215
 40
0.5508780002890679
 40
1.0
 40
1.0
 40
1.0
 40
1.0
 10
231.7797304589391
 20
127.2361251576956
 30
0.0
 10
231.7803626933672
 20
127.2291057091457
 30
0.0
 10
231.7816411387749
 20
127.2149116359284
 30
0.0
 10
231.7966217818457
 20
127.1959979467964
 30
0.0
 10
231.8210799360674
 20
127.1810046351632
 30
0.0
 10
231.8764705576224
 20
127.1590467010092
 30
0.0
 10
231.9833527313865
 20
127.1315914804673
 30
0.0
 10
232.0782281504514
 20
127.1079410887622
 30
0.0
 10
232.1362746925927
 20
127.0934713401982
 30
0.0
  0
LINE
  5
1B2
330
1F
100
AcDbEntity
  8
0
  6
Continuous
 62
     7
370
    18
100
AcDbLine
 10
226.6548496196
 20
127.8875679579
 30
0.0
 11
225.8942219211
 21
127.8875679579
 31
0.0
  0
LINE
  5
1B3
330
1F
100
AcDbEntity
  8
0
  6
Continuous
 62
     7
370
    18
100
AcDbLine
 10
226.6548496196
 20
126.2925870701
 30
0.0
 11
226.6548496196
 21
127.8875679579
 31
0.0
  0
LINE
  5
1B4
330
1F
100
AcDbEntity
  8
0
  6
Continuous
 62
     7
370
    18
100
AcDbLine
 10
227.4211463974
 20
126.2925870701
 30
0.0
 11
226.6548496196
 21
126.2925870701
 31
0.0
  0
LINE
  5
1B5
330
1F
100
AcDbEntity
  8
0
  6
Continuous
 62
     7
370
    18
100
AcDbLine
 10
228.0331355323
 20
127.8875679579
 30
0.0
 11
227.4211463974
 21
126.2925870701
 31
0.0
  0
LINE
  5
1B6
330
1F
100
AcDbEntity
  8
0
  6
Continuous
 62
     7
370
    18
100
AcDbLine
 10
228.7244278271
 20
127.8875679579
 30
0.0
 11
228.0331355323
 21
127.8875679579
 31
0.0
  0
LINE
  5
1B7
330
1F
100
AcDbEntity
  8
0
  6
Continuous
 62
     7
370
    18
100
AcDbLine
 10
229.2411460357
 20
126.4933066089
 30
0.0
 11
228.7244278271
 21
127.8875679579
 31
0.0
  0
LINE
  5
1B8
330
1F
100
AcDbEntity
  8
0
  6
Continuous
 62
     7
370
    18
100
AcDbLine
 10
229.2411460357
 20
127.8875679579
 30
0.0
 11
229.2411460357
 21
126.4933066089
 31
0.0
  0
LINE
  5
1B9
330
1F
100
AcDbEntity
  8
0
  6
Continuous
 62
     7
370
    18
100
AcDbLine
 10
230.2292361491
 20
127.8875679579
 30
0.0
 11
229.2411460357
 21
127.8875679579
 31
0.0
  0
SPLINE
  5
1BA
330
1F
100
AcDbEntity
  8
0
  6
Continuous
 62
     7
370
    18
100
AcDbSpline
210
0.0
220
0.0
230
1.0
 70
     8
 71
     3
 72
    13
 73
     9
 74
     0
 42
0.000000001
 43
0.00000001
 40
0.0
 40
0.0
 40
0.0
 40
0.0
 40
0.1129894123230135
 40
0.2349035042068339
 40
0.3805358024040105
 40
0.5310429421797485
 40
0.7319137862307441
 40
1.0
 40
1.0
 40
1.0
 40
1.0
 10
231.0983804512123
 20
127.4831051906733
 30
0.0
 10
231.0813581137831
 20
127.5179467284435
 30
0.0
 10
231.0459688978408
 20
127.5903818278558
 30
0.0
 10
230.9729159741647
 20
127.700410899104
 30
0.0
 10
230.8546586471545
 20
127.7873544116038
 30
0.0
 10
230.6932180146833
 20
127.8461352219245
 30
0.0
 10
230.482537850149
 20
127.8821911550564
 30
0.0
 10
230.3213700801726
 20
127.88561224269
 30
0.0
 10
230.2292361491142
 20
127.887567957857
 30
0.0
  0
SPLINE
  5
1BB
330
1F
100
AcDbEntity
  8
0
  6
Continuous
 62
     7
370
    18
100
AcDbSpline
210
0.0
220
0.0
230
1.0
 70
     8
 71
     3
 72
    12
 73
     8
 74
     0
 42
0.000000001
 43
0.00000001
 40
0.0
 40
0.0
 40
0.0
 40
0.0
 40
0.25778246771684
 40
0.4746472252827216
 40
0.6603530347935899
 40
0.8468286435267847
 40
1.0
 40
1.0
 40
1.0
 40
1.0
 10
231.9551342090202
 20
127.9088450149616
 30
0.0
 10
231.8688728098494
 20
127.9047729187942
 30
0.0
 10
231.7100422496175
 20
127.8972750886893
 30
0.0
 10
231.4967036551549
 20
127.8326206679091
 30
0.0
 10
231.3235372868562
 20
127.7375157512321
 30
0.0
 10
231.1887250714827
 20
127.6213388210441
 30
0.0
 10
231.1264601865389
 20
127.526069162877
 30
0.0
 10
231.0983804512123
 20
127.4831051906733
 30
0.0
  0
SPLINE
  5
1BC
330
1F
100
AcDbEntity
  8
0
  6
Continuous
 62
     7
370
    18
100
AcDbSpline
210
0.0
220
0.0
230
1.0
 70
     8
 71
     3
 72
    15
 73
    11
 74
     0
 42
0.000000001
 43
0.00000001
 40
0.0
 40
0.0
 40
0.0
 40
0.0
 40
0.1009667219582987
 40
0.2110426783902182
 40
0.3263227887254692
 40
0.4481367482187066
 40
0.5538549368465833
 40
0.6756292865222505
 40
0.8215985201030964
 40
1.0
 40
1.0
 40
1.0
 40
1.0
 10
232.8864841008196
 20
127.0613390103264
 30
0.0
 10
232.885615054238
 20
127.1101670215895
 30
0.0
 10
232.8837985555476
 20
127.2122283154253
 30
0.0
 10
232.8595074601889
 20
127.3687775323217
 30
0.0
 10
232.8034628171647
 20
127.5284158055928
 30
0.0
 10
232.7074526034261
 20
127.6666093457951
 30
0.0
 10
232.5749502852527
 20
127.7740854348517
 30
0.0
 10
232.4099345946927
 20
127.850867932841
 30
0.0
 10
232.1985044897304
 20
127.9007743190276
 30
0.0
 10
232.0414906519854
 20
127.9059812446151
 30
0.0
 10
231.9551342090202
 20
127.9088450149616
 30
0.0
  0
LINE
  5
1BD
330
1F
100
AcDbEntity
  8
0
  6
Continuous
 62
     7
370
    18
100
AcDbLine
 10
232.2699528234
 20
127.0613390103
 30
0.0
 11
232.8864841008
 21
127.0613390103
 31
0.0
  0
SPLINE
  5
1BE
330
1F
100
AcDbEntity
  8
0
  6
Continuous
 62
     7
370
    18
100
AcDbSpline
210
0.0
220
0.0
230
1.0
 70
     8
 71
     3
 72
     9
 73
     5
 74
     0
 42
0.000000001
 43
0.00000001
 40
0.0
 40
0.0
 40
0.0
 40
0.0
 40
0.5581053349215384
 40
1.0
 40
1.0
 40
1.0
 40
1.0
 10
232.285305538634
 20
127.0573292423492
 30
0.0
 10
232.2824527442977
 20
127.0580880446595
 30
0.0
 10
232.2773411745673
 20
127.0594476487752
 30
0.0
 10
232.2722171170751
 20
127.0607593684153
 30
0.0
 10
232.2699528234057
 20
127.0613390103264
 30
0.0
  0
SPLINE
  5
1BF
330
1F
100
AcDbEntity
  8
0
  6
Continuous
 62
     7
370
    18
100
AcDbSpline
210
0.0
220
0.0
230
1.0
 70
     8
 71
     3
 72
    12
 73
     8
 74
     0
 42
0.000000001
 43
0.00000001
 40
0.0
 40
0.0
 40
0.0
 40
0.0
 40
0.2081936773952724
 40
0.3823854809342406
 40
0.5475549960392813
 40
0.7576294387459027
 40
1.0
 40
1.0
 40
1.0
 40
1.0
 10
232.9290384186137
 20
126.3388412253046
 30
0.0
 10
232.9267189370282
 20
126.4128117490271
 30
0.0
 10
232.9224587880521
 20
126.5486720433572
 30
0.0
 10
232.8470374761434
 20
126.7319580647455
 30
0.0
 10
232.7130564339329
 20
126.8768424344115
 30
0.0
 10
232.5199643592856
 20
126.9846667309336
 30
0.0
 10
232.3671609156749
 20
127.0319825826662
 30
0.0
 10
232.285305538634
 20
127.0573292423492
 30
0.0
  0
SPLINE
  5
1C0
330
1F
100
AcDbEntity
  8
0
  6
Continuous
 62
     7
370
    18
100
AcDbSpline
210
0.0
220
0.0
230
1.0
 70
     8
 71
     3
 72
    13
 73
     9
 74
     0
 42
0.000000001
 43
0.00000001
 40
0.0
 40
0.0
 40
0.0
 40
0.0
 40
0.2144903110109672
 40
0.4108455396423911
 40
0.5926499974110342
 40
0.728720790463548
 40
0.8627130606487937
 40
1.0
 40
1.0
 40
1.0
 40
1.0
 10
231.9883480870034
 20
125.5685291830833
 30
0.0
 10
232.0851032027323
 20
125.5752031250129
 30
0.0
 10
232.2704328222731
 20
125.5879867293662
 30
0.0
 10
232.5228082998765
 20
125.6855262375397
 30
0.0
 10
232.7131365073172
 20
125.8225621635216
 30
0.0
 10
232.8398690642938
 20
125.9837432525309
 30
0.0
 10
232.9159894173955
 20
126.154230462091
 30
0.0
 10
232.9246536759136
 20
126.2768080717457
 30
0.0
 10
232.9290384186137
 20
126.3388412253046
 30
0.0
  0
SPLINE
  5
1C1
330
1F
100
AcDbEntity
  8
0
  6
Continuous
 62
     7
370
    18
100
AcDbSpline
210
0.0
220
0.0
230
1.0
 70
     8
 71
     3
 72
    12
 73
     8
 74
     0
 42
0.000000001
 43
0.00000001
 40
0.0
 40
0.0
 40
0.0
 40
0.0
 40
0.1266166298736493
 40
0.2732454724470878
 40
0.4461934828620918
 40
0.6934352669522347
 40
1.0
 40
1.0
 40
1.0
 40
1.0
 10
231.0946934416743
 20
126.0059211174649
 30
0.0
 10
231.1138176376388
 20
125.9655940544514
 30
0.0
 10
231.1550886773648
 20
125.8785660914064
 30
0.0
 10
231.2702511303661
 20
125.7684057482372
 30
0.0
 10
231.4413605558842
 20
125.6662032291155
 30
0.0
 10
231.6869401522582
 20
125.5880849656916
 30
0.0
 10
231.8809513753702
 20
125.5754972370177
 30
0.0
 10
231.9883480870034
 20
125.5685291830833
 30
0.0
  0
SPLINE
  5
1C2
330
1F
100
AcDbEntity
  8
0
  6
Continuous
 62
     7
370
    18
100
AcDbSpline
210
0.0
220
0.0
230
1.0
 70
     8
 71
     3
 72
    11
 73
     7
 74
     0
 42
0.000000001
 43
0.00000001
 40
0.0
 40
0.0
 40
0.0
 40
0.0
 40
0.3104248435957519
 40
0.6000686931456382
 40
0.8080123835287427
 40
1.0
 40
1.0
 40
1.0
 40
1.0
 10
230.4336235859638
 20
125.6512192096386
 30
0.0
 10
230.5153161488217
 20
125.6584105786582
 30
0.0
 10
230.6732324704215
 20
125.6723118996978
 30
0.0
 10
230.8702940647548
 20
125.7580260471516
 30
0.0
 10
231.0184446963309
 20
125.8686816972024
 30
0.0
 10
231.0699623268197
 20
125.9614078097402
 30
0.0
 10
231.0946934416743
 20
126.0059211174649
 30
0.0
  0
LINE
  5
1C3
330
1F
100
AcDbEntity
  8
0
  6
Continuous
 62
     7
370
    18
100
AcDbLine
 10
228.7620071644
 20
125.6512192096
 30
0.0
 11
230.433623586
 21
125.6512192096
 31
0.0
  0
LINE
  5
1C4
330
1F
100
AcDbEntity
  8
0
  6
Continuous
 62
     7
370
    18
100
AcDbLine
 10
228.6342725737
 20
125.9811761529
 30
0.0
 11
228.7620071644
 21
125.6512192096
 31
0.0
  0
LINE
  5
1C5
330
1F
100
AcDbEntity
  8
0
  6
Continuous
 62
     7
370
    18
100
AcDbLine
 10
228.0915089354
 20
125.9811761529
 30
0.0
 11
228.6342725737
 21
125.9811761529
 31
0.0
  0
LINE
  5
1C6
330
1F
100
AcDbEntity
  8
0
  6
Continuous
 62
     7
370
    18
100
AcDbLine
 10
227.9583918633
 20
125.6512192096
 30
0.0
 11
228.0915089354
 21
125.9811761529
 31
0.0
  0
LINE
  5
1C7
330
1F
100
AcDbEntity
  8
0
  6
Continuous
 62
     7
370
    18
100
AcDbLine
 10
225.349864889
 20
125.6512192096
 30
0.0
 11
227.9583918633
 21
125.6512192096
 31
0.0
  0
SPLINE
  5
1C8
330
1F
100
AcDbEntity
  8
0
  6
Continuous
 62
     7
370
    18
100
AcDbSpline
210
0.0
220
0.0
230
1.0
 70
     8
 71
     3
 72
    11
 73
     7
 74
     0
 42
0.000000001
 43
0.00000001
 40
0.0
 40
0.0
 40
0.0
 40
0.0
 40
0.2274736611129892
 40
0.5494925387673818
 40
0.8007169048877174
 40
1.0
 40
1.0
 40
1.0
 40
1.0
 10
225.2837940274764
 20
126.0086304201523
 30
0.0
 10
225.2859599597738
 20
125.9809717395957
 30
0.0
 10
225.2911920540352
 20
125.9141585598911
 30
0.0
 10
225.3020364836679
 20
125.817369984683
 30
0.0
 10
225.316738542938
 20
125.7235319979803
 30
0.0
 10
225.3397054296122
 20
125.6733966884219
 30
0.0
 10
225.3498648890117
 20
125.6512192096386
 30
0.0
  0
SPLINE
  5
1C9
330
1F
100
AcDbEntity
  8
0
  6
Continuous
 62
     7
370
    18
100
AcDbSpline
210
0.0
220
0.0
230
1.0
 70
     8
 71
     3
 72
    13
 73
     9
 74
     0
 42
0.000000001
 43
0.00000001
 40
0.0
 40
0.0
 40
0.0
 40
0.0
 40
0.1455849753971021
 40
0.2684075940997187
 40
0.3810001390981623
 40
0.4935379506791347
 40
0.7360826269615496
 40
1.0
 40
1.0
 40
1.0
 40
1.0
 10
224.9564922008281
 20
126.4664303262407
 30
0.0
 10
224.9874928461192
 20
126.4647782066763
 30
0.0
 10
225.0446471547657
 20
126.4617322780957
 30
0.0
 10
225.1211106057303
 20
126.4310988457085
 30
0.0
 10
225.1788600468172
 20
126.3834523420387
 30
0.0
 10
225.2346071415431
 20
126.3001004441381
 30
0.0
 10
225.270487679295
 20
126.1713574315892
 30
0.0
 10
225.2792355250621
 20
126.0643776067131
 30
0.0
 10
225.2837940274764
 20
126.0086304201523
 30
0.0
  0
LINE
  5
1CA
330
1F
100
AcDbEntity
  8
0
  6
Continuous
 62
     7
370
    18
100
AcDbLine
 10
224.5125639245
 20
126.4664303262
 30
0.0
 11
224.9564922008
 21
126.4664303262
 31
0.0
  0
LINE
  5
1CB
330
1F
100
AcDbEntity
  8
0
  6
Continuous
 62
     7
370
    18
100
AcDbLine
 10
224.5125639245
 20
125.6512192096
 30
0.0
 11
224.5125639245
 21
126.4664303262
 31
0.0
  0
LINE
  5
1CC
330
1F
100
AcDbEntity
  8
0
  6
Continuous
 62
     7
370
    18
100
AcDbLine
 10
223.927051425
 20
125.6512192096
 30
0.0
 11
224.5125639245
 21
125.6512192096
 31
0.0
  0
LINE
  5
1CD
330
1F
100
AcDbEntity
  8
0
  6
Continuous
 62
     7
370
    18
100
AcDbLine
 10
223.927051425
 20
127.8875679579
 30
0.0
 11
223.927051425
 21
125.6512192096
 31
0.0
  0
LINE
  5
1CE
330
1F
100
AcDbEntity
  8
0
  6
Continuous
 62
     7
370
    18
100
AcDbLine
 10
225.0729058416
 20
127.8875679579
 30
0.0
 11
223.927051425
 21
127.8875679579
 31
0.0
  0
SPLINE
  5
1CF
330
1F
100
AcDbEntity
  8
0
  6
Continuous
 62
     7
370
    18
100
AcDbSpline
210
0.0
220
0.0
230
1.0
 70
     8
 71
     3
 72
    12
 73
     8
 74
     0
 42
0.000000001
 43
0.00000001
 40
0.0
 40
0.0
 40
0.0
 40
0.0
 40
0.2016496499628994
 40
0.379403923698636
 40
0.5547793395586215
 40
0.771811080144802
 40
1.0
 40
1.0
 40
1.0
 40
1.0
 10
225.8598679621738
 20
127.257438338836
 30
0.0
 10
225.853372724855
 20
127.334177118222
 30
0.0
 10
225.8411519323839
 20
127.4785611724678
 30
0.0
 10
225.7258404462375
 20
127.662135118677
 30
0.0
 10
225.551754800449
 20
127.793208287464
 30
0.0
 10
225.3273323748842
 20
127.8735579543445
 30
0.0
 10
225.1591198152463
 20
127.8828205832098
 30
0.0
 10
225.0729058415916
 20
127.887567957857
 30
0.0
  0
SPLINE
  5
1D0
330
1F
100
AcDbEntity
  8
0
  6
Continuous
 62
     7
370
    18
100
AcDbSpline
210
0.0
220
0.0
230
1.0
 70
     8
 71
     3
 72
    11
 73
     7
 74
     0
 42
0.000000001
 43
0.00000001
 40
0.0
 40
0.0
 40
0.0
 40
0.0
 40
0.2852648350197006
 40
0.558603774702963
 40
0.7765581993729964
 40
1.0
 40
1.0
 40
1.0
 40
1.0
 10
225.5072612484257
 20
126.6962514421986
 30
0.0
 10
225.5675531451664
 20
126.7272337713268
 30
0.0
 10
225.6856163515935
 20
126.7879031699887
 30
0.0
 10
225.7931063349121
 20
126.9420911125356
 30
0.0
 10
225.8504725096565
 20
127.1011041298499
 30
0.0
 10
225.8567102955748
 20
127.2048968237701
 30
0.0
 10
225.8598679621738
 20
127.257438338836
 30
0.0
  0
LINE
  5
1D1
330
1F
100
AcDbEntity
  8
0
  6
Continuous
 62
     7
370
    18
100
AcDbLine
 10
225.5072612484
 20
126.68996586
 30
0.0
 11
225.5072612484
 21
126.6962514422
 31
0.0
  0
SPLINE
  5
1D2
330
1F
100
AcDbEntity
  8
0
  6
Continuous
 62
     7
370
    18
100
AcDbSpline
210
0.0
220
0.0
230
1.0
 70
     8
 71
     3
 72
    11
 73
     7
 74
     0
 42
0.000000001
 43
0.00000001
 40
0.0
 40
0.0
 40
0.0
 40
0.0
 40
0.2808304286447834
 40
0.5635450978389994
 40
0.7771991270060395
 40
1.0
 40
1.0
 40
1.0
 40
1.0
 10
225.8347256332352
 20
126.1538129201674
 30
0.0
 10
225.8270057383055
 20
126.2162764021913
 30
0.0
 10
225.8115141515694
 20
126.3416224669266
 30
0.0
 10
225.7502281463541
 20
126.5058114776366
 30
0.0
 10
225.6479119427066
 20
126.6375113335802
 30
0.0
 10
225.554795299175
 20
126.6722384244116
 30
0.0
 10
225.5072612484257
 20
126.6899658599737
 30
0.0
  0
SPLINE
  5
1D3
330
1F
100
AcDbEntity
  8
0
  6
Continuous
 62
     7
370
    18
100
AcDbSpline
210
0.0
220
0.0
230
1.0
 70
     8
 71
     3
 72
    11
 73
     7
 74
     0
 42
0.000000001
 43
0.00000001
 40
0.0
 40
0.0
 40
0.0
 40
0.0
 40
0.3074360073852246
 40
0.6261968550908565
 40
0.844216622801401
 40
1.0
 40
1.0
 40
1.0
 40
1.0
 10
225.8929083503055
 20
125.7536924878709
 30
0.0
 10
225.8830675877487
 20
125.7940390103613
 30
0.0
 10
225.8630235642225
 20
125.8762182765839
 30
0.0
 10
225.8495951033592
 20
125.9895619291257
 30
0.0
 10
225.8408005451986
 20
126.0825917676435
 30
0.0
 10
225.8365126316997
 20
126.1328624782566
 30
0.0
 10
225.8347256332352
 20
126.1538129201674
 30
0.0
  0
LINE
  5
1D4
330
1F
100
AcDbEntity
  8
0
  6
Continuous
 62
     7
370
    18
100
AcDbLine
 10
225.8942219211
 20
127.8875679579
 30
0.0
 11
225.8929083503
 21
125.7536924879
 31
0.0
  0
SPLINE
  5
1D5
330
1F
100
AcDbEntity
  8
0
  6
Continuous
 62
     7
370
    18
100
AcDbSpline
210
0.0
220
0.0
230
1.0
 70
     8
 71
     3
 72
    12
 73
     8
 74
     0
 42
0.000000001
 43
0.00000001
 40
0.0
 40
0.0
 40
0.0
 40
0.0
 40
0.2554031448979543
 40
0.5239992272002586
 40
0.6685053607654261
 40
0.822947353711822
 40
1.0
 40
1.0
 40
1.0
 40
1.0
 10
230.3171766202423
 20
126.2044949424289
 30
0.0
 10
230.3433070220806
 20
126.2066797932686
 30
0.0
 10
230.3969176006629
 20
126.2111623541705
 30
0.0
 10
230.4599223505641
 20
126.2438432989544
 30
0.0
 10
230.4990436668528
 20
126.2873246622031
 30
0.0
 10
230.5200725256968
 20
126.3323786998171
 30
0.0
 10
230.5223885088939
 20
126.3664015286426
 30
0.0
 10
230.5236254850174
 20
126.3845732610473
 30
0.0
  0
LINE
  5
1D6
330
1F
100
AcDbEntity
  8
0
  6
Continuous
 62
     7
370
    18
100
AcDbLine
 10
229.9259894362
 20
126.2044949424
 30
0.0
 11
230.3171766202
 21
126.2044949424
 31
0.0
  0
LINE
  5
1D7
330
1F
100
AcDbEntity
  8
0
  6
Continuous
 62
     7
370
    18
100
AcDbLine
 10
229.9259894362
 20
126.5673247583
 30
0.0
 11
229.9259894362
 21
126.2044949424
 31
0.0
  0
LINE
  5
1D8
330
1F
100
AcDbEntity
  8
0
  6
Continuous
 62
     7
370
    18
100
AcDbLine
 10
230.3171766202
 20
126.5673247583
 30
0.0
 11
229.9259894362
 21
126.5673247583
 31
0.0
  0
SPLINE
  5
1D9
330
1F
100
AcDbEntity
  8
0
  6
Continuous
 62
     7
370
    18
100
AcDbSpline
210
0.0
220
0.0
230
1.0
 70
     8
 71
     3
 72
    12
 73
     8
 74
     0
 42
0.000000001
 43
0.00000001
 40
0.0
 40
0.0
 40
0.0
 40
0.0
 40
0.2191709004622892
 40
0.4020322727962971
 40
0.5732124609680115
 40
0.7805893411712332
 40
1.0
 40
1.0
 40
1.0
 40
1.0
 10
230.5236254850174
 20
126.3845732610473
 30
0.0
 10
230.5220777983706
 20
126.4075546163095
 30
0.0
 10
230.5192388266874
 20
126.4497100597032
 30
0.0
 10
230.4900624408932
 20
126.5039669795253
 30
0.0
 10
230.4442530358359
 20
126.5419383926119
 30
0.0
 10
230.3845857932138
 20
126.5638719984291
 30
0.0
 10
230.3400647853622
 20
126.5661524054318
 30
0.0
 10
230.3171766202423
 20
126.5673247583172
 30
0.0
  0
SPLINE
  5
1DA
330
1F
100
AcDbEntity
  8
0
  6
Continuous
 62
     7
370
    18
100
AcDbSpline
210
0.0
220
0.0
230
1.0
 70
     8
 71
     3
 72
    12
 73
     8
 74
     0
 42
0.000000001
 43
0.00000001
 40
0.0
 40
0.0
 40
0.0
 40
0.0
 40
0.2631780919768601
 40
0.5362228315034389
 40
0.6796343489711505
 40
0.8298665817545617
 40
1.0
 40
1.0
 40
1.0
 40
1.0
 10
230.2561269996876
 20
127.0058705533077
 30
0.0
 10
230.2779498275238
 20
127.0075631325573
 30
0.0
 10
230.3224136293768
 20
127.0110117465013
 30
0.0
 10
230.3750672061996
 20
127.0361107220611
 30
0.0
 10
230.4081111450961
 20
127.0700494042457
 30
0.0
 10
230.4258882718412
 20
127.1051909932669
 30
0.0
 10
230.4278607556157
 20
127.1318776535659
 30
0.0
 10
230.4289082630682
 20
127.1460498743506
 30
0.0
  0
LINE
  5
1DB
330
1F
100
AcDbEntity
  8
0
  6
Continuous
 62
     7
370
    18
100
AcDbLine
 10
229.9286987389
 20
127.0058705533
 30
0.0
 11
230.2561269997
 21
127.0058705533
 31
0.0
  0
LINE
  5
1DC
330
1F
100
AcDbEntity
  8
0
  6
Continuous
 62
     7
370
    18
100
AcDbLine
 10
229.9286987389
 20
127.2882882654
 30
0.0
 11
229.9286987389
 21
127.0058705533
 31
0.0
  0
LINE
  5
1DD
330
1F
100
AcDbEntity
  8
0
  6
Continuous
 62
     7
370
    18
100
AcDbLine
 10
230.2561269997
 20
127.2882882654
 30
0.0
 11
229.9286987389
 21
127.2882882654
 31
0.0
  0
SPLINE
  5
1DE
330
1F
100
AcDbEntity
  8
0
  6
Continuous
 62
     7
370
    18
100
AcDbSpline
210
0.0
220
0.0
230
1.0
 70
     8
 71
     3
 72
    12
 73
     8
 74
     0
 42
0.000000001
 43
0.00000001
 40
0.0
 40
0.0
 40
0.0
 40
0.0
 40
0.2108655154368299
 40
0.3895958229608365
 40
0.561335329798268
 40
0.7736399301224697
 40
1.0
 40
1.0
 40
1.0
 40
1.0
 10
230.4289082630682
 20
127.1460498743506
 30
0.0
 10
230.4275919328582
 20
127.1639907951162
 30
0.0
 10
230.4251598768135
 20
127.1971384995946
 30
0.0
 10
230.4003846862336
 20
127.2394550288824
 30
0.0
 10
230.3619974913849
 20
127.2687510807107
 30
0.0
 10
230.312323040795
 20
127.2856151874476
 30
0.0
 10
230.2752549193352
 20
127.2873784073753
 30
0.0
 10
230.2561269996876
 20
127.2882882654358
 30
0.0
  0
LINE
  5
1DF
330
1F
100
AcDbEntity
  8
0
  6
Continuous
 62
     7
370
    18
100
AcDbLine
 10
228.2050403692
 20
126.5436273908
 30
0.0
 11
228.5158154495
 21
126.5436273908
 31
0.0
  0
LINE
  5
1E0
330
1F
100
AcDbEntity
  8
0
  6
Continuous
 62
     7
370
    18
100
AcDbLine
 10
228.363046902
 20
127.0314102466
 30
0.0
 11
228.2050403692
 21
126.5436273908
 31
0.0
  0
LINE
  5
1E1
330
1F
100
AcDbEntity
  8
0
  6
Continuous
 62
     7
370
    18
100
AcDbLine
 10
228.5158154495
 20
126.5436273908
 30
0.0
 11
228.363046902
 21
127.0314102466
 31
0.0
  0
SPLINE
  5
1E2
330
1F
100
AcDbEntity
  8
0
  6
Continuous
 62
     7
370
    18
100
AcDbSpline
210
0.0
220
0.0
230
1.0
 70
     8
 71
     3
 72
    11
 73
     7
 74
     0
 42
0.000000001
 43
0.00000001
 40
0.0
 40
0.0
 40
0.0
 40
0.0
 40
0.2800359244938599
 40
0.5600382743760555
 40
0.7801217300908261
 40
1.0
 40
1.0
 40
1.0
 40
1.0
 10
233.5911934473699
 20
122.8100349056614
 30
0.0
 10
233.6500403475765
 20
122.8472921481473
 30
0.0
 10
233.7677270926028
 20
122.9218021662013
 30
0.0
 10
233.9069363745212
 20
123.0575246185561
 30
0.0
 10
234.0214009273044
 20
123.1959649550913
 30
0.0
 10
234.0692630886303
 20
123.2944779766068
 30
0.0
 10
234.0931830085086
 20
123.3437115155098
 30
0.0
  0
LINE
  5
1E3
330
1F
100
AcDbEntity
  8
0
  6
Continuous
 62
     7
370
    18
100
AcDbLine
 10
233.5911934474
 20
122.5698804312
 30
0.0
 11
233.5911934474
 21
122.8100349057
 31
0.0
  0
SPLINE
  5
1E4
330
1F
100
AcDbEntity
  8
0
  6
Continuous
 62
     7
370
    18
100
AcDbSpline
210
0.0
220
0.0
230
1.0
 70
     8
 71
     3
 72
     9
 73
     5
 74
     0
 42
0.000000001
 43
0.00000001
 40
0.0
 40
0.0
 40
0.0
 40
0.0
 40
0.5597552341668184
 40
1.0
 40
1.0
 40
1.0
 40
1.0
 10
234.0181347352487
 20
122.8900863971386
 30
0.0
 10
233.9466203119609
 20
122.8192147091466
 30
0.0
 10
233.818860143011
 20
122.6926027836727
 30
0.0
 10
233.6607851400379
 20
122.6073934113809
 30
0.0
 10
233.5911934473699
 20
122.5698804312295
 30
0.0
  0
LINE
  5
1E5
330
1F
100
AcDbEntity
  8
0
  6
Continuous
 62
     7
370
    18
100
AcDbLine
 10
234.0181347352
 20
121.2623727371
 30
0.0
 11
234.0181347352
 21
122.8900863971
 31
0.0
  0
LINE
  5
1E6
330
1F
100
AcDbEntity
  8
0
  6
Continuous
 62
     7
370
    18
100
AcDbLine
 10
234.2316053792
 20
121.2623727371
 30
0.0
 11
234.0181347352
 21
121.2623727371
 31
0.0
  0
LINE
  5
1E7
330
1F
100
AcDbEntity
  8
0
  6
Continuous
 62
     7
370
    18
100
AcDbLine
 10
234.2316053792
 20
123.3437115155
 30
0.0
 11
234.2316053792
 21
121.2623727371
 31
0.0
  0
LINE
  5
1E8
330
1F
100
AcDbEntity
  8
0
  6
Continuous
 62
     7
370
    18
100
AcDbLine
 10
234.0931830085
 20
123.3437115155
 30
0.0
 11
234.2316053792
 21
123.3437115155
 31
0.0
  0
SPLINE
  5
1E9
330
1F
100
AcDbEntity
  8
0
  6
Continuous
 62
     7
370
    18
100
AcDbSpline
210
0.0
220
0.0
230
1.0
 70
     8
 71
     3
 72
    10
 73
     6
 74
     0
 42
0.000000001
 43
0.00000001
 40
0.0
 40
0.0
 40
0.0
 40
0.0
 40
0.2795751783825434
 40
0.559704936815718
 40
1.0
 40
1.0
 40
1.0
 40
1.0
 10
233.0766958406878
 20
123.1269053927589
 30
0.0
 10
233.1125743815933
 20
123.0544022452919
 30
0.0
 10
233.184402633968
 20
122.9092521292953
 30
0.0
 10
233.2340007572718
 20
122.6227304693094
 30
0.0
 10
233.2403954614986
 20
122.4155107878216
 30
0.0
 10
233.2443036509684
 20
122.2888663413562
 30
0.0
  0
SPLINE
  5
1EA
330
1F
100
AcDbEntity
  8
0
  6
Continuous
 62
     7
370
    18
100
AcDbSpline
210
0.0
220
0.0
230
1.0
 70
     8
 71
     3
 72
    11
 73
     7
 74
     0
 42
0.000000001
 43
0.00000001
 40
0.0
 40
0.0
 40
0.0
 40
0.0
 40
0.2798903849624056
 40
0.5594964420644604
 40
0.7796718965173884
 40
1.0
 40
1.0
 40
1.0
 40
1.0
 10
232.698535930428
 20
123.3437115155098
 30
0.0
 10
232.7412928721485
 20
123.3408589972379
 30
0.0
 10
232.826763320765
 20
123.3351568584372
 30
0.0
 10
232.9355335758679
 20
123.2815317765078
 30
0.0
 10
233.0190539013806
 20
123.2094924084229
 30
0.0
 10
233.0574774225791
 20
123.1544407570519
 30
0.0
 10
233.0766958406878
 20
123.1269053927589
 30
0.0
  0
SPLINE
  5
1EB
330
1F
100
AcDbEntity
  8
0
  6
Continuous
 62
     7
370
    18
100
AcDbSpline
210
0.0
220
0.0
230
1.0
 70
     8
 71
     3
 72
    13
 73
     9
 74
     0
 42
0.000000001
 43
0.00000001
 40
0.0
 40
0.0
 40
0.0
 40
0.0
 40
0.2504890583456467
 40
0.5006738274425614
 40
0.6258446378555206
 40
0.7507584155659023
 40
0.8753007099299301
 40
0.9999999999999999
 40
0.9999999999999999
 40
0.9999999999999999
 40
0.9999999999999999
 10
232.150266600779
 20
122.2888663413562
 30
0.0
 10
232.1529852153941
 20
122.3991065387139
 30
0.0
 10
232.158419142104
 20
122.6194530157763
 30
0.0
 10
232.2084725141456
 20
122.8928804513236
 30
0.0
 10
232.2934080395228
 20
123.0973379856087
 30
0.0
 10
232.3903961152119
 20
123.2328506066879
 30
0.0
 10
232.5323517782955
 20
123.3289498887763
 30
0.0
 10
232.6431179560777
 20
123.33878890742
 30
0.0
 10
232.698535930428
 20
123.3437115155098
 30
0.0
  0
SPLINE
  5
1EC
330
1F
100
AcDbEntity
  8
0
  6
Continuous
 62
     7
370
    18
100
AcDbSpline
210
0.0
220
0.0
230
1.0
 70
     8
 71
     3
 72
    13
 73
     9
 74
     0
 42
0.000000001
 43
0.00000001
 40
0.0
 40
0.0
 40
0.0
 40
0.0
 40
0.1245870753534843
 40
0.2492227148385395
 40
0.3742192396120914
 40
0.4992998133209623
 40
0.7494812006579955
 40
1.0
 40
1.0
 40
1.0
 40
1.0
 10
232.6960343213194
 20
121.2356889066083
 30
0.0
 10
232.6407706780306
 20
121.2413256028854
 30
0.0
 10
232.530221849645
 20
121.2526011926278
 30
0.0
 10
232.3914328934223
 20
121.3512342054641
 30
0.0
 10
232.2883937847392
 20
121.4812385420241
 30
0.0
 10
232.2023698995708
 20
121.6855844930777
 30
0.0
 10
232.1571990129516
 20
121.9590866722635
 30
0.0
 10
232.1525784427403
 20
122.1788904111869
 30
0.0
 10
232.150266600779
 20
122.2888663413562
 30
0.0
  0
SPLINE
  5
1ED
330
1F
100
AcDbEntity
  8
0
  6
Continuous
 62
     7
370
    18
100
AcDbSpline
210
0.0
220
0.0
230
1.0
 70
     8
 71
     3
 72
    13
 73
     9
 74
     0
 42
0.000000001
 43
0.00000001
 40
0.0
 40
0.0
 40
0.0
 40
0.0
 40
0.2504702058475081
 40
0.5006494994159214
 40
0.6258027062132805
 40
0.7507410958263498
 40
0.8752785399750084
 40
1.0
 40
1.0
 40
1.0
 40
1.0
 10
233.2443036509684
 20
122.2888663413562
 30
0.0
 10
233.2415901557133
 20
122.1787338858046
 30
0.0
 10
233.2361663168318
 20
121.9585968896507
 30
0.0
 10
233.1853964591077
 20
121.6856662894147
 30
0.0
 10
233.1010447116721
 20
121.4812421769634
 30
0.0
 10
233.0041619517156
 20
121.3457873482311
 30
0.0
 10
232.8620853348468
 20
121.2501090834292
 30
0.0
 10
232.7514118941236
 20
121.2404979973497
 30
0.0
 10
232.6960343213194
 20
121.2356889066083
 30
0.0
  0
SPLINE
  5
1EE
330
1F
100
AcDbEntity
  8
0
  6
Continuous
 62
     7
370
    18
100
AcDbSpline
210
0.0
220
0.0
230
1.0
 70
     8
 71
     3
 72
    11
 73
     7
 74
     0
 42
0.000000001
 43
0.00000001
 40
0.0
 40
0.0
 40
0.0
 40
0.0
 40
0.2797787587345824
 40
0.5598118307765573
 40
0.7799729026484904
 40
1.0
 40
1.0
 40
1.0
 40
1.0
 10
231.1908995076061
 20
121.4758433810401
 30
0.0
 10
231.2432127249875
 20
121.4797952190315
 30
0.0
 10
231.3478867114208
 20
121.487702487156
 30
0.0
 10
231.4843915886702
 20
121.5417762475797
 30
0.0
 10
231.6041253618853
 20
121.6040229028173
 30
0.0
 10
231.6658090335273
 20
121.6586655420147
 30
0.0
 10
231.6966414824078
 20
121.685978546168
 30
0.0
  0
SPLINE
  5
1EF
330
1F
100
AcDbEntity
  8
0
  6
Continuous
 62
     7
370
    18
100
AcDbSpline
210
0.0
220
0.0
230
1.0
 70
     8
 71
     3
 72
    13
 73
     9
 74
     0
 42
0.000000001
 43
0.00000001
 40
0.0
 40
0.0
 40
0.0
 40
0.0
 40
0.187022929910803
 40
0.3737977890807345
 40
0.5600455952505865
 40
0.7066785419675299
 40
0.8532542592539526
 40
1.0
 40
1.0
 40
1.0
 40
1.0
 10
230.5492367712336
 20
122.2888663413562
 30
0.0
 10
230.5517498501864
 20
122.2159530525329
 30
0.0
 10
230.5567726746969
 20
122.0702231884474
 30
0.0
 10
230.6087491808996
 20
121.8560347971899
 30
0.0
 10
230.7135822273921
 20
121.6778776378644
 30
0.0
 10
230.8582992947537
 20
121.5559802895807
 30
0.0
 10
231.0187143199729
 20
121.4861025066086
 30
0.0
 10
231.1334822700231
 20
121.4792644107945
 30
0.0
 10
231.1908995076061
 20
121.4758433810401
 30
0.0
  0
SPLINE
  5
1F0
330
1F
100
AcDbEntity
  8
0
  6
Continuous
 62
     7
370
    18
100
AcDbSpline
210
0.0
220
0.0
230
1.0
 70
     8
 71
     3
 72
    13
 73
     9
 74
     0
 42
0.000000001
 43
0.00000001
 40
0.0
 40
0.0
 40
0.0
 40
0.0
 40
0.1400486032417882
 40
0.2799052169211083
 40
0.4196873645391181
 40
0.5597775021515501
 40
0.7796753492944811
 40
1.0
 40
1.0
 40
1.0
 40
1.0
 10
231.1696358301824
 20
123.103557041078
 30
0.0
 10
231.1156520306357
 20
123.1002974268164
 30
0.0
 10
231.0077584367506
 20
123.0937826668269
 30
0.0
 10
230.8554056475425
 20
123.0309140517423
 30
0.0
 10
230.7321293424185
 20
122.9228500822642
 30
0.0
 10
230.6287836899667
 20
122.7589811036425
 30
0.0
 10
230.5591632811889
 20
122.5432808767333
 30
0.0
 10
230.5525477458452
 20
122.37372598198
 30
0.0
 10
230.5492367712336
 20
122.2888663413562
 30
0.0
  0
SPLINE
  5
1F1
330
1F
100
AcDbEntity
  8
0
  6
Continuous
 62
     7
370
    18
100
AcDbSpline
210
0.0
220
0.0
230
1.0
 70
     8
 71
     3
 72
    12
 73
     8
 74
     0
 42
0.000000001
 43
0.00000001
 40
0.0
 40
0.0
 40
0.0
 40
0.0
 40
0.1870963385430822
 40
0.3738483395160243
 40
0.5602390716906357
 40
0.7800288950519764
 40
1.0
 40
1.0
 40
1.0
 40
1.0
 10
231.6699576519154
 20
122.6766157531992
 30
0.0
 10
231.6581025395047
 20
122.7199222200271
 30
0.0
 10
231.6344141331787
 20
122.8064554511954
 30
0.0
 10
231.5739415575633
 20
122.9288839773161
 30
0.0
 10
231.4683610237014
 20
123.028083008802
 30
0.0
 10
231.3285933474564
 20
123.0926848298999
 30
0.0
 10
231.2226362287562
 20
123.099931974861
 30
0.0
 10
231.1696358301824
 20
123.103557041078
 30
0.0
  0
LINE
  5
1F2
330
1F
100
AcDbEntity
  8
0
  6
Continuous
 62
     7
370
    18
100
AcDbLine
 10
231.8834282959
 20
122.7299834142
 30
0.0
 11
231.6699576519
 21
122.6766157532
 31
0.0
  0
SPLINE
  5
1F3
330
1F
100
AcDbEntity
  8
0
  6
Continuous
 62
     7
370
    18
100
AcDbSpline
210
0.0
220
0.0
230
1.0
 70
     8
 71
     3
 72
    12
 73
     8
 74
     0
 42
0.000000001
 43
0.00000001
 40
0.0
 40
0.0
 40
0.0
 40
0.0
 40
0.1868862446756283
 40
0.3735025027331715
 40
0.560078889360492
 40
0.7796634255495124
 40
1.0
 40
1.0
 40
1.0
 40
1.0
 10
231.1896487030517
 20
123.3437115155098
 30
0.0
 10
231.2532272332224
 20
123.3404521628522
 30
0.0
 10
231.3802924443621
 20
123.3339381661852
 30
0.0
 10
231.5598363230446
 20
123.2619159169374
 30
0.0
 10
231.7189784175127
 20
123.1345433492082
 30
0.0
 10
231.8309142422695
 20
122.9481493376746
 30
0.0
 10
231.8659036733645
 20
122.8027882195339
 30
0.0
 10
231.8834282958548
 20
122.7299834141841
 30
0.0
  0
SPLINE
  5
1F4
330
1F
100
AcDbEntity
  8
0
  6
Continuous
 62
     7
370
    18
100
AcDbSpline
210
0.0
220
0.0
230
1.0
 70
     8
 71
     3
 72
    13
 73
     9
 74
     0
 42
0.000000001
 43
0.00000001
 40
0.0
 40
0.0
 40
0.0
 40
0.0
 40
0.1869542232246731
 40
0.373714364355885
 40
0.5602636869073556
 40
0.7067032942997549
 40
0.8532504477916675
 40
1.0
 40
1.0
 40
1.0
 40
1.0
 10
230.3357661272941
 20
122.2801107094759
 30
0.0
 10
230.3398044553627
 20
122.3758124768472
 30
0.0
 10
230.3478769192053
 20
122.5671166610696
 30
0.0
 10
230.4304656419879
 20
122.8441789141158
 30
0.0
 10
230.5658594832301
 20
123.0770744564106
 30
0.0
 10
230.7522593451672
 20
123.2417886661352
 30
0.0
 10
230.9641196229813
 20
123.3304344824095
 30
0.0
 10
231.1144377657571
 20
123.3392838022249
 30
0.0
 10
231.1896487030517
 20
123.3437115155098
 30
0.0
  0
SPLINE
  5
1F5
330
1F
100
AcDbEntity
  8
0
  6
Continuous
 62
     7
370
    18
100
AcDbSpline
210
0.0
220
0.0
230
1.0
 70
     8
 71
     3
 72
    14
 73
    10
 74
     0
 42
0.000000001
 43
0.00000001
 40
0.0
 40
0.0
 40
0.0
 40
0.0
 40
0.1399718258526245
 40
0.2798512991585578
 40
0.4197354707339148
 40
0.5597008687846725
 40
0.7063759692972738
 40
0.8531460864685028
 40
1.0
 40
1.0
 40
1.0
 40
1.0
 10
231.2038244880008
 20
121.2356889066083
 30
0.0
 10
231.1324670924504
 20
121.240042519244
 30
0.0
 10
230.9897993825186
 20
121.2487468720285
 30
0.0
 10
230.7882469226145
 20
121.3291878835976
 30
0.0
 10
230.6160664233749
 20
121.4591898413757
 30
0.0
 10
230.483925735637
 20
121.6340200876973
 30
0.0
 10
230.3928399628385
 20
121.8361980467527
 30
0.0
 10
230.3430618938278
 20
122.0560496868116
 30
0.0
 10
230.33819851212
 20
122.2054094934926
 30
0.0
 10
230.3357661272941
 20
122.2801107094759
 30
0.0
  0
SPLINE
  5
1F6
330
1F
100
AcDbEntity
  8
0
  6
Continuous
 62
     7
370
    18
100
AcDbSpline
210
0.0
220
0.0
230
1.0
 70
     8
 71
     3
 72
    11
 73
     7
 74
     0
 42
0.000000001
 43
0.00000001
 40
0.0
 40
0.0
 40
0.0
 40
0.0
 40
0.2800887905641499
 40
0.5600137328906376
 40
0.7800102319115847
 40
1.0
 40
1.0
 40
1.0
 40
1.0
 10
231.9101121263472
 20
121.5504747194486
 30
0.0
 10
231.854312067778
 20
121.501732026927
 30
0.0
 10
231.7427445929358
 20
121.404275155714
 30
0.0
 10
231.5607114859348
 20
121.3047062407528
 30
0.0
 10
231.3783619796547
 20
121.2455936488893
 30
0.0
 10
231.2620030585305
 20
121.2389904536966
 30
0.0
 10
231.2038244880008
 20
121.2356889066083
 30
0.0
  0
LINE
  5
1F7
330
1F
100
AcDbEntity
  8
0
  6
Continuous
 62
     7
370
    18
100
AcDbLine
 10
231.9101121263
 20
122.3030421263
 30
0.0
 11
231.9101121263
 21
121.5504747194
 31
0.0
  0
LINE
  5
1F8
330
1F
100
AcDbEntity
  8
0
  6
Continuous
 62
     7
370
    18
100
AcDbLine
 10
231.1896487031
 20
122.3030421263
 30
0.0
 11
231.9101121263
 21
122.3030421263
 31
0.0
  0
LINE
  5
1F9
330
1F
100
AcDbEntity
  8
0
  6
Continuous
 62
     7
370
    18
100
AcDbLine
 10
231.1896487031
 20
122.0628876519
 30
0.0
 11
231.1896487031
 21
122.3030421263
 31
0.0
  0
LINE
  5
1FA
330
1F
100
AcDbEntity
  8
0
  6
Continuous
 62
     7
370
    18
100
AcDbLine
 10
231.6966414824
 20
122.0628876519
 30
0.0
 11
231.1896487031
 21
122.0628876519
 31
0.0
  0
LINE
  5
1FB
330
1F
100
AcDbEntity
  8
0
  6
Continuous
 62
     7
370
    18
100
AcDbLine
 10
231.6966414824
 20
121.6859785462
 30
0.0
 11
231.6966414824
 21
122.0628876519
 31
0.0
  0
LINE
  5
1FC
330
1F
100
AcDbEntity
  8
0
  6
Continuous
 62
     7
370
    18
100
AcDbLine
 10
229.508567382
 20
122.1162553129
 30
0.0
 11
230.1489793138
 21
122.1162553129
 31
0.0
  0
LINE
  5
1FD
330
1F
100
AcDbEntity
  8
0
  6
Continuous
 62
     7
370
    18
100
AcDbLine
 10
229.508567382
 20
121.8761008384
 30
0.0
 11
229.508567382
 21
122.1162553129
 31
0.0
  0
LINE
  5
1FE
330
1F
100
AcDbEntity
  8
0
  6
Continuous
 62
     7
370
    18
100
AcDbLine
 10
230.1489793138
 20
121.8761008384
 30
0.0
 11
229.508567382
 21
121.8761008384
 31
0.0
  0
LINE
  5
1FF
330
1F
100
AcDbEntity
  8
0
  6
Continuous
 62
     7
370
    18
100
AcDbLine
 10
230.1489793138
 20
122.1162553129
 30
0.0
 11
230.1489793138
 21
121.8761008384
 31
0.0
  0
SPLINE
  5
200
330
1F
100
AcDbEntity
  8
0
  6
Continuous
 62
     7
370
    18
100
AcDbSpline
210
0.0
220
0.0
230
1.0
 70
     8
 71
     3
 72
    10
 73
     6
 74
     0
 42
0.000000001
 43
0.00000001
 40
0.0
 40
0.0
 40
0.0
 40
0.0
 40
0.2795751783825436
 40
0.5597049368157176
 40
1.0
 40
1.0
 40
1.0
 40
1.0
 10
229.1541727583015
 20
123.1269053927589
 30
0.0
 10
229.190051299207
 20
123.0544022452919
 30
0.0
 10
229.2618795515816
 20
122.9092521292953
 30
0.0
 10
229.3114776748854
 20
122.6227304693095
 30
0.0
 10
229.3178723791123
 20
122.4155107878216
 30
0.0
 10
229.321780568582
 20
122.2888663413562
 30
0.0
  0
SPLINE
  5
201
330
1F
100
AcDbEntity
  8
0
  6
Continuous
 62
     7
370
    18
100
AcDbSpline
210
0.0
220
0.0
230
1.0
 70
     8
 71
     3
 72
    11
 73
     7
 74
     0
 42
0.000000001
 43
0.00000001
 40
0.0
 40
0.0
 40
0.0
 40
0.0
 40
0.2798903849624078
 40
0.5594964420644645
 40
0.7796718965173837
 40
1.0
 40
1.0
 40
1.0
 40
1.0
 10
228.7760128480417
 20
123.3437115155098
 30
0.0
 10
228.8187697897621
 20
123.3408589972379
 30
0.0
 10
228.9042402383787
 20
123.3351568584372
 30
0.0
 10
229.0130104934816
 20
123.2815317765078
 30
0.0
 10
229.0965308189943
 20
123.2094924084229
 30
0.0
 10
229.1349543401928
 20
123.1544407570519
 30
0.0
 10
229.1541727583015
 20
123.1269053927589
 30
0.0
  0
SPLINE
  5
202
330
1F
100
AcDbEntity
  8
0
  6
Continuous
 62
     7
370
    18
100
AcDbSpline
210
0.0
220
0.0
230
1.0
 70
     8
 71
     3
 72
    13
 73
     9
 74
     0
 42
0.000000001
 43
0.00000001
 40
0.0
 40
0.0
 40
0.0
 40
0.0
 40
0.2504890583456499
 40
0.5006738274425624
 40
0.6258446378555225
 40
0.7507584155659044
 40
0.8753007099299326
 40
1.0
 40
1.0
 40
1.0
 40
1.0
 10
228.2277435183927
 20
122.2888663413562
 30
0.0
 10
228.2304621330077
 20
122.3991065387139
 30
0.0
 10
228.2358960597176
 20
122.6194530157763
 30
0.0
 10
228.2859494317592
 20
122.8928804513236
 30
0.0
 10
228.3708849571364
 20
123.0973379856087
 30
0.0
 10
228.4678730328255
 20
123.2328506066878
 30
0.0
 10
228.6098286959091
 20
123.3289498887763
 30
0.0
 10
228.7205948736913
 20
123.33878890742
 30
0.0
 10
228.7760128480417
 20
123.3437115155098
 30
0.0
  0
SPLINE
  5
203
330
1F
100
AcDbEntity
  8
0
  6
Continuous
 62
     7
370
    18
100
AcDbSpline
210
0.0
220
0.0
230
1.0
 70
     8
 71
     3
 72
    13
 73
     9
 74
     0
 42
0.000000001
 43
0.00000001
 40
0.0
 40
0.0
 40
0.0
 40
0.0
 40
0.1245870753534849
 40
0.249222714838541
 40
0.3742192396120927
 40
0.4992998133209638
 40
0.7494812006579958
 40
1.0
 40
1.0
 40
1.0
 40
1.0
 10
228.773511238933
 20
121.2356889066083
 30
0.0
 10
228.7182475956442
 20
121.2413256028854
 30
0.0
 10
228.6076987672587
 20
121.2526011926278
 30
0.0
 10
228.4689098110359
 20
121.3512342054641
 30
0.0
 10
228.3658707023529
 20
121.4812385420241
 30
0.0
 10
228.2798468171844
 20
121.6855844930777
 30
0.0
 10
228.2346759305652
 20
121.9590866722635
 30
0.0
 10
228.230055360354
 20
122.1788904111869
 30
0.0
 10
228.2277435183927
 20
122.2888663413562
 30
0.0
  0
SPLINE
  5
204
330
1F
100
AcDbEntity
  8
0
  6
Continuous
 62
     7
370
    18
100
AcDbSpline
210
0.0
220
0.0
230
1.0
 70
     8
 71
     3
 72
    13
 73
     9
 74
     0
 42
0.000000001
 43
0.00000001
 40
0.0
 40
0.0
 40
0.0
 40
0.0
 40
0.2504702058475089
 40
0.5006494994159231
 40
0.6258027062132796
 40
0.7507410958263522
 40
0.8752785399750111
 40
1.0
 40
1.0
 40
1.0
 40
1.0
 10
229.321780568582
 20
122.2888663413562
 30
0.0
 10
229.3190670733269
 20
122.1787338858046
 30
0.0
 10
229.3136432344454
 20
121.9585968896507
 30
0.0
 10
229.2628733767213
 20
121.6856662894147
 30
0.0
 10
229.1785216292857
 20
121.4812421769634
 30
0.0
 10
229.0816388693293
 20
121.3457873482311
 30
0.0
 10
228.9395622524604
 20
121.2501090834293
 30
0.0
 10
228.8288888117372
 20
121.2404979973497
 30
0.0
 10
228.773511238933
 20
121.2356889066083
 30
0.0
  0
SPLINE
  5
205
330
1F
100
AcDbEntity
  8
0
  6
Continuous
 62
     7
370
    18
100
AcDbSpline
210
0.0
220
0.0
230
1.0
 70
     8
 71
     3
 72
    10
 73
     6
 74
     0
 42
0.000000001
 43
0.00000001
 40
0.0
 40
0.0
 40
0.0
 40
0.0
 40
0.2795751783825429
 40
0.5597049368157178
 40
0.9999999999999999
 40
0.9999999999999999
 40
0.9999999999999999
 40
0.9999999999999999
 10
227.8466650641727
 20
123.1269053927589
 30
0.0
 10
227.8825436050782
 20
123.0544022452919
 30
0.0
 10
227.9543718574528
 20
122.9092521292953
 30
0.0
 10
228.0039699807566
 20
122.6227304693094
 30
0.0
 10
228.0103646849834
 20
122.4155107878216
 30
0.0
 10
228.0142728744532
 20
122.2888663413562
 30
0.0
  0
SPLINE
  5
206
330
1F
100
AcDbEntity
  8
0
  6
Continuous
 62
     7
370
    18
100
AcDbSpline
210
0.0
220
0.0
230
1.0
 70
     8
 71
     3
 72
    11
 73
     7
 74
     0
 42
0.000000001
 43
0.00000001
 40
0.0
 40
0.0
 40
0.0
 40
0.0
 40
0.279890384962402
 40
0.5594964420644605
 40
0.7796718965173859
 40
1.0
 40
1.0
 40
1.0
 40
1.0
 10
227.4685051539129
 20
123.3437115155098
 30
0.0
 10
227.5112620956334
 20
123.3408589972379
 30
0.0
 10
227.5967325442499
 20
123.3351568584372
 30
0.0
 10
227.7055027993528
 20
123.2815317765078
 30
0.0
 10
227.7890231248655
 20
123.2094924084228
 30
0.0
 10
227.827446646064
 20
123.1544407570519
 30
0.0
 10
227.8466650641727
 20
123.1269053927589
 30
0.0
  0
SPLINE
  5
207
330
1F
100
AcDbEntity
  8
0
  6
Continuous
 62
     7
370
    18
100
AcDbSpline
210
0.0
220
0.0
230
1.0
 70
     8
 71
     3
 72
    13
 73
     9
 74
     0
 42
0.000000001
 43
0.00000001
 40
0.0
 40
0.0
 40
0.0
 40
0.0
 40
0.2504890583456467
 40
0.5006738274425611
 40
0.6258446378555207
 40
0.7507584155659023
 40
0.8753007099299301
 40
1.0
 40
1.0
 40
1.0
 40
1.0
 10
226.9202358242638
 20
122.2888663413562
 30
0.0
 10
226.9229544388789
 20
122.3991065387139
 30
0.0
 10
226.9283883655889
 20
122.6194530157763
 30
0.0
 10
226.9784417376304
 20
122.8928804513236
 30
0.0
 10
227.0633772630077
 20
123.0973379856087
 30
0.0
 10
227.1603653386967
 20
123.2328506066878
 30
0.0
 10
227.3023210017803
 20
123.3289498887763
 30
0.0
 10
227.4130871795625
 20
123.33878890742
 30
0.0
 10
227.4685051539129
 20
123.3437115155098
 30
0.0
  0
SPLINE
  5
208
330
1F
100
AcDbEntity
  8
0
  6
Continuous
 62
     7
370
    18
100
AcDbSpline
210
0.0
220
0.0
230
1.0
 70
     8
 71
     3
 72
    13
 73
     9
 74
     0
 42
0.000000001
 43
0.00000001
 40
0.0
 40
0.0
 40
0.0
 40
0.0
 40
0.1245870753534851
 40
0.2492227148385391
 40
0.374219239612091
 40
0.4992998133209623
 40
0.7494812006579982
 40
1.0
 40
1.0
 40
1.0
 40
1.0
 10
227.4660035448042
 20
121.2356889066083
 30
0.0
 10
227.4107399015154
 20
121.2413256028854
 30
0.0
 10
227.3001910731299
 20
121.2526011926278
 30
0.0
 10
227.1614021169071
 20
121.3512342054641
 30
0.0
 10
227.0583630082241
 20
121.4812385420241
 30
0.0
 10
226.9723391230556
 20
121.6855844930777
 30
0.0
 10
226.9271682364364
 20
121.9590866722635
 30
0.0
 10
226.9225476662252
 20
122.1788904111869
 30
0.0
 10
226.9202358242638
 20
122.2888663413562
 30
0.0
  0
SPLINE
  5
209
330
1F
100
AcDbEntity
  8
0
  6
Continuous
 62
     7
370
    18
100
AcDbSpline
210
0.0
220
0.0
230
1.0
 70
     8
 71
     3
 72
    13
 73
     9
 74
     0
 42
0.000000001
 43
0.00000001
 40
0.0
 40
0.0
 40
0.0
 40
0.0
 40
0.2504702058475058
 40
0.5006494994159245
 40
0.6258027062132795
 40
0.7507410958263524
 40
0.8752785399750082
 40
0.9999999999999999
 40
0.9999999999999999
 40
0.9999999999999999
 40
0.9999999999999999
 10
228.0142728744532
 20
122.2888663413562
 30
0.0
 10
228.0115593791982
 20
122.1787338858046
 30
0.0
 10
228.0061355403166
 20
121.9585968896507
 30
0.0
 10
227.9553656825925
 20
121.6856662894147
 30
0.0
 10
227.8710139351569
 20
121.4812421769634
 30
0.0
 10
227.7741311752005
 20
121.3457873482311
 30
0.0
 10
227.6320545583316
 20
121.2501090834293
 30
0.0
 10
227.5213811176085
 20
121.2404979973497
 30
0.0
 10
227.4660035448042
 20
121.2356889066083
 30
0.0
  0
SPLINE
  5
20A
330
1F
100
AcDbEntity
  8
0
  6
Continuous
 62
     7
370
    18
100
AcDbSpline
210
0.0
220
0.0
230
1.0
 70
     8
 71
     3
 72
    12
 73
     8
 74
     0
 42
0.000000001
 43
0.00000001
 40
0.0
 40
0.0
 40
0.0
 40
0.0
 40
0.1861323399318255
 40
0.3726108819815598
 40
0.5594136204052352
 40
0.7795030968206039
 40
1.0
 40
1.0
 40
1.0
 40
1.0
 10
226.2056094888886
 20
122.6232480922144
 30
0.0
 10
226.2632518038237
 20
122.6165621918315
 30
0.0
 10
226.3786436471502
 20
122.603177955436
 30
0.0
 10
226.5207893719789
 20
122.4960663112725
 30
0.0
 10
226.6319593907831
 20
122.3505049934597
 30
0.0
 10
226.697756290564
 20
122.1651803829617
 30
0.0
 10
226.7037603663395
 20
122.0297614818503
 30
0.0
 10
226.7067651803245
 20
121.961989417824
 30
0.0
  0
SPLINE
  5
20B
330
1F
100
AcDbEntity
  8
0
  6
Continuous
 62
     7
370
    18
100
AcDbSpline
210
0.0
220
0.0
230
1.0
 70
     8
 71
     3
 72
     9
 73
     5
 74
     0
 42
0.000000001
 43
0.00000001
 40
0.0
 40
0.0
 40
0.0
 40
0.0
 40
0.5597945537684219
 40
0.9999999999999999
 40
0.9999999999999999
 40
0.9999999999999999
 40
0.9999999999999999
 10
225.9012470473344
 20
122.5427796658857
 30
0.0
 10
225.9553678533748
 20
122.5685876710312
 30
0.0
 10
226.0520476186139
 20
122.6146903081001
 30
0.0
 10
226.1586725940134
 20
122.6206323659757
 30
0.0
 10
226.2056094888886
 20
122.6232480922144
 30
0.0
  0
LINE
  5
20C
330
1F
100
AcDbEntity
  8
0
  6
Continuous
 62
     7
370
    18
100
AcDbLine
 10
225.9783799949
 20
123.0501893801
 30
0.0
 11
225.9012470473
 21
122.5427796659
 31
0.0
  0
LINE
  5
20D
330
1F
100
AcDbEntity
  8
0
  6
Continuous
 62
     7
370
    18
100
AcDbLine
 10
226.6267136888
 20
123.0501893801
 30
0.0
 11
225.9783799949
 21
123.0501893801
 31
0.0
  0
LINE
  5
20E
330
1F
100
AcDbEntity
  8
0
  6
Continuous
 62
     7
370
    18
100
AcDbLine
 10
226.6267136888
 20
123.2903438545
 30
0.0
 11
226.6267136888
 21
123.0501893801
 31
0.0
  0
LINE
  5
20F
330
1F
100
AcDbEntity
  8
0
  6
Continuous
 62
     7
370
    18
100
AcDbLine
 10
225.7995149436
 20
123.2903438545
 30
0.0
 11
226.6267136888
 21
123.2903438545
 31
0.0
  0
LINE
  5
210
330
1F
100
AcDbEntity
  8
0
  6
Continuous
 62
     7
370
    18
100
AcDbLine
 10
225.6394119606
 20
122.2375833546
 30
0.0
 11
225.7995149436
 21
123.2903438545
 31
0.0
  0
LINE
  5
211
330
1F
100
AcDbEntity
  8
0
  6
Continuous
 62
     7
370
    18
100
AcDbLine
 10
225.8528826046
 20
122.2071471105
 30
0.0
 11
225.6394119606
 21
122.2375833546
 31
0.0
  0
SPLINE
  5
212
330
1F
100
AcDbEntity
  8
0
  6
Continuous
 62
     7
370
    18
100
AcDbSpline
210
0.0
220
0.0
230
1.0
 70
     8
 71
     3
 72
    10
 73
     6
 74
     0
 42
0.000000001
 43
0.00000001
 40
0.0
 40
0.0
 40
0.0
 40
0.0
 40
0.28016827716769
 40
0.5607715634932497
 40
0.9999999999999999
 40
0.9999999999999999
 40
0.9999999999999999
 40
0.9999999999999999
 10
226.1459878051321
 20
122.409777448275
 30
0.0
 10
226.1109997918944
 20
122.405910480425
 30
0.0
 10
226.0409694405458
 20
122.3981705405961
 30
0.0
 10
225.9301249279887
 20
122.3315159982428
 30
0.0
 10
225.8821537555726
 20
122.2542769783104
 30
0.0
 10
225.8528826045669
 20
122.2071471104731
 30
0.0
  0
SPLINE
  5
213
330
1F
100
AcDbEntity
  8
0
  6
Continuous
 62
     7
370
    18
100
AcDbSpline
210
0.0
220
0.0
230
1.0
 70
     8
 71
     3
 72
    11
 73
     7
 74
     0
 42
0.000000001
 43
0.00000001
 40
0.0
 40
0.0
 40
0.0
 40
0.0
 40
0.2810318196216979
 40
0.5605860755662309
 40
0.7803889752949
 40
1.0
 40
1.0
 40
1.0
 40
1.0
 10
226.4932945363851
 20
121.9503152419835
 30
0.0
 10
226.4904380432196
 20
122.0108669901127
 30
0.0
 10
226.4847400752967
 20
122.1316521271767
 30
0.0
 10
226.4106982280556
 20
122.2867534206283
 30
0.0
 10
226.2890061717744
 20
122.3928623971088
 30
0.0
 10
226.1936467140869
 20
122.4041407394912
 30
0.0
 10
226.1459878051321
 20
122.409777448275
 30
0.0
  0
SPLINE
  5
214
330
1F
100
AcDbEntity
  8
0
  6
Continuous
 62
     7
370
    18
100
AcDbSpline
210
0.0
220
0.0
230
1.0
 70
     8
 71
     3
 72
    12
 73
     8
 74
     0
 42
0.000000001
 43
0.00000001
 40
0.0
 40
0.0
 40
0.0
 40
0.0
 40
0.1858835197478858
 40
0.3723018513499629
 40
0.5590684864252714
 40
0.7793243380015255
 40
1.0
 40
1.0
 40
1.0
 40
1.0
 10
226.1405676520633
 20
121.4491595505477
 30
0.0
 10
226.1830689552465
 20
121.4546815410343
 30
0.0
 10
226.2681938435708
 20
121.4657414095157
 30
0.0
 10
226.3689816758881
 20
121.5506299363991
 30
0.0
 10
226.4448723053343
 20
121.6622014906184
 30
0.0
 10
226.4872185553049
 20
121.8005147624916
 30
0.0
 10
226.491267924225
 20
121.9003500644582
 30
0.0
 10
226.4932945363851
 20
121.9503152419835
 30
0.0
  0
SPLINE
  5
215
330
1F
100
AcDbEntity
  8
0
  6
Continuous
 62
     7
370
    18
100
AcDbSpline
210
0.0
220
0.0
230
1.0
 70
     8
 71
     3
 72
    11
 73
     7
 74
     0
 42
0.000000001
 43
0.00000001
 40
0.0
 40
0.0
 40
0.0
 40
0.0
 40
0.2811074381184339
 40
0.561116001753281
 40
0.7809929910720526
 40
1.0
 40
1.0
 40
1.0
 40
1.0
 10
225.8261987740744
 20
121.8494170079341
 30
0.0
 10
225.8344145030273
 20
121.7977707582153
 30
0.0
 10
225.8508138449029
 20
121.6946801486542
 30
0.0
 10
225.9150686302038
 20
121.5623919005202
 30
0.0
 10
226.0174461882204
 20
121.4674405615418
 30
0.0
 10
226.0995814351414
 20
121.4552451627454
 30
0.0
 10
226.1405676520633
 20
121.4491595505477
 30
0.0
  0
LINE
  5
216
330
1F
100
AcDbEntity
  8
0
  6
Continuous
 62
     7
370
    18
100
AcDbLine
 10
225.6127281301
 20
121.8227331774
 30
0.0
 11
225.8261987741
 21
121.8494170079
 31
0.0
  0
SPLINE
  5
217
330
1F
100
AcDbEntity
  8
0
  6
Continuous
 62
     7
370
    18
100
AcDbSpline
210
0.0
220
0.0
230
1.0
 70
     8
 71
     3
 72
    12
 73
     8
 74
     0
 42
0.000000001
 43
0.00000001
 40
0.0
 40
0.0
 40
0.0
 40
0.0
 40
0.1865885886654288
 40
0.3730457041861939
 40
0.559705366102895
 40
0.7796179230979426
 40
1.0
 40
1.0
 40
1.0
 40
1.0
 10
226.1426523263206
 20
121.2356889066083
 30
0.0
 10
226.0878353530542
 20
121.2400507546531
 30
0.0
 10
225.9782400313909
 20
121.2487713773186
 30
0.0
 10
225.8325465564666
 20
121.3325877405975
 30
0.0
 10
225.7134993580966
 20
121.4606262876452
 30
0.0
 10
225.6365589598902
 20
121.6309277566623
 30
0.0
 10
225.6206773853001
 20
121.7587526007065
 30
0.0
 10
225.6127281301351
 20
121.8227331774416
 30
0.0
  0
SPLINE
  5
218
330
1F
100
AcDbEntity
  8
0
  6
Continuous
 62
     7
370
    18
100
AcDbSpline
210
0.0
220
0.0
230
1.0
 70
     8
 71
     3
 72
    13
 73
     9
 74
     0
 42
0.000000001
 43
0.00000001
 40
0.0
 40
0.0
 40
0.0
 40
0.0
 40
0.1868890796518144
 40
0.3736670037034803
 40
0.5603596573753084
 40
0.7069433013335567
 40
0.8533827747571264
 40
1.0
 40
1.0
 40
1.0
 40
1.0
 10
226.7067651803245
 20
121.961989417824
 30
0.0
 10
226.7036716002823
 20
121.898070599007
 30
0.0
 10
226.6974862801596
 20
121.770270978226
 30
0.0
 10
226.6403229645182
 20
121.585499102518
 30
0.0
 10
226.5495389520025
 20
121.4307340403846
 30
0.0
 10
226.4316698574083
 20
121.3144743575215
 30
0.0
 10
226.2934857862096
 20
121.2462382011874
 30
0.0
 10
226.1929504726515
 20
121.2392067597612
 30
0.0
 10
226.1426523263206
 20
121.2356889066083
 30
0.0
  0
LINE
  5
219
330
1F
100
AcDbEntity
  8
0
  6
Continuous
 62
     7
370
    18
100
AcDbLine
 10
224.8122132154
 20
122.1162553129
 30
0.0
 11
225.4526251472
 21
122.1162553129
 31
0.0
  0
LINE
  5
21A
330
1F
100
AcDbEntity
  8
0
  6
Continuous
 62
     7
370
    18
100
AcDbLine
 10
224.8122132154
 20
121.8761008384
 30
0.0
 11
224.8122132154
 21
122.1162553129
 31
0.0
  0
LINE
  5
21B
330
1F
100
AcDbEntity
  8
0
  6
Continuous
 62
     7
370
    18
100
AcDbLine
 10
225.4526251472
 20
121.8761008384
 30
0.0
 11
224.8122132154
 21
121.8761008384
 31
0.0
  0
LINE
  5
21C
330
1F
100
AcDbEntity
  8
0
  6
Continuous
 62
     7
370
    18
100
AcDbLine
 10
225.4526251472
 20
122.1162553129
 30
0.0
 11
225.4526251472
 21
121.8761008384
 31
0.0
  0
SPLINE
  5
21D
330
1F
100
AcDbEntity
  8
0
  6
Continuous
 62
     7
370
    18
100
AcDbSpline
210
0.0
220
0.0
230
1.0
 70
     8
 71
     3
 72
    12
 73
     8
 74
     0
 42
0.000000001
 43
0.00000001
 40
0.0
 40
0.0
 40
0.0
 40
0.0
 40
0.1871057595240115
 40
0.374021160407892
 40
0.5608338669252977
 40
0.7803585126596481
 40
1.0
 40
1.0
 40
1.0
 40
1.0
 10
224.6254264019153
 20
121.8590065095173
 30
0.0
 10
224.6224772935917
 20
121.8013129595086
 30
0.0
 10
224.6165820773237
 20
121.685984556058
 30
0.0
 10
224.5570817521798
 20
121.5205621950674
 30
0.0
 10
224.4471675293553
 20
121.3730665457682
 30
0.0
 10
224.2844744531003
 20
121.2558547486301
 30
0.0
 10
224.1479427135241
 20
121.2424120461074
 30
0.0
 10
224.079658681375
 20
121.2356889066083
 30
0.0
  0
SPLINE
  5
21E
330
1F
100
AcDbEntity
  8
0
  6
Continuous
 62
     7
370
    18
100
AcDbSpline
210
0.0
220
0.0
230
1.0
 70
     8
 71
     3
 72
    11
 73
     7
 74
     0
 42
0.000000001
 43
0.00000001
 40
0.0
 40
0.0
 40
0.0
 40
0.0
 40
0.2796220600248668
 40
0.5590245428560703
 40
0.7793847317261571
 40
1.0
 40
1.0
 40
1.0
 40
1.0
 10
224.2981325435317
 20
122.3897645754057
 30
0.0
 10
224.3543990721462
 20
122.3619292894575
 30
0.0
 10
224.4668879452846
 20
122.3062805756149
 30
0.0
 10
224.570657634682
 20
122.1598586740515
 30
0.0
 10
224.6185916812134
 20
122.0059822032214
 30
0.0
 10
224.6231472832952
 20
121.9080172964744
 30
0.0
 10
224.6254264019153
 20
121.8590065095173
 30
0.0
  0
SPLINE
  5
21F
330
1F
100
AcDbEntity
  8
0
  6
Continuous
 62
     7
370
    18
100
AcDbSpline
210
0.0
220
0.0
230
1.0
 70
     8
 71
     3
 72
    11
 73
     7
 74
     0
 42
0.000000001
 43
0.00000001
 40
0.0
 40
0.0
 40
0.0
 40
0.0
 40
0.2801901752489525
 40
0.5597317672418758
 40
0.7798035967389094
 40
1.0
 40
1.0
 40
1.0
 40
1.0
 10
224.5453749104381
 20
122.8041978177411
 30
0.0
 10
224.542730887187
 20
122.7561998236132
 30
0.0
 10
224.5374489610607
 20
122.6603149409494
 30
0.0
 10
224.4823168964174
 20
122.535617583388
 30
0.0
 10
224.3979407485012
 20
122.4433855015278
 30
0.0
 10
224.3314082203078
 20
122.4076415886895
 30
0.0
 10
224.2981325435317
 20
122.3897645754057
 30
0.0
  0
SPLINE
  5
220
330
1F
100
AcDbEntity
  8
0
  6
Continuous
 62
     7
370
    18
100
AcDbSpline
210
0.0
220
0.0
230
1.0
 70
     8
 71
     3
 72
    12
 73
     8
 74
     0
 42
0.000000001
 43
0.00000001
 40
0.0
 40
0.0
 40
0.0
 40
0.0
 40
0.1866818949369799
 40
0.373093920797577
 40
0.5598445729636935
 40
0.7796788980924656
 40
1.0
 40
1.0
 40
1.0
 40
1.0
 10
224.0763232025634
 20
123.3437115155098
 30
0.0
 10
224.1262735239347
 20
123.3396760499696
 30
0.0
 10
224.2261019580299
 20
123.3316109525954
 30
0.0
 10
224.3587327672872
 20
123.2544899018932
 30
0.0
 10
224.4648562990907
 20
123.1360865598198
 30
0.0
 10
224.5353452306689
 20
122.9804688828442
 30
0.0
 10
224.5420292198621
 20
122.8629981438633
 30
0.0
 10
224.5453749104381
 20
122.8041978177411
 30
0.0
  0
SPLINE
  5
221
330
1F
100
AcDbEntity
  8
0
  6
Continuous
 62
     7
370
    18
100
AcDbSpline
210
0.0
220
0.0
230
1.0
 70
     8
 71
     3
 72
    12
 73
     8
 74
     0
 42
0.000000001
 43
0.00000001
 40
0.0
 40
0.0
 40
0.0
 40
0.0
 40
0.1871377587295348
 40
0.3740411921344247
 40
0.5608494686677246
 40
0.7803659435040499
 40
1.0
 40
1.0
 40
1.0
 40
1.0
 10
223.6114408432032
 20
122.81253651477
 30
0.0
 10
223.6139899404386
 20
122.8617362685622
 30
0.0
 10
223.6190849430467
 20
122.9600741704699
 30
0.0
 10
223.6692186667291
 20
123.1012539043391
 30
0.0
 10
223.7622758027179
 20
123.2276917045401
 30
0.0
 10
223.9017618876462
 20
123.3266887569506
 30
0.0
 10
224.0181257121988
 20
123.3380362499007
 30
0.0
 10
224.0763232025634
 20
123.3437115155098
 30
0.0
  0
SPLINE
  5
222
330
1F
100
AcDbEntity
  8
0
  6
Continuous
 62
     7
370
    18
100
AcDbSpline
210
0.0
220
0.0
230
1.0
 70
     8
 71
     3
 72
    11
 73
     7
 74
     0
 42
0.000000001
 43
0.00000001
 40
0.0
 40
0.0
 40
0.0
 40
0.0
 40
0.2798399979573835
 40
0.5592260384591661
 40
0.7795665615265435
 40
1.0
 40
1.0
 40
1.0
 40
1.0
 10
223.8611848192183
 20
122.3897645754057
 30
0.0
 10
223.8182423564739
 20
122.4136221252823
 30
0.0
 10
223.7324270924032
 20
122.4612985232319
 30
0.0
 10
223.6528505122232
 20
122.5765801398004
 30
0.0
 10
223.6161583795665
 20
122.6974331362773
 30
0.0
 10
223.6130135762998
 20
122.7741633303494
 30
0.0
 10
223.6114408432032
 20
122.81253651477
 30
0.0
  0
SPLINE
  5
223
330
1F
100
AcDbEntity
  8
0
  6
Continuous
 62
     7
370
    18
100
AcDbSpline
210
0.0
220
0.0
230
1.0
 70
     8
 71
     3
 72
    11
 73
     7
 74
     0
 42
0.000000001
 43
0.00000001
 40
0.0
 40
0.0
 40
0.0
 40
0.0
 40
0.2804755498465821
 40
0.5600957930369852
 40
0.7800256682201208
 40
1.0
 40
1.0
 40
1.0
 40
1.0
 10
223.5313893517259
 20
121.8660944019918
 30
0.0
 10
223.5347157446729
 20
121.9284808344131
 30
0.0
 10
223.5413583867735
 20
122.0530634526159
 30
0.0
 10
223.6125980116543
 20
122.2148971612098
 30
0.0
 10
223.7243896925878
 20
122.3343210124344
 30
0.0
 10
223.8155833716721
 20
122.3712821426547
 30
0.0
 10
223.8611848192183
 20
122.3897645754057
 30
0.0
  0
SPLINE
  5
224
330
1F
100
AcDbEntity
  8
0
  6
Continuous
 62
     7
370
    18
100
AcDbSpline
210
0.0
220
0.0
230
1.0
 70
     8
 71
     3
 72
    12
 73
     8
 74
     0
 42
0.000000001
 43
0.00000001
 40
0.0
 40
0.0
 40
0.0
 40
0.0
 40
0.1866482491791758
 40
0.3730988090506968
 40
0.5597919176482326
 40
0.7796545203293551
 40
1.0
 40
1.0
 40
1.0
 40
1.0
 10
224.079658681375
 20
121.2356889066083
 30
0.0
 10
224.0212469938421
 20
121.2404493093036
 30
0.0
 10
223.9044854857701
 20
121.2499650726929
 30
0.0
 10
223.7491098130359
 20
121.3393868948465
 30
0.0
 10
223.6235721909966
 20
121.476956596349
 30
0.0
 10
223.5430399876364
 20
121.6600081789494
 30
0.0
 10
223.5352757359736
 20
121.7973487766852
 30
0.0
 10
223.5313893517259
 20
121.8660944019918
 30
0.0
  0
SPLINE
  5
225
330
1F
100
AcDbEntity
  8
0
  6
Continuous
 62
     7
370
    18
100
AcDbSpline
210
0.0
220
0.0
230
1.0
 70
     8
 71
     3
 72
    10
 73
     6
 74
     0
 42
0.000000001
 43
0.00000001
 40
0.0
 40
0.0
 40
0.0
 40
0.0
 40
0.2795751783825429
 40
0.5597049368157176
 40
1.0
 40
1.0
 40
1.0
 40
1.0
 10
223.150310897506
 20
123.1269053927589
 30
0.0
 10
223.1861894384115
 20
123.0544022452919
 30
0.0
 10
223.2580176907861
 20
122.9092521292953
 30
0.0
 10
223.30761581409
 20
122.6227304693094
 30
0.0
 10
223.3140105183168
 20
122.4155107878216
 30
0.0
 10
223.3179187077866
 20
122.2888663413562
 30
0.0
  0
SPLINE
  5
226
330
1F
100
AcDbEntity
  8
0
  6
Continuous
 62
     7
370
    18
100
AcDbSpline
210
0.0
220
0.0
230
1.0
 70
     8
 71
     3
 72
    11
 73
     7
 74
     0
 42
0.000000001
 43
0.00000001
 40
0.0
 40
0.0
 40
0.0
 40
0.0
 40
0.2798903849624014
 40
0.5594964420644593
 40
0.779671896517385
 40
0.9999999999999999
 40
0.9999999999999999
 40
0.9999999999999999
 40
0.9999999999999999
 10
222.7721509872462
 20
123.3437115155098
 30
0.0
 10
222.8149079289667
 20
123.3408589972379
 30
0.0
 10
222.9003783775832
 20
123.3351568584372
 30
0.0
 10
223.0091486326861
 20
123.2815317765078
 30
0.0
 10
223.0926689581988
 20
123.2094924084229
 30
0.0
 10
223.1310924793973
 20
123.1544407570519
 30
0.0
 10
223.150310897506
 20
123.1269053927589
 30
0.0
  0
SPLINE
  5
227
330
1F
100
AcDbEntity
  8
0
  6
Continuous
 62
     7
370
    18
100
AcDbSpline
210
0.0
220
0.0
230
1.0
 70
     8
 71
     3
 72
    13
 73
     9
 74
     0
 42
0.000000001
 43
0.00000001
 40
0.0
 40
0.0
 40
0.0
 40
0.0
 40
0.2504890583456494
 40
0.5006738274425614
 40
0.6258446378555221
 40
0.7507584155659023
 40
0.8753007099299303
 40
1.0
 40
1.0
 40
1.0
 40
1.0
 10
222.2238816575972
 20
122.2888663413562
 30
0.0
 10
222.2266002722123
 20
122.3991065387139
 30
0.0
 10
222.2320341989222
 20
122.6194530157763
 30
0.0
 10
222.2820875709638
 20
122.8928804513236
 30
0.0
 10
222.367023096341
 20
123.0973379856087
 30
0.0
 10
222.46401117203
 20
123.2328506066879
 30
0.0
 10
222.6059668351136
 20
123.3289498887763
 30
0.0
 10
222.7167330128958
 20
123.33878890742
 30
0.0
 10
222.7721509872462
 20
123.3437115155098
 30
0.0
  0
SPLINE
  5
228
330
1F
100
AcDbEntity
  8
0
  6
Continuous
 62
     7
370
    18
100
AcDbSpline
210
0.0
220
0.0
230
1.0
 70
     8
 71
     3
 72
    13
 73
     9
 74
     0
 42
0.000000001
 43
0.00000001
 40
0.0
 40
0.0
 40
0.0
 40
0.0
 40
0.1245870753534851
 40
0.2492227148385413
 40
0.3742192396120915
 40
0.4992998133209628
 40
0.7494812006579983
 40
1.0
 40
1.0
 40
1.0
 40
1.0
 10
222.7696493781375
 20
121.2356889066083
 30
0.0
 10
222.7143857348487
 20
121.2413256028854
 30
0.0
 10
222.6038369064632
 20
121.2526011926278
 30
0.0
 10
222.4650479502404
 20
121.3512342054641
 30
0.0
 10
222.3620088415574
 20
121.4812385420241
 30
0.0
 10
222.275984956389
 20
121.6855844930777
 30
0.0
 10
222.2308140697698
 20
121.9590866722635
 30
0.0
 10
222.2261934995585
 20
122.1788904111869
 30
0.0
 10
222.2238816575972
 20
122.2888663413562
 30
0.0
  0
SPLINE
  5
229
330
1F
100
AcDbEntity
  8
0
  6
Continuous
 62
     7
370
    18
100
AcDbSpline
210
0.0
220
0.0
230
1.0
 70
     8
 71
     3
 72
    13
 73
     9
 74
     0
 42
0.000000001
 43
0.00000001
 40
0.0
 40
0.0
 40
0.0
 40
0.0
 40
0.2504702058475083
 40
0.5006494994159215
 40
0.6258027062132812
 40
0.7507410958263518
 40
0.8752785399750089
 40
1.0
 40
1.0
 40
1.0
 40
1.0
 10
223.3179187077866
 20
122.2888663413562
 30
0.0
 10
223.3152052125315
 20
122.1787338858046
 30
0.0
 10
223.30978137365
 20
121.9585968896507
 30
0.0
 10
223.2590115159259
 20
121.6856662894147
 30
0.0
 10
223.1746597684902
 20
121.4812421769634
 30
0.0
 10
223.0777770085338
 20
121.3457873482311
 30
0.0
 10
222.9357003916649
 20
121.2501090834293
 30
0.0
 10
222.8250269509418
 20
121.2404979973497
 30
0.0
 10
222.7696493781375
 20
121.2356889066083
 30
0.0
  0
SPLINE
  5
22A
330
1F
100
AcDbEntity
  8
0
  6
Continuous
 62
     7
370
    18
100
AcDbSpline
210
0.0
220
0.0
230
1.0
 70
     8
 71
     3
 72
    12
 73
     8
 74
     0
 42
0.000000001
 43
0.00000001
 40
0.0
 40
0.0
 40
0.0
 40
0.0
 40
0.1861323399318242
 40
0.3726108819815579
 40
0.5594136204052327
 40
0.7795030968206007
 40
0.9999999999999999
 40
0.9999999999999999
 40
0.9999999999999999
 40
0.9999999999999999
 10
221.5092553222219
 20
122.6232480922144
 30
0.0
 10
221.566897637157
 20
122.6165621918315
 30
0.0
 10
221.6822894804835
 20
122.603177955436
 30
0.0
 10
221.8244352053122
 20
122.4960663112725
 30
0.0
 10
221.9356052241164
 20
122.3505049934597
 30
0.0
 10
222.0014021238973
 20
122.1651803829617
 30
0.0
 10
222.0074061996729
 20
122.0297614818503
 30
0.0
 10
222.0104110136578
 20
121.961989417824
 30
0.0
  0
SPLINE
  5
22B
330
1F
100
AcDbEntity
  8
0
  6
Continuous
 62
     7
370
    18
100
AcDbSpline
210
0.0
220
0.0
230
1.0
 70
     8
 71
     3
 72
     9
 73
     5
 74
     0
 42
0.000000001
 43
0.00000001
 40
0.0
 40
0.0
 40
0.0
 40
0.0
 40
0.5597945537684227
 40
1.0
 40
1.0
 40
1.0
 40
1.0
 10
221.2048928806677
 20
122.5427796658857
 30
0.0
 10
221.2590136867082
 20
122.5685876710312
 30
0.0
 10
221.3556934519472
 20
122.6146903081001
 30
0.0
 10
221.4623184273468
 20
122.6206323659757
 30
0.0
 10
221.5092553222219
 20
122.6232480922144
 30
0.0
  0
LINE
  5
22C
330
1F
100
AcDbEntity
  8
0
  6
Continuous
 62
     7
370
    18
100
AcDbLine
 10
221.2820258282
 20
123.0501893801
 30
0.0
 11
221.2048928807
 21
122.5427796659
 31
0.0
  0
LINE
  5
22D
330
1F
100
AcDbEntity
  8
0
  6
Continuous
 62
     7
370
    18
100
AcDbLine
 10
221.9303595222
 20
123.0501893801
 30
0.0
 11
221.2820258282
 21
123.0501893801
 31
0.0
  0
LINE
  5
22E
330
1F
100
AcDbEntity
  8
0
  6
Continuous
 62
     7
370
    18
100
AcDbLine
 10
221.9303595222
 20
123.2903438545
 30
0.0
 11
221.9303595222
 21
123.0501893801
 31
0.0
  0
LINE
  5
22F
330
1F
100
AcDbEntity
  8
0
  6
Continuous
 62
     7
370
    18
100
AcDbLine
 10
221.1031607769
 20
123.2903438545
 30
0.0
 11
221.9303595222
 21
123.2903438545
 31
0.0
  0
LINE
  5
230
330
1F
100
AcDbEntity
  8
0
  6
Continuous
 62
     7
370
    18
100
AcDbLine
 10
220.943057794
 20
122.2375833546
 30
0.0
 11
221.1031607769
 21
123.2903438545
 31
0.0
  0
LINE
  5
231
330
1F
100
AcDbEntity
  8
0
  6
Continuous
 62
     7
370
    18
100
AcDbLine
 10
221.1565284379
 20
122.2071471105
 30
0.0
 11
220.943057794
 21
122.2375833546
 31
0.0
  0
SPLINE
  5
232
330
1F
100
AcDbEntity
  8
0
  6
Continuous
 62
     7
370
    18
100
AcDbSpline
210
0.0
220
0.0
230
1.0
 70
     8
 71
     3
 72
    10
 73
     6
 74
     0
 42
0.000000001
 43
0.00000001
 40
0.0
 40
0.0
 40
0.0
 40
0.0
 40
0.28016827716769
 40
0.5607715634932497
 40
0.9999999999999999
 40
0.9999999999999999
 40
0.9999999999999999
 40
0.9999999999999999
 10
221.4496336384654
 20
122.409777448275
 30
0.0
 10
221.4146456252278
 20
122.405910480425
 30
0.0
 10
221.3446152738791
 20
122.3981705405961
 30
0.0
 10
221.2337707613221
 20
122.3315159982428
 30
0.0
 10
221.185799588906
 20
122.2542769783104
 30
0.0
 10
221.1565284379002
 20
122.2071471104731
 30
0.0
  0
SPLINE
  5
233
330
1F
100
AcDbEntity
  8
0
  6
Continuous
 62
     7
370
    18
100
AcDbSpline
210
0.0
220
0.0
230
1.0
 70
     8
 71
     3
 72
    11
 73
     7
 74
     0
 42
0.000000001
 43
0.00000001
 40
0.0
 40
0.0
 40
0.0
 40
0.0
 40
0.2810318196216985
 40
0.5605860755662343
 40
0.7803889752948997
 40
1.0
 40
1.0
 40
1.0
 40
1.0
 10
221.7969403697184
 20
121.9503152419835
 30
0.0
 10
221.7940838765529
 20
122.0108669901127
 30
0.0
 10
221.78838590863
 20
122.1316521271767
 30
0.0
 10
221.7143440613889
 20
122.2867534206283
 30
0.0
 10
221.5926520051078
 20
122.3928623971088
 30
0.0
 10
221.4972925474203
 20
122.4041407394912
 30
0.0
 10
221.4496336384654
 20
122.409777448275
 30
0.0
  0
SPLINE
  5
234
330
1F
100
AcDbEntity
  8
0
  6
Continuous
 62
     7
370
    18
100
AcDbSpline
210
0.0
220
0.0
230
1.0
 70
     8
 71
     3
 72
    12
 73
     8
 74
     0
 42
0.000000001
 43
0.00000001
 40
0.0
 40
0.0
 40
0.0
 40
0.0
 40
0.185883519747884
 40
0.3723018513499677
 40
0.5590684864252757
 40
0.7793243380015258
 40
1.0
 40
1.0
 40
1.0
 40
1.0
 10
221.4442134853967
 20
121.4491595505477
 30
0.0
 10
221.4867147885798
 20
121.4546815410343
 30
0.0
 10
221.5718396769041
 20
121.4657414095157
 30
0.0
 10
221.6726275092214
 20
121.5506299363991
 30
0.0
 10
221.7485181386676
 20
121.6622014906184
 30
0.0
 10
221.7908643886382
 20
121.8005147624916
 30
0.0
 10
221.7949137575584
 20
121.9003500644582
 30
0.0
 10
221.7969403697184
 20
121.9503152419835
 30
0.0
  0
SPLINE
  5
235
330
1F
100
AcDbEntity
  8
0
  6
Continuous
 62
     7
370
    18
100
AcDbSpline
210
0.0
220
0.0
230
1.0
 70
     8
 71
     3
 72
    11
 73
     7
 74
     0
 42
0.000000001
 43
0.00000001
 40
0.0
 40
0.0
 40
0.0
 40
0.0
 40
0.2811074381184315
 40
0.5611160017532776
 40
0.7809929910720532
 40
1.0
 40
1.0
 40
1.0
 40
1.0
 10
221.1298446074078
 20
121.8494170079341
 30
0.0
 10
221.1380603363606
 20
121.7977707582153
 30
0.0
 10
221.1544596782362
 20
121.6946801486543
 30
0.0
 10
221.2187144635372
 20
121.5623919005202
 30
0.0
 10
221.3210920215537
 20
121.4674405615418
 30
0.0
 10
221.4032272684747
 20
121.4552451627454
 30
0.0
 10
221.4442134853967
 20
121.4491595505477
 30
0.0
  0
LINE
  5
236
330
1F
100
AcDbEntity
  8
0
  6
Continuous
 62
     7
370
    18
100
AcDbLine
 10
220.9163739635
 20
121.8227331774
 30
0.0
 11
221.1298446074
 21
121.8494170079
 31
0.0
  0
SPLINE
  5
237
330
1F
100
AcDbEntity
  8
0
  6
Continuous
 62
     7
370
    18
100
AcDbSpline
210
0.0
220
0.0
230
1.0
 70
     8
 71
     3
 72
    12
 73
     8
 74
     0
 42
0.000000001
 43
0.00000001
 40
0.0
 40
0.0
 40
0.0
 40
0.0
 40
0.1865885886654281
 40
0.3730457041861916
 40
0.5597053661028952
 40
0.7796179230979429
 40
1.0
 40
1.0
 40
1.0
 40
1.0
 10
221.4462981596539
 20
121.2356889066083
 30
0.0
 10
221.3914811863876
 20
121.2400507546531
 30
0.0
 10
221.2818858647242
 20
121.2487713773186
 30
0.0
 10
221.1361923898
 20
121.3325877405975
 30
0.0
 10
221.0171451914299
 20
121.4606262876452
 30
0.0
 10
220.9402047932236
 20
121.6309277566623
 30
0.0
 10
220.9243232186334
 20
121.7587526007065
 30
0.0
 10
220.9163739634684
 20
121.8227331774416
 30
0.0
  0
SPLINE
  5
238
330
1F
100
AcDbEntity
  8
0
  6
Continuous
 62
     7
370
    18
100
AcDbSpline
210
0.0
220
0.0
230
1.0
 70
     8
 71
     3
 72
    13
 73
     9
 74
     0
 42
0.000000001
 43
0.00000001
 40
0.0
 40
0.0
 40
0.0
 40
0.0
 40
0.1868890796518115
 40
0.3736670037034779
 40
0.5603596573753064
 40
0.7069433013335574
 40
0.8533827747571261
 40
1.0
 40
1.0
 40
1.0
 40
1.0
 10
222.0104110136578
 20
121.961989417824
 30
0.0
 10
222.0073174336156
 20
121.898070599007
 30
0.0
 10
222.0011321134929
 20
121.770270978226
 30
0.0
 10
221.9439687978516
 20
121.585499102518
 30
0.0
 10
221.8531847853358
 20
121.4307340403846
 30
0.0
 10
221.7353156907417
 20
121.3144743575215
 30
0.0
 10
221.5971316195429
 20
121.2462382011873
 30
0.0
 10
221.4965963059849
 20
121.2392067597612
 30
0.0
 10
221.4462981596539
 20
121.2356889066083
 30
0.0
  0
LINE
  5
239
330
1F
100
AcDbEntity
  8
0
  6
Continuous
 62
     7
370
    18
100
AcDbLine
 10
219.7243572232
 20
121.2623727371
 30
0.0
 11
219.2352926424
 21
123.0556095332
 31
0.0
  0
LINE
  5
23A
330
1F
100
AcDbEntity
  8
0
  6
Continuous
 62
     7
370
    18
100
AcDbLine
 10
219.9428310853
 20
121.2623727371
 30
0.0
 11
219.7243572232
 21
121.2623727371
 31
0.0
  0
LINE
  5
23B
330
1F
100
AcDbEntity
  8
0
  6
Continuous
 62
     7
370
    18
100
AcDbLine
 10
220.4360650146
 20
122.9584637128
 30
0.0
 11
219.9428310853
 21
121.2623727371
 31
0.0
  0
LINE
  5
23C
330
1F
100
AcDbEntity
  8
0
  6
Continuous
 62
     7
370
    18
100
AcDbLine
 10
220.4360650146
 20
121.2623727371
 30
0.0
 11
220.4360650146
 21
122.9584637128
 31
0.0
  0
LINE
  5
23D
330
1F
100
AcDbEntity
  8
0
  6
Continuous
 62
     7
370
    18
100
AcDbLine
 10
220.6495356585
 20
121.2623727371
 30
0.0
 11
220.4360650146
 21
121.2623727371
 31
0.0
  0
LINE
  5
23E
330
1F
100
AcDbEntity
  8
0
  6
Continuous
 62
     7
370
    18
100
AcDbLine
 10
220.6495356585
 20
123.317027685
 30
0.0
 11
220.6495356585
 21
121.2623727371
 31
0.0
  0
LINE
  5
23F
330
1F
100
AcDbEntity
  8
0
  6
Continuous
 62
     7
370
    18
100
AcDbLine
 10
220.3472578912
 20
123.317027685
 30
0.0
 11
220.6495356585
 21
123.317027685
 31
0.0
  0
LINE
  5
240
330
1F
100
AcDbEntity
  8
0
  6
Continuous
 62
     7
370
    18
100
AcDbLine
 10
219.9286553004
 20
121.8873580794
 30
0.0
 11
220.3472578912
 21
123.317027685
 31
0.0
  0
SPLINE
  5
241
330
1F
100
AcDbEntity
  8
0
  6
Continuous
 62
     7
370
    18
100
AcDbSpline
210
0.0
220
0.0
230
1.0
 70
     8
 71
     3
 72
     9
 73
     5
 74
     0
 42
0.000000001
 43
0.00000001
 40
0.0
 40
0.0
 40
0.0
 40
0.0
 40
0.5599947003108211
 40
1.0
 40
1.0
 40
1.0
 40
1.0
 10
219.8356788285252
 20
121.5579795467746
 30
0.0
 10
219.8526087348432
 20
121.6195833428035
 30
0.0
 10
219.8828409965209
 20
121.7295911625109
 30
0.0
 10
219.9146563682325
 20
121.8391511182545
 30
0.0
 10
219.9286553003972
 20
121.8873580794155
 30
0.0
  0
LINE
  5
242
330
1F
100
AcDbEntity
  8
0
  6
Continuous
 62
     7
370
    18
100
AcDbLine
 10
219.755627337
 20
121.8623419883
 30
0.0
 11
219.8356788285
 21
121.5579795468
 31
0.0
  0
LINE
  5
243
330
1F
100
AcDbEntity
  8
0
  6
Continuous
 62
     7
370
    18
100
AcDbLine
 10
219.3557868145
 20
123.317027685
 30
0.0
 11
219.755627337
 21
121.8623419883
 31
0.0
  0
LINE
  5
244
330
1F
100
AcDbEntity
  8
0
  6
Continuous
 62
     7
370
    18
100
AcDbLine
 10
219.0218219985
 20
123.317027685
 30
0.0
 11
219.3557868145
 21
123.317027685
 31
0.0
  0
LINE
  5
245
330
1F
100
AcDbEntity
  8
0
  6
Continuous
 62
     7
370
    18
100
AcDbLine
 10
219.0218219985
 20
121.2623727371
 30
0.0
 11
219.0218219985
 21
123.317027685
 31
0.0
  0
LINE
  5
246
330
1F
100
AcDbEntity
  8
0
  6
Continuous
 62
     7
370
    18
100
AcDbLine
 10
219.2352926424
 20
121.2623727371
 30
0.0
 11
219.0218219985
 21
121.2623727371
 31
0.0
  0
LINE
  5
247
330
1F
100
AcDbEntity
  8
0
  6
Continuous
 62
     7
370
    18
100
AcDbLine
 10
219.2352926424
 20
123.0556095332
 30
0.0
 11
219.2352926424
 21
121.2623727371
 31
0.0
  0
SPLINE
  5
248
330
1F
100
AcDbEntity
  8
0
  6
Continuous
 62
     7
370
    18
100
AcDbSpline
210
0.0
220
0.0
230
1.0
 70
     8
 71
     3
 72
    14
 73
    10
 74
     0
 42
0.000000001
 43
0.00000001
 40
0.0
 40
0.0
 40
0.0
 40
0.0
 40
0.1250267645254226
 40
0.2499561862380693
 40
0.3747506313882876
 40
0.4996959194189215
 40
0.6663177050472587
 40
0.8330998507676255
 40
0.9999999999999999
 40
0.9999999999999999
 40
0.9999999999999999
 40
0.9999999999999999
 10
218.0374388142467
 20
123.103557041078
 30
0.0
 10
217.9914112260332
 20
123.1007407107682
 30
0.0
 10
217.8993918855723
 20
123.0951102428753
 30
0.0
 10
217.7693041758773
 20
123.0426519438188
 30
0.0
 10
217.6614500341544
 20
122.9541219315224
 30
0.0
 10
217.5746462307042
 20
122.8265645711952
 30
0.0
 10
217.5119314945762
 20
122.6690137944273
 30
0.0
 10
217.4789405775005
 20
122.487294970316
 30
0.0
 10
217.475753788123
 20
122.3647521429045
 30
0.0
 10
217.4741598299457
 20
122.3034590611567
 30
0.0
  0
SPLINE
  5
249
330
1F
100
AcDbEntity
  8
0
  6
Continuous
 62
     7
370
    18
100
AcDbSpline
210
0.0
220
0.0
230
1.0
 70
     8
 71
     3
 72
    11
 73
     7
 74
     0
 42
0.000000001
 43
0.00000001
 40
0.0
 40
0.0
 40
0.0
 40
0.0
 40
0.2807713074051744
 40
0.5604369820882221
 40
0.7800147849953779
 40
1.0
 40
1.0
 40
1.0
 40
1.0
 10
218.4881453886578
 20
122.6766157531992
 30
0.0
 10
218.4695519638116
 20
122.7370047355156
 30
0.0
 10
218.4324383320671
 20
122.8575448979471
 30
0.0
 10
218.3287670043201
 20
123.0038118004081
 30
0.0
 10
218.1866163288109
 20
123.0915863172274
 30
0.0
 10
218.0871953687752
 20
123.0995643349671
 30
0.0
 10
218.0374388142467
 20
123.103557041078
 30
0.0
  0
LINE
  5
24A
330
1F
100
AcDbEntity
  8
0
  6
Continuous
 62
     7
370
    18
100
AcDbLine
 10
218.7016160326
 20
122.7299834142
 30
0.0
 11
218.4881453887
 21
122.6766157532
 31
0.0
  0
SPLINE
  5
24B
330
1F
100
AcDbEntity
  8
0
  6
Continuous
 62
     7
370
    18
100
AcDbSpline
210
0.0
220
0.0
230
1.0
 70
     8
 71
     3
 72
    12
 73
     8
 74
     0
 42
0.000000001
 43
0.00000001
 40
0.0
 40
0.0
 40
0.0
 40
0.0
 40
0.1866161660947037
 40
0.3730652985771154
 40
0.5597027812570794
 40
0.7796715026895128
 40
1.0
 40
1.0
 40
1.0
 40
1.0
 10
218.046194446127
 20
123.3437115155098
 30
0.0
 10
218.107154671148
 20
123.3392537022714
 30
0.0
 10
218.2290205578219
 20
123.3303420658275
 30
0.0
 10
218.3966929682875
 20
123.2489570745087
 30
0.0
 10
218.5396614563048
 20
123.116432647092
 30
0.0
 10
218.6444508101247
 20
122.9375720151751
 30
0.0
 10
218.6825505810719
 20
122.7992172986722
 30
0.0
 10
218.7016160325972
 20
122.7299834141841
 30
0.0
  0
SPLINE
  5
24C
330
1F
100
AcDbEntity
  8
0
  6
Continuous
 62
     7
370
    18
100
AcDbSpline
210
0.0
220
0.0
230
1.0
 70
     8
 71
     3
 72
    13
 73
     9
 74
     0
 42
0.000000001
 43
0.00000001
 40
0.0
 40
0.0
 40
0.0
 40
0.0
 40
0.1869886270143204
 40
0.3737840604657709
 40
0.5603785113196423
 40
0.7069405280508668
 40
0.8534458164057752
 40
1.0
 40
1.0
 40
1.0
 40
1.0
 10
217.2606891860063
 20
122.3034590611567
 30
0.0
 10
217.2639164433498
 20
122.3945158678341
 30
0.0
 10
217.2703676236878
 20
122.5765354027992
 30
0.0
 10
217.339516578128
 20
122.8426770552001
 30
0.0
 10
217.4636107257651
 20
123.0676486981439
 30
0.0
 10
217.6356056150386
 20
123.2291545783762
 30
0.0
 10
217.8314550250905
 20
123.32691588213
 30
0.0
 10
217.9746066777794
 20
123.3381123483618
 30
0.0
 10
218.046194446127
 20
123.3437115155098
 30
0.0
  0
SPLINE
  5
24D
330
1F
100
AcDbEntity
  8
0
  6
Continuous
 62
     7
370
    18
100
AcDbSpline
210
0.0
220
0.0
230
1.0
 70
     8
 71
     3
 72
    14
 73
    10
 74
     0
 42
0.000000001
 43
0.00000001
 40
0.0
 40
0.0
 40
0.0
 40
0.0
 40
0.1249789553015523
 40
0.2498098163504303
 40
0.3745823232578691
 40
0.4995715195159088
 40
0.6662781166416183
 40
0.8331039635850086
 40
1.0
 40
1.0
 40
1.0
 40
1.0
 10
218.0270154429606
 20
121.2356889066083
 30
0.0
 10
217.9653712091433
 20
121.2391770426451
 30
0.0
 10
217.8421557870603
 20
121.2461491814397
 30
0.0
 10
217.6674612760868
 20
121.3153502116686
 30
0.0
 10
217.5232344311478
 20
121.4344426467504
 30
0.0
 10
217.407572954646
 20
121.6056136636548
 30
0.0
 10
217.319786738013
 20
121.8147798623558
 30
0.0
 10
217.2683909594845
 20
122.057077606972
 30
0.0
 10
217.2632568037764
 20
122.2213203950694
 30
0.0
 10
217.2606891860063
 20
122.3034590611567
 30
0.0
  0
SPLINE
  5
24E
330
1F
100
AcDbEntity
  8
0
  6
Continuous
 62
     7
370
    18
100
AcDbSpline
210
0.0
220
0.0
230
1.0
 70
     8
 71
     3
 72
    13
 73
     9
 74
     0
 42
0.000000001
 43
0.00000001
 40
0.0
 40
0.0
 40
0.0
 40
0.0
 40
0.1869090516643044
 40
0.3736796016941308
 40
0.5601136847103888
 40
0.706731195918375
 40
0.8533138294591283
 40
1.0
 40
1.0
 40
1.0
 40
1.0
 10
218.7282998630896
 20
121.9294684994113
 30
0.0
 10
218.7124459873045
 20
121.8641403464386
 30
0.0
 10
218.6807499836282
 20
121.733532449363
 30
0.0
 10
218.5956869862094
 20
121.5495372630231
 30
0.0
 10
218.4780088216927
 20
121.4012179675491
 30
0.0
 10
218.3355992338976
 20
121.3013663624622
 30
0.0
 10
218.185448796964
 20
121.2448616443106
 30
0.0
 10
218.0798389892897
 20
121.2387472053992
 30
0.0
 10
218.0270154429606
 20
121.2356889066083
 30
0.0
  0
LINE
  5
24F
330
1F
100
AcDbEntity
  8
0
  6
Continuous
 62
     7
370
    18
100
AcDbLine
 10
218.5148292192
 20
121.9828361604
 30
0.0
 11
218.7282998631
 21
121.9294684994
 31
0.0
  0
SPLINE
  5
250
330
1F
100
AcDbEntity
  8
0
  6
Continuous
 62
     7
370
    18
100
AcDbSpline
210
0.0
220
0.0
230
1.0
 70
     8
 71
     3
 72
    12
 73
     8
 74
     0
 42
0.000000001
 43
0.00000001
 40
0.0
 40
0.0
 40
0.0
 40
0.0
 40
0.1865921528409341
 40
0.3730589116156806
 40
0.5596226295490504
 40
0.7796100104163901
 40
1.0
 40
1.0
 40
1.0
 40
1.0
 10
218.0203444853375
 20
121.4758433810401
 30
0.0
 10
218.0688386406382
 20
121.4796330322898
 30
0.0
 10
218.1657943620915
 20
121.4872097880594
 30
0.0
 10
218.2964255393675
 20
121.557791034868
 30
0.0
 10
218.4051636985188
 20
121.6682086473752
 30
0.0
 10
218.4784848269944
 20
121.8158085373698
 30
0.0
 10
218.5027070401609
 20
121.9271263624772
 30
0.0
 10
218.5148292191502
 20
121.9828361603962
 30
0.0
  0
SPLINE
  5
251
330
1F
100
AcDbEntity
  8
0
  6
Continuous
 62
     7
370
    18
100
AcDbSpline
210
0.0
220
0.0
230
1.0
 70
     8
 71
     3
 72
    14
 73
    10
 74
     0
 42
0.000000001
 43
0.00000001
 40
0.0
 40
0.0
 40
0.0
 40
0.0
 40
0.1669299867484124
 40
0.3337709048041629
 40
0.5004211293286659
 40
0.6254239239505632
 40
0.7503194582828524
 40
0.8750931289475059
 40
1.0
 40
1.0
 40
1.0
 40
1.0
 10
217.4741598299457
 20
122.3034590611567
 30
0.0
 10
217.4754895658762
 20
122.2415121228961
 30
0.0
 10
217.4781483282311
 20
122.1176512993504
 30
0.0
 10
217.5082945164835
 20
121.9339563238017
 30
0.0
 10
217.5628747916315
 20
121.7713062590601
 30
0.0
 10
217.648644938929
 20
121.6410116659961
 30
0.0
 10
217.7522282125025
 20
121.5462478109738
 30
0.0
 10
217.8808113842733
 20
121.4854464786364
 30
0.0
 10
217.9738169126854
 20
121.4790455518346
 30
0.0
 10
218.0203444853375
 20
121.4758433810401
 30
0.0
  0
CIRCLE
  5
252
330
1F
100
AcDbEntity
  8
0
  6
Continuous
 62
     7
370
    18
100
AcDbCircle
 10
225.8929083503
 20
124.6512192096
 30
0.0
 40
25.19999999999999
  0
SPLINE
  5
253
330
1F
100
AcDbEntity
  8
0
  6
Continuous
 62
     7
370
    18
100
AcDbSpline
210
0.0
220
0.0
230
1.0
 70
     8
 71
     3
 72
    13
 73
     9
 74
     0
 42
0.000000001
 43
0.00000001
 40
0.0
 40
0.0
 40
0.0
 40
0.0
 40
0.123734574999409
 40
0.2484232101745704
 40
0.3734713343328628
 40
0.4987444967637464
 40
0.7493102257733253
 40
1.0
 40
1.0
 40
1.0
 40
1.0
 10
232.702288344091
 20
121.4491595505477
 30
0.0
 10
232.7433727402806
 20
121.4565227923005
 30
0.0
 10
232.825858315469
 20
121.4713060503635
 30
0.0
 10
232.9100528851714
 20
121.5690188444343
 30
0.0
 10
232.9671226077272
 20
121.6777609270505
 30
0.0
 10
233.006292805143
 20
121.8385540341464
 30
0.0
 10
233.0275601280667
 20
122.0431110180061
 30
0.0
 10
233.0297418674039
 20
122.2074902537843
 30
0.0
 10
233.030833007029
 20
122.2897002110591
 30
0.0
  0
SPLINE
  5
254
330
1F
100
AcDbEntity
  8
0
  6
Continuous
 62
     7
370
    18
100
AcDbSpline
210
0.0
220
0.0
230
1.0
 70
     8
 71
     3
 72
    13
 73
     9
 74
     0
 42
0.000000001
 43
0.00000001
 40
0.0
 40
0.0
 40
0.0
 40
0.0
 40
0.2506668541570194
 40
0.5012048357437092
 40
0.6264537829510469
 40
0.7514291871594903
 40
0.8760522367173409
 40
1.0
 40
1.0
 40
1.0
 40
1.0
 10
232.3637372447184
 20
122.2897002110591
 30
0.0
 10
232.364785551535
 20
122.206754975264
 30
0.0
 10
232.3668816262138
 20
122.0409071473884
 30
0.0
 10
232.3887007252526
 20
121.8345331450106
 30
0.0
 10
232.4288032055231
 20
121.6724787615748
 30
0.0
 10
232.48817454714
 20
121.5633732584556
 30
0.0
 10
232.5772759064877
 20
121.4686829329968
 30
0.0
 10
232.6606930706829
 20
121.4556555476372
 30
0.0
 10
232.702288344091
 20
121.4491595505477
 30
0.0
  0
SPLINE
  5
255
330
1F
100
AcDbEntity
  8
0
  6
Continuous
 62
     7
370
    18
100
AcDbSpline
210
0.0
220
0.0
230
1.0
 70
     8
 71
     3
 72
    13
 73
     9
 74
     0
 42
0.000000001
 43
0.00000001
 40
0.0
 40
0.0
 40
0.0
 40
0.0
 40
0.1236770548154448
 40
0.2483884878623324
 40
0.3734455614730983
 40
0.4987169325064009
 40
0.7492948497723043
 40
1.0
 40
1.0
 40
1.0
 40
1.0
 10
232.6897802985477
 20
123.1302408715704
 30
0.0
 10
232.6487917338934
 20
123.1227476723107
 30
0.0
 10
232.5664717950064
 20
123.1076986041051
 30
0.0
 10
232.4833580755848
 20
123.0093412637749
 30
0.0
 10
232.4266250265116
 20
122.9007074424389
 30
0.0
 10
232.388609232519
 20
122.7399254132746
 30
0.0
 10
232.3668644837767
 20
122.5358765033383
 30
0.0
 10
232.3647798341094
 20
122.3717728591191
 30
0.0
 10
232.3637372447184
 20
122.2897002110591
 30
0.0
  0
SPLINE
  5
256
330
1F
100
AcDbEntity
  8
0
  6
Continuous
 62
     7
370
    18
100
AcDbSpline
210
0.0
220
0.0
230
1.0
 70
     8
 71
     3
 72
    13
 73
     9
 74
     0
 42
0.000000001
 43
0.00000001
 40
0.0
 40
0.0
 40
0.0
 40
0.0
 40
0.2506736071386394
 40
0.5012152607337963
 40
0.6264526015104145
 40
0.751449749880542
 40
0.8760271183236299
 40
1.0
 40
1.0
 40
1.0
 40
1.0
 10
233.030833007029
 20
122.2897002110591
 30
0.0
 10
233.0297945041169
 20
122.3728463648129
 30
0.0
 10
233.0277180449564
 20
122.5390949045312
 30
0.0
 10
233.0058038005452
 20
122.745986032335
 30
0.0
 10
232.9654113453086
 20
122.9083616080653
 30
0.0
 10
232.9056437145584
 20
123.0177023553248
 30
0.0
 10
232.8151236292057
 20
123.1114406070262
 30
0.0
 10
232.7314936112906
 20
123.1239842856758
 30
0.0
 10
232.6897802985477
 20
123.1302408715704
 30
0.0
  0
SPLINE
  5
257
330
1F
100
AcDbEntity
  8
0
  6
Continuous
 62
     7
370
    18
100
AcDbSpline
210
0.0
220
0.0
230
1.0
 70
     8
 71
     3
 72
    13
 73
     9
 74
     0
 42
0.000000001
 43
0.00000001
 40
0.0
 40
0.0
 40
0.0
 40
0.0
 40
0.1237345749994106
 40
0.2484232101745695
 40
0.3734713343328635
 40
0.498744496763747
 40
0.7493102257733218
 40
1.0
 40
1.0
 40
1.0
 40
1.0
 10
228.7797652617047
 20
121.4491595505477
 30
0.0
 10
228.8208496578943
 20
121.4565227923005
 30
0.0
 10
228.9033352330826
 20
121.4713060503635
 30
0.0
 10
228.987529802785
 20
121.5690188444343
 30
0.0
 10
229.0445995253409
 20
121.6777609270504
 30
0.0
 10
229.0837697227566
 20
121.8385540341464
 30
0.0
 10
229.1050370456803
 20
122.0431110180061
 30
0.0
 10
229.1072187850176
 20
122.2074902537843
 30
0.0
 10
229.1083099246426
 20
122.2897002110591
 30
0.0
  0
SPLINE
  5
258
330
1F
100
AcDbEntity
  8
0
  6
Continuous
 62
     7
370
    18
100
AcDbSpline
210
0.0
220
0.0
230
1.0
 70
     8
 71
     3
 72
    13
 73
     9
 74
     0
 42
0.000000001
 43
0.00000001
 40
0.0
 40
0.0
 40
0.0
 40
0.0
 40
0.2506668541570157
 40
0.5012048357437089
 40
0.6264537829510467
 40
0.7514291871594885
 40
0.8760522367173378
 40
1.0
 40
1.0
 40
1.0
 40
1.0
 10
228.441214162332
 20
122.2897002110591
 30
0.0
 10
228.4422624691486
 20
122.2067549752641
 30
0.0
 10
228.4443585438274
 20
122.0409071473884
 30
0.0
 10
228.4661776428663
 20
121.8345331450106
 30
0.0
 10
228.5062801231367
 20
121.6724787615748
 30
0.0
 10
228.5656514647536
 20
121.5633732584556
 30
0.0
 10
228.6547528241013
 20
121.4686829329968
 30
0.0
 10
228.7381699882965
 20
121.4556555476372
 30
0.0
 10
228.7797652617047
 20
121.4491595505477
 30
0.0
  0
SPLINE
  5
259
330
1F
100
AcDbEntity
  8
0
  6
Continuous
 62
     7
370
    18
100
AcDbSpline
210
0.0
220
0.0
230
1.0
 70
     8
 71
     3
 72
    13
 73
     9
 74
     0
 42
0.000000001
 43
0.00000001
 40
0.0
 40
0.0
 40
0.0
 40
0.0
 40
0.1236770548154465
 40
0.2483884878623316
 40
0.3734455614730943
 40
0.4987169325064012
 40
0.7492948497723044
 40
1.0
 40
1.0
 40
1.0
 40
1.0
 10
228.7672572161613
 20
123.1302408715704
 30
0.0
 10
228.726268651507
 20
123.1227476723107
 30
0.0
 10
228.64394871262
 20
123.1076986041051
 30
0.0
 10
228.5608349931985
 20
123.0093412637749
 30
0.0
 10
228.5041019441252
 20
122.9007074424389
 30
0.0
 10
228.4660861501326
 20
122.7399254132747
 30
0.0
 10
228.4443414013903
 20
122.5358765033383
 30
0.0
 10
228.442256751723
 20
122.3717728591191
 30
0.0
 10
228.441214162332
 20
122.2897002110591
 30
0.0
  0
SPLINE
  5
25A
330
1F
100
AcDbEntity
  8
0
  6
Continuous
 62
     7
370
    18
100
AcDbSpline
210
0.0
220
0.0
230
1.0
 70
     8
 71
     3
 72
    13
 73
     9
 74
     0
 42
0.000000001
 43
0.00000001
 40
0.0
 40
0.0
 40
0.0
 40
0.0
 40
0.250673607138639
 40
0.5012152607337989
 40
0.6264526015104125
 40
0.7514497498805428
 40
0.8760271183236269
 40
1.0
 40
1.0
 40
1.0
 40
1.0
 10
229.1083099246426
 20
122.2897002110591
 30
0.0
 10
229.1072714217305
 20
122.3728463648129
 30
0.0
 10
229.10519496257
 20
122.5390949045312
 30
0.0
 10
229.0832807181588
 20
122.745986032335
 30
0.0
 10
229.0428882629222
 20
122.9083616080653
 30
0.0
 10
228.983120632172
 20
123.0177023553248
 30
0.0
 10
228.8926005468193
 20
123.1114406070262
 30
0.0
 10
228.8089705289042
 20
123.1239842856758
 30
0.0
 10
228.7672572161613
 20
123.1302408715704
 30
0.0
  0
SPLINE
  5
25B
330
1F
100
AcDbEntity
  8
0
  6
Continuous
 62
     7
370
    18
100
AcDbSpline
210
0.0
220
0.0
230
1.0
 70
     8
 71
     3
 72
    13
 73
     9
 74
     0
 42
0.000000001
 43
0.00000001
 40
0.0
 40
0.0
 40
0.0
 40
0.0
 40
0.1237345749994072
 40
0.248423210174571
 40
0.3734713343328633
 40
0.4987444967637468
 40
0.7493102257733256
 40
1.0
 40
1.0
 40
1.0
 40
1.0
 10
227.4722575675759
 20
121.4491595505477
 30
0.0
 10
227.5133419637655
 20
121.4565227923005
 30
0.0
 10
227.5958275389538
 20
121.4713060503635
 30
0.0
 10
227.6800221086563
 20
121.5690188444343
 30
0.0
 10
227.7370918312121
 20
121.6777609270505
 30
0.0
 10
227.7762620286278
 20
121.8385540341464
 30
0.0
 10
227.7975293515516
 20
122.0431110180061
 30
0.0
 10
227.7997110908888
 20
122.2074902537843
 30
0.0
 10
227.8008022305139
 20
122.2897002110591
 30
0.0
  0
SPLINE
  5
25C
330
1F
100
AcDbEntity
  8
0
  6
Continuous
 62
     7
370
    18
100
AcDbSpline
210
0.0
220
0.0
230
1.0
 70
     8
 71
     3
 72
    13
 73
     9
 74
     0
 42
0.000000001
 43
0.00000001
 40
0.0
 40
0.0
 40
0.0
 40
0.0
 40
0.2506668541570157
 40
0.5012048357437089
 40
0.6264537829510467
 40
0.7514291871594885
 40
0.8760522367173378
 40
1.0
 40
1.0
 40
1.0
 40
1.0
 10
227.1337064682033
 20
122.2897002110591
 30
0.0
 10
227.1347547750198
 20
122.2067549752641
 30
0.0
 10
227.1368508496986
 20
122.0409071473884
 30
0.0
 10
227.1586699487375
 20
121.8345331450106
 30
0.0
 10
227.198772429008
 20
121.6724787615748
 30
0.0
 10
227.2581437706248
 20
121.5633732584556
 30
0.0
 10
227.3472451299726
 20
121.4686829329968
 30
0.0
 10
227.4306622941677
 20
121.4556555476372
 30
0.0
 10
227.4722575675759
 20
121.4491595505477
 30
0.0
  0
SPLINE
  5
25D
330
1F
100
AcDbEntity
  8
0
  6
Continuous
 62
     7
370
    18
100
AcDbSpline
210
0.0
220
0.0
230
1.0
 70
     8
 71
     3
 72
    13
 73
     9
 74
     0
 42
0.000000001
 43
0.00000001
 40
0.0
 40
0.0
 40
0.0
 40
0.0
 40
0.1236770548154433
 40
0.2483884878623311
 40
0.3734455614730972
 40
0.4987169325063999
 40
0.749294849772304
 40
1.0
 40
1.0
 40
1.0
 40
1.0
 10
227.4597495220326
 20
123.1302408715704
 30
0.0
 10
227.4187609573782
 20
123.1227476723107
 30
0.0
 10
227.3364410184912
 20
123.1076986041051
 30
0.0
 10
227.2533272990697
 20
123.0093412637749
 30
0.0
 10
227.1965942499965
 20
122.9007074424389
 30
0.0
 10
227.1585784560039
 20
122.7399254132746
 30
0.0
 10
227.1368337072615
 20
122.5358765033383
 30
0.0
 10
227.1347490575942
 20
122.3717728591191
 30
0.0
 10
227.1337064682033
 20
122.2897002110591
 30
0.0
  0
SPLINE
  5
25E
330
1F
100
AcDbEntity
  8
0
  6
Continuous
 62
     7
370
    18
100
AcDbSpline
210
0.0
220
0.0
230
1.0
 70
     8
 71
     3
 72
    13
 73
     9
 74
     0
 42
0.000000001
 43
0.00000001
 40
0.0
 40
0.0
 40
0.0
 40
0.0
 40
0.2506736071386388
 40
0.5012152607337987
 40
0.6264526015104133
 40
0.7514497498805405
 40
0.8760271183236269
 40
1.0
 40
1.0
 40
1.0
 40
1.0
 10
227.8008022305139
 20
122.2897002110591
 30
0.0
 10
227.7997637276018
 20
122.3728463648129
 30
0.0
 10
227.7976872684413
 20
122.5390949045312
 30
0.0
 10
227.77577302403
 20
122.745986032335
 30
0.0
 10
227.7353805687934
 20
122.9083616080653
 30
0.0
 10
227.6756129380433
 20
123.0177023553248
 30
0.0
 10
227.5850928526905
 20
123.1114406070262
 30
0.0
 10
227.5014628347755
 20
123.1239842856758
 30
0.0
 10
227.4597495220326
 20
123.1302408715704
 30
0.0
  0
SPLINE
  5
25F
330
1F
100
AcDbEntity
  8
0
  6
Continuous
 62
     7
370
    18
100
AcDbSpline
210
0.0
220
0.0
230
1.0
 70
     8
 71
     3
 72
    12
 73
     8
 74
     0
 42
0.000000001
 43
0.00000001
 40
0.0
 40
0.0
 40
0.0
 40
0.0
 40
0.1864266110451024
 40
0.3728066183672696
 40
0.5596384089196407
 40
0.7795953861027516
 40
1.0
 40
1.0
 40
1.0
 40
1.0
 10
224.079658681375
 20
121.4491595505477
 30
0.0
 10
224.1164529247741
 20
121.4527152181363
 30
0.0
 10
224.1900322135896
 20
121.4598256644525
 30
0.0
 10
224.2848267116172
 20
121.5217225158857
 30
0.0
 10
224.3599938046043
 20
121.6116836978462
 30
0.0
 10
224.4052684567872
 20
121.7289446659876
 30
0.0
 10
224.4097251474735
 20
121.8153453290829
 30
0.0
 10
224.411955757976
 20
121.8585895746658
 30
0.0
  0
SPLINE
  5
260
330
1F
100
AcDbEntity
  8
0
  6
Continuous
 62
     7
370
    18
100
AcDbSpline
210
0.0
220
0.0
230
1.0
 70
     8
 71
     3
 72
    11
 73
     7
 74
     0
 42
0.000000001
 43
0.00000001
 40
0.0
 40
0.0
 40
0.0
 40
0.0
 40
0.2807261943832877
 40
0.5603972916125637
 40
0.7804346209650579
 40
1.0
 40
1.0
 40
1.0
 40
1.0
 10
223.7448599956653
 20
121.8669282716947
 30
0.0
 10
223.7484347355828
 20
121.8108956594744
 30
0.0
 10
223.7555707799137
 20
121.6990410311621
 30
0.0
 10
223.8340815838683
 20
121.5606656054434
 30
0.0
 10
223.9478168850153
 20
121.4658635677387
 30
0.0
 10
224.0357428812282
 20
121.4547235697045
 30
0.0
 10
224.079658681375
 20
121.4491595505477
 30
0.0
  0
SPLINE
  5
261
330
1F
100
AcDbEntity
  8
0
  6
Continuous
 62
     7
370
    18
100
AcDbSpline
210
0.0
220
0.0
230
1.0
 70
     8
 71
     3
 72
    11
 73
     7
 74
     0
 42
0.000000001
 43
0.00000001
 40
0.0
 40
0.0
 40
0.0
 40
0.0
 40
0.2782055765816071
 40
0.5579799253701283
 40
0.7788219222535234
 40
1.0
 40
1.0
 40
1.0
 40
1.0
 10
224.0742385283062
 20
122.2763582958129
 30
0.0
 10
224.0195542529049
 20
122.2671685433495
 30
0.0
 10
223.9098773431813
 20
122.248737218368
 30
0.0
 10
223.8046328267073
 20
122.1272655703695
 30
0.0
 10
223.7515555366636
 20
121.9962648839099
 30
0.0
 10
223.7470929736707
 20
121.9100623232139
 30
0.0
 10
223.7448599956653
 20
121.8669282716947
 30
0.0
  0
SPLINE
  5
262
330
1F
100
AcDbEntity
  8
0
  6
Continuous
 62
     7
370
    18
100
AcDbSpline
210
0.0
220
0.0
230
1.0
 70
     8
 71
     3
 72
    11
 73
     7
 74
     0
 42
0.000000001
 43
0.00000001
 40
0.0
 40
0.0
 40
0.0
 40
0.0
 40
0.2807535301687743
 40
0.5603207228591549
 40
0.7803822345379182
 40
1.0
 40
1.0
 40
1.0
 40
1.0
 10
224.411955757976
 20
121.8585895746658
 30
0.0
 10
224.4082715542785
 20
121.9148285254171
 30
0.0
 10
224.4009187146626
 20
122.0270687865418
 30
0.0
 10
224.3207935906683
 20
122.1651080685414
 30
0.0
 10
224.2065592589169
 20
122.2598548829166
 30
0.0
 10
224.1183157519296
 20
122.2708608607744
 30
0.0
 10
224.0742385283062
 20
122.2763582958129
 30
0.0
  0
SPLINE
  5
263
330
1F
100
AcDbEntity
  8
0
  6
Continuous
 62
     7
370
    18
100
AcDbSpline
210
0.0
220
0.0
230
1.0
 70
     8
 71
     3
 72
    11
 73
     7
 74
     0
 42
0.000000001
 43
0.00000001
 40
0.0
 40
0.0
 40
0.0
 40
0.0
 40
0.2783889696083859
 40
0.5580817055296794
 40
0.7789018539988231
 40
1.0
 40
1.0
 40
1.0
 40
1.0
 10
224.079658681375
 20
122.4898289397523
 30
0.0
 10
224.1216457277904
 20
122.4969944001911
 30
0.0
 10
224.205816456633
 20
122.5113588787414
 30
0.0
 10
224.2859198523829
 20
122.6050527239427
 30
0.0
 10
224.3269353141579
 20
122.7053720548341
 30
0.0
 10
224.330247254571
 20
122.7715199827812
 30
0.0
 10
224.3319042664987
 20
122.8046147525926
 30
0.0
  0
SPLINE
  5
264
330
1F
100
AcDbEntity
  8
0
  6
Continuous
 62
     7
370
    18
100
AcDbSpline
210
0.0
220
0.0
230
1.0
 70
     8
 71
     3
 72
    11
 73
     7
 74
     0
 42
0.000000001
 43
0.00000001
 40
0.0
 40
0.0
 40
0.0
 40
0.0
 40
0.2806987831964735
 40
0.5604086902325248
 40
0.7804393617933071
 40
1.0
 40
1.0
 40
1.0
 40
1.0
 10
223.8249114871426
 20
122.8183736026902
 30
0.0
 10
223.8273391705738
 20
122.7748164554478
 30
0.0
 10
223.8321859849292
 20
122.6878556088119
 30
0.0
 10
223.8894559847265
 20
122.5783567129231
 30
0.0
 10
223.9768764180726
 20
122.5025595466201
 30
0.0
 10
224.0454223578743
 20
122.4940694493605
 30
0.0
 10
224.079658681375
 20
122.4898289397523
 30
0.0
  0
SPLINE
  5
265
330
1F
100
AcDbEntity
  8
0
  6
Continuous
 62
     7
370
    18
100
AcDbSpline
210
0.0
220
0.0
230
1.0
 70
     8
 71
     3
 72
    11
 73
     7
 74
     0
 42
0.000000001
 43
0.00000001
 40
0.0
 40
0.0
 40
0.0
 40
0.0
 40
0.2781848052830349
 40
0.5582334878196251
 40
0.7790790531104528
 40
1.0
 40
1.0
 40
1.0
 40
1.0
 10
224.0771570722663
 20
123.1302408715704
 30
0.0
 10
224.0356001378418
 20
123.1229354898476
 30
0.0
 10
223.9522078316973
 20
123.1082757793187
 30
0.0
 10
223.8727765174168
 20
123.0156469215451
 30
0.0
 10
223.8306384625047
 20
122.9167404150503
 30
0.0
 10
223.8268206960804
 20
122.8511662699297
 30
0.0
 10
223.8249114871426
 20
122.8183736026902
 30
0.0
  0
SPLINE
  5
266
330
1F
100
AcDbEntity
  8
0
  6
Continuous
 62
     7
370
    18
100
AcDbSpline
210
0.0
220
0.0
230
1.0
 70
     8
 71
     3
 72
    11
 73
     7
 74
     0
 42
0.000000001
 43
0.00000001
 40
0.0
 40
0.0
 40
0.0
 40
0.0
 40
0.2805990159984006
 40
0.5604527759419575
 40
0.7805133266133532
 40
1.0
 40
1.0
 40
1.0
 40
1.0
 10
224.3319042664987
 20
122.8046147525926
 30
0.0
 10
224.3292203440007
 20
122.8477540391589
 30
0.0
 10
224.32385962736
 20
122.933918036642
 30
0.0
 10
224.263347108685
 20
123.0398066965931
 30
0.0
 10
224.1786098473904
 20
123.1159604943536
 30
0.0
 10
224.1109452160995
 20
123.1254848908808
 30
0.0
 10
224.0771570722663
 20
123.1302408715704
 30
0.0
  0
SPLINE
  5
267
330
1F
100
AcDbEntity
  8
0
  6
Continuous
 62
     7
370
    18
100
AcDbSpline
210
0.0
220
0.0
230
1.0
 70
     8
 71
     3
 72
    13
 73
     9
 74
     0
 42
0.000000001
 43
0.00000001
 40
0.0
 40
0.0
 40
0.0
 40
0.0
 40
0.1237345749994072
 40
0.248423210174571
 40
0.3734713343328633
 40
0.4987444967637468
 40
0.7493102257733256
 40
1.0
 40
1.0
 40
1.0
 40
1.0
 10
222.7759034009092
 20
121.4491595505477
 30
0.0
 10
222.8169877970988
 20
121.4565227923005
 30
0.0
 10
222.8994733722872
 20
121.4713060503635
 30
0.0
 10
222.9836679419896
 20
121.5690188444343
 30
0.0
 10
223.0407376645454
 20
121.6777609270505
 30
0.0
 10
223.0799078619611
 20
121.8385540341464
 30
0.0
 10
223.1011751848849
 20
122.0431110180061
 30
0.0
 10
223.1033569242221
 20
122.2074902537843
 30
0.0
 10
223.1044480638472
 20
122.2897002110591
 30
0.0
  0
SPLINE
  5
268
330
1F
100
AcDbEntity
  8
0
  6
Continuous
 62
     7
370
    18
100
AcDbSpline
210
0.0
220
0.0
230
1.0
 70
     8
 71
     3
 72
    13
 73
     9
 74
     0
 42
0.000000001
 43
0.00000001
 40
0.0
 40
0.0
 40
0.0
 40
0.0
 40
0.2506668541570161
 40
0.5012048357437091
 40
0.6264537829510479
 40
0.7514291871594883
 40
0.8760522367173376
 40
1.0
 40
1.0
 40
1.0
 40
1.0
 10
222.4373523015366
 20
122.2897002110591
 30
0.0
 10
222.4384006083532
 20
122.2067549752641
 30
0.0
 10
222.440496683032
 20
122.0409071473884
 30
0.0
 10
222.4623157820708
 20
121.8345331450106
 30
0.0
 10
222.5024182623413
 20
121.6724787615748
 30
0.0
 10
222.5617896039582
 20
121.5633732584556
 30
0.0
 10
222.6508909633059
 20
121.4686829329968
 30
0.0
 10
222.7343081275011
 20
121.4556555476372
 30
0.0
 10
222.7759034009092
 20
121.4491595505477
 30
0.0
  0
SPLINE
  5
269
330
1F
100
AcDbEntity
  8
0
  6
Continuous
 62
     7
370
    18
100
AcDbSpline
210
0.0
220
0.0
230
1.0
 70
     8
 71
     3
 72
    13
 73
     9
 74
     0
 42
0.000000001
 43
0.00000001
 40
0.0
 40
0.0
 40
0.0
 40
0.0
 40
0.1236770548154433
 40
0.248388487862331
 40
0.373445561473094
 40
0.4987169325064001
 40
0.7492948497723041
 40
1.0
 40
1.0
 40
1.0
 40
1.0
 10
222.7633953553659
 20
123.1302408715704
 30
0.0
 10
222.7224067907116
 20
123.1227476723107
 30
0.0
 10
222.6400868518246
 20
123.1076986041051
 30
0.0
 10
222.556973132403
 20
123.0093412637749
 30
0.0
 10
222.5002400833298
 20
122.9007074424389
 30
0.0
 10
222.4622242893372
 20
122.7399254132746
 30
0.0
 10
222.4404795405949
 20
122.5358765033383
 30
0.0
 10
222.4383948909275
 20
122.3717728591191
 30
0.0
 10
222.4373523015366
 20
122.2897002110591
 30
0.0
  0
SPLINE
  5
26A
330
1F
100
AcDbEntity
  8
0
  6
Continuous
 62
     7
370
    18
100
AcDbSpline
210
0.0
220
0.0
230
1.0
 70
     8
 71
     3
 72
    13
 73
     9
 74
     0
 42
0.000000001
 43
0.00000001
 40
0.0
 40
0.0
 40
0.0
 40
0.0
 40
0.2506736071386387
 40
0.5012152607337984
 40
0.6264526015104128
 40
0.7514497498805383
 40
0.8760271183236271
 40
1.0
 40
1.0
 40
1.0
 40
1.0
 10
223.1044480638472
 20
122.2897002110591
 30
0.0
 10
223.1034095609351
 20
122.3728463648129
 30
0.0
 10
223.1013331017745
 20
122.5390949045312
 30
0.0
 10
223.0794188573634
 20
122.745986032335
 30
0.0
 10
223.0390264021268
 20
122.9083616080653
 30
0.0
 10
222.9792587713766
 20
123.0177023553248
 30
0.0
 10
222.8887386860238
 20
123.1114406070262
 30
0.0
 10
222.8051086681088
 20
123.1239842856758
 30
0.0
 10
222.7633953553659
 20
123.1302408715704
 30
0.0
  0
CIRCLE
  5
26B
330
1F
100
AcDbEntity
  8
0
  6
Continuous
 62
     7
370
    18
100
AcDbCircle
 10
225.8929083503
 20
124.6512192096
 30
0.0
 40
25.40000000000003
  0
OLE2FRAME
  5
26C
330
1F
100
AcDbEntity
  8
0
100
AcDbOle2Frame
 70
     2
  3
Paintbrush Picture
 10
229.0524258301
 20
33.6996297921
 30
0.0
 11
265.1686469208
 21
28.555479607
 31
0.0
 71
     2
 72
     0
 73
     1
 90
     7296
310
80557333EF78ADA16C40002412788DD94040000000000000000041161DC7B292
310
7040002412788DD94040000000000000000041161DC7B2927040F6DD59E9338E
310
3C4000000000000000007333EF78ADA16C40F6DD59E9338E3C40000000000000
310
00000000000001000000000100000100000001000000000001000000001C0000
310
D0CF11E0A1B11AE1000000000000000000000000000000003E000300FEFF0900
310
0600000000000000000000000100000001000000000000000010000002000000
310
01000000FEFFFFFF0000000000000000FFFFFFFFFFFFFFFFFFFFFFFFFFFFFFFF
310
FFFFFFFFFFFFFFFFFFFFFFFFFFFFFFFFFFFFFFFFFFFFFFFFFFFFFFFFFFFFFFFF
310
FFFFFFFFFFFFFFFFFFFFFFFFFFFFFFFFFFFFFFFFFFFFFFFFFFFFFFFFFFFFFFFF
310
FFFFFFFFFFFFFFFFFFFFFFFFFFFFFFFFFFFFFFFFFFFFFFFFFFFFFFFFFFFFFFFF
310
FFFFFFFFFFFFFFFFFFFFFFFFFFFFFFFFFFFFFFFFFFFFFFFFFFFFFFFFFFFFFFFF
310
FFFFFFFFFFFFFFFFFFFFFFFFFFFFFFFFFFFFFFFFFFFFFFFFFFFFFFFFFFFFFFFF
310
FFFFFFFFFFFFFFFFFFFFFFFFFFFFFFFFFFFFFFFFFFFFFFFFFFFFFFFFFFFFFFFF
310
FFFFFFFFFFFFFFFFFFFFFFFFFFFFFFFFFFFFFFFFFFFFFFFFFFFFFFFFFFFFFFFF
310
FFFFFFFFFFFFFFFFFFFFFFFFFFFFFFFFFFFFFFFFFFFFFFFFFFFFFFFFFFFFFFFF
310
FFFFFFFFFFFFFFFFFFFFFFFFFFFFFFFFFFFFFFFFFFFFFFFFFFFFFFFFFFFFFFFF
310
FFFFFFFFFFFFFFFFFFFFFFFFFFFFFFFFFFFFFFFFFFFFFFFFFFFFFFFFFFFFFFFF
310
FFFFFFFFFFFFFFFFFFFFFFFFFFFFFFFFFFFFFFFFFFFFFFFFFFFFFFFFFFFFFFFF
310
FFFFFFFFFFFFFFFFFFFFFFFFFFFFFFFFFFFFFFFFFFFFFFFFFFFFFFFFFFFFFFFF
310
FFFFFFFFFFFFFFFFFFFFFFFFFFFFFFFFFFFFFFFFFFFFFFFFFFFFFFFFFFFFFFFF
310
FDFFFFFFFEFFFFFFFEFFFFFFFEFFFFFF05000000060000000700000008000000
310
090000000A0000000B0000000C000000FEFFFFFFFFFFFFFFFFFFFFFFFFFFFFFF
310
FFFFFFFFFFFFFFFFFFFFFFFFFFFFFFFFFFFFFFFFFFFFFFFFFFFFFFFFFFFFFFFF
310
FFFFFFFFFFFFFFFFFFFFFFFFFFFFFFFFFFFFFFFFFFFFFFFFFFFFFFFFFFFFFFFF
310
FFFFFFFFFFFFFFFFFFFFFFFFFFFFFFFFFFFFFFFFFFFFFFFFFFFFFFFFFFFFFFFF
310
FFFFFFFFFFFFFFFFFFFFFFFFFFFFFFFFFFFFFFFFFFFFFFFFFFFFFFFFFFFFFFFF
310
FFFFFFFFFFFFFFFFFFFFFFFFFFFFFFFFFFFFFFFFFFFFFFFFFFFFFFFFFFFFFFFF
310
FFFFFFFFFFFFFFFFFFFFFFFFFFFFFFFFFFFFFFFFFFFFFFFFFFFFFFFFFFFFFFFF
310
FFFFFFFFFFFFFFFFFFFFFFFFFFFFFFFFFFFFFFFFFFFFFFFFFFFFFFFFFFFFFFFF
310
FFFFFFFFFFFFFFFFFFFFFFFFFFFFFFFFFFFFFFFFFFFFFFFFFFFFFFFFFFFFFFFF
310
FFFFFFFFFFFFFFFFFFFFFFFFFFFFFFFFFFFFFFFFFFFFFFFFFFFFFFFFFFFFFFFF
310
FFFFFFFFFFFFFFFFFFFFFFFFFFFFFFFFFFFFFFFFFFFFFFFFFFFFFFFFFFFFFFFF
310
FFFFFFFFFFFFFFFFFFFFFFFFFFFFFFFFFFFFFFFFFFFFFFFFFFFFFFFFFFFFFFFF
310
FFFFFFFFFFFFFFFFFFFFFFFFFFFFFFFFFFFFFFFFFFFFFFFFFFFFFFFFFFFFFFFF
310
FFFFFFFFFFFFFFFFFFFFFFFFFFFFFFFFFFFFFFFFFFFFFFFFFFFFFFFFFFFFFFFF
310
FFFFFFFFFFFFFFFFFFFFFFFFFFFFFFFFFFFFFFFFFFFFFFFFFFFFFFFFFFFFFFFF
310
52006F006F007400200045006E00740072007900000000000000000000000000
310
0000000000000000000000000000000000000000000000000000000000000000
310
16000500FFFFFFFFFFFFFFFF020000000A00030000000000C000000000000046
310
000000000000000000000000505ABA7A4596D40103000000C000000000000000
310
01004F006C006500000000000000000000000000000000000000000000000000
310
0000000000000000000000000000000000000000000000000000000000000000
310
0A000200FFFFFFFFFFFFFFFFFFFFFFFF00000000000000000000000000000000
310
0000000000000000000000000000000000000000000000001400000000000000
310
010043006F006D0070004F0062006A0000000000000000000000000000000000
310
0000000000000000000000000000000000000000000000000000000000000000
310
120002010100000003000000FFFFFFFF00000000000000000000000000000000
310
0000000000000000000000000000000000000000010000004D00000000000000
310
01004F006C006500310030004E00610074006900760065000000000000000000
310
0000000000000000000000000000000000000000000000000000000000000000
310
1A000200FFFFFFFFFFFFFFFFFFFFFFFF00000000000000000000000000000000
310
000000000000000000000000000000000000000004000000E411000000000000
310
FEFFFFFF02000000FEFFFFFFFFFFFFFFFFFFFFFFFFFFFFFFFFFFFFFFFFFFFFFF
310
FFFFFFFFFFFFFFFFFFFFFFFFFFFFFFFFFFFFFFFFFFFFFFFFFFFFFFFFFFFFFFFF
310
FFFFFFFFFFFFFFFFFFFFFFFFFFFFFFFFFFFFFFFFFFFFFFFFFFFFFFFFFFFFFFFF
310
FFFFFFFFFFFFFFFFFFFFFFFFFFFFFFFFFFFFFFFFFFFFFFFFFFFFFFFFFFFFFFFF
310
FFFFFFFFFFFFFFFFFFFFFFFFFFFFFFFFFFFFFFFFFFFFFFFFFFFFFFFFFFFFFFFF
310
FFFFFFFFFFFFFFFFFFFFFFFFFFFFFFFFFFFFFFFFFFFFFFFFFFFFFFFFFFFFFFFF
310
FFFFFFFFFFFFFFFFFFFFFFFFFFFFFFFFFFFFFFFFFFFFFFFFFFFFFFFFFFFFFFFF
310
FFFFFFFFFFFFFFFFFFFFFFFFFFFFFFFFFFFFFFFFFFFFFFFFFFFFFFFFFFFFFFFF
310
FFFFFFFFFFFFFFFFFFFFFFFFFFFFFFFFFFFFFFFFFFFFFFFFFFFFFFFFFFFFFFFF
310
FFFFFFFFFFFFFFFFFFFFFFFFFFFFFFFFFFFFFFFFFFFFFFFFFFFFFFFFFFFFFFFF
310
FFFFFFFFFFFFFFFFFFFFFFFFFFFFFFFFFFFFFFFFFFFFFFFFFFFFFFFFFFFFFFFF
310
FFFFFFFFFFFFFFFFFFFFFFFFFFFFFFFFFFFFFFFFFFFFFFFFFFFFFFFFFFFFFFFF
310
FFFFFFFFFFFFFFFFFFFFFFFFFFFFFFFFFFFFFFFFFFFFFFFFFFFFFFFFFFFFFFFF
310
FFFFFFFFFFFFFFFFFFFFFFFFFFFFFFFFFFFFFFFFFFFFFFFFFFFFFFFFFFFFFFFF
310
FFFFFFFFFFFFFFFFFFFFFFFFFFFFFFFFFFFFFFFFFFFFFFFFFFFFFFFFFFFFFFFF
310
FFFFFFFFFFFFFFFFFFFFFFFFFFFFFFFFFFFFFFFFFFFFFFFFFFFFFFFFFFFFFFFF
310
0100000200000000000000000000000000000000000000000000000000000000
310
0000000000000000000000000000000000000000000000000000000000000000
310
0100FEFF030A0000FFFFFFFF0A00030000000000C00000000000004607000000
310
5042727573680007000000504272757368000700000050427275736800F439B2
310
7100000000000000000000000000000000000000000000000000000000000000
310
0000000000000000000000000000000000000000000000000000000000000000
310
0000000000000000000000000000000000000000000000000000000000000000
310
0000000000000000000000000000000000000000000000000000000000000000
310
0000000000000000000000000000000000000000000000000000000000000000
310
0000000000000000000000000000000000000000000000000000000000000000
310
0000000000000000000000000000000000000000000000000000000000000000
310
0000000000000000000000000000000000000000000000000000000000000000
310
0000000000000000000000000000000000000000000000000000000000000000
310
0000000000000000000000000000000000000000000000000000000000000000
310
0000000000000000000000000000000000000000000000000000000000000000
310
0000000000000000000000000000000000000000000000000000000000000000
310
E0110000424DDE11000000000000360400002800000096000000170000000100
310
08000000000000000000E7240000E72400000001000000010000000000FF0101
310
01FF020202FF030303FF040404FF050505FF060606FF070707FF080808FF0909
310
09FF0A0A0AFF0B0B0BFF0C0C0CFF0D0D0DFF0E0E0EFF0F0F0FFF101010FF1111
310
11FF121212FF131313FF141414FF151515FF161616FF171717FF181818FF1919
310
19FF1A1A1AFF1B1B1BFF1C1C1CFF1D1D1DFF1E1E1EFF1F1F1FFF202020FF2121
310
21FF222222FF232323FF242424FF252525FF262626FF272727FF282828FF2929
310
29FF2A2A2AFF2B2B2BFF2C2C2CFF2D2D2DFF2E2E2EFF2F2F2FFF303030FF3131
310
31FF323232FF333333FF343434FF353535FF363636FF373737FF383838FF3939
310
39FF3A3A3AFF3B3B3BFF3C3C3CFF3D3D3DFF3E3E3EFF3F3F3FFF404040FF4141
310
41FF424242FF434343FF444444FF454545FF464646FF474747FF484848FF4949
310
49FF4A4A4AFF4B4B4BFF4C4C4CFF4D4D4DFF4E4E4EFF4F4F4FFF505050FF5151
310
51FF525252FF535353FF545454FF555555FF565656FF575757FF585858FF5959
310
59FF5A5A5AFF5B5B5BFF5C5C5CFF5D5D5DFF5E5E5EFF5F5F5FFF606060FF6161
310
61FF626262FF636363FF646464FF656565FF666666FF676767FF686868FF6969
310
69FF6A6A6AFF6B6B6BFF6C6C6CFF6D6D6DFF6E6E6EFF6F6F6FFF707070FF7171
310
71FF727272FF737373FF747474FF757575FF767676FF777777FF787878FF7979
310
79FF7A7A7AFF7B7B7BFF7C7C7CFF7D7D7DFF7E7E7EFF7F7F7FFF808080FF8181
310
81FF828282FF838383FF848484FF858585FF868686FF878787FF888888FF8989
310
89FF8A8A8AFF8B8B8BFF8C8C8CFF8D8D8DFF8E8E8EFF8F8F8FFF909090FF9191
310
91FF929292FF939393FF949494FF959595FF969696FF979797FF989898FF9999
310
99FF9A9A9AFF9B9B9BFF9C9C9CFF9D9D9DFF9E9E9EFF9F9F9FFFA0A0A0FFA1A1
310
A1FFA2A2A2FFA3A3A3FFA4A4A4FFA5A5A5FFA6A6A6FFA7A7A7FFA8A8A8FFA9A9
310
A9FFAAAAAAFFABABABFFACACACFFADADADFFAEAEAEFFAFAFAFFFB0B0B0FFB1B1
310
B1FFB2B2B2FFB3B3B3FFB4B4B4FFB5B5B5FFB6B6B6FFB7B7B7FFB8B8B8FFB9B9
310
B9FFBABABAFFBBBBBBFFBCBCBCFFBDBDBDFFBEBEBEFFBFBFBFFFC0C0C0FFC1C1
310
C1FFC2C2C2FFC3C3C3FFC4C4C4FFC5C5C5FFC6C6C6FFC7C7C7FFC8C8C8FFC9C9
310
C9FFCACACAFFCBCBCBFFCCCCCCFFCDCDCDFFCECECEFFCFCFCFFFD0D0D0FFD1D1
310
D1FFD2D2D2FFD3D3D3FFD4D4D4FFD5D5D5FFD6D6D6FFD7D7D7FFD8D8D8FFD9D9
310
D9FFDADADAFFDBDBDBFFDCDCDCFFDDDDDDFFDEDEDEFFDFDFDFFFE0E0E0FFE1E1
310
E1FFE2E2E2FFE3E3E3FFE4E4E4FFE5E5E5FFE6E6E6FFE7E7E7FFE8E8E8FFE9E9
310
E9FFEAEAEAFFEBEBEBFFECECECFFEDEDEDFFEEEEEEFFEFEFEFFFF0F0F0FFF1F1
310
F1FFF2F2F2FFF3F3F3FFF4F4F4FFF5F5F5FFF6F6F6FFF7F7F7FFF8F8F8FFF9F9
310
F9FFFAFAFAFFFBFBFBFFFCFCFCFFFDFDFDFFFEFEFEFFFFFFFFFFFFFFFFFFFFFF
310
C94E4E4E4F4E4EFFFFFFFFFFC94E4E4E4E4E72FFFFFFFFFFFFFF734E4D4E4E4E
310
C9FFFFFFFFFFAA683516171616265B9BE9FFFFFFFFFF4E4E4E4D4E4EFFFFFFFF
310
FFFFFFFF4E4E4F4E4D4E4E4E4F4E4E4F4D4E4E4E4E4E4D4E4F4E4D4E4E4EAAFF
310
FFFFFFFFFFEA4E4F4F4E4E4E4E4E4D4D4F4F4E4E4E4E4E5B7FAAFFFFFFFFFFFF
310
C9744E1716171616164D8DEAFFFFFFFF0000FFFFFFFFFFFFBA161617161716FF
310
FFFFFFFFB917171616174FFFFFFFFFFFFFFF4E1716161616B9FFFFFFB9341717
310
1716171617171616268CFFFFFFFF161617161617FFFFFFFFFFFFFFB917161717
310
1617167F807F7F7F7F7F7F807F7F807F7F807F7F7F414EFFFFFFFFFFFF8C167F
310
7F807F7F7F7E7F7F807F807F7F807F4E3417258EFFFFEA4E162674AABAEAEBBA
310
AA74341680FFFFFF0000FFFFFFFFFFFFB9171717171617FFFFFFFFFFBB161616
310
16164EFFFFFFFFFFFFFF4E1717171717B9FFFF9C171617171716161616171616
310
171766FFFFFF161717161617FFFFFFFFFFFFFF8E16171717161616FFFFFFFFFF
310
FFFFFFFFFFFFFFFFFFFFFFFFFFAA16D9FFFFFFFFFF3467FFFFFFFFEAFFFFFFFF
310
FFFFFFFFFFFFFFFFFFCA671667EB26278DFFFFFFFFFFFFFFFFFFFF8C2541EAFF
310
0000FFFFFFFFFFFFB9171717171716FFFFFFFFFFBA16171617174EFFFFFFFFFF
310
FFFF4E1717161616BAFF9B1617161616171716171617161616161667FFFF1616
310
16161716FFFFFFFFFFFFFF7F16161617174017FFFFFFFFFFFFFFFFFFFFFFFFFF
310
FFFFFFFFFFFF344E7F7F7F7E7417DAFFFFFFFF80FFFFFFFFFFFFFFFFFFFFFFFF
310
FFFFFF9B163425CAFFFFFFFFFFFFFFFFFFFFFFFFCA2667FF0000FFFFFFFFFFFF
310
BA171717171617FFFFFFFFFFB916171716164EFFFFFFFFFFFFFF4F1716161717
310
B9C91716171616161716161617171616161617168DFF161716161717FFFFFFFF
310
FFFFFF7F17171716164F16FFFFFFFFFFFFFFFFFFFFFFFFFFFFFFFFFFFFFF9B16
310
17161617174EFFFFFFFFFF34FFFFFFFFD9BABABABABADAFFFFFFFFFF7F16AAFF
310
FFFFFFFFFFFFFFFFFFFFFFFFFF9C16BA0000FFFFFFFFFFFFB9161717161717FF
310
FFFFFFFFB917161716174DFFFFFFFFFFFFFF4E1616161616BA4E161617171716
310
419BEAEAAA4E16161617161726E9171717161616FFFFFFFFFFFFFF4F16161717
310
164E16FFFFFFFFFFBAB9B9B9B9B9BABABACAFFFFFFFFFFFFFFFFFFFFFFFFFFFF
310
FFFFBA16FFFFFFFF7F1617161617174DEAFFFFFFEA41FFFFFFFFFFAA4D16174E
310
9BFFFFFFFFFF34730000FFFFFFFFFFFFB9161617171617FFFFFFFFFFBA161616
310
16164EFFFFFFFFFFFFFF4F16161717169B1617161716175BFFFFFFFFFFFF7417
310
16171616168D171717161617FFFFFFFFFFFFEA2616171717167416FFFFFFFFFF
310
16171616171717171717EAFFFFFFFFFFFFFFFFFFFFFFFFFFFFFF6716FFFFFFFF
310
7F4EFFFFFFFFBA2573FFFFFFFFBAFFFFFFFFAA167FB9BB9B269BFFFFFFFF664F
310
0000FFFFFFFFFFFFB9171616161616FFFFFFFFFFBA16161717164EFFFFFFFFFF
310
FFFF4E16161616174E161617171626EAFFFFFFFFFFFFFF4E16161616164E1716
310
16161617FFFFFFFFFFFF671616161716347F16FFFFFFFFFF16B9FFFFFFFFFFFF
310
D9168DFFFFFFFFFFFFFFFFFFFFFFFFFFFFEA1716FFFFFFFF7F4EFFFFFFFFFF7F
310
4EFFFFFFFFFFFFFFFFFF5B66FFFFFFEA347FFFFFFFFF7F4D0000FFFFFFFFFFFF
310
B9171616171617FFFFFFFFFFBA17161716174EFFFFFFFFFFFFFF4D1716161617
310
17161716161673FFFFFFFFFFFFFFFF9B1617161717161616171616174F4E4E4E
310
4E341616171616167E7F16FFFFFFFFFF16BAFFFFFFFFFFFFFF5B41FFFFFFFF34
310
1616171616BAFFFFFF9B1716FFFFFFFF7F4EFFFFFFFFFF4E4EFFFFFFFF734E4E
310
4E4E267EDA9B67164EEAFFFFFFFF744D0000FFFFFFFFFFFFBA171717161617FF
310
FFFFFFFFBA1616171616347F7F7F7F80807F331616161717161717161716B9FF
310
FFFFFFFFFFFFFFE9161616161616171716161716171616161616171616171734
310
EA7F16FFFFFFFFFF16BAFFFFFFFFFFFFFFAA17C9FFFFFF7326BABA5B25FFFFFF
310
FF401716FFFFFFFF7F264F4E4E4E4217AAFFFFFFEA16677F73261616164173CA
310
FFFFFFFFFFFF417F0000FFFFFFFFFFFFBA171616171617FFFFFFFFFFBA161616
310
17171616161616161616161717161616161616161617EAFFFFFFFFFFFFFFFFFF
310
261717161716161617161616161617161617161616174EEAFF8016FFFFFFFFFF
310
17BAFFFFFFFFFFFFFFFF3467FFFFFFC916C9FF3467FFFFFFDA166716FFFFFFFF
310
9C4D4E4E4E4E67AAFFFFFFFF6834FF7F262567AAEAFFFFFFFFFFFFFFFF9B17D9
310
0000FFFFFFFFFFFFB9161616161616FFFFFFFFFFBA1617161717171616161616
310
1716171716161716161617171716FFFFFFFFFFFFFFFFFFFF4E17161716171616
310
1617171616161716171717161616169BFF7F17FFFFFFFFFF17B9FFFFFFFFFFFF
310
FFFF7326FFFFFFFF3473DA16AAFFFFFF7317AA16FFFFFFFFFFFFFFFFFFFFFFFF
310
FFFFEA6725BA4E167FEAFFFFFFFFFFFFFFFFFFFF9C167FFF0000FFFFFFFFFFFF
310
B9161717171716FFFFFFFFFFBA16161716171616171717161617161716161616
310
171617171617EAFFFFFFFFFFFFFFFFFF26161717161616161616161617171616
310
1616161616171616AA8016FFFFFFFFFF16BAFFFFFFFFFFFFFFFFDA179BFFFFFF
310
74348D26FFFFFFFF2566B917FFFFFFFFD8BAB9BAB9BADAFFFFEA41169B7425C9
310
FFFFFFFFFFFFFFFFFFFFAB4F1680FFFF0000FFFFFFFFFFFFBA161717171617FF
310
FFFFFFFFBA17161717161617171617161616161617171616171716171617BBFF
310
FFFFFFFFFFFFFFE9171616161617161617161716FFFFFFFFFFD9671616161617
310
348017FFFFFFFFFF16BAFFFFFFFFFFFFFFFFFF4E5AFFFFFFC916265AFFFFFFAA
310
16AABA16FFFFFFFF7F1617161616179BFFFFEB4127168DFFFFFFFFFFFFFFD99B
310
6734175AC9FFFFFF0000FFFFFFFFFFFFB9161617171617FFFFFFFFFFBB161616
310
1616347F807F7F7F7F8033171716171617171616161672FFFFFFFFFFFFFFFF9C
310
171617171617161716161617FFFFFFFFFFFFFF4117161616174E17FFFFFFFFFF
310
16BAFFFFFFFFFFFFFFFFFF9B16DAFFFFFF34169BFFFFFF5A26FFB917FFFFFFFF
310
7F4EFFFFFFEA5B26FFFFFFEA2616EAFFFFFFFFDA743416331617414E4E4E4ECA
310
0000FFFFFFFFFFFFBA161716161616FFFFFFFFFFBA17171616164EFFFFFFFFFF
310
FFFF4E16161717174E161717171626EBFFFFFFFFFFFFFF4E16161617165B1616
310
16171617FFFFFFFFFFFFFF6716161616161617FFFFFFFFFF16BAFFFFFFFFFFFF
310
FFFFFFEA268CFFFFFF7316EAFFFFEB1774FFB916FFFFFFFF7F4EFFFFFFFF7316
310
FFFFFFFF6826FFFFFFFFEB264D9CEABA257F807F7F6616BA0000FFFFFFFFFFFF
310
BA161716161616FFFFFFFFFFBA16171616164DFFFFFFFFFFFFFF4E1617161617
310
9B1617171717165BEBFFFFFFFFFF671616161617179B171616161616FFFFFFFF
310
FFFFFF3417161617171617FFFFFFFFFF17BAFFFFFFFFFFFFFFFFFFFF6734FFFF
310
FFEBCAFFFFFF8D17C9FFBA17FFFFFFFF7F357F808066174FFFFFFFFF7F16FFFF
310
FFFFD91673B99B415BFFFFFFFFBA16DA00009B7F7F7F807F671617161616167F
310
80807F7E6617161616164EFFFFFFFFFFFFFF4E1616161617B94E171716161616
310
349BC9D9AA4E16171616161634FF161617161717B9B9BAB9BA9B411716171716
310
163416FFFFFFFFFF16B9FFFFFFFFFFFFFFFFFFFFC917CAFFFFFFFFFFFFFF3342
310
FFFFBA17FFFFFFFF9B4E4E4F4E4E66EAFFFFFFFF5B16C9FFFFFFFFAA4E164E73
310
EAFFFFFFFF8D26FF00004E161716161616171617171616171717171617161616
310
17174EFFFFFFFFFFFFFF4E1717171616B9D92616171716171716171717171716
310
16171716AAFF161717171617161617171616161617161716166717FFFFFFFFFF
310
17B9FFFFFFFFFFFFFFFFFFFFFF3467FFFFFFFFFFFFCA168CFFFFBB17FFFFFFFF
310
FFFFFFFFFFFFFFFFFFFFFFEA26265BFFFFFFFFFFFFFFFFFFFFFFFFFFEA3467FF
310
00004D16161616161617161717161617161616171617171616164EFFFFFFFFFF
310
FFFF4D1617161616BAFF9B1616161616161716161616171717161766FFFF1616
310
16171617161617161716171616171717667F16FFFFFFFFFF17BAFFFFFFFFFFFF
310
FFFFFFFFFF8C26EAFFFFFFFFFF6617EAFFFFBA17FFFFFFFFFFFFFFFFFFFFFFFF
310
FFFFEA5A25BA269BFFFFFFFFFFFFFFFFFFFFFFFF6616DAFF00004E1616171616
310
1616161616161716161617171616171616174EFFFFFFFFFFFFFF4D1717171716
310
B9FFFF9C161616161616161716161717171667FFFFFF17161717171716161617
310
1716161616161641E97E16FFFFFFFFFF16B9FFFFFFFFFFFFFFFFFFFFFFEA169B
310
FFFFFFFFEA265BFFFFFFB916FFFFFFFFFFFFFFFFFFFFFFFFFF9B3416AAFF9B17
310
67EAFFFFFFFFFFFFFFFFEA5B169BFFFF00004D17161716161616161717171616
310
161717161716171716174EFFFFFFFFFFFFFF4D1616161616BAFFFFFFBB411616
310
161716161616171634ABFFFFFFFF161716161617171716171617171617267FFF
310
FF7F164E4E4E4E4F17BAFFFFFFFFFFFFFFFFFFFFFFFF66344D4E4E4F4117AAFF
310
FFFFBA174E4E4E4D4E4D4D4E4E4E4E4116174EBBFFFFFFCA342666ABEAFFFFEA
310
AA6725269CFFFFFF0000724F4E4D4D4D4E4D4D4E4E4E4D4E4E4E4E4E4E4E4E4D
310
4E4E74FFFFFFFFFFFFFF734E4E4E4D4ECAFFFFFFFFFFAA663416171717265B9B
310
FFFFFFFFFFFF7F8080807F80807F7F7F7F7F807FBAFFFFFFFF9B4E4E4F4D4D4E
310
4DC9FFFFFFFFFFFFFFFFFFFFFFFFBA4E4E4E4E4D4E4EFFFFFFFFC94E4E4E4F4E
310
4E4E4D4E4E5A807F9CD9FFFFFFFFFFFFFF9B5B2617171716174E8DEAFFFFFFFF
310
0000000000000000000000000000000000000000000000000000000000000000
  1
OLE
  0
ENDSEC
  0
SECTION
  2
OBJECTS
  0
DICTIONARY
  5
C
330
0
100
AcDbDictionary
281
     1
  3
ACAD_GROUP
350
D
  3
ACAD_LAYOUT
350
1A
  3
ACAD_MLINESTYLE
350
17
  3
ACAD_PLOTSETTINGS
350
19
  3
ACAD_PLOTSTYLENAME
350
E
  3
ACAD_SCALELIST
350
47
  0
DICTIONARY
  5
D
102
{ACAD_REACTORS
330
C
102
}
330
C
100
AcDbDictionary
281
     1
  0
DICTIONARY
  5
1A
102
{ACAD_REACTORS
330
C
102
}
330
C
100
AcDbDictionary
281
     1
  3
Layout1
350
1E
  3
Layout2
350
26
  3
Model
350
22
  0
DICTIONARY
  5
17
102
{ACAD_REACTORS
330
C
102
}
330
C
100
AcDbDictionary
281
     1
  3
Standard
350
18
  0
DICTIONARY
  5
19
102
{ACAD_REACTORS
330
C
102
}
330
C
100
AcDbDictionary
281
     1
  0
ACDBDICTIONARYWDFLT
  5
E
102
{ACAD_REACTORS
330
C
102
}
330
C
100
AcDbDictionary
281
     1
  3
Normal
350
F
100
AcDbDictionaryWithDefault
340
F
  0
DICTIONARY
  5
47
102
{ACAD_REACTORS
330
C
102
}
330
C
100
AcDbDictionary
281
     1
  3
A0
350
48
  3
A1
350
49
  3
A2
350
4A
  3
A3
350
4B
  3
A4
350
4C
  3
A5
350
4D
  3
A6
350
4E
  3
A7
350
4F
  3
A8
350
50
  3
A9
350
51
  3
B0
350
52
  3
B1
350
53
  3
B2
350
54
  3
B3
350
55
  3
B4
350
56
  3
B5
350
57
  3
B6
350
58
  3
B7
350
59
  3
B8
350
5A
  3
B9
350
5B
  3
C0
350
5C
  3
C1
350
5D
  3
C2
350
5E
  3
C3
350
5F
  3
C4
350
60
  3
C5
350
61
  3
C6
350
62
  3
C7
350
63
  3
C8
350
64
  3
C9
350
65
  3
D0
350
66
  3
D1
350
67
  3
D2
350
68
  0
LAYOUT
  5
1E
102
{ACAD_REACTORS
330
1A
102
}
330
1A
100
AcDbPlotSettings
  1

  2
none_device
  4

  6

 40
0.0
 41
0.0
 42
0.0
 43
0.0
 44
0.0
 45
0.0
 46
0.0
 47
0.0
 48
0.0
 49
0.0
140
0.0
141
0.0
142
1.0
143
1.0
 70
   688
 72
     1
 73
     0
 74
     5
  7

 75
    16
147
1.0
148
0.0
149
0.0
100
AcDbLayout
  1
Layout1
 70
     1
 71
     1
 10
0.0
 20
0.0
 11
420.0
 21
297.0
 12
0.0
 22
0.0
 32
0.0
 14
1.0000000000E+20
 24
1.0000000000E+20
 34
1.0000000000E+20
 15
-1.0000000000E+20
 25
-1.0000000000E+20
 35
-1.0000000000E+20
146
0.0
 13
0.0
 23
0.0
 33
0.0
 16
1.0
 26
0.0
 36
0.0
 17
0.0
 27
1.0
 37
0.0
 76
     0
330
1B
  0
LAYOUT
  5
26
102
{ACAD_REACTORS
330
1A
102
}
330
1A
100
AcDbPlotSettings
  1

  2
none_device
  4

  6

 40
0.0
 41
0.0
 42
0.0
 43
0.0
 44
0.0
 45
0.0
 46
0.0
 47
0.0
 48
0.0
 49
0.0
140
0.0
141
0.0
142
1.0
143
1.0
 70
   688
 72
     1
 73
     0
 74
     5
  7

 75
    16
147
1.0
148
0.0
149
0.0
100
AcDbLayout
  1
Layout2
 70
     1
 71
     2
 10
0.0
 20
0.0
 11
0.0
 21
0.0
 12
0.0
 22
0.0
 32
0.0
 14
0.0
 24
0.0
 34
0.0
 15
0.0
 25
0.0
 35
0.0
146
0.0
 13
0.0
 23
0.0
 33
0.0
 16
1.0
 26
0.0
 36
0.0
 17
0.0
 27
1.0
 37
0.0
 76
     0
330
23
  0
LAYOUT
  5
22
102
{ACAD_REACTORS
330
1A
102
}
330
1A
100
AcDbPlotSettings
  1

  2
none_device
  4
Letter_(8.50_x_11.00_Inches)
  6

 40
6.35
 41
6.35
 42
6.35000508
 43
6.35000508
 44
215.9
 45
279.4
 46
0.0
 47
0.0
 48
0.0
 49
0.0
140
0.0
141
0.0
142
1.0
143
1.0
 70
  1712
 72
     1
 73
     0
 74
     0
  7

 75
     0
147
1.0
148
0.0
149
0.0
100
AcDbLayout
  1
Model
 70
     1
 71
     0
 10
0.0
 20
0.0
 11
279.4
 21
215.9
 12
0.0
 22
0.0
 32
0.0
 14
0.0
 24
0.0
 34
0.0
 15
279.4
 25
215.9
 35
0.0
146
0.0
 13
0.0
 23
0.0
 33
0.0
 16
1.0
 26
0.0
 36
0.0
 17
0.0
 27
1.0
 37
0.0
 76
     0
330
1F
331
29
  0
MLINESTYLE
  5
18
102
{ACAD_REACTORS
330
17
102
}
330
17
100
AcDbMlineStyle
  2
Standard
 70
     0
  3

 62
   256
 51
90.0
 52
90.0
 71
     2
 49
0.5
 62
   256
  6
BYLAYER
 49
-0.5
 62
   256
  6
BYLAYER
  0
ACDBPLACEHOLDER
  5
F
102
{ACAD_REACTORS
330
E
102
}
330
E
  0
SCALE
  5
48
102
{ACAD_REACTORS
330
47
102
}
330
47
100
AcDbScale
 70
     0
300
1:1
140
1.0
141
1.0
290
     1
  0
SCALE
  5
49
102
{ACAD_REACTORS
330
47
102
}
330
47
100
AcDbScale
 70
     0
300
1:2
140
1.0
141
2.0
290
     0
  0
SCALE
  5
4A
102
{ACAD_REACTORS
330
47
102
}
330
47
100
AcDbScale
 70
     0
300
1:4
140
1.0
141
4.0
290
     0
  0
SCALE
  5
4B
102
{ACAD_REACTORS
330
47
102
}
330
47
100
AcDbScale
 70
     0
300
1:5
140
1.0
141
5.0
290
     0
  0
SCALE
  5
4C
102
{ACAD_REACTORS
330
47
102
}
330
47
100
AcDbScale
 70
     0
300
1:8
140
1.0
141
8.0
290
     0
  0
SCALE
  5
4D
102
{ACAD_REACTORS
330
47
102
}
330
47
100
AcDbScale
 70
     0
300
1:10
140
1.0
141
10.0
290
     0
  0
SCALE
  5
4E
102
{ACAD_REACTORS
330
47
102
}
330
47
100
AcDbScale
 70
     0
300
1:16
140
1.0
141
16.0
290
     0
  0
SCALE
  5
4F
102
{ACAD_REACTORS
330
47
102
}
330
47
100
AcDbScale
 70
     0
300
1:20
140
1.0
141
20.0
290
     0
  0
SCALE
  5
50
102
{ACAD_REACTORS
330
47
102
}
330
47
100
AcDbScale
 70
     0
300
1:30
140
1.0
141
30.0
290
     0
  0
SCALE
  5
51
102
{ACAD_REACTORS
330
47
102
}
330
47
100
AcDbScale
 70
     0
300
1:40
140
1.0
141
40.0
290
     0
  0
SCALE
  5
52
102
{ACAD_REACTORS
330
47
102
}
330
47
100
AcDbScale
 70
     0
300
1:50
140
1.0
141
50.0
290
     0
  0
SCALE
  5
53
102
{ACAD_REACTORS
330
47
102
}
330
47
100
AcDbScale
 70
     0
300
1:100
140
1.0
141
100.0
290
     0
  0
SCALE
  5
54
102
{ACAD_REACTORS
330
47
102
}
330
47
100
AcDbScale
 70
     0
300
2:1
140
2.0
141
1.0
290
     0
  0
SCALE
  5
55
102
{ACAD_REACTORS
330
47
102
}
330
47
100
AcDbScale
 70
     0
300
4:1
140
4.0
141
1.0
290
     0
  0
SCALE
  5
56
102
{ACAD_REACTORS
330
47
102
}
330
47
100
AcDbScale
 70
     0
300
8:1
140
8.0
141
1.0
290
     0
  0
SCALE
  5
57
102
{ACAD_REACTORS
330
47
102
}
330
47
100
AcDbScale
 70
     0
300
10:1
140
10.0
141
1.0
290
     0
  0
SCALE
  5
58
102
{ACAD_REACTORS
330
47
102
}
330
47
100
AcDbScale
 70
     0
300
100:1
140
100.0
141
1.0
290
     0
  0
SCALE
  5
59
102
{ACAD_REACTORS
330
47
102
}
330
47
100
AcDbScale
 70
     0
300
1/128" = 1'-0"
140
0.0078125
141
12.0
290
     0
  0
SCALE
  5
5A
102
{ACAD_REACTORS
330
47
102
}
330
47
100
AcDbScale
 70
     0
300
1/64" = 1'-0"
140
0.015625
141
12.0
290
     0
  0
SCALE
  5
5B
102
{ACAD_REACTORS
330
47
102
}
330
47
100
AcDbScale
 70
     0
300
1/32" = 1'-0"
140
0.03125
141
12.0
290
     0
  0
SCALE
  5
5C
102
{ACAD_REACTORS
330
47
102
}
330
47
100
AcDbScale
 70
     0
300
1/16" = 1'-0"
140
0.0625
141
12.0
290
     0
  0
SCALE
  5
5D
102
{ACAD_REACTORS
330
47
102
}
330
47
100
AcDbScale
 70
     0
300
3/32" = 1'-0"
140
0.09375
141
12.0
290
     0
  0
SCALE
  5
5E
102
{ACAD_REACTORS
330
47
102
}
330
47
100
AcDbScale
 70
     0
300
1/8" = 1'-0"
140
0.125
141
12.0
290
     0
  0
SCALE
  5
5F
102
{ACAD_REACTORS
330
47
102
}
330
47
100
AcDbScale
 70
     0
300
3/16" = 1'-0"
140
0.1875
141
12.0
290
     0
  0
SCALE
  5
60
102
{ACAD_REACTORS
330
47
102
}
330
47
100
AcDbScale
 70
     0
300
1/4" = 1'-0"
140
0.25
141
12.0
290
     0
  0
SCALE
  5
61
102
{ACAD_REACTORS
330
47
102
}
330
47
100
AcDbScale
 70
     0
300
3/8" = 1'-0"
140
0.375
141
12.0
290
     0
  0
SCALE
  5
62
102
{ACAD_REACTORS
330
47
102
}
330
47
100
AcDbScale
 70
     0
300
1/2" = 1'-0"
140
0.5
141
12.0
290
     0
  0
SCALE
  5
63
102
{ACAD_REACTORS
330
47
102
}
330
47
100
AcDbScale
 70
     0
300
3/4" = 1'-0"
140
0.75
141
12.0
290
     0
  0
SCALE
  5
64
102
{ACAD_REACTORS
330
47
102
}
330
47
100
AcDbScale
 70
     0
300
1" = 1'-0"
140
1.0
141
12.0
290
     0
  0
SCALE
  5
65
102
{ACAD_REACTORS
330
47
102
}
330
47
100
AcDbScale
 70
     0
300
1-1/2" = 1'-0"
140
1.5
141
12.0
290
     0
  0
SCALE
  5
66
102
{ACAD_REACTORS
330
47
102
}
330
47
100
AcDbScale
 70
     0
300
3" = 1'-0"
140
3.0
141
12.0
290
     0
  0
SCALE
  5
67
102
{ACAD_REACTORS
330
47
102
}
330
47
100
AcDbScale
 70
     0
300
6" = 1'-0"
140
6.0
141
12.0
290
     0
  0
SCALE
  5
68
102
{ACAD_REACTORS
330
47
102
}
330
47
100
AcDbScale
 70
     0
300
1'-0" = 1'-0"
140
12.0
141
12.0
290
     0
  0
ENDSEC
  0
EOF
