  0
SECTION
  2
HEADER
  9
$ACADVER
  1
AC1015
  9
$ACADMAINTVER
 70
     6
  9
$DWGCODEPAGE
  3
ANSI_1252
  9
$INSBASE
 10
0.0
 20
0.0
 30
0.0
  9
$EXTMIN
 10
0.0
 20
0.0
 30
0.0
  9
$EXTMAX
 10
11.0
 20
8.5
 30
0.0
  9
$LIMMIN
 10
0.0
 20
0.0
  9
$LIMMAX
 10
11.0
 20
8.5
  9
$ORTHOMODE
 70
     0
  9
$REGENMODE
 70
     1
  9
$FILLMODE
 70
     1
  9
$QTEXTMODE
 70
     0
  9
$MIRRTEXT
 70
     1
  9
$LTSCALE
 40
1.0
  9
$ATTMODE
 70
     1
  9
$TEXTSIZE
 40
0.1111111111
  9
$TRACEWID
 40
0.05
  9
$TEXTSTYLE
  7
Standard
  9
$CLAYER
  8
0
  9
$CELTYPE
  6
ByLayer
  9
$CECOLOR
 62
   256
  9
$CELTSCALE
 40
1.0
  9
$DISPSILH
 70
     0
  9
$DIMSCALE
 40
1.0
  9
$DIMASZ
 40
0.125
  9
$DIMEXO
 40
0.05
  9
$DIMDLI
 40
0.38
  9
$DIMRND
 40
0.0
  9
$DIMDLE
 40
0.0
  9
$DIMEXE
 40
0.07
  9
$DIMTP
 40
0.0
  9
$DIMTM
 40
0.0
  9
$DIMTXT
 40
0.1111111111
  9
$DIMCEN
 40
0.09
  9
$DIMTSZ
 40
0.0
  9
$DIMTOL
 70
     0
  9
$DIMLIM
 70
     0
  9
$DIMTIH
 70
     1
  9
$DIMTOH
 70
     1
  9
$DIMSE1
 70
     0
  9
$DIMSE2
 70
     0
  9
$DIMTAD
 70
     0
  9
$DIMZIN
 70
     1
  9
$DIMBLK
  1

  9
$DIMASO
 70
     1
  9
$DIMSHO
 70
     1
  9
$DIMPOST
  1

  9
$DIMAPOST
  1

  9
$DIMALT
 70
     0
  9
$DIMALTD
 70
     2
  9
$DIMALTF
 40
25.4
  9
$DIMLFAC
 40
1.0
  9
$DIMTOFL
 70
     0
  9
$DIMTVP
 40
0.0
  9
$DIMTIX
 70
     0
  9
$DIMSOXD
 70
     0
  9
$DIMSAH
 70
     0
  9
$DIMBLK1
  1

  9
$DIMBLK2
  1

  9
$DIMSTYLE
  2
Standard
  9
$DIMCLRD
 70
     0
  9
$DIMCLRE
 70
     0
  9
$DIMCLRT
 70
     0
  9
$DIMTFAC
 40
1.0
  9
$DIMGAP
 40
0.1
  9
$DIMJUST
 70
     0
  9
$DIMSD1
 70
     0
  9
$DIMSD2
 70
     0
  9
$DIMTOLJ
 70
     1
  9
$DIMTZIN
 70
     1
  9
$DIMALTZ
 70
     0
  9
$DIMALTTZ
 70
     0
  9
$DIMUPT
 70
     0
  9
$DIMDEC
 70
     2
  9
$DIMTDEC
 70
     2
  9
$DIMALTU
 70
     2
  9
$DIMALTTD
 70
     2
  9
$DIMTXSTY
  7
Standard
  9
$DIMAUNIT
 70
     0
  9
$DIMADEC
 70
     0
  9
$DIMALTRND
 40
0.0
  9
$DIMAZIN
 70
     0
  9
$DIMDSEP
 70
    46
  9
$DIMATFIT
 70
     3
  9
$DIMFRAC
 70
     0
  9
$DIMLDRBLK
  1

  9
$DIMLUNIT
 70
     2
  9
$DIMLWD
 70
    -2
  9
$DIMLWE
 70
    -2
  9
$DIMTMOVE
 70
     0
  9
$LUNITS
 70
     2
  9
$LUPREC
 70
     2
  9
$SKETCHINC
 40
0.1
  9
$FILLETRAD
 40
0.5
  9
$AUNITS
 70
     0
  9
$AUPREC
 70
     0
  9
$MENU
  1
.
  9
$ELEVATION
 40
0.0
  9
$PELEVATION
 40
0.0
  9
$THICKNESS
 40
0.0
  9
$LIMCHECK
 70
     0
  9
$CHAMFERA
 40
0.0
  9
$CHAMFERB
 40
0.0
  9
$CHAMFERC
 40
0.0
  9
$CHAMFERD
 40
0.0
  9
$SKPOLY
 70
     0
  9
$TDCREATE
 40
2457331.715925174
  9
$TDUCREATE
 40
2457331.924258507
  9
$TDUPDATE
 40
2457331.715928426
  9
$TDUUPDATE
 40
2457331.924261759
  9
$TDINDWG
 40
0.0000000116
  9
$TDUSRTIMER
 40
0.0000000116
  9
$USRTIMER
 70
     1
  9
$ANGBASE
 50
0.0
  9
$ANGDIR
 70
     0
  9
$PDMODE
 70
     0
  9
$PDSIZE
 40
-1.0
  9
$PLINEWID
 40
0.0
  9
$SPLFRAME
 70
     0
  9
$SPLINETYPE
 70
     6
  9
$SPLINESEGS
 70
     8
  9
$HANDSEED
  5
215
  9
$SURFTAB1
 70
     6
  9
$SURFTAB2
 70
     6
  9
$SURFTYPE
 70
     6
  9
$SURFU
 70
     6
  9
$SURFV
 70
     6
  9
$UCSBASE
  2

  9
$UCSNAME
  2

  9
$UCSORG
 10
0.0
 20
0.0
 30
0.0
  9
$UCSXDIR
 10
1.0
 20
0.0
 30
0.0
  9
$UCSYDIR
 10
0.0
 20
1.0
 30
0.0
  9
$UCSORTHOREF
  2

  9
$UCSORTHOVIEW
 70
     0
  9
$UCSORGTOP
 10
0.0
 20
0.0
 30
0.0
  9
$UCSORGBOTTOM
 10
0.0
 20
0.0
 30
0.0
  9
$UCSORGLEFT
 10
0.0
 20
0.0
 30
0.0
  9
$UCSORGRIGHT
 10
0.0
 20
0.0
 30
0.0
  9
$UCSORGFRONT
 10
0.0
 20
0.0
 30
0.0
  9
$UCSORGBACK
 10
0.0
 20
0.0
 30
0.0
  9
$PUCSBASE
  2

  9
$PUCSNAME
  2

  9
$PUCSORG
 10
0.0
 20
0.0
 30
0.0
  9
$PUCSXDIR
 10
1.0
 20
0.0
 30
0.0
  9
$PUCSYDIR
 10
0.0
 20
1.0
 30
0.0
  9
$PUCSORTHOREF
  2

  9
$PUCSORTHOVIEW
 70
     0
  9
$PUCSORGTOP
 10
0.0
 20
0.0
 30
0.0
  9
$PUCSORGBOTTOM
 10
0.0
 20
0.0
 30
0.0
  9
$PUCSORGLEFT
 10
0.0
 20
0.0
 30
0.0
  9
$PUCSORGRIGHT
 10
0.0
 20
0.0
 30
0.0
  9
$PUCSORGFRONT
 10
0.0
 20
0.0
 30
0.0
  9
$PUCSORGBACK
 10
0.0
 20
0.0
 30
0.0
  9
$USERI1
 70
     0
  9
$USERI2
 70
     0
  9
$USERI3
 70
     0
  9
$USERI4
 70
     0
  9
$USERI5
 70
     0
  9
$USERR1
 40
0.0
  9
$USERR2
 40
0.0
  9
$USERR3
 40
0.0
  9
$USERR4
 40
0.0
  9
$USERR5
 40
0.0
  9
$WORLDVIEW
 70
     1
  9
$SHADEDGE
 70
     3
  9
$SHADEDIF
 70
    70
  9
$TILEMODE
 70
     1
  9
$MAXACTVP
 70
    64
  9
$PINSBASE
 10
0.0
 20
0.0
 30
0.0
  9
$PLIMCHECK
 70
     0
  9
$PEXTMIN
 10
1.0000000000E+20
 20
1.0000000000E+20
 30
1.0000000000E+20
  9
$PEXTMAX
 10
-1.0000000000E+20
 20
-1.0000000000E+20
 30
-1.0000000000E+20
  9
$PLIMMIN
 10
0.0
 20
0.0
  9
$PLIMMAX
 10
12.0
 20
9.0
  9
$UNITMODE
 70
     0
  9
$VISRETAIN
 70
     1
  9
$PLINEGEN
 70
     0
  9
$PSLTSCALE
 70
     1
  9
$TREEDEPTH
 70
  3020
  9
$CMLSTYLE
  2
Standard
  9
$CMLJUST
 70
     0
  9
$CMLSCALE
 40
1.0
  9
$PROXYGRAPHICS
 70
     1
  9
$MEASUREMENT
 70
     0
  9
$CELWEIGHT
370
    -1
  9
$ENDCAPS
280
     0
  9
$JOINSTYLE
280
     0
  9
$LWDISPLAY
290
     1
  9
$INSUNITS
 70
     1
  9
$HYPERLINKBASE
  1

  9
$STYLESHEET
  1

  9
$XEDIT
290
     1
  9
$CEPSNTYPE
380
     0
  9
$PSTYLEMODE
290
     1
  9
$FINGERPRINTGUID
  2
{0CB05F5D-34BF-4A78-9632-1CD2D96D26C8}
  9
$VERSIONGUID
  2
{FAEB1C32-E019-11D5-929B-00C0DF256EC4}
  9
$EXTNAMES
290
     1
  9
$PSVPSCALE
 40
0.0
  9
$OLESTARTUP
290
     0
  0
ENDSEC
  0
SECTION
  2
CLASSES
  0
CLASS
  1
ACDBDICTIONARYWDFLT
  2
AcDbDictionaryWithDefault
  3
ObjectDBX Classes
 90
        0
280
     0
281
     0
  0
CLASS
  1
VISUALSTYLE
  2
AcDbVisualStyle
  3
ObjectDBX Classes
 90
     4095
280
     0
281
     0
  0
CLASS
  1
MATERIAL
  2
AcDbMaterial
  3
ObjectDBX Classes
 90
     1153
280
     0
281
     0
  0
CLASS
  1
SCALE
  2
AcDbScale
  3
ObjectDBX Classes
 90
     1153
280
     0
281
     0
  0
CLASS
  1
SUN
  2
AcDbSun
  3
SCENEOE
 90
     1153
280
     0
281
     0
  0
CLASS
  1
ACDBPLACEHOLDER
  2
AcDbPlaceHolder
  3
ObjectDBX Classes
 90
        0
280
     0
281
     0
  0
CLASS
  1
LAYOUT
  2
AcDbLayout
  3
ObjectDBX Classes
 90
        0
280
     0
281
     0
  0
ENDSEC
  0
SECTION
  2
TABLES
  0
TABLE
  2
VPORT
  5
8
330
0
100
AcDbSymbolTable
 70
     1
  0
VPORT
  5
29
330
8
100
AcDbSymbolTableRecord
100
AcDbViewportTableRecord
  2
*Active
 70
     0
 10
0.0
 20
0.0
 11
1.0
 21
1.0
 12
5.5
 22
4.25
 13
0.0
 23
0.0
 14
0.5
 24
0.5
 15
0.5
 25
0.5
 16
0.0
 26
0.0
 36
1.0
 17
0.0
 27
0.0
 37
0.0
 40
8.5
 41
1.2941176471
 42
50.0
 43
0.0
 44
0.0
 50
0.0
 51
0.0
 71
     0
 72
  2000
 73
     1
 74
     3
 75
     0
 76
     0
 77
     0
 78
     0
281
     0
 65
     1
110
0.0
120
0.0
130
0.0
111
1.0
121
0.0
131
0.0
112
0.0
122
1.0
132
0.0
 79
     0
146
0.0
  0
ENDTAB
  0
TABLE
  2
LTYPE
  5
5
330
0
100
AcDbSymbolTable
 70
     6
  0
LTYPE
  5
14
330
5
100
AcDbSymbolTableRecord
100
AcDbLinetypeTableRecord
  2
ByBlock
 70
     0
  3

 72
    65
 73
     0
 40
0.0
  0
LTYPE
  5
15
330
5
100
AcDbSymbolTableRecord
100
AcDbLinetypeTableRecord
  2
ByLayer
 70
     0
  3

 72
    65
 73
     0
 40
0.0
  0
LTYPE
  5
16
330
5
100
AcDbSymbolTableRecord
100
AcDbLinetypeTableRecord
  2
Continuous
 70
     0
  3
Solid line
 72
    65
 73
     0
 40
0.0
  0
LTYPE
  5
6A
330
5
100
AcDbSymbolTableRecord
100
AcDbLinetypeTableRecord
  2
HIDDEN
 70
     0
  3
Hidden __ __ __ __ __ __ __ __ __ __ __ __ __ __
 72
    65
 73
     2
 40
0.075
 49
0.05
 74
     0
 49
-0.025
 74
     0
  0
LTYPE
  5
6B
330
5
100
AcDbSymbolTableRecord
100
AcDbLinetypeTableRecord
  2
PHANTOM
 70
     0
  3
Phantom ______  __  __  ______  __  __  ______
 72
    65
 73
     6
 40
0.5
 49
0.25
 74
     0
 49
-0.05
 74
     0
 49
0.05
 74
     0
 49
-0.05
 74
     0
 49
0.05
 74
     0
 49
-0.05
 74
     0
  0
LTYPE
  5
6C
330
5
100
AcDbSymbolTableRecord
100
AcDbLinetypeTableRecord
  2
CENTER
 70
     0
  3
Center ____ _ ____ _ ____ _ ____ _ ____ _ ____
 72
    65
 73
     4
 40
0.4
 49
0.25
 74
     0
 49
-0.05
 74
     0
 49
0.05
 74
     0
 49
-0.05
 74
     0
  0
LTYPE
  5
6D
330
5
100
AcDbSymbolTableRecord
100
AcDbLinetypeTableRecord
  2
CENTERX2
 70
     0
  3
Center (2x) ________  __  ________  __  _____
 72
    65
 73
     4
 40
0.8
 49
0.5
 74
     0
 49
-0.1
 74
     0
 49
0.1
 74
     0
 49
-0.1
 74
     0
  0
LTYPE
  5
6E
330
5
100
AcDbSymbolTableRecord
100
AcDbLinetypeTableRecord
  2
DOT2
 70
     0
  3
Dot (.5x) ........................................
 72
    65
 73
     2
 40
0.025
 49
0.0
 74
     0
 49
-0.025
 74
     0
  0
ENDTAB
  0
TABLE
  2
LAYER
  5
2
330
0
100
AcDbSymbolTable
 70
     2
  0
LAYER
  5
10
330
2
100
AcDbSymbolTableRecord
100
AcDbLayerTableRecord
  2
0
 70
     0
 62
     7
  6
Continuous
370
    -3
390
F
  0
LAYER
  5
6F
330
2
100
AcDbSymbolTableRecord
100
AcDbLayerTableRecord
  2
FORMAT
 70
     0
 62
     7
  6
Continuous
370
    -3
390
F
  0
ENDTAB
  0
TABLE
  2
STYLE
  5
3
330
0
100
AcDbSymbolTable
 70
     5
  0
STYLE
  5
11
330
3
100
AcDbSymbolTableRecord
100
AcDbTextStyleTableRecord
  2
Standard
 70
     0
 40
0.0
 41
1.0
 50
0.0
 71
     0
 42
0.1111111111
  3
txt
  4

  0
STYLE
  5
96
330
3
100
AcDbSymbolTableRecord
100
AcDbTextStyleTableRecord
  2
SLDTEXTSTYLE0
 70
     0
 40
0.0
 41
0.75
 50
0.0
 71
     0
 42
0.1111111111
  3
TXT
  4

  0
STYLE
  5
A2
330
3
100
AcDbSymbolTableRecord
100
AcDbTextStyleTableRecord
  2
SLDTEXTSTYLE1
 70
     0
 40
0.0
 41
0.6
 50
0.0
 71
     0
 42
0.1111111111
  3
TXT
  4

  0
STYLE
  5
A7
330
3
100
AcDbSymbolTableRecord
100
AcDbTextStyleTableRecord
  2
SLDTEXTSTYLE2
 70
     0
 40
0.0
 41
0.6875
 50
0.0
 71
     0
 42
0.1111111111
  3
TXT
  4

  0
STYLE
  5
1F0
330
3
100
AcDbSymbolTableRecord
100
AcDbTextStyleTableRecord
  2
SLDTEXTSTYLE3
 70
     0
 40
0.0
 41
0.7
 50
0.0
 71
     0
 42
0.1111111111
  3
TXT
  4

  0
ENDTAB
  0
TABLE
  2
VIEW
  5
6
330
0
100
AcDbSymbolTable
 70
     0
  0
ENDTAB
  0
TABLE
  2
UCS
  5
7
330
0
100
AcDbSymbolTable
 70
     0
  0
ENDTAB
  0
TABLE
  2
APPID
  5
9
330
0
100
AcDbSymbolTable
 70
     1
  0
APPID
  5
12
330
9
100
AcDbSymbolTableRecord
100
AcDbRegAppTableRecord
  2
ACAD
 70
     0
  0
ENDTAB
  0
TABLE
  2
DIMSTYLE
  5
A
330
0
100
AcDbSymbolTable
 70
     5
100
AcDbDimStyleTable
  0
DIMSTYLE
105
27
330
A
100
AcDbSymbolTableRecord
100
AcDbDimStyleTableRecord
  2
Standard
 70
     0
178
     0
340
11
  0
DIMSTYLE
105
11D
102
{ACAD_REACTORS
330
11C
102
}
330
A
100
AcDbSymbolTableRecord
100
AcDbDimStyleTableRecord
  2
SLDDIMSTYLE0
 70
     0
 41
0.125
 44
0.0
 45
0.000000001
 78
     4
 79
     1
140
0.0833333333
141
0.0
147
0.0208333333
148
0.000000001
170
     1
171
     1
173
     1
178
     0
271
     2
272
     2
274
     1
276
     2
284
    12
340
96
  0
DIMSTYLE
105
1B1
102
{ACAD_REACTORS
330
1B0
330
1C5
102
}
330
A
100
AcDbSymbolTableRecord
100
AcDbDimStyleTableRecord
  2
SLDDIMSTYLE1
 70
     0
 41
0.125
 44
0.0
 45
0.000000001
 78
     8
 79
     2
140
0.0833333333
147
0.0208333333
148
0.000000001
170
     1
171
     1
172
     1
173
     1
178
     0
271
     2
272
     2
274
     1
276
     2
284
    12
289
     0
340
96
  0
DIMSTYLE
105
1DA
102
{ACAD_REACTORS
330
1D9
102
}
330
A
100
AcDbSymbolTableRecord
100
AcDbDimStyleTableRecord
  2
SLDDIMSTYLE2
 70
     0
 41
0.125
 44
0.0
 45
0.000000001
 78
     4
 79
     1
140
0.0833333333
147
0.0208333333
148
0.000000001
170
     1
171
     1
173
     1
178
     0
271
     2
272
     2
274
     1
276
     2
284
    12
340
96
  0
DIMSTYLE
105
1F5
330
A
100
AcDbSymbolTableRecord
100
AcDbDimStyleTableRecord
  2
SLDDIMSTYLE3
 70
     0
 41
0.125
 44
0.0
 45
0.000000001
146
0.125
147
0.0
173
     1
178
     0
271
     0
272
     0
276
     2
340
11
  0
ENDTAB
  0
TABLE
  2
BLOCK_RECORD
  5
1
330
0
100
AcDbSymbolTable
 70
    20
  0
BLOCK_RECORD
  5
1F
330
1
100
AcDbSymbolTableRecord
100
AcDbBlockTableRecord
  2
*Model_Space
340
22
  0
BLOCK_RECORD
  5
1B
330
1
100
AcDbSymbolTableRecord
100
AcDbBlockTableRecord
  2
*Paper_Space
340
1E
  0
BLOCK_RECORD
  5
23
330
1
100
AcDbSymbolTableRecord
100
AcDbBlockTableRecord
  2
*Paper_Space0
340
26
  0
BLOCK_RECORD
  5
70
330
1
100
AcDbSymbolTableRecord
100
AcDbBlockTableRecord
  2
Third Angle Projection Block
340
0
102
{BLKREFS
331
95
102
}
  0
BLOCK_RECORD
  5
A9
330
1
100
AcDbSymbolTableRecord
100
AcDbBlockTableRecord
  2
SW_NOTE_0
340
0
102
{BLKREFS
331
AE
102
}
  0
BLOCK_RECORD
  5
AF
330
1
100
AcDbSymbolTableRecord
100
AcDbBlockTableRecord
  2
SW_NOTE_1
340
0
102
{BLKREFS
331
B4
102
}
  0
BLOCK_RECORD
  5
B6
330
1
100
AcDbSymbolTableRecord
100
AcDbBlockTableRecord
  2
SW_NOTE_2
340
0
102
{BLKREFS
331
BC
102
}
  0
BLOCK_RECORD
  5
BE
330
1
100
AcDbSymbolTableRecord
100
AcDbBlockTableRecord
  2
SW_NOTE_3
340
0
102
{BLKREFS
331
C3
102
}
  0
BLOCK_RECORD
  5
C4
330
1
100
AcDbSymbolTableRecord
100
AcDbBlockTableRecord
  2
SW_NOTE_4
340
0
102
{BLKREFS
331
D9
102
}
  0
BLOCK_RECORD
  5
DA
330
1
100
AcDbSymbolTableRecord
100
AcDbBlockTableRecord
  2
SW_TABLEANNOTATION_0
340
0
102
{BLKREFS
331
103
102
}
  0
BLOCK_RECORD
  5
E8
330
1
100
AcDbSymbolTableRecord
100
AcDbBlockTableRecord
  2
SW_SYMBOL_C#_1
340
0
102
{BLKREFS
331
ED
102
}
  0
BLOCK_RECORD
  5
F1
330
1
100
AcDbSymbolTableRecord
100
AcDbBlockTableRecord
  2
SW_SYMBOL_C#_2
340
0
102
{BLKREFS
331
F6
102
}
  0
BLOCK_RECORD
  5
F9
330
1
100
AcDbSymbolTableRecord
100
AcDbBlockTableRecord
  2
SW_SYMBOL_C#_3
340
0
102
{BLKREFS
331
FE
102
}
  0
BLOCK_RECORD
  5
11E
330
1
100
AcDbSymbolTableRecord
100
AcDbBlockTableRecord
  2
_D
340
0
  0
BLOCK_RECORD
  5
1B2
330
1
100
AcDbSymbolTableRecord
100
AcDbBlockTableRecord
  2
_D_1
340
0
  0
BLOCK_RECORD
  5
1C6
330
1
100
AcDbSymbolTableRecord
100
AcDbBlockTableRecord
  2
_D_2
340
0
  0
BLOCK_RECORD
  5
1DB
330
1
100
AcDbSymbolTableRecord
100
AcDbBlockTableRecord
  2
_D_3
340
0
  0
BLOCK_RECORD
  5
1ED
330
1
100
AcDbSymbolTableRecord
100
AcDbBlockTableRecord
  2
SW_NOTE_5
340
0
102
{BLKREFS
331
1F4
102
}
  0
BLOCK_RECORD
  5
1F7
330
1
100
AcDbSymbolTableRecord
100
AcDbBlockTableRecord
  2
SW_NOTE_6
340
0
102
{BLKREFS
331
1FD
102
}
  0
BLOCK_RECORD
  5
1FF
330
1
100
AcDbSymbolTableRecord
100
AcDbBlockTableRecord
  2
SW_NOTE_7
340
0
102
{BLKREFS
331
204
102
}
  0
BLOCK_RECORD
  5
206
330
1
100
AcDbSymbolTableRecord
100
AcDbBlockTableRecord
  2
SW_NOTE_8
340
0
102
{BLKREFS
331
20B
102
}
  0
BLOCK_RECORD
  5
20D
330
1
100
AcDbSymbolTableRecord
100
AcDbBlockTableRecord
  2
SW_NOTE_9
340
0
102
{BLKREFS
331
212
102
}
  0
ENDTAB
  0
ENDSEC
  0
SECTION
  2
BLOCKS
  0
BLOCK
  5
20
330
1F
100
AcDbEntity
  8
0
100
AcDbBlockBegin
  2
*Model_Space
 70
     0
 10
0.0
 20
0.0
 30
0.0
  3
*Model_Space
  1
*Model_Space
  0
ENDBLK
  5
21
330
1F
100
AcDbEntity
  8
0
100
AcDbBlockEnd
  0
BLOCK
  5
1C
330
1B
100
AcDbEntity
 67
     1
  8
0
100
AcDbBlockBegin
  2
*Paper_Space
 70
     0
 10
0.0
 20
0.0
 30
0.0
  3
*Paper_Space
  1
*Paper_Space
  0
ENDBLK
  5
1D
330
1B
100
AcDbEntity
 67
     1
  8
0
100
AcDbBlockEnd
  0
BLOCK
  5
24
330
23
100
AcDbEntity
  8
0
100
AcDbBlockBegin
  2
*Paper_Space0
 70
     0
 10
0.0
 20
0.0
 30
0.0
  3
*Paper_Space0
  1
*Paper_Space0
  0
ENDBLK
  5
25
330
23
100
AcDbEntity
  8
0
100
AcDbBlockEnd
  0
BLOCK
  5
71
330
70
100
AcDbEntity
  8
0
100
AcDbBlockBegin
  2
Third Angle Projection Block
 70
     0
 10
0.0
 20
0.0
 30
0.0
  3
Third Angle Projection Block
  1
Third Angle Projection Block
  0
CIRCLE
  5
73
330
70
100
AcDbEntity
  8
0
  6
Continuous
 62
     7
370
    30
100
AcDbCircle
 10
3.9951432636
 20
0.7456853688
 30
0.0
 40
0.0696152422706639
  0
CIRCLE
  5
74
330
70
100
AcDbEntity
  8
0
  6
Continuous
 62
     7
370
    30
100
AcDbCircle
 10
3.9951432636
 20
0.7456853688
 30
0.0
 40
0.1535916633280245
  0
LINE
  5
75
330
70
100
AcDbEntity
  8
0
  6
CENTERX2
 62
     7
370
     0
100
AcDbLine
 10
4.3360937897
 20
0.7456853688
 30
0.0
 11
4.7028635231
 21
0.7456853688
 31
0.0
  0
LINE
  5
76
330
70
100
AcDbEntity
  8
0
  6
Continuous
 62
     7
370
    30
100
AcDbLine
 10
4.3701432636
 20
0.815300611
 30
0.0
 11
4.3701432636
 21
0.6760701265
 31
0.0
  0
LINE
  5
77
330
70
100
AcDbEntity
  8
0
  6
Continuous
 62
     7
370
    30
100
AcDbLine
 10
4.3701432636
 20
0.6760701265
 30
0.0
 11
4.6701432636
 21
0.5956853688
 31
0.0
  0
LINE
  5
78
330
70
100
AcDbEntity
  8
0
  6
Continuous
 62
     7
370
    30
100
AcDbLine
 10
4.6701432636
 20
0.5956853688
 30
0.0
 11
4.6701432636
 21
0.8956853688
 31
0.0
  0
LINE
  5
79
330
70
100
AcDbEntity
  8
0
  6
Continuous
 62
     7
370
    30
100
AcDbLine
 10
4.6701432636
 20
0.8956853688
 30
0.0
 11
4.3701432636
 21
0.815300611
 31
0.0
  0
LINE
  5
7A
330
70
100
AcDbEntity
  8
0
  6
CENTERX2
 62
     7
370
     0
100
AcDbLine
 10
3.8032513961
 20
0.7456853688
 30
0.0
 11
4.187035131
 21
0.7456853688
 31
0.0
  0
LINE
  5
7B
330
70
100
AcDbEntity
  8
0
  6
CENTERX2
 62
     7
370
     0
100
AcDbLine
 10
3.9951432636
 20
0.9375772362
 30
0.0
 11
3.9951432636
 21
0.5537935013
 31
0.0
  0
POINT
  5
7C
330
70
100
AcDbEntity
  8
0
  6
Continuous
 62
     7
370
     0
100
AcDbPoint
 10
3.9951432636
 20
0.7456853688
 30
0.0
  0
ENDBLK
  5
72
330
70
100
AcDbEntity
  8
0
100
AcDbBlockEnd
  0
BLOCK
  5
AA
330
A9
100
AcDbEntity
  8
0
100
AcDbBlockBegin
  2
SW_NOTE_0
 70
     0
 10
0.0
 20
0.0
 30
0.0
  3
SW_NOTE_0
  1
SW_NOTE_0
  0
MTEXT
  5
AC
330
A9
100
AcDbEntity
  8
0
  6
Continuous
 62
     0
370
     0
100
AcDbMText
 10
0.78375
 20
0.0773440644
 30
0.0
 40
0.06
 41
0.0
 71
     2
 72
     1
  1
VALUES IN PARENTHESIS ARE CALCULATED
  7
SLDTEXTSTYLE0
 73
     1
 44
1.0
  0
MTEXT
  5
AD
330
A9
100
AcDbEntity
  8
0
  6
Continuous
 62
     0
370
     0
100
AcDbMText
 10
0.7825936818
 20
-0.0220260102
 30
0.0
 40
0.06
 41
0.0
 71
     2
 72
     1
  1
AND MAY CONTAIN ROUNDOFF ERRORS
  7
SLDTEXTSTYLE0
 73
     1
 44
1.0
  0
ENDBLK
  5
AB
330
A9
100
AcDbEntity
  8
0
100
AcDbBlockEnd
  0
BLOCK
  5
B0
330
AF
100
AcDbEntity
  8
0
100
AcDbBlockBegin
  2
SW_NOTE_1
 70
     0
 10
0.0
 20
0.0
 30
0.0
  3
SW_NOTE_1
  1
SW_NOTE_1
  0
MTEXT
  5
B2
330
AF
100
AcDbEntity
  8
0
  6
Continuous
 62
     0
370
     0
100
AcDbMText
 10
0.0
 20
0.1074223116
 30
0.0
 40
0.0833333333
 41
0.0
 71
     1
 72
     1
  1
DRAWING
  7
SLDTEXTSTYLE0
 73
     1
 44
1.0
  0
MTEXT
  5
B3
330
AF
100
AcDbEntity
  8
0
  6
Continuous
 62
     0
370
     0
100
AcDbMText
 10
0.0
 20
-0.0036887981
 30
0.0
 40
0.0833333333
 41
0.0
 71
     1
 72
     1
  1
PROJECTION
  7
SLDTEXTSTYLE0
 73
     1
 44
1.0
  0
ENDBLK
  5
B1
330
AF
100
AcDbEntity
  8
0
100
AcDbBlockEnd
  0
BLOCK
  5
B7
330
B6
100
AcDbEntity
  8
0
100
AcDbBlockBegin
  2
SW_NOTE_2
 70
     0
 10
0.0
 20
0.0
 30
0.0
  3
SW_NOTE_2
  1
SW_NOTE_2
  0
MTEXT
  5
B9
330
B6
100
AcDbEntity
  8
0
  6
Continuous
 62
     0
370
     0
100
AcDbMText
 10
0.0823567708
 20
0.1477056785
 30
0.0
 40
0.1145833333
 41
0.0
 71
     2
 72
     1
  1
%%c
  7
SLDTEXTSTYLE0
 73
     1
 44
1.0
  0
MTEXT
  5
BA
330
B6
100
AcDbEntity
  8
0
  6
Continuous
 62
     0
370
     0
100
AcDbMText
 10
1.2471759303
 20
0.1477056785
 30
0.0
 40
0.1145833333
 41
0.0
 71
     2
 72
     1
  1
2" MOUNTED PLANO-CONVEX
  7
SLDTEXTSTYLE0
 73
     1
 44
1.0
  0
MTEXT
  5
BB
330
B6
100
AcDbEntity
  8
0
  6
Continuous
 62
     0
370
     0
100
AcDbMText
 10
1.1591192584
 20
-0.0050720974
 30
0.0
 40
0.1145833333
 41
0.0
 71
     2
 72
     1
  1
LENS, f=75mm, -UV COAT
  7
SLDTEXTSTYLE0
 73
     1
 44
1.0
  0
ENDBLK
  5
B8
330
B6
100
AcDbEntity
  8
0
100
AcDbBlockEnd
  0
BLOCK
  5
BF
330
BE
100
AcDbEntity
  8
0
100
AcDbBlockBegin
  2
SW_NOTE_3
 70
     0
 10
0.0
 20
0.0
 30
0.0
  3
SW_NOTE_3
  1
SW_NOTE_3
  0
MTEXT
  5
C1
330
BE
100
AcDbEntity
  8
0
  6
Continuous
 62
     0
370
     0
100
AcDbMText
 10
0.986328125
 20
0.1611334675
 30
0.0
 40
0.125
 41
0.0
 71
     2
 72
     1
  1
FOR INFORMATION ONLY
  7
SLDTEXTSTYLE0
 73
     1
 44
1.0
  0
MTEXT
  5
C2
330
BE
100
AcDbEntity
  8
0
  6
Continuous
 62
     0
370
     0
100
AcDbMText
 10
0.999088459
 20
-0.0055331972
 30
0.0
 40
0.125
 41
0.0
 71
     2
 72
     1
  1
NOT FOR MANUFACTURING PURPOSES
  7
SLDTEXTSTYLE0
 73
     1
 44
1.0
  0
ENDBLK
  5
C0
330
BE
100
AcDbEntity
  8
0
100
AcDbBlockEnd
  0
BLOCK
  5
C5
330
C4
100
AcDbEntity
  8
0
100
AcDbBlockBegin
  2
SW_NOTE_4
 70
     0
 10
0.0
 20
0.0
 30
0.0
  3
SW_NOTE_4
  1
SW_NOTE_4
  0
MTEXT
  5
C7
330
C4
100
AcDbEntity
  8
0
  6
Continuous
 62
     0
370
     0
100
AcDbMText
 10
0.0
 20
0.1074223116
 30
0.0
 40
0.0833333333
 41
0.0
 71
     1
 72
     1
  1
NOTES/SPECIFICATIONS:
  7
SLDTEXTSTYLE0
 73
     1
 44
1.0
  0
MTEXT
  5
C8
330
C4
100
AcDbEntity
  8
0
  6
Continuous
 62
     0
370
     0
100
AcDbMText
 10
0.4183921567
 20
-0.1147999079
 30
0.0
 40
0.0833333333
 41
0.0
 71
     1
 72
     1
  1
DESIGN WAVELENGTH: 546nm
  7
SLDTEXTSTYLE0
 73
     1
 44
1.0
  0
MTEXT
  5
C9
330
C4
100
AcDbEntity
  8
0
  6
Continuous
 62
     0
370
     0
100
AcDbMText
 10
0.0
 20
-0.1147999079
 30
0.0
 40
0.0833333333
 41
0.0
 71
     1
 72
     1
  1
1.
  7
SLDTEXTSTYLE0
 73
     1
 44
1.0
  0
MTEXT
  5
CA
330
C4
100
AcDbEntity
  8
0
  6
Continuous
 62
     0
370
     0
100
AcDbMText
 10
0.4183921567
 20
-0.2259110177
 30
0.0
 40
0.0833333333
 41
0.0
 71
     1
 72
     1
  1
FOCAL LENGTH: f=75.0mm
  7
SLDTEXTSTYLE0
 73
     1
 44
1.0
  0
MTEXT
  5
CB
330
C4
100
AcDbEntity
  8
0
  6
Continuous
 62
     0
370
     0
100
AcDbMText
 10
1.824256436
 20
-0.2259110177
 30
0.0
 40
0.0833333333
 41
0.0
 71
     1
 72
     1
  1
%%p
  7
SLDTEXTSTYLE0
 73
     1
 44
1.0
  0
MTEXT
  5
CC
330
C4
100
AcDbEntity
  8
0
  6
Continuous
 62
     0
370
     0
100
AcDbMText
 10
1.9037008916
 20
-0.2259110177
 30
0.0
 40
0.0833333333
 41
0.0
 71
     1
 72
     1
  1
1%
  7
SLDTEXTSTYLE0
 73
     1
 44
1.0
  0
MTEXT
  5
CD
330
C4
100
AcDbEntity
  8
0
  6
Continuous
 62
     0
370
     0
100
AcDbMText
 10
0.0
 20
-0.2259110177
 30
0.0
 40
0.0833333333
 41
0.0
 71
     1
 72
     1
  1
2.
  7
SLDTEXTSTYLE0
 73
     1
 44
1.0
  0
MTEXT
  5
CE
330
C4
100
AcDbEntity
  8
0
  6
Continuous
 62
     0
370
     0
100
AcDbMText
 10
0.4183921567
 20
-0.3370221274
 30
0.0
 40
0.0833333333
 41
0.0
 71
     1
 72
     1
  1
WORKING DISTANCE (REF): 61.5mm
  7
SLDTEXTSTYLE0
 73
     1
 44
1.0
  0
MTEXT
  5
CF
330
C4
100
AcDbEntity
  8
0
  6
Continuous
 62
     0
370
     0
100
AcDbMText
 10
0.0
 20
-0.3370221274
 30
0.0
 40
0.0833333333
 41
0.0
 71
     1
 72
     1
  1
3.
  7
SLDTEXTSTYLE0
 73
     1
 44
1.0
  0
MTEXT
  5
D0
330
C4
100
AcDbEntity
  8
0
  6
Continuous
 62
     0
370
     0
100
AcDbMText
 10
0.4183921567
 20
-0.4481332372
 30
0.0
 40
0.0833333333
 41
0.0
 71
     1
 72
     1
  1
CLEAR APERTURE: >
  7
SLDTEXTSTYLE0
 73
     1
 44
1.0
  0
MTEXT
  5
D1
330
C4
100
AcDbEntity
  8
0
  6
Continuous
 62
     0
370
     0
100
AcDbMText
 10
1.4507996036
 20
-0.4481332372
 30
0.0
 40
0.0833333333
 41
0.0
 71
     1
 72
     1
  1
%%c
  7
SLDTEXTSTYLE0
 73
     1
 44
1.0
  0
MTEXT
  5
D2
330
C4
100
AcDbEntity
  8
0
  6
Continuous
 62
     0
370
     0
100
AcDbMText
 10
1.5765865971
 20
-0.4481332372
 30
0.0
 40
0.0833333333
 41
0.0
 71
     1
 72
     1
  1
48.26mm
  7
SLDTEXTSTYLE0
 73
     1
 44
1.0
  0
MTEXT
  5
D3
330
C4
100
AcDbEntity
  8
0
  6
Continuous
 62
     0
370
     0
100
AcDbMText
 10
0.0
 20
-0.4481332372
 30
0.0
 40
0.0833333333
 41
0.0
 71
     1
 72
     1
  1
4.
  7
SLDTEXTSTYLE0
 73
     1
 44
1.0
  0
MTEXT
  5
D4
330
C4
100
AcDbEntity
  8
0
  6
Continuous
 62
     0
370
     0
100
AcDbMText
 10
0.4183921567
 20
-0.559244347
 30
0.0
 40
0.0833333333
 41
0.0
 71
     1
 72
     1
  1
SURFACE QUALITY: 40-20 SCRATCH-DIG
  7
SLDTEXTSTYLE0
 73
     1
 44
1.0
  0
MTEXT
  5
D5
330
C4
100
AcDbEntity
  8
0
  6
Continuous
 62
     0
370
     0
100
AcDbMText
 10
0.0
 20
-0.559244347
 30
0.0
 40
0.0833333333
 41
0.0
 71
     1
 72
     1
  1
5.
  7
SLDTEXTSTYLE0
 73
     1
 44
1.0
  0
MTEXT
  5
D6
330
C4
100
AcDbEntity
  8
0
  6
Continuous
 62
     0
370
     0
100
AcDbMText
 10
0.4183921567
 20
-0.6703554567
 30
0.0
 40
0.0833333333
 41
0.0
 71
     1
 72
     1
  1
COATING: BBAR Ravg<0.5% FROM 245-400nm, AOI: 0°,
  7
SLDTEXTSTYLE0
 73
     1
 44
1.0
  0
MTEXT
  5
D7
330
C4
100
AcDbEntity
  8
0
  6
Continuous
 62
     0
370
     0
100
AcDbMText
 10
0.0
 20
-0.6703554567
 30
0.0
 40
0.0833333333
 41
0.0
 71
     1
 72
     1
  1
6.
  7
SLDTEXTSTYLE0
 73
     1
 44
1.0
  0
MTEXT
  5
D8
330
C4
100
AcDbEntity
  8
0
  6
Continuous
 62
     0
370
     0
100
AcDbMText
 10
0.4249507874
 20
-0.7814665665
 30
0.0
 40
0.0833333333
 41
0.0
 71
     1
 72
     1
  1
ON OUTER OPTICAL SURFACES
  7
SLDTEXTSTYLE0
 73
     1
 44
1.0
  0
ENDBLK
  5
C6
330
C4
100
AcDbEntity
  8
0
100
AcDbBlockEnd
  0
BLOCK
  5
DB
330
DA
100
AcDbEntity
  8
0
100
AcDbBlockBegin
  2
SW_TABLEANNOTATION_0
 70
     0
 10
0.0
 20
0.0
 30
0.0
  3
SW_TABLEANNOTATION_0
  1
SW_TABLEANNOTATION_0
  0
LINE
  5
DD
330
DA
100
AcDbEntity
  8
0
  6
Continuous
 62
     0
370
     0
100
AcDbLine
 10
0.0
 20
0.0
 30
0.0
 11
0.0
 21
-1.2444444391
 31
0.0
  0
LINE
  5
DE
330
DA
100
AcDbEntity
  8
0
  6
Continuous
 62
     0
370
     0
100
AcDbLine
 10
0.0
 20
-1.2444444391
 30
0.0
 11
3.3
 21
-1.2444444391
 31
0.0
  0
LINE
  5
DF
330
DA
100
AcDbEntity
  8
0
  6
Continuous
 62
     0
370
     0
100
AcDbLine
 10
3.3
 20
-1.2444444391
 30
0.0
 11
3.3
 21
0.0
 31
0.0
  0
LINE
  5
E0
330
DA
100
AcDbEntity
  8
0
  6
Continuous
 62
     0
370
     0
100
AcDbLine
 10
3.3
 20
0.0
 30
0.0
 11
0.0
 21
0.0
 31
0.0
  0
LINE
  5
E1
330
DA
100
AcDbEntity
  8
0
  6
Continuous
 62
     0
370
     0
100
AcDbLine
 10
1.1
 20
0.0
 30
0.0
 11
1.1
 21
-1.2444444391
 31
0.0
  0
LINE
  5
E2
330
DA
100
AcDbEntity
  8
0
  6
Continuous
 62
     0
370
     0
100
AcDbLine
 10
2.2
 20
0.0
 30
0.0
 11
2.2
 21
-1.2444444391
 31
0.0
  0
LINE
  5
E3
330
DA
100
AcDbEntity
  8
0
  6
Continuous
 62
     0
370
     0
100
AcDbLine
 10
0.0
 20
-0.3111111098
 30
0.0
 11
3.3
 21
-0.3111111098
 31
0.0
  0
LINE
  5
E4
330
DA
100
AcDbEntity
  8
0
  6
Continuous
 62
     0
370
     0
100
AcDbLine
 10
0.0
 20
-0.6222222195
 30
0.0
 11
3.3
 21
-0.6222222195
 31
0.0
  0
LINE
  5
E5
330
DA
100
AcDbEntity
  8
0
  6
Continuous
 62
     0
370
     0
100
AcDbLine
 10
0.0
 20
-0.9333333293
 30
0.0
 11
3.3
 21
-0.9333333293
 31
0.0
  0
MTEXT
  5
E6
330
DA
100
AcDbEntity
  8
0
  6
Continuous
 62
     0
370
     0
100
AcDbMText
 10
1.1543981952
 20
-0.1139649221
 30
0.0
 40
0.0833333333
 41
0.0
 71
     1
 72
     1
  1
PART DESCRIPTION
  7
SLDTEXTSTYLE0
 73
     1
 44
1.0
  0
MTEXT
  5
E7
330
DA
100
AcDbEntity
  8
0
  6
Continuous
 62
     0
370
     0
100
AcDbMText
 10
2.491203698
 20
-0.1139649221
 30
0.0
 40
0.0833333333
 41
0.0
 71
     1
 72
     1
  1
MATERIAL
  7
SLDTEXTSTYLE0
 73
     1
 44
1.0
  0
INSERT
  5
ED
330
DA
100
AcDbEntity
  8
0
  6
Continuous
 62
     0
370
     0
100
AcDbBlockReference
  2
SW_SYMBOL_C#_1
 10
0.4374537001
 20
-0.5209423539
 30
0.0
 41
0.0027037109
 42
0.0027037109
 43
0.0027037109
  0
MTEXT
  5
EE
330
DA
100
AcDbEntity
  8
0
  6
Continuous
 62
     0
370
     0
100
AcDbMText
 10
1.4729938215
 20
-0.4250760319
 30
0.0
 40
0.0833333333
 41
0.0
 71
     1
 72
     1
  1
SM2RR
  7
SLDTEXTSTYLE0
 73
     1
 44
1.0
  0
MTEXT
  5
EF
330
DA
100
AcDbEntity
  8
0
  6
Continuous
 62
     0
370
     0
100
AcDbMText
 10
2.4676697448
 20
-0.369520477
 30
0.0
 40
0.0833333333
 41
0.0
 71
     1
 72
     1
  1
ANODIZED
  7
SLDTEXTSTYLE0
 73
     1
 44
1.0
  0
MTEXT
  5
F0
330
DA
100
AcDbEntity
  8
0
  6
Continuous
 62
     0
370
     0
100
AcDbMText
 10
2.4546296155
 20
-0.4806315868
 30
0.0
 40
0.0833333333
 41
0.0
 71
     1
 72
     1
  1
ALUMINUM
  7
SLDTEXTSTYLE0
 73
     1
 44
1.0
  0
INSERT
  5
F6
330
DA
100
AcDbEntity
  8
0
  6
Continuous
 62
     0
370
     0
100
AcDbBlockReference
  2
SW_SYMBOL_C#_2
 10
0.4374537001
 20
-0.8320534637
 30
0.0
 41
0.0027037109
 42
0.0027037109
 43
0.0027037109
  0
MTEXT
  5
F7
330
DA
100
AcDbEntity
  8
0
  6
Continuous
 62
     0
370
     0
100
AcDbMText
 10
1.3662037001
 20
-0.7361871416
 30
0.0
 40
0.0833333333
 41
0.0
 71
     1
 72
     1
  1
LA4078-UV
  7
SLDTEXTSTYLE0
 73
     1
 44
1.0
  0
MTEXT
  5
F8
330
DA
100
AcDbEntity
  8
0
  6
Continuous
 62
     0
370
     0
100
AcDbMText
 10
2.3169753357
 20
-0.7361871416
 30
0.0
 40
0.0833333333
 41
0.0
 71
     1
 72
     1
  1
UV FUSED SILICA
  7
SLDTEXTSTYLE0
 73
     1
 44
1.0
  0
INSERT
  5
FE
330
DA
100
AcDbEntity
  8
0
  6
Continuous
 62
     0
370
     0
100
AcDbBlockReference
  2
SW_SYMBOL_C#_3
 10
0.4374537001
 20
-1.1431645735
 30
0.0
 41
0.0027037109
 42
0.0027037109
 43
0.0027037109
  0
MTEXT
  5
FF
330
DA
100
AcDbEntity
  8
0
  6
Continuous
 62
     0
370
     0
100
AcDbMText
 10
1.3456018548
 20
-0.9917426965
 30
0.0
 40
0.0833333333
 41
0.0
 71
     1
 72
     1
  1
ENGRAVED
  7
SLDTEXTSTYLE0
 73
     1
 44
1.0
  0
MTEXT
  5
100
330
DA
100
AcDbEntity
  8
0
  6
Continuous
 62
     0
370
     0
100
AcDbMText
 10
1.3975308615
 20
-1.1028538063
 30
0.0
 40
0.0833333333
 41
0.0
 71
     1
 72
     1
  1
HOUSING
  7
SLDTEXTSTYLE0
 73
     1
 44
1.0
  0
MTEXT
  5
101
330
DA
100
AcDbEntity
  8
0
  6
Continuous
 62
     0
370
     0
100
AcDbMText
 10
2.4676697448
 20
-0.9917426965
 30
0.0
 40
0.0833333333
 41
0.0
 71
     1
 72
     1
  1
ANODIZED
  7
SLDTEXTSTYLE0
 73
     1
 44
1.0
  0
MTEXT
  5
102
330
DA
100
AcDbEntity
  8
0
  6
Continuous
 62
     0
370
     0
100
AcDbMText
 10
2.4546296155
 20
-1.1028538063
 30
0.0
 40
0.0833333333
 41
0.0
 71
     1
 72
     1
  1
ALUMINUM
  7
SLDTEXTSTYLE0
 73
     1
 44
1.0
  0
ENDBLK
  5
DC
330
DA
100
AcDbEntity
  8
0
100
AcDbBlockEnd
  0
BLOCK
  5
E9
330
E8
100
AcDbEntity
  8
0
100
AcDbBlockBegin
  2
SW_SYMBOL_C#_1
 70
     0
 10
0.0
 20
0.0
 30
0.0
  3
SW_SYMBOL_C#_1
  1
SW_SYMBOL_C#_1
  0
CIRCLE
  5
EB
330
E8
100
AcDbEntity
  8
0
  6
Continuous
 62
     0
370
     0
100
AcDbCircle
 10
31.4960629921
 20
19.6850393701
 30
0.0
 40
31.49606299212599
  0
MTEXT
  5
EC
330
E8
100
AcDbEntity
  8
0
  6
Continuous
 62
     0
370
     0
100
AcDbMText
 10
31.4960629921
 20
19.6850393701
 30
0.0
 40
30.821835344
 41
0.0
 71
     5
 72
     1
  1
1
  7
SLDTEXTSTYLE0
 73
     1
 44
1.0
  0
ENDBLK
  5
EA
330
E8
100
AcDbEntity
  8
0
100
AcDbBlockEnd
  0
BLOCK
  5
F2
330
F1
100
AcDbEntity
  8
0
100
AcDbBlockBegin
  2
SW_SYMBOL_C#_2
 70
     0
 10
0.0
 20
0.0
 30
0.0
  3
SW_SYMBOL_C#_2
  1
SW_SYMBOL_C#_2
  0
CIRCLE
  5
F4
330
F1
100
AcDbEntity
  8
0
  6
Continuous
 62
     0
370
     0
100
AcDbCircle
 10
31.4960629921
 20
19.6850393701
 30
0.0
 40
31.49606299212599
  0
MTEXT
  5
F5
330
F1
100
AcDbEntity
  8
0
  6
Continuous
 62
     0
370
     0
100
AcDbMText
 10
31.4960629921
 20
19.6850393701
 30
0.0
 40
30.821835344
 41
0.0
 71
     5
 72
     1
  1
2
  7
SLDTEXTSTYLE0
 73
     1
 44
1.0
  0
ENDBLK
  5
F3
330
F1
100
AcDbEntity
  8
0
100
AcDbBlockEnd
  0
BLOCK
  5
FA
330
F9
100
AcDbEntity
  8
0
100
AcDbBlockBegin
  2
SW_SYMBOL_C#_3
 70
     0
 10
0.0
 20
0.0
 30
0.0
  3
SW_SYMBOL_C#_3
  1
SW_SYMBOL_C#_3
  0
CIRCLE
  5
FC
330
F9
100
AcDbEntity
  8
0
  6
Continuous
 62
     0
370
     0
100
AcDbCircle
 10
31.4960629921
 20
19.6850393701
 30
0.0
 40
31.49606299212599
  0
MTEXT
  5
FD
330
F9
100
AcDbEntity
  8
0
  6
Continuous
 62
     0
370
     0
100
AcDbMText
 10
31.4960629921
 20
19.6850393701
 30
0.0
 40
30.821835344
 41
0.0
 71
     5
 72
     1
  1
3
  7
SLDTEXTSTYLE0
 73
     1
 44
1.0
  0
ENDBLK
  5
FB
330
F9
100
AcDbEntity
  8
0
100
AcDbBlockEnd
  0
BLOCK
  5
11F
330
11E
100
AcDbEntity
  8
0
100
AcDbBlockBegin
  2
_D
 70
     0
 10
0.0
 20
0.0
 30
0.0
  3
_D
  1
_D
  0
SOLID
  5
121
330
11E
100
AcDbEntity
  8
0
  6
Continuous
 62
     7
370
     0
100
AcDbTrace
 10
3.337983875
 20
5.2428208909
 30
0.0
 11
3.4226255316
 21
5.3369526601
 31
0.0
 12
3.3890297642
 22
5.3586626675
 32
0.0
 13
3.3890297642
 23
5.3586626675
 33
0.0
  0
LINE
  5
122
330
11E
100
AcDbEntity
  8
0
  6
Continuous
 62
     7
370
     0
100
AcDbLine
 10
3.9049232565
 20
5.7743110913
 30
0.0
 11
3.8880251085
 21
5.7743110913
 31
0.0
  0
LINE
  5
123
330
11E
100
AcDbEntity
  8
0
  6
Continuous
 62
     7
370
     0
100
AcDbLine
 10
3.8880251085
 20
5.7743110913
 30
0.0
 11
3.8880251085
 21
5.6419036867
 31
0.0
  0
LINE
  5
124
330
11E
100
AcDbEntity
  8
0
  6
Continuous
 62
     7
370
     0
100
AcDbLine
 10
3.8880251085
 20
5.6419036867
 30
0.0
 11
3.9049232565
 21
5.6419036867
 31
0.0
  0
LINE
  5
125
330
11E
100
AcDbEntity
  8
0
  6
Continuous
 62
     7
370
     0
100
AcDbLine
 10
4.3709340762
 20
5.7743110913
 30
0.0
 11
4.3878322243
 21
5.7743110913
 31
0.0
  0
LINE
  5
126
330
11E
100
AcDbEntity
  8
0
  6
Continuous
 62
     7
370
     0
100
AcDbLine
 10
4.3878322243
 20
5.7743110913
 30
0.0
 11
4.3878322243
 21
5.6419036867
 31
0.0
  0
LINE
  5
127
330
11E
100
AcDbEntity
  8
0
  6
Continuous
 62
     7
370
     0
100
AcDbLine
 10
4.3878322243
 20
5.6419036867
 30
0.0
 11
4.3709340762
 21
5.6419036867
 31
0.0
  0
LINE
  5
128
330
11E
100
AcDbEntity
  8
0
  6
Continuous
 62
     7
370
     0
100
AcDbLine
 10
3.337983875
 20
5.2428208909
 30
0.0
 11
3.7253514972
 21
5.842263918
 31
0.0
  0
LINE
  5
129
330
11E
100
AcDbEntity
  8
0
  6
Continuous
 62
     7
370
     0
100
AcDbLine
 10
3.7253514972
 20
5.842263918
 30
0.0
 11
3.8753514972
 21
5.842263918
 31
0.0
  0
MTEXT
  5
12A
330
11E
100
AcDbEntity
  8
0
  6
Continuous
 62
     7
370
     0
100
AcDbMText
 10
3.8753514972
 20
5.8986315498
 30
0.0
 40
0.0833333333
 41
0.0
 71
     1
 72
     1
  1
%%c
  7
SLDTEXTSTYLE0
 73
     1
 44
1.0
  0
MTEXT
  5
12B
330
11E
100
AcDbEntity
  8
0
  6
Continuous
 62
     7
370
     0
100
AcDbMText
 10
4.0011385366
 20
5.8986315498
 30
0.0
 40
0.0833333333
 41
0.0
 71
     1
 72
     1
  1
2.20in
  7
SLDTEXTSTYLE0
 73
     1
 44
1.0
  0
MTEXT
  5
12C
330
11E
100
AcDbEntity
  8
0
  6
Continuous
 62
     7
370
     0
100
AcDbMText
 10
3.9260459424
 20
5.7493259938
 30
0.0
 40
0.0833333333
 41
0.0
 71
     1
 72
     1
  1
55.9mm
  7
SLDTEXTSTYLE0
 73
     1
 44
1.0
  0
ENDBLK
  5
120
330
11E
100
AcDbEntity
  8
0
100
AcDbBlockEnd
  0
BLOCK
  5
1B3
330
1B2
100
AcDbEntity
  8
0
100
AcDbBlockBegin
  2
_D_1
 70
     0
 10
0.0
 20
0.0
 30
0.0
  3
_D_1
  1
_D_1
  0
SOLID
  5
1B5
330
1B2
100
AcDbEntity
  8
0
  6
Continuous
 62
     7
370
     0
100
AcDbTrace
 10
6.9494323362
 20
6.0488585493
 30
0.0
 11
6.8244323362
 21
6.0688585493
 31
0.0
 12
6.8244323362
 22
6.0288585493
 32
0.0
 13
6.8244323362
 23
6.0288585493
 33
0.0
  0
SOLID
  5
1B6
330
1B2
100
AcDbEntity
  8
0
  6
Continuous
 62
     7
370
     0
100
AcDbTrace
 10
7.6594323362
 20
6.0488585493
 30
0.0
 11
7.7844323362
 21
6.0288585493
 31
0.0
 12
7.7844323362
 22
6.0688585493
 32
0.0
 13
7.7844323362
 23
6.0688585493
 33
0.0
  0
LINE
  5
1B7
330
1B2
100
AcDbEntity
  8
0
  6
Continuous
 62
     7
370
     0
100
AcDbLine
 10
7.0714269172
 20
6.0488585401
 30
0.0
 11
7.0545287692
 21
6.0488585401
 31
0.0
  0
LINE
  5
1B8
330
1B2
100
AcDbEntity
  8
0
  6
Continuous
 62
     7
370
     0
100
AcDbLine
 10
7.0545287692
 20
6.0488585401
 30
0.0
 11
7.0545287692
 21
5.9164511355
 31
0.0
  0
LINE
  5
1B9
330
1B2
100
AcDbEntity
  8
0
  6
Continuous
 62
     7
370
     0
100
AcDbLine
 10
7.0545287692
 20
5.9164511355
 30
0.0
 11
7.0714269172
 21
5.9164511355
 31
0.0
  0
LINE
  5
1BA
330
1B2
100
AcDbEntity
  8
0
  6
Continuous
 62
     7
370
     0
100
AcDbLine
 10
7.5374377369
 20
6.0488585401
 30
0.0
 11
7.5543358849
 21
6.0488585401
 31
0.0
  0
LINE
  5
1BB
330
1B2
100
AcDbEntity
  8
0
  6
Continuous
 62
     7
370
     0
100
AcDbLine
 10
7.5543358849
 20
6.0488585401
 30
0.0
 11
7.5543358849
 21
5.9164511355
 31
0.0
  0
LINE
  5
1BC
330
1B2
100
AcDbEntity
  8
0
  6
Continuous
 62
     7
370
     0
100
AcDbLine
 10
7.5543358849
 20
5.9164511355
 30
0.0
 11
7.5374377369
 21
5.9164511355
 31
0.0
  0
LINE
  5
1BD
330
1B2
100
AcDbEntity
  8
0
  6
Continuous
 62
     7
370
     0
100
AcDbLine
 10
6.9494323362
 20
5.4589372894
 30
0.0
 11
6.9494323362
 21
6.1188585493
 31
0.0
  0
LINE
  5
1BE
330
1B2
100
AcDbEntity
  8
0
  6
Continuous
 62
     7
370
     0
100
AcDbLine
 10
7.6594323362
 20
5.3691167813
 30
0.0
 11
7.6594323362
 21
6.1188585493
 31
0.0
  0
LINE
  5
1BF
330
1B2
100
AcDbEntity
  8
0
  6
Continuous
 62
     7
370
     0
100
AcDbLine
 10
6.9494323362
 20
6.0488585493
 30
0.0
 11
6.6994323362
 21
6.0488585493
 31
0.0
  0
LINE
  5
1C0
330
1B2
100
AcDbEntity
  8
0
  6
Continuous
 62
     7
370
     0
100
AcDbLine
 10
7.6594323362
 20
6.0488585493
 30
0.0
 11
7.9094323362
 21
6.0488585493
 31
0.0
  0
MTEXT
  5
1C1
330
1B2
100
AcDbEntity
  8
0
  6
Continuous
 62
     7
370
     0
100
AcDbMText
 10
7.0429354057
 20
6.1731789986
 30
0.0
 40
0.0833333333
 41
0.0
 71
     1
 72
     1
  1

  7
SLDTEXTSTYLE0
 73
     1
 44
1.0
  0
MTEXT
  5
1C2
330
1B2
100
AcDbEntity
  8
0
  6
Continuous
 62
     7
370
     0
100
AcDbMText
 10
7.1517316969
 20
6.1731789986
 30
0.0
 40
0.0833333333
 41
0.0
 71
     1
 72
     1
  1
0.71in
  7
SLDTEXTSTYLE0
 73
     1
 44
1.0
  0
MTEXT
  5
1C3
330
1B2
100
AcDbEntity
  8
0
  6
Continuous
 62
     7
370
     0
100
AcDbMText
 10
7.0925496031
 20
6.0238734426
 30
0.0
 40
0.0833333333
 41
0.0
 71
     1
 72
     1
  1
18.0mm
  7
SLDTEXTSTYLE0
 73
     1
 44
1.0
  0
MTEXT
  5
1C4
330
1B2
100
AcDbEntity
  8
0
  6
Continuous
 62
     7
370
     0
100
AcDbMText
 10
7.6295094962
 20
6.1731789986
 30
0.0
 40
0.0833333333
 41
0.0
 71
     1
 72
     1
  1

  7
SLDTEXTSTYLE0
 73
     1
 44
1.0
  0
ENDBLK
  5
1B4
330
1B2
100
AcDbEntity
  8
0
100
AcDbBlockEnd
  0
BLOCK
  5
1C7
330
1C6
100
AcDbEntity
  8
0
100
AcDbBlockBegin
  2
_D_2
 70
     0
 10
0.0
 20
0.0
 30
0.0
  3
_D_2
  1
_D_2
  0
SOLID
  5
1C9
330
1C6
100
AcDbEntity
  8
0
  6
Continuous
 62
     7
370
     0
100
AcDbTrace
 10
7.5394323362
 20
5.5864208483
 30
0.0
 11
7.4144323362
 21
5.6064208483
 31
0.0
 12
7.4144323362
 22
5.5664208483
 32
0.0
 13
7.4144323362
 23
5.5664208483
 33
0.0
  0
SOLID
  5
1CA
330
1C6
100
AcDbEntity
  8
0
  6
Continuous
 62
     7
370
     0
100
AcDbTrace
 10
7.6594323362
 20
5.5864208483
 30
0.0
 11
7.7844323362
 21
5.5664208483
 31
0.0
 12
7.7844323362
 22
5.6064208483
 32
0.0
 13
7.7844323362
 23
5.6064208483
 33
0.0
  0
LINE
  5
1CB
330
1C6
100
AcDbEntity
  8
0
  6
Continuous
 62
     7
370
     0
100
AcDbLine
 10
8.0195216885
 20
5.5864208391
 30
0.0
 11
8.0026235405
 21
5.5864208391
 31
0.0
  0
LINE
  5
1CC
330
1C6
100
AcDbEntity
  8
0
  6
Continuous
 62
     7
370
     0
100
AcDbLine
 10
8.0026235405
 20
5.5864208391
 30
0.0
 11
8.0026235405
 21
5.4540134345
 31
0.0
  0
LINE
  5
1CD
330
1C6
100
AcDbEntity
  8
0
  6
Continuous
 62
     7
370
     0
100
AcDbLine
 10
8.0026235405
 20
5.4540134345
 30
0.0
 11
8.0195216885
 21
5.4540134345
 31
0.0
  0
LINE
  5
1CE
330
1C6
100
AcDbEntity
  8
0
  6
Continuous
 62
     7
370
     0
100
AcDbLine
 10
8.4239584096
 20
5.5864208391
 30
0.0
 11
8.4408565576
 21
5.5864208391
 31
0.0
  0
LINE
  5
1CF
330
1C6
100
AcDbEntity
  8
0
  6
Continuous
 62
     7
370
     0
100
AcDbLine
 10
8.4408565576
 20
5.5864208391
 30
0.0
 11
8.4408565576
 21
5.4540134345
 31
0.0
  0
LINE
  5
1D0
330
1C6
100
AcDbEntity
  8
0
  6
Continuous
 62
     7
370
     0
100
AcDbLine
 10
8.4408565576
 20
5.4540134345
 30
0.0
 11
8.4239584096
 21
5.4540134345
 31
0.0
  0
LINE
  5
1D1
330
1C6
100
AcDbEntity
  8
0
  6
Continuous
 62
     7
370
     0
100
AcDbLine
 10
7.5394323362
 20
5.4589372894
 30
0.0
 11
7.5394323362
 21
5.6564208483
 31
0.0
  0
LINE
  5
1D2
330
1C6
100
AcDbEntity
  8
0
  6
Continuous
 62
     7
370
     0
100
AcDbLine
 10
7.6594323362
 20
5.3691167813
 30
0.0
 11
7.6594323362
 21
5.6564208483
 31
0.0
  0
LINE
  5
1D3
330
1C6
100
AcDbEntity
  8
0
  6
Continuous
 62
     7
370
     0
100
AcDbLine
 10
7.5394323362
 20
5.5864208483
 30
0.0
 11
7.2894323362
 21
5.5864208483
 31
0.0
  0
LINE
  5
1D4
330
1C6
100
AcDbEntity
  8
0
  6
Continuous
 62
     7
370
     0
100
AcDbLine
 10
7.6594323362
 20
5.5864208483
 30
0.0
 11
7.9116372813
 21
5.5864208483
 31
0.0
  0
MTEXT
  5
1D5
330
1C6
100
AcDbEntity
  8
0
  6
Continuous
 62
     7
370
     0
100
AcDbMText
 10
7.9910301771
 20
5.7107412977
 30
0.0
 40
0.0833333333
 41
0.0
 71
     1
 72
     1
  1

  7
SLDTEXTSTYLE0
 73
     1
 44
1.0
  0
MTEXT
  5
1D6
330
1C6
100
AcDbEntity
  8
0
  6
Continuous
 62
     7
370
     0
100
AcDbMText
 10
8.0690394189
 20
5.7107412977
 30
0.0
 40
0.0833333333
 41
0.0
 71
     1
 72
     1
  1
0.12in
  7
SLDTEXTSTYLE0
 73
     1
 44
1.0
  0
MTEXT
  5
1D7
330
1C6
100
AcDbEntity
  8
0
  6
Continuous
 62
     7
370
     0
100
AcDbMText
 10
8.0406443744
 20
5.5614357416
 30
0.0
 40
0.0833333333
 41
0.0
 71
     1
 72
     1
  1
3.0mm
  7
SLDTEXTSTYLE0
 73
     1
 44
1.0
  0
MTEXT
  5
1D8
330
1C6
100
AcDbEntity
  8
0
  6
Continuous
 62
     7
370
     0
100
AcDbMText
 10
8.5160301322
 20
5.7107412977
 30
0.0
 40
0.0833333333
 41
0.0
 71
     1
 72
     1
  1

  7
SLDTEXTSTYLE0
 73
     1
 44
1.0
  0
ENDBLK
  5
1C8
330
1C6
100
AcDbEntity
  8
0
100
AcDbBlockEnd
  0
BLOCK
  5
1DC
330
1DB
100
AcDbEntity
  8
0
100
AcDbBlockBegin
  2
_D_3
 70
     0
 10
0.0
 20
0.0
 30
0.0
  3
_D_3
  1
_D_3
  0
SOLID
  5
1DE
330
1DB
100
AcDbEntity
  8
0
  6
Continuous
 62
     7
370
     0
100
AcDbTrace
 10
8.2217400399
 20
5.2689372894
 30
0.0
 11
8.2017400399
 21
5.1439372894
 31
0.0
 12
8.2417400399
 22
5.1439372894
 32
0.0
 13
8.2417400399
 23
5.1439372894
 33
0.0
  0
SOLID
  5
1DF
330
1DB
100
AcDbEntity
  8
0
  6
Continuous
 62
     7
370
     0
100
AcDbTrace
 10
8.2217400399
 20
3.3689372894
 30
0.0
 11
8.2417400399
 21
3.4939372894
 31
0.0
 12
8.2017400399
 22
3.4939372894
 32
0.0
 13
8.2017400399
 23
3.4939372894
 33
0.0
  0
LINE
  5
1E0
330
1DB
100
AcDbEntity
  8
0
  6
Continuous
 62
     7
370
     0
100
AcDbLine
 10
7.9887346392
 20
4.3295854322
 30
0.0
 11
7.9718364912
 21
4.3295854322
 31
0.0
  0
LINE
  5
1E1
330
1DB
100
AcDbEntity
  8
0
  6
Continuous
 62
     7
370
     0
100
AcDbLine
 10
7.9718364912
 20
4.3295854322
 30
0.0
 11
7.9718364912
 21
4.1971780277
 31
0.0
  0
LINE
  5
1E2
330
1DB
100
AcDbEntity
  8
0
  6
Continuous
 62
     7
370
     0
100
AcDbLine
 10
7.9718364912
 20
4.1971780277
 30
0.0
 11
7.9887346392
 21
4.1971780277
 31
0.0
  0
LINE
  5
1E3
330
1DB
100
AcDbEntity
  8
0
  6
Continuous
 62
     7
370
     0
100
AcDbLine
 10
8.4547454589
 20
4.3295854322
 30
0.0
 11
8.4716436069
 21
4.3295854322
 31
0.0
  0
LINE
  5
1E4
330
1DB
100
AcDbEntity
  8
0
  6
Continuous
 62
     7
370
     0
100
AcDbLine
 10
8.4716436069
 20
4.3295854322
 30
0.0
 11
8.4716436069
 21
4.1971780277
 31
0.0
  0
LINE
  5
1E5
330
1DB
100
AcDbEntity
  8
0
  6
Continuous
 62
     7
370
     0
100
AcDbLine
 10
8.4716436069
 20
4.1971780277
 30
0.0
 11
8.4547454589
 21
4.1971780277
 31
0.0
  0
LINE
  5
1E6
330
1DB
100
AcDbEntity
  8
0
  6
Continuous
 62
     7
370
     0
100
AcDbLine
 10
7.7094323362
 20
5.2689372894
 30
0.0
 11
8.2917400399
 21
5.2689372894
 31
0.0
  0
LINE
  5
1E7
330
1DB
100
AcDbEntity
  8
0
  6
Continuous
 62
     7
370
     0
100
AcDbLine
 10
7.7094323362
 20
3.3689372894
 30
0.0
 11
8.2917400399
 21
3.3689372894
 31
0.0
  0
LINE
  5
1E8
330
1DB
100
AcDbEntity
  8
0
  6
Continuous
 62
     7
370
     0
100
AcDbLine
 10
8.2217400399
 20
5.2689372894
 30
0.0
 11
8.2217400399
 21
4.4575946935
 31
0.0
  0
LINE
  5
1E9
330
1DB
100
AcDbEntity
  8
0
  6
Continuous
 62
     7
370
     0
100
AcDbLine
 10
8.2217400399
 20
3.3689372894
 30
0.0
 11
8.2217400399
 21
4.1802798854
 31
0.0
  0
MTEXT
  5
1EA
330
1DB
100
AcDbEntity
  8
0
  6
Continuous
 62
     7
370
     0
100
AcDbMText
 10
8.0061459038
 20
4.4539058908
 30
0.0
 40
0.0833333333
 41
0.0
 71
     1
 72
     1
  1
%%c
  7
SLDTEXTSTYLE0
 73
     1
 44
1.0
  0
MTEXT
  5
1EB
330
1DB
100
AcDbEntity
  8
0
  6
Continuous
 62
     7
370
     0
100
AcDbMText
 10
8.1319329432
 20
4.4539058908
 30
0.0
 40
0.0833333333
 41
0.0
 71
     1
 72
     1
  1
1.90in
  7
SLDTEXTSTYLE0
 73
     1
 44
1.0
  0
MTEXT
  5
1EC
330
1DB
100
AcDbEntity
  8
0
  6
Continuous
 62
     7
370
     0
100
AcDbMText
 10
8.0098573251
 20
4.3046003347
 30
0.0
 40
0.0833333333
 41
0.0
 71
     1
 72
     1
  1
48.3mm
  7
SLDTEXTSTYLE0
 73
     1
 44
1.0
  0
ENDBLK
  5
1DD
330
1DB
100
AcDbEntity
  8
0
100
AcDbBlockEnd
  0
BLOCK
  5
1EE
330
1ED
100
AcDbEntity
  8
0
100
AcDbBlockBegin
  2
SW_NOTE_5
 70
     0
 10
0.0
 20
0.0
 30
0.0
  3
SW_NOTE_5
  1
SW_NOTE_5
  0
MTEXT
  5
1F1
330
1ED
100
AcDbEntity
  8
0
  6
Continuous
 62
     0
370
     0
100
AcDbMText
 10
-2.2693223272
 20
0.0392720898
 30
0.0
 40
0.0833333333
 41
0.0
 71
     1
 72
     1
  1
SM2 (
  7
SLDTEXTSTYLE3
 73
     1
 44
1.0
  0
MTEXT
  5
1F2
330
1ED
100
AcDbEntity
  8
0
  6
Continuous
 62
     0
370
     0
100
AcDbMText
 10
-1.9477173924
 20
0.0392720898
 30
0.0
 40
0.0833333333
 41
0.0
 71
     1
 72
     1
  1
%%c
  7
SLDTEXTSTYLE0
 73
     1
 44
1.0
  0
MTEXT
  5
1F3
330
1ED
100
AcDbEntity
  8
0
  6
Continuous
 62
     0
370
     0
100
AcDbMText
 10
-1.8219303622
 20
0.0392720898
 30
0.0
 40
0.0833333333
 41
0.0
 71
     1
 72
     1
  1
2.035-40) SERIES INTERNAL THREAD
  7
SLDTEXTSTYLE0
 73
     1
 44
1.0
  0
ENDBLK
  5
1EF
330
1ED
100
AcDbEntity
  8
0
100
AcDbBlockEnd
  0
BLOCK
  5
1F8
330
1F7
100
AcDbEntity
  8
0
100
AcDbBlockBegin
  2
SW_NOTE_6
 70
     0
 10
0.0
 20
0.0
 30
0.0
  3
SW_NOTE_6
  1
SW_NOTE_6
  0
MTEXT
  5
1FA
330
1F7
100
AcDbEntity
  8
0
  6
Continuous
 62
     0
370
     0
100
AcDbMText
 10
0.0231182708
 20
0.0395567136
 30
0.0
 40
0.0833333333
 41
0.0
 71
     1
 72
     1
  1
SM2 (
  7
SLDTEXTSTYLE3
 73
     1
 44
1.0
  0
MTEXT
  5
1FB
330
1F7
100
AcDbEntity
  8
0
  6
Continuous
 62
     0
370
     0
100
AcDbMText
 10
0.3140133387
 20
0.0395567136
 30
0.0
 40
0.0833333333
 41
0.0
 71
     1
 72
     1
  1
%%c
  7
SLDTEXTSTYLE0
 73
     1
 44
1.0
  0
MTEXT
  5
1FC
330
1F7
100
AcDbEntity
  8
0
  6
Continuous
 62
     0
370
     0
100
AcDbMText
 10
0.4398003873
 20
0.0395567136
 30
0.0
 40
0.0833333333
 41
0.0
 71
     1
 72
     1
  1
2.035-40) SERIES EXTERNAL THREAD
  7
SLDTEXTSTYLE0
 73
     1
 44
1.0
  0
ENDBLK
  5
1F9
330
1F7
100
AcDbEntity
  8
0
100
AcDbBlockEnd
  0
BLOCK
  5
200
330
1FF
100
AcDbEntity
  8
0
100
AcDbBlockBegin
  2
SW_NOTE_7
 70
     0
 10
0.0
 20
0.0
 30
0.0
  3
SW_NOTE_7
  1
SW_NOTE_7
  0
CIRCLE
  5
202
330
1FF
100
AcDbEntity
  8
0
  6
Continuous
 62
     0
370
     0
100
AcDbCircle
 10
-0.1751923828
 20
0.0
 30
0.0
 40
0.1751923827711662
  0
MTEXT
  5
203
330
1FF
100
AcDbEntity
  8
0
  6
Continuous
 62
     0
370
     0
100
AcDbMText
 10
-0.1764510635
 20
0.0649353792
 30
0.0
 40
0.125
 41
0.0
 71
     2
 72
     1
  1
1
  7
SLDTEXTSTYLE0
 73
     1
 44
1.0
  0
ENDBLK
  5
201
330
1FF
100
AcDbEntity
  8
0
100
AcDbBlockEnd
  0
BLOCK
  5
207
330
206
100
AcDbEntity
  8
0
100
AcDbBlockBegin
  2
SW_NOTE_8
 70
     0
 10
0.0
 20
0.0
 30
0.0
  3
SW_NOTE_8
  1
SW_NOTE_8
  0
CIRCLE
  5
209
330
206
100
AcDbEntity
  8
0
  6
Continuous
 62
     0
370
     0
100
AcDbCircle
 10
-0.1751923828
 20
0.0
 30
0.0
 40
0.1751923827711672
  0
MTEXT
  5
20A
330
206
100
AcDbEntity
  8
0
  6
Continuous
 62
     0
370
     0
100
AcDbMText
 10
-0.1764510635
 20
0.0649353792
 30
0.0
 40
0.125
 41
0.0
 71
     2
 72
     1
  1
3
  7
SLDTEXTSTYLE0
 73
     1
 44
1.0
  0
ENDBLK
  5
208
330
206
100
AcDbEntity
  8
0
100
AcDbBlockEnd
  0
BLOCK
  5
20E
330
20D
100
AcDbEntity
  8
0
100
AcDbBlockBegin
  2
SW_NOTE_9
 70
     0
 10
0.0
 20
0.0
 30
0.0
  3
SW_NOTE_9
  1
SW_NOTE_9
  0
CIRCLE
  5
210
330
20D
100
AcDbEntity
  8
0
  6
Continuous
 62
     0
370
     0
100
AcDbCircle
 10
0.1751923828
 20
0.0
 30
0.0
 40
0.1751923827711672
  0
MTEXT
  5
211
330
20D
100
AcDbEntity
  8
0
  6
Continuous
 62
     0
370
     0
100
AcDbMText
 10
0.1739337021
 20
0.0649353792
 30
0.0
 40
0.125
 41
0.0
 71
     2
 72
     1
  1
2
  7
SLDTEXTSTYLE0
 73
     1
 44
1.0
  0
ENDBLK
  5
20F
330
20D
100
AcDbEntity
  8
0
100
AcDbBlockEnd
  0
ENDSEC
  0
SECTION
  2
ENTITIES
  0
LINE
  5
7D
330
1F
100
AcDbEntity
  8
0
  6
Continuous
 62
     7
370
     0
100
AcDbLine
 10
0.0621791378
 20
8.4506055117
 30
0.0
 11
10.9444569626
 21
8.4506055117
 31
0.0
  0
LINE
  5
7E
330
1F
100
AcDbEntity
  8
0
  6
Continuous
 62
     7
370
     0
100
AcDbLine
 10
0.0621791378
 20
8.4506055117
 30
0.0
 11
0.0621791378
 21
0.035557648
 31
0.0
  0
LINE
  5
7F
330
1F
100
AcDbEntity
  8
0
  6
Continuous
 62
     7
370
     0
100
AcDbLine
 10
10.9444569626
 20
0.035557648
 30
0.0
 11
0.0621791378
 21
0.035557648
 31
0.0
  0
LINE
  5
80
330
1F
100
AcDbEntity
  8
0
  6
Continuous
 62
     7
370
     0
100
AcDbLine
 10
10.9444569626
 20
0.035557648
 30
0.0
 11
10.9444569626
 21
8.4506055117
 31
0.0
  0
LINE
  5
81
330
1F
100
AcDbEntity
  8
0
  6
Continuous
 62
     7
370
     0
100
AcDbLine
 10
8.4938096065
 20
0.4840901186
 30
0.0
 11
6.7571952625
 21
0.4840901186
 31
0.0
  0
LINE
  5
82
330
1F
100
AcDbEntity
  8
0
  6
Continuous
 62
     7
370
     0
100
AcDbLine
 10
6.7571952625
 20
0.4840901186
 30
0.0
 11
6.7571952625
 21
1.030163002
 31
0.0
  0
LINE
  5
83
330
1F
100
AcDbEntity
  8
0
  6
Continuous
 62
     7
370
     0
100
AcDbLine
 10
6.7571952625
 20
0.035557648
 30
0.0
 11
6.7571952625
 21
1.030163002
 31
0.0
  0
LINE
  5
84
330
1F
100
AcDbEntity
  8
0
  6
Continuous
 62
     7
370
     0
100
AcDbLine
 10
8.4938096065
 20
0.6756085809
 30
0.0
 11
10.9444569626
 21
0.6756085809
 31
0.0
  0
LINE
  5
85
330
1F
100
AcDbEntity
  8
0
  6
Continuous
 62
     7
370
     0
100
AcDbLine
 10
8.4938096065
 20
1.3873799542
 30
0.0
 11
8.4938096065
 21
0.035557648
 31
0.0
  0
LINE
  5
86
330
1F
100
AcDbEntity
  8
0
  6
Continuous
 62
     7
370
     0
100
AcDbLine
 10
8.4938096065
 20
1.030163002
 30
0.0
 11
6.7571952625
 21
1.030163002
 31
0.0
  0
LINE
  5
87
330
1F
100
AcDbEntity
  8
0
  6
Continuous
 62
     7
370
     0
100
AcDbLine
 10
8.4938096065
 20
0.3598787426
 30
0.0
 11
10.9444569626
 21
0.3598787426
 31
0.0
  0
LINE
  5
88
330
1F
100
AcDbEntity
  8
0
  6
Continuous
 62
     7
370
     0
100
AcDbLine
 10
8.4938096065
 20
0.6662079686
 30
0.0
 11
6.7571952625
 21
0.6662079686
 31
0.0
  0
LINE
  5
89
330
1F
100
AcDbEntity
  8
0
  6
Continuous
 62
     7
370
     0
100
AcDbLine
 10
8.4938096065
 20
0.8459606517
 30
0.0
 11
6.7571952625
 21
0.8459606517
 31
0.0
  0
LINE
  5
8A
330
1F
100
AcDbEntity
  8
0
  6
Continuous
 62
     7
370
     0
100
AcDbLine
 10
7.3281027587
 20
1.030163002
 30
0.0
 11
7.3281027587
 21
0.4840901186
 31
0.0
  0
LINE
  5
8B
330
1F
100
AcDbEntity
  8
0
  6
Continuous
 62
     7
370
     0
100
AcDbLine
 10
7.8037240401
 20
1.030163002
 30
0.0
 11
7.8037240401
 21
0.4840901186
 31
0.0
  0
LINE
  5
8C
330
1F
100
AcDbEntity
  8
0
  6
Continuous
 62
     7
370
     0
100
AcDbLine
 10
9.990119718
 20
0.3598787426
 30
0.0
 11
9.990119718
 21
0.035557648
 31
0.0
  0
LINE
  5
8D
330
1F
100
AcDbEntity
  8
0
  6
Continuous
 62
     7
370
     0
100
AcDbLine
 10
6.7571952625
 20
0.4840901186
 30
0.0
 11
6.7571952625
 21
0.297745443
 31
0.0
  0
LINE
  5
8E
330
1F
100
AcDbEntity
  8
0
  6
Continuous
 62
     7
370
     0
100
AcDbLine
 10
6.7571952625
 20
0.297745443
 30
0.0
 11
8.4938096065
 21
0.297745443
 31
0.0
  0
LINE
  5
8F
330
1F
100
AcDbEntity
  8
0
  6
Continuous
 62
     7
370
     0
100
AcDbLine
 10
6.7571952625
 20
0.297745443
 30
0.0
 11
6.7571952625
 21
1.3873799542
 31
0.0
  0
LINE
  5
90
330
1F
100
AcDbEntity
  8
0
  6
Continuous
 62
     7
370
     0
100
AcDbLine
 10
6.7571952625
 20
1.3873799542
 30
0.0
 11
8.4938096065
 21
1.3873799542
 31
0.0
  0
LINE
  5
91
330
1F
100
AcDbEntity
  8
0
  6
Continuous
 62
     7
370
     0
100
AcDbLine
 10
10.6365495992
 20
0.6756085809
 30
0.0
 11
10.6365495992
 21
0.3598787426
 31
0.0
  0
LINE
  5
92
330
1F
100
AcDbEntity
  8
0
  6
Continuous
 62
     7
370
     0
100
AcDbLine
 10
8.4938096065
 20
1.3873799542
 30
0.0
 11
10.9444569626
 21
1.3873799542
 31
0.0
  0
LINE
  5
93
330
1F
100
AcDbEntity
  8
0
  6
Continuous
 62
     7
370
     0
100
AcDbLine
 10
10.9444569626
 20
1.3873799542
 30
0.0
 11
10.9444569626
 21
1.9698084888
 31
0.0
  0
LINE
  5
94
330
1F
100
AcDbEntity
  8
0
  6
Continuous
 62
     7
370
     0
100
AcDbLine
 10
8.4938096065
 20
0.9800288797
 30
0.0
 11
10.9444569626
 21
0.9800288797
 31
0.0
  0
INSERT
  5
95
330
1F
100
AcDbEntity
  8
0
  6
Continuous
 62
     7
100
AcDbBlockReference
  2
Third Angle Projection Block
 10
4.6348905679
 20
0.6108753523
 30
0.0
 41
0.8
 42
0.8
 43
0.8
  0
MTEXT
  5
97
330
1F
100
AcDbEntity
  8
0
  6
Continuous
 62
     7
370
     0
100
AcDbMText
 10
10.7892734632
 20
0.5227176726
 30
0.0
 40
0.125
 41
0.0
 71
     2
 72
     1
  1
A
  7
SLDTEXTSTYLE0
 73
     1
 44
1.0
  0
MTEXT
  5
98
330
1F
100
AcDbEntity
  8
0
  6
Continuous
 62
     7
370
     0
100
AcDbMText
 10
9.229488092
 20
0.2019943461
 30
0.0
 40
0.125
 41
0.0
 71
     2
 72
     1
  1
LA4078-UV-ML
  7
SLDTEXTSTYLE0
 73
     1
 44
1.0
  0
MTEXT
  5
99
330
1F
100
AcDbEntity
  8
0
  6
Continuous
 62
     7
370
     0
100
AcDbMText
 10
8.5204715199
 20
0.6623747189
 30
0.0
 40
0.0833333333
 41
0.0
 71
     1
 72
     1
  1
MATERIAL
  7
SLDTEXTSTYLE0
 73
     1
 44
1.0
  0
MTEXT
  5
9A
330
1F
100
AcDbEntity
  8
0
  6
Continuous
 62
     7
370
     0
100
AcDbMText
 10
6.8594860853
 20
0.7895493672
 30
0.0
 40
0.0729166667
 41
0.0
 71
     1
 72
     1
  1
DRAWN
  7
SLDTEXTSTYLE0
 73
     1
 44
1.0
  0
MTEXT
  5
9B
330
1F
100
AcDbEntity
  8
0
  6
Continuous
 62
     7
370
     0
100
AcDbMText
 10
6.7872445848
 20
0.613335314
 30
0.0
 40
0.0729166667
 41
0.0
 71
     1
 72
     1
  1
APPROVAL
  7
SLDTEXTSTYLE0
 73
     1
 44
1.0
  0
MTEXT
  5
9C
330
1F
100
AcDbEntity
  8
0
  6
Continuous
 62
     7
370
     0
100
AcDbMText
 10
10.6936137314
 20
0.6373332609
 30
0.0
 40
0.0833333333
 41
0.0
 71
     1
 72
     1
  1
REV
  7
SLDTEXTSTYLE0
 73
     1
 44
1.0
  0
MTEXT
  5
9D
330
1F
100
AcDbEntity
  8
0
  6
Continuous
 62
     7
370
     0
100
AcDbMText
 10
7.4919633718
 20
0.7999100272
 30
0.0
 40
0.0833333333
 41
0.0
 71
     1
 72
     1
  1
GG
  7
SLDTEXTSTYLE0
 73
     1
 44
1.0
  0
MTEXT
  5
9E
330
1F
100
AcDbEntity
  8
0
  6
Continuous
 62
     7
370
     0
100
AcDbMText
 10
7.4919633718
 20
0.623695974
 30
0.0
 40
0.0833333333
 41
0.0
 71
     1
 72
     1
  1
DD
  7
SLDTEXTSTYLE0
 73
     1
 44
1.0
  0
MTEXT
  5
9F
330
1F
100
AcDbEntity
  8
0
  6
Continuous
 62
     7
370
     0
100
AcDbMText
 10
7.8687497515
 20
0.7999100272
 30
0.0
 40
0.0833333333
 41
0.0
 71
     1
 72
     1
  1
13/OCT/15
  7
SLDTEXTSTYLE0
 73
     1
 44
1.0
  0
MTEXT
  5
A0
330
1F
100
AcDbEntity
  8
0
  6
Continuous
 62
     7
370
     0
100
AcDbMText
 10
8.0163191884
 20
0.9772495896
 30
0.0
 40
0.0833333333
 41
0.0
 71
     1
 72
     1
  1
DATE
  7
SLDTEXTSTYLE0
 73
     1
 44
1.0
  0
MTEXT
  5
A1
330
1F
100
AcDbEntity
  8
0
  6
Continuous
 62
     7
370
     0
100
AcDbMText
 10
7.8687497515
 20
0.623695974
 30
0.0
 40
0.0833333333
 41
0.0
 71
     1
 72
     1
  1
13/OCT/15
  7
SLDTEXTSTYLE0
 73
     1
 44
1.0
  0
MTEXT
  5
A3
330
1F
100
AcDbEntity
  8
0
  6
Continuous
 62
     7
370
     0
100
AcDbMText
 10
9.0316104912
 20
1.0943207896
 30
0.0
 40
0.0833333333
 41
0.0
 71
     1
 72
     1
  1
w w w . t h o r  l a b s . c o m
  7
SLDTEXTSTYLE1
 73
     1
 44
1.0
  0
MTEXT
  5
A4
330
1F
100
AcDbEntity
  8
0
  6
Continuous
 62
     7
370
     0
100
AcDbMText
 10
8.5315119501
 20
0.328719653
 30
0.0
 40
0.0833333333
 41
0.0
 71
     1
 72
     1
  1
ITEM #
  7
SLDTEXTSTYLE0
 73
     1
 44
1.0
  0
MTEXT
  5
A5
330
1F
100
AcDbEntity
  8
0
  6
Continuous
 62
     7
370
     0
100
AcDbMText
 10
10.0209370115
 20
0.328719653
 30
0.0
 40
0.0833333333
 41
0.0
 71
     1
 72
     1
  1
APPROX WEIGHT
  7
SLDTEXTSTYLE0
 73
     1
 44
1.0
  0
MTEXT
  5
A6
330
1F
100
AcDbEntity
  8
0
  6
Continuous
 62
     7
370
     0
100
AcDbMText
 10
9.5949135982
 20
0.5414715262
 30
0.0
 40
0.125
 41
0.0
 71
     2
 72
     1
  1
SEE TABLE
  7
SLDTEXTSTYLE0
 73
     1
 44
1.0
  0
MTEXT
  5
A8
330
1F
100
AcDbEntity
  8
0
  6
Continuous
 62
     7
370
     0
100
AcDbMText
 10
10.4826226539
 20
0.2019943461
 30
0.0
 40
0.125
 41
0.0
 71
     2
 72
     1
  1
58 g
  7
SLDTEXTSTYLE2
 73
     1
 44
1.0
  0
INSERT
  5
AE
330
1F
100
AcDbEntity
  8
0
  6
Continuous
 62
     7
370
     0
100
AcDbBlockReference
  2
SW_NOTE_0
 10
6.8835832285
 20
0.1754273811
 30
0.0
  0
INSERT
  5
B4
330
1F
100
AcDbEntity
  8
0
  6
Continuous
 62
     7
370
     0
100
AcDbBlockReference
  2
SW_NOTE_1
 10
6.8719828753
 20
1.2001390658
 30
0.0
  0
MTEXT
  5
B5
330
1F
100
AcDbEntity
  8
0
  6
Continuous
 62
     7
370
     0
100
AcDbMText
 10
7.3987149145
 20
0.9772495896
 30
0.0
 40
0.0833333333
 41
0.0
 71
     1
 72
     1
  1
NAME
  7
SLDTEXTSTYLE0
 73
     1
 44
1.0
  0
INSERT
  5
BC
330
1F
100
AcDbEntity
  8
0
  6
Continuous
 62
     7
370
     0
100
AcDbBlockReference
  2
SW_NOTE_2
 10
8.5755302951
 20
0.8160048101
 30
0.0
  0
MTEXT
  5
BD
330
1F
100
AcDbEntity
  8
0
  6
Continuous
 62
     7
370
     0
100
AcDbMText
 10
7.0281258754
 20
0.4200025137
 30
0.0
 40
0.0625
 41
0.0
 71
     1
 72
     1
  1
COPYRIGHT © 2015 BY THORLABS
  7
SLDTEXTSTYLE0
 73
     1
 44
1.0
  0
INSERT
  5
C3
330
1F
100
AcDbEntity
  8
0
  6
Continuous
 62
     7
370
     0
100
AcDbBlockReference
  2
SW_NOTE_3
 10
2.1096529316
 20
0.3219551564
 30
0.0
  0
INSERT
  5
D9
330
1F
100
AcDbEntity
  8
0
  6
Continuous
 62
     7
370
     0
100
AcDbBlockReference
  2
SW_NOTE_4
 10
0.2229009106
 20
1.7636814979
 30
0.0
  0
INSERT
  5
103
330
1F
100
AcDbEntity
  8
0
  6
Continuous
 62
     7
370
     0
100
AcDbBlockReference
  2
SW_TABLEANNOTATION_0
 10
0.0612779343
 20
8.4504327236
 30
0.0
  0
ARC
  5
104
330
1F
100
AcDbEntity
  8
0
  6
Continuous
 62
     7
370
     0
100
AcDbCircle
 10
2.7409586738
 20
4.3189372894
 30
0.0
 40
1.000179491924312
100
AcDbArc
 50
0.8593146732
 51
179.1406853268
  0
LINE
  5
105
330
1F
100
AcDbEntity
  8
0
  6
Continuous
 62
     7
370
     0
100
AcDbLine
 10
1.74089166
 20
4.3339372891
 30
0.0
 11
1.7235692801
 21
4.3339372891
 31
0.0
  0
LINE
  5
106
330
1F
100
AcDbEntity
  8
0
  6
Continuous
 62
     7
370
     0
100
AcDbLine
 10
3.7583480675
 20
4.3339372891
 30
0.0
 11
3.7410256876
 21
4.3339372891
 31
0.0
  0
ARC
  5
107
330
1F
100
AcDbEntity
  8
0
  6
Continuous
 62
     7
370
     0
100
AcDbCircle
 10
2.7409586738
 20
4.3189372894
 30
0.0
 40
0.9500000000000001
100
AcDbArc
 50
0.9047077972
 51
179.0952922028
  0
LINE
  5
108
330
1F
100
AcDbEntity
  8
0
  6
Continuous
 62
     7
370
     0
100
AcDbLine
 10
1.7910771136
 20
4.3339372891
 30
0.0
 11
1.7810758824
 21
4.3339372891
 31
0.0
  0
ARC
  5
109
330
1F
100
AcDbEntity
  8
0
  6
Continuous
 62
     7
370
     0
100
AcDbCircle
 10
2.7409586738
 20
4.3189372894
 30
0.0
 40
0.9600000000000013
100
AcDbArc
 50
0.8952829866
 51
179.1047170134
  0
LINE
  5
10A
330
1F
100
AcDbEntity
  8
0
  6
Continuous
 62
     7
370
     0
100
AcDbLine
 10
3.7008414652
 20
4.3339372891
 30
0.0
 11
3.690840234
 21
4.3339372891
 31
0.0
  0
ARC
  5
10B
330
1F
100
AcDbEntity
  8
0
  6
Continuous
 62
     7
370
     0
100
AcDbCircle
 10
2.7409586738
 20
4.3189372894
 30
0.0
 40
0.9500000000000001
100
AcDbArc
 50
180.9047077972
 51
359.0952922028
  0
ARC
  5
10C
330
1F
100
AcDbEntity
  8
0
  6
Continuous
 62
     7
370
     0
100
AcDbCircle
 10
2.7409586738
 20
4.3189372894
 30
0.0
 40
0.9600000000000013
100
AcDbArc
 50
180.8952829866
 51
359.1047170134
  0
LINE
  5
10D
330
1F
100
AcDbEntity
  8
0
  6
Continuous
 62
     7
370
     0
100
AcDbLine
 10
3.690840234
 20
4.3039372898
 30
0.0
 11
3.7008414652
 21
4.3039372898
 31
0.0
  0
LINE
  5
10E
330
1F
100
AcDbEntity
  8
0
  6
Continuous
 62
     7
370
     0
100
AcDbLine
 10
1.7810758824
 20
4.3039372898
 30
0.0
 11
1.7910771136
 21
4.3039372898
 31
0.0
  0
ARC
  5
10F
330
1F
100
AcDbEntity
  8
0
  6
Continuous
 62
     7
370
     0
100
AcDbCircle
 10
2.7409586738
 20
4.3189372894
 30
0.0
 40
1.000179491924312
100
AcDbArc
 50
180.8593146732
 51
359.1406853268
  0
LINE
  5
110
330
1F
100
AcDbEntity
  8
0
  6
Continuous
 62
     7
370
     0
100
AcDbLine
 10
3.7008414652
 20
4.3039372898
 30
0.0
 11
3.7410256876
 21
4.3039372898
 31
0.0
  0
LINE
  5
111
330
1F
100
AcDbEntity
  8
0
  6
Continuous
 62
     7
370
     0
100
AcDbLine
 10
1.74089166
 20
4.3039372898
 30
0.0
 11
1.7810758824
 21
4.3039372898
 31
0.0
  0
LINE
  5
112
330
1F
100
AcDbEntity
  8
0
  6
Continuous
 62
     7
370
     0
100
AcDbLine
 10
3.7410256876
 20
4.3039372898
 30
0.0
 11
3.7583480675
 21
4.3039372898
 31
0.0
  0
LINE
  5
113
330
1F
100
AcDbEntity
  8
0
  6
Continuous
 62
     7
370
     0
100
AcDbLine
 10
1.7235692801
 20
4.3039372898
 30
0.0
 11
1.74089166
 21
4.3039372898
 31
0.0
  0
LINE
  5
114
330
1F
100
AcDbEntity
  8
0
  6
Continuous
 62
     7
370
     0
100
AcDbLine
 10
3.7410256876
 20
4.3339372891
 30
0.0
 11
3.7008414652
 21
4.3339372891
 31
0.0
  0
LINE
  5
115
330
1F
100
AcDbEntity
  8
0
  6
Continuous
 62
     7
370
     0
100
AcDbLine
 10
1.7810758824
 20
4.3339372891
 30
0.0
 11
1.74089166
 21
4.3339372891
 31
0.0
  0
ARC
  5
116
330
1F
100
AcDbEntity
  8
0
  6
Continuous
 62
     7
370
     0
100
AcDbCircle
 10
2.7409586738
 20
4.3189372894
 30
0.0
 40
0.9500000000000001
100
AcDbArc
 50
359.0952922028
 51
0.9047077972
  0
ARC
  5
117
330
1F
100
AcDbEntity
  8
0
  6
Continuous
 62
     7
370
     0
100
AcDbCircle
 10
2.7409586738
 20
4.3189372894
 30
0.0
 40
0.9500000000000001
100
AcDbArc
 50
179.0952922028
 51
180.9047077972
  0
CIRCLE
  5
118
330
1F
100
AcDbEntity
  8
0
  6
Continuous
 62
     7
370
     0
100
AcDbCircle
 10
2.7409586738
 20
4.3189372894
 30
0.0
 40
1.1
  0
CIRCLE
  5
119
330
1F
100
AcDbEntity
  8
0
  6
Continuous
 62
     7
370
     0
100
AcDbCircle
 10
2.7409586738
 20
4.3189372894
 30
0.0
 40
1.09
  0
CIRCLE
  5
11A
330
1F
100
AcDbEntity
  8
0
  6
Continuous
 62
     7
370
     0
100
AcDbCircle
 10
2.7409586738
 20
4.3189372894
 30
0.0
 40
1.03482050807569
  0
CIRCLE
  5
11B
330
1F
100
AcDbEntity
  8
0
  6
Continuous
 62
     7
370
     0
100
AcDbCircle
 10
2.7409586738
 20
4.3189372894
 30
0.0
 40
1.0175
  0
DIMENSION
  5
11C
330
1F
100
AcDbEntity
  8
0
  6
Continuous
 62
     7
370
     0
100
AcDbDimension
  2
_D
 10
2.1439334726
 20
3.3950536879
 30
0.0
 11
4.1379286572
 21
5.8361296601
 31
0.0
 70
   163
  1
<>
 71
     1
 42
-1.0
  3
SLDDIMSTYLE0
100
AcDbDiametricDimension
 15
3.337983875
 25
5.2428208909
 35
0.0
 40
0.0
  0
LINE
  5
12D
330
1F
100
AcDbEntity
  8
0
  6
PHANTOM
 62
     7
370
    30
100
AcDbLine
 10
2.7409586738
 20
5.7862065323
 30
0.0
 11
2.7409586738
 21
2.8944701041
 31
0.0
  0
LINE
  5
12E
330
1F
100
AcDbEntity
  8
0
  6
Continuous
 62
     7
370
    30
100
AcDbLine
 10
2.7409586738
 20
5.7862065323
 30
0.0
 11
2.359212225
 21
5.7862065323
 31
0.0
  0
SOLID
  5
12F
330
1F
100
AcDbEntity
  8
0
  6
Continuous
 62
     7
370
    30
100
AcDbTrace
 10
2.359212225
 20
5.7862065323
 30
0.0
 11
2.509212225
 21
5.7612065323
 31
0.0
 12
2.509212225
 22
5.8112065323
 32
0.0
 13
2.509212225
 23
5.8112065323
 33
0.0
  0
LINE
  5
130
330
1F
100
AcDbEntity
  8
0
  6
Continuous
 62
     7
370
    30
100
AcDbLine
 10
2.7409586738
 20
2.8944701041
 30
0.0
 11
2.3491364883
 21
2.8944701041
 31
0.0
  0
SOLID
  5
131
330
1F
100
AcDbEntity
  8
0
  6
Continuous
 62
     7
370
    30
100
AcDbTrace
 10
2.3491364883
 20
2.8944701041
 30
0.0
 11
2.4991364883
 21
2.8694701041
 31
0.0
 12
2.4991364883
 22
2.9194701041
 32
0.0
 13
2.4991364883
 23
2.9194701041
 33
0.0
  0
MTEXT
  5
132
330
1F
100
AcDbEntity
  8
0
  6
Continuous
 62
     7
100
AcDbMText
 10
2.1871487409
 20
5.8297122009
 30
0.0
 40
0.1041666667
 41
0.0
 71
     1
 72
     1
  1
A
  7
SLDTEXTSTYLE0
 73
     1
 44
1.0
  0
MTEXT
  5
133
330
1F
100
AcDbEntity
  8
0
  6
Continuous
 62
     7
100
AcDbMText
 10
2.2568741904
 20
2.9771854547
 30
0.0
 40
0.1041666667
 41
0.0
 71
     1
 72
     1
  1
A
  7
SLDTEXTSTYLE0
 73
     1
 44
1.0
  0
SPLINE
  5
134
330
1F
100
AcDbEntity
  8
0
  6
Continuous
 62
     7
370
     0
100
AcDbSpline
210
0.0
220
0.0
230
1.0
 70
     8
 71
     3
 72
    37
 73
    33
 74
     0
 42
0.000000001
 43
0.00000001
 40
0.0
 40
0.0
 40
0.0
 40
0.0
 40
0.0195309202700896
 40
0.0523353743790442
 40
0.0851510650435029
 40
0.1179869435206873
 40
0.1508528714328373
 40
0.1837596085390431
 40
0.2167187624614838
 40
0.2497426904127352
 40
0.2828443431142937
 40
0.3160370424902372
 40
0.3493341878013541
 40
0.3827488900023824
 40
0.4162935413625626
 40
0.4499793364653953
 40
0.4838157706953533
 40
0.5178101516834394
 40
0.5519671637524307
 40
0.5862884490988216
 40
0.6207725880694208
 40
0.6554149845227915
 40
0.6902080135028431
 40
0.7251413360195802
 40
0.7602023520384072
 40
0.795376748067868
 40
0.8306490883168189
 40
0.8660033990437689
 40
0.9014237033409787
 40
0.9368944757292604
 40
0.9724009996602923
 40
1.0
 40
1.0
 40
1.0
 40
1.0
 10
9.067368978611324
 20
7.505166469001112
 30
0.0
 10
9.067490061721822
 20
7.496201318155681
 30
0.0
 10
9.067814518011197
 20
7.472178152868441
 30
0.0
 10
9.070022801148376
 20
7.433139664584342
 30
0.0
 10
9.073828709719455
 20
7.388100616564433
 30
0.0
 10
9.079203532190158
 20
7.343188271809004
 30
0.0
 10
9.086061675728246
 20
7.298438057315409
 30
0.0
 10
9.094425472087295
 20
7.253886350551936
 30
0.0
 10
9.10428889046754
 20
7.209568355685506
 30
0.0
 10
9.115654253630831
 20
7.165519017795928
 30
0.0
 10
9.128522460212915
 20
7.121773228076576
 30
0.0
 10
9.142895587400583
 20
7.078366327951692
 30
0.0
 10
9.158776039611093
 20
7.035334634966918
 30
0.0
 10
9.176166470815623
 20
6.992716046305388
 30
0.0
 10
9.195069324741779
 20
6.950550671719707
 30
0.0
 10
9.215486295518078
 20
6.908881459880257
 30
0.0
 10
9.237417635400819
 20
6.867754764253042
 30
0.0
 10
9.260861357280442
 20
6.827220790009545
 30
0.0
 10
9.285812349173543
 20
6.787333893385286
 30
0.0
 10
9.312261519864293
 20
6.748152577019467
 30
0.0
 10
9.340194991462084
 20
6.709739253031395
 30
0.0
 10
9.369593451683865
 20
6.672159705079278
 30
0.0
 10
9.400431643761138
 20
6.635482350240244
 30
0.0
 10
9.432678138913644
 20
6.599777308947308
 30
0.0
 10
9.466295260878425
 20
6.565115179068131
 30
0.0
 10
9.5012396287254
 20
6.531566389417727
 30
0.0
 10
9.537461497433736
 20
6.499198254073552
 30
0.0
 10
9.574909539137238
 20
6.468080905559724
 30
0.0
 10
9.613515930602821
 20
6.438260561745639
 30
0.0
 10
9.653255541474397
 20
6.409855850837888
 30
0.0
 10
9.690899940112486
 20
6.384717019139236
 30
0.0
 10
9.715708474706155
 20
6.369756500387494
 30
0.0
 10
9.72655840840991
 20
6.363213565091685
 30
0.0
  0
LINE
  5
135
330
1F
100
AcDbEntity
  8
0
  6
Continuous
 62
     7
370
     0
100
AcDbLine
 10
8.6922294876
 20
7.4253967321
 30
0.0
 11
8.6922294876
 21
7.417232651
 31
0.0
  0
LINE
  5
136
330
1F
100
AcDbEntity
  8
0
  6
Continuous
 62
     7
370
     0
100
AcDbLine
 10
9.4628506111
 20
6.0823330725
 30
0.0
 11
9.4699205297
 21
6.0782503685
 31
0.0
  0
LINE
  5
137
330
1F
100
AcDbEntity
  8
0
  6
Continuous
 62
     7
370
     0
100
AcDbLine
 10
9.3231425092
 20
8.1617023311
 30
0.0
 11
8.9200916439
 21
7.9290260192
 31
0.0
  0
LINE
  5
138
330
1F
100
AcDbEntity
  8
0
  6
Continuous
 62
     7
370
     0
100
AcDbLine
 10
10.0200022498
 20
6.023718522
 30
0.0
 11
10.4230531151
 21
6.2563948339
 31
0.0
  0
LINE
  5
139
330
1F
100
AcDbEntity
  8
0
  6
Continuous
 62
     7
370
     0
100
AcDbLine
 10
10.6509152715
 20
6.760024121
 30
0.0
 11
10.6509152715
 21
6.7681882021
 31
0.0
  0
LINE
  5
13A
330
1F
100
AcDbEntity
  8
0
  6
Continuous
 62
     7
370
     0
100
AcDbLine
 10
9.880294148
 20
8.1030877806
 30
0.0
 11
9.8732242294
 21
8.1071704846
 31
0.0
  0
ARC
  5
13B
330
1F
100
AcDbEntity
  8
0
  6
Continuous
 62
     7
370
     0
100
AcDbCircle
 10
9.5292261438
 20
7.5396192606
 30
0.0
 40
0.5617193173413957
100
AcDbArc
 50
139.7484763184
 51
182.483647378
  0
LINE
  5
13C
330
1F
100
AcDbEntity
  8
0
  6
Continuous
 62
     7
370
     0
100
AcDbLine
 10
8.9680344886
 20
7.5152775752
 30
0.0
 11
8.9628567536
 21
7.5264306991
 31
0.0
  0
ARC
  5
13D
330
1F
100
AcDbEntity
  8
0
  6
Continuous
 62
     7
370
     0
100
AcDbCircle
 10
9.5485889008
 20
7.5491192943
 30
0.0
 40
0.5861714088692218
100
AcDbArc
 50
143.2969033353
 51
182.2182684814
  0
LWPOLYLINE
  5
13E
330
1F
100
AcDbEntity
  8
0
  6
Continuous
 62
     7
370
     0
100
AcDbPolyline
 90
        3
 70
   128
 43
0.0
 10
8.9734198896
 20
7.5121686494
 10
8.9734291495
 20
7.5111391647
 10
8.9734633553
 20
7.5080575356
  0
LINE
  5
13F
330
1F
100
AcDbEntity
  8
0
  6
Continuous
 62
     7
370
     0
100
AcDbLine
 10
8.9628567536
 20
7.5019344748
 30
0.0
 11
8.9734633553
 21
7.5080575356
 31
0.0
  0
LWPOLYLINE
  5
140
330
1F
100
AcDbEntity
  8
0
  6
Continuous
 62
     7
370
     0
100
AcDbPolyline
 90
       51
 70
   128
 43
0.0
 10
10.0736767891
 20
6.1757968972
 10
10.0477771201
 20
6.172244147
 10
10.021033449
 20
6.1703443951
 10
9.9936741654
 20
6.1701319587
 10
9.965748986
 20
6.1716072239
 10
9.9373086558
 20
6.1747675099
 10
9.9084048561
 20
6.1796070738
 10
9.8790901103
 20
6.1861171213
 10
9.8494176883
 20
6.1942858225
 10
9.8194415105
 20
6.2040983333
 10
9.7892160487
 20
6.2155368228
 10
9.7587962282
 20
6.228580505
 10
9.7282373271
 20
6.2432056773
 10
9.6975948765
 20
6.2593857632
 10
9.6669245592
 20
6.2770913606
 10
9.6362821086
 20
6.2962902951
 10
9.6057232075
 20
6.3169476789
 10
9.575303387
 20
6.3390259738
 10
9.5450779253
 20
6.3624850597
 10
9.5151017474
 20
6.3872823072
 10
9.4854293255
 20
6.4133726551
 10
9.4561145796
 20
6.4407086928
 10
9.4272107799
 20
6.4692407457
 10
9.3987704498
 20
6.4989169659
 10
9.3708452704
 20
6.5296834265
 10
9.3434859868
 20
6.5614842194
 10
9.3167423156
 20
6.5942615567
 10
9.2906628551
 20
6.6279558762
 10
9.2652949961
 20
6.6625059493
 10
9.2406848366
 20
6.6978489923
 10
9.2168770977
 20
6.7339207806
 10
9.1939150423
 20
6.7706557653
 10
9.1718403965
 20
6.8079871923
 10
9.150693274
 20
6.8458472238
 10
9.1305121029
 20
6.8841670613
 10
9.1113335559
 20
6.9228770708
 10
9.093192484
 20
6.9619069093
 10
9.0761218526
 20
7.0011856525
 10
9.0601526822
 20
7.0406419241
 10
9.0453139916
 20
7.0802040249
 10
9.0316327453
 20
7.1198000634
 10
9.0191338048
 20
7.1593580866
 10
9.0078398826
 20
7.1988062104
 10
8.997771502
 20
7.2380727507
 10
8.988946959
 20
7.2770863529
 10
8.9813822894
 20
7.3157761225
 10
8.9750912394
 20
7.3540717532
 10
8.9700852411
 20
7.391903655
 10
8.9663733913
 20
7.4292030806
 10
8.9639624351
 20
7.4659022501
 10
8.9628567536
 20
7.5019344748
  0
ARC
  5
141
330
1F
100
AcDbEntity
  8
0
  6
Continuous
 62
     7
370
     0
100
AcDbCircle
 10
9.4956731598
 20
7.5312662074
 30
0.0
 40
0.5002739182508927
100
AcDbArc
 50
131.664435519
 51
183.7124128333
  0
LINE
  5
142
330
1F
100
AcDbEntity
  8
0
  6
Continuous
 62
     7
370
     0
100
AcDbLine
 10
8.9964490093
 20
7.4988742216
 30
0.0
 11
8.9680344886
 21
7.5152775752
 31
0.0
  0
LWPOLYLINE
  5
143
330
1F
100
AcDbEntity
  8
0
  6
Continuous
 62
     7
370
     0
100
AcDbPolyline
 90
       18
 70
   128
 43
0.0
 10
9.1812573046
 20
7.9040519114
 10
9.180923197
 20
7.9038022391
 10
9.1620874947
 20
7.8885748356
 10
9.1442596187
 20
7.8718382181
 10
9.1274737699
 20
7.8536244941
 10
9.1117621502
 20
7.8339686046
 10
9.0971549006
 20
7.8129082575
 10
9.0836800438
 20
7.7904838547
 10
9.0713634297
 20
7.7667384152
 10
9.0602286866
 20
7.7417174922
 10
9.0502971752
 20
7.7154690855
 10
9.0415879481
 20
7.6880435501
 10
9.0341177131
 20
7.659493499
 10
9.027900801
 20
7.6298737024
 10
9.0229491383
 20
7.5992409829
 10
9.0192722242
 20
7.567654106
 10
9.0168771126
 20
7.535173668
 10
9.0157683982
 20
7.5018619791
  0
LINE
  5
144
330
1F
100
AcDbEntity
  8
0
  6
Continuous
 62
     7
370
     0
100
AcDbLine
 10
9.0157683982
 20
7.5018619791
 30
0.0
 11
8.9964490093
 21
7.4988742216
 31
0.0
  0
LWPOLYLINE
  5
145
330
1F
100
AcDbEntity
  8
0
  6
Continuous
 62
     7
370
     0
100
AcDbPolyline
 90
       53
 70
   128
 43
0.0
 10
9.0157683982
 20
7.4773657547
 10
9.0168771126
 20
7.4427739714
 10
9.0192722242
 20
7.4075281963
 10
9.0229491383
 20
7.3716960449
 10
9.027900801
 20
7.3353462573
 10
9.0341177131
 20
7.2985485667
 10
9.0415879481
 20
7.2613735658
 10
9.0502971752
 20
7.2238925709
 10
9.0602286866
 20
7.1861774852
 10
9.0713634297
 20
7.1483006614
 10
9.0836800438
 20
7.110334762
 10
9.0971549006
 20
7.0723526207
 10
9.1117621502
 20
7.0344271022
 10
9.1274737699
 20
6.9966309628
 10
9.1442596187
 20
6.9590367102
 10
9.1620874947
 20
6.9217164653
 10
9.180923197
 20
6.8847418228
 10
9.2007305912
 20
6.8481837149
 10
9.2214716791
 20
6.8121122744
 10
9.2431066708
 20
6.7765967006
 10
9.2655940621
 20
6.7417051264
 10
9.2888907131
 20
6.7075044877
 10
9.3129519318
 20
6.6740603948
 10
9.3377315591
 20
6.6414370066
 10
9.3631820579
 20
6.6096969078
 10
9.3892546042
 20
6.5789009884
 10
9.4158991804
 20
6.5491083271
 10
9.4430646718
 20
6.520376078
 10
9.4706989642
 20
6.492759361
 10
9.4987490441
 20
6.4663111559
 10
9.5271611003
 20
6.4410822007
 10
9.5558806274
 20
6.4171208945
 10
9.5848525298
 20
6.3944732046
 10
9.6140212281
 20
6.3731825783
 10
9.6433307651
 20
6.3532898594
 10
9.6727249136
 20
6.3348332099
 10
9.7021472839
 20
6.317848037
 10
9.7315414324
 20
6.302366925
 10
9.7608509695
 20
6.2884195729
 10
9.7900196677
 20
6.276032737
 10
9.8189915702
 20
6.2652301803
 10
9.8477110972
 20
6.2560326263
 10
9.8761231535
 20
6.2484577197
 10
9.9041732334
 20
6.2425199919
 10
9.9318075257
 20
6.2382308341
 10
9.9589730171
 20
6.2355984744
 10
9.9856175934
 20
6.2346279628
 10
10.0116901396
 20
6.235321161
 10
10.0371406385
 20
6.2376767394
 10
10.0619202658
 20
6.2416901788
 10
10.0859814844
 20
6.24735378
 10
10.1092781354
 20
6.254656678
 10
10.1289792636
 20
6.2623714474
  0
LINE
  5
146
330
1F
100
AcDbEntity
  8
0
  6
Continuous
 62
     7
370
     0
100
AcDbLine
 10
9.021198619
 20
7.4805005545
 30
0.0
 11
9.0157683982
 21
7.4773657547
 31
0.0
  0
ARC
  5
147
330
1F
100
AcDbEntity
  8
0
  6
Continuous
 62
     7
370
     0
100
AcDbCircle
 10
9.9168525909
 20
7.4927486666
 30
0.0
 40
0.8957377147315508
100
AcDbArc
 50
179.2165262291
 51
180.7834737709
  0
LINE
  5
148
330
1F
100
AcDbEntity
  8
0
  6
Continuous
 62
     7
370
     0
100
AcDbLine
 10
9.0157683982
 20
7.5018619791
 30
0.0
 11
9.021198619
 21
7.5049967788
 31
0.0
  0
ARC
  5
149
330
1F
100
AcDbEntity
  8
0
  6
Continuous
 62
     7
370
     0
100
AcDbCircle
 10
9.6059032718
 20
7.5500633197
 30
0.0
 40
0.5400800079225627
100
AcDbArc
 50
139.2379558102
 51
183.9394987727
  0
ARC
  5
14A
330
1F
100
AcDbEntity
  8
0
  6
Continuous
 62
     7
370
     0
100
AcDbCircle
 10
10.0347896511
 20
6.8045042395
 30
0.0
 40
0.5375019205344792
100
AcDbArc
 50
236.5901760124
 51
280.8089458473
  0
LWPOLYLINE
  5
14B
330
1F
100
AcDbEntity
  8
0
  6
Continuous
 62
     7
370
     0
100
AcDbPolyline
 90
       53
 70
   128
 43
0.0
 10
8.9680344886
 20
7.4907813508
 10
8.9691287561
 20
7.4553642374
 10
8.9715056398
 20
7.4192921257
 10
8.9751608219
 20
7.3826305437
 10
8.9800876625
 20
7.3454460901
 10
8.9862772116
 20
7.3078063136
 10
8.9937182253
 20
7.26977959
 10
9.0023971864
 20
7.231434998
 10
9.0122983289
 20
7.1928421936
 10
9.0234036666
 20
7.1540712839
 10
9.0356930256
 20
7.1151926995
 10
9.0491440813
 20
7.0762770666
 10
9.0637323988
 20
7.0373950786
 10
9.0794314772
 20
6.9986173678
 10
9.0962127978
 20
6.9600143772
 10
9.1140458759
 20
6.9216562323
 10
9.1328983164
 20
6.8836126139
 10
9.1527358721
 20
6.8459526312
 10
9.1735225065
 20
6.8087446969
 10
9.195220459
 20
6.7720564022
 10
9.2177903134
 20
6.7359543944
 10
9.2411910698
 20
6.7005042559
 10
9.2653802187
 20
6.6657703846
 10
9.2903138185
 20
6.6318158776
 10
9.3159465753
 20
6.5987024161
 10
9.342231925
 20
6.5664901533
 10
9.3691221183
 20
6.5352376056
 10
9.3965683066
 20
6.5050015457
 10
9.424520632
 20
6.4758369
 10
9.4529283165
 20
6.4477966485
 10
9.4817397553
 20
6.4209317285
 10
9.51090261
 20
6.3952909426
 10
9.5403639039
 20
6.3709208691
 10
9.5700701181
 20
6.3478657785
 10
9.5999672888
 20
6.3261675522
 10
9.6300011054
 20
6.3058656069
 10
9.6601170089
 20
6.2869968226
 10
9.6902602912
 20
6.269595476
 10
9.7203761947
 20
6.2536931783
 10
9.7504100113
 20
6.2393188172
 10
9.780307182
 20
6.2264985049
 10
9.8100133962
 20
6.2152555307
 10
9.8394746901
 20
6.2056103182
 10
9.8686375449
 20
6.1975803888
 10
9.8974489837
 20
6.1911803295
 10
9.9258566682
 20
6.1864217667
 10
9.9538089935
 20
6.1833133445
 10
9.9812551819
 20
6.1818607098
 10
10.0081453751
 20
6.1820665013
 10
10.0344307248
 20
6.1839303452
 10
10.0600634816
 20
6.1874488557
 10
10.0849970814
 20
6.1926156411
 10
10.087318284
 20
6.1931895258
  0
LINE
  5
14C
330
1F
100
AcDbEntity
  8
0
  6
Continuous
 62
     7
370
     0
100
AcDbLine
 10
8.9628567536
 20
7.5019344748
 30
0.0
 11
8.9680344886
 21
7.4907813508
 31
0.0
  0
LINE
  5
14D
330
1F
100
AcDbEntity
  8
0
  6
Continuous
 62
     7
370
     0
100
AcDbLine
 10
8.9680344886
 20
7.4907813508
 30
0.0
 11
8.9964490093
 21
7.4743779972
 31
0.0
  0
LWPOLYLINE
  5
14E
330
1F
100
AcDbEntity
  8
0
  6
Continuous
 62
     7
370
     0
100
AcDbPolyline
 90
       53
 70
   128
 43
0.0
 10
10.1207208119
 20
6.2461819837
 10
10.1015090701
 20
6.2386818119
 10
10.0779659636
 20
6.2312986424
 10
10.0536500075
 20
6.2255723565
 10
10.0286078594
 20
6.2215139418
 10
10.0028875701
 20
6.2191311857
 10
9.9765384917
 20
6.2184286602
 10
9.9496111829
 20
6.2194077133
 10
9.9221573118
 20
6.2220664663
 10
9.894229557
 20
6.2263998177
 10
9.8658815063
 20
6.2323994525
 10
9.8371675539
 20
6.2400538588
 10
9.8081427962
 20
6.2493483493
 10
9.7788629259
 20
6.2602650895
 10
9.7493841253
 20
6.2727831326
 10
9.7197629583
 20
6.2868784588
 10
9.6900562621
 20
6.302524022
 10
9.660321038
 20
6.3196898015
 10
9.6306143418
 20
6.3383428596
 10
9.6009931748
 20
6.3584474048
 10
9.5715143742
 20
6.3799648605
 10
9.542234504
 20
6.4028539389
 10
9.5132097462
 20
6.4270707204
 10
9.4844957938
 20
6.4525687379
 10
9.4561477431
 20
6.4792990657
 10
9.4282199883
 20
6.5072104137
 10
9.4007661172
 20
6.5362492255
 10
9.3738388084
 20
6.5663597814
 10
9.3474897301
 20
6.5974843053
 10
9.3217694407
 20
6.6295630754
 10
9.2967272926
 20
6.6625345388
 10
9.2724113365
 20
6.69633543
 10
9.24886823
 20
6.7309008917
 10
9.2261431476
 20
6.7661645997
 10
9.2042796942
 20
6.8020588899
 10
9.1833198214
 20
6.8385148884
 10
9.1633037471
 20
6.8754626433
 10
9.1442698781
 20
6.9128312592
 10
9.1262547367
 20
6.9505490333
 10
9.1092928903
 20
6.9885435925
 10
9.0934168852
 20
7.0267420329
 10
9.0786571845
 20
7.0650710593
 10
9.0650421091
 20
7.1034571258
 10
9.0525977835
 20
7.1418265773
 10
9.0413480859
 20
7.1801057905
 10
9.0313146024
 20
7.218221315
 10
9.0225165851
 20
7.2561000149
 10
9.0149709157
 20
7.2936692084
 10
9.0086920728
 20
7.3308568077
 10
9.0036921043
 20
7.3675914572
 10
8.9999806041
 20
7.4038026704
 10
8.9975646939
 20
7.4394209653
 10
8.9964490093
 20
7.4743779972
  0
LINE
  5
14F
330
1F
100
AcDbEntity
  8
0
  6
Continuous
 62
     7
370
     0
100
AcDbLine
 10
8.9964490093
 20
7.4743779972
 30
0.0
 11
9.0157683982
 21
7.4773657547
 31
0.0
  0
LINE
  5
150
330
1F
100
AcDbEntity
  8
0
  6
Continuous
 62
     7
370
     0
100
AcDbLine
 10
8.9734633553
 20
7.5080575356
 30
0.0
 11
9.021198619
 21
7.4805005545
 31
0.0
  0
LWPOLYLINE
  5
151
330
1F
100
AcDbEntity
  8
0
  6
Continuous
 62
     7
370
     0
100
AcDbPolyline
 90
      118
 70
   128
 43
0.0
 10
8.6922294876
 20
7.4253967321
 10
8.6928684636
 20
7.4614277268
 10
8.6947843418
 20
7.4966617766
 10
8.6979739745
 20
7.5310409921
 10
8.702432121
 20
7.5645088884
 10
8.7081514567
 20
7.5970104777
 10
8.7151225846
 20
7.6284923601
 10
8.7233340513
 20
7.658902811
 10
8.7327723654
 20
7.6881918659
 10
8.7434220196
 20
7.7163114031
 10
8.7552655167
 20
7.7432152222
 10
8.7682833977
 20
7.7688591204
 10
8.7824542745
 20
7.7932009648
 10
8.7977548642
 20
7.8162007618
 10
8.814160028
 20
7.8378207228
 10
8.8316428124
 20
7.8580253262
 10
8.850174493
 20
7.876781376
 10
8.8697246225
 20
7.8940580559
 10
8.8902610799
 20
7.9098269806
 10
8.911750124
 20
7.9240622416
 10
8.9341564484
 20
7.9367404505
 10
8.9574432394
 20
7.9478407769
 10
8.9815722369
 20
7.9573449832
 10
9.0065037971
 20
7.9652374539
 10
9.0321969575
 20
7.9715052217
 10
9.0586095043
 20
7.9761379886
 10
9.0856980417
 20
7.9791281431
 10
9.1134180634
 20
7.9804707724
 10
9.1417240254
 20
7.9801636704
 10
9.1705694211
 20
7.9782073418
 10
9.1999068575
 20
7.9746050008
 10
9.2296881335
 20
7.9693625661
 10
9.2598643183
 20
7.9624886509
 10
9.2903858326
 20
7.9539945491
 10
9.3212025297
 20
7.9438942164
 10
9.3522637777
 20
7.9322042477
 10
9.3835185432
 20
7.9189438496
 10
9.4149154747
 20
7.9041348089
 10
9.446402987
 20
7.8878014568
 10
9.4779293462
 20
7.8699706289
 10
9.5094427547
 20
7.8506716212
 10
9.540891436
 20
7.829936142
 10
9.57222372
 20
7.8077982596
 10
9.6033881278
 20
7.7842943465
 10
9.6343334564
 20
7.7594630196
 10
9.6650088627
 20
7.7333450766
 10
9.6953639471
 20
7.7059834292
 10
9.7253488362
 20
7.6774230327
 10
9.754914265
 20
7.6477108116
 10
9.7840116576
 20
7.616895583
 10
9.812593207
 20
7.5850279763
 10
9.8406119537
 20
7.5521603499
 10
9.8680218631
 20
7.5183467051
 10
9.8947779008
 20
7.4836425978
 10
9.9208361066
 20
7.4481050467
 10
9.9461536671
 20
7.4117924399
 10
9.9706889854
 20
7.3747644389
 10
9.9944017502
 20
7.3370818806
 10
10.0172530014
 20
7.2988066773
 10
10.0392051945
 20
7.2600017152
 10
10.0602222621
 20
7.2207307506
 10
10.0802696732
 20
7.1810583057
 10
10.09931449
 20
7.1410495622
 10
10.1173254218
 20
7.1007702543
 10
10.1342728769
 20
7.0602865609
 10
10.1501290104
 20
7.0196649965
 10
10.1648677709
 20
6.9789723022
 10
10.1784649427
 20
6.9382753362
 10
10.1908981855
 20
6.8976409632
 10
10.2021470716
 20
6.8571359457
 10
10.2121931191
 20
6.816826833
 10
10.2210198225
 20
6.7767798532
 10
10.2286126793
 20
6.7370608031
 10
10.2349592147
 20
6.6977349411
 10
10.2400490012
 20
6.6588668796
 10
10.2438736764
 20
6.6205204786
 10
10.2464269562
 20
6.5827587411
 10
10.2477046458
 20
6.5456437096
 10
10.2477046458
 20
6.509236364
 10
10.2464269562
 20
6.4735965215
 10
10.2438736764
 20
6.4387827383
 10
10.2400490012
 20
6.4048522132
 10
10.2349592147
 20
6.371860694
 10
10.2286126793
 20
6.3398623859
 10
10.2210198225
 20
6.3089098617
 10
10.2121931191
 20
6.2790539766
 10
10.2021470716
 20
6.2503437836
 10
10.1908981855
 20
6.2228264534
 10
10.1784649427
 20
6.1965471971
 10
10.1648677709
 20
6.1715491914
 10
10.1501290104
 20
6.1478735078
 10
10.1342728769
 20
6.1255590455
 10
10.1173254218
 20
6.1046424671
 10
10.09931449
 20
6.0851581385
 10
10.0802696732
 20
6.0671380724
 10
10.0602222621
 20
6.0506118757
 10
10.0392051945
 20
6.0356067009
 10
10.0172530014
 20
6.0221472014
 10
9.9944017502
 20
6.0102554912
 10
9.9706889854
 20
5.9999511084
 10
9.9461536671
 20
5.9912509829
 10
9.9208361066
 20
5.9841694092
 10
9.8947779008
 20
5.9787180221
 10
9.8680218631
 20
5.9749057784
 10
9.8406119537
 20
5.9727389414
 10
9.812593207
 20
5.9722210714
 10
9.7840116576
 20
5.9733530192
 10
9.754914265
 20
5.976132925
 10
9.7253488362
 20
5.9805562214
 10
9.6953639471
 20
5.9866156409
 10
9.6650088627
 20
5.994301228
 10
9.6343334564
 20
6.0036003553
 10
9.6033881278
 20
6.0144977442
 10
9.57222372
 20
6.0269754905
 10
9.540891436
 20
6.0410130931
 10
9.5094427547
 20
6.0565874885
 10
9.4779293462
 20
6.0736730878
 10
9.4699205297
 20
6.0782503685
  0
LWPOLYLINE
  5
152
330
1F
100
AcDbEntity
  8
0
  6
Continuous
 62
     7
370
     0
100
AcDbPolyline
 90
      155
 70
   128
 43
0.0
 10
8.6922294876
 20
7.417232651
 10
8.6928709032
 20
7.3805593254
 10
8.6947940826
 20
7.3432064761
 10
8.6979958248
 20
7.3052362734
 10
8.7024708008
 20
7.2667119149
 10
8.7082115624
 20
7.2276975205
 10
8.7152085548
 20
7.1882580259
 10
8.723450132
 20
7.1484590742
 10
8.7329225769
 20
7.1083669068
 10
8.7436101234
 20
7.0680482532
 10
8.7554949833
 20
7.0275702199
 10
8.7685573753
 20
6.9870001785
 10
8.7827755584
 20
6.9464056538
 10
8.7981258677
 20
6.9058542114
 10
8.8145827543
 20
6.8654133453
 10
8.8321188273
 20
6.8251503651
 10
8.8507048996
 20
6.7851322848
 10
8.8703100364
 20
6.7454257104
 10
8.8909016071
 20
6.7060967295
 10
8.912445339
 20
6.6672108015
 10
8.9349053746
 20
6.6288326481
 10
8.9582443315
 20
6.591026146
 10
8.9824233642
 20
6.5538542203
 10
9.0074022291
 20
6.51737874
 10
9.0331393514
 20
6.481660415
 10
9.0595918942
 20
6.4467586949
 10
9.0867158299
 20
6.4127316702
 10
9.1144660132
 20
6.3796359755
 10
9.1427962568
 20
6.3475266953
 10
9.1716594079
 20
6.3164572724
 10
9.2010074264
 20
6.2864794187
 10
9.2307914655
 20
6.2576430294
 10
9.2609619528
 20
6.2299960998
 10
9.2914686722
 20
6.2035846456
 10
9.3222608485
 20
6.1784526259
 10
9.353287231
 20
6.1546418706
 10
9.3844961795
 20
6.1321920103
 10
9.4158357497
 20
6.1111404106
 10
9.44725378
 20
6.0915221098
 10
9.4786979782
 20
6.0733697605
 10
9.5101160085
 20
6.0567135757
 10
9.5414555787
 20
6.0415812779
 10
9.5726645271
 20
6.0279980533
 10
9.6036909097
 20
6.0159865098
 10
9.634483086
 20
6.0055666394
 10
9.6649898054
 20
5.9967557851
 10
9.6951602926
 20
5.9895686116
 10
9.7249443318
 20
5.9840170813
 10
9.7542923503
 20
5.980110434
 10
9.7831555013
 20
5.9778551721
 10
9.811485745
 20
5.9772550493
 10
9.8392359283
 20
5.9783110643
 10
9.8663598639
 20
5.9810214595
 10
9.8928124067
 20
5.9853817238
 10
9.9185495291
 20
5.9913845998
 10
9.943528394
 20
5.9990200965
 10
9.9677074267
 20
6.0082755053
 10
9.9910463836
 20
6.0191354214
 10
10.0135064192
 20
6.0315817697
 10
10.035050151
 20
6.0455938344
 10
10.0556417217
 20
6.0611482937
 10
10.0752468586
 20
6.0782192589
 10
10.0938329309
 20
6.096778317
 10
10.1113690038
 20
6.1167945782
 10
10.1278258904
 20
6.1382347276
 10
10.1431761998
 20
6.16106308
 10
10.1573943829
 20
6.1852416399
 10
10.1704567749
 20
6.2107301646
 10
10.1823416347
 20
6.2374862308
 10
10.1930291813
 20
6.2654653057
 10
10.2025016262
 20
6.294620821
 10
10.2107432034
 20
6.3249042502
 10
10.2177401958
 20
6.3562651894
 10
10.2234809574
 20
6.3886514415
 10
10.2279559334
 20
6.4220091028
 10
10.2311576755
 20
6.4562826527
 10
10.2330808549
 20
6.4914150462
 10
10.2337222706
 20
6.5273478091
 10
10.2330808549
 20
6.5640211347
 10
10.2311576755
 20
6.601373984
 10
10.2279559334
 20
6.6393441867
 10
10.2234809574
 20
6.6778685452
 10
10.2177401958
 20
6.7168829396
 10
10.2107432034
 20
6.7563224343
 10
10.2025016262
 20
6.796121386
 10
10.1930291813
 20
6.8362135533
 10
10.1823416347
 20
6.8765322069
 10
10.1704567749
 20
6.9170102402
 10
10.1573943829
 20
6.9575802816
 10
10.1431761998
 20
6.9981748063
 10
10.1278258904
 20
7.0387262487
 10
10.1113690038
 20
7.0791671148
 10
10.0938329309
 20
7.119430095
 10
10.0752468586
 20
7.1594481753
 10
10.0556417217
 20
7.1991547497
 10
10.035050151
 20
7.2384837306
 10
10.0135064192
 20
7.2773696586
 10
9.9910463836
 20
7.315747812
 10
9.9677074267
 20
7.3535543141
 10
9.943528394
 20
7.3907262398
 10
9.9185495291
 20
7.4272017201
 10
9.8928124067
 20
7.4629200451
 10
9.8663598639
 20
7.4978217652
 10
9.8392359283
 20
7.5318487899
 10
9.811485745
 20
7.5649444846
 10
9.7831555013
 20
7.5970537648
 10
9.7542923503
 20
7.6281231877
 10
9.7249443318
 20
7.6581010414
 10
9.6951602926
 20
7.6869374307
 10
9.6649898054
 20
7.7145843603
 10
9.634483086
 20
7.7409958145
 10
9.6036909097
 20
7.7661278342
 10
9.5726645271
 20
7.7899385895
 10
9.5414555787
 20
7.8123884498
 10
9.5101160085
 20
7.8334400495
 10
9.4786979782
 20
7.8530583504
 10
9.44725378
 20
7.8712106996
 10
9.4158357497
 20
7.8878668844
 10
9.3844961795
 20
7.9029991822
 10
9.353287231
 20
7.9165824068
 10
9.3222608485
 20
7.9285939503
 10
9.2914686722
 20
7.9390138207
 10
9.2609619528
 20
7.947824675
 10
9.2307914655
 20
7.9550118485
 10
9.2010074264
 20
7.9605633788
 10
9.1716594079
 20
7.9644700261
 10
9.1427962568
 20
7.966725288
 10
9.1144660132
 20
7.9673254108
 10
9.0867158299
 20
7.9662693958
 10
9.0595918942
 20
7.9635590006
 10
9.0331393514
 20
7.9591987364
 10
9.0074022291
 20
7.9531958603
 10
8.9824233642
 20
7.9455603636
 10
8.9582443315
 20
7.9363049548
 10
8.9349053746
 20
7.9254450387
 10
8.912445339
 20
7.9129986904
 10
8.8909016071
 20
7.8989866258
 10
8.8703100364
 20
7.8834321664
 10
8.8507048996
 20
7.8663612012
 10
8.8321188273
 20
7.8478021431
 10
8.8145827543
 20
7.8277858819
 10
8.7981258677
 20
7.8063457325
 10
8.7827755584
 20
7.7835173801
 10
8.7685573753
 20
7.7593388202
 10
8.7554949833
 20
7.7338502955
 10
8.7436101234
 20
7.7070942293
 10
8.7329225769
 20
7.6791151544
 10
8.723450132
 20
7.6499596391
 10
8.7152085548
 20
7.6196762099
 10
8.7082115624
 20
7.5883152707
 10
8.7024708008
 20
7.5559290186
 10
8.6979958248
 20
7.5225713573
 10
8.6947940826
 20
7.4882978075
 10
8.6928709032
 20
7.4531654139
 10
8.6922294876
 20
7.417232651
  0
LWPOLYLINE
  5
153
330
1F
100
AcDbEntity
  8
0
  6
Continuous
 62
     7
370
     0
100
AcDbPolyline
 90
       60
 70
   128
 43
0.0
 10
10.6509152715
 20
6.760024121
 10
10.6502762955
 20
6.7967928616
 10
10.6483604172
 20
6.8342389374
 10
10.6451707846
 20
6.8723008244
 10
10.6407126381
 20
6.9109159871
 10
10.6349933024
 20
6.9500209808
 10
10.6280221744
 20
6.9895515562
 10
10.6198107077
 20
7.0294427647
 10
10.6103723937
 20
7.069629065
 10
10.5997227395
 20
7.1100444313
 10
10.5878792424
 20
7.1506224611
 10
10.5748613613
 20
7.1912964849
 10
10.5606904846
 20
7.2319996753
 10
10.5453898949
 20
7.2726651571
 10
10.528984731
 20
7.3132261171
 10
10.5115019467
 20
7.3536159136
 10
10.4929702661
 20
7.3937681865
 10
10.4734201366
 20
7.4336169654
 10
10.4528836792
 20
7.4730967792
 10
10.431394635
 20
7.5121427624
 10
10.4089883107
 20
7.5506907627
 10
10.3857015197
 20
7.5886774458
 10
10.3615725222
 20
7.6260403996
 10
10.3366409619
 20
7.662718237
 10
10.3109478015
 20
7.6986506964
 10
10.2845352548
 20
7.7337787407
 10
10.2574467173
 20
7.7680446548
 10
10.2297266957
 20
7.8013921398
 10
10.2014207337
 20
7.8337664059
 10
10.172575338
 20
7.8651142622
 10
10.1432379015
 20
7.8953842044
 10
10.1134566256
 20
7.924526499
 10
10.0832804408
 20
7.9524932652
 10
10.0527589265
 20
7.9792385537
 10
10.0219422294
 20
8.0047184221
 10
9.9908809813
 20
8.0288910071
 10
9.9596262158
 20
8.0517165931
 10
9.9282292844
 20
8.0731576778
 10
9.8967417721
 20
8.0931790336
 10
9.8652154129
 20
8.1117477653
 10
9.8337020044
 20
8.1288333646
 10
9.8022533231
 20
8.14440776
 10
9.7709210391
 20
8.1584453626
 10
9.7397566313
 20
8.1709231089
 10
9.7088113027
 20
8.1818204978
 10
9.6781358964
 20
8.1911196251
 10
9.647780812
 20
8.1988052122
 10
9.6177959228
 20
8.2048646317
 10
9.588230494
 20
8.2092879281
 10
9.5591331015
 20
8.2120678339
 10
9.5305515521
 20
8.2131997817
 10
9.5025328054
 20
8.2126819117
 10
9.4751228959
 20
8.2105150747
 10
9.4483668583
 20
8.206702831
 10
9.4223086524
 20
8.2012514439
 10
9.396991092
 20
8.1941698702
 10
9.3724557737
 20
8.1854697447
 10
9.3487430089
 20
8.1751653619
 10
9.3258917577
 20
8.1632736517
 10
9.3231425092
 20
8.1617023311
  0
LWPOLYLINE
  5
154
330
1F
100
AcDbEntity
  8
0
  6
Continuous
 62
     7
370
     0
100
AcDbPolyline
 90
       21
 70
   128
 43
0.0
 10
10.4230531151
 20
6.2563948339
 10
10.431394635
 20
6.2613586115
 10
10.4528836792
 20
6.2755938725
 10
10.4734201366
 20
6.2913627971
 10
10.4929702661
 20
6.3086394771
 10
10.5115019467
 20
6.3273955269
 10
10.528984731
 20
6.3476001303
 10
10.5453898949
 20
6.3692200913
 10
10.5606904846
 20
6.3922198883
 10
10.5748613613
 20
6.4165617327
 10
10.5878792424
 20
6.4422056309
 10
10.5997227395
 20
6.46910945
 10
10.6103723937
 20
6.4972289872
 10
10.6198107077
 20
6.5265180421
 10
10.6280221744
 20
6.556928493
 10
10.6349933024
 20
6.5884103754
 10
10.6407126381
 20
6.6209119647
 10
10.6451707846
 20
6.654379861
 10
10.6483604172
 20
6.6887590765
 10
10.6502762955
 20
6.7239931263
 10
10.6509152715
 20
6.760024121
  0
LWPOLYLINE
  5
155
330
1F
100
AcDbEntity
  8
0
  6
Continuous
 62
     7
370
     0
100
AcDbPolyline
 90
      151
 70
   128
 43
0.0
 10
8.7312472805
 20
7.3947081586
 10
8.7318891308
 20
7.4297214305
 10
8.7338135557
 20
7.4639322127
 10
8.7370171791
 20
7.4972804877
 10
8.7414943807
 20
7.5297077515
 10
8.747237306
 20
7.5611571155
 10
8.75423588
 20
7.5915734068
 10
8.7624778248
 20
7.6209032651
 10
8.7719486812
 20
7.6490952357
 10
8.7826318341
 20
7.6760998603
 10
8.7945085416
 20
7.7018697637
 10
8.807557968
 20
7.7263597367
 10
8.8217572202
 20
7.7495268155
 10
8.8370813877
 20
7.7713303573
 10
8.8535035869
 20
7.7917321111
 10
8.8709950076
 20
7.8106962855
 10
8.8895249638
 20
7.8281896107
 10
8.9090609479
 20
7.8441813976
 10
8.9295686869
 20
7.8586435911
 10
8.9510122035
 20
7.8715508196
 10
8.9733538782
 20
7.8828804395
 10
8.9965545164
 20
7.8926125747
 10
9.0205734161
 20
7.9007301518
 10
9.04536844
 20
7.9072189298
 10
9.0708960893
 20
7.9120675252
 10
9.0971115798
 20
7.9152674318
 10
9.1239689206
 20
7.916813036
 10
9.1514209948
 20
7.9167016263
 10
9.1794196421
 20
7.9149333981
 10
9.2079157434
 20
7.9115114534
 10
9.2368593069
 20
7.9064417956
 10
9.2661995556
 20
7.8997333184
 10
9.2958850169
 20
7.891397791
 10
9.3258636124
 20
7.8814498366
 10
9.3560827493
 20
7.8699069073
 10
9.3864894131
 20
7.8567892533
 10
9.4170302602
 20
7.8421198875
 10
9.4476517115
 20
7.8259245449
 10
9.4783000466
 20
7.8082316377
 10
9.5089214979
 20
7.7890722051
 10
9.539462345
 20
7.7684798595
 10
9.5698690089
 20
7.7464907266
 10
9.6000881458
 20
7.7231433831
 10
9.6300667413
 20
7.6984787879
 10
9.6597522026
 20
7.6725402113
 10
9.6890924513
 20
7.6453731583
 10
9.7180360148
 20
7.6170252891
 10
9.7465321161
 20
7.5875463355
 10
9.7745307634
 20
7.5569880136
 10
9.8019828376
 20
7.5254039331
 10
9.8288401784
 20
7.4928495033
 10
9.8550556689
 20
7.4593818356
 10
9.8805833182
 20
7.4250596437
 10
9.9053783421
 20
7.3899431404
 10
9.9293972418
 20
7.354093932
 10
9.9525978799
 20
7.3175749102
 10
9.9749395547
 20
7.2804501417
 10
9.9963830712
 20
7.242784756
 10
10.0168908103
 20
7.2046448309
 10
10.0364267943
 20
7.166097277
 10
10.0549567506
 20
7.1272097196
 10
10.0724481713
 20
7.0880503809
 10
10.0888703704
 20
7.0486879594
 10
10.104194538
 20
7.0091915104
 10
10.1183937901
 20
6.9696303241
 10
10.1314432165
 20
6.930073804
 10
10.1433199241
 20
6.890591346
 10
10.154003077
 20
6.8512522156
 10
10.1634739334
 20
6.8121254269
 10
10.1717158782
 20
6.7732796218
 10
10.1787144522
 20
6.7347829488
 10
10.1844573775
 20
6.6967029444
 10
10.1889345791
 20
6.6591064137
 10
10.1921382025
 20
6.6220593138
 10
10.1940626274
 20
6.585626638
 10
10.1947044777
 20
6.5498723015
 10
10.1940626274
 20
6.5148590296
 10
10.1921382025
 20
6.4806482475
 10
10.1889345791
 20
6.4472999724
 10
10.1844573775
 20
6.4148727087
 10
10.1787144522
 20
6.3834233447
 10
10.1717158782
 20
6.3530070533
 10
10.1634739334
 20
6.323677195
 10
10.154003077
 20
6.2954852244
 10
10.1433199241
 20
6.2684805998
 10
10.1314432165
 20
6.2427106964
 10
10.1183937901
 20
6.2182207234
 10
10.104194538
 20
6.1950536446
 10
10.0888703704
 20
6.1732501028
 10
10.0724481713
 20
6.152848349
 10
10.0549567506
 20
6.1338841746
 10
10.0364267943
 20
6.1163908494
 10
10.0168908103
 20
6.1003990625
 10
9.9963830712
 20
6.085936869
 10
9.9749395547
 20
6.0730296405
 10
9.9525978799
 20
6.0617000206
 10
9.9293972418
 20
6.0519678854
 10
9.9053783421
 20
6.0438503083
 10
9.8805833182
 20
6.0373615303
 10
9.8550556689
 20
6.0325129349
 10
9.8288401784
 20
6.0293130283
 10
9.8019828376
 20
6.0277674241
 10
9.7745307634
 20
6.0278788338
 10
9.7465321161
 20
6.029647062
 10
9.7180360148
 20
6.0330690067
 10
9.6890924513
 20
6.0381386645
 10
9.6597522026
 20
6.0448471417
 10
9.6300667413
 20
6.0531826691
 10
9.6000881458
 20
6.0631306235
 10
9.5698690089
 20
6.0746735528
 10
9.539462345
 20
6.0877912068
 10
9.5089214979
 20
6.1024605726
 10
9.4783000466
 20
6.1186559152
 10
9.4476517115
 20
6.1363488224
 10
9.4170302602
 20
6.155508255
 10
9.3864894131
 20
6.1761006006
 10
9.3560827493
 20
6.1980897335
 10
9.3258636124
 20
6.221437077
 10
9.2958850169
 20
6.2461016722
 10
9.2661995556
 20
6.2720402488
 10
9.2368593069
 20
6.2992073018
 10
9.2079157434
 20
6.3275551711
 10
9.1794196421
 20
6.3570341246
 10
9.1514209948
 20
6.3875924465
 10
9.1239689206
 20
6.419176527
 10
9.0971115798
 20
6.4517309568
 10
9.0708960893
 20
6.4851986245
 10
9.04536844
 20
6.5195208164
 10
9.0205734161
 20
6.5546373197
 10
8.9965545164
 20
6.5904865281
 10
8.9733538782
 20
6.6270055499
 10
8.9510122035
 20
6.6641303185
 10
8.9295686869
 20
6.7017957042
 10
8.9090609479
 20
6.7399356292
 10
8.8895249638
 20
6.7784831831
 10
8.8709950076
 20
6.8173707405
 10
8.8535035869
 20
6.8565300792
 10
8.8370813877
 20
6.8958925007
 10
8.8217572202
 20
6.9353889497
 10
8.807557968
 20
6.9749501361
 10
8.7945085416
 20
7.0145066561
 10
8.7826318341
 20
7.0539891141
 10
8.7719486812
 20
7.0933282446
 10
8.7624778248
 20
7.1324550332
 10
8.75423588
 20
7.1713008383
 10
8.747237306
 20
7.2097975113
 10
8.7414943807
 20
7.2478775157
 10
8.7370171791
 20
7.2854740464
 10
8.7338135557
 20
7.3225211463
 10
8.7318891308
 20
7.3589538221
 10
8.7312472805
 20
7.3947081586
  0
LWPOLYLINE
  5
156
330
1F
100
AcDbEntity
  8
0
  6
Continuous
 62
     7
370
     0
100
AcDbPolyline
 90
      150
 70
   128
 43
0.0
 10
8.750565797
 20
7.3917198975
 10
8.7512054027
 20
7.3563257376
 10
8.7531230823
 20
7.3202560344
 10
8.7563154264
 20
7.2835749183
 10
8.7607767591
 20
7.2463476072
 10
8.7664991484
 20
7.2086402898
 10
8.7734724199
 20
7.1705200083
 10
8.7816841755
 20
7.1320545392
 10
8.791119815
 20
7.0933122727
 10
8.8017625622
 20
7.0543620912
 10
8.8135934946
 20
7.0152732466
 10
8.8265915773
 20
6.9761152375
 10
8.8407337002
 20
6.9369576854
 10
8.8559947191
 20
6.8978702109
 10
8.8723475004
 20
6.8589223103
 10
8.8897629695
 20
6.8201832314
 10
8.9082101623
 20
6.781721851
 10
8.9276562805
 20
6.7436065518
 10
8.9480667494
 20
6.7059051017
 10
8.9694052801
 20
6.6686845323
 10
8.9916339335
 20
6.6320110204
 10
9.0147131877
 20
6.5959497703
 10
9.0386020087
 20
6.5605648975
 10
9.063257923
 20
6.5259193151
 10
9.0886370934
 20
6.4920746216
 10
9.1146943966
 20
6.4590909916
 10
9.1413835037
 20
6.4270270688
 10
9.1686569624
 20
6.3959398618
 10
9.1964662814
 20
6.3658846424
 10
9.2247620169
 20
6.3369148477
 10
9.2534938601
 20
6.309081985
 10
9.2826107267
 20
6.2824355401
 10
9.3120608482
 20
6.2570228894
 10
9.3417918631
 20
6.2328892156
 10
9.3717509109
 20
6.2100774275
 10
9.4018847254
 20
6.1886280838
 10
9.4321397299
 20
6.1685793204
 10
9.462462132
 20
6.1499667834
 10
9.4927980197
 20
6.1328235652
 10
9.5230934568
 20
6.1171801459
 10
9.5532945791
 20
6.1030643387
 10
9.5833476902
 20
6.0905012412
 10
9.6131993567
 20
6.0795131901
 10
9.6427965034
 20
6.0701197217
 10
9.6720865077
 20
6.0623375372
 10
9.7010172931
 20
6.0561804732
 10
9.7295374216
 20
6.0516594766
 10
9.7575961855
 20
6.0487825856
 10
9.7851436974
 20
6.0475549151
 10
9.8121309787
 20
6.0479786481
 10
9.8385100471
 20
6.050053031
 10
9.8642340016
 20
6.0537743758
 10
9.8892571059
 20
6.0591360659
 10
9.9135348698
 20
6.0661285685
 10
9.9370241283
 20
6.0747394513
 10
9.9596831185
 20
6.0849534042
 10
9.9814715534
 20
6.0967522674
 10
10.0023506941
 20
6.1101150628
 10
10.0222834181
 20
6.125018032
 10
10.0412342858
 20
6.1414346779
 10
10.0591696032
 20
6.1593358124
 10
10.0760574821
 20
6.1786896079
 10
10.0918678964
 20
6.199461654
 10
10.1065727357
 20
6.2216150189
 10
10.1201458554
 20
6.2451103146
 10
10.132563123
 20
6.2699057674
 10
10.1438024609
 20
6.2959572919
 10
10.1538438862
 20
6.3232185694
 10
10.1626695454
 20
6.3516411303
 10
10.170263747
 20
6.3811744404
 10
10.1766129886
 20
6.4117659905
 10
10.1817059816
 20
6.4433613899
 10
10.1855336708
 20
6.4759044633
 10
10.1880892507
 20
6.5093373501
 10
10.1893681776
 20
6.543600608
 10
10.1893681776
 20
6.5786333182
 10
10.1880892507
 20
6.6143731936
 10
10.1855336708
 20
6.6507566902
 10
10.1817059816
 20
6.6877191195
 10
10.1766129886
 20
6.7251947635
 10
10.170263747
 20
6.7631169919
 10
10.1626695454
 20
6.8014183805
 10
10.1538438862
 20
6.8400308307
 10
10.1438024609
 20
6.8788856909
 10
10.132563123
 20
6.9179138788
 10
10.1201458554
 20
6.9570460036
 10
10.1065727357
 20
6.9962124897
 10
10.0918678964
 20
7.0353437007
 10
10.0760574821
 20
7.0743700626
 10
10.0591696032
 20
7.113222188
 10
10.0412342858
 20
7.1518309993
 10
10.0222834181
 20
7.1901278513
 10
10.0023506941
 20
7.2280446537
 10
9.9814715534
 20
7.2655139918
 10
9.9596831185
 20
7.3024692465
 10
9.9370241283
 20
7.3388447127
 10
9.9135348698
 20
7.374575716
 10
9.8892571059
 20
7.4095987282
 10
9.8642340016
 20
7.4438514796
 10
9.8385100471
 20
7.47727307
 10
9.8121309787
 20
7.509804077
 10
9.7851436974
 20
7.5413866617
 10
9.7575961855
 20
7.5719646715
 10
9.7295374216
 20
7.6014837398
 10
9.7010172931
 20
7.6298913826
 10
9.6720865077
 20
7.6571370923
 10
9.6427965034
 20
7.683172427
 10
9.6131993567
 20
7.7079510969
 10
9.5833476902
 20
7.7314290462
 10
9.5532945791
 20
7.7535645322
 10
9.5230934568
 20
7.7743181987
 10
9.4927980197
 20
7.7936531465
 10
9.462462132
 20
7.8115349986
 10
9.4321397299
 20
7.827931962
 10
9.4018847254
 20
7.8428148833
 10
9.3717509109
 20
7.8561573012
 10
9.3417918631
 20
7.8679354934
 10
9.3120608482
 20
7.8781285188
 10
9.2826107267
 20
7.8867182545
 10
9.2534938601
 20
7.8936894282
 10
9.2247620169
 20
7.8990296455
 10
9.1964662814
 20
7.9027294117
 10
9.1686569624
 20
7.9047821487
 10
9.1413835037
 20
7.9051842068
 10
9.1146943966
 20
7.9039348711
 10
9.0886370934
 20
7.901036363
 10
9.063257923
 20
7.8964938359
 10
9.0386020087
 20
7.8903153663
 10
9.0147131877
 20
7.8825119391
 10
8.9916339335
 20
7.8730974287
 10
8.9694052801
 20
7.8620885737
 10
8.9480667494
 20
7.8495049474
 10
8.9276562805
 20
7.8353689231
 10
8.9082101623
 20
7.8197056341
 10
8.8897629695
 20
7.8025429292
 10
8.8723475004
 20
7.7839113229
 10
8.8559947191
 20
7.7638439417
 10
8.8407337002
 20
7.7423764646
 10
8.8265915773
 20
7.71954706
 10
8.8135934946
 20
7.6953963178
 10
8.8017625622
 20
7.669967177
 10
8.791119815
 20
7.6433048498
 10
8.7816841755
 20
7.6154567408
 10
8.7734724199
 20
7.5864723629
 10
8.7664991484
 20
7.5564032494
 10
8.7607767591
 20
7.5253028619
 10
8.7563154264
 20
7.4932264959
 10
8.7531230823
 20
7.4602311819
 10
8.7512054027
 20
7.4263755844
 10
8.750565797
 20
7.3917198975
  0
ARC
  5
157
330
1F
100
AcDbEntity
  8
0
  6
Continuous
 62
     7
370
     0
100
AcDbCircle
 10
8.9796875568
 20
6.6932938202
 30
0.0
 40
1.672905030993719
100
AcDbArc
 50
2.5659356846
 51
57.4286877827
  0
LWPOLYLINE
  5
158
330
1F
100
AcDbEntity
  8
0
  6
Continuous
 62
     7
370
     0
100
AcDbPolyline
 90
       47
 70
   128
 43
0.0
 10
10.6774317758
 20
6.8426854423
 10
10.6767921702
 20
6.8780796022
 10
10.6748744905
 20
6.9141493054
 10
10.6716821464
 20
6.9508304215
 10
10.6672208137
 20
6.9880577326
 10
10.6614984245
 20
7.02576505
 10
10.6545251529
 20
7.0638853315
 10
10.6463133973
 20
7.1023508006
 10
10.6368777578
 20
7.1410930671
 10
10.6262350106
 20
7.1800432486
 10
10.6144040782
 20
7.2191320932
 10
10.6014059955
 20
7.2582901023
 10
10.5872638726
 20
7.2974476545
 10
10.5720028538
 20
7.3365351289
 10
10.5556500724
 20
7.3754830295
 10
10.5382346033
 20
7.4142221084
 10
10.5197874105
 20
7.4526834888
 10
10.5003412923
 20
7.490798788
 10
10.4799308234
 20
7.5285002381
 10
10.4585922927
 20
7.5657208075
 10
10.4363636394
 20
7.6023943194
 10
10.4132843852
 20
7.6384555695
 10
10.3893955642
 20
7.6738404423
 10
10.3647396498
 20
7.7084860247
 10
10.3393604794
 20
7.7423307183
 10
10.3133031762
 20
7.7753143482
 10
10.2866140691
 20
7.807378271
 10
10.2593406105
 20
7.838465478
 10
10.2315312914
 20
7.8685206974
 10
10.2032355559
 20
7.8974904921
 10
10.1745037127
 20
7.9253233548
 10
10.1453868461
 20
7.9519697997
 10
10.1159367247
 20
7.9773824504
 10
10.0862057097
 20
8.0015161242
 10
10.056246662
 20
8.0243279123
 10
10.0261128474
 20
8.045777256
 10
9.9958578429
 20
8.0658260194
 10
9.9655354408
 20
8.0844385564
 10
9.9351995531
 20
8.1015817746
 10
9.904904116
 20
8.1172251939
 10
9.8747029937
 20
8.1313410011
 10
9.8446498826
 20
8.1439040986
 10
9.8147982161
 20
8.1548921497
 10
9.7852010694
 20
8.1642856181
 10
9.7559110651
 20
8.1720678026
 10
9.7269802797
 20
8.1782248666
 10
9.7118392422
 20
8.1808207931
  0
ARC
  5
159
330
1F
100
AcDbEntity
  8
0
  6
Continuous
 62
     7
370
     0
100
AcDbCircle
 10
9.9574151337
 20
6.8300753546
 30
0.0
 40
0.7201270576543403
100
AcDbArc
 50
339.9711809334
 51
1.0033531227
  0
LINE
  5
15A
330
1F
100
AcDbEntity
  8
0
  6
Continuous
 62
     7
370
     0
100
AcDbLine
 10
7.5094323362
 20
5.3090947697
 30
0.0
 11
7.4995898165
 21
5.3189372894
 31
0.0
  0
LINE
  5
15B
330
1F
100
AcDbEntity
  8
0
  6
Continuous
 62
     7
370
     0
100
AcDbLine
 10
7.4995898165
 20
3.3189372894
 30
0.0
 11
7.5094323362
 21
3.3287798091
 31
0.0
  0
LINE
  5
15C
330
1F
100
AcDbEntity
  8
0
  6
Continuous
 62
     7
370
     0
100
AcDbLine
 10
7.4995898165
 20
3.3189372894
 30
0.0
 11
7.4011646197
 21
3.3189372894
 31
0.0
  0
LINE
  5
15D
330
1F
100
AcDbEntity
  8
0
  6
Continuous
 62
     7
370
     0
100
AcDbLine
 10
7.4011646197
 20
5.3189372894
 30
0.0
 11
7.4995898165
 21
5.3189372894
 31
0.0
  0
ARC
  5
15E
330
1F
100
AcDbEntity
  8
0
  6
Continuous
 62
     7
370
     0
100
AcDbCircle
 10
8.3086438651
 20
4.3172327576
 30
0.0
 40
1.358267716535434
100
AcDbArc
 50
132.8936222165
 51
179.9280977506
  0
LINE
  5
15F
330
1F
100
AcDbEntity
  8
0
  6
Continuous
 62
     7
370
     0
100
AcDbLine
 10
7.4011646197
 20
5.3189372894
 30
0.0
 11
7.3841534461
 21
5.3123250423
 31
0.0
  0
LINE
  5
160
330
1F
100
AcDbEntity
  8
0
  6
Continuous
 62
     7
370
     0
100
AcDbLine
 10
7.5094323362
 20
5.3090947697
 30
0.0
 11
7.5094323362
 21
3.3287798091
 31
0.0
  0
LINE
  5
161
330
1F
100
AcDbEntity
  8
0
  6
Continuous
 62
     7
370
     0
100
AcDbLine
 10
7.3841534461
 20
3.3255495366
 30
0.0
 11
7.4011646197
 21
3.3189372894
 31
0.0
  0
ARC
  5
162
330
1F
100
AcDbEntity
  8
0
  6
Continuous
 62
     7
370
     0
100
AcDbCircle
 10
8.3086438651
 20
4.3206418212
 30
0.0
 40
1.358267716535434
100
AcDbArc
 50
180.0719022494
 51
227.1063777835
  0
LINE
  5
163
330
1F
100
AcDbEntity
  8
0
  6
Continuous
 62
     7
370
     0
100
AcDbLine
 10
7.349546515
 20
5.3264372894
 30
0.0
 11
7.332226007
 21
5.3364372894
 31
0.0
  0
LINE
  5
164
330
1F
100
AcDbEntity
  8
0
  6
Continuous
 62
     7
370
     0
100
AcDbLine
 10
7.332226007
 20
3.3014372894
 30
0.0
 11
7.349546515
 21
3.3114372894
 31
0.0
  0
LINE
  5
165
330
1F
100
AcDbEntity
  8
0
  6
Continuous
 62
     7
370
     0
100
AcDbLine
 10
7.349546515
 20
3.3516167813
 30
0.0
 11
7.339546515
 21
3.3689372894
 31
0.0
  0
LINE
  5
166
330
1F
100
AcDbEntity
  8
0
  6
Continuous
 62
     7
370
     0
100
AcDbLine
 10
7.339546515
 20
5.2689372894
 30
0.0
 11
7.349546515
 21
5.2862577975
 31
0.0
  0
LINE
  5
167
330
1F
100
AcDbEntity
  8
0
  6
Continuous
 62
     7
370
     0
100
AcDbLine
 10
7.349546515
 20
5.2862577975
 30
0.0
 11
7.349546515
 21
5.2790141584
 31
0.0
  0
LINE
  5
168
330
1F
100
AcDbEntity
  8
0
  6
Continuous
 62
     7
370
     0
100
AcDbLine
 10
7.349546515
 20
3.3588604205
 30
0.0
 11
7.349546515
 21
3.3516167813
 31
0.0
  0
LINE
  5
169
330
1F
100
AcDbEntity
  8
0
  6
Continuous
 62
     7
370
     0
100
AcDbLine
 10
7.2668670231
 20
5.2689372894
 30
0.0
 11
7.2668670231
 21
5.1887786263
 31
0.0
  0
LINE
  5
16A
330
1F
100
AcDbEntity
  8
0
  6
Continuous
 62
     7
370
     0
100
AcDbLine
 10
7.339546515
 20
5.2689372894
 30
0.0
 11
7.2668670231
 21
5.2689372894
 31
0.0
  0
LINE
  5
16B
330
1F
100
AcDbEntity
  8
0
  6
Continuous
 62
     7
370
     0
100
AcDbLine
 10
7.2668670231
 20
3.3689372894
 30
0.0
 11
7.339546515
 21
3.3689372894
 31
0.0
  0
LINE
  5
16C
330
1F
100
AcDbEntity
  8
0
  6
Continuous
 62
     7
370
     0
100
AcDbLine
 10
7.2668670231
 20
3.4490959525
 30
0.0
 11
7.2668670231
 21
3.3689372894
 31
0.0
  0
LINE
  5
16D
330
1F
100
AcDbEntity
  8
0
  6
Continuous
 62
     7
370
     0
100
AcDbLine
 10
7.259546515
 20
5.3364372894
 30
0.0
 11
7.332226007
 21
5.3364372894
 31
0.0
  0
LINE
  5
16E
330
1F
100
AcDbEntity
  8
0
  6
Continuous
 62
     7
370
     0
100
AcDbLine
 10
7.332226007
 20
3.3014372894
 30
0.0
 11
7.259546515
 21
3.3014372894
 31
0.0
  0
LINE
  5
16F
330
1F
100
AcDbEntity
  8
0
  6
Continuous
 62
     7
370
     0
100
AcDbLine
 10
7.249546515
 20
3.3187577975
 30
0.0
 11
7.259546515
 21
3.3014372894
 31
0.0
  0
LINE
  5
170
330
1F
100
AcDbEntity
  8
0
  6
Continuous
 62
     7
370
     0
100
AcDbLine
 10
7.249546515
 20
3.3187577975
 30
0.0
 11
7.249546515
 21
3.3589372894
 31
0.0
  0
LINE
  5
171
330
1F
100
AcDbEntity
  8
0
  6
Continuous
 62
     7
370
     0
100
AcDbLine
 10
7.2668670231
 20
3.3689372894
 30
0.0
 11
7.249546515
 21
3.3589372894
 31
0.0
  0
LINE
  5
172
330
1F
100
AcDbEntity
  8
0
  6
Continuous
 62
     7
370
     0
100
AcDbLine
 10
7.349546515
 20
3.3516167813
 30
0.0
 11
7.349546515
 21
3.3114372894
 31
0.0
  0
LINE
  5
173
330
1F
100
AcDbEntity
  8
0
  6
Continuous
 62
     7
370
     0
100
AcDbLine
 10
7.249546515
 20
5.2789372894
 30
0.0
 11
7.2668670231
 21
5.2689372894
 31
0.0
  0
LINE
  5
174
330
1F
100
AcDbEntity
  8
0
  6
Continuous
 62
     7
370
     0
100
AcDbLine
 10
7.249546515
 20
5.2789372894
 30
0.0
 11
7.249546515
 21
5.3191167813
 31
0.0
  0
LINE
  5
175
330
1F
100
AcDbEntity
  8
0
  6
Continuous
 62
     7
370
     0
100
AcDbLine
 10
7.259546515
 20
5.3364372894
 30
0.0
 11
7.249546515
 21
5.3191167813
 31
0.0
  0
LINE
  5
176
330
1F
100
AcDbEntity
  8
0
  6
Continuous
 62
     7
370
     0
100
AcDbLine
 10
7.349546515
 20
5.3264372894
 30
0.0
 11
7.349546515
 21
5.2862577975
 31
0.0
  0
LINE
  5
177
330
1F
100
AcDbEntity
  8
0
  6
Continuous
 62
     7
370
     0
100
AcDbLine
 10
7.249546515
 20
5.1676467702
 30
0.0
 11
7.249546515
 21
5.2789372894
 31
0.0
  0
LINE
  5
178
330
1F
100
AcDbEntity
  8
0
  6
Continuous
 62
     7
370
     0
100
AcDbLine
 10
7.249546515
 20
3.3589372894
 30
0.0
 11
7.249546515
 21
3.4702278086
 31
0.0
  0
LINE
  5
179
330
1F
100
AcDbEntity
  8
0
  6
Continuous
 62
     7
370
     0
100
AcDbLine
 10
6.9594323362
 20
3.3014372894
 30
0.0
 11
6.9494323362
 21
3.2841167813
 31
0.0
  0
LINE
  5
17A
330
1F
100
AcDbEntity
  8
0
  6
Continuous
 62
     7
370
     0
100
AcDbLine
 10
6.9594323362
 20
3.3014372894
 30
0.0
 11
7.4994323362
 21
3.3014372894
 31
0.0
  0
LINE
  5
17B
330
1F
100
AcDbEntity
  8
0
  6
Continuous
 62
     7
370
     0
100
AcDbLine
 10
7.4994323362
 20
3.3014372894
 30
0.0
 11
7.4994323362
 21
3.2914372894
 31
0.0
  0
LINE
  5
17C
330
1F
100
AcDbEntity
  8
0
  6
Continuous
 62
     7
370
     0
100
AcDbLine
 10
7.4994323362
 20
3.2914372894
 30
0.0
 11
7.5094323362
 21
3.2914372894
 31
0.0
  0
LINE
  5
17D
330
1F
100
AcDbEntity
  8
0
  6
Continuous
 62
     7
370
     0
100
AcDbLine
 10
7.5094323362
 20
3.2914372894
 30
0.0
 11
7.5094323362
 21
3.3689372894
 31
0.0
  0
LINE
  5
17E
330
1F
100
AcDbEntity
  8
0
  6
Continuous
 62
     7
370
     0
100
AcDbLine
 10
7.5094323362
 20
3.3689372894
 30
0.0
 11
7.6594323362
 21
3.3689372894
 31
0.0
  0
LINE
  5
17F
330
1F
100
AcDbEntity
  8
0
  6
Continuous
 62
     7
370
     0
100
AcDbLine
 10
7.6594323362
 20
3.3689372894
 30
0.0
 11
7.6594323362
 21
3.3187577975
 31
0.0
  0
LINE
  5
180
330
1F
100
AcDbEntity
  8
0
  6
Continuous
 62
     7
370
     0
100
AcDbLine
 10
7.6494323362
 20
3.3014372894
 30
0.0
 11
7.6594323362
 21
3.3187577975
 31
0.0
  0
LINE
  5
181
330
1F
100
AcDbEntity
  8
0
  6
Continuous
 62
     7
370
     0
100
AcDbLine
 10
7.6494323362
 20
3.3014372894
 30
0.0
 11
7.5494323362
 21
3.3014372894
 31
0.0
  0
LINE
  5
182
330
1F
100
AcDbEntity
  8
0
  6
Continuous
 62
     7
370
     0
100
AcDbLine
 10
7.5494323362
 20
3.3014372894
 30
0.0
 11
7.5494323362
 21
3.3114372894
 31
0.0
  0
LINE
  5
183
330
1F
100
AcDbEntity
  8
0
  6
Continuous
 62
     7
370
     0
100
AcDbLine
 10
7.5494323362
 20
3.3114372894
 30
0.0
 11
7.5394323362
 21
3.3114372894
 31
0.0
  0
LINE
  5
184
330
1F
100
AcDbEntity
  8
0
  6
Continuous
 62
     7
370
     0
100
AcDbLine
 10
7.5394323362
 20
3.3114372894
 30
0.0
 11
7.5394323362
 21
3.2289372894
 31
0.0
  0
LINE
  5
185
330
1F
100
AcDbEntity
  8
0
  6
Continuous
 62
     7
370
     0
100
AcDbLine
 10
7.5294323362
 20
3.2189372894
 30
0.0
 11
7.5394323362
 21
3.2289372894
 31
0.0
  0
LINE
  5
186
330
1F
100
AcDbEntity
  8
0
  6
Continuous
 62
     7
370
     0
100
AcDbLine
 10
7.5294323362
 20
3.2189372894
 30
0.0
 11
7.2844323362
 21
3.2189372894
 31
0.0
  0
LINE
  5
187
330
1F
100
AcDbEntity
  8
0
  6
Continuous
 62
     7
370
     0
100
AcDbLine
 10
7.2844323362
 20
3.2189372894
 30
0.0
 11
7.263912902
 21
3.2189372894
 31
0.0
  0
LINE
  5
188
330
1F
100
AcDbEntity
  8
0
  6
Continuous
 62
     7
370
     0
100
AcDbLine
 10
7.263912902
 20
3.2189372894
 30
0.0
 11
7.2406462155
 21
3.2189372894
 31
0.0
  0
LINE
  5
189
330
1F
100
AcDbEntity
  8
0
  6
Continuous
 62
     7
370
     0
100
AcDbLine
 10
7.2406462155
 20
3.2189372894
 30
0.0
 11
7.2106344835
 21
3.2189372894
 31
0.0
  0
LINE
  5
18A
330
1F
100
AcDbEntity
  8
0
  6
Continuous
 62
     7
370
     0
100
AcDbLine
 10
7.2106344835
 20
3.2189372894
 30
0.0
 11
6.9594323362
 21
3.2189372894
 31
0.0
  0
LINE
  5
18B
330
1F
100
AcDbEntity
  8
0
  6
Continuous
 62
     7
370
     0
100
AcDbLine
 10
6.9494323362
 20
3.2289372894
 30
0.0
 11
6.9594323362
 21
3.2189372894
 31
0.0
  0
LINE
  5
18C
330
1F
100
AcDbEntity
  8
0
  6
Continuous
 62
     7
370
     0
100
AcDbLine
 10
6.9494323362
 20
3.2289372894
 30
0.0
 11
6.9494323362
 21
3.2841167813
 31
0.0
  0
LINE
  5
18D
330
1F
100
AcDbEntity
  8
0
  6
Continuous
 62
     7
370
     0
100
AcDbLine
 10
7.2044323362
 20
5.4189372894
 30
0.0
 11
7.2136631055
 21
5.4189372894
 31
0.0
  0
LINE
  5
18E
330
1F
100
AcDbEntity
  8
0
  6
Continuous
 62
     7
370
     0
100
AcDbLine
 10
7.2136631055
 20
5.4189372894
 30
0.0
 11
7.2382784901
 21
5.4189372894
 31
0.0
  0
LINE
  5
18F
330
1F
100
AcDbEntity
  8
0
  6
Continuous
 62
     7
370
     0
100
AcDbLine
 10
7.2382784901
 20
5.4189372894
 30
0.0
 11
7.2475092593
 21
5.4189372894
 31
0.0
  0
LINE
  5
190
330
1F
100
AcDbEntity
  8
0
  6
Continuous
 62
     7
370
     0
100
AcDbLine
 10
7.2475092593
 20
5.4189372894
 30
0.0
 11
7.275201567
 21
5.4189372894
 31
0.0
  0
LINE
  5
191
330
1F
100
AcDbEntity
  8
0
  6
Continuous
 62
     7
370
     0
100
AcDbLine
 10
7.275201567
 20
5.4189372894
 30
0.0
 11
7.2844323362
 21
5.4189372894
 31
0.0
  0
LINE
  5
192
330
1F
100
AcDbEntity
  8
0
  6
Continuous
 62
     7
370
     0
100
AcDbLine
 10
7.2844323362
 20
5.4189372894
 30
0.0
 11
7.3393711815
 21
5.4189372894
 31
0.0
  0
LINE
  5
193
330
1F
100
AcDbEntity
  8
0
  6
Continuous
 62
     7
370
     0
100
AcDbLine
 10
7.3393711815
 20
5.4189372894
 30
0.0
 11
7.3606739214
 21
5.4189372894
 31
0.0
  0
LINE
  5
194
330
1F
100
AcDbEntity
  8
0
  6
Continuous
 62
     7
370
     0
100
AcDbLine
 10
7.3606739214
 20
5.4189372894
 30
0.0
 11
7.5294323362
 21
5.4189372894
 31
0.0
  0
LINE
  5
195
330
1F
100
AcDbEntity
  8
0
  6
Continuous
 62
     7
370
     0
100
AcDbLine
 10
7.5394323362
 20
5.4089372894
 30
0.0
 11
7.5294323362
 21
5.4189372894
 31
0.0
  0
LINE
  5
196
330
1F
100
AcDbEntity
  8
0
  6
Continuous
 62
     7
370
     0
100
AcDbLine
 10
7.5394323362
 20
5.4089372894
 30
0.0
 11
7.5394323362
 21
5.3264372894
 31
0.0
  0
LINE
  5
197
330
1F
100
AcDbEntity
  8
0
  6
Continuous
 62
     7
370
     0
100
AcDbLine
 10
7.5394323362
 20
5.3264372894
 30
0.0
 11
7.5494323362
 21
5.3264372894
 31
0.0
  0
LINE
  5
198
330
1F
100
AcDbEntity
  8
0
  6
Continuous
 62
     7
370
     0
100
AcDbLine
 10
7.5494323362
 20
5.3264372894
 30
0.0
 11
7.5494323362
 21
5.3364372894
 31
0.0
  0
LINE
  5
199
330
1F
100
AcDbEntity
  8
0
  6
Continuous
 62
     7
370
     0
100
AcDbLine
 10
7.5494323362
 20
5.3364372894
 30
0.0
 11
7.6494323362
 21
5.3364372894
 31
0.0
  0
LINE
  5
19A
330
1F
100
AcDbEntity
  8
0
  6
Continuous
 62
     7
370
     0
100
AcDbLine
 10
7.6594323362
 20
5.3191167813
 30
0.0
 11
7.6494323362
 21
5.3364372894
 31
0.0
  0
LINE
  5
19B
330
1F
100
AcDbEntity
  8
0
  6
Continuous
 62
     7
370
     0
100
AcDbLine
 10
7.6594323362
 20
5.3191167813
 30
0.0
 11
7.6594323362
 21
5.2689372894
 31
0.0
  0
LINE
  5
19C
330
1F
100
AcDbEntity
  8
0
  6
Continuous
 62
     7
370
     0
100
AcDbLine
 10
7.6594323362
 20
5.2689372894
 30
0.0
 11
7.5094323362
 21
5.2689372894
 31
0.0
  0
LINE
  5
19D
330
1F
100
AcDbEntity
  8
0
  6
Continuous
 62
     7
370
     0
100
AcDbLine
 10
7.5094323362
 20
5.2689372894
 30
0.0
 11
7.5094323362
 21
5.3464372894
 31
0.0
  0
LINE
  5
19E
330
1F
100
AcDbEntity
  8
0
  6
Continuous
 62
     7
370
     0
100
AcDbLine
 10
7.5094323362
 20
5.3464372894
 30
0.0
 11
7.4994323362
 21
5.3464372894
 31
0.0
  0
LINE
  5
19F
330
1F
100
AcDbEntity
  8
0
  6
Continuous
 62
     7
370
     0
100
AcDbLine
 10
7.4994323362
 20
5.3464372894
 30
0.0
 11
7.4994323362
 21
5.3364372894
 31
0.0
  0
LINE
  5
1A0
330
1F
100
AcDbEntity
  8
0
  6
Continuous
 62
     7
370
     0
100
AcDbLine
 10
7.4994323362
 20
5.3364372894
 30
0.0
 11
6.9594323362
 21
5.3364372894
 31
0.0
  0
LINE
  5
1A1
330
1F
100
AcDbEntity
  8
0
  6
Continuous
 62
     7
370
     0
100
AcDbLine
 10
6.9494323362
 20
5.3537577975
 30
0.0
 11
6.9594323362
 21
5.3364372894
 31
0.0
  0
LINE
  5
1A2
330
1F
100
AcDbEntity
  8
0
  6
Continuous
 62
     7
370
     0
100
AcDbLine
 10
6.9494323362
 20
5.3537577975
 30
0.0
 11
6.9494323362
 21
5.4089372894
 31
0.0
  0
LINE
  5
1A3
330
1F
100
AcDbEntity
  8
0
  6
Continuous
 62
     7
370
     0
100
AcDbLine
 10
6.9594323362
 20
5.4189372894
 30
0.0
 11
6.9494323362
 21
5.4089372894
 31
0.0
  0
LINE
  5
1A4
330
1F
100
AcDbEntity
  8
0
  6
Continuous
 62
     7
370
     0
100
AcDbLine
 10
6.9594323362
 20
5.4189372894
 30
0.0
 11
7.2044323362
 21
5.4189372894
 31
0.0
  0
LINE
  5
1A5
330
1F
100
AcDbEntity
  8
0
  6
Continuous
 62
     7
370
     0
100
AcDbLine
 10
7.6594323362
 20
3.3689372894
 30
0.0
 11
7.6594323362
 21
5.2689372894
 31
0.0
  0
LINE
  5
1A6
330
1F
100
AcDbEntity
  8
0
  6
Continuous
 62
     7
370
     0
100
AcDbLine
 10
6.9594323362
 20
5.3364372894
 30
0.0
 11
6.9594323362
 21
4.4738196028
 31
0.0
  0
LINE
  5
1A7
330
1F
100
AcDbEntity
  8
0
  6
Continuous
 62
     7
370
     0
100
AcDbLine
 10
6.9594323362
 20
4.164054976
 30
0.0
 11
6.9594323362
 21
3.3014372894
 31
0.0
  0
LINE
  5
1A8
330
1F
100
AcDbEntity
  8
0
  6
Continuous
 62
     7
370
     0
100
AcDbLine
 10
7.4994323362
 20
3.3014372894
 30
0.0
 11
7.4994323362
 21
3.3189372894
 31
0.0
  0
LINE
  5
1A9
330
1F
100
AcDbEntity
  8
0
  6
Continuous
 62
     7
370
     0
100
AcDbLine
 10
7.4994323362
 20
5.3189372894
 30
0.0
 11
7.4994323362
 21
5.3364372894
 31
0.0
  0
LINE
  5
1AA
330
1F
100
AcDbEntity
  8
0
  6
Continuous
 62
     7
370
     0
100
AcDbLine
 10
6.9494323362
 20
3.2841167813
 30
0.0
 11
6.9494323362
 21
5.3537577975
 31
0.0
  0
HATCH
  5
1AB
330
1F
100
AcDbEntity
  8
0
  6
Continuous
 62
     7
370
     0
100
AcDbHatch
 10
0.0
 20
0.0
 30
0.0
210
0.0
220
0.0
230
1.0
  2
ANSI31
 70
     0
 71
     0
 91
        1
 92
        0
 93
       24
 72
     1
 10
7.204432336226962
 20
5.418937289423174
 11
6.959432336226963
 21
5.418937289423174
 72
     1
 10
6.959432336226963
 20
5.418937289423174
 11
6.949432336226963
 21
5.408937289423173
 72
     1
 10
6.949432336226963
 20
5.408937289423173
 11
6.949432336226963
 21
5.353757797498863
 72
     1
 10
6.949432336226963
 20
5.353757797498863
 11
6.959432336226963
 21
5.336437289423174
 72
     1
 10
6.959432336226963
 20
5.336437289423174
 11
7.499432336226963
 21
5.336437289423174
 72
     1
 10
7.499432336226963
 20
5.336437289423174
 11
7.499432336226963
 21
5.346437289423174
 72
     1
 10
7.499432336226963
 20
5.346437289423174
 11
7.509432336226962
 21
5.346437289423174
 72
     1
 10
7.509432336226962
 20
5.346437289423174
 11
7.509432336226962
 21
5.268937289423174
 72
     1
 10
7.509432336226962
 20
5.268937289423174
 11
7.659432336226963
 21
5.268937289423174
 72
     1
 10
7.659432336226963
 20
5.268937289423174
 11
7.659432336226963
 21
5.319116781347485
 72
     1
 10
7.659432336226963
 20
5.319116781347485
 11
7.649432336226962
 21
5.336437289423174
 72
     1
 10
7.649432336226962
 20
5.336437289423174
 11
7.549432336226963
 21
5.336437289423174
 72
     1
 10
7.549432336226963
 20
5.336437289423174
 11
7.549432336226963
 21
5.326437289423174
 72
     1
 10
7.549432336226963
 20
5.326437289423174
 11
7.539432336226962
 21
5.326437289423174
 72
     1
 10
7.539432336226962
 20
5.326437289423174
 11
7.539432336226962
 21
5.408937289423173
 72
     1
 10
7.539432336226962
 20
5.408937289423173
 11
7.529432336226963
 21
5.418937289423174
 72
     1
 10
7.529432336226963
 20
5.418937289423174
 11
7.360673921425488
 21
5.418937289423174
 72
     1
 10
7.360673921425488
 20
5.418937289423174
 11
7.339371181523249
 21
5.418937289423174
 72
     1
 10
7.339371181523249
 20
5.418937289423174
 11
7.284432336226963
 21
5.418937289423174
 72
     1
 10
7.284432336226963
 20
5.418937289423174
 11
7.275201566996193
 21
5.418937289423174
 72
     1
 10
7.275201566996193
 20
5.418937289423174
 11
7.247509259303885
 21
5.418937289423174
 72
     1
 10
7.247509259303885
 20
5.418937289423174
 11
7.238278490073116
 21
5.418937289423174
 72
     1
 10
7.238278490073116
 20
5.418937289423174
 11
7.213663105457732
 21
5.418937289423174
 72
     1
 10
7.213663105457732
 20
5.418937289423174
 11
7.204432336226962
 21
5.418937289423174
 97
        0
 75
     0
 76
     1
 52
0.0
 41
1.0
 77
     0
 78
     1
 53
45.0
 43
0.0
 44
0.0
 45
-0.0883883476483184
 46
0.0883883476483184
 79
     0
 98
        1
 10
0.0
 20
0.0
  0
HATCH
  5
1AC
330
1F
100
AcDbEntity
  8
0
  6
Continuous
 62
     7
370
     0
100
AcDbHatch
 10
0.0
 20
0.0
 30
0.0
210
0.0
220
0.0
230
1.0
  2
ANSI31
 70
     0
 71
     0
 91
        1
 92
        0
 93
       20
 72
     1
 10
6.949432336226963
 20
3.284116781347485
 11
6.949432336226963
 21
3.228937289423174
 72
     1
 10
6.949432336226963
 20
3.228937289423174
 11
6.959432336226963
 21
3.218937289423174
 72
     1
 10
6.959432336226963
 20
3.218937289423174
 11
7.210634483451538
 21
3.218937289423174
 72
     1
 10
7.210634483451538
 20
3.218937289423174
 11
7.240646215518941
 21
3.218937289423174
 72
     1
 10
7.240646215518941
 20
3.218937289423174
 11
7.263912901957554
 21
3.218937289423174
 72
     1
 10
7.263912901957554
 20
3.218937289423174
 11
7.284432336226963
 21
3.218937289423174
 72
     1
 10
7.284432336226963
 20
3.218937289423174
 11
7.529432336226963
 21
3.218937289423174
 72
     1
 10
7.529432336226963
 20
3.218937289423174
 11
7.539432336226962
 21
3.228937289423174
 72
     1
 10
7.539432336226962
 20
3.228937289423174
 11
7.539432336226962
 21
3.311437289423174
 72
     1
 10
7.539432336226962
 20
3.311437289423174
 11
7.549432336226963
 21
3.311437289423174
 72
     1
 10
7.549432336226963
 20
3.311437289423174
 11
7.549432336226963
 21
3.301437289423174
 72
     1
 10
7.549432336226963
 20
3.301437289423174
 11
7.649432336226962
 21
3.301437289423174
 72
     1
 10
7.649432336226962
 20
3.301437289423174
 11
7.659432336226963
 21
3.318757797498864
 72
     1
 10
7.659432336226963
 20
3.318757797498864
 11
7.659432336226963
 21
3.368937289423174
 72
     1
 10
7.659432336226963
 20
3.368937289423174
 11
7.509432336226962
 21
3.368937289423174
 72
     1
 10
7.509432336226962
 20
3.368937289423174
 11
7.509432336226962
 21
3.291437289423174
 72
     1
 10
7.509432336226962
 20
3.291437289423174
 11
7.499432336226963
 21
3.291437289423174
 72
     1
 10
7.499432336226963
 20
3.291437289423174
 11
7.499432336226963
 21
3.301437289423174
 72
     1
 10
7.499432336226963
 20
3.301437289423174
 11
6.959432336226963
 21
3.301437289423174
 72
     1
 10
6.959432336226963
 20
3.301437289423174
 11
6.949432336226963
 21
3.284116781347485
 97
        0
 75
     0
 76
     1
 52
0.0
 41
1.0
 77
     0
 78
     1
 53
45.0
 43
0.0
 44
0.0
 45
-0.0883883476483184
 46
0.0883883476483184
 79
     0
 98
        1
 10
0.0
 20
0.0
  0
HATCH
  5
1AD
330
1F
100
AcDbEntity
  8
0
  6
Continuous
 62
     7
370
     0
100
AcDbHatch
 10
0.0
 20
0.0
 30
0.0
210
0.0
220
0.0
230
1.0
  2
ANSI31
 70
     0
 71
     0
 91
        1
 92
        0
 93
        8
 72
     1
 10
7.349546515040214
 20
3.311437289423175
 11
7.349546515040214
 21
3.351616781347485
 72
     1
 10
7.349546515040214
 20
3.351616781347485
 11
7.339546515040213
 21
3.368937289423174
 72
     1
 10
7.339546515040213
 20
3.368937289423174
 11
7.266867023115903
 21
3.368937289423174
 72
     1
 10
7.266867023115903
 20
3.368937289423174
 11
7.249546515040214
 21
3.358937289423173
 72
     1
 10
7.249546515040214
 20
3.358937289423173
 11
7.249546515040214
 21
3.318757797498862
 72
     1
 10
7.249546515040214
 20
3.318757797498862
 11
7.259546515040213
 21
3.301437289423174
 72
     1
 10
7.259546515040213
 20
3.301437289423174
 11
7.332226006964524
 21
3.301437289423174
 72
     1
 10
7.332226006964524
 20
3.301437289423174
 11
7.349546515040214
 21
3.311437289423175
 97
        0
 75
     0
 76
     1
 52
90.0
 41
0.25
 77
     0
 78
     1
 53
135.0000000000002
 43
0.0
 44
0.0
 45
-0.0220970869120795
 46
-0.0220970869120797
 79
     0
 98
        1
 10
0.0
 20
0.0
  0
HATCH
  5
1AE
330
1F
100
AcDbEntity
  8
0
  6
Continuous
 62
     7
370
     0
100
AcDbHatch
 10
0.0
 20
0.0
 30
0.0
210
0.0
220
0.0
230
1.0
  2
ANSI31
 70
     0
 71
     0
 91
        1
 92
        0
 93
        8
 72
     1
 10
7.266867023115903
 20
5.268937289423174
 11
7.339546515040213
 21
5.268937289423174
 72
     1
 10
7.339546515040213
 20
5.268937289423174
 11
7.349546515040214
 21
5.286257797498862
 72
     1
 10
7.349546515040214
 20
5.286257797498862
 11
7.349546515040214
 21
5.326437289423174
 72
     1
 10
7.349546515040214
 20
5.326437289423174
 11
7.332226006964524
 21
5.336437289423174
 72
     1
 10
7.332226006964524
 20
5.336437289423174
 11
7.259546515040213
 21
5.336437289423174
 72
     1
 10
7.259546515040213
 20
5.336437289423174
 11
7.249546515040214
 21
5.319116781347486
 72
     1
 10
7.249546515040214
 20
5.319116781347486
 11
7.249546515040214
 21
5.278937289423174
 72
     1
 10
7.249546515040214
 20
5.278937289423174
 11
7.266867023115903
 21
5.268937289423174
 97
        0
 75
     0
 76
     1
 52
90.0
 41
0.25
 77
     0
 78
     1
 53
135.0000000000002
 43
0.0
 44
0.0
 45
-0.0220970869120795
 46
-0.0220970869120797
 79
     0
 98
        1
 10
0.0
 20
0.0
  0
HATCH
  5
1AF
330
1F
100
AcDbEntity
  8
0
  6
Continuous
 62
     7
370
     0
100
AcDbHatch
 10
0.0
 20
0.0
 30
0.0
210
0.0
220
0.0
230
1.0
  2
ANSI31
 70
     0
 71
     0
 91
        1
 92
        0
 93
        9
 72
     2
 10
8.308643865117126
 20
4.32064182122718
 40
1.358267716535433
 50
180.0719022493589
 51
227.1063777834589
 73
     1
 72
     1
 10
7.384153446136765
 20
3.325549536564147
 11
7.401164619691525
 21
3.318937289423174
 72
     1
 10
7.401164619691525
 20
3.318937289423174
 11
7.499589816541921
 21
3.318937289423174
 72
     1
 10
7.499589816541921
 20
3.318937289423174
 11
7.509432336226959
 21
3.328779809108214
 72
     1
 10
7.509432336226959
 20
3.328779809108214
 11
7.509432336226964
 21
5.309094769738134
 72
     1
 10
7.509432336226964
 20
5.309094769738134
 11
7.499589816541925
 21
5.318937289423173
 72
     1
 10
7.499589816541925
 20
5.318937289423173
 11
7.40116461969153
 21
5.318937289423173
 72
     1
 10
7.40116461969153
 20
5.318937289423173
 11
7.38415344613677
 21
5.312325042282202
 72
     2
 10
8.308643865117126
 20
4.317232757619164
 40
1.358267716535433
 50
132.8936222165416
 51
179.9280977506417
 73
     1
 97
        0
 75
     0
 76
     1
 52
0.0
 41
1.0
 77
     0
 78
     1
 53
45.0
 43
0.0
 44
0.0
 45
-0.0883883476483184
 46
0.0883883476483184
 79
     0
 98
        1
 10
0.0
 20
0.0
  0
DIMENSION
  5
1B0
330
1F
100
AcDbEntity
  8
0
  6
Continuous
 62
     7
370
     0
100
AcDbDimension
  2
_D_1
 10
7.6594323362
 20
6.0488585493
 30
0.0
 11
7.3044323362
 21
6.0488585493
 31
0.0
 70
   160
  1
<>
 71
     2
 42
-1.0
  3
SLDDIMSTYLE1
100
AcDbAlignedDimension
 13
6.9494323362
 23
5.4089372894
 33
0.0
 14
7.6594323362
 24
5.3191167813
 34
0.0
100
AcDbRotatedDimension
  0
DIMENSION
  5
1C5
330
1F
100
AcDbEntity
  8
0
  6
Continuous
 62
     7
370
     0
100
AcDbDimension
  2
_D_2
 10
7.6594323362
 20
5.5864208483
 30
0.0
 11
8.2217400399
 21
5.5864208483
 31
0.0
 70
   160
  1
<>
 71
     2
 42
-1.0
  3
SLDDIMSTYLE1
100
AcDbAlignedDimension
 13
7.5394323362
 23
5.4089372894
 33
0.0
 14
7.6594323362
 24
5.3191167813
 34
0.0
100
AcDbRotatedDimension
  0
DIMENSION
  5
1D9
330
1F
100
AcDbEntity
  8
0
  6
Continuous
 62
     7
370
     0
100
AcDbDimension
  2
_D_3
 10
8.2217400399
 20
3.3689372894
 30
0.0
 11
8.2217400399
 21
4.3189372894
 31
0.0
 70
   160
  1
%%c<>
 71
     2
 42
-1.0
  3
SLDDIMSTYLE2
100
AcDbAlignedDimension
 13
7.6594323362
 23
5.2689372894
 33
0.0
 14
7.6594323362
 24
3.3689372894
 34
0.0
 50
90.0
100
AcDbRotatedDimension
  0
INSERT
  5
1F4
102
{ACAD_REACTORS
330
1F6
102
}
330
1F
100
AcDbEntity
  8
0
  6
Continuous
 62
     7
370
     0
100
AcDbBlockReference
  2
SW_NOTE_5
 10
6.4154595691
 20
3.6743452718
 30
0.0
  0
LEADER
  5
1F6
330
1F
100
AcDbEntity
  8
0
  6
Continuous
 62
     7
370
     0
100
AcDbLeader
  3
SLDDIMSTYLE3
 73
     2
 76
     3
 10
7.1081359858
 20
3.3014372894
 30
0.0
 10
6.6654595691
 20
3.6743452718
 30
0.0
 10
6.4154595691
 20
3.6743452718
 30
0.0
340
1F4
  0
INSERT
  5
1FD
102
{ACAD_REACTORS
330
1FE
102
}
330
1F
100
AcDbEntity
  8
0
  6
Continuous
 62
     7
370
     0
100
AcDbBlockReference
  2
SW_NOTE_6
 10
8.3616366984
 20
2.6754029754
 30
0.0
  0
LEADER
  5
1FE
330
1F
100
AcDbEntity
  8
0
  6
Continuous
 62
     7
370
     0
100
AcDbLeader
  3
SLDDIMSTYLE3
 73
     2
 76
     3
 10
7.5893389421
 20
3.3014372894
 30
0.0
 10
8.1116366984
 20
2.6754029754
 30
0.0
 10
8.3616366984
 20
2.6754029754
 30
0.0
340
1FD
  0
INSERT
  5
204
102
{ACAD_REACTORS
330
205
102
}
330
1F
100
AcDbEntity
  8
0
  6
Continuous
 62
     7
370
     0
100
AcDbBlockReference
  2
SW_NOTE_7
 10
6.1551351884
 20
4.087032162
 30
0.0
  0
LEADER
  5
205
330
1F
100
AcDbEntity
  8
0
  6
Continuous
 62
     7
370
     0
100
AcDbLeader
  3
SLDDIMSTYLE3
 73
     2
 76
     3
 10
7.249546515
 20
3.3589372894
 30
0.0
 10
6.4011981806
 20
4.087032162
 30
0.0
 10
6.1551351884
 20
4.087032162
 30
0.0
340
204
  0
INSERT
  5
20B
102
{ACAD_REACTORS
330
20C
102
}
330
1F
100
AcDbEntity
  8
0
  6
Continuous
 62
     7
370
     0
100
AcDbBlockReference
  2
SW_NOTE_8
 10
6.5782166316
 20
2.6845955263
 30
0.0
  0
LEADER
  5
20C
330
1F
100
AcDbEntity
  8
0
  6
Continuous
 62
     7
370
     0
100
AcDbLeader
  3
SLDDIMSTYLE3
 73
     2
 76
     3
 10
7.2106344835
 20
3.2189372894
 30
0.0
 10
6.8242796237
 20
2.6845955263
 30
0.0
 10
6.5782166316
 20
2.6845955263
 30
0.0
340
20B
  0
INSERT
  5
212
102
{ACAD_REACTORS
330
213
102
}
330
1F
100
AcDbEntity
  8
0
  6
Continuous
 62
     7
370
     0
100
AcDbBlockReference
  2
SW_NOTE_9
 10
8.343239082
 20
3.0449982372
 30
0.0
  0
LEADER
  5
213
330
1F
100
AcDbEntity
  8
0
  6
Continuous
 62
     7
370
     0
100
AcDbLeader
  3
SLDDIMSTYLE3
 73
     2
 76
     3
 10
7.5094323362
 20
3.6479737988
 30
0.0
 10
8.0971760898
 20
3.0449982372
 30
0.0
 10
8.343239082
 20
3.0449982372
 30
0.0
340
212
  0
OLE2FRAME
  5
214
330
1F
100
AcDbEntity
  8
0
100
AcDbOle2Frame
 70
     2
  3
Paintbrush Picture
 10
9.0178120406
 20
1.3267570784
 30
0.0
 11
10.4397105087
 21
1.1242314806
 31
0.0
 71
     2
 72
     0
 73
     1
 90
     7296
310
8055C64EE7A81E092240C05F59A1653AF53F0000000000000000FD155DBC21E1
310
2440C05F59A1653AF53F0000000000000000FD155DBC21E12440A1732426DAFC
310
F13F0000000000000000C64EE7A81E092240A1732426DAFCF13F000000000000
310
00000000000001000000000100000100000001000000000001000000001C0000
310
D0CF11E0A1B11AE1000000000000000000000000000000003E000300FEFF0900
310
0600000000000000000000000100000001000000000000000010000002000000
310
01000000FEFFFFFF0000000000000000FFFFFFFFFFFFFFFFFFFFFFFFFFFFFFFF
310
FFFFFFFFFFFFFFFFFFFFFFFFFFFFFFFFFFFFFFFFFFFFFFFFFFFFFFFFFFFFFFFF
310
FFFFFFFFFFFFFFFFFFFFFFFFFFFFFFFFFFFFFFFFFFFFFFFFFFFFFFFFFFFFFFFF
310
FFFFFFFFFFFFFFFFFFFFFFFFFFFFFFFFFFFFFFFFFFFFFFFFFFFFFFFFFFFFFFFF
310
FFFFFFFFFFFFFFFFFFFFFFFFFFFFFFFFFFFFFFFFFFFFFFFFFFFFFFFFFFFFFFFF
310
FFFFFFFFFFFFFFFFFFFFFFFFFFFFFFFFFFFFFFFFFFFFFFFFFFFFFFFFFFFFFFFF
310
FFFFFFFFFFFFFFFFFFFFFFFFFFFFFFFFFFFFFFFFFFFFFFFFFFFFFFFFFFFFFFFF
310
FFFFFFFFFFFFFFFFFFFFFFFFFFFFFFFFFFFFFFFFFFFFFFFFFFFFFFFFFFFFFFFF
310
FFFFFFFFFFFFFFFFFFFFFFFFFFFFFFFFFFFFFFFFFFFFFFFFFFFFFFFFFFFFFFFF
310
FFFFFFFFFFFFFFFFFFFFFFFFFFFFFFFFFFFFFFFFFFFFFFFFFFFFFFFFFFFFFFFF
310
FFFFFFFFFFFFFFFFFFFFFFFFFFFFFFFFFFFFFFFFFFFFFFFFFFFFFFFFFFFFFFFF
310
FFFFFFFFFFFFFFFFFFFFFFFFFFFFFFFFFFFFFFFFFFFFFFFFFFFFFFFFFFFFFFFF
310
FFFFFFFFFFFFFFFFFFFFFFFFFFFFFFFFFFFFFFFFFFFFFFFFFFFFFFFFFFFFFFFF
310
FFFFFFFFFFFFFFFFFFFFFFFFFFFFFFFFFFFFFFFFFFFFFFFFFFFFFFFFFFFFFFFF
310
FDFFFFFFFEFFFFFFFEFFFFFFFEFFFFFF05000000060000000700000008000000
310
090000000A0000000B0000000C000000FEFFFFFFFFFFFFFFFFFFFFFFFFFFFFFF
310
FFFFFFFFFFFFFFFFFFFFFFFFFFFFFFFFFFFFFFFFFFFFFFFFFFFFFFFFFFFFFFFF
310
FFFFFFFFFFFFFFFFFFFFFFFFFFFFFFFFFFFFFFFFFFFFFFFFFFFFFFFFFFFFFFFF
310
FFFFFFFFFFFFFFFFFFFFFFFFFFFFFFFFFFFFFFFFFFFFFFFFFFFFFFFFFFFFFFFF
310
FFFFFFFFFFFFFFFFFFFFFFFFFFFFFFFFFFFFFFFFFFFFFFFFFFFFFFFFFFFFFFFF
310
FFFFFFFFFFFFFFFFFFFFFFFFFFFFFFFFFFFFFFFFFFFFFFFFFFFFFFFFFFFFFFFF
310
FFFFFFFFFFFFFFFFFFFFFFFFFFFFFFFFFFFFFFFFFFFFFFFFFFFFFFFFFFFFFFFF
310
FFFFFFFFFFFFFFFFFFFFFFFFFFFFFFFFFFFFFFFFFFFFFFFFFFFFFFFFFFFFFFFF
310
FFFFFFFFFFFFFFFFFFFFFFFFFFFFFFFFFFFFFFFFFFFFFFFFFFFFFFFFFFFFFFFF
310
FFFFFFFFFFFFFFFFFFFFFFFFFFFFFFFFFFFFFFFFFFFFFFFFFFFFFFFFFFFFFFFF
310
FFFFFFFFFFFFFFFFFFFFFFFFFFFFFFFFFFFFFFFFFFFFFFFFFFFFFFFFFFFFFFFF
310
FFFFFFFFFFFFFFFFFFFFFFFFFFFFFFFFFFFFFFFFFFFFFFFFFFFFFFFFFFFFFFFF
310
FFFFFFFFFFFFFFFFFFFFFFFFFFFFFFFFFFFFFFFFFFFFFFFFFFFFFFFFFFFFFFFF
310
FFFFFFFFFFFFFFFFFFFFFFFFFFFFFFFFFFFFFFFFFFFFFFFFFFFFFFFFFFFFFFFF
310
FFFFFFFFFFFFFFFFFFFFFFFFFFFFFFFFFFFFFFFFFFFFFFFFFFFFFFFFFFFFFFFF
310
52006F006F007400200045006E00740072007900000000000000000000000000
310
0000000000000000000000000000000000000000000000000000000000000000
310
16000500FFFFFFFFFFFFFFFF020000000A00030000000000C000000000000046
310
000000000000000000000000804D8EAD4D17D10103000000C000000000000000
310
01004F006C006500000000000000000000000000000000000000000000000000
310
0000000000000000000000000000000000000000000000000000000000000000
310
0A000200FFFFFFFFFFFFFFFFFFFFFFFF00000000000000000000000000000000
310
0000000000000000000000000000000000000000000000001400000000000000
310
010043006F006D0070004F0062006A0000000000000000000000000000000000
310
0000000000000000000000000000000000000000000000000000000000000000
310
120002010100000003000000FFFFFFFF00000000000000000000000000000000
310
0000000000000000000000000000000000000000010000004D00000000000000
310
01004F006C006500310030004E00610074006900760065000000000000000000
310
0000000000000000000000000000000000000000000000000000000000000000
310
1A000200FFFFFFFFFFFFFFFFFFFFFFFF00000000000000000000000000000000
310
000000000000000000000000000000000000000004000000E411000000000000
310
FEFFFFFF02000000FEFFFFFFFFFFFFFFFFFFFFFFFFFFFFFFFFFFFFFFFFFFFFFF
310
FFFFFFFFFFFFFFFFFFFFFFFFFFFFFFFFFFFFFFFFFFFFFFFFFFFFFFFFFFFFFFFF
310
FFFFFFFFFFFFFFFFFFFFFFFFFFFFFFFFFFFFFFFFFFFFFFFFFFFFFFFFFFFFFFFF
310
FFFFFFFFFFFFFFFFFFFFFFFFFFFFFFFFFFFFFFFFFFFFFFFFFFFFFFFFFFFFFFFF
310
FFFFFFFFFFFFFFFFFFFFFFFFFFFFFFFFFFFFFFFFFFFFFFFFFFFFFFFFFFFFFFFF
310
FFFFFFFFFFFFFFFFFFFFFFFFFFFFFFFFFFFFFFFFFFFFFFFFFFFFFFFFFFFFFFFF
310
FFFFFFFFFFFFFFFFFFFFFFFFFFFFFFFFFFFFFFFFFFFFFFFFFFFFFFFFFFFFFFFF
310
FFFFFFFFFFFFFFFFFFFFFFFFFFFFFFFFFFFFFFFFFFFFFFFFFFFFFFFFFFFFFFFF
310
FFFFFFFFFFFFFFFFFFFFFFFFFFFFFFFFFFFFFFFFFFFFFFFFFFFFFFFFFFFFFFFF
310
FFFFFFFFFFFFFFFFFFFFFFFFFFFFFFFFFFFFFFFFFFFFFFFFFFFFFFFFFFFFFFFF
310
FFFFFFFFFFFFFFFFFFFFFFFFFFFFFFFFFFFFFFFFFFFFFFFFFFFFFFFFFFFFFFFF
310
FFFFFFFFFFFFFFFFFFFFFFFFFFFFFFFFFFFFFFFFFFFFFFFFFFFFFFFFFFFFFFFF
310
FFFFFFFFFFFFFFFFFFFFFFFFFFFFFFFFFFFFFFFFFFFFFFFFFFFFFFFFFFFFFFFF
310
FFFFFFFFFFFFFFFFFFFFFFFFFFFFFFFFFFFFFFFFFFFFFFFFFFFFFFFFFFFFFFFF
310
FFFFFFFFFFFFFFFFFFFFFFFFFFFFFFFFFFFFFFFFFFFFFFFFFFFFFFFFFFFFFFFF
310
FFFFFFFFFFFFFFFFFFFFFFFFFFFFFFFFFFFFFFFFFFFFFFFFFFFFFFFFFFFFFFFF
310
0100000200000000000000000000000000000000000000000000000000000000
310
0000000000000000000000000000000000000000000000000000000000000000
310
0100FEFF030A0000FFFFFFFF0A00030000000000C00000000000004607000000
310
5042727573680007000000504272757368000700000050427275736800F439B2
310
7100000000000000000000000000000000000000000000000000000000000000
310
0000000000000000000000000000000000000000000000000000000000000000
310
0000000000000000000000000000000000000000000000000000000000000000
310
0000000000000000000000000000000000000000000000000000000000000000
310
0000000000000000000000000000000000000000000000000000000000000000
310
0000000000000000000000000000000000000000000000000000000000000000
310
0000000000000000000000000000000000000000000000000000000000000000
310
0000000000000000000000000000000000000000000000000000000000000000
310
0000000000000000000000000000000000000000000000000000000000000000
310
0000000000000000000000000000000000000000000000000000000000000000
310
0000000000000000000000000000000000000000000000000000000000000000
310
0000000000000000000000000000000000000000000000000000000000000000
310
E0110000424DDE11000000000000360400002800000096000000170000000100
310
08000000000000000000E7240000E72400000001000000010000000000FF0101
310
01FF020202FF030303FF040404FF050505FF060606FF070707FF080808FF0909
310
09FF0A0A0AFF0B0B0BFF0C0C0CFF0D0D0DFF0E0E0EFF0F0F0FFF101010FF1111
310
11FF121212FF131313FF141414FF151515FF161616FF171717FF181818FF1919
310
19FF1A1A1AFF1B1B1BFF1C1C1CFF1D1D1DFF1E1E1EFF1F1F1FFF202020FF2121
310
21FF222222FF232323FF242424FF252525FF262626FF272727FF282828FF2929
310
29FF2A2A2AFF2B2B2BFF2C2C2CFF2D2D2DFF2E2E2EFF2F2F2FFF303030FF3131
310
31FF323232FF333333FF343434FF353535FF363636FF373737FF383838FF3939
310
39FF3A3A3AFF3B3B3BFF3C3C3CFF3D3D3DFF3E3E3EFF3F3F3FFF404040FF4141
310
41FF424242FF434343FF444444FF454545FF464646FF474747FF484848FF4949
310
49FF4A4A4AFF4B4B4BFF4C4C4CFF4D4D4DFF4E4E4EFF4F4F4FFF505050FF5151
310
51FF525252FF535353FF545454FF555555FF565656FF575757FF585858FF5959
310
59FF5A5A5AFF5B5B5BFF5C5C5CFF5D5D5DFF5E5E5EFF5F5F5FFF606060FF6161
310
61FF626262FF636363FF646464FF656565FF666666FF676767FF686868FF6969
310
69FF6A6A6AFF6B6B6BFF6C6C6CFF6D6D6DFF6E6E6EFF6F6F6FFF707070FF7171
310
71FF727272FF737373FF747474FF757575FF767676FF777777FF787878FF7979
310
79FF7A7A7AFF7B7B7BFF7C7C7CFF7D7D7DFF7E7E7EFF7F7F7FFF808080FF8181
310
81FF828282FF838383FF848484FF858585FF868686FF878787FF888888FF8989
310
89FF8A8A8AFF8B8B8BFF8C8C8CFF8D8D8DFF8E8E8EFF8F8F8FFF909090FF9191
310
91FF929292FF939393FF949494FF959595FF969696FF979797FF989898FF9999
310
99FF9A9A9AFF9B9B9BFF9C9C9CFF9D9D9DFF9E9E9EFF9F9F9FFFA0A0A0FFA1A1
310
A1FFA2A2A2FFA3A3A3FFA4A4A4FFA5A5A5FFA6A6A6FFA7A7A7FFA8A8A8FFA9A9
310
A9FFAAAAAAFFABABABFFACACACFFADADADFFAEAEAEFFAFAFAFFFB0B0B0FFB1B1
310
B1FFB2B2B2FFB3B3B3FFB4B4B4FFB5B5B5FFB6B6B6FFB7B7B7FFB8B8B8FFB9B9
310
B9FFBABABAFFBBBBBBFFBCBCBCFFBDBDBDFFBEBEBEFFBFBFBFFFC0C0C0FFC1C1
310
C1FFC2C2C2FFC3C3C3FFC4C4C4FFC5C5C5FFC6C6C6FFC7C7C7FFC8C8C8FFC9C9
310
C9FFCACACAFFCBCBCBFFCCCCCCFFCDCDCDFFCECECEFFCFCFCFFFD0D0D0FFD1D1
310
D1FFD2D2D2FFD3D3D3FFD4D4D4FFD5D5D5FFD6D6D6FFD7D7D7FFD8D8D8FFD9D9
310
D9FFDADADAFFDBDBDBFFDCDCDCFFDDDDDDFFDEDEDEFFDFDFDFFFE0E0E0FFE1E1
310
E1FFE2E2E2FFE3E3E3FFE4E4E4FFE5E5E5FFE6E6E6FFE7E7E7FFE8E8E8FFE9E9
310
E9FFEAEAEAFFEBEBEBFFECECECFFEDEDEDFFEEEEEEFFEFEFEFFFF0F0F0FFF1F1
310
F1FFF2F2F2FFF3F3F3FFF4F4F4FFF5F5F5FFF6F6F6FFF7F7F7FFF8F8F8FFF9F9
310
F9FFFAFAFAFFFBFBFBFFFCFCFCFFFDFDFDFFFEFEFEFFFFFFFFFFFFFFFFFFFFFF
310
C94E4E4E4F4E4EFFFFFFFFFFC94E4E4E4E4E72FFFFFFFFFFFFFF734E4D4E4E4E
310
C9FFFFFFFFFFAA683516171616265B9BE9FFFFFFFFFF4E4E4E4D4E4EFFFFFFFF
310
FFFFFFFF4E4E4F4E4D4E4E4E4F4E4E4F4D4E4E4E4E4E4D4E4F4E4D4E4E4EAAFF
310
FFFFFFFFFFEA4E4F4F4E4E4E4E4E4D4D4F4F4E4E4E4E4E5B7FAAFFFFFFFFFFFF
310
C9744E1716171616164D8DEAFFFFFFFF0000FFFFFFFFFFFFBA161617161716FF
310
FFFFFFFFB917171616174FFFFFFFFFFFFFFF4E1716161616B9FFFFFFB9341717
310
1716171617171616268CFFFFFFFF161617161617FFFFFFFFFFFFFFB917161717
310
1617167F807F7F7F7F7F7F807F7F807F7F807F7F7F414EFFFFFFFFFFFF8C167F
310
7F807F7F7F7E7F7F807F807F7F807F4E3417258EFFFFEA4E162674AABAEAEBBA
310
AA74341680FFFFFF0000FFFFFFFFFFFFB9171717171617FFFFFFFFFFBB161616
310
16164EFFFFFFFFFFFFFF4E1717171717B9FFFF9C171617171716161616171616
310
171766FFFFFF161717161617FFFFFFFFFFFFFF8E16171717161616FFFFFFFFFF
310
FFFFFFFFFFFFFFFFFFFFFFFFFFAA16D9FFFFFFFFFF3467FFFFFFFFEAFFFFFFFF
310
FFFFFFFFFFFFFFFFFFCA671667EB26278DFFFFFFFFFFFFFFFFFFFF8C2541EAFF
310
0000FFFFFFFFFFFFB9171717171716FFFFFFFFFFBA16171617174EFFFFFFFFFF
310
FFFF4E1717161616BAFF9B1617161616171716171617161616161667FFFF1616
310
16161716FFFFFFFFFFFFFF7F16161617174017FFFFFFFFFFFFFFFFFFFFFFFFFF
310
FFFFFFFFFFFF344E7F7F7F7E7417DAFFFFFFFF80FFFFFFFFFFFFFFFFFFFFFFFF
310
FFFFFF9B163425CAFFFFFFFFFFFFFFFFFFFFFFFFCA2667FF0000FFFFFFFFFFFF
310
BA171717171617FFFFFFFFFFB916171716164EFFFFFFFFFFFFFF4F1716161717
310
B9C91716171616161716161617171616161617168DFF161716161717FFFFFFFF
310
FFFFFF7F17171716164F16FFFFFFFFFFFFFFFFFFFFFFFFFFFFFFFFFFFFFF9B16
310
17161617174EFFFFFFFFFF34FFFFFFFFD9BABABABABADAFFFFFFFFFF7F16AAFF
310
FFFFFFFFFFFFFFFFFFFFFFFFFF9C16BA0000FFFFFFFFFFFFB9161717161717FF
310
FFFFFFFFB917161716174DFFFFFFFFFFFFFF4E1616161616BA4E161617171716
310
419BEAEAAA4E16161617161726E9171717161616FFFFFFFFFFFFFF4F16161717
310
164E16FFFFFFFFFFBAB9B9B9B9B9BABABACAFFFFFFFFFFFFFFFFFFFFFFFFFFFF
310
FFFFBA16FFFFFFFF7F1617161617174DEAFFFFFFEA41FFFFFFFFFFAA4D16174E
310
9BFFFFFFFFFF34730000FFFFFFFFFFFFB9161617171617FFFFFFFFFFBA161616
310
16164EFFFFFFFFFFFFFF4F16161717169B1617161716175BFFFFFFFFFFFF7417
310
16171616168D171717161617FFFFFFFFFFFFEA2616171717167416FFFFFFFFFF
310
16171616171717171717EAFFFFFFFFFFFFFFFFFFFFFFFFFFFFFF6716FFFFFFFF
310
7F4EFFFFFFFFBA2573FFFFFFFFBAFFFFFFFFAA167FB9BB9B269BFFFFFFFF664F
310
0000FFFFFFFFFFFFB9171616161616FFFFFFFFFFBA16161717164EFFFFFFFFFF
310
FFFF4E16161616174E161617171626EAFFFFFFFFFFFFFF4E16161616164E1716
310
16161617FFFFFFFFFFFF671616161716347F16FFFFFFFFFF16B9FFFFFFFFFFFF
310
D9168DFFFFFFFFFFFFFFFFFFFFFFFFFFFFEA1716FFFFFFFF7F4EFFFFFFFFFF7F
310
4EFFFFFFFFFFFFFFFFFF5B66FFFFFFEA347FFFFFFFFF7F4D0000FFFFFFFFFFFF
310
B9171616171617FFFFFFFFFFBA17161716174EFFFFFFFFFFFFFF4D1716161617
310
17161716161673FFFFFFFFFFFFFFFF9B1617161717161616171616174F4E4E4E
310
4E341616171616167E7F16FFFFFFFFFF16BAFFFFFFFFFFFFFF5B41FFFFFFFF34
310
1616171616BAFFFFFF9B1716FFFFFFFF7F4EFFFFFFFFFF4E4EFFFFFFFF734E4E
310
4E4E267EDA9B67164EEAFFFFFFFF744D0000FFFFFFFFFFFFBA171717161617FF
310
FFFFFFFFBA1616171616347F7F7F7F80807F331616161717161717161716B9FF
310
FFFFFFFFFFFFFFE9161616161616171716161716171616161616171616171734
310
EA7F16FFFFFFFFFF16BAFFFFFFFFFFFFFFAA17C9FFFFFF7326BABA5B25FFFFFF
310
FF401716FFFFFFFF7F264F4E4E4E4217AAFFFFFFEA16677F73261616164173CA
310
FFFFFFFFFFFF417F0000FFFFFFFFFFFFBA171616171617FFFFFFFFFFBA161616
310
17171616161616161616161717161616161616161617EAFFFFFFFFFFFFFFFFFF
310
261717161716161617161616161617161617161616174EEAFF8016FFFFFFFFFF
310
17BAFFFFFFFFFFFFFFFF3467FFFFFFC916C9FF3467FFFFFFDA166716FFFFFFFF
310
9C4D4E4E4E4E67AAFFFFFFFF6834FF7F262567AAEAFFFFFFFFFFFFFFFF9B17D9
310
0000FFFFFFFFFFFFB9161616161616FFFFFFFFFFBA1617161717171616161616
310
1716171716161716161617171716FFFFFFFFFFFFFFFFFFFF4E17161716171616
310
1617171616161716171717161616169BFF7F17FFFFFFFFFF17B9FFFFFFFFFFFF
310
FFFF7326FFFFFFFF3473DA16AAFFFFFF7317AA16FFFFFFFFFFFFFFFFFFFFFFFF
310
FFFFEA6725BA4E167FEAFFFFFFFFFFFFFFFFFFFF9C167FFF0000FFFFFFFFFFFF
310
B9161717171716FFFFFFFFFFBA16161716171616171717161617161716161616
310
171617171617EAFFFFFFFFFFFFFFFFFF26161717161616161616161617171616
310
1616161616171616AA8016FFFFFFFFFF16BAFFFFFFFFFFFFFFFFDA179BFFFFFF
310
74348D26FFFFFFFF2566B917FFFFFFFFD8BAB9BAB9BADAFFFFEA41169B7425C9
310
FFFFFFFFFFFFFFFFFFFFAB4F1680FFFF0000FFFFFFFFFFFFBA161717171617FF
310
FFFFFFFFBA17161717161617171617161616161617171616171716171617BBFF
310
FFFFFFFFFFFFFFE9171616161617161617161716FFFFFFFFFFD9671616161617
310
348017FFFFFFFFFF16BAFFFFFFFFFFFFFFFFFF4E5AFFFFFFC916265AFFFFFFAA
310
16AABA16FFFFFFFF7F1617161616179BFFFFEB4127168DFFFFFFFFFFFFFFD99B
310
6734175AC9FFFFFF0000FFFFFFFFFFFFB9161617171617FFFFFFFFFFBB161616
310
1616347F807F7F7F7F8033171716171617171616161672FFFFFFFFFFFFFFFF9C
310
171617171617161716161617FFFFFFFFFFFFFF4117161616174E17FFFFFFFFFF
310
16BAFFFFFFFFFFFFFFFFFF9B16DAFFFFFF34169BFFFFFF5A26FFB917FFFFFFFF
310
7F4EFFFFFFEA5B26FFFFFFEA2616EAFFFFFFFFDA743416331617414E4E4E4ECA
310
0000FFFFFFFFFFFFBA161716161616FFFFFFFFFFBA17171616164EFFFFFFFFFF
310
FFFF4E16161717174E161717171626EBFFFFFFFFFFFFFF4E16161617165B1616
310
16171617FFFFFFFFFFFFFF6716161616161617FFFFFFFFFF16BAFFFFFFFFFFFF
310
FFFFFFEA268CFFFFFF7316EAFFFFEB1774FFB916FFFFFFFF7F4EFFFFFFFF7316
310
FFFFFFFF6826FFFFFFFFEB264D9CEABA257F807F7F6616BA0000FFFFFFFFFFFF
310
BA161716161616FFFFFFFFFFBA16171616164DFFFFFFFFFFFFFF4E1617161617
310
9B1617171717165BEBFFFFFFFFFF671616161617179B171616161616FFFFFFFF
310
FFFFFF3417161617171617FFFFFFFFFF17BAFFFFFFFFFFFFFFFFFFFF6734FFFF
310
FFEBCAFFFFFF8D17C9FFBA17FFFFFFFF7F357F808066174FFFFFFFFF7F16FFFF
310
FFFFD91673B99B415BFFFFFFFFBA16DA00009B7F7F7F807F671617161616167F
310
80807F7E6617161616164EFFFFFFFFFFFFFF4E1616161617B94E171716161616
310
349BC9D9AA4E16171616161634FF161617161717B9B9BAB9BA9B411716171716
310
163416FFFFFFFFFF16B9FFFFFFFFFFFFFFFFFFFFC917CAFFFFFFFFFFFFFF3342
310
FFFFBA17FFFFFFFF9B4E4E4F4E4E66EAFFFFFFFF5B16C9FFFFFFFFAA4E164E73
310
EAFFFFFFFF8D26FF00004E161716161616171617171616171717171617161616
310
17174EFFFFFFFFFFFFFF4E1717171616B9D92616171716171716171717171716
310
16171716AAFF161717171617161617171616161617161716166717FFFFFFFFFF
310
17B9FFFFFFFFFFFFFFFFFFFFFF3467FFFFFFFFFFFFCA168CFFFFBB17FFFFFFFF
310
FFFFFFFFFFFFFFFFFFFFFFEA26265BFFFFFFFFFFFFFFFFFFFFFFFFFFEA3467FF
310
00004D16161616161617161717161617161616171617171616164EFFFFFFFFFF
310
FFFF4D1617161616BAFF9B1616161616161716161616171717161766FFFF1616
310
16171617161617161716171616171717667F16FFFFFFFFFF17BAFFFFFFFFFFFF
310
FFFFFFFFFF8C26EAFFFFFFFFFF6617EAFFFFBA17FFFFFFFFFFFFFFFFFFFFFFFF
310
FFFFEA5A25BA269BFFFFFFFFFFFFFFFFFFFFFFFF6616DAFF00004E1616171616
310
1616161616161716161617171616171616174EFFFFFFFFFFFFFF4D1717171716
310
B9FFFF9C161616161616161716161717171667FFFFFF17161717171716161617
310
1716161616161641E97E16FFFFFFFFFF16B9FFFFFFFFFFFFFFFFFFFFFFEA169B
310
FFFFFFFFEA265BFFFFFFB916FFFFFFFFFFFFFFFFFFFFFFFFFF9B3416AAFF9B17
310
67EAFFFFFFFFFFFFFFFFEA5B169BFFFF00004D17161716161616161717171616
310
161717161716171716174EFFFFFFFFFFFFFF4D1616161616BAFFFFFFBB411616
310
161716161616171634ABFFFFFFFF161716161617171716171617171617267FFF
310
FF7F164E4E4E4E4F17BAFFFFFFFFFFFFFFFFFFFFFFFF66344D4E4E4F4117AAFF
310
FFFFBA174E4E4E4D4E4D4D4E4E4E4E4116174EBBFFFFFFCA342666ABEAFFFFEA
310
AA6725269CFFFFFF0000724F4E4D4D4D4E4D4D4E4E4E4D4E4E4E4E4E4E4E4E4D
310
4E4E74FFFFFFFFFFFFFF734E4E4E4D4ECAFFFFFFFFFFAA663416171717265B9B
310
FFFFFFFFFFFF7F8080807F80807F7F7F7F7F807FBAFFFFFFFF9B4E4E4F4D4D4E
310
4DC9FFFFFFFFFFFFFFFFFFFFFFFFBA4E4E4E4E4D4E4EFFFFFFFFC94E4E4E4F4E
310
4E4E4D4E4E5A807F9CD9FFFFFFFFFFFFFF9B5B2617171716174E8DEAFFFFFFFF
310
0000000000000000000000000000000000000000000000000000000000000000
  1
OLE
  0
ENDSEC
  0
SECTION
  2
OBJECTS
  0
DICTIONARY
  5
C
330
0
100
AcDbDictionary
281
     1
  3
ACAD_GROUP
350
D
  3
ACAD_LAYOUT
350
1A
  3
ACAD_MLINESTYLE
350
17
  3
ACAD_PLOTSETTINGS
350
19
  3
ACAD_PLOTSTYLENAME
350
E
  3
ACAD_SCALELIST
350
47
  0
DICTIONARY
  5
D
102
{ACAD_REACTORS
330
C
102
}
330
C
100
AcDbDictionary
281
     1
  0
DICTIONARY
  5
1A
102
{ACAD_REACTORS
330
C
102
}
330
C
100
AcDbDictionary
281
     1
  3
Layout1
350
1E
  3
Layout2
350
26
  3
Model
350
22
  0
DICTIONARY
  5
17
102
{ACAD_REACTORS
330
C
102
}
330
C
100
AcDbDictionary
281
     1
  3
Standard
350
18
  0
DICTIONARY
  5
19
102
{ACAD_REACTORS
330
C
102
}
330
C
100
AcDbDictionary
281
     1
  0
ACDBDICTIONARYWDFLT
  5
E
102
{ACAD_REACTORS
330
C
102
}
330
C
100
AcDbDictionary
281
     1
  3
Normal
350
F
100
AcDbDictionaryWithDefault
340
F
  0
DICTIONARY
  5
47
102
{ACAD_REACTORS
330
C
102
}
330
C
100
AcDbDictionary
281
     1
  3
A0
350
48
  3
A1
350
49
  3
A2
350
4A
  3
A3
350
4B
  3
A4
350
4C
  3
A5
350
4D
  3
A6
350
4E
  3
A7
350
4F
  3
A8
350
50
  3
A9
350
51
  3
B0
350
52
  3
B1
350
53
  3
B2
350
54
  3
B3
350
55
  3
B4
350
56
  3
B5
350
57
  3
B6
350
58
  3
B7
350
59
  3
B8
350
5A
  3
B9
350
5B
  3
C0
350
5C
  3
C1
350
5D
  3
C2
350
5E
  3
C3
350
5F
  3
C4
350
60
  3
C5
350
61
  3
C6
350
62
  3
C7
350
63
  3
C8
350
64
  3
C9
350
65
  3
D0
350
66
  3
D1
350
67
  3
D2
350
68
  0
LAYOUT
  5
1E
102
{ACAD_REACTORS
330
1A
102
}
330
1A
100
AcDbPlotSettings
  1

  2
none_device
  4

  6

 40
0.0
 41
0.0
 42
0.0
 43
0.0
 44
0.0
 45
0.0
 46
0.0
 47
0.0
 48
0.0
 49
0.0
140
0.0
141
0.0
142
1.0
143
1.0
 70
   688
 72
     0
 73
     0
 74
     5
  7

 75
    16
147
1.0
148
0.0
149
0.0
100
AcDbLayout
  1
Layout1
 70
     1
 71
     1
 10
0.0
 20
0.0
 11
12.0
 21
9.0
 12
0.0
 22
0.0
 32
0.0
 14
1.0000000000E+20
 24
1.0000000000E+20
 34
1.0000000000E+20
 15
-1.0000000000E+20
 25
-1.0000000000E+20
 35
-1.0000000000E+20
146
0.0
 13
0.0
 23
0.0
 33
0.0
 16
1.0
 26
0.0
 36
0.0
 17
0.0
 27
1.0
 37
0.0
 76
     0
330
1B
  0
LAYOUT
  5
26
102
{ACAD_REACTORS
330
1A
102
}
330
1A
100
AcDbPlotSettings
  1

  2
none_device
  4

  6

 40
0.0
 41
0.0
 42
0.0
 43
0.0
 44
0.0
 45
0.0
 46
0.0
 47
0.0
 48
0.0
 49
0.0
140
0.0
141
0.0
142
1.0
143
1.0
 70
   688
 72
     0
 73
     0
 74
     5
  7

 75
    16
147
1.0
148
0.0
149
0.0
100
AcDbLayout
  1
Layout2
 70
     1
 71
     2
 10
0.0
 20
0.0
 11
0.0
 21
0.0
 12
0.0
 22
0.0
 32
0.0
 14
0.0
 24
0.0
 34
0.0
 15
0.0
 25
0.0
 35
0.0
146
0.0
 13
0.0
 23
0.0
 33
0.0
 16
1.0
 26
0.0
 36
0.0
 17
0.0
 27
1.0
 37
0.0
 76
     0
330
23
  0
LAYOUT
  5
22
102
{ACAD_REACTORS
330
1A
102
}
330
1A
100
AcDbPlotSettings
  1

  2
none_device
  4
Letter_(8.50_x_11.00_Inches)
  6

 40
6.35
 41
6.35
 42
6.35000508
 43
6.35000508
 44
215.9
 45
279.4
 46
0.0
 47
0.0
 48
0.0
 49
0.0
140
0.0
141
0.0
142
1.0
143
1.0
 70
  1712
 72
     0
 73
     0
 74
     0
  7

 75
     0
147
1.0
148
0.0
149
0.0
100
AcDbLayout
  1
Model
 70
     1
 71
     0
 10
0.0
 20
0.0
 11
11.0
 21
8.5
 12
0.0
 22
0.0
 32
0.0
 14
0.0
 24
0.0
 34
0.0
 15
11.0
 25
8.5
 35
0.0
146
0.0
 13
0.0
 23
0.0
 33
0.0
 16
1.0
 26
0.0
 36
0.0
 17
0.0
 27
1.0
 37
0.0
 76
     0
330
1F
331
29
  0
MLINESTYLE
  5
18
102
{ACAD_REACTORS
330
17
102
}
330
17
100
AcDbMlineStyle
  2
Standard
 70
     0
  3

 62
   256
 51
90.0
 52
90.0
 71
     2
 49
0.5
 62
   256
  6
BYLAYER
 49
-0.5
 62
   256
  6
BYLAYER
  0
ACDBPLACEHOLDER
  5
F
102
{ACAD_REACTORS
330
E
102
}
330
E
  0
SCALE
  5
48
102
{ACAD_REACTORS
330
47
102
}
330
47
100
AcDbScale
 70
     0
300
1:1
140
1.0
141
1.0
290
     1
  0
SCALE
  5
49
102
{ACAD_REACTORS
330
47
102
}
330
47
100
AcDbScale
 70
     0
300
1:2
140
1.0
141
2.0
290
     0
  0
SCALE
  5
4A
102
{ACAD_REACTORS
330
47
102
}
330
47
100
AcDbScale
 70
     0
300
1:4
140
1.0
141
4.0
290
     0
  0
SCALE
  5
4B
102
{ACAD_REACTORS
330
47
102
}
330
47
100
AcDbScale
 70
     0
300
1:5
140
1.0
141
5.0
290
     0
  0
SCALE
  5
4C
102
{ACAD_REACTORS
330
47
102
}
330
47
100
AcDbScale
 70
     0
300
1:8
140
1.0
141
8.0
290
     0
  0
SCALE
  5
4D
102
{ACAD_REACTORS
330
47
102
}
330
47
100
AcDbScale
 70
     0
300
1:10
140
1.0
141
10.0
290
     0
  0
SCALE
  5
4E
102
{ACAD_REACTORS
330
47
102
}
330
47
100
AcDbScale
 70
     0
300
1:16
140
1.0
141
16.0
290
     0
  0
SCALE
  5
4F
102
{ACAD_REACTORS
330
47
102
}
330
47
100
AcDbScale
 70
     0
300
1:20
140
1.0
141
20.0
290
     0
  0
SCALE
  5
50
102
{ACAD_REACTORS
330
47
102
}
330
47
100
AcDbScale
 70
     0
300
1:30
140
1.0
141
30.0
290
     0
  0
SCALE
  5
51
102
{ACAD_REACTORS
330
47
102
}
330
47
100
AcDbScale
 70
     0
300
1:40
140
1.0
141
40.0
290
     0
  0
SCALE
  5
52
102
{ACAD_REACTORS
330
47
102
}
330
47
100
AcDbScale
 70
     0
300
1:50
140
1.0
141
50.0
290
     0
  0
SCALE
  5
53
102
{ACAD_REACTORS
330
47
102
}
330
47
100
AcDbScale
 70
     0
300
1:100
140
1.0
141
100.0
290
     0
  0
SCALE
  5
54
102
{ACAD_REACTORS
330
47
102
}
330
47
100
AcDbScale
 70
     0
300
2:1
140
2.0
141
1.0
290
     0
  0
SCALE
  5
55
102
{ACAD_REACTORS
330
47
102
}
330
47
100
AcDbScale
 70
     0
300
4:1
140
4.0
141
1.0
290
     0
  0
SCALE
  5
56
102
{ACAD_REACTORS
330
47
102
}
330
47
100
AcDbScale
 70
     0
300
8:1
140
8.0
141
1.0
290
     0
  0
SCALE
  5
57
102
{ACAD_REACTORS
330
47
102
}
330
47
100
AcDbScale
 70
     0
300
10:1
140
10.0
141
1.0
290
     0
  0
SCALE
  5
58
102
{ACAD_REACTORS
330
47
102
}
330
47
100
AcDbScale
 70
     0
300
100:1
140
100.0
141
1.0
290
     0
  0
SCALE
  5
59
102
{ACAD_REACTORS
330
47
102
}
330
47
100
AcDbScale
 70
     0
300
1/128" = 1'-0"
140
0.0078125
141
12.0
290
     0
  0
SCALE
  5
5A
102
{ACAD_REACTORS
330
47
102
}
330
47
100
AcDbScale
 70
     0
300
1/64" = 1'-0"
140
0.015625
141
12.0
290
     0
  0
SCALE
  5
5B
102
{ACAD_REACTORS
330
47
102
}
330
47
100
AcDbScale
 70
     0
300
1/32" = 1'-0"
140
0.03125
141
12.0
290
     0
  0
SCALE
  5
5C
102
{ACAD_REACTORS
330
47
102
}
330
47
100
AcDbScale
 70
     0
300
1/16" = 1'-0"
140
0.0625
141
12.0
290
     0
  0
SCALE
  5
5D
102
{ACAD_REACTORS
330
47
102
}
330
47
100
AcDbScale
 70
     0
300
3/32" = 1'-0"
140
0.09375
141
12.0
290
     0
  0
SCALE
  5
5E
102
{ACAD_REACTORS
330
47
102
}
330
47
100
AcDbScale
 70
     0
300
1/8" = 1'-0"
140
0.125
141
12.0
290
     0
  0
SCALE
  5
5F
102
{ACAD_REACTORS
330
47
102
}
330
47
100
AcDbScale
 70
     0
300
3/16" = 1'-0"
140
0.1875
141
12.0
290
     0
  0
SCALE
  5
60
102
{ACAD_REACTORS
330
47
102
}
330
47
100
AcDbScale
 70
     0
300
1/4" = 1'-0"
140
0.25
141
12.0
290
     0
  0
SCALE
  5
61
102
{ACAD_REACTORS
330
47
102
}
330
47
100
AcDbScale
 70
     0
300
3/8" = 1'-0"
140
0.375
141
12.0
290
     0
  0
SCALE
  5
62
102
{ACAD_REACTORS
330
47
102
}
330
47
100
AcDbScale
 70
     0
300
1/2" = 1'-0"
140
0.5
141
12.0
290
     0
  0
SCALE
  5
63
102
{ACAD_REACTORS
330
47
102
}
330
47
100
AcDbScale
 70
     0
300
3/4" = 1'-0"
140
0.75
141
12.0
290
     0
  0
SCALE
  5
64
102
{ACAD_REACTORS
330
47
102
}
330
47
100
AcDbScale
 70
     0
300
1" = 1'-0"
140
1.0
141
12.0
290
     0
  0
SCALE
  5
65
102
{ACAD_REACTORS
330
47
102
}
330
47
100
AcDbScale
 70
     0
300
1-1/2" = 1'-0"
140
1.5
141
12.0
290
     0
  0
SCALE
  5
66
102
{ACAD_REACTORS
330
47
102
}
330
47
100
AcDbScale
 70
     0
300
3" = 1'-0"
140
3.0
141
12.0
290
     0
  0
SCALE
  5
67
102
{ACAD_REACTORS
330
47
102
}
330
47
100
AcDbScale
 70
     0
300
6" = 1'-0"
140
6.0
141
12.0
290
     0
  0
SCALE
  5
68
102
{ACAD_REACTORS
330
47
102
}
330
47
100
AcDbScale
 70
     0
300
1'-0" = 1'-0"
140
12.0
141
12.0
290
     0
  0
ENDSEC
  0
EOF
