  0
SECTION
  2
HEADER
  9
$ACADVER
  1
AC1015
  9
$ACADMAINTVER
 70
     6
  9
$DWGCODEPAGE
  3
ANSI_1252
  9
$INSBASE
 10
0.0
 20
0.0
 30
0.0
  9
$EXTMIN
 10
0.0
 20
0.0
 30
0.0
  9
$EXTMAX
 10
279.4
 20
215.9
 30
0.0
  9
$LIMMIN
 10
0.0
 20
0.0
  9
$LIMMAX
 10
279.4
 20
215.9
  9
$ORTHOMODE
 70
     0
  9
$REGENMODE
 70
     1
  9
$FILLMODE
 70
     1
  9
$QTEXTMODE
 70
     0
  9
$MIRRTEXT
 70
     1
  9
$LTSCALE
 40
1.0
  9
$ATTMODE
 70
     1
  9
$TEXTSIZE
 40
2.8222222222
  9
$TRACEWID
 40
1.0
  9
$TEXTSTYLE
  7
Standard
  9
$CLAYER
  8
0
  9
$CELTYPE
  6
ByLayer
  9
$CECOLOR
 62
   256
  9
$CELTSCALE
 40
1.0
  9
$DISPSILH
 70
     0
  9
$DIMSCALE
 40
1.0
  9
$DIMASZ
 40
3.175
  9
$DIMEXO
 40
1.27
  9
$DIMDLI
 40
3.75
  9
$DIMRND
 40
0.0
  9
$DIMDLE
 40
0.0
  9
$DIMEXE
 40
1.778
  9
$DIMTP
 40
0.0
  9
$DIMTM
 40
0.0
  9
$DIMTXT
 40
2.8222222222
  9
$DIMCEN
 40
2.5
  9
$DIMTSZ
 40
0.0
  9
$DIMTOL
 70
     0
  9
$DIMLIM
 70
     0
  9
$DIMTIH
 70
     1
  9
$DIMTOH
 70
     1
  9
$DIMSE1
 70
     0
  9
$DIMSE2
 70
     0
  9
$DIMTAD
 70
     1
  9
$DIMZIN
 70
     1
  9
$DIMBLK
  1

  9
$DIMASO
 70
     1
  9
$DIMSHO
 70
     1
  9
$DIMPOST
  1

  9
$DIMAPOST
  1

  9
$DIMALT
 70
     0
  9
$DIMALTD
 70
     3
  9
$DIMALTF
 40
0.0393700787
  9
$DIMLFAC
 40
1.0
  9
$DIMTOFL
 70
     1
  9
$DIMTVP
 40
0.0
  9
$DIMTIX
 70
     0
  9
$DIMSOXD
 70
     0
  9
$DIMSAH
 70
     0
  9
$DIMBLK1
  1

  9
$DIMBLK2
  1

  9
$DIMSTYLE
  2
ISO-25
  9
$DIMCLRD
 70
     0
  9
$DIMCLRE
 70
     0
  9
$DIMCLRT
 70
     0
  9
$DIMTFAC
 40
1.0
  9
$DIMGAP
 40
2.54
  9
$DIMJUST
 70
     0
  9
$DIMSD1
 70
     0
  9
$DIMSD2
 70
     0
  9
$DIMTOLJ
 70
     0
  9
$DIMTZIN
 70
     1
  9
$DIMALTZ
 70
     0
  9
$DIMALTTZ
 70
     0
  9
$DIMUPT
 70
     0
  9
$DIMDEC
 70
     1
  9
$DIMTDEC
 70
     1
  9
$DIMALTU
 70
     2
  9
$DIMALTTD
 70
     3
  9
$DIMTXSTY
  7
Standard
  9
$DIMAUNIT
 70
     0
  9
$DIMADEC
 70
     0
  9
$DIMALTRND
 40
0.0
  9
$DIMAZIN
 70
     0
  9
$DIMDSEP
 70
    44
  9
$DIMATFIT
 70
     3
  9
$DIMFRAC
 70
     0
  9
$DIMLDRBLK
  1

  9
$DIMLUNIT
 70
     2
  9
$DIMLWD
 70
    -2
  9
$DIMLWE
 70
    -2
  9
$DIMTMOVE
 70
     0
  9
$LUNITS
 70
     2
  9
$LUPREC
 70
     1
  9
$SKETCHINC
 40
1.0
  9
$FILLETRAD
 40
10.0
  9
$AUNITS
 70
     0
  9
$AUPREC
 70
     0
  9
$MENU
  1
.
  9
$ELEVATION
 40
0.0
  9
$PELEVATION
 40
0.0
  9
$THICKNESS
 40
0.0
  9
$LIMCHECK
 70
     0
  9
$CHAMFERA
 40
10.0
  9
$CHAMFERB
 40
10.0
  9
$CHAMFERC
 40
20.0
  9
$CHAMFERD
 40
0.0
  9
$SKPOLY
 70
     0
  9
$TDCREATE
 40
2456244.563790903
  9
$TDUCREATE
 40
2456244.772124236
  9
$TDUPDATE
 40
2456244.563790914
  9
$TDUUPDATE
 40
2456244.772124248
  9
$TDINDWG
 40
0.0000000116
  9
$TDUSRTIMER
 40
0.0000000116
  9
$USRTIMER
 70
     1
  9
$ANGBASE
 50
0.0
  9
$ANGDIR
 70
     0
  9
$PDMODE
 70
     0
  9
$PDSIZE
 40
-1.0
  9
$PLINEWID
 40
0.0
  9
$SPLFRAME
 70
     0
  9
$SPLINETYPE
 70
     6
  9
$SPLINESEGS
 70
     8
  9
$HANDSEED
  5
23B
  9
$SURFTAB1
 70
     6
  9
$SURFTAB2
 70
     6
  9
$SURFTYPE
 70
     6
  9
$SURFU
 70
     6
  9
$SURFV
 70
     6
  9
$UCSBASE
  2

  9
$UCSNAME
  2

  9
$UCSORG
 10
0.0
 20
0.0
 30
0.0
  9
$UCSXDIR
 10
1.0
 20
0.0
 30
0.0
  9
$UCSYDIR
 10
0.0
 20
1.0
 30
0.0
  9
$UCSORTHOREF
  2

  9
$UCSORTHOVIEW
 70
     0
  9
$UCSORGTOP
 10
0.0
 20
0.0
 30
0.0
  9
$UCSORGBOTTOM
 10
0.0
 20
0.0
 30
0.0
  9
$UCSORGLEFT
 10
0.0
 20
0.0
 30
0.0
  9
$UCSORGRIGHT
 10
0.0
 20
0.0
 30
0.0
  9
$UCSORGFRONT
 10
0.0
 20
0.0
 30
0.0
  9
$UCSORGBACK
 10
0.0
 20
0.0
 30
0.0
  9
$PUCSBASE
  2

  9
$PUCSNAME
  2

  9
$PUCSORG
 10
0.0
 20
0.0
 30
0.0
  9
$PUCSXDIR
 10
1.0
 20
0.0
 30
0.0
  9
$PUCSYDIR
 10
0.0
 20
1.0
 30
0.0
  9
$PUCSORTHOREF
  2

  9
$PUCSORTHOVIEW
 70
     0
  9
$PUCSORGTOP
 10
0.0
 20
0.0
 30
0.0
  9
$PUCSORGBOTTOM
 10
0.0
 20
0.0
 30
0.0
  9
$PUCSORGLEFT
 10
0.0
 20
0.0
 30
0.0
  9
$PUCSORGRIGHT
 10
0.0
 20
0.0
 30
0.0
  9
$PUCSORGFRONT
 10
0.0
 20
0.0
 30
0.0
  9
$PUCSORGBACK
 10
0.0
 20
0.0
 30
0.0
  9
$USERI1
 70
     0
  9
$USERI2
 70
     0
  9
$USERI3
 70
     0
  9
$USERI4
 70
     0
  9
$USERI5
 70
     0
  9
$USERR1
 40
0.0
  9
$USERR2
 40
0.0
  9
$USERR3
 40
0.0
  9
$USERR4
 40
0.0
  9
$USERR5
 40
0.0
  9
$WORLDVIEW
 70
     1
  9
$SHADEDGE
 70
     3
  9
$SHADEDIF
 70
    70
  9
$TILEMODE
 70
     1
  9
$MAXACTVP
 70
    64
  9
$PINSBASE
 10
0.0
 20
0.0
 30
0.0
  9
$PLIMCHECK
 70
     0
  9
$PEXTMIN
 10
1.0000000000E+20
 20
1.0000000000E+20
 30
1.0000000000E+20
  9
$PEXTMAX
 10
-1.0000000000E+20
 20
-1.0000000000E+20
 30
-1.0000000000E+20
  9
$PLIMMIN
 10
0.0
 20
0.0
  9
$PLIMMAX
 10
420.0
 20
297.0
  9
$UNITMODE
 70
     0
  9
$VISRETAIN
 70
     1
  9
$PLINEGEN
 70
     0
  9
$PSLTSCALE
 70
     1
  9
$TREEDEPTH
 70
  3020
  9
$CMLSTYLE
  2
Standard
  9
$CMLJUST
 70
     0
  9
$CMLSCALE
 40
20.0
  9
$PROXYGRAPHICS
 70
     1
  9
$MEASUREMENT
 70
     1
  9
$CELWEIGHT
370
    -1
  9
$ENDCAPS
280
     0
  9
$JOINSTYLE
280
     0
  9
$LWDISPLAY
290
     1
  9
$INSUNITS
 70
     4
  9
$HYPERLINKBASE
  1

  9
$STYLESHEET
  1

  9
$XEDIT
290
     1
  9
$CEPSNTYPE
380
     0
  9
$PSTYLEMODE
290
     1
  9
$FINGERPRINTGUID
  2
{3BFEA706-C3B5-4770-AC3F-226F87BA056B}
  9
$VERSIONGUID
  2
{FAEB1C32-E019-11D5-929B-00C0DF256EC4}
  9
$EXTNAMES
290
     1
  9
$PSVPSCALE
 40
0.0
  9
$OLESTARTUP
290
     0
  0
ENDSEC
  0
SECTION
  2
CLASSES
  0
CLASS
  1
ACDBDICTIONARYWDFLT
  2
AcDbDictionaryWithDefault
  3
ObjectDBX Classes
 90
        0
280
     0
281
     0
  0
CLASS
  1
VISUALSTYLE
  2
AcDbVisualStyle
  3
ObjectDBX Classes
 90
     4095
280
     0
281
     0
  0
CLASS
  1
MATERIAL
  2
AcDbMaterial
  3
ObjectDBX Classes
 90
     1153
280
     0
281
     0
  0
CLASS
  1
ACDBPLACEHOLDER
  2
AcDbPlaceHolder
  3
ObjectDBX Classes
 90
        0
280
     0
281
     0
  0
CLASS
  1
LAYOUT
  2
AcDbLayout
  3
ObjectDBX Classes
 90
        0
280
     0
281
     0
  0
ENDSEC
  0
SECTION
  2
TABLES
  0
TABLE
  2
VPORT
  5
8
330
0
100
AcDbSymbolTable
 70
     1
  0
VPORT
  5
29
330
8
100
AcDbSymbolTableRecord
100
AcDbViewportTableRecord
  2
*Active
 70
     0
 10
0.0
 20
0.0
 11
1.0
 21
1.0
 12
139.7
 22
107.95
 13
0.0
 23
0.0
 14
10.0
 24
10.0
 15
10.0
 25
10.0
 16
0.0
 26
0.0
 36
1.0
 17
0.0
 27
0.0
 37
0.0
 40
215.9
 41
1.2941176471
 42
50.0
 43
0.0
 44
0.0
 50
0.0
 51
0.0
 71
     0
 72
  2000
 73
     1
 74
     3
 75
     0
 76
     0
 77
     0
 78
     0
281
     0
 65
     1
110
0.0
120
0.0
130
0.0
111
1.0
121
0.0
131
0.0
112
0.0
122
1.0
132
0.0
 79
     0
146
0.0
  0
ENDTAB
  0
TABLE
  2
LTYPE
  5
5
330
0
100
AcDbSymbolTable
 70
     6
  0
LTYPE
  5
14
330
5
100
AcDbSymbolTableRecord
100
AcDbLinetypeTableRecord
  2
ByBlock
 70
     0
  3

 72
    65
 73
     0
 40
0.0
  0
LTYPE
  5
15
330
5
100
AcDbSymbolTableRecord
100
AcDbLinetypeTableRecord
  2
ByLayer
 70
     0
  3

 72
    65
 73
     0
 40
0.0
  0
LTYPE
  5
16
330
5
100
AcDbSymbolTableRecord
100
AcDbLinetypeTableRecord
  2
Continuous
 70
     0
  3
Solid line
 72
    65
 73
     0
 40
0.0
  0
LTYPE
  5
3F
330
5
100
AcDbSymbolTableRecord
100
AcDbLinetypeTableRecord
  2
HIDDEN
 70
     0
  3
Hidden __ __ __ __ __ __ __ __ __ __ __ __ __ __
 72
    65
 73
     2
 40
1.905
 49
1.27
 74
     0
 49
-0.635
 74
     0
  0
LTYPE
  5
40
330
5
100
AcDbSymbolTableRecord
100
AcDbLinetypeTableRecord
  2
PHANTOM
 70
     0
  3
Phantom ______  __  __  ______  __  __  ______
 72
    65
 73
     6
 40
12.7
 49
6.35
 74
     0
 49
-1.27
 74
     0
 49
1.27
 74
     0
 49
-1.27
 74
     0
 49
1.27
 74
     0
 49
-1.27
 74
     0
  0
LTYPE
  5
41
330
5
100
AcDbSymbolTableRecord
100
AcDbLinetypeTableRecord
  2
CENTER
 70
     0
  3
Center ____ _ ____ _ ____ _ ____ _ ____ _ ____
 72
    65
 73
     4
 40
10.16
 49
6.35
 74
     0
 49
-1.27
 74
     0
 49
1.27
 74
     0
 49
-1.27
 74
     0
  0
LTYPE
  5
42
330
5
100
AcDbSymbolTableRecord
100
AcDbLinetypeTableRecord
  2
CENTERX2
 70
     0
  3
Center (2x) ________  __  ________  __  _____
 72
    65
 73
     4
 40
20.32
 49
12.7
 74
     0
 49
-2.54
 74
     0
 49
2.54
 74
     0
 49
-2.54
 74
     0
  0
LTYPE
  5
43
330
5
100
AcDbSymbolTableRecord
100
AcDbLinetypeTableRecord
  2
DOT2
 70
     0
  3
Dot (.5x) ........................................
 72
    65
 73
     2
 40
0.635
 49
0.0
 74
     0
 49
-0.635
 74
     0
  0
ENDTAB
  0
TABLE
  2
LAYER
  5
2
330
0
100
AcDbSymbolTable
 70
     2
  0
LAYER
  5
10
330
2
100
AcDbSymbolTableRecord
100
AcDbLayerTableRecord
  2
0
 70
     0
 62
     7
  6
Continuous
370
    -3
390
F
  0
LAYER
  5
44
330
2
100
AcDbSymbolTableRecord
100
AcDbLayerTableRecord
  2
FORMAT
 70
     0
 62
     7
  6
Continuous
370
    -3
390
F
  0
ENDTAB
  0
TABLE
  2
STYLE
  5
3
330
0
100
AcDbSymbolTable
 70
     5
  0
STYLE
  5
11
330
3
100
AcDbSymbolTableRecord
100
AcDbTextStyleTableRecord
  2
Standard
 70
     0
 40
0.0
 41
1.0
 50
0.0
 71
     0
 42
2.5
  3
txt
  4

  0
STYLE
  5
6B
330
3
100
AcDbSymbolTableRecord
100
AcDbTextStyleTableRecord
  2
SLDTEXTSTYLE0
 70
     0
 40
0.0
 41
0.75
 50
0.0
 71
     0
 42
0.2
  3
TXT
  4

  0
STYLE
  5
75
330
3
100
AcDbSymbolTableRecord
100
AcDbTextStyleTableRecord
  2
SLDTEXTSTYLE1
 70
     0
 40
0.0
 41
0.6
 50
0.0
 71
     0
 42
0.2
  3
TXT
  4

  0
STYLE
  5
9E
330
3
100
AcDbSymbolTableRecord
100
AcDbTextStyleTableRecord
  2
SLDTEXTSTYLE2
 70
     0
 40
0.0
 41
0.75
 50
0.0
 71
     0
 42
0.2
  3
TXT
  4
bigfont
  0
STYLE
  5
B2
330
3
100
AcDbSymbolTableRecord
100
AcDbTextStyleTableRecord
  2
SLDTEXTSTYLE3
 70
     0
 40
0.0
 41
0.7
 50
0.0
 71
     0
 42
0.2
  3
TXT
  4

  0
ENDTAB
  0
TABLE
  2
VIEW
  5
6
330
0
100
AcDbSymbolTable
 70
     0
  0
ENDTAB
  0
TABLE
  2
UCS
  5
7
330
0
100
AcDbSymbolTable
 70
     0
  0
ENDTAB
  0
TABLE
  2
APPID
  5
9
330
0
100
AcDbSymbolTable
 70
     1
  0
APPID
  5
12
330
9
100
AcDbSymbolTableRecord
100
AcDbRegAppTableRecord
  2
ACAD
 70
     0
  0
ENDTAB
  0
TABLE
  2
DIMSTYLE
  5
A
330
0
100
AcDbSymbolTable
 70
     5
100
AcDbDimStyleTable
  0
DIMSTYLE
105
27
330
A
100
AcDbSymbolTableRecord
100
AcDbDimStyleTableRecord
  2
ISO-25
 70
     0
 41
2.5
 42
0.625
 43
3.75
 44
1.25
 73
     0
 74
     0
 77
     1
 78
     8
140
2.5
141
2.5
143
0.0393700787
147
0.625
171
     3
172
     1
178
     0
271
     2
272
     2
274
     3
278
    44
283
     0
284
     8
340
11
  0
DIMSTYLE
105
BF
102
{ACAD_REACTORS
330
BE
102
}
330
A
100
AcDbSymbolTableRecord
100
AcDbDimStyleTableRecord
  2
SLDDIMSTYLE0
 70
     0
 41
3.175
 44
0.0
 45
0.000000001
 78
    12
 79
     3
140
2.1166666667
141
0.0
143
0.0393700787
147
0.5291666667
148
0.000000001
170
     1
173
     1
178
     0
271
     1
272
     1
276
     2
284
    12
340
6B
  0
DIMSTYLE
105
202
102
{ACAD_REACTORS
330
201
102
}
330
A
100
AcDbSymbolTableRecord
100
AcDbDimStyleTableRecord
  2
SLDDIMSTYLE1
 70
     0
 41
3.175
 44
0.0
 45
0.000000001
 78
     4
 79
     1
140
2.1166666667
141
0.0
143
0.0393700787
147
0.5291666667
148
0.000000001
170
     1
173
     1
178
     0
271
     1
272
     1
276
     2
284
    12
340
6B
  0
DIMSTYLE
105
213
102
{ACAD_REACTORS
330
212
102
}
330
A
100
AcDbSymbolTableRecord
100
AcDbDimStyleTableRecord
  2
SLDDIMSTYLE2
 70
     0
 41
3.175
 44
0.0
 45
0.000000001
 78
     4
 79
     1
140
2.1166666667
143
0.0393700787
147
0.5291666667
148
0.000000001
170
     1
172
     1
173
     1
178
     0
271
     1
272
     1
276
     2
284
    12
289
     0
340
6B
  0
DIMSTYLE
105
226
102
{ACAD_REACTORS
330
225
102
}
330
A
100
AcDbSymbolTableRecord
100
AcDbDimStyleTableRecord
  2
SLDDIMSTYLE3
 70
     0
 41
3.175
 44
0.0
 45
0.000000001
 78
    12
 79
     3
140
2.1166666667
143
0.0393700787
147
0.5291666667
148
0.000000001
170
     1
172
     1
173
     1
178
     0
271
     1
272
     1
276
     2
284
    12
289
     0
340
6B
  0
ENDTAB
  0
TABLE
  2
BLOCK_RECORD
  5
1
330
0
100
AcDbSymbolTable
 70
    12
  0
BLOCK_RECORD
  5
1F
330
1
100
AcDbSymbolTableRecord
100
AcDbBlockTableRecord
  2
*Model_Space
340
22
  0
BLOCK_RECORD
  5
1B
330
1
100
AcDbSymbolTableRecord
100
AcDbBlockTableRecord
  2
*Paper_Space
340
1E
  0
BLOCK_RECORD
  5
23
330
1
100
AcDbSymbolTableRecord
100
AcDbBlockTableRecord
  2
*Paper_Space0
340
26
  0
BLOCK_RECORD
  5
45
330
1
100
AcDbSymbolTableRecord
100
AcDbBlockTableRecord
  2
Third Angle Projection Block
340
0
102
{BLKREFS
331
6A
102
}
  0
BLOCK_RECORD
  5
7B
330
1
100
AcDbSymbolTableRecord
100
AcDbBlockTableRecord
  2
SW_NOTE_0
340
0
102
{BLKREFS
331
80
102
}
  0
BLOCK_RECORD
  5
81
330
1
100
AcDbSymbolTableRecord
100
AcDbBlockTableRecord
  2
SW_NOTE_1
340
0
102
{BLKREFS
331
86
102
}
  0
BLOCK_RECORD
  5
88
330
1
100
AcDbSymbolTableRecord
100
AcDbBlockTableRecord
  2
SW_NOTE_2
340
0
102
{BLKREFS
331
8D
102
}
  0
BLOCK_RECORD
  5
8F
330
1
100
AcDbSymbolTableRecord
100
AcDbBlockTableRecord
  2
SW_NOTE_3
340
0
102
{BLKREFS
331
95
102
}
  0
BLOCK_RECORD
  5
96
330
1
100
AcDbSymbolTableRecord
100
AcDbBlockTableRecord
  2
SW_NOTE_4
340
0
102
{BLKREFS
331
B9
102
}
  0
BLOCK_RECORD
  5
C0
330
1
100
AcDbSymbolTableRecord
100
AcDbBlockTableRecord
  2
*D7
340
0
  0
BLOCK_RECORD
  5
CF
330
1
100
AcDbSymbolTableRecord
100
AcDbBlockTableRecord
  2
SW_CENTERMARKSYMBOL_0
340
0
102
{BLKREFS
331
D6
102
}
  0
BLOCK_RECORD
  5
203
330
1
100
AcDbSymbolTableRecord
100
AcDbBlockTableRecord
  2
*D9
340
0
  0
BLOCK_RECORD
  5
214
330
1
100
AcDbSymbolTableRecord
100
AcDbBlockTableRecord
  2
*D10
340
0
  0
BLOCK_RECORD
  5
227
330
1
100
AcDbSymbolTableRecord
100
AcDbBlockTableRecord
  2
*D11
340
0
  0
ENDTAB
  0
ENDSEC
  0
SECTION
  2
BLOCKS
  0
BLOCK
  5
20
330
1F
100
AcDbEntity
  8
0
100
AcDbBlockBegin
  2
*Model_Space
 70
     0
 10
0.0
 20
0.0
 30
0.0
  3
*Model_Space
  1

  0
ENDBLK
  5
21
330
1F
100
AcDbEntity
  8
0
100
AcDbBlockEnd
  0
BLOCK
  5
1C
330
1B
100
AcDbEntity
 67
     1
  8
0
100
AcDbBlockBegin
  2
*Paper_Space
 70
     0
 10
0.0
 20
0.0
 30
0.0
  3
*Paper_Space
  1

  0
ENDBLK
  5
1D
330
1B
100
AcDbEntity
 67
     1
  8
0
100
AcDbBlockEnd
  0
BLOCK
  5
24
330
23
100
AcDbEntity
  8
0
100
AcDbBlockBegin
  2
*Paper_Space0
 70
     0
 10
0.0
 20
0.0
 30
0.0
  3
*Paper_Space0
  1

  0
ENDBLK
  5
25
330
23
100
AcDbEntity
  8
0
100
AcDbBlockEnd
  0
BLOCK
  5
46
330
45
100
AcDbEntity
  8
0
100
AcDbBlockBegin
  2
Third Angle Projection Block
 70
     0
 10
0.0
 20
0.0
 30
0.0
  3
Third Angle Projection Block
  1

  0
CIRCLE
  5
48
330
45
100
AcDbEntity
  8
0
  6
Continuous
 62
     7
370
    30
100
AcDbCircle
 10
101.4766388944
 20
18.9404083667
 30
0.0
 40
1.768227153674871
  0
CIRCLE
  5
49
330
45
100
AcDbEntity
  8
0
  6
Continuous
 62
     7
370
    30
100
AcDbCircle
 10
101.4766388944
 20
18.9404083667
 30
0.0
 40
3.901228248531818
  0
LINE
  5
4A
330
45
100
AcDbEntity
  8
0
  6
CENTERX2
 62
     7
370
     0
100
AcDbLine
 10
110.1367822585
 20
18.9404083667
 30
0.0
 11
119.4527334874
 21
18.9404083667
 31
0.0
  0
LINE
  5
4B
330
45
100
AcDbEntity
  8
0
  6
Continuous
 62
     7
370
    30
100
AcDbLine
 10
111.0016388944
 20
20.7086355204
 30
0.0
 11
111.0016388944
 21
17.172181213
 31
0.0
  0
LINE
  5
4C
330
45
100
AcDbEntity
  8
0
  6
Continuous
 62
     7
370
    30
100
AcDbLine
 10
111.0016388944
 20
17.172181213
 30
0.0
 11
118.6216388944
 21
15.1304083667
 31
0.0
  0
LINE
  5
4D
330
45
100
AcDbEntity
  8
0
  6
Continuous
 62
     7
370
    30
100
AcDbLine
 10
118.6216388944
 20
15.1304083667
 30
0.0
 11
118.6216388944
 21
22.7504083667
 31
0.0
  0
LINE
  5
4E
330
45
100
AcDbEntity
  8
0
  6
Continuous
 62
     7
370
    30
100
AcDbLine
 10
118.6216388944
 20
22.7504083667
 30
0.0
 11
111.0016388944
 21
20.7086355204
 31
0.0
  0
LINE
  5
4F
330
45
100
AcDbEntity
  8
0
  6
CENTERX2
 62
     7
370
     0
100
AcDbLine
 10
96.6025854619
 20
18.9404083667
 30
0.0
 11
106.3506923269
 21
18.9404083667
 31
0.0
  0
LINE
  5
50
330
45
100
AcDbEntity
  8
0
  6
CENTERX2
 62
     7
370
     0
100
AcDbLine
 10
101.4766388944
 20
23.8144617992
 30
0.0
 11
101.4766388944
 21
14.0663549342
 31
0.0
  0
POINT
  5
51
330
45
100
AcDbEntity
  8
0
  6
Continuous
 62
     7
370
     0
100
AcDbPoint
 10
101.4766388944
 20
18.9404083667
 30
0.0
  0
ENDBLK
  5
47
330
45
100
AcDbEntity
  8
0
100
AcDbBlockEnd
  0
BLOCK
  5
7C
330
7B
100
AcDbEntity
  8
0
100
AcDbBlockBegin
  2
SW_NOTE_0
 70
     0
 10
0.0
 20
0.0
 30
0.0
  3
SW_NOTE_0
  1

  0
MTEXT
  5
7E
330
7B
100
AcDbEntity
  8
0
  6
Continuous
 62
     0
370
     0
100
AcDbMText
 10
19.90725
 20
1.9645392354
 30
0.0
 40
1.524
 41
0.0
 71
     2
 72
     1
  1
VALUES IN PARENTHESIS ARE CALCULATED
  7
SLDTEXTSTYLE0
 73
     1
 44
1.0
  0
MTEXT
  5
7F
330
7B
100
AcDbEntity
  8
0
  6
Continuous
 62
     0
370
     0
100
AcDbMText
 10
19.8778795174
 20
-0.5594606586
 30
0.0
 40
1.524
 41
0.0
 71
     2
 72
     1
  1
AND MAY CONTAIN ROUNDOFF ERRORS
  7
SLDTEXTSTYLE0
 73
     1
 44
1.0
  0
ENDBLK
  5
7D
330
7B
100
AcDbEntity
  8
0
100
AcDbBlockEnd
  0
BLOCK
  5
82
330
81
100
AcDbEntity
  8
0
100
AcDbBlockBegin
  2
SW_NOTE_1
 70
     0
 10
0.0
 20
0.0
 30
0.0
  3
SW_NOTE_1
  1

  0
MTEXT
  5
84
330
81
100
AcDbEntity
  8
0
  6
Continuous
 62
     0
370
     0
100
AcDbMText
 10
0.0
 20
2.7285267159
 30
0.0
 40
2.1166666667
 41
0.0
 71
     1
 72
     1
  1
DRAWING
  7
SLDTEXTSTYLE0
 73
     1
 44
1.0
  0
MTEXT
  5
85
330
81
100
AcDbEntity
  8
0
  6
Continuous
 62
     0
370
     0
100
AcDbMText
 10
0.0
 20
-0.0936954723
 30
0.0
 40
2.1166666667
 41
0.0
 71
     1
 72
     1
  1
PROJECTION
  7
SLDTEXTSTYLE0
 73
     1
 44
1.0
  0
ENDBLK
  5
83
330
81
100
AcDbEntity
  8
0
100
AcDbBlockEnd
  0
BLOCK
  5
89
330
88
100
AcDbEntity
  8
0
100
AcDbBlockBegin
  2
SW_NOTE_2
 70
     0
 10
0.0
 20
0.0
 30
0.0
  3
SW_NOTE_2
  1

  0
MTEXT
  5
8B
330
88
100
AcDbEntity
  8
0
  6
Continuous
 62
     0
370
     0
100
AcDbMText
 10
25.052734375
 20
4.0927900738
 30
0.0
 40
3.175
 41
0.0
 71
     2
 72
     1
  1
FOR INFORMATION ONLY
  7
SLDTEXTSTYLE0
 73
     1
 44
1.0
  0
MTEXT
  5
8C
330
88
100
AcDbEntity
  8
0
  6
Continuous
 62
     0
370
     0
100
AcDbMText
 10
25.3768468589
 20
-0.1405432084
 30
0.0
 40
3.175
 41
0.0
 71
     2
 72
     1
  1
NOT FOR MANUFACTURING PURPOSES
  7
SLDTEXTSTYLE0
 73
     1
 44
1.0
  0
ENDBLK
  5
8A
330
88
100
AcDbEntity
  8
0
100
AcDbBlockEnd
  0
BLOCK
  5
90
330
8F
100
AcDbEntity
  8
0
100
AcDbBlockBegin
  2
SW_NOTE_3
 70
     0
 10
0.0
 20
0.0
 30
0.0
  3
SW_NOTE_3
  1

  0
MTEXT
  5
92
330
8F
100
AcDbEntity
  8
0
  6
Continuous
 62
     0
370
     0
100
AcDbMText
 10
1.9016927083
 20
3.4106583948
 30
0.0
 40
2.6458333333
 41
0.0
 71
     2
 72
     1
  1
%%c
  7
SLDTEXTSTYLE0
 73
     1
 44
1.0
  0
MTEXT
  5
93
330
8F
100
AcDbEntity
  8
0
  6
Continuous
 62
     0
370
     0
100
AcDbMText
 10
30.4934129218
 20
3.4106583948
 30
0.0
 40
2.6458333333
 41
0.0
 71
     2
 72
     1
  1
50.8mm, f= 200.0mm CONCAVE
  7
SLDTEXTSTYLE0
 73
     1
 44
1.0
  0
MTEXT
  5
94
330
8F
100
AcDbEntity
  8
0
  6
Continuous
 62
     0
370
     0
100
AcDbMText
 10
28.8722895036
 20
-0.1171193403
 30
0.0
 40
2.6458333333
 41
0.0
 71
     2
 72
     1
  1
PROTECTED GOLD MIRROR
  7
SLDTEXTSTYLE0
 73
     1
 44
1.0
  0
ENDBLK
  5
91
330
8F
100
AcDbEntity
  8
0
100
AcDbBlockEnd
  0
BLOCK
  5
97
330
96
100
AcDbEntity
  8
0
100
AcDbBlockBegin
  2
SW_NOTE_4
 70
     0
 10
0.0
 20
0.0
 30
0.0
  3
SW_NOTE_4
  1

  0
MTEXT
  5
99
330
96
100
AcDbEntity
  8
0
  6
Continuous
 62
     0
370
     0
100
AcDbMText
 10
0.0
 20
3.0695925553
 30
0.0
 40
2.38125
 41
0.0
 71
     1
 72
     1
  1
NOTES/SPECIFICATIONS:
  7
SLDTEXTSTYLE0
 73
     1
 44
1.0
  0
MTEXT
  5
9A
330
96
100
AcDbEntity
  8
0
  6
Continuous
 62
     0
370
     0
100
AcDbMText
 10
9.9999997765
 20
-3.2804073679
 30
0.0
 40
2.38125
 41
0.0
 71
     1
 72
     1
  1
CLEAR APERTURE: >90% DIAMETER
  7
SLDTEXTSTYLE0
 73
     1
 44
1.0
  0
MTEXT
  5
9B
330
96
100
AcDbEntity
  8
0
  6
Continuous
 62
     0
370
     0
100
AcDbMText
 10
0.0
 20
-3.2804073679
 30
0.0
 40
2.38125
 41
0.0
 71
     1
 72
     1
  1
1.
  7
SLDTEXTSTYLE0
 73
     1
 44
1.0
  0
MTEXT
  5
9C
330
96
100
AcDbEntity
  8
0
  6
Continuous
 62
     0
370
     0
100
AcDbMText
 10
9.9999997765
 20
-6.5976282029
 30
0.0
 40
2.38125
 41
0.0
 71
     1
 72
     1
  1
SURFACE ACCURACY
  7
SLDTEXTSTYLE0
 73
     1
 44
1.0
  0
MTEXT
  5
9D
330
96
100
AcDbEntity
  8
0
  6
Continuous
 62
     0
370
     0
100
AcDbMText
 10
42.9582651705
 20
-6.6891910621
 30
0.0
 40
2.286
 41
0.0
 71
     1
 72
     1
  1
:
  7
SLDTEXTSTYLE0
 73
     1
 44
1.0
  0
MTEXT
  5
9F
330
96
100
AcDbEntity
  8
0
  6
Continuous
 62
     0
370
     0
100
AcDbMText
 10
44.6957833081
 20
-6.5976282029
 30
0.0
 40
2.38125
 41
0.0
 71
     1
 72
     1
  1
\M+183C9/
  7
SLDTEXTSTYLE2
 73
     1
 44
1.0
  0
MTEXT
  5
A0
330
96
100
AcDbEntity
  8
0
  6
Continuous
 62
     0
370
     0
100
AcDbMText
 10
47.7715637535
 20
-6.6891910621
 30
0.0
 40
2.286
 41
0.0
 71
     1
 72
     1
  1
4
  7
SLDTEXTSTYLE0
 73
     1
 44
1.0
  0
MTEXT
  5
A1
330
96
100
AcDbEntity
  8
0
  6
Continuous
 62
     0
370
     0
100
AcDbMText
 10
50.3052156419
 20
-6.5976282029
 30
0.0
 40
2.38125
 41
0.0
 71
     1
 72
     1
  1
AT 632.8nm OVER CLEAR APERTURE
  7
SLDTEXTSTYLE0
 73
     1
 44
1.0
  0
MTEXT
  5
A2
330
96
100
AcDbEntity
  8
0
  6
Continuous
 62
     0
370
     0
100
AcDbMText
 10
0.0
 20
-6.5976282029
 30
0.0
 40
2.38125
 41
0.0
 71
     1
 72
     1
  1
2.
  7
SLDTEXTSTYLE0
 73
     1
 44
1.0
  0
MTEXT
  5
A3
330
96
100
AcDbEntity
  8
0
  6
Continuous
 62
     0
370
     0
100
AcDbMText
 10
9.9999997765
 20
-9.7726281646
 30
0.0
 40
2.38125
 41
0.0
 71
     1
 72
     1
  1
SURFACE QUALITY: 40-20 SCRATCH-DIG
  7
SLDTEXTSTYLE0
 73
     1
 44
1.0
  0
MTEXT
  5
A4
330
96
100
AcDbEntity
  8
0
  6
Continuous
 62
     0
370
     0
100
AcDbMText
 10
0.0
 20
-9.7726281646
 30
0.0
 40
2.38125
 41
0.0
 71
     1
 72
     1
  1
3.
  7
SLDTEXTSTYLE0
 73
     1
 44
1.0
  0
MTEXT
  5
A5
330
96
100
AcDbEntity
  8
0
  6
Continuous
 62
     0
370
     0
100
AcDbMText
 10
9.9999997765
 20
-12.9476281262
 30
0.0
 40
2.38125
 41
0.0
 71
     1
 72
     1
  1
BACK SURFACE: FINE GROUND
  7
SLDTEXTSTYLE0
 73
     1
 44
1.0
  0
MTEXT
  5
A6
330
96
100
AcDbEntity
  8
0
  6
Continuous
 62
     0
370
     0
100
AcDbMText
 10
0.0
 20
-12.9476281262
 30
0.0
 40
2.38125
 41
0.0
 71
     1
 72
     1
  1
4.
  7
SLDTEXTSTYLE0
 73
     1
 44
1.0
  0
MTEXT
  5
A7
330
96
100
AcDbEntity
  8
0
  6
Continuous
 62
     0
370
     0
100
AcDbMText
 10
9.9999997765
 20
-16.1226280878
 30
0.0
 40
2.38125
 41
0.0
 71
     1
 72
     1
  1
THICKNESS TOLERANCE:
  7
SLDTEXTSTYLE0
 73
     1
 44
1.0
  0
MTEXT
  5
A8
330
96
100
AcDbEntity
  8
0
  6
Continuous
 62
     0
370
     0
100
AcDbMText
 10
46.741804108
 20
-16.1226280878
 30
0.0
 40
2.38125
 41
0.0
 71
     1
 72
     1
  1
%%p
  7
SLDTEXTSTYLE0
 73
     1
 44
1.0
  0
MTEXT
  5
A9
330
96
100
AcDbEntity
  8
0
  6
Continuous
 62
     0
370
     0
100
AcDbMText
 10
49.0119289607
 20
-16.1226280878
 30
0.0
 40
2.38125
 41
0.0
 71
     1
 72
     1
  1
0.2 mm
  7
SLDTEXTSTYLE0
 73
     1
 44
1.0
  0
MTEXT
  5
AA
330
96
100
AcDbEntity
  8
0
  6
Continuous
 62
     0
370
     0
100
AcDbMText
 10
0.0
 20
-16.1226280878
 30
0.0
 40
2.38125
 41
0.0
 71
     1
 72
     1
  1
5.
  7
SLDTEXTSTYLE0
 73
     1
 44
1.0
  0
MTEXT
  5
AB
330
96
100
AcDbEntity
  8
0
  6
Continuous
 62
     0
370
     0
100
AcDbMText
 10
9.9999997765
 20
-19.2976280495
 30
0.0
 40
2.38125
 41
0.0
 71
     1
 72
     1
  1
DIAMETER TOLERANCE: + 0.0/-0.2 mm
  7
SLDTEXTSTYLE0
 73
     1
 44
1.0
  0
MTEXT
  5
AC
330
96
100
AcDbEntity
  8
0
  6
Continuous
 62
     0
370
     0
100
AcDbMText
 10
0.0
 20
-19.2976280495
 30
0.0
 40
2.38125
 41
0.0
 71
     1
 72
     1
  1
6.
  7
SLDTEXTSTYLE0
 73
     1
 44
1.0
  0
MTEXT
  5
AD
330
96
100
AcDbEntity
  8
0
  6
Continuous
 62
     0
370
     0
100
AcDbMText
 10
9.9999997765
 20
-22.4726280111
 30
0.0
 40
2.38125
 41
0.0
 71
     1
 72
     1
  1
COATING: PROTECTED GOLD
  7
SLDTEXTSTYLE0
 73
     1
 44
1.0
  0
MTEXT
  5
AE
330
96
100
AcDbEntity
  8
0
  6
Continuous
 62
     0
370
     0
100
AcDbMText
 10
0.0
 20
-22.4726280111
 30
0.0
 40
2.38125
 41
0.0
 71
     1
 72
     1
  1
7.
  7
SLDTEXTSTYLE0
 73
     1
 44
1.0
  0
MTEXT
  5
AF
330
96
100
AcDbEntity
  8
0
  6
Continuous
 62
     0
370
     0
100
AcDbMText
 10
10.0
 20
-25.6476279727
 30
0.0
 40
2.38125
 41
0.0
 71
     1
 72
     1
  1
Ravg: >96% FROM 800nm - 20µm
  7
SLDTEXTSTYLE0
 73
     1
 44
1.0
  0
MTEXT
  5
B0
330
96
100
AcDbEntity
  8
0
  6
Continuous
 62
     0
370
     0
100
AcDbMText
 10
10.0
 20
-28.8226279343
 30
0.0
 40
2.38125
 41
0.0
 71
     1
 72
     1
  1
AOI: 0
  7
SLDTEXTSTYLE0
 73
     1
 44
1.0
  0
MTEXT
  5
B1
330
96
100
AcDbEntity
  8
0
  6
Continuous
 62
     0
370
     0
100
AcDbMText
 10
19.344201535
 20
-28.8226279343
 30
0.0
 40
2.38125
 41
0.0
 71
     1
 72
     1
  1
%%d
  7
SLDTEXTSTYLE0
 73
     1
 44
1.0
  0
MTEXT
  5
B3
330
96
100
AcDbEntity
  8
0
  6
Continuous
 62
     0
370
     0
100
AcDbMText
 10
21.7505871639
 20
-28.8226279343
 30
0.0
 40
2.38125
 41
0.0
 71
     1
 72
     1
  1
TO 45
  7
SLDTEXTSTYLE3
 73
     1
 44
1.0
  0
MTEXT
  5
B4
330
96
100
AcDbEntity
  8
0
  6
Continuous
 62
     0
370
     0
100
AcDbMText
 10
30.2459171414
 20
-28.8226279343
 30
0.0
 40
2.38125
 41
0.0
 71
     1
 72
     1
  1
%%d
  7
SLDTEXTSTYLE0
 73
     1
 44
1.0
  0
MTEXT
  5
B5
330
96
100
AcDbEntity
  8
0
  6
Continuous
 62
     0
370
     0
100
AcDbMText
 10
9.9999997765
 20
-31.997627896
 30
0.0
 40
2.38125
 41
0.0
 71
     1
 72
     1
  1
DAMAGE THRESHOLD: 2J/cm
  7
SLDTEXTSTYLE0
 73
     1
 44
1.0
  0
MTEXT
  5
B6
330
96
100
AcDbEntity
  8
0
  6
Continuous
 62
     0
370
     0
100
AcDbMText
 10
54.2956609279
 20
-31.9507800725
 30
0.0
 40
1.3229166667
 41
0.0
 71
     1
 72
     1
  1
2
  7
SLDTEXTSTYLE0
 73
     1
 44
1.0
  0
MTEXT
  5
B7
330
96
100
AcDbEntity
  8
0
  6
Continuous
 62
     0
370
     0
100
AcDbMText
 10
56.1661160499
 20
-31.997627896
 30
0.0
 40
2.38125
 41
0.0
 71
     1
 72
     1
  1
10ns PULSE, 10Hz AT 1064nm
  7
SLDTEXTSTYLE0
 73
     1
 44
1.0
  0
MTEXT
  5
B8
330
96
100
AcDbEntity
  8
0
  6
Continuous
 62
     0
370
     0
100
AcDbMText
 10
0.0
 20
-31.997627896
 30
0.0
 40
2.38125
 41
0.0
 71
     1
 72
     1
  1
8.
  7
SLDTEXTSTYLE0
 73
     1
 44
1.0
  0
ENDBLK
  5
98
330
96
100
AcDbEntity
  8
0
100
AcDbBlockEnd
  0
BLOCK
  5
C1
330
C0
100
AcDbEntity
  8
0
100
AcDbBlockBegin
  2
*D7
 70
     1
 10
0.0
 20
0.0
 30
0.0
  3
*D7
  1

  0
SOLID
  5
C3
330
C0
100
AcDbEntity
  8
0
  6
Continuous
 62
     7
370
     0
100
AcDbTrace
 10
72.7205788118
 20
88.2598500233
 30
0.0
 11
74.6056272282
 21
85.6549927397
 31
0.0
 12
75.3242698294
 22
86.3731910492
 32
0.0
 13
75.3242698294
 23
86.3731910492
 33
0.0
  0
LINE
  5
C4
330
C0
100
AcDbEntity
  8
0
  6
Continuous
 62
     7
370
     0
100
AcDbLine
 10
88.6214924798
 20
76.8444871712
 30
0.0
 11
88.6214924798
 21
73.9858803905
 31
0.0
  0
LINE
  5
C5
330
C0
100
AcDbEntity
  8
0
  6
Continuous
 62
     7
370
     0
100
AcDbLine
 10
88.6214924798
 20
73.9858803905
 30
0.0
 11
89.0506677358
 21
73.9858803905
 31
0.0
  0
LINE
  5
C6
330
C0
100
AcDbEntity
  8
0
  6
Continuous
 62
     7
370
     0
100
AcDbLine
 10
88.6214924798
 20
76.8444871712
 30
0.0
 11
89.0506677358
 21
76.8444871712
 31
0.0
  0
LINE
  5
C7
330
C0
100
AcDbEntity
  8
0
  6
Continuous
 62
     7
370
     0
100
AcDbLine
 10
98.0933057157
 20
76.8444871712
 30
0.0
 11
98.0933057157
 21
73.9858803905
 31
0.0
  0
LINE
  5
C8
330
C0
100
AcDbEntity
  8
0
  6
Continuous
 62
     7
370
     0
100
AcDbLine
 10
98.0933057157
 20
73.9858803905
 30
0.0
 11
97.6641304597
 21
73.9858803905
 31
0.0
  0
LINE
  5
C9
330
C0
100
AcDbEntity
  8
0
  6
Continuous
 62
     7
370
     0
100
AcDbLine
 10
98.0933057157
 20
76.8444871712
 30
0.0
 11
97.6641304597
 21
76.8444871712
 31
0.0
  0
LINE
  5
CA
330
C0
100
AcDbEntity
  8
0
  6
Continuous
 62
     7
370
     0
100
AcDbLine
 10
72.7205788118
 20
88.2598500233
 30
0.0
 11
82.1963163738
 21
78.7782505816
 31
0.0
  0
LINE
  5
CB
330
C0
100
AcDbEntity
  8
0
  6
Continuous
 62
     7
370
     0
100
AcDbLine
 10
82.1963163738
 20
78.7782505816
 30
0.0
 11
86.0063163738
 21
78.7782505816
 31
0.0
  0
MTEXT
  5
CC
330
C0
100
AcDbEntity
  8
0
  6
Continuous
 62
     7
370
     0
100
AcDbMText
 10
87.7631419679
 20
79.8252437806
 30
0.0
 40
2.1166666667
 41
0.0
 71
     1
 72
     1
  1
%%c
  7
SLDTEXTSTYLE0
 73
     1
 44
1.0
  0
MTEXT
  5
CD
330
C0
100
AcDbEntity
  8
0
  6
Continuous
 62
     7
370
     0
100
AcDbMText
 10
90.7899020886
 20
79.8252437806
 30
0.0
 40
2.1166666667
 41
0.0
 71
     1
 72
     1
  1
50.8mm
  7
SLDTEXTSTYLE0
 73
     1
 44
1.0
  0
MTEXT
  5
CE
330
C0
100
AcDbEntity
  8
0
  6
Continuous
 62
     7
370
     0
100
AcDbMText
 10
89.4798429917
 20
76.4621769799
 30
0.0
 40
2.1166666667
 41
0.0
 71
     1
 72
     1
  1
2.00in
  7
SLDTEXTSTYLE0
 73
     1
 44
1.0
  0
ENDBLK
  5
C2
330
C0
100
AcDbEntity
  8
0
100
AcDbBlockEnd
  0
BLOCK
  5
D0
330
CF
100
AcDbEntity
  8
0
100
AcDbBlockBegin
  2
SW_CENTERMARKSYMBOL_0
 70
     0
 10
0.0
 20
0.0
 30
0.0
  3
SW_CENTERMARKSYMBOL_0
  1

  0
LINE
  5
D2
330
CF
100
AcDbEntity
  8
0
  6
Continuous
 62
     0
370
     0
100
AcDbLine
 10
0.0
 20
0.0
 30
0.0
 11
0.0
 21
3.0
 31
0.0
  0
LINE
  5
D3
330
CF
100
AcDbEntity
  8
0
  6
Continuous
 62
     0
370
     0
100
AcDbLine
 10
0.0
 20
0.0
 30
0.0
 11
-3.0
 21
0.0
 31
0.0
  0
LINE
  5
D4
330
CF
100
AcDbEntity
  8
0
  6
Continuous
 62
     0
370
     0
100
AcDbLine
 10
0.0
 20
0.0
 30
0.0
 11
0.0
 21
-3.0
 31
0.0
  0
LINE
  5
D5
330
CF
100
AcDbEntity
  8
0
  6
Continuous
 62
     0
370
     0
100
AcDbLine
 10
0.0
 20
0.0
 30
0.0
 11
3.0
 21
0.0
 31
0.0
  0
ENDBLK
  5
D1
330
CF
100
AcDbEntity
  8
0
100
AcDbBlockEnd
  0
BLOCK
  5
204
330
203
100
AcDbEntity
  8
0
100
AcDbBlockBegin
  2
*D9
 70
     1
 10
0.0
 20
0.0
 30
0.0
  3
*D9
  1

  0
SOLID
  5
206
330
203
100
AcDbEntity
  8
0
  6
Continuous
 62
     7
370
     0
100
AcDbTrace
 10
134.6623674506
 20
93.6271191389
 30
0.0
 11
137.8197916932
 21
93.0193682422
 31
0.0
 12
137.8517926348
 22
94.0348641505
 32
0.0
 13
137.8517926348
 23
94.0348641505
 33
0.0
  0
LINE
  5
207
330
203
100
AcDbEntity
  8
0
  6
Continuous
 62
     7
370
     0
100
AcDbLine
 10
161.3241723835
 20
91.0503105415
 30
0.0
 11
161.3241723835
 21
88.1917037609
 31
0.0
  0
LINE
  5
208
330
203
100
AcDbEntity
  8
0
  6
Continuous
 62
     7
370
     0
100
AcDbLine
 10
161.3241723835
 20
88.1917037609
 30
0.0
 11
161.7533476394
 21
88.1917037609
 31
0.0
  0
LINE
  5
209
330
203
100
AcDbEntity
  8
0
  6
Continuous
 62
     7
370
     0
100
AcDbLine
 10
161.3241723835
 20
91.0503105415
 30
0.0
 11
161.7533476394
 21
91.0503105415
 31
0.0
  0
LINE
  5
20A
330
203
100
AcDbEntity
  8
0
  6
Continuous
 62
     7
370
     0
100
AcDbLine
 10
172.3615961129
 20
91.0503105415
 30
0.0
 11
172.3615961129
 21
88.1917037609
 31
0.0
  0
LINE
  5
20B
330
203
100
AcDbEntity
  8
0
  6
Continuous
 62
     7
370
     0
100
AcDbLine
 10
172.3615961129
 20
88.1917037609
 30
0.0
 11
171.932420857
 21
88.1917037609
 31
0.0
  0
LINE
  5
20C
330
203
100
AcDbEntity
  8
0
  6
Continuous
 62
     7
370
     0
100
AcDbLine
 10
172.3615961129
 20
91.0503105415
 30
0.0
 11
171.932420857
 21
91.0503105415
 31
0.0
  0
LINE
  5
20D
330
203
100
AcDbEntity
  8
0
  6
Continuous
 62
     7
370
     0
100
AcDbLine
 10
134.6623674506
 20
93.6271191389
 30
0.0
 11
155.0683218716
 21
92.9840739519
 31
0.0
  0
LINE
  5
20E
330
203
100
AcDbEntity
  8
0
  6
Continuous
 62
     7
370
     0
100
AcDbLine
 10
155.0683218716
 20
92.9840739519
 30
0.0
 11
158.8783218716
 21
92.9840739519
 31
0.0
  0
MTEXT
  5
20F
330
203
100
AcDbEntity
  8
0
  6
Continuous
 62
     7
370
     0
100
AcDbMText
 10
160.4658218716
 20
94.031067151
 30
0.0
 40
2.1166666667
 41
0.0
 71
     1
 72
     1
  1
R
  7
SLDTEXTSTYLE0
 73
     1
 44
1.0
  0
MTEXT
  5
210
330
203
100
AcDbEntity
  8
0
  6
Continuous
 62
     7
370
     0
100
AcDbMText
 10
162.1773128771
 20
94.031067151
 30
0.0
 40
2.1166666667
 41
0.0
 71
     1
 72
     1
  1
400.0mm
  7
SLDTEXTSTYLE0
 73
     1
 44
1.0
  0
MTEXT
  5
211
330
203
100
AcDbEntity
  8
0
  6
Continuous
 62
     7
370
     0
100
AcDbMText
 10
162.1825228954
 20
90.6680003503
 30
0.0
 40
2.1166666667
 41
0.0
 71
     1
 72
     1
  1
15.75in
  7
SLDTEXTSTYLE0
 73
     1
 44
1.0
  0
ENDBLK
  5
205
330
203
100
AcDbEntity
  8
0
100
AcDbBlockEnd
  0
BLOCK
  5
215
330
214
100
AcDbEntity
  8
0
100
AcDbBlockBegin
  2
*D10
 70
     1
 10
0.0
 20
0.0
 30
0.0
  3
*D10
  1

  0
SOLID
  5
217
330
214
100
AcDbEntity
  8
0
  6
Continuous
 62
     7
370
     0
100
AcDbTrace
 10
143.8608287574
 20
141.6259150537
 30
0.0
 11
147.0358287574
 21
141.1179150537
 31
0.0
 12
147.0358287574
 22
142.1339150537
 32
0.0
 13
147.0358287574
 23
142.1339150537
 33
0.0
  0
SOLID
  5
218
330
214
100
AcDbEntity
  8
0
  6
Continuous
 62
     7
370
     0
100
AcDbTrace
 10
134.8608287574
 20
141.6259150537
 30
0.0
 11
131.6858287574
 21
142.1339150537
 31
0.0
 12
131.6858287574
 22
141.1179150537
 32
0.0
 13
131.6858287574
 23
141.1179150537
 33
0.0
  0
LINE
  5
219
330
214
100
AcDbEntity
  8
0
  6
Continuous
 62
     7
370
     0
100
AcDbLine
 10
153.1780354206
 20
141.3736850437
 30
0.0
 11
153.1780354206
 21
138.5150782631
 31
0.0
  0
LINE
  5
21A
330
214
100
AcDbEntity
  8
0
  6
Continuous
 62
     7
370
     0
100
AcDbLine
 10
153.1780354206
 20
138.5150782631
 30
0.0
 11
153.6072106766
 21
138.5150782631
 31
0.0
  0
LINE
  5
21B
330
214
100
AcDbEntity
  8
0
  6
Continuous
 62
     7
370
     0
100
AcDbLine
 10
153.1780354206
 20
141.3736850437
 30
0.0
 11
153.6072106766
 21
141.3736850437
 31
0.0
  0
LINE
  5
21C
330
214
100
AcDbEntity
  8
0
  6
Continuous
 62
     7
370
     0
100
AcDbLine
 10
162.6498486565
 20
141.3736850437
 30
0.0
 11
162.6498486565
 21
138.5150782631
 31
0.0
  0
LINE
  5
21D
330
214
100
AcDbEntity
  8
0
  6
Continuous
 62
     7
370
     0
100
AcDbLine
 10
162.6498486565
 20
138.5150782631
 30
0.0
 11
162.2206734005
 21
138.5150782631
 31
0.0
  0
LINE
  5
21E
330
214
100
AcDbEntity
  8
0
  6
Continuous
 62
     7
370
     0
100
AcDbLine
 10
162.6498486565
 20
141.3736850437
 30
0.0
 11
162.2206734005
 21
141.3736850437
 31
0.0
  0
LINE
  5
21F
330
214
100
AcDbEntity
  8
0
  6
Continuous
 62
     7
370
     0
100
AcDbLine
 10
143.8608287574
 20
132.6959150537
 30
0.0
 11
143.8608287574
 21
143.4039150537
 31
0.0
  0
LINE
  5
220
330
214
100
AcDbEntity
  8
0
  6
Continuous
 62
     7
370
     0
100
AcDbLine
 10
134.8608287574
 20
107.4959150537
 30
0.0
 11
134.8608287574
 21
143.4039150537
 31
0.0
  0
LINE
  5
221
330
214
100
AcDbEntity
  8
0
  6
Continuous
 62
     7
370
     0
100
AcDbLine
 10
143.8608287574
 20
141.6259150537
 30
0.0
 11
150.3030096528
 21
141.6259150537
 31
0.0
  0
LINE
  5
222
330
214
100
AcDbEntity
  8
0
  6
Continuous
 62
     7
370
     0
100
AcDbLine
 10
134.8608287574
 20
141.6259150537
 30
0.0
 11
128.5108287574
 21
141.6259150537
 31
0.0
  0
MTEXT
  5
223
330
214
100
AcDbEntity
  8
0
  6
Continuous
 62
     7
370
     0
100
AcDbMText
 10
153.3147984005
 20
144.3544416532
 30
0.0
 40
2.1166666667
 41
0.0
 71
     1
 72
     1
  1
9.0mm
  7
SLDTEXTSTYLE0
 73
     1
 44
1.0
  0
MTEXT
  5
224
330
214
100
AcDbEntity
  8
0
  6
Continuous
 62
     7
370
     0
100
AcDbMText
 10
154.0363859325
 20
140.9913748524
 30
0.0
 40
2.1166666667
 41
0.0
 71
     1
 72
     1
  1
0.35in
  7
SLDTEXTSTYLE0
 73
     1
 44
1.0
  0
ENDBLK
  5
216
330
214
100
AcDbEntity
  8
0
100
AcDbBlockEnd
  0
BLOCK
  5
228
330
227
100
AcDbEntity
  8
0
100
AcDbBlockBegin
  2
*D11
 70
     1
 10
0.0
 20
0.0
 30
0.0
  3
*D11
  1

  0
SOLID
  5
22A
330
227
100
AcDbEntity
  8
0
  6
Continuous
 62
     7
370
     0
100
AcDbTrace
 10
134.0662172205
 20
153.6259150537
 30
0.0
 11
130.8912172205
 21
154.1339150537
 31
0.0
 12
130.8912172205
 22
153.1179150537
 32
0.0
 13
130.8912172205
 23
153.1179150537
 33
0.0
  0
SOLID
  5
22B
330
227
100
AcDbEntity
  8
0
  6
Continuous
 62
     7
370
     0
100
AcDbTrace
 10
143.8608287574
 20
153.6259150537
 30
0.0
 11
147.0358287574
 21
153.1179150537
 31
0.0
 12
147.0358287574
 22
154.1339150537
 32
0.0
 13
147.0358287574
 23
154.1339150537
 33
0.0
  0
LINE
  5
22C
330
227
100
AcDbEntity
  8
0
  6
Continuous
 62
     7
370
     0
100
AcDbLine
 10
152.4391577153
 20
153.3736850437
 30
0.0
 11
152.4391577153
 21
150.5150782631
 31
0.0
  0
LINE
  5
22D
330
227
100
AcDbEntity
  8
0
  6
Continuous
 62
     7
370
     0
100
AcDbLine
 10
152.4391577153
 20
150.5150782631
 30
0.0
 11
152.8683329713
 21
150.5150782631
 31
0.0
  0
LINE
  5
22E
330
227
100
AcDbEntity
  8
0
  6
Continuous
 62
     7
370
     0
100
AcDbLine
 10
152.4391577153
 20
153.3736850437
 30
0.0
 11
152.8683329713
 21
153.3736850437
 31
0.0
  0
LINE
  5
22F
330
227
100
AcDbEntity
  8
0
  6
Continuous
 62
     7
370
     0
100
AcDbLine
 10
161.9109709512
 20
153.3736850437
 30
0.0
 11
161.9109709512
 21
150.5150782631
 31
0.0
  0
LINE
  5
230
330
227
100
AcDbEntity
  8
0
  6
Continuous
 62
     7
370
     0
100
AcDbLine
 10
161.9109709512
 20
150.5150782631
 30
0.0
 11
161.4817956952
 21
150.5150782631
 31
0.0
  0
LINE
  5
231
330
227
100
AcDbEntity
  8
0
  6
Continuous
 62
     7
370
     0
100
AcDbLine
 10
161.9109709512
 20
153.3736850437
 30
0.0
 11
161.4817956952
 21
153.3736850437
 31
0.0
  0
LINE
  5
232
330
227
100
AcDbEntity
  8
0
  6
Continuous
 62
     7
370
     0
100
AcDbLine
 10
134.0662172205
 20
132.6962686625
 30
0.0
 11
134.0662172205
 21
155.4039150537
 31
0.0
  0
LINE
  5
233
330
227
100
AcDbEntity
  8
0
  6
Continuous
 62
     7
370
     0
100
AcDbLine
 10
143.8608287574
 20
132.6959150537
 30
0.0
 11
143.8608287574
 21
155.4039150537
 31
0.0
  0
LINE
  5
234
330
227
100
AcDbEntity
  8
0
  6
Continuous
 62
     7
370
     0
100
AcDbLine
 10
134.0662172205
 20
153.6259150537
 30
0.0
 11
127.7162172205
 21
153.6259150537
 31
0.0
  0
LINE
  5
235
330
227
100
AcDbEntity
  8
0
  6
Continuous
 62
     7
370
     0
100
AcDbLine
 10
143.8608287574
 20
153.6259150537
 30
0.0
 11
149.5641319475
 21
153.6259150537
 31
0.0
  0
MTEXT
  5
236
330
227
100
AcDbEntity
  8
0
  6
Continuous
 62
     7
370
     0
100
AcDbMText
 10
152.5759206952
 20
156.3544416532
 30
0.0
 40
2.1166666667
 41
0.0
 71
     1
 72
     1
  1
9.8mm
  7
SLDTEXTSTYLE0
 73
     1
 44
1.0
  0
MTEXT
  5
237
330
227
100
AcDbEntity
  8
0
  6
Continuous
 62
     7
370
     0
100
AcDbMText
 10
163.563071463
 20
156.3544416532
 30
0.0
 40
2.1166666667
 41
0.0
 71
     1
 72
     1
  1
REF
  7
SLDTEXTSTYLE0
 73
     1
 44
1.0
  0
MTEXT
  5
238
330
227
100
AcDbEntity
  8
0
  6
Continuous
 62
     7
370
     0
100
AcDbMText
 10
153.2975082272
 20
152.9913748524
 30
0.0
 40
2.1166666667
 41
0.0
 71
     1
 72
     1
  1
0.39in
  7
SLDTEXTSTYLE0
 73
     1
 44
1.0
  0
ENDBLK
  5
229
330
227
100
AcDbEntity
  8
0
100
AcDbBlockEnd
  0
ENDSEC
  0
SECTION
  2
ENTITIES
  0
LINE
  5
52
330
1F
100
AcDbEntity
  8
0
  6
Continuous
 62
     7
370
     0
100
AcDbLine
 10
1.5793501011
 20
214.6453799966
 30
0.0
 11
277.9892068491
 21
214.6453799966
 31
0.0
  0
LINE
  5
53
330
1F
100
AcDbEntity
  8
0
  6
Continuous
 62
     7
370
     0
100
AcDbLine
 10
1.5793501011
 20
214.6453799966
 30
0.0
 11
1.5793501011
 21
0.9031642596
 31
0.0
  0
LINE
  5
54
330
1F
100
AcDbEntity
  8
0
  6
Continuous
 62
     7
370
     0
100
AcDbLine
 10
277.9892068491
 20
0.9031642596
 30
0.0
 11
1.5793501011
 21
0.9031642596
 31
0.0
  0
LINE
  5
55
330
1F
100
AcDbEntity
  8
0
  6
Continuous
 62
     7
370
     0
100
AcDbLine
 10
277.9892068491
 20
0.9031642596
 30
0.0
 11
277.9892068491
 21
214.6453799966
 31
0.0
  0
LINE
  5
56
330
1F
100
AcDbEntity
  8
0
  6
Continuous
 62
     7
370
     0
100
AcDbLine
 10
215.7427640041
 20
12.2958890132
 30
0.0
 11
171.6327596684
 21
12.2958890132
 31
0.0
  0
LINE
  5
57
330
1F
100
AcDbEntity
  8
0
  6
Continuous
 62
     7
370
     0
100
AcDbLine
 10
171.6327596684
 20
12.2958890132
 30
0.0
 11
171.6327596684
 21
26.1661402506
 31
0.0
  0
LINE
  5
58
330
1F
100
AcDbEntity
  8
0
  6
Continuous
 62
     7
370
     0
100
AcDbLine
 10
171.6327596684
 20
0.9031642596
 30
0.0
 11
171.6327596684
 21
26.1661402506
 31
0.0
  0
LINE
  5
59
330
1F
100
AcDbEntity
  8
0
  6
Continuous
 62
     7
370
     0
100
AcDbLine
 10
215.7427640041
 20
17.1604579552
 30
0.0
 11
277.9892068491
 21
17.1604579552
 31
0.0
  0
LINE
  5
5A
330
1F
100
AcDbEntity
  8
0
  6
Continuous
 62
     7
370
     0
100
AcDbLine
 10
215.7427640041
 20
35.2394508358
 30
0.0
 11
215.7427640041
 21
0.9031642596
 31
0.0
  0
LINE
  5
5B
330
1F
100
AcDbEntity
  8
0
  6
Continuous
 62
     7
370
     0
100
AcDbLine
 10
215.7427640041
 20
26.1661402506
 30
0.0
 11
171.6327596684
 21
26.1661402506
 31
0.0
  0
LINE
  5
5C
330
1F
100
AcDbEntity
  8
0
  6
Continuous
 62
     7
370
     0
100
AcDbLine
 10
215.7427640041
 20
9.1409200612
 30
0.0
 11
277.9892068491
 21
9.1409200612
 31
0.0
  0
LINE
  5
5D
330
1F
100
AcDbEntity
  8
0
  6
Continuous
 62
     7
370
     0
100
AcDbLine
 10
215.7427640041
 20
16.9216824031
 30
0.0
 11
171.6327596684
 21
16.9216824031
 31
0.0
  0
LINE
  5
5E
330
1F
100
AcDbEntity
  8
0
  6
Continuous
 62
     7
370
     0
100
AcDbLine
 10
215.7427640041
 20
21.4874005542
 30
0.0
 11
171.6327596684
 21
21.4874005542
 31
0.0
  0
LINE
  5
5F
330
1F
100
AcDbEntity
  8
0
  6
Continuous
 62
     7
370
     0
100
AcDbLine
 10
186.1338100705
 20
26.1661402506
 30
0.0
 11
186.1338100705
 21
12.2958890132
 31
0.0
  0
LINE
  5
60
330
1F
100
AcDbEntity
  8
0
  6
Continuous
 62
     7
370
     0
100
AcDbLine
 10
198.2145906188
 20
26.1661402506
 30
0.0
 11
198.2145906188
 21
12.2958890132
 31
0.0
  0
LINE
  5
61
330
1F
100
AcDbEntity
  8
0
  6
Continuous
 62
     7
370
     0
100
AcDbLine
 10
253.7490408369
 20
9.1409200612
 30
0.0
 11
253.7490408369
 21
0.9031642596
 31
0.0
  0
LINE
  5
62
330
1F
100
AcDbEntity
  8
0
  6
Continuous
 62
     7
370
     0
100
AcDbLine
 10
171.6327596684
 20
12.2958890132
 30
0.0
 11
171.6327596684
 21
7.5627342528
 31
0.0
  0
LINE
  5
63
330
1F
100
AcDbEntity
  8
0
  6
Continuous
 62
     7
370
     0
100
AcDbLine
 10
171.6327596684
 20
7.5627342528
 30
0.0
 11
215.7427640041
 21
7.5627342528
 31
0.0
  0
LINE
  5
64
330
1F
100
AcDbEntity
  8
0
  6
Continuous
 62
     7
370
     0
100
AcDbLine
 10
171.6327596684
 20
7.5627342528
 30
0.0
 11
171.6327596684
 21
35.2394508358
 31
0.0
  0
LINE
  5
65
330
1F
100
AcDbEntity
  8
0
  6
Continuous
 62
     7
370
     0
100
AcDbLine
 10
171.6327596684
 20
35.2394508358
 30
0.0
 11
215.7427640041
 21
35.2394508358
 31
0.0
  0
LINE
  5
66
330
1F
100
AcDbEntity
  8
0
  6
Continuous
 62
     7
370
     0
100
AcDbLine
 10
270.1683598194
 20
17.1604579552
 30
0.0
 11
270.1683598194
 21
9.1409200612
 31
0.0
  0
LINE
  5
67
330
1F
100
AcDbEntity
  8
0
  6
Continuous
 62
     7
370
     0
100
AcDbLine
 10
215.7427640041
 20
35.2394508358
 30
0.0
 11
277.9892068491
 21
35.2394508358
 31
0.0
  0
LINE
  5
68
330
1F
100
AcDbEntity
  8
0
  6
Continuous
 62
     7
370
     0
100
AcDbLine
 10
277.9892068491
 20
35.2394508358
 30
0.0
 11
277.9892068491
 21
50.0331356147
 31
0.0
  0
LINE
  5
69
330
1F
100
AcDbEntity
  8
0
  6
Continuous
 62
     7
370
     0
100
AcDbLine
 10
215.7427640041
 20
24.8927335446
 30
0.0
 11
277.9892068491
 21
24.8927335446
 31
0.0
  0
INSERT
  5
6A
330
1F
100
AcDbEntity
  8
0
  6
Continuous
 62
     7
100
AcDbBlockReference
  2
Third Angle Projection Block
 10
117.7262204235
 20
15.5162339489
 30
0.0
 41
0.8
 42
0.8
 43
0.8
  0
MTEXT
  5
6C
330
1F
100
AcDbEntity
  8
0
  6
Continuous
 62
     7
370
     0
100
AcDbMText
 10
273.8638944939
 20
13.1125292762
 30
0.0
 40
3.175
 41
0.0
 71
     2
 72
     1
  1
C
  7
SLDTEXTSTYLE0
 73
     1
 44
1.0
  0
MTEXT
  5
6D
330
1F
100
AcDbEntity
  8
0
  6
Continuous
 62
     7
370
     0
100
AcDbMText
 10
234.4727266437
 20
5.1306563898
 30
0.0
 40
3.175
 41
0.0
 71
     2
 72
     1
  1
CM508-200-M01
  7
SLDTEXTSTYLE0
 73
     1
 44
1.0
  0
MTEXT
  5
6E
330
1F
100
AcDbEntity
  8
0
  6
Continuous
 62
     7
370
     0
100
AcDbMText
 10
216.4199766059
 20
16.8243178599
 30
0.0
 40
2.1166666667
 41
0.0
 71
     1
 72
     1
  1
MATERIAL
  7
SLDTEXTSTYLE0
 73
     1
 44
1.0
  0
MTEXT
  5
6F
330
1F
100
AcDbEntity
  8
0
  6
Continuous
 62
     7
370
     0
100
AcDbMText
 10
174.230946566
 20
20.054553926
 30
0.0
 40
1.8520833333
 41
0.0
 71
     1
 72
     1
  1
DRAWN
  7
SLDTEXTSTYLE0
 73
     1
 44
1.0
  0
MTEXT
  5
70
330
1F
100
AcDbEntity
  8
0
  6
Continuous
 62
     7
370
     0
100
AcDbMText
 10
172.3960124543
 20
15.5787169747
 30
0.0
 40
1.8520833333
 41
0.0
 71
     1
 72
     1
  1
APPROVAL
  7
SLDTEXTSTYLE0
 73
     1
 44
1.0
  0
MTEXT
  5
71
330
1F
100
AcDbEntity
  8
0
  6
Continuous
 62
     7
370
     0
100
AcDbMText
 10
271.321689486
 20
16.0237652193
 30
0.0
 40
2.1166666667
 41
0.0
 71
     1
 72
     1
  1
REV
  7
SLDTEXTSTYLE0
 73
     1
 44
1.0
  0
MTEXT
  5
72
330
1F
100
AcDbEntity
  8
0
  6
Continuous
 62
     7
370
     0
100
AcDbMText
 10
190.2958696448
 20
20.3177146903
 30
0.0
 40
2.1166666667
 41
0.0
 71
     1
 72
     1
  1
BAG
  7
SLDTEXTSTYLE0
 73
     1
 44
1.0
  0
MTEXT
  5
73
330
1F
100
AcDbEntity
  8
0
  6
Continuous
 62
     7
370
     0
100
AcDbMText
 10
199.8662436873
 20
20.3177146903
 30
0.0
 40
2.1166666667
 41
0.0
 71
     1
 72
     1
  1
28/OCT/10
  7
SLDTEXTSTYLE0
 73
     1
 44
1.0
  0
MTEXT
  5
74
330
1F
100
AcDbEntity
  8
0
  6
Continuous
 62
     7
370
     0
100
AcDbMText
 10
203.6145073853
 20
24.8221395769
 30
0.0
 40
2.1166666667
 41
0.0
 71
     1
 72
     1
  1
DATE
  7
SLDTEXTSTYLE0
 73
     1
 44
1.0
  0
MTEXT
  5
76
330
1F
100
AcDbEntity
  8
0
  6
Continuous
 62
     7
370
     0
100
AcDbMText
 10
229.402906477
 20
27.7957480569
 30
0.0
 40
2.1166666667
 41
0.0
 71
     1
 72
     1
  1
w w w . t h o r  l a b s . c o m
  7
SLDTEXTSTYLE1
 73
     1
 44
1.0
  0
MTEXT
  5
77
330
1F
100
AcDbEntity
  8
0
  6
Continuous
 62
     7
370
     0
100
AcDbMText
 10
216.7004035316
 20
8.3494791871
 30
0.0
 40
2.1166666667
 41
0.0
 71
     1
 72
     1
  1
ITEM #
  7
SLDTEXTSTYLE0
 73
     1
 44
1.0
  0
MTEXT
  5
78
330
1F
100
AcDbEntity
  8
0
  6
Continuous
 62
     7
370
     0
100
AcDbMText
 10
254.5318000914
 20
8.3494791871
 30
0.0
 40
2.1166666667
 41
0.0
 71
     1
 72
     1
  1
APPROX WEIGHT
  7
SLDTEXTSTYLE0
 73
     1
 44
1.0
  0
MTEXT
  5
79
330
1F
100
AcDbEntity
  8
0
  6
Continuous
 62
     7
370
     0
100
AcDbMText
 10
243.7058359879
 20
13.1125292762
 30
0.0
 40
3.175
 41
0.0
 71
     2
 72
     1
  1
N-BK7
  7
SLDTEXTSTYLE0
 73
     1
 44
1.0
  0
MTEXT
  5
7A
330
1F
100
AcDbEntity
  8
0
  6
Continuous
 62
     7
370
     0
100
AcDbMText
 10
266.1678480997
 20
5.1306563898
 30
0.0
 40
3.175
 41
0.0
 71
     2
 72
     1
  1
0.05 kg
  7
SLDTEXTSTYLE0
 73
     1
 44
1.0
  0
INSERT
  5
80
330
1F
100
AcDbEntity
  8
0
  6
Continuous
 62
     7
370
     0
100
AcDbBlockReference
  2
SW_NOTE_0
 10
174.8430140051
 20
4.4558554801
 30
0.0
  0
INSERT
  5
86
330
1F
100
AcDbEntity
  8
0
  6
Continuous
 62
     7
370
     0
100
AcDbBlockReference
  2
SW_NOTE_1
 10
174.5483650337
 20
30.4835322715
 30
0.0
  0
MTEXT
  5
87
330
1F
100
AcDbEntity
  8
0
  6
Continuous
 62
     7
370
     0
100
AcDbMText
 10
187.9273588276
 20
24.8221395769
 30
0.0
 40
2.1166666667
 41
0.0
 71
     1
 72
     1
  1
NAME
  7
SLDTEXTSTYLE0
 73
     1
 44
1.0
  0
INSERT
  5
8D
330
1F
100
AcDbEntity
  8
0
  6
Continuous
 62
     7
370
     0
100
AcDbBlockReference
  2
SW_NOTE_2
 10
58.6204667508
 20
8.1776609732
 30
0.0
  0
MTEXT
  5
8E
330
1F
100
AcDbEntity
  8
0
  6
Continuous
 62
     7
370
     0
100
AcDbMText
 10
179.1174811218
 20
10.6680638482
 30
0.0
 40
1.5875
 41
0.0
 71
     1
 72
     1
  1
COPYRIGHT © 2010 BY THORLABS
  7
SLDTEXTSTYLE0
 73
     1
 44
1.0
  0
INSERT
  5
95
330
1F
100
AcDbEntity
  8
0
  6
Continuous
 62
     7
370
     0
100
AcDbBlockReference
  2
SW_NOTE_3
 10
218.0010743732
 20
20.5867261075
 30
0.0
  0
INSERT
  5
B9
330
1F
100
AcDbEntity
  8
0
  6
Continuous
 62
     7
370
     0
100
AcDbBlockReference
  2
SW_NOTE_4
 10
7.0257848731
 20
52.5785086475
 30
0.0
  0
MTEXT
  5
BA
330
1F
100
AcDbEntity
  8
0
  6
Continuous
 62
     7
370
     0
100
AcDbMText
 10
199.8470382795
 20
15.7062886008
 30
0.0
 40
2.1166666667
 41
0.0
 71
     1
 72
     1
  1
08/NOV/12
  7
SLDTEXTSTYLE0
 73
     1
 44
1.0
  0
MTEXT
  5
BB
330
1F
100
AcDbEntity
  8
0
  6
Continuous
 62
     7
370
     0
100
AcDbMText
 10
190.2766642369
 20
15.7062886008
 30
0.0
 40
2.1166666667
 41
0.0
 71
     1
 72
     1
  1
WD
  7
SLDTEXTSTYLE0
 73
     1
 44
1.0
  0
CIRCLE
  5
BC
330
1F
100
AcDbEntity
  8
0
  6
Continuous
 62
     7
370
     0
100
AcDbCircle
 10
54.7656210752
 20
106.2259150537
 30
0.0
 40
25.39999999999998
  0
CIRCLE
  5
BD
330
1F
100
AcDbEntity
  8
0
  6
Continuous
 62
     7
370
     0
100
AcDbCircle
 10
54.7656210752
 20
106.2259150537
 30
0.0
 40
25.20035360882085
  0
DIMENSION
  5
BE
330
1F
100
AcDbEntity
  8
0
  6
Continuous
 62
     7
370
     0
100
AcDbDimension
  2
*D7
 10
36.8106633386
 20
124.1919800842
 30
0.0
 11
94.4866705603
 21
78.7782505816
 31
0.0
 70
   163
  1
<>
 71
     1
 42
-1.0
  3
SLDDIMSTYLE0
100
AcDbDiametricDimension
 15
72.7205788118
 25
88.2598500233
 35
0.0
 40
0.0
  0
INSERT
  5
D6
330
1F
100
AcDbEntity
  8
0
  6
Continuous
 62
     7
370
     0
100
AcDbBlockReference
  2
SW_CENTERMARKSYMBOL_0
 10
54.7656210752
 20
106.2259150537
 30
0.0
  0
LINE
  5
D7
330
1F
100
AcDbEntity
  8
0
  6
PHANTOM
 62
     7
370
    30
100
AcDbLine
 10
54.7656210752
 20
138.4099170008
 30
0.0
 11
54.7656210752
 21
74.5351074696
 31
0.0
  0
LINE
  5
D8
330
1F
100
AcDbEntity
  8
0
  6
Continuous
 62
     7
370
    30
100
AcDbLine
 10
54.7656210752
 20
138.4099170008
 30
0.0
 11
45.8756210752
 21
138.4099170008
 31
0.0
  0
SOLID
  5
D9
330
1F
100
AcDbEntity
  8
0
  6
Continuous
 62
     7
370
    30
100
AcDbTrace
 10
45.8756210752
 20
138.4099170008
 30
0.0
 11
49.6856210752
 21
137.7749170008
 31
0.0
 12
49.6856210752
 22
139.0449170008
 32
0.0
 13
49.6856210752
 23
139.0449170008
 33
0.0
  0
LINE
  5
DA
330
1F
100
AcDbEntity
  8
0
  6
Continuous
 62
     7
370
    30
100
AcDbLine
 10
54.7656210752
 20
74.5351074696
 30
0.0
 11
45.8756210752
 21
74.5351074696
 31
0.0
  0
SOLID
  5
DB
330
1F
100
AcDbEntity
  8
0
  6
Continuous
 62
     7
370
    30
100
AcDbTrace
 10
45.8756210752
 20
74.5351074696
 30
0.0
 11
49.6856210752
 21
73.9001074696
 31
0.0
 12
49.6856210752
 22
75.1701074696
 32
0.0
 13
49.6856210752
 23
75.1701074696
 33
0.0
  0
MTEXT
  5
DC
330
1F
100
AcDbEntity
  8
0
  6
Continuous
 62
     7
100
AcDbMText
 10
42.4695716236
 20
140.5108568728
 30
0.0
 40
2.6458333333
 41
0.0
 71
     1
 72
     1
  1
A
  7
SLDTEXTSTYLE0
 73
     1
 44
1.0
  0
MTEXT
  5
DD
330
1F
100
AcDbEntity
  8
0
  6
Continuous
 62
     7
100
AcDbMText
 10
42.4695716236
 20
76.6360473416
 30
0.0
 40
2.6458333333
 41
0.0
 71
     1
 72
     1
  1
A
  7
SLDTEXTSTYLE0
 73
     1
 44
1.0
  0
LINE
  5
DE
330
1F
100
AcDbEntity
  8
0
  6
Continuous
 62
     7
370
     0
100
AcDbLine
 10
216.2692624349
 20
184.3063692503
 30
0.0
 11
216.2776329366
 21
184.1596666887
 31
0.0
  0
LINE
  5
DF
330
1F
100
AcDbEntity
  8
0
  6
Continuous
 62
     7
370
     0
100
AcDbLine
 10
232.8416056308
 20
155.4669154878
 30
0.0
 11
232.9644609612
 21
155.386303611
 31
0.0
  0
LINE
  5
E0
330
1F
100
AcDbEntity
  8
0
  6
Continuous
 62
     7
370
     0
100
AcDbLine
 10
228.1412055639
 20
201.2094960695
 30
0.0
 11
221.4892649763
 21
197.3694125067
 31
0.0
  0
LINE
  5
E1
330
1F
100
AcDbEntity
  8
0
  6
Continuous
 62
     7
370
     0
100
AcDbLine
 10
246.8872007852
 20
153.3741302978
 30
0.0
 11
253.5391413729
 21
157.2142138605
 31
0.0
  0
LINE
  5
E2
330
1F
100
AcDbEntity
  8
0
  6
Continuous
 62
     7
370
     0
100
AcDbLine
 10
258.8006857105
 20
168.8434719449
 30
0.0
 11
258.8006857105
 21
169.0067535672
 31
0.0
  0
LINE
  5
E3
330
1F
100
AcDbEntity
  8
0
  6
Continuous
 62
     7
370
     0
100
AcDbLine
 10
240.9844909281
 20
199.868652079
 30
0.0
 11
240.8430925568
 21
199.9503061591
 31
0.0
  0
LWPOLYLINE
  5
E4
330
1F
100
AcDbEntity
  8
0
  6
Continuous
 62
     7
370
     0
100
AcDbPolyline
 90
       45
 70
   128
 43
0.0
 10
252.1487451229
 20
165.0033883821
 10
252.1360345746
 20
164.2305860291
 10
252.0979209199
 20
163.4735527781
 10
252.0344581046
 20
162.733360125
 10
251.9457359532
 20
162.0110557299
 10
251.8318800418
 20
161.3076619337
 10
251.6930515209
 20
160.6241743118
 10
251.5294468866
 20
159.9615602644
 10
251.3412977031
 20
159.3207576477
 10
251.1288702745
 20
158.702673446
 10
250.892465268
 20
158.1081824885
 10
250.6324172885
 20
157.5381262106
 10
250.3490944048
 20
156.9933114633
 10
250.0428976289
 20
156.4745093708
 10
249.7142603479
 20
155.9824542395
 10
249.3636477112
 20
155.5178425185
 10
248.9915559718
 20
155.0813318137
 10
248.5985117839
 20
154.6735399572
 10
248.1850714577
 20
154.2950441327
 10
247.7518201716
 20
153.9463800588
 10
247.2993711445
 20
153.6280412304
 10
246.8283647673
 20
153.3404782206
 10
246.3394676969
 20
153.0840980427
 10
245.8333719124
 20
152.8592635742
 10
245.3107937358
 20
152.666293043
 10
244.7724728181
 20
152.5054595774
 10
244.2191710924
 20
152.3769908192
 10
243.6516716953
 20
152.2810686015
 10
243.0707778588
 20
152.2178286916
 10
242.4773117731
 20
152.1873605984
 10
241.8721134233
 20
152.1897074461
 10
241.2560393997
 20
152.224865913
 10
240.6299616864
 20
152.2927862362
 10
239.9947664263
 20
152.3933722822
 10
239.3513526673
 20
152.5264816826
 10
238.7006310896
 20
152.6919260359
 10
238.0435227168
 20
152.8894711741
 10
237.3809576123
 20
153.1188374943
 10
236.7138735631
 20
153.379700354
 10
236.0432147518
 20
153.6716905311
 10
235.3699304212
 20
153.994394746
 10
234.6949735298
 20
154.347356247
 10
234.0192994038
 20
154.7300754567
 10
233.3438643841
 20
155.1420106788
 10
232.9644609612
 20
155.386303611
  0
LWPOLYLINE
  5
E5
330
1F
100
AcDbEntity
  8
0
  6
Continuous
 62
     7
370
     0
100
AcDbPolyline
 90
       88
 70
   128
 43
0.0
 10
216.2692624349
 20
184.3063692503
 10
216.2563151555
 20
184.5537822701
 10
216.2308985569
 20
185.3481808202
 10
216.2308985569
 20
186.1284588783
 10
216.2563151555
 20
186.8935120482
 10
216.3071123785
 20
187.6422574826
 10
216.383218328
 20
188.3736354161
 10
216.4845252846
 20
189.086610665
 10
216.6108898596
 20
189.7801740926
 10
216.762133198
 20
190.4533440373
 10
216.9380412319
 20
191.1051677025
 10
217.1383649831
 20
191.7347225047
 10
217.3628209157
 20
192.3411173793
 10
217.6110913375
 20
192.9234940422
 10
217.8828248494
 20
193.4810282045
 10
218.177636843
 20
194.0129307388
 10
218.4951100449
 20
194.5184487966
 10
218.8347951074
 20
194.9968668736
 10
219.1962112441
 20
195.4475078226
 10
219.578846911
 20
195.8697338116
 10
219.98216053
 20
196.2629472269
 10
220.4055812558
 20
196.6265915191
 10
220.8485097838
 20
196.9601519901
 10
221.3103191982
 20
197.2631565226
 10
221.7903558593
 20
197.5351762473
 10
222.2879403289
 20
197.775826151
 10
222.8023683319
 20
197.9847656204
 10
223.332911753
 20
198.1616989252
 10
223.8788196672
 20
198.3063756361
 10
224.439319403
 20
198.4185909793
 10
225.0136176356
 20
198.4981861267
 10
225.6009015102
 20
198.54504842
 10
226.2003397921
 20
198.5591115311
 10
226.8110840434
 20
198.5403555551
 10
227.4322698239
 20
198.4888070391
 10
228.0630179147
 20
198.4045389442
 10
228.7024355623
 20
198.2876705424
 10
229.3496177425
 20
198.1383672479
 10
230.0036484414
 20
197.9568403829
 10
230.6636019517
 20
197.7433468783
 10
231.3285441828
 20
197.4981889103
 10
231.9975339836
 20
197.2217134726
 10
232.6696244737
 20
196.9143118853
 10
233.3438643841
 20
196.5764192408
 10
234.0192994038
 20
196.2085137886
 10
234.6949735298
 20
195.8111162575
 10
235.3699304212
 20
195.3847891195
 10
236.0432147518
 20
194.9301357927
 10
236.7138735631
 20
194.4477997883
 10
237.3809576123
 20
193.9384637989
 10
238.0435227168
 20
193.4028487326
 10
238.7006310896
 20
192.8417126926
 10
239.3513526673
 20
192.2558499043
 10
239.9947664263
 20
191.646089591
 10
240.6299616864
 20
191.0132948
 10
241.2560393997
 20
190.3583611819
 10
241.8721134233
 20
189.6822157217
 10
242.4773117732
 20
188.9858154279
 10
243.0707778588
 20
188.2701459772
 10
243.6516716953
 20
187.5362203195
 10
244.2191710924
 20
186.7850772448
 10
244.7724728181
 20
186.0177799118
 10
245.3107937358
 20
185.2354143444
 10
245.8333719124
 20
184.4390878933
 10
246.3394676969
 20
183.6299276697
 10
246.8283647673
 20
182.8090789493
 10
247.2993711445
 20
181.9777035518
 10
247.7518201716
 20
181.136978196
 10
248.1850714577
 20
180.2880928347
 10
248.5985117839
 20
179.4322489702
 10
248.9915559718
 20
178.5706579538
 10
249.3636477112
 20
177.7045392711
 10
249.7142603479
 20
176.8351188164
 10
250.0428976289
 20
175.963627157
 10
250.3490944048
 20
175.0912977921
 10
250.6324172885
 20
174.2193654061
 10
250.892465268
 20
173.349064122
 10
251.1288702745
 20
172.4816257538
 10
251.3412977031
 20
171.6182780636
 10
251.5294468866
 20
170.7602430235
 10
251.6930515209
 20
169.9087350862
 10
251.8318800418
 20
169.0649594658
 10
251.9457359532
 20
168.2301104325
 10
252.0344581046
 20
167.4053696217
 10
252.0979209199
 20
166.5919043618
 10
252.1360345746
 20
165.7908660218
 10
252.1487451229
 20
165.0033883821
 10
252.1487451229
 20
165.0033883821
  0
LWPOLYLINE
  5
E6
330
1F
100
AcDbEntity
  8
0
  6
Continuous
 62
     7
370
     0
100
AcDbPolyline
 90
      167
 70
   128
 43
0.0
 10
251.8750995129
 20
165.0084090672
 10
251.8623364958
 20
165.7944455015
 10
251.8240657274
 20
166.594091812
 10
251.7603420301
 20
167.4062025131
 10
251.6712566876
 20
168.2296142641
 10
251.5569373138
 20
169.0631475356
 10
251.41754767
 20
169.9056082992
 10
251.2532874306
 20
170.755789738
 10
251.0643918967
 20
171.6124739752
 10
250.8511316596
 20
172.474433819
 10
250.6138122122
 20
173.3404345201
 10
250.3527735126
 20
174.2092355409
 10
250.068389496
 20
175.0795923323
 10
249.7610675399
 20
175.9502581166
 10
249.4312478801
 20
176.8199856734
 10
249.0794029799
 20
177.6875291265
 10
248.7060368538
 20
178.551645728
 10
248.3116843453
 20
179.4110976394
 10
247.8969103604
 20
180.2646537041
 10
247.462309059
 20
181.1110912112
 10
247.0085030031
 20
181.9491976471
 10
246.5361422656
 20
182.7777724324
 10
246.0459034988
 20
183.5956286418
 10
245.5384889648
 20
184.4015947041
 10
245.0146255302
 20
185.1945160807
 10
244.4750636242
 20
185.9732569193
 10
243.9205761642
 20
186.7367016812
 10
243.351957448
 20
187.4837567392
 10
242.7700220165
 20
188.213351944
 10
242.1756034865
 20
188.9244421576
 10
241.569553357
 20
189.61600875
 10
240.9527397888
 20
190.2870610588
 10
240.3260463615
 20
190.936637808
 10
239.6903708074
 20
191.5638084853
 10
239.0466237255
 20
192.1676746745
 10
238.3957272774
 20
192.7473713433
 10
237.738613866
 20
193.3020680817
 10
237.0762247998
 20
193.8309702921
 10
236.4095089449
 20
194.333320327
 10
235.7394213653
 20
194.8083985749
 10
235.066921955
 20
195.2555244907
 10
234.3929740628
 20
195.674057571
 10
233.7185431128
 20
196.0633982711
 10
233.0445952207
 20
196.4229888643
 10
232.3720958104
 20
196.7523142403
 10
231.7020082307
 20
197.0509026439
 10
231.0352923758
 20
197.31832635
 10
230.3729033097
 20
197.5542022767
 10
229.7157898982
 20
197.758192534
 10
229.0648934501
 20
197.9300049079
 10
228.4211463683
 20
198.0693932787
 10
227.7854708141
 20
198.176157974
 10
227.1587773868
 20
198.2501460545
 10
226.5419638187
 20
198.2912515327
 10
225.9359136891
 20
198.2994155257
 10
225.3414951592
 20
198.2746263385
 10
224.7595597277
 20
198.2169194813
 10
224.1909410115
 20
198.1263776188
 10
223.6364535514
 20
198.0031304513
 10
223.0968916455
 20
197.8473545291
 10
222.5730282109
 20
197.6592729997
 10
222.0656136769
 20
197.4391552882
 10
221.57537491
 20
197.187316711
 10
221.1030141726
 20
196.9041180245
 10
220.6492081167
 20
196.589964908
 10
220.2146068152
 20
196.245307383
 10
219.7998328304
 20
195.8706391678
 10
219.4054803218
 20
195.4664969712
 10
219.0321141958
 20
195.033459723
 10
218.6802692956
 20
194.5721477449
 10
218.3504496357
 20
194.0832218617
 10
218.0431276796
 20
193.5673824552
 10
217.7587436631
 20
193.0253684604
 10
217.4977049634
 20
192.4579563069
 10
217.2603855161
 20
191.8659588074
 10
217.0471252789
 20
191.2502239924
 10
216.8582297451
 20
190.6116338963
 10
216.6939695057
 20
189.9511032931
 10
216.5545798619
 20
189.2695783866
 10
216.4402604881
 20
188.5680354546
 10
216.3511751456
 20
187.8474794507
 10
216.2874514483
 20
187.1089425644
 10
216.2491806798
 20
186.3534827426
 10
216.2364176627
 20
185.5821821743
 10
216.2491806798
 20
184.7961457401
 10
216.2874514483
 20
183.9964994296
 10
216.3511751456
 20
183.1843887284
 10
216.4402604881
 20
182.3609769774
 10
216.5545798619
 20
181.5274437059
 10
216.6939695057
 20
180.6849829423
 10
216.8582297451
 20
179.8348015035
 10
217.0471252789
 20
178.9781172663
 10
217.2603855161
 20
178.1161574225
 10
217.4977049634
 20
177.2501567214
 10
217.7587436631
 20
176.3813557006
 10
218.0431276796
 20
175.5109989092
 10
218.3504496357
 20
174.6403331249
 10
218.6802692956
 20
173.7706055681
 10
219.0321141958
 20
172.903062115
 10
219.4054803218
 20
172.0389455135
 10
219.7998328304
 20
171.1794936021
 10
220.2146068152
 20
170.3259375374
 10
220.6492081167
 20
169.4795000303
 10
221.1030141726
 20
168.6413935944
 10
221.57537491
 20
167.8128188091
 10
222.0656136769
 20
166.9949625997
 10
222.5730282109
 20
166.1889965374
 10
223.0968916455
 20
165.3960751608
 10
223.6364535514
 20
164.6173343222
 10
224.1909410115
 20
163.8538895603
 10
224.7595597277
 20
163.1068345023
 10
225.3414951592
 20
162.3772392975
 10
225.9359136891
 20
161.666149084
 10
226.5419638187
 20
160.9745824915
 10
227.1587773868
 20
160.3035301827
 10
227.7854708141
 20
159.6539534335
 10
228.4211463683
 20
159.0267827562
 10
229.0648934501
 20
158.422916567
 10
229.7157898982
 20
157.8432198982
 10
230.3729033097
 20
157.2885231598
 10
231.0352923758
 20
156.7596209495
 10
231.7020082307
 20
156.2572709145
 10
232.3720958104
 20
155.7821926666
 10
233.0445952207
 20
155.3350667508
 10
233.7185431128
 20
154.9165336705
 10
234.3929740628
 20
154.5271929704
 10
235.066921955
 20
154.1676023772
 10
235.7394213653
 20
153.8382770012
 10
236.4095089449
 20
153.5396885976
 10
237.0762247998
 20
153.2722648915
 10
237.738613866
 20
153.0363889648
 10
238.3957272774
 20
152.8323987075
 10
239.0466237255
 20
152.6605863337
 10
239.6903708074
 20
152.5211979628
 10
240.3260463615
 20
152.4144332675
 10
240.9527397888
 20
152.3404451871
 10
241.569553357
 20
152.2993397088
 10
242.1756034865
 20
152.2911757158
 10
242.7700220165
 20
152.315964903
 10
243.351957448
 20
152.3736717602
 10
243.9205761642
 20
152.4642136227
 10
244.4750636242
 20
152.5874607902
 10
245.0146255302
 20
152.7432367124
 10
245.5384889648
 20
152.9313182418
 10
246.0459034988
 20
153.1514359533
 10
246.5361422656
 20
153.4032745305
 10
247.0085030031
 20
153.686473217
 10
247.462309059
 20
154.0006263335
 10
247.8969103604
 20
154.3452838586
 10
248.3116843453
 20
154.7199520737
 10
248.7060368538
 20
155.1240942703
 10
249.0794029799
 20
155.5571315185
 10
249.4312478801
 20
156.0184434966
 10
249.7610675399
 20
156.5073693798
 10
250.068389496
 20
157.0232087863
 10
250.3527735126
 20
157.5652227811
 10
250.6138122122
 20
158.1326349346
 10
250.8511316596
 20
158.7246324341
 10
251.0643918967
 20
159.3403672491
 10
251.2532874306
 20
159.9789573452
 10
251.41754767
 20
160.6394879484
 10
251.5569373138
 20
161.3210128549
 10
251.6712566876
 20
162.0225557869
 10
251.7603420301
 20
162.7431117908
 10
251.8240657274
 20
163.4816486771
 10
251.8623364958
 20
164.2371084989
 10
251.8750995129
 20
165.0084090672
  0
LWPOLYLINE
  5
E7
330
1F
100
AcDbEntity
  8
0
  6
Continuous
 62
     7
370
     0
100
AcDbPolyline
 90
       86
 70
   128
 43
0.0
 10
253.5391413729
 20
157.2142138605
 10
253.718087151
 20
157.3204698447
 10
254.1798965653
 20
157.6234743771
 10
254.6228250933
 20
157.9570348482
 10
255.0462458192
 20
158.3206791403
 10
255.4495594382
 20
158.7138925557
 10
255.8321951051
 20
159.1361185447
 10
256.1936112418
 20
159.5867594936
 10
256.5332963042
 20
160.0651775706
 10
256.8507695062
 20
160.5706956284
 10
257.1455814998
 20
161.1025981627
 10
257.4173150117
 20
161.660132325
 10
257.6655854334
 20
162.242508988
 10
257.890041366
 20
162.8489038626
 10
258.0903651172
 20
163.4784586647
 10
258.2662731511
 20
164.1302823299
 10
258.4175164896
 20
164.8034522747
 10
258.5438810646
 20
165.4970157022
 10
258.6451880211
 20
166.2099909511
 10
258.7212939707
 20
166.9413688846
 10
258.7720911936
 20
167.690114319
 10
258.7975077923
 20
168.4551674889
 10
258.7975077923
 20
169.2354455471
 10
258.7720911936
 20
170.0298440971
 10
258.7212939707
 20
170.8372387568
 10
258.6451880211
 20
171.6564867493
 10
258.5438810646
 20
172.4864285205
 10
258.4175164896
 20
173.3258893809
 10
258.2662731511
 20
174.1736811673
 10
258.0903651172
 20
175.0286039254
 10
257.890041366
 20
175.8894476075
 10
257.6655854334
 20
176.7549937857
 10
257.4173150117
 20
177.6240173761
 10
257.1455814998
 20
178.4952883732
 10
256.8507695062
 20
179.36757359
 10
256.5332963042
 20
180.2396384046
 10
256.1936112418
 20
181.1102485067
 10
255.8321951051
 20
181.978171645
 10
255.4495594382
 20
182.8421793714
 10
255.0462458192
 20
183.7010487795
 10
254.6228250933
 20
184.5535642358
 10
254.1798965653
 20
185.3985190999
 10
253.718087151
 20
186.2347174328
 10
253.2380504899
 20
187.0609756892
 10
252.7404660203
 20
187.8761243929
 10
252.2260380172
 20
188.6790097922
 10
251.6954945962
 20
189.4684954924
 10
251.149586682
 20
190.2434640649
 10
250.5890869462
 20
191.0028186283
 10
250.0147887135
 20
191.7454844012
 10
249.4275048389
 20
192.4704102232
 10
248.8280665571
 20
193.1765700428
 10
248.2173223058
 20
193.8629643698
 10
247.5961365253
 20
194.5286216898
 10
246.9653884345
 20
195.1725998393
 10
246.3259707869
 20
195.7939873392
 10
245.6787886067
 20
196.3919046851
 10
245.0247579077
 20
196.9655055917
 10
244.3648043975
 20
197.5139781911
 10
243.6998621663
 20
198.0365461817
 10
243.0308723656
 20
198.532469927
 10
242.3587818755
 20
199.0010475023
 10
241.684541965
 20
199.4416156885
 10
241.0091069454
 20
199.8535509105
 10
240.3334328193
 20
200.2362701202
 10
239.658475928
 20
200.5892316212
 10
238.9851915973
 20
200.9119358362
 10
238.3145327861
 20
201.2039260132
 10
237.6474487368
 20
201.4647888729
 10
236.9848836324
 20
201.6941551931
 10
236.3277752596
 20
201.8917003314
 10
235.6770536819
 20
202.0571446847
 10
235.0336399229
 20
202.190254085
 10
234.3984446628
 20
202.290840131
 10
233.7723669494
 20
202.3587604543
 10
233.1562929259
 20
202.3939189212
 10
232.551094576
 20
202.3962657689
 10
231.9576284904
 20
202.3657976756
 10
231.3767346539
 20
202.3025577657
 10
230.8092352568
 20
202.206635548
 10
230.255933531
 20
202.0781667898
 10
229.7176126133
 20
201.9173333242
 10
229.1950344368
 20
201.7243627931
 10
228.6889386523
 20
201.4995283245
 10
228.2000415819
 20
201.2431481466
 10
228.1412055639
 20
201.2094960695
  0
ARC
  5
E8
330
1F
100
AcDbEntity
  8
0
  6
Continuous
 62
     7
370
     0
100
AcDbCircle
 10
220.1911772737
 20
167.2914431949
 30
0.0
 40
38.64759282808912
100
AcDbArc
 50
2.5438153591
 51
57.4508081082
  0
SPLINE
  5
E9
330
1F
100
AcDbEntity
  8
0
  6
Continuous
 62
     7
370
     0
100
AcDbSpline
210
0.0
220
0.0
230
1.0
 70
     8
 71
     3
 72
    15
 73
    11
 74
     0
 42
0.00000001
 43
0.00000001
 40
0.0
 40
0.0
 40
0.0
 40
0.0
 40
0.1426572507006123
 40
0.2811689939054435
 40
0.416977192367973
 40
0.5508524927475571
 40
0.6783641702618121
 40
0.795032443007094
 40
0.9019981783473521
 40
1.0
 40
1.0
 40
1.0
 40
1.0
 10
237.8652489977551
 20
105.1558986524862
 30
0.0
 10
237.8981653936744
 20
105.1728506622847
 30
0.0
 10
237.9630416609383
 20
105.2062620698108
 30
0.0
 10
238.0546977977999
 20
105.2639681636784
 30
0.0
 10
238.1402686611295
 20
105.3265239449455
 30
0.0
 10
238.2183377143614
 20
105.3939155637456
 30
0.0
 10
238.288321645921
 20
105.4628018957689
 30
0.0
 10
238.3472981213365
 20
105.5323109105993
 30
0.0
 10
238.3966458830562
 20
105.5998947080134
 30
0.0
 10
238.4214045899594
 20
105.6470269117114
 30
0.0
 10
238.4332425530687
 20
105.6695623894654
 30
0.0
  0
LINE
  5
EA
330
1F
100
AcDbEntity
  8
0
  6
Continuous
 62
     7
370
     0
100
AcDbLine
 10
237.8652489978
 20
104.9130608281
 30
0.0
 11
237.8652489978
 21
105.1558986525
 31
0.0
  0
SPLINE
  5
EB
330
1F
100
AcDbEntity
  8
0
  6
Continuous
 62
     7
370
     0
100
AcDbSpline
210
0.0
220
0.0
230
1.0
 70
     8
 71
     3
 72
    15
 73
    11
 74
     0
 42
0.00000001
 43
0.00000001
 40
0.0
 40
0.0
 40
0.0
 40
0.0
 40
0.111670300101588
 40
0.2320944808560175
 40
0.3627434591045548
 40
0.5025575097108851
 40
0.6415251033312812
 40
0.7710984952996689
 40
0.890161757373254
 40
1.0
 40
1.0
 40
1.0
 40
1.0
 10
238.3394001395821
 20
105.2159907242803
 30
0.0
 10
238.3242325480838
 20
105.2013634483803
 30
0.0
 10
238.2927083713653
 20
105.1709622584197
 30
0.0
 10
238.2394200808822
 20
105.1279369831612
 30
0.0
 10
238.1799435385291
 20
105.0843290429119
 30
0.0
 10
238.1150510850536
 20
105.0423951332132
 30
0.0
 10
238.0489042064557
 20
105.0029188794369
 30
0.0
 10
237.9849817644678
 20
104.9674160582871
 30
0.0
 10
237.9243509714839
 20
104.9373720576029
 30
0.0
 10
237.8844131406742
 20
104.9209438791702
 30
0.0
 10
237.8652489977551
 20
104.9130608281131
 30
0.0
  0
LINE
  5
EC
330
1F
100
AcDbEntity
  8
0
  6
Continuous
 62
     7
370
     0
100
AcDbLine
 10
238.3394001396
 20
103.6149074415
 30
0.0
 11
238.3394001396
 21
105.2159907243
 31
0.0
  0
LINE
  5
ED
330
1F
100
AcDbEntity
  8
0
  6
Continuous
 62
     7
370
     0
100
AcDbLine
 10
238.6028174406
 20
103.6149074415
 30
0.0
 11
238.3394001396
 21
103.6149074415
 31
0.0
  0
LINE
  5
EE
330
1F
100
AcDbEntity
  8
0
  6
Continuous
 62
     7
370
     0
100
AcDbLine
 10
238.6028174406
 20
105.6695623895
 30
0.0
 11
238.6028174406
 21
103.6149074415
 31
0.0
  0
LINE
  5
EF
330
1F
100
AcDbEntity
  8
0
  6
Continuous
 62
     7
370
     0
100
AcDbLine
 10
238.4332425531
 20
105.6695623895
 30
0.0
 11
238.6028174406
 21
105.6695623895
 31
0.0
  0
LINE
  5
F0
330
1F
100
AcDbEntity
  8
0
  6
Continuous
 62
     7
370
     0
100
AcDbLine
 10
234.6433261347
 20
103.6149074415
 30
0.0
 11
234.0983815932
 21
105.3534616282
 31
0.0
  0
LINE
  5
F1
330
1F
100
AcDbEntity
  8
0
  6
Continuous
 62
     7
370
     0
100
AcDbLine
 10
234.9462560309
 20
103.6149074415
 30
0.0
 11
234.6433261347
 21
103.6149074415
 31
0.0
  0
LINE
  5
F2
330
1F
100
AcDbEntity
  8
0
  6
Continuous
 62
     7
370
     0
100
AcDbLine
 10
235.4944932886
 20
105.3534616282
 30
0.0
 11
234.9462560309
 21
103.6149074415
 31
0.0
  0
LINE
  5
F3
330
1F
100
AcDbEntity
  8
0
  6
Continuous
 62
     7
370
     0
100
AcDbLine
 10
235.4944932886
 20
103.6149074415
 30
0.0
 11
235.4944932886
 21
105.3534616282
 31
0.0
  0
LINE
  5
F4
330
1F
100
AcDbEntity
  8
0
  6
Continuous
 62
     7
370
     0
100
AcDbLine
 10
235.7842523197
 20
103.6149074415
 30
0.0
 11
235.4944932886
 21
103.6149074415
 31
0.0
  0
LINE
  5
F5
330
1F
100
AcDbEntity
  8
0
  6
Continuous
 62
     7
370
     0
100
AcDbLine
 10
235.7842523197
 20
105.6695623895
 30
0.0
 11
235.7842523197
 21
103.6149074415
 31
0.0
  0
LINE
  5
F6
330
1F
100
AcDbEntity
  8
0
  6
Continuous
 62
     7
370
     0
100
AcDbLine
 10
235.3520833103
 20
105.6695623895
 30
0.0
 11
235.7842523197
 21
105.6695623895
 31
0.0
  0
LINE
  5
F7
330
1F
100
AcDbEntity
  8
0
  6
Continuous
 62
     7
370
     0
100
AcDbLine
 10
234.8972768765
 20
104.2524596279
 30
0.0
 11
235.3520833103
 21
105.6695623895
 31
0.0
  0
SPLINE
  5
F8
330
1F
100
AcDbEntity
  8
0
  6
Continuous
 62
     7
370
     0
100
AcDbSpline
210
0.0
220
0.0
230
1.0
 70
     8
 71
     3
 72
    15
 73
    11
 74
     0
 42
0.00000001
 43
0.00000001
 40
0.0
 40
0.0
 40
0.0
 40
0.0
 40
0.0892047702332444
 40
0.1898334556643479
 40
0.2992325919749808
 40
0.4192609378429066
 40
0.5492073901909382
 40
0.6890743636843489
 40
0.8395791979483183
 40
1.0
 40
1.0
 40
1.0
 40
1.0
 10
234.7964374409309
 20
103.9260691283727
 30
0.0
 10
234.7993057784975
 20
103.9358139167445
 30
0.0
 10
234.8054097842681
 20
103.956551449575
 30
0.0
 10
234.8153053533761
 20
103.9891576651375
 30
0.0
 10
234.8258345206478
 20
104.0252401116894
 30
0.0
 10
234.8384347064517
 20
104.0641785908173
 30
0.0
 10
234.8515689089236
 20
104.1065839250361
 30
0.0
 10
234.8653549637757
 20
104.1524208980855
 30
0.0
 10
234.8812569095863
 20
104.2012318827609
 30
0.0
 10
234.8918245473012
 20
104.2350244776793
 30
0.0
 10
234.8972768764757
 20
104.2524596279115
 30
0.0
  0
SPLINE
  5
F9
330
1F
100
AcDbEntity
  8
0
  6
Continuous
 62
     7
370
     0
100
AcDbSpline
210
0.0
220
0.0
230
1.0
 70
     8
 71
     3
 72
    15
 73
    11
 74
     0
 42
0.00000001
 43
0.00000001
 40
0.0
 40
0.0
 40
0.0
 40
0.0
 40
0.1625255217041867
 40
0.314314898039237
 40
0.4549784905465734
 40
0.5845192373661994
 40
0.704567103309073
 40
0.8134949897289289
 40
0.9116812596826063
 40
1.0
 40
1.0
 40
1.0
 40
1.0
 10
234.7038297960428
 20
104.2277642559414
 30
0.0
 10
234.7088847853448
 20
104.2114311957676
 30
0.0
 10
234.7186608403936
 20
104.1798440081717
 30
0.0
 10
234.733157570184
 20
104.134229202754
 30
0.0
 10
234.7463471639799
 20
104.0918404657087
 30
0.0
 10
234.7582264701093
 20
104.0525428714497
 30
0.0
 10
234.7694371247814
 20
104.016531530736
 30
0.0
 10
234.7791437853009
 20
103.9835109439565
 30
0.0
 10
234.7884236685507
 20
103.9538480432359
 30
0.0
 10
234.7938620948035
 20
103.9349962999248
 30
0.0
 10
234.7964374409309
 20
103.9260691283727
 30
0.0
  0
LINE
  5
FA
330
1F
100
AcDbEntity
  8
0
  6
Continuous
 62
     7
370
     0
100
AcDbLine
 10
234.2444958774
 20
105.6695623895
 30
0.0
 11
234.703829796
 21
104.2277642559
 31
0.0
  0
LINE
  5
FB
330
1F
100
AcDbEntity
  8
0
  6
Continuous
 62
     7
370
     0
100
AcDbLine
 10
233.8086225621
 20
105.6695623895
 30
0.0
 11
234.2444958774
 21
105.6695623895
 31
0.0
  0
LINE
  5
FC
330
1F
100
AcDbEntity
  8
0
  6
Continuous
 62
     7
370
     0
100
AcDbLine
 10
233.8086225621
 20
103.6149074415
 30
0.0
 11
233.8086225621
 21
105.6695623895
 31
0.0
  0
LINE
  5
FD
330
1F
100
AcDbEntity
  8
0
  6
Continuous
 62
     7
370
     0
100
AcDbLine
 10
234.0983815932
 20
103.6149074415
 30
0.0
 11
233.8086225621
 21
103.6149074415
 31
0.0
  0
LINE
  5
FE
330
1F
100
AcDbEntity
  8
0
  6
Continuous
 62
     7
370
     0
100
AcDbLine
 10
234.0983815932
 20
105.3534616282
 30
0.0
 11
234.0983815932
 21
103.6149074415
 31
0.0
  0
SPLINE
  5
FF
330
1F
100
AcDbEntity
  8
0
  6
Continuous
 62
     7
370
     0
100
AcDbSpline
210
0.0
220
0.0
230
1.0
 70
     8
 71
     3
 72
    31
 73
    27
 74
     0
 42
0.00000001
 43
0.00000001
 40
0.0
 40
0.0
 40
0.0
 40
0.0
 40
0.0628739462114324
 40
0.1228366299919129
 40
0.1796565674430314
 40
0.233960012230862
 40
0.285595018695559
 40
0.3345131060783805
 40
0.3809048259061763
 40
0.4248945919393346
 40
0.4665290347654874
 40
0.5064882940692463
 40
0.5450315536447542
 40
0.5818311798231344
 40
0.617448279949443
 40
0.652066912769046
 40
0.6858797142465105
 40
0.7191745547913923
 40
0.7521816462063928
 40
0.7852401639180908
 40
0.8186564497770833
 40
0.8525477406533113
 40
0.8876263422585189
 40
0.923635078068751
 40
0.9610218444769891
 40
1.0
 40
1.0
 40
1.0
 40
1.0
 10
232.5442195172531
 20
104.6282408713907
 30
0.0
 10
232.5439491530171
 20
104.5990158880477
 30
0.0
 10
232.5434209432637
 20
104.54191913046
 30
0.0
 10
232.5402832269873
 20
104.4584470195812
 30
0.0
 10
232.5343150075104
 20
104.3791391502986
 30
0.0
 10
232.5269710044046
 20
104.3038138513581
 30
0.0
 10
232.5158610659882
 20
104.2326722058562
 30
0.0
 10
232.503889505398
 20
104.1654119517625
 30
0.0
 10
232.4890836420727
 20
104.1023385098662
 30
0.0
 10
232.4718086756236
 20
104.0434242367033
 30
0.0
 10
232.4523531406837
 20
103.9883576148136
 30
0.0
 10
232.4310171360427
 20
103.9367224812803
 30
0.0
 10
232.4073854622391
 20
103.8885541190409
 30
0.0
 10
232.3807547514077
 20
103.8443223381409
 30
0.0
 10
232.3523434792087
 20
103.8034400357428
 30
0.0
 10
232.3219435632801
 20
103.7657538531401
 30
0.0
 10
232.2889104898147
 20
103.7318062034313
 30
0.0
 10
232.2532776376421
 20
103.7017876310138
 30
0.0
 10
232.2157673673209
 20
103.6747471274595
 30
0.0
 10
232.1756335099555
 20
103.6515946463969
 30
0.0
 10
232.1330517251845
 20
103.632413217976
 30
0.0
 10
232.0883065183083
 20
103.6160140496377
 30
0.0
 10
232.0409438846512
 20
103.6039977009411
 30
0.0
 10
231.9913373215344
 20
103.5947993737825
 30
0.0
 10
231.9393040521562
 20
103.5893827326346
 30
0.0
 10
231.9037988281616
 20
103.5888418093251
 30
0.0
 10
231.8856762647156
 20
103.5885657114473
 30
0.0
  0
SPLINE
  5
100
330
1F
100
AcDbEntity
  8
0
  6
Continuous
 62
     7
370
     0
100
AcDbSpline
210
0.0
220
0.0
230
1.0
 70
     8
 71
     3
 72
    27
 73
    23
 74
     0
 42
0.00000001
 43
0.00000001
 40
0.0
 40
0.0
 40
0.0
 40
0.0
 40
0.0567243372181507
 40
0.1114372357370107
 40
0.1643678222229016
 40
0.21643537246209
 40
0.2676414903219248
 40
0.317359779969028
 40
0.3674730633322805
 40
0.4182103970528082
 40
0.4714042826470201
 40
0.5279657201290493
 40
0.5880611158232137
 40
0.6521342629937144
 40
0.6863448363353055
 40
0.7232636803169652
 40
0.7626102507715419
 40
0.8047389366452182
 40
0.84943033879095
 40
0.8967112583864923
 40
0.9468896380534765
 40
1.0
 40
1.0
 40
1.0
 40
1.0
 10
231.8856762647156
 20
105.6695623894654
 30
0.0
 10
231.912063453825
 20
105.6687866247806
 30
0.0
 10
231.9639021452478
 20
105.6672626039406
 30
0.0
 10
232.0395869024257
 20
105.6548329665152
 30
0.0
 10
232.110914908071
 20
105.6335701560077
 30
0.0
 10
232.1778398208977
 20
105.604885707361
 30
0.0
 10
232.2392175698892
 20
105.5684509367831
 30
0.0
 10
232.2940304867225
 20
105.5241589221345
 30
0.0
 10
232.3416873255512
 20
105.4724747208222
 30
0.0
 10
232.3816679857235
 20
105.4127858920077
 30
0.0
 10
232.4166150734418
 20
105.3467390521952
 30
0.0
 10
232.447661299017
 20
105.2740377588026
 30
0.0
 10
232.4757261851915
 20
105.1947634818391
 30
0.0
 10
232.4956416393752
 20
105.1238019371637
 30
0.0
 10
232.5098473164921
 20
105.0625454138685
 30
0.0
 10
232.5192503460583
 20
105.012022766288
 30
0.0
 10
232.5270567457127
 20
104.9575085451191
 30
0.0
 10
232.5330375028426
 20
104.8991346349376
 30
0.0
 10
232.5379445729544
 20
104.8369665072781
 30
0.0
 10
232.5417340783124
 20
104.7709654550749
 30
0.0
 10
232.5436576402866
 20
104.7009665199272
 30
0.0
 10
232.5440287137997
 20
104.6529372118981
 30
0.0
 10
232.5442195172531
 20
104.6282408713907
 30
0.0
  0
SPLINE
  5
101
330
1F
100
AcDbEntity
  8
0
  6
Continuous
 62
     7
370
     0
100
AcDbSpline
210
0.0
220
0.0
230
1.0
 70
     8
 71
     3
 72
    31
 73
    27
 74
     0
 42
0.00000001
 43
0.00000001
 40
0.0
 40
0.0
 40
0.0
 40
0.0
 40
0.0631144583947934
 40
0.1236146457694899
 40
0.1809737111859575
 40
0.2352614550083221
 40
0.2871007018338719
 40
0.3360307363034435
 40
0.3823823485850661
 40
0.4263340836597072
 40
0.4682106947981602
 40
0.5082496012618051
 40
0.546628336606585
 40
0.5836495392304462
 40
0.6189943150301618
 40
0.653583018620596
 40
0.6871561361903314
 40
0.7204221919788074
 40
0.7532302188118172
 40
0.7862601560778999
 40
0.8195039834988841
 40
0.8535452747120185
 40
0.8883082803397299
 40
0.9239958607406952
 40
0.961350304754645
 40
1.0
 40
1.0
 40
1.0
 40
1.0
 10
231.2271330121783
 20
104.6282408713907
 30
0.0
 10
231.2273984051666
 20
104.6576037765928
 30
0.0
 10
231.2279181982708
 20
104.715113342826
 30
0.0
 10
231.2311423060361
 20
104.7992601694722
 30
0.0
 10
231.236771336941
 20
104.8791709265116
 30
0.0
 10
231.2451739304436
 20
104.9547762151855
 30
0.0
 10
231.2551241753861
 20
105.0262466914879
 30
0.0
 10
231.2680595565848
 20
105.0934803596783
 30
0.0
 10
231.2826137409286
 20
105.1566280693228
 30
0.0
 10
231.3000761503519
 20
105.2156239991638
 30
0.0
 10
231.3192616216974
 20
105.2709754068041
 30
0.0
 10
231.3410281510155
 20
105.3225934960893
 30
0.0
 10
231.3655184492096
 20
105.3704235396955
 30
0.0
 10
231.3915289703455
 20
105.4149615620012
 30
0.0
 10
231.4204289615788
 20
105.4555148134603
 30
0.0
 10
231.4504740773879
 20
105.4932213843235
 30
0.0
 10
231.4838478173982
 20
105.5266984275092
 30
0.0
 10
231.5191624299088
 20
105.5568073103724
 30
0.0
 10
231.5569379317445
 20
105.5833766448451
 30
0.0
 10
231.596974452997
 20
105.6063027757785
 30
0.0
 10
231.6391179440239
 20
105.6265448963288
 30
0.0
 10
231.6841716131588
 20
105.6417831593909
 30
0.0
 10
231.7312001548896
 20
105.6542055741533
 30
0.0
 10
231.7805655705423
 20
105.6633436530744
 30
0.0
 10
231.8323222600434
 20
105.6687308589916
 30
0.0
 10
231.8676906820301
 20
105.6692820813576
 30
0.0
 10
231.8856762647156
 20
105.6695623894654
 30
0.0
  0
SPLINE
  5
102
330
1F
100
AcDbEntity
  8
0
  6
Continuous
 62
     7
370
     0
100
AcDbSpline
210
0.0
220
0.0
230
1.0
 70
     8
 71
     3
 72
    15
 73
    11
 74
     0
 42
0.00000001
 43
0.00000001
 40
0.0
 40
0.0
 40
0.0
 40
0.0
 40
0.0974206681772145
 40
0.2008855880393207
 40
0.3111719701726506
 40
0.429797945825373
 40
0.5577399263645872
 40
0.6947152693641585
 40
0.8421299102060552
 40
1.0
 40
1.0
 40
1.0
 40
1.0
 10
231.4267539356036
 20
103.7865402767413
 30
0.0
 10
231.410470178685
 20
103.8100298349893
 30
0.0
 10
231.3768923748648
 20
103.8584663096072
 30
0.0
 10
231.3375924668553
 20
103.94105499189
 30
0.0
 10
231.3025362531152
 20
104.0319735353897
 30
0.0
 10
231.2750235527033
 20
104.1330057511516
 30
0.0
 10
231.2534742499342
 20
104.24334753695
 30
0.0
 10
231.2379102731379
 20
104.3632154068729
 30
0.0
 10
231.2291025945293
 20
104.4925575740461
 30
0.0
 10
231.2278043603515
 20
104.5819921152718
 30
0.0
 10
231.2271330121783
 20
104.6282408713907
 30
0.0
  0
SPLINE
  5
103
330
1F
100
AcDbEntity
  8
0
  6
Continuous
 62
     7
370
     0
100
AcDbSpline
210
0.0
220
0.0
230
1.0
 70
     8
 71
     3
 72
    15
 73
    11
 74
     0
 42
0.00000001
 43
0.00000001
 40
0.0
 40
0.0
 40
0.0
 40
0.0
 40
0.1379032299933934
 40
0.2688733426002937
 40
0.3951781273461133
 40
0.5170892381308875
 40
0.6367430265135479
 40
0.756221816463797
 40
0.8766283594636795
 40
1.0
 40
1.0
 40
1.0
 40
1.0
 10
231.8856762647156
 20
103.5885657114473
 30
0.0
 10
231.8619154827779
 20
103.5892434890084
 30
0.0
 10
231.8155884978139
 20
103.5905649687042
 30
0.0
 10
231.7479313522284
 20
103.5995436092665
 30
0.0
 10
231.6844315123051
 20
103.6153464382193
 30
0.0
 10
231.6245533932588
 20
103.6365402601439
 30
0.0
 10
231.5689700415195
 20
103.6648882174246
 30
0.0
 10
231.5174160686844
 20
103.6993790429545
 30
0.0
 10
231.4688555348353
 20
103.7392102712487
 30
0.0
 10
231.4409011393495
 20
103.7706361960599
 30
0.0
 10
231.4267539356036
 20
103.7865402767413
 30
0.0
  0
SPLINE
  5
104
330
1F
100
AcDbEntity
  8
0
  6
Continuous
 62
     7
370
     0
100
AcDbSpline
210
0.0
220
0.0
230
1.0
 70
     8
 71
     3
 72
    23
 73
    19
 74
     0
 42
0.00000001
 43
0.00000001
 40
0.0
 40
0.0
 40
0.0
 40
0.0
 40
0.0579448754623256
 40
0.1160176254256826
 40
0.1748257843638405
 40
0.2346830900793709
 40
0.2968270303289143
 40
0.3640613359637881
 40
0.436192424049739
 40
0.5142601195414407
 40
0.5569758971654883
 40
0.6048559283836539
 40
0.6576752010734876
 40
0.7157505846619323
 40
0.7788397991664556
 40
0.847501189473863
 40
0.9212282309463236
 40
1.0
 40
1.0
 40
1.0
 40
1.0
 10
229.3305284448706
 20
105.1023920132176
 30
0.0
 10
229.3299621313716
 20
105.0820595582641
 30
0.0
 10
229.3288282546158
 20
105.0413497780815
 30
0.0
 10
229.3199781955095
 20
104.9805006626506
 30
0.0
 10
229.3048356455662
 20
104.9203118954837
 30
0.0
 10
229.2847606658569
 20
104.8600509432846
 30
0.0
 10
229.257334065348
 20
104.799478632856
 30
0.0
 10
229.2226852128485
 20
104.7377593676006
 30
0.0
 10
229.1796995252909
 20
104.6746651618266
 30
0.0
 10
229.1383593458569
 20
104.6210280771414
 30
0.0
 10
229.0998783483141
 20
104.5760666744134
 30
0.0
 10
229.0657685806679
 20
104.5390608130148
 30
0.0
 10
229.0263055535891
 20
104.4997445599044
 30
0.0
 10
228.9829696729913
 20
104.4567563023378
 30
0.0
 10
228.9339934932685
 20
104.4116217834527
 30
0.0
 10
228.8807842139972
 20
104.3629894239389
 30
0.0
 10
228.8221770588576
 20
104.3121390425414
 30
0.0
 10
228.7814922710928
 20
104.2774005028731
 30
0.0
 10
228.7604769418928
 20
104.2594566499697
 30
0.0
  0
SPLINE
  5
105
330
1F
100
AcDbEntity
  8
0
  6
Continuous
 62
     7
370
     0
100
AcDbSpline
210
0.0
220
0.0
230
1.0
 70
     8
 71
     3
 72
    23
 73
    19
 74
     0
 42
0.00000001
 43
0.00000001
 40
0.0
 40
0.0
 40
0.0
 40
0.0
 40
0.0747118903045011
 40
0.1455392023749086
 40
0.2133390572509725
 40
0.2786150735384709
 40
0.3420941969414983
 40
0.4038900759591959
 40
0.4650633525655206
 40
0.5265767363834861
 40
0.5873283340287676
 40
0.6463804557031434
 40
0.7043453083753259
 40
0.7616719489990784
 40
0.8194178590468651
 40
0.8780393997816818
 40
0.9377955090070548
 40
1.0
 40
1.0
 40
1.0
 40
1.0
 10
228.6983269224347
 20
105.6695623894654
 30
0.0
 10
228.7220860264628
 20
105.6691555417538
 30
0.0
 10
228.7683689010536
 20
105.6683630000153
 30
0.0
 10
228.8358104885492
 20
105.6602537067484
 30
0.0
 10
228.8994434902765
 20
105.6476235563797
 30
0.0
 10
228.9595011830801
 20
105.6300209936453
 30
0.0
 10
229.0156287377616
 20
105.606938784819
 30
0.0
 10
229.0678693293425
 20
105.5787375376505
 30
0.0
 10
229.1164638283344
 20
105.5456923473094
 30
0.0
 10
229.1606003202907
 20
105.5074065276915
 30
0.0
 10
229.2003993488978
 20
105.4656111422039
 30
0.0
 10
229.2352773289368
 20
105.4210064559463
 30
0.0
 10
229.2644369991874
 20
105.3737830209729
 30
0.0
 10
229.2892646480457
 20
105.3245845254372
 30
0.0
 10
229.3076802315084
 20
105.2723714371015
 30
0.0
 10
229.3206304091185
 20
105.217853602906
 30
0.0
 10
229.3294304304108
 20
105.1609844357458
 30
0.0
 10
229.3301575742016
 20
105.1221824729374
 30
0.0
 10
229.3305284448706
 20
105.1023920132176
 30
0.0
  0
SPLINE
  5
106
330
1F
100
AcDbEntity
  8
0
  6
Continuous
 62
     7
370
     0
100
AcDbSpline
210
0.0
220
0.0
230
1.0
 70
     8
 71
     3
 72
    23
 73
    19
 74
     0
 42
0.00000001
 43
0.00000001
 40
0.0
 40
0.0
 40
0.0
 40
0.0
 40
0.0706752902033302
 40
0.1374926938441251
 40
0.2014728253723049
 40
0.2628693217722904
 40
0.322550086526156
 40
0.3807372513385548
 40
0.4382197368560125
 40
0.4954874370602862
 40
0.5534836796953478
 40
0.6113462062294291
 40
0.6706437388141558
 40
0.7315869484227135
 40
0.7941831937999383
 40
0.8594451119347498
 40
0.92820763539981
 40
1.0
 40
1.0
 40
1.0
 40
1.0
 10
228.0397836698973
 20
105.0900443272325
 30
0.0
 10
228.0424788031006
 20
105.113001788664
 30
0.0
 10
228.047721952769
 20
105.1576635538574
 30
0.0
 10
228.0607819232923
 20
105.2223485980068
 30
0.0
 10
228.0791169400232
 20
105.2825242308325
 30
0.0
 10
228.1010563349781
 20
105.3390294271095
 30
0.0
 10
228.1285594336871
 20
105.3909022982336
 30
0.0
 10
228.1596493194031
 20
105.4392157763272
 30
0.0
 10
228.1963184052703
 20
105.4824375604424
 30
0.0
 10
228.2368280163493
 20
105.5219300631702
 30
0.0
 10
228.2816219798646
 20
105.556733349634
 30
0.0
 10
228.3302795258249
 20
105.587138852277
 30
0.0
 10
228.382778396716
 20
105.6125711779478
 30
0.0
 10
228.4388261922506
 20
105.6336280832837
 30
0.0
 10
228.4985515844748
 20
105.6496044873176
 30
0.0
 10
228.5618700815512
 20
105.6610610764747
 30
0.0
 10
228.6288835109681
 20
105.6681230490162
 30
0.0
 10
228.6748488380587
 20
105.6690757636531
 30
0.0
 10
228.6983269224347
 20
105.6695623894654
 30
0.0
  0
LINE
  5
107
330
1F
100
AcDbEntity
  8
0
  6
Continuous
 62
     7
370
     0
100
AcDbLine
 10
228.3032009709
 20
105.0637025971
 30
0.0
 11
228.0397836699
 21
105.0900443272
 31
0.0
  0
SPLINE
  5
108
330
1F
100
AcDbEntity
  8
0
  6
Continuous
 62
     7
370
     0
100
AcDbSpline
210
0.0
220
0.0
230
1.0
 70
     8
 71
     3
 72
    23
 73
    19
 74
     0
 42
0.00000001
 43
0.00000001
 40
0.0
 40
0.0
 40
0.0
 40
0.0
 40
0.0706964833433765
 40
0.1383582132030687
 40
0.20336986825917
 40
0.2657002133402299
 40
0.3272558681973766
 40
0.3865123433292945
 40
0.4458582974819498
 40
0.5051731438069392
 40
0.5637797628070206
 40
0.6223430642934399
 40
0.6808235796100197
 40
0.7397951568104401
 40
0.8008011629883836
 40
0.864239461576908
 40
0.9306310981734532
 40
1.0
 40
1.0
 40
1.0
 40
1.0
 10
228.6925646689749
 20
105.432486818552
 30
0.0
 10
228.6782827491169
 20
105.4321588233206
 30
0.0
 10
228.6503319824138
 20
105.4315169125492
 30
0.0
 10
228.6094754466906
 20
105.4268443314308
 30
0.0
 10
228.5706892480929
 20
105.4197052590563
 30
0.0
 10
228.5340659631422
 20
105.4087902283343
 30
0.0
 10
228.4996501670655
 20
105.3950399699992
 30
0.0
 10
228.4675820277992
 20
105.3777320567878
 30
0.0
 10
228.43734800096
 20
105.3581945532502
 30
0.0
 10
228.409900272341
 20
105.33506362289
 30
0.0
 10
228.3850796513372
 20
105.3094161394742
 30
0.0
 10
228.3630447181774
 20
105.2814937880904
 30
0.0
 10
228.3449904012385
 20
105.2507577257382
 30
0.0
 10
228.3300804021497
 20
105.2178837692426
 30
0.0
 10
228.3180915146148
 20
105.1827685754151
 30
0.0
 10
228.3093879899741
 20
105.1451436956541
 30
0.0
 10
228.3046427700133
 20
105.1051177664519
 30
0.0
 10
228.3036885460754
 20
105.0777080212732
 30
0.0
 10
228.3032009709122
 20
105.063702597131
 30
0.0
  0
SPLINE
  5
109
330
1F
100
AcDbEntity
  8
0
  6
Continuous
 62
     7
370
     0
100
AcDbSpline
210
0.0
220
0.0
230
1.0
 70
     8
 71
     3
 72
    23
 73
    19
 74
     0
 42
0.00000001
 43
0.00000001
 40
0.0
 40
0.0
 40
0.0
 40
0.0
 40
0.061762156768071
 40
0.1211739926536296
 40
0.1794214068253156
 40
0.2368434346502754
 40
0.2943217954133984
 40
0.3531909627945248
 40
0.4127207064163249
 40
0.4745221507037176
 40
0.5370567441421369
 40
0.599591337580556
 40
0.6623669793543064
 40
0.7252456446794925
 40
0.7903164461250805
 40
0.8577243009540928
 40
0.927231952378493
 40
1.0
 40
1.0
 40
1.0
 40
1.0
 10
229.0671111438556
 20
105.0999224760206
 30
0.0
 10
229.0668251358167
 20
105.111469770663
 30
0.0
 10
229.0662640035988
 20
105.1341249347536
 30
0.0
 10
229.0609400088831
 20
105.1672806257638
 30
0.0
 10
229.0535285813011
 20
105.1992103483557
 30
0.0
 10
229.0415465586279
 20
105.2293392977665
 30
0.0
 10
229.0272843445419
 20
105.2585597090389
 30
0.0
 10
229.0089896125522
 20
105.2859482545572
 30
0.0
 10
228.987826368509
 20
105.3121875267093
 30
0.0
 10
228.9635962452196
 20
105.3365857196302
 30
0.0
 10
228.9371312763175
 20
105.3594751197964
 30
0.0
 10
228.9075604450219
 20
105.3785017717577
 30
0.0
 10
228.8768259554141
 20
105.3956314276963
 30
0.0
 10
228.8438674934361
 20
105.4094046536343
 30
0.0
 10
228.8087386148739
 20
105.4195185791476
 30
0.0
 10
228.7716950414783
 20
105.4268586843973
 30
0.0
 10
228.7327426513526
 20
105.4315127044824
 30
0.0
 10
228.7061603832438
 20
105.4321571908362
 30
0.0
 10
228.6925646689749
 20
105.432486818552
 30
0.0
  0
SPLINE
  5
10A
330
1F
100
AcDbEntity
  8
0
  6
Continuous
 62
     7
370
     0
100
AcDbSpline
210
0.0
220
0.0
230
1.0
 70
     8
 71
     3
 72
    23
 73
    19
 74
     0
 42
0.00000001
 43
0.00000001
 40
0.0
 40
0.0
 40
0.0
 40
0.0
 40
0.1114096600426609
 40
0.2145263672558013
 40
0.3094172254458342
 40
0.3960871907990314
 40
0.4742842164262461
 40
0.5443738816396977
 40
0.6064195628105363
 40
0.6605816023749734
 40
0.7097938180647575
 40
0.7564506485918284
 40
0.8007673253039324
 40
0.8431682879413349
 40
0.8842948685500487
 40
0.9238845020552847
 40
0.9623587101392161
 40
1.0
 40
1.0
 40
1.0
 40
1.0
 10
228.5147579907899
 20
104.3833450993533
 30
0.0
 10
228.5411954535343
 20
104.4055970825623
 30
0.0
 10
228.5921024650075
 20
104.4484446877003
 30
0.0
 10
228.6639911425675
 20
104.512026562583
 30
0.0
 10
228.7296497479315
 20
104.571065934808
 30
0.0
 10
228.7880327423011
 20
104.626597590102
 30
0.0
 10
228.8396176373141
 20
104.678082907309
 30
0.0
 10
228.8845255552075
 20
104.7254052396913
 30
0.0
 10
228.9231428975688
 20
104.7684169038724
 30
0.0
 10
228.9549982223426
 20
104.8086747398371
 30
0.0
 10
228.981875537308
 20
104.8466893347809
 30
0.0
 10
229.0046516878737
 20
104.8837702245973
 30
0.0
 10
229.0236325874166
 20
104.9205651312223
 30
0.0
 10
229.0394411370428
 20
104.956957625472
 30
0.0
 10
229.0519443565732
 20
104.9931033379052
 30
0.0
 10
229.060467079296
 20
105.0291075774802
 30
0.0
 10
229.0662468949941
 20
105.0646130946265
 30
0.0
 10
229.0668251702224
 20
105.0882388597239
 30
0.0
 10
229.0671111438556
 20
105.0999224760206
 30
0.0
  0
SPLINE
  5
10B
330
1F
100
AcDbEntity
  8
0
  6
Continuous
 62
     7
370
     0
100
AcDbSpline
210
0.0
220
0.0
230
1.0
 70
     8
 71
     3
 72
    19
 73
    15
 74
     0
 42
0.00000001
 43
0.00000001
 40
0.0
 40
0.0
 40
0.0
 40
0.0
 40
0.1003881431397113
 40
0.2044067930373089
 40
0.3106860830942075
 40
0.4221572938827998
 40
0.480685460770374
 40
0.5432381544526687
 40
0.6094995045645645
 40
0.6795546087742242
 40
0.753841222051175
 40
0.8316406764893858
 40
0.9138127068095903
 40
0.9999999999999999
 40
0.9999999999999999
 40
0.9999999999999999
 40
0.9999999999999999
 10
228.0410184384958
 20
103.7976531941279
 30
0.0
 10
228.0497354678063
 20
103.8217252316977
 30
0.0
 10
228.0674847751493
 20
103.8707398647772
 30
0.0
 10
228.1034450577474
 20
103.9414611354367
 30
0.0
 10
228.1457428480562
 20
104.0117546978447
 30
0.0
 10
228.186925700851
 20
104.0689835820681
 30
0.0
 10
228.2246403010043
 20
104.1147054596573
 30
0.0
 10
228.2562689092619
 20
104.1504775373968
 30
0.0
 10
228.2913192051811
 20
104.1870944744399
 30
0.0
 10
228.3297631190603
 20
104.2245495821244
 30
0.0
 10
228.3712306512758
 20
104.2630854420103
 30
0.0
 10
228.4157783840746
 20
104.3028305697333
 30
0.0
 10
228.4639323562001
 20
104.3430442713271
 30
0.0
 10
228.4975488684423
 20
104.369699585907
 30
0.0
 10
228.5147579907899
 20
104.3833450993533
 30
0.0
  0
SPLINE
  5
10C
330
1F
100
AcDbEntity
  8
0
  6
Continuous
 62
     7
370
     0
100
AcDbSpline
210
0.0
220
0.0
230
1.0
 70
     8
 71
     3
 72
    11
 73
     7
 74
     0
 42
0.00000001
 43
0.00000001
 40
0.0
 40
0.0
 40
0.0
 40
0.0
 40
0.2526433275832378
 40
0.504439852579989
 40
0.750406804281457
 40
1.0
 40
1.0
 40
1.0
 40
1.0
 10
228.0134419397957
 20
103.6149074415488
 30
0.0
 10
228.0134144362917
 20
103.6305630722967
 30
0.0
 10
228.0133595214689
 20
103.661821859703
 30
0.0
 10
228.0186490118225
 20
103.7080516233669
 30
0.0
 10
228.0269334127284
 20
103.7536681103482
 30
0.0
 10
228.0363005819292
 20
103.782920149278
 30
0.0
 10
228.0410184384958
 20
103.7976531941279
 30
0.0
  0
LINE
  5
10D
330
1F
100
AcDbEntity
  8
0
  6
Continuous
 62
     7
370
     0
100
AcDbLine
 10
229.356870175
 20
103.6149074415
 30
0.0
 11
228.0134419398
 21
103.6149074415
 31
0.0
  0
LINE
  5
10E
330
1F
100
AcDbEntity
  8
0
  6
Continuous
 62
     7
370
     0
100
AcDbLine
 10
229.356870175
 20
103.8783247426
 30
0.0
 11
229.356870175
 21
103.6149074415
 31
0.0
  0
LINE
  5
10F
330
1F
100
AcDbEntity
  8
0
  6
Continuous
 62
     7
370
     0
100
AcDbLine
 10
228.3517685358
 20
103.8783247426
 30
0.0
 11
229.356870175
 21
103.8783247426
 31
0.0
  0
SPLINE
  5
110
330
1F
100
AcDbEntity
  8
0
  6
Continuous
 62
     7
370
     0
100
AcDbSpline
210
0.0
220
0.0
230
1.0
 70
     8
 71
     3
 72
    17
 73
    13
 74
     0
 42
0.00000001
 43
0.00000001
 40
0.0
 40
0.0
 40
0.0
 40
0.0
 40
0.1241996726524869
 40
0.2368296581100271
 40
0.3394949853062825
 40
0.4312535100312251
 40
0.5114548721194184
 40
0.5812230366234586
 40
0.6404953748643705
 40
0.6883082049320186
 40
0.8503329734146889
 40
1.0
 40
1.0
 40
1.0
 40
1.0
 10
228.7604769418928
 20
104.2594566499697
 30
0.0
 10
228.7424804867076
 20
104.2448056170173
 30
0.0
 10
228.7081640168031
 20
104.2168683523614
 30
0.0
 10
228.6593421903281
 20
104.1763669513688
 30
0.0
 10
228.6156126833249
 20
104.1392282638485
 30
0.0
 10
228.5759528881574
 20
104.1066636837194
 30
0.0
 10
228.5418071885317
 20
104.0770981028358
 30
0.0
 10
228.5119728503916
 20
104.0518263645635
 30
0.0
 10
228.4875337714072
 20
104.0295778152487
 30
0.0
 10
228.4503173807688
 20
103.9957818199153
 30
0.0
 10
228.4031796467117
 20
103.947609044382
 30
0.0
 10
228.3684465480941
 20
103.9008009041878
 30
0.0
 10
228.3517685357868
 20
103.8783247425637
 30
0.0
  0
SPLINE
  5
111
330
1F
100
AcDbEntity
  8
0
  6
Continuous
 62
     7
370
     0
100
AcDbSpline
210
0.0
220
0.0
230
1.0
 70
     8
 71
     3
 72
    23
 73
    19
 74
     0
 42
0.00000001
 43
0.00000001
 40
0.0
 40
0.0
 40
0.0
 40
0.0
 40
0.0635999003471699
 40
0.1252966507935535
 40
0.1855687201945878
 40
0.2446982110006626
 40
0.3037168061899893
 40
0.3629196509481437
 40
0.4233003138688771
 40
0.4851773095450755
 40
0.5470834132243567
 40
0.608524799634247
 40
0.6699648532447271
 40
0.7322993779782991
 40
0.7956502934901155
 40
0.8610554709467161
 40
0.929122115173219
 40
1.0
 40
1.0
 40
1.0
 40
1.0
 10
226.85440581533
 20
104.2129470327593
 30
0.0
 10
226.85388232968
 20
104.191374766859
 30
0.0
 10
226.8528510230533
 20
104.1488757589585
 30
0.0
 10
226.8437896386294
 20
104.0864922028196
 30
0.0
 10
226.8300793628681
 20
104.0265642847228
 30
0.0
 10
226.8100881980179
 20
103.9693451623775
 30
0.0
 10
226.7845545136713
 20
103.9147943870077
 30
0.0
 10
226.752969037439
 20
103.8629911723002
 30
0.0
 10
226.7156421071671
 20
103.8139888072702
 30
0.0
 10
226.6736748026008
 20
103.7676349770708
 30
0.0
 10
226.6267553811591
 20
103.7257331221777
 30
0.0
 10
226.5759972583013
 20
103.6888083424861
 30
0.0
 10
226.5212099830356
 20
103.6578791315608
 30
0.0
 10
226.4630583123661
 20
103.6322698561108
 30
0.0
 10
226.401263796067
 20
103.6124227625787
 30
0.0
 10
226.3359058666956
 20
103.598525588987
 30
0.0
 10
226.2670062732142
 20
103.5902504336925
 30
0.0
 10
226.2198948652533
 20
103.5891348096053
 30
0.0
 10
226.1958625627926
 20
103.5885657114473
 30
0.0
  0
SPLINE
  5
112
330
1F
100
AcDbEntity
  8
0
  6
Continuous
 62
     7
370
     0
100
AcDbSpline
210
0.0
220
0.0
230
1.0
 70
     8
 71
     3
 72
    23
 73
    19
 74
     0
 42
0.00000001
 43
0.00000001
 40
0.0
 40
0.0
 40
0.0
 40
0.0
 40
0.0690130029109932
 40
0.1352355440560497
 40
0.1996111851157138
 40
0.2624185195032886
 40
0.3237234972102992
 40
0.3837653656042444
 40
0.4437730350956272
 40
0.5037949564977896
 40
0.5638225777168209
 40
0.6234843128834681
 40
0.6834691722744386
 40
0.7435907624559172
 40
0.8057272199738402
 40
0.8686162107352969
 40
0.933278202847215
 40
1.0
 40
1.0
 40
1.0
 40
1.0
 10
226.4708043707269
 20
104.7418395824534
 30
0.0
 10
226.4861433575578
 20
104.7366327232478
 30
0.0
 10
226.5162011168471
 20
104.7264295382278
 30
0.0
 10
226.5586938205889
 20
104.7065914021063
 30
0.0
 10
226.5986994239536
 20
104.6852011824747
 30
0.0
 10
226.6364435229532
 20
104.6620462567443
 30
0.0
 10
226.6705328898966
 20
104.6354046482494
 30
0.0
 10
226.7021048462083
 20
104.606851564907
 30
0.0
 10
226.731026649432
 20
104.5759846376267
 30
0.0
 10
226.7569032584421
 20
104.5425413399404
 30
0.0
 10
226.7800057996463
 20
104.5072235895329
 30
0.0
 10
226.7997834087556
 20
104.4699452801305
 30
0.0
 10
226.8165801523635
 20
104.4312370197074
 30
0.0
 10
226.8309352278723
 20
104.3909193107131
 30
0.0
 10
226.8414204758141
 20
104.3487081600314
 30
0.0
 10
226.8487568633072
 20
104.3047975502036
 30
0.0
 10
226.8534115943334
 20
104.259418905534
 30
0.0
 10
226.8540709625232
 20
104.2285987209557
 30
0.0
 10
226.85440581533
 20
104.2129470327593
 30
0.0
  0
SPLINE
  5
113
330
1F
100
AcDbEntity
  8
0
  6
Continuous
 62
     7
370
     0
100
AcDbSpline
210
0.0
220
0.0
230
1.0
 70
     8
 71
     3
 72
    15
 73
    11
 74
     0
 42
0.00000001
 43
0.00000001
 40
0.0
 40
0.0
 40
0.0
 40
0.0
 40
0.1248350921668871
 40
0.2447781332833286
 40
0.3609889778410595
 40
0.4779641722472781
 40
0.5969221175582977
 40
0.7215907566966706
 40
0.8550978657574203
 40
1.0
 40
1.0
 40
1.0
 40
1.0
 10
226.7753806250255
 20
105.1447857350997
 30
0.0
 10
226.774627801793
 20
105.1221989330508
 30
0.0
 10
226.773151657046
 20
105.0779104629867
 30
0.0
 10
226.7581090819202
 20
105.01406826526
 30
0.0
 10
226.7346639418523
 20
104.9544683738978
 30
0.0
 10
226.70077863977
 20
104.9002466592332
 30
0.0
 10
226.6578641649404
 20
104.8508431324414
 30
0.0
 10
226.6046107242348
 20
104.8078961048398
 30
0.0
 10
226.5418270675178
 20
104.7704366919687
 30
0.0
 10
226.4951158844035
 20
104.7516285520435
 30
0.0
 10
226.4708043707269
 20
104.7418395824534
 30
0.0
  0
SPLINE
  5
114
330
1F
100
AcDbEntity
  8
0
  6
Continuous
 62
     7
370
     0
100
AcDbSpline
210
0.0
220
0.0
230
1.0
 70
     8
 71
     3
 72
    23
 73
    19
 74
     0
 42
0.00000001
 43
0.00000001
 40
0.0
 40
0.0
 40
0.0
 40
0.0
 40
0.0732007449685411
 40
0.1425867913224127
 40
0.2096247814680876
 40
0.2748829267682081
 40
0.3379306095315751
 40
0.4004618221882001
 40
0.4625006206857346
 40
0.5250054581372535
 40
0.5866888527108448
 40
0.6468127657705338
 40
0.7052153157505646
 40
0.7628810210075594
 40
0.8207275416930107
 40
0.8792954957245834
 40
0.9385111654136072
 40
1.0
 40
1.0
 40
1.0
 40
1.0
 10
226.1925698465299
 20
105.6695623894654
 30
0.0
 10
226.2139918130045
 20
105.6690796720438
 30
0.0
 10
226.2557193864705
 20
105.6681393929757
 30
0.0
 10
226.3167422600954
 20
105.6610595884439
 30
0.0
 10
226.3746282359105
 20
105.6491933949932
 30
0.0
 10
226.4293432336936
 20
105.6323582537944
 30
0.0
 10
226.4809735134812
 20
105.6108335120904
 30
0.0
 10
226.5291798131232
 20
105.5843767790017
 30
0.0
 10
226.5744583872096
 20
105.5534244102448
 30
0.0
 10
226.6156519309814
 20
105.5176072878144
 30
0.0
 10
226.6531331456949
 20
105.4787215404407
 30
0.0
 10
226.6856070779139
 20
105.4370617430638
 30
0.0
 10
226.7134589359911
 20
105.3935999988784
 30
0.0
 10
226.7364743120266
 20
105.348072267782
 30
0.0
 10
226.7535011742395
 20
105.2999601108228
 30
0.0
 10
226.766479465285
 20
105.2501699833129
 30
0.0
 10
226.7740074757063
 20
105.1981102814939
 30
0.0
 10
226.774917197812
 20
105.1627823546968
 30
0.0
 10
226.7753806250255
 20
105.1447857350997
 30
0.0
  0
SPLINE
  5
115
330
1F
100
AcDbEntity
  8
0
  6
Continuous
 62
     7
370
     0
100
AcDbSpline
210
0.0
220
0.0
230
1.0
 70
     8
 71
     3
 72
    23
 73
    19
 74
     0
 42
0.00000001
 43
0.00000001
 40
0.0
 40
0.0
 40
0.0
 40
0.0
 40
0.0621313717366117
 40
0.1219658247853498
 40
0.1805702366487599
 40
0.2385759705888211
 40
0.2960002420906481
 40
0.3543589964435931
 40
0.4137812280524368
 40
0.4750979653520683
 40
0.5372798973856026
 40
0.5989179536770425
 40
0.6612351129787322
 40
0.7243219805737479
 40
0.7892171825086325
 40
0.8563966620881328
 40
0.9265077687361053
 40
1.0
 40
1.0
 40
1.0
 40
1.0
 10
225.6163445005596
 20
105.151371167625
 30
0.0
 10
225.6167965028772
 20
105.1693710957084
 30
0.0
 10
225.6176837975549
 20
105.2047055171673
 30
0.0
 10
225.6253502254969
 20
105.256552798662
 30
0.0
 10
225.6376291143717
 20
105.3062354655799
 30
0.0
 10
225.6550557306197
 20
105.3536132936592
 30
0.0
 10
225.6768884246411
 20
105.3990762458316
 30
0.0
 10
225.7044376026145
 20
105.441791420617
 30
0.0
 10
225.7361036715745
 20
105.4829660353052
 30
0.0
 10
225.7731989666095
 20
105.5209356866492
 30
0.0
 10
225.8140773404459
 20
105.5557122123727
 30
0.0
 10
225.8583549987352
 20
105.5866599046823
 30
0.0
 10
225.9063707547185
 20
105.6119675933593
 30
0.0
 10
225.9573240489685
 20
105.6331269536881
 30
0.0
 10
226.0114668203622
 20
105.6496924955518
 30
0.0
 10
226.0689897888978
 20
105.660974552431
 30
0.0
 10
226.1296901735278
 20
105.6681507775885
 30
0.0
 10
226.1712835186347
 20
105.6690845238558
 30
0.0
 10
226.1925698465299
 20
105.6695623894654
 30
0.0
  0
SPLINE
  5
116
330
1F
100
AcDbEntity
  8
0
  6
Continuous
 62
     7
370
     0
100
AcDbSpline
210
0.0
220
0.0
230
1.0
 70
     8
 71
     3
 72
    15
 73
    11
 74
     0
 42
0.00000001
 43
0.00000001
 40
0.0
 40
0.0
 40
0.0
 40
0.0
 40
0.1453591950554982
 40
0.2787017789350159
 40
0.403602234418053
 40
0.5216687911804246
 40
0.6375206936077399
 40
0.7537041507630957
 40
0.8732127703640605
 40
1.0
 40
1.0
 40
1.0
 40
1.0
 10
225.9275061873836
 20
104.7418395824534
 30
0.0
 10
225.9025125369687
 20
104.7516172400436
 30
0.0
 10
225.8545914210735
 20
104.7703642519762
 30
0.0
 10
225.7899581903837
 20
104.807882299781
 30
0.0
 10
225.7352564918737
 20
104.8510418729388
 30
0.0
 10
225.6911579900916
 20
104.9008837363242
 30
0.0
 10
225.657546914429
 20
104.9563775223285
 30
0.0
 10
225.6333456111155
 20
105.0168156872116
 30
0.0
 10
225.6191704833066
 20
105.0825349385107
 30
0.0
 10
225.6173048725084
 20
105.1279781077887
 30
0.0
 10
225.6163445005596
 20
105.151371167625
 30
0.0
  0
SPLINE
  5
117
330
1F
100
AcDbEntity
  8
0
  6
Continuous
 62
     7
370
     0
100
AcDbSpline
210
0.0
220
0.0
230
1.0
 70
     8
 71
     3
 72
    23
 73
    19
 74
     0
 42
0.00000001
 43
0.00000001
 40
0.0
 40
0.0
 40
0.0
 40
0.0
 40
0.0698340680322546
 40
0.1370265239564768
 40
0.2014822968650625
 40
0.2645399492437558
 40
0.3259725932884497
 40
0.3863863095292154
 40
0.4457607667910175
 40
0.5056119070745058
 40
0.5651144217391012
 40
0.6247503916637627
 40
0.684178951264583
 40
0.7442191416569949
 40
0.8051791454666242
 40
0.8683948608225701
 40
0.9332039334133251
 40
1.0
 40
1.0
 40
1.0
 40
1.0
 10
225.5373193102552
 20
104.2199440548175
 30
0.0
 10
225.5376766213613
 20
104.2364146029326
 30
0.0
 10
225.5383777275724
 20
104.2687326680185
 30
0.0
 10
225.5426605478658
 20
104.316134475283
 30
0.0
 10
225.5511961264425
 20
104.3613133800119
 30
0.0
 10
225.562190495304
 20
104.4045356212143
 30
0.0
 10
225.5761499036876
 20
104.4459093292596
 30
0.0
 10
225.5933714909575
 20
104.4851095962047
 30
0.0
 10
225.6142657131827
 20
104.5220416792207
 30
0.0
 10
225.6380029197078
 20
104.5569458938257
 30
0.0
 10
225.66488264689
 20
104.5895771995175
 30
0.0
 10
225.6944692365537
 20
104.619649836981
 30
0.0
 10
225.7268701606927
 20
104.646821750157
 30
0.0
 10
225.7613573129919
 20
104.6718865487829
 30
0.0
 10
225.7993762712757
 20
104.6930712211723
 30
0.0
 10
225.8395131225433
 20
104.7125121052805
 30
0.0
 10
225.8824579256136
 20
104.729091574693
 30
0.0
 10
225.912339713565
 20
104.7375476893072
 30
0.0
 10
225.9275061873836
 20
104.7418395824534
 30
0.0
  0
SPLINE
  5
118
330
1F
100
AcDbEntity
  8
0
  6
Continuous
 62
     7
370
     0
100
AcDbSpline
210
0.0
220
0.0
230
1.0
 70
     8
 71
     3
 72
    23
 73
    19
 74
     0
 42
0.00000001
 43
0.00000001
 40
0.0
 40
0.0
 40
0.0
 40
0.0
 40
0.0704416310595481
 40
0.1380893247200285
 40
0.2031777335235316
 40
0.266138723805254
 40
0.3279287813674601
 40
0.3891903607612971
 40
0.4502535751031185
 40
0.5123465781279283
 40
0.5738427205586506
 40
0.633932556807092
 40
0.6934598075975582
 40
0.7524794354833054
 40
0.8123859308429279
 40
0.8730704652319969
 40
0.935184306583771
 40
1.0
 40
1.0
 40
1.0
 40
1.0
 10
226.1958625627926
 20
103.5885657114473
 30
0.0
 10
226.1718326641461
 20
103.5891470743239
 30
0.0
 10
226.124725968471
 20
103.5902867413908
 30
0.0
 10
226.0557634247643
 20
103.5983927238361
 30
0.0
 10
225.9904990063531
 20
103.6129198934549
 30
0.0
 10
225.9287848377906
 20
103.6327871612539
 30
0.0
 10
225.8702861406824
 20
103.657703062571
 30
0.0
 10
225.8158668142916
 20
103.6893291872276
 30
0.0
 10
225.7647771402168
 20
103.7262071858114
 30
0.0
 10
225.7178250944282
 20
103.7683682156346
 30
0.0
 10
225.6755091888403
 20
103.8147171013368
 30
0.0
 10
225.6386743099343
 20
103.8644431554894
 30
0.0
 10
225.6072763399744
 20
103.9167811096385
 30
0.0
 10
225.5814364920533
 20
103.9720260054997
 30
0.0
 10
225.5617406356906
 20
104.0301783464248
 30
0.0
 10
225.5479178500796
 20
104.09101980782
 30
0.0
 10
225.5388400644189
 20
104.1545038975871
 30
0.0
 10
225.5378333712129
 20
104.1978233000622
 30
0.0
 10
225.5373193102552
 20
104.2199440548175
 30
0.0
  0
SPLINE
  5
119
330
1F
100
AcDbEntity
  8
0
  6
Continuous
 62
     7
370
     0
100
AcDbSpline
210
0.0
220
0.0
230
1.0
 70
     8
 71
     3
 72
    15
 73
    11
 74
     0
 42
0.00000001
 43
0.00000001
 40
0.0
 40
0.0
 40
0.0
 40
0.0
 40
0.1324616222426389
 40
0.26164950103549
 40
0.3875466984163659
 40
0.510781629293347
 40
0.6326753605997105
 40
0.7546603541381371
 40
0.8765227798028643
 40
1.0
 40
1.0
 40
1.0
 40
1.0
 10
223.6933982031505
 20
104.3195487217638
 30
0.0
 10
223.6929317974912
 20
104.2967546691768
 30
0.0
 10
223.6920105132282
 20
104.2517299111754
 30
0.0
 10
223.6844603981492
 20
104.1853776068459
 30
0.0
 10
223.6720233779103
 20
104.1214419389957
 30
0.0
 10
223.6553736396528
 20
104.0597335744487
 30
0.0
 10
223.6328776088849
 20
104.0006029689794
 30
0.0
 10
223.6055920291924
 20
103.943859125937
 30
0.0
 10
223.5741165825575
 20
103.8889099425344
 30
0.0
 10
223.5488749077614
 20
103.8550369423436
 30
0.0
 10
223.5361710016072
 20
103.8379889683458
 30
0.0
  0
SPLINE
  5
11A
330
1F
100
AcDbEntity
  8
0
  6
Continuous
 62
     7
370
     0
100
AcDbSpline
210
0.0
220
0.0
230
1.0
 70
     8
 71
     3
 72
    23
 73
    19
 74
     0
 42
0.00000001
 43
0.00000001
 40
0.0
 40
0.0
 40
0.0
 40
0.0
 40
0.0619974190757221
 40
0.1220879540822937
 40
0.1813753107870036
 40
0.2395080083953663
 40
0.2978356978967516
 40
0.3568799706531185
 40
0.4172818251154289
 40
0.4796404090798165
 40
0.5425000674783568
 40
0.6049624196481908
 40
0.6669910330782646
 40
0.7302162430101637
 40
0.794172863251256
 40
0.8604581431502615
 40
0.9285781799847829
 40
1.0
 40
1.0
 40
1.0
 40
1.0
 10
223.0904195375459
 20
104.9846774068265
 30
0.0
 10
223.1111647576149
 20
104.984133865604
 30
0.0
 10
223.1520171271647
 20
104.9830635011145
 30
0.0
 10
223.2122145082429
 20
104.97426910911
 30
0.0
 10
223.2697733308435
 20
104.9593400456756
 30
0.0
 10
223.3251450815566
 20
104.9392327737565
 30
0.0
 10
223.3775996192287
 20
104.912577149975
 30
0.0
 10
223.4276682705972
 20
104.8803028495729
 30
0.0
 10
223.4751488911938
 20
104.8421438445228
 30
0.0
 10
223.5197730594097
 20
104.7988201165006
 30
0.0
 10
223.5602489546591
 20
104.7507262238409
 30
0.0
 10
223.5964762019482
 20
104.6994306830491
 30
0.0
 10
223.6260646387011
 20
104.6439066985495
 30
0.0
 10
223.6509505447626
 20
104.5856040110654
 30
0.0
 10
223.6697200279701
 20
104.5235655608068
 30
0.0
 10
223.683966720828
 20
104.4586718000877
 30
0.0
 10
223.6915839545322
 20
104.3901114087516
 30
0.0
 10
223.6927839887027
 20
104.3434377419246
 30
0.0
 10
223.6933982031505
 20
104.3195487217638
 30
0.0
  0
SPLINE
  5
11B
330
1F
100
AcDbEntity
  8
0
  6
Continuous
 62
     7
370
     0
100
AcDbSpline
210
0.0
220
0.0
230
1.0
 70
     8
 71
     3
 72
    15
 73
    11
 74
     0
 42
0.00000001
 43
0.00000001
 40
0.0
 40
0.0
 40
0.0
 40
0.0
 40
0.1367294018595733
 40
0.2685149167908308
 40
0.3955294046848096
 40
0.5199999535658124
 40
0.640496476841269
 40
0.7612361017625323
 40
0.8801067171759528
 40
1.0
 40
1.0
 40
1.0
 40
1.0
 10
222.724104853322
 20
104.8476180923922
 30
0.0
 10
222.7386395145423
 20
104.8585251058955
 30
0.0
 10
222.7671832900222
 20
104.8799447550965
 30
0.0
 10
222.8117064634704
 20
104.9079909623322
 30
0.0
 10
222.8568662715854
 20
104.9316320448865
 30
0.0
 10
222.9023998276233
 20
104.95099210351
 30
0.0
 10
222.9486688242235
 20
104.9660735551212
 30
0.0
 10
222.9953940528421
 20
104.9765514512897
 30
0.0
 10
223.0427346050303
 20
104.9836330300577
 30
0.0
 10
223.074479237442
 20
104.9843282885991
 30
0.0
 10
223.0904195375459
 20
104.9846774068265
 30
0.0
  0
LINE
  5
11C
330
1F
100
AcDbEntity
  8
0
  6
Continuous
 62
     7
370
     0
100
AcDbLine
 10
222.8286485947
 20
105.3798033583
 30
0.0
 11
222.7241048533
 21
104.8476180924
 31
0.0
  0
LINE
  5
11D
330
1F
100
AcDbEntity
  8
0
  6
Continuous
 62
     7
370
     0
100
AcDbLine
 10
223.5880312827
 20
105.3798033583
 30
0.0
 11
222.8286485947
 21
105.3798033583
 31
0.0
  0
LINE
  5
11E
330
1F
100
AcDbEntity
  8
0
  6
Continuous
 62
     7
370
     0
100
AcDbLine
 10
223.5880312827
 20
105.6432206594
 30
0.0
 11
223.5880312827
 21
105.3798033583
 31
0.0
  0
LINE
  5
11F
330
1F
100
AcDbEntity
  8
0
  6
Continuous
 62
     7
370
     0
100
AcDbLine
 10
222.613387269
 20
105.6432206594
 30
0.0
 11
223.5880312827
 21
105.6432206594
 31
0.0
  0
LINE
  5
120
330
1F
100
AcDbEntity
  8
0
  6
Continuous
 62
     7
370
     0
100
AcDbLine
 10
222.4026534282
 20
104.5895514553
 30
0.0
 11
222.613387269
 21
105.6432206594
 31
0.0
  0
LINE
  5
121
330
1F
100
AcDbEntity
  8
0
  6
Continuous
 62
     7
370
     0
100
AcDbLine
 10
222.6660707292
 20
104.5632097252
 30
0.0
 11
222.4026534282
 21
104.5895514553
 31
0.0
  0
SPLINE
  5
122
330
1F
100
AcDbEntity
  8
0
  6
Continuous
 62
     7
370
     0
100
AcDbSpline
210
0.0
220
0.0
230
1.0
 70
     8
 71
     3
 72
    15
 73
    11
 74
     0
 42
0.00000001
 43
0.00000001
 40
0.0
 40
0.0
 40
0.0
 40
0.0
 40
0.1478596367312514
 40
0.283561321939547
 40
0.4123693961385312
 40
0.5342363558879457
 40
0.6526916293119823
 40
0.7686630594981229
 40
0.8836524018604046
 40
1.0
 40
1.0
 40
1.0
 40
1.0
 10
223.017568190234
 20
104.7476018359131
 30
0.0
 10
222.9970834213685
 20
104.7470026163841
 30
0.0
 10
222.9577982704813
 20
104.7458534489336
 30
0.0
 10
222.9013495485507
 20
104.736185915225
 30
0.0
 10
222.8499622332507
 20
104.720569246045
 30
0.0
 10
222.804218129969
 20
104.6972945005614
 30
0.0
 10
222.7633480340933
 20
104.669488994072
 30
0.0
 10
222.7265028913718
 20
104.638025802067
 30
0.0
 10
222.6933788761818
 20
104.6029261964409
 30
0.0
 10
222.6752090052981
 20
104.5765002674085
 30
0.0
 10
222.6660707291921
 20
104.5632097252026
 30
0.0
  0
SPLINE
  5
123
330
1F
100
AcDbEntity
  8
0
  6
Continuous
 62
     7
370
     0
100
AcDbSpline
210
0.0
220
0.0
230
1.0
 70
     8
 71
     3
 72
    23
 73
    19
 74
     0
 42
0.00000001
 43
0.00000001
 40
0.0
 40
0.0
 40
0.0
 40
0.0
 40
0.0728659334565351
 40
0.1418868719641256
 40
0.2074526264147115
 40
0.2704376800000974
 40
0.3316408722476697
 40
0.3901075774931577
 40
0.4480692869488358
 40
0.505502951924537
 40
0.5624881528337238
 40
0.6190843288847293
 40
0.6764155306922391
 40
0.7354523604507931
 40
0.7962407694486783
 40
0.8604056780892032
 40
0.9283049272851064
 40
1.0
 40
1.0
 40
1.0
 40
1.0
 10
223.4299809021355
 20
104.303908319516
 30
0.0
 10
223.4296785115455
 20
104.32065792787
 30
0.0
 10
223.4290896869346
 20
104.3532733000094
 30
0.0
 10
223.4241308230583
 20
104.4007667047101
 30
0.0
 10
223.415764635898
 20
104.4454248779732
 30
0.0
 10
223.404939573062
 20
104.4877400308158
 30
0.0
 10
223.3900185893059
 20
104.5270509368601
 30
0.0
 10
223.3723214624008
 20
104.5639275658087
 30
0.0
 10
223.3506417381586
 20
104.5975872870281
 30
0.0
 10
223.3265216143479
 20
104.6290781423393
 30
0.0
 10
223.2989733877989
 20
104.6573084252243
 30
0.0
 10
223.2676248866
 20
104.6811453234922
 30
0.0
 10
223.2337058939442
 20
104.702007423385
 30
0.0
 10
223.1965332465713
 20
104.7189252849456
 30
0.0
 10
223.1560850554232
 20
104.7314946203606
 30
0.0
 10
223.1127632640638
 20
104.7411655929585
 30
0.0
 10
223.0661183447369
 20
104.7462521285406
 30
0.0
 10
223.0340423103079
 20
104.7471438509376
 30
0.0
 10
223.017568190234
 20
104.7476018359131
 30
0.0
  0
SPLINE
  5
124
330
1F
100
AcDbEntity
  8
0
  6
Continuous
 62
     7
370
     0
100
AcDbSpline
210
0.0
220
0.0
230
1.0
 70
     8
 71
     3
 72
    23
 73
    19
 74
     0
 42
0.00000001
 43
0.00000001
 40
0.0
 40
0.0
 40
0.0
 40
0.0
 40
0.0658010376094729
 40
0.1286767959489733
 40
0.1886758749524341
 40
0.2475984367338953
 40
0.304849420118827
 40
0.3617858992828986
 40
0.4195227063685896
 40
0.4786818154207406
 40
0.5387695030440189
 40
0.5987990560131542
 40
0.6601842815006784
 40
0.722951530610966
 40
0.7879926891048736
 40
0.8554037684344737
 40
0.9261530612840035
 40
1.0
 40
1.0
 40
1.0
 40
1.0
 10
223.0163334216355
 20
103.8256412823607
 30
0.0
 10
223.0319947007278
 20
103.8260197043258
 30
0.0
 10
223.0626210143436
 20
103.826759724966
 30
0.0
 10
223.1071764991275
 20
103.8330185222236
 30
0.0
 10
223.1492627629971
 20
103.8433385538053
 30
0.0
 10
223.1886784295812
 20
103.8577806713654
 30
0.0
 10
223.2258855711522
 20
103.8757411534153
 30
0.0
 10
223.2596498634676
 20
103.8989967059696
 30
0.0
 10
223.2918123218293
 20
103.9251382449472
 30
0.0
 10
223.3203032847555
 20
103.9563039765394
 30
0.0
 10
223.3462380657801
 20
103.9902330812313
 30
0.0
 10
223.3686217315734
 20
104.0272681422784
 30
0.0
 10
223.3874656156698
 20
104.0668893432902
 30
0.0
 10
223.4033301064374
 20
104.1090890881519
 30
0.0
 10
223.4150448751521
 20
104.1541084493618
 30
0.0
 10
223.4236620337996
 20
104.2017079325032
 30
0.0
 10
223.429193905663
 20
104.2519178584921
 30
0.0
 10
223.4297148499618
 20
104.2863324146063
 30
0.0
 10
223.4299809021355
 20
104.303908319516
 30
0.0
  0
SPLINE
  5
125
330
1F
100
AcDbEntity
  8
0
  6
Continuous
 62
     7
370
     0
100
AcDbSpline
210
0.0
220
0.0
230
1.0
 70
     8
 71
     3
 72
    23
 73
    19
 74
     0
 42
0.00000001
 43
0.00000001
 40
0.0
 40
0.0
 40
0.0
 40
0.0
 40
0.0773613371189766
 40
0.1504798322806811
 40
0.2199772368520748
 40
0.2866809968624414
 40
0.3496784941856628
 40
0.4106796250174856
 40
0.4694271135192909
 40
0.5267557014271298
 40
0.5831419808348374
 40
0.6388244277786261
 40
0.695263470403813
 40
0.7526958048985354
 40
0.810849183334895
 40
0.8713563036360845
 40
0.9344364309841281
 40
1.0
 40
1.0
 40
1.0
 40
1.0
 10
222.6397289990906
 20
104.1944255037816
 30
0.0
 10
222.6423372439207
 20
104.1795833845614
 30
0.0
 10
222.6474106857612
 20
104.1507131543647
 30
0.0
 10
222.6570786899124
 20
104.1089226398406
 30
0.0
 10
222.6696346752427
 20
104.0700980837506
 30
0.0
 10
222.683742707095
 20
104.0339032432636
 30
0.0
 10
222.7005124830299
 20
104.0007208334976
 30
0.0
 10
222.7186826741919
 20
103.9700269215603
 30
0.0
 10
222.7401107012282
 20
103.9429110456419
 30
0.0
 10
222.7626393945945
 20
103.9179550198574
 30
0.0
 10
222.7873663569874
 20
103.895964347616
 30
0.0
 10
222.8145301850805
 20
103.8774254522786
 30
0.0
 10
222.8433729902624
 20
103.8612513887003
 30
0.0
 10
222.8742460670273
 20
103.8480087840083
 30
0.0
 10
222.9071967319613
 20
103.8383158947938
 30
0.0
 10
222.9418056111596
 20
103.8306504834213
 30
0.0
 10
222.9785183565568
 20
103.8267879187834
 30
0.0
 10
223.0035672121722
 20
103.8260283820714
 30
0.0
 10
223.0163334216355
 20
103.8256412823607
 30
0.0
  0
LINE
  5
126
330
1F
100
AcDbEntity
  8
0
  6
Continuous
 62
     7
370
     0
100
AcDbLine
 10
222.3763116981
 20
104.1680837737
 30
0.0
 11
222.6397289991
 21
104.1944255038
 31
0.0
  0
SPLINE
  5
127
330
1F
100
AcDbEntity
  8
0
  6
Continuous
 62
     7
370
     0
100
AcDbSpline
210
0.0
220
0.0
230
1.0
 70
     8
 71
     3
 72
    23
 73
    19
 74
     0
 42
0.00000001
 43
0.00000001
 40
0.0
 40
0.0
 40
0.0
 40
0.0
 40
0.0692980234597528
 40
0.135560844101282
 40
0.1996709556470567
 40
0.2617162384956084
 40
0.3226619299471026
 40
0.3829069237782244
 40
0.4430320330728902
 40
0.503500787350163
 40
0.5637242810171083
 40
0.6239800220534739
 40
0.6836293869955233
 40
0.7438482724857305
 40
0.8051918462295105
 40
0.8676487429597676
 40
0.9327780842312613
 40
1.0
 40
1.0
 40
1.0
 40
1.0
 10
223.0146870635041
 20
103.5885657114473
 30
0.0
 10
222.9925760506021
 20
103.5890142297396
 30
0.0
 10
222.9493224710151
 20
103.5898916215507
 30
0.0
 10
222.8859915346999
 20
103.5975192503824
 30
0.0
 10
222.8257563252962
 20
103.6096826287746
 30
0.0
 10
222.7685979720982
 20
103.6271286787443
 30
0.0
 10
222.7143442723258
 20
103.649173395554
 30
0.0
 10
222.6636258545906
 20
103.6771777449414
 30
0.0
 10
222.6155625554046
 20
103.7092129764037
 30
0.0
 10
222.571211607171
 20
103.7462660895168
 30
0.0
 10
222.5308021187624
 20
103.787594555584
 30
0.0
 10
222.4945943964687
 20
103.8323227134808
 30
0.0
 10
222.4630784294211
 20
103.8804797292301
 30
0.0
 10
222.4362694287549
 20
103.9317774419264
 30
0.0
 10
222.4139253646647
 20
103.9861666556375
 30
0.0
 10
222.3968312722124
 20
104.0440185975141
 30
0.0
 10
222.3832913284506
 20
104.1047656509022
 30
0.0
 10
222.3786626359225
 20
104.1467564306505
 30
0.0
 10
222.3763116980757
 20
104.1680837736802
 30
0.0
  0
SPLINE
  5
128
330
1F
100
AcDbEntity
  8
0
  6
Continuous
 62
     7
370
     0
100
AcDbSpline
210
0.0
220
0.0
230
1.0
 70
     8
 71
     3
 72
    15
 73
    11
 74
     0
 42
0.00000001
 43
0.00000001
 40
0.0
 40
0.0
 40
0.0
 40
0.0
 40
0.1278926194654212
 40
0.2515785135038573
 40
0.3727928197023035
 40
0.4927776986078535
 40
0.6135900692425712
 40
0.7378086492801463
 40
0.8661799015391671
 40
0.9999999999999999
 40
0.9999999999999999
 40
0.9999999999999999
 40
0.9999999999999999
 10
223.5361710016072
 20
103.8379889683458
 30
0.0
 10
223.5200310450184
 20
103.8180886174207
 30
0.0
 10
223.4882820175639
 20
103.7789424905774
 30
0.0
 10
223.4333089230954
 20
103.7281331609302
 30
0.0
 10
223.3742120671358
 20
103.6849522233323
 30
0.0
 10
223.3106397571172
 20
103.6498708409124
 30
0.0
 10
223.2430187745309
 20
103.621679979472
 30
0.0
 10
223.1705184141426
 20
103.602920019739
 30
0.0
 10
223.0940147180817
 20
103.5903219636869
 30
0.0
 10
223.0414934464211
 20
103.589159183803
 30
0.0
 10
223.0146870635041
 20
103.5885657114473
 30
0.0
  0
SPLINE
  5
129
330
1F
100
AcDbEntity
  8
0
  6
Continuous
 62
     7
370
     0
100
AcDbSpline
210
0.0
220
0.0
230
1.0
 70
     8
 71
     3
 72
    27
 73
    23
 74
     0
 42
0.00000001
 43
0.00000001
 40
0.0
 40
0.0
 40
0.0
 40
0.0
 40
0.0467628351215619
 40
0.091968696607212
 40
0.1358043853805056
 40
0.1782315801839235
 40
0.2194414332265379
 40
0.2601769432685921
 40
0.3002796061140319
 40
0.3405476414666171
 40
0.3803111902076692
 40
0.4196419535698123
 40
0.4590173240985177
 40
0.4981819588897615
 40
0.5376702145628715
 40
0.5779133315743612
 40
0.6186488416164155
 40
0.6607616027603175
 40
0.7452991770631804
 40
0.8297447416906314
 40
0.9146020866092538
 40
1.0
 40
1.0
 40
1.0
 40
1.0
 10
218.909904652532
 20
105.4588285486534
 30
0.0
 10
218.8917790748364
 20
105.4585655645241
 30
0.0
 10
218.8561314125083
 20
105.4580483523502
 30
0.0
 10
218.8037607081921
 20
105.4523875224851
 30
0.0
 10
218.7534666167175
 20
105.4440496724816
 30
0.0
 10
218.705623978228
 20
105.4315463496387
 30
0.0
 10
218.6599709943893
 20
105.4159579574716
 30
0.0
 10
218.6167785780233
 20
105.3965476510542
 30
0.0
 10
218.5756793151819
 20
105.3737964951082
 30
0.0
 10
218.537131894577
 20
105.3475678661741
 30
0.0
 10
218.5014602724238
 20
105.3180818395046
 30
0.0
 10
218.4676964241443
 20
105.2869104958314
 30
0.0
 10
218.4374613890519
 20
105.2526000748728
 30
0.0
 10
218.4096022147149
 20
105.2162819271034
 30
0.0
 10
218.384930159328
 20
105.1773142845514
 30
0.0
 10
218.362721176499
 20
105.1362279336818
 30
0.0
 10
218.3431168315597
 20
105.0926861396024
 30
0.0
 10
218.3217467643559
 20
105.0314043623842
 30
0.0
 10
218.2999571166039
 20
104.9524748505974
 30
0.0
 10
218.2810545703083
 20
104.8558907106536
 30
0.0
 10
218.2690140939732
 20
104.7577848941854
 30
0.0
 10
218.2676739844563
 20
104.6917971340253
 30
0.0
 10
218.2670018022423
 20
104.6586984968205
 30
0.0
  0
SPLINE
  5
12A
330
1F
100
AcDbEntity
  8
0
  6
Continuous
 62
     7
370
     0
100
AcDbSpline
210
0.0
220
0.0
230
1.0
 70
     8
 71
     3
 72
    23
 73
    19
 74
     0
 42
0.00000001
 43
0.00000001
 40
0.0
 40
0.0
 40
0.0
 40
0.0
 40
0.0772311103286299
 40
0.1511651795217243
 40
0.2207847057253997
 40
0.2871495176777684
 40
0.3506324812950841
 40
0.4113067715078916
 40
0.4699644151376497
 40
0.5267072266832779
 40
0.5824983333641278
 40
0.6385087274080254
 40
0.6949179812139084
 40
0.7524203526591543
 40
0.8112509754155086
 40
0.8718561089908092
 40
0.9346441878526878
 40
1.0
 40
1.0
 40
1.0
 40
1.0
 10
219.4260379267082
 20
105.0365376879639
 30
0.0
 10
219.4203475116323
 20
105.0543093415359
 30
0.0
 10
219.4092096086183
 20
105.0890939664259
 30
0.0
 10
219.3894331723107
 20
105.1386682387726
 30
0.0
 10
219.3680752804789
 20
105.1846893603131
 30
0.0
 10
219.3446271705864
 20
105.2268445001558
 30
0.0
 10
219.3190380256726
 20
105.2651437557048
 30
0.0
 10
219.291897095766
 20
105.3000525974784
 30
0.0
 10
219.2625541113837
 20
105.3309194466012
 30
0.0
 10
219.2316059333491
 20
105.3584560158598
 30
0.0
 10
219.1982533888455
 20
105.3819145377198
 30
0.0
 10
219.163278406354
 20
105.4027026485959
 30
0.0
 10
219.1259435387868
 20
105.4199016403328
 30
0.0
 10
219.0867858757136
 20
105.4344484343512
 30
0.0
 10
219.0454394146141
 20
105.4455201120538
 30
0.0
 10
219.0020725237887
 20
105.4533094740701
 30
0.0
 10
218.9566471000628
 20
105.457817575184
 30
0.0
 10
218.9256922251757
 20
105.4584870856378
 30
0.0
 10
218.909904652532
 20
105.4588285486534
 30
0.0
  0
LINE
  5
12B
330
1F
100
AcDbEntity
  8
0
  6
Continuous
 62
     7
370
     0
100
AcDbLine
 10
219.7157969578
 20
105.0986877074
 30
0.0
 11
219.4260379267
 21
105.036537688
 31
0.0
  0
SPLINE
  5
12C
330
1F
100
AcDbEntity
  8
0
  6
Continuous
 62
     7
370
     0
100
AcDbSpline
210
0.0
220
0.0
230
1.0
 70
     8
 71
     3
 72
    23
 73
    19
 74
     0
 42
0.00000001
 43
0.00000001
 40
0.0
 40
0.0
 40
0.0
 40
0.0
 40
0.0686494919759957
 40
0.134937373785155
 40
0.1988418982006104
 40
0.2614093284183097
 40
0.3225167637069052
 40
0.3823768656987784
 40
0.4424709047536874
 40
0.5022278334792912
 40
0.5621014330908561
 40
0.62173160809488
 40
0.6818513124344153
 40
0.7420491672939588
 40
0.8039081304743815
 40
0.8671621602461707
 40
0.9323605979385298
 40
1.0
 40
1.0
 40
1.0
 40
1.0
 10
218.9238986966484
 20
105.6959041195669
 30
0.0
 10
218.9484745902578
 20
105.6954408761316
 30
0.0
 10
218.996780942521
 20
105.6945303252916
 30
0.0
 10
219.0676619079427
 20
105.6870408650181
 30
0.0
 10
219.1355473662005
 20
105.6744968394724
 30
0.0
 10
219.2007314772007
 20
105.6580402642259
 30
0.0
 10
219.2625365339259
 20
105.6355077870525
 30
0.0
 10
219.3216335369617
 20
105.6087192613942
 30
0.0
 10
219.3774345881563
 20
105.5765360927957
 30
0.0
 10
219.430373867299
 20
105.5398427329337
 30
0.0
 10
219.4795896042077
 20
105.4985715106754
 30
0.0
 10
219.5257705208234
 20
105.4537083842293
 30
0.0
 10
219.5670336019654
 20
105.4041321027008
 30
0.0
 10
219.6050131164925
 20
105.351042500442
 30
0.0
 10
219.6385141022286
 20
105.2937034058422
 30
0.0
 10
219.6687690265538
 20
105.2326147542383
 30
0.0
 10
219.6947873809137
 20
105.1673224213517
 30
0.0
 10
219.7087084962768
 20
105.1218445055146
 30
0.0
 10
219.7157969578246
 20
105.0986877074221
 30
0.0
  0
SPLINE
  5
12D
330
1F
100
AcDbEntity
  8
0
  6
Continuous
 62
     7
370
     0
100
AcDbSpline
210
0.0
220
0.0
230
1.0
 70
     8
 71
     3
 72
    31
 73
    27
 74
     0
 42
0.00000001
 43
0.00000001
 40
0.0
 40
0.0
 40
0.0
 40
0.0
 40
0.0494014326173349
 40
0.0976047534771127
 40
0.1442547055445423
 40
0.1894721438466749
 40
0.2339150059350921
 40
0.2772371111508619
 40
0.3198588355644323
 40
0.3619566544332702
 40
0.4034857542265475
 40
0.4439336363338552
 40
0.4836491750513743
 40
0.5228932833172718
 40
0.5618583840947368
 40
0.6007948668981946
 40
0.6401043361891355
 40
0.6796434268265384
 40
0.7193997691904886
 40
0.7588541926680972
 40
0.7983154646830742
 40
0.8378024081343659
 40
0.8774685864444087
 40
0.9176827969423332
 40
0.9583928898538524
 40
0.9999999999999999
 40
0.9999999999999999
 40
0.9999999999999999
 40
0.9999999999999999
 10
217.9772427711259
 20
104.657463728222
 30
0.0
 10
217.9777076295001
 20
104.6835382639959
 30
0.0
 10
217.9786260722378
 20
104.7350549610107
 30
0.0
 10
217.9838106665959
 20
104.8110693428428
 30
0.0
 10
217.9933328871676
 20
104.8844325204977
 30
0.0
 10
218.0065564818465
 20
104.9551927507014
 30
0.0
 10
218.0232896192969
 20
105.0234073390737
 30
0.0
 10
218.0439448017736
 20
105.0891095194688
 30
0.0
 10
218.0682607420889
 20
105.15221522665
 30
0.0
 10
218.0961633091819
 20
105.2127940473047
 30
0.0
 10
218.127837882752
 20
105.2701697620465
 30
0.0
 10
218.1623391063752
 20
105.3244239351014
 30
0.0
 10
218.2004899667233
 20
105.374665737082
 30
0.0
 10
218.2411593475357
 20
105.4218550514512
 30
0.0
 10
218.2853629938531
 20
105.4652061231609
 30
0.0
 10
218.3329659271691
 20
105.50481715254
 30
0.0
 10
218.3835574496395
 20
105.5410494423772
 30
0.0
 10
218.4371301768104
 20
105.5735666266978
 30
0.0
 10
218.4929838507535
 20
105.6020987546049
 30
0.0
 10
218.5502888646541
 20
105.6275125695514
 30
0.0
 10
218.6092731449149
 20
105.6483426454703
 30
0.0
 10
218.6694690475012
 20
105.6656620162428
 30
0.0
 10
218.7310061687291
 20
105.6794498442708
 30
0.0
 10
218.7940282967598
 20
105.6886698078745
 30
0.0
 10
218.8584771981254
 20
105.6946782505079
 30
0.0
 10
218.901933680869
 20
105.6954925387589
 30
0.0
 10
218.9238986966484
 20
105.6959041195669
 30
0.0
  0
SPLINE
  5
12E
330
1F
100
AcDbEntity
  8
0
  6
Continuous
 62
     7
370
     0
100
AcDbSpline
210
0.0
220
0.0
230
1.0
 70
     8
 71
     3
 72
    31
 73
    27
 74
     0
 42
0.00000001
 43
0.00000001
 40
0.0
 40
0.0
 40
0.0
 40
0.0
 40
0.0491959188678573
 40
0.0962478839423339
 40
0.1413486305545651
 40
0.18465611934875
 40
0.226058682310063
 40
0.2661730836384071
 40
0.3052898413966903
 40
0.3432450951047079
 40
0.3808772760868657
 40
0.4184957931350257
 40
0.4563187508918002
 40
0.494236737091876
 40
0.533023528957667
 40
0.572473194333944
 40
0.613078809089891
 40
0.6549344546107934
 40
0.6973967795046183
 40
0.7398840686663996
 40
0.7821947798191174
 40
0.8250615348667028
 40
0.8679874655774052
 40
0.9114105439600777
 40
0.9553719455228146
 40
1.0
 40
1.0
 40
1.0
 40
1.0
 10
218.9296609501081
 20
103.5885657114473
 30
0.0
 10
218.9030335602707
 20
103.5889525596107
 30
0.0
 10
218.85093919989
 20
103.5897093971287
 30
0.0
 10
218.7746239653114
 20
103.5958653124179
 30
0.0
 10
218.7020406834382
 20
103.6065417894874
 30
0.0
 10
218.6333249018967
 20
103.6213752263897
 30
0.0
 10
218.5682453315437
 20
103.6397158489789
 30
0.0
 10
218.5070718396184
 20
103.6627899773838
 30
0.0
 10
218.4499115735985
 20
103.6904311232401
 30
0.0
 10
218.3962877409118
 20
103.7218662496939
 30
0.0
 10
218.3464281002621
 20
103.7575779689008
 30
0.0
 10
218.2991988260072
 20
103.7966025186196
 30
0.0
 10
218.2557464878913
 20
103.8400142015908
 30
0.0
 10
218.2149846131129
 20
103.8867880277206
 30
0.0
 10
218.1778010101311
 20
103.9375410087583
 30
0.0
 10
218.1428276860634
 20
103.9915836441391
 30
0.0
 10
218.1117716687078
 20
104.0498681628237
 30
0.0
 10
218.0834820460558
 20
104.1113139683493
 30
0.0
 10
218.0586516395902
 20
104.1753261549259
 30
0.0
 10
218.0366854150711
 20
104.2406403050515
 30
0.0
 10
218.0187268256623
 20
104.3073865642173
 30
0.0
 10
218.003265639059
 20
104.3750032742576
 30
0.0
 10
217.9920338361557
 20
104.4440593833044
 30
0.0
 10
217.9831161323963
 20
104.5140367592092
 30
0.0
 10
217.9782129995793
 20
104.5853644238245
 30
0.0
 10
217.9775677990303
 20
104.6333103592548
 30
0.0
 10
217.9772427711259
 20
104.657463728222
 30
0.0
  0
SPLINE
  5
12F
330
1F
100
AcDbEntity
  8
0
  6
Continuous
 62
     7
370
     0
100
AcDbSpline
210
0.0
220
0.0
230
1.0
 70
     8
 71
     3
 72
    23
 73
    19
 74
     0
 42
0.00000001
 43
0.00000001
 40
0.0
 40
0.0
 40
0.0
 40
0.0
 40
0.0715783870982365
 40
0.140016209075356
 40
0.206197439946981
 40
0.2701561038056544
 40
0.332001040268831
 40
0.3927550109285566
 40
0.4525790344906382
 40
0.512252798847904
 40
0.5715322524285594
 40
0.6301517528722204
 40
0.6887691695485557
 40
0.7481639008503609
 40
0.8087033721996509
 40
0.8702562984804197
 40
0.9339000275070017
 40
1.0
 40
1.0
 40
1.0
 40
1.0
 10
219.7684804180276
 20
104.2726275150205
 30
0.0
 10
219.7612211454511
 20
104.2454692059701
 30
0.0
 10
219.7470211073111
 20
104.1923441827294
 30
0.0
 10
219.7189459070003
 20
104.1163163938766
 30
0.0
 10
219.6874349377438
 20
104.0449675570215
 30
0.0
 10
219.6517236007395
 20
103.9784856176652
 30
0.0
 10
219.611421038691
 20
103.9172528056726
 30
0.0
 10
219.5675951066717
 20
103.860482161287
 30
0.0
 10
219.5185099212145
 20
103.8093642186358
 30
0.0
 10
219.4659664764127
 20
103.7627192022871
 30
0.0
 10
219.4095556641951
 20
103.7215784223324
 30
0.0
 10
219.3499576056834
 20
103.6860526041057
 30
0.0
 10
219.2874603850777
 20
103.6558273442164
 30
0.0
 10
219.2218114080954
 20
103.6309719463923
 30
0.0
 10
219.1529681139318
 20
103.6122661284878
 30
0.0
 10
219.0812849778289
 20
103.5986322325089
 30
0.0
 10
219.0065529764989
 20
103.590234546655
 30
0.0
 10
218.9556130818529
 20
103.5891289666143
 30
0.0
 10
218.9296609501081
 20
103.5885657114473
 30
0.0
  0
LINE
  5
130
330
1F
100
AcDbEntity
  8
0
  6
Continuous
 62
     7
370
     0
100
AcDbLine
 10
219.4787213869
 20
104.3401281984
 30
0.0
 11
219.768480418
 21
104.272627515
 31
0.0
  0
SPLINE
  5
131
330
1F
100
AcDbEntity
  8
0
  6
Continuous
 62
     7
370
     0
100
AcDbSpline
210
0.0
220
0.0
230
1.0
 70
     8
 71
     3
 72
    23
 73
    19
 74
     0
 42
0.00000001
 43
0.00000001
 40
0.0
 40
0.0
 40
0.0
 40
0.0
 40
0.0633358805656859
 40
0.1251107589802108
 40
0.1846884118917139
 40
0.2432104439678636
 40
0.3008880404131166
 40
0.358370115531299
 40
0.4157614077031932
 40
0.4743866229897766
 40
0.533966264972407
 40
0.594007564198807
 40
0.6550724073076796
 40
0.7186100426051376
 40
0.7843747830517752
 40
0.8529914722129186
 40
0.9249004292977558
 40
1.0
 40
1.0
 40
1.0
 40
1.0
 10
218.9024960409409
 20
103.8256412823607
 30
0.0
 10
218.9203521464749
 20
103.8260157624525
 30
0.0
 10
218.9556242686247
 20
103.8267554930459
 30
0.0
 10
219.0073376784079
 20
103.8332303965374
 30
0.0
 10
219.0571886925284
 20
103.8427720137555
 30
0.0
 10
219.1045733729184
 20
103.8574956926193
 30
0.0
 10
219.1501290970962
 20
103.8755231123225
 30
0.0
 10
219.1934826139385
 20
103.8977540736314
 30
0.0
 10
219.2344975833504
 20
103.9244914315865
 30
0.0
 10
219.2736564315228
 20
103.9548491900911
 30
0.0
 10
219.3102370346959
 20
103.9893911315516
 30
0.0
 10
219.3437611909401
 20
104.0278389693189
 30
0.0
 10
219.3738361467874
 20
104.0703679814554
 30
0.0
 10
219.401723199058
 20
104.1162956394003
 30
0.0
 10
219.4251534483372
 20
104.1669939719346
 30
0.0
 10
219.4468553914976
 20
104.2209518849358
 30
0.0
 10
219.4649390182492
 20
104.2790562246486
 30
0.0
 10
219.4740612688119
 20
104.3194784380308
 30
0.0
 10
219.4787213869112
 20
104.3401281984056
 30
0.0
  0
SPLINE
  5
132
330
1F
100
AcDbEntity
  8
0
  6
Continuous
 62
     7
370
     0
100
AcDbSpline
210
0.0
220
0.0
230
1.0
 70
     8
 71
     3
 72
    27
 73
    23
 74
     0
 42
0.00000001
 43
0.00000001
 40
0.0
 40
0.0
 40
0.0
 40
0.0
 40
0.1053432609984026
 40
0.2043754661654294
 40
0.2980686612490644
 40
0.3870699389029767
 40
0.429725727732517
 40
0.4709012389537418
 40
0.5111216710274202
 40
0.5501787824700682
 40
0.5883543698960263
 40
0.6266830105708967
 40
0.6644516852874769
 40
0.7025148539501567
 40
0.7404811716294023
 40
0.7776181215946409
 40
0.8147160450669567
 40
0.8515265100150812
 40
0.8880984508373161
 40
0.9251116757437154
 40
0.9621036957071506
 40
1.0
 40
1.0
 40
1.0
 40
1.0
 10
218.2670018022423
 20
104.6586984968205
 30
0.0
 10
218.2677599283788
 20
104.617082499592
 30
0.0
 10
218.2692307617391
 20
104.5363436962467
 30
0.0
 10
218.2837442718399
 20
104.4193398337811
 30
0.0
 10
218.3058721082202
 20
104.310206724088
 30
0.0
 10
218.3325772187454
 20
104.225061153846
 30
0.0
 10
218.3593651277748
 20
104.1622561780962
 30
0.0
 10
218.3810298426326
 20
104.1182729478213
 30
0.0
 10
218.4057592503497
 20
104.0775730002751
 30
0.0
 10
218.4329382404234
 20
104.0399251955015
 30
0.0
 10
218.4629169067728
 20
104.0054393510372
 30
0.0
 10
218.4952775858833
 20
103.9739322756528
 30
0.0
 10
218.5300275062479
 20
103.945100797106
 30
0.0
 10
218.5675784221581
 20
103.9202945693021
 30
0.0
 10
218.6064849516531
 20
103.8982688020755
 30
0.0
 10
218.646256125679
 20
103.8786830692387
 30
0.0
 10
218.6869169846034
 20
103.8621183232526
 30
0.0
 10
218.7286315778188
 20
103.8492504921535
 30
0.0
 10
218.7708141208482
 20
103.8381308971169
 30
0.0
 10
218.8139292109306
 20
103.8308670557531
 30
0.0
 10
218.8579645533186
 20
103.8267675725421
 30
0.0
 10
218.8875331969146
 20
103.8260197225434
 30
0.0
 10
218.9024960409409
 20
103.8256412823607
 30
0.0
  0
SPLINE
  5
133
330
1F
100
AcDbEntity
  8
0
  6
Continuous
 62
     7
370
     0
100
AcDbSpline
210
0.0
220
0.0
230
1.0
 70
     8
 71
     3
 72
    23
 73
    19
 74
     0
 42
0.00000001
 43
0.00000001
 40
0.0
 40
0.0
 40
0.0
 40
0.0
 40
0.0704642259291749
 40
0.137956965604269
 40
0.2035785636142838
 40
0.2676916802449431
 40
0.3301858648593746
 40
0.3915337640898202
 40
0.4526637734870348
 40
0.5131537880892133
 40
0.5734535531000283
 40
0.6329675593891928
 40
0.6923319074206212
 40
0.75147419157163
 40
0.8121874455294295
 40
0.872961717848316
 40
0.935420306759491
 40
1.0
 40
1.0
 40
1.0
 40
1.0
 10
233.750588437995
 20
107.8559259878895
 30
0.0
 10
233.7657466226934
 20
107.8511808260269
 30
0.0
 10
233.7954237693233
 20
107.8418906064405
 30
0.0
 10
233.8380877506025
 20
107.8248908076394
 30
0.0
 10
233.8781361991966
 20
107.8055341037792
 30
0.0
 10
233.9156562895226
 20
107.7837886863211
 30
0.0
 10
233.9503945030754
 20
107.7594531819885
 30
0.0
 10
233.9822528215451
 20
107.7324896530621
 30
0.0
 10
234.0114521367467
 20
107.7033153531262
 30
0.0
 10
234.0379402812409
 20
107.6719480285552
 30
0.0
 10
234.0612073372068
 20
107.6385895347767
 30
0.0
 10
234.0820749797729
 20
107.6039689567206
 30
0.0
 10
234.0993065712597
 20
107.5676693863345
 30
0.0
 10
234.1134306793006
 20
107.5297850663863
 30
0.0
 10
234.1244495833553
 20
107.4905500889178
 30
0.0
 10
234.1323623558977
 20
107.4498135491901
 30
0.0
 10
234.1368724342264
 20
107.4076702694786
 30
0.0
 10
234.1375498335879
 20
107.3790414811947
 30
0.0
 10
234.1378941883935
 20
107.3644880856835
 30
0.0
  0
SPLINE
  5
134
330
1F
100
AcDbEntity
  8
0
  6
Continuous
 62
     7
370
     0
100
AcDbSpline
210
0.0
220
0.0
230
1.0
 70
     8
 71
     3
 72
    15
 73
    11
 74
     0
 42
0.00000001
 43
0.00000001
 40
0.0
 40
0.0
 40
0.0
 40
0.0
 40
0.1158426906010177
 40
0.2305685484828844
 40
0.3473546045205441
 40
0.4682527467344622
 40
0.5923025714800838
 40
0.7199701656206967
 40
0.8556003811349103
 40
1.0
 40
1.0
 40
1.0
 40
1.0
 10
234.058868998089
 20
108.2979731461553
 30
0.0
 10
234.0579103013906
 20
108.2759397665028
 30
0.0
 10
234.0560021507335
 20
108.2320854297441
 30
0.0
 10
234.0408154063748
 20
108.1674853243753
 30
0.0
 10
234.0168460775419
 20
108.1047590242943
 30
0.0
 10
233.9829527679872
 20
108.0446690924392
 30
0.0
 10
233.9396328699717
 20
107.9883148604466
 30
0.0
 10
233.8859285670011
 20
107.9376030350221
 30
0.0
 10
233.8226115850237
 20
107.8924249349297
 30
0.0
 10
233.7750921921546
 20
107.8683436794548
 30
0.0
 10
233.750588437995
 20
107.8559259878895
 30
0.0
  0
SPLINE
  5
135
330
1F
100
AcDbEntity
  8
0
  6
Continuous
 62
     7
370
     0
100
AcDbSpline
210
0.0
220
0.0
230
1.0
 70
     8
 71
     3
 72
    23
 73
    19
 74
     0
 42
0.00000001
 43
0.00000001
 40
0.0
 40
0.0
 40
0.0
 40
0.0
 40
0.0587320371008649
 40
0.1146029008469815
 40
0.1676568100446119
 40
0.2179667070908431
 40
0.2657752056293755
 40
0.3111706510536958
 40
0.3537918046646693
 40
0.3947449080003065
 40
0.472805951082463
 40
0.549192366561607
 40
0.6247801075795548
 40
0.7026247640242256
 40
0.7797414321940388
 40
0.8540634639886252
 40
0.92715526641035
 40
0.9999999999999999
 40
0.9999999999999999
 40
0.9999999999999999
 40
0.9999999999999999
 10
233.379334679377
 20
108.8305700016449
 30
0.0
 10
233.3984110758464
 20
108.830496819987
 30
0.0
 10
233.4356345484348
 20
108.8303540217684
 30
0.0
 10
233.4899885155521
 20
108.8267827861762
 30
0.0
 10
233.5414657811791
 20
108.8218980765073
 30
0.0
 10
233.5901771639212
 20
108.8156015359462
 30
0.0
 10
233.6359118901468
 20
108.8064653834529
 30
0.0
 10
233.6786273402924
 20
108.7953975454326
 30
0.0
 10
233.718545804614
 20
108.7826311518509
 30
0.0
 10
233.7673400442349
 20
108.763183799318
 30
0.0
 10
233.8235700558532
 20
108.7332501900014
 30
0.0
 10
233.8837977401201
 20
108.6885845214846
 30
0.0
 10
233.9361981654298
 20
108.6349570756432
 30
0.0
 10
233.9793160094235
 20
108.5734701723071
 30
0.0
 10
234.014840462553
 20
108.5077905633274
 30
0.0
 10
234.0400268839411
 20
108.4391695076179
 30
0.0
 10
234.0561299272943
 20
108.3691010527756
 30
0.0
 10
234.0579570055648
 20
108.3216556735398
 30
0.0
 10
234.058868998089
 20
108.2979731461553
 30
0.0
  0
LINE
  5
136
330
1F
100
AcDbEntity
  8
0
  6
Continuous
 62
     7
370
     0
100
AcDbLine
 10
232.6100738425
 20
108.8305700016
 30
0.0
 11
233.3793346794
 21
108.8305700016
 31
0.0
  0
LINE
  5
137
330
1F
100
AcDbEntity
  8
0
  6
Continuous
 62
     7
370
     0
100
AcDbLine
 10
232.6100738425
 20
106.7759150537
 30
0.0
 11
232.6100738425
 21
108.8305700016
 31
0.0
  0
LINE
  5
138
330
1F
100
AcDbEntity
  8
0
  6
Continuous
 62
     7
370
     0
100
AcDbLine
 10
233.381392627
 20
106.7759150537
 30
0.0
 11
232.6100738425
 21
106.7759150537
 31
0.0
  0
SPLINE
  5
139
330
1F
100
AcDbEntity
  8
0
  6
Continuous
 62
     7
370
     0
100
AcDbSpline
210
0.0
220
0.0
230
1.0
 70
     8
 71
     3
 72
    23
 73
    19
 74
     0
 42
0.00000001
 43
0.00000001
 40
0.0
 40
0.0
 40
0.0
 40
0.0
 40
0.0642545754247028
 40
0.1273603868320974
 40
0.1894718420926419
 40
0.2517207629332009
 40
0.3120272840890018
 40
0.3686746571150508
 40
0.4226814918055488
 40
0.4740604252251504
 40
0.525773772273917
 40
0.5796221048577136
 40
0.6373752855308656
 40
0.698400381820801
 40
0.7643573310122576
 40
0.8363147679791493
 40
0.9146777942540475
 40
1.0
 40
1.0
 40
1.0
 40
1.0
 10
234.1378941883935
 20
107.3644880856835
 30
0.0
 10
234.1371844206334
 20
107.3411228128096
 30
0.0
 10
234.1357775745699
 20
107.2948099989439
 30
0.0
 10
234.1244790323044
 20
107.2266453252963
 30
0.0
 10
234.1053850949385
 20
107.1610766542304
 30
0.0
 10
234.0791039140135
 20
107.0991641519185
 30
0.0
 10
234.0477888290386
 20
107.0419169284032
 30
0.0
 10
234.0121981378049
 20
106.9908339026359
 30
0.0
 10
233.9732394765834
 20
106.9464407154302
 30
0.0
 10
233.9298158095193
 20
106.909098110078
 30
0.0
 10
233.882207237895
 20
106.8774051660339
 30
0.0
 10
233.8290690942068
 20
106.8507176345037
 30
0.0
 10
233.7708122329712
 20
106.8271817892344
 30
0.0
 10
233.7062526159758
 20
106.8083804872147
 30
0.0
 10
233.6354196306088
 20
106.793444757397
 30
0.0
 10
233.5573520083338
 20
106.7837409894144
 30
0.0
 10
233.4719298100057
 20
106.776794392395
 30
0.0
 10
233.4124151226816
 20
106.7762163584415
 30
0.0
 10
233.3813926270412
 20
106.7759150537282
 30
0.0
  0
LINE
  5
13A
330
1F
100
AcDbEntity
  8
0
  6
Continuous
 62
     7
370
     0
100
AcDbLine
 10
229.4227245002
 20
107.0129906246
 30
0.0
 11
230.397368514
 21
107.0129906246
 31
0.0
  0
LINE
  5
13B
330
1F
100
AcDbEntity
  8
0
  6
Continuous
 62
     7
370
     0
100
AcDbLine
 10
229.4227245002
 20
108.8305700016
 30
0.0
 11
229.4227245002
 21
107.0129906246
 31
0.0
  0
LINE
  5
13C
330
1F
100
AcDbEntity
  8
0
  6
Continuous
 62
     7
370
     0
100
AcDbLine
 10
229.1329654691
 20
108.8305700016
 30
0.0
 11
229.4227245002
 21
108.8305700016
 31
0.0
  0
LINE
  5
13D
330
1F
100
AcDbEntity
  8
0
  6
Continuous
 62
     7
370
     0
100
AcDbLine
 10
229.1329654691
 20
106.7759150537
 30
0.0
 11
229.1329654691
 21
108.8305700016
 31
0.0
  0
LINE
  5
13E
330
1F
100
AcDbEntity
  8
0
  6
Continuous
 62
     7
370
     0
100
AcDbLine
 10
230.397368514
 20
106.7759150537
 30
0.0
 11
229.1329654691
 21
106.7759150537
 31
0.0
  0
LINE
  5
13F
330
1F
100
AcDbEntity
  8
0
  6
Continuous
 62
     7
370
     0
100
AcDbLine
 10
230.397368514
 20
107.0129906246
 30
0.0
 11
230.397368514
 21
106.7759150537
 31
0.0
  0
SPLINE
  5
140
330
1F
100
AcDbEntity
  8
0
  6
Continuous
 62
     7
370
     0
100
AcDbSpline
210
0.0
220
0.0
230
1.0
 70
     8
 71
     3
 72
    31
 73
    27
 74
     0
 42
0.00000001
 43
0.00000001
 40
0.0
 40
0.0
 40
0.0
 40
0.0
 40
0.0430989705688968
 40
0.0855867603450731
 40
0.1269076657436391
 40
0.1679674856215208
 40
0.208449558601066
 40
0.2490254246415441
 40
0.289280534171679
 40
0.3300098489827308
 40
0.370597724099577
 40
0.4104659863326995
 40
0.4500332158929483
 40
0.4896882096042475
 40
0.5291164230741915
 40
0.5690368070925096
 40
0.6097030542359448
 40
0.6507589174942197
 40
0.6925092624061777
 40
0.7342191213706863
 40
0.7767069111468624
 40
0.8195518402403216
 40
0.8633507288313336
 40
0.9078385251300618
 40
0.9533337036124183
 40
1.0
 40
1.0
 40
1.0
 40
1.0
 10
225.7361170546149
 20
108.8569117317464
 30
0.0
 10
225.759314779625
 20
108.8565066557962
 30
0.0
 10
225.8053812657798
 20
108.8557022482241
 30
0.0
 10
225.8734864541002
 20
108.8495817808714
 30
0.0
 10
225.939841578605
 20
108.838657806957
 30
0.0
 10
226.0043812961297
 20
108.8240184569058
 30
0.0
 10
226.0672812841786
 20
108.8048122662704
 30
0.0
 10
226.128579105444
 20
108.7821399426486
 30
0.0
 10
226.1877381659936
 20
108.7540457412351
 30
0.0
 10
226.2451520352866
 20
108.7225914870853
 30
0.0
 10
226.3001429851199
 20
108.687408543757
 30
0.0
 10
226.3518233420796
 20
108.6485420176572
 30
0.0
 10
226.4000693153789
 20
108.6062858546025
 30
0.0
 10
226.4455289793028
 20
108.5613346307399
 30
0.0
 10
226.4866854088573
 20
108.5121713050016
 30
0.0
 10
226.5252388807932
 20
108.4602934765187
 30
0.0
 10
226.5600815384549
 20
108.4047812673263
 30
0.0
 10
226.5913370112567
 20
108.3460895059942
 30
0.0
 10
226.6192825801069
 20
108.2851246760395
 30
0.0
 10
226.6431674651332
 20
108.2216341030774
 30
0.0
 10
226.6636769800798
 20
108.1563794009562
 30
0.0
 10
226.680845174402
 20
108.0889743315495
 30
0.0
 10
226.6931638170377
 20
108.019441938537
 30
0.0
 10
226.7029732853554
 20
107.9480818301301
 30
0.0
 10
226.7081362795477
 20
107.8746607774921
 30
0.0
 10
226.7090590510709
 20
107.8250635480658
 30
0.0
 10
226.7095262997717
 20
107.7999498114239
 30
0.0
  0
SPLINE
  5
141
330
1F
100
AcDbEntity
  8
0
  6
Continuous
 62
     7
370
     0
100
AcDbSpline
210
0.0
220
0.0
230
1.0
 70
     8
 71
     3
 72
    23
 73
    19
 74
     0
 42
0.00000001
 43
0.00000001
 40
0.0
 40
0.0
 40
0.0
 40
0.0
 40
0.0752263466908988
 40
0.1465747215268522
 40
0.2145002518264754
 40
0.2795299716530227
 40
0.3424029515883814
 40
0.4034960527288082
 40
0.4637616065030392
 40
0.5238643590795866
 40
0.5832517242549664
 40
0.6413020392831351
 40
0.6988977748564887
 40
0.7562952438113087
 40
0.814627804812969
 40
0.874324768339998
 40
0.9357832838625453
 40
1.0
 40
1.0
 40
1.0
 40
1.0
 10
224.760238272261
 20
107.7760776185194
 30
0.0
 10
224.760952391255
 20
107.817271679285
 30
0.0
 10
224.7623438158992
 20
107.8975362175869
 30
0.0
 10
224.7753446462335
 20
108.0144117276989
 30
0.0
 10
224.7964546576809
 20
108.1243762945366
 30
0.0
 10
224.826633286978
 20
108.2274213510806
 30
0.0
 10
224.8648847863389
 20
108.3237083696319
 30
0.0
 10
224.9113867909789
 20
108.4134553774166
 30
0.0
 10
224.967538050453
 20
108.4956465029183
 30
0.0
 10
225.0310594337315
 20
108.5710641522533
 30
0.0
 10
225.1020099012464
 20
108.6377388820868
 30
0.0
 10
225.1775519831509
 20
108.6969555947563
 30
0.0
 10
225.2586289630773
 20
108.7463493340207
 30
0.0
 10
225.3444917519502
 20
108.787132278853
 30
0.0
 10
225.4355051437152
 20
108.8184442429403
 30
0.0
 10
225.5314136004258
 20
108.8403654669651
 30
0.0
 10
225.632114548622
 20
108.8545067867214
 30
0.0
 10
225.7009460034861
 20
108.8560984393778
 30
0.0
 10
225.7361170546149
 20
108.8569117317464
 30
0.0
  0
SPLINE
  5
142
330
1F
100
AcDbEntity
  8
0
  6
Continuous
 62
     7
370
     0
100
AcDbSpline
210
0.0
220
0.0
230
1.0
 70
     8
 71
     3
 72
    31
 73
    27
 74
     0
 42
0.00000001
 43
0.00000001
 40
0.0
 40
0.0
 40
0.0
 40
0.0
 40
0.0446969998899171
 40
0.0885335629185875
 40
0.1314091332352275
 40
0.1738139421467784
 40
0.2157145332694449
 40
0.2572471603264208
 40
0.2988479641797117
 40
0.3406041827148143
 40
0.3820294481091344
 40
0.4229697500404858
 40
0.4636322295306197
 40
0.5040475437003945
 40
0.5445912057564576
 40
0.5849639251690937
 40
0.6262652162680831
 40
0.6679794005009905
 40
0.7099427472053506
 40
0.7513818550852256
 40
0.7926185649779642
 40
0.8339484357458206
 40
0.8750080506311037
 40
0.9164455302232757
 40
0.957906613728307
 40
1.0
 40
1.0
 40
1.0
 40
1.0
 10
225.7348822860164
 20
106.7495733236267
 30
0.0
 10
225.7112677280188
 20
106.7499227039383
 30
0.0
 10
225.6644932026274
 20
106.7506147388371
 30
0.0
 10
225.5953591943538
 20
106.7575224267669
 30
0.0
 10
225.5279451315487
 20
106.7680603453298
 30
0.0
 10
225.4624469988915
 20
106.7832739160914
 30
0.0
 10
225.3989542969817
 20
106.8031210940476
 30
0.0
 10
225.3373918994219
 20
106.8271434902564
 30
0.0
 10
225.2775432847622
 20
106.8550200528425
 30
0.0
 10
225.2201510752659
 20
106.8875489790747
 30
0.0
 10
225.1654106105777
 20
106.9237176484523
 30
0.0
 10
225.1138524550475
 20
106.9633462681112
 30
0.0
 10
225.0655051184452
 20
107.0060696251499
 30
0.0
 10
225.0211443776053
 20
107.0525938856841
 30
0.0
 10
224.9793335277944
 20
107.1012325272198
 30
0.0
 10
224.9417443546268
 20
107.1537934179113
 30
0.0
 10
224.9071492543652
 20
107.2090845317792
 30
0.0
 10
224.876571952727
 20
107.2676388512142
 30
0.0
 10
224.848949936649
 20
107.3277163638512
 30
0.0
 10
224.8256777914631
 20
107.3893362868672
 30
0.0
 10
224.8052260861385
 20
107.4515905063889
 30
0.0
 10
224.7889383730785
 20
107.5148627313944
 30
0.0
 10
224.7759590478252
 20
107.579007007273
 30
0.0
 10
224.767231392139
 20
107.6439166001899
 30
0.0
 10
224.7609282128407
 20
107.7096881819397
 30
0.0
 10
224.7604694097928
 20
107.753836441581
 30
0.0
 10
224.760238272261
 20
107.7760776185194
 30
0.0
  0
SPLINE
  5
143
330
1F
100
AcDbEntity
  8
0
  6
Continuous
 62
     7
370
     0
100
AcDbSpline
210
0.0
220
0.0
230
1.0
 70
     8
 71
     3
 72
    31
 73
    27
 74
     0
 42
0.00000001
 43
0.00000001
 40
0.0
 40
0.0
 40
0.0
 40
0.0
 40
0.0475595569054264
 40
0.0939621052432108
 40
0.1391115332408221
 40
0.1836263101269046
 40
0.2274570284004936
 40
0.2707025105518545
 40
0.3136105321155538
 40
0.3562604510849769
 40
0.3983661529550377
 40
0.4395565149792806
 40
0.4800453830214204
 40
0.5198884957050127
 40
0.5596577503171976
 40
0.5994212546627414
 40
0.6392077550883982
 40
0.6796683749857806
 40
0.7200198525128486
 40
0.7598588655624579
 40
0.7995598848323808
 40
0.8391991446364383
 40
0.8789560762302792
 40
0.918794269302466
 40
0.9590833628432752
 40
1.0
 40
1.0
 40
1.0
 40
1.0
 10
226.7095262997717
 20
107.7999498114239
 30
0.0
 10
226.7090981982201
 20
107.7744219487038
 30
0.0
 10
226.7082524097885
 20
107.7239872541942
 30
0.0
 10
226.7025294591729
 20
107.6494797794201
 30
0.0
 10
226.6924665227885
 20
107.5771112597208
 30
0.0
 10
226.6791197509769
 20
107.5066659052593
 30
0.0
 10
226.6612354842203
 20
107.4382903686101
 30
0.0
 10
226.6399827814854
 20
107.3717886129198
 30
0.0
 10
226.6142764368243
 20
107.3075567359238
 30
0.0
 10
226.585243974573
 20
107.245439925501
 30
0.0
 10
226.5523937558464
 20
107.1862925033607
 30
0.0
 10
226.5161577355593
 20
107.1305280561847
 30
0.0
 10
226.4765102428201
 20
107.0786682163114
 30
0.0
 10
226.4340535184435
 20
107.030076795878
 30
0.0
 10
226.3877960854602
 20
106.985622700367
 30
0.0
 10
226.3383075409228
 20
106.944890251365
 30
0.0
 10
226.2857781680086
 20
106.9074952955901
 30
0.0
 10
226.2300314947353
 20
106.8744506053869
 30
0.0
 10
226.1720679711909
 20
106.8454857540837
 30
0.0
 10
226.1130346041277
 20
106.8197887126171
 30
0.0
 10
226.0528875422422
 20
106.7978732530522
 30
0.0
 10
225.991421221295
 20
106.7801129513359
 30
0.0
 10
225.9288033153749
 20
106.7666919890162
 30
0.0
 10
225.8652100387134
 20
106.7566422308727
 30
0.0
 10
225.8004329237385
 20
106.7508555456232
 30
0.0
 10
225.7568447790976
 20
106.7500029272539
 30
0.0
 10
225.7348822860164
 20
106.7495733236267
 30
0.0
  0
LINE
  5
144
330
1F
100
AcDbEntity
  8
0
  6
Continuous
 62
     7
370
     0
100
AcDbLine
 10
222.4948494835
 20
108.5934944307
 30
0.0
 11
221.836306231
 21
108.5934944307
 31
0.0
  0
LINE
  5
145
330
1F
100
AcDbEntity
  8
0
  6
Continuous
 62
     7
370
     0
100
AcDbLine
 10
222.4948494835
 20
108.8305700016
 30
0.0
 11
222.4948494835
 21
108.5934944307
 31
0.0
  0
LINE
  5
146
330
1F
100
AcDbEntity
  8
0
  6
Continuous
 62
     7
370
     0
100
AcDbLine
 10
220.8880039473
 20
108.8305700016
 30
0.0
 11
222.4948494835
 21
108.8305700016
 31
0.0
  0
LINE
  5
147
330
1F
100
AcDbEntity
  8
0
  6
Continuous
 62
     7
370
     0
100
AcDbLine
 10
220.8880039473
 20
108.5934944307
 30
0.0
 11
220.8880039473
 21
108.8305700016
 31
0.0
  0
LINE
  5
148
330
1F
100
AcDbEntity
  8
0
  6
Continuous
 62
     7
370
     0
100
AcDbLine
 10
221.5465471999
 20
108.5934944307
 30
0.0
 11
220.8880039473
 21
108.5934944307
 31
0.0
  0
LINE
  5
149
330
1F
100
AcDbEntity
  8
0
  6
Continuous
 62
     7
370
     0
100
AcDbLine
 10
221.5465471999
 20
106.7759150537
 30
0.0
 11
221.5465471999
 21
108.5934944307
 31
0.0
  0
LINE
  5
14A
330
1F
100
AcDbEntity
  8
0
  6
Continuous
 62
     7
370
     0
100
AcDbLine
 10
221.836306231
 20
106.7759150537
 30
0.0
 11
221.5465471999
 21
106.7759150537
 31
0.0
  0
LINE
  5
14B
330
1F
100
AcDbEntity
  8
0
  6
Continuous
 62
     7
370
     0
100
AcDbLine
 10
221.836306231
 20
108.5934944307
 30
0.0
 11
221.836306231
 21
106.7759150537
 31
0.0
  0
CIRCLE
  5
14C
330
1F
100
AcDbEntity
  8
0
  6
Continuous
 62
     7
370
     0
100
AcDbCircle
 10
228.4875930816
 20
106.2259150537
 30
0.0
 40
25.20000000000002
  0
LINE
  5
14D
330
1F
100
AcDbEntity
  8
0
  6
Continuous
 62
     7
370
     0
100
AcDbLine
 10
224.1016950197
 20
107.7505590675
 30
0.0
 11
223.1007092759
 21
107.7505590675
 31
0.0
  0
LINE
  5
14E
330
1F
100
AcDbEntity
  8
0
  6
Continuous
 62
     7
370
     0
100
AcDbLine
 10
224.1016950197
 20
106.7759150537
 30
0.0
 11
224.1016950197
 21
107.7505590675
 31
0.0
  0
LINE
  5
14F
330
1F
100
AcDbEntity
  8
0
  6
Continuous
 62
     7
370
     0
100
AcDbLine
 10
224.3914540508
 20
106.7759150537
 30
0.0
 11
224.1016950197
 21
106.7759150537
 31
0.0
  0
LINE
  5
150
330
1F
100
AcDbEntity
  8
0
  6
Continuous
 62
     7
370
     0
100
AcDbLine
 10
224.3914540508
 20
108.8305700016
 30
0.0
 11
224.3914540508
 21
106.7759150537
 31
0.0
  0
LINE
  5
151
330
1F
100
AcDbEntity
  8
0
  6
Continuous
 62
     7
370
     0
100
AcDbLine
 10
224.1016950197
 20
108.8305700016
 30
0.0
 11
224.3914540508
 21
108.8305700016
 31
0.0
  0
LINE
  5
152
330
1F
100
AcDbEntity
  8
0
  6
Continuous
 62
     7
370
     0
100
AcDbLine
 10
224.1016950197
 20
107.9876346384
 30
0.0
 11
224.1016950197
 21
108.8305700016
 31
0.0
  0
LINE
  5
153
330
1F
100
AcDbEntity
  8
0
  6
Continuous
 62
     7
370
     0
100
AcDbLine
 10
223.1007092759
 20
107.9876346384
 30
0.0
 11
224.1016950197
 21
107.9876346384
 31
0.0
  0
LINE
  5
154
330
1F
100
AcDbEntity
  8
0
  6
Continuous
 62
     7
370
     0
100
AcDbLine
 10
223.1007092759
 20
108.8305700016
 30
0.0
 11
223.1007092759
 21
107.9876346384
 31
0.0
  0
LINE
  5
155
330
1F
100
AcDbEntity
  8
0
  6
Continuous
 62
     7
370
     0
100
AcDbLine
 10
222.8109502448
 20
108.8305700016
 30
0.0
 11
223.1007092759
 21
108.8305700016
 31
0.0
  0
LINE
  5
156
330
1F
100
AcDbEntity
  8
0
  6
Continuous
 62
     7
370
     0
100
AcDbLine
 10
222.8109502448
 20
106.7759150537
 30
0.0
 11
222.8109502448
 21
108.8305700016
 31
0.0
  0
LINE
  5
157
330
1F
100
AcDbEntity
  8
0
  6
Continuous
 62
     7
370
     0
100
AcDbLine
 10
223.1007092759
 20
106.7759150537
 30
0.0
 11
222.8109502448
 21
106.7759150537
 31
0.0
  0
LINE
  5
158
330
1F
100
AcDbEntity
  8
0
  6
Continuous
 62
     7
370
     0
100
AcDbLine
 10
223.1007092759
 20
107.7505590675
 30
0.0
 11
223.1007092759
 21
106.7759150537
 31
0.0
  0
LINE
  5
159
330
1F
100
AcDbEntity
  8
0
  6
Continuous
 62
     7
370
     0
100
AcDbLine
 10
227.6648256055
 20
107.6978756073
 30
0.0
 11
227.3680695523
 21
107.6978756073
 31
0.0
  0
SPLINE
  5
15A
330
1F
100
AcDbEntity
  8
0
  6
Continuous
 62
     7
370
     0
100
AcDbSpline
210
0.0
220
0.0
230
1.0
 70
     8
 71
     3
 72
    11
 73
     7
 74
     0
 42
0.00000001
 43
0.00000001
 40
0.0
 40
0.0
 40
0.0
 40
0.0
 40
0.1774946570818496
 40
0.4052256231013751
 40
0.6783881083348569
 40
0.9999999999999999
 40
0.9999999999999999
 40
0.9999999999999999
 40
0.9999999999999999
 10
227.8076471733778
 20
107.6884090480254
 30
0.0
 10
227.799295592726
 20
107.6899151218546
 30
0.0
 10
227.7802286837319
 20
107.6933535335561
 30
0.0
 10
227.7478531198388
 20
107.6955991657203
 30
0.0
 10
227.7086261522936
 20
107.6979826038266
 30
0.0
 10
227.6801977004166
 20
107.6979131584342
 30
0.0
 10
227.6648256054838
 20
107.6978756072806
 30
0.0
  0
SPLINE
  5
15B
330
1F
100
AcDbEntity
  8
0
  6
Continuous
 62
     7
370
     0
100
AcDbSpline
210
0.0
220
0.0
230
1.0
 70
     8
 71
     3
 72
    21
 73
    17
 74
     0
 42
0.00000001
 43
0.00000001
 40
0.0
 40
0.0
 40
0.0
 40
0.0
 40
0.0807814705861227
 40
0.1565412257955895
 40
0.227934986843486
 40
0.2943103173046012
 40
0.3568678635548113
 40
0.4147585592592751
 40
0.4676413968340161
 40
0.5167484215300129
 40
0.604729741894053
 40
0.6815706529393896
 40
0.7481095416219826
 40
0.8049410995352804
 40
0.9054060495000024
 40
1.0
 40
1.0
 40
1.0
 40
1.0
 10
228.2389930037898
 20
107.2097304213372
 30
0.0
 10
228.229788217239
 20
107.2249513549512
 30
0.0
 10
228.2119508523163
 20
107.2544470250397
 30
0.0
 10
228.1861854177217
 20
107.2975240312911
 30
0.0
 10
228.1609232562199
 20
107.337183279151
 30
0.0
 10
228.1374930335295
 20
107.374558251506
 30
0.0
 10
228.1149439119525
 20
107.4089704241655
 30
0.0
 10
228.0934937687781
 20
107.4405393383128
 30
0.0
 10
228.0737329214718
 20
107.4696791368607
 30
0.0
 10
228.0492565573156
 20
107.5036054457097
 30
0.0
 10
228.0207701346959
 20
107.5411452212713
 30
0.0
 10
227.9875284340235
 20
107.5798041012856
 30
0.0
 10
227.9558724791837
 20
107.6106263113575
 30
0.0
 10
227.9168875865865
 20
107.6408507670206
 30
0.0
 10
227.8685988991576
 20
107.6691206648625
 30
0.0
 10
227.8275526033161
 20
107.6821099062905
 30
0.0
 10
227.8076471733778
 20
107.6884090480254
 30
0.0
  0
LINE
  5
15C
330
1F
100
AcDbEntity
  8
0
  6
Continuous
 62
     7
370
     0
100
AcDbLine
 10
228.4950016932
 20
106.7759150537
 30
0.0
 11
228.2389930038
 21
107.2097304213
 31
0.0
  0
LINE
  5
15D
330
1F
100
AcDbEntity
  8
0
  6
Continuous
 62
     7
370
     0
100
AcDbLine
 10
228.8271544462
 20
106.7759150537
 30
0.0
 11
228.4950016932
 21
106.7759150537
 31
0.0
  0
LINE
  5
15E
330
1F
100
AcDbEntity
  8
0
  6
Continuous
 62
     7
370
     0
100
AcDbLine
 10
228.4900626188
 20
107.34308543
 30
0.0
 11
228.8271544462
 21
106.7759150537
 31
0.0
  0
SPLINE
  5
15F
330
1F
100
AcDbEntity
  8
0
  6
Continuous
 62
     7
370
     0
100
AcDbSpline
210
0.0
220
0.0
230
1.0
 70
     8
 71
     3
 72
    11
 73
     7
 74
     0
 42
0.00000001
 43
0.00000001
 40
0.0
 40
0.0
 40
0.0
 40
0.0
 40
0.2295275697008571
 40
0.4714659343032296
 40
0.7281863484998701
 40
1.0
 40
1.0
 40
1.0
 40
1.0
 10
228.273566524548
 20
107.6229663123045
 30
0.0
 10
228.29297633442
 20
107.6039390264257
 30
0.0
 10
228.3328454628121
 20
107.5648556294911
 30
0.0
 10
228.3877868535002
 20
107.4982851555694
 30
0.0
 10
228.4410544186689
 20
107.4241820029979
 30
0.0
 10
228.4734184808404
 20
107.3706274035003
 30
0.0
 10
228.4900626188197
 20
107.3430854299761
 30
0.0
  0
SPLINE
  5
160
330
1F
100
AcDbEntity
  8
0
  6
Continuous
 62
     7
370
     0
100
AcDbSpline
210
0.0
220
0.0
230
1.0
 70
     8
 71
     3
 72
    11
 73
     7
 74
     0
 42
0.00000001
 43
0.00000001
 40
0.0
 40
0.0
 40
0.0
 40
0.0
 40
0.2930762433192213
 40
0.5565623371181898
 40
0.7919136092098108
 40
1.0
 40
1.0
 40
1.0
 40
1.0
 10
228.1138697858077
 20
107.7242173373821
 30
0.0
 10
228.1304116328146
 20
107.715860761147
 30
0.0
 10
228.1618251958047
 20
107.6999913220309
 30
0.0
 10
228.2053176630224
 20
107.6751081793245
 30
0.0
 10
228.242184721947
 20
107.6496837392053
 30
0.0
 10
228.2635436773439
 20
107.6314994323077
 30
0.0
 10
228.273566524548
 20
107.6229663123045
 30
0.0
  0
SPLINE
  5
161
330
1F
100
AcDbEntity
  8
0
  6
Continuous
 62
     7
370
     0
100
AcDbSpline
210
0.0
220
0.0
230
1.0
 70
     8
 71
     3
 72
    23
 73
    19
 74
     0
 42
0.00000001
 43
0.00000001
 40
0.0
 40
0.0
 40
0.0
 40
0.0
 40
0.0614130692946597
 40
0.1212950233845471
 40
0.1792240423087202
 40
0.2359380947348319
 40
0.2922168332673612
 40
0.3481966394342069
 40
0.4044447389633588
 40
0.4620255339229974
 40
0.5203342118681488
 40
0.5803829016508381
 40
0.641825904813988
 40
0.7063632097966277
 40
0.7738513938275595
 40
0.8452662573568828
 40
0.920154675768406
 40
1.0
 40
1.0
 40
1.0
 40
1.0
 10
228.6588143272824
 20
108.2765704904478
 30
0.0
 10
228.6584122670066
 20
108.2589946418225
 30
0.0
 10
228.6576181703898
 20
108.2242811354876
 30
0.0
 10
228.6515353104261
 20
108.1732429894203
 30
0.0
 10
228.6405288664472
 20
108.1244780932011
 30
0.0
 10
228.62641527145
 20
108.0775593726113
 30
0.0
 10
228.6070980655219
 20
108.0331515909267
 30
0.0
 10
228.5847199209127
 20
107.9903477056735
 30
0.0
 10
228.556996581346
 20
107.9503236537788
 30
0.0
 10
228.5259572369979
 20
107.9120136589127
 30
0.0
 10
228.4903634326756
 20
107.8762382188849
 30
0.0
 10
228.4499020504425
 20
107.8442880236134
 30
0.0
 10
228.4049741746961
 20
107.8155487590107
 30
0.0
 10
228.3553682131771
 20
107.7908133525537
 30
0.0
 10
228.3016551803745
 20
107.7682040167236
 30
0.0
 10
228.2431611252743
 20
107.7499978901353
 30
0.0
 10
228.1801221250052
 20
107.7351311917151
 30
0.0
 10
228.1364205597314
 20
107.7279321626197
 30
0.0
 10
228.1138697858077
 20
107.7242173373821
 30
0.0
  0
SPLINE
  5
162
330
1F
100
AcDbEntity
  8
0
  6
Continuous
 62
     7
370
     0
100
AcDbSpline
210
0.0
220
0.0
230
1.0
 70
     8
 71
     3
 72
    27
 73
    23
 74
     0
 42
0.00000001
 43
0.00000001
 40
0.0
 40
0.0
 40
0.0
 40
0.0
 40
0.0621127506505295
 40
0.1202119588785538
 40
0.1743851213884739
 40
0.2254437557784867
 40
0.2723582126361769
 40
0.3163881629634409
 40
0.3568694790582284
 40
0.3939783235063669
 40
0.4295893718770922
 40
0.4646830409549871
 40
0.5000363461428401
 40
0.535482747753064
 40
0.5713634671484438
 40
0.6079085322052602
 40
0.645662298533116
 40
0.6845173397035776
 40
0.7625786223763463
 40
0.8404972886541806
 40
0.9190729926935233
 40
1.0
 40
1.0
 40
1.0
 40
1.0
 10
227.9698134493152
 20
108.8305700016449
 30
0.0
 10
227.9908056135017
 20
108.8304055193516
 30
0.0
 10
228.0314334902507
 20
108.8300871831249
 30
0.0
 10
228.0903523002842
 20
108.8278337241714
 30
0.0
 10
228.1453471028802
 20
108.8229758578152
 30
0.0
 10
228.1965190150801
 20
108.8177227523942
 30
0.0
 10
228.2438589451023
 20
108.8096599371834
 30
0.0
 10
228.2873180536302
 20
108.8004120702802
 30
0.0
 10
228.3269634393297
 20
108.789406968849
 30
0.0
 10
228.3629723410551
 20
108.7764090956748
 30
0.0
 10
228.3963807500778
 20
108.7617039493871
 30
0.0
 10
228.4273478217311
 20
108.7435601730269
 30
0.0
 10
228.4571608172712
 20
108.7236784628139
 30
0.0
 10
228.4847132724265
 20
108.7003204203813
 30
0.0
 10
228.5107318858972
 20
108.6747455259217
 30
0.0
 10
228.5351925428144
 20
108.6466062708783
 30
0.0
 10
228.5577331226171
 20
108.6156584637859
 30
0.0
 10
228.5855342284013
 20
108.5713657338137
 30
0.0
 10
228.6153591467323
 20
108.5123771448575
 30
0.0
 10
228.6402079883788
 20
108.4368845324895
 30
0.0
 10
228.656230076951
 20
108.3579165044364
 30
0.0
 10
228.6579444862053
 20
108.3039510052415
 30
0.0
 10
228.6588143272824
 20
108.2765704904478
 30
0.0
  0
LINE
  5
163
330
1F
100
AcDbEntity
  8
0
  6
Continuous
 62
     7
370
     0
100
AcDbLine
 10
227.0783105212
 20
108.8305700016
 30
0.0
 11
227.9698134493
 21
108.8305700016
 31
0.0
  0
LINE
  5
164
330
1F
100
AcDbEntity
  8
0
  6
Continuous
 62
     7
370
     0
100
AcDbLine
 10
227.0783105212
 20
106.7759150537
 30
0.0
 11
227.0783105212
 21
108.8305700016
 31
0.0
  0
LINE
  5
165
330
1F
100
AcDbEntity
  8
0
  6
Continuous
 62
     7
370
     0
100
AcDbLine
 10
227.3680695523
 20
106.7759150537
 30
0.0
 11
227.0783105212
 21
106.7759150537
 31
0.0
  0
LINE
  5
166
330
1F
100
AcDbEntity
  8
0
  6
Continuous
 62
     7
370
     0
100
AcDbLine
 10
227.3680695523
 20
107.6978756073
 30
0.0
 11
227.3680695523
 21
106.7759150537
 31
0.0
  0
LINE
  5
167
330
1F
100
AcDbEntity
  8
0
  6
Continuous
 62
     7
370
     0
100
AcDbLine
 10
231.8494563858
 20
107.4081165762
 30
0.0
 11
230.97359386
 21
107.4081165762
 31
0.0
  0
LINE
  5
168
330
1F
100
AcDbEntity
  8
0
  6
Continuous
 62
     7
370
     0
100
AcDbLine
 10
232.0832392405
 20
106.7759150537
 30
0.0
 11
231.8494563858
 21
107.4081165762
 31
0.0
  0
LINE
  5
169
330
1F
100
AcDbEntity
  8
0
  6
Continuous
 62
     7
370
     0
100
AcDbLine
 10
232.3906966215
 20
106.7759150537
 30
0.0
 11
232.0832392405
 21
106.7759150537
 31
0.0
  0
LINE
  5
16A
330
1F
100
AcDbEntity
  8
0
  6
Continuous
 62
     7
370
     0
100
AcDbLine
 10
231.5749261674
 20
108.8305700016
 30
0.0
 11
232.3906966215
 21
106.7759150537
 31
0.0
  0
LINE
  5
16B
330
1F
100
AcDbEntity
  8
0
  6
Continuous
 62
     7
370
     0
100
AcDbLine
 10
231.2481240784
 20
108.8305700016
 30
0.0
 11
231.5749261674
 21
108.8305700016
 31
0.0
  0
LINE
  5
16C
330
1F
100
AcDbEntity
  8
0
  6
Continuous
 62
     7
370
     0
100
AcDbLine
 10
230.4323536243
 20
106.7759150537
 30
0.0
 11
231.2481240784
 21
108.8305700016
 31
0.0
  0
LINE
  5
16D
330
1F
100
AcDbEntity
  8
0
  6
Continuous
 62
     7
370
     0
100
AcDbLine
 10
230.7398110053
 20
106.7759150537
 30
0.0
 11
230.4323536243
 21
106.7759150537
 31
0.0
  0
LINE
  5
16E
330
1F
100
AcDbEntity
  8
0
  6
Continuous
 62
     7
370
     0
100
AcDbLine
 10
230.97359386
 20
107.4081165762
 30
0.0
 11
230.7398110053
 21
106.7759150537
 31
0.0
  0
SPLINE
  5
16F
330
1F
100
AcDbEntity
  8
0
  6
Continuous
 62
     7
370
     0
100
AcDbSpline
210
0.0
220
0.0
230
1.0
 70
     8
 71
     3
 72
    23
 73
    19
 74
     0
 42
0.00000001
 43
0.00000001
 40
0.0
 40
0.0
 40
0.0
 40
0.0
 40
0.0749313059818448
 40
0.1470775964339469
 40
0.2163644561730687
 40
0.2825027309006237
 40
0.3466877108244162
 40
0.4088355551310375
 40
0.4692619872876909
 40
0.5284320432534628
 40
0.5870013379727417
 40
0.644416393832067
 40
0.7021887902662974
 40
0.7597671795443349
 40
0.8184897928274489
 40
0.8776328274167843
 40
0.9380195662701677
 40
1.0
 40
1.0
 40
1.0
 40
1.0
 10
235.6517204901639
 20
107.8559259878895
 30
0.0
 10
235.6664933861643
 20
107.8491147341525
 30
0.0
 10
235.695490105328
 20
107.8357453845165
 30
0.0
 10
235.73656784088
 20
107.8129192312132
 30
0.0
 10
235.7748978246905
 20
107.7892154998374
 30
0.0
 10
235.8101703761068
 20
107.763996005897
 30
0.0
 10
235.842271441925
 20
107.7372077008161
 30
0.0
 10
235.871559949561
 20
107.7091575196362
 30
0.0
 10
235.8982127913222
 20
107.6800031089492
 30
0.0
 10
235.9211545275817
 20
107.6488113578653
 30
0.0
 10
235.941753852982
 20
107.616843177473
 30
0.0
 10
235.9597796343951
 20
107.5836517713678
 30
0.0
 10
235.9742936474118
 20
107.54904194725
 30
0.0
 10
235.9870233421186
 20
107.5134308944179
 30
0.0
 10
235.9961796439237
 20
107.4764225143742
 30
0.0
 10
236.0033600313525
 20
107.4383906164749
 30
0.0
 10
236.0075482312578
 20
107.3991564397444
 30
0.0
 10
236.0079523397992
 20
107.3725924166
 30
0.0
 10
236.0081570255997
 20
107.3591374217567
 30
0.0
  0
SPLINE
  5
170
330
1F
100
AcDbEntity
  8
0
  6
Continuous
 62
     7
370
     0
100
AcDbSpline
210
0.0
220
0.0
230
1.0
 70
     8
 71
     3
 72
    23
 73
    19
 74
     0
 42
0.00000001
 43
0.00000001
 40
0.0
 40
0.0
 40
0.0
 40
0.0
 40
0.0327432182311376
 40
0.0724096054938575
 40
0.1196114857927603
 40
0.1746729151985131
 40
0.2373450901947013
 40
0.3083524168429163
 40
0.3876300477623597
 40
0.4747836155862522
 40
0.5633323159904144
 40
0.6451362168299873
 40
0.7202025267224655
 40
0.7891341563324459
 40
0.8514970735699655
 40
0.9073306044315619
 40
0.9569686823424193
 40
1.0
 40
1.0
 40
1.0
 40
1.0
 10
234.843770237207
 20
108.1316909748896
 30
0.0
 10
234.8509057142062
 20
108.1256092285416
 30
0.0
 10
234.866685381033
 20
108.1121598219908
 30
0.0
 10
234.8960458836347
 20
108.0943611071426
 30
0.0
 10
234.9324485524733
 20
108.0763777741392
 30
0.0
 10
234.9761366242235
 20
108.0585009495237
 30
0.0
 10
235.0270349319914
 20
108.0405136105078
 30
0.0
 10
235.0850613758003
 20
108.021993433033
 30
0.0
 10
235.1504369715302
 20
108.0035994342426
 30
0.0
 10
235.2211693998774
 20
107.9858737729936
 30
0.0
 10
235.2926256456056
 20
107.9680768532242
 30
0.0
 10
235.3605331021627
 20
107.9503477627201
 30
0.0
 10
235.4228836419316
 20
107.9335454636979
 30
0.0
 10
235.4795783412552
 20
107.9171575732937
 30
0.0
 10
235.530675880914
 20
107.9012304305371
 30
0.0
 10
235.5759986782349
 20
107.885430341257
 30
0.0
 10
235.6159134117894
 20
107.870898266914
 30
0.0
 10
235.640365901619
 20
107.8606737661395
 30
0.0
 10
235.6517204901639
 20
107.8559259878895
 30
0.0
  0
SPLINE
  5
171
330
1F
100
AcDbEntity
  8
0
  6
Continuous
 62
     7
370
     0
100
AcDbSpline
210
0.0
220
0.0
230
1.0
 70
     8
 71
     3
 72
    11
 73
     7
 74
     0
 42
0.00000001
 43
0.00000001
 40
0.0
 40
0.0
 40
0.0
 40
0.0
 40
0.2627412305282691
 40
0.5099565029432329
 40
0.7533267184204503
 40
1.0
 40
1.0
 40
1.0
 40
1.0
 10
234.7700957108294
 20
108.3132019588702
 30
0.0
 10
234.7708445163701
 20
108.2955246108238
 30
0.0
 10
234.7722978788826
 20
108.2612145081691
 30
0.0
 10
234.787138835077
 20
108.2124701947885
 30
0.0
 10
234.8099643295389
 20
108.1680365948296
 30
0.0
 10
234.8324510784433
 20
108.1438605000065
 30
0.0
 10
234.843770237207
 20
108.1316909748896
 30
0.0
  0
SPLINE
  5
172
330
1F
100
AcDbEntity
  8
0
  6
Continuous
 62
     7
370
     0
100
AcDbSpline
210
0.0
220
0.0
230
1.0
 70
     8
 71
     3
 72
    23
 73
    19
 74
     0
 42
0.00000001
 43
0.00000001
 40
0.0
 40
0.0
 40
0.0
 40
0.0
 40
0.0915110363280375
 40
0.177142860314148
 40
0.257108485228235
 40
0.3311983993883849
 40
0.4005922945239581
 40
0.4656249598049642
 40
0.5269734913138602
 40
0.5854431157040231
 40
0.6413985080863308
 40
0.6950441672657243
 40
0.7467815514927477
 40
0.7969589345766993
 40
0.8475448623598797
 40
0.8974385414187385
 40
0.9476489188871287
 40
1.0
 40
1.0
 40
1.0
 40
1.0
 10
235.2051458470369
 20
108.6198361608329
 30
0.0
 10
235.1868861344366
 20
108.6196985277514
 30
0.0
 10
235.1515398215947
 20
108.6194321039548
 30
0.0
 10
235.1004427179839
 20
108.6145755310447
 30
0.0
 10
235.0530823077489
 20
108.6079121407433
 30
0.0
 10
235.0095399374216
 20
108.5980830734331
 30
0.0
 10
234.969958246122
 20
108.5852167913224
 30
0.0
 10
234.9337497848142
 20
108.5703591878627
 30
0.0
 10
234.9019278856987
 20
108.5515307237964
 30
0.0
 10
234.8737507254038
 20
108.530558263683
 30
0.0
 10
234.8494443558682
 20
108.5073533951
 30
0.0
 10
234.8284958659101
 20
108.482901074009
 30
0.0
 10
234.8099685445462
 20
108.4579197271819
 30
0.0
 10
234.7955724071695
 20
108.4310438578285
 30
0.0
 10
234.7838517875592
 20
108.4032912959365
 30
0.0
 10
234.776290700045
 20
108.3741403842383
 30
0.0
 10
234.770937273456
 20
108.3441303388672
 30
0.0
 10
234.7703801081636
 20
108.323653883118
 30
0.0
 10
234.7700957108294
 20
108.3132019588702
 30
0.0
  0
SPLINE
  5
173
330
1F
100
AcDbEntity
  8
0
  6
Continuous
 62
     7
370
     0
100
AcDbSpline
210
0.0
220
0.0
230
1.0
 70
     8
 71
     3
 72
    23
 73
    19
 74
     0
 42
0.00000001
 43
0.00000001
 40
0.0
 40
0.0
 40
0.0
 40
0.0
 40
0.0671554674490462
 40
0.1314033464826141
 40
0.1927317719102091
 40
0.2512526591565257
 40
0.3077037298841914
 40
0.3626989162982003
 40
0.417778332785431
 40
0.4723043857981144
 40
0.5278725997916964
 40
0.5852299868117375
 40
0.6450565760102912
 40
0.707952356429442
 40
0.7744342720454286
 40
0.84494043137526
 40
0.9204035944750272
 40
1.0
 40
1.0
 40
1.0
 40
1.0
 10
235.6657145342803
 20
108.251051939412
 30
0.0
 10
235.6638734480959
 20
108.2657645506636
 30
0.0
 10
235.6602709880882
 20
108.294552770408
 30
0.0
 10
235.6513337630158
 20
108.3362280494777
 30
0.0
 10
235.6388055718797
 20
108.3749341733426
 30
0.0
 10
235.624131220585
 20
108.4110321028114
 30
0.0
 10
235.6063428346285
 20
108.4441463796903
 30
0.0
 10
235.5856067238902
 20
108.4745949734801
 30
0.0
 10
235.5616703665302
 20
108.5020191477921
 30
0.0
 10
235.5351496702055
 20
108.5271435544466
 30
0.0
 10
235.5052376150005
 20
108.5490198992745
 30
0.0
 10
235.4720878983548
 20
108.5680092381901
 30
0.0
 10
235.4356445624898
 20
108.5840508813209
 30
0.0
 10
235.3959397139171
 20
108.5971895102426
 30
0.0
 10
235.3529654918522
 20
108.607376689187
 30
0.0
 10
235.3066241509271
 20
108.6148705724941
 30
0.0
 10
235.2569336027912
 20
108.6187085256599
 30
0.0
 10
235.2227124963549
 20
108.6194536617005
 30
0.0
 10
235.2051458470369
 20
108.6198361608329
 30
0.0
  0
LINE
  5
174
330
1F
100
AcDbEntity
  8
0
  6
Continuous
 62
     7
370
     0
100
AcDbLine
 10
235.9554735654
 20
108.2510519394
 30
0.0
 11
235.6657145343
 21
108.2510519394
 31
0.0
  0
SPLINE
  5
175
330
1F
100
AcDbEntity
  8
0
  6
Continuous
 62
     7
370
     0
100
AcDbSpline
210
0.0
220
0.0
230
1.0
 70
     8
 71
     3
 72
    23
 73
    19
 74
     0
 42
0.00000001
 43
0.00000001
 40
0.0
 40
0.0
 40
0.0
 40
0.0
 40
0.1004750608070148
 40
0.1956443031597846
 40
0.286083379069932
 40
0.3729828804699542
 40
0.4150256681909619
 40
0.4560516735090279
 40
0.4959387495188998
 40
0.5355660888033517
 40
0.5740871099085042
 40
0.6125192874870976
 40
0.651080960134445
 40
0.6895131377130386
 40
0.7662374603277348
 40
0.8423504388672227
 40
0.9199744947371038
 40
1.0
 40
1.0
 40
1.0
 40
1.0
 10
235.1936213401175
 20
108.8569117317464
 30
0.0
 10
235.2301551079355
 20
108.8560746162512
 30
0.0
 10
235.3012933932884
 20
108.8544445910846
 30
0.0
 10
235.4046593326448
 20
108.8408830786264
 30
0.0
 10
235.5010714566754
 20
108.8175943931353
 30
0.0
 10
235.5766811522903
 20
108.7915250462791
 30
0.0
 10
235.6325785160527
 20
108.7651333697119
 30
0.0
 10
235.6722895597067
 20
108.7445402124681
 30
0.0
 10
235.7091492608922
 20
108.720730771315
 30
0.0
 10
235.743489431264
 20
108.6949652311862
 30
0.0
 10
235.7756290445321
 20
108.6672553590887
 30
0.0
 10
235.8047420404667
 20
108.6369420287444
 30
0.0
 10
235.8320925865504
 20
108.6050594761296
 30
0.0
 10
235.8642332894953
 20
108.5592861199005
 30
0.0
 10
235.8988877811617
 20
108.4987053418938
 30
0.0
 10
235.9288513063223
 20
108.4202205377337
 30
0.0
 10
235.949436597613
 20
108.337386270959
 30
0.0
 10
235.9534409104596
 20
108.2801208215979
 30
0.0
 10
235.9554735653967
 20
108.251051939412
 30
0.0
  0
SPLINE
  5
176
330
1F
100
AcDbEntity
  8
0
  6
Continuous
 62
     7
370
     0
100
AcDbSpline
210
0.0
220
0.0
230
1.0
 70
     8
 71
     3
 72
    23
 73
    19
 74
     0
 42
0.00000001
 43
0.00000001
 40
0.0
 40
0.0
 40
0.0
 40
0.0
 40
0.0749954673898322
 40
0.1491654404266561
 40
0.2236642943382247
 40
0.3004120221906725
 40
0.3395704846106348
 40
0.3789205746932795
 40
0.4180957375990935
 40
0.4582296767501551
 40
0.4984267212184583
 40
0.5397075464534805
 40
0.5822159516458436
 40
0.6258238199943749
 40
0.7154812648736979
 40
0.8073840844133601
 40
0.9016341255073719
 40
1.0
 40
1.0
 40
1.0
 40
1.0
 10
234.480336679713
 20
108.2942688403598
 30
0.0
 10
234.4813145842461
 20
108.3197412992856
 30
0.0
 10
234.4832596292661
 20
108.3704058352459
 30
0.0
 10
234.5005132445593
 20
108.4447528833205
 30
0.0
 10
234.5280330910377
 20
108.5162945191512
 30
0.0
 10
234.5593590339993
 20
108.5730924732435
 30
0.0
 10
234.5899087509504
 20
108.6160428319458
 30
0.0
 10
234.6152346983476
 20
108.6469748951369
 30
0.0
 10
234.6436427017095
 20
108.675567429088
 30
0.0
 10
234.6742578932849
 20
108.7022195662867
 30
0.0
 10
234.707627550646
 20
108.7265330929543
 30
0.0
 10
234.7429237692647
 20
108.7495072644799
 30
0.0
 10
234.781424075108
 20
108.7692541162257
 30
0.0
 10
234.8355227304138
 20
108.7943874013788
 30
0.0
 10
234.9078936959697
 20
108.8194853369157
 30
0.0
 10
234.9989996897362
 20
108.8413550042129
 30
0.0
 10
235.0948857566642
 20
108.8542335966007
 30
0.0
 10
235.160243952456
 20
108.8560063929431
 30
0.0
 10
235.1936213401175
 20
108.8569117317464
 30
0.0
  0
SPLINE
  5
177
330
1F
100
AcDbEntity
  8
0
  6
Continuous
 62
     7
370
     0
100
AcDbSpline
210
0.0
220
0.0
230
1.0
 70
     8
 71
     3
 72
    15
 73
    11
 74
     0
 42
0.00000001
 43
0.00000001
 40
0.0
 40
0.0
 40
0.0
 40
0.0
 40
0.1448052410584837
 40
0.2795118010254855
 40
0.4063939211311608
 40
0.5275015404829168
 40
0.6453932904726503
 40
0.7618854106740865
 40
0.8789420729184871
 40
1.0
 40
1.0
 40
1.0
 40
1.0
 10
234.783678165413
 20
107.8501637344299
 30
0.0
 10
234.7594956214151
 20
107.8632278413056
 30
0.0
 10
234.7128170179555
 20
107.8884449675294
 30
0.0
 10
234.6499927875616
 20
107.9335332597765
 30
0.0
 10
234.5970569957121
 20
107.9835670652743
 30
0.0
 10
234.5542329681093
 20
108.0384738329027
 30
0.0
 10
234.5206734534157
 20
108.097324957398
 30
0.0
 10
234.4980309955911
 20
108.1602204862248
 30
0.0
 10
234.4825227811142
 20
108.2260187480334
 30
0.0
 10
234.4810734980717
 20
108.271265368984
 30
0.0
 10
234.480336679713
 20
108.2942688403598
 30
0.0
  0
SPLINE
  5
178
330
1F
100
AcDbEntity
  8
0
  6
Continuous
 62
     7
370
     0
100
AcDbSpline
210
0.0
220
0.0
230
1.0
 70
     8
 71
     3
 72
    23
 73
    19
 74
     0
 42
0.00000001
 43
0.00000001
 40
0.0
 40
0.0
 40
0.0
 40
0.0
 40
0.031200111153937
 40
0.0704867190162008
 40
0.1172148300204117
 40
0.1715755269954914
 40
0.2341219784876085
 40
0.3039626396728061
 40
0.3821556401561972
 40
0.4676462220680265
 40
0.5543353814021599
 40
0.6350744656665042
 40
0.7100366878785244
 40
0.7790924037748317
 40
0.8429656453505103
 40
0.9010012068505269
 40
0.953246256459026
 40
1.0
 40
1.0
 40
1.0
 40
1.0
 10
235.4994323630146
 20
107.6225547227716
 30
0.0
 10
235.4921937147406
 20
107.625525225143
 30
0.0
 10
235.475840293292
 20
107.6322361296318
 30
0.0
 10
235.4478112963232
 20
107.6411202117083
 30
0.0
 10
235.4145513417788
 20
107.6526082363453
 30
0.0
 10
235.3752613859806
 20
107.6644390320218
 30
0.0
 10
235.3301517653322
 20
107.6769543592224
 30
0.0
 10
235.2792975828167
 20
107.6911198121377
 30
0.0
 10
235.222727254921
 20
107.7061839959527
 30
0.0
 10
235.1620452138315
 20
107.7222181787575
 30
0.0
 10
235.1007748440492
 20
107.7385224838065
 30
0.0
 10
235.0422381636753
 20
107.754842057525
 30
0.0
 10
234.9883816348963
 20
107.7714085153092
 30
0.0
 10
234.9387641000345
 20
107.7873597269558
 30
0.0
 10
234.8936413600572
 20
107.8033767481583
 30
0.0
 10
234.8528853462764
 20
107.8190210672948
 30
0.0
 10
234.8164452458277
 20
107.8339752818897
 30
0.0
 10
234.7941890196944
 20
107.8449708865002
 30
0.0
 10
234.783678165413
 20
107.8501637344299
 30
0.0
  0
SPLINE
  5
179
330
1F
100
AcDbEntity
  8
0
  6
Continuous
 62
     7
370
     0
100
AcDbSpline
210
0.0
220
0.0
230
1.0
 70
     8
 71
     3
 72
    15
 73
    11
 74
     0
 42
0.00000001
 43
0.00000001
 40
0.0
 40
0.0
 40
0.0
 40
0.0
 40
0.1177675192120368
 40
0.230176448544057
 40
0.3398429589695384
 40
0.4506252599208614
 40
0.5669428888721625
 40
0.6960213064547937
 40
0.8394383602270619
 40
1.0
 40
1.0
 40
1.0
 40
1.0
 10
235.7183979944833
 20
107.3451433776402
 30
0.0
 10
235.7177042993681
 20
107.3599958920687
 30
0.0
 10
235.7163484732537
 20
107.3890251103623
 30
0.0
 10
235.7075129299697
 20
107.4312880259498
 30
0.0
 10
235.6907197314289
 20
107.4699708695994
 30
0.0
 10
235.6689286264478
 20
107.506652494675
 30
0.0
 10
235.6386134787784
 20
107.5401898936461
 30
0.0
 10
235.6003137108268
 20
107.5710916152672
 30
0.0
 10
235.5531854825946
 20
107.5991074153408
 30
0.0
 10
235.5180113504645
 20
107.6144505004698
 30
0.0
 10
235.4994323630146
 20
107.6225547227716
 30
0.0
  0
SPLINE
  5
17A
330
1F
100
AcDbEntity
  8
0
  6
Continuous
 62
     7
370
     0
100
AcDbSpline
210
0.0
220
0.0
230
1.0
 70
     8
 71
     3
 72
    19
 73
    15
 74
     0
 42
0.00000001
 43
0.00000001
 40
0.0
 40
0.0
 40
0.0
 40
0.0
 40
0.1055838864195047
 40
0.2058681332620123
 40
0.300946717742213
 40
0.3930019285950097
 40
0.4809485116065868
 40
0.5628738662802266
 40
0.6414613436333616
 40
0.7177416181792268
 40
0.7917717603087844
 40
0.8627163930302565
 40
0.9317768462002763
 40
1.0
 40
1.0
 40
1.0
 40
1.0
 10
235.2491859270504
 20
106.9866488945402
 30
0.0
 10
235.2724135089521
 20
106.9870788123419
 30
0.0
 10
235.3177027958732
 20
106.987917068806
 30
0.0
 10
235.3832188116224
 20
106.9979866057234
 30
0.0
 10
235.4448695728135
 20
107.0122699733297
 30
0.0
 10
235.5015076944893
 20
107.0338758030441
 30
0.0
 10
235.5529242443816
 20
107.0601120548377
 30
0.0
 10
235.5975737576969
 20
107.0918454166272
 30
0.0
 10
235.6356931370959
 20
107.1276319316212
 30
0.0
 10
235.6655433742152
 20
107.1684141967927
 30
0.0
 10
235.6889931244652
 20
107.2111471907809
 30
0.0
 10
235.7061959404142
 20
107.255072301348
 30
0.0
 10
235.7164433053133
 20
107.2999457239911
 30
0.0
 10
235.7177490861
 20
107.3301388762567
 30
0.0
 10
235.7183979944833
 20
107.3451433776402
 30
0.0
  0
SPLINE
  5
17B
330
1F
100
AcDbEntity
  8
0
  6
Continuous
 62
     7
370
     0
100
AcDbSpline
210
0.0
220
0.0
230
1.0
 70
     8
 71
     3
 72
    19
 73
    15
 74
     0
 42
0.00000001
 43
0.00000001
 40
0.0
 40
0.0
 40
0.0
 40
0.0
 40
0.0937964706969321
 40
0.1801880710186105
 40
0.2603631916661885
 40
0.3348466760639744
 40
0.4070930058327154
 40
0.4814483792884674
 40
0.5592709137563652
 40
0.6422698113109349
 40
0.7285859445716477
 40
0.8159775452756136
 40
0.9060351298875359
 40
1.0
 40
1.0
 40
1.0
 40
1.0
 10
234.6910705205249
 20
107.4871417664686
 30
0.0
 10
234.6942577017638
 20
107.4611253899642
 30
0.0
 10
234.7003804485491
 20
107.4111465297534
 30
0.0
 10
234.7175002601082
 20
107.3403090190649
 30
0.0
 10
234.7395345622083
 20
107.2766188270643
 30
0.0
 10
234.76698869518
 20
107.2192306724639
 30
0.0
 10
234.8031035610509
 20
107.168832635779
 30
0.0
 10
234.8466157621562
 20
107.1233743763301
 30
0.0
 10
234.8994589622556
 20
107.0840102762667
 30
0.0
 10
234.9591068892022
 20
107.0489788062755
 30
0.0
 10
235.0255380333282
 20
107.0214735616863
 30
0.0
 10
235.0964592044385
 20
107.0010834711222
 30
0.0
 10
235.1715321703726
 20
106.989002179993
 30
0.0
 10
235.2229375174718
 20
106.9874443486568
 30
0.0
 10
235.2491859270504
 20
106.9866488945402
 30
0.0
  0
LINE
  5
17C
330
1F
100
AcDbEntity
  8
0
  6
Continuous
 62
     7
370
     0
100
AcDbLine
 10
234.4013114894
 20
107.4871417665
 30
0.0
 11
234.6910705205
 21
107.4871417665
 31
0.0
  0
SPLINE
  5
17D
330
1F
100
AcDbEntity
  8
0
  6
Continuous
 62
     7
370
     0
100
AcDbSpline
210
0.0
220
0.0
230
1.0
 70
     8
 71
     3
 72
    31
 73
    27
 74
     0
 42
0.00000001
 43
0.00000001
 40
0.0
 40
0.0
 40
0.0
 40
0.0
 40
0.0524925849212958
 40
0.1028254751380329
 40
0.1513973394924577
 40
0.1980330772483325
 40
0.2428758954632244
 40
0.2859991683849086
 40
0.3278486614843784
 40
0.3683945968796912
 40
0.4078519911389193
 40
0.4468375528599374
 40
0.4851660451611074
 40
0.5233414044713737
 40
0.5616022144094732
 40
0.5999198855663566
 40
0.6384964264110082
 40
0.6777905770472508
 40
0.7172899891758322
 40
0.7566052415928194
 40
0.7960678905323556
 40
0.8358862309537681
 40
0.8757136832726162
 40
0.9162634539474125
 40
0.9577596754778293
 40
1.0
 40
1.0
 40
1.0
 40
1.0
 10
235.2619452025683
 20
106.7495733236267
 30
0.0
 10
235.2395744573387
 20
106.7497579372204
 30
0.0
 10
235.1957533631618
 20
106.7501195688778
 30
0.0
 10
235.1313631594991
 20
106.7544990423462
 30
0.0
 10
235.0696568504764
 20
106.7608341659495
 30
0.0
 10
235.0106949922359
 20
106.7702704030806
 30
0.0
 10
234.9546624833454
 20
106.782650233809
 30
0.0
 10
234.9013581925191
 20
106.7975160179166
 30
0.0
 10
234.8506557735176
 20
106.8146370331388
 30
0.0
 10
234.8027323822366
 20
106.8347710502915
 30
0.0
 10
234.7577131187596
 20
106.8581645788467
 30
0.0
 10
234.7147884912222
 20
106.8834002771965
 30
0.0
 10
234.6746601311943
 20
106.9120061239368
 30
0.0
 10
234.6372435634784
 20
106.9435326218134
 30
0.0
 10
234.6015907318536
 20
106.9770689984001
 30
0.0
 10
234.5691793400913
 20
107.0139848517664
 30
0.0
 10
234.5389074836696
 20
107.0532006293453
 30
0.0
 10
234.511466865753
 20
107.0950752488645
 30
0.0
 10
234.48695285121
 20
107.1390608517719
 30
0.0
 10
234.4649077680206
 20
107.1844187471603
 30
0.0
 10
234.4463344769775
 20
107.2314779711378
 30
0.0
 10
234.43136617173
 20
107.2800006874106
 30
0.0
 10
234.4186872593364
 20
107.3296621813583
 30
0.0
 10
234.4098947266193
 20
107.3808767915956
 30
0.0
 10
234.4034301604069
 20
107.4334837227384
 30
0.0
 10
234.4020218845002
 20
107.4691501052212
 30
0.0
 10
234.4013114894085
 20
107.4871417664686
 30
0.0
  0
SPLINE
  5
17E
330
1F
100
AcDbEntity
  8
0
  6
Continuous
 62
     7
370
     0
100
AcDbSpline
210
0.0
220
0.0
230
1.0
 70
     8
 71
     3
 72
    23
 73
    19
 74
     0
 42
0.00000001
 43
0.00000001
 40
0.0
 40
0.0
 40
0.0
 40
0.0
 40
0.0748159666505558
 40
0.1485345605139197
 40
0.2238723272963846
 40
0.3012971209351247
 40
0.3408936290197579
 40
0.38034006206544
 40
0.4201265887284643
 40
0.4599499070829665
 40
0.5008311555562169
 40
0.5419071755971084
 40
0.5844387941530512
 40
0.6280801713306066
 40
0.7172666799070602
 40
0.8078600064218678
 40
0.9019246558363443
 40
1.0
 40
1.0
 40
1.0
 40
1.0
 10
236.0081570255997
 20
107.3591374217567
 30
0.0
 10
236.0070847400996
 20
107.3322849089594
 30
0.0
 10
236.0049558969845
 20
107.2789737460405
 30
0.0
 10
235.9866257899885
 20
107.2003906263391
 30
0.0
 10
235.9578301613694
 20
107.124244021978
 30
0.0
 10
235.9240601539941
 20
107.0638174968426
 30
0.0
 10
235.8921372900065
 20
107.0176604132237
 30
0.0
 10
235.8653205784365
 20
106.9844848110044
 30
0.0
 10
235.8355823870796
 20
106.9538089112976
 30
0.0
 10
235.8036548400228
 20
106.9246716963729
 30
0.0
 10
235.7692900499725
 20
106.8976676606431
 30
0.0
 10
235.7321983004317
 20
106.8727876087392
 30
0.0
 10
235.692771077263
 20
106.8497725415494
 30
0.0
 10
235.6364699940551
 20
106.8217273344352
 30
0.0
 10
235.5616928022325
 20
106.7923893846859
 30
0.0
 10
235.4664416714899
 20
106.7679577336722
 30
0.0
 10
235.3660585168057
 20
106.7521083175436
 30
0.0
 10
235.2971292462694
 20
106.7504299992345
 30
0.0
 10
235.2619452025683
 20
106.7495733236267
 30
0.0
  0
LINE
  5
17F
330
1F
100
AcDbEntity
  8
0
  6
Continuous
 62
     7
370
     0
100
AcDbLine
 10
220.9192847518
 20
103.6149074415
 30
0.0
 11
220.3743402104
 21
105.3534616282
 31
0.0
  0
LINE
  5
180
330
1F
100
AcDbEntity
  8
0
  6
Continuous
 62
     7
370
     0
100
AcDbLine
 10
221.222214648
 20
103.6149074415
 30
0.0
 11
220.9192847518
 21
103.6149074415
 31
0.0
  0
LINE
  5
181
330
1F
100
AcDbEntity
  8
0
  6
Continuous
 62
     7
370
     0
100
AcDbLine
 10
221.7704519057
 20
105.3534616282
 30
0.0
 11
221.222214648
 21
103.6149074415
 31
0.0
  0
LINE
  5
182
330
1F
100
AcDbEntity
  8
0
  6
Continuous
 62
     7
370
     0
100
AcDbLine
 10
221.7704519057
 20
103.6149074415
 30
0.0
 11
221.7704519057
 21
105.3534616282
 31
0.0
  0
LINE
  5
183
330
1F
100
AcDbEntity
  8
0
  6
Continuous
 62
     7
370
     0
100
AcDbLine
 10
222.0602109369
 20
103.6149074415
 30
0.0
 11
221.7704519057
 21
103.6149074415
 31
0.0
  0
LINE
  5
184
330
1F
100
AcDbEntity
  8
0
  6
Continuous
 62
     7
370
     0
100
AcDbLine
 10
222.0602109369
 20
105.6695623895
 30
0.0
 11
222.0602109369
 21
103.6149074415
 31
0.0
  0
LINE
  5
185
330
1F
100
AcDbEntity
  8
0
  6
Continuous
 62
     7
370
     0
100
AcDbLine
 10
221.6280419274
 20
105.6695623895
 30
0.0
 11
222.0602109369
 21
105.6695623895
 31
0.0
  0
LINE
  5
186
330
1F
100
AcDbEntity
  8
0
  6
Continuous
 62
     7
370
     0
100
AcDbLine
 10
221.1732354936
 20
104.2524596279
 30
0.0
 11
221.6280419274
 21
105.6695623895
 31
0.0
  0
SPLINE
  5
187
330
1F
100
AcDbEntity
  8
0
  6
Continuous
 62
     7
370
     0
100
AcDbSpline
210
0.0
220
0.0
230
1.0
 70
     8
 71
     3
 72
    15
 73
    11
 74
     0
 42
0.00000001
 43
0.00000001
 40
0.0
 40
0.0
 40
0.0
 40
0.0
 40
0.0892047702332451
 40
0.1898334556643485
 40
0.2992325919749813
 40
0.4192609378429071
 40
0.5492073901909386
 40
0.6890743636843492
 40
0.8395791979483176
 40
1.0
 40
1.0
 40
1.0
 40
1.0
 10
221.0723960580517
 20
103.9260691283727
 30
0.0
 10
221.0752643956182
 20
103.9358139167445
 30
0.0
 10
221.0813684013889
 20
103.956551449575
 30
0.0
 10
221.0912639704968
 20
103.9891576651375
 30
0.0
 10
221.1017931377685
 20
104.0252401116894
 30
0.0
 10
221.1143933235725
 20
104.0641785908173
 30
0.0
 10
221.1275275260444
 20
104.1065839250361
 30
0.0
 10
221.1413135808965
 20
104.1524208980855
 30
0.0
 10
221.1572155267071
 20
104.2012318827609
 30
0.0
 10
221.1677831644219
 20
104.2350244776793
 30
0.0
 10
221.1732354935965
 20
104.2524596279115
 30
0.0
  0
SPLINE
  5
188
330
1F
100
AcDbEntity
  8
0
  6
Continuous
 62
     7
370
     0
100
AcDbSpline
210
0.0
220
0.0
230
1.0
 70
     8
 71
     3
 72
    15
 73
    11
 74
     0
 42
0.00000001
 43
0.00000001
 40
0.0
 40
0.0
 40
0.0
 40
0.0
 40
0.1625255217041868
 40
0.3143148980392372
 40
0.4549784905465745
 40
0.5845192373661998
 40
0.7045671033090736
 40
0.8134949897289286
 40
0.9116812596826069
 40
0.9999999999999999
 40
0.9999999999999999
 40
0.9999999999999999
 40
0.9999999999999999
 10
220.9797884131636
 20
104.2277642559414
 30
0.0
 10
220.9848434024655
 20
104.2114311957676
 30
0.0
 10
220.9946194575144
 20
104.1798440081717
 30
0.0
 10
221.0091161873048
 20
104.134229202754
 30
0.0
 10
221.0223057811006
 20
104.0918404657087
 30
0.0
 10
221.03418508723
 20
104.0525428714497
 30
0.0
 10
221.0453957419022
 20
104.016531530736
 30
0.0
 10
221.0551024024217
 20
103.9835109439565
 30
0.0
 10
221.0643822856714
 20
103.9538480432359
 30
0.0
 10
221.0698207119242
 20
103.9349962999248
 30
0.0
 10
221.0723960580517
 20
103.9260691283727
 30
0.0
  0
LINE
  5
189
330
1F
100
AcDbEntity
  8
0
  6
Continuous
 62
     7
370
     0
100
AcDbLine
 10
220.5204544945
 20
105.6695623895
 30
0.0
 11
220.9797884132
 21
104.2277642559
 31
0.0
  0
LINE
  5
18A
330
1F
100
AcDbEntity
  8
0
  6
Continuous
 62
     7
370
     0
100
AcDbLine
 10
220.0845811792
 20
105.6695623895
 30
0.0
 11
220.5204544945
 21
105.6695623895
 31
0.0
  0
LINE
  5
18B
330
1F
100
AcDbEntity
  8
0
  6
Continuous
 62
     7
370
     0
100
AcDbLine
 10
220.0845811792
 20
103.6149074415
 30
0.0
 11
220.0845811792
 21
105.6695623895
 31
0.0
  0
LINE
  5
18C
330
1F
100
AcDbEntity
  8
0
  6
Continuous
 62
     7
370
     0
100
AcDbLine
 10
220.3743402104
 20
103.6149074415
 30
0.0
 11
220.0845811792
 21
103.6149074415
 31
0.0
  0
LINE
  5
18D
330
1F
100
AcDbEntity
  8
0
  6
Continuous
 62
     7
370
     0
100
AcDbLine
 10
220.3743402104
 20
105.3534616282
 30
0.0
 11
220.3743402104
 21
103.6149074415
 31
0.0
  0
SPLINE
  5
18E
330
1F
100
AcDbEntity
  8
0
  6
Continuous
 62
     7
370
     0
100
AcDbSpline
210
0.0
220
0.0
230
1.0
 70
     8
 71
     3
 72
    31
 73
    27
 74
     0
 42
0.00000001
 43
0.00000001
 40
0.0
 40
0.0
 40
0.0
 40
0.0
 40
0.0628739462114324
 40
0.1228366299919128
 40
0.1796565674430314
 40
0.233960012230862
 40
0.2855950186955586
 40
0.3345131060783809
 40
0.3809048259061764
 40
0.4248945919393347
 40
0.4665290347654873
 40
0.5064882940692464
 40
0.5450315536447543
 40
0.5818311798231344
 40
0.617448279949443
 40
0.652066912769046
 40
0.6858797142465105
 40
0.7191745547913924
 40
0.7521816462063929
 40
0.7852401639180909
 40
0.8186564497770833
 40
0.8525477406533113
 40
0.887626342258519
 40
0.923635078068751
 40
0.9610218444769891
 40
1.0
 40
1.0
 40
1.0
 40
1.0
 10
225.2739020092402
 20
104.6282408713907
 30
0.0
 10
225.2736316450042
 20
104.5990158880477
 30
0.0
 10
225.2731034352509
 20
104.54191913046
 30
0.0
 10
225.2699657189745
 20
104.4584470195812
 30
0.0
 10
225.2639974994976
 20
104.3791391502986
 30
0.0
 10
225.2566534963918
 20
104.3038138513581
 30
0.0
 10
225.2455435579754
 20
104.2326722058562
 30
0.0
 10
225.2335719973851
 20
104.1654119517625
 30
0.0
 10
225.2187661340598
 20
104.1023385098662
 30
0.0
 10
225.2014911676108
 20
104.0434242367033
 30
0.0
 10
225.1820356326708
 20
103.9883576148136
 30
0.0
 10
225.1606996280298
 20
103.9367224812803
 30
0.0
 10
225.1370679542263
 20
103.8885541190409
 30
0.0
 10
225.1104372433949
 20
103.8443223381409
 30
0.0
 10
225.0820259711959
 20
103.8034400357428
 30
0.0
 10
225.0516260552673
 20
103.7657538531401
 30
0.0
 10
225.0185929818019
 20
103.7318062034313
 30
0.0
 10
224.9829601296293
 20
103.7017876310138
 30
0.0
 10
224.9454498593081
 20
103.6747471274595
 30
0.0
 10
224.9053160019427
 20
103.6515946463969
 30
0.0
 10
224.8627342171716
 20
103.632413217976
 30
0.0
 10
224.8179890102955
 20
103.6160140496377
 30
0.0
 10
224.7706263766384
 20
103.6039977009411
 30
0.0
 10
224.7210198135216
 20
103.5947993737825
 30
0.0
 10
224.6689865441434
 20
103.5893827326346
 30
0.0
 10
224.6334813201487
 20
103.5888418093251
 30
0.0
 10
224.6153587567028
 20
103.5885657114473
 30
0.0
  0
SPLINE
  5
18F
330
1F
100
AcDbEntity
  8
0
  6
Continuous
 62
     7
370
     0
100
AcDbSpline
210
0.0
220
0.0
230
1.0
 70
     8
 71
     3
 72
    27
 73
    23
 74
     0
 42
0.00000001
 43
0.00000001
 40
0.0
 40
0.0
 40
0.0
 40
0.0
 40
0.0567243372181508
 40
0.1114372357370108
 40
0.1643678222229016
 40
0.21643537246209
 40
0.2676414903219249
 40
0.3173597799690281
 40
0.3674730633322806
 40
0.4182103970528083
 40
0.4714042826470201
 40
0.5279657201290494
 40
0.5880611158232139
 40
0.6521342629937146
 40
0.6863448363353056
 40
0.7232636803169652
 40
0.762610250771542
 40
0.8047389366452182
 40
0.8494303387909499
 40
0.8967112583864923
 40
0.9468896380534765
 40
1.0
 40
1.0
 40
1.0
 40
1.0
 10
224.6153587567028
 20
105.6695623894654
 30
0.0
 10
224.6417459458121
 20
105.6687866247806
 30
0.0
 10
224.6935846372349
 20
105.6672626039406
 30
0.0
 10
224.7692693944129
 20
105.6548329665152
 30
0.0
 10
224.8405974000581
 20
105.6335701560077
 30
0.0
 10
224.9075223128849
 20
105.604885707361
 30
0.0
 10
224.9689000618764
 20
105.5684509367831
 30
0.0
 10
225.0237129787097
 20
105.5241589221345
 30
0.0
 10
225.0713698175384
 20
105.4724747208222
 30
0.0
 10
225.1113504777107
 20
105.4127858920077
 30
0.0
 10
225.146297565429
 20
105.3467390521952
 30
0.0
 10
225.1773437910041
 20
105.2740377588026
 30
0.0
 10
225.2054086771787
 20
105.1947634818391
 30
0.0
 10
225.2253241313624
 20
105.1238019371637
 30
0.0
 10
225.2395298084793
 20
105.0625454138685
 30
0.0
 10
225.2489328380455
 20
105.012022766288
 30
0.0
 10
225.2567392376999
 20
104.9575085451191
 30
0.0
 10
225.2627199948298
 20
104.8991346349376
 30
0.0
 10
225.2676270649415
 20
104.8369665072781
 30
0.0
 10
225.2714165702996
 20
104.7709654550749
 30
0.0
 10
225.2733401322738
 20
104.7009665199272
 30
0.0
 10
225.2737112057869
 20
104.6529372118981
 30
0.0
 10
225.2739020092402
 20
104.6282408713907
 30
0.0
  0
SPLINE
  5
190
330
1F
100
AcDbEntity
  8
0
  6
Continuous
 62
     7
370
     0
100
AcDbSpline
210
0.0
220
0.0
230
1.0
 70
     8
 71
     3
 72
    31
 73
    27
 74
     0
 42
0.00000001
 43
0.00000001
 40
0.0
 40
0.0
 40
0.0
 40
0.0
 40
0.0631144583947934
 40
0.12361464576949
 40
0.1809737111859576
 40
0.2352614550083222
 40
0.287100701833872
 40
0.3360307363034437
 40
0.3823823485850663
 40
0.4263340836597074
 40
0.4682106947981602
 40
0.5082496012618052
 40
0.546628336606585
 40
0.5836495392304464
 40
0.6189943150301619
 40
0.6535830186205964
 40
0.6871561361903313
 40
0.7204221919788077
 40
0.7532302188118172
 40
0.7862601560779
 40
0.8195039834988844
 40
0.8535452747120187
 40
0.8883082803397302
 40
0.9239958607406948
 40
0.961350304754645
 40
1.0
 40
1.0
 40
1.0
 40
1.0
 10
223.9568155041654
 20
104.6282408713907
 30
0.0
 10
223.9570808971538
 20
104.6576037765928
 30
0.0
 10
223.9576006902579
 20
104.715113342826
 30
0.0
 10
223.9608247980233
 20
104.7992601694722
 30
0.0
 10
223.9664538289282
 20
104.8791709265116
 30
0.0
 10
223.9748564224308
 20
104.9547762151855
 30
0.0
 10
223.9848066673733
 20
105.0262466914879
 30
0.0
 10
223.997742048572
 20
105.0934803596783
 30
0.0
 10
224.0122962329157
 20
105.1566280693228
 30
0.0
 10
224.029758642339
 20
105.2156239991638
 30
0.0
 10
224.0489441136846
 20
105.2709754068041
 30
0.0
 10
224.0707106430027
 20
105.3225934960893
 30
0.0
 10
224.0952009411968
 20
105.3704235396955
 30
0.0
 10
224.1212114623327
 20
105.4149615620012
 30
0.0
 10
224.150111453566
 20
105.4555148134603
 30
0.0
 10
224.1801565693751
 20
105.4932213843235
 30
0.0
 10
224.2135303093854
 20
105.5266984275092
 30
0.0
 10
224.2488449218959
 20
105.5568073103724
 30
0.0
 10
224.2866204237316
 20
105.5833766448451
 30
0.0
 10
224.3266569449842
 20
105.6063027757785
 30
0.0
 10
224.368800436011
 20
105.6265448963288
 30
0.0
 10
224.413854105146
 20
105.6417831593909
 30
0.0
 10
224.4608826468767
 20
105.6542055741533
 30
0.0
 10
224.5102480625294
 20
105.6633436530744
 30
0.0
 10
224.5620047520306
 20
105.6687308589916
 30
0.0
 10
224.5973731740173
 20
105.6692820813576
 30
0.0
 10
224.6153587567028
 20
105.6695623894654
 30
0.0
  0
SPLINE
  5
191
330
1F
100
AcDbEntity
  8
0
  6
Continuous
 62
     7
370
     0
100
AcDbSpline
210
0.0
220
0.0
230
1.0
 70
     8
 71
     3
 72
    15
 73
    11
 74
     0
 42
0.00000001
 43
0.00000001
 40
0.0
 40
0.0
 40
0.0
 40
0.0
 40
0.0974206681772145
 40
0.2008855880393207
 40
0.3111719701726504
 40
0.4297979458253723
 40
0.5577399263645877
 40
0.6947152693641585
 40
0.8421299102060552
 40
1.0
 40
1.0
 40
1.0
 40
1.0
 10
224.1564364275908
 20
103.7865402767413
 30
0.0
 10
224.1401526706722
 20
103.8100298349893
 30
0.0
 10
224.106574866852
 20
103.8584663096072
 30
0.0
 10
224.0672749588425
 20
103.94105499189
 30
0.0
 10
224.0322187451024
 20
104.0319735353897
 30
0.0
 10
224.0047060446904
 20
104.1330057511516
 30
0.0
 10
223.9831567419214
 20
104.24334753695
 30
0.0
 10
223.9675927651251
 20
104.3632154068729
 30
0.0
 10
223.9587850865164
 20
104.4925575740461
 30
0.0
 10
223.9574868523386
 20
104.5819921152718
 30
0.0
 10
223.9568155041654
 20
104.6282408713907
 30
0.0
  0
SPLINE
  5
192
330
1F
100
AcDbEntity
  8
0
  6
Continuous
 62
     7
370
     0
100
AcDbSpline
210
0.0
220
0.0
230
1.0
 70
     8
 71
     3
 72
    15
 73
    11
 74
     0
 42
0.00000001
 43
0.00000001
 40
0.0
 40
0.0
 40
0.0
 40
0.0
 40
0.1379032299933942
 40
0.2688733426002937
 40
0.3951781273461125
 40
0.5170892381308875
 40
0.6367430265135471
 40
0.7562218164637977
 40
0.87662835946368
 40
1.0
 40
1.0
 40
1.0
 40
1.0
 10
224.6153587567028
 20
103.5885657114473
 30
0.0
 10
224.5915979747651
 20
103.5892434890084
 30
0.0
 10
224.5452709898011
 20
103.5905649687042
 30
0.0
 10
224.4776138442155
 20
103.5995436092665
 30
0.0
 10
224.4141140042923
 20
103.6153464382193
 30
0.0
 10
224.3542358852459
 20
103.6365402601439
 30
0.0
 10
224.2986525335066
 20
103.6648882174246
 30
0.0
 10
224.2470985606716
 20
103.6993790429545
 30
0.0
 10
224.1985380268225
 20
103.7392102712487
 30
0.0
 10
224.1705836313367
 20
103.7706361960599
 30
0.0
 10
224.1564364275908
 20
103.7865402767413
 30
0.0
  0
LINE
  5
193
330
1F
100
AcDbEntity
  8
0
  6
Continuous
 62
     7
370
     0
100
AcDbLine
 10
227.0651396561
 20
104.4578428048
 30
0.0
 11
227.8290498291
 21
104.4578428048
 31
0.0
  0
LINE
  5
194
330
1F
100
AcDbEntity
  8
0
  6
Continuous
 62
     7
370
     0
100
AcDbLine
 10
227.0651396561
 20
104.2207672339
 30
0.0
 11
227.0651396561
 21
104.4578428048
 31
0.0
  0
LINE
  5
195
330
1F
100
AcDbEntity
  8
0
  6
Continuous
 62
     7
370
     0
100
AcDbLine
 10
227.8290498291
 20
104.2207672339
 30
0.0
 11
227.0651396561
 21
104.2207672339
 31
0.0
  0
LINE
  5
196
330
1F
100
AcDbEntity
  8
0
  6
Continuous
 62
     7
370
     0
100
AcDbLine
 10
227.8290498291
 20
104.4578428048
 30
0.0
 11
227.8290498291
 21
104.2207672339
 31
0.0
  0
SPLINE
  5
197
330
1F
100
AcDbEntity
  8
0
  6
Continuous
 62
     7
370
     0
100
AcDbSpline
210
0.0
220
0.0
230
1.0
 70
     8
 71
     3
 72
    31
 73
    27
 74
     0
 42
0.00000001
 43
0.00000001
 40
0.0
 40
0.0
 40
0.0
 40
0.0
 40
0.0628739462114324
 40
0.1228366299919128
 40
0.1796565674430314
 40
0.233960012230862
 40
0.285595018695559
 40
0.3345131060783806
 40
0.3809048259061764
 40
0.4248945919393347
 40
0.4665290347654873
 40
0.5064882940692464
 40
0.5450315536447543
 40
0.5818311798231344
 40
0.617448279949443
 40
0.652066912769046
 40
0.6858797142465105
 40
0.7191745547913924
 40
0.7521816462063929
 40
0.7852401639180909
 40
0.8186564497770833
 40
0.8525477406533113
 40
0.887626342258519
 40
0.923635078068751
 40
0.9610218444769892
 40
1.0
 40
1.0
 40
1.0
 40
1.0
 10
230.9637157111633
 20
104.6282408713907
 30
0.0
 10
230.9634453469273
 20
104.5990158880477
 30
0.0
 10
230.9629171371739
 20
104.54191913046
 30
0.0
 10
230.9597794208976
 20
104.4584470195812
 30
0.0
 10
230.9538112014207
 20
104.3791391502986
 30
0.0
 10
230.9464671983149
 20
104.3038138513581
 30
0.0
 10
230.9353572598984
 20
104.2326722058562
 30
0.0
 10
230.9233856993082
 20
104.1654119517625
 30
0.0
 10
230.9085798359829
 20
104.1023385098662
 30
0.0
 10
230.8913048695339
 20
104.0434242367033
 30
0.0
 10
230.8718493345939
 20
103.9883576148136
 30
0.0
 10
230.8505133299529
 20
103.9367224812804
 30
0.0
 10
230.8268816561494
 20
103.8885541190409
 30
0.0
 10
230.800250945318
 20
103.8443223381409
 30
0.0
 10
230.771839673119
 20
103.8034400357428
 30
0.0
 10
230.7414397571904
 20
103.7657538531401
 30
0.0
 10
230.708406683725
 20
103.7318062034313
 30
0.0
 10
230.6727738315524
 20
103.7017876310138
 30
0.0
 10
230.6352635612311
 20
103.6747471274595
 30
0.0
 10
230.5951297038658
 20
103.6515946463969
 30
0.0
 10
230.5525479190947
 20
103.632413217976
 30
0.0
 10
230.5078027122186
 20
103.6160140496377
 30
0.0
 10
230.4604400785615
 20
103.6039977009411
 30
0.0
 10
230.4108335154447
 20
103.5947993737825
 30
0.0
 10
230.3588002460665
 20
103.5893827326346
 30
0.0
 10
230.3232950220718
 20
103.5888418093251
 30
0.0
 10
230.3051724586259
 20
103.5885657114473
 30
0.0
  0
SPLINE
  5
198
330
1F
100
AcDbEntity
  8
0
  6
Continuous
 62
     7
370
     0
100
AcDbSpline
210
0.0
220
0.0
230
1.0
 70
     8
 71
     3
 72
    27
 73
    23
 74
     0
 42
0.00000001
 43
0.00000001
 40
0.0
 40
0.0
 40
0.0
 40
0.0
 40
0.0567243372181508
 40
0.1114372357370108
 40
0.1643678222229016
 40
0.21643537246209
 40
0.2676414903219249
 40
0.3173597799690281
 40
0.3674730633322806
 40
0.4182103970528083
 40
0.4714042826470201
 40
0.5279657201290494
 40
0.5880611158232139
 40
0.6521342629937146
 40
0.6863448363353056
 40
0.7232636803169652
 40
0.762610250771542
 40
0.8047389366452182
 40
0.8494303387909499
 40
0.8967112583864923
 40
0.9468896380534765
 40
1.0
 40
1.0
 40
1.0
 40
1.0
 10
230.3051724586259
 20
105.6695623894654
 30
0.0
 10
230.3315596477352
 20
105.6687866247806
 30
0.0
 10
230.383398339158
 20
105.6672626039406
 30
0.0
 10
230.459083096336
 20
105.6548329665152
 30
0.0
 10
230.5304111019812
 20
105.6335701560077
 30
0.0
 10
230.597336014808
 20
105.604885707361
 30
0.0
 10
230.6587137637995
 20
105.5684509367831
 30
0.0
 10
230.7135266806328
 20
105.5241589221345
 30
0.0
 10
230.7611835194615
 20
105.4724747208222
 30
0.0
 10
230.8011641796338
 20
105.4127858920077
 30
0.0
 10
230.8361112673521
 20
105.3467390521952
 30
0.0
 10
230.8671574929272
 20
105.2740377588026
 30
0.0
 10
230.8952223791018
 20
105.1947634818391
 30
0.0
 10
230.9151378332855
 20
105.1238019371637
 30
0.0
 10
230.9293435104023
 20
105.0625454138685
 30
0.0
 10
230.9387465399686
 20
105.012022766288
 30
0.0
 10
230.9465529396229
 20
104.9575085451191
 30
0.0
 10
230.9525336967529
 20
104.8991346349376
 30
0.0
 10
230.9574407668646
 20
104.8369665072781
 30
0.0
 10
230.9612302722227
 20
104.7709654550749
 30
0.0
 10
230.9631538341968
 20
104.7009665199272
 30
0.0
 10
230.96352490771
 20
104.6529372118981
 30
0.0
 10
230.9637157111633
 20
104.6282408713907
 30
0.0
  0
SPLINE
  5
199
330
1F
100
AcDbEntity
  8
0
  6
Continuous
 62
     7
370
     0
100
AcDbSpline
210
0.0
220
0.0
230
1.0
 70
     8
 71
     3
 72
    31
 73
    27
 74
     0
 42
0.00000001
 43
0.00000001
 40
0.0
 40
0.0
 40
0.0
 40
0.0
 40
0.0631144583947934
 40
0.12361464576949
 40
0.1809737111859576
 40
0.2352614550083222
 40
0.287100701833872
 40
0.3360307363034436
 40
0.3823823485850663
 40
0.4263340836597073
 40
0.4682106947981602
 40
0.5082496012618052
 40
0.546628336606585
 40
0.5836495392304463
 40
0.6189943150301618
 40
0.6535830186205961
 40
0.6871561361903314
 40
0.7204221919788075
 40
0.753230218811817
 40
0.7862601560779
 40
0.8195039834988841
 40
0.8535452747120184
 40
0.8883082803397299
 40
0.9239958607406952
 40
0.961350304754645
 40
1.0
 40
1.0
 40
1.0
 40
1.0
 10
229.6466292060885
 20
104.6282408713907
 30
0.0
 10
229.6468945990769
 20
104.6576037765928
 30
0.0
 10
229.647414392181
 20
104.715113342826
 30
0.0
 10
229.6506384999464
 20
104.7992601694722
 30
0.0
 10
229.6562675308512
 20
104.8791709265116
 30
0.0
 10
229.6646701243539
 20
104.9547762151855
 30
0.0
 10
229.6746203692964
 20
105.0262466914879
 30
0.0
 10
229.6875557504951
 20
105.0934803596783
 30
0.0
 10
229.7021099348388
 20
105.1566280693228
 30
0.0
 10
229.7195723442621
 20
105.2156239991638
 30
0.0
 10
229.7387578156076
 20
105.2709754068041
 30
0.0
 10
229.7605243449258
 20
105.3225934960893
 30
0.0
 10
229.7850146431199
 20
105.3704235396955
 30
0.0
 10
229.8110251642557
 20
105.4149615620012
 30
0.0
 10
229.839925155489
 20
105.4555148134603
 30
0.0
 10
229.8699702712981
 20
105.4932213843235
 30
0.0
 10
229.9033440113085
 20
105.5266984275092
 30
0.0
 10
229.938658623819
 20
105.5568073103724
 30
0.0
 10
229.9764341256547
 20
105.5833766448451
 30
0.0
 10
230.0164706469073
 20
105.6063027757785
 30
0.0
 10
230.0586141379341
 20
105.6265448963288
 30
0.0
 10
230.1036678070691
 20
105.6417831593909
 30
0.0
 10
230.1506963487998
 20
105.6542055741533
 30
0.0
 10
230.2000617644525
 20
105.6633436530744
 30
0.0
 10
230.2518184539537
 20
105.6687308589916
 30
0.0
 10
230.2871868759404
 20
105.6692820813576
 30
0.0
 10
230.3051724586259
 20
105.6695623894654
 30
0.0
  0
SPLINE
  5
19A
330
1F
100
AcDbEntity
  8
0
  6
Continuous
 62
     7
370
     0
100
AcDbSpline
210
0.0
220
0.0
230
1.0
 70
     8
 71
     3
 72
    15
 73
    11
 74
     0
 42
0.00000001
 43
0.00000001
 40
0.0
 40
0.0
 40
0.0
 40
0.0
 40
0.0974206681772144
 40
0.2008855880393207
 40
0.3111719701726504
 40
0.4297979458253729
 40
0.5577399263645872
 40
0.6947152693641585
 40
0.8421299102060553
 40
1.0
 40
1.0
 40
1.0
 40
1.0
 10
229.8462501295139
 20
103.7865402767413
 30
0.0
 10
229.8299663725953
 20
103.8100298349893
 30
0.0
 10
229.796388568775
 20
103.8584663096072
 30
0.0
 10
229.7570886607655
 20
103.94105499189
 30
0.0
 10
229.7220324470255
 20
104.0319735353897
 30
0.0
 10
229.6945197466135
 20
104.1330057511516
 30
0.0
 10
229.6729704438445
 20
104.24334753695
 30
0.0
 10
229.6574064670482
 20
104.3632154068729
 30
0.0
 10
229.6485987884395
 20
104.4925575740461
 30
0.0
 10
229.6473005542617
 20
104.5819921152718
 30
0.0
 10
229.6466292060885
 20
104.6282408713907
 30
0.0
  0
SPLINE
  5
19B
330
1F
100
AcDbEntity
  8
0
  6
Continuous
 62
     7
370
     0
100
AcDbSpline
210
0.0
220
0.0
230
1.0
 70
     8
 71
     3
 72
    15
 73
    11
 74
     0
 42
0.00000001
 43
0.00000001
 40
0.0
 40
0.0
 40
0.0
 40
0.0
 40
0.1379032299933933
 40
0.2688733426002935
 40
0.3951781273461131
 40
0.5170892381308876
 40
0.6367430265135475
 40
0.7562218164637967
 40
0.8766283594636793
 40
1.0
 40
1.0
 40
1.0
 40
1.0
 10
230.3051724586259
 20
103.5885657114473
 30
0.0
 10
230.2814116766882
 20
103.5892434890084
 30
0.0
 10
230.2350846917242
 20
103.5905649687042
 30
0.0
 10
230.1674275461386
 20
103.5995436092665
 30
0.0
 10
230.1039277062154
 20
103.6153464382193
 30
0.0
 10
230.044049587169
 20
103.6365402601439
 30
0.0
 10
229.9884662354297
 20
103.6648882174246
 30
0.0
 10
229.9369122625947
 20
103.6993790429545
 30
0.0
 10
229.8883517287456
 20
103.7392102712487
 30
0.0
 10
229.8603973332598
 20
103.7706361960599
 30
0.0
 10
229.8462501295139
 20
103.7865402767413
 30
0.0
  0
LINE
  5
19C
330
1F
100
AcDbEntity
  8
0
  6
Continuous
 62
     7
370
     0
100
AcDbLine
 10
232.7549533581
 20
104.4578428048
 30
0.0
 11
233.518863531
 21
104.4578428048
 31
0.0
  0
LINE
  5
19D
330
1F
100
AcDbEntity
  8
0
  6
Continuous
 62
     7
370
     0
100
AcDbLine
 10
232.7549533581
 20
104.2207672339
 30
0.0
 11
232.7549533581
 21
104.4578428048
 31
0.0
  0
LINE
  5
19E
330
1F
100
AcDbEntity
  8
0
  6
Continuous
 62
     7
370
     0
100
AcDbLine
 10
233.518863531
 20
104.2207672339
 30
0.0
 11
232.7549533581
 21
104.2207672339
 31
0.0
  0
LINE
  5
19F
330
1F
100
AcDbEntity
  8
0
  6
Continuous
 62
     7
370
     0
100
AcDbLine
 10
233.518863531
 20
104.4578428048
 30
0.0
 11
233.518863531
 21
104.2207672339
 31
0.0
  0
SPLINE
  5
1A0
330
1F
100
AcDbEntity
  8
0
  6
Continuous
 62
     7
370
     0
100
AcDbSpline
210
0.0
220
0.0
230
1.0
 70
     8
 71
     3
 72
    31
 73
    27
 74
     0
 42
0.00000001
 43
0.00000001
 40
0.0
 40
0.0
 40
0.0
 40
0.0
 40
0.0628739462114323
 40
0.1228366299919128
 40
0.1796565674430313
 40
0.233960012230862
 40
0.2855950186955588
 40
0.3345131060783805
 40
0.3809048259061761
 40
0.4248945919393346
 40
0.466529034765487
 40
0.5064882940692461
 40
0.545031553644754
 40
0.581831179823134
 40
0.6174482799494426
 40
0.6520669127690459
 40
0.6858797142465098
 40
0.7191745547913915
 40
0.752181646206392
 40
0.7852401639180906
 40
0.8186564497770824
 40
0.852547740653311
 40
0.8876263422585193
 40
0.9236350780687504
 40
0.9610218444769894
 40
0.9999999999999999
 40
0.9999999999999999
 40
0.9999999999999999
 40
0.9999999999999999
 10
237.4174395860297
 20
104.6282408713907
 30
0.0
 10
237.4171692217937
 20
104.5990158880477
 30
0.0
 10
237.4166410120404
 20
104.54191913046
 30
0.0
 10
237.4135032957641
 20
104.4584470195812
 30
0.0
 10
237.4075350762871
 20
104.3791391502986
 30
0.0
 10
237.4001910731813
 20
104.3038138513581
 30
0.0
 10
237.3890811347649
 20
104.2326722058562
 30
0.0
 10
237.3771095741747
 20
104.1654119517625
 30
0.0
 10
237.3623037108493
 20
104.1023385098662
 30
0.0
 10
237.3450287444003
 20
104.0434242367033
 30
0.0
 10
237.3255732094603
 20
103.9883576148136
 30
0.0
 10
237.3042372048193
 20
103.9367224812803
 30
0.0
 10
237.2806055310158
 20
103.8885541190409
 30
0.0
 10
237.2539748201844
 20
103.8443223381409
 30
0.0
 10
237.2255635479854
 20
103.8034400357428
 30
0.0
 10
237.1951636320569
 20
103.7657538531401
 30
0.0
 10
237.1621305585914
 20
103.7318062034313
 30
0.0
 10
237.1264977064188
 20
103.7017876310138
 30
0.0
 10
237.0889874360976
 20
103.6747471274595
 30
0.0
 10
237.0488535787323
 20
103.6515946463969
 30
0.0
 10
237.0062717939611
 20
103.632413217976
 30
0.0
 10
236.961526587085
 20
103.6160140496377
 30
0.0
 10
236.9141639534279
 20
103.6039977009411
 30
0.0
 10
236.8645573903112
 20
103.5947993737825
 30
0.0
 10
236.8125241209329
 20
103.5893827326346
 30
0.0
 10
236.7770188969383
 20
103.5888418093251
 30
0.0
 10
236.7588963334923
 20
103.5885657114473
 30
0.0
  0
SPLINE
  5
1A1
330
1F
100
AcDbEntity
  8
0
  6
Continuous
 62
     7
370
     0
100
AcDbSpline
210
0.0
220
0.0
230
1.0
 70
     8
 71
     3
 72
    27
 73
    23
 74
     0
 42
0.00000001
 43
0.00000001
 40
0.0
 40
0.0
 40
0.0
 40
0.0
 40
0.0567243372181507
 40
0.111437235737011
 40
0.1643678222229012
 40
0.2164353724620905
 40
0.2676414903219251
 40
0.3173597799690278
 40
0.3674730633322807
 40
0.4182103970528084
 40
0.4714042826470199
 40
0.5279657201290496
 40
0.5880611158232141
 40
0.6521342629937146
 40
0.6863448363353056
 40
0.7232636803169652
 40
0.7626102507715419
 40
0.8047389366452182
 40
0.84943033879095
 40
0.8967112583864925
 40
0.9468896380534765
 40
1.0
 40
1.0
 40
1.0
 40
1.0
 10
236.7588963334923
 20
105.6695623894654
 30
0.0
 10
236.7852835226017
 20
105.6687866247806
 30
0.0
 10
236.8371222140245
 20
105.6672626039406
 30
0.0
 10
236.9128069712024
 20
105.6548329665152
 30
0.0
 10
236.9841349768477
 20
105.6335701560077
 30
0.0
 10
237.0510598896744
 20
105.604885707361
 30
0.0
 10
237.112437638666
 20
105.5684509367831
 30
0.0
 10
237.1672505554992
 20
105.5241589221345
 30
0.0
 10
237.2149073943279
 20
105.4724747208222
 30
0.0
 10
237.2548880545003
 20
105.4127858920077
 30
0.0
 10
237.2898351422185
 20
105.3467390521952
 30
0.0
 10
237.3208813677937
 20
105.2740377588026
 30
0.0
 10
237.3489462539683
 20
105.1947634818391
 30
0.0
 10
237.3688617081519
 20
105.1238019371637
 30
0.0
 10
237.3830673852688
 20
105.0625454138685
 30
0.0
 10
237.392470414835
 20
105.012022766288
 30
0.0
 10
237.4002768144894
 20
104.9575085451191
 30
0.0
 10
237.4062575716193
 20
104.8991346349376
 30
0.0
 10
237.4111646417311
 20
104.8369665072781
 30
0.0
 10
237.4149541470892
 20
104.7709654550749
 30
0.0
 10
237.4168777090633
 20
104.7009665199272
 30
0.0
 10
237.4172487825764
 20
104.6529372118981
 30
0.0
 10
237.4174395860297
 20
104.6282408713907
 30
0.0
  0
SPLINE
  5
1A2
330
1F
100
AcDbEntity
  8
0
  6
Continuous
 62
     7
370
     0
100
AcDbSpline
210
0.0
220
0.0
230
1.0
 70
     8
 71
     3
 72
    31
 73
    27
 74
     0
 42
0.00000001
 43
0.00000001
 40
0.0
 40
0.0
 40
0.0
 40
0.0
 40
0.0631144583947934
 40
0.12361464576949
 40
0.1809737111859576
 40
0.2352614550083222
 40
0.287100701833872
 40
0.3360307363034437
 40
0.3823823485850663
 40
0.4263340836597074
 40
0.4682106947981602
 40
0.5082496012618052
 40
0.546628336606585
 40
0.5836495392304464
 40
0.6189943150301619
 40
0.6535830186205964
 40
0.6871561361903313
 40
0.7204221919788073
 40
0.7532302188118167
 40
0.7862601560779001
 40
0.8195039834988846
 40
0.853545274712019
 40
0.8883082803397305
 40
0.9239958607406957
 40
0.9613503047546453
 40
1.0
 40
1.0
 40
1.0
 40
1.0
 10
236.100353080955
 20
104.6282408713907
 30
0.0
 10
236.1006184739433
 20
104.6576037765928
 30
0.0
 10
236.1011382670475
 20
104.715113342826
 30
0.0
 10
236.1043623748128
 20
104.7992601694722
 30
0.0
 10
236.1099914057177
 20
104.8791709265116
 30
0.0
 10
236.1183939992204
 20
104.9547762151855
 30
0.0
 10
236.1283442441628
 20
105.0262466914879
 30
0.0
 10
236.1412796253615
 20
105.0934803596783
 30
0.0
 10
236.1558338097053
 20
105.1566280693228
 30
0.0
 10
236.1732962191286
 20
105.2156239991638
 30
0.0
 10
236.1924816904741
 20
105.2709754068041
 30
0.0
 10
236.2142482197922
 20
105.3225934960893
 30
0.0
 10
236.2387385179863
 20
105.3704235396955
 30
0.0
 10
236.2647490391222
 20
105.4149615620012
 30
0.0
 10
236.2936490303555
 20
105.4555148134603
 30
0.0
 10
236.3236941461646
 20
105.4932213843235
 30
0.0
 10
236.357067886175
 20
105.5266984275092
 30
0.0
 10
236.3923824986854
 20
105.5568073103724
 30
0.0
 10
236.4301580005212
 20
105.5833766448451
 30
0.0
 10
236.4701945217737
 20
105.6063027757785
 30
0.0
 10
236.5123380128006
 20
105.6265448963288
 30
0.0
 10
236.5573916819355
 20
105.6417831593909
 30
0.0
 10
236.6044202236663
 20
105.6542055741533
 30
0.0
 10
236.6537856393189
 20
105.6633436530744
 30
0.0
 10
236.7055423288201
 20
105.6687308589916
 30
0.0
 10
236.7409107508068
 20
105.6692820813576
 30
0.0
 10
236.7588963334923
 20
105.6695623894654
 30
0.0
  0
SPLINE
  5
1A3
330
1F
100
AcDbEntity
  8
0
  6
Continuous
 62
     7
370
     0
100
AcDbSpline
210
0.0
220
0.0
230
1.0
 70
     8
 71
     3
 72
    15
 73
    11
 74
     0
 42
0.00000001
 43
0.00000001
 40
0.0
 40
0.0
 40
0.0
 40
0.0
 40
0.0974206681772145
 40
0.2008855880393207
 40
0.3111719701726504
 40
0.4297979458253728
 40
0.5577399263645871
 40
0.6947152693641585
 40
0.8421299102060552
 40
1.0
 40
1.0
 40
1.0
 40
1.0
 10
236.2999740043803
 20
103.7865402767413
 30
0.0
 10
236.2836902474617
 20
103.8100298349893
 30
0.0
 10
236.2501124436415
 20
103.8584663096072
 30
0.0
 10
236.210812535632
 20
103.94105499189
 30
0.0
 10
236.1757563218919
 20
104.0319735353897
 30
0.0
 10
236.14824362148
 20
104.1330057511516
 30
0.0
 10
236.1266943187109
 20
104.24334753695
 30
0.0
 10
236.1111303419147
 20
104.3632154068729
 30
0.0
 10
236.102322663306
 20
104.4925575740461
 30
0.0
 10
236.1010244291282
 20
104.5819921152718
 30
0.0
 10
236.100353080955
 20
104.6282408713907
 30
0.0
  0
SPLINE
  5
1A4
330
1F
100
AcDbEntity
  8
0
  6
Continuous
 62
     7
370
     0
100
AcDbSpline
210
0.0
220
0.0
230
1.0
 70
     8
 71
     3
 72
    15
 73
    11
 74
     0
 42
0.00000001
 43
0.00000001
 40
0.0
 40
0.0
 40
0.0
 40
0.0
 40
0.1379032299933935
 40
0.2688733426002931
 40
0.395178127346112
 40
0.5170892381308886
 40
0.6367430265135469
 40
0.7562218164637976
 40
0.8766283594636788
 40
1.0
 40
1.0
 40
1.0
 40
1.0
 10
236.7588963334923
 20
103.5885657114473
 30
0.0
 10
236.7351355515546
 20
103.5892434890084
 30
0.0
 10
236.6888085665907
 20
103.5905649687042
 30
0.0
 10
236.6211514210051
 20
103.5995436092665
 30
0.0
 10
236.5576515810818
 20
103.6153464382193
 30
0.0
 10
236.4977734620355
 20
103.6365402601439
 30
0.0
 10
236.4421901102962
 20
103.6648882174246
 30
0.0
 10
236.3906361374611
 20
103.6993790429545
 30
0.0
 10
236.342075603612
 20
103.7392102712487
 30
0.0
 10
236.3141212081262
 20
103.7706361960599
 30
0.0
 10
236.2999740043803
 20
103.7865402767413
 30
0.0
  0
CIRCLE
  5
1A5
330
1F
100
AcDbEntity
  8
0
  6
Continuous
 62
     7
370
     0
100
AcDbCircle
 10
228.4875930816
 20
106.2259150537
 30
0.0
 40
25.39999999999998
  0
SPLINE
  5
1A6
330
1F
100
AcDbEntity
  8
0
  6
Continuous
 62
     7
370
     0
100
AcDbSpline
210
0.0
220
0.0
230
1.0
 70
     8
 71
     3
 72
    23
 73
    19
 74
     0
 42
0.00000001
 43
0.00000001
 40
0.0
 40
0.0
 40
0.0
 40
0.0
 40
0.1156291309254414
 40
0.2215410391198768
 40
0.3170478562190416
 40
0.4031508756396165
 40
0.4801812167162793
 40
0.5476493661481897
 40
0.6070358428421808
 40
0.6586524080635068
 40
0.7057228903536459
 40
0.7498040879796477
 40
0.7925868153452742
 40
0.8338739610102598
 40
0.8747683933034333
 40
0.9152226988916381
 40
0.9568807037304797
 40
1.0
 40
1.0
 40
1.0
 40
1.0
 10
237.1540222850148
 20
104.6290640504563
 30
0.0
 10
237.1537728334376
 20
104.6677604610727
 30
0.0
 10
237.1532948936555
 20
104.741901319432
 30
0.0
 10
237.1478932983171
 20
104.8478942246306
 30
0.0
 10
237.1394285129745
 20
104.9437561313906
 30
0.0
 10
237.1278500313554
 20
105.0295754155012
 30
0.0
 10
237.1124622314305
 20
105.1052589083643
 30
0.0
 10
237.0937989291936
 20
105.1709677298492
 30
0.0
 10
237.071558813978
 20
105.2265617452193
 30
0.0
 10
237.0451153963502
 20
105.2725993974536
 30
0.0
 10
237.0156785815703
 20
105.3103627617867
 30
0.0
 10
236.9849290379541
 20
105.3430502394717
 30
0.0
 10
236.9520980238105
 20
105.3708498743128
 30
0.0
 10
236.9166038723609
 20
105.3931511514747
 30
0.0
 10
236.8795906268627
 20
105.4111429923922
 30
0.0
 10
236.8402078170117
 20
105.4235254354791
 30
0.0
 10
236.7988425447058
 20
105.4311328212029
 30
0.0
 10
236.7704540949821
 20
105.4320303293721
 30
0.0
 10
236.7560152067625
 20
105.432486818552
 30
0.0
  0
SPLINE
  5
1A7
330
1F
100
AcDbEntity
  8
0
  6
Continuous
 62
     7
370
     0
100
AcDbSpline
210
0.0
220
0.0
230
1.0
 70
     8
 71
     3
 72
    23
 73
    19
 74
     0
 42
0.00000001
 43
0.00000001
 40
0.0
 40
0.0
 40
0.0
 40
0.0
 40
0.040781845872261
 40
0.0808695887215882
 40
0.1202681657882684
 40
0.1601868504553523
 40
0.2004597376386395
 40
0.2422651778979089
 40
0.2864592615494688
 40
0.3329520837492643
 40
0.3844305340495305
 40
0.4433891253601061
 40
0.5116814722136834
 40
0.5890200255490085
 40
0.6762451906507723
 40
0.7737051914728237
 40
0.881567767781983
 40
1.0
 40
1.0
 40
1.0
 40
1.0
 10
236.7588963334923
 20
103.8256412823607
 30
0.0
 10
236.7725020010693
 20
103.8261607103779
 30
0.0
 10
236.7994817690934
 20
103.8271907257982
 30
0.0
 10
236.8391984737213
 20
103.8340514954826
 30
0.0
 10
236.8770368910968
 20
103.8468695941993
 30
0.0
 10
236.9133382293367
 20
103.8636293127496
 30
0.0
 10
236.9479150644971
 20
103.8853371724075
 30
0.0
 10
236.9805855546578
 20
103.9120800377192
 30
0.0
 10
237.0118714149332
 20
103.9434060725376
 30
0.0
 10
237.0418802946151
 20
103.9802755821878
 30
0.0
 10
237.0692023469641
 20
104.0251931791336
 30
0.0
 10
237.0918679621074
 20
104.0805489390987
 30
0.0
 10
237.1112973471889
 20
104.1460677255377
 30
0.0
 10
237.1271025292706
 20
104.2222215035871
 30
0.0
 10
237.1390562658844
 20
104.3088710765876
 30
0.0
 10
237.1480063921582
 20
104.4060990374711
 30
0.0
 10
237.1532721757305
 20
104.5140349524822
 30
0.0
 10
237.1537645822342
 20
104.589545384286
 30
0.0
 10
237.1540222850148
 20
104.6290640504563
 30
0.0
  0
SPLINE
  5
1A8
330
1F
100
AcDbEntity
  8
0
  6
Continuous
 62
     7
370
     0
100
AcDbSpline
210
0.0
220
0.0
230
1.0
 70
     8
 71
     3
 72
    23
 73
    19
 74
     0
 42
0.00000001
 43
0.00000001
 40
0.0
 40
0.0
 40
0.0
 40
0.0
 40
0.1184055081537695
 40
0.2266543328167021
 40
0.3240923419286021
 40
0.411704803005322
 40
0.4890259050064159
 40
0.5569093973430762
 40
0.6162333444927067
 40
0.6673492812770754
 40
0.7135123932013485
 40
0.7576965045209785
 40
0.7994925114422919
 40
0.8399760647439392
 40
0.8798857418167764
 40
0.9191486593857419
 40
0.9592273564930834
 40
1.0
 40
1.0
 40
1.0
 40
1.0
 10
236.3637703819699
 20
104.6290640504563
 30
0.0
 10
236.3640319344028
 20
104.5895455625662
 30
0.0
 10
236.3645326036124
 20
104.513898435618
 30
0.0
 10
236.3697633815459
 20
104.4058234634248
 30
0.0
 10
236.3787679504568
 20
104.3083250861949
 30
0.0
 10
236.3906725787062
 20
104.2215382968022
 30
0.0
 10
236.4063915079786
 20
104.145345698952
 30
0.0
 10
236.4261284828112
 20
104.0799414548397
 30
0.0
 10
236.4483767478214
 20
104.0245405652621
 30
0.0
 10
236.4759085541802
 20
103.9798296816081
 30
0.0
 10
236.5060528412339
 20
103.9433837890759
 30
0.0
 10
236.5371747575034
 20
103.9120391428442
 30
0.0
 10
236.570006494098
 20
103.8853969112597
 30
0.0
 10
236.6043338279045
 20
103.8631827234419
 30
0.0
 10
236.6406893722092
 20
103.8463635999105
 30
0.0
 10
236.6786755851784
 20
103.8341730617226
 30
0.0
 10
236.7183007322875
 20
103.8271575941687
 30
0.0
 10
236.745287258047
 20
103.8261496034887
 30
0.0
 10
236.7588963334923
 20
103.8256412823607
 30
0.0
  0
SPLINE
  5
1A9
330
1F
100
AcDbEntity
  8
0
  6
Continuous
 62
     7
370
     0
100
AcDbSpline
210
0.0
220
0.0
230
1.0
 70
     8
 71
     3
 72
    15
 73
    11
 74
     0
 42
0.00000001
 43
0.00000001
 40
0.0
 40
0.0
 40
0.0
 40
0.0
 40
0.0838881132795456
 40
0.1771540327539695
 40
0.2825136355617225
 40
0.3993998606601626
 40
0.5294908061912201
 40
0.6728021776758326
 40
0.8295357616196701
 40
1.0
 40
1.0
 40
1.0
 40
1.0
 10
236.4827197569595
 20
105.2917231983221
 30
0.0
 10
236.4729293326348
 20
105.275354596881
 30
0.0
 10
236.4522540178174
 20
105.2407875570173
 30
0.0
 10
236.4291195427167
 20
105.1807086175279
 30
0.0
 10
236.408683461959
 20
105.1120498254217
 30
0.0
 10
236.3918577920089
 20
105.0337548153147
 30
0.0
 10
236.3796856001773
 20
104.9459578946416
 30
0.0
 10
236.3700761253903
 20
104.8487610229281
 30
0.0
 10
236.3650843609212
 20
104.7420285017128
 30
0.0
 10
236.3642204593193
 20
104.6677577759138
 30
0.0
 10
236.3637703819699
 20
104.6290640504563
 30
0.0
  0
SPLINE
  5
1AA
330
1F
100
AcDbEntity
  8
0
  6
Continuous
 62
     7
370
     0
100
AcDbSpline
210
0.0
220
0.0
230
1.0
 70
     8
 71
     3
 72
    15
 73
    11
 74
     0
 42
0.00000001
 43
0.00000001
 40
0.0
 40
0.0
 40
0.0
 40
0.0
 40
0.1276647678962222
 40
0.2517385630080519
 40
0.3727533493873904
 40
0.492146758972384
 40
0.6140696213092417
 40
0.7371973244121093
 40
0.8656069906011151
 40
1.0
 40
1.0
 40
1.0
 40
1.0
 10
236.7560152067625
 20
105.432486818552
 30
0.0
 10
236.7424069860421
 20
105.4321296564735
 30
0.0
 10
236.7155733185731
 20
105.4314253786226
 30
0.0
 10
236.6762853151902
 20
105.4247030536678
 30
0.0
 10
236.6390525359273
 20
105.4134618280244
 30
0.0
 10
236.6034484134896
 20
105.3982344963938
 30
0.0
 10
236.5703617858029
 20
105.377741515695
 30
0.0
 10
236.5384805194954
 20
105.3538145020324
 30
0.0
 10
236.5092978097302
 20
105.3246621064889
 30
0.0
 10
236.4917125648646
 20
105.3028682312673
 30
0.0
 10
236.4827197569595
 20
105.2917231983221
 30
0.0
  0
SPLINE
  5
1AB
330
1F
100
AcDbEntity
  8
0
  6
Continuous
 62
     7
370
     0
100
AcDbSpline
210
0.0
220
0.0
230
1.0
 70
     8
 71
     3
 72
    15
 73
    11
 74
     0
 42
0.00000001
 43
0.00000001
 40
0.0
 40
0.0
 40
0.0
 40
0.0
 40
0.1323768784386572
 40
0.2551949197670689
 40
0.3737221416536693
 40
0.4900113154474169
 40
0.6078124214239345
 40
0.7311098159015433
 40
0.8599973777575841
 40
1.0
 40
1.0
 40
1.0
 40
1.0
 10
233.5703122226128
 20
107.9855766907329
 30
0.0
 10
233.5860464660419
 20
107.9910883974386
 30
0.0
 10
233.6163787947447
 20
108.0017138145594
 30
0.0
 10
233.6570269524685
 20
108.025845205058
 30
0.0
 10
233.69164736785
 20
108.0548027558838
 30
0.0
 10
233.7201472657682
 20
108.0890977861313
 30
0.0
 10
233.7420480251247
 20
108.1285467630876
 30
0.0
 10
233.7582868060096
 20
108.1723316107787
 30
0.0
 10
233.767177898855
 20
108.2210644008432
 30
0.0
 10
233.7684484375971
 20
108.2548588784802
 30
0.0
 10
233.7691099669726
 20
108.2724545951195
 30
0.0
  0
SPLINE
  5
1AC
330
1F
100
AcDbEntity
  8
0
  6
Continuous
 62
     7
370
     0
100
AcDbSpline
210
0.0
220
0.0
230
1.0
 70
     8
 71
     3
 72
    15
 73
    11
 74
     0
 42
0.00000001
 43
0.00000001
 40
0.0
 40
0.0
 40
0.0
 40
0.0
 40
0.1669801744060282
 40
0.3208066328848138
 40
0.4631345048703168
 40
0.5942480539785199
 40
0.7123671525397434
 40
0.8194549510427512
 40
0.9157522665813538
 40
1.0
 40
1.0
 40
1.0
 40
1.0
 10
233.3233585029113
 20
107.9612929082955
 30
0.0
 10
233.3372173160346
 20
107.9613477389965
 30
0.0
 10
233.3638432265036
 20
107.9614530811584
 30
0.0
 10
233.4022504679993
 20
107.9629218652438
 30
0.0
 10
233.4376985109157
 20
107.9641749483673
 30
0.0
 10
233.4700502374851
 20
107.9673200901809
 30
0.0
 10
233.4994659207752
 20
107.9704006168733
 30
0.0
 10
233.5258278427909
 20
107.9745474859977
 30
0.0
 10
233.5492651256747
 20
107.979220066943
 30
0.0
 10
233.5636157779584
 20
107.9835542370176
 30
0.0
 10
233.5703122226128
 20
107.9855766907329
 30
0.0
  0
LINE
  5
1AD
330
1F
100
AcDbEntity
  8
0
  6
Continuous
 62
     7
370
     0
100
AcDbLine
 10
232.8998328736
 20
107.9612929083
 30
0.0
 11
233.3233585029
 21
107.9612929083
 31
0.0
  0
LINE
  5
1AE
330
1F
100
AcDbEntity
  8
0
  6
Continuous
 62
     7
370
     0
100
AcDbLine
 10
232.8998328736
 20
108.5934944307
 30
0.0
 11
232.8998328736
 21
107.9612929083
 31
0.0
  0
LINE
  5
1AF
330
1F
100
AcDbEntity
  8
0
  6
Continuous
 62
     7
370
     0
100
AcDbLine
 10
233.2912545194
 20
108.5934944307
 30
0.0
 11
232.8998328736
 21
108.5934944307
 31
0.0
  0
SPLINE
  5
1B0
330
1F
100
AcDbEntity
  8
0
  6
Continuous
 62
     7
370
     0
100
AcDbSpline
210
0.0
220
0.0
230
1.0
 70
     8
 71
     3
 72
    23
 73
    19
 74
     0
 42
0.00000001
 43
0.00000001
 40
0.0
 40
0.0
 40
0.0
 40
0.0
 40
0.076010519206233
 40
0.1481357362434483
 40
0.217788177833154
 40
0.2867678984972345
 40
0.3540434632439188
 40
0.4186108400234796
 40
0.4836364388553443
 40
0.5502295626461522
 40
0.5869278113138146
 40
0.6291578250269657
 40
0.6772382242876696
 40
0.7300426397437304
 40
0.7888625661169236
 40
0.8537504514610937
 40
0.9241097665384561
 40
0.9999999999999999
 40
0.9999999999999999
 40
0.9999999999999999
 40
0.9999999999999999
 10
233.7691099669726
 20
108.2724545951195
 30
0.0
 10
233.7685780525656
 20
108.2893652172822
 30
0.0
 10
233.7675414127279
 20
108.3223220697095
 30
0.0
 10
233.7588397481495
 20
108.3701811334895
 30
0.0
 10
233.7437818390551
 20
108.4147052040636
 30
0.0
 10
233.7233893066561
 20
108.4558845144395
 30
0.0
 10
233.697566942276
 20
108.4925194254571
 30
0.0
 10
233.6667470496302
 20
108.5240168735619
 30
0.0
 10
233.6298269936562
 20
108.5478275575641
 30
0.0
 10
233.5953178002406
 20
108.5626807113087
 30
0.0
 10
233.5642795157362
 20
108.5719727603747
 30
0.0
 10
233.5365478986189
 20
108.5774704833188
 30
0.0
 10
233.5050919735038
 20
108.5823145239825
 30
0.0
 10
233.4698082275443
 20
108.5864327662851
 30
0.0
 10
233.4306833139013
 20
108.5896289017463
 30
0.0
 10
233.3875966818942
 20
108.5921680195626
 30
0.0
 10
233.3406508964036
 20
108.5932460673442
 30
0.0
 10
233.3081299414514
 20
108.5934095816545
 30
0.0
 10
233.2912545193502
 20
108.5934944307314
 30
0.0
  0
SPLINE
  5
1B1
330
1F
100
AcDbEntity
  8
0
  6
Continuous
 62
     7
370
     0
100
AcDbSpline
210
0.0
220
0.0
230
1.0
 70
     8
 71
     3
 72
    19
 73
    15
 74
     0
 42
0.00000001
 43
0.00000001
 40
0.0
 40
0.0
 40
0.0
 40
0.0
 40
0.0801399024652513
 40
0.1562809906190948
 40
0.229406049012902
 40
0.3017986969723052
 40
0.3727428627695777
 40
0.442667609902629
 40
0.5133209646126967
 40
0.586547692363208
 40
0.6683225082295051
 40
0.7636766255259053
 40
0.8740807567185483
 40
1.0
 40
1.0
 40
1.0
 40
1.0
 10
233.8481351572771
 20
107.3686039810119
 30
0.0
 10
233.8475682070364
 20
107.3873125007845
 30
0.0
 10
233.8464625961919
 20
107.4237960241373
 30
0.0
 10
233.8359533859655
 20
107.476516563873
 30
0.0
 10
233.8185938905183
 20
107.5254155199694
 30
0.0
 10
233.7941567792061
 20
107.5698156910205
 30
0.0
 10
233.7641833865707
 20
107.6097498221737
 30
0.0
 10
233.7279186080792
 20
107.6436248585784
 30
0.0
 10
233.685633609186
 20
107.6705063752443
 30
0.0
 10
233.6371984307957
 20
107.6916031632825
 30
0.0
 10
233.5805874093723
 20
107.7066131646224
 30
0.0
 10
233.5142376270607
 20
107.7167965413497
 30
0.0
 10
233.4370877983269
 20
107.7233676302583
 30
0.0
 10
233.381956663137
 20
107.7239219704849
 30
0.0
 10
233.3525813597427
 20
107.7242173373821
 30
0.0
  0
SPLINE
  5
1B2
330
1F
100
AcDbEntity
  8
0
  6
Continuous
 62
     7
370
     0
100
AcDbSpline
210
0.0
220
0.0
230
1.0
 70
     8
 71
     3
 72
    11
 73
     7
 74
     0
 42
0.00000001
 43
0.00000001
 40
0.0
 40
0.0
 40
0.0
 40
0.0
 40
0.3293954641291814
 40
0.6051903468527978
 40
0.8278865786947356
 40
1.0
 40
1.0
 40
1.0
 40
1.0
 10
233.3859201119024
 20
107.0129906246417
 30
0.0
 10
233.4052652626286
 20
107.0132128730394
 30
0.0
 10
233.4408076417834
 20
107.0136212046637
 30
0.0
 10
233.4894226725174
 20
107.0149021608419
 30
0.0
 10
233.5287186475681
 20
107.0180310576169
 30
0.0
 10
233.5516654203987
 20
107.0214000806611
 30
0.0
 10
233.5616688424233
 20
107.0228687734298
 30
0.0
  0
LINE
  5
1B3
330
1F
100
AcDbEntity
  8
0
  6
Continuous
 62
     7
370
     0
100
AcDbLine
 10
232.8998328736
 20
107.0129906246
 30
0.0
 11
233.3859201119
 21
107.0129906246
 31
0.0
  0
LINE
  5
1B4
330
1F
100
AcDbEntity
  8
0
  6
Continuous
 62
     7
370
     0
100
AcDbLine
 10
232.8998328736
 20
107.7242173374
 30
0.0
 11
232.8998328736
 21
107.0129906246
 31
0.0
  0
LINE
  5
1B5
330
1F
100
AcDbEntity
  8
0
  6
Continuous
 62
     7
370
     0
100
AcDbLine
 10
233.3525813597
 20
107.7242173374
 30
0.0
 11
232.8998328736
 21
107.7242173374
 31
0.0
  0
SPLINE
  5
1B6
330
1F
100
AcDbEntity
  8
0
  6
Continuous
 62
     7
370
     0
100
AcDbSpline
210
0.0
220
0.0
230
1.0
 70
     8
 71
     3
 72
    19
 73
    15
 74
     0
 42
0.00000001
 43
0.00000001
 40
0.0
 40
0.0
 40
0.0
 40
0.0
 40
0.0889709576989538
 40
0.1722707767733128
 40
0.2503120304637083
 40
0.3246551996215513
 40
0.3978444501802943
 40
0.4733008807185318
 40
0.551825888744447
 40
0.6347494834982523
 40
0.7217660118923853
 40
0.8103926655611188
 40
0.903175236799419
 40
1.0
 40
1.0
 40
1.0
 40
1.0
 10
233.5616688424233
 20
107.0228687734298
 30
0.0
 10
233.5760107798826
 20
107.025883303359
 30
0.0
 10
233.6037804787871
 20
107.0317202126824
 30
0.0
 10
233.6429290912969
 20
107.0447475853505
 30
0.0
 10
233.6788234197028
 20
107.0596711350609
 30
0.0
 10
233.7108369827374
 20
107.0786373088136
 30
0.0
 10
233.740480774026
 20
107.1004945248376
 30
0.0
 10
233.766243434918
 20
107.1277952336435
 30
0.0
 10
233.7899720684991
 20
107.158813461382
 30
0.0
 10
233.8105308404128
 20
107.1943102946445
 30
0.0
 10
233.8271555927208
 20
107.2335792497682
 30
0.0
 10
233.8398616064748
 20
107.2760135937289
 30
0.0
 10
233.8466297548791
 20
107.3214645427567
 30
0.0
 10
233.8476262749559
 20
107.3526690875971
 30
0.0
 10
233.8481351572771
 20
107.3686039810119
 30
0.0
  0
SPLINE
  5
1B7
330
1F
100
AcDbEntity
  8
0
  6
Continuous
 62
     7
370
     0
100
AcDbSpline
210
0.0
220
0.0
230
1.0
 70
     8
 71
     3
 72
    23
 73
    19
 74
     0
 42
0.00000001
 43
0.00000001
 40
0.0
 40
0.0
 40
0.0
 40
0.0
 40
0.1156291309254414
 40
0.2215410391198768
 40
0.3170478562190417
 40
0.4031508756396167
 40
0.4801812167162795
 40
0.5476493661481898
 40
0.6070358428421809
 40
0.6586524080635072
 40
0.705722890353646
 40
0.749804087979647
 40
0.7925868153452743
 40
0.8338739610102607
 40
0.8747683933034329
 40
0.9152226988916381
 40
0.9568807037304801
 40
1.0
 40
1.0
 40
1.0
 40
1.0
 10
232.2808022162381
 20
104.6290640504563
 30
0.0
 10
232.2805527646608
 20
104.6677604610727
 30
0.0
 10
232.2800748248788
 20
104.741901319432
 30
0.0
 10
232.2746732295404
 20
104.8478942246306
 30
0.0
 10
232.2662084441978
 20
104.9437561313906
 30
0.0
 10
232.2546299625787
 20
105.0295754155012
 30
0.0
 10
232.2392421626538
 20
105.1052589083643
 30
0.0
 10
232.2205788604169
 20
105.1709677298492
 30
0.0
 10
232.1983387452012
 20
105.2265617452193
 30
0.0
 10
232.1718953275734
 20
105.2725993974536
 30
0.0
 10
232.1424585127937
 20
105.3103627617867
 30
0.0
 10
232.1117089691774
 20
105.3430502394717
 30
0.0
 10
232.0788779550338
 20
105.3708498743128
 30
0.0
 10
232.0433838035842
 20
105.3931511514747
 30
0.0
 10
232.006370558086
 20
105.4111429923922
 30
0.0
 10
231.966987748235
 20
105.4235254354791
 30
0.0
 10
231.9256224759291
 20
105.4311328212029
 30
0.0
 10
231.8972340262054
 20
105.4320303293721
 30
0.0
 10
231.8827951379858
 20
105.432486818552
 30
0.0
  0
SPLINE
  5
1B8
330
1F
100
AcDbEntity
  8
0
  6
Continuous
 62
     7
370
     0
100
AcDbSpline
210
0.0
220
0.0
230
1.0
 70
     8
 71
     3
 72
    23
 73
    19
 74
     0
 42
0.00000001
 43
0.00000001
 40
0.0
 40
0.0
 40
0.0
 40
0.0
 40
0.0407818458722597
 40
0.0808695887215869
 40
0.1202681657882672
 40
0.1601868504553523
 40
0.2004597376386391
 40
0.2422651778979082
 40
0.2864592615494684
 40
0.3329520837492633
 40
0.3844305340495303
 40
0.4433891253601058
 40
0.5116814722136833
 40
0.5890200255490083
 40
0.6762451906507723
 40
0.7737051914728237
 40
0.881567767781983
 40
1.0
 40
1.0
 40
1.0
 40
1.0
 10
231.8856762647156
 20
103.8256412823607
 30
0.0
 10
231.8992819322926
 20
103.8261607103779
 30
0.0
 10
231.9262617003167
 20
103.8271907257982
 30
0.0
 10
231.9659784049446
 20
103.8340514954826
 30
0.0
 10
232.0038168223201
 20
103.8468695941993
 30
0.0
 10
232.04011816056
 20
103.8636293127496
 30
0.0
 10
232.0746949957203
 20
103.8853371724075
 30
0.0
 10
232.1073654858811
 20
103.9120800377192
 30
0.0
 10
232.1386513461565
 20
103.9434060725376
 30
0.0
 10
232.1686602258384
 20
103.9802755821878
 30
0.0
 10
232.1959822781874
 20
104.0251931791336
 30
0.0
 10
232.2186478933306
 20
104.0805489390987
 30
0.0
 10
232.2380772784122
 20
104.1460677255377
 30
0.0
 10
232.2538824604939
 20
104.2222215035871
 30
0.0
 10
232.2658361971077
 20
104.3088710765876
 30
0.0
 10
232.2747863233815
 20
104.4060990374711
 30
0.0
 10
232.2800521069538
 20
104.5140349524822
 30
0.0
 10
232.2805445134575
 20
104.589545384286
 30
0.0
 10
232.2808022162381
 20
104.6290640504563
 30
0.0
  0
SPLINE
  5
1B9
330
1F
100
AcDbEntity
  8
0
  6
Continuous
 62
     7
370
     0
100
AcDbSpline
210
0.0
220
0.0
230
1.0
 70
     8
 71
     3
 72
    23
 73
    19
 74
     0
 42
0.00000001
 43
0.00000001
 40
0.0
 40
0.0
 40
0.0
 40
0.0
 40
0.1184055081537694
 40
0.2266543328167019
 40
0.3240923419286019
 40
0.4117048030053216
 40
0.4890259050064157
 40
0.5569093973430758
 40
0.6162333444927067
 40
0.6673492812770749
 40
0.7135123932013474
 40
0.757696504520978
 40
0.7994925114422909
 40
0.8399760647439395
 40
0.879885741816776
 40
0.9191486593857414
 40
0.959227356493083
 40
1.0
 40
1.0
 40
1.0
 40
1.0
 10
231.4905503131932
 20
104.6290640504563
 30
0.0
 10
231.4908118656261
 20
104.5895455625662
 30
0.0
 10
231.4913125348357
 20
104.513898435618
 30
0.0
 10
231.4965433127692
 20
104.4058234634248
 30
0.0
 10
231.5055478816801
 20
104.3083250861949
 30
0.0
 10
231.5174525099295
 20
104.2215382968022
 30
0.0
 10
231.5331714392019
 20
104.145345698952
 30
0.0
 10
231.5529084140345
 20
104.0799414548397
 30
0.0
 10
231.5751566790447
 20
104.0245405652621
 30
0.0
 10
231.6026884854034
 20
103.9798296816081
 30
0.0
 10
231.6328327724572
 20
103.9433837890759
 30
0.0
 10
231.6639546887266
 20
103.9120391428442
 30
0.0
 10
231.6967864253213
 20
103.8853969112597
 30
0.0
 10
231.7311137591278
 20
103.8631827234419
 30
0.0
 10
231.7674693034325
 20
103.8463635999105
 30
0.0
 10
231.8054555164017
 20
103.8341730617226
 30
0.0
 10
231.8450806635108
 20
103.8271575941687
 30
0.0
 10
231.8720671892702
 20
103.8261496034887
 30
0.0
 10
231.8856762647156
 20
103.8256412823607
 30
0.0
  0
SPLINE
  5
1BA
330
1F
100
AcDbEntity
  8
0
  6
Continuous
 62
     7
370
     0
100
AcDbSpline
210
0.0
220
0.0
230
1.0
 70
     8
 71
     3
 72
    15
 73
    11
 74
     0
 42
0.00000001
 43
0.00000001
 40
0.0
 40
0.0
 40
0.0
 40
0.0
 40
0.0838881132795455
 40
0.1771540327539696
 40
0.2825136355617228
 40
0.3993998606601629
 40
0.5294908061912204
 40
0.6728021776758328
 40
0.8295357616196702
 40
1.0
 40
1.0
 40
1.0
 40
1.0
 10
231.6094996881828
 20
105.2917231983221
 30
0.0
 10
231.5997092638581
 20
105.275354596881
 30
0.0
 10
231.5790339490408
 20
105.2407875570173
 30
0.0
 10
231.5558994739399
 20
105.1807086175279
 30
0.0
 10
231.5354633931822
 20
105.1120498254217
 30
0.0
 10
231.5186377232322
 20
105.0337548153147
 30
0.0
 10
231.5064655314006
 20
104.9459578946416
 30
0.0
 10
231.4968560566137
 20
104.8487610229281
 30
0.0
 10
231.4918642921445
 20
104.7420285017128
 30
0.0
 10
231.4910003905426
 20
104.6677577759138
 30
0.0
 10
231.4905503131932
 20
104.6290640504563
 30
0.0
  0
SPLINE
  5
1BB
330
1F
100
AcDbEntity
  8
0
  6
Continuous
 62
     7
370
     0
100
AcDbSpline
210
0.0
220
0.0
230
1.0
 70
     8
 71
     3
 72
    15
 73
    11
 74
     0
 42
0.00000001
 43
0.00000001
 40
0.0
 40
0.0
 40
0.0
 40
0.0
 40
0.1276647678962251
 40
0.2517385630080496
 40
0.3727533493873896
 40
0.492146758972386
 40
0.614069621309245
 40
0.7371973244121095
 40
0.8656069906011175
 40
1.0
 40
1.0
 40
1.0
 40
1.0
 10
231.8827951379858
 20
105.432486818552
 30
0.0
 10
231.8691869172654
 20
105.4321296564735
 30
0.0
 10
231.8423532497964
 20
105.4314253786226
 30
0.0
 10
231.8030652464135
 20
105.4247030536678
 30
0.0
 10
231.7658324671506
 20
105.4134618280244
 30
0.0
 10
231.7302283447129
 20
105.3982344963938
 30
0.0
 10
231.6971417170262
 20
105.377741515695
 30
0.0
 10
231.6652604507187
 20
105.3538145020324
 30
0.0
 10
231.6360777409535
 20
105.3246621064889
 30
0.0
 10
231.6184924960878
 20
105.3028682312673
 30
0.0
 10
231.6094996881828
 20
105.2917231983221
 30
0.0
  0
SPLINE
  5
1BC
330
1F
100
AcDbEntity
  8
0
  6
Continuous
 62
     7
370
     0
100
AcDbSpline
210
0.0
220
0.0
230
1.0
 70
     8
 71
     3
 72
    15
 73
    11
 74
     0
 42
0.00000001
 43
0.00000001
 40
0.0
 40
0.0
 40
0.0
 40
0.0
 40
0.1531481085926319
 40
0.2994334688329067
 40
0.4364263514567512
 40
0.5656705729563586
 40
0.6865083102878727
 40
0.7992685160630042
 40
0.9033947408013441
 40
1.0
 40
1.0
 40
1.0
 40
1.0
 10
231.5625784814395
 20
108.1851976141583
 30
0.0
 10
231.5549257279393
 20
108.2060626894994
 30
0.0
 10
231.5399631498981
 20
108.2468578514133
 30
0.0
 10
231.5176494382016
 20
108.306129777857
 30
0.0
 10
231.4972639907671
 20
108.3624168319836
 30
0.0
 10
231.4772743855482
 20
108.4149119380602
 30
0.0
 10
231.4592294118701
 20
108.4643776402669
 30
0.0
 10
231.4425968971005
 20
108.51047982019
 30
0.0
 10
231.4261474803338
 20
108.5528980456115
 30
0.0
 10
231.416275953937
 20
108.5803045899278
 30
0.0
 10
231.4115251228887
 20
108.5934944307314
 30
0.0
  0
LINE
  5
1BD
330
1F
100
AcDbEntity
  8
0
  6
Continuous
 62
     7
370
     0
100
AcDbLine
 10
231.7621994049
 20
107.6451921471
 30
0.0
 11
231.5625784814
 21
108.1851976142
 31
0.0
  0
LINE
  5
1BE
330
1F
100
AcDbEntity
  8
0
  6
Continuous
 62
     7
370
     0
100
AcDbLine
 10
231.0608508409
 20
107.6451921471
 30
0.0
 11
231.7621994049
 21
107.6451921471
 31
0.0
  0
LINE
  5
1BF
330
1F
100
AcDbEntity
  8
0
  6
Continuous
 62
     7
370
     0
100
AcDbLine
 10
231.2711730922
 20
108.2140088815
 30
0.0
 11
231.0608508409
 21
107.6451921471
 31
0.0
  0
SPLINE
  5
1C0
330
1F
100
AcDbEntity
  8
0
  6
Continuous
 62
     7
370
     0
100
AcDbSpline
210
0.0
220
0.0
230
1.0
 70
     8
 71
     3
 72
    11
 73
     7
 74
     0
 42
0.00000001
 43
0.00000001
 40
0.0
 40
0.0
 40
0.0
 40
0.0
 40
0.247294050035337
 40
0.4956077709090489
 40
0.746359172773196
 40
1.0
 40
1.0
 40
1.0
 40
1.0
 10
231.4115251228887
 20
108.5934944307314
 30
0.0
 10
231.4036663313406
 20
108.5609694448556
 30
0.0
 10
231.3879163439848
 20
108.4957853623981
 30
0.0
 10
231.3549397051203
 20
108.4002819370286
 30
0.0
 10
231.3172155755838
 20
108.3056519335911
 30
0.0
 10
231.2865790873232
 20
108.2446730053485
 30
0.0
 10
231.2711730921917
 20
108.2140088814568
 30
0.0
  0
SPLINE
  5
1C1
330
1F
100
AcDbEntity
  8
0
  6
Continuous
 62
     7
370
     0
100
AcDbSpline
210
0.0
220
0.0
230
1.0
 70
     8
 71
     3
 72
    23
 73
    19
 74
     0
 42
0.00000001
 43
0.00000001
 40
0.0
 40
0.0
 40
0.0
 40
0.0
 40
0.1184055081537694
 40
0.2266543328167019
 40
0.324092341928602
 40
0.4117048030053217
 40
0.4890259050064157
 40
0.5569093973430758
 40
0.6162333444927066
 40
0.667349281277075
 40
0.7135123932013474
 40
0.7576965045209779
 40
0.7994925114422909
 40
0.8399760647439393
 40
0.879885741816776
 40
0.9191486593857416
 40
0.959227356493083
 40
1.0
 40
1.0
 40
1.0
 40
1.0
 10
229.9100465071035
 20
104.6290640504563
 30
0.0
 10
229.9103080595364
 20
104.5895455625662
 30
0.0
 10
229.910808728746
 20
104.513898435618
 30
0.0
 10
229.9160395066794
 20
104.4058234634248
 30
0.0
 10
229.9250440755904
 20
104.3083250861949
 30
0.0
 10
229.9369487038398
 20
104.2215382968022
 30
0.0
 10
229.9526676331121
 20
104.145345698952
 30
0.0
 10
229.9724046079448
 20
104.0799414548397
 30
0.0
 10
229.9946528729549
 20
104.0245405652621
 30
0.0
 10
230.0221846793137
 20
103.9798296816081
 30
0.0
 10
230.0523289663675
 20
103.9433837890759
 30
0.0
 10
230.0834508826369
 20
103.9120391428442
 30
0.0
 10
230.1162826192316
 20
103.8853969112597
 30
0.0
 10
230.150609953038
 20
103.8631827234419
 30
0.0
 10
230.1869654973428
 20
103.8463635999105
 30
0.0
 10
230.2249517103119
 20
103.8341730617226
 30
0.0
 10
230.2645768574211
 20
103.8271575941687
 30
0.0
 10
230.2915633831805
 20
103.8261496034887
 30
0.0
 10
230.3051724586259
 20
103.8256412823607
 30
0.0
  0
SPLINE
  5
1C2
330
1F
100
AcDbEntity
  8
0
  6
Continuous
 62
     7
370
     0
100
AcDbSpline
210
0.0
220
0.0
230
1.0
 70
     8
 71
     3
 72
    15
 73
    11
 74
     0
 42
0.00000001
 43
0.00000001
 40
0.0
 40
0.0
 40
0.0
 40
0.0
 40
0.0838881132795455
 40
0.1771540327539697
 40
0.2825136355617227
 40
0.3993998606601629
 40
0.5294908061912204
 40
0.6728021776758328
 40
0.82953576161967
 40
1.0
 40
1.0
 40
1.0
 40
1.0
 10
230.028995882093
 20
105.2917231983221
 30
0.0
 10
230.0192054577684
 20
105.275354596881
 30
0.0
 10
229.998530142951
 20
105.2407875570173
 30
0.0
 10
229.9753956678502
 20
105.1807086175279
 30
0.0
 10
229.9549595870925
 20
105.1120498254217
 30
0.0
 10
229.9381339171425
 20
105.0337548153147
 30
0.0
 10
229.9259617253109
 20
104.9459578946416
 30
0.0
 10
229.9163522505239
 20
104.8487610229281
 30
0.0
 10
229.9113604860548
 20
104.7420285017128
 30
0.0
 10
229.9104965844529
 20
104.6677577759138
 30
0.0
 10
229.9100465071035
 20
104.6290640504563
 30
0.0
  0
SPLINE
  5
1C3
330
1F
100
AcDbEntity
  8
0
  6
Continuous
 62
     7
370
     0
100
AcDbSpline
210
0.0
220
0.0
230
1.0
 70
     8
 71
     3
 72
    15
 73
    11
 74
     0
 42
0.00000001
 43
0.00000001
 40
0.0
 40
0.0
 40
0.0
 40
0.0
 40
0.1276647678962245
 40
0.2517385630080491
 40
0.3727533493873891
 40
0.4921467589723856
 40
0.6140696213092447
 40
0.7371973244121093
 40
0.8656069906011173
 40
0.9999999999999999
 40
0.9999999999999999
 40
0.9999999999999999
 40
0.9999999999999999
 10
230.3022913318961
 20
105.432486818552
 30
0.0
 10
230.2886831111757
 20
105.4321296564735
 30
0.0
 10
230.2618494437067
 20
105.4314253786226
 30
0.0
 10
230.2225614403237
 20
105.4247030536678
 30
0.0
 10
230.1853286610609
 20
105.4134618280244
 30
0.0
 10
230.1497245386231
 20
105.3982344963938
 30
0.0
 10
230.1166379109364
 20
105.377741515695
 30
0.0
 10
230.084756644629
 20
105.3538145020324
 30
0.0
 10
230.0555739348637
 20
105.3246621064889
 30
0.0
 10
230.0379886899981
 20
105.3028682312673
 30
0.0
 10
230.028995882093
 20
105.2917231983221
 30
0.0
  0
SPLINE
  5
1C4
330
1F
100
AcDbEntity
  8
0
  6
Continuous
 62
     7
370
     0
100
AcDbSpline
210
0.0
220
0.0
230
1.0
 70
     8
 71
     3
 72
    23
 73
    19
 74
     0
 42
0.00000001
 43
0.00000001
 40
0.0
 40
0.0
 40
0.0
 40
0.0
 40
0.1156291309254414
 40
0.2215410391198767
 40
0.3170478562190416
 40
0.4031508756396166
 40
0.4801812167162794
 40
0.5476493661481897
 40
0.6070358428421808
 40
0.658652408063507
 40
0.7057228903536458
 40
0.7498040879796469
 40
0.7925868153452741
 40
0.8338739610102605
 40
0.8747683933034327
 40
0.9152226988916381
 40
0.9568807037304798
 40
1.0
 40
1.0
 40
1.0
 40
1.0
 10
230.7002984101483
 20
104.6290640504563
 30
0.0
 10
230.7000489585711
 20
104.6677604610727
 30
0.0
 10
230.6995710187891
 20
104.741901319432
 30
0.0
 10
230.6941694234507
 20
104.8478942246306
 30
0.0
 10
230.6857046381081
 20
104.9437561313906
 30
0.0
 10
230.6741261564889
 20
105.0295754155012
 30
0.0
 10
230.658738356564
 20
105.1052589083643
 30
0.0
 10
230.6400750543272
 20
105.1709677298492
 30
0.0
 10
230.6178349391115
 20
105.2265617452193
 30
0.0
 10
230.5913915214837
 20
105.2725993974536
 30
0.0
 10
230.5619547067039
 20
105.3103627617867
 30
0.0
 10
230.5312051630876
 20
105.3430502394717
 30
0.0
 10
230.498374148944
 20
105.3708498743128
 30
0.0
 10
230.4628799974945
 20
105.3931511514747
 30
0.0
 10
230.4258667519963
 20
105.4111429923922
 30
0.0
 10
230.3864839421452
 20
105.4235254354791
 30
0.0
 10
230.3451186698393
 20
105.4311328212029
 30
0.0
 10
230.3167302201157
 20
105.4320303293721
 30
0.0
 10
230.3022913318961
 20
105.432486818552
 30
0.0
  0
SPLINE
  5
1C5
330
1F
100
AcDbEntity
  8
0
  6
Continuous
 62
     7
370
     0
100
AcDbSpline
210
0.0
220
0.0
230
1.0
 70
     8
 71
     3
 72
    23
 73
    19
 74
     0
 42
0.00000001
 43
0.00000001
 40
0.0
 40
0.0
 40
0.0
 40
0.0
 40
0.0407818458722599
 40
0.0808695887215869
 40
0.1202681657882672
 40
0.1601868504553523
 40
0.2004597376386391
 40
0.2422651778979082
 40
0.2864592615494684
 40
0.3329520837492633
 40
0.3844305340495303
 40
0.4433891253601058
 40
0.5116814722136833
 40
0.5890200255490083
 40
0.6762451906507723
 40
0.7737051914728237
 40
0.881567767781983
 40
1.0
 40
1.0
 40
1.0
 40
1.0
 10
230.3051724586259
 20
103.8256412823607
 30
0.0
 10
230.3187781262028
 20
103.8261607103779
 30
0.0
 10
230.3457578942269
 20
103.8271907257982
 30
0.0
 10
230.3854745988549
 20
103.8340514954826
 30
0.0
 10
230.4233130162303
 20
103.8468695941993
 30
0.0
 10
230.4596143544703
 20
103.8636293127496
 30
0.0
 10
230.4941911896306
 20
103.8853371724075
 30
0.0
 10
230.5268616797914
 20
103.9120800377192
 30
0.0
 10
230.5581475400667
 20
103.9434060725376
 30
0.0
 10
230.5881564197487
 20
103.9802755821878
 30
0.0
 10
230.6154784720977
 20
104.0251931791336
 30
0.0
 10
230.6381440872409
 20
104.0805489390987
 30
0.0
 10
230.6575734723225
 20
104.1460677255377
 30
0.0
 10
230.6733786544041
 20
104.2222215035871
 30
0.0
 10
230.685332391018
 20
104.3088710765876
 30
0.0
 10
230.6942825172918
 20
104.4060990374711
 30
0.0
 10
230.6995483008641
 20
104.5140349524822
 30
0.0
 10
230.7000407073678
 20
104.589545384286
 30
0.0
 10
230.7002984101483
 20
104.6290640504563
 30
0.0
  0
SPLINE
  5
1C6
330
1F
100
AcDbEntity
  8
0
  6
Continuous
 62
     7
370
     0
100
AcDbSpline
210
0.0
220
0.0
230
1.0
 70
     8
 71
     3
 72
    23
 73
    19
 74
     0
 42
0.00000001
 43
0.00000001
 40
0.0
 40
0.0
 40
0.0
 40
0.0
 40
0.0603255293380428
 40
0.1181599905079977
 40
0.1741866762963808
 40
0.2295388181457999
 40
0.2834498146386372
 40
0.337826511950592
 40
0.3926321025334832
 40
0.4484655764151909
 40
0.5059654091573053
 40
0.5650585322290048
 40
0.6266544786228438
 40
0.6922320330373639
 40
0.7611310781257618
 40
0.8353098773394203
 40
0.9153255598322017
 40
1.0
 40
1.0
 40
1.0
 40
1.0
 10
228.369055296166
 20
108.2703966474553
 30
0.0
 10
228.3686728685551
 20
108.2819297248554
 30
0.0
 10
228.3679238052088
 20
108.3045196354799
 30
0.0
 10
228.3639969674083
 20
108.337675352443
 30
0.0
 10
228.3563622624134
 20
108.3691809472168
 30
0.0
 10
228.3462806532026
 20
108.3992029619165
 30
0.0
 10
228.3328095774933
 20
108.4275215067474
 30
0.0
 10
228.3168064891169
 20
108.4543560191258
 30
0.0
 10
228.297709864341
 20
108.4795577713502
 30
0.0
 10
228.2758357794676
 20
108.5032035318201
 30
0.0
 10
228.2507203548956
 20
108.5247188630173
 30
0.0
 10
228.2220326355323
 20
108.5432819272819
 30
0.0
 10
228.1899988797351
 20
108.5590565272509
 30
0.0
 10
228.1545818534753
 20
108.5715763043005
 30
0.0
 10
228.1158931268569
 20
108.5815900879705
 30
0.0
 10
228.0737124534826
 20
108.5882519352627
 30
0.0
 10
228.0282327345797
 20
108.5930724257591
 30
0.0
 10
227.9967179268221
 20
108.593351134369
 30
0.0
 10
227.9805147771689
 20
108.5934944307314
 30
0.0
  0
SPLINE
  5
1C7
330
1F
100
AcDbEntity
  8
0
  6
Continuous
 62
     7
370
     0
100
AcDbSpline
210
0.0
220
0.0
230
1.0
 70
     8
 71
     3
 72
    19
 73
    15
 74
     0
 42
0.00000001
 43
0.00000001
 40
0.0
 40
0.0
 40
0.0
 40
0.0
 40
0.1288602680417313
 40
0.2408921848092289
 40
0.3380442015575112
 40
0.4201204852136088
 40
0.494058456868551
 40
0.5660947835833202
 40
0.6368049543510104
 40
0.7091484493607203
 40
0.7819418055941268
 40
0.8542853006038366
 40
0.9261704072165587
 40
1.0
 40
1.0
 40
1.0
 40
1.0
 10
227.9183647577107
 20
107.934951178194
 30
0.0
 10
227.9459586437585
 20
107.9353829107109
 30
0.0
 10
227.9975428255894
 20
107.9361899941572
 30
0.0
 10
228.069675143299
 20
107.9430816384806
 30
0.0
 10
228.1311479274388
 20
107.9540327539725
 30
0.0
 10
228.1831764071941
 20
107.9700062384707
 30
0.0
 10
228.2268885426957
 20
107.9921827393731
 30
0.0
 10
228.2649058174729
 20
108.0192089497339
 30
0.0
 10
228.296498651367
 20
108.0530620916806
 30
0.0
 10
228.3227806256499
 20
108.0912581548452
 30
0.0
 10
228.343210143419
 20
108.1332910157379
 30
0.0
 10
228.357947023143
 20
108.1774403734977
 30
0.0
 10
228.3675925672364
 20
108.2233351813367
 30
0.0
 10
228.3685634014319
 20
108.2545705522066
 30
0.0
 10
228.369055296166
 20
108.2703966474553
 30
0.0
  0
LINE
  5
1C8
330
1F
100
AcDbEntity
  8
0
  6
Continuous
 62
     7
370
     0
100
AcDbLine
 10
227.3680695523
 20
107.9349511782
 30
0.0
 11
227.9183647577
 21
107.9349511782
 31
0.0
  0
LINE
  5
1C9
330
1F
100
AcDbEntity
  8
0
  6
Continuous
 62
     7
370
     0
100
AcDbLine
 10
227.3680695523
 20
108.5934944307
 30
0.0
 11
227.3680695523
 21
107.9349511782
 31
0.0
  0
LINE
  5
1CA
330
1F
100
AcDbEntity
  8
0
  6
Continuous
 62
     7
370
     0
100
AcDbLine
 10
227.9805147772
 20
108.5934944307
 30
0.0
 11
227.3680695523
 21
108.5934944307
 31
0.0
  0
SPLINE
  5
1CB
330
1F
100
AcDbEntity
  8
0
  6
Continuous
 62
     7
370
     0
100
AcDbSpline
210
0.0
220
0.0
230
1.0
 70
     8
 71
     3
 72
    23
 73
    19
 74
     0
 42
0.00000001
 43
0.00000001
 40
0.0
 40
0.0
 40
0.0
 40
0.0
 40
0.0718367171319505
 40
0.1395582629178172
 40
0.2049233526537264
 40
0.2678265586039221
 40
0.3285473200936659
 40
0.3887551463289839
 40
0.4480299679797882
 40
0.5086005276974233
 40
0.5693212891871666
 40
0.628511895401924
 40
0.687493275539241
 40
0.747078295388978
 40
0.8077025413165653
 40
0.8697098126206608
 40
0.933428331305089
 40
1.0
 40
1.0
 40
1.0
 40
1.0
 10
226.1979205104567
 20
103.8256412823607
 30
0.0
 10
226.2128936239415
 20
103.8258949159465
 30
0.0
 10
226.2419821150618
 20
103.8263876537005
 30
0.0
 10
226.2843840275058
 20
103.8320182395793
 30
0.0
 10
226.3243362154541
 20
103.8405616802612
 30
0.0
 10
226.3620217178926
 20
103.8522761378008
 30
0.0
 10
226.3968858461817
 20
103.8683022911515
 30
0.0
 10
226.4294963484589
 20
103.8870333832659
 30
0.0
 10
226.4595196611919
 20
103.9096713419242
 30
0.0
 10
226.4869472849794
 20
103.935506967007
 30
0.0
 10
226.5114998705093
 20
103.9640860102235
 30
0.0
 10
226.5325322648369
 20
103.9949165533857
 30
0.0
 10
226.5508790708332
 20
104.0271315628793
 30
0.0
 10
226.5658583991535
 20
104.061426288303
 30
0.0
 10
226.5766908678024
 20
104.0978714483602
 30
0.0
 10
226.5850496473549
 20
104.1358094933956
 30
0.0
 10
226.5900922517654
 20
104.1756317335755
 30
0.0
 10
226.5906854302402
 20
104.2027799690212
 30
0.0
 10
226.590988514315
 20
104.2166513385548
 30
0.0
  0
SPLINE
  5
1CC
330
1F
100
AcDbEntity
  8
0
  6
Continuous
 62
     7
370
     0
100
AcDbSpline
210
0.0
220
0.0
230
1.0
 70
     8
 71
     3
 72
    19
 73
    15
 74
     0
 42
0.00000001
 43
0.00000001
 40
0.0
 40
0.0
 40
0.0
 40
0.0
 40
0.0798232712797877
 40
0.1598568116661121
 40
0.2397327021152788
 40
0.3213646023254468
 40
0.4025836963489389
 40
0.483265588546352
 40
0.5660170116609762
 40
0.6530713596602558
 40
0.7418556865073697
 40
0.8285909050739394
 40
0.9142807452008549
 40
1.0
 40
1.0
 40
1.0
 40
1.0
 10
225.8007366112701
 20
104.2248831292115
 30
0.0
 10
225.80119211921
 20
104.2079808325852
 30
0.0
 10
225.8021043349812
 20
104.1741317155898
 30
0.0
 10
225.810106430693
 20
104.1238586038912
 30
0.0
 10
225.8236843296085
 20
104.0745216694215
 30
0.0
 10
225.8410867707766
 20
104.0260743100569
 30
0.0
 10
225.8656339962073
 20
103.9804719459873
 30
0.0
 10
225.8981863778845
 20
103.9397684808111
 30
0.0
 10
225.9390335198545
 20
103.9055474614611
 30
0.0
 10
225.9856831895428
 20
103.8766362455965
 30
0.0
 10
226.0365899731636
 20
103.8538806322215
 30
0.0
 10
226.089636330234
 20
103.8379964408657
 30
0.0
 10
226.1434531617355
 20
103.8275009600792
 30
0.0
 10
226.1797626505853
 20
103.8262612458473
 30
0.0
 10
226.1979205104567
 20
103.8256412823607
 30
0.0
  0
SPLINE
  5
1CD
330
1F
100
AcDbEntity
  8
0
  6
Continuous
 62
     7
370
     0
100
AcDbSpline
210
0.0
220
0.0
230
1.0
 70
     8
 71
     3
 72
    23
 73
    19
 74
     0
 42
0.00000001
 43
0.00000001
 40
0.0
 40
0.0
 40
0.0
 40
0.0
 40
0.0709524654154269
 40
0.1390889271416596
 40
0.2035598239190666
 40
0.2664237811295186
 40
0.3275165661984784
 40
0.387860871760897
 40
0.4478987850107175
 40
0.5088188285885848
 40
0.5694824568188304
 40
0.6290357116670979
 40
0.6883784585529112
 40
0.7480679615575833
 40
0.8086301697509071
 40
0.8702311456070246
 40
0.9336825804722019
 40
1.0
 40
1.0
 40
1.0
 40
1.0
 10
226.1901003093329
 20
104.6158931854056
 30
0.0
 10
226.175401840114
 20
104.6156275939531
 30
0.0
 10
226.1465882632734
 20
104.6151069519998
 30
0.0
 10
226.1047301007655
 20
104.609566873814
 30
0.0
 10
226.0651032810369
 20
104.6010591511634
 30
0.0
 10
226.0280564425318
 20
104.5886069665316
 30
0.0
 10
225.9931263851838
 20
104.573046696352
 30
0.0
 10
225.9609519679515
 20
104.5534807700867
 30
0.0
 10
225.930959201499
 20
104.530770312588
 30
0.0
 10
225.9040642574954
 20
104.5043737255769
 30
0.0
 10
225.8797980482442
 20
104.4756998554021
 30
0.0
 10
225.8588173115815
 20
104.4449615546806
 30
0.0
 10
225.8402829571527
 20
104.4128718599327
 30
0.0
 10
225.8262176270646
 20
104.3783777912523
 30
0.0
 10
225.8143125843013
 20
104.3425944788638
 30
0.0
 10
225.8068700494708
 20
104.304827407418
 30
0.0
 10
225.8015793372178
 20
104.2655056770413
 30
0.0
 10
225.8010216256625
 20
104.2386218906906
 30
0.0
 10
225.8007366112701
 20
104.2248831292115
 30
0.0
  0
SPLINE
  5
1CE
330
1F
100
AcDbEntity
  8
0
  6
Continuous
 62
     7
370
     0
100
AcDbSpline
210
0.0
220
0.0
230
1.0
 70
     8
 71
     3
 72
    23
 73
    19
 74
     0
 42
0.00000001
 43
0.00000001
 40
0.0
 40
0.0
 40
0.0
 40
0.0
 40
0.0666161804351809
 40
0.130423869924064
 40
0.192670957570017
 40
0.2529685047960664
 40
0.3128803828057838
 40
0.3722002559180859
 40
0.4319271071459047
 40
0.4924217452545996
 40
0.552771220907577
 40
0.6132624068156185
 40
0.673556490556371
 40
0.7343197960333017
 40
0.7968580801403247
 40
0.8617690047507046
 40
0.9288631073150262
 40
1.0
 40
1.0
 40
1.0
 40
1.0
 10
226.590988514315
 20
104.2166513385548
 30
0.0
 10
226.5906757776679
 20
104.230794986746
 30
0.0
 10
226.5900634891291
 20
104.2584859969465
 30
0.0
 10
226.5851490336546
 20
104.2991822529412
 30
0.0
 10
226.5763215474009
 20
104.3377877614719
 30
0.0
 10
226.5649693633277
 20
104.3748857393708
 30
0.0
 10
226.5495839079165
 20
104.4098307880279
 30
0.0
 10
226.5311158227715
 20
104.4431239777051
 30
0.0
 10
226.5084999214638
 20
104.4738877739003
 30
0.0
 10
226.4836997816122
 20
104.5031666123892
 30
0.0
 10
226.4556343281178
 20
104.5296707289927
 30
0.0
 10
226.4246412830796
 20
104.5525262301412
 30
0.0
 10
226.3917028863554
 20
104.5727115084347
 30
0.0
 10
226.3558227215712
 20
104.5881953210119
 30
0.0
 10
226.317791277381
 20
104.6005982079546
 30
0.0
 10
226.2774278728653
 20
104.6096103341058
 30
0.0
 10
226.2345679345022
 20
104.61511920713
 30
0.0
 10
226.2052090669883
 20
104.6156302109348
 30
0.0
 10
226.1901003093329
 20
104.6158931854056
 30
0.0
  0
SPLINE
  5
1CF
330
1F
100
AcDbEntity
  8
0
  6
Continuous
 62
     7
370
     0
100
AcDbSpline
210
0.0
220
0.0
230
1.0
 70
     8
 71
     3
 72
    19
 73
    15
 74
     0
 42
0.00000001
 43
0.00000001
 40
0.0
 40
0.0
 40
0.0
 40
0.0
 40
0.0768426979287827
 40
0.1498390532852208
 40
0.2183793964454711
 40
0.2849970207005652
 40
0.3476576708142682
 40
0.4098471591145119
 40
0.4699357615076958
 40
0.5304196066566044
 40
0.6487517360264009
 40
0.7637748930771635
 40
0.8787494877784697
 40
0.9999999999999999
 40
0.9999999999999999
 40
0.9999999999999999
 40
0.9999999999999999
 10
226.1983320999896
 20
104.852968756319
 30
0.0
 10
226.2105581861144
 20
104.8531431739564
 30
0.0
 10
226.2343983845939
 20
104.8534832787987
 30
0.0
 10
226.2688844309569
 20
104.8579218583049
 30
0.0
 10
226.3014736245911
 20
104.8638499989944
 30
0.0
 10
226.3316843928306
 20
104.8728331850669
 30
0.0
 10
226.3598655174501
 20
104.8845139468536
 30
0.0
 10
226.3855586446763
 20
104.898913442775
 30
0.0
 10
226.409532636348
 20
104.9154625957813
 30
0.0
 10
226.4375615755777
 20
104.9412052835409
 30
0.0
 10
226.4676397292655
 20
104.9773873771041
 30
0.0
 10
226.4934181351169
 20
105.0267827186167
 30
0.0
 10
226.5094821403727
 20
105.0808241554868
 30
0.0
 10
226.5111217427365
 20
105.118467166586
 30
0.0
 10
226.5119633240105
 20
105.1377887130415
 30
0.0
  0
SPLINE
  5
1D0
330
1F
100
AcDbEntity
  8
0
  6
Continuous
 62
     7
370
     0
100
AcDbSpline
210
0.0
220
0.0
230
1.0
 70
     8
 71
     3
 72
    19
 73
    15
 74
     0
 42
0.00000001
 43
0.00000001
 40
0.0
 40
0.0
 40
0.0
 40
0.0
 40
0.1273939413394725
 40
0.2461816112928119
 40
0.3612680043537856
 40
0.4771402680372256
 40
0.5363265834357716
 40
0.5956719150436505
 40
0.6566189532057533
 40
0.7188356214960805
 40
0.7835815527063729
 40
0.8515878166889452
 40
0.9239265274809916
 40
1.0
 40
1.0
 40
1.0
 40
1.0
 10
225.8797618015746
 20
105.1501363990265
 30
0.0
 10
225.8805436211282
 20
105.1291665351307
 30
0.0
 10
225.8820544433494
 20
105.088643455083
 30
0.0
 10
225.8984847968298
 20
105.0310833888459
 30
0.0
 10
225.9241771014416
 20
104.9793783075106
 30
0.0
 10
225.9542968197436
 20
104.9418829795383
 30
0.0
 10
225.9831740653927
 20
104.9163354732856
 30
0.0
 10
226.0072761036714
 20
104.8992783111285
 30
0.0
 10
226.0336149706217
 20
104.8847971248352
 30
0.0
 10
226.0623814791769
 20
104.8735414335778
 30
0.0
 10
226.0928789032179
 20
104.8635695919388
 30
0.0
 10
226.1261590554758
 20
104.8579960574002
 30
0.0
 10
226.1614397057839
 20
104.8534651050323
 30
0.0
 10
226.1858300426693
 20
104.8531369584701
 30
0.0
 10
226.1983320999896
 20
104.852968756319
 30
0.0
  0
SPLINE
  5
1D1
330
1F
100
AcDbEntity
  8
0
  6
Continuous
 62
     7
370
     0
100
AcDbSpline
210
0.0
220
0.0
230
1.0
 70
     8
 71
     3
 72
    19
 73
    15
 74
     0
 42
0.00000001
 43
0.00000001
 40
0.0
 40
0.0
 40
0.0
 40
0.0
 40
0.0762358674075228
 40
0.1486180999543649
 40
0.2182394281414515
 40
0.2842516902686069
 40
0.3482575207850553
 40
0.4106562042500674
 40
0.4728623729995139
 40
0.5341947480221281
 40
0.653476101422413
 40
0.7677667895221952
 40
0.8817126094674201
 40
1.0
 40
1.0
 40
1.0
 40
1.0
 10
226.1958625627926
 20
105.432486818552
 30
0.0
 10
226.1837724413022
 20
105.4323182699115
 30
0.0
 10
226.1602033399696
 20
105.4319896925692
 30
0.0
 10
226.1258748493956
 20
105.4274381985884
 30
0.0
 10
226.0933810790028
 20
105.4217216147006
 30
0.0
 10
226.06302180476
 20
105.41254755537
 30
0.0
 10
226.0349232203455
 20
105.4005591925366
 30
0.0
 10
226.0087918352564
 20
105.3859690978528
 30
0.0
 10
225.9844336805581
 20
105.369273497667
 30
0.0
 10
225.9557085044701
 20
105.3435586182674
 30
0.0
 10
225.9256236151121
 20
105.3073757052023
 30
0.0
 10
225.8991196736804
 20
105.2587692658921
 30
0.0
 10
225.8827393803372
 20
105.2057718424368
 30
0.0
 10
225.8807666213225
 20
105.168911248217
 30
0.0
 10
225.8797618015746
 20
105.1501363990265
 30
0.0
  0
SPLINE
  5
1D2
330
1F
100
AcDbEntity
  8
0
  6
Continuous
 62
     7
370
     0
100
AcDbSpline
210
0.0
220
0.0
230
1.0
 70
     8
 71
     3
 72
    19
 73
    15
 74
     0
 42
0.00000001
 43
0.00000001
 40
0.0
 40
0.0
 40
0.0
 40
0.0
 40
0.1233861213626085
 40
0.2414346864233538
 40
0.3574485461509664
 40
0.4767139204528325
 40
0.5378895868739916
 40
0.5992703938301226
 40
0.6603520522565615
 40
0.7230069362990812
 40
0.7878755372012023
 40
0.855360105861051
 40
0.9253732137563339
 40
0.9999999999999999
 40
0.9999999999999999
 40
0.9999999999999999
 40
0.9999999999999999
 10
226.5119633240105
 20
105.1377887130415
 30
0.0
 10
226.510949336821
 20
105.157785686269
 30
0.0
 10
226.5089652264816
 20
105.1969145842948
 30
0.0
 10
226.4929404605083
 20
105.2530858811162
 30
0.0
 10
226.4659613637338
 20
105.3039603005336
 30
0.0
 10
226.435141485838
 20
105.3411131685057
 30
0.0
 10
226.4066167159905
 20
105.3680282338526
 30
0.0
 10
226.3822123212019
 20
105.3851614755045
 30
0.0
 10
226.3559775055041
 20
105.3997433798968
 30
0.0
 10
226.3278124195977
 20
105.4116514679317
 30
0.0
 10
226.2976763349896
 20
105.4212554648851
 30
0.0
 10
226.2654876167603
 20
105.4275561495062
 30
0.0
 10
226.2313815222354
 20
105.4319750410789
 30
0.0
 10
226.2079513388406
 20
105.4323126365557
 30
0.0
 10
226.1958625627926
 20
105.432486818552
 30
0.0
  0
SPLINE
  5
1D3
330
1F
100
AcDbEntity
  8
0
  6
Continuous
 62
     7
370
     0
100
AcDbSpline
210
0.0
220
0.0
230
1.0
 70
     8
 71
     3
 72
    23
 73
    19
 74
     0
 42
0.00000001
 43
0.00000001
 40
0.0
 40
0.0
 40
0.0
 40
0.0
 40
0.0610549117432832
 40
0.1195453450847438
 40
0.1768063562451035
 40
0.2329564830316851
 40
0.2885834899465033
 40
0.3446666617213001
 40
0.4016615108374461
 40
0.4605400973082778
 40
0.5204770623221882
 40
0.5812128653554004
 40
0.6434307597220102
 40
0.7079608695212424
 40
0.7753707435336737
 40
0.8464136772813298
 40
0.9211518871893691
 40
1.0
 40
1.0
 40
1.0
 40
1.0
 10
225.7336475174179
 20
106.9866488945402
 30
0.0
 10
225.7581004375253
 20
106.9872609428414
 30
0.0
 10
225.805979186165
 20
106.9884593316898
 30
0.0
 10
225.8762480441747
 20
106.9984906155068
 30
0.0
 10
225.9430113253678
 20
107.0155684486216
 30
0.0
 10
226.006930773175
 20
107.0383029130971
 30
0.0
 10
226.0668507858185
 20
107.0690360334837
 30
0.0
 10
226.1241727212207
 20
107.1050243492799
 30
0.0
 10
226.1773339760306
 20
107.149001040383
 30
0.0
 10
226.2276395086324
 20
107.1984000787551
 30
0.0
 10
226.2727601826516
 20
107.2545511586397
 30
0.0
 10
226.3127952821027
 20
107.3160711000366
 30
0.0
 10
226.3453169789061
 20
107.3838825456725
 30
0.0
 10
226.3733950746837
 20
107.4564917022331
 30
0.0
 10
226.393955474644
 20
107.5352709104016
 30
0.0
 10
226.4091508701363
 20
107.6193246089252
 30
0.0
 10
226.4183079371633
 20
107.7089231721112
 30
0.0
 10
226.4192722235306
 20
107.7704309232454
 30
0.0
 10
226.4197672686553
 20
107.8020077590881
 30
0.0
  0
SPLINE
  5
1D4
330
1F
100
AcDbEntity
  8
0
  6
Continuous
 62
     7
370
     0
100
AcDbSpline
210
0.0
220
0.0
230
1.0
 70
     8
 71
     3
 72
    23
 73
    19
 74
     0
 42
0.00000001
 43
0.00000001
 40
0.0
 40
0.0
 40
0.0
 40
0.0
 40
0.0759644026221998
 40
0.1481252239748712
 40
0.2172006111446031
 40
0.2832999093723612
 40
0.347201868136241
 40
0.4092995407059241
 40
0.4704256161074027
 40
0.5315880640528347
 40
0.5917391729173698
 40
0.6502577442905727
 40
0.7073030399522857
 40
0.7642084640229153
 40
0.8211475320101305
 40
0.8791188121552541
 40
0.9384228183936666
 40
1.0
 40
1.0
 40
1.0
 40
1.0
 10
225.0499973033775
 20
107.7727849022567
 30
0.0
 10
225.050441345361
 20
107.7431214617017
 30
0.0
 10
225.0513071958907
 20
107.6852798460976
 30
0.0
 10
225.0612129946073
 20
107.6009498464263
 30
0.0
 10
225.0762434620631
 20
107.5213801971874
 30
0.0
 10
225.0969613748624
 20
107.4463475272472
 30
0.0
 10
225.1248113232347
 20
107.3765938986268
 30
0.0
 10
225.158109542446
 20
107.3114490467346
 30
0.0
 10
225.1979771913606
 20
107.2513460173683
 30
0.0
 10
225.2435346708492
 20
107.1964529424433
 30
0.0
 10
225.293642675588
 20
107.1471411171646
 30
0.0
 10
225.3471881638571
 20
107.1040698609392
 30
0.0
 10
225.4041831724172
 20
107.0680007304915
 30
0.0
 10
225.4639958102188
 20
107.0382179634302
 30
0.0
 10
225.5270556834945
 20
107.0149697980186
 30
0.0
 10
225.5931739272766
 20
106.9986455219989
 30
0.0
 10
225.6623991215142
 20
106.9884360124885
 30
0.0
 10
225.7096021670899
 20
106.987252022184
 30
0.0
 10
225.7336475174179
 20
106.9866488945402
 30
0.0
  0
SPLINE
  5
1D5
330
1F
100
AcDbEntity
  8
0
  6
Continuous
 62
     7
370
     0
100
AcDbSpline
210
0.0
220
0.0
230
1.0
 70
     8
 71
     3
 72
    23
 73
    19
 74
     0
 42
0.00000001
 43
0.00000001
 40
0.0
 40
0.0
 40
0.0
 40
0.0
 40
0.0559431333569187
 40
0.1103820356898407
 40
0.1640478588828499
 40
0.2167594775435861
 40
0.2696011346144475
 40
0.3230085051908687
 40
0.3775814436721363
 40
0.4334493367080539
 40
0.490921858049893
 40
0.5506247708713257
 40
0.6131168723098183
 40
0.6798607463518506
 40
0.7513577440202002
 40
0.8282611012589941
 40
0.9107950320656293
 40
1.0
 40
1.0
 40
1.0
 40
1.0
 10
225.7377634127462
 20
108.6198361608329
 30
0.0
 10
225.7146774929294
 20
108.6193776835748
 30
0.0
 10
225.6691264007357
 20
108.6184730568578
 30
0.0
 10
225.6020697703791
 20
108.6084167263275
 30
0.0
 10
225.5374199081425
 20
108.593391194479
 30
0.0
 10
225.4750764843443
 20
108.5723847003207
 30
0.0
 10
225.415572712711
 20
108.5445688007288
 30
0.0
 10
225.3586003092738
 20
108.5104564066258
 30
0.0
 10
225.3036535604682
 20
108.4709763446203
 30
0.0
 10
225.2515988981806
 20
108.4251666919493
 30
0.0
 10
225.2030725669965
 20
108.3725425836547
 30
0.0
 10
225.1620484222688
 20
108.3105003725453
 30
0.0
 10
225.1274721522777
 20
108.2405211364773
 30
0.0
 10
225.0986016037767
 20
108.1627822565623
 30
0.0
 10
225.0765886607603
 20
108.0766816965546
 30
0.0
 10
225.0613749637239
 20
107.982589987593
 30
0.0
 10
225.0517693458158
 20
107.8804079801815
 30
0.0
 10
225.0506030849615
 20
107.8095763905473
 30
0.0
 10
225.0499973033775
 20
107.7727849022567
 30
0.0
  0
SPLINE
  5
1D6
330
1F
100
AcDbEntity
  8
0
  6
Continuous
 62
     7
370
     0
100
AcDbSpline
210
0.0
220
0.0
230
1.0
 70
     8
 71
     3
 72
    31
 73
    27
 74
     0
 42
0.00000001
 43
0.00000001
 40
0.0
 40
0.0
 40
0.0
 40
0.0
 40
0.0508516157922844
 40
0.0997524678094164
 40
0.1474376477769319
 40
0.1940857839327041
 40
0.239170927084144
 40
0.2833398222454342
 40
0.3265771497238441
 40
0.368936281499902
 40
0.4105718726814497
 40
0.4510505934949118
 40
0.4908768629924158
 40
0.5300443324843861
 40
0.5689366633103304
 40
0.6075778621311337
 40
0.646420096450513
 40
0.6856793513063945
 40
0.7247985849801968
 40
0.7635130084045112
 40
0.802172526378755
 40
0.8407403615726128
 40
0.8796493769005862
 40
0.9190706128663402
 40
0.9590978622172246
 40
1.0
 40
1.0
 40
1.0
 40
1.0
 10
226.4197672686553
 20
107.8020077590881
 30
0.0
 10
226.4195923198989
 20
107.8223222399596
 30
0.0
 10
226.41924913375
 20
107.8621718999484
 30
0.0
 10
226.4147041989327
 20
107.9209107547335
 30
0.0
 10
226.4088418162124
 20
107.9778224948123
 30
0.0
 10
226.3999162473816
 20
108.0328336836703
 30
0.0
 10
226.3876156810734
 20
108.0857165074657
 30
0.0
 10
226.3739887424544
 20
108.1368735642198
 30
0.0
 10
226.3569487322492
 20
108.1858640105465
 30
0.0
 10
226.3376144659028
 20
108.2328799682589
 30
0.0
 10
226.3159797492425
 20
108.2776800663488
 30
0.0
 10
226.2915786662144
 20
108.3198866221533
 30
0.0
 10
226.2646948074606
 20
108.3593355459368
 30
0.0
 10
226.236053530837
 20
108.396774749322
 30
0.0
 10
226.2040688444016
 20
108.4307551818097
 30
0.0
 10
226.1702808297873
 20
108.4627121926371
 30
0.0
 10
226.133921993402
 20
108.4919855429347
 30
0.0
 10
226.0953551830955
 20
108.5185828793813
 30
0.0
 10
226.0551275190803
 20
108.5425246739235
 30
0.0
 10
226.0133219304095
 20
108.5630157436261
 30
0.0
 10
225.9706044396062
 20
108.5810145739051
 30
0.0
 10
225.9262600163068
 20
108.5948114327249
 30
0.0
 10
225.8809009715346
 20
108.6059388018571
 30
0.0
 10
225.8343439398674
 20
108.6143910750745
 30
0.0
 10
225.7864161139696
 20
108.618768055501
 30
0.0
 10
225.7540974403331
 20
108.6194775689867
 30
0.0
 10
225.7377634127462
 20
108.6198361608329
 30
0.0
  0
SPLINE
  5
1D7
330
1F
100
AcDbEntity
  8
0
  6
Continuous
 62
     7
370
     0
100
AcDbSpline
210
0.0
220
0.0
230
1.0
 70
     8
 71
     3
 72
    23
 73
    19
 74
     0
 42
0.00000001
 43
0.00000001
 40
0.0
 40
0.0
 40
0.0
 40
0.0
 40
0.1156291309254414
 40
0.2215410391198768
 40
0.3170478562190417
 40
0.4031508756396167
 40
0.4801812167162795
 40
0.5476493661481898
 40
0.6070358428421809
 40
0.6586524080635072
 40
0.705722890353646
 40
0.749804087979647
 40
0.7925868153452743
 40
0.8338739610102607
 40
0.8747683933034329
 40
0.9152226988916381
 40
0.9568807037304801
 40
1.0
 40
1.0
 40
1.0
 40
1.0
 10
225.0104847082253
 20
104.6290640504563
 30
0.0
 10
225.010235256648
 20
104.6677604610727
 30
0.0
 10
225.009757316866
 20
104.741901319432
 30
0.0
 10
225.0043557215276
 20
104.8478942246306
 30
0.0
 10
224.995890936185
 20
104.9437561313906
 30
0.0
 10
224.9843124545658
 20
105.0295754155012
 30
0.0
 10
224.9689246546409
 20
105.1052589083643
 30
0.0
 10
224.9502613524041
 20
105.1709677298492
 30
0.0
 10
224.9280212371884
 20
105.2265617452193
 30
0.0
 10
224.9015778195606
 20
105.2725993974536
 30
0.0
 10
224.8721410047808
 20
105.3103627617866
 30
0.0
 10
224.8413914611646
 20
105.3430502394717
 30
0.0
 10
224.8085604470209
 20
105.3708498743128
 30
0.0
 10
224.7730662955714
 20
105.3931511514747
 30
0.0
 10
224.7360530500732
 20
105.4111429923922
 30
0.0
 10
224.6966702402221
 20
105.4235254354791
 30
0.0
 10
224.6553049679163
 20
105.4311328212029
 30
0.0
 10
224.6269165181926
 20
105.4320303293721
 30
0.0
 10
224.612477629973
 20
105.432486818552
 30
0.0
  0
SPLINE
  5
1D8
330
1F
100
AcDbEntity
  8
0
  6
Continuous
 62
     7
370
     0
100
AcDbSpline
210
0.0
220
0.0
230
1.0
 70
     8
 71
     3
 72
    23
 73
    19
 74
     0
 42
0.00000001
 43
0.00000001
 40
0.0
 40
0.0
 40
0.0
 40
0.0
 40
0.0407818458722597
 40
0.0808695887215869
 40
0.1202681657882671
 40
0.1601868504553522
 40
0.2004597376386391
 40
0.2422651778979079
 40
0.2864592615494684
 40
0.3329520837492633
 40
0.3844305340495303
 40
0.4433891253601058
 40
0.5116814722136833
 40
0.5890200255490083
 40
0.6762451906507723
 40
0.7737051914728237
 40
0.881567767781983
 40
1.0
 40
1.0
 40
1.0
 40
1.0
 10
224.6153587567028
 20
103.8256412823607
 30
0.0
 10
224.6289644242797
 20
103.8261607103779
 30
0.0
 10
224.6559441923039
 20
103.8271907257982
 30
0.0
 10
224.6956608969318
 20
103.8340514954826
 30
0.0
 10
224.7334993143072
 20
103.8468695941993
 30
0.0
 10
224.7698006525472
 20
103.8636293127496
 30
0.0
 10
224.8043774877075
 20
103.8853371724075
 30
0.0
 10
224.8370479778683
 20
103.9120800377192
 30
0.0
 10
224.8683338381437
 20
103.9434060725376
 30
0.0
 10
224.8983427178256
 20
103.9802755821878
 30
0.0
 10
224.9256647701746
 20
104.0251931791336
 30
0.0
 10
224.9483303853178
 20
104.0805489390987
 30
0.0
 10
224.9677597703994
 20
104.1460677255377
 30
0.0
 10
224.983564952481
 20
104.2222215035871
 30
0.0
 10
224.9955186890949
 20
104.3088710765876
 30
0.0
 10
225.0044688153687
 20
104.4060990374711
 30
0.0
 10
225.009734598941
 20
104.5140349524822
 30
0.0
 10
225.0102270054447
 20
104.589545384286
 30
0.0
 10
225.0104847082253
 20
104.6290640504563
 30
0.0
  0
SPLINE
  5
1D9
330
1F
100
AcDbEntity
  8
0
  6
Continuous
 62
     7
370
     0
100
AcDbSpline
210
0.0
220
0.0
230
1.0
 70
     8
 71
     3
 72
    23
 73
    19
 74
     0
 42
0.00000001
 43
0.00000001
 40
0.0
 40
0.0
 40
0.0
 40
0.0
 40
0.1184055081537695
 40
0.226654332816702
 40
0.3240923419286021
 40
0.4117048030053219
 40
0.4890259050064157
 40
0.5569093973430758
 40
0.6162333444927074
 40
0.6673492812770747
 40
0.7135123932013476
 40
0.7576965045209786
 40
0.7994925114422912
 40
0.8399760647439397
 40
0.8798857418167761
 40
0.9191486593857416
 40
0.9592273564930831
 40
1.0
 40
1.0
 40
1.0
 40
1.0
 10
224.2202328051804
 20
104.6290640504563
 30
0.0
 10
224.2204943576133
 20
104.5895455625662
 30
0.0
 10
224.2209950268229
 20
104.513898435618
 30
0.0
 10
224.2262258047564
 20
104.4058234634248
 30
0.0
 10
224.2352303736673
 20
104.3083250861949
 30
0.0
 10
224.2471350019167
 20
104.2215382968022
 30
0.0
 10
224.262853931189
 20
104.145345698952
 30
0.0
 10
224.2825909060217
 20
104.0799414548397
 30
0.0
 10
224.3048391710318
 20
104.0245405652621
 30
0.0
 10
224.3323709773906
 20
103.9798296816081
 30
0.0
 10
224.3625152644444
 20
103.9433837890759
 30
0.0
 10
224.3936371807138
 20
103.9120391428442
 30
0.0
 10
224.4264689173085
 20
103.8853969112597
 30
0.0
 10
224.4607962511149
 20
103.8631827234419
 30
0.0
 10
224.4971517954197
 20
103.8463635999105
 30
0.0
 10
224.5351380083888
 20
103.8341730617226
 30
0.0
 10
224.574763155498
 20
103.8271575941687
 30
0.0
 10
224.6017496812574
 20
103.8261496034887
 30
0.0
 10
224.6153587567028
 20
103.8256412823607
 30
0.0
  0
SPLINE
  5
1DA
330
1F
100
AcDbEntity
  8
0
  6
Continuous
 62
     7
370
     0
100
AcDbSpline
210
0.0
220
0.0
230
1.0
 70
     8
 71
     3
 72
    15
 73
    11
 74
     0
 42
0.00000001
 43
0.00000001
 40
0.0
 40
0.0
 40
0.0
 40
0.0
 40
0.0838881132795455
 40
0.1771540327539698
 40
0.2825136355617228
 40
0.3993998606601629
 40
0.5294908061912204
 40
0.6728021776758327
 40
0.82953576161967
 40
1.0
 40
1.0
 40
1.0
 40
1.0
 10
224.33918218017
 20
105.2917231983221
 30
0.0
 10
224.3293917558453
 20
105.275354596881
 30
0.0
 10
224.3087164410279
 20
105.2407875570173
 30
0.0
 10
224.2855819659271
 20
105.1807086175279
 30
0.0
 10
224.2651458851694
 20
105.1120498254217
 30
0.0
 10
224.2483202152194
 20
105.0337548153147
 30
0.0
 10
224.2361480233878
 20
104.9459578946416
 30
0.0
 10
224.2265385486008
 20
104.8487610229281
 30
0.0
 10
224.2215467841317
 20
104.7420285017128
 30
0.0
 10
224.2206828825298
 20
104.6677577759138
 30
0.0
 10
224.2202328051804
 20
104.6290640504563
 30
0.0
  0
SPLINE
  5
1DB
330
1F
100
AcDbEntity
  8
0
  6
Continuous
 62
     7
370
     0
100
AcDbSpline
210
0.0
220
0.0
230
1.0
 70
     8
 71
     3
 72
    15
 73
    11
 74
     0
 42
0.00000001
 43
0.00000001
 40
0.0
 40
0.0
 40
0.0
 40
0.0
 40
0.1276647678962251
 40
0.2517385630080496
 40
0.3727533493873909
 40
0.4921467589723849
 40
0.614069621309245
 40
0.7371973244121106
 40
0.8656069906011167
 40
1.0
 40
1.0
 40
1.0
 40
1.0
 10
224.612477629973
 20
105.432486818552
 30
0.0
 10
224.5988694092526
 20
105.4321296564735
 30
0.0
 10
224.5720357417836
 20
105.4314253786226
 30
0.0
 10
224.5327477384006
 20
105.4247030536678
 30
0.0
 10
224.4955149591378
 20
105.4134618280244
 30
0.0
 10
224.4599108367
 20
105.3982344963938
 30
0.0
 10
224.4268242090133
 20
105.377741515695
 30
0.0
 10
224.3949429427059
 20
105.3538145020324
 30
0.0
 10
224.3657602329406
 20
105.3246621064889
 30
0.0
 10
224.348174988075
 20
105.3028682312673
 30
0.0
 10
224.33918218017
 20
105.2917231983221
 30
0.0
  0
LINE
  5
1DC
330
1F
100
AcDbEntity
  8
0
  6
Continuous
 62
     7
370
     0
100
AcDbLine
 10
143.8605287574
 20
107.34308543
 30
0.0
 11
143.8608287574
 21
107.34308543
 31
0.0
  0
LINE
  5
1DD
330
1F
100
AcDbEntity
  8
0
  6
Continuous
 62
     7
370
     0
100
AcDbLine
 10
143.8608287574
 20
107.3471716013
 30
0.0
 11
143.8605287574
 21
107.3471716154
 31
0.0
  0
LINE
  5
1DE
330
1F
100
AcDbEntity
  8
0
  6
Continuous
 62
     7
370
     0
100
AcDbLine
 10
143.8608287574
 20
107.3471716013
 30
0.0
 11
143.8608287574
 21
107.34308543
 31
0.0
  0
LINE
  5
1DF
330
1F
100
AcDbEntity
  8
0
  6
Continuous
 62
     7
370
     0
100
AcDbLine
 10
143.8605287574
 20
108.2765704904
 30
0.0
 11
143.8608287574
 21
108.2765704904
 31
0.0
  0
LINE
  5
1E0
330
1F
100
AcDbEntity
  8
0
  6
Continuous
 62
     7
370
     0
100
AcDbLine
 10
143.8605287574
 20
107.8751399003
 30
0.0
 11
143.8608287574
 21
107.8751399087
 31
0.0
  0
LINE
  5
1E1
330
1F
100
AcDbEntity
  8
0
  6
Continuous
 62
     7
370
     0
100
AcDbLine
 10
143.8605287574
 20
104.25945665
 30
0.0
 11
143.8608287574
 21
104.25945665
 31
0.0
  0
LINE
  5
1E2
330
1F
100
AcDbEntity
  8
0
  6
Continuous
 62
     7
370
     0
100
AcDbLine
 10
143.8605287574
 20
104.0296401134
 30
0.0
 11
143.8608287574
 21
104.0296401067
 31
0.0
  0
LINE
  5
1E3
330
1F
100
AcDbEntity
  8
0
  6
Continuous
 62
     7
370
     0
100
AcDbLine
 10
143.8608287574
 20
108.697063408
 30
0.0
 11
143.8605287574
 21
108.6970634082
 31
0.0
  0
LINE
  5
1E4
330
1F
100
AcDbEntity
  8
0
  6
Continuous
 62
     7
370
     0
100
AcDbLine
 10
143.8605287574
 20
105.4324868186
 30
0.0
 11
143.8608287574
 21
105.4324868186
 31
0.0
  0
LINE
  5
1E5
330
1F
100
AcDbEntity
  8
0
  6
Continuous
 62
     7
370
     0
100
AcDbLine
 10
143.8605287574
 20
105.3883144134
 30
0.0
 11
143.8608287574
 21
105.3883144183
 31
0.0
  0
LINE
  5
1E6
330
1F
100
AcDbEntity
  8
0
  6
Continuous
 62
     7
370
     0
100
AcDbLine
 10
143.8605287574
 20
106.7884691962
 30
0.0
 11
143.8608287574
 21
106.7884691962
 31
0.0
  0
LINE
  5
1E7
330
1F
100
AcDbEntity
  8
0
  6
Continuous
 62
     7
370
     0
100
AcDbLine
 10
143.8608287574
 20
105.3883144183
 30
0.0
 11
143.8608287574
 21
104.3617522193
 31
0.0
  0
LINE
  5
1E8
330
1F
100
AcDbEntity
  8
0
  6
Continuous
 62
     7
370
     0
100
AcDbLine
 10
143.8608287574
 20
103.8783247426
 30
0.0
 11
143.8605287574
 21
103.8783247426
 31
0.0
  0
LINE
  5
1E9
330
1F
100
AcDbEntity
  8
0
  6
Continuous
 62
     7
370
     0
100
AcDbLine
 10
143.8605287574
 20
103.8783247426
 30
0.0
 11
143.8605287574
 21
103.6149074415
 31
0.0
  0
LINE
  5
1EA
330
1F
100
AcDbEntity
  8
0
  6
Continuous
 62
     7
370
     0
100
AcDbLine
 10
143.8605287574
 20
103.6149074415
 30
0.0
 11
143.8608287574
 21
103.6149074415
 31
0.0
  0
LINE
  5
1EB
330
1F
100
AcDbEntity
  8
0
  6
Continuous
 62
     7
370
     0
100
AcDbLine
 10
143.8608287574
 20
81.0259150537
 30
0.0
 11
143.6608287574
 21
80.8259150537
 31
0.0
  0
LINE
  5
1EC
330
1F
100
AcDbEntity
  8
0
  6
Continuous
 62
     7
370
     0
100
AcDbLine
 10
143.6608287574
 20
80.8259150537
 30
0.0
 11
134.2535641622
 21
80.8259150537
 31
0.0
  0
LINE
  5
1ED
330
1F
100
AcDbEntity
  8
0
  6
Continuous
 62
     7
370
     0
100
AcDbLine
 10
134.2535641622
 20
80.8259150537
 30
0.0
 11
134.0662172205
 21
81.0255614449
 31
0.0
  0
ARC
  5
1EE
330
1F
100
AcDbEntity
  8
0
  6
Continuous
 62
     7
370
     0
100
AcDbCircle
 10
-265.1391712426
 20
106.2259150537
 30
0.0
 40
400.0000000000001
100
AcDbArc
 50
356.3879230914
 51
3.6120769086
  0
LINE
  5
1EF
330
1F
100
AcDbEntity
  8
0
  6
Continuous
 62
     7
370
     0
100
AcDbLine
 10
134.0662172205
 20
131.4262686625
 30
0.0
 11
134.2535641622
 21
131.6259150537
 31
0.0
  0
LINE
  5
1F0
330
1F
100
AcDbEntity
  8
0
  6
Continuous
 62
     7
370
     0
100
AcDbLine
 10
134.2535641622
 20
131.6259150537
 30
0.0
 11
143.6608287574
 21
131.6259150537
 31
0.0
  0
LINE
  5
1F1
330
1F
100
AcDbEntity
  8
0
  6
Continuous
 62
     7
370
     0
100
AcDbLine
 10
143.6608287574
 20
131.6259150537
 30
0.0
 11
143.8608287574
 21
131.4259150537
 31
0.0
  0
LINE
  5
1F2
330
1F
100
AcDbEntity
  8
0
  6
Continuous
 62
     7
370
     0
100
AcDbLine
 10
143.8608287574
 20
104.3617522193
 30
0.0
 11
143.8605287574
 21
104.3617522188
 31
0.0
  0
LINE
  5
1F3
330
1F
100
AcDbEntity
  8
0
  6
Continuous
 62
     7
370
     0
100
AcDbLine
 10
143.8605287574
 20
104.3617522188
 30
0.0
 11
143.8605287574
 21
104.0296401134
 31
0.0
  0
LINE
  5
1F4
330
1F
100
AcDbEntity
  8
0
  6
Continuous
 62
     7
370
     0
100
AcDbLine
 10
143.8605287574
 20
105.6461827695
 30
0.0
 11
143.8605287574
 21
105.3883144134
 31
0.0
  0
LINE
  5
1F5
330
1F
100
AcDbEntity
  8
0
  6
Continuous
 62
     7
370
     0
100
AcDbLine
 10
143.8608287574
 20
105.6461827719
 30
0.0
 11
143.8605287574
 21
105.6461827695
 31
0.0
  0
LINE
  5
1F6
330
1F
100
AcDbEntity
  8
0
  6
Continuous
 62
     7
370
     0
100
AcDbLine
 10
143.8608287574
 20
103.6149074415
 30
0.0
 11
143.8608287574
 21
81.0259150537
 31
0.0
  0
LINE
  5
1F7
330
1F
100
AcDbEntity
  8
0
  6
Continuous
 62
     7
370
     0
100
AcDbLine
 10
143.8608287574
 20
104.0296401067
 30
0.0
 11
143.8608287574
 21
103.8783247426
 31
0.0
  0
LINE
  5
1F8
330
1F
100
AcDbEntity
  8
0
  6
Continuous
 62
     7
370
     0
100
AcDbLine
 10
143.8608287574
 20
106.7884691962
 30
0.0
 11
143.8608287574
 21
105.6461827719
 31
0.0
  0
LINE
  5
1F9
330
1F
100
AcDbEntity
  8
0
  6
Continuous
 62
     7
370
     0
100
AcDbLine
 10
143.8608287574
 20
107.8751399087
 30
0.0
 11
143.8608287574
 21
107.3471716013
 31
0.0
  0
LINE
  5
1FA
330
1F
100
AcDbEntity
  8
0
  6
Continuous
 62
     7
370
     0
100
AcDbLine
 10
143.8608287574
 20
131.4259150537
 30
0.0
 11
143.8608287574
 21
108.697063408
 31
0.0
  0
LINE
  5
1FB
330
1F
100
AcDbEntity
  8
0
  6
Continuous
 62
     7
370
     0
100
AcDbLine
 10
143.8605287574
 20
108.6970634082
 30
0.0
 11
143.8605287574
 21
107.8751399003
 31
0.0
  0
LINE
  5
1FC
330
1F
100
AcDbEntity
  8
0
  6
Continuous
 62
     7
370
     0
100
AcDbLine
 10
143.8605287574
 20
107.3471716154
 30
0.0
 11
143.8605287574
 21
106.7884691962
 31
0.0
  0
LINE
  5
1FD
330
1F
100
AcDbEntity
  8
0
  6
Continuous
 62
     7
370
     0
100
AcDbLine
 10
134.0662172205
 20
131.4262686625
 30
0.0
 11
134.0662172205
 21
81.0255614449
 31
0.0
  0
LINE
  5
1FE
330
1F
100
AcDbEntity
  8
0
  6
Continuous
 62
     7
370
     0
100
AcDbLine
 10
143.8608287574
 20
107.34308543
 30
0.0
 11
143.8608287574
 21
106.7884691962
 31
0.0
  0
LINE
  5
1FF
330
1F
100
AcDbEntity
  8
0
  6
Continuous
 62
     7
370
     0
100
AcDbLine
 10
143.8608287574
 20
103.8783247426
 30
0.0
 11
143.8608287574
 21
103.6149074415
 31
0.0
  0
HATCH
  5
200
330
1F
100
AcDbEntity
  8
0
  6
Continuous
 62
     7
370
     0
100
AcDbHatch
 10
0.0
 20
0.0
 30
0.0
210
0.0
220
0.0
230
1.0
  2
ANSI31
 70
     0
 71
     0
 91
        1
 92
        0
 93
       28
 72
     1
 10
143.8608287573809
 20
107.3471716012957
 11
143.8608287573809
 21
107.8751399087309
 72
     1
 10
143.8608287573809
 20
107.8751399087309
 11
143.8605287573804
 21
107.8751399002731
 72
     1
 10
143.8605287573804
 20
107.8751399002731
 11
143.8605287573808
 21
108.6970634082465
 72
     1
 10
143.8605287573808
 20
108.6970634082465
 11
143.8608287573809
 21
108.6970634080212
 72
     1
 10
143.8608287573809
 20
108.6970634080212
 11
143.8608287573809
 21
131.4259150537282
 72
     1
 10
143.8608287573809
 20
131.4259150537282
 11
143.6608287573808
 21
131.6259150537282
 72
     1
 10
143.6608287573808
 20
131.6259150537282
 11
134.2535641622226
 21
131.6259150537282
 72
     1
 10
134.2535641622226
 20
131.6259150537282
 11
134.0662172205006
 21
131.4262686625492
 72
     2
 10
-265.1391712426192
 20
106.2259150537282
 40
400.0
 50
356.3879230913782
 51
363.6120769086234
 73
     0
 72
     1
 10
134.0662172205006
 20
81.0255614449074
 11
134.2535641622226
 21
80.82591505372824
 72
     1
 10
134.2535641622226
 20
80.82591505372824
 11
143.6608287573808
 21
80.82591505372824
 72
     1
 10
143.6608287573808
 20
80.82591505372824
 11
143.8608287573809
 21
81.02591505372826
 72
     1
 10
143.8608287573809
 20
81.02591505372826
 11
143.8608287573809
 21
103.6149074415488
 72
     1
 10
143.8608287573809
 20
103.6149074415488
 11
143.8605287573808
 21
103.6149074415488
 72
     1
 10
143.8605287573808
 20
103.6149074415488
 11
143.8605287573804
 21
103.8783247425637
 72
     1
 10
143.8605287573804
 20
103.8783247425637
 11
143.8608287573809
 21
103.8783247425637
 72
     1
 10
143.8608287573809
 20
103.8783247425637
 11
143.8608287573809
 21
104.0296401067088
 72
     1
 10
143.8608287573809
 20
104.0296401067088
 11
143.8605287573808
 21
104.0296401133716
 72
     1
 10
143.8605287573808
 20
104.0296401133716
 11
143.8605287573804
 21
104.3617522188034
 72
     1
 10
143.8605287573804
 20
104.3617522188034
 11
143.8608287573809
 21
104.3617522192677
 72
     1
 10
143.8608287573809
 20
104.3617522192677
 11
143.8608287573809
 21
105.388314418325
 72
     1
 10
143.8608287573809
 20
105.388314418325
 11
143.8605287573808
 21
105.388314413373
 72
     1
 10
143.8605287573808
 20
105.388314413373
 11
143.8605287573805
 21
105.646182769546
 72
     1
 10
143.8605287573805
 20
105.646182769546
 11
143.8608287573809
 21
105.6461827718818
 72
     1
 10
143.8608287573809
 20
105.6461827718818
 11
143.8608287573809
 21
106.7884691961992
 72
     1
 10
143.8608287573809
 20
106.7884691961992
 11
143.8605287573808
 21
106.7884691961992
 72
     1
 10
143.8605287573808
 20
106.7884691961992
 11
143.8605287573802
 21
107.3471716154296
 72
     1
 10
143.8605287573802
 20
107.3471716154296
 11
143.8608287573809
 21
107.3471716012957
 97
        0
 75
     0
 76
     1
 52
0.0
 41
0.5
 77
     0
 78
     1
 53
45.0
 43
0.0
 44
0.0
 45
-1.122532015133644
 46
1.122532015133644
 79
     0
 98
        1
 10
0.0
 20
0.0
  0
DIMENSION
  5
201
330
1F
100
AcDbEntity
  8
0
  6
Continuous
 62
     7
370
     0
100
AcDbDimension
  2
*D9
 10
-265.1391712426
 20
106.2259150537
 30
0.0
 11
167.4850190014
 21
92.9840739519
 31
0.0
 70
   164
  1
<>
 71
     1
 42
-1.0
  3
SLDDIMSTYLE1
100
AcDbRadialDimension
 15
134.6623674506
 25
93.6271191389
 35
0.0
 40
0.0
  0
DIMENSION
  5
212
330
1F
100
AcDbEntity
  8
0
  6
Continuous
 62
     7
370
     0
100
AcDbDimension
  2
*D10
 10
134.8608287574
 20
141.6259150537
 30
0.0
 11
157.9139420386
 21
141.6259150537
 31
0.0
 70
   160
 71
     2
 42
-1.0
  3
SLDDIMSTYLE2
100
AcDbAlignedDimension
 13
143.8608287574
 23
131.4259150537
 33
0.0
 14
134.8608287574
 24
106.2259150537
 34
0.0
100
AcDbRotatedDimension
  0
DIMENSION
  5
225
330
1F
100
AcDbEntity
  8
0
  6
Continuous
 62
     7
370
     0
100
AcDbDimension
  2
*D11
 10
143.8608287574
 20
153.6259150537
 30
0.0
 11
159.8608287574
 21
153.6259150537
 31
0.0
 70
   160
  1
<> REF
 71
     2
 42
-1.0
  3
SLDDIMSTYLE3
100
AcDbAlignedDimension
 13
134.0662172205
 23
131.4262686625
 33
0.0
 14
143.8608287574
 24
131.4259150537
 34
0.0
100
AcDbRotatedDimension
  0
MTEXT
  5
239
330
1F
100
AcDbEntity
  8
0
  6
Continuous
 62
     7
370
     0
100
AcDbMText
 10
138.7824789389
 20
74.2411083539
 30
0.0
 40
2.1166666667
 41
0.0
 71
     2
 72
     1
  1
SECTION A-A
  7
SLDTEXTSTYLE0
 73
     1
 44
1.0
  0
OLE2FRAME
  5
23A
330
1F
100
AcDbEntity
  8
0
100
AcDbOle2Frame
 70
     2
  3
Paintbrush Picture
 10
229.0524258301
 20
33.6996297921
 30
0.0
 11
265.1686469208
 21
28.555479607
 31
0.0
 71
     2
 72
     0
 73
     1
 90
     7296
310
80557333EF78ADA16C40002412788DD94040000000000000000041161DC7B292
310
7040002412788DD94040000000000000000041161DC7B2927040F6DD59E9338E
310
3C4000000000000000007333EF78ADA16C40F6DD59E9338E3C40000000000000
310
00000000000001000000000100000100000001000000000001000000001C0000
310
D0CF11E0A1B11AE1000000000000000000000000000000003E000300FEFF0900
310
0600000000000000000000000100000001000000000000000010000002000000
310
01000000FEFFFFFF0000000000000000FFFFFFFFFFFFFFFFFFFFFFFFFFFFFFFF
310
FFFFFFFFFFFFFFFFFFFFFFFFFFFFFFFFFFFFFFFFFFFFFFFFFFFFFFFFFFFFFFFF
310
FFFFFFFFFFFFFFFFFFFFFFFFFFFFFFFFFFFFFFFFFFFFFFFFFFFFFFFFFFFFFFFF
310
FFFFFFFFFFFFFFFFFFFFFFFFFFFFFFFFFFFFFFFFFFFFFFFFFFFFFFFFFFFFFFFF
310
FFFFFFFFFFFFFFFFFFFFFFFFFFFFFFFFFFFFFFFFFFFFFFFFFFFFFFFFFFFFFFFF
310
FFFFFFFFFFFFFFFFFFFFFFFFFFFFFFFFFFFFFFFFFFFFFFFFFFFFFFFFFFFFFFFF
310
FFFFFFFFFFFFFFFFFFFFFFFFFFFFFFFFFFFFFFFFFFFFFFFFFFFFFFFFFFFFFFFF
310
FFFFFFFFFFFFFFFFFFFFFFFFFFFFFFFFFFFFFFFFFFFFFFFFFFFFFFFFFFFFFFFF
310
FFFFFFFFFFFFFFFFFFFFFFFFFFFFFFFFFFFFFFFFFFFFFFFFFFFFFFFFFFFFFFFF
310
FFFFFFFFFFFFFFFFFFFFFFFFFFFFFFFFFFFFFFFFFFFFFFFFFFFFFFFFFFFFFFFF
310
FFFFFFFFFFFFFFFFFFFFFFFFFFFFFFFFFFFFFFFFFFFFFFFFFFFFFFFFFFFFFFFF
310
FFFFFFFFFFFFFFFFFFFFFFFFFFFFFFFFFFFFFFFFFFFFFFFFFFFFFFFFFFFFFFFF
310
FFFFFFFFFFFFFFFFFFFFFFFFFFFFFFFFFFFFFFFFFFFFFFFFFFFFFFFFFFFFFFFF
310
FFFFFFFFFFFFFFFFFFFFFFFFFFFFFFFFFFFFFFFFFFFFFFFFFFFFFFFFFFFFFFFF
310
FDFFFFFFFEFFFFFFFEFFFFFFFEFFFFFF05000000060000000700000008000000
310
090000000A0000000B0000000C000000FEFFFFFFFFFFFFFFFFFFFFFFFFFFFFFF
310
FFFFFFFFFFFFFFFFFFFFFFFFFFFFFFFFFFFFFFFFFFFFFFFFFFFFFFFFFFFFFFFF
310
FFFFFFFFFFFFFFFFFFFFFFFFFFFFFFFFFFFFFFFFFFFFFFFFFFFFFFFFFFFFFFFF
310
FFFFFFFFFFFFFFFFFFFFFFFFFFFFFFFFFFFFFFFFFFFFFFFFFFFFFFFFFFFFFFFF
310
FFFFFFFFFFFFFFFFFFFFFFFFFFFFFFFFFFFFFFFFFFFFFFFFFFFFFFFFFFFFFFFF
310
FFFFFFFFFFFFFFFFFFFFFFFFFFFFFFFFFFFFFFFFFFFFFFFFFFFFFFFFFFFFFFFF
310
FFFFFFFFFFFFFFFFFFFFFFFFFFFFFFFFFFFFFFFFFFFFFFFFFFFFFFFFFFFFFFFF
310
FFFFFFFFFFFFFFFFFFFFFFFFFFFFFFFFFFFFFFFFFFFFFFFFFFFFFFFFFFFFFFFF
310
FFFFFFFFFFFFFFFFFFFFFFFFFFFFFFFFFFFFFFFFFFFFFFFFFFFFFFFFFFFFFFFF
310
FFFFFFFFFFFFFFFFFFFFFFFFFFFFFFFFFFFFFFFFFFFFFFFFFFFFFFFFFFFFFFFF
310
FFFFFFFFFFFFFFFFFFFFFFFFFFFFFFFFFFFFFFFFFFFFFFFFFFFFFFFFFFFFFFFF
310
FFFFFFFFFFFFFFFFFFFFFFFFFFFFFFFFFFFFFFFFFFFFFFFFFFFFFFFFFFFFFFFF
310
FFFFFFFFFFFFFFFFFFFFFFFFFFFFFFFFFFFFFFFFFFFFFFFFFFFFFFFFFFFFFFFF
310
FFFFFFFFFFFFFFFFFFFFFFFFFFFFFFFFFFFFFFFFFFFFFFFFFFFFFFFFFFFFFFFF
310
FFFFFFFFFFFFFFFFFFFFFFFFFFFFFFFFFFFFFFFFFFFFFFFFFFFFFFFFFFFFFFFF
310
52006F006F007400200045006E00740072007900000000000000000000000000
310
0000000000000000000000000000000000000000000000000000000000000000
310
16000500FFFFFFFFFFFFFFFF020000000A00030000000000C000000000000046
310
000000000000000000000000E094E1FB03C1CD0103000000C000000000000000
310
01004F006C006500000000000000000000000000000000000000000000000000
310
0000000000000000000000000000000000000000000000000000000000000000
310
0A000200FFFFFFFFFFFFFFFFFFFFFFFF00000000000000000000000000000000
310
0000000000000000000000000000000000000000000000001400000000000000
310
010043006F006D0070004F0062006A0000000000000000000000000000000000
310
0000000000000000000000000000000000000000000000000000000000000000
310
120002010100000003000000FFFFFFFF00000000000000000000000000000000
310
0000000000000000000000000000000000000000010000004D00000000000000
310
01004F006C006500310030004E00610074006900760065000000000000000000
310
0000000000000000000000000000000000000000000000000000000000000000
310
1A000200FFFFFFFFFFFFFFFFFFFFFFFF00000000000000000000000000000000
310
000000000000000000000000000000000000000004000000E411000000000000
310
FEFFFFFF02000000FEFFFFFFFFFFFFFFFFFFFFFFFFFFFFFFFFFFFFFFFFFFFFFF
310
FFFFFFFFFFFFFFFFFFFFFFFFFFFFFFFFFFFFFFFFFFFFFFFFFFFFFFFFFFFFFFFF
310
FFFFFFFFFFFFFFFFFFFFFFFFFFFFFFFFFFFFFFFFFFFFFFFFFFFFFFFFFFFFFFFF
310
FFFFFFFFFFFFFFFFFFFFFFFFFFFFFFFFFFFFFFFFFFFFFFFFFFFFFFFFFFFFFFFF
310
FFFFFFFFFFFFFFFFFFFFFFFFFFFFFFFFFFFFFFFFFFFFFFFFFFFFFFFFFFFFFFFF
310
FFFFFFFFFFFFFFFFFFFFFFFFFFFFFFFFFFFFFFFFFFFFFFFFFFFFFFFFFFFFFFFF
310
FFFFFFFFFFFFFFFFFFFFFFFFFFFFFFFFFFFFFFFFFFFFFFFFFFFFFFFFFFFFFFFF
310
FFFFFFFFFFFFFFFFFFFFFFFFFFFFFFFFFFFFFFFFFFFFFFFFFFFFFFFFFFFFFFFF
310
FFFFFFFFFFFFFFFFFFFFFFFFFFFFFFFFFFFFFFFFFFFFFFFFFFFFFFFFFFFFFFFF
310
FFFFFFFFFFFFFFFFFFFFFFFFFFFFFFFFFFFFFFFFFFFFFFFFFFFFFFFFFFFFFFFF
310
FFFFFFFFFFFFFFFFFFFFFFFFFFFFFFFFFFFFFFFFFFFFFFFFFFFFFFFFFFFFFFFF
310
FFFFFFFFFFFFFFFFFFFFFFFFFFFFFFFFFFFFFFFFFFFFFFFFFFFFFFFFFFFFFFFF
310
FFFFFFFFFFFFFFFFFFFFFFFFFFFFFFFFFFFFFFFFFFFFFFFFFFFFFFFFFFFFFFFF
310
FFFFFFFFFFFFFFFFFFFFFFFFFFFFFFFFFFFFFFFFFFFFFFFFFFFFFFFFFFFFFFFF
310
FFFFFFFFFFFFFFFFFFFFFFFFFFFFFFFFFFFFFFFFFFFFFFFFFFFFFFFFFFFFFFFF
310
FFFFFFFFFFFFFFFFFFFFFFFFFFFFFFFFFFFFFFFFFFFFFFFFFFFFFFFFFFFFFFFF
310
0100000200000000000000000000000000000000000000000000000000000000
310
0000000000000000000000000000000000000000000000000000000000000000
310
0100FEFF030A0000FFFFFFFF0A00030000000000C00000000000004607000000
310
5042727573680007000000504272757368000700000050427275736800F439B2
310
7100000000000000000000000000000000000000000000000000000000000000
310
0000000000000000000000000000000000000000000000000000000000000000
310
0000000000000000000000000000000000000000000000000000000000000000
310
0000000000000000000000000000000000000000000000000000000000000000
310
0000000000000000000000000000000000000000000000000000000000000000
310
0000000000000000000000000000000000000000000000000000000000000000
310
0000000000000000000000000000000000000000000000000000000000000000
310
0000000000000000000000000000000000000000000000000000000000000000
310
0000000000000000000000000000000000000000000000000000000000000000
310
0000000000000000000000000000000000000000000000000000000000000000
310
0000000000000000000000000000000000000000000000000000000000000000
310
0000000000000000000000000000000000000000000000000000000000000000
310
E0110000424DDE11000000000000360400002800000096000000170000000100
310
08000000000000000000E7240000E72400000001000000010000000000FF0101
310
01FF020202FF030303FF040404FF050505FF060606FF070707FF080808FF0909
310
09FF0A0A0AFF0B0B0BFF0C0C0CFF0D0D0DFF0E0E0EFF0F0F0FFF101010FF1111
310
11FF121212FF131313FF141414FF151515FF161616FF171717FF181818FF1919
310
19FF1A1A1AFF1B1B1BFF1C1C1CFF1D1D1DFF1E1E1EFF1F1F1FFF202020FF2121
310
21FF222222FF232323FF242424FF252525FF262626FF272727FF282828FF2929
310
29FF2A2A2AFF2B2B2BFF2C2C2CFF2D2D2DFF2E2E2EFF2F2F2FFF303030FF3131
310
31FF323232FF333333FF343434FF353535FF363636FF373737FF383838FF3939
310
39FF3A3A3AFF3B3B3BFF3C3C3CFF3D3D3DFF3E3E3EFF3F3F3FFF404040FF4141
310
41FF424242FF434343FF444444FF454545FF464646FF474747FF484848FF4949
310
49FF4A4A4AFF4B4B4BFF4C4C4CFF4D4D4DFF4E4E4EFF4F4F4FFF505050FF5151
310
51FF525252FF535353FF545454FF555555FF565656FF575757FF585858FF5959
310
59FF5A5A5AFF5B5B5BFF5C5C5CFF5D5D5DFF5E5E5EFF5F5F5FFF606060FF6161
310
61FF626262FF636363FF646464FF656565FF666666FF676767FF686868FF6969
310
69FF6A6A6AFF6B6B6BFF6C6C6CFF6D6D6DFF6E6E6EFF6F6F6FFF707070FF7171
310
71FF727272FF737373FF747474FF757575FF767676FF777777FF787878FF7979
310
79FF7A7A7AFF7B7B7BFF7C7C7CFF7D7D7DFF7E7E7EFF7F7F7FFF808080FF8181
310
81FF828282FF838383FF848484FF858585FF868686FF878787FF888888FF8989
310
89FF8A8A8AFF8B8B8BFF8C8C8CFF8D8D8DFF8E8E8EFF8F8F8FFF909090FF9191
310
91FF929292FF939393FF949494FF959595FF969696FF979797FF989898FF9999
310
99FF9A9A9AFF9B9B9BFF9C9C9CFF9D9D9DFF9E9E9EFF9F9F9FFFA0A0A0FFA1A1
310
A1FFA2A2A2FFA3A3A3FFA4A4A4FFA5A5A5FFA6A6A6FFA7A7A7FFA8A8A8FFA9A9
310
A9FFAAAAAAFFABABABFFACACACFFADADADFFAEAEAEFFAFAFAFFFB0B0B0FFB1B1
310
B1FFB2B2B2FFB3B3B3FFB4B4B4FFB5B5B5FFB6B6B6FFB7B7B7FFB8B8B8FFB9B9
310
B9FFBABABAFFBBBBBBFFBCBCBCFFBDBDBDFFBEBEBEFFBFBFBFFFC0C0C0FFC1C1
310
C1FFC2C2C2FFC3C3C3FFC4C4C4FFC5C5C5FFC6C6C6FFC7C7C7FFC8C8C8FFC9C9
310
C9FFCACACAFFCBCBCBFFCCCCCCFFCDCDCDFFCECECEFFCFCFCFFFD0D0D0FFD1D1
310
D1FFD2D2D2FFD3D3D3FFD4D4D4FFD5D5D5FFD6D6D6FFD7D7D7FFD8D8D8FFD9D9
310
D9FFDADADAFFDBDBDBFFDCDCDCFFDDDDDDFFDEDEDEFFDFDFDFFFE0E0E0FFE1E1
310
E1FFE2E2E2FFE3E3E3FFE4E4E4FFE5E5E5FFE6E6E6FFE7E7E7FFE8E8E8FFE9E9
310
E9FFEAEAEAFFEBEBEBFFECECECFFEDEDEDFFEEEEEEFFEFEFEFFFF0F0F0FFF1F1
310
F1FFF2F2F2FFF3F3F3FFF4F4F4FFF5F5F5FFF6F6F6FFF7F7F7FFF8F8F8FFF9F9
310
F9FFFAFAFAFFFBFBFBFFFCFCFCFFFDFDFDFFFEFEFEFFFFFFFFFFFFFFFFFFFFFF
310
C94E4E4E4F4E4EFFFFFFFFFFC94E4E4E4E4E72FFFFFFFFFFFFFF734E4D4E4E4E
310
C9FFFFFFFFFFAA683516171616265B9BE9FFFFFFFFFF4E4E4E4D4E4EFFFFFFFF
310
FFFFFFFF4E4E4F4E4D4E4E4E4F4E4E4F4D4E4E4E4E4E4D4E4F4E4D4E4E4EAAFF
310
FFFFFFFFFFEA4E4F4F4E4E4E4E4E4D4D4F4F4E4E4E4E4E5B7FAAFFFFFFFFFFFF
310
C9744E1716171616164D8DEAFFFFFFFF0000FFFFFFFFFFFFBA161617161716FF
310
FFFFFFFFB917171616174FFFFFFFFFFFFFFF4E1716161616B9FFFFFFB9341717
310
1716171617171616268CFFFFFFFF161617161617FFFFFFFFFFFFFFB917161717
310
1617167F807F7F7F7F7F7F807F7F807F7F807F7F7F414EFFFFFFFFFFFF8C167F
310
7F807F7F7F7E7F7F807F807F7F807F4E3417258EFFFFEA4E162674AABAEAEBBA
310
AA74341680FFFFFF0000FFFFFFFFFFFFB9171717171617FFFFFFFFFFBB161616
310
16164EFFFFFFFFFFFFFF4E1717171717B9FFFF9C171617171716161616171616
310
171766FFFFFF161717161617FFFFFFFFFFFFFF8E16171717161616FFFFFFFFFF
310
FFFFFFFFFFFFFFFFFFFFFFFFFFAA16D9FFFFFFFFFF3467FFFFFFFFEAFFFFFFFF
310
FFFFFFFFFFFFFFFFFFCA671667EB26278DFFFFFFFFFFFFFFFFFFFF8C2541EAFF
310
0000FFFFFFFFFFFFB9171717171716FFFFFFFFFFBA16171617174EFFFFFFFFFF
310
FFFF4E1717161616BAFF9B1617161616171716171617161616161667FFFF1616
310
16161716FFFFFFFFFFFFFF7F16161617174017FFFFFFFFFFFFFFFFFFFFFFFFFF
310
FFFFFFFFFFFF344E7F7F7F7E7417DAFFFFFFFF80FFFFFFFFFFFFFFFFFFFFFFFF
310
FFFFFF9B163425CAFFFFFFFFFFFFFFFFFFFFFFFFCA2667FF0000FFFFFFFFFFFF
310
BA171717171617FFFFFFFFFFB916171716164EFFFFFFFFFFFFFF4F1716161717
310
B9C91716171616161716161617171616161617168DFF161716161717FFFFFFFF
310
FFFFFF7F17171716164F16FFFFFFFFFFFFFFFFFFFFFFFFFFFFFFFFFFFFFF9B16
310
17161617174EFFFFFFFFFF34FFFFFFFFD9BABABABABADAFFFFFFFFFF7F16AAFF
310
FFFFFFFFFFFFFFFFFFFFFFFFFF9C16BA0000FFFFFFFFFFFFB9161717161717FF
310
FFFFFFFFB917161716174DFFFFFFFFFFFFFF4E1616161616BA4E161617171716
310
419BEAEAAA4E16161617161726E9171717161616FFFFFFFFFFFFFF4F16161717
310
164E16FFFFFFFFFFBAB9B9B9B9B9BABABACAFFFFFFFFFFFFFFFFFFFFFFFFFFFF
310
FFFFBA16FFFFFFFF7F1617161617174DEAFFFFFFEA41FFFFFFFFFFAA4D16174E
310
9BFFFFFFFFFF34730000FFFFFFFFFFFFB9161617171617FFFFFFFFFFBA161616
310
16164EFFFFFFFFFFFFFF4F16161717169B1617161716175BFFFFFFFFFFFF7417
310
16171616168D171717161617FFFFFFFFFFFFEA2616171717167416FFFFFFFFFF
310
16171616171717171717EAFFFFFFFFFFFFFFFFFFFFFFFFFFFFFF6716FFFFFFFF
310
7F4EFFFFFFFFBA2573FFFFFFFFBAFFFFFFFFAA167FB9BB9B269BFFFFFFFF664F
310
0000FFFFFFFFFFFFB9171616161616FFFFFFFFFFBA16161717164EFFFFFFFFFF
310
FFFF4E16161616174E161617171626EAFFFFFFFFFFFFFF4E16161616164E1716
310
16161617FFFFFFFFFFFF671616161716347F16FFFFFFFFFF16B9FFFFFFFFFFFF
310
D9168DFFFFFFFFFFFFFFFFFFFFFFFFFFFFEA1716FFFFFFFF7F4EFFFFFFFFFF7F
310
4EFFFFFFFFFFFFFFFFFF5B66FFFFFFEA347FFFFFFFFF7F4D0000FFFFFFFFFFFF
310
B9171616171617FFFFFFFFFFBA17161716174EFFFFFFFFFFFFFF4D1716161617
310
17161716161673FFFFFFFFFFFFFFFF9B1617161717161616171616174F4E4E4E
310
4E341616171616167E7F16FFFFFFFFFF16BAFFFFFFFFFFFFFF5B41FFFFFFFF34
310
1616171616BAFFFFFF9B1716FFFFFFFF7F4EFFFFFFFFFF4E4EFFFFFFFF734E4E
310
4E4E267EDA9B67164EEAFFFFFFFF744D0000FFFFFFFFFFFFBA171717161617FF
310
FFFFFFFFBA1616171616347F7F7F7F80807F331616161717161717161716B9FF
310
FFFFFFFFFFFFFFE9161616161616171716161716171616161616171616171734
310
EA7F16FFFFFFFFFF16BAFFFFFFFFFFFFFFAA17C9FFFFFF7326BABA5B25FFFFFF
310
FF401716FFFFFFFF7F264F4E4E4E4217AAFFFFFFEA16677F73261616164173CA
310
FFFFFFFFFFFF417F0000FFFFFFFFFFFFBA171616171617FFFFFFFFFFBA161616
310
17171616161616161616161717161616161616161617EAFFFFFFFFFFFFFFFFFF
310
261717161716161617161616161617161617161616174EEAFF8016FFFFFFFFFF
310
17BAFFFFFFFFFFFFFFFF3467FFFFFFC916C9FF3467FFFFFFDA166716FFFFFFFF
310
9C4D4E4E4E4E67AAFFFFFFFF6834FF7F262567AAEAFFFFFFFFFFFFFFFF9B17D9
310
0000FFFFFFFFFFFFB9161616161616FFFFFFFFFFBA1617161717171616161616
310
1716171716161716161617171716FFFFFFFFFFFFFFFFFFFF4E17161716171616
310
1617171616161716171717161616169BFF7F17FFFFFFFFFF17B9FFFFFFFFFFFF
310
FFFF7326FFFFFFFF3473DA16AAFFFFFF7317AA16FFFFFFFFFFFFFFFFFFFFFFFF
310
FFFFEA6725BA4E167FEAFFFFFFFFFFFFFFFFFFFF9C167FFF0000FFFFFFFFFFFF
310
B9161717171716FFFFFFFFFFBA16161716171616171717161617161716161616
310
171617171617EAFFFFFFFFFFFFFFFFFF26161717161616161616161617171616
310
1616161616171616AA8016FFFFFFFFFF16BAFFFFFFFFFFFFFFFFDA179BFFFFFF
310
74348D26FFFFFFFF2566B917FFFFFFFFD8BAB9BAB9BADAFFFFEA41169B7425C9
310
FFFFFFFFFFFFFFFFFFFFAB4F1680FFFF0000FFFFFFFFFFFFBA161717171617FF
310
FFFFFFFFBA17161717161617171617161616161617171616171716171617BBFF
310
FFFFFFFFFFFFFFE9171616161617161617161716FFFFFFFFFFD9671616161617
310
348017FFFFFFFFFF16BAFFFFFFFFFFFFFFFFFF4E5AFFFFFFC916265AFFFFFFAA
310
16AABA16FFFFFFFF7F1617161616179BFFFFEB4127168DFFFFFFFFFFFFFFD99B
310
6734175AC9FFFFFF0000FFFFFFFFFFFFB9161617171617FFFFFFFFFFBB161616
310
1616347F807F7F7F7F8033171716171617171616161672FFFFFFFFFFFFFFFF9C
310
171617171617161716161617FFFFFFFFFFFFFF4117161616174E17FFFFFFFFFF
310
16BAFFFFFFFFFFFFFFFFFF9B16DAFFFFFF34169BFFFFFF5A26FFB917FFFFFFFF
310
7F4EFFFFFFEA5B26FFFFFFEA2616EAFFFFFFFFDA743416331617414E4E4E4ECA
310
0000FFFFFFFFFFFFBA161716161616FFFFFFFFFFBA17171616164EFFFFFFFFFF
310
FFFF4E16161717174E161717171626EBFFFFFFFFFFFFFF4E16161617165B1616
310
16171617FFFFFFFFFFFFFF6716161616161617FFFFFFFFFF16BAFFFFFFFFFFFF
310
FFFFFFEA268CFFFFFF7316EAFFFFEB1774FFB916FFFFFFFF7F4EFFFFFFFF7316
310
FFFFFFFF6826FFFFFFFFEB264D9CEABA257F807F7F6616BA0000FFFFFFFFFFFF
310
BA161716161616FFFFFFFFFFBA16171616164DFFFFFFFFFFFFFF4E1617161617
310
9B1617171717165BEBFFFFFFFFFF671616161617179B171616161616FFFFFFFF
310
FFFFFF3417161617171617FFFFFFFFFF17BAFFFFFFFFFFFFFFFFFFFF6734FFFF
310
FFEBCAFFFFFF8D17C9FFBA17FFFFFFFF7F357F808066174FFFFFFFFF7F16FFFF
310
FFFFD91673B99B415BFFFFFFFFBA16DA00009B7F7F7F807F671617161616167F
310
80807F7E6617161616164EFFFFFFFFFFFFFF4E1616161617B94E171716161616
310
349BC9D9AA4E16171616161634FF161617161717B9B9BAB9BA9B411716171716
310
163416FFFFFFFFFF16B9FFFFFFFFFFFFFFFFFFFFC917CAFFFFFFFFFFFFFF3342
310
FFFFBA17FFFFFFFF9B4E4E4F4E4E66EAFFFFFFFF5B16C9FFFFFFFFAA4E164E73
310
EAFFFFFFFF8D26FF00004E161716161616171617171616171717171617161616
310
17174EFFFFFFFFFFFFFF4E1717171616B9D92616171716171716171717171716
310
16171716AAFF161717171617161617171616161617161716166717FFFFFFFFFF
310
17B9FFFFFFFFFFFFFFFFFFFFFF3467FFFFFFFFFFFFCA168CFFFFBB17FFFFFFFF
310
FFFFFFFFFFFFFFFFFFFFFFEA26265BFFFFFFFFFFFFFFFFFFFFFFFFFFEA3467FF
310
00004D16161616161617161717161617161616171617171616164EFFFFFFFFFF
310
FFFF4D1617161616BAFF9B1616161616161716161616171717161766FFFF1616
310
16171617161617161716171616171717667F16FFFFFFFFFF17BAFFFFFFFFFFFF
310
FFFFFFFFFF8C26EAFFFFFFFFFF6617EAFFFFBA17FFFFFFFFFFFFFFFFFFFFFFFF
310
FFFFEA5A25BA269BFFFFFFFFFFFFFFFFFFFFFFFF6616DAFF00004E1616171616
310
1616161616161716161617171616171616174EFFFFFFFFFFFFFF4D1717171716
310
B9FFFF9C161616161616161716161717171667FFFFFF17161717171716161617
310
1716161616161641E97E16FFFFFFFFFF16B9FFFFFFFFFFFFFFFFFFFFFFEA169B
310
FFFFFFFFEA265BFFFFFFB916FFFFFFFFFFFFFFFFFFFFFFFFFF9B3416AAFF9B17
310
67EAFFFFFFFFFFFFFFFFEA5B169BFFFF00004D17161716161616161717171616
310
161717161716171716174EFFFFFFFFFFFFFF4D1616161616BAFFFFFFBB411616
310
161716161616171634ABFFFFFFFF161716161617171716171617171617267FFF
310
FF7F164E4E4E4E4F17BAFFFFFFFFFFFFFFFFFFFFFFFF66344D4E4E4F4117AAFF
310
FFFFBA174E4E4E4D4E4D4D4E4E4E4E4116174EBBFFFFFFCA342666ABEAFFFFEA
310
AA6725269CFFFFFF0000724F4E4D4D4D4E4D4D4E4E4E4D4E4E4E4E4E4E4E4E4D
310
4E4E74FFFFFFFFFFFFFF734E4E4E4D4ECAFFFFFFFFFFAA663416171717265B9B
310
FFFFFFFFFFFF7F8080807F80807F7F7F7F7F807FBAFFFFFFFF9B4E4E4F4D4D4E
310
4DC9FFFFFFFFFFFFFFFFFFFFFFFFBA4E4E4E4E4D4E4EFFFFFFFFC94E4E4E4F4E
310
4E4E4D4E4E5A807F9CD9FFFFFFFFFFFFFF9B5B2617171716174E8DEAFFFFFFFF
310
0000000000000000000000000000000000000000000000000000000000000000
  1
OLE
  0
ENDSEC
  0
SECTION
  2
OBJECTS
  0
DICTIONARY
  5
C
330
0
100
AcDbDictionary
281
     1
  3
ACAD_GROUP
350
D
  3
ACAD_LAYOUT
350
1A
  3
ACAD_MLINESTYLE
350
17
  3
ACAD_PLOTSETTINGS
350
19
  3
ACAD_PLOTSTYLENAME
350
E
  0
DICTIONARY
  5
D
102
{ACAD_REACTORS
330
C
102
}
330
C
100
AcDbDictionary
281
     1
  0
DICTIONARY
  5
1A
102
{ACAD_REACTORS
330
C
102
}
330
C
100
AcDbDictionary
281
     1
  3
Layout1
350
1E
  3
Layout2
350
26
  3
Model
350
22
  0
DICTIONARY
  5
17
102
{ACAD_REACTORS
330
C
102
}
330
C
100
AcDbDictionary
281
     1
  3
Standard
350
18
  0
DICTIONARY
  5
19
102
{ACAD_REACTORS
330
C
102
}
330
C
100
AcDbDictionary
281
     1
  0
ACDBDICTIONARYWDFLT
  5
E
102
{ACAD_REACTORS
330
C
102
}
330
C
100
AcDbDictionary
281
     1
  3
Normal
350
F
100
AcDbDictionaryWithDefault
340
F
  0
LAYOUT
  5
1E
102
{ACAD_REACTORS
330
1A
102
}
330
1A
100
AcDbPlotSettings
  1

  2
none_device
  4

  6

 40
0.0
 41
0.0
 42
0.0
 43
0.0
 44
0.0
 45
0.0
 46
0.0
 47
0.0
 48
0.0
 49
0.0
140
0.0
141
0.0
142
1.0
143
1.0
 70
   688
 72
     0
 73
     0
 74
     5
  7

 75
    16
147
1.0
148
0.0
149
0.0
100
AcDbLayout
  1
Layout1
 70
     1
 71
     1
 10
0.0
 20
0.0
 11
420.0
 21
297.0
 12
0.0
 22
0.0
 32
0.0
 14
1.0000000000E+20
 24
1.0000000000E+20
 34
1.0000000000E+20
 15
-1.0000000000E+20
 25
-1.0000000000E+20
 35
-1.0000000000E+20
146
0.0
 13
0.0
 23
0.0
 33
0.0
 16
1.0
 26
0.0
 36
0.0
 17
0.0
 27
1.0
 37
0.0
 76
     0
330
1B
  0
LAYOUT
  5
26
102
{ACAD_REACTORS
330
1A
102
}
330
1A
100
AcDbPlotSettings
  1

  2
none_device
  4

  6

 40
0.0
 41
0.0
 42
0.0
 43
0.0
 44
0.0
 45
0.0
 46
0.0
 47
0.0
 48
0.0
 49
0.0
140
0.0
141
0.0
142
1.0
143
1.0
 70
   688
 72
     0
 73
     0
 74
     5
  7

 75
    16
147
1.0
148
0.0
149
0.0
100
AcDbLayout
  1
Layout2
 70
     1
 71
     2
 10
0.0
 20
0.0
 11
0.0
 21
0.0
 12
0.0
 22
0.0
 32
0.0
 14
0.0
 24
0.0
 34
0.0
 15
0.0
 25
0.0
 35
0.0
146
0.0
 13
0.0
 23
0.0
 33
0.0
 16
1.0
 26
0.0
 36
0.0
 17
0.0
 27
1.0
 37
0.0
 76
     0
330
23
  0
LAYOUT
  5
22
102
{ACAD_REACTORS
330
1A
102
}
330
1A
100
AcDbPlotSettings
  1

  2
none_device
  4

  6

 40
0.0
 41
0.0
 42
0.0
 43
0.0
 44
0.0
 45
0.0
 46
0.0
 47
0.0
 48
0.0
 49
0.0
140
0.0
141
0.0
142
1.0
143
1.0
 70
  1712
 72
     0
 73
     0
 74
     0
  7

 75
     0
147
1.0
148
0.0
149
0.0
100
AcDbLayout
  1
Model
 70
     1
 71
     0
 10
0.0
 20
0.0
 11
279.4
 21
215.9
 12
0.0
 22
0.0
 32
0.0
 14
0.0
 24
0.0
 34
0.0
 15
279.4
 25
215.9
 35
0.0
146
0.0
 13
0.0
 23
0.0
 33
0.0
 16
1.0
 26
0.0
 36
0.0
 17
0.0
 27
1.0
 37
0.0
 76
     0
330
1F
331
29
  0
MLINESTYLE
  5
18
102
{ACAD_REACTORS
330
17
102
}
330
17
100
AcDbMlineStyle
  2
Standard
 70
     0
  3

 62
   256
 51
90.0
 52
90.0
 71
     2
 49
0.5
 62
   256
  6
BYLAYER
 49
-0.5
 62
   256
  6
BYLAYER
  0
ACDBPLACEHOLDER
  5
F
102
{ACAD_REACTORS
330
E
102
}
330
E
  0
ENDSEC
  0
EOF
