  0
SECTION
  2
HEADER
  9
$ACADVER
  1
AC1015
  9
$ACADMAINTVER
 70
     6
  9
$DWGCODEPAGE
  3
ANSI_1252
  9
$INSBASE
 10
0.0
 20
0.0
 30
0.0
  9
$EXTMIN
 10
0.0
 20
0.0
 30
0.0
  9
$EXTMAX
 10
11.0
 20
8.5
 30
0.0
  9
$LIMMIN
 10
0.0
 20
0.0
  9
$LIMMAX
 10
0.0
 20
0.0
  9
$ORTHOMODE
 70
     0
  9
$REGENMODE
 70
     1
  9
$FILLMODE
 70
     1
  9
$QTEXTMODE
 70
     0
  9
$MIRRTEXT
 70
     1
  9
$LTSCALE
 40
1.0
  9
$ATTMODE
 70
     1
  9
$TEXTSIZE
 40
0.09
  9
$TRACEWID
 40
0.05
  9
$TEXTSTYLE
  7
Standard
  9
$CLAYER
  8
0
  9
$CELTYPE
  6
ByLayer
  9
$CECOLOR
 62
   256
  9
$CELTSCALE
 40
1.0
  9
$DISPSILH
 70
     0
  9
$DIMSCALE
 40
1.0
  9
$DIMASZ
 40
0.16
  9
$DIMEXO
 40
0.05
  9
$DIMDLI
 40
0.38
  9
$DIMRND
 40
0.0
  9
$DIMDLE
 40
0.0
  9
$DIMEXE
 40
0.125
  9
$DIMTP
 40
0.0
  9
$DIMTM
 40
0.0
  9
$DIMTXT
 40
0.09
  9
$DIMCEN
 40
0.09
  9
$DIMTSZ
 40
0.0
  9
$DIMTOL
 70
     0
  9
$DIMLIM
 70
     0
  9
$DIMTIH
 70
     1
  9
$DIMTOH
 70
     1
  9
$DIMSE1
 70
     0
  9
$DIMSE2
 70
     0
  9
$DIMTAD
 70
     0
  9
$DIMZIN
 70
     1
  9
$DIMBLK
  1

  9
$DIMASO
 70
     1
  9
$DIMSHO
 70
     1
  9
$DIMPOST
  1

  9
$DIMAPOST
  1

  9
$DIMALT
 70
     0
  9
$DIMALTD
 70
     2
  9
$DIMALTF
 40
25.4
  9
$DIMLFAC
 40
1.0
  9
$DIMTOFL
 70
     0
  9
$DIMTVP
 40
0.0
  9
$DIMTIX
 70
     0
  9
$DIMSOXD
 70
     0
  9
$DIMSAH
 70
     0
  9
$DIMBLK1
  1

  9
$DIMBLK2
  1

  9
$DIMSTYLE
  2
Standard
  9
$DIMCLRD
 70
     0
  9
$DIMCLRE
 70
     0
  9
$DIMCLRT
 70
     0
  9
$DIMTFAC
 40
1.0
  9
$DIMGAP
 40
0.1
  9
$DIMJUST
 70
     0
  9
$DIMSD1
 70
     0
  9
$DIMSD2
 70
     0
  9
$DIMTOLJ
 70
     1
  9
$DIMTZIN
 70
     1
  9
$DIMALTZ
 70
     0
  9
$DIMALTTZ
 70
     0
  9
$DIMUPT
 70
     0
  9
$DIMDEC
 70
     4
  9
$DIMTDEC
 70
     4
  9
$DIMALTU
 70
     2
  9
$DIMALTTD
 70
     2
  9
$DIMTXSTY
  7
Standard
  9
$DIMAUNIT
 70
     0
  9
$DIMADEC
 70
     0
  9
$DIMALTRND
 40
0.0
  9
$DIMAZIN
 70
     0
  9
$DIMDSEP
 70
    46
  9
$DIMATFIT
 70
     3
  9
$DIMFRAC
 70
     0
  9
$DIMLDRBLK
  1

  9
$DIMLUNIT
 70
     2
  9
$DIMLWD
 70
    -2
  9
$DIMLWE
 70
    -2
  9
$DIMTMOVE
 70
     0
  9
$LUNITS
 70
     2
  9
$LUPREC
 70
     3
  9
$SKETCHINC
 40
0.1
  9
$FILLETRAD
 40
0.5
  9
$AUNITS
 70
     0
  9
$AUPREC
 70
     0
  9
$MENU
  1
.
  9
$ELEVATION
 40
0.0
  9
$PELEVATION
 40
0.0
  9
$THICKNESS
 40
0.0
  9
$LIMCHECK
 70
     0
  9
$CHAMFERA
 40
0.5
  9
$CHAMFERB
 40
0.5
  9
$CHAMFERC
 40
1.0
  9
$CHAMFERD
 40
0.0
  9
$SKPOLY
 70
     0
  9
$TDCREATE
 40
2454805.307870914
  9
$TDUCREATE
 40
2454805.516204248
  9
$TDUPDATE
 40
2454805.307870926
  9
$TDUUPDATE
 40
2454805.516204259
  9
$TDINDWG
 40
0.0000000116
  9
$TDUSRTIMER
 40
0.0000000116
  9
$USRTIMER
 70
     1
  9
$ANGBASE
 50
0.0
  9
$ANGDIR
 70
     0
  9
$PDMODE
 70
     0
  9
$PDSIZE
 40
-1.0
  9
$PLINEWID
 40
0.0
  9
$SPLFRAME
 70
     0
  9
$SPLINETYPE
 70
     6
  9
$SPLINESEGS
 70
     8
  9
$HANDSEED
  5
440
  9
$SURFTAB1
 70
     6
  9
$SURFTAB2
 70
     6
  9
$SURFTYPE
 70
     6
  9
$SURFU
 70
     6
  9
$SURFV
 70
     6
  9
$UCSBASE
  2

  9
$UCSNAME
  2

  9
$UCSORG
 10
0.0
 20
0.0
 30
0.0
  9
$UCSXDIR
 10
1.0
 20
0.0
 30
0.0
  9
$UCSYDIR
 10
0.0
 20
1.0
 30
0.0
  9
$UCSORTHOREF
  2

  9
$UCSORTHOVIEW
 70
     0
  9
$UCSORGTOP
 10
0.0
 20
0.0
 30
0.0
  9
$UCSORGBOTTOM
 10
0.0
 20
0.0
 30
0.0
  9
$UCSORGLEFT
 10
0.0
 20
0.0
 30
0.0
  9
$UCSORGRIGHT
 10
0.0
 20
0.0
 30
0.0
  9
$UCSORGFRONT
 10
0.0
 20
0.0
 30
0.0
  9
$UCSORGBACK
 10
0.0
 20
0.0
 30
0.0
  9
$PUCSBASE
  2

  9
$PUCSNAME
  2

  9
$PUCSORG
 10
0.0
 20
0.0
 30
0.0
  9
$PUCSXDIR
 10
1.0
 20
0.0
 30
0.0
  9
$PUCSYDIR
 10
0.0
 20
1.0
 30
0.0
  9
$PUCSORTHOREF
  2

  9
$PUCSORTHOVIEW
 70
     0
  9
$PUCSORGTOP
 10
0.0
 20
0.0
 30
0.0
  9
$PUCSORGBOTTOM
 10
0.0
 20
0.0
 30
0.0
  9
$PUCSORGLEFT
 10
0.0
 20
0.0
 30
0.0
  9
$PUCSORGRIGHT
 10
0.0
 20
0.0
 30
0.0
  9
$PUCSORGFRONT
 10
0.0
 20
0.0
 30
0.0
  9
$PUCSORGBACK
 10
0.0
 20
0.0
 30
0.0
  9
$USERI1
 70
     0
  9
$USERI2
 70
     0
  9
$USERI3
 70
     0
  9
$USERI4
 70
     0
  9
$USERI5
 70
     0
  9
$USERR1
 40
0.0
  9
$USERR2
 40
0.0
  9
$USERR3
 40
0.0
  9
$USERR4
 40
0.0
  9
$USERR5
 40
0.0
  9
$WORLDVIEW
 70
     1
  9
$SHADEDGE
 70
     3
  9
$SHADEDIF
 70
    70
  9
$TILEMODE
 70
     1
  9
$MAXACTVP
 70
    64
  9
$PINSBASE
 10
0.0
 20
0.0
 30
0.0
  9
$PLIMCHECK
 70
     0
  9
$PEXTMIN
 10
1.0000000000E+20
 20
1.0000000000E+20
 30
1.0000000000E+20
  9
$PEXTMAX
 10
-1.0000000000E+20
 20
-1.0000000000E+20
 30
-1.0000000000E+20
  9
$PLIMMIN
 10
0.0
 20
0.0
  9
$PLIMMAX
 10
12.0
 20
9.0
  9
$UNITMODE
 70
     0
  9
$VISRETAIN
 70
     1
  9
$PLINEGEN
 70
     0
  9
$PSLTSCALE
 70
     1
  9
$TREEDEPTH
 70
  3020
  9
$CMLSTYLE
  2
Standard
  9
$CMLJUST
 70
     0
  9
$CMLSCALE
 40
1.0
  9
$PROXYGRAPHICS
 70
     1
  9
$MEASUREMENT
 70
     0
  9
$CELWEIGHT
370
    -1
  9
$ENDCAPS
280
     0
  9
$JOINSTYLE
280
     0
  9
$LWDISPLAY
290
     1
  9
$INSUNITS
 70
     1
  9
$HYPERLINKBASE
  1

  9
$STYLESHEET
  1

  9
$XEDIT
290
     1
  9
$CEPSNTYPE
380
     0
  9
$PSTYLEMODE
290
     1
  9
$FINGERPRINTGUID
  2
{22DE82B2-CD80-4641-9107-0699133D9E46}
  9
$VERSIONGUID
  2
{FAEB1C32-E019-11D5-929B-00C0DF256EC4}
  9
$EXTNAMES
290
     1
  9
$PSVPSCALE
 40
0.0
  9
$OLESTARTUP
290
     0
  0
ENDSEC
  0
SECTION
  2
CLASSES
  0
CLASS
  1
ACDBDICTIONARYWDFLT
  2
AcDbDictionaryWithDefault
  3
ObjectDBX Classes
 90
        0
280
     0
281
     0
  0
CLASS
  1
ACDBPLACEHOLDER
  2
AcDbPlaceHolder
  3
ObjectDBX Classes
 90
        0
280
     0
281
     0
  0
CLASS
  1
LAYOUT
  2
AcDbLayout
  3
ObjectDBX Classes
 90
        0
280
     0
281
     0
  0
ENDSEC
  0
SECTION
  2
TABLES
  0
TABLE
  2
VPORT
  5
8
330
0
100
AcDbSymbolTable
 70
     1
  0
VPORT
  5
29
330
8
100
AcDbSymbolTableRecord
100
AcDbViewportTableRecord
  2
*Active
 70
     0
 10
0.0
 20
0.0
 11
1.0
 21
1.0
 12
5.5
 22
4.25
 13
0.0
 23
0.0
 14
0.5
 24
0.5
 15
0.5
 25
0.5
 16
0.0
 26
0.0
 36
1.0
 17
0.0
 27
0.0
 37
0.0
 40
8.5
 41
1.2941176471
 42
50.0
 43
0.0
 44
0.0
 50
0.0
 51
0.0
 71
     0
 72
  2000
 73
     1
 74
     3
 75
     0
 76
     0
 77
     0
 78
     0
281
     0
 65
     1
110
0.0
120
0.0
130
0.0
111
1.0
121
0.0
131
0.0
112
0.0
122
1.0
132
0.0
 79
     0
146
0.0
  0
ENDTAB
  0
TABLE
  2
LTYPE
  5
5
330
0
100
AcDbSymbolTable
 70
     6
  0
LTYPE
  5
14
330
5
100
AcDbSymbolTableRecord
100
AcDbLinetypeTableRecord
  2
ByBlock
 70
     0
  3

 72
    65
 73
     0
 40
0.0
  0
LTYPE
  5
15
330
5
100
AcDbSymbolTableRecord
100
AcDbLinetypeTableRecord
  2
ByLayer
 70
     0
  3

 72
    65
 73
     0
 40
0.0
  0
LTYPE
  5
16
330
5
100
AcDbSymbolTableRecord
100
AcDbLinetypeTableRecord
  2
Continuous
 70
     0
  3
Solid line
 72
    65
 73
     0
 40
0.0
  0
LTYPE
  5
2A
330
5
100
AcDbSymbolTableRecord
100
AcDbLinetypeTableRecord
  2
HIDDEN
 70
     0
  3
Hidden __ __ __ __ __ __ __ __ __ __ __ __ __ __
 72
    65
 73
     2
 40
0.075
 49
0.05
 74
     0
 49
-0.025
 74
     0
  0
LTYPE
  5
2B
330
5
100
AcDbSymbolTableRecord
100
AcDbLinetypeTableRecord
  2
PHANTOM
 70
     0
  3
Phantom ______  __  __  ______  __  __  ______
 72
    65
 73
     6
 40
0.5
 49
0.25
 74
     0
 49
-0.05
 74
     0
 49
0.05
 74
     0
 49
-0.05
 74
     0
 49
0.05
 74
     0
 49
-0.05
 74
     0
  0
LTYPE
  5
2C
330
5
100
AcDbSymbolTableRecord
100
AcDbLinetypeTableRecord
  2
CENTER
 70
     0
  3
Center ____ _ ____ _ ____ _ ____ _ ____ _ ____
 72
    65
 73
     4
 40
0.4
 49
0.25
 74
     0
 49
-0.05
 74
     0
 49
0.05
 74
     0
 49
-0.05
 74
     0
  0
LTYPE
  5
2D
330
5
100
AcDbSymbolTableRecord
100
AcDbLinetypeTableRecord
  2
CENTERX2
 70
     0
  3
Center (2x) ________  __  ________  __  _____
 72
    65
 73
     4
 40
0.8
 49
0.5
 74
     0
 49
-0.1
 74
     0
 49
0.1
 74
     0
 49
-0.1
 74
     0
  0
LTYPE
  5
2E
330
5
100
AcDbSymbolTableRecord
100
AcDbLinetypeTableRecord
  2
DOT2
 70
     0
  3
Dot (.5x) ........................................
 72
    65
 73
     2
 40
0.025
 49
0.0
 74
     0
 49
-0.025
 74
     0
  0
ENDTAB
  0
TABLE
  2
LAYER
  5
2
330
0
100
AcDbSymbolTable
 70
     2
  0
LAYER
  5
10
330
2
100
AcDbSymbolTableRecord
100
AcDbLayerTableRecord
  2
0
 70
     0
 62
     7
  6
Continuous
370
    -3
390
F
  0
LAYER
  5
2F
330
2
100
AcDbSymbolTableRecord
100
AcDbLayerTableRecord
  2
FORMAT
 70
     0
 62
     7
  6
Continuous
370
    -3
390
F
  0
ENDTAB
  0
TABLE
  2
STYLE
  5
3
330
0
100
AcDbSymbolTable
 70
    19
  0
STYLE
  5
11
330
3
100
AcDbSymbolTableRecord
100
AcDbTextStyleTableRecord
  2
Standard
 70
     0
 40
0.0
 41
1.0
 50
0.0
 71
     0
 42
0.2
  3
txt
  4

  0
STYLE
  5
4D
330
3
100
AcDbSymbolTableRecord
100
AcDbTextStyleTableRecord
  2
SLDTEXTSTYLE0
 70
     0
 40
0.0
 41
0.75
 50
0.0
 71
     0
 42
0.2
  3
TXT
  4

  0
STYLE
  5
56
330
3
100
AcDbSymbolTableRecord
100
AcDbTextStyleTableRecord
  2
SLDTEXTSTYLE1
 70
     0
 40
0.0
 41
0.6428571429
 50
0.0
 71
     0
 42
0.2
  3
TXT
  4

  0
STYLE
  5
58
330
3
100
AcDbSymbolTableRecord
100
AcDbTextStyleTableRecord
  2
SLDTEXTSTYLE2
 70
     0
 40
0.0
 41
0.7211538462
 50
0.0
 71
     0
 42
0.2
  3
TXT
  4

  0
STYLE
  5
63
330
3
100
AcDbSymbolTableRecord
100
AcDbTextStyleTableRecord
  2
SLDTEXTSTYLE3
 70
     0
 40
0.0
 41
0.6375
 50
0.0
 71
     0
 42
0.2
  3
TXT
  4

  0
STYLE
  5
69
330
3
100
AcDbSymbolTableRecord
100
AcDbTextStyleTableRecord
  2
SLDTEXTSTYLE4
 70
     0
 40
0.0
 41
0.7016129032
 50
0.0
 71
     0
 42
0.2
  3
TXT
  4

  0
STYLE
  5
6B
330
3
100
AcDbSymbolTableRecord
100
AcDbTextStyleTableRecord
  2
SLDTEXTSTYLE5
 70
     0
 40
0.0
 41
0.6853448276
 50
0.0
 71
     0
 42
0.2
  3
TXT
  4

  0
STYLE
  5
6D
330
3
100
AcDbSymbolTableRecord
100
AcDbTextStyleTableRecord
  2
SLDTEXTSTYLE6
 70
     0
 40
0.0
 41
0.689516129
 50
0.0
 71
     0
 42
0.2
  3
TXT
  4

  0
STYLE
  5
6F
330
3
100
AcDbSymbolTableRecord
100
AcDbTextStyleTableRecord
  2
SLDTEXTSTYLE7
 70
     0
 40
0.0
 41
0.6666666667
 50
0.0
 71
     0
 42
0.2
  3
TXT
  4

  0
STYLE
  5
71
330
3
100
AcDbSymbolTableRecord
100
AcDbTextStyleTableRecord
  2
SLDTEXTSTYLE8
 70
     0
 40
0.0
 41
0.7010869565
 50
0.0
 71
     0
 42
0.2
  3
TXT
  4

  0
STYLE
  5
73
330
3
100
AcDbSymbolTableRecord
100
AcDbTextStyleTableRecord
  2
SLDTEXTSTYLE9
 70
     0
 40
0.0
 41
0.7083333333
 50
0.0
 71
     0
 42
0.2
  3
TXT
  4

  0
STYLE
  5
82
330
3
100
AcDbSymbolTableRecord
100
AcDbTextStyleTableRecord
  2
SLDTEXTSTYLE10
 70
     0
 40
0.0
 41
0.65625
 50
0.0
 71
     0
 42
0.2
  3
TXT
  4

  0
STYLE
  5
89
330
3
100
AcDbSymbolTableRecord
100
AcDbTextStyleTableRecord
  2
SLDTEXTSTYLE11
 70
     0
 40
0.0
 41
0.7142857143
 50
0.0
 71
     0
 42
0.2
  3
TXT
  4

  0
STYLE
  5
92
330
3
100
AcDbSymbolTableRecord
100
AcDbTextStyleTableRecord
  2
SLDTEXTSTYLE12
 70
     0
 40
0.0
 41
0.6995192308
 50
0.0
 71
     0
 42
0.2
  3
TXT
  4

  0
STYLE
  5
9A
330
3
100
AcDbSymbolTableRecord
100
AcDbTextStyleTableRecord
  2
SLDTEXTSTYLE13
 70
     0
 40
0.0
 41
0.69375
 50
0.0
 71
     0
 42
0.2
  3
TXT
  4

  0
STYLE
  5
9C
330
3
100
AcDbSymbolTableRecord
100
AcDbTextStyleTableRecord
  2
SLDTEXTSTYLE14
 70
     0
 40
0.0
 41
0.6988636364
 50
0.0
 71
     0
 42
0.2
  3
TXT
  4

  0
STYLE
  5
9E
330
3
100
AcDbSymbolTableRecord
100
AcDbTextStyleTableRecord
  2
SLDTEXTSTYLE15
 70
     0
 40
0.0
 41
0.7115384615
 50
0.0
 71
     0
 42
0.2
  3
TXT
  4

  0
STYLE
  5
A1
330
3
100
AcDbSymbolTableRecord
100
AcDbTextStyleTableRecord
  2
SLDTEXTSTYLE16
 70
     0
 40
0.0
 41
0.6796875
 50
0.0
 71
     0
 42
0.2
  3
TXT
  4

  0
STYLE
  5
40C
330
3
100
AcDbSymbolTableRecord
100
AcDbTextStyleTableRecord
  2
SLDTEXTSTYLE17
 70
     0
 40
0.0
 41
0.6875
 50
0.0
 71
     0
 42
0.2
  3
TXT
  4

  0
ENDTAB
  0
TABLE
  2
VIEW
  5
6
330
0
100
AcDbSymbolTable
 70
     0
  0
ENDTAB
  0
TABLE
  2
UCS
  5
7
330
0
100
AcDbSymbolTable
 70
     0
  0
ENDTAB
  0
TABLE
  2
APPID
  5
9
330
0
100
AcDbSymbolTable
 70
     1
  0
APPID
  5
12
330
9
100
AcDbSymbolTableRecord
100
AcDbRegAppTableRecord
  2
ACAD
 70
     0
  0
ENDTAB
  0
TABLE
  2
DIMSTYLE
  5
A
330
0
100
AcDbSymbolTable
 70
     6
100
AcDbDimStyleTable
  0
DIMSTYLE
105
27
330
A
100
AcDbSymbolTableRecord
100
AcDbDimStyleTableRecord
  2
Standard
 70
     0
340
11
  0
DIMSTYLE
105
D2
102
{ACAD_REACTORS
330
D1
102
}
330
A
100
AcDbSymbolTableRecord
100
AcDbDimStyleTableRecord
  2
SLDDIMSTYLE0
 70
     0
 41
0.16
 44
0.0
 78
     4
140
0.09
147
0.0225
170
     1
171
     1
172
     1
173
     1
271
     3
272
     3
274
     1
284
    12
340
4D
  0
DIMSTYLE
105
388
102
{ACAD_REACTORS
330
387
330
3D1
102
}
330
A
100
AcDbSymbolTableRecord
100
AcDbDimStyleTableRecord
  2
SLDDIMSTYLE1
 70
     0
 41
0.16
 44
0.0
 78
     4
140
0.09
147
0.0225
170
     1
171
     1
173
     1
271
     3
272
     3
274
     1
284
    12
340
4D
  0
DIMSTYLE
105
39B
102
{ACAD_REACTORS
330
39A
330
3AD
330
3BF
102
}
330
A
100
AcDbSymbolTableRecord
100
AcDbDimStyleTableRecord
  2
SLDDIMSTYLE2
 70
     0
 41
0.16
 44
0.0
 78
    12
140
0.09
147
0.0225
170
     1
171
     1
173
     1
271
     3
272
     3
274
     1
284
    12
340
4D
  0
DIMSTYLE
105
3E4
102
{ACAD_REACTORS
330
3E3
330
3F6
102
}
330
A
100
AcDbSymbolTableRecord
100
AcDbDimStyleTableRecord
  2
SLDDIMSTYLE3
 70
     0
 41
0.16
 44
0.0
 78
     8
140
0.09
147
0.0225
170
     1
171
     1
173
     1
271
     3
272
     3
274
     1
284
    12
340
4D
  0
DIMSTYLE
105
410
330
A
100
AcDbSymbolTableRecord
100
AcDbDimStyleTableRecord
  2
SLDDIMSTYLE4
 70
     0
 41
0.16
 44
0.0
140
0.16
147
0.04
173
     1
271
     0
272
     0
340
11
  0
ENDTAB
  0
TABLE
  2
BLOCK_RECORD
  5
1
330
0
100
AcDbSymbolTable
 70
    21
  0
BLOCK_RECORD
  5
1F
330
1
100
AcDbSymbolTableRecord
100
AcDbBlockTableRecord
  2
*Model_Space
340
22
  0
BLOCK_RECORD
  5
1B
330
1
100
AcDbSymbolTableRecord
100
AcDbBlockTableRecord
  2
*Paper_Space
340
1E
  0
BLOCK_RECORD
  5
23
330
1
100
AcDbSymbolTableRecord
100
AcDbBlockTableRecord
  2
*Paper_Space0
340
26
  0
BLOCK_RECORD
  5
66
330
1
100
AcDbSymbolTableRecord
100
AcDbBlockTableRecord
  2
SW_NOTE_0
340
0
102
{BLKREFS
331
75
102
}
1001
ACAD
1000
DesignCenter Data
1002
{
1070
     1
1070
     0
1002
}
  0
BLOCK_RECORD
  5
7F
330
1
100
AcDbSymbolTableRecord
100
AcDbBlockTableRecord
  2
SW_NOTE_1
340
0
102
{BLKREFS
331
85
102
}
1001
ACAD
1000
DesignCenter Data
1002
{
1070
     1
1070
     0
1002
}
  0
BLOCK_RECORD
  5
86
330
1
100
AcDbSymbolTableRecord
100
AcDbBlockTableRecord
  2
SW_NOTE_2
340
0
102
{BLKREFS
331
8C
102
}
1001
ACAD
1000
DesignCenter Data
1002
{
1070
     1
1070
     0
1002
}
  0
BLOCK_RECORD
  5
8E
330
1
100
AcDbSymbolTableRecord
100
AcDbBlockTableRecord
  2
SW_NOTE_3
340
0
102
{BLKREFS
331
94
102
}
1001
ACAD
1000
DesignCenter Data
1002
{
1070
     1
1070
     0
1002
}
  0
BLOCK_RECORD
  5
96
330
1
100
AcDbSymbolTableRecord
100
AcDbBlockTableRecord
  2
SW_NOTE_4
340
0
102
{BLKREFS
331
A5
102
}
1001
ACAD
1000
DesignCenter Data
1002
{
1070
     1
1070
     0
1002
}
  0
BLOCK_RECORD
  5
A6
330
1
100
AcDbSymbolTableRecord
100
AcDbBlockTableRecord
  2
SW_TABLEANNOTATION_0
340
0
102
{BLKREFS
331
BE
102
}
1001
ACAD
1000
DesignCenter Data
1002
{
1070
     1
1070
     0
1002
}
  0
BLOCK_RECORD
  5
D3
330
1
100
AcDbSymbolTableRecord
100
AcDbBlockTableRecord
  2
*D7
340
0
  0
BLOCK_RECORD
  5
389
330
1
100
AcDbSymbolTableRecord
100
AcDbBlockTableRecord
  2
*D8
340
0
  0
BLOCK_RECORD
  5
39C
330
1
100
AcDbSymbolTableRecord
100
AcDbBlockTableRecord
  2
*D9
340
0
  0
BLOCK_RECORD
  5
3AE
330
1
100
AcDbSymbolTableRecord
100
AcDbBlockTableRecord
  2
*D10
340
0
  0
BLOCK_RECORD
  5
3C0
330
1
100
AcDbSymbolTableRecord
100
AcDbBlockTableRecord
  2
*D11
340
0
  0
BLOCK_RECORD
  5
3D2
330
1
100
AcDbSymbolTableRecord
100
AcDbBlockTableRecord
  2
*D12
340
0
  0
BLOCK_RECORD
  5
3E5
330
1
100
AcDbSymbolTableRecord
100
AcDbBlockTableRecord
  2
*D13
340
0
  0
BLOCK_RECORD
  5
3F7
330
1
100
AcDbSymbolTableRecord
100
AcDbBlockTableRecord
  2
*D14
340
0
  0
BLOCK_RECORD
  5
409
330
1
100
AcDbSymbolTableRecord
100
AcDbBlockTableRecord
  2
SW_NOTE_5
340
0
102
{BLKREFS
331
40F
102
}
1001
ACAD
1000
DesignCenter Data
1002
{
1070
     1
1070
     0
1002
}
  0
BLOCK_RECORD
  5
413
330
1
100
AcDbSymbolTableRecord
100
AcDbBlockTableRecord
  2
SW_NOTE_6
340
0
102
{BLKREFS
331
418
102
}
1001
ACAD
1000
DesignCenter Data
1002
{
1070
     1
1070
     0
1002
}
  0
BLOCK_RECORD
  5
41A
330
1
100
AcDbSymbolTableRecord
100
AcDbBlockTableRecord
  2
SW_NOTE_7
340
0
102
{BLKREFS
331
41F
102
}
1001
ACAD
1000
DesignCenter Data
1002
{
1070
     1
1070
     0
1002
}
  0
BLOCK_RECORD
  5
421
330
1
100
AcDbSymbolTableRecord
100
AcDbBlockTableRecord
  2
SW_NOTE_8
340
0
102
{BLKREFS
331
426
102
}
1001
ACAD
1000
DesignCenter Data
1002
{
1070
     1
1070
     0
1002
}
  0
BLOCK_RECORD
  5
428
330
1
100
AcDbSymbolTableRecord
100
AcDbBlockTableRecord
  2
SW_NOTE_9
340
0
102
{BLKREFS
331
42D
102
}
1001
ACAD
1000
DesignCenter Data
1002
{
1070
     1
1070
     0
1002
}
  0
BLOCK_RECORD
  5
42F
330
1
100
AcDbSymbolTableRecord
100
AcDbBlockTableRecord
  2
SW_NOTE_10
340
0
102
{BLKREFS
331
434
102
}
1001
ACAD
1000
DesignCenter Data
1002
{
1070
     1
1070
     0
1002
}
  0
ENDTAB
  0
ENDSEC
  0
SECTION
  2
BLOCKS
  0
BLOCK
  5
20
330
1F
100
AcDbEntity
  8
0
100
AcDbBlockBegin
  2
*Model_Space
 70
     0
 71
     0
 10
0.0
 20
0.0
 30
0.0
  3
*Model_Space
  1

  0
ENDBLK
  5
21
330
1F
100
AcDbEntity
  8
0
100
AcDbBlockEnd
  0
BLOCK
  5
1C
330
1B
100
AcDbEntity
 67
     1
  8
0
100
AcDbBlockBegin
  2
*Paper_Space
 70
     0
 71
     0
 10
0.0
 20
0.0
 30
0.0
  3
*Paper_Space
  1

  0
ENDBLK
  5
1D
330
1B
100
AcDbEntity
 67
     1
  8
0
100
AcDbBlockEnd
  0
BLOCK
  5
24
330
23
100
AcDbEntity
  8
0
100
AcDbBlockBegin
  2
*Paper_Space0
 70
     0
 71
     0
 10
0.0
 20
0.0
 30
0.0
  3
*Paper_Space0
  1

  0
ENDBLK
  5
25
330
23
100
AcDbEntity
  8
0
100
AcDbBlockEnd
  0
BLOCK
  5
67
330
66
100
AcDbEntity
  8
0
100
AcDbBlockBegin
  2
SW_NOTE_0
 70
     0
 71
     0
 10
0.0
 20
0.0
 30
0.0
  3
SW_NOTE_0
  1

  0
MTEXT
  5
6A
330
66
100
AcDbEntity
  8
0
  6
Continuous
 62
     0
370
     0
100
AcDbMText
 10
0.0
 20
0.076640625
 30
0.0
 40
0.06
 41
0.0
 71
     1
 72
     1
  1
THE INFORMATION CONTAINED IN THIS
  7
SLDTEXTSTYLE4
 73
     1
 44
1.0
  0
MTEXT
  5
6C
330
66
100
AcDbEntity
  8
0
  6
Continuous
 62
     0
370
     0
100
AcDbMText
 10
0.0
 20
-0.0227294496
 30
0.0
 40
0.06
 41
0.0
 71
     1
 72
     1
  1
DRAWING IS THE SOLE PROPERTY OF
  7
SLDTEXTSTYLE5
 73
     1
 44
1.0
  0
MTEXT
  5
6E
330
66
100
AcDbEntity
  8
0
  6
Continuous
 62
     0
370
     0
100
AcDbMText
 10
0.0
 20
-0.1220995241
 30
0.0
 40
0.06
 41
0.0
 71
     1
 72
     1
  1
THORLABS, INC.  ANY REPRODUCTION 
  7
SLDTEXTSTYLE6
 73
     1
 44
1.0
  0
MTEXT
  5
70
330
66
100
AcDbEntity
  8
0
  6
Continuous
 62
     0
370
     0
100
AcDbMText
 10
0.0
 20
-0.2214695987
 30
0.0
 40
0.06
 41
0.0
 71
     1
 72
     1
  1
IN PART OR AS A WHOLE WITHOUT
  7
SLDTEXTSTYLE7
 73
     1
 44
1.0
  0
MTEXT
  5
72
330
66
100
AcDbEntity
  8
0
  6
Continuous
 62
     0
370
     0
100
AcDbMText
 10
0.0
 20
-0.3208396733
 30
0.0
 40
0.06
 41
0.0
 71
     1
 72
     1
  1
THE WRITTEN PERMISSION OF
  7
SLDTEXTSTYLE8
 73
     1
 44
1.0
  0
MTEXT
  5
74
330
66
100
AcDbEntity
  8
0
  6
Continuous
 62
     0
370
     0
100
AcDbMText
 10
0.0
 20
-0.4202097478
 30
0.0
 40
0.06
 41
0.0
 71
     1
 72
     1
  1
THORLABS, INC. IS PROHIBITED.
  7
SLDTEXTSTYLE9
 73
     1
 44
1.0
  0
ENDBLK
  5
68
330
66
100
AcDbEntity
  8
0
100
AcDbBlockEnd
  0
BLOCK
  5
80
330
7F
100
AcDbEntity
  8
0
100
AcDbBlockBegin
  2
SW_NOTE_1
 70
     0
 71
     0
 10
0.0
 20
0.0
 30
0.0
  3
SW_NOTE_1
  1

  0
MTEXT
  5
83
330
7F
100
AcDbEntity
  8
0
  6
Continuous
 62
     0
370
     0
100
AcDbMText
 10
0.0
 20
0.1149609375
 30
0.0
 40
0.09
 41
0.0
 71
     1
 72
     1
  1
PO BOX 366
  7
SLDTEXTSTYLE10
 73
     1
 44
1.0
  0
MTEXT
  5
84
330
7F
100
AcDbEntity
  8
0
  6
Continuous
 62
     0
370
     0
100
AcDbMText
 10
0.0
 20
-0.0144091455
 30
0.0
 40
0.09
 41
0.0
 71
     1
 72
     1
  1
NEWTON NJ
  7
SLDTEXTSTYLE0
 73
     1
 44
1.0
  0
ENDBLK
  5
81
330
7F
100
AcDbEntity
  8
0
100
AcDbBlockEnd
  0
BLOCK
  5
87
330
86
100
AcDbEntity
  8
0
100
AcDbBlockBegin
  2
SW_NOTE_2
 70
     0
 71
     0
 10
0.0
 20
0.0
 30
0.0
  3
SW_NOTE_2
  1

  0
MTEXT
  5
8A
330
86
100
AcDbEntity
  8
0
  6
Continuous
 62
     0
370
     0
100
AcDbMText
 10
0.0
 20
0.1596679688
 30
0.0
 40
0.125
 41
0.0
 71
     1
 72
     1
  1
Matched Achromatic Pair
  7
SLDTEXTSTYLE11
 73
     1
 44
1.0
  0
MTEXT
  5
8B
330
86
100
AcDbEntity
  8
0
  6
Continuous
 62
     0
370
     0
100
AcDbMText
 10
0.0
 20
-0.0069986959
 30
0.0
 40
0.125
 41
0.0
 71
     1
 72
     1
  1
F1=75mm, F2=75mm
  7
SLDTEXTSTYLE0
 73
     1
 44
1.0
  0
ENDBLK
  5
88
330
86
100
AcDbEntity
  8
0
100
AcDbBlockEnd
  0
BLOCK
  5
8F
330
8E
100
AcDbEntity
  8
0
100
AcDbBlockBegin
  2
SW_NOTE_3
 70
     0
 71
     0
 10
0.0
 20
0.0
 30
0.0
  3
SW_NOTE_3
  1

  0
MTEXT
  5
91
330
8E
100
AcDbEntity
  8
0
  6
Continuous
 62
     0
370
     0
100
AcDbMText
 10
0.0
 20
0.1149609375
 30
0.0
 40
0.09
 41
0.0
 71
     1
 72
     1
  1
NOTE:
  7
SLDTEXTSTYLE0
 73
     1
 44
1.0
  0
MTEXT
  5
93
330
8E
100
AcDbEntity
  8
0
  6
Continuous
 62
     0
370
     0
100
AcDbMText
 10
0.0
 20
-0.0144091455
 30
0.0
 40
0.09
 41
0.0
 71
     1
 72
     1
  1
FOR INFORMATION ONLY.  NOT INTENDED FOR MANUFACTURING.
  7
SLDTEXTSTYLE12
 73
     1
 44
1.0
  0
ENDBLK
  5
90
330
8E
100
AcDbEntity
  8
0
100
AcDbBlockEnd
  0
BLOCK
  5
97
330
96
100
AcDbEntity
  8
0
100
AcDbBlockBegin
  2
SW_NOTE_4
 70
     0
 71
     0
 10
0.0
 20
0.0
 30
0.0
  3
SW_NOTE_4
  1

  0
LINE
  5
99
330
96
100
AcDbEntity
  8
0
  6
Continuous
 62
     0
370
     0
100
AcDbLine
 10
1.0817708433
 20
-0.6526041506
 30
0.0
 11
1.4039930543
 21
-0.6526041506
 31
0.0
  0
MTEXT
  5
9B
330
96
100
AcDbEntity
  8
0
  6
Continuous
 62
     0
370
     0
100
AcDbMText
 10
0.0
 20
0.1197509766
 30
0.0
 40
0.09375
 41
0.0
 71
     1
 72
     1
  1
DESIGN WAVELENGTH:  486.1, 587.6 & 656.3nm
  7
SLDTEXTSTYLE13
 73
     1
 44
1.0
  0
MTEXT
  5
9D
330
96
100
AcDbEntity
  8
0
  6
Continuous
 62
     0
370
     0
100
AcDbMText
 10
0.0
 20
-0.0052490219
 30
0.0
 40
0.09375
 41
0.0
 71
     1
 72
     1
  1
COATING:  BBAR 400-700nm
  7
SLDTEXTSTYLE14
 73
     1
 44
1.0
  0
MTEXT
  5
9F
330
96
100
AcDbEntity
  8
0
  6
Continuous
 62
     0
370
     0
100
AcDbMText
 10
0.0
 20
-0.1302490204
 30
0.0
 40
0.09375
 41
0.0
 71
     1
 72
     1
  1
COATING RANGE: R(AVG)<0.5% FROM 400-700nm
  7
SLDTEXTSTYLE15
 73
     1
 44
1.0
  0
MTEXT
  5
A0
330
96
100
AcDbEntity
  8
0
  6
Continuous
 62
     0
370
     0
100
AcDbMText
 10
0.0
 20
-0.2552490189
 30
0.0
 40
0.09375
 41
0.0
 71
     1
 72
     1
  1
MAGNIFICATION: 1:1
  7
SLDTEXTSTYLE0
 73
     1
 44
1.0
  0
MTEXT
  5
A2
330
96
100
AcDbEntity
  8
0
  6
Continuous
 62
     0
370
     0
100
AcDbMText
 10
0.0
 20
-0.6091552547
 30
0.0
 40
0.09375
 41
0.0
 71
     1
 72
     1
  1
Dimensions are in 
  7
SLDTEXTSTYLE16
 73
     1
 44
1.0
  0
MTEXT
  5
A3
330
96
100
AcDbEntity
  8
0
  6
Continuous
 62
     0
370
     0
100
AcDbMText
 10
1.0817708433
 20
-0.5052490159
 30
0.0
 40
0.09375
 41
0.0
 71
     1
 72
     1
  1
[mm]
  7
SLDTEXTSTYLE0
 73
     1
 44
1.0
  0
MTEXT
  5
A4
330
96
100
AcDbEntity
  8
0
  6
Continuous
 62
     0
370
     0
100
AcDbMText
 10
1.1922743109
 20
-0.6854573399
 30
0.0
 40
0.09375
 41
0.0
 71
     1
 72
     1
  1
in
  7
SLDTEXTSTYLE0
 73
     1
 44
1.0
  0
ENDBLK
  5
98
330
96
100
AcDbEntity
  8
0
100
AcDbBlockEnd
  0
BLOCK
  5
A7
330
A6
100
AcDbEntity
  8
0
100
AcDbBlockBegin
  2
SW_TABLEANNOTATION_0
 70
     0
 71
     0
 10
0.0
 20
0.0
 30
0.0
  3
SW_TABLEANNOTATION_0
  1

  0
LINE
  5
A9
330
A6
100
AcDbEntity
  8
0
  6
Continuous
 62
     0
370
     0
100
AcDbLine
 10
0.0
 20
0.0
 30
0.0
 11
0.0
 21
-0.6229803075
 31
0.0
  0
LINE
  5
AA
330
A6
100
AcDbEntity
  8
0
  6
Continuous
 62
     0
370
     0
100
AcDbLine
 10
0.0
 20
-0.6229803075
 30
0.0
 11
3.4645866928
 21
-0.6229803075
 31
0.0
  0
LINE
  5
AB
330
A6
100
AcDbEntity
  8
0
  6
Continuous
 62
     0
370
     0
100
AcDbLine
 10
3.4645866928
 20
-0.6229803075
 30
0.0
 11
3.4645866928
 21
0.0
 31
0.0
  0
LINE
  5
AC
330
A6
100
AcDbEntity
  8
0
  6
Continuous
 62
     0
370
     0
100
AcDbLine
 10
3.4645866928
 20
0.0
 30
0.0
 11
0.0
 21
0.0
 31
0.0
  0
LINE
  5
AD
330
A6
100
AcDbEntity
  8
0
  6
Continuous
 62
     0
370
     0
100
AcDbLine
 10
1.1548622309
 20
0.0
 30
0.0
 11
1.1548622309
 21
-0.6229803075
 31
0.0
  0
LINE
  5
AE
330
A6
100
AcDbEntity
  8
0
  6
Continuous
 62
     0
370
     0
100
AcDbLine
 10
2.3097244619
 20
0.0
 30
0.0
 11
2.3097244619
 21
-0.6229803075
 31
0.0
  0
LINE
  5
AF
330
A6
100
AcDbEntity
  8
0
  6
Continuous
 62
     0
370
     0
100
AcDbLine
 10
0.0
 20
-0.1557450769
 30
0.0
 11
3.4645866928
 21
-0.1557450769
 31
0.0
  0
LINE
  5
B0
330
A6
100
AcDbEntity
  8
0
  6
Continuous
 62
     0
370
     0
100
AcDbLine
 10
0.0
 20
-0.3114901537
 30
0.0
 11
3.4645866928
 21
-0.3114901537
 31
0.0
  0
LINE
  5
B1
330
A6
100
AcDbEntity
  8
0
  6
Continuous
 62
     0
370
     0
100
AcDbLine
 10
0.0
 20
-0.4672352306
 30
0.0
 11
3.4645866928
 21
-0.4672352306
 31
0.0
  0
MTEXT
  5
B2
330
A6
100
AcDbEntity
  8
0
  6
Continuous
 62
     0
370
     0
100
AcDbMText
 10
0.4355561111
 20
-0.0320134969
 30
0.0
 40
0.09
 41
0.0
 71
     1
 72
     1
  1
PART
  7
SLDTEXTSTYLE0
 73
     1
 44
1.0
  0
MTEXT
  5
B3
330
A6
100
AcDbEntity
  8
0
  6
Continuous
 62
     0
370
     0
100
AcDbMText
 10
1.4606683143
 20
-0.0320134969
 30
0.0
 40
0.09
 41
0.0
 71
     1
 72
     1
  1
PART NO.
  7
SLDTEXTSTYLE0
 73
     1
 44
1.0
  0
MTEXT
  5
B4
330
A6
100
AcDbEntity
  8
0
  6
Continuous
 62
     0
370
     0
100
AcDbMText
 10
2.6078430823
 20
-0.0320134969
 30
0.0
 40
0.09
 41
0.0
 71
     1
 72
     1
  1
MATERIAL
  7
SLDTEXTSTYLE0
 73
     1
 44
1.0
  0
MTEXT
  5
B5
330
A6
100
AcDbEntity
  8
0
  6
Continuous
 62
     0
370
     0
100
AcDbMText
 10
0.5330561156
 20
-0.1877585737
 30
0.0
 40
0.09
 41
0.0
 71
     1
 72
     1
  1
A
  7
SLDTEXTSTYLE0
 73
     1
 44
1.0
  0
MTEXT
  5
B6
330
A6
100
AcDbEntity
  8
0
  6
Continuous
 62
     0
370
     0
100
AcDbMText
 10
1.3221683642
 20
-0.1877585737
 30
0.0
 40
0.09
 41
0.0
 71
     1
 72
     1
  1
AC254-075-A1
  7
SLDTEXTSTYLE0
 73
     1
 44
1.0
  0
MTEXT
  5
B7
330
A6
100
AcDbEntity
  8
0
  6
Continuous
 62
     0
370
     0
100
AcDbMText
 10
2.6719055723
 20
-0.1877585737
 30
0.0
 40
0.09
 41
0.0
 71
     1
 72
     1
  1
BK7-SF5
  7
SLDTEXTSTYLE0
 73
     1
 44
1.0
  0
MTEXT
  5
B8
330
A6
100
AcDbEntity
  8
0
  6
Continuous
 62
     0
370
     0
100
AcDbMText
 10
0.5429936162
 20
-0.3435036506
 30
0.0
 40
0.09
 41
0.0
 71
     1
 72
     1
  1
B
  7
SLDTEXTSTYLE0
 73
     1
 44
1.0
  0
MTEXT
  5
B9
330
A6
100
AcDbEntity
  8
0
  6
Continuous
 62
     0
370
     0
100
AcDbMText
 10
1.3650433389
 20
-0.3435036506
 30
0.0
 40
0.09
 41
0.0
 71
     1
 72
     1
  1
LENS MOUNT
  7
SLDTEXTSTYLE0
 73
     1
 44
1.0
  0
MTEXT
  5
BA
330
A6
100
AcDbEntity
  8
0
  6
Continuous
 62
     0
370
     0
100
AcDbMText
 10
2.3399055926
 20
-0.3435036506
 30
0.0
 40
0.09
 41
0.0
 71
     1
 72
     1
  1
6061-T6 ALUMINUM
  7
SLDTEXTSTYLE0
 73
     1
 44
1.0
  0
MTEXT
  5
BB
330
A6
100
AcDbEntity
  8
0
  6
Continuous
 62
     0
370
     0
100
AcDbMText
 10
0.5286811132
 20
-0.4992487275
 30
0.0
 40
0.09
 41
0.0
 71
     1
 72
     1
  1
C
  7
SLDTEXTSTYLE0
 73
     1
 44
1.0
  0
MTEXT
  5
BC
330
A6
100
AcDbEntity
  8
0
  6
Continuous
 62
     0
370
     0
100
AcDbMText
 10
1.541168336
 20
-0.4992487275
 30
0.0
 40
0.09
 41
0.0
 71
     1
 72
     1
  1
SM1RR
  7
SLDTEXTSTYLE0
 73
     1
 44
1.0
  0
MTEXT
  5
BD
330
A6
100
AcDbEntity
  8
0
  6
Continuous
 62
     0
370
     0
100
AcDbMText
 10
2.3399055926
 20
-0.4992487275
 30
0.0
 40
0.09
 41
0.0
 71
     1
 72
     1
  1
6061-T6 ALUMINUM
  7
SLDTEXTSTYLE0
 73
     1
 44
1.0
  0
ENDBLK
  5
A8
330
A6
100
AcDbEntity
  8
0
100
AcDbBlockEnd
  0
BLOCK
  5
D4
330
D3
100
AcDbEntity
  8
0
100
AcDbBlockBegin
  2
*D7
 70
     1
 71
     0
 10
0.0
 20
0.0
 30
0.0
  3
*D7
  1

  0
SOLID
  5
D6
330
D3
100
AcDbEntity
  8
0
  6
Continuous
 62
     7
370
     0
100
AcDbTrace
 10
1.3151563534
 20
4.8280071955
 30
0.0
 11
1.2200532573
 21
4.959275627
 31
0.0
 12
1.1833819997
 22
4.9224080413
 32
0.0
 13
1.1833819997
 23
4.9224080413
 33
0.0
  0
LINE
  5
D7
330
D3
100
AcDbEntity
  8
0
  6
Continuous
 62
     7
370
     0
100
AcDbLine
 10
0.4492355489
 20
5.1531383791
 30
0.0
 11
0.4492355489
 21
5.0317921145
 31
0.0
  0
LINE
  5
D8
330
D3
100
AcDbEntity
  8
0
  6
Continuous
 62
     7
370
     0
100
AcDbLine
 10
0.4492355489
 20
5.0317921145
 30
0.0
 11
0.467498973
 21
5.0317921145
 31
0.0
  0
LINE
  5
D9
330
D3
100
AcDbEntity
  8
0
  6
Continuous
 62
     7
370
     0
100
AcDbLine
 10
0.4492355489
 20
5.1531383791
 30
0.0
 11
0.467498973
 21
5.1531383791
 31
0.0
  0
LINE
  5
DA
330
D3
100
AcDbEntity
  8
0
  6
Continuous
 62
     7
370
     0
100
AcDbLine
 10
0.754984187
 20
5.1531383791
 30
0.0
 11
0.754984187
 21
5.0317921145
 31
0.0
  0
LINE
  5
DB
330
D3
100
AcDbEntity
  8
0
  6
Continuous
 62
     7
370
     0
100
AcDbLine
 10
0.754984187
 20
5.0317921145
 30
0.0
 11
0.7367207629
 21
5.0317921145
 31
0.0
  0
LINE
  5
DC
330
D3
100
AcDbEntity
  8
0
  6
Continuous
 62
     7
370
     0
100
AcDbLine
 10
0.754984187
 20
5.1531383791
 30
0.0
 11
0.7367207629
 21
5.1531383791
 31
0.0
  0
LINE
  5
DD
330
D3
100
AcDbEntity
  8
0
  6
Continuous
 62
     7
370
     0
100
AcDbLine
 10
1.3151563534
 20
4.8280071955
 30
0.0
 11
1.1210447707
 21
5.0210850911
 31
0.0
  0
LINE
  5
DE
330
D3
100
AcDbEntity
  8
0
  6
Continuous
 62
     7
370
     0
100
AcDbLine
 10
1.1210447707
 20
5.0210850911
 30
0.0
 11
0.8710447707
 21
5.0210850911
 31
0.0
  0
MTEXT
  5
DF
330
D3
100
AcDbEntity
  8
0
  6
Continuous
 62
     7
370
     0
100
AcDbMText
 10
0.3882677279
 20
4.9932857173
 30
0.0
 40
0.09
 41
0.0
 71
     1
 72
     1
  1
%%c
  7
SLDTEXTSTYLE0
 73
     1
 44
1.0
  0
MTEXT
  5
E0
330
D3
100
AcDbEntity
  8
0
  6
Continuous
 62
     7
370
     0
100
AcDbMText
 10
0.516752008
 20
4.9932857242
 30
0.0
 40
0.09
 41
0.0
 71
     1
 72
     1
  1
1.200
  7
SLDTEXTSTYLE0
 73
     1
 44
1.0
  0
MTEXT
  5
E1
330
D3
100
AcDbEntity
  8
0
  6
Continuous
 62
     7
370
     0
100
AcDbMText
 10
0.4857623971
 20
5.1360460355
 30
0.0
 40
0.09
 41
0.0
 71
     1
 72
     1
  1
30.5
  7
SLDTEXTSTYLE0
 73
     1
 44
1.0
  0
ENDBLK
  5
D5
330
D3
100
AcDbEntity
  8
0
100
AcDbBlockEnd
  0
BLOCK
  5
38A
330
389
100
AcDbEntity
  8
0
100
AcDbBlockBegin
  2
*D8
 70
     1
 71
     0
 10
0.0
 20
0.0
 30
0.0
  3
*D8
  1

  0
SOLID
  5
38C
330
389
100
AcDbEntity
  8
0
  6
Continuous
 62
     7
370
     0
100
AcDbTrace
 10
3.4993818482
 20
3.0375510887
 30
0.0
 11
3.6593818482
 21
3.0115510887
 31
0.0
 12
3.6593818482
 22
3.0635510887
 32
0.0
 13
3.6593818482
 23
3.0635510887
 33
0.0
  0
SOLID
  5
38D
330
389
100
AcDbEntity
  8
0
  6
Continuous
 62
     7
370
     0
100
AcDbTrace
 10
6.0694605883
 20
3.0375510887
 30
0.0
 11
5.9094605883
 21
3.0635510887
 31
0.0
 12
5.9094605883
 22
3.0115510887
 32
0.0
 13
5.9094605883
 23
3.0115510887
 33
0.0
  0
LINE
  5
38E
330
389
100
AcDbEntity
  8
0
  6
Continuous
 62
     7
370
     0
100
AcDbLine
 10
4.7126207672
 20
3.1696043766
 30
0.0
 11
4.7126207672
 21
3.048258112
 31
0.0
  0
LINE
  5
38F
330
389
100
AcDbEntity
  8
0
  6
Continuous
 62
     7
370
     0
100
AcDbLine
 10
4.7126207672
 20
3.048258112
 30
0.0
 11
4.7308841914
 21
3.048258112
 31
0.0
  0
LINE
  5
390
330
389
100
AcDbEntity
  8
0
  6
Continuous
 62
     7
370
     0
100
AcDbLine
 10
4.7126207672
 20
3.1696043766
 30
0.0
 11
4.7308841914
 21
3.1696043766
 31
0.0
  0
LINE
  5
391
330
389
100
AcDbEntity
  8
0
  6
Continuous
 62
     7
370
     0
100
AcDbLine
 10
5.0183694054
 20
3.1696043766
 30
0.0
 11
5.0183694054
 21
3.048258112
 31
0.0
  0
LINE
  5
392
330
389
100
AcDbEntity
  8
0
  6
Continuous
 62
     7
370
     0
100
AcDbLine
 10
5.0183694054
 20
3.048258112
 30
0.0
 11
5.0001059812
 21
3.048258112
 31
0.0
  0
LINE
  5
393
330
389
100
AcDbEntity
  8
0
  6
Continuous
 62
     7
370
     0
100
AcDbLine
 10
5.0183694054
 20
3.1696043766
 30
0.0
 11
5.0001059812
 21
3.1696043766
 31
0.0
  0
LINE
  5
394
330
389
100
AcDbEntity
  8
0
  6
Continuous
 62
     7
370
     0
100
AcDbLine
 10
3.4993818482
 20
4.3548773006
 30
0.0
 11
3.4993818482
 21
2.9125510887
 31
0.0
  0
LINE
  5
395
330
389
100
AcDbEntity
  8
0
  6
Continuous
 62
     7
370
     0
100
AcDbLine
 10
6.0694605883
 20
3.7648773006
 30
0.0
 11
6.0694605883
 21
2.9125510887
 31
0.0
  0
LINE
  5
396
330
389
100
AcDbEntity
  8
0
  6
Continuous
 62
     7
370
     0
100
AcDbLine
 10
3.4993818482
 20
3.0375510887
 30
0.0
 11
4.5953304949
 21
3.0375510887
 31
0.0
  0
LINE
  5
397
330
389
100
AcDbEntity
  8
0
  6
Continuous
 62
     7
370
     0
100
AcDbLine
 10
6.0694605883
 20
3.0375510887
 30
0.0
 11
5.1356596777
 21
3.0375510887
 31
0.0
  0
MTEXT
  5
398
330
389
100
AcDbEntity
  8
0
  6
Continuous
 62
     7
370
     0
100
AcDbMText
 10
4.7158950863
 20
3.0097517218
 30
0.0
 40
0.09
 41
0.0
 71
     1
 72
     1
  1
2.570
  7
SLDTEXTSTYLE0
 73
     1
 44
1.0
  0
MTEXT
  5
399
330
389
100
AcDbEntity
  8
0
  6
Continuous
 62
     7
370
     0
100
AcDbMText
 10
4.7491476155
 20
3.1525120331
 30
0.0
 40
0.09
 41
0.0
 71
     1
 72
     1
  1
65.3
  7
SLDTEXTSTYLE0
 73
     1
 44
1.0
  0
ENDBLK
  5
38B
330
389
100
AcDbEntity
  8
0
100
AcDbBlockEnd
  0
BLOCK
  5
39D
330
39C
100
AcDbEntity
  8
0
100
AcDbBlockBegin
  2
*D9
 70
     1
 71
     0
 10
0.0
 20
0.0
 30
0.0
  3
*D9
  1

  0
SOLID
  5
39F
330
39C
100
AcDbEntity
  8
0
  6
Continuous
 62
     7
370
     0
100
AcDbTrace
 10
10.0345393285
 20
3.0375510887
 30
0.0
 11
9.8745393285
 21
3.0635510887
 31
0.0
 12
9.8745393285
 22
3.0115510887
 32
0.0
 13
9.8745393285
 23
3.0115510887
 33
0.0
  0
SOLID
  5
3A0
330
39C
100
AcDbEntity
  8
0
  6
Continuous
 62
     7
370
     0
100
AcDbTrace
 10
7.4594605883
 20
3.0375510887
 30
0.0
 11
7.6194605883
 21
3.0115510887
 31
0.0
 12
7.6194605883
 22
3.0635510887
 32
0.0
 13
7.6194605883
 23
3.0635510887
 33
0.0
  0
LINE
  5
3A1
330
39C
100
AcDbEntity
  8
0
  6
Continuous
 62
     7
370
     0
100
AcDbLine
 10
8.7659977081
 20
3.1696043766
 30
0.0
 11
8.7659977081
 21
3.048258112
 31
0.0
  0
LINE
  5
3A2
330
39C
100
AcDbEntity
  8
0
  6
Continuous
 62
     7
370
     0
100
AcDbLine
 10
8.7659977081
 20
3.048258112
 30
0.0
 11
8.7842611322
 21
3.048258112
 31
0.0
  0
LINE
  5
3A3
330
39C
100
AcDbEntity
  8
0
  6
Continuous
 62
     7
370
     0
100
AcDbLine
 10
8.7659977081
 20
3.1696043766
 30
0.0
 11
8.7842611322
 21
3.1696043766
 31
0.0
  0
LINE
  5
3A4
330
39C
100
AcDbEntity
  8
0
  6
Continuous
 62
     7
370
     0
100
AcDbLine
 10
9.0717463462
 20
3.1696043766
 30
0.0
 11
9.0717463462
 21
3.048258112
 31
0.0
  0
LINE
  5
3A5
330
39C
100
AcDbEntity
  8
0
  6
Continuous
 62
     7
370
     0
100
AcDbLine
 10
9.0717463462
 20
3.048258112
 30
0.0
 11
9.0534829221
 21
3.048258112
 31
0.0
  0
LINE
  5
3A6
330
39C
100
AcDbEntity
  8
0
  6
Continuous
 62
     7
370
     0
100
AcDbLine
 10
9.0717463462
 20
3.1696043766
 30
0.0
 11
9.0534829221
 21
3.1696043766
 31
0.0
  0
LINE
  5
3A7
330
39C
100
AcDbEntity
  8
0
  6
Continuous
 62
     7
370
     0
100
AcDbLine
 10
10.0345393285
 20
4.3548773006
 30
0.0
 11
10.0345393285
 21
2.9125510887
 31
0.0
  0
LINE
  5
3A8
330
39C
100
AcDbEntity
  8
0
  6
Continuous
 62
     7
370
     0
100
AcDbLine
 10
7.4594605883
 20
3.7648773006
 30
0.0
 11
7.4594605883
 21
2.9125510887
 31
0.0
  0
LINE
  5
3A9
330
39C
100
AcDbEntity
  8
0
  6
Continuous
 62
     7
370
     0
100
AcDbLine
 10
10.0345393285
 20
3.0375510887
 30
0.0
 11
9.1890366186
 21
3.0375510887
 31
0.0
  0
LINE
  5
3AA
330
39C
100
AcDbEntity
  8
0
  6
Continuous
 62
     7
370
     0
100
AcDbLine
 10
7.4594605883
 20
3.0375510887
 30
0.0
 11
8.6487074357
 21
3.0375510887
 31
0.0
  0
MTEXT
  5
3AB
330
39C
100
AcDbEntity
  8
0
  6
Continuous
 62
     7
370
     0
100
AcDbMText
 10
8.7692720271
 20
3.0097517218
 30
0.0
 40
0.09
 41
0.0
 71
     1
 72
     1
  1
2.575
  7
SLDTEXTSTYLE0
 73
     1
 44
1.0
  0
MTEXT
  5
3AC
330
39C
100
AcDbEntity
  8
0
  6
Continuous
 62
     7
370
     0
100
AcDbMText
 10
8.8025245563
 20
3.1525120331
 30
0.0
 40
0.09
 41
0.0
 71
     1
 72
     1
  1
65.4
  7
SLDTEXTSTYLE0
 73
     1
 44
1.0
  0
ENDBLK
  5
39E
330
39C
100
AcDbEntity
  8
0
100
AcDbBlockEnd
  0
BLOCK
  5
3AF
330
3AE
100
AcDbEntity
  8
0
100
AcDbBlockBegin
  2
*D10
 70
     1
 71
     0
 10
0.0
 20
0.0
 30
0.0
  3
*D10
  1

  0
SOLID
  5
3B1
330
3AE
100
AcDbEntity
  8
0
  6
Continuous
 62
     7
370
     0
100
AcDbTrace
 10
3.4993818482
 20
5.1431210593
 30
0.0
 11
3.6593818482
 21
5.1171210593
 31
0.0
 12
3.6593818482
 22
5.1691210593
 32
0.0
 13
3.6593818482
 23
5.1691210593
 33
0.0
  0
SOLID
  5
3B2
330
3AE
100
AcDbEntity
  8
0
  6
Continuous
 62
     7
370
     0
100
AcDbTrace
 10
6.2684396392
 20
5.1431210593
 30
0.0
 11
6.1084396392
 21
5.1691210593
 31
0.0
 12
6.1084396392
 22
5.1171210593
 32
0.0
 13
6.1084396392
 23
5.1171210593
 33
0.0
  0
LINE
  5
3B3
330
3AE
100
AcDbEntity
  8
0
  6
Continuous
 62
     7
370
     0
100
AcDbLine
 10
4.5780035921
 20
5.2751743472
 30
0.0
 11
4.5780035921
 21
5.1538280826
 31
0.0
  0
LINE
  5
3B4
330
3AE
100
AcDbEntity
  8
0
  6
Continuous
 62
     7
370
     0
100
AcDbLine
 10
4.5780035921
 20
5.1538280826
 30
0.0
 11
4.5962670162
 21
5.1538280826
 31
0.0
  0
LINE
  5
3B5
330
3AE
100
AcDbEntity
  8
0
  6
Continuous
 62
     7
370
     0
100
AcDbLine
 10
4.5780035921
 20
5.2751743472
 30
0.0
 11
4.5962670162
 21
5.2751743472
 31
0.0
  0
LINE
  5
3B6
330
3AE
100
AcDbEntity
  8
0
  6
Continuous
 62
     7
370
     0
100
AcDbLine
 10
4.8837522302
 20
5.2751743472
 30
0.0
 11
4.8837522302
 21
5.1538280826
 31
0.0
  0
LINE
  5
3B7
330
3AE
100
AcDbEntity
  8
0
  6
Continuous
 62
     7
370
     0
100
AcDbLine
 10
4.8837522302
 20
5.1538280826
 30
0.0
 11
4.8654888061
 21
5.1538280826
 31
0.0
  0
LINE
  5
3B8
330
3AE
100
AcDbEntity
  8
0
  6
Continuous
 62
     7
370
     0
100
AcDbLine
 10
4.8837522302
 20
5.2751743472
 30
0.0
 11
4.8654888061
 21
5.2751743472
 31
0.0
  0
LINE
  5
3B9
330
3AE
100
AcDbEntity
  8
0
  6
Continuous
 62
     7
370
     0
100
AcDbLine
 10
3.4993818482
 20
4.4548773006
 30
0.0
 11
3.4993818482
 21
5.2681210593
 31
0.0
  0
LINE
  5
3BA
330
3AE
100
AcDbEntity
  8
0
  6
Continuous
 62
     7
370
     0
100
AcDbLine
 10
6.2684396392
 20
4.4548773006
 30
0.0
 11
6.2684396392
 21
5.2681210593
 31
0.0
  0
LINE
  5
3BB
330
3AE
100
AcDbEntity
  8
0
  6
Continuous
 62
     7
370
     0
100
AcDbLine
 10
3.4993818482
 20
5.1431210593
 30
0.0
 11
4.4607133197
 21
5.1431210593
 31
0.0
  0
LINE
  5
3BC
330
3AE
100
AcDbEntity
  8
0
  6
Continuous
 62
     7
370
     0
100
AcDbLine
 10
6.2684396392
 20
5.1431210593
 30
0.0
 11
5.0010425026
 21
5.1431210593
 31
0.0
  0
MTEXT
  5
3BD
330
3AE
100
AcDbEntity
  8
0
  6
Continuous
 62
     7
370
     0
100
AcDbMText
 10
4.5812779111
 20
5.1153216924
 30
0.0
 40
0.09
 41
0.0
 71
     1
 72
     1
  1
2.769
  7
SLDTEXTSTYLE0
 73
     1
 44
1.0
  0
MTEXT
  5
3BE
330
3AE
100
AcDbEntity
  8
0
  6
Continuous
 62
     7
370
     0
100
AcDbMText
 10
4.6145304403
 20
5.2580820037
 30
0.0
 40
0.09
 41
0.0
 71
     1
 72
     1
  1
70.3
  7
SLDTEXTSTYLE0
 73
     1
 44
1.0
  0
ENDBLK
  5
3B0
330
3AE
100
AcDbEntity
  8
0
100
AcDbBlockEnd
  0
BLOCK
  5
3C1
330
3C0
100
AcDbEntity
  8
0
100
AcDbBlockBegin
  2
*D11
 70
     1
 71
     0
 10
0.0
 20
0.0
 30
0.0
  3
*D11
  1

  0
SOLID
  5
3C3
330
3C0
100
AcDbEntity
  8
0
  6
Continuous
 62
     7
370
     0
100
AcDbTrace
 10
10.0345393285
 20
5.115469791
 30
0.0
 11
9.8745393285
 21
5.141469791
 31
0.0
 12
9.8745393285
 22
5.089469791
 32
0.0
 13
9.8745393285
 23
5.089469791
 33
0.0
  0
SOLID
  5
3C4
330
3C0
100
AcDbEntity
  8
0
  6
Continuous
 62
     7
370
     0
100
AcDbTrace
 10
7.2555790525
 20
5.115469791
 30
0.0
 11
7.4155790525
 21
5.089469791
 31
0.0
 12
7.4155790525
 22
5.141469791
 32
0.0
 13
7.4155790525
 23
5.141469791
 33
0.0
  0
LINE
  5
3C5
330
3C0
100
AcDbEntity
  8
0
  6
Continuous
 62
     7
370
     0
100
AcDbLine
 10
8.6451689464
 20
5.2475230789
 30
0.0
 11
8.6451689464
 21
5.1261768143
 31
0.0
  0
LINE
  5
3C6
330
3C0
100
AcDbEntity
  8
0
  6
Continuous
 62
     7
370
     0
100
AcDbLine
 10
8.6451689464
 20
5.1261768143
 30
0.0
 11
8.6634323705
 21
5.1261768143
 31
0.0
  0
LINE
  5
3C7
330
3C0
100
AcDbEntity
  8
0
  6
Continuous
 62
     7
370
     0
100
AcDbLine
 10
8.6451689464
 20
5.2475230789
 30
0.0
 11
8.6634323705
 21
5.2475230789
 31
0.0
  0
LINE
  5
3C8
330
3C0
100
AcDbEntity
  8
0
  6
Continuous
 62
     7
370
     0
100
AcDbLine
 10
8.9509175845
 20
5.2475230789
 30
0.0
 11
8.9509175845
 21
5.1261768143
 31
0.0
  0
LINE
  5
3C9
330
3C0
100
AcDbEntity
  8
0
  6
Continuous
 62
     7
370
     0
100
AcDbLine
 10
8.9509175845
 20
5.1261768143
 30
0.0
 11
8.9326541604
 21
5.1261768143
 31
0.0
  0
LINE
  5
3CA
330
3C0
100
AcDbEntity
  8
0
  6
Continuous
 62
     7
370
     0
100
AcDbLine
 10
8.9509175845
 20
5.2475230789
 30
0.0
 11
8.9326541604
 21
5.2475230789
 31
0.0
  0
LINE
  5
3CB
330
3C0
100
AcDbEntity
  8
0
  6
Continuous
 62
     7
370
     0
100
AcDbLine
 10
10.0345393285
 20
4.4548773006
 30
0.0
 11
10.0345393285
 21
5.240469791
 31
0.0
  0
LINE
  5
3CC
330
3C0
100
AcDbEntity
  8
0
  6
Continuous
 62
     7
370
     0
100
AcDbLine
 10
7.2555790525
 20
4.4548773006
 30
0.0
 11
7.2555790525
 21
5.240469791
 31
0.0
  0
LINE
  5
3CD
330
3C0
100
AcDbEntity
  8
0
  6
Continuous
 62
     7
370
     0
100
AcDbLine
 10
10.0345393285
 20
5.115469791
 30
0.0
 11
9.0682078569
 21
5.115469791
 31
0.0
  0
LINE
  5
3CE
330
3C0
100
AcDbEntity
  8
0
  6
Continuous
 62
     7
370
     0
100
AcDbLine
 10
7.2555790525
 20
5.115469791
 30
0.0
 11
8.527878674
 21
5.115469791
 31
0.0
  0
MTEXT
  5
3CF
330
3C0
100
AcDbEntity
  8
0
  6
Continuous
 62
     7
370
     0
100
AcDbMText
 10
8.6484432655
 20
5.087670424
 30
0.0
 40
0.09
 41
0.0
 71
     1
 72
     1
  1
2.779
  7
SLDTEXTSTYLE0
 73
     1
 44
1.0
  0
MTEXT
  5
3D0
330
3C0
100
AcDbEntity
  8
0
  6
Continuous
 62
     7
370
     0
100
AcDbMText
 10
8.6816957947
 20
5.2304307353
 30
0.0
 40
0.09
 41
0.0
 71
     1
 72
     1
  1
70.6
  7
SLDTEXTSTYLE0
 73
     1
 44
1.0
  0
ENDBLK
  5
3C2
330
3C0
100
AcDbEntity
  8
0
100
AcDbBlockEnd
  0
BLOCK
  5
3D3
330
3D2
100
AcDbEntity
  8
0
100
AcDbBlockBegin
  2
*D12
 70
     1
 71
     0
 10
0.0
 20
0.0
 30
0.0
  3
*D12
  1

  0
SOLID
  5
3D5
330
3D2
100
AcDbEntity
  8
0
  6
Continuous
 62
     7
370
     0
100
AcDbTrace
 10
6.0694605883
 20
2.7047942698
 30
0.0
 11
6.2294605883
 21
2.6787942698
 31
0.0
 12
6.2294605883
 22
2.7307942698
 32
0.0
 13
6.2294605883
 23
2.7307942698
 33
0.0
  0
SOLID
  5
3D6
330
3D2
100
AcDbEntity
  8
0
  6
Continuous
 62
     7
370
     0
100
AcDbTrace
 10
7.4594605883
 20
2.7047942698
 30
0.0
 11
7.2994605883
 21
2.7307942698
 31
0.0
 12
7.2994605883
 22
2.6787942698
 32
0.0
 13
7.2994605883
 23
2.6787942698
 33
0.0
  0
LINE
  5
3D7
330
3D2
100
AcDbEntity
  8
0
  6
Continuous
 62
     7
370
     0
100
AcDbLine
 10
6.6115862692
 20
2.8368475577
 30
0.0
 11
6.6115862692
 21
2.7155012932
 31
0.0
  0
LINE
  5
3D8
330
3D2
100
AcDbEntity
  8
0
  6
Continuous
 62
     7
370
     0
100
AcDbLine
 10
6.6115862692
 20
2.7155012932
 30
0.0
 11
6.6298496934
 21
2.7155012932
 31
0.0
  0
LINE
  5
3D9
330
3D2
100
AcDbEntity
  8
0
  6
Continuous
 62
     7
370
     0
100
AcDbLine
 10
6.6115862692
 20
2.8368475577
 30
0.0
 11
6.6298496934
 21
2.8368475577
 31
0.0
  0
LINE
  5
3DA
330
3D2
100
AcDbEntity
  8
0
  6
Continuous
 62
     7
370
     0
100
AcDbLine
 10
6.9173349074
 20
2.8368475577
 30
0.0
 11
6.9173349074
 21
2.7155012932
 31
0.0
  0
LINE
  5
3DB
330
3D2
100
AcDbEntity
  8
0
  6
Continuous
 62
     7
370
     0
100
AcDbLine
 10
6.9173349074
 20
2.7155012932
 30
0.0
 11
6.8990714832
 21
2.7155012932
 31
0.0
  0
LINE
  5
3DC
330
3D2
100
AcDbEntity
  8
0
  6
Continuous
 62
     7
370
     0
100
AcDbLine
 10
6.9173349074
 20
2.8368475577
 30
0.0
 11
6.8990714832
 21
2.8368475577
 31
0.0
  0
LINE
  5
3DD
330
3D2
100
AcDbEntity
  8
0
  6
Continuous
 62
     7
370
     0
100
AcDbLine
 10
6.0694605883
 20
3.7648773006
 30
0.0
 11
6.0694605883
 21
2.5797942698
 31
0.0
  0
LINE
  5
3DE
330
3D2
100
AcDbEntity
  8
0
  6
Continuous
 62
     7
370
     0
100
AcDbLine
 10
7.4594605883
 20
3.7648773006
 30
0.0
 11
7.4594605883
 21
2.5797942698
 31
0.0
  0
LINE
  5
3DF
330
3D2
100
AcDbEntity
  8
0
  6
Continuous
 62
     7
370
     0
100
AcDbLine
 10
6.0694605883
 20
2.7047942698
 30
0.0
 11
6.4942959969
 21
2.7047942698
 31
0.0
  0
LINE
  5
3E0
330
3D2
100
AcDbEntity
  8
0
  6
Continuous
 62
     7
370
     0
100
AcDbLine
 10
7.4594605883
 20
2.7047942698
 30
0.0
 11
7.0346251797
 21
2.7047942698
 31
0.0
  0
MTEXT
  5
3E1
330
3D2
100
AcDbEntity
  8
0
  6
Continuous
 62
     7
370
     0
100
AcDbMText
 10
6.6148605883
 20
2.6769949029
 30
0.0
 40
0.09
 41
0.0
 71
     1
 72
     1
  1
1.390
  7
SLDTEXTSTYLE0
 73
     1
 44
1.0
  0
MTEXT
  5
3E2
330
3D2
100
AcDbEntity
  8
0
  6
Continuous
 62
     7
370
     0
100
AcDbMText
 10
6.6481131175
 20
2.8197552142
 30
0.0
 40
0.09
 41
0.0
 71
     1
 72
     1
  1
35.3
  7
SLDTEXTSTYLE0
 73
     1
 44
1.0
  0
ENDBLK
  5
3D4
330
3D2
100
AcDbEntity
  8
0
100
AcDbBlockEnd
  0
BLOCK
  5
3E6
330
3E5
100
AcDbEntity
  8
0
100
AcDbBlockBegin
  2
*D13
 70
     1
 71
     0
 10
0.0
 20
0.0
 30
0.0
  3
*D13
  1

  0
SOLID
  5
3E8
330
3E5
100
AcDbEntity
  8
0
  6
Continuous
 62
     7
370
     0
100
AcDbTrace
 10
6.6424553872
 20
3.518736573
 30
0.0
 11
6.4824553872
 21
3.544736573
 31
0.0
 12
6.4824553872
 22
3.492736573
 32
0.0
 13
6.4824553872
 23
3.492736573
 33
0.0
  0
SOLID
  5
3E9
330
3E5
100
AcDbEntity
  8
0
  6
Continuous
 62
     7
370
     0
100
AcDbTrace
 10
6.8815633044
 20
3.518736573
 30
0.0
 11
7.0415633044
 21
3.492736573
 31
0.0
 12
7.0415633044
 22
3.544736573
 32
0.0
 13
7.0415633044
 23
3.544736573
 33
0.0
  0
LINE
  5
3EA
330
3E5
100
AcDbEntity
  8
0
  6
Continuous
 62
     7
370
     0
100
AcDbLine
 10
7.1704151448
 20
3.650789861
 30
0.0
 11
7.1704151448
 21
3.5294435964
 31
0.0
  0
LINE
  5
3EB
330
3E5
100
AcDbEntity
  8
0
  6
Continuous
 62
     7
370
     0
100
AcDbLine
 10
7.1704151448
 20
3.5294435964
 30
0.0
 11
7.188678569
 21
3.5294435964
 31
0.0
  0
LINE
  5
3EC
330
3E5
100
AcDbEntity
  8
0
  6
Continuous
 62
     7
370
     0
100
AcDbLine
 10
7.1704151448
 20
3.650789861
 30
0.0
 11
7.188678569
 21
3.650789861
 31
0.0
  0
LINE
  5
3ED
330
3E5
100
AcDbEntity
  8
0
  6
Continuous
 62
     7
370
     0
100
AcDbLine
 10
7.4096587246
 20
3.650789861
 30
0.0
 11
7.4096587246
 21
3.5294435964
 31
0.0
  0
LINE
  5
3EE
330
3E5
100
AcDbEntity
  8
0
  6
Continuous
 62
     7
370
     0
100
AcDbLine
 10
7.4096587246
 20
3.5294435964
 30
0.0
 11
7.3913953005
 21
3.5294435964
 31
0.0
  0
LINE
  5
3EF
330
3E5
100
AcDbEntity
  8
0
  6
Continuous
 62
     7
370
     0
100
AcDbLine
 10
7.4096587246
 20
3.650789861
 30
0.0
 11
7.3913953005
 21
3.650789861
 31
0.0
  0
LINE
  5
3F0
330
3E5
100
AcDbEntity
  8
0
  6
Continuous
 62
     7
370
     0
100
AcDbLine
 10
6.6424553872
 20
4.3548773006
 30
0.0
 11
6.6424553872
 21
3.393736573
 31
0.0
  0
LINE
  5
3F1
330
3E5
100
AcDbEntity
  8
0
  6
Continuous
 62
     7
370
     0
100
AcDbLine
 10
6.8815633044
 20
4.3548773006
 30
0.0
 11
6.8815633044
 21
3.393736573
 31
0.0
  0
LINE
  5
3F2
330
3E5
100
AcDbEntity
  8
0
  6
Continuous
 62
     7
370
     0
100
AcDbLine
 10
6.6424553872
 20
3.518736573
 30
0.0
 11
6.2924553872
 21
3.518736573
 31
0.0
  0
LINE
  5
3F3
330
3E5
100
AcDbEntity
  8
0
  6
Continuous
 62
     7
370
     0
100
AcDbLine
 10
6.8815633044
 20
3.518736573
 30
0.0
 11
7.0531248725
 21
3.518736573
 31
0.0
  0
MTEXT
  5
3F4
330
3E5
100
AcDbEntity
  8
0
  6
Continuous
 62
     7
370
     0
100
AcDbMText
 10
7.1404369347
 20
3.4909372061
 30
0.0
 40
0.09
 41
0.0
 71
     1
 72
     1
  1
0.239
  7
SLDTEXTSTYLE0
 73
     1
 44
1.0
  0
MTEXT
  5
3F5
330
3E5
100
AcDbEntity
  8
0
  6
Continuous
 62
     7
370
     0
100
AcDbMText
 10
7.2069419931
 20
3.6336975174
 30
0.0
 40
0.09
 41
0.0
 71
     1
 72
     1
  1
6.1
  7
SLDTEXTSTYLE0
 73
     1
 44
1.0
  0
ENDBLK
  5
3E7
330
3E5
100
AcDbEntity
  8
0
100
AcDbBlockEnd
  0
BLOCK
  5
3F8
330
3F7
100
AcDbEntity
  8
0
100
AcDbBlockBegin
  2
*D14
 70
     1
 71
     0
 10
0.0
 20
0.0
 30
0.0
  3
*D14
  1

  0
SOLID
  5
3FA
330
3F7
100
AcDbEntity
  8
0
  6
Continuous
 62
     7
370
     0
100
AcDbTrace
 10
6.2684396392
 20
5.3863005735
 30
0.0
 11
6.1084396392
 21
5.4123005735
 31
0.0
 12
6.1084396392
 22
5.3603005735
 32
0.0
 13
6.1084396392
 23
5.3603005735
 33
0.0
  0
SOLID
  5
3FB
330
3F7
100
AcDbEntity
  8
0
  6
Continuous
 62
     7
370
     0
100
AcDbTrace
 10
7.2555790525
 20
5.3863005735
 30
0.0
 11
7.4155790525
 21
5.3603005735
 31
0.0
 12
7.4155790525
 22
5.4123005735
 32
0.0
 13
7.4155790525
 23
5.4123005735
 33
0.0
  0
LINE
  5
3FC
330
3F7
100
AcDbEntity
  8
0
  6
Continuous
 62
     7
370
     0
100
AcDbLine
 10
6.6115862692
 20
5.5183538614
 30
0.0
 11
6.6115862692
 21
5.3970075968
 31
0.0
  0
LINE
  5
3FD
330
3F7
100
AcDbEntity
  8
0
  6
Continuous
 62
     7
370
     0
100
AcDbLine
 10
6.6115862692
 20
5.3970075968
 30
0.0
 11
6.6298496934
 21
5.3970075968
 31
0.0
  0
LINE
  5
3FE
330
3F7
100
AcDbEntity
  8
0
  6
Continuous
 62
     7
370
     0
100
AcDbLine
 10
6.6115862692
 20
5.5183538614
 30
0.0
 11
6.6298496934
 21
5.5183538614
 31
0.0
  0
LINE
  5
3FF
330
3F7
100
AcDbEntity
  8
0
  6
Continuous
 62
     7
370
     0
100
AcDbLine
 10
6.9173349074
 20
5.5183538614
 30
0.0
 11
6.9173349074
 21
5.3970075968
 31
0.0
  0
LINE
  5
400
330
3F7
100
AcDbEntity
  8
0
  6
Continuous
 62
     7
370
     0
100
AcDbLine
 10
6.9173349074
 20
5.3970075968
 30
0.0
 11
6.8990714832
 21
5.3970075968
 31
0.0
  0
LINE
  5
401
330
3F7
100
AcDbEntity
  8
0
  6
Continuous
 62
     7
370
     0
100
AcDbLine
 10
6.9173349074
 20
5.5183538614
 30
0.0
 11
6.8990714832
 21
5.5183538614
 31
0.0
  0
LINE
  5
402
330
3F7
100
AcDbEntity
  8
0
  6
Continuous
 62
     7
370
     0
100
AcDbLine
 10
6.2684396392
 20
4.4548773006
 30
0.0
 11
6.2684396392
 21
5.5113005735
 31
0.0
  0
LINE
  5
403
330
3F7
100
AcDbEntity
  8
0
  6
Continuous
 62
     7
370
     0
100
AcDbLine
 10
7.2555790525
 20
4.4548773006
 30
0.0
 11
7.2555790525
 21
5.5113005735
 31
0.0
  0
LINE
  5
404
330
3F7
100
AcDbEntity
  8
0
  6
Continuous
 62
     7
370
     0
100
AcDbLine
 10
6.2684396392
 20
5.3863005735
 30
0.0
 11
5.9184396392
 21
5.3863005735
 31
0.0
  0
LINE
  5
405
330
3F7
100
AcDbEntity
  8
0
  6
Continuous
 62
     7
370
     0
100
AcDbLine
 10
7.2555790525
 20
5.3863005735
 30
0.0
 11
7.6055790525
 21
5.3863005735
 31
0.0
  0
MTEXT
  5
406
330
3F7
100
AcDbEntity
  8
0
  6
Continuous
 62
     7
370
     0
100
AcDbMText
 10
6.6148605883
 20
5.3585012065
 30
0.0
 40
0.09
 41
0.0
 71
     1
 72
     1
  1
0.987
  7
SLDTEXTSTYLE0
 73
     1
 44
1.0
  0
MTEXT
  5
407
330
3F7
100
AcDbEntity
  8
0
  6
Continuous
 62
     7
370
     0
100
AcDbMText
 10
6.6481131175
 20
5.5012615178
 30
0.0
 40
0.09
 41
0.0
 71
     1
 72
     1
  1
25.1
  7
SLDTEXTSTYLE0
 73
     1
 44
1.0
  0
ENDBLK
  5
3F9
330
3F7
100
AcDbEntity
  8
0
100
AcDbBlockEnd
  0
BLOCK
  5
40A
330
409
100
AcDbEntity
  8
0
100
AcDbBlockBegin
  2
SW_NOTE_5
 70
     0
 71
     0
 10
0.0
 20
0.0
 30
0.0
  3
SW_NOTE_5
  1

  0
MTEXT
  5
40D
330
409
100
AcDbEntity
  8
0
  6
Continuous
 62
     0
370
     0
100
AcDbMText
 10
-1.3413265341
 20
0.166623138
 30
0.0
 40
0.09
 41
0.0
 71
     1
 72
     1
  1
INTERNAL  SM1 THREAD
  7
SLDTEXTSTYLE17
 73
     1
 44
1.0
  0
MTEXT
  5
40E
330
409
100
AcDbEntity
  8
0
  6
Continuous
 62
     0
370
     0
100
AcDbMText
 10
-0.960764022
 20
0.037253055
 30
0.0
 40
0.09
 41
0.0
 71
     1
 72
     1
  1
(1.035-40)
  7
SLDTEXTSTYLE0
 73
     1
 44
1.0
  0
ENDBLK
  5
40B
330
409
100
AcDbEntity
  8
0
100
AcDbBlockEnd
  0
BLOCK
  5
414
330
413
100
AcDbEntity
  8
0
100
AcDbBlockBegin
  2
SW_NOTE_6
 70
     0
 71
     0
 10
0.0
 20
0.0
 30
0.0
  3
SW_NOTE_6
  1

  0
CIRCLE
  5
416
330
413
100
AcDbEntity
  8
0
  6
Continuous
 62
     0
370
     0
100
AcDbCircle
 10
0.1276065033
 20
0.0162137504
 30
0.0
 40
0.1286324429531549
  0
MTEXT
  5
417
330
413
100
AcDbEntity
  8
0
  6
Continuous
 62
     0
370
     0
100
AcDbMText
 10
0.0832315034
 20
0.0625077409
 30
0.0
 40
0.09
 41
0.0
 71
     1
 72
     1
  1
A
  7
SLDTEXTSTYLE0
 73
     1
 44
1.0
  0
ENDBLK
  5
415
330
413
100
AcDbEntity
  8
0
100
AcDbBlockEnd
  0
BLOCK
  5
41B
330
41A
100
AcDbEntity
  8
0
100
AcDbBlockBegin
  2
SW_NOTE_7
 70
     0
 71
     0
 10
0.0
 20
0.0
 30
0.0
  3
SW_NOTE_7
  1

  0
CIRCLE
  5
41D
330
41A
100
AcDbEntity
  8
0
  6
Continuous
 62
     0
370
     0
100
AcDbCircle
 10
-0.1281679463
 20
0.0109216725
 30
0.0
 40
0.1286324429531548
  0
MTEXT
  5
41E
330
41A
100
AcDbEntity
  8
0
  6
Continuous
 62
     0
370
     0
100
AcDbMText
 10
-0.1725429461
 20
0.0572156631
 30
0.0
 40
0.09
 41
0.0
 71
     1
 72
     1
  1
A
  7
SLDTEXTSTYLE0
 73
     1
 44
1.0
  0
ENDBLK
  5
41C
330
41A
100
AcDbEntity
  8
0
100
AcDbBlockEnd
  0
BLOCK
  5
422
330
421
100
AcDbEntity
  8
0
100
AcDbBlockBegin
  2
SW_NOTE_8
 70
     0
 71
     0
 10
0.0
 20
0.0
 30
0.0
  3
SW_NOTE_8
  1

  0
CIRCLE
  5
424
330
421
100
AcDbEntity
  8
0
  6
Continuous
 62
     0
370
     0
100
AcDbCircle
 10
0.1215297028
 20
-0.042152541
 30
0.0
 40
0.1286324429531546
  0
MTEXT
  5
425
330
421
100
AcDbEntity
  8
0
  6
Continuous
 62
     0
370
     0
100
AcDbMText
 10
0.0870922036
 20
0.0041414496
 30
0.0
 40
0.09
 41
0.0
 71
     1
 72
     1
  1
B
  7
SLDTEXTSTYLE0
 73
     1
 44
1.0
  0
ENDBLK
  5
423
330
421
100
AcDbEntity
  8
0
100
AcDbBlockEnd
  0
BLOCK
  5
429
330
428
100
AcDbEntity
  8
0
100
AcDbBlockBegin
  2
SW_NOTE_9
 70
     0
 71
     0
 10
0.0
 20
0.0
 30
0.0
  3
SW_NOTE_9
  1

  0
CIRCLE
  5
42B
330
428
100
AcDbEntity
  8
0
  6
Continuous
 62
     0
370
     0
100
AcDbCircle
 10
0.1286162094
 20
-0.0020435432
 30
0.0
 40
0.1286324429531546
  0
MTEXT
  5
42C
330
428
100
AcDbEntity
  8
0
  6
Continuous
 62
     0
370
     0
100
AcDbMText
 10
0.0798662071
 20
0.0442504473
 30
0.0
 40
0.09
 41
0.0
 71
     1
 72
     1
  1
C
  7
SLDTEXTSTYLE0
 73
     1
 44
1.0
  0
ENDBLK
  5
42A
330
428
100
AcDbEntity
  8
0
100
AcDbBlockEnd
  0
BLOCK
  5
430
330
42F
100
AcDbEntity
  8
0
100
AcDbBlockBegin
  2
SW_NOTE_10
 70
     0
 71
     0
 10
0.0
 20
0.0
 30
0.0
  3
SW_NOTE_10
  1

  0
CIRCLE
  5
432
330
42F
100
AcDbEntity
  8
0
  6
Continuous
 62
     0
370
     0
100
AcDbCircle
 10
-0.1285805421
 20
-0.0036537067
 30
0.0
 40
0.1286324429531546
  0
MTEXT
  5
433
330
42F
100
AcDbEntity
  8
0
  6
Continuous
 62
     0
370
     0
100
AcDbMText
 10
-0.1773305444
 20
0.0426402839
 30
0.0
 40
0.09
 41
0.0
 71
     1
 72
     1
  1
C
  7
SLDTEXTSTYLE0
 73
     1
 44
1.0
  0
ENDBLK
  5
431
330
42F
100
AcDbEntity
  8
0
100
AcDbBlockEnd
  0
ENDSEC
  0
SECTION
  2
ENTITIES
  0
LINE
  5
30
330
1F
100
AcDbEntity
  8
0
  6
Continuous
 62
     7
370
     0
100
AcDbLine
 10
0.329927
 20
8.1920731707
 30
0.0
 11
10.629927
 21
8.1920731707
 31
0.0
  0
LINE
  5
31
330
1F
100
AcDbEntity
  8
0
  6
Continuous
 62
     7
370
     0
100
AcDbLine
 10
0.329927
 20
8.1920731707
 30
0.0
 11
0.329927
 21
0.3920731707
 31
0.0
  0
LINE
  5
32
330
1F
100
AcDbEntity
  8
0
  6
Continuous
 62
     7
370
     0
100
AcDbLine
 10
10.629927
 20
0.3920731707
 30
0.0
 11
0.329927
 21
0.3920731707
 31
0.0
  0
LINE
  5
33
330
1F
100
AcDbEntity
  8
0
  6
Continuous
 62
     7
370
     0
100
AcDbLine
 10
10.629927
 20
0.3920731707
 30
0.0
 11
10.629927
 21
8.1920731707
 31
0.0
  0
LINE
  5
34
330
1F
100
AcDbEntity
  8
0
  6
Continuous
 62
     7
370
     0
100
AcDbLine
 10
7.8832069922
 20
1.2010186622
 30
0.0
 11
6.3491817542
 21
1.2010186622
 31
0.0
  0
LINE
  5
35
330
1F
100
AcDbEntity
  8
0
  6
Continuous
 62
     7
370
     0
100
AcDbLine
 10
6.3491817542
 20
0.3920731707
 30
0.0
 11
6.3491817542
 21
1.6988536355
 31
0.0
  0
LINE
  5
36
330
1F
100
AcDbEntity
  8
0
  6
Continuous
 62
     7
370
     0
100
AcDbLine
 10
7.8832069922
 20
1.270166923
 30
0.0
 11
10.629927
 21
1.270166923
 31
0.0
  0
LINE
  5
37
330
1F
100
AcDbEntity
  8
0
  6
Continuous
 62
     7
370
     0
100
AcDbLine
 10
7.8832069922
 20
1.9437769943
 30
0.0
 11
7.8832069922
 21
0.3920731707
 31
0.0
  0
LINE
  5
38
330
1F
100
AcDbEntity
  8
0
  6
Continuous
 62
     7
370
     0
100
AcDbLine
 10
7.8832069922
 20
1.323339557
 30
0.0
 11
6.3491817542
 21
1.323339557
 31
0.0
  0
LINE
  5
39
330
1F
100
AcDbEntity
  8
0
  6
Continuous
 62
     7
370
     0
100
AcDbLine
 10
7.8832069922
 20
1.6988536355
 30
0.0
 11
6.3491817542
 21
1.6988536355
 31
0.0
  0
LINE
  5
3A
330
1F
100
AcDbEntity
  8
0
  6
Continuous
 62
     7
370
     0
100
AcDbLine
 10
7.8832069922
 20
0.7890359178
 30
0.0
 11
10.629927
 21
0.7890359178
 31
0.0
  0
LINE
  5
3B
330
1F
100
AcDbEntity
  8
0
  6
Continuous
 62
     7
370
     0
100
AcDbLine
 10
7.8832069922
 20
1.4456604517
 30
0.0
 11
6.3491817542
 21
1.4456604517
 31
0.0
  0
LINE
  5
3C
330
1F
100
AcDbEntity
  8
0
  6
Continuous
 62
     7
370
     0
100
AcDbLine
 10
7.8832069922
 20
1.5679813464
 30
0.0
 11
6.3491817542
 21
1.5679813464
 31
0.0
  0
LINE
  5
3D
330
1F
100
AcDbEntity
  8
0
  6
Continuous
 62
     7
370
     0
100
AcDbLine
 10
6.9294188505
 20
1.6988536355
 30
0.0
 11
6.9294188505
 21
1.2010186622
 31
0.0
  0
LINE
  5
3E
330
1F
100
AcDbEntity
  8
0
  6
Continuous
 62
     7
370
     0
100
AcDbLine
 10
7.2989435727
 20
1.6988536355
 30
0.0
 11
7.2989435727
 21
1.2010186622
 31
0.0
  0
LINE
  5
3F
330
1F
100
AcDbEntity
  8
0
  6
Continuous
 62
     7
370
     0
100
AcDbLine
 10
8.9000563418
 20
0.7890359178
 30
0.0
 11
8.9000563418
 21
0.3920731707
 31
0.0
  0
LINE
  5
40
330
1F
100
AcDbEntity
  8
0
  6
Continuous
 62
     7
370
     0
100
AcDbLine
 10
9.3113942988
 20
0.96139916
 30
0.0
 11
9.3113942988
 21
0.7890359178
 31
0.0
  0
LINE
  5
41
330
1F
100
AcDbEntity
  8
0
  6
Continuous
 62
     7
370
     0
100
AcDbLine
 10
10.0324602448
 20
1.270166923
 30
0.0
 11
10.0324602448
 21
0.96139916
 31
0.0
  0
LINE
  5
42
330
1F
100
AcDbEntity
  8
0
  6
Continuous
 62
     7
370
     0
100
AcDbLine
 10
6.3491817542
 20
1.0381709011
 30
0.0
 11
7.8832069922
 21
1.0381709011
 31
0.0
  0
LINE
  5
43
330
1F
100
AcDbEntity
  8
0
  6
Continuous
 62
     7
370
     0
100
AcDbLine
 10
7.8832069922
 20
1.9437769943
 30
0.0
 11
10.629927
 21
1.9437769943
 31
0.0
  0
LINE
  5
44
330
1F
100
AcDbEntity
  8
0
  6
Continuous
 62
     7
370
     0
100
AcDbLine
 10
10.315241862
 20
1.2693980507
 30
0.0
 11
10.315241862
 21
0.96139916
 31
0.0
  0
LINE
  5
45
330
1F
100
AcDbEntity
  8
0
  6
Continuous
 62
     7
370
     0
100
AcDbLine
 10
7.8832069922
 20
0.96139916
 30
0.0
 11
10.629927
 21
0.96139916
 31
0.0
  0
LINE
  5
46
330
1F
100
AcDbEntity
  8
0
  6
Continuous
 62
     7
370
     0
100
AcDbLine
 10
10.629927
 20
1.9437769943
 30
0.0
 11
10.629927
 21
1.9698084888
 31
0.0
  0
LINE
  5
47
330
1F
100
AcDbEntity
  8
0
  6
Continuous
 62
     7
370
     0
100
AcDbLine
 10
7.8832069922
 20
1.6268095213
 30
0.0
 11
10.629927
 21
1.6268095213
 31
0.0
  0
LINE
  5
48
330
1F
100
AcDbEntity
  8
0
  6
Continuous
 62
     7
370
     0
100
AcDbLine
 10
6.692177
 20
0.3920731707
 30
0.0
 11
6.692177
 21
0.3072739649
 31
0.0
  0
LINE
  5
49
330
1F
100
AcDbEntity
  8
0
  6
Continuous
 62
     7
370
     0
100
AcDbLine
 10
2.754677
 20
0.3920731707
 30
0.0
 11
2.754677
 21
0.3072739649
 31
0.0
  0
LINE
  5
4A
330
1F
100
AcDbEntity
  8
0
  6
Continuous
 62
     7
370
     0
100
AcDbLine
 10
2.754677
 20
0.3920731707
 30
0.0
 11
2.7672319738
 21
0.3575
 31
0.0
  0
LINE
  5
4B
330
1F
100
AcDbEntity
  8
0
  6
Continuous
 62
     7
370
     0
100
AcDbLine
 10
2.7672319738
 20
0.3575
 30
0.0
 11
2.7414258825
 21
0.3575
 31
0.0
  0
LINE
  5
4C
330
1F
100
AcDbEntity
  8
0
  6
Continuous
 62
     7
370
     0
100
AcDbLine
 10
2.7414258825
 20
0.3575
 30
0.0
 11
2.754677
 21
0.3920731707
 31
0.0
  0
MTEXT
  5
4E
330
1F
100
AcDbEntity
  8
0
  6
Continuous
 62
     7
370
     0
100
AcDbMText
 10
10.4043270877
 20
1.1203120088
 30
0.0
 40
0.1041666667
 41
0.0
 71
     1
 72
     1
  1
C
  7
SLDTEXTSTYLE0
 73
     1
 44
1.0
  0
MTEXT
  5
4F
330
1F
100
AcDbEntity
  8
0
  6
Continuous
 62
     7
370
     0
100
AcDbMText
 10
1.7387909509
 20
0.3094873007
 30
0.0
 40
0.09375
 41
0.0
 71
     1
 72
     1
  1
5
  7
SLDTEXTSTYLE0
 73
     1
 44
1.0
  0
MTEXT
  5
50
330
1F
100
AcDbEntity
  8
0
  6
Continuous
 62
     7
370
     0
100
AcDbMText
 10
3.723800327
 20
0.3126246278
 30
0.0
 40
0.09375
 41
0.0
 71
     1
 72
     1
  1
4
  7
SLDTEXTSTYLE0
 73
     1
 44
1.0
  0
MTEXT
  5
51
330
1F
100
AcDbEntity
  8
0
  6
Continuous
 62
     7
370
     0
100
AcDbMText
 10
5.6324457277
 20
0.3105200602
 30
0.0
 40
0.09375
 41
0.0
 71
     1
 72
     1
  1
3
  7
SLDTEXTSTYLE0
 73
     1
 44
1.0
  0
MTEXT
  5
52
330
1F
100
AcDbEntity
  8
0
  6
Continuous
 62
     7
370
     0
100
AcDbMText
 10
7.6059721724
 20
0.3113400111
 30
0.0
 40
0.09375
 41
0.0
 71
     1
 72
     1
  1
2
  7
SLDTEXTSTYLE0
 73
     1
 44
1.0
  0
MTEXT
  5
53
330
1F
100
AcDbEntity
  8
0
  6
Continuous
 62
     7
370
     0
100
AcDbMText
 10
9.6619921328
 20
0.300272888
 30
0.0
 40
0.09375
 41
0.0
 71
     1
 72
     1
  1
1
  7
SLDTEXTSTYLE0
 73
     1
 44
1.0
  0
MTEXT
  5
54
330
1F
100
AcDbEntity
  8
0
  6
Continuous
 62
     7
370
     0
100
AcDbMText
 10
9.2699670399
 20
0.6032387684
 30
0.0
 40
0.125
 41
0.0
 71
     1
 72
     1
  1
MAP107575-A1
  7
SLDTEXTSTYLE0
 73
     1
 44
1.0
  0
MTEXT
  5
55
330
1F
100
AcDbEntity
  8
0
  6
Continuous
 62
     7
370
     0
100
AcDbMText
 10
7.9301743649
 20
1.2499730493
 30
0.0
 40
0.0833333333
 41
0.0
 71
     1
 72
     1
  1
MATERIAL:
  7
SLDTEXTSTYLE0
 73
     1
 44
1.0
  0
MTEXT
  5
57
330
1F
100
AcDbEntity
  8
0
  6
Continuous
 62
     7
370
     0
100
AcDbMText
 10
8.9438302275
 20
0.7457341193
 30
0.0
 40
0.0833333333
 41
0.0
 71
     1
 72
     1
  1
PART  NO.
  7
SLDTEXTSTYLE1
 73
     1
 44
1.0
  0
MTEXT
  5
59
330
1F
100
AcDbEntity
  8
0
  6
Continuous
 62
     7
370
     0
100
AcDbMText
 10
6.3927073562
 20
1.1440291591
 30
0.0
 40
0.06
 41
0.0
 71
     1
 72
     1
  1
PROPRIETARY AND CONFIDENTIAL
  7
SLDTEXTSTYLE2
 73
     1
 44
1.0
  0
MTEXT
  5
5A
330
1F
100
AcDbEntity
  8
0
  6
Continuous
 62
     7
370
     0
100
AcDbMText
 10
6.4985660702
 20
1.5406501707
 30
0.0
 40
0.065
 41
0.0
 71
     1
 72
     1
  1
DRAWN
  7
SLDTEXTSTYLE0
 73
     1
 44
1.0
  0
MTEXT
  5
5B
330
1F
100
AcDbEntity
  8
0
  6
Continuous
 62
     7
370
     0
100
AcDbMText
 10
6.4369653776
 20
1.4183941661
 30
0.0
 40
0.065
 41
0.0
 71
     1
 72
     1
  1
ENG APPR.
  7
SLDTEXTSTYLE0
 73
     1
 44
1.0
  0
MTEXT
  5
5C
330
1F
100
AcDbEntity
  8
0
  6
Continuous
 62
     7
370
     0
100
AcDbMText
 10
6.4273055419
 20
1.298296273
 30
0.0
 40
0.065
 41
0.0
 71
     1
 72
     1
  1
MFG APPR.
  7
SLDTEXTSTYLE0
 73
     1
 44
1.0
  0
MTEXT
  5
5D
330
1F
100
AcDbEntity
  8
0
  6
Continuous
 62
     7
370
     0
100
AcDbMText
 10
6.9752663896
 20
1.6608078346
 30
0.0
 40
0.065
 41
0.0
 71
     1
 72
     1
  1
NAME
  7
SLDTEXTSTYLE0
 73
     1
 44
1.0
  0
MTEXT
  5
5E
330
1F
100
AcDbEntity
  8
0
  6
Continuous
 62
     7
370
     0
100
AcDbMText
 10
7.9386050459
 20
1.5661804433
 30
0.0
 40
0.1
 41
0.0
 71
     1
 72
     1
  1
TITLE:
  7
SLDTEXTSTYLE0
 73
     1
 44
1.0
  0
MTEXT
  5
5F
330
1F
100
AcDbEntity
  8
0
  6
Continuous
 62
     7
370
     0
100
AcDbMText
 10
10.0657693915
 20
1.2262994671
 30
0.0
 40
0.0833333333
 41
0.0
 71
     1
 72
     1
  1
SIZE
  7
SLDTEXTSTYLE0
 73
     1
 44
1.0
  0
MTEXT
  5
60
330
1F
100
AcDbEntity
  8
0
  6
Continuous
 62
     7
370
     0
100
AcDbMText
 10
10.1162261111
 20
1.1164461388
 30
0.0
 40
0.1041666667
 41
0.0
 71
     1
 72
     1
  1
A
  7
SLDTEXTSTYLE0
 73
     1
 44
1.0
  0
MTEXT
  5
61
330
1F
100
AcDbEntity
  8
0
  6
Continuous
 62
     7
370
     0
100
AcDbMText
 10
10.335100974
 20
1.2278993505
 30
0.0
 40
0.0833333333
 41
0.0
 71
     1
 72
     1
  1
REV.
  7
SLDTEXTSTYLE0
 73
     1
 44
1.0
  0
MTEXT
  5
62
330
1F
100
AcDbEntity
  8
0
  6
Continuous
 62
     7
370
     0
100
AcDbMText
 10
8.3227727705
 20
0.9309786574
 30
0.0
 40
0.0833333333
 41
0.0
 71
     1
 72
     1
  1
SCALE: 1:1
  7
SLDTEXTSTYLE0
 73
     1
 44
1.0
  0
MTEXT
  5
64
330
1F
100
AcDbEntity
  8
0
  6
Continuous
 62
     7
370
     0
100
AcDbMText
 10
9.6378279873
 20
0.926579063
 30
0.0
 40
0.0833333333
 41
0.0
 71
     1
 72
     1
  1
SHEET 1 OF 1
  7
SLDTEXTSTYLE3
 73
     1
 44
1.0
  0
MTEXT
  5
65
330
1F
100
AcDbEntity
  8
0
  6
Continuous
 62
     7
370
     0
100
AcDbMText
 10
7.9973593109
 20
0.6032387684
 30
0.0
 40
0.125
 41
0.0
 71
     1
 72
     1
  1
13299-E01
  7
SLDTEXTSTYLE0
 73
     1
 44
1.0
  0
INSERT
  5
75
330
1F
100
AcDbEntity
  8
0
  6
Continuous
 62
     7
370
     0
100
AcDbBlockReference
  2
SW_NOTE_0
 10
6.3891646717
 20
0.9312082413
 30
0.0
  0
MTEXT
  5
76
330
1F
100
AcDbEntity
  8
0
  6
Continuous
 62
     7
370
     0
100
AcDbMText
 10
7.9076399399
 20
0.7468305835
 30
0.0
 40
0.0833333333
 41
0.0
 71
     1
 72
     1
  1
DWG.  NO.
  7
SLDTEXTSTYLE1
 73
     1
 44
1.0
  0
MTEXT
  5
77
330
1F
100
AcDbEntity
  8
0
  6
Continuous
 62
     7
370
     0
100
AcDbMText
 10
7.0592138229
 20
1.5434434118
 30
0.0
 40
0.065
 41
0.0
 71
     1
 72
     1
  1
AP
  7
SLDTEXTSTYLE0
 73
     1
 44
1.0
  0
MTEXT
  5
78
330
1F
100
AcDbEntity
  8
0
  6
Continuous
 62
     7
370
     0
100
AcDbMText
 10
7.0628716471
 20
1.4267005168
 30
0.0
 40
0.065
 41
0.0
 71
     1
 72
     1
  1
DJ
  7
SLDTEXTSTYLE0
 73
     1
 44
1.0
  0
MTEXT
  5
79
330
1F
100
AcDbEntity
  8
0
  6
Continuous
 62
     7
370
     0
100
AcDbMText
 10
7.0636219211
 20
1.3041261123
 30
0.0
 40
0.065
 41
0.0
 71
     1
 72
     1
  1
DD
  7
SLDTEXTSTYLE0
 73
     1
 44
1.0
  0
MTEXT
  5
7A
330
1F
100
AcDbEntity
  8
0
  6
Continuous
 62
     7
370
     0
100
AcDbMText
 10
7.3775562039
 20
1.5451308061
 30
0.0
 40
0.065
 41
0.0
 71
     1
 72
     1
  1
10/26/2007
  7
SLDTEXTSTYLE0
 73
     1
 44
1.0
  0
MTEXT
  5
7B
330
1F
100
AcDbEntity
  8
0
  6
Continuous
 62
     7
370
     0
100
AcDbMText
 10
7.4731545031
 20
1.6582684693
 30
0.0
 40
0.065
 41
0.0
 71
     1
 72
     1
  1
DATE
  7
SLDTEXTSTYLE0
 73
     1
 44
1.0
  0
MTEXT
  5
7C
330
1F
100
AcDbEntity
  8
0
  6
Continuous
 62
     7
370
     0
100
AcDbMText
 10
7.3821011998
 20
1.4184142209
 30
0.0
 40
0.065
 41
0.0
 71
     1
 72
     1
  1
01/10/2008
  7
SLDTEXTSTYLE0
 73
     1
 44
1.0
  0
MTEXT
  5
7D
330
1F
100
AcDbEntity
  8
0
  6
Continuous
 62
     7
370
     0
100
AcDbMText
 10
7.3821011998
 20
1.2979456571
 30
0.0
 40
0.065
 41
0.0
 71
     1
 72
     1
  1
01/11/2008
  7
SLDTEXTSTYLE0
 73
     1
 44
1.0
  0
MTEXT
  5
7E
330
1F
100
AcDbEntity
  8
0
  6
Continuous
 62
     7
370
     0
100
AcDbMText
 10
7.9182509893
 20
1.8945248266
 30
0.0
 40
0.1875
 41
0.0
 71
     1
 72
     1
  1
THORLABS INC.
  7
SLDTEXTSTYLE0
 73
     1
 44
1.0
  0
INSERT
  5
85
330
1F
100
AcDbEntity
  8
0
  6
Continuous
 62
     7
370
     0
100
AcDbBlockReference
  2
SW_NOTE_1
 10
9.7899715108
 20
1.7882142597
 30
0.0
  0
INSERT
  5
8C
330
1F
100
AcDbEntity
  8
0
  6
Continuous
 62
     7
370
     0
100
AcDbBlockReference
  2
SW_NOTE_2
 10
8.2872101204
 20
1.4202014314
 30
0.0
  0
MTEXT
  5
8D
330
1F
100
AcDbEntity
  8
0
  6
Continuous
 62
     7
370
     0
100
AcDbMText
 10
8.5021403846
 20
1.1403464748
 30
0.0
 40
0.1041666667
 41
0.0
 71
     1
 72
     1
  1
SEE TABLE
  7
SLDTEXTSTYLE0
 73
     1
 44
1.0
  0
INSERT
  5
94
330
1F
100
AcDbEntity
  8
0
  6
Continuous
 62
     7
370
     0
100
AcDbBlockReference
  2
SW_NOTE_3
 10
0.4549940249
 20
0.5732917772
 30
0.0
  0
MTEXT
  5
95
330
1F
100
AcDbEntity
  8
0
  6
Continuous
 62
     7
370
     0
100
AcDbMText
 10
0.7805878818
 20
2.1396000016
 30
0.0
 40
0.09
 41
0.0
 71
     1
 72
     1
  1
SPECIFICATIONS:
  7
SLDTEXTSTYLE0
 73
     1
 44
1.0
  0
INSERT
  5
A5
330
1F
100
AcDbEntity
  8
0
  6
Continuous
 62
     7
370
     0
100
AcDbBlockReference
  2
SW_NOTE_4
 10
0.7615798265
 20
1.8332813055
 30
0.0
  0
INSERT
  5
BE
330
1F
100
AcDbEntity
  8
0
  6
Continuous
 62
     7
370
     0
100
AcDbBlockReference
  2
SW_TABLEANNOTATION_0
 10
0.3174104478
 20
8.1967910448
 30
0.0
  0
ARC
  5
BF
330
1F
100
AcDbEntity
  8
0
  6
Continuous
 62
     7
370
     0
100
AcDbCircle
 10
1.7405515721
 20
4.4048773006
 30
0.0
 40
0.4499999999999993
100
AcDbArc
 50
319.6889954821
 51
137.7790477345
  0
LINE
  5
C0
330
1F
100
AcDbEntity
  8
0
  6
Continuous
 62
     7
370
     0
100
AcDbLine
 10
1.369577631
 20
4.7403737549
 30
0.0
 11
1.4073000818
 21
4.7072734506
 31
0.0
  0
ARC
  5
C1
330
1F
100
AcDbEntity
  8
0
  6
Continuous
 62
     7
370
     0
100
AcDbCircle
 10
1.7405515721
 20
4.4048773006
 30
0.0
 40
0.5001794919243113
100
AcDbArc
 50
319.5931820853
 51
137.8748611313
  0
LINE
  5
C2
330
1F
100
AcDbEntity
  8
0
  6
Continuous
 62
     7
370
     0
100
AcDbLine
 10
2.1214188356
 20
4.0806556794
 30
0.0
 11
2.0836964214
 21
4.1137559837
 31
0.0
  0
SPLINE
  5
C3
330
1F
100
AcDbEntity
  8
0
  6
Continuous
 62
     7
370
     0
100
AcDbSpline
210
0.0
220
0.0
230
1.0
 70
    24
 71
     1
 72
     4
 73
     2
 74
     0
 42
0.00000001
 43
0.00000001
 40
0.0
 40
0.0
 40
1.0
 40
1.0
 10
1.369577630953621
 20
4.740373754929827
 30
0.0
 10
1.365521794473656
 20
4.743932617150881
 30
0.0
  0
SPLINE
  5
C4
330
1F
100
AcDbEntity
  8
0
  6
Continuous
 62
     7
370
     0
100
AcDbSpline
210
0.0
220
0.0
230
1.0
 70
    24
 71
     1
 72
     4
 73
     2
 74
     0
 42
0.00000001
 43
0.00000001
 40
0.0
 40
0.0
 40
1.0
 40
1.0
 10
2.125465798869002
 20
4.077104590405148
 30
0.0
 10
2.121418835619867
 20
4.080655679382665
 30
0.0
  0
ARC
  5
C5
330
1F
100
AcDbEntity
  8
0
  6
Continuous
 62
     7
370
     0
100
AcDbCircle
 10
1.7405515721
 20
4.4048773006
 30
0.0
 40
0.5001794919243113
100
AcDbArc
 50
139.5931820853
 51
317.8748611313
  0
SPLINE
  5
C6
330
1F
100
AcDbEntity
  8
0
  6
Continuous
 62
     7
370
     0
100
AcDbSpline
210
0.0
220
0.0
230
1.0
 70
    24
 71
     1
 72
     4
 73
     2
 74
     0
 42
0.00000001
 43
0.00000001
 40
0.0
 40
0.0
 40
1.0
 40
1.0
 10
2.111525513241705
 20
4.069380846297165
 30
0.0
 10
2.115692301773275
 20
4.065724598534452
 30
0.0
  0
SPLINE
  5
C7
330
1F
100
AcDbEntity
  8
0
  6
Continuous
 62
     7
370
     0
100
AcDbSpline
210
0.0
220
0.0
230
1.0
 70
    24
 71
     1
 72
     4
 73
     2
 74
     0
 42
0.00000001
 43
0.00000001
 40
0.0
 40
0.0
 40
1.0
 40
1.0
 10
1.355370671740292
 20
4.732883978119035
 30
0.0
 10
1.359684308575458
 20
4.729098921844328
 30
0.0
  0
LINE
  5
C8
330
1F
100
AcDbEntity
  8
0
  6
Continuous
 62
     7
370
     0
100
AcDbLine
 10
2.1115255132
 20
4.0693808463
 30
0.0
 11
2.0738030623
 21
4.1024811506
 31
0.0
  0
LINE
  5
C9
330
1F
100
AcDbEntity
  8
0
  6
Continuous
 62
     7
370
     0
100
AcDbLine
 10
1.3596843086
 20
4.7290989218
 30
0.0
 11
1.3974067228
 21
4.6959986176
 31
0.0
  0
ARC
  5
CA
330
1F
100
AcDbEntity
  8
0
  6
Continuous
 62
     7
370
     0
100
AcDbCircle
 10
1.7405515721
 20
4.4048773006
 30
0.0
 40
0.4499999999999993
100
AcDbArc
 50
139.6889954821
 51
317.7790477345
  0
ARC
  5
CB
330
1F
100
AcDbEntity
  8
0
  6
Continuous
 62
     7
370
     0
100
AcDbCircle
 10
1.7405515721
 20
4.4048773006
 30
0.0
 40
0.4499999999999993
100
AcDbArc
 50
317.7790477345
 51
319.6889954821
  0
ARC
  5
CC
330
1F
100
AcDbEntity
  8
0
  6
Continuous
 62
     7
370
     0
100
AcDbCircle
 10
1.7405515721
 20
4.4048773006
 30
0.0
 40
0.4499999999999981
100
AcDbArc
 50
137.7790477345
 51
139.6889954821
  0
CIRCLE
  5
CD
330
1F
100
AcDbEntity
  8
0
  6
Continuous
 62
     7
370
     0
100
AcDbCircle
 10
1.7405515721
 20
4.4048773006
 30
0.0
 40
0.5160000000000005
  0
CIRCLE
  5
CE
330
1F
100
AcDbEntity
  8
0
  6
Continuous
 62
     7
370
     0
100
AcDbCircle
 10
1.7405515721
 20
4.4048773006
 30
0.0
 40
0.5900000000000011
  0
CIRCLE
  5
CF
330
1F
100
AcDbEntity
  8
0
  6
Continuous
 62
     7
370
     0
100
AcDbCircle
 10
1.7405515721
 20
4.4048773006
 30
0.0
 40
0.5060000000000007
  0
CIRCLE
  5
D0
330
1F
100
AcDbEntity
  8
0
  6
Continuous
 62
     7
370
     0
100
AcDbCircle
 10
1.7405515721
 20
4.4048773006
 30
0.0
 40
0.6000000000000009
  0
DIMENSION
  5
D1
330
1F
100
AcDbEntity
  8
0
  6
Continuous
 62
     7
370
     0
100
AcDbDimension
  2
*D7
 10
2.1659467907
 20
3.9817474057
 30
0.0
 11
0.594768117
 21
5.0210850911
 31
0.0
 70
   163
  1
<>
 71
     1
 42
-1.0
  3
SLDDIMSTYLE0
100
AcDbDiametricDimension
 15
1.3151563534
 25
4.8280071955
 35
0.0
 40
0.0
  0
LINE
  5
E2
330
1F
100
AcDbEntity
  8
0
  6
PHANTOM
 62
     7
370
     0
100
AcDbLine
 10
1.7405515721
 20
5.2997239264
 30
0.0
 11
1.7405515721
 21
3.5100306748
 31
0.0
  0
LINE
  5
E3
330
1F
100
AcDbEntity
  8
0
  6
Continuous
 62
     7
370
     0
100
AcDbLine
 10
1.7405515721
 20
5.2997239264
 30
0.0
 11
1.3405515721
 21
5.2997239264
 31
0.0
  0
SOLID
  5
E4
330
1F
100
AcDbEntity
  8
0
  6
Continuous
 62
     7
370
     0
100
AcDbTrace
 10
1.3405515721
 20
5.2997239264
 30
0.0
 11
1.5155515721
 21
5.2622239264
 31
0.0
 12
1.5155515721
 22
5.3372239264
 32
0.0
 13
1.5155515721
 23
5.3372239264
 33
0.0
  0
LINE
  5
E5
330
1F
100
AcDbEntity
  8
0
  6
Continuous
 62
     7
370
     0
100
AcDbLine
 10
1.7405515721
 20
3.5100306748
 30
0.0
 11
1.3405515721
 21
3.5100306748
 31
0.0
  0
SOLID
  5
E6
330
1F
100
AcDbEntity
  8
0
  6
Continuous
 62
     7
370
     0
100
AcDbTrace
 10
1.3405515721
 20
3.5100306748
 30
0.0
 11
1.5155515721
 21
3.4725306748
 31
0.0
 12
1.5155515721
 22
3.5475306748
 32
0.0
 13
1.5155515721
 23
3.5475306748
 33
0.0
  0
MTEXT
  5
E7
330
1F
100
AcDbEntity
  8
0
  6
Continuous
 62
     7
100
AcDbMText
 10
1.1798188873
 20
5.3988994128
 30
0.0
 40
0.125
 41
0.0
 71
     1
 72
     1
  1
A
  7
SLDTEXTSTYLE0
 73
     1
 44
1.0
  0
MTEXT
  5
E8
330
1F
100
AcDbEntity
  8
0
  6
Continuous
 62
     7
100
AcDbMText
 10
1.1798188873
 20
3.6092061612
 30
0.0
 40
0.125
 41
0.0
 71
     1
 72
     1
  1
A
  7
SLDTEXTSTYLE0
 73
     1
 44
1.0
  0
LINE
  5
E9
330
1F
100
AcDbEntity
  8
0
  6
Continuous
 62
     7
370
     0
100
AcDbLine
 10
4.2758769886
 20
6.9227873178
 30
0.0
 11
4.2758769886
 21
6.9146232367
 31
0.0
  0
LINE
  5
EA
330
1F
100
AcDbEntity
  8
0
  6
Continuous
 62
     7
370
     0
100
AcDbLine
 10
4.6930021839
 20
6.1920629144
 30
0.0
 11
4.7000721025
 21
6.1879802104
 31
0.0
  0
LINE
  5
EB
330
1F
100
AcDbEntity
  8
0
  6
Continuous
 62
     7
370
     0
100
AcDbLine
 10
4.5648662183
 20
7.2925739386
 30
0.0
 11
4.4001654376
 21
7.1974942017
 31
0.0
  0
LINE
  5
EC
330
1F
100
AcDbEntity
  8
0
  6
Continuous
 62
     7
370
     0
100
AcDbLine
 10
4.6831775979
 20
7.3608736442
 30
0.0
 11
4.6008643817
 21
7.313355236
 31
0.0
  0
LINE
  5
ED
330
1F
100
AcDbEntity
  8
0
  6
Continuous
 62
     7
370
     0
100
AcDbLine
 10
5.3689017278
 20
7.7567337583
 30
0.0
 11
4.7407551438
 21
7.394112454
 31
0.0
  0
LINE
  5
EE
330
1F
100
AcDbEntity
  8
0
  6
Continuous
 62
     7
370
     0
100
AcDbLine
 10
5.2213860004
 20
6.2859716282
 30
0.0
 11
5.9688529674
 21
6.7174751234
 31
0.0
  0
LINE
  5
EF
330
1F
100
AcDbEntity
  8
0
  6
Continuous
 62
     7
370
     0
100
AcDbLine
 10
5.1026471604
 20
6.217425155
 30
0.0
 11
5.1996742655
 21
6.2734377105
 31
0.0
  0
LINE
  5
F0
330
1F
100
AcDbEntity
  8
0
  6
Continuous
 62
     7
370
     0
100
AcDbLine
 10
5.0001166771
 20
6.1582355668
 30
0.0
 11
5.0460786179
 21
6.1847688305
 31
0.0
  0
LINE
  5
F1
330
1F
100
AcDbEntity
  8
0
  6
Continuous
 62
     7
370
     0
100
AcDbLine
 10
5.0460786179
 20
6.1847688305
 30
0.0
 11
5.1026471604
 21
6.217425155
 31
0.0
  0
LINE
  5
F2
330
1F
100
AcDbEntity
  8
0
  6
Continuous
 62
     7
370
     0
100
AcDbLine
 10
5.1996742655
 20
6.2734377105
 30
0.0
 11
5.2213860004
 21
6.2859716282
 31
0.0
  0
LINE
  5
F3
330
1F
100
AcDbEntity
  8
0
  6
Continuous
 62
     7
370
     0
100
AcDbLine
 10
4.5766207207
 20
7.2993596684
 30
0.0
 11
4.5648662183
 21
7.2925739386
 31
0.0
  0
LINE
  5
F4
330
1F
100
AcDbEntity
  8
0
  6
Continuous
 62
     7
370
     0
100
AcDbLine
 10
4.6008643817
 20
7.313355236
 30
0.0
 11
4.5891098794
 21
7.3065695063
 31
0.0
  0
LINE
  5
F5
330
1F
100
AcDbEntity
  8
0
  6
Continuous
 62
     7
370
     0
100
AcDbLine
 10
6.0931414163
 20
6.9921820073
 30
0.0
 11
6.0931414163
 21
7.0003460884
 31
0.0
  0
LINE
  5
F6
330
1F
100
AcDbEntity
  8
0
  6
Continuous
 62
     7
370
     0
100
AcDbLine
 10
5.676016221
 20
7.7229064107
 30
0.0
 11
5.6689463024
 21
7.7269891148
 31
0.0
  0
LINE
  5
F7
330
1F
100
AcDbEntity
  8
0
  6
Continuous
 62
     7
370
     0
100
AcDbLine
 10
4.5891098794
 20
7.3065695063
 30
0.0
 11
4.5766207207
 21
7.2993596684
 31
0.0
  0
LINE
  5
F8
330
1F
100
AcDbEntity
  8
0
  6
Continuous
 62
     7
370
     0
100
AcDbLine
 10
4.6949182148
 20
7.3676513581
 30
0.0
 11
4.682870402
 21
7.3606963038
 31
0.0
  0
LINE
  5
F9
330
1F
100
AcDbEntity
  8
0
  6
Continuous
 62
     7
370
     0
100
AcDbLine
 10
4.7409082572
 20
7.3942008445
 30
0.0
 11
4.7288783827
 21
7.3872561457
 31
0.0
  0
LINE
  5
FA
330
1F
100
AcDbEntity
  8
0
  6
Continuous
 62
     7
370
     0
100
AcDbLine
 10
4.7288783827
 20
7.3872561457
 30
0.0
 11
4.6949182148
 21
7.3676513581
 31
0.0
  0
LWPOLYLINE
  5
FB
330
1F
100
AcDbEntity
  8
0
  6
Continuous
 62
     7
370
     0
100
AcDbPolyline
 90
      131
 70
   128
 43
0.0
 10
5.0953856137
 20
6.5690376283
 10
5.0895811328
 20
6.5946849778
 10
5.0828505817
 20
6.620517064
 10
5.0752096799
 20
6.646473555
 10
5.0666762732
 20
6.672493828
 10
5.0572702917
 20
6.6985171116
 10
5.0470137036
 20
6.7244826272
 10
5.0359304635
 20
6.7503297311
 10
5.0240464568
 20
6.7759980562
 10
5.0113894393
 20
6.8014276529
 10
4.997988972
 20
6.8265591293
 10
4.9838763523
 20
6.8513337895
 10
4.9690845408
 20
6.8756937713
 10
4.9536480845
 20
6.8995821808
 10
4.9376030361
 20
6.9229432255
 10
4.9209868693
 20
6.9457223445
 10
4.9038383922
 20
6.9678663362
 10
4.8861976556
 20
6.9893234823
 10
4.8681058605
 20
7.0100436687
 10
4.849605261
 20
7.0299785023
 10
4.830739066
 20
7.0490814244
 10
4.8115513386
 20
7.0673078193
 10
4.7920868925
 20
7.0846151184
 10
4.7723911879
 20
7.1009628997
 10
4.7525102249
 20
7.1163129821
 10
4.7324904364
 20
7.130629515
 10
4.7123785797
 20
7.1438790612
 10
4.6922216269
 20
7.156030676
 10
4.6720666555
 20
7.1670559786
 10
4.6519607384
 20
7.1769292189
 10
4.6319508338
 20
7.1856273376
 10
4.6120836758
 20
7.1931300197
 10
4.5924056651
 20
7.1994197424
 10
4.5729627606
 20
7.2044818158
 10
4.5538003721
 20
7.2083044172
 10
4.5349632542
 20
7.2108786186
 10
4.516495402
 20
7.212198408
 10
4.4984399479
 20
7.2122607029
 10
4.4808390613
 20
7.2110653578
 10
4.4637338498
 20
7.2086151645
 10
4.4471642635
 20
7.2049158456
 10
4.4311690014
 20
7.1999760408
 10
4.4157854212
 20
7.1938072876
 10
4.401049452
 20
7.1864239931
 10
4.3869955103
 20
7.1778434014
 10
4.3736564197
 20
7.168085553
 10
4.3610633343
 20
7.1571732377
 10
4.3492456658
 20
7.1451319417
 10
4.338231015
 20
7.1319897881
 10
4.328045107
 20
7.1177774709
 10
4.3187117316
 20
7.1025281837
 10
4.3102526872
 20
7.0862775419
 10
4.3026877304
 20
7.0690634996
 10
4.2960345294
 20
7.050926261
 10
4.2903086231
 20
7.0319081865
 10
4.2855233847
 20
7.0120536936
 10
4.2816899902
 20
6.9914091536
 10
4.2788173928
 20
6.9700227825
 10
4.2769123015
 20
6.9479445294
 10
4.2759791658
 20
6.9252259589
 10
4.2760201651
 20
6.9019201314
 10
4.2770352035
 20
6.8780814786
 10
4.2790219104
 20
6.853765677
 10
4.2819756458
 20
6.8290295171
 10
4.2858895111
 20
6.8039307714
 10
4.2907543653
 20
6.7785280592
 10
4.2965588463
 20
6.7528807097
 10
4.3032893974
 20
6.7270486234
 10
4.3109302991
 20
6.7010921325
 10
4.3194637058
 20
6.6750718594
 10
4.3288696873
 20
6.6490485758
 10
4.3391262755
 20
6.6230830602
 10
4.3502095156
 20
6.5972359563
 10
4.3620935222
 20
6.5715676313
 10
4.3747505397
 20
6.5461380345
 10
4.3881510071
 20
6.5210065582
 10
4.4022636268
 20
6.4962318979
 10
4.4170554383
 20
6.4718719161
 10
4.4324918945
 20
6.4479835066
 10
4.448536943
 20
6.424622462
 10
4.4651531097
 20
6.4018433429
 10
4.4823015869
 20
6.3796993512
 10
4.4999423234
 20
6.3582422051
 10
4.5180341186
 20
6.3375220188
 10
4.5365347181
 20
6.3175871852
 10
4.555400913
 20
6.298484263
 10
4.5745886404
 20
6.2802578681
 10
4.5940530865
 20
6.262950569
 10
4.6137487912
 20
6.2466027878
 10
4.6336297542
 20
6.2312527053
 10
4.6536495426
 20
6.2169361725
 10
4.6737613993
 20
6.2036866262
 10
4.6939183521
 20
6.1915350115
 10
4.7140733235
 20
6.1805097089
 10
4.7341792407
 20
6.1706364685
 10
4.7541891453
 20
6.1619383499
 10
4.7740563033
 20
6.1544356678
 10
4.793734314
 20
6.148145945
 10
4.8131772185
 20
6.1430838716
 10
4.832339607
 20
6.1392612703
 10
4.8511767248
 20
6.1366870688
 10
4.8696445771
 20
6.1353672794
 10
4.8877000312
 20
6.1353049845
 10
4.9053009178
 20
6.1365003296
 10
4.9224061293
 20
6.1389505229
 10
4.9389757156
 20
6.1426498419
 10
4.9549709776
 20
6.1475896466
 10
4.9703545578
 20
6.1537583999
 10
4.985090527
 20
6.1611416944
 10
4.9991444688
 20
6.169722286
 10
5.0124835594
 20
6.1794801344
 10
5.0250766448
 20
6.1903924498
 10
5.0368943132
 20
6.2024337457
 10
5.0479089641
 20
6.2155758994
 10
5.058094872
 20
6.2297882165
 10
5.0674282475
 20
6.2450375037
 10
5.0758872919
 20
6.2612881456
 10
5.0834522487
 20
6.2785021879
 10
5.0901054497
 20
6.2966394264
 10
5.095831356
 20
6.3156575009
 10
5.1006165944
 20
6.3355119938
 10
5.1044499889
 20
6.3561565339
 10
5.1073225863
 20
6.3775429049
 10
5.1092276775
 20
6.3996211581
 10
5.1101608132
 20
6.4223397285
 10
5.110119814
 20
6.4456455561
 10
5.1091047756
 20
6.4694842088
 10
5.1071180686
 20
6.4938000104
 10
5.1041643332
 20
6.5185361703
 10
5.1002504679
 20
6.543634916
 10
5.0953856137
 20
6.5690376283
  0
LWPOLYLINE
  5
FC
330
1F
100
AcDbEntity
  8
0
  6
Continuous
 62
     7
370
     0
100
AcDbPolyline
 90
       40
 70
   128
 43
0.0
 10
5.1092755904
 20
6.5713443262
 10
5.1141887838
 20
6.5457071655
 10
5.1181496542
 20
6.5203739719
 10
5.1211490914
 20
6.4954030124
 10
5.1231801967
 20
6.470851721
 10
5.1242382983
 20
6.4467765665
 10
5.1243209627
 20
6.4232329226
 10
5.1234279998
 20
6.4002749404
 10
5.1215614633
 20
6.3779554239
 10
5.1187256463
 20
6.3563257088
 10
5.1149270714
 20
6.3354355441
 10
5.1101744754
 20
6.3153329778
 10
5.1044787894
 20
6.2960642466
 10
5.0978531136
 20
6.277673669
 10
5.0903126874
 20
6.2602035441
 10
5.0818748539
 20
6.2436940537
 10
5.0725590204
 20
6.22818317
 10
5.0623866137
 20
6.2137065688
 10
5.0513810306
 20
6.2002975465
 10
5.0395675843
 20
6.1879869444
 10
5.0269734462
 20
6.1768030772
 10
5.013627583
 20
6.1667716683
 10
4.9995606908
 20
6.1579157902
 10
4.9848051239
 20
6.1502558116
 10
4.9693948204
 20
6.1438093508
 10
4.9533652247
 20
6.1385912348
 10
4.9367532053
 20
6.1346134656
 10
4.9195969704
 20
6.1318851919
 10
4.9019359798
 20
6.1304126891
 10
4.8838108545
 20
6.1301993439
 10
4.8652632827
 20
6.131245647
 10
4.8463359245
 20
6.1335491918
 10
4.8270723134
 20
6.1371046801
 10
4.8075167564
 20
6.1419039343
 10
4.7877142318
 20
6.1479359158
 10
4.7677102862
 20
6.155186751
 10
4.7475509291
 20
6.1636397625
 10
4.7272825278
 20
6.1732755084
 10
4.7069517003
 20
6.184071826
 10
4.7000721025
 20
6.1879802104
  0
LWPOLYLINE
  5
FD
330
1F
100
AcDbEntity
  8
0
  6
Continuous
 62
     7
370
     0
100
AcDbPolyline
 90
       61
 70
   128
 43
0.0
 10
4.2758769886
 20
6.9227873178
 10
4.2762857558
 20
6.944052378
 10
4.2776659024
 20
6.9666976389
 10
4.2800177554
 20
6.9886785752
 10
4.2833359054
 20
7.0099446301
 10
4.2876127206
 20
7.0304468909
 10
4.2928383643
 20
7.0501382018
 10
4.2990008172
 20
7.0689732721
 10
4.3060859054
 20
7.0869087806
 10
4.3140773332
 20
7.1039034751
 10
4.3229567199
 20
7.1199182671
 10
4.3327036427
 20
7.1349163222
 10
4.3432956833
 20
7.1488631443
 10
4.3547084797
 20
7.1617266553
 10
4.3669157821
 20
7.1734772688
 10
4.3798895133
 20
7.1840879579
 10
4.3935998333
 20
7.1935343177
 10
4.4080152079
 20
7.2017946212
 10
4.4231024814
 20
7.2088498696
 10
4.4388269525
 20
7.2146838355
 10
4.4551524543
 20
7.2192831006
 10
4.4720414379
 20
7.2226370865
 10
4.4894550578
 20
7.2247380789
 10
4.5073532623
 20
7.2255812453
 10
4.5256948849
 20
7.2251646466
 10
4.5444377393
 20
7.2234892409
 10
4.5635387164
 20
7.2205588817
 10
4.5829538831
 20
7.2163803089
 10
4.6026385842
 20
7.2109631334
 10
4.622547544
 20
7.2043198148
 10
4.6426349714
 20
7.196465633
 10
4.6628546647
 20
7.1874186529
 10
4.6831601179
 20
7.1771996828
 10
4.7035046277
 20
7.1658322266
 10
4.7238414013
 20
7.1533424299
 10
4.7441236633
 20
7.1397590196
 10
4.7643047638
 20
7.125113238
 10
4.7843382859
 20
7.1094387709
 10
4.8041781515
 20
7.09277167
 10
4.8237787286
 20
7.0751502702
 10
4.843094935
 20
7.0566151012
 10
4.8620823429
 20
7.0372087947
 10
4.8806972807
 20
7.0169759856
 10
4.8988969334
 20
6.9959632101
 10
4.9166394412
 20
6.9742187983
 10
4.9338839958
 20
6.951792763
 10
4.9505909341
 20
6.9287366848
 10
4.9667218297
 20
6.9051035934
 10
4.9822395809
 20
6.8809478456
 10
4.9971084966
 20
6.8563250006
 10
5.0112943776
 20
6.8312916916
 10
5.024764596
 20
6.805905496
 10
5.0374881698
 20
6.7802248029
 10
5.0494358345
 20
6.7543086787
 10
5.06058011
 20
6.7282167313
 10
5.0708953641
 20
6.7020089731
 10
5.0803578714
 20
6.6757456827
 10
5.0889458679
 20
6.6494872665
 10
5.0966396009
 20
6.6232941198
 10
5.1034213745
 20
6.5972264875
 10
5.1092755904
 20
6.5713443262
  0
SPLINE
  5
FE
330
1F
100
AcDbEntity
  8
0
  6
Continuous
 62
     7
370
     0
100
AcDbSpline
210
0.0
220
0.0
230
1.0
 70
    24
 71
     1
 72
     4
 73
     2
 74
     0
 42
0.00000001
 43
0.00000001
 40
0.0
 40
0.0
 40
1.0
 40
1.0
 10
5.187006884633685
 20
6.268177630259794
 30
0.0
 10
5.256892823729624
 20
6.312022537625682
 30
0.0
  0
ARC
  5
FF
330
1F
100
AcDbEntity
  8
0
  6
Continuous
 62
     7
370
     0
100
AcDbCircle
 10
5.0638356181
 20
6.4280359338
 30
0.0
 40
0.2018064372101849
100
AcDbArc
 50
302.9885485336
 51
307.6143513249
  0
SPLINE
  5
100
330
1F
100
AcDbEntity
  8
0
  6
Continuous
 62
     7
370
     0
100
AcDbSpline
210
0.0
220
0.0
230
1.0
 70
    24
 71
     1
 72
     4
 73
     2
 74
     0
 42
0.00000001
 43
0.00000001
 40
0.0
 40
0.0
 40
1.0
 40
1.0
 10
5.220755068938209
 20
6.285923092808654
 30
0.0
 10
5.228339262332336
 20
6.290176183752468
 30
0.0
  0
ARC
  5
101
330
1F
100
AcDbEntity
  8
0
  6
Continuous
 62
     7
370
     0
100
AcDbCircle
 10
5.110859692
 20
6.4551699232
 30
0.0
 40
0.2017956477998684
100
AcDbArc
 50
302.9964758031
 51
307.5770579624
  0
SPLINE
  5
102
330
1F
100
AcDbEntity
  8
0
  6
Continuous
 62
     7
370
     0
100
AcDbSpline
210
0.0
220
0.0
230
1.0
 70
    24
 71
     1
 72
     4
 73
     2
 74
     0
 42
0.00000001
 43
0.00000001
 40
0.0
 40
0.0
 40
1.0
 40
1.0
 10
5.245324161299725
 20
6.302196274065918
 30
0.0
 10
5.233920302304985
 20
6.295240033366859
 30
0.0
  0
ARC
  5
103
330
1F
100
AcDbEntity
  8
0
  6
Continuous
 62
     7
370
     0
100
AcDbCircle
 10
5.1173835207
 20
6.4645465688
 30
0.0
 40
0.2067037147727483
100
AcDbArc
 50
308.2399841086
 51
312.4482505286
  0
SPLINE
  5
104
330
1F
100
AcDbEntity
  8
0
  6
Continuous
 62
     7
370
     0
100
AcDbSpline
210
0.0
220
0.0
230
1.0
 70
     8
 71
     3
 72
     9
 73
     5
 74
     0
 42
0.00000001
 43
0.00000001
 40
0.0
 40
0.0
 40
0.0
 40
0.0
 40
0.4984905201624253
 40
1.0
 40
1.0
 40
1.0
 40
1.0
 10
5.112706549572285
 20
6.234736328691268
 30
0.0
 10
5.113996356848147
 20
6.235255300468642
 30
0.0
 10
5.116583782734285
 20
6.236296387021712
 30
0.0
 10
5.120359914518104
 20
6.238468340936761
 30
0.0
 10
5.122253680404804
 20
6.239557596414928
 30
0.0
  0
SPLINE
  5
105
330
1F
100
AcDbEntity
  8
0
  6
Continuous
 62
     7
370
     0
100
AcDbSpline
210
0.0
220
0.0
230
1.0
 70
     8
 71
     3
 72
    12
 73
     8
 74
     0
 42
0.00000001
 43
0.00000001
 40
0.0
 40
0.0
 40
0.0
 40
0.0
 40
0.250080818797617
 40
0.4998836754263833
 40
0.7495855296912387
 40
0.87475935818219
 40
1.0
 40
1.0
 40
1.0
 40
1.0
 10
5.113065613356111
 20
6.237767442485775
 30
0.0
 10
5.112619865665627
 20
6.237220087023331
 30
0.0
 10
5.111728865728472
 20
6.236125984478217
 30
0.0
 10
5.111232247770689
 20
6.235044018269756
 30
0.0
 10
5.111466170932997
 20
6.234616371502218
 30
0.0
 10
5.112071210262648
 20
6.234600461781086
 30
0.0
 10
5.112494732135646
 20
6.234691031666195
 30
0.0
 10
5.112706549572285
 20
6.234736328691268
 30
0.0
  0
ARC
  5
106
330
1F
100
AcDbEntity
  8
0
  6
Continuous
 62
     7
370
     0
100
AcDbCircle
 10
5.1539886772
 20
6.2013108577
 30
0.0
 40
0.0548067489155027
100
AcDbArc
 50
126.006365319
 51
138.3035398677
  0
SPLINE
  5
107
330
1F
100
AcDbEntity
  8
0
  6
Continuous
 62
     7
370
     0
100
AcDbSpline
210
0.0
220
0.0
230
1.0
 70
    24
 71
     1
 72
     4
 73
     2
 74
     0
 42
0.00000001
 43
0.00000001
 40
0.0
 40
0.0
 40
1.0
 40
1.0
 10
5.126505310038829
 20
6.248991993279284
 30
0.0
 10
5.12176915271377
 20
6.245646869820281
 30
0.0
  0
SPLINE
  5
108
330
1F
100
AcDbEntity
  8
0
  6
Continuous
 62
     7
370
     0
100
AcDbSpline
210
0.0
220
0.0
230
1.0
 70
    24
 71
     1
 72
     4
 73
     2
 74
     0
 42
0.00000001
 43
0.00000001
 40
0.0
 40
0.0
 40
1.0
 40
1.0
 10
5.130949419991122
 20
6.257675535116641
 30
0.0
 10
5.126505310038829
 20
6.248991993279284
 30
0.0
  0
ARC
  5
109
330
1F
100
AcDbEntity
  8
0
  6
Continuous
 62
     7
370
     0
100
AcDbCircle
 10
5.218116768
 20
6.1279012076
 30
0.0
 40
0.1563314512748763
100
AcDbArc
 50
123.8886286483
 51
139.3111720103
  0
SPLINE
  5
10A
330
1F
100
AcDbEntity
  8
0
  6
Continuous
 62
     7
370
     0
100
AcDbSpline
210
0.0
220
0.0
230
1.0
 70
     8
 71
     3
 72
    19
 73
    15
 74
     0
 42
0.00000001
 43
0.00000001
 40
0.0
 40
0.0
 40
0.0
 40
0.0
 40
0.0829701692209331
 40
0.1694064023706608
 40
0.2501783849628561
 40
0.3776088566288109
 40
0.4998908317126757
 40
0.6223926478311583
 40
0.6850500467083845
 40
0.7497826758878174
 40
0.8105183335338026
 40
0.8748817092349812
 40
0.9374339760583084
 40
0.9999999999999999
 40
0.9999999999999999
 40
0.9999999999999999
 40
0.9999999999999999
 10
5.111967971185472
 20
6.229142897655638
 30
0.0
 10
5.110705250014227
 20
6.228419569184056
 30
0.0
 10
5.108127057721429
 20
6.226942695323804
 30
0.0
 10
5.104617592293998
 20
6.225032435184756
 30
0.0
 10
5.10082372349081
 20
6.22307557437932
 30
0.0
 10
5.097325723201878
 20
6.221520436943472
 30
0.0
 10
5.094796626778392
 20
6.220898518216107
 30
0.0
 10
5.094034895361753
 20
6.221417073313082
 30
0.0
 10
5.09422647164156
 20
6.222448676004118
 30
0.0
 10
5.094745209403216
 20
6.223506998697756
 30
0.0
 10
5.09559497451361
 20
6.224818441848071
 30
0.0
 10
5.096693190257259
 20
6.226310553766143
 30
0.0
 10
5.0980301372263
 20
6.227988153831053
 30
0.0
 10
5.099061108933507
 20
6.229210396752044
 30
0.0
 10
5.099576651466273
 20
6.229821585407113
 30
0.0
  0
ARC
  5
10B
330
1F
100
AcDbEntity
  8
0
  6
Continuous
 62
     7
370
     0
100
AcDbCircle
 10
5.0225132656
 20
6.3958625998
 30
0.0
 40
0.1892025460774477
100
AcDbArc
 50
298.2161159128
 51
315.7846149661
  0
SPLINE
  5
10C
330
1F
100
AcDbEntity
  8
0
  6
Continuous
 62
     7
370
     0
100
AcDbSpline
210
0.0
220
0.0
230
1.0
 70
     8
 71
     3
 72
    12
 73
     8
 74
     0
 42
0.00000001
 43
0.00000001
 40
0.0
 40
0.0
 40
0.0
 40
0.0
 40
0.250055640247613
 40
0.4992905034113869
 40
0.6221977203153547
 40
0.7497124650526196
 40
1.0
 40
1.0
 40
1.0
 40
1.0
 10
5.151931463508889
 20
6.270101673204176
 30
0.0
 10
5.154337016877245
 20
6.271120982240332
 30
0.0
 10
5.159140227678969
 20
6.273156254555284
 30
0.0
 10
5.162378875577011
 20
6.272985233502394
 30
0.0
 10
5.162819336400558
 20
6.271277530510986
 30
0.0
 10
5.161862376186535
 20
6.268622410230862
 30
0.0
 10
5.15961079062915
 20
6.265794326639677
 30
0.0
 10
5.158119153788443
 20
6.263920769732466
 30
0.0
  0
SPLINE
  5
10D
330
1F
100
AcDbEntity
  8
0
  6
Continuous
 62
     7
370
     0
100
AcDbSpline
210
0.0
220
0.0
230
1.0
 70
    24
 71
     1
 72
     4
 73
     2
 74
     0
 42
0.00000001
 43
0.00000001
 40
0.0
 40
0.0
 40
1.0
 40
1.0
 10
5.139383139023927
 20
6.256697361610248
 30
0.0
 10
5.151931463508889
 20
6.270101673204176
 30
0.0
  0
SPLINE
  5
10E
330
1F
100
AcDbEntity
  8
0
  6
Continuous
 62
     7
370
     0
100
AcDbSpline
210
0.0
220
0.0
230
1.0
 70
     8
 71
     3
 72
    12
 73
     8
 74
     0
 42
0.00000001
 43
0.00000001
 40
0.0
 40
0.0
 40
0.0
 40
0.0
 40
0.2496051400866957
 40
0.3732159072003603
 40
0.4996200303288522
 40
0.7495073398937188
 40
0.9999999999999999
 40
0.9999999999999999
 40
0.9999999999999999
 40
0.9999999999999999
 10
5.144346456019317
 20
6.255640254453125
 30
0.0
 10
5.145052109646557
 20
6.256533318434666
 30
0.0
 10
5.146107220765535
 20
6.257868650246918
 30
0.0
 10
5.146185037101393
 20
6.258827037520068
 30
0.0
 10
5.14532503041414
 20
6.259084372080206
 30
0.0
 10
5.143024406584486
 20
6.258403554343592
 30
0.0
 10
5.14059787340261
 20
6.257266551029971
 30
0.0
 10
5.139383139023927
 20
6.256697361610248
 30
0.0
  0
ARC
  5
10F
330
1F
100
AcDbEntity
  8
0
  6
Continuous
 62
     7
370
     0
100
AcDbCircle
 10
5.0833082664
 20
6.3162727514
 30
0.0
 40
0.0860346457815503
100
AcDbArc
 50
296.9152006572
 51
315.1910434652
  0
LINE
  5
110
330
1F
100
AcDbEntity
  8
0
  6
Continuous
 62
     7
370
     0
100
AcDbLine
 10
5.539319053
 20
7.7116867856
 30
0.0
 11
5.5518082117
 21
7.7188966234
 31
0.0
  0
ARC
  5
111
330
1F
100
AcDbEntity
  8
0
  6
Continuous
 62
     7
370
     0
100
AcDbCircle
 10
5.3432987632
 20
7.2532386607
 30
0.0
 40
0.4985966678820627
100
AcDbArc
 50
61.5219372811
 51
66.8497295513
  0
LINE
  5
112
330
1F
100
AcDbEntity
  8
0
  6
Continuous
 62
     7
370
     0
100
AcDbLine
 10
5.5935299048
 20
7.6987148409
 30
0.0
 11
5.5810407461
 21
7.691505003
 31
0.0
  0
ARC
  5
113
330
1F
100
AcDbEntity
  8
0
  6
Continuous
 62
     7
370
     0
100
AcDbCircle
 10
5.3557879219
 20
7.2604484986
 30
0.0
 40
0.4985966678828205
100
AcDbArc
 50
61.5219372811
 51
66.8497295513
  0
ARC
  5
114
330
1F
100
AcDbEntity
  8
0
  6
Continuous
 62
     7
370
     0
100
AcDbCircle
 10
5.4496543242
 20
7.9383413349
 30
0.0
 40
0.2265390634788439
100
AcDbArc
 50
278.9750853732
 51
295.2094305276
  0
ARC
  5
115
330
1F
100
AcDbEntity
  8
0
  6
Continuous
 62
     7
370
     0
100
AcDbCircle
 10
5.4005142134
 20
7.3451811058
 30
0.0
 40
0.414614515789994
100
AcDbArc
 50
69.4367798014
 51
71.6564408386
  0
ARC
  5
116
330
1F
100
AcDbEntity
  8
0
  6
Continuous
 62
     7
370
     0
100
AcDbCircle
 10
5.4444215518
 20
7.9056491736
 30
0.0
 40
0.1880385944148987
100
AcDbArc
 50
290.6733967233
 51
297.4145537592
  0
ARC
  5
117
330
1F
100
AcDbEntity
  8
0
  6
Continuous
 62
     7
370
     0
100
AcDbCircle
 10
5.4355793529
 20
7.931138384
 30
0.0
 40
0.2150093843074031
100
AcDbArc
 50
283.6535646297
 51
290.4799608762
  0
ARC
  5
118
330
1F
100
AcDbEntity
  8
0
  6
Continuous
 62
     7
370
     0
100
AcDbCircle
 10
5.4352099832
 20
7.9365412653
 30
0.0
 40
0.2203486798845977
100
AcDbArc
 50
277.7687191999
 51
283.4152728699
  0
LINE
  5
119
330
1F
100
AcDbEntity
  8
0
  6
Continuous
 62
     7
370
     0
100
AcDbLine
 10
5.4544233743
 20
7.7121118118
 30
0.0
 11
5.464995539
 21
7.7182149925
 31
0.0
  0
ARC
  5
11A
330
1F
100
AcDbEntity
  8
0
  6
Continuous
 62
     7
370
     0
100
AcDbCircle
 10
5.3472357191
 20
7.3210699087
 30
0.0
 40
0.4054663530154277
100
AcDbArc
 50
68.0192019719
 51
74.6712821309
  0
LINE
  5
11B
330
1F
100
AcDbEntity
  8
0
  6
Continuous
 62
     7
370
     0
100
AcDbLine
 10
5.5122239026
 20
7.7046965938
 30
0.0
 11
5.4990000875
 21
7.6970626478
 31
0.0
  0
ARC
  5
11C
330
1F
100
AcDbEntity
  8
0
  6
Continuous
 62
     7
370
     0
100
AcDbCircle
 10
5.3553251325
 20
7.3147317161
 30
0.0
 40
0.4203448940351505
100
AcDbArc
 50
68.083066341
 51
72.032001602
  0
LINE
  5
11D
330
1F
100
AcDbEntity
  8
0
  6
Continuous
 62
     7
370
     0
100
AcDbLine
 10
5.4179014609
 20
7.7441597292
 30
0.0
 11
5.438609588
 21
7.7561142766
 31
0.0
  0
ARC
  5
11E
330
1F
100
AcDbEntity
  8
0
  6
Continuous
 62
     7
370
     0
100
AcDbCircle
 10
5.401411119
 20
7.7692194677
 30
0.0
 40
0.0299986977784939
100
AcDbArc
 50
273.6789072316
 51
303.3465661893
  0
SPLINE
  5
11F
330
1F
100
AcDbEntity
  8
0
  6
Continuous
 62
     7
370
     0
100
AcDbSpline
210
0.0
220
0.0
230
1.0
 70
     8
 71
     3
 72
    11
 73
     7
 74
     0
 42
0.00000001
 43
0.00000001
 40
0.0
 40
0.0
 40
0.0
 40
0.0
 40
0.2500620333659193
 40
0.4999138376967031
 40
0.7498401673007614
 40
1.0
 40
1.0
 40
1.0
 40
1.0
 10
5.40234465070472
 20
7.741258364592979
 30
0.0
 10
5.402057267899838
 20
7.740978953262054
 30
0.0
 10
5.401482743894963
 20
7.740420365503415
 30
0.0
 10
5.401420525004059
 20
7.739777162477575
 30
0.0
 10
5.402009292085896
 20
7.739359357210838
 30
0.0
 10
5.402893615318609
 20
7.739308185685656
 30
0.0
 10
5.4033359833916
 20
7.739282587976414
 30
0.0
  0
SPLINE
  5
120
330
1F
100
AcDbEntity
  8
0
  6
Continuous
 62
     7
370
     0
100
AcDbSpline
210
0.0
220
0.0
230
1.0
 70
    24
 71
     1
 72
     4
 73
     2
 74
     0
 42
0.00000001
 43
0.00000001
 40
0.0
 40
0.0
 40
1.0
 40
1.0
 10
5.405696569121825
 20
7.743357407111662
 30
0.0
 10
5.40234465070472
 20
7.741258364592979
 30
0.0
  0
LINE
  5
121
330
1F
100
AcDbEntity
  8
0
  6
Continuous
 62
     7
370
     0
100
AcDbLine
 10
5.4280461942
 20
7.756259571
 30
0.0
 11
5.4056965691
 21
7.7433574071
 31
0.0
  0
ARC
  5
122
330
1F
100
AcDbEntity
  8
0
  6
Continuous
 62
     7
370
     0
100
AcDbCircle
 10
5.4295607146
 20
7.5018621305
 30
0.0
 40
0.2544019486980935
100
AcDbArc
 50
90.3410985807
 51
93.4151572111
  0
LINE
  5
123
330
1F
100
AcDbEntity
  8
0
  6
Continuous
 62
     7
370
     0
100
AcDbLine
 10
5.393410774
 20
7.7436920732
 30
0.0
 11
5.4144058763
 21
7.7558122878
 31
0.0
  0
ARC
  5
124
330
1F
100
AcDbEntity
  8
0
  6
Continuous
 62
     7
370
     0
100
AcDbCircle
 10
5.3743279039
 20
7.7733435681
 30
0.0
 40
0.0352614106587698
100
AcDbArc
 50
278.2132843656
 51
302.764195763
  0
SPLINE
  5
125
330
1F
100
AcDbEntity
  8
0
  6
Continuous
 62
     7
370
     0
100
AcDbSpline
210
0.0
220
0.0
230
1.0
 70
     8
 71
     3
 72
    10
 73
     6
 74
     0
 42
0.00000001
 43
0.00000001
 40
0.0
 40
0.0
 40
0.0
 40
0.0
 40
0.49882265730329
 40
0.7491700015752112
 40
1.0
 40
1.0
 40
1.0
 40
1.0
 10
5.377900262081087
 20
7.739338976100989
 30
0.0
 10
5.377797253381702
 20
7.739047363850538
 30
0.0
 10
5.377642547041983
 20
7.738609398279143
 30
0.0
 10
5.378406965365659
 20
7.738404087584633
 30
0.0
 10
5.379045645513732
 20
7.738430573351319
 30
0.0
 10
5.379365293125241
 20
7.738443828988097
 30
0.0
  0
SPLINE
  5
126
330
1F
100
AcDbEntity
  8
0
  6
Continuous
 62
     7
370
     0
100
AcDbSpline
210
0.0
220
0.0
230
1.0
 70
     8
 71
     3
 72
     9
 73
     5
 74
     0
 42
0.00000001
 43
0.00000001
 40
0.0
 40
0.0
 40
0.0
 40
0.0
 40
0.5015771373280637
 40
1.0
 40
1.0
 40
1.0
 40
1.0
 10
5.381018094423268
 20
7.741606467302344
 30
0.0
 10
5.380296861966547
 20
7.741184241516441
 30
0.0
 10
5.378858932677019
 20
7.740342445201414
 30
0.0
 10
5.378219146259037
 20
7.739672761679211
 30
0.0
 10
5.377900262081087
 20
7.739338976100989
 30
0.0
  0
LINE
  5
127
330
1F
100
AcDbEntity
  8
0
  6
Continuous
 62
     7
370
     0
100
AcDbLine
 10
5.4041942079
 20
7.7549857528
 30
0.0
 11
5.3810180944
 21
7.7416064673
 31
0.0
  0
ARC
  5
128
330
1F
100
AcDbEntity
  8
0
  6
Continuous
 62
     7
370
     0
100
AcDbCircle
 10
5.427909334
 20
7.5226889445
 30
0.0
 40
0.233504206320852
100
AcDbArc
 50
95.8291175525
 51
99.0839699167
  0
LINE
  5
129
330
1F
100
AcDbEntity
  8
0
  6
Continuous
 62
     7
370
     0
100
AcDbLine
 10
5.3653188157
 20
7.7384141345
 30
0.0
 11
5.3910432685
 21
7.7532645451
 31
0.0
  0
SPLINE
  5
12A
330
1F
100
AcDbEntity
  8
0
  6
Continuous
 62
     7
370
     0
100
AcDbSpline
210
0.0
220
0.0
230
1.0
 70
     8
 71
     3
 72
    13
 73
     9
 74
     0
 42
0.00000001
 43
0.00000001
 40
0.0
 40
0.0
 40
0.0
 40
0.0
 40
0.2493551011003447
 40
0.3758643206381971
 40
0.4994912623308839
 40
0.6184449072843955
 40
0.7497843925020771
 40
1.0
 40
1.0
 40
1.0
 40
1.0
 10
5.361192022384417
 20
7.730693612645044
 30
0.0
 10
5.359581107310824
 20
7.730581938844116
 30
0.0
 10
5.357152901522892
 20
7.730413607828896
 30
0.0
 10
5.356013821659245
 20
7.731123462331018
 30
0.0
 10
5.356211116477537
 20
7.732052013530462
 30
0.0
 10
5.357496940319909
 20
7.733367653294511
 30
0.0
 10
5.360338252351396
 20
7.735459011405585
 30
0.0
 10
5.363346241317021
 20
7.737243744825844
 30
0.0
 10
5.365318815660149
 20
7.738414134542814
 30
0.0
  0
ARC
  5
12B
330
1F
100
AcDbEntity
  8
0
  6
Continuous
 62
     7
370
     0
100
AcDbCircle
 10
5.3510026076
 20
7.8100277107
 30
0.0
 40
0.0799857692358579
100
AcDbArc
 50
277.3188162367
 51
291.8220763183
  0
SPLINE
  5
12C
330
1F
100
AcDbEntity
  8
0
  6
Continuous
 62
     7
370
     0
100
AcDbSpline
210
0.0
220
0.0
230
1.0
 70
     8
 71
     3
 72
    12
 73
     8
 74
     0
 42
0.00000001
 43
0.00000001
 40
0.0
 40
0.0
 40
0.0
 40
0.0
 40
0.250353368840783
 40
0.4999961943216297
 40
0.7494886161542235
 40
0.8747044873187659
 40
1.0
 40
1.0
 40
1.0
 40
1.0
 10
5.384809380917113
 20
7.732073430553533
 30
0.0
 10
5.383724208836535
 20
7.732085113885621
 30
0.0
 10
5.381556944569294
 20
7.732108447390615
 30
0.0
 10
5.379416522074149
 20
7.732668333606725
 30
0.0
 10
5.379288864703575
 20
7.733770314454333
 30
0.0
 10
5.379897237260247
 20
7.734855932564161
 30
0.0
 10
5.380455928089915
 20
7.735467584849746
 30
0.0
 10
5.380735362313058
 20
7.73577350821949
 30
0.0
  0
ARC
  5
12D
330
1F
100
AcDbEntity
  8
0
  6
Continuous
 62
     7
370
     0
100
AcDbCircle
 10
5.3815727131
 20
7.8014498108
 30
0.0
 40
0.0694518405430734
100
AcDbArc
 50
272.6711256951
 51
289.4842813896
  0
LINE
  5
12E
330
1F
100
AcDbEntity
  8
0
  6
Continuous
 62
     7
370
     0
100
AcDbLine
 10
5.398424799
 20
7.7323305875
 30
0.0
 11
5.4047382524
 21
7.7359752665
 31
0.0
  0
ARC
  5
12F
330
1F
100
AcDbEntity
  8
0
  6
Continuous
 62
     7
370
     0
100
AcDbCircle
 10
5.3879942808
 20
7.4515469039
 30
0.0
 40
0.2809773526109743
100
AcDbArc
 50
85.1924911522
 51
87.872561581
  0
LINE
  5
130
330
1F
100
AcDbEntity
  8
0
  6
Continuous
 62
     7
370
     0
100
AcDbLine
 10
5.4526833118
 20
7.7552857998
 30
0.0
 11
5.4115425536
 21
7.7315357457
 31
0.0
  0
ARC
  5
131
330
1F
100
AcDbEntity
  8
0
  6
Continuous
 62
     7
370
     0
100
AcDbCircle
 10
5.4291725015
 20
7.4758493258
 30
0.0
 40
0.2804237885685935
100
AcDbArc
 50
85.1906599707
 51
88.0714641057
  0
SPLINE
  5
132
330
1F
100
AcDbEntity
  8
0
  6
Continuous
 62
     7
370
     0
100
AcDbSpline
210
0.0
220
0.0
230
1.0
 70
    24
 71
     1
 72
     4
 73
     2
 74
     0
 42
0.00000001
 43
0.00000001
 40
0.0
 40
0.0
 40
1.0
 40
1.0
 10
5.247226909118321
 20
7.180780453119993
 30
0.0
 10
5.254797925790617
 20
7.172829216014237
 30
0.0
  0
SPLINE
  5
133
330
1F
100
AcDbEntity
  8
0
  6
Continuous
 62
     7
370
     0
100
AcDbSpline
210
0.0
220
0.0
230
1.0
 70
    24
 71
     1
 72
     4
 73
     2
 74
     0
 42
0.00000001
 43
0.00000001
 40
0.0
 40
0.0
 40
1.0
 40
1.0
 10
5.23952237122154
 20
7.186723313751529
 30
0.0
 10
5.247226909118321
 20
7.180780453119993
 30
0.0
  0
ARC
  5
134
330
1F
100
AcDbEntity
  8
0
  6
Continuous
 62
     7
370
     0
100
AcDbCircle
 10
5.2292143237
 20
7.1671505302
 30
0.0
 40
0.0221212499518529
100
AcDbArc
 50
62.2263721708
 51
117.5613261155
  0
SPLINE
  5
135
330
1F
100
AcDbEntity
  8
0
  6
Continuous
 62
     7
370
     0
100
AcDbSpline
210
0.0
220
0.0
230
1.0
 70
     8
 71
     3
 72
    12
 73
     8
 74
     0
 42
0.00000001
 43
0.00000001
 40
0.0
 40
0.0
 40
0.0
 40
0.0
 40
0.2503638791654156
 40
0.4997444809983781
 40
0.6245272986140644
 40
0.7501926945850022
 40
1.0
 40
1.0
 40
1.0
 40
1.0
 10
5.215557463977605
 20
7.165347970479926
 30
0.0
 10
5.214574138196824
 20
7.167399456868228
 30
0.0
 10
5.212611348541999
 20
7.171494372651664
 30
0.0
 10
5.211968356396307
 20
7.176809584906126
 30
0.0
 10
5.212998238638272
 20
7.180564646638097
 30
0.0
 10
5.214898813955846
 20
7.183916973626722
 30
0.0
 10
5.217348836382677
 20
7.18562500014005
 30
0.0
 10
5.218978870998759
 20
7.186761374367249
 30
0.0
  0
SPLINE
  5
136
330
1F
100
AcDbEntity
  8
0
  6
Continuous
 62
     7
370
     0
100
AcDbSpline
210
0.0
220
0.0
230
1.0
 70
     8
 71
     3
 72
     9
 73
     5
 74
     0
 42
0.00000001
 43
0.00000001
 40
0.0
 40
0.0
 40
0.0
 40
0.0
 40
0.4993318956962293
 40
1.0
 40
1.0
 40
1.0
 40
1.0
 10
5.206374966573926
 20
7.169886310061437
 30
0.0
 10
5.208003883864119
 20
7.169375944323161
 30
0.0
 10
5.211266077415612
 20
7.168353847111519
 30
0.0
 10
5.214125728093657
 20
7.166350821510473
 30
0.0
 10
5.215557463977605
 20
7.165347970479926
 30
0.0
  0
SPLINE
  5
137
330
1F
100
AcDbEntity
  8
0
  6
Continuous
 62
     7
370
     0
100
AcDbSpline
210
0.0
220
0.0
230
1.0
 70
     8
 71
     3
 72
     9
 73
     5
 74
     0
 42
0.00000001
 43
0.00000001
 40
0.0
 40
0.0
 40
0.0
 40
0.0
 40
0.500130002153583
 40
0.9999999999999999
 40
0.9999999999999999
 40
0.9999999999999999
 40
0.9999999999999999
 10
5.195192562251384
 20
7.168450610078855
 30
0.0
 10
5.19685401326455
 20
7.169211622151429
 30
0.0
 10
5.200176051546621
 20
7.170733250666609
 30
0.0
 10
5.204309019761337
 20
7.170168574657096
 30
0.0
 10
5.206374966573926
 20
7.169886310061437
 30
0.0
  0
SPLINE
  5
138
330
1F
100
AcDbEntity
  8
0
  6
Continuous
 62
     7
370
     0
100
AcDbSpline
210
0.0
220
0.0
230
1.0
 70
     8
 71
     3
 72
    13
 73
     9
 74
     0
 42
0.00000001
 43
0.00000001
 40
0.0
 40
0.0
 40
0.0
 40
0.0
 40
0.2502329787225354
 40
0.4994066255424385
 40
0.625701360713074
 40
0.749600287421374
 40
0.8740371171816169
 40
1.0
 40
1.0
 40
1.0
 40
1.0
 10
5.196216154124751
 20
7.142690121428962
 30
0.0
 10
5.194550055794236
 20
7.144931784845534
 30
0.0
 10
5.191224912364654
 20
7.14940562186009
 30
0.0
 10
5.189132992324362
 20
7.15571559078636
 30
0.0
 10
5.189302034820571
 20
7.160465915613803
 30
0.0
 10
5.190359994350915
 20
7.163713077984248
 30
0.0
 10
5.192294112603554
 20
7.166500886592717
 30
0.0
 10
5.194222494880689
 20
7.167798067041857
 30
0.0
 10
5.195192562251384
 20
7.168450610078855
 30
0.0
  0
ARC
  5
139
330
1F
100
AcDbEntity
  8
0
  6
Continuous
 62
     7
370
     0
100
AcDbCircle
 10
4.4249515599
 20
6.5239188533
 30
0.0
 40
0.9888007668800003
100
AcDbArc
 50
36.1258738417
 51
38.7394249604
  0
LINE
  5
13A
330
1F
100
AcDbEntity
  8
0
  6
Continuous
 62
     7
370
     0
100
AcDbLine
 10
5.2801979461
 20
7.1395337171
 30
0.0
 11
5.2236294036
 21
7.1068773927
 31
0.0
  0
ARC
  5
13B
330
1F
100
AcDbEntity
  8
0
  6
Continuous
 62
     7
370
     0
100
AcDbCircle
 10
4.4805303071
 20
6.5558302362
 30
0.0
 40
0.9900394367688223
100
AcDbArc
 50
36.1269249237
 51
38.5506676577
  0
SPLINE
  5
13C
330
1F
100
AcDbEntity
  8
0
  6
Continuous
 62
     7
370
     0
100
AcDbSpline
210
0.0
220
0.0
230
1.0
 70
    24
 71
     1
 72
     4
 73
     2
 74
     0
 42
0.00000001
 43
0.00000001
 40
0.0
 40
0.0
 40
1.0
 40
1.0
 10
5.079722883144391
 20
7.263168840179302
 30
0.0
 10
5.115642780630095
 20
7.312671860212559
 30
0.0
  0
ARC
  5
13D
330
1F
100
AcDbEntity
  8
0
  6
Continuous
 62
     7
370
     0
100
AcDbCircle
 10
4.5743580025
 20
6.66594658
 30
0.0
 40
0.7823478067444676
100
AcDbArc
 50
47.888062348
 51
49.7623576066
  0
SPLINE
  5
13E
330
1F
100
AcDbEntity
  8
0
  6
Continuous
 62
     7
370
     0
100
AcDbSpline
210
0.0
220
0.0
230
1.0
 70
    24
 71
     1
 72
     4
 73
     2
 74
     0
 42
0.00000001
 43
0.00000001
 40
0.0
 40
0.0
 40
1.0
 40
1.0
 10
5.175357982986405
 20
7.260472378359205
 30
0.0
 10
5.098985730461126
 20
7.246320457511269
 30
0.0
  0
ARC
  5
13F
330
1F
100
AcDbEntity
  8
0
  6
Continuous
 62
     7
370
     0
100
AcDbCircle
 10
4.6030637796
 20
6.6678675123
 30
0.0
 40
0.8238332249858471
100
AcDbArc
 50
45.9988825461
 51
47.6289474986
  0
SPLINE
  5
140
330
1F
100
AcDbEntity
  8
0
  6
Continuous
 62
     7
370
     0
100
AcDbSpline
210
0.0
220
0.0
230
1.0
 70
    24
 71
     1
 72
     4
 73
     2
 74
     0
 42
0.00000001
 43
0.00000001
 40
0.0
 40
0.0
 40
1.0
 40
1.0
 10
5.145970600899011
 20
7.273493322689773
 30
0.0
 10
5.158269055995326
 20
7.276512140609462
 30
0.0
  0
ARC
  5
141
330
1F
100
AcDbEntity
  8
0
  6
Continuous
 62
     7
370
     0
100
AcDbCircle
 10
4.6212931676
 20
6.6929963665
 30
0.0
 40
0.7824724436667503
100
AcDbArc
 50
47.891405831
 51
49.747118483
  0
SPLINE
  5
142
330
1F
100
AcDbEntity
  8
0
  6
Continuous
 62
     7
370
     0
100
AcDbSpline
210
0.0
220
0.0
230
1.0
 70
    24
 71
     1
 72
     4
 73
     2
 74
     0
 42
0.00000001
 43
0.00000001
 40
0.0
 40
0.0
 40
1.0
 40
1.0
 10
5.13366210874481
 20
7.298039286286179
 30
0.0
 10
5.126897411024935
 20
7.290179315176317
 30
0.0
  0
ARC
  5
143
330
1F
100
AcDbEntity
  8
0
  6
Continuous
 62
     7
370
     0
100
AcDbCircle
 10
4.6588391115
 20
6.7317283131
 30
0.0
 40
0.7390297673334884
100
AcDbArc
 50
50.0218752771
 51
51.8215571209
  0
LINE
  5
144
330
1F
100
AcDbEntity
  8
0
  6
Continuous
 62
     7
370
     0
100
AcDbLine
 10
4.9744237145
 20
7.3866741356
 30
0.0
 11
4.9839742477
 21
7.392187541
 31
0.0
  0
ARC
  5
145
330
1F
100
AcDbEntity
  8
0
  6
Continuous
 62
     7
370
     0
100
AcDbCircle
 10
4.7985282974
 20
6.9709261687
 30
0.0
 40
0.4514261509034883
100
AcDbArc
 50
67.0676603426
 51
68.0663610746
  0
LINE
  5
146
330
1F
100
AcDbEntity
  8
0
  6
Continuous
 62
     7
370
     0
100
AcDbLine
 10
4.953926803
 20
7.3820428439
 30
0.0
 11
4.9671506181
 21
7.3896767898
 31
0.0
  0
ARC
  5
147
330
1F
100
AcDbEntity
  8
0
  6
Continuous
 62
     7
370
     0
100
AcDbCircle
 10
4.7853044823
 20
6.9632922228
 30
0.0
 40
0.4514261509061635
100
AcDbArc
 50
67.0676603426
 51
68.0663610746
  0
LINE
  5
148
330
1F
100
AcDbEntity
  8
0
  6
Continuous
 62
     7
370
     0
100
AcDbLine
 10
4.9266710488
 20
7.3591071085
 30
0.0
 11
4.9611998994
 21
7.3790401896
 31
0.0
  0
ARC
  5
149
330
1F
100
AcDbEntity
  8
0
  6
Continuous
 62
     7
370
     0
100
AcDbCircle
 10
4.7432371421
 20
6.9256677167
 30
0.0
 40
0.4706566736110347
100
AcDbArc
 50
65.2161630986
 51
67.0616545005
  0
SPLINE
  5
14A
330
1F
100
AcDbEntity
  8
0
  6
Continuous
 62
     7
370
     0
100
AcDbSpline
210
0.0
220
0.0
230
1.0
 70
    24
 71
     1
 72
     4
 73
     2
 74
     0
 42
0.00000001
 43
0.00000001
 40
0.0
 40
0.0
 40
1.0
 40
1.0
 10
5.003727275076272
 20
7.358639380497863
 30
0.0
 10
4.940534528806436
 20
7.35297491959417
 30
0.0
  0
LINE
  5
14B
330
1F
100
AcDbEntity
  8
0
  6
Continuous
 62
     7
370
     0
100
AcDbLine
 10
5.0168707372
 20
7.3662269397
 30
0.0
 11
5.0037272751
 21
7.3586393805
 31
0.0
  0
ARC
  5
14C
330
1F
100
AcDbEntity
  8
0
  6
Continuous
 62
     7
370
     0
100
AcDbCircle
 10
4.7740725609
 20
6.9171134459
 30
0.0
 40
0.5105427353789181
100
AcDbArc
 50
61.6036115239
 51
65.1917884538
  0
LINE
  5
14D
330
1F
100
AcDbEntity
  8
0
  6
Continuous
 62
     7
370
     0
100
AcDbLine
 10
4.9978377277
 20
7.3860553522
 30
0.0
 11
4.9882871945
 21
7.3805419467
 31
0.0
  0
ARC
  5
14E
330
1F
100
AcDbEntity
  8
0
  6
Continuous
 62
     7
370
     0
100
AcDbCircle
 10
4.800540341
 20
6.9587481493
 30
0.0
 40
0.4706566736028697
100
AcDbArc
 50
65.2161630986
 51
67.0616545005
  0
ARC
  5
14F
330
1F
100
AcDbEntity
  8
0
  6
Continuous
 62
     7
370
     0
100
AcDbCircle
 10
4.892531296
 20
7.3417186943
 30
0.0
 40
0.0767338995473122
100
AcDbArc
 50
85.0183263617
 51
125.6679410441
  0
SPLINE
  5
150
330
1F
100
AcDbEntity
  8
0
  6
Continuous
 62
     7
370
     0
100
AcDbSpline
210
0.0
220
0.0
230
1.0
 70
    24
 71
     1
 72
     4
 73
     2
 74
     0
 42
0.00000001
 43
0.00000001
 40
0.0
 40
0.0
 40
1.0
 40
1.0
 10
4.836186573828495
 20
7.396359616732298
 30
0.0
 10
4.847788777328898
 20
7.404058074841919
 30
0.0
  0
SPLINE
  5
151
330
1F
100
AcDbEntity
  8
0
  6
Continuous
 62
     7
370
     0
100
AcDbSpline
210
0.0
220
0.0
230
1.0
 70
     8
 71
     3
 72
    12
 73
     8
 74
     0
 42
0.00000001
 43
0.00000001
 40
0.0
 40
0.0
 40
0.0
 40
0.0
 40
0.2503309494299802
 40
0.499764804332148
 40
0.6249322238031061
 40
0.750190450128108
 40
1.0
 40
1.0
 40
1.0
 40
1.0
 10
4.840756523109302
 20
7.384725235986665
 30
0.0
 10
4.838566205841919
 20
7.38514148154727
 30
0.0
 10
4.83419342060281
 20
7.385972480996694
 30
0.0
 10
4.831221675756897
 20
7.388061313050452
 30
0.0
 10
4.831098892486799
 20
7.390324460576418
 30
0.0
 10
4.832065067564574
 20
7.392831587650113
 30
0.0
 10
4.83453890382731
 20
7.394949203327638
 30
0.0
 10
4.836186573828495
 20
7.396359616732298
 30
0.0
  0
ARC
  5
152
330
1F
100
AcDbEntity
  8
0
  6
Continuous
 62
     7
370
     0
100
AcDbCircle
 10
4.8507014331
 20
7.4586202325
 30
0.0
 40
0.0745611946061423
100
AcDbArc
 50
262.3350946348
 51
303.8915691936
  0
ARC
  5
153
330
1F
100
AcDbEntity
  8
0
  6
Continuous
 62
     7
370
     0
100
AcDbCircle
 10
4.8715533756
 20
7.4396241538
 30
0.0
 40
0.0476409528171042
100
AcDbArc
 50
295.7870006659
 51
320.7189027695
  0
SPLINE
  5
154
330
1F
100
AcDbEntity
  8
0
  6
Continuous
 62
     7
370
     0
100
AcDbSpline
210
0.0
220
0.0
230
1.0
 70
     8
 71
     3
 72
    13
 73
     9
 74
     0
 42
0.00000001
 43
0.00000001
 40
0.0
 40
0.0
 40
0.0
 40
0.0
 40
0.1642852523051958
 40
0.3377332377165998
 40
0.5003699049563012
 40
0.7497971218191126
 40
0.8748630895912551
 40
1.0
 40
1.0
 40
1.0
 40
1.0
 10
4.899194645320011
 20
7.418162733443881
 30
0.0
 10
4.90030702781643
 20
7.417952568044362
 30
0.0
 10
4.9025938340685
 20
7.41752051562432
 30
0.0
 10
4.905497425782336
 20
7.416562457202225
 30
0.0
 10
4.908148791069936
 20
7.415060273332044
 30
0.0
 10
4.909211694664859
 20
7.413138961872067
 30
0.0
 10
4.909154778262152
 20
7.411104709552204
 30
0.0
 10
4.908671514189819
 20
7.410009306697968
 30
0.0
 10
4.908429813641197
 20
7.409461449975341
 30
0.0
  0
ARC
  5
155
330
1F
100
AcDbEntity
  8
0
  6
Continuous
 62
     7
370
     0
100
AcDbCircle
 10
4.5951680011
 20
7.888113093
 30
0.0
 40
0.5259766860217711
100
AcDbArc
 50
290.452840512
 51
297.5047819466
  0
ARC
  5
156
330
1F
100
AcDbEntity
  8
0
  6
Continuous
 62
     7
370
     0
100
AcDbCircle
 10
4.8497949635
 20
7.1774174629
 30
0.0
 40
0.2444499518762095
100
AcDbArc
 50
92.7478337393
 51
95.9047765456
  0
ARC
  5
157
330
1F
100
AcDbEntity
  8
0
  6
Continuous
 62
     7
370
     0
100
AcDbCircle
 10
4.6170272414
 20
7.7981995291
 30
0.0
 40
0.4309405198841773
100
AcDbArc
 50
295.8326896087
 51
298.8019180548
  0
ARC
  5
158
330
1F
100
AcDbEntity
  8
0
  6
Continuous
 62
     7
370
     0
100
AcDbCircle
 10
4.5671305412
 20
7.9033654532
 30
0.0
 40
0.5473402327725004
100
AcDbArc
 50
293.0303410182
 51
295.7369116791
  0
ARC
  5
159
330
1F
100
AcDbEntity
  8
0
  6
Continuous
 62
     7
370
     0
100
AcDbCircle
 10
4.5191915308
 20
8.0192470371
 30
0.0
 40
0.6727415305474482
100
AcDbArc
 50
291.0831503791
 51
292.926704241
  0
LINE
  5
15A
330
1F
100
AcDbEntity
  8
0
  6
Continuous
 62
     7
370
     0
100
AcDbLine
 10
4.7506195831
 20
7.3854360725
 30
0.0
 11
4.7611917478
 21
7.3915392533
 31
0.0
  0
ARC
  5
15B
330
1F
100
AcDbEntity
  8
0
  6
Continuous
 62
     7
370
     0
100
AcDbCircle
 10
4.7930936915
 20
7.1487366215
 30
0.0
 40
0.2404801031246364
100
AcDbArc
 50
90.7477006648
 51
100.1730699621
  0
LINE
  5
15C
330
1F
100
AcDbEntity
  8
0
  6
Continuous
 62
     7
370
     0
100
AcDbLine
 10
4.8031793692
 20
7.3968301942
 30
0.0
 11
4.7899555541
 21
7.3891962482
 31
0.0
  0
ARC
  5
15D
330
1F
100
AcDbEntity
  8
0
  6
Continuous
 62
     7
370
     0
100
AcDbCircle
 10
4.8067041752
 20
7.1496459315
 30
0.0
 40
0.2472093930197174
100
AcDbArc
 50
90.8169728092
 51
96.4430690706
  0
ARC
  5
15E
330
1F
100
AcDbEntity
  8
0
  6
Continuous
 62
     7
370
     0
100
AcDbCircle
 10
3.7042638686
 20
9.2091817113
 30
0.0
 40
2.091470734170926
100
AcDbArc
 50
297.9678184797
 51
299.4130974466
  0
ARC
  5
15F
330
1F
100
AcDbEntity
  8
0
  6
Continuous
 62
     7
370
     0
100
AcDbCircle
 10
4.5569175155
 20
7.6964934671
 30
0.0
 40
0.3550249808011504
100
AcDbArc
 50
299.4353111857
 51
302.6526281637
  0
SPLINE
  5
160
330
1F
100
AcDbEntity
  8
0
  6
Continuous
 62
     7
370
     0
100
AcDbSpline
210
0.0
220
0.0
230
1.0
 70
     8
 71
     3
 72
    13
 73
     9
 74
     0
 42
0.00000001
 43
0.00000001
 40
0.0
 40
0.0
 40
0.0
 40
0.0
 40
0.1642852523109353
 40
0.3377332377220959
 40
0.5003699049563065
 40
0.7497971218191175
 40
0.8748630895912596
 40
1.0
 40
1.0
 40
1.0
 40
1.0
 10
4.743453109451621
 20
7.395645242655307
 30
0.0
 10
4.744289664644358
 20
7.396106650781593
 30
0.0
 10
4.746009432485976
 20
7.397055201294859
 30
0.0
 10
4.748094633061185
 20
7.398127977844973
 30
0.0
 10
4.749831004601211
 20
7.398928136050296
 30
0.0
 10
4.750157973553085
 20
7.398893323923208
 30
0.0
 10
4.749534587074792
 20
7.398329387022843
 30
0.0
 10
4.748824428429423
 20
7.397828270886921
 30
0.0
 10
4.748469248427386
 20
7.397577641775611
 30
0.0
  0
ARC
  5
161
330
1F
100
AcDbEntity
  8
0
  6
Continuous
 62
     7
370
     0
100
AcDbCircle
 10
5.0788232861
 20
7.0229460575
 30
0.0
 40
0.0467041794838849
100
AcDbArc
 50
45.551585878
 51
88.5535477208
  0
LINE
  5
162
330
1F
100
AcDbEntity
  8
0
  6
Continuous
 62
     7
370
     0
100
AcDbLine
 10
5.124752488
 20
7.0639212401
 30
0.0
 11
5.1115286728
 21
7.0562872941
 31
0.0
  0
ARC
  5
163
330
1F
100
AcDbEntity
  8
0
  6
Continuous
 62
     7
370
     0
100
AcDbCircle
 10
5.072670571
 20
7.0035362526
 30
0.0
 40
0.0797425406158458
100
AcDbArc
 50
49.222303518
 51
68.4148071585
  0
LINE
  5
164
330
1F
100
AcDbEntity
  8
0
  6
Continuous
 62
     7
370
     0
100
AcDbLine
 10
5.1398299215
 20
7.0995215167
 30
0.0
 11
5.1020065962
 21
7.0776865757
 31
0.0
  0
ARC
  5
165
330
1F
100
AcDbEntity
  8
0
  6
Continuous
 62
     7
370
     0
100
AcDbCircle
 10
4.3780848495
 20
6.5001179333
 30
0.0
 40
0.9692988241655572
100
AcDbArc
 50
38.1985748545
 51
39.5186644214
  0
LINE
  5
166
330
1F
100
AcDbEntity
  8
0
  6
Continuous
 62
     7
370
     0
100
AcDbLine
 10
5.0685155678
 20
7.0838309829
 30
0.0
 11
5.1258187667
 21
7.1169114155
 31
0.0
  0
ARC
  5
167
330
1F
100
AcDbEntity
  8
0
  6
Continuous
 62
     7
370
     0
100
AcDbCircle
 10
4.3221451864
 20
6.4681463634
 30
0.0
 40
0.9675413670667359
100
AcDbArc
 50
38.4380043017
 51
39.5193905611
  0
LINE
  5
168
330
1F
100
AcDbEntity
  8
0
  6
Continuous
 62
     7
370
     0
100
AcDbLine
 10
5.0537777422
 20
7.1287679464
 30
0.0
 11
5.0699401829
 21
7.1380983248
 31
0.0
  0
ARC
  5
169
330
1F
100
AcDbEntity
  8
0
  6
Continuous
 62
     7
370
     0
100
AcDbCircle
 10
4.3730353103
 20
6.5070310637
 30
0.0
 40
0.9219365540693305
100
AcDbArc
 50
41.1032490653
 51
42.4061323315
  0
LINE
  5
16A
330
1F
100
AcDbEntity
  8
0
  6
Continuous
 62
     7
370
     0
100
AcDbLine
 10
5.0839010194
 20
7.1224591064
 30
0.0
 11
5.0677385787
 21
7.113128728
 31
0.0
  0
ARC
  5
16B
330
1F
100
AcDbEntity
  8
0
  6
Continuous
 62
     7
370
     0
100
AcDbCircle
 10
4.389197751
 20
6.5163614422
 30
0.0
 40
0.9219365540661516
100
AcDbArc
 50
41.1032490653
 51
42.4061323315
  0
ARC
  5
16C
330
1F
100
AcDbEntity
  8
0
  6
Continuous
 62
     7
370
     0
100
AcDbCircle
 10
5.0102454789
 20
7.09828399
 30
0.0
 40
0.0517590316753027
100
AcDbArc
 50
52.83100582
 51
92.1170081519
  0
LINE
  5
16D
330
1F
100
AcDbEntity
  8
0
  6
Continuous
 62
     7
370
     0
100
AcDbLine
 10
5.0547404437
 20
7.1471624818
 30
0.0
 11
5.0415166285
 21
7.1395285358
 31
0.0
  0
ARC
  5
16E
330
1F
100
AcDbEntity
  8
0
  6
Continuous
 62
     7
370
     0
100
AcDbCircle
 10
5.0071000642
 20
7.0770037981
 30
0.0
 40
0.0848047560596483
100
AcDbArc
 50
55.8220234921
 51
73.9310614764
  0
LINE
  5
16F
330
1F
100
AcDbEntity
  8
0
  6
Continuous
 62
     7
370
     0
100
AcDbLine
 10
5.068396816
 20
7.1803301184
 30
0.0
 11
5.0305734906
 21
7.1584951774
 31
0.0
  0
ARC
  5
170
330
1F
100
AcDbEntity
  8
0
  6
Continuous
 62
     7
370
     0
100
AcDbCircle
 10
4.4673940375
 20
6.581668612
 30
0.0
 40
0.8482923664836801
100
AcDbArc
 50
44.8881813466
 51
46.3310038397
  0
LINE
  5
171
330
1F
100
AcDbEntity
  8
0
  6
Continuous
 62
     7
370
     0
100
AcDbLine
 10
4.9958291667
 20
7.1621927346
 30
0.0
 11
5.0531323656
 21
7.1952731671
 31
0.0
  0
ARC
  5
172
330
1F
100
AcDbEntity
  8
0
  6
Continuous
 62
     7
370
     0
100
AcDbCircle
 10
4.4119176783
 20
6.5504729622
 30
0.0
 40
0.8456676097395225
100
AcDbArc
 50
45.1494217878
 51
46.3323590327
  0
SPLINE
  5
173
330
1F
100
AcDbEntity
  8
0
  6
Continuous
 62
     7
370
     0
100
AcDbSpline
210
0.0
220
0.0
230
1.0
 70
     8
 71
     3
 72
    13
 73
     9
 74
     0
 42
0.00000001
 43
0.00000001
 40
0.0
 40
0.0
 40
0.0
 40
0.0
 40
0.2502499937362143
 40
0.3875326883083271
 40
0.500055398927849
 40
0.6148522551805202
 40
0.749892763118667
 40
1.0
 40
1.0
 40
1.0
 40
1.0
 10
4.881235205677759
 20
7.288745777514289
 30
0.0
 10
4.880561070962394
 20
7.288327673786266
 30
0.0
 10
4.879517117935155
 20
7.287680205791188
 30
0.0
 10
4.878573804405894
 20
7.28668676679636
 30
0.0
 10
4.878228614658289
 20
7.285885335078188
 30
0.0
 10
4.878471415632035
 20
7.285085162615575
 30
0.0
 10
4.879336025479505
 20
7.284094349454752
 30
0.0
 10
4.880374906292476
 20
7.283477662712344
 30
0.0
 10
4.881049534699565
 20
7.283077198684606
 30
0.0
  0
ARC
  5
174
330
1F
100
AcDbEntity
  8
0
  6
Continuous
 62
     7
370
     0
100
AcDbCircle
 10
4.8430676188
 20
7.1427795884
 30
0.0
 40
0.1508737653069525
100
AcDbArc
 50
66.8142830863
 51
75.3462563243
  0
ARC
  5
175
330
1F
100
AcDbEntity
  8
0
  6
Continuous
 62
     7
370
     0
100
AcDbCircle
 10
4.9196734329
 20
7.3187539649
 30
0.0
 40
0.0410641626266899
100
AcDbArc
 50
245.2300642119
 51
266.0571135159
  0
SPLINE
  5
176
330
1F
100
AcDbEntity
  8
0
  6
Continuous
 62
     7
370
     0
100
AcDbSpline
210
0.0
220
0.0
230
1.0
 70
     8
 71
     3
 72
     9
 73
     5
 74
     0
 42
0.00000001
 43
0.00000001
 40
0.0
 40
0.0
 40
0.0
 40
0.0
 40
0.5005138828869105
 40
1.0
 40
1.0
 40
1.0
 40
1.0
 10
4.926789026101861
 20
7.280225103899429
 30
0.0
 10
4.925355769569792
 20
7.279511825033451
 30
0.0
 10
4.922492199584875
 20
7.278086731963379
 30
0.0
 10
4.918729295341463
 20
7.277886840492729
 30
0.0
 10
4.916849776911852
 20
7.277786997478212
 30
0.0
  0
SPLINE
  5
177
330
1F
100
AcDbEntity
  8
0
  6
Continuous
 62
     7
370
     0
100
AcDbSpline
210
0.0
220
0.0
230
1.0
 70
     8
 71
     3
 72
    13
 73
     9
 74
     0
 42
0.00000001
 43
0.00000001
 40
0.0
 40
0.0
 40
0.0
 40
0.0
 40
0.2503342404082859
 40
0.4997600710238014
 40
0.6241777149147425
 40
0.751767325686141
 40
0.8742692938032298
 40
1.0
 40
1.0
 40
1.0
 40
1.0
 10
4.922740489610103
 20
7.295605310920302
 30
0.0
 10
4.924409991526194
 20
7.294547371122977
 30
0.0
 10
4.927742937090491
 20
7.292435330567166
 30
0.0
 10
4.930477287203079
 20
7.289043755163755
 30
0.0
 10
4.930994010843212
 20
7.2861033664612
 30
0.0
 10
4.930621183660231
 20
7.283907251035816
 30
0.0
 10
4.929214499398921
 20
7.281845111766343
 30
0.0
 10
4.927604497579535
 20
7.280769768815211
 30
0.0
 10
4.926789026101861
 20
7.280225103899429
 30
0.0
  0
ARC
  5
178
330
1F
100
AcDbEntity
  8
0
  6
Continuous
 62
     7
370
     0
100
AcDbCircle
 10
4.9022544985
 20
7.2606501201
 30
0.0
 40
0.0405159375868116
100
AcDbArc
 50
59.6269530096
 51
77.1377301648
  0
SPLINE
  5
179
330
1F
100
AcDbEntity
  8
0
  6
Continuous
 62
     7
370
     0
100
AcDbSpline
210
0.0
220
0.0
230
1.0
 70
    24
 71
     1
 72
     4
 73
     2
 74
     0
 42
0.00000001
 43
0.00000001
 40
0.0
 40
0.0
 40
1.0
 40
1.0
 10
4.900853380467919
 20
7.301067898821261
 30
0.0
 10
4.911273677327416
 20
7.30014943160879
 30
0.0
  0
SPLINE
  5
17A
330
1F
100
AcDbEntity
  8
0
  6
Continuous
 62
     7
370
     0
100
AcDbSpline
210
0.0
220
0.0
230
1.0
 70
     8
 71
     3
 72
     9
 73
     5
 74
     0
 42
0.00000001
 43
0.00000001
 40
0.0
 40
0.0
 40
0.0
 40
0.0
 40
0.4998712278477653
 40
1.0
 40
1.0
 40
1.0
 40
1.0
 10
4.904355718332363
 20
7.304974885922044
 30
0.0
 10
4.903969961543782
 20
7.30427298575448
 30
0.0
 10
4.903198249216502
 20
7.302868823785436
 30
0.0
 10
4.901635137574281
 20
7.301668310204464
 30
0.0
 10
4.900853380467919
 20
7.301067898821261
 30
0.0
  0
ARC
  5
17B
330
1F
100
AcDbEntity
  8
0
  6
Continuous
 62
     7
370
     0
100
AcDbCircle
 10
4.6616549675
 20
6.8479270158
 30
0.0
 40
0.5174904927206371
100
AcDbArc
 50
62.0308831761
 51
63.8686978705
  0
SPLINE
  5
17C
330
1F
100
AcDbEntity
  8
0
  6
Continuous
 62
     7
370
     0
100
AcDbSpline
210
0.0
220
0.0
230
1.0
 70
     8
 71
     3
 72
     9
 73
     5
 74
     0
 42
0.00000001
 43
0.00000001
 40
0.0
 40
0.0
 40
0.0
 40
0.0
 40
0.5000538352470516
 40
0.9999999999999999
 40
0.9999999999999999
 40
0.9999999999999999
 40
0.9999999999999999
 10
4.882829754064677
 20
7.306522670666351
 30
0.0
 10
4.88433655686763
 20
7.307410403950045
 30
0.0
 10
4.887349838032063
 20
7.309185679372652
 30
0.0
 10
4.888832105847138
 20
7.311410839861693
 30
0.0
 10
4.889573159956423
 20
7.312523300314149
 30
0.0
  0
LINE
  5
17D
330
1F
100
AcDbEntity
  8
0
  6
Continuous
 62
     7
370
     0
100
AcDbLine
 10
4.8647388403
 20
7.2960790085
 30
0.0
 11
4.8828297541
 21
7.3065226707
 31
0.0
  0
ARC
  5
17E
330
1F
100
AcDbEntity
  8
0
  6
Continuous
 62
     7
370
     0
100
AcDbCircle
 10
4.868303947
 20
7.2864190928
 30
0.0
 40
0.0102967935252194
100
AcDbArc
 50
110.2571818152
 51
173.5783539216
  0
ARC
  5
17F
330
1F
100
AcDbEntity
  8
0
  6
Continuous
 62
     7
370
     0
100
AcDbCircle
 10
4.8787998735
 20
7.2974080361
 30
0.0
 40
0.0229440042002899
100
AcDbArc
 50
205.3884327808
 51
254.0559850313
  0
SPLINE
  5
180
330
1F
100
AcDbEntity
  8
0
  6
Continuous
 62
     7
370
     0
100
AcDbSpline
210
0.0
220
0.0
230
1.0
 70
     8
 71
     3
 72
     9
 73
     5
 74
     0
 42
0.00000001
 43
0.00000001
 40
0.0
 40
0.0
 40
0.0
 40
0.0
 40
0.4987757766930718
 40
1.0
 40
1.0
 40
1.0
 40
1.0
 10
4.889565828348464
 20
7.268858033273287
 30
0.0
 10
4.886380287653735
 20
7.269665690194857
 30
0.0
 10
4.879993568723941
 20
7.271284968755105
 30
0.0
 10
4.875000066696146
 20
7.273990564546243
 30
0.0
 10
4.872497202520685
 20
7.275346674695239
 30
0.0
  0
ARC
  5
181
330
1F
100
AcDbEntity
  8
0
  6
Continuous
 62
     7
370
     0
100
AcDbCircle
 10
4.8946584939
 20
7.3025868112
 30
0.0
 40
0.0341110789056893
100
AcDbArc
 50
261.4138385922
 51
293.7783158306
  0
SPLINE
  5
182
330
1F
100
AcDbEntity
  8
0
  6
Continuous
 62
     7
370
     0
100
AcDbSpline
210
0.0
220
0.0
230
1.0
 70
    24
 71
     1
 72
     4
 73
     2
 74
     0
 42
0.00000001
 43
0.00000001
 40
0.0
 40
0.0
 40
1.0
 40
1.0
 10
4.893721569304324
 20
7.281816962737271
 30
0.0
 10
4.90841204653863
 20
7.271371342383315
 30
0.0
  0
SPLINE
  5
183
330
1F
100
AcDbEntity
  8
0
  6
Continuous
 62
     7
370
     0
100
AcDbSpline
210
0.0
220
0.0
230
1.0
 70
     8
 71
     3
 72
     9
 73
     5
 74
     0
 42
0.00000001
 43
0.00000001
 40
0.0
 40
0.0
 40
0.0
 40
0.0
 40
0.4983624828367154
 40
1.0
 40
1.0
 40
1.0
 40
1.0
 10
4.887660715630346
 20
7.280870465787107
 30
0.0
 10
4.888728249696934
 20
7.280897268686421
 30
0.0
 10
4.890870333227201
 20
7.280951050622738
 30
0.0
 10
4.892769084453469
 20
7.281527695854783
 30
0.0
 10
4.893721569304324
 20
7.281816962737271
 30
0.0
  0
SPLINE
  5
184
330
1F
100
AcDbEntity
  8
0
  6
Continuous
 62
     7
370
     0
100
AcDbSpline
210
0.0
220
0.0
230
1.0
 70
     8
 71
     3
 72
     9
 73
     5
 74
     0
 42
0.00000001
 43
0.00000001
 40
0.0
 40
0.0
 40
0.0
 40
0.0
 40
0.5014167496225725
 40
1.0
 40
1.0
 40
1.0
 40
1.0
 10
4.881049534699565
 20
7.283077198684606
 30
0.0
 10
4.88200327373953
 20
7.28256953333372
 30
0.0
 10
4.883905362253092
 20
7.281557071441955
 30
0.0
 10
4.886411298026969
 20
7.28109890159742
 30
0.0
 10
4.887660715630346
 20
7.280870465787107
 30
0.0
  0
ARC
  5
185
330
1F
100
AcDbEntity
  8
0
  6
Continuous
 62
     7
370
     0
100
AcDbCircle
 10
4.7996869989
 20
7.3438290906
 30
0.0
 40
0.0239826023686833
100
AcDbArc
 50
258.2450901518
 51
304.5202148841
  0
SPLINE
  5
186
330
1F
100
AcDbEntity
  8
0
  6
Continuous
 62
     7
370
     0
100
AcDbSpline
210
0.0
220
0.0
230
1.0
 70
     8
 71
     3
 72
    12
 73
     8
 74
     0
 42
0.00000001
 43
0.00000001
 40
0.0
 40
0.0
 40
0.0
 40
0.0
 40
0.2500161658407621
 40
0.3794861107453997
 40
0.500360994805978
 40
0.7497424986441891
 40
1.0
 40
1.0
 40
1.0
 40
1.0
 10
4.793358333589564
 20
7.325294040000923
 30
0.0
 10
4.792843137321528
 20
7.324798722569502
 30
0.0
 10
4.792061148575439
 20
7.3240469068419
 30
0.0
 10
4.791668094552668
 20
7.323053087397976
 30
0.0
 10
4.791715279077255
 20
7.322115502803557
 30
0.0
 10
4.792645311071619
 20
7.321112802265361
 30
0.0
 10
4.794081682684221
 20
7.320604198644864
 30
0.0
 10
4.794801127657595
 20
7.320349450977203
 30
0.0
  0
SPLINE
  5
187
330
1F
100
AcDbEntity
  8
0
  6
Continuous
 62
     7
370
     0
100
AcDbSpline
210
0.0
220
0.0
230
1.0
 70
    24
 71
     1
 72
     4
 73
     2
 74
     0
 42
0.00000001
 43
0.00000001
 40
0.0
 40
0.0
 40
1.0
 40
1.0
 10
4.775547219340244
 20
7.328185660315657
 30
0.0
 10
4.793358333589565
 20
7.325294040000923
 30
0.0
  0
SPLINE
  5
188
330
1F
100
AcDbEntity
  8
0
  6
Continuous
 62
     7
370
     0
100
AcDbSpline
210
0.0
220
0.0
230
1.0
 70
     8
 71
     3
 72
    12
 73
     8
 74
     0
 42
0.00000001
 43
0.00000001
 40
0.0
 40
0.0
 40
0.0
 40
0.0
 40
0.2504615608201247
 40
0.5001568997103201
 40
0.6235742345056575
 40
0.7505262250100162
 40
1.0
 40
1.0
 40
1.0
 40
1.0
 10
4.783747733546279
 20
7.313998219634525
 30
0.0
 10
4.781477424134752
 20
7.314764646122046
 30
0.0
 10
4.776943750732196
 20
7.316295154414814
 30
0.0
 10
4.77289774449532
 20
7.318867953321964
 30
0.0
 10
4.771807230574836
 20
7.321489110616571
 30
0.0
 10
4.772087928133574
 20
7.324365375296901
 30
0.0
 10
4.774168399928666
 20
7.32666295441236
 30
0.0
 10
4.775547219340244
 20
7.328185660315657
 30
0.0
  0
ARC
  5
189
330
1F
100
AcDbEntity
  8
0
  6
Continuous
 62
     7
370
     0
100
AcDbCircle
 10
4.8024464961
 20
7.3722511775
 30
0.0
 40
0.0611804774735214
100
AcDbArc
 50
252.2037594191
 51
265.1185117581
  0
SPLINE
  5
18A
330
1F
100
AcDbEntity
  8
0
  6
Continuous
 62
     7
370
     0
100
AcDbSpline
210
0.0
220
0.0
230
1.0
 70
     8
 71
     3
 72
     9
 73
     5
 74
     0
 42
0.00000001
 43
0.00000001
 40
0.0
 40
0.0
 40
0.0
 40
0.0
 40
0.4986120697282352
 40
1.0
 40
1.0
 40
1.0
 40
1.0
 10
4.816244572289559
 20
7.31302693509936
 30
0.0
 10
4.813037581071368
 20
7.312375797729742
 30
0.0
 10
4.806605744754332
 20
7.311069897994959
 30
0.0
 10
4.80036791525973
 20
7.31121823630053
 30
0.0
 10
4.797240342840042
 20
7.31129261133654
 30
0.0
  0
SPLINE
  5
18B
330
1F
100
AcDbEntity
  8
0
  6
Continuous
 62
     7
370
     0
100
AcDbSpline
210
0.0
220
0.0
230
1.0
 70
     8
 71
     3
 72
     9
 73
     5
 74
     0
 42
0.00000001
 43
0.00000001
 40
0.0
 40
0.0
 40
0.0
 40
0.0
 40
0.5005615848306308
 40
1.0
 40
1.0
 40
1.0
 40
1.0
 10
4.828861704933641
 20
7.318264983565099
 30
0.0
 10
4.827000355030933
 20
7.317237743095474
 30
0.0
 10
4.823281831758039
 20
7.315185567098044
 30
0.0
 10
4.818588568335356
 20
7.313745940117138
 30
0.0
 10
4.816244572289558
 20
7.31302693509936
 30
0.0
  0
SPLINE
  5
18C
330
1F
100
AcDbEntity
  8
0
  6
Continuous
 62
     7
370
     0
100
AcDbSpline
210
0.0
220
0.0
230
1.0
 70
     8
 71
     3
 72
    14
 73
    10
 74
     0
 42
0.00000001
 43
0.00000001
 40
0.0
 40
0.0
 40
0.0
 40
0.0
 40
0.2500577725992305
 40
0.379667345629019
 40
0.4999755349866957
 40
0.6255852466947405
 40
0.7499501153977974
 40
0.86103820067218
 40
1.0
 40
1.0
 40
1.0
 40
1.0
 10
4.825306949310065
 20
7.338920275254281
 30
0.0
 10
4.828280970061575
 20
7.337904889711291
 30
0.0
 10
4.832796480828685
 20
7.336363211042838
 30
0.0
 10
4.836869253616929
 20
7.333278595047153
 30
0.0
 10
4.838434038819464
 20
7.330464348938804
 30
0.0
 10
4.8383694462497
 20
7.327375017606954
 30
0.0
 10
4.836879042424875
 20
7.324251722416567
 30
0.0
 10
4.833581836662894
 20
7.321140201487203
 30
0.0
 10
4.83054781880954
 20
7.319292061857142
 30
0.0
 10
4.828861704933641
 20
7.318264983565099
 30
0.0
  0
ARC
  5
18D
330
1F
100
AcDbEntity
  8
0
  6
Continuous
 62
     7
370
     0
100
AcDbCircle
 10
4.8107134697
 20
7.286266352
 30
0.0
 40
0.054638862401244
100
AcDbArc
 50
74.5088373662
 51
114.4880015011
  0
SPLINE
  5
18E
330
1F
100
AcDbEntity
  8
0
  6
Continuous
 62
     7
370
     0
100
AcDbSpline
210
0.0
220
0.0
230
1.0
 70
    24
 71
     1
 72
     4
 73
     2
 74
     0
 42
0.00000001
 43
0.00000001
 40
0.0
 40
0.0
 40
1.0
 40
1.0
 10
4.802196057373413
 20
7.331013592640746
 30
0.0
 10
4.788065515023602
 20
7.335990344517896
 30
0.0
  0
ARC
  5
18F
330
1F
100
AcDbEntity
  8
0
  6
Continuous
 62
     7
370
     0
100
AcDbCircle
 10
4.8105740452
 20
7.3119840096
 30
0.0
 40
0.0207922031648071
100
AcDbArc
 50
76.27936857
 51
113.7620334908
  0
SPLINE
  5
190
330
1F
100
AcDbEntity
  8
0
  6
Continuous
 62
     7
370
     0
100
AcDbSpline
210
0.0
220
0.0
230
1.0
 70
     8
 71
     3
 72
    13
 73
     9
 74
     0
 42
0.00000001
 43
0.00000001
 40
0.0
 40
0.0
 40
0.0
 40
0.0
 40
0.2503406525420176
 40
0.4995871881517821
 40
0.6259062530543318
 40
0.7464326647455113
 40
0.8687151858250038
 40
1.0
 40
1.0
 40
1.0
 40
1.0
 10
4.813277866878406
 20
7.324069193812106
 30
0.0
 10
4.814406211750168
 20
7.324766522162458
 30
0.0
 10
4.816657970048414
 20
7.326158131180946
 30
0.0
 10
4.818362032519149
 20
7.328150993421262
 30
0.0
 10
4.81859158442809
 20
7.329663856724943
 30
0.0
 10
4.818169539632383
 20
7.3306889675204
 30
0.0
 10
4.81714703264607
 20
7.331561515121943
 30
0.0
 10
4.816065612439706
 20
7.331970914622127
 30
0.0
 10
4.815505705736047
 20
7.332182881740253
 30
0.0
  0
ARC
  5
191
330
1F
100
AcDbEntity
  8
0
  6
Continuous
 62
     7
370
     0
100
AcDbCircle
 10
4.6827207697
 20
7.4204696732
 30
0.0
 40
0.091385810548531
100
AcDbArc
 50
271.7116157354
 51
299.5773885569
  0
SPLINE
  5
192
330
1F
100
AcDbEntity
  8
0
  6
Continuous
 62
     7
370
     0
100
AcDbSpline
210
0.0
220
0.0
230
1.0
 70
     8
 71
     3
 72
    18
 73
    14
 74
     0
 42
0.00000001
 43
0.00000001
 40
0.0
 40
0.0
 40
0.0
 40
0.0
 40
0.090086770990232
 40
0.1689724618848179
 40
0.2502162937108662
 40
0.3750514675976434
 40
0.4359827376664949
 40
0.500107038160113
 40
0.6237637372817082
 40
0.7500568082062647
 40
0.8321708937146842
 40
0.916782288614781
 40
0.9999999999999999
 40
0.9999999999999999
 40
0.9999999999999999
 40
0.9999999999999999
 10
4.727570638458229
 20
7.353714224994719
 30
0.0
 10
4.728522351626497
 20
7.353719389299695
 30
0.0
 10
4.730307445212188
 20
7.353729075797682
 30
0.0
 10
4.732705379666701
 20
7.353563700998268
 30
0.0
 10
4.735131262075389
 20
7.353187938299129
 30
0.0
 10
4.736862247058053
 20
7.352526262470173
 30
0.0
 10
4.73765824329903
 20
7.351559718143656
 30
0.0
 10
4.737951123067728
 20
7.350410383341519
 30
0.0
 10
4.737342311784137
 20
7.348640026609262
 30
0.0
 10
4.735641379715821
 20
7.346510754628635
 30
0.0
 10
4.733270764762035
 20
7.344502521673623
 30
0.0
 10
4.730780170812033
 20
7.342749934809612
 30
0.0
 10
4.728807052428623
 20
7.341574970240214
 30
0.0
 10
4.727828685804419
 20
7.340992366515578
 30
0.0
  0
ARC
  5
193
330
1F
100
AcDbEntity
  8
0
  6
Continuous
 62
     7
370
     0
100
AcDbCircle
 10
4.7311417694
 20
7.2710910452
 30
0.0
 40
0.0827003193107161
100
AcDbArc
 50
92.4748921531
 51
115.5129264402
  0
SPLINE
  5
194
330
1F
100
AcDbEntity
  8
0
  6
Continuous
 62
     7
370
     0
100
AcDbSpline
210
0.0
220
0.0
230
1.0
 70
    24
 71
     1
 72
     4
 73
     2
 74
     0
 42
0.00000001
 43
0.00000001
 40
0.0
 40
0.0
 40
1.0
 40
1.0
 10
4.708141102863676
 20
7.345889053272925
 30
0.0
 10
4.695521524740971
 20
7.345727102082989
 30
0.0
  0
SPLINE
  5
195
330
1F
100
AcDbEntity
  8
0
  6
Continuous
 62
     7
370
     0
100
AcDbSpline
210
0.0
220
0.0
230
1.0
 70
    24
 71
     1
 72
     4
 73
     2
 74
     0
 42
0.00000001
 43
0.00000001
 40
0.0
 40
0.0
 40
1.0
 40
1.0
 10
4.713027938675474
 20
7.34744378476358
 30
0.0
 10
4.708141102863676
 20
7.345889053272925
 30
0.0
  0
ARC
  5
196
330
1F
100
AcDbEntity
  8
0
  6
Continuous
 62
     7
370
     0
100
AcDbCircle
 10
4.7192194665
 20
7.3235258824
 30
0.0
 40
0.0247062961775421
100
AcDbArc
 50
92.9482950204
 51
104.5133312973
  0
SPLINE
  5
197
330
1F
100
AcDbEntity
  8
0
  6
Continuous
 62
     7
370
     0
100
AcDbSpline
210
0.0
220
0.0
230
1.0
 70
     8
 71
     3
 72
    10
 73
     6
 74
     0
 42
0.00000001
 43
0.00000001
 40
0.0
 40
0.0
 40
0.0
 40
0.0
 40
0.2550650714713678
 40
0.5011546383382388
 40
0.9999999999999999
 40
0.9999999999999999
 40
0.9999999999999999
 40
0.9999999999999999
 10
4.720502736068839
 20
7.346748355238389
 30
0.0
 10
4.72055762497259
 20
7.346978914651845
 30
0.0
 10
4.720665471290196
 20
7.347431920305657
 30
0.0
 10
4.7201221698339
 20
7.348086868832114
 30
0.0
 10
4.718820420328714
 20
7.348154312576153
 30
0.0
 10
4.717948704319921
 20
7.348199476250991
 30
0.0
  0
SPLINE
  5
198
330
1F
100
AcDbEntity
  8
0
  6
Continuous
 62
     7
370
     0
100
AcDbSpline
210
0.0
220
0.0
230
1.0
 70
     8
 71
     3
 72
     9
 73
     5
 74
     0
 42
0.00000001
 43
0.00000001
 40
0.0
 40
0.0
 40
0.0
 40
0.0
 40
0.5011160372996415
 40
1.0
 40
1.0
 40
1.0
 40
1.0
 10
4.716794614148768
 20
7.343573348767071
 30
0.0
 10
4.717668599688102
 20
7.344145926392157
 30
0.0
 10
4.719412677854196
 20
7.345288531263019
 30
0.0
 10
4.720139924420154
 20
7.346262471882639
 30
0.0
 10
4.720502736068839
 20
7.346748355238389
 30
0.0
  0
ARC
  5
199
330
1F
100
AcDbEntity
  8
0
  6
Continuous
 62
     7
370
     0
100
AcDbCircle
 10
4.7146538238
 20
7.0925294086
 30
0.0
 40
0.251053067813359
100
AcDbArc
 50
89.5114190778
 51
95.8624463633
  0
LINE
  5
19A
330
1F
100
AcDbEntity
  8
0
  6
Continuous
 62
     7
370
     0
100
AcDbLine
 10
4.6872548369
 20
7.3412555797
 30
0.0
 11
4.6890111248
 21
7.3422694632
 31
0.0
  0
SPLINE
  5
19B
330
1F
100
AcDbEntity
  8
0
  6
Continuous
 62
     7
370
     0
100
AcDbSpline
210
0.0
220
0.0
230
1.0
 70
     8
 71
     3
 72
    13
 73
     9
 74
     0
 42
0.00000001
 43
0.00000001
 40
0.0
 40
0.0
 40
0.0
 40
0.0
 40
0.2501213163499025
 40
0.3752087323567226
 40
0.5002154264236803
 40
0.625177397283624
 40
0.7501819867111058
 40
1.0
 40
1.0
 40
1.0
 40
1.0
 10
4.685450362156986
 20
7.329124636671203
 30
0.0
 10
4.682692046715848
 20
7.329119028075324
 30
0.0
 10
4.678554278471172
 20
7.329110614581502
 30
0.0
 10
4.675414748067199
 20
7.330073489505134
 30
0.0
 10
4.674714311339669
 20
7.331428992334176
 30
0.0
 10
4.675802874384538
 20
7.333374627876168
 30
0.0
 10
4.679465120773275
 20
7.336595314008886
 30
0.0
 10
4.684139427232093
 20
7.339391758695548
 30
0.0
 10
4.687254836880772
 20
7.341255579742707
 30
0.0
  0
LINE
  5
19C
330
1F
100
AcDbEntity
  8
0
  6
Continuous
 62
     7
370
     0
100
AcDbLine
 10
4.6396736304
 20
7.325638854
 30
0.0
 11
4.6203429839
 21
7.3144795093
 31
0.0
  0
SPLINE
  5
19D
330
1F
100
AcDbEntity
  8
0
  6
Continuous
 62
     7
370
     0
100
AcDbSpline
210
0.0
220
0.0
230
1.0
 70
     8
 71
     3
 72
    11
 73
     7
 74
     0
 42
0.00000001
 43
0.00000001
 40
0.0
 40
0.0
 40
0.0
 40
0.0
 40
0.4989693492838129
 40
0.749289289263801
 40
0.8746232027899121
 40
0.9999999999999999
 40
0.9999999999999999
 40
0.9999999999999999
 40
0.9999999999999999
 10
4.644954977285078
 20
7.3250719793159
 30
0.0
 10
4.643285580509425
 20
7.324809988933296
 30
0.0
 10
4.640778690807034
 20
7.324416564792401
 30
0.0
 10
4.639719801754677
 20
7.324815396207411
 30
0.0
 10
4.639517854190466
 20
7.325213027581729
 30
0.0
 10
4.639621699053091
 20
7.325496895663075
 30
0.0
 10
4.639673630365656
 20
7.325638853981349
 30
0.0
  0
ARC
  5
19E
330
1F
100
AcDbEntity
  8
0
  6
Continuous
 62
     7
370
     0
100
AcDbCircle
 10
4.6188517188
 20
7.4410485115
 30
0.0
 40
0.1188778200994839
100
AcDbArc
 50
282.6843985311
 51
301.2369915868
  0
SPLINE
  5
19F
330
1F
100
AcDbEntity
  8
0
  6
Continuous
 62
     7
370
     0
100
AcDbSpline
210
0.0
220
0.0
230
1.0
 70
     8
 71
     3
 72
    13
 73
     9
 74
     0
 42
0.00000001
 43
0.00000001
 40
0.0
 40
0.0
 40
0.0
 40
0.0
 40
0.1251834461242821
 40
0.2502299178031461
 40
0.3715684377563918
 40
0.50025749826319
 40
0.7499110761102492
 40
1.0
 40
1.0
 40
1.0
 40
1.0
 10
4.68765113819152
 20
7.349686501021327
 30
0.0
 10
4.688674932006854
 20
7.349850183490974
 30
0.0
 10
4.690721399412808
 20
7.350177369330583
 30
0.0
 10
4.692541562816546
 20
7.349945802343941
 30
0.0
 10
4.693017182705972
 20
7.349059446557869
 30
0.0
 10
4.691713690303653
 20
7.347097608891973
 30
0.0
 10
4.687913263080804
 20
7.343865183066152
 30
0.0
 10
4.682972040702094
 20
7.340892226208968
 30
0.0
 10
4.680499277262728
 20
7.339404452848488
 30
0.0
  0
SPLINE
  5
1A0
330
1F
100
AcDbEntity
  8
0
  6
Continuous
 62
     7
370
     0
100
AcDbSpline
210
0.0
220
0.0
230
1.0
 70
    24
 71
     1
 72
     4
 73
     2
 74
     0
 42
0.00000001
 43
0.00000001
 40
0.0
 40
0.0
 40
1.0
 40
1.0
 10
4.679668771714029
 20
7.347431047509999
 30
0.0
 10
4.68765113819152
 20
7.349686501021327
 30
0.0
  0
SPLINE
  5
1A1
330
1F
100
AcDbEntity
  8
0
  6
Continuous
 62
     7
370
     0
100
AcDbSpline
210
0.0
220
0.0
230
1.0
 70
    24
 71
     1
 72
     4
 73
     2
 74
     0
 42
0.00000001
 43
0.00000001
 40
0.0
 40
0.0
 40
1.0
 40
1.0
 10
4.670104302258707
 20
7.343516546793892
 30
0.0
 10
4.679668771714029
 20
7.347431047509999
 30
0.0
  0
LINE
  5
1A2
330
1F
100
AcDbEntity
  8
0
  6
Continuous
 62
     7
370
     0
100
AcDbLine
 10
4.6759930324
 20
7.3469160384
 30
0.0
 11
4.6701043023
 21
7.3435165468
 31
0.0
  0
ARC
  5
1A3
330
1F
100
AcDbEntity
  8
0
  6
Continuous
 62
     7
370
     0
100
AcDbCircle
 10
4.7261961217
 20
7.1389959825
 30
0.0
 40
0.2138950672491646
100
AcDbArc
 50
103.5744677176
 51
106.7736989918
  0
LINE
  5
1A4
330
1F
100
AcDbEntity
  8
0
  6
Continuous
 62
     7
370
     0
100
AcDbLine
 10
4.6078991056
 20
7.3111339337
 30
0.0
 11
4.6644676481
 21
7.3437902582
 31
0.0
  0
ARC
  5
1A5
330
1F
100
AcDbEntity
  8
0
  6
Continuous
 62
     7
370
     0
100
AcDbCircle
 10
4.6696947745
 20
7.1061000714
 30
0.0
 40
0.214143852050816
100
AcDbArc
 50
103.3242099329
 51
106.7724129635
  0
LINE
  5
1A6
330
1F
100
AcDbEntity
  8
0
  6
Continuous
 62
     7
370
     0
100
AcDbLine
 10
4.8535827199
 20
7.1638481889
 30
0.0
 11
4.8763570682
 21
7.1769955403
 31
0.0
  0
ARC
  5
1A7
330
1F
100
AcDbEntity
  8
0
  6
Continuous
 62
     7
370
     0
100
AcDbCircle
 10
4.4261957163
 20
6.6168122125
 30
0.0
 40
0.6941959452352068
100
AcDbArc
 50
52.0002823904
 51
54.2490977064
  0
LINE
  5
1A8
330
1F
100
AcDbEntity
  8
0
  6
Continuous
 62
     7
370
     0
100
AcDbLine
 10
4.8200338351
 20
7.1734114631
 30
0.0
 11
4.8317883374
 21
7.1801971929
 31
0.0
  0
ARC
  5
1A9
330
1F
100
AcDbEntity
  8
0
  6
Continuous
 62
     7
370
     0
100
AcDbCircle
 10
4.4144412139
 20
6.6100264828
 30
0.0
 40
0.6941959452282318
100
AcDbArc
 50
52.0002823904
 51
54.2490977064
  0
LINE
  5
1AA
330
1F
100
AcDbEntity
  8
0
  6
Continuous
 62
     7
370
     0
100
AcDbLine
 10
4.8330123409
 20
7.1519731618
 30
0.0
 11
4.8418282176
 21
7.1570624592
 31
0.0
  0
ARC
  5
1AB
330
1F
100
AcDbEntity
  8
0
  6
Continuous
 62
     7
370
     0
100
AcDbCircle
 10
4.4079151418
 20
6.6079553393
 30
0.0
 40
0.690407864866993
100
AcDbArc
 50
51.9958216216
 51
54.6290171534
  0
LINE
  5
1AC
330
1F
100
AcDbEntity
  8
0
  6
Continuous
 62
     7
370
     0
100
AcDbLine
 10
4.7943465404
 20
7.1632945099
 30
0.0
 11
4.8075703555
 21
7.1709284559
 31
0.0
  0
ARC
  5
1AD
330
1F
100
AcDbEntity
  8
0
  6
Continuous
 62
     7
370
     0
100
AcDbCircle
 10
4.3840752336
 20
6.5860001099
 30
0.0
 40
0.708231155400034
100
AcDbArc
 50
50.2354942743
 51
54.5993714755
  0
LINE
  5
1AE
330
1F
100
AcDbEntity
  8
0
  6
Continuous
 62
     7
370
     0
100
AcDbLine
 10
4.8936522418
 20
7.1630595015
 30
0.0
 11
4.8370836993
 21
7.130403177
 31
0.0
  0
ARC
  5
1AF
330
1F
100
AcDbEntity
  8
0
  6
Continuous
 62
     7
370
     0
100
AcDbCircle
 10
4.4241630649
 20
6.5981049406
 30
0.0
 40
0.7345704480271463
100
AcDbArc
 50
50.2727025324
 51
52.0052183965
  0
LINE
  5
1B0
330
1F
100
AcDbEntity
  8
0
  6
Continuous
 62
     7
370
     0
100
AcDbLine
 10
4.7226107207
 20
7.240211101
 30
0.0
 11
4.7350998795
 21
7.2474209388
 31
0.0
  0
ARC
  5
1B1
330
1F
100
AcDbEntity
  8
0
  6
Continuous
 62
     7
370
     0
100
AcDbCircle
 10
4.5265904309
 20
6.7817629761
 30
0.0
 40
0.4985966678836722
100
AcDbArc
 50
61.5219372811
 51
66.8497295513
  0
LINE
  5
1B2
330
1F
100
AcDbEntity
  8
0
  6
Continuous
 62
     7
370
     0
100
AcDbLine
 10
4.7768215725
 20
7.2272391563
 30
0.0
 11
4.7643324138
 21
7.2200293184
 31
0.0
  0
ARC
  5
1B3
330
1F
100
AcDbEntity
  8
0
  6
Continuous
 62
     7
370
     0
100
AcDbCircle
 10
4.5390795896
 20
6.788972814
 30
0.0
 40
0.4985966678826092
100
AcDbArc
 50
61.5219372811
 51
66.8497295513
  0
ARC
  5
1B4
330
1F
100
AcDbEntity
  8
0
  6
Continuous
 62
     7
370
     0
100
AcDbCircle
 10
4.632945992
 20
7.4668656504
 30
0.0
 40
0.2265390634789059
100
AcDbArc
 50
278.9750853733
 51
295.2094305276
  0
ARC
  5
1B5
330
1F
100
AcDbEntity
  8
0
  6
Continuous
 62
     7
370
     0
100
AcDbCircle
 10
4.5838058812
 20
6.8737054212
 30
0.0
 40
0.4146145157889154
100
AcDbArc
 50
69.4367798013
 51
71.6564408386
  0
ARC
  5
1B6
330
1F
100
AcDbEntity
  8
0
  6
Continuous
 62
     7
370
     0
100
AcDbCircle
 10
4.6277132196
 20
7.4341734891
 30
0.0
 40
0.1880385944155273
100
AcDbArc
 50
290.6733967233
 51
297.4145537592
  0
ARC
  5
1B7
330
1F
100
AcDbEntity
  8
0
  6
Continuous
 62
     7
370
     0
100
AcDbCircle
 10
4.6188710206
 20
7.4596626995
 30
0.0
 40
0.2150093843068979
100
AcDbArc
 50
283.6535646296
 51
290.4799608762
  0
ARC
  5
1B8
330
1F
100
AcDbEntity
  8
0
  6
Continuous
 62
     7
370
     0
100
AcDbCircle
 10
4.6185016509
 20
7.4650655808
 30
0.0
 40
0.2203486798850512
100
AcDbArc
 50
277.7687191999
 51
283.4152728699
  0
LINE
  5
1B9
330
1F
100
AcDbEntity
  8
0
  6
Continuous
 62
     7
370
     0
100
AcDbLine
 10
4.637715042
 20
7.2406361272
 30
0.0
 11
4.6482872067
 21
7.246739308
 31
0.0
  0
ARC
  5
1BA
330
1F
100
AcDbEntity
  8
0
  6
Continuous
 62
     7
370
     0
100
AcDbCircle
 10
4.5305273868
 20
6.8495942241
 30
0.0
 40
0.4054663530149802
100
AcDbArc
 50
68.0192019719
 51
74.6712821309
  0
LINE
  5
1BB
330
1F
100
AcDbEntity
  8
0
  6
Continuous
 62
     7
370
     0
100
AcDbLine
 10
4.6955155704
 20
7.2332209092
 30
0.0
 11
4.6822917552
 21
7.2255869632
 31
0.0
  0
ARC
  5
1BC
330
1F
100
AcDbEntity
  8
0
  6
Continuous
 62
     7
370
     0
100
AcDbCircle
 10
4.5386168002
 20
6.8432560315
 30
0.0
 40
0.4203448940362323
100
AcDbArc
 50
68.083066341
 51
72.032001602
  0
LINE
  5
1BD
330
1F
100
AcDbEntity
  8
0
  6
Continuous
 62
     7
370
     0
100
AcDbLine
 10
4.6011931286
 20
7.2726840446
 30
0.0
 11
4.6219012558
 21
7.284638592
 31
0.0
  0
ARC
  5
1BE
330
1F
100
AcDbEntity
  8
0
  6
Continuous
 62
     7
370
     0
100
AcDbCircle
 10
4.5847027867
 20
7.2977437831
 30
0.0
 40
0.0299986977785304
100
AcDbArc
 50
273.6789072316
 51
303.3465661893
  0
SPLINE
  5
1BF
330
1F
100
AcDbEntity
  8
0
  6
Continuous
 62
     7
370
     0
100
AcDbSpline
210
0.0
220
0.0
230
1.0
 70
     8
 71
     3
 72
    11
 73
     7
 74
     0
 42
0.00000001
 43
0.00000001
 40
0.0
 40
0.0
 40
0.0
 40
0.0
 40
0.2500620333659098
 40
0.4999138376966868
 40
0.7498401673007555
 40
0.9999999999999999
 40
0.9999999999999999
 40
0.9999999999999999
 40
0.9999999999999999
 10
4.585636318434256
 20
7.269782680015365
 30
0.0
 10
4.585348935629374
 20
7.26950326868444
 30
0.0
 10
4.5847744116245
 20
7.268944680925802
 30
0.0
 10
4.584712192733594
 20
7.268301477899962
 30
0.0
 10
4.585300959815432
 20
7.267883672633226
 30
0.0
 10
4.586185283048145
 20
7.267832501108042
 30
0.0
 10
4.586627651121137
 20
7.2678069033988
 30
0.0
  0
SPLINE
  5
1C0
330
1F
100
AcDbEntity
  8
0
  6
Continuous
 62
     7
370
     0
100
AcDbSpline
210
0.0
220
0.0
230
1.0
 70
    24
 71
     1
 72
     4
 73
     2
 74
     0
 42
0.00000001
 43
0.00000001
 40
0.0
 40
0.0
 40
1.0
 40
1.0
 10
4.588988236851361
 20
7.271881722534049
 30
0.0
 10
4.585636318434256
 20
7.269782680015365
 30
0.0
  0
LINE
  5
1C1
330
1F
100
AcDbEntity
  8
0
  6
Continuous
 62
     7
370
     0
100
AcDbLine
 10
4.6113378619
 20
7.2847838864
 30
0.0
 11
4.5889882369
 21
7.2718817225
 31
0.0
  0
ARC
  5
1C2
330
1F
100
AcDbEntity
  8
0
  6
Continuous
 62
     7
370
     0
100
AcDbCircle
 10
4.6128523824
 20
7.030386446
 30
0.0
 40
0.2544019486944698
100
AcDbArc
 50
90.3410985807
 51
93.4151572112
  0
LINE
  5
1C3
330
1F
100
AcDbEntity
  8
0
  6
Continuous
 62
     7
370
     0
100
AcDbLine
 10
4.5767024417
 20
7.2722163886
 30
0.0
 11
4.597697544
 21
7.2843366032
 31
0.0
  0
ARC
  5
1C4
330
1F
100
AcDbEntity
  8
0
  6
Continuous
 62
     7
370
     0
100
AcDbCircle
 10
4.5576195716
 20
7.3018678835
 30
0.0
 40
0.0352614106586237
100
AcDbArc
 50
278.2132843656
 51
302.764195763
  0
SPLINE
  5
1C5
330
1F
100
AcDbEntity
  8
0
  6
Continuous
 62
     7
370
     0
100
AcDbSpline
210
0.0
220
0.0
230
1.0
 70
     8
 71
     3
 72
    10
 73
     6
 74
     0
 42
0.00000001
 43
0.00000001
 40
0.0
 40
0.0
 40
0.0
 40
0.0
 40
0.4988226573032871
 40
0.7491700015752099
 40
1.0
 40
1.0
 40
1.0
 40
1.0
 10
4.561191929810622
 20
7.267863291523376
 30
0.0
 10
4.561088921111239
 20
7.267571679272924
 30
0.0
 10
4.560934214771519
 20
7.267133713701529
 30
0.0
 10
4.561698633095194
 20
7.26692840300702
 30
0.0
 10
4.562337313243268
 20
7.266954888773705
 30
0.0
 10
4.562656960854778
 20
7.266968144410483
 30
0.0
  0
SPLINE
  5
1C6
330
1F
100
AcDbEntity
  8
0
  6
Continuous
 62
     7
370
     0
100
AcDbSpline
210
0.0
220
0.0
230
1.0
 70
     8
 71
     3
 72
     9
 73
     5
 74
     0
 42
0.00000001
 43
0.00000001
 40
0.0
 40
0.0
 40
0.0
 40
0.0
 40
0.5015771373280961
 40
1.0
 40
1.0
 40
1.0
 40
1.0
 10
4.564309762152804
 20
7.270130782724731
 30
0.0
 10
4.563588529696082
 20
7.269708556938828
 30
0.0
 10
4.562150600406556
 20
7.268866760623801
 30
0.0
 10
4.561510813988573
 20
7.268197077101598
 30
0.0
 10
4.561191929810622
 20
7.267863291523376
 30
0.0
  0
LINE
  5
1C7
330
1F
100
AcDbEntity
  8
0
  6
Continuous
 62
     7
370
     0
100
AcDbLine
 10
4.5874858756
 20
7.2835100683
 30
0.0
 11
4.5643097622
 21
7.2701307827
 31
0.0
  0
ARC
  5
1C8
330
1F
100
AcDbEntity
  8
0
  6
Continuous
 62
     7
370
     0
100
AcDbCircle
 10
4.6112010017
 20
7.0512132599
 30
0.0
 40
0.2335042063233598
100
AcDbArc
 50
95.8291175525
 51
99.0839699167
  0
LINE
  5
1C9
330
1F
100
AcDbEntity
  8
0
  6
Continuous
 62
     7
370
     0
100
AcDbLine
 10
4.5486104834
 20
7.26693845
 30
0.0
 11
4.5743349363
 21
7.2817888605
 31
0.0
  0
SPLINE
  5
1CA
330
1F
100
AcDbEntity
  8
0
  6
Continuous
 62
     7
370
     0
100
AcDbSpline
210
0.0
220
0.0
230
1.0
 70
     8
 71
     3
 72
    13
 73
     9
 74
     0
 42
0.00000001
 43
0.00000001
 40
0.0
 40
0.0
 40
0.0
 40
0.0
 40
0.2493551011003637
 40
0.3758643206433072
 40
0.4994912623306243
 40
0.618444907289263
 40
0.7497843925020617
 40
1.0
 40
1.0
 40
1.0
 40
1.0
 10
4.544483690113953
 20
7.25921792806743
 30
0.0
 10
4.542872775040348
 20
7.259106254266498
 30
0.0
 10
4.540444569252366
 20
7.258937923251267
 30
0.0
 10
4.539305489388831
 20
7.259647777753439
 30
0.0
 10
4.539502784207092
 20
7.260576328952878
 30
0.0
 10
4.540788608049428
 20
7.261891968716904
 30
0.0
 10
4.543629920080994
 20
7.263983326828001
 30
0.0
 10
4.546637909046565
 20
7.265768060248234
 30
0.0
 10
4.548610483389684
 20
7.266938449965201
 30
0.0
  0
ARC
  5
1CB
330
1F
100
AcDbEntity
  8
0
  6
Continuous
 62
     7
370
     0
100
AcDbCircle
 10
4.5342942754
 20
7.3385520261
 30
0.0
 40
0.0799857692348125
100
AcDbArc
 50
277.3188162366
 51
291.8220763184
  0
SPLINE
  5
1CC
330
1F
100
AcDbEntity
  8
0
  6
Continuous
 62
     7
370
     0
100
AcDbSpline
210
0.0
220
0.0
230
1.0
 70
     8
 71
     3
 72
    12
 73
     8
 74
     0
 42
0.00000001
 43
0.00000001
 40
0.0
 40
0.0
 40
0.0
 40
0.0
 40
0.2503533688407877
 40
0.4999961943216238
 40
0.7494886161542283
 40
0.8747044873187665
 40
1.0
 40
1.0
 40
1.0
 40
1.0
 10
4.568101048646648
 20
7.260597745975919
 30
0.0
 10
4.567015876566072
 20
7.260609429308008
 30
0.0
 10
4.56484861229883
 20
7.260632762813001
 30
0.0
 10
4.562708189803685
 20
7.261192649029113
 30
0.0
 10
4.562580532433111
 20
7.262294629876719
 30
0.0
 10
4.563188904989783
 20
7.263380247986547
 30
0.0
 10
4.563747595819451
 20
7.263991900272133
 30
0.0
 10
4.564027030042594
 20
7.264297823641876
 30
0.0
  0
ARC
  5
1CD
330
1F
100
AcDbEntity
  8
0
  6
Continuous
 62
     7
370
     0
100
AcDbCircle
 10
4.5648643809
 20
7.3299741262
 30
0.0
 40
0.0694518405438121
100
AcDbArc
 50
272.6711256952
 51
289.4842813895
  0
LINE
  5
1CE
330
1F
100
AcDbEntity
  8
0
  6
Continuous
 62
     7
370
     0
100
AcDbLine
 10
4.5817164667
 20
7.2608549029
 30
0.0
 11
4.5880299201
 21
7.264499582
 31
0.0
  0
ARC
  5
1CF
330
1F
100
AcDbEntity
  8
0
  6
Continuous
 62
     7
370
     0
100
AcDbCircle
 10
4.5712859486
 20
6.9800712193
 30
0.0
 40
0.2809773526126483
100
AcDbArc
 50
85.1924911522
 51
87.872561581
  0
LINE
  5
1D0
330
1F
100
AcDbEntity
  8
0
  6
Continuous
 62
     7
370
     0
100
AcDbLine
 10
4.6359749795
 20
7.2838101153
 30
0.0
 11
4.5948342213
 21
7.2600600611
 31
0.0
  0
ARC
  5
1D1
330
1F
100
AcDbEntity
  8
0
  6
Continuous
 62
     7
370
     0
100
AcDbCircle
 10
4.6124641692
 20
7.0043736413
 30
0.0
 40
0.2804237885688327
100
AcDbArc
 50
85.1906599707
 51
88.0714641057
  0
LWPOLYLINE
  5
1D2
330
1F
100
AcDbEntity
  8
0
  6
Continuous
 62
     7
370
     0
100
AcDbPolyline
 90
       68
 70
   128
 43
0.0
 10
5.9688529674
 20
6.7174751234
 10
5.9754185716
 20
6.7214350075
 10
5.9891288917
 20
6.7308813673
 10
6.0021026229
 20
6.7414920564
 10
6.0143099252
 20
6.7532426698
 10
6.0257227216
 20
6.7661061809
 10
6.0363147622
 20
6.780053003
 10
6.046061685
 20
6.7950510581
 10
6.0549410717
 20
6.8110658501
 10
6.0629324995
 20
6.8280605445
 10
6.0700175877
 20
6.845996053
 10
6.0761800406
 20
6.8648311234
 10
6.0814056843
 20
6.8845224342
 10
6.0856824995
 20
6.905024695
 10
6.0890006495
 20
6.9262907499
 10
6.0913525025
 20
6.9482716862
 10
6.0927326491
 20
6.9709169471
 10
6.0931379149
 20
6.9941744478
 10
6.0925673678
 20
7.0179906952
 10
6.0910223201
 20
7.0423109113
 10
6.0885063254
 20
7.0670791587
 10
6.0850251706
 20
7.0922384698
 10
6.0805868625
 20
7.1177309772
 10
6.0752016093
 20
7.1434980474
 10
6.0688817973
 20
7.1694804153
 10
6.0616419623
 20
7.1956183206
 10
6.053498756
 20
7.2218516453
 10
6.0444709082
 20
7.248120052
 10
6.0345791831
 20
7.2743631224
 10
6.0238463321
 20
7.3005204966
 10
6.0122970411
 20
7.3265320119
 10
5.9999578738
 20
7.3523378409
 10
5.9868572106
 20
7.3778786294
 10
5.9730251836
 20
7.4030956327
 10
5.9584936068
 20
7.427930851
 10
5.9432959033
 20
7.4523271624
 10
5.9274670284
 20
7.4762284547
 10
5.9110433889
 20
7.499579754
 10
5.8940627597
 20
7.5223273518
 10
5.8765641969
 20
7.5444189277
 10
5.8585879477
 20
7.5658036704
 10
5.840175358
 20
7.5864323944
 10
5.8213687774
 20
7.6062576528
 10
5.8022114616
 20
7.6252338471
 10
5.7827474731
 20
7.6433173313
 10
5.7630215797
 20
7.6604665128
 10
5.7430791515
 20
7.676641948
 10
5.7229660567
 20
7.6918064329
 10
5.7027285562
 20
7.7059250886
 10
5.6824131969
 20
7.7189654418
 10
5.6620667047
 20
7.7308974992
 10
5.6417358771
 20
7.7416938168
 10
5.6214674758
 20
7.7513295626
 10
5.6013081187
 20
7.7597825742
 10
5.5813041731
 20
7.7670334093
 10
5.5615016485
 20
7.7730653908
 10
5.5419460915
 20
7.777864645
 10
5.5226824804
 20
7.7814201334
 10
5.5037551222
 20
7.7837236782
 10
5.4852075505
 20
7.7847699813
 10
5.4670824251
 20
7.784556636
 10
5.4494214345
 20
7.7830841332
 10
5.4322651996
 20
7.7803558596
 10
5.4156531802
 20
7.7763780903
 10
5.3996235845
 20
7.7711599744
 10
5.384213281
 20
7.7647135136
 10
5.3694577141
 20
7.757053535
 10
5.3689017278
 20
7.7567337583
  0
LINE
  5
1D3
330
1F
100
AcDbEntity
  8
0
  6
Continuous
 62
     7
370
     0
100
AcDbLine
 10
4.5329823433
 20
7.2655219491
 30
0.0
 11
4.5536904705
 21
7.2774764964
 31
0.0
  0
ARC
  5
1D4
330
1F
100
AcDbEntity
  8
0
  6
Continuous
 62
     7
370
     0
100
AcDbCircle
 10
4.4984792074
 20
7.321821863
 30
0.0
 40
0.0660314068987824
100
AcDbArc
 50
288.1472629017
 51
301.5018528162
  0
SPLINE
  5
1D5
330
1F
100
AcDbEntity
  8
0
  6
Continuous
 62
     7
370
     0
100
AcDbSpline
210
0.0
220
0.0
230
1.0
 70
     8
 71
     3
 72
    11
 73
     7
 74
     0
 42
0.00000001
 43
0.00000001
 40
0.0
 40
0.0
 40
0.0
 40
0.0
 40
0.2500620333659035
 40
0.49991383769667
 40
0.7498401673007673
 40
1.0
 40
1.0
 40
1.0
 40
1.0
 10
4.518536229760085
 20
7.259873921998136
 30
0.0
 10
4.5182268108666
 20
7.259647785480519
 30
0.0
 10
4.517608233210424
 20
7.259195702559959
 30
0.0
 10
4.517429473161825
 20
7.258835447900533
 30
0.0
 10
4.517874783489239
 20
7.258767680362802
 30
0.0
 10
4.518655056808822
 20
7.258972471900577
 30
0.0
 10
4.519045375633457
 20
7.259074915480685
 30
0.0
  0
SPLINE
  5
1D6
330
1F
100
AcDbEntity
  8
0
  6
Continuous
 62
     7
370
     0
100
AcDbSpline
210
0.0
220
0.0
230
1.0
 70
    24
 71
     1
 72
     4
 73
     2
 74
     0
 42
0.00000001
 43
0.00000001
 40
0.0
 40
0.0
 40
1.0
 40
1.0
 10
4.521920080583215
 20
7.26189584376129
 30
0.0
 10
4.518536229760085
 20
7.259873921998136
 30
0.0
  0
LINE
  5
1D7
330
1F
100
AcDbEntity
  8
0
  6
Continuous
 62
     7
370
     0
100
AcDbLine
 10
4.5442697056
 20
7.2747980077
 30
0.0
 11
4.5219200806
 21
7.2618958438
 31
0.0
  0
ARC
  5
1D8
330
1F
100
AcDbEntity
  8
0
  6
Continuous
 62
     7
370
     0
100
AcDbCircle
 10
4.605631491
 20
7.0764375539
 30
0.0
 40
0.2076346270030599
100
AcDbArc
 50
107.1891837378
 51
110.7090879122
  0
LINE
  5
1D9
330
1F
100
AcDbEntity
  8
0
  6
Continuous
 62
     7
370
     0
100
AcDbLine
 10
4.5112119646
 20
7.258536268
 30
0.0
 11
4.5322070669
 21
7.2706564826
 31
0.0
  0
ARC
  5
1DA
330
1F
100
AcDbEntity
  8
0
  6
Continuous
 62
     7
370
     0
100
AcDbCircle
 10
4.4533323644
 20
7.3557631071
 30
0.0
 40
0.113150812485838
100
AcDbArc
 50
293.1716220363
 51
300.7655398433
  0
SPLINE
  5
1DB
330
1F
100
AcDbEntity
  8
0
  6
Continuous
 62
     7
370
     0
100
AcDbSpline
210
0.0
220
0.0
230
1.0
 70
     8
 71
     3
 72
    10
 73
     6
 74
     0
 42
0.00000001
 43
0.00000001
 40
0.0
 40
0.0
 40
0.0
 40
0.0
 40
0.4988226573032704
 40
0.7491700015752214
 40
0.9999999999999999
 40
0.9999999999999999
 40
0.9999999999999999
 40
0.9999999999999999
 10
4.49683771676822
 20
7.251650845095019
 30
0.0
 10
4.496673853376199
 20
7.251492409723525
 30
0.0
 10
4.496427750806755
 20
7.251254459370278
 30
0.0
 10
4.497026526285157
 20
7.251414171165763
 30
0.0
 10
4.497579128402434
 20
7.251631408686383
 30
0.0
 10
4.497855695550225
 20
7.251740132050974
 30
0.0
  0
SPLINE
  5
1DC
330
1F
100
AcDbEntity
  8
0
  6
Continuous
 62
     7
370
     0
100
AcDbSpline
210
0.0
220
0.0
230
1.0
 70
     8
 71
     3
 72
     9
 73
     5
 74
     0
 42
0.00000001
 43
0.00000001
 40
0.0
 40
0.0
 40
0.0
 40
0.0
 40
0.5015771373280911
 40
1.0
 40
1.0
 40
1.0
 40
1.0
 10
4.500079560647571
 20
7.253647882623159
 30
0.0
 10
4.499356704213069
 20
7.253229154571518
 30
0.0
 10
4.497915537180711
 20
7.25239433172877
 30
0.0
 10
4.497196233945728
 20
7.251898152277514
 30
0.0
 10
4.49683771676822
 20
7.251650845095019
 30
0.0
  0
LINE
  5
1DD
330
1F
100
AcDbEntity
  8
0
  6
Continuous
 62
     7
370
     0
100
AcDbLine
 10
4.5232556741
 20
7.2670271682
 30
0.0
 11
4.5000795606
 21
7.2536478826
 31
0.0
  0
ARC
  5
1DE
330
1F
100
AcDbEntity
  8
0
  6
Continuous
 62
     7
370
     0
100
AcDbCircle
 10
4.6033485038
 20
7.0821792064
 30
0.0
 40
0.2014537920215166
100
AcDbArc
 50
113.4266171693
 51
117.0181611491
  0
LINE
  5
1DF
330
1F
100
AcDbEntity
  8
0
  6
Continuous
 62
     7
370
     0
100
AcDbLine
 10
4.4861090524
 20
7.2467964402
 30
0.0
 11
4.5118335053
 21
7.2616468508
 31
0.0
  0
SPLINE
  5
1E0
330
1F
100
AcDbEntity
  8
0
  6
Continuous
 62
     7
370
     0
100
AcDbSpline
210
0.0
220
0.0
230
1.0
 70
     8
 71
     3
 72
    13
 73
     9
 74
     0
 42
0.00000001
 43
0.00000001
 40
0.0
 40
0.0
 40
0.0
 40
0.0
 40
0.2493551011003496
 40
0.3758643206457762
 40
0.499491262330771
 40
0.6184449072918714
 40
0.7497843925020639
 40
0.9999999999999999
 40
0.9999999999999999
 40
0.9999999999999999
 40
0.9999999999999999
 10
4.480396860576835
 20
7.242423743080097
 30
0.0
 10
4.479013107469313
 20
7.241823219506006
 30
0.0
 10
4.476927313276994
 20
7.24091802292406
 30
0.0
 10
4.47619855827774
 20
7.240763840213545
 30
0.0
 10
4.476647488890062
 20
7.241166617056572
 30
0.0
 10
4.478115232176303
 20
7.242104825678708
 30
0.0
 10
4.481102183664325
 20
7.243895378783547
 30
0.0
 10
4.484126059694908
 20
7.245647461890246
 30
0.0
 10
4.486109052432919
 20
7.246796440235202
 30
0.0
  0
ARC
  5
1E1
330
1F
100
AcDbEntity
  8
0
  6
Continuous
 62
     7
370
     0
100
AcDbCircle
 10
4.3246230589
 20
7.595251033
 30
0.0
 40
0.3856845522066292
100
AcDbArc
 50
293.8215335861
 51
296.7797932825
  0
SPLINE
  5
1E2
330
1F
100
AcDbEntity
  8
0
  6
Continuous
 62
     7
370
     0
100
AcDbSpline
210
0.0
220
0.0
230
1.0
 70
     8
 71
     3
 72
    12
 73
     8
 74
     0
 42
0.00000001
 43
0.00000001
 40
0.0
 40
0.0
 40
0.0
 40
0.0
 40
0.250353368840789
 40
0.4999961943216242
 40
0.7494886161542149
 40
0.8747044873187654
 40
1.0
 40
1.0
 40
1.0
 40
1.0
 10
4.501185096647603
 20
7.250245622635264
 30
0.0
 10
4.500228014304815
 20
7.249951348100296
 30
0.0
 10
4.498316565973755
 20
7.249363634229097
 30
0.0
 10
4.496556939034318
 20
7.24903136686537
 30
0.0
 10
4.496687875325109
 20
7.249534982125387
 30
0.0
 10
4.497461195758333
 20
7.250241583818296
 30
0.0
 10
4.49808575919801
 20
7.250702588411493
 30
0.0
 10
4.498398140197128
 20
7.250933163988404
 30
0.0
  0
ARC
  5
1E3
330
1F
100
AcDbEntity
  8
0
  6
Continuous
 62
     7
370
     0
100
AcDbCircle
 10
4.4470659366
 20
7.4138444646
 30
0.0
 40
0.1723179171683518
100
AcDbArc
 50
288.3044246584
 51
294.9370576856
  0
LINE
  5
1E4
330
1F
100
AcDbEntity
  8
0
  6
Continuous
 62
     7
370
     0
100
AcDbLine
 10
4.5134055739
 20
7.253946808
 30
0.0
 11
4.5197190273
 21
7.2575914871
 31
0.0
  0
ARC
  5
1E5
330
1F
100
AcDbEntity
  8
0
  6
Continuous
 62
     7
370
     0
100
AcDbCircle
 10
4.5675600146
 20
7.0416856884
 30
0.0
 40
0.2190604627971685
100
AcDbArc
 50
101.1487116769
 51
104.3126115479
  0
LINE
  5
1E6
330
1F
100
AcDbEntity
  8
0
  6
Continuous
 62
     7
370
     0
100
AcDbLine
 10
4.5663440804
 20
7.2803622345
 30
0.0
 11
4.5252033222
 21
7.2566121804
 31
0.0
  0
ARC
  5
1E7
330
1F
100
AcDbEntity
  8
0
  6
Continuous
 62
     7
370
     0
100
AcDbCircle
 10
4.6086451589
 20
7.0656920229
 30
0.0
 40
0.2187982655058111
100
AcDbArc
 50
101.1473994712
 51
104.5465216668
  0
SPLINE
  5
1E8
330
1F
100
AcDbEntity
  8
0
  6
Continuous
 62
     7
370
     0
100
AcDbSpline
210
0.0
220
0.0
230
1.0
 70
    24
 71
     1
 72
     4
 73
     2
 74
     0
 42
0.00000001
 43
0.00000001
 40
0.0
 40
0.0
 40
1.0
 40
1.0
 10
4.644054269727838
 20
7.264342314508045
 30
0.0
 10
4.649804662854905
 20
7.265062327299004
 30
0.0
  0
SPLINE
  5
1E9
330
1F
100
AcDbEntity
  8
0
  6
Continuous
 62
     7
370
     0
100
AcDbSpline
210
0.0
220
0.0
230
1.0
 70
    24
 71
     1
 72
     4
 73
     2
 74
     0
 42
0.00000001
 43
0.00000001
 40
0.0
 40
0.0
 40
1.0
 40
1.0
 10
4.638925175391608
 20
7.264608333243779
 30
0.0
 10
4.644054269727838
 20
7.264342314508045
 30
0.0
  0
SPLINE
  5
1EA
330
1F
100
AcDbEntity
  8
0
  6
Continuous
 62
     7
370
     0
100
AcDbSpline
210
0.0
220
0.0
230
1.0
 70
     8
 71
     3
 72
    13
 73
     9
 74
     0
 42
0.00000001
 43
0.00000001
 40
0.0
 40
0.0
 40
0.0
 40
0.0
 40
0.2498441747937973
 40
0.3817947059226836
 40
0.4998701509657759
 40
0.6229414449861869
 40
0.7501704474545889
 40
0.9999999999999999
 40
0.9999999999999999
 40
0.9999999999999999
 40
0.9999999999999999
 10
4.639402844955438
 20
7.270515790212215
 30
0.0
 10
4.638380032072769
 20
7.269882916855248
 30
0.0
 10
4.636817039683314
 20
7.268915803263708
 30
0.0
 10
4.635598054189858
 20
7.267630815240361
 30
0.0
 10
4.635263327365202
 20
7.266740957612178
 30
0.0
 10
4.635553130006963
 20
7.266000612641279
 30
0.0
 10
4.636532769188643
 20
7.265170748616463
 30
0.0
 10
4.637971745642365
 20
7.264832468905642
 30
0.0
 10
4.638925175391608
 20
7.264608333243779
 30
0.0
  0
ARC
  5
1EB
330
1F
100
AcDbEntity
  8
0
  6
Continuous
 62
     7
370
     0
100
AcDbCircle
 10
4.6521054096
 20
7.249960995
 30
0.0
 40
0.0241630866072221
100
AcDbArc
 50
82.9364339651
 51
121.71546247
  0
SPLINE
  5
1EC
330
1F
100
AcDbEntity
  8
0
  6
Continuous
 62
     7
370
     0
100
AcDbSpline
210
0.0
220
0.0
230
1.0
 70
     8
 71
     3
 72
    13
 73
     9
 74
     0
 42
0.00000001
 43
0.00000001
 40
0.0
 40
0.0
 40
0.0
 40
0.0
 40
0.2497059556550279
 40
0.3754902122004537
 40
0.4999844705105223
 40
0.7494478519747351
 40
0.8746685414676015
 40
1.0
 40
1.0
 40
1.0
 40
1.0
 10
4.65623395314068
 20
7.268611068663807
 30
0.0
 10
4.656940627124862
 20
7.269199352646392
 30
0.0
 10
4.658003273642766
 20
7.270083972626221
 30
0.0
 10
4.658527000919752
 20
7.271214638402692
 30
0.0
 10
4.658524566660275
 20
7.272244989422085
 30
0.0
 10
4.657736731958242
 20
7.273076019817111
 30
0.0
 10
4.656391627708284
 20
7.273661159707355
 30
0.0
 10
4.655515174963859
 20
7.273847487015488
 30
0.0
 10
4.655076754851881
 20
7.273940691857183
 30
0.0
  0
SPLINE
  5
1ED
330
1F
100
AcDbEntity
  8
0
  6
Continuous
 62
     7
370
     0
100
AcDbSpline
210
0.0
220
0.0
230
1.0
 70
    24
 71
     1
 72
     4
 73
     2
 74
     0
 42
0.00000001
 43
0.00000001
 40
0.0
 40
0.0
 40
1.0
 40
1.0
 10
4.672476721482411
 20
7.266060721515492
 30
0.0
 10
4.65623395314068
 20
7.268611068663807
 30
0.0
  0
SPLINE
  5
1EE
330
1F
100
AcDbEntity
  8
0
  6
Continuous
 62
     7
370
     0
100
AcDbSpline
210
0.0
220
0.0
230
1.0
 70
     8
 71
     3
 72
    12
 73
     8
 74
     0
 42
0.00000001
 43
0.00000001
 40
0.0
 40
0.0
 40
0.0
 40
0.0
 40
0.2504168115017466
 40
0.4997978941598367
 40
0.6250016503732553
 40
0.7501548209131107
 40
1.0
 40
1.0
 40
1.0
 40
1.0
 10
4.665922834427084
 20
7.280333942545621
 30
0.0
 10
4.668313521742852
 20
7.27981199009983
 30
0.0
 10
4.673085008444763
 20
7.2787702440138
 30
0.0
 10
4.676887828162167
 20
7.276136084826399
 30
0.0
 10
4.677454043800382
 20
7.273310787027391
 30
0.0
 10
4.676728609505451
 20
7.270193402584639
 30
0.0
 10
4.674176849075571
 20
7.26771318392309
 30
0.0
 10
4.672476721482411
 20
7.266060721515492
 30
0.0
  0
ARC
  5
1EF
330
1F
100
AcDbEntity
  8
0
  6
Continuous
 62
     7
370
     0
100
AcDbCircle
 10
4.657242536
 20
7.2152594814
 30
0.0
 40
0.0656508421562393
100
AcDbArc
 50
82.4021527389
 51
120.7565825198
  0
SPLINE
  5
1F0
330
1F
100
AcDbEntity
  8
0
  6
Continuous
 62
     7
370
     0
100
AcDbSpline
210
0.0
220
0.0
230
1.0
 70
     8
 71
     3
 72
    13
 73
     9
 74
     0
 42
0.00000001
 43
0.00000001
 40
0.0
 40
0.0
 40
0.0
 40
0.0
 40
0.2498089441007019
 40
0.3754926332017353
 40
0.5002625661610569
 40
0.6265425410112199
 40
0.7507234029546564
 40
1.0
 40
1.0
 40
1.0
 40
1.0
 10
4.623644679520158
 20
7.258994304404903
 30
0.0
 10
4.621536114974816
 20
7.259468243756992
 30
0.0
 10
4.618366691012609
 20
7.2601806311214
 30
0.0
 10
4.616263441244641
 20
7.261940835212759
 30
0.0
 10
4.615695661856317
 20
7.263557095269627
 30
0.0
 10
4.616167911690782
 20
7.26540305469199
 30
0.0
 10
4.618111871612193
 20
7.268108732687682
 30
0.0
 10
4.621444655293126
 20
7.270248272393707
 30
0.0
 10
4.623669232563374
 20
7.271676379302071
 30
0.0
  0
SPLINE
  5
1F1
330
1F
100
AcDbEntity
  8
0
  6
Continuous
 62
     7
370
     0
100
AcDbSpline
210
0.0
220
0.0
230
1.0
 70
     8
 71
     3
 72
     9
 73
     5
 74
     0
 42
0.00000001
 43
0.00000001
 40
0.0
 40
0.0
 40
0.0
 40
0.0
 40
0.5003482590474716
 40
1.0
 40
1.0
 40
1.0
 40
1.0
 10
4.636083794460607
 20
7.258836854235549
 30
0.0
 10
4.63376990477273
 20
7.258684561490409
 30
0.0
 10
4.629145346485502
 20
7.258380188001768
 30
0.0
 10
4.625477383574427
 20
7.258789694013307
 30
0.0
 10
4.623644679520158
 20
7.258994304404903
 30
0.0
  0
SPLINE
  5
1F2
330
1F
100
AcDbEntity
  8
0
  6
Continuous
 62
     7
370
     0
100
AcDbSpline
210
0.0
220
0.0
230
1.0
 70
    24
 71
     1
 72
     4
 73
     2
 74
     0
 42
0.00000001
 43
0.00000001
 40
0.0
 40
0.0
 40
1.0
 40
1.0
 10
4.625977289717351
 20
7.254108796036653
 30
0.0
 10
4.636083794460607
 20
7.258836854235549
 30
0.0
  0
ARC
  5
1F3
330
1F
100
AcDbEntity
  8
0
  6
Continuous
 62
     7
370
     0
100
AcDbCircle
 10
4.5652466162
 20
6.943604321
 30
0.0
 40
0.3163878059147089
100
AcDbArc
 50
78.9333878024
 51
83.17979953
  0
LINE
  5
1F4
330
1F
100
AcDbEntity
  8
0
  6
Continuous
 62
     7
370
     0
100
AcDbLine
 10
4.589595133
 20
7.2501193263
 30
0.0
 11
4.6028189481
 21
7.2577532723
 31
0.0
  0
ARC
  5
1F5
330
1F
100
AcDbEntity
  8
0
  6
Continuous
 62
     7
370
     0
100
AcDbCircle
 10
4.5508608821
 20
6.92827172
 30
0.0
 40
0.3241700539949724
100
AcDbArc
 50
76.9097251824
 51
83.137477613
  0
SPLINE
  5
1F6
330
1F
100
AcDbEntity
  8
0
  6
Continuous
 62
     7
370
     0
100
AcDbSpline
210
0.0
220
0.0
230
1.0
 70
    24
 71
     1
 72
     4
 73
     2
 74
     0
 42
0.00000001
 43
0.00000001
 40
0.0
 40
0.0
 40
1.0
 40
1.0
 10
4.661081442673217
 20
7.261235524220914
 30
0.0
 10
4.624280856113476
 20
7.244018028451141
 30
0.0
  0
SPLINE
  5
1F7
330
1F
100
AcDbEntity
  8
0
  6
Continuous
 62
     7
370
     0
100
AcDbSpline
210
0.0
220
0.0
230
1.0
 70
    24
 71
     1
 72
     4
 73
     2
 74
     0
 42
0.00000001
 43
0.00000001
 40
0.0
 40
0.0
 40
1.0
 40
1.0
 10
4.649804662854905
 20
7.265062327299004
 30
0.0
 10
4.661081442673217
 20
7.261235524220915
 30
0.0
  0
LINE
  5
1F8
330
1F
100
AcDbEntity
  8
0
  6
Continuous
 62
     7
370
     0
100
AcDbLine
 10
4.7035096544
 20
7.2291842901
 30
0.0
 11
4.7159988132
 21
7.236394128
 31
0.0
  0
ARC
  5
1F9
330
1F
100
AcDbEntity
  8
0
  6
Continuous
 62
     7
370
     0
100
AcDbCircle
 10
4.5074893646
 20
6.7707361653
 30
0.0
 40
0.4985966678826536
100
AcDbArc
 50
61.5219372811
 51
66.8497295513
  0
LINE
  5
1FA
330
1F
100
AcDbEntity
  8
0
  6
Continuous
 62
     7
370
     0
100
AcDbLine
 10
4.7577205062
 20
7.2162123454
 30
0.0
 11
4.7452313475
 21
7.2090025076
 31
0.0
  0
ARC
  5
1FB
330
1F
100
AcDbEntity
  8
0
  6
Continuous
 62
     7
370
     0
100
AcDbCircle
 10
4.5199785233
 20
6.7779460031
 30
0.0
 40
0.4985966678835876
100
AcDbArc
 50
61.5219372811
 51
66.8497295513
  0
ARC
  5
1FC
330
1F
100
AcDbEntity
  8
0
  6
Continuous
 62
     7
370
     0
100
AcDbCircle
 10
4.8166187145
 20
7.3760784652
 30
0.0
 40
0.1688205697232935
100
AcDbArc
 50
261.3408445525
 51
267.4755988685
  0
ARC
  5
1FD
330
1F
100
AcDbEntity
  8
0
  6
Continuous
 62
     7
370
     0
100
AcDbCircle
 10
4.7795403934
 20
7.1515415998
 30
0.0
 40
0.0588083857718753
100
AcDbArc
 50
78.5627830848
 51
112.3850644483
  0
SPLINE
  5
1FE
330
1F
100
AcDbEntity
  8
0
  6
Continuous
 62
     7
370
     0
100
AcDbSpline
210
0.0
220
0.0
230
1.0
 70
     8
 71
     3
 72
    13
 73
     9
 74
     0
 42
0.00000001
 43
0.00000001
 40
0.0
 40
0.0
 40
0.0
 40
0.0
 40
0.2505513334130595
 40
0.4997574289384759
 40
0.6245242524987422
 40
0.7498907040621166
 40
0.8749266421754702
 40
1.0
 40
1.0
 40
1.0
 40
1.0
 10
4.76358994145364
 20
7.182927357167906
 30
0.0
 10
4.761018573063706
 20
7.184603145250735
 30
0.0
 10
4.75588964224581
 20
7.187945723924382
 30
0.0
 10
4.751311198543879
 20
7.192910398804436
 30
0.0
 10
4.750462669307136
 20
7.197245500714015
 30
0.0
 10
4.751274038893675
 20
7.200455551329053
 30
0.0
 10
4.753440729766787
 20
7.203478985014709
 30
0.0
 10
4.755909742516614
 20
7.205105246923552
 30
0.0
 10
4.757144433590268
 20
7.205918499533288
 30
0.0
  0
ARC
  5
1FF
330
1F
100
AcDbEntity
  8
0
  6
Continuous
 62
     7
370
     0
100
AcDbCircle
 10
4.7878188162
 20
7.2151273794
 30
0.0
 40
0.0402973919799755
100
AcDbArc
 50
233.0404045175
 51
293.9885325198
  0
SPLINE
  5
200
330
1F
100
AcDbEntity
  8
0
  6
Continuous
 62
     7
370
     0
100
AcDbSpline
210
0.0
220
0.0
230
1.0
 70
    24
 71
     1
 72
     4
 73
     2
 74
     0
 42
0.00000001
 43
0.00000001
 40
0.0
 40
0.0
 40
1.0
 40
1.0
 10
4.790027694326123
 20
7.189281069023455
 30
0.0
 10
4.804201873735717
 20
7.17831060024849
 30
0.0
  0
ARC
  5
201
330
1F
100
AcDbEntity
  8
0
  6
Continuous
 62
     7
370
     0
100
AcDbCircle
 10
4.7823540462
 20
7.203806705
 30
0.0
 40
0.0164279936548219
100
AcDbArc
 50
240.2748234585
 51
297.8467369924
  0
SPLINE
  5
202
330
1F
100
AcDbEntity
  8
0
  6
Continuous
 62
     7
370
     0
100
AcDbSpline
210
0.0
220
0.0
230
1.0
 70
     8
 71
     3
 72
    14
 73
    10
 74
     0
 42
0.00000001
 43
0.00000001
 40
0.0
 40
0.0
 40
0.0
 40
0.0
 40
0.1251988702828618
 40
0.2501891755466304
 40
0.3728829743880835
 40
0.500452989461828
 40
0.7495671084741591
 40
0.8747153475525477
 40
1.0
 40
1.0
 40
1.0
 40
1.0
 10
4.773351510589269
 20
7.197330615201802
 30
0.0
 10
4.772947585982008
 20
7.197067324704808
 30
0.0
 10
4.772140409653296
 20
7.196541182318514
 30
0.0
 10
4.77137305203949
 20
7.195569036510757
 30
0.0
 10
4.770993660276897
 20
7.194515150087209
 30
0.0
 10
4.770982886801105
 20
7.193071984874173
 30
0.0
 10
4.771677578069647
 20
7.191630360038521
 30
0.0
 10
4.772979250794879
 20
7.190375296214877
 30
0.0
 10
4.773798524699411
 20
7.189818806399198
 30
0.0
 10
4.774208384785134
 20
7.189540409928497
 30
0.0
  0
ARC
  5
203
330
1F
100
AcDbEntity
  8
0
  6
Continuous
 62
     7
370
     0
100
AcDbCircle
 10
4.7856059825
 20
7.1629794078
 30
0.0
 40
0.036471599030388
100
AcDbArc
 50
71.7938735428
 51
109.6333833831
  0
ARC
  5
204
330
1F
100
AcDbEntity
  8
0
  6
Continuous
 62
     7
370
     0
100
AcDbCircle
 10
4.8166321755
 20
7.2861723303
 30
0.0
 40
0.0906971753779493
100
AcDbArc
 50
257.4995646642
 51
288.2741227152
  0
ARC
  5
205
330
1F
100
AcDbEntity
  8
0
  6
Continuous
 62
     7
370
     0
100
AcDbCircle
 10
4.500976628
 20
6.7050047441
 30
0.0
 40
0.6028850376793593
100
AcDbArc
 50
55.1976607729
 51
60.5503846521
  0
LINE
  5
206
330
1F
100
AcDbEntity
  8
0
  6
Continuous
 62
     7
370
     0
100
AcDbLine
 10
4.7841660635
 20
7.222356087
 30
0.0
 11
4.7973898787
 21
7.2299900329
 31
0.0
  0
ARC
  5
207
330
1F
100
AcDbEntity
  8
0
  6
Continuous
 62
     7
370
     0
100
AcDbCircle
 10
4.4994404663
 20
6.7169836133
 30
0.0
 40
0.5800603441944571
100
AcDbArc
 50
57.7250085309
 51
60.6031975218
  0
LINE
  5
208
330
1F
100
AcDbEntity
  8
0
  6
Continuous
 62
     7
370
     0
100
AcDbLine
 10
4.6023387638
 20
7.3141980541
 30
0.0
 11
4.6229091429
 21
7.3260730811
 31
0.0
  0
LINE
  5
209
330
1F
100
AcDbEntity
  8
0
  6
Continuous
 62
     7
370
     0
100
AcDbLine
 10
4.6356927799
 20
7.3327136387
 30
0.0
 11
4.5791242374
 21
7.3000573142
 31
0.0
  0
ARC
  5
20A
330
1F
100
AcDbEntity
  8
0
  6
Continuous
 62
     7
370
     0
100
AcDbCircle
 10
4.721651623
 20
7.1516104961
 30
0.0
 40
0.2004676307691482
100
AcDbArc
 50
115.3908986819
 51
119.5090295532
  0
LINE
  5
20B
330
1F
100
AcDbEntity
  8
0
  6
Continuous
 62
     7
370
     0
100
AcDbLine
 10
4.7622306937
 20
7.3375625657
 30
0.0
 11
4.7817679623
 21
7.3488411908
 31
0.0
  0
ARC
  5
20C
330
1F
100
AcDbEntity
  8
0
  6
Continuous
 62
     7
370
     0
100
AcDbCircle
 10
4.7473957387
 20
7.3589502377
 30
0.0
 40
0.0260289915769735
100
AcDbArc
 50
266.1519434856
 51
304.7460192797
  0
SPLINE
  5
20D
330
1F
100
AcDbEntity
  8
0
  6
Continuous
 62
     7
370
     0
100
AcDbSpline
210
0.0
220
0.0
230
1.0
 70
     8
 71
     3
 72
    13
 73
     9
 74
     0
 42
0.00000001
 43
0.00000001
 40
0.0
 40
0.0
 40
0.0
 40
0.0
 40
0.2859863846225383
 40
0.4003931588116253
 40
0.5002671077712344
 40
0.6204346281925517
 40
0.7504392972667737
 40
1.0
 40
1.0
 40
1.0
 40
1.0
 10
4.746978228884815
 20
7.337844057980043
 30
0.0
 10
4.746002561218804
 20
7.337249209479065
 30
0.0
 10
4.744636584795622
 20
7.336416396159524
 30
0.0
 10
4.743468690864141
 20
7.335366584563864
 30
0.0
 10
4.743001259715874
 20
7.334692500073115
 30
0.0
 10
4.743022847554038
 20
7.334081535881529
 30
0.0
 10
4.743700035002788
 20
7.333393979018324
 30
0.0
 10
4.744875835167764
 20
7.33314417289114
 30
0.0
 10
4.745648912843548
 20
7.332979927685234
 30
0.0
  0
LINE
  5
20E
330
1F
100
AcDbEntity
  8
0
  6
Continuous
 62
     7
370
     0
100
AcDbLine
 10
4.7693508119
 20
7.3507594753
 30
0.0
 11
4.7469782289
 21
7.337844058
 31
0.0
  0
ARC
  5
20F
330
1F
100
AcDbEntity
  8
0
  6
Continuous
 62
     7
370
     0
100
AcDbCircle
 10
4.7297284462
 20
7.0555206395
 30
0.0
 40
0.2978857197575915
100
AcDbArc
 50
82.356322717
 51
85.1234082721
  0
LINE
  5
210
330
1F
100
AcDbEntity
  8
0
  6
Continuous
 62
     7
370
     0
100
AcDbLine
 10
4.7290287619
 20
7.3373053413
 30
0.0
 11
4.7550516689
 21
7.3523280458
 31
0.0
  0
SPLINE
  5
211
330
1F
100
AcDbEntity
  8
0
  6
Continuous
 62
     7
370
     0
100
AcDbSpline
210
0.0
220
0.0
230
1.0
 70
     8
 71
     3
 72
    13
 73
     9
 74
     0
 42
0.00000001
 43
0.00000001
 40
0.0
 40
0.0
 40
0.0
 40
0.0
 40
0.2494533077504287
 40
0.3744959777606248
 40
0.4995513164958241
 40
0.6197807958437609
 40
0.7498057006249452
 40
1.0
 40
1.0
 40
1.0
 40
1.0
 10
4.726415020562884
 20
7.326725477485166
 30
0.0
 10
4.724665504471607
 20
7.327050889124934
 30
0.0
 10
4.722039013986797
 20
7.327539418827383
 30
0.0
 10
4.720585792989992
 20
7.32899741502999
 30
0.0
 10
4.720476176637231
 20
7.33035751474656
 30
0.0
 10
4.721528115576165
 20
7.331989667871897
 30
0.0
 10
4.724117667033262
 20
7.334324552880071
 30
0.0
 10
4.727079679354162
 20
7.336122345901333
 30
0.0
 10
4.72902876185517
 20
7.337305341290465
 30
0.0
  0
ARC
  5
212
330
1F
100
AcDbEntity
  8
0
  6
Continuous
 62
     7
370
     0
100
AcDbCircle
 10
4.7322753074
 20
7.3779714805
 30
0.0
 40
0.0515799940529431
100
AcDbArc
 50
263.476224305
 51
285.6557487147
  0
LINE
  5
213
330
1F
100
AcDbEntity
  8
0
  6
Continuous
 62
     7
370
     0
100
AcDbLine
 10
4.7251994198
 20
7.3161848663
 30
0.0
 11
4.7461945221
 21
7.3283050809
 31
0.0
  0
ARC
  5
214
330
1F
100
AcDbEntity
  8
0
  6
Continuous
 62
     7
370
     0
100
AcDbCircle
 10
4.6676403715
 20
6.9873181843
 30
0.0
 40
0.3338657493715493
100
AcDbArc
 50
77.5079902669
 51
80.0725071327
  0
LINE
  5
215
330
1F
100
AcDbEntity
  8
0
  6
Continuous
 62
     7
370
     0
100
AcDbLine
 10
4.7964252311
 20
7.345936381
 30
0.0
 11
4.7398566886
 21
7.3132800565
 31
0.0
  0
ARC
  5
216
330
1F
100
AcDbEntity
  8
0
  6
Continuous
 62
     7
370
     0
100
AcDbCircle
 10
4.724208914
 20
7.0199745087
 30
0.0
 40
0.3338657493743027
100
AcDbArc
 50
77.5079902669
 51
80.0725071327
  0
ARC
  5
217
330
1F
100
AcDbEntity
  8
0
  6
Continuous
 62
     7
370
     0
100
AcDbCircle
 10
4.6330132171
 20
6.8497489079
 30
0.0
 40
0.4890268125568409
100
AcDbArc
 50
64.4655613287
 51
65.2230234933
  0
LINE
  5
218
330
1F
100
AcDbEntity
  8
0
  6
Continuous
 62
     7
370
     0
100
AcDbLine
 10
4.8555644554
 20
7.2977964188
 30
0.0
 11
4.8438099531
 21
7.291010689
 31
0.0
  0
ARC
  5
219
330
1F
100
AcDbEntity
  8
0
  6
Continuous
 62
     7
370
     0
100
AcDbCircle
 10
4.6447677194
 20
6.8565346376
 30
0.0
 40
0.4890268125972803
100
AcDbArc
 50
64.4655613288
 51
65.2230234933
  0
LINE
  5
21A
330
1F
100
AcDbEntity
  8
0
  6
Continuous
 62
     7
370
     0
100
AcDbLine
 10
4.8639925155
 20
7.3087881559
 30
0.0
 11
4.8497126318
 21
7.3005445545
 31
0.0
  0
SPLINE
  5
21B
330
1F
100
AcDbEntity
  8
0
  6
Continuous
 62
     7
370
     0
100
AcDbSpline
210
0.0
220
0.0
230
1.0
 70
     8
 71
     3
 72
    13
 73
     9
 74
     0
 42
0.00000001
 43
0.00000001
 40
0.0
 40
0.0
 40
0.0
 40
0.0
 40
0.2500945475839112
 40
0.3790132877214203
 40
0.4995783988415929
 40
0.6244157670477797
 40
0.7495373859021929
 40
1.0
 40
1.0
 40
1.0
 40
1.0
 10
4.865833531732242
 20
7.324122907408225
 30
0.0
 10
4.867866458619485
 20
7.32320504138267
 30
0.0
 10
4.870947318680912
 20
7.321814033768175
 30
0.0
 10
4.873404681444156
 20
7.319197880032947
 30
0.0
 10
4.873637724086777
 20
7.316901955243109
 30
0.0
 10
4.872357546411386
 20
7.314625056768847
 30
0.0
 10
4.869113925303052
 20
7.311853641809172
 30
0.0
 10
4.866041438371818
 20
7.310014565090065
 30
0.0
 10
4.863992515544229
 20
7.30878815587961
 30
0.0
  0
SPLINE
  5
21C
330
1F
100
AcDbEntity
  8
0
  6
Continuous
 62
     7
370
     0
100
AcDbSpline
210
0.0
220
0.0
230
1.0
 70
    24
 71
     1
 72
     4
 73
     2
 74
     0
 42
0.00000001
 43
0.00000001
 40
0.0
 40
0.0
 40
1.0
 40
1.0
 10
4.853804726761936
 20
7.32778169037203
 30
0.0
 10
4.865833531732242
 20
7.324122907408225
 30
0.0
  0
SPLINE
  5
21D
330
1F
100
AcDbEntity
  8
0
  6
Continuous
 62
     7
370
     0
100
AcDbSpline
210
0.0
220
0.0
230
1.0
 70
    24
 71
     1
 72
     4
 73
     2
 74
     0
 42
0.00000001
 43
0.00000001
 40
0.0
 40
0.0
 40
1.0
 40
1.0
 10
4.844239442442215
 20
7.321114491355713
 30
0.0
 10
4.853804726761936
 20
7.32778169037203
 30
0.0
  0
SPLINE
  5
21E
330
1F
100
AcDbEntity
  8
0
  6
Continuous
 62
     7
370
     0
100
AcDbSpline
210
0.0
220
0.0
230
1.0
 70
    24
 71
     1
 72
     4
 73
     2
 74
     0
 42
0.00000001
 43
0.00000001
 40
0.0
 40
0.0
 40
1.0
 40
1.0
 10
4.850209292905261
 20
7.31967766027022
 30
0.0
 10
4.844239442442215
 20
7.321114491355713
 30
0.0
  0
SPLINE
  5
21F
330
1F
100
AcDbEntity
  8
0
  6
Continuous
 62
     7
370
     0
100
AcDbSpline
210
0.0
220
0.0
230
1.0
 70
     8
 71
     3
 72
    10
 73
     6
 74
     0
 42
0.00000001
 43
0.00000001
 40
0.0
 40
0.0
 40
0.0
 40
0.0
 40
0.2505976234532797
 40
0.5007350246834539
 40
1.0
 40
1.0
 40
1.0
 40
1.0
 10
4.85168532926705
 20
7.317781750431556
 30
0.0
 10
4.851741612640383
 20
7.31797413479586
 30
0.0
 10
4.851854076022705
 20
7.318358550210826
 30
0.0
 10
4.851458184797437
 20
7.319071696104058
 30
0.0
 10
4.850708647660384
 20
7.319435372615298
 30
0.0
 10
4.850209292905261
 20
7.31967766027022
 30
0.0
  0
SPLINE
  5
220
330
1F
100
AcDbEntity
  8
0
  6
Continuous
 62
     7
370
     0
100
AcDbSpline
210
0.0
220
0.0
230
1.0
 70
     8
 71
     3
 72
     9
 73
     5
 74
     0
 42
0.00000001
 43
0.00000001
 40
0.0
 40
0.0
 40
0.0
 40
0.0
 40
0.501773807581321
 40
1.0
 40
1.0
 40
1.0
 40
1.0
 10
4.848764830963331
 20
7.315586344788684
 30
0.0
 10
4.849356888915291
 20
7.315923875385484
 30
0.0
 10
4.85053681888177
 20
7.316596550187752
 30
0.0
 10
4.851303398982353
 20
7.31738761915304
 30
0.0
 10
4.85168532926705
 20
7.317781750431556
 30
0.0
  0
LINE
  5
221
330
1F
100
AcDbEntity
  8
0
  6
Continuous
 62
     7
370
     0
100
AcDbLine
 10
4.8343931152
 20
7.3072897299
 30
0.0
 11
4.848764831
 21
7.3155863448
 31
0.0
  0
ARC
  5
222
330
1F
100
AcDbEntity
  8
0
  6
Continuous
 62
     7
370
     0
100
AcDbCircle
 10
4.6614419477
 20
6.8945494882
 30
0.0
 40
0.4475115791136869
100
AcDbArc
 50
67.2647801374
 51
68.4702007286
  0
LINE
  5
223
330
1F
100
AcDbEntity
  8
0
  6
Continuous
 62
     7
370
     0
100
AcDbLine
 10
4.8139175194
 20
7.3040510345
 30
0.0
 11
4.8256720217
 21
7.3108367643
 31
0.0
  0
ARC
  5
224
330
1F
100
AcDbEntity
  8
0
  6
Continuous
 62
     7
370
     0
100
AcDbCircle
 10
4.6496874454
 20
6.8877637585
 30
0.0
 40
0.4475115790883144
100
AcDbArc
 50
67.2647801374
 51
68.4702007287
  0
LINE
  5
225
330
1F
100
AcDbEntity
  8
0
  6
Continuous
 62
     7
370
     0
100
AcDbLine
 10
4.8072108286
 20
7.2915977298
 30
0.0
 11
4.8226386129
 21
7.3005040001
 31
0.0
  0
SPLINE
  5
226
330
1F
100
AcDbEntity
  8
0
  6
Continuous
 62
     7
370
     0
100
AcDbSpline
210
0.0
220
0.0
230
1.0
 70
    24
 71
     1
 72
     4
 73
     2
 74
     0
 42
0.00000001
 43
0.00000001
 40
0.0
 40
0.0
 40
1.0
 40
1.0
 10
4.830508254493561
 20
7.289458103426796
 30
0.0
 10
4.807210828562433
 20
7.291597729814674
 30
0.0
  0
LINE
  5
227
330
1F
100
AcDbEntity
  8
0
  6
Continuous
 62
     7
370
     0
100
AcDbLine
 10
4.8379581295
 20
7.2937588247
 30
0.0
 11
4.8305082545
 21
7.2894581034
 31
0.0
  0
LINE
  5
228
330
1F
100
AcDbEntity
  8
0
  6
Continuous
 62
     7
370
     0
100
AcDbLine
 10
4.9507001335
 20
7.2213855355
 30
0.0
 11
4.9940104238
 21
7.2463880339
 31
0.0
  0
SPLINE
  5
229
330
1F
100
AcDbEntity
  8
0
  6
Continuous
 62
     7
370
     0
100
AcDbSpline
210
0.0
220
0.0
230
1.0
 70
    24
 71
     1
 72
     4
 73
     2
 74
     0
 42
0.00000001
 43
0.00000001
 40
0.0
 40
0.0
 40
1.0
 40
1.0
 10
4.983447825942307
 20
7.254446052000206
 30
0.0
 10
4.950700133456353
 20
7.221385535480692
 30
0.0
  0
ARC
  5
22A
330
1F
100
AcDbEntity
  8
0
  6
Continuous
 62
     7
370
     0
100
AcDbCircle
 10
4.576593578
 20
6.7105939327
 30
0.0
 40
0.6791947487016649
100
AcDbArc
 50
53.1999404284
 51
54.558339882
  0
SPLINE
  5
22B
330
1F
100
AcDbEntity
  8
0
  6
Continuous
 62
     7
370
     0
100
AcDbSpline
210
0.0
220
0.0
230
1.0
 70
    24
 71
     1
 72
     4
 73
     2
 74
     0
 42
0.00000001
 43
0.00000001
 40
0.0
 40
0.0
 40
1.0
 40
1.0
 10
4.916477816182096
 20
7.246359424325723
 30
0.0
 10
4.970440752461882
 20
7.26393822868992
 30
0.0
  0
LINE
  5
22C
330
1F
100
AcDbEntity
  8
0
  6
Continuous
 62
     7
370
     0
100
AcDbLine
 10
4.9597881065
 20
7.2713619228
 30
0.0
 11
4.9164778162
 21
7.2463594243
 31
0.0
  0
ARC
  5
22D
330
1F
100
AcDbEntity
  8
0
  6
Continuous
 62
     7
370
     0
100
AcDbCircle
 10
4.6054707205
 20
6.7520910611
 30
0.0
 40
0.6286358547247543
100
AcDbArc
 50
55.692860647
 51
57.2945874583
  0
LINE
  5
22E
330
1F
100
AcDbEntity
  8
0
  6
Continuous
 62
     7
370
     0
100
AcDbLine
 10
4.8885665853
 20
7.2484065017
 30
0.0
 11
4.9451351278
 21
7.2810628261
 31
0.0
  0
ARC
  5
22F
330
1F
100
AcDbEntity
  8
0
  6
Continuous
 62
     7
370
     0
100
AcDbCircle
 10
4.5439891283
 20
6.711983154
 30
0.0
 40
0.6375606887277995
100
AcDbArc
 50
54.753552085
 51
57.2848911651
  0
SPLINE
  5
230
330
1F
100
AcDbEntity
  8
0
  6
Continuous
 62
     7
370
     0
100
AcDbSpline
210
0.0
220
0.0
230
1.0
 70
    24
 71
     1
 72
     4
 73
     2
 74
     0
 42
0.00000001
 43
0.00000001
 40
0.0
 40
0.0
 40
1.0
 40
1.0
 10
4.954676262767283
 20
7.246439539461748
 30
0.0
 10
4.911921933915724
 20
7.232664517557301
 30
0.0
  0
SPLINE
  5
231
330
1F
100
AcDbEntity
  8
0
  6
Continuous
 62
     7
370
     0
100
AcDbSpline
210
0.0
220
0.0
230
1.0
 70
    24
 71
     1
 72
     4
 73
     2
 74
     0
 42
0.00000001
 43
0.00000001
 40
0.0
 40
0.0
 40
1.0
 40
1.0
 10
4.928729640977078
 20
7.220400888260427
 30
0.0
 10
4.954676262767283
 20
7.246439539461748
 30
0.0
  0
ARC
  5
232
330
1F
100
AcDbEntity
  8
0
  6
Continuous
 62
     7
370
     0
100
AcDbCircle
 10
4.4951909937
 20
6.6450670719
 30
0.0
 40
0.7203920869496729
100
AcDbArc
 50
50.6590513771
 51
53.0004116134
  0
LINE
  5
233
330
1F
100
AcDbEntity
  8
0
  6
Continuous
 62
     7
370
     0
100
AcDbLine
 10
5.0084404044
 20
7.2348655179
 30
0.0
 11
4.9518718619
 21
7.2022091934
 31
0.0
  0
ARC
  5
234
330
1F
100
AcDbEntity
  8
0
  6
Continuous
 62
     7
370
     0
100
AcDbCircle
 10
4.5461310475
 20
6.6706989182
 30
0.0
 40
0.729392825306461
100
AcDbArc
 50
50.6669107312
 51
52.1175027883
  0
LINE
  5
235
330
1F
100
AcDbEntity
  8
0
  6
Continuous
 62
     7
370
     0
100
AcDbLine
 10
5.0787560596
 20
7.1431876221
 30
0.0
 11
5.0949185004
 21
7.1525180005
 31
0.0
  0
ARC
  5
236
330
1F
100
AcDbEntity
  8
0
  6
Continuous
 62
     7
370
     0
100
AcDbCircle
 10
4.3980136278
 20
6.5214507395
 30
0.0
 40
0.921936554067037
100
AcDbArc
 50
41.1032490653
 51
42.4061323315
  0
LINE
  5
237
330
1F
100
AcDbEntity
  8
0
  6
Continuous
 62
     7
370
     0
100
AcDbLine
 10
5.1088793369
 20
7.1368787822
 30
0.0
 11
5.0927168962
 21
7.1275484038
 31
0.0
  0
ARC
  5
238
330
1F
100
AcDbEntity
  8
0
  6
Continuous
 62
     7
370
     0
100
AcDbCircle
 10
4.4141760685
 20
6.5307811179
 30
0.0
 40
0.9219365540595889
100
AcDbArc
 50
41.1032490653
 51
42.4061323315
  0
ARC
  5
239
330
1F
100
AcDbEntity
  8
0
  6
Continuous
 62
     7
370
     0
100
AcDbCircle
 10
4.8711758245
 20
7.1741497342
 30
0.0
 40
0.2540907388651145
100
AcDbArc
 50
110.2130851943
 51
122.2377189252
  0
SPLINE
  5
23A
330
1F
100
AcDbEntity
  8
0
  6
Continuous
 62
     7
370
     0
100
AcDbSpline
210
0.0
220
0.0
230
1.0
 70
    24
 71
     1
 72
     4
 73
     2
 74
     0
 42
0.00000001
 43
0.00000001
 40
0.0
 40
0.0
 40
1.0
 40
1.0
 10
4.723772443557321
 20
7.382013600894146
 30
0.0
 10
4.735635381955503
 20
7.389070398663324
 30
0.0
  0
SPLINE
  5
23B
330
1F
100
AcDbEntity
  8
0
  6
Continuous
 62
     7
370
     0
100
AcDbSpline
210
0.0
220
0.0
230
1.0
 70
     8
 71
     3
 72
    12
 73
     8
 74
     0
 42
0.00000001
 43
0.00000001
 40
0.0
 40
0.0
 40
0.0
 40
0.0
 40
0.2503309494299795
 40
0.4997648043321521
 40
0.6249322238031083
 40
0.7501904501281094
 40
1.0
 40
1.0
 40
1.0
 40
1.0
 10
4.725009015802752
 20
7.378984456706456
 30
0.0
 10
4.723180671290494
 20
7.378430722954418
 30
0.0
 10
4.719530534383725
 20
7.377325239829501
 30
0.0
 10
4.717453984167112
 20
7.377110856397056
 30
0.0
 10
4.717900435890301
 20
7.377932551653397
 30
0.0
 10
4.71935419429728
 20
7.379218534123396
 30
0.0
 10
4.72200614349677
 20
7.380896206578919
 30
0.0
 10
4.723772443557321
 20
7.382013600894146
 30
0.0
  0
ARC
  5
23C
330
1F
100
AcDbEntity
  8
0
  6
Continuous
 62
     7
370
     0
100
AcDbCircle
 10
4.6608965715
 20
7.5866435574
 30
0.0
 40
0.2173308712311772
100
AcDbArc
 50
287.157492468
 51
301.10665312
  0
ARC
  5
23D
330
1F
100
AcDbEntity
  8
0
  6
Continuous
 62
     7
370
     0
100
AcDbCircle
 10
4.7198920267
 20
7.5001152755
 30
0.0
 40
0.1129152794900667
100
AcDbArc
 50
298.1577413611
 51
308.3275332129
  0
SPLINE
  5
23E
330
1F
100
AcDbEntity
  8
0
  6
Continuous
 62
     7
370
     0
100
AcDbSpline
210
0.0
220
0.0
230
1.0
 70
     8
 71
     3
 72
    13
 73
     9
 74
     0
 42
0.00000001
 43
0.00000001
 40
0.0
 40
0.0
 40
0.0
 40
0.0
 40
0.1642852522970407
 40
0.3377332377082347
 40
0.5003699049563345
 40
0.7497971218191283
 40
0.8748630895912628
 40
1.0
 40
1.0
 40
1.0
 40
1.0
 10
4.783384292279313
 20
7.412592076174118
 30
0.0
 10
4.784319090321254
 20
7.412865329874178
 30
0.0
 10
4.786240823190722
 20
7.413427077538967
 30
0.0
 10
4.788618994030724
 20
7.413929863157124
 30
0.0
 10
4.790684147657906
 20
7.414083001045008
 30
0.0
 10
4.791276900749246
 20
7.413517142150894
 30
0.0
 10
4.79085880090915
 20
7.412538855285343
 30
0.0
 10
4.79023107554877
 20
7.411870129786132
 30
0.0
 10
4.789917123875814
 20
7.411535672231162
 30
0.0
  0
LINE
  5
23F
330
1F
100
AcDbEntity
  8
0
  6
Continuous
 62
     7
370
     0
100
AcDbLine
 10
4.8239317285
 20
7.4061889747
 30
0.0
 11
4.8364208872
 21
7.4133988126
 31
0.0
  0
ARC
  5
240
330
1F
100
AcDbEntity
  8
0
  6
Continuous
 62
     7
370
     0
100
AcDbCircle
 10
4.8230699436
 20
7.1310549532
 30
0.0
 40
0.2751353711324204
100
AcDbArc
 50
85.3744965851
 51
89.8205366402
  0
LINE
  5
241
330
1F
100
AcDbEntity
  8
0
  6
Continuous
 62
     7
370
     0
100
AcDbLine
 10
4.8577467343
 20
7.4125040688
 30
0.0
 11
4.8452575756
 21
7.4052942309
 31
0.0
  0
ARC
  5
242
330
1F
100
AcDbEntity
  8
0
  6
Continuous
 62
     7
370
     0
100
AcDbCircle
 10
4.8355591023
 20
7.1382647911
 30
0.0
 40
0.2751353711336027
100
AcDbArc
 50
85.3744965851
 51
89.8205366402
  0
ARC
  5
243
330
1F
100
AcDbEntity
  8
0
  6
Continuous
 62
     7
370
     0
100
AcDbCircle
 10
4.9348702762
 20
7.3449510758
 30
0.0
 40
0.0624954919232801
100
AcDbArc
 50
75.9675284856
 51
126.4567373344
  0
SPLINE
  5
244
330
1F
100
AcDbEntity
  8
0
  6
Continuous
 62
     7
370
     0
100
AcDbSpline
210
0.0
220
0.0
230
1.0
 70
    24
 71
     1
 72
     4
 73
     2
 74
     0
 42
0.00000001
 43
0.00000001
 40
0.0
 40
0.0
 40
1.0
 40
1.0
 10
4.886197491898675
 20
7.387261842158553
 30
0.0
 10
4.897734477237129
 20
7.395216560425108
 30
0.0
  0
SPLINE
  5
245
330
1F
100
AcDbEntity
  8
0
  6
Continuous
 62
     7
370
     0
100
AcDbSpline
210
0.0
220
0.0
230
1.0
 70
     8
 71
     3
 72
    12
 73
     8
 74
     0
 42
0.00000001
 43
0.00000001
 40
0.0
 40
0.0
 40
0.0
 40
0.0
 40
0.2503309494299789
 40
0.4997648043321493
 40
0.624932223803105
 40
0.7501904501281086
 40
1.0
 40
1.0
 40
1.0
 40
1.0
 10
4.891570989188714
 20
7.372211262783022
 30
0.0
 10
4.889296087615249
 20
7.373010855099306
 30
0.0
 10
4.884754436883184
 20
7.374607174285579
 30
0.0
 10
4.881566311292369
 20
7.377610738461894
 30
0.0
 10
4.881304197296859
 20
7.380447491536223
 30
0.0
 10
4.882150008410648
 20
7.383441226534556
 30
0.0
 10
4.88457941425995
 20
7.385734460335838
 30
0.0
 10
4.886197491898675
 20
7.387261842158553
 30
0.0
  0
ARC
  5
246
330
1F
100
AcDbEntity
  8
0
  6
Continuous
 62
     7
370
     0
100
AcDbCircle
 10
4.9090964621
 20
7.4308793129
 30
0.0
 40
0.0612297501367747
100
AcDbArc
 50
253.3679253487
 51
304.5625409048
  0
ARC
  5
247
330
1F
100
AcDbEntity
  8
0
  6
Continuous
 62
     7
370
     0
100
AcDbCircle
 10
4.9261980814
 20
7.4177947013
 30
0.0
 40
0.0412933071242415
100
AcDbArc
 50
295.2805616343
 51
324.6061145009
  0
SPLINE
  5
248
330
1F
100
AcDbEntity
  8
0
  6
Continuous
 62
     7
370
     0
100
AcDbSpline
210
0.0
220
0.0
230
1.0
 70
     8
 71
     3
 72
    13
 73
     9
 74
     0
 42
0.00000001
 43
0.00000001
 40
0.0
 40
0.0
 40
0.0
 40
0.0
 40
0.1642852523034464
 40
0.3377332377196028
 40
0.5003699049563413
 40
0.7497971218191336
 40
0.874863089591265
 40
1.0
 40
1.0
 40
1.0
 40
1.0
 10
4.950023667971434
 20
7.405581606316447
 30
0.0
 10
4.951176979990891
 20
7.405180741331721
 30
0.0
 10
4.953547928064268
 20
7.404356653793237
 30
0.0
 10
4.956570320181808
 20
7.402823727473343
 30
0.0
 10
4.959352315596797
 20
7.400671293521601
 30
0.0
 10
4.960517890507195
 20
7.398218764962222
 30
0.0
 10
4.960538745777849
 20
7.395771305838261
 30
0.0
 10
4.960086262272681
 20
7.394509126660726
 30
0.0
 10
4.959859956371409
 20
7.393877858132531
 30
0.0
  0
ARC
  5
249
330
1F
100
AcDbEntity
  8
0
  6
Continuous
 62
     7
370
     0
100
AcDbCircle
 10
4.6774441032
 20
6.7727855748
 30
0.0
 40
0.6708275736813121
100
AcDbArc
 50
54.2230875733
 51
54.3848604144
  0
ARC
  5
24A
330
1F
100
AcDbEntity
  8
0
  6
Continuous
 62
     7
370
     0
100
AcDbCircle
 10
5.0721858975
 20
7.32440265
 30
0.0
 40
0.0074878788175742
100
AcDbArc
 50
199.4330846088
 51
236.8598418543
  0
SPLINE
  5
24B
330
1F
100
AcDbEntity
  8
0
  6
Continuous
 62
     7
370
     0
100
AcDbSpline
210
0.0
220
0.0
230
1.0
 70
    24
 71
     1
 72
     4
 73
     2
 74
     0
 42
0.00000001
 43
0.00000001
 40
0.0
 40
0.0
 40
1.0
 40
1.0
 10
5.066301759090728
 20
7.326615342660761
 30
0.0
 10
5.065124597867317
 20
7.321911389842226
 30
0.0
  0
SPLINE
  5
24C
330
1F
100
AcDbEntity
  8
0
  6
Continuous
 62
     7
370
     0
100
AcDbSpline
210
0.0
220
0.0
230
1.0
 70
    24
 71
     1
 72
     4
 73
     2
 74
     0
 42
0.00000001
 43
0.00000001
 40
0.0
 40
0.0
 40
1.0
 40
1.0
 10
5.074192297128564
 20
7.342839518605018
 30
0.0
 10
5.066301759090726
 20
7.326615342660762
 30
0.0
  0
ARC
  5
24D
330
1F
100
AcDbEntity
  8
0
  6
Continuous
 62
     7
370
     0
100
AcDbCircle
 10
4.7320173458
 20
6.8325489555
 30
0.0
 40
0.6143941374523572
100
AcDbArc
 50
56.1562008163
 51
58.3581698813
  0
SPLINE
  5
24E
330
1F
100
AcDbEntity
  8
0
  6
Continuous
 62
     7
370
     0
100
AcDbSpline
210
0.0
220
0.0
230
1.0
 70
    24
 71
     1
 72
     4
 73
     2
 74
     0
 42
0.00000001
 43
0.00000001
 40
0.0
 40
0.0
 40
1.0
 40
1.0
 10
5.04693218670103
 20
7.340820310679488
 30
0.0
 10
5.054333173201672
 20
7.355609815739567
 30
0.0
  0
SPLINE
  5
24F
330
1F
100
AcDbEntity
  8
0
  6
Continuous
 62
     7
370
     0
100
AcDbSpline
210
0.0
220
0.0
230
1.0
 70
     8
 71
     3
 72
     9
 73
     5
 74
     0
 42
0.00000001
 43
0.00000001
 40
0.0
 40
0.0
 40
0.0
 40
0.0
 40
0.4997943743867961
 40
1.0
 40
1.0
 40
1.0
 40
1.0
 10
5.045533788520462
 20
7.33365914629758
 30
0.0
 10
5.045549603365284
 20
7.334879710367784
 30
0.0
 10
5.045581246068027
 20
7.337321842838163
 30
0.0
 10
5.046481749712286
 20
7.339653835054161
 30
0.0
 10
5.04693218670103
 20
7.340820310679488
 30
0.0
  0
SPLINE
  5
250
330
1F
100
AcDbEntity
  8
0
  6
Continuous
 62
     7
370
     0
100
AcDbSpline
210
0.0
220
0.0
230
1.0
 70
    24
 71
     1
 72
     4
 73
     2
 74
     0
 42
0.00000001
 43
0.00000001
 40
0.0
 40
0.0
 40
1.0
 40
1.0
 10
5.047909841628733
 20
7.329462925382173
 30
0.0
 10
5.045533788520462
 20
7.33365914629758
 30
0.0
  0
SPLINE
  5
251
330
1F
100
AcDbEntity
  8
0
  6
Continuous
 62
     7
370
     0
100
AcDbSpline
210
0.0
220
0.0
230
1.0
 70
    24
 71
     1
 72
     4
 73
     2
 74
     0
 42
0.00000001
 43
0.00000001
 40
0.0
 40
0.0
 40
1.0
 40
1.0
 10
5.039373249638717
 20
7.332298624510683
 30
0.0
 10
5.047909841628733
 20
7.329462925382173
 30
0.0
  0
ARC
  5
252
330
1F
100
AcDbEntity
  8
0
  6
Continuous
 62
     7
370
     0
100
AcDbCircle
 10
5.0327168401
 20
7.3016074829
 30
0.0
 40
0.0314046805611978
100
AcDbArc
 50
77.7629982498
 51
118.0657716021
  0
SPLINE
  5
253
330
1F
100
AcDbEntity
  8
0
  6
Continuous
 62
     7
370
     0
100
AcDbSpline
210
0.0
220
0.0
230
1.0
 70
     8
 71
     3
 72
    14
 73
    10
 74
     0
 42
0.00000001
 43
0.00000001
 40
0.0
 40
0.0
 40
0.0
 40
0.0
 40
0.2503552942232
 40
0.3755117362839858
 40
0.5003668258907793
 40
0.6248775190298372
 40
0.7504411376288487
 40
0.8747830016588964
 40
1.0
 40
1.0
 40
1.0
 40
1.0
 10
5.024187089081952
 20
7.305724873088186
 30
0.0
 10
5.021650130290492
 20
7.307520556883158
 30
0.0
 10
5.017844906983282
 20
7.310213930481503
 30
0.0
 10
5.013607678435515
 20
7.31410049652218
 30
0.0
 10
5.011370129288139
 20
7.317302698485205
 30
0.0
 10
5.010819175470987
 20
7.320703857446889
 30
0.0
 10
5.011797625715499
 20
7.323984340116104
 30
0.0
 10
5.01423666253863
 20
7.32695200099529
 30
0.0
 10
5.016703613707842
 20
7.328528309171429
 30
0.0
 10
5.017941414752164
 20
7.329319227099173
 30
0.0
  0
ARC
  5
254
330
1F
100
AcDbEntity
  8
0
  6
Continuous
 62
     7
370
     0
100
AcDbCircle
 10
4.6393409681
 20
6.7470945041
 30
0.0
 40
0.6783615746838083
100
AcDbArc
 50
52.3953391658
 51
55.4366499569
  0
LINE
  5
255
330
1F
100
AcDbEntity
  8
0
  6
Continuous
 62
     7
370
     0
100
AcDbLine
 10
5.109852264
 20
7.3171760074
 30
0.0
 11
5.0532837215
 21
7.284519683
 31
0.0
  0
ARC
  5
256
330
1F
100
AcDbEntity
  8
0
  6
Continuous
 62
     7
370
     0
100
AcDbCircle
 10
4.6886624522
 20
6.7700593157
 30
0.0
 40
0.6904618250727391
100
AcDbArc
 50
52.4096489402
 51
54.2151898348
  0
LINE
  5
257
330
1F
100
AcDbEntity
  8
0
  6
Continuous
 62
     7
370
     0
100
AcDbLine
 10
5.0696305683
 20
7.317027626
 30
0.0
 11
5.0924049165
 21
7.3301749774
 31
0.0
  0
SPLINE
  5
258
330
1F
100
AcDbEntity
  8
0
  6
Continuous
 62
     7
370
     0
100
AcDbSpline
210
0.0
220
0.0
230
1.0
 70
    24
 71
     1
 72
     4
 73
     2
 74
     0
 42
0.00000001
 43
0.00000001
 40
0.0
 40
0.0
 40
1.0
 40
1.0
 10
5.191424736578112
 20
7.243276302286228
 30
0.0
 10
5.199488374528919
 20
7.236222770089576
 30
0.0
  0
SPLINE
  5
259
330
1F
100
AcDbEntity
  8
0
  6
Continuous
 62
     7
370
     0
100
AcDbSpline
210
0.0
220
0.0
230
1.0
 70
    24
 71
     1
 72
     4
 73
     2
 74
     0
 42
0.00000001
 43
0.00000001
 40
0.0
 40
0.0
 40
1.0
 40
1.0
 10
5.183317627592963
 20
7.24844193653053
 30
0.0
 10
5.191424736578112
 20
7.243276302286228
 30
0.0
  0
ARC
  5
25A
330
1F
100
AcDbEntity
  8
0
  6
Continuous
 62
     7
370
     0
100
AcDbCircle
 10
5.1737517788
 20
7.225716826
 30
0.0
 40
0.0246563605036209
100
AcDbArc
 50
67.1719544924
 51
117.6020206105
  0
SPLINE
  5
25B
330
1F
100
AcDbEntity
  8
0
  6
Continuous
 62
     7
370
     0
100
AcDbSpline
210
0.0
220
0.0
230
1.0
 70
     8
 71
     3
 72
    12
 73
     8
 74
     0
 42
0.00000001
 43
0.00000001
 40
0.0
 40
0.0
 40
0.0
 40
0.0
 40
0.2503638791653763
 40
0.4997444809983005
 40
0.6245272986127474
 40
0.7501926945850442
 40
1.0
 40
1.0
 40
1.0
 40
1.0
 10
5.159643698997777
 20
7.227632498020517
 30
0.0
 10
5.158558893620453
 20
7.229488075717303
 30
0.0
 10
5.156393543322792
 20
7.23319194352812
 30
0.0
 10
5.155536567171093
 20
7.238071837080268
 30
0.0
 10
5.156448640391946
 20
7.241583176329606
 30
0.0
 10
5.158265726540205
 20
7.244760697601042
 30
0.0
 10
5.160704958562966
 20
7.246445833346914
 30
0.0
 10
5.162327814170407
 20
7.247566978022358
 30
0.0
  0
SPLINE
  5
25C
330
1F
100
AcDbEntity
  8
0
  6
Continuous
 62
     7
370
     0
100
AcDbSpline
210
0.0
220
0.0
230
1.0
 70
     8
 71
     3
 72
     9
 73
     5
 74
     0
 42
0.00000001
 43
0.00000001
 40
0.0
 40
0.0
 40
0.0
 40
0.0
 40
0.499331895696234
 40
1.0
 40
1.0
 40
1.0
 40
1.0
 10
5.150082770753709
 20
7.231430469962302
 30
0.0
 10
5.151766823517655
 20
7.231030306515415
 30
0.0
 10
5.155139435558787
 20
7.230228908787097
 30
0.0
 10
5.158140940972324
 20
7.228498738898676
 30
0.0
 10
5.159643698997777
 20
7.227632498020517
 30
0.0
  0
SPLINE
  5
25D
330
1F
100
AcDbEntity
  8
0
  6
Continuous
 62
     7
370
     0
100
AcDbSpline
210
0.0
220
0.0
230
1.0
 70
     8
 71
     3
 72
     9
 73
     5
 74
     0
 42
0.00000001
 43
0.00000001
 40
0.0
 40
0.0
 40
0.0
 40
0.0
 40
0.5001300021535691
 40
1.0
 40
1.0
 40
1.0
 40
1.0
 10
5.138711420011111
 20
7.229610561914111
 30
0.0
 10
5.140380198689324
 20
7.23038694261619
 30
0.0
 10
5.143716888492031
 20
7.231939300400637
 30
0.0
 10
5.14796117784432
 20
7.231600050706287
 30
0.0
 10
5.150082770753709
 20
7.231430469962302
 30
0.0
  0
SPLINE
  5
25E
330
1F
100
AcDbEntity
  8
0
  6
Continuous
 62
     7
370
     0
100
AcDbSpline
210
0.0
220
0.0
230
1.0
 70
     8
 71
     3
 72
    13
 73
     9
 74
     0
 42
0.00000001
 43
0.00000001
 40
0.0
 40
0.0
 40
0.0
 40
0.0
 40
0.2502329787227136
 40
0.4994066255428009
 40
0.6257013607218993
 40
0.7496002874253704
 40
0.8740371171767495
 40
1.0
 40
1.0
 40
1.0
 40
1.0
 10
5.140757784833495
 20
7.205818315509094
 30
0.0
 10
5.13896371342617
 20
7.2078264333721
 30
0.0
 10
5.135383165601943
 20
7.211834167967172
 30
0.0
 10
5.133001114320097
 20
7.217580033370082
 30
0.0
 10
5.132993152533582
 20
7.221977192481999
 30
0.0
 10
5.1339517499515
 20
7.225022764814415
 30
0.0
 10
5.13582328994681
 20
7.227682137974944
 30
0.0
 10
5.137744806449304
 20
7.228965147514134
 30
0.0
 10
5.138711420011111
 20
7.229610561914111
 30
0.0
  0
ARC
  5
25F
330
1F
100
AcDbEntity
  8
0
  6
Continuous
 62
     7
370
     0
100
AcDbCircle
 10
4.4870623127
 20
6.5762646731
 30
0.0
 40
0.9075547140371303
100
AcDbArc
 50
41.1549040418
 51
43.922218778
  0
LINE
  5
260
330
1F
100
AcDbEntity
  8
0
  6
Continuous
 62
     7
370
     0
100
AcDbLine
 10
5.2269588507
 20
7.2061800783
 30
0.0
 11
5.1703903083
 21
7.1735237538
 31
0.0
  0
ARC
  5
261
330
1F
100
AcDbEntity
  8
0
  6
Continuous
 62
     7
370
     0
100
AcDbCircle
 10
4.5422499759
 20
6.6076756645
 30
0.0
 40
0.9094139742406591
100
AcDbArc
 50
41.1567248199
 51
43.7217018433
  0
LINE
  5
262
330
1F
100
AcDbEntity
  8
0
  6
Continuous
 62
     7
370
     0
100
AcDbLine
 10
5.3496906756
 20
7.7369976336
 30
0.0
 11
5.3703988028
 21
7.748952181
 31
0.0
  0
ARC
  5
263
330
1F
100
AcDbEntity
  8
0
  6
Continuous
 62
     7
370
     0
100
AcDbCircle
 10
5.3151875396
 20
7.7932975476
 30
0.0
 40
0.0660314068989609
100
AcDbArc
 50
288.1472629017
 51
301.5018528162
  0
SPLINE
  5
264
330
1F
100
AcDbEntity
  8
0
  6
Continuous
 62
     7
370
     0
100
AcDbSpline
210
0.0
220
0.0
230
1.0
 70
     8
 71
     3
 72
    11
 73
     7
 74
     0
 42
0.00000001
 43
0.00000001
 40
0.0
 40
0.0
 40
0.0
 40
0.0
 40
0.2500620333659141
 40
0.4999138376966777
 40
0.7498401673007722
 40
1.0
 40
1.0
 40
1.0
 40
1.0
 10
5.335244562030549
 20
7.731349606575749
 30
0.0
 10
5.334935143137064
 20
7.731123470058132
 30
0.0
 10
5.334316565480887
 20
7.730671387137571
 30
0.0
 10
5.334137805432289
 20
7.730311132478146
 30
0.0
 10
5.334583115759702
 20
7.730243364940416
 30
0.0
 10
5.335363389079285
 20
7.730448156478192
 30
0.0
 10
5.335753707903921
 20
7.730550600058298
 30
0.0
  0
SPLINE
  5
265
330
1F
100
AcDbEntity
  8
0
  6
Continuous
 62
     7
370
     0
100
AcDbSpline
210
0.0
220
0.0
230
1.0
 70
    24
 71
     1
 72
     4
 73
     2
 74
     0
 42
0.00000001
 43
0.00000001
 40
0.0
 40
0.0
 40
1.0
 40
1.0
 10
5.338628412853678
 20
7.733371528338904
 30
0.0
 10
5.335244562030549
 20
7.731349606575749
 30
0.0
  0
LINE
  5
266
330
1F
100
AcDbEntity
  8
0
  6
Continuous
 62
     7
370
     0
100
AcDbLine
 10
5.3609780379
 20
7.7462736922
 30
0.0
 11
5.3386284129
 21
7.7333715283
 31
0.0
  0
ARC
  5
267
330
1F
100
AcDbEntity
  8
0
  6
Continuous
 62
     7
370
     0
100
AcDbCircle
 10
5.4223398233
 20
7.5479132385
 30
0.0
 40
0.2076346270025797
100
AcDbArc
 50
107.1891837378
 51
110.7090879122
  0
LINE
  5
268
330
1F
100
AcDbEntity
  8
0
  6
Continuous
 62
     7
370
     0
100
AcDbLine
 10
5.3279202969
 20
7.7300119526
 30
0.0
 11
5.3489153992
 21
7.7421321672
 31
0.0
  0
ARC
  5
269
330
1F
100
AcDbEntity
  8
0
  6
Continuous
 62
     7
370
     0
100
AcDbCircle
 10
5.2700406966
 20
7.8272387917
 30
0.0
 40
0.1131508124879446
100
AcDbArc
 50
293.1716220364
 51
300.7655398432
  0
SPLINE
  5
26A
330
1F
100
AcDbEntity
  8
0
  6
Continuous
 62
     7
370
     0
100
AcDbSpline
210
0.0
220
0.0
230
1.0
 70
     8
 71
     3
 72
    10
 73
     6
 74
     0
 42
0.00000001
 43
0.00000001
 40
0.0
 40
0.0
 40
0.0
 40
0.0
 40
0.4988226573032913
 40
0.7491700015752171
 40
1.0
 40
1.0
 40
1.0
 40
1.0
 10
5.313546049038685
 20
7.723126529672633
 30
0.0
 10
5.313382185646662
 20
7.722968094301138
 30
0.0
 10
5.313136083077219
 20
7.722730143947892
 30
0.0
 10
5.31373485855562
 20
7.722889855743377
 30
0.0
 10
5.314287460672899
 20
7.723107093263997
 30
0.0
 10
5.314564027820689
 20
7.723215816628588
 30
0.0
  0
SPLINE
  5
26B
330
1F
100
AcDbEntity
  8
0
  6
Continuous
 62
     7
370
     0
100
AcDbSpline
210
0.0
220
0.0
230
1.0
 70
     8
 71
     3
 72
     9
 73
     5
 74
     0
 42
0.00000001
 43
0.00000001
 40
0.0
 40
0.0
 40
0.0
 40
0.0
 40
0.5015771373280883
 40
1.0
 40
1.0
 40
1.0
 40
1.0
 10
5.316787892918034
 20
7.725123567200773
 30
0.0
 10
5.316065036483534
 20
7.724704839149132
 30
0.0
 10
5.314623869451175
 20
7.723870016306384
 30
0.0
 10
5.313904566216193
 20
7.723373836855128
 30
0.0
 10
5.313546049038685
 20
7.723126529672633
 30
0.0
  0
LINE
  5
26C
330
1F
100
AcDbEntity
  8
0
  6
Continuous
 62
     7
370
     0
100
AcDbLine
 10
5.3399640064
 20
7.7385028527
 30
0.0
 11
5.3167878929
 21
7.7251235672
 31
0.0
  0
ARC
  5
26D
330
1F
100
AcDbEntity
  8
0
  6
Continuous
 62
     7
370
     0
100
AcDbCircle
 10
5.4200568361
 20
7.553654891
 30
0.0
 40
0.2014537920190432
100
AcDbArc
 50
113.4266171693
 51
117.0181611491
  0
LINE
  5
26E
330
1F
100
AcDbEntity
  8
0
  6
Continuous
 62
     7
370
     0
100
AcDbLine
 10
5.3028173847
 20
7.7182721248
 30
0.0
 11
5.3285418376
 21
7.7331225354
 31
0.0
  0
SPLINE
  5
26F
330
1F
100
AcDbEntity
  8
0
  6
Continuous
 62
     7
370
     0
100
AcDbSpline
210
0.0
220
0.0
230
1.0
 70
     8
 71
     3
 72
    13
 73
     9
 74
     0
 42
0.00000001
 43
0.00000001
 40
0.0
 40
0.0
 40
0.0
 40
0.0
 40
0.2493551011003365
 40
0.375864320640963
 40
0.4994912623306507
 40
0.6184449072886647
 40
0.749784392502086
 40
1.0
 40
1.0
 40
1.0
 40
1.0
 10
5.297105192847299
 20
7.713899427657711
 30
0.0
 10
5.295721439739774
 20
7.713298904083619
 30
0.0
 10
5.293635645547477
 20
7.712393707501681
 30
0.0
 10
5.292906890548218
 20
7.712239524791164
 30
0.0
 10
5.293355821160509
 20
7.712642301634173
 30
0.0
 10
5.29482356444672
 20
7.713580510256294
 30
0.0
 10
5.297810515934778
 20
7.715371063361153
 30
0.0
 10
5.300834391965378
 20
7.717123146467862
 30
0.0
 10
5.302817384703383
 20
7.718272124812816
 30
0.0
  0
ARC
  5
270
330
1F
100
AcDbEntity
  8
0
  6
Continuous
 62
     7
370
     0
100
AcDbCircle
 10
5.1413313912
 20
8.0667267176
 30
0.0
 40
0.385684552210014
100
AcDbArc
 50
293.8215335861
 51
296.7797932825
  0
SPLINE
  5
271
330
1F
100
AcDbEntity
  8
0
  6
Continuous
 62
     7
370
     0
100
AcDbSpline
210
0.0
220
0.0
230
1.0
 70
     8
 71
     3
 72
    12
 73
     8
 74
     0
 42
0.00000001
 43
0.00000001
 40
0.0
 40
0.0
 40
0.0
 40
0.0
 40
0.2503533688407829
 40
0.4999961943216262
 40
0.7494886161542172
 40
0.8747044873187655
 40
1.0
 40
1.0
 40
1.0
 40
1.0
 10
5.317893428918068
 20
7.721721307212878
 30
0.0
 10
5.31693634657528
 20
7.72142703267791
 30
0.0
 10
5.315024898244218
 20
7.72083931880671
 30
0.0
 10
5.313265271304781
 20
7.720507051442983
 30
0.0
 10
5.313396207595573
 20
7.721010666703001
 30
0.0
 10
5.314169528028797
 20
7.72171726839591
 30
0.0
 10
5.314794091468474
 20
7.722178272989107
 30
0.0
 10
5.315106472467591
 20
7.722408848566018
 30
0.0
  0
ARC
  5
272
330
1F
100
AcDbEntity
  8
0
  6
Continuous
 62
     7
370
     0
100
AcDbCircle
 10
5.2637742688
 20
7.8853201492
 30
0.0
 40
0.1723179171711986
100
AcDbArc
 50
288.3044246585
 51
294.9370576855
  0
LINE
  5
273
330
1F
100
AcDbEntity
  8
0
  6
Continuous
 62
     7
370
     0
100
AcDbLine
 10
5.3301139061
 20
7.7254224926
 30
0.0
 11
5.3364273595
 21
7.7290671716
 31
0.0
  0
ARC
  5
274
330
1F
100
AcDbEntity
  8
0
  6
Continuous
 62
     7
370
     0
100
AcDbCircle
 10
5.3842683469
 20
7.5131613729
 30
0.0
 40
0.2190604627986066
100
AcDbArc
 50
101.148711677
 51
104.3126115479
  0
LINE
  5
275
330
1F
100
AcDbEntity
  8
0
  6
Continuous
 62
     7
370
     0
100
AcDbLine
 10
5.3830524127
 20
7.7518379191
 30
0.0
 11
5.3419116545
 21
7.728087865
 31
0.0
  0
ARC
  5
276
330
1F
100
AcDbEntity
  8
0
  6
Continuous
 62
     7
370
     0
100
AcDbCircle
 10
5.4253534912
 20
7.5371677075
 30
0.0
 40
0.2187982655052755
100
AcDbArc
 50
101.1473994712
 51
104.5465216668
  0
SPLINE
  5
277
330
1F
100
AcDbEntity
  8
0
  6
Continuous
 62
     7
370
     0
100
AcDbSpline
210
0.0
220
0.0
230
1.0
 70
    24
 71
     1
 72
     4
 73
     2
 74
     0
 42
0.00000001
 43
0.00000001
 40
0.0
 40
0.0
 40
1.0
 40
1.0
 10
5.460762601998302
 20
7.735817999085658
 30
0.0
 10
5.466512995125369
 20
7.736538011876618
 30
0.0
  0
SPLINE
  5
278
330
1F
100
AcDbEntity
  8
0
  6
Continuous
 62
     7
370
     0
100
AcDbSpline
210
0.0
220
0.0
230
1.0
 70
    24
 71
     1
 72
     4
 73
     2
 74
     0
 42
0.00000001
 43
0.00000001
 40
0.0
 40
0.0
 40
1.0
 40
1.0
 10
5.455633507662072
 20
7.736084017821393
 30
0.0
 10
5.460762601998301
 20
7.735817999085658
 30
0.0
  0
SPLINE
  5
279
330
1F
100
AcDbEntity
  8
0
  6
Continuous
 62
     7
370
     0
100
AcDbSpline
210
0.0
220
0.0
230
1.0
 70
     8
 71
     3
 72
    13
 73
     9
 74
     0
 42
0.00000001
 43
0.00000001
 40
0.0
 40
0.0
 40
0.0
 40
0.0
 40
0.2498441747938079
 40
0.3817947059167735
 40
0.4998701509662866
 40
0.6229414449757633
 40
0.75017044745457
 40
0.9999999999999999
 40
0.9999999999999999
 40
0.9999999999999999
 40
0.9999999999999999
 10
5.456111177225902
 20
7.741991474789829
 30
0.0
 10
5.455088364343243
 20
7.741358601432862
 30
0.0
 10
5.453525371953827
 20
7.740391487841338
 30
0.0
 10
5.452306386460288
 20
7.739106499817987
 30
0.0
 10
5.451971659635665
 20
7.738216642189826
 30
0.0
 10
5.452261462277479
 20
7.737476297218935
 30
0.0
 10
5.453241101459032
 20
7.736646433194073
 30
0.0
 10
5.454680077912815
 20
7.736308153483252
 30
0.0
 10
5.455633507662072
 20
7.736084017821393
 30
0.0
  0
ARC
  5
27A
330
1F
100
AcDbEntity
  8
0
  6
Continuous
 62
     7
370
     0
100
AcDbCircle
 10
5.4688137418
 20
7.7214366796
 30
0.0
 40
0.0241630866072264
100
AcDbArc
 50
82.9364339651
 51
121.71546247
  0
SPLINE
  5
27B
330
1F
100
AcDbEntity
  8
0
  6
Continuous
 62
     7
370
     0
100
AcDbSpline
210
0.0
220
0.0
230
1.0
 70
     8
 71
     3
 72
    13
 73
     9
 74
     0
 42
0.00000001
 43
0.00000001
 40
0.0
 40
0.0
 40
0.0
 40
0.0
 40
0.2497059556551136
 40
0.3754902122284452
 40
0.4999844705103559
 40
0.7494478519746515
 40
0.8746685414675597
 40
1.0
 40
1.0
 40
1.0
 40
1.0
 10
5.472942285411144
 20
7.740086753241421
 30
0.0
 10
5.473648959395335
 20
7.740675037224007
 30
0.0
 10
5.474711605913329
 20
7.741559657203902
 30
0.0
 10
5.475235333190191
 20
7.742690322980362
 30
0.0
 10
5.475232898930718
 20
7.743720673999749
 30
0.0
 10
5.474445064228703
 20
7.744551704394724
 30
0.0
 10
5.473099959978749
 20
7.74513684428497
 30
0.0
 10
5.472223507234323
 20
7.745323171593102
 30
0.0
 10
5.471785087122344
 20
7.745416376434796
 30
0.0
  0
SPLINE
  5
27C
330
1F
100
AcDbEntity
  8
0
  6
Continuous
 62
     7
370
     0
100
AcDbSpline
210
0.0
220
0.0
230
1.0
 70
    24
 71
     1
 72
     4
 73
     2
 74
     0
 42
0.00000001
 43
0.00000001
 40
0.0
 40
0.0
 40
1.0
 40
1.0
 10
5.489185053752875
 20
7.737536406093105
 30
0.0
 10
5.472942285411144
 20
7.740086753241421
 30
0.0
  0
SPLINE
  5
27D
330
1F
100
AcDbEntity
  8
0
  6
Continuous
 62
     7
370
     0
100
AcDbSpline
210
0.0
220
0.0
230
1.0
 70
     8
 71
     3
 72
    12
 73
     8
 74
     0
 42
0.00000001
 43
0.00000001
 40
0.0
 40
0.0
 40
0.0
 40
0.0
 40
0.2504168115017489
 40
0.4997978941598341
 40
0.6250016503732522
 40
0.7501548209131083
 40
1.0
 40
1.0
 40
1.0
 40
1.0
 10
5.482631166697549
 20
7.751809627123235
 30
0.0
 10
5.485021854013316
 20
7.751287674677444
 30
0.0
 10
5.489793340715226
 20
7.750245928591413
 30
0.0
 10
5.49359616043263
 20
7.747611769404013
 30
0.0
 10
5.494162376070846
 20
7.744786471605005
 30
0.0
 10
5.493436941775917
 20
7.741669087162253
 30
0.0
 10
5.490885181346036
 20
7.739188868500704
 30
0.0
 10
5.489185053752875
 20
7.737536406093105
 30
0.0
  0
ARC
  5
27E
330
1F
100
AcDbEntity
  8
0
  6
Continuous
 62
     7
370
     0
100
AcDbCircle
 10
5.4739508683
 20
7.686735166
 30
0.0
 40
0.0656508421562471
100
AcDbArc
 50
82.4021527389
 51
120.7565825198
  0
SPLINE
  5
27F
330
1F
100
AcDbEntity
  8
0
  6
Continuous
 62
     7
370
     0
100
AcDbSpline
210
0.0
220
0.0
230
1.0
 70
     8
 71
     3
 72
    13
 73
     9
 74
     0
 42
0.00000001
 43
0.00000001
 40
0.0
 40
0.0
 40
0.0
 40
0.0
 40
0.249808944100757
 40
0.3754926332027943
 40
0.5002625661607628
 40
0.6265425410071404
 40
0.7507234029546014
 40
1.0
 40
1.0
 40
1.0
 40
1.0
 10
5.440353011790622
 20
7.730469988982517
 30
0.0
 10
5.438244447245253
 20
7.730943928334596
 30
0.0
 10
5.435075023283
 20
7.731656315698991
 30
0.0
 10
5.43297177351522
 20
7.733416519790418
 30
0.0
 10
5.43240399412677
 20
7.735032779847224
 30
0.0
 10
5.432876243961188
 20
7.736878739269574
 30
0.0
 10
5.434820203882648
 20
7.739584417265276
 30
0.0
 10
5.438152987563601
 20
7.741723956971323
 30
0.0
 10
5.440377564833839
 20
7.743152063879685
 30
0.0
  0
SPLINE
  5
280
330
1F
100
AcDbEntity
  8
0
  6
Continuous
 62
     7
370
     0
100
AcDbSpline
210
0.0
220
0.0
230
1.0
 70
     8
 71
     3
 72
     9
 73
     5
 74
     0
 42
0.00000001
 43
0.00000001
 40
0.0
 40
0.0
 40
0.0
 40
0.0
 40
0.5003482590474699
 40
1.0
 40
1.0
 40
1.0
 40
1.0
 10
5.452792126731071
 20
7.730312538813163
 30
0.0
 10
5.450478237043193
 20
7.730160246068022
 30
0.0
 10
5.445853678755966
 20
7.729855872579382
 30
0.0
 10
5.44218571584489
 20
7.730265378590921
 30
0.0
 10
5.440353011790622
 20
7.730469988982517
 30
0.0
  0
SPLINE
  5
281
330
1F
100
AcDbEntity
  8
0
  6
Continuous
 62
     7
370
     0
100
AcDbSpline
210
0.0
220
0.0
230
1.0
 70
    24
 71
     1
 72
     4
 73
     2
 74
     0
 42
0.00000001
 43
0.00000001
 40
0.0
 40
0.0
 40
1.0
 40
1.0
 10
5.442685621987814
 20
7.725584480614266
 30
0.0
 10
5.452792126731071
 20
7.730312538813163
 30
0.0
  0
ARC
  5
282
330
1F
100
AcDbEntity
  8
0
  6
Continuous
 62
     7
370
     0
100
AcDbCircle
 10
5.3819549485
 20
7.4150800056
 30
0.0
 40
0.3163878059140315
100
AcDbArc
 50
78.9333878024
 51
83.17979953
  0
LINE
  5
283
330
1F
100
AcDbEntity
  8
0
  6
Continuous
 62
     7
370
     0
100
AcDbLine
 10
5.4063034652
 20
7.7215950109
 30
0.0
 11
5.4195272804
 21
7.7292289569
 31
0.0
  0
ARC
  5
284
330
1F
100
AcDbEntity
  8
0
  6
Continuous
 62
     7
370
     0
100
AcDbCircle
 10
5.3675692144
 20
7.3997474045
 30
0.0
 40
0.3241700539939008
100
AcDbArc
 50
76.9097251824
 51
83.137477613
  0
SPLINE
  5
285
330
1F
100
AcDbEntity
  8
0
  6
Continuous
 62
     7
370
     0
100
AcDbSpline
210
0.0
220
0.0
230
1.0
 70
    24
 71
     1
 72
     4
 73
     2
 74
     0
 42
0.00000001
 43
0.00000001
 40
0.0
 40
0.0
 40
1.0
 40
1.0
 10
5.47778977494368
 20
7.732711208798528
 30
0.0
 10
5.440989188383939
 20
7.715493713028754
 30
0.0
  0
SPLINE
  5
286
330
1F
100
AcDbEntity
  8
0
  6
Continuous
 62
     7
370
     0
100
AcDbSpline
210
0.0
220
0.0
230
1.0
 70
    24
 71
     1
 72
     4
 73
     2
 74
     0
 42
0.00000001
 43
0.00000001
 40
0.0
 40
0.0
 40
1.0
 40
1.0
 10
5.466512995125369
 20
7.736538011876618
 30
0.0
 10
5.47778977494368
 20
7.732711208798528
 30
0.0
  0
LINE
  5
287
330
1F
100
AcDbEntity
  8
0
  6
Continuous
 62
     7
370
     0
100
AcDbLine
 10
5.5202179867
 20
7.7006599747
 30
0.0
 11
5.5327071454
 21
7.7078698126
 31
0.0
  0
ARC
  5
288
330
1F
100
AcDbEntity
  8
0
  6
Continuous
 62
     7
370
     0
100
AcDbCircle
 10
5.3241976969
 20
7.2422118498
 30
0.0
 40
0.4985966678832293
100
AcDbArc
 50
61.5219372811
 51
66.8497295513
  0
LINE
  5
289
330
1F
100
AcDbEntity
  8
0
  6
Continuous
 62
     7
370
     0
100
AcDbLine
 10
5.5744288385
 20
7.68768803
 30
0.0
 11
5.5619396798
 21
7.6804781921
 31
0.0
  0
ARC
  5
28A
330
1F
100
AcDbEntity
  8
0
  6
Continuous
 62
     7
370
     0
100
AcDbCircle
 10
5.3366868556
 20
7.2494216877
 30
0.0
 40
0.4985966678828083
100
AcDbArc
 50
61.5219372811
 51
66.8497295513
  0
ARC
  5
28B
330
1F
100
AcDbEntity
  8
0
  6
Continuous
 62
     7
370
     0
100
AcDbCircle
 10
5.5906200128
 20
7.5930410066
 30
0.0
 40
0.061651257539383
100
AcDbArc
 50
66.1855272235
 51
98.9467532448
  0
LINE
  5
28C
330
1F
100
AcDbEntity
  8
0
  6
Continuous
 62
     7
370
     0
100
AcDbLine
 10
5.6287371508
 20
7.6570770805
 30
0.0
 11
5.6155133357
 21
7.6494431346
 31
0.0
  0
ARC
  5
28D
330
1F
100
AcDbEntity
  8
0
  6
Continuous
 62
     7
370
     0
100
AcDbCircle
 10
5.5940365442
 20
7.5709974026
 30
0.0
 40
0.092810791745395
100
AcDbArc
 50
68.0445550796
 51
84.1803591543
  0
LINE
  5
28E
330
1F
100
AcDbEntity
  8
0
  6
Continuous
 62
     7
370
     0
100
AcDbLine
 10
5.6412706364
 20
7.6851647892
 30
0.0
 11
5.603447311
 21
7.6633298483
 31
0.0
  0
ARC
  5
28F
330
1F
100
AcDbEntity
  8
0
  6
Continuous
 62
     7
370
     0
100
AcDbCircle
 10
5.3223971275
 20
7.1846996343
 30
0.0
 40
0.5934186431127453
100
AcDbArc
 50
57.4965764654
 51
59.327514498
  0
LINE
  5
290
330
1F
100
AcDbEntity
  8
0
  6
Continuous
 62
     7
370
     0
100
AcDbLine
 10
5.5678145466
 20
7.6620170009
 30
0.0
 11
5.6251177455
 21
7.6950974335
 31
0.0
  0
ARC
  5
291
330
1F
100
AcDbEntity
  8
0
  6
Continuous
 62
     7
370
     0
100
AcDbCircle
 10
5.2666324798
 20
7.1541570506
 30
0.0
 40
0.590450985651493
100
AcDbArc
 50
57.8272401808
 51
59.3302966644
  0
LINE
  5
292
330
1F
100
AcDbEntity
  8
0
  6
Continuous
 62
     7
370
     0
100
AcDbLine
 10
5.6702910522
 20
7.6353238735
 30
0.0
 11
5.6930654005
 21
7.6484712249
 31
0.0
  0
ARC
  5
293
330
1F
100
AcDbEntity
  8
0
  6
Continuous
 62
     7
370
     0
100
AcDbCircle
 10
5.2429040485
 20
7.0882878971
 30
0.0
 40
0.6941959452348744
100
AcDbArc
 50
52.0002823904
 51
54.2490977064
  0
LINE
  5
294
330
1F
100
AcDbEntity
  8
0
  6
Continuous
 62
     7
370
     0
100
AcDbLine
 10
5.6367421673
 20
7.6448871477
 30
0.0
 11
5.6484966697
 21
7.6516728774
 31
0.0
  0
ARC
  5
295
330
1F
100
AcDbEntity
  8
0
  6
Continuous
 62
     7
370
     0
100
AcDbCircle
 10
5.2311495462
 20
7.0815021673
 30
0.0
 40
0.6941959452296322
100
AcDbArc
 50
52.0002823904
 51
54.2490977064
  0
LINE
  5
296
330
1F
100
AcDbEntity
  8
0
  6
Continuous
 62
     7
370
     0
100
AcDbLine
 10
5.6497206731
 20
7.6234488464
 30
0.0
 11
5.6585365499
 21
7.6285381437
 31
0.0
  0
ARC
  5
297
330
1F
100
AcDbEntity
  8
0
  6
Continuous
 62
     7
370
     0
100
AcDbCircle
 10
5.224623474
 20
7.0794310239
 30
0.0
 40
0.6904078648677489
100
AcDbArc
 50
51.9958216216
 51
54.6290171534
  0
LINE
  5
298
330
1F
100
AcDbEntity
  8
0
  6
Continuous
 62
     7
370
     0
100
AcDbLine
 10
5.6110548727
 20
7.6347701945
 30
0.0
 11
5.6242786878
 21
7.6424041405
 31
0.0
  0
ARC
  5
299
330
1F
100
AcDbEntity
  8
0
  6
Continuous
 62
     7
370
     0
100
AcDbCircle
 10
5.2007835659
 20
7.0574757945
 30
0.0
 40
0.708231155400017
100
AcDbArc
 50
50.2354942743
 51
54.5993714755
  0
LINE
  5
29A
330
1F
100
AcDbEntity
  8
0
  6
Continuous
 62
     7
370
     0
100
AcDbLine
 10
5.710360574
 20
7.6345351861
 30
0.0
 11
5.6537920315
 21
7.6018788616
 31
0.0
  0
ARC
  5
29B
330
1F
100
AcDbEntity
  8
0
  6
Continuous
 62
     7
370
     0
100
AcDbCircle
 10
5.2408713972
 20
7.0695806252
 30
0.0
 40
0.7345704480253288
100
AcDbArc
 50
50.2727025324
 51
52.0052183965
  0
LINE
  5
29C
330
1F
100
AcDbEntity
  8
0
  6
Continuous
 62
     7
370
     0
100
AcDbLine
 10
5.0782905723
 20
6.2035445151
 30
0.0
 11
5.1094101581
 21
6.2215094695
 31
0.0
  0
SPLINE
  5
29D
330
1F
100
AcDbEntity
  8
0
  6
Continuous
 62
     7
370
     0
100
AcDbSpline
210
0.0
220
0.0
230
1.0
 70
    24
 71
     1
 72
     4
 73
     2
 74
     0
 42
0.00000001
 43
0.00000001
 40
0.0
 40
0.0
 40
1.0
 40
1.0
 10
5.123736071963796
 20
6.231445678482934
 30
0.0
 10
5.078290572332961
 20
6.203544515068889
 30
0.0
  0
ARC
  5
29E
330
1F
100
AcDbEntity
  8
0
  6
Continuous
 62
     7
370
     0
100
AcDbCircle
 10
4.9995690267
 20
6.3948843963
 30
0.0
 40
0.2052551329567485
100
AcDbArc
 50
307.2245262478
 51
311.1094338567
  0
LINE
  5
29F
330
1F
100
AcDbEntity
  8
0
  6
Continuous
 62
     7
370
     0
100
AcDbLine
 10
5.077955593
 20
6.207577536
 30
0.0
 11
5.1345241355
 21
6.2402338605
 31
0.0
  0
ARC
  5
2A0
330
1F
100
AcDbEntity
  8
0
  6
Continuous
 62
     7
370
     0
100
AcDbCircle
 10
4.9430004842
 20
6.3622280718
 30
0.0
 40
0.2052551329586463
100
AcDbArc
 50
307.2245262478
 51
311.1094338567
  0
LINE
  5
2A1
330
1F
100
AcDbEntity
  8
0
  6
Continuous
 62
     7
370
     0
100
AcDbLine
 10
5.0984593003
 20
6.2168537088
 30
0.0
 11
5.0671675295
 21
6.198789354
 31
0.0
  0
SPLINE
  5
2A2
330
1F
100
AcDbEntity
  8
0
  6
Continuous
 62
     7
370
     0
100
AcDbSpline
210
0.0
220
0.0
230
1.0
 70
    24
 71
     1
 72
     4
 73
     2
 74
     0
 42
0.00000001
 43
0.00000001
 40
0.0
 40
0.0
 40
1.0
 40
1.0
 10
5.052762300680847
 20
6.18880310883936
 30
0.0
 10
5.098459300337614
 20
6.216853708821947
 30
0.0
  0
SPLINE
  5
2A3
330
1F
100
AcDbEntity
  8
0
  6
Continuous
 62
     7
370
     0
100
AcDbSpline
210
0.0
220
0.0
230
1.0
 70
     8
 71
     3
 72
    13
 73
     9
 74
     0
 42
0.00000001
 43
0.00000001
 40
0.0
 40
0.0
 40
0.0
 40
0.0
 40
0.2500930967876151
 40
0.4999069580474839
 40
0.6246787476944606
 40
0.7499271915311311
 40
0.8749433770757604
 40
1.0
 40
1.0
 40
1.0
 40
1.0
 10
5.217848222782685
 20
6.290761187481577
 30
0.0
 10
5.218383964496645
 20
6.291544888283601
 30
0.0
 10
5.219454849754835
 20
6.293111414865071
 30
0.0
 10
5.219736269881184
 20
6.294526940490436
 30
0.0
 10
5.219068971879214
 20
6.295075095490946
 30
0.0
 10
5.218067073331092
 20
6.295137237571461
 30
0.0
 10
5.216664599687339
 20
6.294907826284435
 30
0.0
 10
5.215357811656538
 20
6.294457161602111
 30
0.0
 10
5.21470431198574
 20
6.294231792824164
 30
0.0
  0
LINE
  5
2A4
330
1F
100
AcDbEntity
  8
0
  6
Continuous
 62
     7
370
     0
100
AcDbLine
 10
5.2310720379
 20
6.2983951335
 30
0.0
 11
5.2178482228
 21
6.2907611875
 31
0.0
  0
SPLINE
  5
2A5
330
1F
100
AcDbEntity
  8
0
  6
Continuous
 62
     7
370
     0
100
AcDbSpline
210
0.0
220
0.0
230
1.0
 70
     8
 71
     3
 72
    10
 73
     6
 74
     0
 42
0.00000001
 43
0.00000001
 40
0.0
 40
0.0
 40
0.0
 40
0.0
 40
0.3341759629295349
 40
0.6644819296030697
 40
1.0
 40
1.0
 40
1.0
 40
1.0
 10
5.232520947790917
 20
6.303639889779396
 30
0.0
 10
5.232778771319581
 20
6.303295115097654
 30
0.0
 10
5.233291432596358
 20
6.302609558471156
 30
0.0
 10
5.232723735640268
 20
6.300770826328998
 30
0.0
 10
5.23162546958147
 20
6.299191153004989
 30
0.0
 10
5.231072037911368
 20
6.298395133462256
 30
0.0
  0
LINE
  5
2A6
330
1F
100
AcDbEntity
  8
0
  6
Continuous
 62
     7
370
     0
100
AcDbLine
 10
5.2703442732
 20
6.3254748308
 30
0.0
 11
5.2325209478
 21
6.3036398898
 31
0.0
  0
ARC
  5
2A7
330
1F
100
AcDbEntity
  8
0
  6
Continuous
 62
     7
370
     0
100
AcDbCircle
 10
5.1050511536
 20
6.4767392766
 30
0.0
 40
0.2240596973044194
100
AcDbArc
 50
317.5374791516
 51
321.0425057705
  0
LINE
  5
2A8
330
1F
100
AcDbEntity
  8
0
  6
Continuous
 62
     7
370
     0
100
AcDbLine
 10
5.2219796027
 20
6.3027827254
 30
0.0
 11
5.2792828016
 21
6.335863158
 31
0.0
  0
ARC
  5
2A9
330
1F
100
AcDbEntity
  8
0
  6
Continuous
 62
     7
370
     0
100
AcDbCircle
 10
5.0471094624
 20
6.4441950152
 30
0.0
 40
0.2248933117594589
100
AcDbArc
 50
318.1779436404
 51
321.0385605492
  0
LWPOLYLINE
  5
2AA
330
1F
100
AcDbEntity
  8
0
  6
Continuous
 62
     7
370
     0
100
AcDbPolyline
 90
      123
 70
   128
 43
0.0
 10
5.044925688
 20
6.5821751637
 10
5.0494304097
 20
6.5585104538
 10
5.0529901276
 20
6.5351514256
 10
5.055595402
 20
6.5121600229
 10
5.0572393242
 20
6.489597215
 10
5.0579175348
 20
6.4675228342
 10
5.0576282353
 20
6.4459954178
 10
5.0563721928
 20
6.4250720528
 10
5.0541527383
 20
6.404808224
 10
5.0509757572
 20
6.3852576676
 10
5.0468496743
 20
6.3664722282
 10
5.0417854313
 20
6.3485017212
 10
5.0357964576
 20
6.3313938012
 10
5.028898635
 20
6.3151938355
 10
5.0211102551
 20
6.2999447834
 10
5.0124519715
 20
6.2856870825
 10
5.0029467442
 20
6.2724585419
 10
4.9926197796
 20
6.2602942412
 10
4.9814984627
 20
6.2492264379
 10
4.9696122853
 20
6.2392844819
 10
4.9569927675
 20
6.2304947374
 10
4.9436733739
 20
6.2228805133
 10
4.9296894252
 20
6.2164620011
 10
4.9150780043
 20
6.2112562216
 10
4.8998778581
 20
6.2072769795
 10
4.8841292946
 20
6.2045348272
 10
4.8678740761
 20
6.2030370362
 10
4.8511553086
 20
6.2027875784
 10
4.8340173273
 20
6.2037871155
 10
4.816505579
 20
6.2060329967
 10
4.7986665017
 20
6.2095192664
 10
4.7805474014
 20
6.2142366797
 10
4.7621963267
 20
6.2201727267
 10
4.7436619414
 20
6.2273116663
 10
4.7249933954
 20
6.2356345672
 10
4.7062401942
 20
6.2451193585
 10
4.6874520681
 20
6.2557408883
 10
4.6686788396
 20
6.2674709903
 10
4.6499702921
 20
6.2802785582
 10
4.6313760372
 20
6.2941296288
 10
4.6129453836
 20
6.3089874714
 10
4.594727206
 20
6.3248126858
 10
4.5767698159
 20
6.3415633063
 10
4.5591208328
 20
6.3591949133
 10
4.5418270589
 20
6.377660751
 10
4.524934354
 20
6.3969118512
 10
4.5084875147
 20
6.4168971635
 10
4.4925301548
 20
6.4375636904
 10
4.4771045906
 20
6.4588566281
 10
4.4622517277
 20
6.4807195115
 10
4.4480109534
 20
6.5030943641
 10
4.4344200316
 20
6.5259218518
 10
4.421515003
 20
6.5491414404
 10
4.4093300894
 20
6.5726915555
 10
4.397897603
 20
6.5965097466
 10
4.3872478607
 20
6.620532852
 10
4.3774091037
 20
6.6446971668
 10
4.3684074227
 20
6.6689386116
 10
4.3602666884
 20
6.6931929025
 10
4.3530084886
 20
6.7173957213
 10
4.3466520708
 20
6.7414828867
 10
4.3412142911
 20
6.7653905237
 10
4.3367095694
 20
6.7890552336
 10
4.3331498515
 20
6.8124142618
 10
4.330544577
 20
6.8354056645
 10
4.3289006548
 20
6.8579684725
 10
4.3282224443
 20
6.8800428533
 10
4.3285117438
 20
6.9015702696
 10
4.3297677862
 20
6.9224936347
 10
4.3319872408
 20
6.9427574634
 10
4.3351642219
 20
6.9623080198
 10
4.3392903048
 20
6.9810934593
 10
4.3443545478
 20
6.9990639663
 10
4.3503435214
 20
7.0161718862
 10
4.3572413441
 20
7.0323718519
 10
4.3650297239
 20
7.0476209041
 10
4.3736880076
 20
7.0618786049
 10
4.3831932348
 20
7.0751071455
 10
4.3935201995
 20
7.0872714463
 10
4.4046415164
 20
7.0983392495
 10
4.4165276937
 20
7.1082812056
 10
4.4291472116
 20
7.11707095
 10
4.4424666051
 20
7.1246851741
 10
4.4564505538
 20
7.1311036863
 10
4.4710619747
 20
7.1363094658
 10
4.486262121
 20
7.1402887079
 10
4.5020106845
 20
7.1430308603
 10
4.5182659029
 20
7.1445286513
 10
4.5349846704
 20
7.144778109
 10
4.5521226517
 20
7.143778572
 10
4.5696344001
 20
7.1415326908
 10
4.5874734774
 20
7.138046421
 10
4.6055925777
 20
7.1333290078
 10
4.6239436523
 20
7.1273929607
 10
4.6424780376
 20
7.1202540211
 10
4.6611465836
 20
7.1119311203
 10
4.6798997848
 20
7.1024463289
 10
4.698687911
 20
7.0918247991
 10
4.7174611395
 20
7.0800946971
 10
4.736169687
 20
7.0672871292
 10
4.7547639419
 20
7.0534360586
 10
4.7731945955
 20
7.038578216
 10
4.791412773
 20
7.0227530016
 10
4.8093701632
 20
7.0060023811
 10
4.8270191462
 20
6.9883707741
 10
4.8443129201
 20
6.9699049364
 10
4.861205625
 20
6.9506538362
 10
4.8776524644
 20
6.9306685239
 10
4.8936098242
 20
6.910001997
 10
4.9090353885
 20
6.8887090593
 10
4.9238882514
 20
6.866846176
 10
4.9381290257
 20
6.8444713234
 10
4.9517199475
 20
6.8216438356
 10
4.9646249761
 20
6.7984242471
 10
4.9768098897
 20
6.7748741319
 10
4.9882423761
 20
6.7510559409
 10
4.9988921183
 20
6.7270328354
 10
5.0087308753
 20
6.7028685206
 10
5.0177325564
 20
6.6786270758
 10
5.0258732907
 20
6.654372785
 10
5.0331314904
 20
6.6301699661
 10
5.0394879082
 20
6.6060828008
 10
5.044925688
 20
6.5821751637
  0
LWPOLYLINE
  5
2AB
330
1F
100
AcDbEntity
  8
0
  6
Continuous
 62
     7
370
     0
100
AcDbPolyline
 90
       77
 70
   128
 43
0.0
 10
4.5703693115
 20
7.1414124998
 10
4.5578101899
 20
7.1424310081
 10
4.5409521373
 20
7.1427323856
 10
4.5245445985
 20
7.1417677841
 10
4.5086325455
 20
7.1395398476
 10
4.4932595921
 20
7.1360546828
 10
4.4784678746
 20
7.1313218422
 10
4.4642979359
 20
7.1253542982
 10
4.450788615
 20
7.1181684074
 10
4.4379769398
 20
7.109783866
 10
4.4258980264
 20
7.1002236552
 10
4.4145849822
 20
7.089513979
 10
4.4040688154
 20
7.0776841918
 10
4.3943783501
 20
7.0647667184
 10
4.3855401473
 20
7.0507969645
 10
4.3775784318
 20
7.0358132204
 10
4.3705150261
 20
7.0198565553
 10
4.3643692906
 20
7.0029707055
 10
4.3591580703
 20
6.9852019538
 10
4.3548956487
 20
6.9665990032
 10
4.3515937089
 20
6.947212843
 10
4.3492613012
 20
6.9270966095
 10
4.3479048187
 20
6.9063054397
 10
4.3475279793
 20
6.8848963208
 10
4.3481318159
 20
6.8629279338
 10
4.3497146736
 20
6.8404604925
 10
4.3522722136
 20
6.8175555785
 10
4.3557974261
 20
6.7942759726
 10
4.3602806487
 20
6.7706854827
 10
4.3657095931
 20
6.7468487686
 10
4.372069379
 20
6.722831165
 10
4.3793425747
 20
6.6986985026
 10
4.3875092448
 20
6.6745169274
 10
4.3965470051
 20
6.6503527192
 10
4.4064310836
 20
6.6262721106
 10
4.4171343889
 20
6.6023411049
 10
4.4286275839
 20
6.5786252951
 10
4.4408791666
 20
6.5551896848
 10
4.4538555562
 20
6.5320985094
 10
4.4675211853
 20
6.50941506
 10
4.4818385975
 20
6.4872015105
 10
4.4967685495
 20
6.4655187467
 10
4.5122701197
 20
6.4444261995
 10
4.528300819
 20
6.4239816821
 10
4.5448167087
 20
6.4042412316
 10
4.5617725197
 20
6.3852589551
 10
4.5791217773
 20
6.3670868817
 10
4.5968169284
 20
6.3497748198
 10
4.6148094719
 20
6.3333702206
 10
4.6330500915
 20
6.317918048
 10
4.6514887908
 20
6.3034606552
 10
4.6700750307
 20
6.290037669
 10
4.6887578677
 20
6.2776858809
 10
4.7074860932
 20
6.2664391462
 10
4.7262083746
 20
6.2563282915
 10
4.7448733954
 20
6.2473810299
 10
4.7634299961
 20
6.2396218852
 10
4.7818273142
 20
6.2330721247
 10
4.8000149242
 20
6.2277497009
 10
4.8179429749
 20
6.2236692022
 10
4.8355623268
 20
6.2208418128
 10
4.8528246866
 20
6.2192752826
 10
4.8696827392
 20
6.2189739052
 10
4.886090278
 20
6.2199385067
 10
4.902002331
 20
6.2221664431
 10
4.9173752843
 20
6.2256516079
 10
4.9321670019
 20
6.2303844485
 10
4.9463369406
 20
6.2363519925
 10
4.9598462615
 20
6.2435378833
 10
4.9726579367
 20
6.2519224248
 10
4.9847368501
 20
6.2614826356
 10
4.9960498943
 20
6.2721923118
 10
5.0065660611
 20
6.2840220989
 10
5.0162565264
 20
6.2969395723
 10
5.0250947292
 20
6.3109093262
 10
5.0330564447
 20
6.3258930704
 10
5.0366668985
 20
6.3336738674
  0
ARC
  5
2AC
330
1F
100
AcDbEntity
  8
0
  6
Continuous
 62
     7
370
     0
100
AcDbCircle
 10
4.4501942041
 20
6.5393320346
 30
0.0
 40
0.9837811973642052
100
AcDbArc
 50
37.5465735926
 51
38.123079477
  0
SPLINE
  5
2AD
330
1F
100
AcDbEntity
  8
0
  6
Continuous
 62
     7
370
     0
100
AcDbSpline
210
0.0
220
0.0
230
1.0
 70
     8
 71
     3
 72
    13
 73
     9
 74
     0
 42
0.00000001
 43
0.00000001
 40
0.0
 40
0.0
 40
0.0
 40
0.0
 40
0.2505627277006831
 40
0.5000471093103862
 40
0.6243230553536478
 40
0.7497534526004591
 40
0.8747558534754268
 40
1.0
 40
1.0
 40
1.0
 40
1.0
 10
5.224121500617232
 20
7.146672123784243
 30
0.0
 10
5.22341132238919
 20
7.147531001881672
 30
0.0
 10
5.221994022325105
 20
7.149245061725328
 30
0.0
 10
5.219806319066482
 20
7.151144525957429
 30
0.0
 10
5.217709538097572
 20
7.152006912572185
 30
0.0
 10
5.216109660164244
 20
7.152160479693381
 30
0.0
 10
5.214617858504482
 20
7.151909964450567
 30
0.0
 10
5.213784436445043
 20
7.151482622572845
 30
0.0
 10
5.213367322860005
 20
7.151268745221468
 30
0.0
  0
SPLINE
  5
2AE
330
1F
100
AcDbEntity
  8
0
  6
Continuous
 62
     7
370
     0
100
AcDbSpline
210
0.0
220
0.0
230
1.0
 70
     8
 71
     3
 72
    13
 73
     9
 74
     0
 42
0.00000001
 43
0.00000001
 40
0.0
 40
0.0
 40
0.0
 40
0.0
 40
0.1251815832450283
 40
0.2501778431336398
 40
0.3742188627289595
 40
0.4998769269701619
 40
0.7494759856939125
 40
1.0
 40
1.0
 40
1.0
 40
1.0
 10
5.213367322860005
 20
7.151268745221468
 30
0.0
 10
5.212992177782549
 20
7.151023456638482
 30
0.0
 10
5.212242443006017
 20
7.150533242606628
 30
0.0
 10
5.211498329504758
 20
7.149442848116687
 30
0.0
 10
5.211132734091246
 20
7.148143654117768
 30
0.0
 10
5.211346590021544
 20
7.146219253174867
 30
0.0
 10
5.212559470867903
 20
7.143853322894801
 30
0.0
 10
5.213840708576996
 20
7.142133113088208
 30
0.0
 10
5.214482512227882
 20
7.141271417458801
 30
0.0
  0
ARC
  5
2AF
330
1F
100
AcDbEntity
  8
0
  6
Continuous
 62
     7
370
     0
100
AcDbCircle
 10
4.4406883104
 20
6.5338531804
 30
0.0
 40
0.9837247488588691
100
AcDbArc
 50
37.5465624857
 51
38.13144585
  0
LINE
  5
2B0
330
1F
100
AcDbEntity
  8
0
  6
Continuous
 62
     7
370
     0
100
AcDbLine
 10
5.2206426985
 20
7.1333409067
 30
0.0
 11
5.2301932317
 21
7.1388543121
 31
0.0
  0
ARC
  5
2B1
330
1F
100
AcDbEntity
  8
0
  6
Continuous
 62
     7
370
     0
100
AcDbCircle
 10
4.4729559104
 20
6.5526145466
 30
0.0
 40
0.9828679204588482
100
AcDbArc
 50
37.5463741788
 51
38.2579302633
  0
SPLINE
  5
2B2
330
1F
100
AcDbEntity
  8
0
  6
Continuous
 62
     7
370
     0
100
AcDbSpline
210
0.0
220
0.0
230
1.0
 70
     8
 71
     3
 72
    13
 73
     9
 74
     0
 42
0.00000001
 43
0.00000001
 40
0.0
 40
0.0
 40
0.0
 40
0.0
 40
0.250459890056594
 40
0.4998947466963565
 40
0.6257393024540752
 40
0.7498233176506485
 40
0.8747960687617763
 40
1.0
 40
1.0
 40
1.0
 40
1.0
 10
5.244734501498316
 20
7.161208956249165
 30
0.0
 10
5.243900244630932
 20
7.162210308596995
 30
0.0
 10
5.24223514518005
 20
7.164208915152956
 30
0.0
 10
5.239632962878975
 20
7.166388062165841
 30
0.0
 10
5.237185668818785
 20
7.167399496106497
 30
0.0
 10
5.235309124891738
 20
7.1676469594504
 30
0.0
 10
5.233533939899003
 20
7.16742922706204
 30
0.0
 10
5.232550544587258
 20
7.166939046908786
 30
0.0
 10
5.23205839256959
 20
7.1666937303524
 30
0.0
  0
SPLINE
  5
2B3
330
1F
100
AcDbEntity
  8
0
  6
Continuous
 62
     7
370
     0
100
AcDbSpline
210
0.0
220
0.0
230
1.0
 70
     8
 71
     3
 72
    13
 73
     9
 74
     0
 42
0.00000001
 43
0.00000001
 40
0.0
 40
0.0
 40
0.0
 40
0.0
 40
0.1295610237597203
 40
0.2496774389524613
 40
0.3752077547402367
 40
0.4998009282121726
 40
0.7495742841113153
 40
1.0
 40
1.0
 40
1.0
 40
1.0
 10
5.23205839256959
 20
7.1666937303524
 30
0.0
 10
5.23160721742009
 20
7.166384471772942
 30
0.0
 10
5.230737756431151
 20
7.165788498633396
 30
0.0
 10
5.229938290120161
 20
7.164442047730272
 30
0.0
 10
5.229633528092349
 20
7.162884024352045
 30
0.0
 10
5.22998582929168
 20
7.160612599003249
 30
0.0
 10
5.231462940696499
 20
7.157849775154007
 30
0.0
 10
5.232983124250794
 20
7.155824044316813
 30
0.0
 10
5.233744207340184
 20
7.154809857918409
 30
0.0
  0
ARC
  5
2B4
330
1F
100
AcDbEntity
  8
0
  6
Continuous
 62
     7
370
     0
100
AcDbCircle
 10
4.4619210654
 20
6.5462412976
 30
0.0
 40
0.9828868984577882
100
AcDbArc
 50
37.5463787495
 51
38.2551389627
  0
LINE
  5
2B5
330
1F
100
AcDbEntity
  8
0
  6
Continuous
 62
     7
370
     0
100
AcDbLine
 10
5.2412130776
 20
7.1452159338
 30
0.0
 11
5.2522329235
 21
7.1515775554
 31
0.0
  0
ARC
  5
2B6
330
1F
100
AcDbEntity
  8
0
  6
Continuous
 62
     7
370
     0
100
AcDbCircle
 10
4.513939141
 20
6.5938487022
 30
0.0
 40
0.8998761974324007
100
AcDbArc
 50
42.6589783052
 51
43.2707852846
  0
SPLINE
  5
2B7
330
1F
100
AcDbEntity
  8
0
  6
Continuous
 62
     7
370
     0
100
AcDbSpline
210
0.0
220
0.0
230
1.0
 70
     8
 71
     3
 72
    13
 73
     9
 74
     0
 42
0.00000001
 43
0.00000001
 40
0.0
 40
0.0
 40
0.0
 40
0.0
 40
0.2505627277009361
 40
0.5000471093108791
 40
0.6243230553633002
 40
0.7497534526002163
 40
0.8747558534753056
 40
1.0
 40
1.0
 40
1.0
 40
1.0
 10
5.169159118897454
 20
7.210666301889991
 30
0.0
 10
5.168396370226237
 20
7.211435640735
 30
0.0
 10
5.166874155523064
 20
7.212971007423641
 30
0.0
 10
5.164557108628345
 20
7.214644665857104
 30
0.0
 10
5.16237605962429
 20
7.215358238999915
 30
0.0
 10
5.160732553565086
 20
7.215434219067801
 30
0.0
 10
5.159216070913575
 20
7.21513963225964
 30
0.0
 10
5.15838047737978
 20
7.214708405626635
 30
0.0
 10
5.15796227700871
 20
7.21449258402122
 30
0.0
  0
SPLINE
  5
2B8
330
1F
100
AcDbEntity
  8
0
  6
Continuous
 62
     7
370
     0
100
AcDbSpline
210
0.0
220
0.0
230
1.0
 70
     8
 71
     3
 72
    13
 73
     9
 74
     0
 42
0.00000001
 43
0.00000001
 40
0.0
 40
0.0
 40
0.0
 40
0.0
 40
0.1251815832447622
 40
0.2501778431331029
 40
0.3742188627178483
 40
0.4998769269711941
 40
0.7494759856944346
 40
1.0
 40
1.0
 40
1.0
 40
1.0
 10
5.15796227700871
 20
7.21449258402122
 30
0.0
 10
5.157588291467929
 20
7.214249370233595
 30
0.0
 10
5.156840874048126
 20
7.213763302720856
 30
0.0
 10
5.156123470432047
 20
7.212720594852551
 30
0.0
 10
5.155801956800094
 20
7.21149976516218
 30
0.0
 10
5.156099079575903
 20
7.209722362391155
 30
0.0
 10
5.157437374217124
 20
7.207575349558196
 30
0.0
 10
5.158820490972905
 20
7.206028780894206
 30
0.0
 10
5.159513328357536
 20
7.205254066406919
 30
0.0
  0
ARC
  5
2B9
330
1F
100
AcDbEntity
  8
0
  6
Continuous
 62
     7
370
     0
100
AcDbCircle
 10
4.5044496956
 20
6.5883919924
 30
0.0
 40
0.8997928546248132
100
AcDbArc
 50
42.6589592747
 51
43.2796713006
  0
LINE
  5
2BA
330
1F
100
AcDbEntity
  8
0
  6
Continuous
 62
     7
370
     0
100
AcDbLine
 10
5.1661575134
 20
7.1981213956
 30
0.0
 11
5.1757080466
 21
7.203634801
 31
0.0
  0
ARC
  5
2BB
330
1F
100
AcDbEntity
  8
0
  6
Continuous
 62
     7
370
     0
100
AcDbCircle
 10
4.5369647765
 20
6.6074877161
 30
0.0
 40
0.8985305778809385
100
AcDbArc
 50
42.6586371921
 51
43.4140498872
  0
SPLINE
  5
2BC
330
1F
100
AcDbEntity
  8
0
  6
Continuous
 62
     7
370
     0
100
AcDbSpline
210
0.0
220
0.0
230
1.0
 70
     8
 71
     3
 72
    13
 73
     9
 74
     0
 42
0.00000001
 43
0.00000001
 40
0.0
 40
0.0
 40
0.0
 40
0.0
 40
0.2504598900562675
 40
0.4998947466956906
 40
0.6257393024735806
 40
0.7498233176509831
 40
0.8747960687619383
 40
1.0
 40
1.0
 40
1.0
 40
1.0
 10
5.189662926569454
 20
7.225016925384712
 30
0.0
 10
5.188767674631432
 20
7.2259129272858
 30
0.0
 10
5.18698083466801
 20
7.22770126410605
 30
0.0
 10
5.184229522969962
 20
7.229615281852642
 30
0.0
 10
5.181684723970863
 20
7.230451023087811
 30
0.0
 10
5.179754893568986
 20
7.230601665005013
 30
0.0
 10
5.177947485916002
 20
7.230325066813029
 30
0.0
 10
5.176960999745642
 20
7.229829225586341
 30
0.0
 10
5.176467300870585
 20
7.229581075877631
 30
0.0
  0
SPLINE
  5
2BD
330
1F
100
AcDbEntity
  8
0
  6
Continuous
 62
     7
370
     0
100
AcDbSpline
210
0.0
220
0.0
230
1.0
 70
     8
 71
     3
 72
    13
 73
     9
 74
     0
 42
0.00000001
 43
0.00000001
 40
0.0
 40
0.0
 40
0.0
 40
0.0
 40
0.1295610237654128
 40
0.2496774389465552
 40
0.3752077547240201
 40
0.4998009282124599
 40
0.7495742841114599
 40
1.0
 40
1.0
 40
1.0
 40
1.0
 10
5.176467300870585
 20
7.229581075877631
 30
0.0
 10
5.1760180713317
 20
7.229275381171083
 30
0.0
 10
5.175152359734894
 20
7.228686275981793
 30
0.0
 10
5.174388231941743
 20
7.227404359689079
 30
0.0
 10
5.174138830142338
 20
7.225946861801367
 30
0.0
 10
5.174590723077755
 20
7.223854712000116
 30
0.0
 10
5.176214379867917
 20
7.221352148398803
 30
0.0
 10
5.177854002490246
 20
7.219532633545453
 30
0.0
 10
5.178674882999911
 20
7.218621689612487
 30
0.0
  0
ARC
  5
2BE
330
1F
100
AcDbEntity
  8
0
  6
Continuous
 62
     7
370
     0
100
AcDbCircle
 10
4.525924494
 20
6.601107097
 30
0.0
 40
0.8985584802101553
100
AcDbArc
 50
42.6586449982
 51
43.411083604
  0
LINE
  5
2BF
330
1F
100
AcDbEntity
  8
0
  6
Continuous
 62
     7
370
     0
100
AcDbLine
 10
5.1867278925
 20
7.2099964227
 30
0.0
 11
5.1977477385
 21
7.2163580443
 31
0.0
  0
SPLINE
  5
2C0
330
1F
100
AcDbEntity
  8
0
  6
Continuous
 62
     7
370
     0
100
AcDbSpline
210
0.0
220
0.0
230
1.0
 70
    24
 71
     1
 72
     4
 73
     2
 74
     0
 42
0.00000001
 43
0.00000001
 40
0.0
 40
0.0
 40
1.0
 40
1.0
 10
5.104030338635296
 20
7.263047401904918
 30
0.0
 10
5.129886938467212
 20
7.26951181112286
 30
0.0
  0
ARC
  5
2C1
330
1F
100
AcDbEntity
  8
0
  6
Continuous
 62
     7
370
     0
100
AcDbCircle
 10
4.6087426565
 20
6.6857648204
 30
0.0
 40
0.7825291763604035
100
AcDbArc
 50
48.2428892683
 51
49.3945536858
  0
SPLINE
  5
2C2
330
1F
100
AcDbEntity
  8
0
  6
Continuous
 62
     7
370
     0
100
AcDbSpline
210
0.0
220
0.0
230
1.0
 70
    24
 71
     1
 72
     4
 73
     2
 74
     0
 42
0.00000001
 43
0.00000001
 40
0.0
 40
0.0
 40
1.0
 40
1.0
 10
5.118048944196262
 20
7.279868361138337
 30
0.0
 10
5.104030338635296
 20
7.263047401904918
 30
0.0
  0
SPLINE
  5
2C3
330
1F
100
AcDbEntity
  8
0
  6
Continuous
 62
     7
370
     0
100
AcDbSpline
210
0.0
220
0.0
230
1.0
 70
     8
 71
     3
 72
     9
 73
     5
 74
     0
 42
0.00000001
 43
0.00000001
 40
0.0
 40
0.0
 40
0.0
 40
0.0
 40
0.4999994377870628
 40
1.0
 40
1.0
 40
1.0
 40
1.0
 10
4.889316426034178
 20
7.293410966724705
 30
0.0
 10
4.890732533245219
 20
7.292996719081078
 30
0.0
 10
4.89356475085192
 20
7.292168222862242
 30
0.0
 10
4.896294449228209
 20
7.291210568065558
 30
0.0
 10
4.897659299951025
 20
7.290731740128809
 30
0.0
  0
ARC
  5
2C4
330
1F
100
AcDbEntity
  8
0
  6
Continuous
 62
     7
370
     0
100
AcDbCircle
 10
4.9123296715
 20
7.3286748019
 30
0.0
 40
0.0406804097339597
100
AcDbArc
 50
248.8614175351
 51
260.6287588906
  0
ARC
  5
2C5
330
1F
100
AcDbEntity
  8
0
  6
Continuous
 62
     7
370
     0
100
AcDbCircle
 10
4.9065356421
 20
7.2947483348
 30
0.0
 40
0.0062662339216244
100
AcDbArc
 50
262.3885379989
 51
296.9843410568
  0
SPLINE
  5
2C6
330
1F
100
AcDbEntity
  8
0
  6
Continuous
 62
     7
370
     0
100
AcDbSpline
210
0.0
220
0.0
230
1.0
 70
     8
 71
     3
 72
    13
 73
     9
 74
     0
 42
0.00000001
 43
0.00000001
 40
0.0
 40
0.0
 40
0.0
 40
0.0
 40
0.1250915069579676
 40
0.2499455687834818
 40
0.3709820857072677
 40
0.5001127109828224
 40
0.749652885479312
 40
1.0
 40
1.0
 40
1.0
 40
1.0
 10
4.909378926722985
 20
7.289164302170856
 30
0.0
 10
4.909645972268956
 20
7.289340609863977
 30
0.0
 10
4.910179556462657
 20
7.289692890587983
 30
0.0
 10
4.910586805109815
 20
7.290357053007434
 30
0.0
 10
4.910674356683896
 20
7.291056077195203
 30
0.0
 10
4.910397071844061
 20
7.291975036868979
 30
0.0
 10
4.909433481046563
 20
7.293022575497772
 30
0.0
 10
4.90833408702824
 20
7.29368705308491
 30
0.0
 10
4.907783502674015
 20
7.294019828192938
 30
0.0
  0
ARC
  5
2C7
330
1F
100
AcDbEntity
  8
0
  6
Continuous
 62
     7
370
     0
100
AcDbCircle
 10
4.8990703594
 20
7.279895823
 30
0.0
 40
0.0165953725279102
100
AcDbArc
 50
58.3294336078
 51
117.6413855393
  0
LINE
  5
2C8
330
1F
100
AcDbEntity
  8
0
  6
Continuous
 62
     7
370
     0
100
AcDbLine
 10
4.8913711681
 20
7.2945971441
 30
0.0
 11
4.889316426
 21
7.2934109667
 31
0.0
  0
ARC
  5
2C9
330
1F
100
AcDbEntity
  8
0
  6
Continuous
 62
     7
370
     0
100
AcDbCircle
 10
4.6699730187
 20
6.7713771914
 30
0.0
 40
0.6647342990820502
100
AcDbArc
 50
54.2216475033
 51
55.0065112253
  0
SPLINE
  5
2CA
330
1F
100
AcDbEntity
  8
0
  6
Continuous
 62
     7
370
     0
100
AcDbSpline
210
0.0
220
0.0
230
1.0
 70
    24
 71
     1
 72
     4
 73
     2
 74
     0
 42
0.00000001
 43
0.00000001
 40
0.0
 40
0.0
 40
1.0
 40
1.0
 10
5.051187066303363
 20
7.315938976981332
 30
0.0
 10
5.045781132395922
 20
7.318754591236542
 30
0.0
  0
ARC
  5
2CB
330
1F
100
AcDbEntity
  8
0
  6
Continuous
 62
     7
370
     0
100
AcDbCircle
 10
5.0414517601
 20
7.3101777241
 30
0.0
 40
0.0096076070942041
100
AcDbArc
 50
63.2165816839
 51
117.8835407874
  0
SPLINE
  5
2CC
330
1F
100
AcDbEntity
  8
0
  6
Continuous
 62
     7
370
     0
100
AcDbSpline
210
0.0
220
0.0
230
1.0
 70
     8
 71
     3
 72
    12
 73
     8
 74
     0
 42
0.00000001
 43
0.00000001
 40
0.0
 40
0.0
 40
0.0
 40
0.0
 40
0.1254669244528004
 40
0.2506002708973717
 40
0.375447642563483
 40
0.5006747216463348
 40
0.9999999999999999
 40
0.9999999999999999
 40
0.9999999999999999
 40
0.9999999999999999
 10
5.036958513677916
 20
7.318669888145044
 30
0.0
 10
5.036506671427686
 20
7.318376693283496
 30
0.0
 10
5.035604188236964
 20
7.317791083075464
 30
0.0
 10
5.034756199059903
 20
7.316663763094572
 30
0.0
 10
5.034504064768845
 20
7.315397461816478
 30
0.0
 10
5.035543468264214
 20
7.312853612800376
 30
0.0
 10
5.037941667136308
 20
7.311152776888632
 30
0.0
 10
5.039859010502475
 20
7.309792970372889
 30
0.0
  0
ARC
  5
2CD
330
1F
100
AcDbEntity
  8
0
  6
Continuous
 62
     7
370
     0
100
AcDbCircle
 10
4.6591385565
 20
6.7652753611
 30
0.0
 40
0.6644151495509516
100
AcDbArc
 50
54.2215191569
 51
55.0391964981
  0
LINE
  5
2CE
330
1F
100
AcDbEntity
  8
0
  6
Continuous
 62
     7
370
     0
100
AcDbLine
 10
5.0475908764
 20
7.3043043827
 30
0.0
 11
5.0586107223
 21
7.3106660043
 31
0.0
  0
SPLINE
  5
2CF
330
1F
100
AcDbEntity
  8
0
  6
Continuous
 62
     7
370
     0
100
AcDbSpline
210
0.0
220
0.0
230
1.0
 70
    24
 71
     1
 72
     4
 73
     2
 74
     0
 42
0.00000001
 43
0.00000001
 40
0.0
 40
0.0
 40
1.0
 40
1.0
 10
4.957282398834864
 20
7.362643259165188
 30
0.0
 10
4.990118082987715
 20
7.365647460892681
 30
0.0
  0
ARC
  5
2D0
330
1F
100
AcDbEntity
  8
0
  6
Continuous
 62
     7
370
     0
100
AcDbCircle
 10
4.7664233668
 20
6.9210554707
 30
0.0
 40
0.4976960556485817
100
AcDbArc
 50
63.2909247788
 51
65.2151707967
  0
LINE
  5
2D1
330
1F
100
AcDbEntity
  8
0
  6
Continuous
 62
     7
370
     0
100
AcDbLine
 10
4.9750633794
 20
7.3729080008
 30
0.0
 11
4.9572823988
 21
7.3626432592
 31
0.0
  0
SPLINE
  5
2D2
330
1F
100
AcDbEntity
  8
0
  6
Continuous
 62
     7
370
     0
100
AcDbSpline
210
0.0
220
0.0
230
1.0
 70
     8
 71
     3
 72
    16
 73
    12
 74
     0
 42
0.00000001
 43
0.00000001
 40
0.0
 40
0.0
 40
0.0
 40
0.0
 40
0.1814043439033291
 40
0.3425102031038891
 40
0.500516678640569
 40
0.6281012479225414
 40
0.7515435373905749
 40
0.8128968252552963
 40
0.8750099158369605
 40
0.9377687550990015
 40
0.9999999999999999
 40
0.9999999999999999
 40
0.9999999999999999
 40
0.9999999999999999
 10
4.928823303389496
 20
7.386153315297816
 30
0.0
 10
4.930134916029568
 20
7.386925350953588
 30
0.0
 10
4.932611376637281
 20
7.388383034290006
 30
0.0
 10
4.936022488925039
 20
7.390580240498819
 30
0.0
 10
4.93876988871584
 20
7.392616523971932
 30
0.0
 10
4.940856171311953
 20
7.394566260191474
 30
0.0
 10
4.941654520818229
 20
7.39611763325539
 30
0.0
 10
4.941629635023005
 20
7.397277949763092
 30
0.0
 10
4.941162349521844
 20
7.398065395307317
 30
0.0
 10
4.940304529005251
 20
7.398739131446257
 30
0.0
 10
4.939451140605604
 20
7.399055299075401
 30
0.0
 10
4.939026247520286
 20
7.399212715604007
 30
0.0
  0
ARC
  5
2D3
330
1F
100
AcDbEntity
  8
0
  6
Continuous
 62
     7
370
     0
100
AcDbCircle
 10
4.9345793692
 20
7.3676757448
 30
0.0
 40
0.0318489442921667
100
AcDbArc
 50
81.9739083368
 51
131.5607698942
  0
SPLINE
  5
2D4
330
1F
100
AcDbEntity
  8
0
  6
Continuous
 62
     7
370
     0
100
AcDbSpline
210
0.0
220
0.0
230
1.0
 70
     8
 71
     3
 72
    17
 73
    13
 74
     0
 42
0.00000001
 43
0.00000001
 40
0.0
 40
0.0
 40
0.0
 40
0.0
 40
0.1817241832878888
 40
0.3427751466383473
 40
0.5004247573759687
 40
0.568488344894205
 40
0.6255188445358565
 40
0.7501316822624013
 40
0.8123103604817986
 40
0.8750483850463177
 40
0.9374912846493945
 40
1.0
 40
1.0
 40
1.0
 40
1.0
 10
4.913450332319085
 20
7.391506797068484
 30
0.0
 10
4.912104387646807
 20
7.39071635630551
 30
0.0
 10
4.909565615018641
 20
7.38922539652495
 30
0.0
 10
4.90606148380033
 20
7.386993407602242
 30
0.0
 10
4.903592782795529
 20
7.385212411168093
 30
0.0
 10
4.902041262502691
 20
7.383872323873408
 30
0.0
 10
4.900868222763372
 20
7.382669508236844
 30
0.0
 10
4.900239443556495
 20
7.381458942135771
 30
0.0
 10
4.900339383682222
 20
7.380306912802173
 30
0.0
 10
4.900875765224874
 20
7.379535446936521
 30
0.0
 10
4.901799621447098
 20
7.378879184815155
 30
0.0
 10
4.902678245370771
 20
7.378561335022854
 30
0.0
 10
4.903117788731338
 20
7.378402326416215
 30
0.0
  0
ARC
  5
2D5
330
1F
100
AcDbEntity
  8
0
  6
Continuous
 62
     7
370
     0
100
AcDbCircle
 10
4.9076969713
 20
7.4097164483
 30
0.0
 40
0.0316471664666413
100
AcDbArc
 50
261.6803898862
 51
311.8789000959
  0
ARC
  5
2D6
330
1F
100
AcDbEntity
  8
0
  6
Continuous
 62
     7
370
     0
100
AcDbCircle
 10
4.6928788408
 20
7.3635650926
 30
0.0
 40
0.0289780904472937
100
AcDbArc
 50
273.027054908
 51
288.9574014737
  0
SPLINE
  5
2D7
330
1F
100
AcDbEntity
  8
0
  6
Continuous
 62
     7
370
     0
100
AcDbSpline
210
0.0
220
0.0
230
1.0
 70
     8
 71
     3
 72
     9
 73
     5
 74
     0
 42
0.00000001
 43
0.00000001
 40
0.0
 40
0.0
 40
0.0
 40
0.0
 40
0.4990303792097074
 40
1.0
 40
1.0
 40
1.0
 40
1.0
 10
4.702292810682444
 20
7.336158763114577
 30
0.0
 10
4.703446525732534
 20
7.336577673944788
 30
0.0
 10
4.705758439191423
 20
7.337417123500694
 30
0.0
 10
4.707706561536523
 20
7.338410659581895
 30
0.0
 10
4.708682511649001
 20
7.338908390975738
 30
0.0
  0
ARC
  5
2D8
330
1F
100
AcDbEntity
  8
0
  6
Continuous
 62
     7
370
     0
100
AcDbCircle
 10
4.7067040338
 20
7.0809854894
 30
0.0
 40
0.2579304897497843
100
AcDbArc
 50
89.5605035313
 51
92.5996604042
  0
SPLINE
  5
2D9
330
1F
100
AcDbEntity
  8
0
  6
Continuous
 62
     7
370
     0
100
AcDbSpline
210
0.0
220
0.0
230
1.0
 70
     8
 71
     3
 72
    14
 73
    10
 74
     0
 42
0.00000001
 43
0.00000001
 40
0.0
 40
0.0
 40
0.0
 40
0.0
 40
0.2498680581560845
 40
0.3817391960285679
 40
0.4998759012707375
 40
0.6215720652082138
 40
0.7497806842473227
 40
0.874825577234266
 40
1.0
 40
1.0
 40
1.0
 40
1.0
 10
4.695005063302633
 20
7.338650527035671
 30
0.0
 10
4.694167350921068
 20
7.338091430478769
 30
0.0
 10
4.692887524866462
 20
7.337237263396712
 30
0.0
 10
4.691802200061444
 20
7.336221256632165
 30
0.0
 10
4.691426126329653
 20
7.335574746013381
 30
0.0
 10
4.691576611323915
 20
7.335100697938046
 30
0.0
 10
4.692181321996089
 20
7.334791136984406
 30
0.0
 10
4.69313799375279
 20
7.334628309868816
 30
0.0
 10
4.693985252625302
 20
7.334627726730328
 30
0.0
 10
4.694409101359684
 20
7.334627435010148
 30
0.0
  0
SPLINE
  5
2DA
330
1F
100
AcDbEntity
  8
0
  6
Continuous
 62
     7
370
     0
100
AcDbSpline
210
0.0
220
0.0
230
1.0
 70
     8
 71
     3
 72
    16
 73
    12
 74
     0
 42
0.00000001
 43
0.00000001
 40
0.0
 40
0.0
 40
0.0
 40
0.0
 40
0.1814043439006526
 40
0.3425102031053895
 40
0.500516678640564
 40
0.6281012479212426
 40
0.751543537387719
 40
0.8128968252553778
 40
0.8750099158370248
 40
0.9377687550990259
 40
1.0
 40
1.0
 40
1.0
 40
1.0
 10
4.877728133708159
 20
7.400004278725169
 30
0.0
 10
4.879040269761949
 20
7.400773732636681
 30
0.0
 10
4.881517718629063
 20
7.402226541372376
 30
0.0
 10
4.88493687326333
 20
7.404384111486761
 30
0.0
 10
4.887700229378837
 20
7.406342007298014
 30
0.0
 10
4.889813118485983
 20
7.408161671264963
 30
0.0
 10
4.890650907200926
 20
7.409521922632989
 30
0.0
 10
4.890669271801783
 20
7.410475139046865
 30
0.0
 10
4.890241446893503
 20
7.411075341251637
 30
0.0
 10
4.889427882457148
 20
7.41154104595383
 30
0.0
 10
4.888605763725505
 20
7.41171223773302
 30
0.0
 10
4.888196439478152
 20
7.411797472314685
 30
0.0
  0
ARC
  5
2DB
330
1F
100
AcDbEntity
  8
0
  6
Continuous
 62
     7
370
     0
100
AcDbCircle
 10
4.8880073869
 20
7.3722838096
 30
0.0
 40
0.0395141149709145
100
AcDbArc
 50
89.7258712881
 51
129.4343828134
  0
SPLINE
  5
2DC
330
1F
100
AcDbEntity
  8
0
  6
Continuous
 62
     7
370
     0
100
AcDbSpline
210
0.0
220
0.0
230
1.0
 70
     8
 71
     3
 72
    17
 73
    13
 74
     0
 42
0.00000001
 43
0.00000001
 40
0.0
 40
0.0
 40
0.0
 40
0.0
 40
0.1817241832845985
 40
0.3427751466532685
 40
0.5004247573759569
 40
0.5684883449036189
 40
0.6255188445357367
 40
0.7501316822622656
 40
0.8123103604820897
 40
0.8750483850463354
 40
0.9374912846494028
 40
1.0
 40
1.0
 40
1.0
 40
1.0
 10
4.862908253811539
 20
7.402802636540107
 30
0.0
 10
4.861561734306952
 20
7.402014693396953
 30
0.0
 10
4.859021877407811
 20
7.400528444722904
 30
0.0
 10
4.855508821823628
 20
7.398335277046682
 30
0.0
 10
4.853024984675695
 20
7.396620265151338
 30
0.0
 10
4.851454692848605
 20
7.395362374981903
 30
0.0
 10
4.850259555352227
 20
7.394256611976199
 30
0.0
 10
4.849595406038976
 20
7.393202123455963
 30
0.0
 10
4.849645772131948
 20
7.392271408106987
 30
0.0
 10
4.850138466792449
 20
7.391696742735637
 30
0.0
 10
4.851014941503488
 20
7.391255928413533
 30
0.0
 10
4.851861392294036
 20
7.391086406629415
 30
0.0
 10
4.852284840614766
 20
7.391001601091262
 30
0.0
  0
ARC
  5
2DD
330
1F
100
AcDbEntity
  8
0
  6
Continuous
 62
     7
370
     0
100
AcDbCircle
 10
4.8527560377
 20
7.430125059
 30
0.0
 40
0.0391262952810123
100
AcDbArc
 50
269.3099715872
 51
309.6609515966
  0
SPLINE
  5
2DE
330
1F
100
AcDbEntity
  8
0
  6
Continuous
 62
     7
370
     0
100
AcDbSpline
210
0.0
220
0.0
230
1.0
 70
     8
 71
     3
 72
    13
 73
     9
 74
     0
 42
0.00000001
 43
0.00000001
 40
0.0
 40
0.0
 40
0.0
 40
0.0
 40
0.2503907102770515
 40
0.4999495678160772
 40
0.6253606354979361
 40
0.7501944146350655
 40
0.8700210567314505
 40
1.0
 40
1.0
 40
1.0
 40
1.0
 10
4.656006285481139
 20
7.335099392549243
 30
0.0
 10
4.654888281244272
 20
7.334443257944112
 30
0.0
 10
4.652655987025291
 20
7.333133168556599
 30
0.0
 10
4.650587229621199
 20
7.33168980868389
 30
0.0
 10
4.649834443679342
 20
7.330867712814015
 30
0.0
 10
4.649841798159793
 20
7.330487982774139
 30
0.0
 10
4.650440750861538
 20
7.330364139002131
 30
0.0
 10
4.651304929296652
 20
7.330515232990209
 30
0.0
 10
4.651754578969726
 20
7.330593850275232
 30
0.0
  0
ARC
  5
2DF
330
1F
100
AcDbEntity
  8
0
  6
Continuous
 62
     7
370
     0
100
AcDbCircle
 10
4.6348159315
 20
7.3891197722
 30
0.0
 40
0.0609278369321645
100
AcDbArc
 50
286.1415685613
 51
302.3207671131
  0
SPLINE
  5
2E0
330
1F
100
AcDbEntity
  8
0
  6
Continuous
 62
     7
370
     0
100
AcDbSpline
210
0.0
220
0.0
230
1.0
 70
     8
 71
     3
 72
    13
 73
     9
 74
     0
 42
0.00000001
 43
0.00000001
 40
0.0
 40
0.0
 40
0.0
 40
0.0
 40
0.2504308113692727
 40
0.5001650640270194
 40
0.6247953729420251
 40
0.7514764919540422
 40
0.8754581573892536
 40
1.0
 40
1.0
 40
1.0
 40
1.0
 10
4.667391528567145
 20
7.337631600832776
 30
0.0
 10
4.668484970004418
 20
7.338274476256257
 30
0.0
 10
4.670668811535311
 20
7.339558438982682
 30
0.0
 10
4.672835539798463
 20
7.34104560917563
 30
0.0
 10
4.673721793702656
 20
7.34195298136852
 30
0.0
 10
4.673881463216416
 20
7.342434337427798
 30
0.0
 10
4.673434020753934
 20
7.342653536772834
 30
0.0
 10
4.672587767426424
 20
7.342508020062447
 30
0.0
 10
4.672163687026335
 20
7.342435097708402
 30
0.0
  0
ARC
  5
2E1
330
1F
100
AcDbEntity
  8
0
  6
Continuous
 62
     7
370
     0
100
AcDbCircle
 10
4.6902039127
 20
7.2812384904
 30
0.0
 40
0.0638002703048273
100
AcDbArc
 50
106.4250567881
 51
122.4124802697
  0
SPLINE
  5
2E2
330
1F
100
AcDbEntity
  8
0
  6
Continuous
 62
     7
370
     0
100
AcDbSpline
210
0.0
220
0.0
230
1.0
 70
    24
 71
     1
 72
     4
 73
     2
 74
     0
 42
0.00000001
 43
0.00000001
 40
0.0
 40
0.0
 40
1.0
 40
1.0
 10
5.194783835073673
 20
6.271591247692417
 30
0.0
 10
5.210811312671741
 20
6.280393342484375
 30
0.0
  0
ARC
  5
2E3
330
1F
100
AcDbEntity
  8
0
  6
Continuous
 62
     7
370
     0
100
AcDbCircle
 10
5.0983881017
 20
6.447924701
 30
0.0
 40
0.2017566218437359
100
AcDbArc
 50
303.8638914682
 51
306.7069726065
  0
SPLINE
  5
2E4
330
1F
100
AcDbEntity
  8
0
  6
Continuous
 62
     7
370
     0
100
AcDbSpline
210
0.0
220
0.0
230
1.0
 70
    24
 71
     1
 72
     4
 73
     2
 74
     0
 42
0.00000001
 43
0.00000001
 40
0.0
 40
0.0
 40
1.0
 40
1.0
 10
5.218982617397914
 20
6.286175830106975
 30
0.0
 10
5.194783835073673
 20
6.271591247692417
 30
0.0
  0
LINE
  5
2E5
330
1F
100
AcDbEntity
  8
0
  6
Continuous
 62
     7
370
     0
100
AcDbLine
 10
4.5780951027
 20
7.3002024864
 30
0.0
 11
4.5905842614
 21
7.3074123243
 31
0.0
  0
ARC
  5
2E6
330
1F
100
AcDbEntity
  8
0
  6
Continuous
 62
     7
370
     0
100
AcDbCircle
 10
5.1888049907
 20
6.9599645683
 30
0.0
 40
0.9052375587949111
100
AcDbArc
 50
2.5567418078
 51
57.4378816595
  0
SPLINE
  5
2E7
330
1F
100
AcDbEntity
  8
0
  6
Continuous
 62
     7
370
     0
100
AcDbSpline
210
0.0
220
0.0
230
1.0
 70
     8
 71
     3
 72
    16
 73
    12
 74
     0
 42
0.00000001
 43
0.00000001
 40
0.0
 40
0.0
 40
0.0
 40
0.0
 40
0.1814043439014305
 40
0.3425102031046889
 40
0.5005166786405623
 40
0.6281012479185183
 40
0.7515435373868755
 40
0.8128968252573257
 40
0.8750099158384689
 40
0.9377687550990308
 40
1.0
 40
1.0
 40
1.0
 40
1.0
 10
4.760749108736281
 20
7.397657605978585
 30
0.0
 10
4.76206358257563
 20
7.398420491329134
 30
0.0
 10
4.764545445424162
 20
7.399860897940919
 30
0.0
 10
4.768000505203394
 20
7.401917629751861
 30
0.0
 10
4.770834980876845
 20
7.403676139065173
 30
0.0
 10
4.773066161911051
 20
7.405165052608118
 30
0.0
 10
4.774078508913497
 20
7.406039584250911
 30
0.0
 10
4.774287137012754
 20
7.406466873236755
 30
0.0
 10
4.774032105368373
 20
7.406591851852684
 30
0.0
 10
4.773411414514484
 20
7.406529895423809
 30
0.0
 10
4.772724633634605
 20
7.40633369640995
 30
0.0
 10
4.772382692676522
 20
7.406236010989843
 30
0.0
  0
ARC
  5
2E8
330
1F
100
AcDbEntity
  8
0
  6
Continuous
 62
     7
370
     0
100
AcDbCircle
 10
4.8180176528
 20
7.2868612893
 30
0.0
 40
0.1278001321038147
100
AcDbArc
 50
110.9210194334
 51
123.050232702
  0
SPLINE
  5
2E9
330
1F
100
AcDbEntity
  8
0
  6
Continuous
 62
     7
370
     0
100
AcDbSpline
210
0.0
220
0.0
230
1.0
 70
     8
 71
     3
 72
    17
 73
    13
 74
     0
 42
0.00000001
 43
0.00000001
 40
0.0
 40
0.0
 40
0.0
 40
0.0
 40
0.1817241832843252
 40
0.3427751466517322
 40
0.5004247573760301
 40
0.5684883449027546
 40
0.6255188445358333
 40
0.7501316822623872
 40
0.8123103604830145
 40
0.8750483850463175
 40
0.9374912846493959
 40
1.0
 40
1.0
 40
1.0
 40
1.0
 10
4.748318769500656
 20
7.393982433017061
 30
0.0
 10
4.746969840288557
 20
7.393200791102555
 30
0.0
 10
4.744425438106396
 20
7.39172642804844
 30
0.0
 10
4.740874950267563
 20
7.389631210354653
 30
0.0
 10
4.73832755999732
 20
7.388082709600541
 30
0.0
 10
4.736678280683428
 20
7.38703230790242
 30
0.0
 10
4.735390023801574
 20
7.386171584463743
 30
0.0
 10
4.734576483329828
 20
7.385511292315027
 30
0.0
 10
4.734416270766455
 20
7.385139988624449
 30
0.0
 10
4.734722568011405
 20
7.385063080945026
 30
0.0
 10
4.735395945756581
 20
7.385167534251981
 30
0.0
 10
4.736103539122493
 20
7.385373757681766
 30
0.0
 10
4.736457522160729
 20
7.38547692370868
 30
0.0
  0
ARC
  5
2EA
330
1F
100
AcDbEntity
  8
0
  6
Continuous
 62
     7
370
     0
100
AcDbCircle
 10
4.69473702
 20
7.4989912786
 30
0.0
 40
0.1209384515769162
100
AcDbArc
 50
290.1801484648
 51
303.081544654
  0
SPLINE
  5
2EB
330
1F
100
AcDbEntity
  8
0
  6
Continuous
 62
     7
370
     0
100
AcDbSpline
210
0.0
220
0.0
230
1.0
 70
     8
 71
     3
 72
    16
 73
    12
 74
     0
 42
0.00000001
 43
0.00000001
 40
0.0
 40
0.0
 40
0.0
 40
0.0
 40
0.1814043438911529
 40
0.3425102030988178
 40
0.5005166786405588
 40
0.6281012479207606
 40
0.7515435373904573
 40
0.8128968252582729
 40
0.8750099158391637
 40
0.937768755099486
 40
0.9999999999999999
 40
0.9999999999999999
 40
0.9999999999999999
 40
0.9999999999999999
 10
4.720168188461629
 20
7.381967562580572
 30
0.0
 10
4.721483971002265
 20
7.382727881914978
 30
0.0
 10
4.723968304814566
 20
7.384163443622386
 30
0.0
 10
4.7274434609953
 20
7.386180784869976
 30
0.0
 10
4.730317716515554
 20
7.387861423280667
 30
0.0
 10
4.732614996045962
 20
7.389221201020518
 30
0.0
 10
4.733724704614557
 20
7.38990619735474
 30
0.0
 10
4.734039191216614
 20
7.390128418781176
 30
0.0
 10
4.733880116510877
 20
7.390068209520877
 30
0.0
 10
4.733366323990107
 20
7.389800758177936
 30
0.0
 10
4.732754337286366
 20
7.389461612017576
 30
0.0
 10
4.732449635559888
 20
7.389292754720583
 30
0.0
  0
ARC
  5
2EC
330
1F
100
AcDbEntity
  8
0
  6
Continuous
 62
     7
370
     0
100
AcDbCircle
 10
4.0516048682
 20
8.5327188191
 30
0.0
 40
1.330866397348681
100
AcDbArc
 50
298.9850012461
 51
300.1557256563
  0
LINE
  5
2ED
330
1F
100
AcDbEntity
  8
0
  6
Continuous
 62
     7
370
     0
100
AcDbLine
 10
5.0396046759
 20
6.355974396
 30
0.0
 11
5.0453514412
 21
6.3607078635
 31
0.0
  0
ARC
  5
2EE
330
1F
100
AcDbEntity
  8
0
  6
Continuous
 62
     7
370
     0
100
AcDbCircle
 10
4.6474868663
 20
6.9927010824
 30
0.0
 40
0.1510090532189674
100
AcDbArc
 50
109.0802677983
 51
124.7924780465
  0
LINE
  5
2EF
330
1F
100
AcDbEntity
  8
0
  6
Continuous
 62
     7
370
     0
100
AcDbLine
 10
4.5449346959
 20
7.1427754975
 30
0.0
 11
4.5613202308
 21
7.1167133603
 31
0.0
  0
LINE
  5
2F0
330
1F
100
AcDbEntity
  8
0
  6
Continuous
 62
     7
370
     0
100
AcDbLine
 10
5.0426166436
 20
6.3511836878
 30
0.0
 11
5.0396046759
 21
6.355974396
 31
0.0
  0
LINE
  5
2F1
330
1F
100
AcDbEntity
  8
0
  6
Continuous
 62
     7
370
     0
100
AcDbLine
 10
4.5613202308
 20
7.1167133603
 30
0.0
 11
4.5789979003
 21
7.1269184617
 31
0.0
  0
LINE
  5
2F2
330
1F
100
AcDbEntity
  8
0
  6
Continuous
 62
     7
370
     0
100
AcDbLine
 10
5.0326090339
 20
6.3508065284
 30
0.0
 11
5.0401256399
 21
6.3551457727
 31
0.0
  0
LWPOLYLINE
  5
2F3
330
1F
100
AcDbEntity
  8
0
  6
Continuous
 62
     7
370
     0
100
AcDbPolyline
 90
       57
 70
   128
 43
0.0
 10
4.5543245887
 20
7.1115454927
 10
4.5432782801
 20
7.1020123686
 10
4.5330133178
 20
7.091345038
 10
4.5235613178
 20
7.079576356
 10
4.5149513917
 20
7.0667425698
 10
4.507210058
 20
7.0528832071
 10
4.5003611598
 20
7.0380409542
 10
4.4944257914
 20
7.0222615249
 10
4.4894222336
 20
7.0055935194
 10
4.4853658972
 20
6.9880882746
 10
4.4822692755
 20
6.9697997061
 10
4.4801419062
 20
6.9507841422
 10
4.4789903414
 20
6.9311001503
 10
4.478818128
 20
6.9108083564
 10
4.4796257962
 20
6.8899712587
 10
4.4814108586
 20
6.8686530348
 10
4.4841678172
 20
6.8469193442
 10
4.4878881807
 20
6.8248371261
 10
4.4925604903
 20
6.802474393
 10
4.4981703557
 20
6.7799000214
 10
4.5047004985
 20
6.7571835397
 10
4.5121308061
 20
6.7343949141
 10
4.5204383933
 20
6.7116043328
 10
4.5295976732
 20
6.6888819901
 10
4.5395804352
 20
6.6662978701
 10
4.550355933
 20
6.6439215314
 10
4.5618909781
 20
6.6218218923
 10
4.5741500431
 20
6.600067019
 10
4.5870953703
 20
6.5787239159
 10
4.6006870886
 20
6.5578583192
 10
4.6148833359
 20
6.5375344942
 10
4.6296403881
 20
6.5178150378
 10
4.6449127941
 20
6.4987606852
 10
4.6606535151
 20
6.4804301233
 10
4.6768140703
 20
6.4628798097
 10
4.6933446856
 20
6.4461637988
 10
4.7101944473
 20
6.4303335755
 10
4.7273114586
 20
6.4154378963
 10
4.7446429995
 20
6.4015226395
 10
4.7621356895
 20
6.3886306637
 10
4.7797356517
 20
6.3768016758
 10
4.7973886785
 20
6.3660721086
 10
4.8150403993
 20
6.356475009
 10
4.8326364473
 20
6.3480399358
 10
4.8501226272
 20
6.3407928686
 10
4.867445082
 20
6.3347561283
 10
4.8845504592
 20
6.3299483079
 10
4.9013860746
 20
6.3263842152
 10
4.9179000751
 20
6.3240748276
 10
4.9340415981
 20
6.3230272579
 10
4.9497609281
 20
6.3232447326
 10
4.96500965
 20
6.3247265819
 10
4.9797407984
 20
6.3274682418
 10
4.9939090016
 20
6.3314612679
 10
5.007470622
 20
6.336693362
 10
5.0203838902
 20
6.3431484093
 10
5.0326090339
 20
6.3508065284
  0
LINE
  5
2F4
330
1F
100
AcDbEntity
  8
0
  6
Continuous
 62
     7
370
     0
100
AcDbLine
 10
4.5543245887
 20
7.1115454927
 30
0.0
 11
4.5720022582
 21
7.1217505941
 31
0.0
  0
ARC
  5
2F5
330
1F
100
AcDbEntity
  8
0
  6
Continuous
 62
     7
370
     0
100
AcDbCircle
 10
4.6657532884
 20
7.0021605107
 30
0.0
 40
0.1519573746559679
100
AcDbArc
 50
124.8143517357
 51
128.0941923697
  0
LWPOLYLINE
  5
2F6
330
1F
100
AcDbEntity
  8
0
  6
Continuous
 62
     7
370
     0
100
AcDbPolyline
 90
       56
 70
   128
 43
0.0
 10
4.5119384436
 20
7.1401135156
 10
4.5050105514
 20
7.1328280756
 10
4.4948930094
 20
7.1205762122
 10
4.485615456
 20
7.1072487058
 10
4.4772036898
 20
7.0928826168
 10
4.4696811021
 20
7.0775178939
 10
4.4630686112
 20
7.0611972627
 10
4.457384605
 20
7.043966107
 10
4.4526448892
 20
7.0258723425
 10
4.448862644
 20
7.0069662835
 10
4.4460483868
 20
6.9873005033
 10
4.4442099434
 20
6.9669296877
 10
4.443352426
 20
6.9459104831
 10
4.4434782193
 20
6.9243013388
 10
4.4445869733
 20
6.9021623446
 10
4.446675605
 20
6.8795550638
 10
4.4497383064
 20
6.8565423618
 10
4.4537665607
 20
6.8331882314
 10
4.4587491665
 20
6.8095576148
 10
4.4646722682
 20
6.7857162231
 10
4.4715193952
 20
6.7617303534
 10
4.4792715073
 20
6.7376667048
 10
4.4879070476
 20
6.7135921924
 10
4.4974020028
 20
6.6895737617
 10
4.5077299697
 20
6.6656782021
 10
4.5188622288
 20
6.6419719615
 10
4.5307678238
 20
6.6185209613
 10
4.5434136483
 20
6.5953904129
 10
4.5567645371
 20
6.572644637
 10
4.5707833647
 20
6.5503468841
 10
4.585431148
 20
6.5285591589
 10
4.6006671552
 20
6.5073420477
 10
4.6164490186
 20
6.4867545503
 10
4.6327328524
 20
6.4668539156
 10
4.6494733755
 20
6.4476954825
 10
4.6666240362
 20
6.4293325259
 10
4.6841371429
 20
6.4118161089
 10
4.7019639957
 20
6.3951949403
 10
4.7200550225
 20
6.3795152397
 10
4.7383599164
 20
6.3648206085
 10
4.756827776
 20
6.351151909
 10
4.7754072465
 20
6.3385471506
 10
4.7940466629
 20
6.327041384
 10
4.8126941935
 20
6.316666604
 10
4.831297984
 20
6.3074516605
 10
4.8498063017
 20
6.2994221778
 10
4.8681676794
 20
6.2926004842
 10
4.8863310585
 20
6.2870055491
 10
4.904245931
 20
6.2826529306
 10
4.92186248
 20
6.2795547324
 10
4.9391317181
 20
6.2777195698
 10
4.9560056237
 20
6.277152546
 10
4.9724372745
 20
6.2778552377
 10
4.988380978
 20
6.2798256908
 10
5.0037923986
 20
6.2830584261
 10
5.006321824
 20
6.2837235909
  0
LINE
  5
2F7
330
1F
100
AcDbEntity
  8
0
  6
Continuous
 62
     7
370
     0
100
AcDbLine
 10
5.0391197108
 20
6.3404509216
 30
0.0
 11
5.0326090339
 21
6.3508065284
 31
0.0
  0
LINE
  5
2F8
330
1F
100
AcDbEntity
  8
0
  6
Continuous
 62
     7
370
     0
100
AcDbLine
 10
4.5348480698
 20
7.1425240181
 30
0.0
 11
4.5543245887
 21
7.1115454927
 31
0.0
  0
LINE
  5
2F9
330
1F
100
AcDbEntity
  8
0
  6
Continuous
 62
     7
370
     0
100
AcDbLine
 10
4.5714812942
 20
7.1225792174
 30
0.0
 11
4.5720022582
 21
7.1217505941
 31
0.0
  0
SPLINE
  5
2FA
330
1F
100
AcDbEntity
  8
0
  6
Continuous
 62
     7
370
     0
100
AcDbSpline
210
0.0
220
0.0
230
1.0
 70
    24
 71
     1
 72
     4
 73
     2
 74
     0
 42
0.00000001
 43
0.00000001
 40
0.0
 40
0.0
 40
1.0
 40
1.0
 10
5.199589094167529
 20
6.273584136983956
 30
0.0
 10
5.17371345201237
 20
6.258764850251046
 30
0.0
  0
ARC
  5
2FB
330
1F
100
AcDbEntity
  8
0
  6
Continuous
 62
     7
370
     0
100
AcDbCircle
 10
5.1213376127
 20
6.45927787
 30
0.0
 40
0.2001118020240444
100
AcDbArc
 50
299.997516054
 51
302.3242017457
  0
SPLINE
  5
2FC
330
1F
100
AcDbEntity
  8
0
  6
Continuous
 62
     7
370
     0
100
AcDbSpline
210
0.0
220
0.0
230
1.0
 70
    24
 71
     1
 72
     4
 73
     2
 74
     0
 42
0.00000001
 43
0.00000001
 40
0.0
 40
0.0
 40
1.0
 40
1.0
 10
4.740755301624636
 20
7.394112179051436
 30
0.0
 10
4.743453109451621
 20
7.395645242655307
 30
0.0
  0
SPLINE
  5
2FD
330
1F
100
AcDbEntity
  8
0
  6
Continuous
 62
     7
370
     0
100
AcDbSpline
210
0.0
220
0.0
230
1.0
 70
    24
 71
     1
 72
     4
 73
     2
 74
     0
 42
0.00000001
 43
0.00000001
 40
0.0
 40
0.0
 40
1.0
 40
1.0
 10
4.685112528405092
 20
7.361971453032723
 30
0.0
 10
4.683188267527696
 20
7.360855187736146
 30
0.0
  0
LWPOLYLINE
  5
2FE
330
1F
100
AcDbEntity
  8
0
  6
Continuous
 62
     7
370
     0
100
AcDbPolyline
 90
        3
 70
   128
 43
0.0
 10
4.6008643817
 20
7.313355236
 10
4.6014987122
 20
7.313719882
 10
4.6023387638
 20
7.3141980541
  0
ARC
  5
2FF
330
1F
100
AcDbEntity
  8
0
  6
Continuous
 62
     7
370
     0
100
AcDbCircle
 10
4.6650513012
 20
7.119016592
 30
0.0
 40
0.2003976132075359
100
AcDbArc
 50
115.3903428066
 51
119.9954693194
  0
ARC
  5
300
330
1F
100
AcDbEntity
  8
0
  6
Continuous
 62
     7
370
     0
100
AcDbCircle
 10
4.9460320855
 20
6.3580718928
 30
0.0
 40
0.2001081209346793
100
AcDbArc
 50
299.9975111078
 51
302.2329442862
  0
ARC
  5
301
330
1F
100
AcDbEntity
  8
0
  6
Continuous
 62
     7
370
     0
100
AcDbCircle
 10
5.0025994436
 20
6.3907302092
 30
0.0
 40
0.2001104381268558
100
AcDbArc
 50
299.997519667
 51
302.2597778108
  0
ARC
  5
302
330
1F
100
AcDbEntity
  8
0
  6
Continuous
 62
     7
370
     0
100
AcDbCircle
 10
4.6891146528
 20
7.133337373
 30
0.0
 40
0.2000258150809538
100
AcDbArc
 50
119.5108504322
 51
119.9973096144
  0
ARC
  5
303
330
1F
100
AcDbEntity
  8
0
  6
Continuous
 62
     7
370
     0
100
AcDbCircle
 10
4.676625455
 20
7.1261276034
 30
0.0
 40
0.2000257364277998
100
AcDbArc
 50
119.5108503366
 51
119.9973097101
  0
SPLINE
  5
304
330
1F
100
AcDbEntity
  8
0
  6
Continuous
 62
     7
370
     0
100
AcDbSpline
210
0.0
220
0.0
230
1.0
 70
     8
 71
     3
 72
     9
 73
     5
 74
     0
 42
0.00000001
 43
0.00000001
 40
0.0
 40
0.0
 40
0.0
 40
0.0
 40
0.7142901380991287
 40
1.0
 40
1.0
 40
1.0
 40
1.0
 10
4.732449635559888
 20
7.389292754720583
 30
0.0
 10
4.731722303403203
 20
7.388883017675582
 30
0.0
 10
4.730704044690266
 20
7.388309389365252
 30
0.0
 10
4.729284225180393
 20
7.387489946124813
 30
0.0
 10
4.728878568744303
 20
7.387255823109751
 30
0.0
  0
ARC
  5
305
330
1F
100
AcDbEntity
  8
0
  6
Continuous
 62
     7
370
     0
100
AcDbCircle
 10
4.7900619286
 20
7.1999719859
 30
0.0
 40
0.1927914007657815
100
AcDbArc
 50
119.0264508426
 51
119.5712057258
  0
LINE
  5
306
330
1F
100
AcDbEntity
  8
0
  6
Continuous
 62
     7
370
     0
100
AcDbLine
 10
6.2684396392
 20
4.4048773006
 30
0.0
 11
3.4993818482
 21
4.4048773006
 31
0.0
  0
LINE
  5
307
330
1F
100
AcDbEntity
  8
0
  6
Continuous
 62
     7
370
     0
100
AcDbLine
 10
3.4993818482
 20
4.4048773006
 30
0.0
 11
6.2808512005
 21
4.7101903805
 31
0.0
  0
LINE
  5
308
330
1F
100
AcDbEntity
  8
0
  6
Continuous
 62
     7
370
     0
100
AcDbLine
 10
3.4993818482
 20
4.4048773006
 30
0.0
 11
6.2822416127
 21
4.0829464538
 31
0.0
  0
LINE
  5
309
330
1F
100
AcDbEntity
  8
0
  6
Continuous
 62
     7
370
     0
100
AcDbLine
 10
7.2555790525
 20
4.4048773006
 30
0.0
 11
10.0345393285
 21
4.4048773006
 31
0.0
  0
LINE
  5
30A
330
1F
100
AcDbEntity
  8
0
  6
Continuous
 62
     7
370
     0
100
AcDbLine
 10
10.0345393285
 20
4.4048773006
 30
0.0
 11
7.2431674911
 21
4.7101903805
 31
0.0
  0
LINE
  5
30B
330
1F
100
AcDbEntity
  8
0
  6
Continuous
 62
     7
370
     0
100
AcDbLine
 10
10.0345393285
 20
4.4048773006
 30
0.0
 11
7.2417770789
 21
4.0829464538
 31
0.0
  0
LINE
  5
30C
330
1F
100
AcDbEntity
  8
0
  6
Continuous
 62
     7
370
     0
100
AcDbLine
 10
7.2555790525
 20
4.4048773006
 30
0.0
 11
6.2684396392
 21
4.4048773006
 31
0.0
  0
LINE
  5
30D
330
1F
100
AcDbEntity
  8
0
  6
Continuous
 62
     7
370
     0
100
AcDbLine
 10
7.2444640217
 20
3.8873773006
 30
0.0
 11
7.2971435136
 21
3.8873773006
 31
0.0
  0
LINE
  5
30E
330
1F
100
AcDbEntity
  8
0
  6
Continuous
 62
     7
370
     0
100
AcDbLine
 10
7.2971435136
 20
4.9223773006
 30
0.0
 11
7.2444640217
 21
4.9223773006
 31
0.0
  0
LINE
  5
30F
330
1F
100
AcDbEntity
  8
0
  6
Continuous
 62
     7
370
     0
100
AcDbLine
 10
7.2271435136
 20
4.9123773006
 30
0.0
 11
7.2444640217
 21
4.9223773006
 31
0.0
  0
LINE
  5
310
330
1F
100
AcDbEntity
  8
0
  6
Continuous
 62
     7
370
     0
100
AcDbLine
 10
7.2444640217
 20
3.8873773006
 30
0.0
 11
7.2271435136
 21
3.8973773006
 31
0.0
  0
LINE
  5
311
330
1F
100
AcDbEntity
  8
0
  6
Continuous
 62
     7
370
     0
100
AcDbLine
 10
7.3071435136
 20
4.807017874
 30
0.0
 11
7.2821435136
 21
4.807017874
 31
0.0
  0
LINE
  5
312
330
1F
100
AcDbEntity
  8
0
  6
Continuous
 62
     7
370
     0
100
AcDbLine
 10
7.2821435136
 20
4.8000638005
 30
0.0
 11
7.2821435136
 21
4.807017874
 31
0.0
  0
LINE
  5
313
330
1F
100
AcDbEntity
  8
0
  6
Continuous
 62
     7
370
     0
100
AcDbLine
 10
7.3071435136
 20
4.8000638005
 30
0.0
 11
7.2821435136
 21
4.8000638005
 31
0.0
  0
LINE
  5
314
330
1F
100
AcDbEntity
  8
0
  6
Continuous
 62
     7
370
     0
100
AcDbLine
 10
7.3071435136
 20
3.9548773006
 30
0.0
 11
7.3071435136
 21
4.8000638005
 31
0.0
  0
LINE
  5
315
330
1F
100
AcDbEntity
  8
0
  6
Continuous
 62
     7
370
     0
100
AcDbLine
 10
7.2271435136
 20
3.9548773006
 30
0.0
 11
7.3071435136
 21
3.9548773006
 31
0.0
  0
LINE
  5
316
330
1F
100
AcDbEntity
  8
0
  6
Continuous
 62
     7
370
     0
100
AcDbLine
 10
7.3071435136
 20
4.8548773006
 30
0.0
 11
7.2271435136
 21
4.8548773006
 31
0.0
  0
LINE
  5
317
330
1F
100
AcDbEntity
  8
0
  6
Continuous
 62
     7
370
     0
100
AcDbLine
 10
7.3071435136
 20
4.807017874
 30
0.0
 11
7.3071435136
 21
4.8548773006
 31
0.0
  0
LINE
  5
318
330
1F
100
AcDbEntity
  8
0
  6
Continuous
 62
     7
370
     0
100
AcDbLine
 10
7.3071435136
 20
3.9046978087
 30
0.0
 11
7.2971435136
 21
3.8873773006
 31
0.0
  0
LINE
  5
319
330
1F
100
AcDbEntity
  8
0
  6
Continuous
 62
     7
370
     0
100
AcDbLine
 10
7.2971435136
 20
4.9223773006
 30
0.0
 11
7.3071435136
 21
4.9050567925
 31
0.0
  0
LINE
  5
31A
330
1F
100
AcDbEntity
  8
0
  6
Continuous
 62
     7
370
     0
100
AcDbLine
 10
7.3071435136
 20
4.9050567925
 30
0.0
 11
7.3071435136
 21
4.8548773006
 31
0.0
  0
LINE
  5
31B
330
1F
100
AcDbEntity
  8
0
  6
Continuous
 62
     7
370
     0
100
AcDbLine
 10
7.2271435136
 20
4.9123773006
 30
0.0
 11
7.2271435136
 21
4.8548773006
 31
0.0
  0
LINE
  5
31C
330
1F
100
AcDbEntity
  8
0
  6
Continuous
 62
     7
370
     0
100
AcDbLine
 10
7.3071435136
 20
3.9548773006
 30
0.0
 11
7.3071435136
 21
3.9046978087
 31
0.0
  0
LINE
  5
31D
330
1F
100
AcDbEntity
  8
0
  6
Continuous
 62
     7
370
     0
100
AcDbLine
 10
7.2271435136
 20
3.9548773006
 30
0.0
 11
7.2271435136
 21
3.8973773006
 31
0.0
  0
LINE
  5
31E
330
1F
100
AcDbEntity
  8
0
  6
Continuous
 62
     7
370
     0
100
AcDbLine
 10
7.3071435136
 20
4.807017874
 30
0.0
 11
7.3071435136
 21
4.8000638005
 31
0.0
  0
LINE
  5
31F
330
1F
100
AcDbEntity
  8
0
  6
Continuous
 62
     7
370
     0
100
AcDbLine
 10
6.2790692931
 20
4.9223773006
 30
0.0
 11
6.2263898012
 21
4.9223773006
 31
0.0
  0
LINE
  5
320
330
1F
100
AcDbEntity
  8
0
  6
Continuous
 62
     7
370
     0
100
AcDbLine
 10
6.2263898012
 20
3.8873773006
 30
0.0
 11
6.2790692931
 21
3.8873773006
 31
0.0
  0
LINE
  5
321
330
1F
100
AcDbEntity
  8
0
  6
Continuous
 62
     7
370
     0
100
AcDbLine
 10
6.2963898012
 20
3.8973773006
 30
0.0
 11
6.2790692931
 21
3.8873773006
 31
0.0
  0
LINE
  5
322
330
1F
100
AcDbEntity
  8
0
  6
Continuous
 62
     7
370
     0
100
AcDbLine
 10
6.2790692931
 20
4.9223773006
 30
0.0
 11
6.2963898012
 21
4.9123773006
 31
0.0
  0
LINE
  5
323
330
1F
100
AcDbEntity
  8
0
  6
Continuous
 62
     7
370
     0
100
AcDbLine
 10
6.2163898012
 20
4.6959986129
 30
0.0
 11
6.2413898012
 21
4.6959986129
 31
0.0
  0
LINE
  5
324
330
1F
100
AcDbEntity
  8
0
  6
Continuous
 62
     7
370
     0
100
AcDbLine
 10
6.2413898012
 20
4.7072734514
 30
0.0
 11
6.2413898012
 21
4.6959986129
 31
0.0
  0
LINE
  5
325
330
1F
100
AcDbEntity
  8
0
  6
Continuous
 62
     7
370
     0
100
AcDbLine
 10
6.2163898012
 20
4.7072734514
 30
0.0
 11
6.2413898012
 21
4.7072734514
 31
0.0
  0
LINE
  5
326
330
1F
100
AcDbEntity
  8
0
  6
Continuous
 62
     7
370
     0
100
AcDbLine
 10
6.2163898012
 20
4.8548773006
 30
0.0
 11
6.2163898012
 21
4.7072734514
 31
0.0
  0
LINE
  5
327
330
1F
100
AcDbEntity
  8
0
  6
Continuous
 62
     7
370
     0
100
AcDbLine
 10
6.2963898012
 20
4.8548773006
 30
0.0
 11
6.2163898012
 21
4.8548773006
 31
0.0
  0
LINE
  5
328
330
1F
100
AcDbEntity
  8
0
  6
Continuous
 62
     7
370
     0
100
AcDbLine
 10
6.2163898012
 20
3.9548773006
 30
0.0
 11
6.2963898012
 21
3.9548773006
 31
0.0
  0
LINE
  5
329
330
1F
100
AcDbEntity
  8
0
  6
Continuous
 62
     7
370
     0
100
AcDbLine
 10
6.2163898012
 20
4.6959986129
 30
0.0
 11
6.2163898012
 21
3.9548773006
 31
0.0
  0
LINE
  5
32A
330
1F
100
AcDbEntity
  8
0
  6
Continuous
 62
     7
370
     0
100
AcDbLine
 10
6.2263898012
 20
3.8873773006
 30
0.0
 11
6.2163898012
 21
3.9046978087
 31
0.0
  0
LINE
  5
32B
330
1F
100
AcDbEntity
  8
0
  6
Continuous
 62
     7
370
     0
100
AcDbLine
 10
6.2163898012
 20
3.9046978087
 30
0.0
 11
6.2163898012
 21
3.9548773006
 31
0.0
  0
LINE
  5
32C
330
1F
100
AcDbEntity
  8
0
  6
Continuous
 62
     7
370
     0
100
AcDbLine
 10
6.2963898012
 20
3.8973773006
 30
0.0
 11
6.2963898012
 21
3.9548773006
 31
0.0
  0
LINE
  5
32D
330
1F
100
AcDbEntity
  8
0
  6
Continuous
 62
     7
370
     0
100
AcDbLine
 10
6.2163898012
 20
4.9050567925
 30
0.0
 11
6.2263898012
 21
4.9223773006
 31
0.0
  0
LINE
  5
32E
330
1F
100
AcDbEntity
  8
0
  6
Continuous
 62
     7
370
     0
100
AcDbLine
 10
6.2163898012
 20
4.8548773006
 30
0.0
 11
6.2163898012
 21
4.9050567925
 31
0.0
  0
LINE
  5
32F
330
1F
100
AcDbEntity
  8
0
  6
Continuous
 62
     7
370
     0
100
AcDbLine
 10
6.2963898012
 20
4.8548773006
 30
0.0
 11
6.2963898012
 21
4.9123773006
 31
0.0
  0
LINE
  5
330
330
1F
100
AcDbEntity
  8
0
  6
Continuous
 62
     7
370
     0
100
AcDbLine
 10
6.2163898012
 20
4.7072734514
 30
0.0
 11
6.2163898012
 21
4.6959986129
 31
0.0
  0
LINE
  5
331
330
1F
100
AcDbEntity
  8
0
  6
Continuous
 62
     7
370
     0
100
AcDbLine
 10
6.1984563979
 20
3.8048773006
 30
0.0
 11
6.3236230631
 21
3.8048773006
 31
0.0
  0
LINE
  5
332
330
1F
100
AcDbEntity
  8
0
  6
Continuous
 62
     7
370
     0
100
AcDbLine
 10
6.3430083408
 20
3.8048773006
 30
0.0
 11
7.4494605883
 21
3.8048773006
 31
0.0
  0
LINE
  5
333
330
1F
100
AcDbEntity
  8
0
  6
Continuous
 62
     7
370
     0
100
AcDbLine
 10
7.4494605883
 20
5.0048773006
 30
0.0
 11
6.393403675
 21
5.0048773006
 31
0.0
  0
LINE
  5
334
330
1F
100
AcDbEntity
  8
0
  6
Continuous
 62
     7
370
     0
100
AcDbLine
 10
6.3339304482
 20
5.0048773006
 30
0.0
 11
6.2244605883
 21
5.0048773006
 31
0.0
  0
LINE
  5
335
330
1F
100
AcDbEntity
  8
0
  6
Continuous
 62
     7
370
     0
100
AcDbLine
 10
6.2057592896
 20
5.0048773006
 30
0.0
 11
6.1831739179
 21
5.0048773006
 31
0.0
  0
LINE
  5
336
330
1F
100
AcDbEntity
  8
0
  6
Continuous
 62
     7
370
     0
100
AcDbLine
 10
6.1509644332
 20
5.0048773006
 30
0.0
 11
6.0794605883
 21
5.0048773006
 31
0.0
  0
LINE
  5
337
330
1F
100
AcDbEntity
  8
0
  6
Continuous
 62
     7
370
     0
100
AcDbLine
 10
6.0794605883
 20
3.8048773006
 30
0.0
 11
6.1444605883
 21
3.8048773006
 31
0.0
  0
LINE
  5
338
330
1F
100
AcDbEntity
  8
0
  6
Continuous
 62
     7
370
     0
100
AcDbLine
 10
7.4594605883
 20
3.8148773006
 30
0.0
 11
7.4494605883
 21
3.8048773006
 31
0.0
  0
LINE
  5
339
330
1F
100
AcDbEntity
  8
0
  6
Continuous
 62
     7
370
     0
100
AcDbLine
 10
7.4494605883
 20
5.0048773006
 30
0.0
 11
7.4594605883
 21
4.9948773006
 31
0.0
  0
LINE
  5
33A
330
1F
100
AcDbEntity
  8
0
  6
Continuous
 62
     7
370
     0
100
AcDbLine
 10
6.0694605883
 20
4.9948773006
 30
0.0
 11
6.0794605883
 21
5.0048773006
 31
0.0
  0
LINE
  5
33B
330
1F
100
AcDbEntity
  8
0
  6
Continuous
 62
     7
370
     0
100
AcDbLine
 10
6.0794605883
 20
3.8048773006
 30
0.0
 11
6.0694605883
 21
3.8148773006
 31
0.0
  0
LINE
  5
33C
330
1F
100
AcDbEntity
  8
0
  6
Continuous
 62
     7
370
     0
100
AcDbLine
 10
6.9394605883
 20
3.8798773006
 30
0.0
 11
6.9594605883
 21
3.8798773006
 31
0.0
  0
LINE
  5
33D
330
1F
100
AcDbEntity
  8
0
  6
Continuous
 62
     7
370
     0
100
AcDbLine
 10
6.9594605883
 20
4.9298773006
 30
0.0
 11
6.9394605883
 21
4.9298773006
 31
0.0
  0
LINE
  5
33E
330
1F
100
AcDbEntity
  8
0
  6
Continuous
 62
     7
370
     0
100
AcDbLine
 10
6.5644605883
 20
4.9298773006
 30
0.0
 11
6.5844605883
 21
4.9298773006
 31
0.0
  0
LINE
  5
33F
330
1F
100
AcDbEntity
  8
0
  6
Continuous
 62
     7
370
     0
100
AcDbLine
 10
6.5844605883
 20
3.8798773006
 30
0.0
 11
6.5644605883
 21
3.8798773006
 31
0.0
  0
LINE
  5
340
330
1F
100
AcDbEntity
  8
0
  6
Continuous
 62
     7
370
     0
100
AcDbLine
 10
7.4594605883
 20
4.9208773006
 30
0.0
 11
7.4421400802
 21
4.9108773006
 31
0.0
  0
LINE
  5
341
330
1F
100
AcDbEntity
  8
0
  6
Continuous
 62
     7
370
     0
100
AcDbLine
 10
7.4421400802
 20
3.8988773006
 30
0.0
 11
7.4594605883
 21
3.8888773006
 31
0.0
  0
LINE
  5
342
330
1F
100
AcDbEntity
  8
0
  6
Continuous
 62
     7
370
     0
100
AcDbLine
 10
7.4421400802
 20
3.8988773006
 30
0.0
 11
7.4421400802
 21
4.9108773006
 31
0.0
  0
LINE
  5
343
330
1F
100
AcDbEntity
  8
0
  6
Continuous
 62
     7
370
     0
100
AcDbLine
 10
7.4594605883
 20
4.9208773006
 30
0.0
 11
7.4594605883
 21
3.8888773006
 31
0.0
  0
LINE
  5
344
330
1F
100
AcDbEntity
  8
0
  6
Continuous
 62
     7
370
     0
100
AcDbLine
 10
6.0694605883
 20
3.8888773006
 30
0.0
 11
6.0867810964
 21
3.8988773006
 31
0.0
  0
LINE
  5
345
330
1F
100
AcDbEntity
  8
0
  6
Continuous
 62
     7
370
     0
100
AcDbLine
 10
6.0867810964
 20
4.9108773006
 30
0.0
 11
6.0694605883
 21
4.9208773006
 31
0.0
  0
LINE
  5
346
330
1F
100
AcDbEntity
  8
0
  6
Continuous
 62
     7
370
     0
100
AcDbLine
 10
6.0867810964
 20
4.9108773006
 30
0.0
 11
6.0867810964
 21
3.8988773006
 31
0.0
  0
LINE
  5
347
330
1F
100
AcDbEntity
  8
0
  6
Continuous
 62
     7
370
     0
100
AcDbLine
 10
6.0694605883
 20
3.8888773006
 30
0.0
 11
6.0694605883
 21
4.9208773006
 31
0.0
  0
LINE
  5
348
330
1F
100
AcDbEntity
  8
0
  6
Continuous
 62
     7
370
     0
100
AcDbLine
 10
7.1584605883
 20
3.8988773006
 30
0.0
 11
7.1584605883
 21
3.9048773006
 31
0.0
  0
LINE
  5
349
330
1F
100
AcDbEntity
  8
0
  6
Continuous
 62
     7
370
     0
100
AcDbLine
 10
7.1584605883
 20
4.9048773006
 30
0.0
 11
7.1584605883
 21
4.9108773006
 31
0.0
  0
LINE
  5
34A
330
1F
100
AcDbEntity
  8
0
  6
Continuous
 62
     7
370
     0
100
AcDbLine
 10
7.1584605883
 20
4.9108773006
 30
0.0
 11
7.4421400802
 21
4.9108773006
 31
0.0
  0
LINE
  5
34B
330
1F
100
AcDbEntity
  8
0
  6
Continuous
 62
     7
370
     0
100
AcDbLine
 10
7.4421400802
 20
3.8988773006
 30
0.0
 11
7.1584605883
 21
3.8988773006
 31
0.0
  0
LINE
  5
34C
330
1F
100
AcDbEntity
  8
0
  6
Continuous
 62
     7
370
     0
100
AcDbLine
 10
7.1573058878
 20
4.9088773006
 30
0.0
 11
7.1573058878
 21
4.9048773006
 31
0.0
  0
LINE
  5
34D
330
1F
100
AcDbEntity
  8
0
  6
Continuous
 62
     7
370
     0
100
AcDbLine
 10
7.1573058878
 20
3.9048773006
 30
0.0
 11
7.1573058878
 21
3.9008773006
 31
0.0
  0
LINE
  5
34E
330
1F
100
AcDbEntity
  8
0
  6
Continuous
 62
     7
370
     0
100
AcDbLine
 10
7.1573058878
 20
4.9088773006
 30
0.0
 11
7.1584605883
 21
4.9108773006
 31
0.0
  0
LINE
  5
34F
330
1F
100
AcDbEntity
  8
0
  6
Continuous
 62
     7
370
     0
100
AcDbLine
 10
7.1584605883
 20
3.8988773006
 30
0.0
 11
7.1573058878
 21
3.9008773006
 31
0.0
  0
LINE
  5
350
330
1F
100
AcDbEntity
  8
0
  6
Continuous
 62
     7
370
     0
100
AcDbLine
 10
6.3716152888
 20
3.9008773006
 30
0.0
 11
6.3716152888
 21
3.9048773006
 31
0.0
  0
LINE
  5
351
330
1F
100
AcDbEntity
  8
0
  6
Continuous
 62
     7
370
     0
100
AcDbLine
 10
6.3716152888
 20
4.9048773006
 30
0.0
 11
6.3716152888
 21
4.9088773006
 31
0.0
  0
LINE
  5
352
330
1F
100
AcDbEntity
  8
0
  6
Continuous
 62
     7
370
     0
100
AcDbLine
 10
6.3716152888
 20
3.9008773006
 30
0.0
 11
6.3704605883
 21
3.8988773006
 31
0.0
  0
LINE
  5
353
330
1F
100
AcDbEntity
  8
0
  6
Continuous
 62
     7
370
     0
100
AcDbLine
 10
6.3704605883
 20
4.9108773006
 30
0.0
 11
6.3704605883
 21
4.9048773006
 31
0.0
  0
LINE
  5
354
330
1F
100
AcDbEntity
  8
0
  6
Continuous
 62
     7
370
     0
100
AcDbLine
 10
6.3704605883
 20
3.9048773006
 30
0.0
 11
6.3704605883
 21
3.8988773006
 31
0.0
  0
LINE
  5
355
330
1F
100
AcDbEntity
  8
0
  6
Continuous
 62
     7
370
     0
100
AcDbLine
 10
6.3704605883
 20
4.9108773006
 30
0.0
 11
6.3716152888
 21
4.9088773006
 31
0.0
  0
LINE
  5
356
330
1F
100
AcDbEntity
  8
0
  6
Continuous
 62
     7
370
     0
100
AcDbLine
 10
6.3704605883
 20
3.8988773006
 30
0.0
 11
6.0867810964
 21
3.8988773006
 31
0.0
  0
LINE
  5
357
330
1F
100
AcDbEntity
  8
0
  6
Continuous
 62
     7
370
     0
100
AcDbLine
 10
6.0867810964
 20
4.9108773006
 30
0.0
 11
6.3704605883
 21
4.9108773006
 31
0.0
  0
LINE
  5
358
330
1F
100
AcDbEntity
  8
0
  6
Continuous
 62
     7
370
     0
100
AcDbLine
 10
6.9594605883
 20
3.9008773006
 30
0.0
 11
7.1573058878
 21
3.9008773006
 31
0.0
  0
LINE
  5
359
330
1F
100
AcDbEntity
  8
0
  6
Continuous
 62
     7
370
     0
100
AcDbLine
 10
7.1573058878
 20
4.9088773006
 30
0.0
 11
6.9594605883
 21
4.9088773006
 31
0.0
  0
LINE
  5
35A
330
1F
100
AcDbEntity
  8
0
  6
Continuous
 62
     7
370
     0
100
AcDbLine
 10
6.9594605883
 20
3.9008773006
 30
0.0
 11
6.9594605883
 21
3.9048773006
 31
0.0
  0
LINE
  5
35B
330
1F
100
AcDbEntity
  8
0
  6
Continuous
 62
     7
370
     0
100
AcDbLine
 10
6.9594605883
 20
4.9048773006
 30
0.0
 11
6.9594605883
 21
4.9088773006
 31
0.0
  0
LINE
  5
35C
330
1F
100
AcDbEntity
  8
0
  6
Continuous
 62
     7
370
     0
100
AcDbLine
 10
6.5644605883
 20
4.9088773006
 30
0.0
 11
6.3716152888
 21
4.9088773006
 31
0.0
  0
LINE
  5
35D
330
1F
100
AcDbEntity
  8
0
  6
Continuous
 62
     7
370
     0
100
AcDbLine
 10
6.3716152888
 20
3.9008773006
 30
0.0
 11
6.5644605883
 21
3.9008773006
 31
0.0
  0
LINE
  5
35E
330
1F
100
AcDbEntity
  8
0
  6
Continuous
 62
     7
370
     0
100
AcDbLine
 10
6.5644605883
 20
4.9088773006
 30
0.0
 11
6.5644605883
 21
4.9048773006
 31
0.0
  0
LINE
  5
35F
330
1F
100
AcDbEntity
  8
0
  6
Continuous
 62
     7
370
     0
100
AcDbLine
 10
6.5644605883
 20
3.9048773006
 30
0.0
 11
6.5644605883
 21
3.9008773006
 31
0.0
  0
LINE
  5
360
330
1F
100
AcDbEntity
  8
0
  6
Continuous
 62
     7
370
     0
100
AcDbLine
 10
6.9394605883
 20
4.8558773006
 30
0.0
 11
6.5844605883
 21
4.8558773006
 31
0.0
  0
LINE
  5
361
330
1F
100
AcDbEntity
  8
0
  6
Continuous
 62
     7
370
     0
100
AcDbLine
 10
6.5844605883
 20
3.9538773006
 30
0.0
 11
6.9394605883
 21
3.9538773006
 31
0.0
  0
LINE
  5
362
330
1F
100
AcDbEntity
  8
0
  6
Continuous
 62
     7
370
     0
100
AcDbLine
 10
6.1831739179
 20
5.0048773006
 30
0.0
 11
6.1509644332
 21
5.0048773006
 31
0.0
  0
LINE
  5
363
330
1F
100
AcDbEntity
  8
0
  6
Continuous
 62
     7
370
     0
100
AcDbLine
 10
6.2244605883
 20
5.0048773006
 30
0.0
 11
6.2057592896
 21
5.0048773006
 31
0.0
  0
LINE
  5
364
330
1F
100
AcDbEntity
  8
0
  6
Continuous
 62
     7
370
     0
100
AcDbLine
 10
6.3557650057
 20
5.0048773006
 30
0.0
 11
6.3339304482
 21
5.0048773006
 31
0.0
  0
LINE
  5
365
330
1F
100
AcDbEntity
  8
0
  6
Continuous
 62
     7
370
     0
100
AcDbLine
 10
6.3610571997
 20
5.0048773006
 30
0.0
 11
6.3557650057
 21
5.0048773006
 31
0.0
  0
LINE
  5
366
330
1F
100
AcDbEntity
  8
0
  6
Continuous
 62
     7
370
     0
100
AcDbLine
 10
6.393403675
 20
5.0048773006
 30
0.0
 11
6.3610571997
 21
5.0048773006
 31
0.0
  0
LINE
  5
367
330
1F
100
AcDbEntity
  8
0
  6
Continuous
 62
     7
370
     0
100
AcDbLine
 10
6.5844605883
 20
4.8558773006
 30
0.0
 11
6.5844605883
 21
4.9298773006
 31
0.0
  0
LINE
  5
368
330
1F
100
AcDbEntity
  8
0
  6
Continuous
 62
     7
370
     0
100
AcDbLine
 10
6.5644605883
 20
4.9088773006
 30
0.0
 11
6.5644605883
 21
4.9298773006
 31
0.0
  0
LINE
  5
369
330
1F
100
AcDbEntity
  8
0
  6
Continuous
 62
     7
370
     0
100
AcDbLine
 10
6.9594605883
 20
4.9298773006
 30
0.0
 11
6.9594605883
 21
4.9088773006
 31
0.0
  0
LINE
  5
36A
330
1F
100
AcDbEntity
  8
0
  6
Continuous
 62
     7
370
     0
100
AcDbLine
 10
6.9394605883
 20
4.8558773006
 30
0.0
 11
6.9394605883
 21
4.9298773006
 31
0.0
  0
LINE
  5
36B
330
1F
100
AcDbEntity
  8
0
  6
Continuous
 62
     7
370
     0
100
AcDbLine
 10
6.0694605883
 20
4.9208773006
 30
0.0
 11
6.0694605883
 21
4.9948773006
 31
0.0
  0
LINE
  5
36C
330
1F
100
AcDbEntity
  8
0
  6
Continuous
 62
     7
370
     0
100
AcDbLine
 10
7.4594605883
 20
4.9948773006
 30
0.0
 11
7.4594605883
 21
4.9208773006
 31
0.0
  0
LINE
  5
36D
330
1F
100
AcDbEntity
  8
0
  6
Continuous
 62
     7
370
     0
100
AcDbLine
 10
6.3236230631
 20
3.8048773006
 30
0.0
 11
6.3430083408
 21
3.8048773006
 31
0.0
  0
LINE
  5
36E
330
1F
100
AcDbEntity
  8
0
  6
Continuous
 62
     7
370
     0
100
AcDbLine
 10
6.176584449
 20
3.8048773006
 30
0.0
 11
6.1984563979
 21
3.8048773006
 31
0.0
  0
LINE
  5
36F
330
1F
100
AcDbEntity
  8
0
  6
Continuous
 62
     7
370
     0
100
AcDbLine
 10
6.1610953851
 20
3.8048773006
 30
0.0
 11
6.176584449
 21
3.8048773006
 31
0.0
  0
LINE
  5
370
330
1F
100
AcDbEntity
  8
0
  6
Continuous
 62
     7
370
     0
100
AcDbLine
 10
6.1444605883
 20
3.8048773006
 30
0.0
 11
6.1610953851
 21
3.8048773006
 31
0.0
  0
LINE
  5
371
330
1F
100
AcDbEntity
  8
0
  6
Continuous
 62
     7
370
     0
100
AcDbLine
 10
6.5844605883
 20
3.8798773006
 30
0.0
 11
6.5844605883
 21
3.9538773006
 31
0.0
  0
LINE
  5
372
330
1F
100
AcDbEntity
  8
0
  6
Continuous
 62
     7
370
     0
100
AcDbLine
 10
6.5644605883
 20
3.8798773006
 30
0.0
 11
6.5644605883
 21
3.9008773006
 31
0.0
  0
LINE
  5
373
330
1F
100
AcDbEntity
  8
0
  6
Continuous
 62
     7
370
     0
100
AcDbLine
 10
6.9594605883
 20
3.9008773006
 30
0.0
 11
6.9594605883
 21
3.8798773006
 31
0.0
  0
LINE
  5
374
330
1F
100
AcDbEntity
  8
0
  6
Continuous
 62
     7
370
     0
100
AcDbLine
 10
6.9394605883
 20
3.8798773006
 30
0.0
 11
6.9394605883
 21
3.9538773006
 31
0.0
  0
LINE
  5
375
330
1F
100
AcDbEntity
  8
0
  6
Continuous
 62
     7
370
     0
100
AcDbLine
 10
6.0694605883
 20
3.8148773006
 30
0.0
 11
6.0694605883
 21
3.8888773006
 31
0.0
  0
LINE
  5
376
330
1F
100
AcDbEntity
  8
0
  6
Continuous
 62
     7
370
     0
100
AcDbLine
 10
7.4594605883
 20
3.8888773006
 30
0.0
 11
7.4594605883
 21
3.8148773006
 31
0.0
  0
ARC
  5
377
330
1F
100
AcDbEntity
  8
0
  6
Continuous
 62
     7
370
     0
100
AcDbCircle
 10
7.7019042061
 20
4.4048773006
 30
0.0
 40
1.335039370078741
100
AcDbArc
 50
158.0053021447
 51
201.9946978553
  0
LINE
  5
378
330
1F
100
AcDbEntity
  8
0
  6
Continuous
 62
     7
370
     0
100
AcDbLine
 10
6.301819908
 20
3.9048773006
 30
0.0
 11
6.4640309818
 21
3.9048773006
 31
0.0
  0
ARC
  5
379
330
1F
100
AcDbEntity
  8
0
  6
Continuous
 62
     7
370
     0
100
AcDbCircle
 10
10.029856962
 20
4.4048773006
 30
0.0
 40
3.761417322834653
100
AcDbArc
 50
172.3611411862
 51
187.6388588138
  0
LINE
  5
37A
330
1F
100
AcDbEntity
  8
0
  6
Continuous
 62
     7
370
     0
100
AcDbLine
 10
6.4640309818
 20
4.9048773006
 30
0.0
 11
6.301819908
 21
4.9048773006
 31
0.0
  0
ARC
  5
37B
330
1F
100
AcDbEntity
  8
0
  6
Continuous
 62
     7
370
     0
100
AcDbCircle
 10
4.8101719227
 20
4.4048773006
 30
0.0
 40
1.83228346456693
100
AcDbArc
 50
344.16407335
 51
15.83592665
  0
LINE
  5
37C
330
1F
100
AcDbEntity
  8
0
  6
Continuous
 62
     7
370
     0
100
AcDbLine
 10
6.4640309818
 20
3.9048773006
 30
0.0
 11
6.5729148689
 21
3.9048773006
 31
0.0
  0
ARC
  5
37D
330
1F
100
AcDbEntity
  8
0
  6
Continuous
 62
     7
370
     0
100
AcDbCircle
 10
7.7019042061
 20
4.4048773006
 30
0.0
 40
1.335039370078741
100
AcDbArc
 50
158.0053021447
 51
201.9946978553
  0
LINE
  5
37E
330
1F
100
AcDbEntity
  8
0
  6
Continuous
 62
     7
370
     0
100
AcDbLine
 10
6.5729148689
 20
4.9048773006
 30
0.0
 11
6.4640309818
 21
4.9048773006
 31
0.0
  0
ARC
  5
37F
330
1F
100
AcDbEntity
  8
0
  6
Continuous
 62
     7
370
     0
100
AcDbCircle
 10
5.8221144855
 20
4.4048773006
 30
0.0
 40
1.33503937007874
100
AcDbArc
 50
338.0053021447
 51
21.9946978553
  0
LINE
  5
380
330
1F
100
AcDbEntity
  8
0
  6
Continuous
 62
     7
370
     0
100
AcDbLine
 10
6.9511038228
 20
3.9048773006
 30
0.0
 11
7.0599877099
 21
3.9048773006
 31
0.0
  0
ARC
  5
381
330
1F
100
AcDbEntity
  8
0
  6
Continuous
 62
     7
370
     0
100
AcDbCircle
 10
8.713846769
 20
4.4048773006
 30
0.0
 40
1.83228346456693
100
AcDbArc
 50
164.16407335
 51
195.83592665
  0
LINE
  5
382
330
1F
100
AcDbEntity
  8
0
  6
Continuous
 62
     7
370
     0
100
AcDbLine
 10
7.0599877099
 20
4.9048773006
 30
0.0
 11
6.9511038228
 21
4.9048773006
 31
0.0
  0
ARC
  5
383
330
1F
100
AcDbEntity
  8
0
  6
Continuous
 62
     7
370
     0
100
AcDbCircle
 10
3.4941617296
 20
4.4048773006
 30
0.0
 40
3.761417322834654
100
AcDbArc
 50
352.3611411862
 51
7.6388588138
  0
LINE
  5
384
330
1F
100
AcDbEntity
  8
0
  6
Continuous
 62
     7
370
     0
100
AcDbLine
 10
7.0599877099
 20
3.9048773006
 30
0.0
 11
7.2221987837
 21
3.9048773006
 31
0.0
  0
ARC
  5
385
330
1F
100
AcDbEntity
  8
0
  6
Continuous
 62
     7
370
     0
100
AcDbCircle
 10
5.8221144855
 20
4.4048773006
 30
0.0
 40
1.33503937007874
100
AcDbArc
 50
338.0053021447
 51
21.9946978553
  0
LINE
  5
386
330
1F
100
AcDbEntity
  8
0
  6
Continuous
 62
     7
370
     0
100
AcDbLine
 10
7.2221987837
 20
4.9048773006
 30
0.0
 11
7.0599877099
 21
4.9048773006
 31
0.0
  0
DIMENSION
  5
387
330
1F
100
AcDbEntity
  8
0
  6
Continuous
 62
     7
370
     0
100
AcDbDimension
  2
*D8
 10
6.0694605883
 20
3.0375510887
 30
0.0
 11
4.8654950863
 21
3.0375510887
 31
0.0
 70
   160
 71
     1
 42
-1.0
  3
SLDDIMSTYLE1
100
AcDbAlignedDimension
 13
3.4993818482
 23
4.4048773006
 33
0.0
 14
6.0694605883
 24
3.8148773006
 34
0.0
100
AcDbRotatedDimension
  0
DIMENSION
  5
39A
330
1F
100
AcDbEntity
  8
0
  6
Continuous
 62
     7
370
     0
100
AcDbDimension
  2
*D9
 10
7.4594605883
 20
3.0375510887
 30
0.0
 11
8.9188720271
 21
3.0375510887
 31
0.0
 70
   160
 71
     1
 42
-1.0
  3
SLDDIMSTYLE2
100
AcDbAlignedDimension
 13
10.0345393285
 23
4.4048773006
 33
0.0
 14
7.4594605883
 24
3.8148773006
 34
0.0
100
AcDbRotatedDimension
  0
DIMENSION
  5
3AD
330
1F
100
AcDbEntity
  8
0
  6
Continuous
 62
     7
370
     0
100
AcDbDimension
  2
*D10
 10
6.2684396392
 20
5.1431210593
 30
0.0
 11
4.7308779111
 21
5.1431210593
 31
0.0
 70
   160
 71
     1
 42
-1.0
  3
SLDDIMSTYLE2
100
AcDbAlignedDimension
 13
3.4993818482
 23
4.4048773006
 33
0.0
 14
6.2684396392
 24
4.4048773006
 34
0.0
 50
0.0
100
AcDbRotatedDimension
  0
DIMENSION
  5
3BF
330
1F
100
AcDbEntity
  8
0
  6
Continuous
 62
     7
370
     0
100
AcDbDimension
  2
*D11
 10
7.2555790525
 20
5.115469791
 30
0.0
 11
8.7980432655
 21
5.115469791
 31
0.0
 70
   160
 71
     1
 42
-1.0
  3
SLDDIMSTYLE2
100
AcDbAlignedDimension
 13
10.0345393285
 23
4.4048773006
 33
0.0
 14
7.2555790525
 24
4.4048773006
 34
0.0
 50
0.0
100
AcDbRotatedDimension
  0
DIMENSION
  5
3D1
330
1F
100
AcDbEntity
  8
0
  6
Continuous
 62
     7
370
     0
100
AcDbDimension
  2
*D12
 10
7.4594605883
 20
2.7047942698
 30
0.0
 11
6.7644605883
 21
2.7047942698
 31
0.0
 70
   160
 71
     1
 42
-1.0
  3
SLDDIMSTYLE1
100
AcDbAlignedDimension
 13
6.0694605883
 23
3.8148773006
 33
0.0
 14
7.4594605883
 24
3.8148773006
 34
0.0
100
AcDbRotatedDimension
  0
DIMENSION
  5
3E3
330
1F
100
AcDbEntity
  8
0
  6
Continuous
 62
     7
370
     0
100
AcDbDimension
  2
*D13
 10
6.8815633044
 20
3.518736573
 30
0.0
 11
7.2900369347
 21
3.518736573
 31
0.0
 70
   160
 71
     1
 42
-1.0
  3
SLDDIMSTYLE3
100
AcDbAlignedDimension
 13
6.6424553872
 23
4.4048773006
 33
0.0
 14
6.8815633044
 24
4.4048773006
 34
0.0
 50
0.0
100
AcDbRotatedDimension
  0
DIMENSION
  5
3F6
330
1F
100
AcDbEntity
  8
0
  6
Continuous
 62
     7
370
     0
100
AcDbDimension
  2
*D14
 10
7.2555790525
 20
5.3863005735
 30
0.0
 11
6.7644605883
 21
5.3863005735
 31
0.0
 70
   160
 71
     1
 42
-1.0
  3
SLDDIMSTYLE3
100
AcDbAlignedDimension
 13
6.2684396392
 23
4.4048773006
 33
0.0
 14
7.2555790525
 24
4.4048773006
 34
0.0
100
AcDbRotatedDimension
  0
MTEXT
  5
408
330
1F
100
AcDbEntity
  8
0
  6
Continuous
 62
     7
370
     0
100
AcDbMText
 10
6.3952106061
 20
3.2554439079
 30
0.0
 40
0.09
 41
0.0
 71
     1
 72
     1
  1
SECTION A-A
  7
SLDTEXTSTYLE0
 73
     1
 44
1.0
  0
INSERT
  5
40F
102
{ACAD_REACTORS
330
411
330
412
102
}
330
1F
100
AcDbEntity
  8
0
  6
Continuous
 62
     7
370
     0
100
AcDbBlockReference
  2
SW_NOTE_5
 10
5.259194767
 20
3.5700694553
 30
0.0
  0
LEADER
  5
411
330
1F
100
AcDbEntity
  8
0
  6
Continuous
 62
     7
370
     0
100
AcDbLeader
  3
SLDDIMSTYLE4
 73
     2
 76
     3
 10
6.1564783752
 20
3.8988773006
 30
0.0
 10
5.509194767
 20
3.5700694553
 30
0.0
 10
5.259194767
 20
3.5700694553
 30
0.0
340
40F
  0
LEADER
  5
412
330
1F
100
AcDbEntity
  8
0
  6
Continuous
 62
     7
370
     0
100
AcDbLeader
  3
SLDDIMSTYLE4
 73
     2
 76
     3
 10
7.3550103836
 20
3.8988773006
 30
0.0
 10
5.509194767
 20
3.5700694553
 30
0.0
 10
5.259194767
 20
3.5700694553
 30
0.0
340
40F
  0
INSERT
  5
418
330
1F
100
AcDbEntity
  8
0
  6
Continuous
 62
     7
370
     0
100
AcDbBlockReference
  2
SW_NOTE_6
 10
7.9538666485
 20
4.8848542685
 30
0.0
  0
LEADER
  5
419
330
1F
100
AcDbEntity
  8
0
  6
Continuous
 62
     7
370
     0
100
AcDbLeader
  3
SLDDIMSTYLE4
 76
     2
 10
7.1042712949
 20
4.7769042297
 30
0.0
 10
7.9538666485
 20
4.8848542685
 30
0.0
  0
INSERT
  5
41F
102
{ACAD_REACTORS
330
420
102
}
330
1F
100
AcDbEntity
  8
0
  6
Continuous
 62
     7
370
     0
100
AcDbBlockReference
  2
SW_NOTE_7
 10
5.4792955727
 20
4.8901463463
 30
0.0
  0
LEADER
  5
420
330
1F
100
AcDbEntity
  8
0
  6
Continuous
 62
     7
370
     0
100
AcDbLeader
  3
SLDDIMSTYLE4
 73
     2
 76
     2
 10
6.4295534366
 20
4.8091713013
 30
0.0
 10
5.4792955727
 20
4.8901463463
 30
0.0
340
41F
  0
INSERT
  5
426
330
1F
100
AcDbEntity
  8
0
  6
Continuous
 62
     7
370
     0
100
AcDbBlockReference
  2
SW_NOTE_8
 10
8.2834461727
 20
3.6030781474
 30
0.0
  0
LEADER
  5
427
330
1F
100
AcDbEntity
  8
0
  6
Continuous
 62
     7
370
     0
100
AcDbLeader
  3
SLDDIMSTYLE4
 76
     2
 10
7.4594605883
 20
3.8888773006
 30
0.0
 10
8.2834461727
 20
3.6030781474
 30
0.0
  0
INSERT
  5
42D
330
1F
100
AcDbEntity
  8
0
  6
Continuous
 62
     7
370
     0
100
AcDbBlockReference
  2
SW_NOTE_9
 10
8.7181744521
 20
3.9324578656
 30
0.0
  0
LEADER
  5
42E
330
1F
100
AcDbEntity
  8
0
  6
Continuous
 62
     7
370
     0
100
AcDbLeader
  3
SLDDIMSTYLE4
 76
     2
 10
7.3071435136
 20
3.9548773006
 30
0.0
 10
8.7181744521
 20
3.9324578656
 30
0.0
  0
INSERT
  5
434
102
{ACAD_REACTORS
330
435
102
}
330
1F
100
AcDbEntity
  8
0
  6
Continuous
 62
     7
370
     0
100
AcDbBlockReference
  2
SW_NOTE_10
 10
5.4840739273
 20
3.934068029
 30
0.0
  0
LEADER
  5
435
330
1F
100
AcDbEntity
  8
0
  6
Continuous
 62
     7
370
     0
100
AcDbLeader
  3
SLDDIMSTYLE4
 73
     2
 76
     2
 10
6.2163898012
 20
3.9548773006
 30
0.0
 10
5.4840739273
 20
3.934068029
 30
0.0
340
434
  0
HATCH
  5
436
330
1F
100
AcDbEntity
  8
0
  6
Continuous
 62
     7
370
     0
100
AcDbHatch
 10
0.0
 20
0.0
 30
0.0
210
0.0
220
0.0
230
1.0
  2
ANSI35
 70
     0
 71
     0
 91
        1
 92
        0
 93
        4
 72
     1
 10
6.464030981751899
 20
4.904877300613498
 11
6.301819907976599
 21
4.904877300613498
 72
     2
 10
10.02985696204683
 20
4.404877300613494
 40
3.761417322834654
 50
172.3611411862246
 51
187.638858813776
 73
     1
 72
     1
 10
6.301819907976601
 20
3.904877300613498
 11
6.464030981751899
 21
3.904877300613498
 72
     2
 10
7.70190420614131
 20
4.404877300613498
 40
1.33503937007874
 50
158.0053021446881
 51
201.9946978553128
 73
     0
 97
        0
 75
     0
 76
     1
 52
0.0
 41
1.0
 77
     0
 78
     2
 53
45.0
 43
0.0
 44
0.0
 45
-0.1767766952966369
 46
0.1767766952966369
 79
     0
 53
45.0
 43
0.176776695
 44
0.0
 45
-0.1767766952966369
 46
0.1767766952966369
 79
     4
 49
0.3125
 49
-0.0625
 49
0.0
 49
-0.0625
 98
        1
 10
0.0
 20
0.0
  0
HATCH
  5
437
330
1F
100
AcDbEntity
  8
0
  6
Continuous
 62
     7
370
     0
100
AcDbHatch
 10
0.0
 20
0.0
 30
0.0
210
0.0
220
0.0
230
1.0
  2
ANSI35
 70
     0
 71
     0
 91
        1
 92
        0
 93
        4
 72
     1
 10
6.572914868918591
 20
4.904877300613498
 11
6.464030981751898
 21
4.904877300613498
 72
     2
 10
7.70190420614131
 20
4.404877300613498
 40
1.33503937007874
 50
158.0053021446881
 51
201.9946978553128
 73
     1
 72
     1
 10
6.464030981751899
 20
3.904877300613498
 11
6.572914868918591
 21
3.904877300613498
 72
     2
 10
4.810171922676743
 20
4.404877300613497
 40
1.832283464566929
 50
344.1640733499594
 51
375.8359266500423
 73
     1
 97
        0
 75
     0
 76
     1
 52
0.0
 41
1.0
 77
     0
 78
     2
 53
45.0
 43
0.0
 44
0.0
 45
-0.1767766952966369
 46
0.1767766952966369
 79
     0
 53
45.0
 43
0.176776695
 44
0.0
 45
-0.1767766952966369
 46
0.1767766952966369
 79
     4
 49
0.3125
 49
-0.0625
 49
0.0
 49
-0.0625
 98
        1
 10
0.0
 20
0.0
  0
HATCH
  5
438
330
1F
100
AcDbEntity
  8
0
  6
Continuous
 62
     7
370
     0
100
AcDbHatch
 10
0.0
 20
0.0
 30
0.0
210
0.0
220
0.0
230
1.0
  2
ANSI35
 70
     0
 71
     0
 91
        1
 92
        0
 93
        4
 72
     1
 10
7.059987709923084
 20
4.904877300613498
 11
6.951103822756392
 21
4.904877300613498
 72
     2
 10
8.71384676899824
 20
4.404877300613498
 40
1.832283464566929
 50
164.1640733499586
 51
195.8359266500423
 73
     1
 72
     1
 10
6.951103822756392
 20
3.904877300613498
 11
7.059987709923085
 21
3.904877300613498
 72
     2
 10
5.822114485533673
 20
4.404877300613497
 40
1.33503937007874
 50
338.0053021446889
 51
381.9946978553128
 73
     1
 97
        0
 75
     0
 76
     1
 52
0.0
 41
1.0
 77
     0
 78
     2
 53
45.0
 43
0.0
 44
0.0
 45
-0.1767766952966369
 46
0.1767766952966369
 79
     0
 53
45.0
 43
0.176776695
 44
0.0
 45
-0.1767766952966369
 46
0.1767766952966369
 79
     4
 49
0.3125
 49
-0.0625
 49
0.0
 49
-0.0625
 98
        1
 10
0.0
 20
0.0
  0
HATCH
  5
439
330
1F
100
AcDbEntity
  8
0
  6
Continuous
 62
     7
370
     0
100
AcDbHatch
 10
0.0
 20
0.0
 30
0.0
210
0.0
220
0.0
230
1.0
  2
ANSI35
 70
     0
 71
     0
 91
        1
 92
        0
 93
        4
 72
     1
 10
7.22219878369838
 20
4.904877300613496
 11
7.059987709923084
 21
4.904877300613498
 72
     2
 10
5.822114485533673
 20
4.404877300613497
 40
1.33503937007874
 50
338.0053021446888
 51
381.9946978553127
 73
     0
 72
     1
 10
7.059987709923085
 20
3.904877300613498
 11
7.22219878369838
 21
3.904877300613496
 72
     2
 10
3.494161729628153
 20
4.404877300613493
 40
3.761417322834654
 50
352.3611411862256
 51
367.6388588137762
 73
     1
 97
        0
 75
     0
 76
     1
 52
0.0
 41
1.0
 77
     0
 78
     2
 53
45.0
 43
0.0
 44
0.0
 45
-0.1767766952966369
 46
0.1767766952966369
 79
     0
 53
45.0
 43
0.176776695
 44
0.0
 45
-0.1767766952966369
 46
0.1767766952966369
 79
     4
 49
0.3125
 49
-0.0625
 49
0.0
 49
-0.0625
 98
        1
 10
0.0
 20
0.0
  0
HATCH
  5
43A
330
1F
100
AcDbEntity
  8
0
  6
Continuous
 62
     7
370
     0
100
AcDbHatch
 10
0.0
 20
0.0
 30
0.0
210
0.0
220
0.0
230
1.0
  2
ANSI31
 70
     0
 71
     0
 91
        1
 92
        0
 93
        6
 72
     1
 10
7.244464021662657
 20
4.922377300613498
 11
7.227143513586968
 21
4.912377300613498
 72
     1
 10
7.227143513586968
 20
4.912377300613498
 11
7.227143513586968
 21
4.854877300613498
 72
     1
 10
7.227143513586968
 20
4.854877300613498
 11
7.307143513586968
 21
4.854877300613498
 72
     1
 10
7.307143513586968
 20
4.854877300613498
 11
7.307143513586968
 21
4.905056792537809
 72
     1
 10
7.307143513586968
 20
4.905056792537809
 11
7.297143513586969
 21
4.922377300613499
 72
     1
 10
7.297143513586969
 20
4.922377300613499
 11
7.244464021662657
 21
4.922377300613498
 97
        0
 75
     0
 76
     1
 52
0.0
 41
1.0
 77
     0
 78
     1
 53
45.0
 43
0.0
 44
0.0
 45
-0.0883883476483184
 46
0.0883883476483184
 79
     0
 98
        1
 10
0.0
 20
0.0
  0
HATCH
  5
43B
330
1F
100
AcDbEntity
  8
0
  6
Continuous
 62
     7
370
     0
100
AcDbHatch
 10
0.0
 20
0.0
 30
0.0
210
0.0
220
0.0
230
1.0
  2
ANSI31
 70
     0
 71
     0
 91
        1
 92
        0
 93
        6
 72
     1
 10
7.307143513586969
 20
3.904697808689187
 11
7.307143513586968
 21
3.954877300613498
 72
     1
 10
7.307143513586968
 20
3.954877300613498
 11
7.227143513586969
 21
3.954877300613498
 72
     1
 10
7.227143513586969
 20
3.954877300613498
 11
7.227143513586969
 21
3.897377300613498
 72
     1
 10
7.227143513586969
 20
3.897377300613498
 11
7.244464021662657
 21
3.887377300613498
 72
     1
 10
7.244464021662657
 20
3.887377300613498
 11
7.29714351358697
 21
3.887377300613498
 72
     1
 10
7.29714351358697
 20
3.887377300613498
 11
7.307143513586969
 21
3.904697808689187
 97
        0
 75
     0
 76
     1
 52
0.0
 41
1.0
 77
     0
 78
     1
 53
45.0
 43
0.0
 44
0.0
 45
-0.0883883476483184
 46
0.0883883476483184
 79
     0
 98
        1
 10
0.0
 20
0.0
  0
HATCH
  5
43C
330
1F
100
AcDbEntity
  8
0
  6
Continuous
 62
     7
370
     0
100
AcDbHatch
 10
0.0
 20
0.0
 30
0.0
210
0.0
220
0.0
230
1.0
  2
ANSI31
 70
     0
 71
     0
 91
        1
 92
        0
 93
        6
 72
     1
 10
6.279069293113415
 20
3.887377300613498
 11
6.296389801189104
 21
3.897377300613498
 72
     1
 10
6.296389801189104
 20
3.897377300613498
 11
6.296389801189104
 21
3.954877300613498
 72
     1
 10
6.296389801189104
 20
3.954877300613498
 11
6.216389801189104
 21
3.954877300613498
 72
     1
 10
6.216389801189104
 20
3.954877300613498
 11
6.216389801189104
 21
3.904697808689186
 72
     1
 10
6.216389801189104
 20
3.904697808689186
 11
6.226389801189105
 21
3.887377300613497
 72
     1
 10
6.226389801189105
 20
3.887377300613497
 11
6.279069293113415
 21
3.887377300613498
 97
        0
 75
     0
 76
     1
 52
0.0
 41
1.0
 77
     0
 78
     1
 53
45.0
 43
0.0
 44
0.0
 45
-0.0883883476483184
 46
0.0883883476483184
 79
     0
 98
        1
 10
0.0
 20
0.0
  0
HATCH
  5
43D
330
1F
100
AcDbEntity
  8
0
  6
Continuous
 62
     7
370
     0
100
AcDbHatch
 10
0.0
 20
0.0
 30
0.0
210
0.0
220
0.0
230
1.0
  2
ANSI31
 70
     0
 71
     0
 91
        1
 92
        0
 93
        6
 72
     1
 10
6.216389801189103
 20
4.905056792537808
 11
6.216389801189104
 21
4.854877300613498
 72
     1
 10
6.216389801189104
 20
4.854877300613498
 11
6.296389801189103
 21
4.854877300613498
 72
     1
 10
6.296389801189103
 20
4.854877300613498
 11
6.296389801189103
 21
4.912377300613498
 72
     1
 10
6.296389801189103
 20
4.912377300613498
 11
6.279069293113415
 21
4.922377300613498
 72
     1
 10
6.279069293113415
 20
4.922377300613498
 11
6.226389801189103
 21
4.922377300613497
 72
     1
 10
6.226389801189103
 20
4.922377300613497
 11
6.216389801189103
 21
4.905056792537808
 97
        0
 75
     0
 76
     1
 52
0.0
 41
1.0
 77
     0
 78
     1
 53
45.0
 43
0.0
 44
0.0
 45
-0.0883883476483184
 46
0.0883883476483184
 79
     0
 98
        1
 10
0.0
 20
0.0
  0
HATCH
  5
43E
330
1F
100
AcDbEntity
  8
0
  6
Continuous
 62
     7
370
     0
100
AcDbHatch
 10
0.0
 20
0.0
 30
0.0
210
0.0
220
0.0
230
1.0
  2
ANSI31
 70
     0
 71
     0
 91
        1
 92
        0
 93
       28
 72
     1
 10
7.157305887769768
 20
4.908877300613497
 11
7.158460588308148
 21
4.910877300613498
 72
     1
 10
7.158460588308148
 20
4.910877300613498
 11
7.442140080232458
 21
4.910877300613497
 72
     1
 10
7.442140080232458
 20
4.910877300613497
 11
7.459460588308146
 21
4.920877300613498
 72
     1
 10
7.459460588308146
 20
4.920877300613498
 11
7.459460588308146
 21
4.994877300613497
 72
     1
 10
7.459460588308146
 20
4.994877300613497
 11
7.449460588308146
 21
5.004877300613498
 72
     1
 10
7.449460588308146
 20
5.004877300613498
 11
6.39340367499977
 21
5.004877300613498
 72
     1
 10
6.39340367499977
 20
5.004877300613498
 11
6.361057199733963
 21
5.004877300613498
 72
     1
 10
6.361057199733963
 20
5.004877300613498
 11
6.355765005663887
 21
5.004877300613498
 72
     1
 10
6.355765005663887
 20
5.004877300613498
 11
6.333930448228571
 21
5.004877300613498
 72
     1
 10
6.333930448228571
 20
5.004877300613498
 11
6.224460588308146
 21
5.004877300613498
 72
     1
 10
6.224460588308146
 20
5.004877300613498
 11
6.205759289606848
 21
5.004877300613498
 72
     1
 10
6.205759289606848
 20
5.004877300613498
 11
6.183173917903168
 21
5.004877300613498
 72
     1
 10
6.183173917903168
 20
5.004877300613498
 11
6.150964433243079
 21
5.004877300613498
 72
     1
 10
6.150964433243079
 20
5.004877300613498
 11
6.079460588308146
 21
5.004877300613498
 72
     1
 10
6.079460588308146
 20
5.004877300613498
 11
6.069460588308146
 21
4.994877300613497
 72
     1
 10
6.069460588308146
 20
4.994877300613497
 11
6.069460588308146
 21
4.920877300613497
 72
     1
 10
6.069460588308146
 20
4.920877300613497
 11
6.086781096383835
 21
4.910877300613497
 72
     1
 10
6.086781096383835
 20
4.910877300613497
 11
6.370460588308146
 21
4.910877300613497
 72
     1
 10
6.370460588308146
 20
4.910877300613497
 11
6.371615288846526
 21
4.908877300613497
 72
     1
 10
6.371615288846526
 20
4.908877300613497
 11
6.564460588308147
 21
4.908877300613497
 72
     1
 10
6.564460588308147
 20
4.908877300613497
 11
6.564460588308147
 21
4.929877300613498
 72
     1
 10
6.564460588308147
 20
4.929877300613498
 11
6.584460588308147
 21
4.929877300613498
 72
     1
 10
6.584460588308147
 20
4.929877300613498
 11
6.584460588308147
 21
4.855877300613498
 72
     1
 10
6.584460588308147
 20
4.855877300613498
 11
6.939460588308147
 21
4.855877300613498
 72
     1
 10
6.939460588308147
 20
4.855877300613498
 11
6.939460588308147
 21
4.9298773006135
 72
     1
 10
6.939460588308147
 20
4.9298773006135
 11
6.959460588308147
 21
4.929877300613498
 72
     1
 10
6.959460588308147
 20
4.929877300613498
 11
6.959460588308147
 21
4.908877300613497
 72
     1
 10
6.959460588308147
 20
4.908877300613497
 11
7.157305887769768
 21
4.908877300613497
 97
        0
 75
     0
 76
     1
 52
0.0
 41
1.0
 77
     0
 78
     1
 53
45.0
 43
0.0
 44
0.0
 45
-0.0883883476483184
 46
0.0883883476483184
 79
     0
 98
        1
 10
0.0
 20
0.0
  0
HATCH
  5
43F
330
1F
100
AcDbEntity
  8
0
  6
Continuous
 62
     7
370
     0
100
AcDbHatch
 10
0.0
 20
0.0
 30
0.0
210
0.0
220
0.0
230
1.0
  2
ANSI31
 70
     0
 71
     0
 91
        1
 92
        0
 93
       26
 72
     1
 10
7.442140080232458
 20
3.898877300613498
 11
7.158460588308147
 21
3.898877300613498
 72
     1
 10
7.158460588308147
 20
3.898877300613498
 11
7.157305887769768
 21
3.900877300613497
 72
     1
 10
7.157305887769768
 20
3.900877300613497
 11
6.959460588308147
 21
3.900877300613497
 72
     1
 10
6.959460588308147
 20
3.900877300613497
 11
6.959460588308147
 21
3.879877300613497
 72
     1
 10
6.959460588308147
 20
3.879877300613497
 11
6.939460588308147
 21
3.879877300613496
 72
     1
 10
6.939460588308147
 20
3.879877300613496
 11
6.939460588308147
 21
3.953877300613498
 72
     1
 10
6.939460588308147
 20
3.953877300613498
 11
6.584460588308147
 21
3.953877300613498
 72
     1
 10
6.584460588308147
 20
3.953877300613498
 11
6.584460588308147
 21
3.879877300613497
 72
     1
 10
6.584460588308147
 20
3.879877300613497
 11
6.564460588308147
 21
3.879877300613496
 72
     1
 10
6.564460588308147
 20
3.879877300613496
 11
6.564460588308147
 21
3.900877300613497
 72
     1
 10
6.564460588308147
 20
3.900877300613497
 11
6.371615288846526
 21
3.900877300613497
 72
     1
 10
6.371615288846526
 20
3.900877300613497
 11
6.370460588308148
 21
3.898877300613498
 72
     1
 10
6.370460588308148
 20
3.898877300613498
 11
6.086781096383835
 21
3.898877300613498
 72
     1
 10
6.086781096383835
 20
3.898877300613498
 11
6.069460588308147
 21
3.888877300613498
 72
     1
 10
6.069460588308147
 20
3.888877300613498
 11
6.069460588308147
 21
3.814877300613497
 72
     1
 10
6.069460588308147
 20
3.814877300613497
 11
6.079460588308146
 21
3.804877300613497
 72
     1
 10
6.079460588308146
 20
3.804877300613497
 11
6.144460588308147
 21
3.804877300613497
 72
     1
 10
6.144460588308147
 20
3.804877300613497
 11
6.161095385076125
 21
3.804877300613497
 72
     1
 10
6.161095385076125
 20
3.804877300613497
 11
6.176584448969153
 21
3.804877300613497
 72
     1
 10
6.176584448969153
 20
3.804877300613497
 11
6.19845639794136
 21
3.804877300613497
 72
     1
 10
6.19845639794136
 20
3.804877300613497
 11
6.323623063050931
 21
3.804877300613497
 72
     1
 10
6.323623063050931
 20
3.804877300613497
 11
6.343008340783252
 21
3.804877300613497
 72
     1
 10
6.343008340783252
 20
3.804877300613497
 11
7.449460588308146
 21
3.804877300613497
 72
     1
 10
7.449460588308146
 20
3.804877300613497
 11
7.459460588308146
 21
3.814877300613498
 72
     1
 10
7.459460588308146
 20
3.814877300613498
 11
7.459460588308146
 21
3.888877300613498
 72
     1
 10
7.459460588308146
 20
3.888877300613498
 11
7.442140080232458
 21
3.898877300613498
 97
        0
 75
     0
 76
     1
 52
0.0
 41
1.0
 77
     0
 78
     1
 53
45.0
 43
0.0
 44
0.0
 45
-0.0883883476483184
 46
0.0883883476483184
 79
     0
 98
        1
 10
0.0
 20
0.0
  0
ENDSEC
  0
SECTION
  2
OBJECTS
  0
DICTIONARY
  5
C
330
0
100
AcDbDictionary
281
     1
  3
ACAD_GROUP
350
D
  3
ACAD_LAYOUT
350
1A
  3
ACAD_MLINESTYLE
350
17
  3
ACAD_PLOTSETTINGS
350
19
  3
ACAD_PLOTSTYLENAME
350
E
  0
DICTIONARY
  5
D
102
{ACAD_REACTORS
330
C
102
}
330
C
100
AcDbDictionary
281
     1
  0
DICTIONARY
  5
1A
102
{ACAD_REACTORS
330
C
102
}
330
C
100
AcDbDictionary
281
     1
  3
Layout1
350
1E
  3
Layout2
350
26
  3
Model
350
22
  0
DICTIONARY
  5
17
102
{ACAD_REACTORS
330
C
102
}
330
C
100
AcDbDictionary
281
     1
  3
Standard
350
18
  0
DICTIONARY
  5
19
102
{ACAD_REACTORS
330
C
102
}
330
C
100
AcDbDictionary
281
     1
  0
ACDBDICTIONARYWDFLT
  5
E
102
{ACAD_REACTORS
330
C
102
}
330
C
100
AcDbDictionary
281
     1
  3
Normal
350
F
100
AcDbDictionaryWithDefault
340
F
  0
LAYOUT
  5
1E
102
{ACAD_REACTORS
330
1A
102
}
330
1A
100
AcDbPlotSettings
  1

  2
none_device
  4

  6

 40
0.0
 41
0.0
 42
0.0
 43
0.0
 44
0.0
 45
0.0
 46
0.0
 47
0.0
 48
0.0
 49
0.0
140
0.0
141
0.0
142
1.0
143
1.0
 70
   688
 72
     0
 73
     0
 74
     5
  7

 75
    16
147
1.0
148
0.0
149
0.0
100
AcDbLayout
  1
Layout1
 70
     1
 71
     1
 10
0.0
 20
0.0
 11
12.0
 21
9.0
 12
0.0
 22
0.0
 32
0.0
 14
1.0000000000E+20
 24
1.0000000000E+20
 34
1.0000000000E+20
 15
-1.0000000000E+20
 25
-1.0000000000E+20
 35
-1.0000000000E+20
146
0.0
 13
0.0
 23
0.0
 33
0.0
 16
1.0
 26
0.0
 36
0.0
 17
0.0
 27
1.0
 37
0.0
 76
     0
330
1B
  0
LAYOUT
  5
26
102
{ACAD_REACTORS
330
1A
102
}
330
1A
100
AcDbPlotSettings
  1

  2
none_device
  4

  6

 40
0.0
 41
0.0
 42
0.0
 43
0.0
 44
0.0
 45
0.0
 46
0.0
 47
0.0
 48
0.0
 49
0.0
140
0.0
141
0.0
142
1.0
143
1.0
 70
   688
 72
     0
 73
     0
 74
     5
  7

 75
    16
147
1.0
148
0.0
149
0.0
100
AcDbLayout
  1
Layout2
 70
     1
 71
     2
 10
0.0
 20
0.0
 11
0.0
 21
0.0
 12
0.0
 22
0.0
 32
0.0
 14
0.0
 24
0.0
 34
0.0
 15
0.0
 25
0.0
 35
0.0
146
0.0
 13
0.0
 23
0.0
 33
0.0
 16
1.0
 26
0.0
 36
0.0
 17
0.0
 27
1.0
 37
0.0
 76
     0
330
23
  0
LAYOUT
  5
22
102
{ACAD_REACTORS
330
1A
102
}
330
1A
100
AcDbPlotSettings
  1

  2
none_device
  4

  6

 40
0.0
 41
0.0
 42
0.0
 43
0.0
 44
0.0
 45
0.0
 46
0.0
 47
0.0
 48
0.0
 49
0.0
140
0.0
141
0.0
142
1.0
143
1.0
 70
  1712
 72
     0
 73
     0
 74
     0
  7

 75
     0
147
1.0
148
0.0
149
0.0
100
AcDbLayout
  1
Model
 70
     1
 71
     0
 10
0.0
 20
0.0
 11
0.0
 21
0.0
 12
0.0
 22
0.0
 32
0.0
 14
0.0
 24
0.0
 34
0.0
 15
11.0
 25
8.5
 35
0.0
146
0.0
 13
0.0
 23
0.0
 33
0.0
 16
1.0
 26
0.0
 36
0.0
 17
0.0
 27
1.0
 37
0.0
 76
     0
330
1F
  0
MLINESTYLE
  5
18
102
{ACAD_REACTORS
330
17
102
}
330
17
100
AcDbMlineStyle
  2
Standard
 70
     0
  3

 62
   256
 51
90.0
 52
90.0
 71
     2
 49
0.5
 62
   256
  6
BYLAYER
 49
-0.5
 62
   256
  6
BYLAYER
  0
ACDBPLACEHOLDER
  5
F
102
{ACAD_REACTORS
330
E
102
}
330
E
  0
ENDSEC
  0
EOF
