  0
SECTION
  2
HEADER
  9
$ACADVER
  1
AC1015
  9
$ACADMAINTVER
 70
     6
  9
$DWGCODEPAGE
  3
ANSI_1252
  9
$INSBASE
 10
0.0
 20
0.0
 30
0.0
  9
$EXTMIN
 10
0.0
 20
0.0
 30
0.0
  9
$EXTMAX
 10
11.0
 20
8.5
 30
0.0
  9
$LIMMIN
 10
0.0
 20
0.0
  9
$LIMMAX
 10
11.0
 20
8.5
  9
$ORTHOMODE
 70
     0
  9
$REGENMODE
 70
     1
  9
$FILLMODE
 70
     1
  9
$QTEXTMODE
 70
     0
  9
$MIRRTEXT
 70
     1
  9
$LTSCALE
 40
1.0
  9
$ATTMODE
 70
     1
  9
$TEXTSIZE
 40
0.1111111111
  9
$TRACEWID
 40
0.05
  9
$TEXTSTYLE
  7
Standard
  9
$CLAYER
  8
0
  9
$CELTYPE
  6
ByLayer
  9
$CECOLOR
 62
   256
  9
$CELTSCALE
 40
1.0
  9
$DISPSILH
 70
     0
  9
$DIMSCALE
 40
1.0
  9
$DIMASZ
 40
0.125
  9
$DIMEXO
 40
0.05
  9
$DIMDLI
 40
0.38
  9
$DIMRND
 40
0.0
  9
$DIMDLE
 40
0.0
  9
$DIMEXE
 40
0.07
  9
$DIMTP
 40
0.0
  9
$DIMTM
 40
0.0
  9
$DIMTXT
 40
0.1111111111
  9
$DIMCEN
 40
0.09
  9
$DIMTSZ
 40
0.0
  9
$DIMTOL
 70
     0
  9
$DIMLIM
 70
     0
  9
$DIMTIH
 70
     1
  9
$DIMTOH
 70
     1
  9
$DIMSE1
 70
     0
  9
$DIMSE2
 70
     0
  9
$DIMTAD
 70
     0
  9
$DIMZIN
 70
     1
  9
$DIMBLK
  1

  9
$DIMASO
 70
     1
  9
$DIMSHO
 70
     1
  9
$DIMPOST
  1

  9
$DIMAPOST
  1

  9
$DIMALT
 70
     0
  9
$DIMALTD
 70
     2
  9
$DIMALTF
 40
25.4
  9
$DIMLFAC
 40
0.5
  9
$DIMTOFL
 70
     0
  9
$DIMTVP
 40
0.0
  9
$DIMTIX
 70
     0
  9
$DIMSOXD
 70
     0
  9
$DIMSAH
 70
     0
  9
$DIMBLK1
  1

  9
$DIMBLK2
  1

  9
$DIMSTYLE
  2
Standard
  9
$DIMCLRD
 70
     0
  9
$DIMCLRE
 70
     0
  9
$DIMCLRT
 70
     0
  9
$DIMTFAC
 40
1.0
  9
$DIMGAP
 40
0.1
  9
$DIMJUST
 70
     0
  9
$DIMSD1
 70
     0
  9
$DIMSD2
 70
     0
  9
$DIMTOLJ
 70
     1
  9
$DIMTZIN
 70
     1
  9
$DIMALTZ
 70
     0
  9
$DIMALTTZ
 70
     0
  9
$DIMUPT
 70
     0
  9
$DIMDEC
 70
     2
  9
$DIMTDEC
 70
     2
  9
$DIMALTU
 70
     2
  9
$DIMALTTD
 70
     2
  9
$DIMTXSTY
  7
Standard
  9
$DIMAUNIT
 70
     0
  9
$DIMADEC
 70
     0
  9
$DIMALTRND
 40
0.0
  9
$DIMAZIN
 70
     0
  9
$DIMDSEP
 70
    46
  9
$DIMATFIT
 70
     3
  9
$DIMFRAC
 70
     0
  9
$DIMLDRBLK
  1

  9
$DIMLUNIT
 70
     2
  9
$DIMLWD
 70
    -2
  9
$DIMLWE
 70
    -2
  9
$DIMTMOVE
 70
     0
  9
$LUNITS
 70
     2
  9
$LUPREC
 70
     2
  9
$SKETCHINC
 40
0.1
  9
$FILLETRAD
 40
0.5
  9
$AUNITS
 70
     0
  9
$AUPREC
 70
     0
  9
$MENU
  1
.
  9
$ELEVATION
 40
0.0
  9
$PELEVATION
 40
0.0
  9
$THICKNESS
 40
0.0
  9
$LIMCHECK
 70
     0
  9
$CHAMFERA
 40
0.0
  9
$CHAMFERB
 40
0.0
  9
$CHAMFERC
 40
0.0
  9
$CHAMFERD
 40
0.0
  9
$SKPOLY
 70
     0
  9
$TDCREATE
 40
2458681.37828022
  9
$TDUCREATE
 40
2458681.544946887
  9
$TDUPDATE
 40
2458681.378282199
  9
$TDUUPDATE
 40
2458681.544948866
  9
$TDINDWG
 40
0.0000000116
  9
$TDUSRTIMER
 40
0.0000000116
  9
$USRTIMER
 70
     1
  9
$ANGBASE
 50
0.0
  9
$ANGDIR
 70
     0
  9
$PDMODE
 70
     0
  9
$PDSIZE
 40
-1.0
  9
$PLINEWID
 40
0.0
  9
$SPLFRAME
 70
     0
  9
$SPLINETYPE
 70
     6
  9
$SPLINESEGS
 70
     8
  9
$HANDSEED
  5
1D9
  9
$SURFTAB1
 70
     6
  9
$SURFTAB2
 70
     6
  9
$SURFTYPE
 70
     6
  9
$SURFU
 70
     6
  9
$SURFV
 70
     6
  9
$UCSBASE
  2

  9
$UCSNAME
  2

  9
$UCSORG
 10
0.0
 20
0.0
 30
0.0
  9
$UCSXDIR
 10
1.0
 20
0.0
 30
0.0
  9
$UCSYDIR
 10
0.0
 20
1.0
 30
0.0
  9
$UCSORTHOREF
  2

  9
$UCSORTHOVIEW
 70
     0
  9
$UCSORGTOP
 10
0.0
 20
0.0
 30
0.0
  9
$UCSORGBOTTOM
 10
0.0
 20
0.0
 30
0.0
  9
$UCSORGLEFT
 10
0.0
 20
0.0
 30
0.0
  9
$UCSORGRIGHT
 10
0.0
 20
0.0
 30
0.0
  9
$UCSORGFRONT
 10
0.0
 20
0.0
 30
0.0
  9
$UCSORGBACK
 10
0.0
 20
0.0
 30
0.0
  9
$PUCSBASE
  2

  9
$PUCSNAME
  2

  9
$PUCSORG
 10
0.0
 20
0.0
 30
0.0
  9
$PUCSXDIR
 10
1.0
 20
0.0
 30
0.0
  9
$PUCSYDIR
 10
0.0
 20
1.0
 30
0.0
  9
$PUCSORTHOREF
  2

  9
$PUCSORTHOVIEW
 70
     0
  9
$PUCSORGTOP
 10
0.0
 20
0.0
 30
0.0
  9
$PUCSORGBOTTOM
 10
0.0
 20
0.0
 30
0.0
  9
$PUCSORGLEFT
 10
0.0
 20
0.0
 30
0.0
  9
$PUCSORGRIGHT
 10
0.0
 20
0.0
 30
0.0
  9
$PUCSORGFRONT
 10
0.0
 20
0.0
 30
0.0
  9
$PUCSORGBACK
 10
0.0
 20
0.0
 30
0.0
  9
$USERI1
 70
     0
  9
$USERI2
 70
     0
  9
$USERI3
 70
     0
  9
$USERI4
 70
     0
  9
$USERI5
 70
     0
  9
$USERR1
 40
0.0
  9
$USERR2
 40
0.0
  9
$USERR3
 40
0.0
  9
$USERR4
 40
0.0
  9
$USERR5
 40
0.0
  9
$WORLDVIEW
 70
     1
  9
$SHADEDGE
 70
     3
  9
$SHADEDIF
 70
    70
  9
$TILEMODE
 70
     1
  9
$MAXACTVP
 70
    64
  9
$PINSBASE
 10
0.0
 20
0.0
 30
0.0
  9
$PLIMCHECK
 70
     0
  9
$PEXTMIN
 10
1.0000000000E+20
 20
1.0000000000E+20
 30
1.0000000000E+20
  9
$PEXTMAX
 10
-1.0000000000E+20
 20
-1.0000000000E+20
 30
-1.0000000000E+20
  9
$PLIMMIN
 10
0.0
 20
0.0
  9
$PLIMMAX
 10
12.0
 20
9.0
  9
$UNITMODE
 70
     0
  9
$VISRETAIN
 70
     1
  9
$PLINEGEN
 70
     0
  9
$PSLTSCALE
 70
     1
  9
$TREEDEPTH
 70
  3020
  9
$CMLSTYLE
  2
Standard
  9
$CMLJUST
 70
     0
  9
$CMLSCALE
 40
1.0
  9
$PROXYGRAPHICS
 70
     1
  9
$MEASUREMENT
 70
     0
  9
$CELWEIGHT
370
    -1
  9
$ENDCAPS
280
     0
  9
$JOINSTYLE
280
     0
  9
$LWDISPLAY
290
     1
  9
$INSUNITS
 70
     1
  9
$HYPERLINKBASE
  1

  9
$STYLESHEET
  1

  9
$XEDIT
290
     1
  9
$CEPSNTYPE
380
     0
  9
$PSTYLEMODE
290
     1
  9
$FINGERPRINTGUID
  2
{F463C0D7-19A6-4D7B-B3A3-2DA3ABE33185}
  9
$VERSIONGUID
  2
{FAEB1C32-E019-11D5-929B-00C0DF256EC4}
  9
$EXTNAMES
290
     1
  9
$PSVPSCALE
 40
0.0
  9
$OLESTARTUP
290
     0
  0
ENDSEC
  0
SECTION
  2
CLASSES
  0
CLASS
  1
ACDBDICTIONARYWDFLT
  2
AcDbDictionaryWithDefault
  3
ObjectDBX Classes
 90
        0
280
     0
281
     0
  0
CLASS
  1
VISUALSTYLE
  2
AcDbVisualStyle
  3
ObjectDBX Classes
 90
     4095
280
     0
281
     0
  0
CLASS
  1
MATERIAL
  2
AcDbMaterial
  3
ObjectDBX Classes
 90
     1153
280
     0
281
     0
  0
CLASS
  1
SCALE
  2
AcDbScale
  3
ObjectDBX Classes
 90
     1153
280
     0
281
     0
  0
CLASS
  1
TABLESTYLE
  2
AcDbTableStyle
  3
ObjectDBX Classes
 90
     4095
280
     0
281
     0
  0
CLASS
  1
MLEADERSTYLE
  2
AcDbMLeaderStyle
  3
ACDB_MLEADERSTYLE_CLASS
 90
     4095
280
     0
281
     0
  0
CLASS
  1
SUN
  2
AcDbSun
  3
SCENEOE
 90
     1153
280
     0
281
     0
  0
CLASS
  1
ACDBPLACEHOLDER
  2
AcDbPlaceHolder
  3
ObjectDBX Classes
 90
        0
280
     0
281
     0
  0
CLASS
  1
LAYOUT
  2
AcDbLayout
  3
ObjectDBX Classes
 90
        0
280
     0
281
     0
  0
ENDSEC
  0
SECTION
  2
TABLES
  0
TABLE
  2
VPORT
  5
8
330
0
100
AcDbSymbolTable
 70
     1
  0
VPORT
  5
29
330
8
100
AcDbSymbolTableRecord
100
AcDbViewportTableRecord
  2
*Active
 70
     0
 10
0.0
 20
0.0
 11
1.0
 21
1.0
 12
5.5
 22
4.25
 13
0.0
 23
0.0
 14
0.5
 24
0.5
 15
0.5
 25
0.5
 16
0.0
 26
0.0
 36
1.0
 17
0.0
 27
0.0
 37
0.0
 40
8.5
 41
1.2941176471
 42
50.0
 43
0.0
 44
0.0
 50
0.0
 51
0.0
 71
     0
 72
  2000
 73
     1
 74
     3
 75
     0
 76
     0
 77
     0
 78
     0
281
     0
 65
     1
110
0.0
120
0.0
130
0.0
111
1.0
121
0.0
131
0.0
112
0.0
122
1.0
132
0.0
 79
     0
146
0.0
  0
ENDTAB
  0
TABLE
  2
LTYPE
  5
5
330
0
100
AcDbSymbolTable
 70
     6
  0
LTYPE
  5
14
330
5
100
AcDbSymbolTableRecord
100
AcDbLinetypeTableRecord
  2
ByBlock
 70
     0
  3

 72
    65
 73
     0
 40
0.0
  0
LTYPE
  5
15
330
5
100
AcDbSymbolTableRecord
100
AcDbLinetypeTableRecord
  2
ByLayer
 70
     0
  3

 72
    65
 73
     0
 40
0.0
  0
LTYPE
  5
16
330
5
100
AcDbSymbolTableRecord
100
AcDbLinetypeTableRecord
  2
Continuous
 70
     0
  3
Solid line
 72
    65
 73
     0
 40
0.0
  0
LTYPE
  5
6E
330
5
100
AcDbSymbolTableRecord
100
AcDbLinetypeTableRecord
  2
HIDDEN
 70
     0
  3
Hidden __ __ __ __ __ __ __ __ __ __ __ __ __ __
 72
    65
 73
     2
 40
0.075
 49
0.05
 74
     0
 49
-0.025
 74
     0
  0
LTYPE
  5
6F
330
5
100
AcDbSymbolTableRecord
100
AcDbLinetypeTableRecord
  2
PHANTOM
 70
     0
  3
Phantom ______  __  __  ______  __  __  ______
 72
    65
 73
     6
 40
0.5
 49
0.25
 74
     0
 49
-0.05
 74
     0
 49
0.05
 74
     0
 49
-0.05
 74
     0
 49
0.05
 74
     0
 49
-0.05
 74
     0
  0
LTYPE
  5
70
330
5
100
AcDbSymbolTableRecord
100
AcDbLinetypeTableRecord
  2
CENTER
 70
     0
  3
Center ____ _ ____ _ ____ _ ____ _ ____ _ ____
 72
    65
 73
     4
 40
0.4
 49
0.25
 74
     0
 49
-0.05
 74
     0
 49
0.05
 74
     0
 49
-0.05
 74
     0
  0
LTYPE
  5
71
330
5
100
AcDbSymbolTableRecord
100
AcDbLinetypeTableRecord
  2
CENTERX2
 70
     0
  3
Center (2x) ________  __  ________  __  _____
 72
    65
 73
     4
 40
0.8
 49
0.5
 74
     0
 49
-0.1
 74
     0
 49
0.1
 74
     0
 49
-0.1
 74
     0
  0
LTYPE
  5
72
330
5
100
AcDbSymbolTableRecord
100
AcDbLinetypeTableRecord
  2
DOT2
 70
     0
  3
Dot (.5x) ........................................
 72
    65
 73
     2
 40
0.025
 49
0.0
 74
     0
 49
-0.025
 74
     0
  0
ENDTAB
  0
TABLE
  2
LAYER
  5
2
330
0
100
AcDbSymbolTable
 70
     2
  0
LAYER
  5
10
330
2
100
AcDbSymbolTableRecord
100
AcDbLayerTableRecord
  2
0
 70
     0
 62
     7
  6
Continuous
370
    -3
390
F
  0
LAYER
  5
73
330
2
100
AcDbSymbolTableRecord
100
AcDbLayerTableRecord
  2
FORMAT
 70
     0
 62
     7
  6
Continuous
370
    -3
390
F
  0
ENDTAB
  0
TABLE
  2
STYLE
  5
3
330
0
100
AcDbSymbolTable
 70
     7
  0
STYLE
  5
11
330
3
100
AcDbSymbolTableRecord
100
AcDbTextStyleTableRecord
  2
Standard
 70
     0
 40
0.0
 41
1.0
 50
0.0
 71
     0
 42
0.1111111111
  3
txt
  4

  0
STYLE
  5
12F
330
3
100
AcDbSymbolTableRecord
100
AcDbTextStyleTableRecord
  2
SLDTEXTSTYLE0
 70
     0
 40
0.0
 41
0.75
 50
0.0
 71
     0
 42
0.1111111111
  3
TXT
  4

  0
STYLE
  5
13B
330
3
100
AcDbSymbolTableRecord
100
AcDbTextStyleTableRecord
  2
SLDTEXTSTYLE1
 70
     0
 40
0.0
 41
0.6
 50
0.0
 71
     0
 42
0.1111111111
  3
TXT
  4

  0
STYLE
  5
140
330
3
100
AcDbSymbolTableRecord
100
AcDbTextStyleTableRecord
  2
SLDTEXTSTYLE2
 70
     0
 40
0.0
 41
0.6875
 50
0.0
 71
     0
 42
0.1111111111
  3
TXT
  4

  0
STYLE
  5
154
330
3
100
AcDbSymbolTableRecord
100
AcDbTextStyleTableRecord
  2
SLDTEXTSTYLE3
 70
     0
 40
0.0
 41
0.7
 50
0.0
 71
     0
 42
0.1111111111
  3
TXT
  4

  0
STYLE
  5
16A
330
3
100
AcDbSymbolTableRecord
100
AcDbTextStyleTableRecord
  2
SLDTEXTSTYLE4
 70
     0
 40
0.0
 41
0.7
 50
0.0
 71
     0
 42
0.1111111111
  3
TXT
  4
bigfont
  0
STYLE
  5
1D6
330
3
100
AcDbSymbolTableRecord
100
AcDbTextStyleTableRecord
  2
SLDTEXTSTYLE5
 70
     0
 40
0.0
 41
0.6818181818
 50
0.0
 71
     0
 42
0.1111111111
  3
TXT
  4

  0
ENDTAB
  0
TABLE
  2
VIEW
  5
6
330
0
100
AcDbSymbolTable
 70
     0
  0
ENDTAB
  0
TABLE
  2
UCS
  5
7
330
0
100
AcDbSymbolTable
 70
     0
  0
ENDTAB
  0
TABLE
  2
APPID
  5
9
330
0
100
AcDbSymbolTable
 70
     1
  0
APPID
  5
12
330
9
100
AcDbSymbolTableRecord
100
AcDbRegAppTableRecord
  2
ACAD
 70
     0
  0
ENDTAB
  0
TABLE
  2
DIMSTYLE
  5
A
330
0
100
AcDbSymbolTable
 70
     5
100
AcDbDimStyleTable
  0
DIMSTYLE
105
27
330
A
100
AcDbSymbolTableRecord
100
AcDbDimStyleTableRecord
  2
Standard
 70
     0
178
     0
340
11
  0
DIMSTYLE
105
173
102
{ACAD_REACTORS
330
172
102
}
330
A
100
AcDbSymbolTableRecord
100
AcDbDimStyleTableRecord
  2
SLDDIMSTYLE0
 70
     0
 41
0.125
 44
0.0
 45
0.000000001
 78
     4
 79
     1
140
0.0833333333
141
0.0
143
0.0394
144
25.4
147
0.0208333333
148
0.000000001
170
     1
173
     1
178
     0
271
     1
272
     1
276
     2
284
    12
340
12F
  0
DIMSTYLE
105
19A
102
{ACAD_REACTORS
330
199
102
}
330
A
100
AcDbSymbolTableRecord
100
AcDbDimStyleTableRecord
  2
SLDDIMSTYLE1
 70
     0
 41
0.125
 44
0.0
 45
0.000000001
 78
    12
 79
     3
140
0.0833333333
143
0.0393939394
144
25.4
147
0.0208333333
148
0.000000001
170
     1
172
     1
173
     1
178
     0
271
     1
272
     1
276
     2
284
    12
289
     0
340
12F
  0
DIMSTYLE
105
1AF
102
{ACAD_REACTORS
330
1AE
102
}
330
A
100
AcDbSymbolTableRecord
100
AcDbDimStyleTableRecord
  2
SLDDIMSTYLE2
 70
     0
 41
0.125
 44
0.0
 45
0.000000001
 78
     4
 79
     1
140
0.0833333333
141
0.0
143
0.03935
144
25.4
147
0.0208333333
148
0.000000001
170
     1
173
     1
178
     0
271
     1
272
     1
276
     2
284
    12
340
12F
  0
DIMSTYLE
105
1BF
102
{ACAD_REACTORS
330
1BE
102
}
330
A
100
AcDbSymbolTableRecord
100
AcDbDimStyleTableRecord
  2
SLDDIMSTYLE3
 70
     0
 41
0.125
 44
0.0
 45
0.000000001
 78
     4
 79
     1
140
0.0833333333
143
0.04
144
25.4
147
0.0208333333
148
0.000000001
170
     1
172
     1
173
     1
178
     0
271
     1
272
     1
276
     2
284
    12
289
     0
340
12F
  0
ENDTAB
  0
TABLE
  2
BLOCK_RECORD
  5
1
330
0
100
AcDbSymbolTable
 70
    13
  0
BLOCK_RECORD
  5
1F
330
1
100
AcDbSymbolTableRecord
100
AcDbBlockTableRecord
  2
*Model_Space
340
22
  0
BLOCK_RECORD
  5
1B
330
1
100
AcDbSymbolTableRecord
100
AcDbBlockTableRecord
  2
*Paper_Space
340
1E
  0
BLOCK_RECORD
  5
23
330
1
100
AcDbSymbolTableRecord
100
AcDbBlockTableRecord
  2
*Paper_Space0
340
26
  0
BLOCK_RECORD
  5
74
330
1
100
AcDbSymbolTableRecord
100
AcDbBlockTableRecord
  2
Third Angle Projection Block
340
0
102
{BLKREFS
331
12E
102
}
  0
BLOCK_RECORD
  5
81
330
1
100
AcDbSymbolTableRecord
100
AcDbBlockTableRecord
  2
THORLABS LOGO1
340
0
102
{BLKREFS
331
12D
102
}
  0
BLOCK_RECORD
  5
142
330
1
100
AcDbSymbolTableRecord
100
AcDbBlockTableRecord
  2
SW_NOTE_0
340
0
102
{BLKREFS
331
147
102
}
  0
BLOCK_RECORD
  5
148
330
1
100
AcDbSymbolTableRecord
100
AcDbBlockTableRecord
  2
SW_NOTE_1
340
0
102
{BLKREFS
331
14D
102
}
  0
BLOCK_RECORD
  5
14F
330
1
100
AcDbSymbolTableRecord
100
AcDbBlockTableRecord
  2
SW_NOTE_2
340
0
102
{BLKREFS
331
157
102
}
  0
BLOCK_RECORD
  5
159
330
1
100
AcDbSymbolTableRecord
100
AcDbBlockTableRecord
  2
SW_NOTE_3
340
0
102
{BLKREFS
331
15E
102
}
  0
BLOCK_RECORD
  5
15F
330
1
100
AcDbSymbolTableRecord
100
AcDbBlockTableRecord
  2
SW_NOTE_4
340
0
102
{BLKREFS
331
170
102
}
  0
BLOCK_RECORD
  5
174
330
1
100
AcDbSymbolTableRecord
100
AcDbBlockTableRecord
  2
_D
340
0
  0
BLOCK_RECORD
  5
19B
330
1
100
AcDbSymbolTableRecord
100
AcDbBlockTableRecord
  2
_D_1
340
0
  0
BLOCK_RECORD
  5
1B0
330
1
100
AcDbSymbolTableRecord
100
AcDbBlockTableRecord
  2
_D_2
340
0
  0
BLOCK_RECORD
  5
1C0
330
1
100
AcDbSymbolTableRecord
100
AcDbBlockTableRecord
  2
_D_3
340
0
  0
BLOCK_RECORD
  5
1D2
330
1
100
AcDbSymbolTableRecord
100
AcDbBlockTableRecord
  2
SW_NOTE_5
340
0
102
{BLKREFS
331
1D8
102
}
  0
ENDTAB
  0
ENDSEC
  0
SECTION
  2
BLOCKS
  0
BLOCK
  5
20
330
1F
100
AcDbEntity
  8
0
100
AcDbBlockBegin
  2
*Model_Space
 70
     0
 10
0.0
 20
0.0
 30
0.0
  3
*Model_Space
  1

  0
ENDBLK
  5
21
330
1F
100
AcDbEntity
  8
0
100
AcDbBlockEnd
  0
BLOCK
  5
1C
330
1B
100
AcDbEntity
 67
     1
  8
0
100
AcDbBlockBegin
  2
*Paper_Space
 70
     0
 10
0.0
 20
0.0
 30
0.0
  3
*Paper_Space
  1

  0
ENDBLK
  5
1D
330
1B
100
AcDbEntity
 67
     1
  8
0
100
AcDbBlockEnd
  0
BLOCK
  5
24
330
23
100
AcDbEntity
  8
0
100
AcDbBlockBegin
  2
*Paper_Space0
 70
     0
 10
0.0
 20
0.0
 30
0.0
  3
*Paper_Space0
  1

  0
ENDBLK
  5
25
330
23
100
AcDbEntity
  8
0
100
AcDbBlockEnd
  0
BLOCK
  5
75
330
74
100
AcDbEntity
  8
0
100
AcDbBlockBegin
  2
Third Angle Projection Block
 70
     0
 10
0.0
 20
0.0
 30
0.0
  3
Third Angle Projection Block
  1

  0
CIRCLE
  5
77
330
74
100
AcDbEntity
  8
0
  6
Continuous
 62
     7
370
    35
100
AcDbCircle
 10
3.9951432636
 20
0.7456853688
 30
0.0
 40
0.0696152422706639
  0
CIRCLE
  5
78
330
74
100
AcDbEntity
  8
0
  6
Continuous
 62
     7
370
    35
100
AcDbCircle
 10
3.9951432636
 20
0.7456853688
 30
0.0
 40
0.1535916633280245
  0
LINE
  5
79
330
74
100
AcDbEntity
  8
0
  6
CENTERX2
 62
     7
370
    18
100
AcDbLine
 10
4.3360937897
 20
0.7456853688
 30
0.0
 11
4.7028635231
 21
0.7456853688
 31
0.0
  0
LINE
  5
7A
330
74
100
AcDbEntity
  8
0
  6
Continuous
 62
     7
370
    35
100
AcDbLine
 10
4.3701432636
 20
0.815300611
 30
0.0
 11
4.3701432636
 21
0.6760701265
 31
0.0
  0
LINE
  5
7B
330
74
100
AcDbEntity
  8
0
  6
Continuous
 62
     7
370
    35
100
AcDbLine
 10
4.3701432636
 20
0.6760701265
 30
0.0
 11
4.6701432636
 21
0.5956853688
 31
0.0
  0
LINE
  5
7C
330
74
100
AcDbEntity
  8
0
  6
Continuous
 62
     7
370
    35
100
AcDbLine
 10
4.6701432636
 20
0.5956853688
 30
0.0
 11
4.6701432636
 21
0.8956853688
 31
0.0
  0
LINE
  5
7D
330
74
100
AcDbEntity
  8
0
  6
Continuous
 62
     7
370
    35
100
AcDbLine
 10
4.6701432636
 20
0.8956853688
 30
0.0
 11
4.3701432636
 21
0.815300611
 31
0.0
  0
LINE
  5
7E
330
74
100
AcDbEntity
  8
0
  6
CENTERX2
 62
     7
370
    18
100
AcDbLine
 10
3.8032513961
 20
0.7456853688
 30
0.0
 11
4.187035131
 21
0.7456853688
 31
0.0
  0
LINE
  5
7F
330
74
100
AcDbEntity
  8
0
  6
CENTERX2
 62
     7
370
    18
100
AcDbLine
 10
3.9951432636
 20
0.9375772362
 30
0.0
 11
3.9951432636
 21
0.5537935013
 31
0.0
  0
POINT
  5
80
330
74
100
AcDbEntity
  8
0
  6
Continuous
 62
     7
370
     0
100
AcDbPoint
 10
3.9951432636
 20
0.7456853688
 30
0.0
  0
ENDBLK
  5
76
330
74
100
AcDbEntity
  8
0
100
AcDbBlockEnd
  0
BLOCK
  5
82
330
81
100
AcDbEntity
  8
0
100
AcDbBlockBegin
  2
THORLABS LOGO1
 70
     0
 10
0.0
 20
0.0
 30
0.0
  3
THORLABS LOGO1
  1

  0
LINE
  5
84
330
81
100
AcDbEntity
  8
0
  6
Continuous
 62
     7
370
    18
100
AcDbLine
 10
5.0027566628
 20
1.4252803453
 30
0.0
 11
5.1019592021
 21
1.728862631
 31
0.0
  0
LINE
  5
85
330
81
100
AcDbEntity
  8
0
  6
Continuous
 62
     7
370
    18
100
AcDbLine
 10
5.1019592021
 20
1.728862631
 30
0.0
 11
5.1328565749
 21
1.728862631
 31
0.0
  0
LINE
  5
86
330
81
100
AcDbEntity
  8
0
  6
Continuous
 62
     7
370
    18
100
AcDbLine
 10
5.1328565749
 20
1.728862631
 30
0.0
 11
5.2287632137
 21
1.4252803453
 31
0.0
  0
LINE
  5
87
330
81
100
AcDbEntity
  8
0
  6
Continuous
 62
     7
370
    18
100
AcDbLine
 10
5.2287632137
 20
1.4252803453
 30
0.0
 11
5.0027566628
 21
1.4252803453
 31
0.0
  0
LINE
  5
88
330
81
100
AcDbEntity
  8
0
  6
Continuous
 62
     7
370
    18
100
AcDbLine
 10
5.0560200442
 20
1.4657534622
 30
0.0
 11
5.1727057766
 21
1.4657534622
 31
0.0
  0
LINE
  5
89
330
81
100
AcDbEntity
  8
0
  6
Continuous
 62
     7
370
    18
100
AcDbLine
 10
5.1727057766
 20
1.4657534622
 30
0.0
 11
5.1153462552
 21
1.6488997419
 31
0.0
  0
LINE
  5
8A
330
81
100
AcDbEntity
  8
0
  6
Continuous
 62
     7
370
    18
100
AcDbLine
 10
5.1153462552
 20
1.6488997419
 30
0.0
 11
5.0560200442
 21
1.4657534622
 31
0.0
  0
LINE
  5
8B
330
81
100
AcDbEntity
  8
0
  6
Continuous
 62
     7
370
    18
100
AcDbLine
 10
5.8491927678
 20
1.1691359706
 30
0.0
 11
5.2940573106
 21
1.1691359706
 31
0.0
  0
LINE
  5
8C
330
81
100
AcDbEntity
  8
0
  6
Continuous
 62
     7
370
    18
100
AcDbLine
 10
5.2940573106
 20
1.1691359706
 30
0.0
 11
5.2375115919
 21
1.2980829958
 31
0.0
  0
LINE
  5
8D
330
81
100
AcDbEntity
  8
0
  6
Continuous
 62
     7
370
    18
100
AcDbLine
 10
5.2375115919
 20
1.2980829958
 30
0.0
 11
4.9921772287
 21
1.2980829958
 31
0.0
  0
LINE
  5
8E
330
81
100
AcDbEntity
  8
0
  6
Continuous
 62
     7
370
    18
100
AcDbLine
 10
4.9921772287
 20
1.2980829958
 30
0.0
 11
4.9345193131
 21
1.1701803507
 31
0.0
  0
LINE
  5
8F
330
81
100
AcDbEntity
  8
0
  6
Continuous
 62
     7
370
    18
100
AcDbLine
 10
4.9345193131
 20
1.1701803507
 30
0.0
 11
4.2326145533
 21
1.1701803507
 31
0.0
  0
LINE
  5
90
330
81
100
AcDbEntity
  8
0
  6
Continuous
 62
     7
370
    18
100
AcDbLine
 10
4.2326145533
 20
1.1701803507
 30
0.0
 11
4.2326145533
 21
1.9287122094
 31
0.0
  0
LINE
  5
91
330
81
100
AcDbEntity
  8
0
  6
Continuous
 62
     7
370
    18
100
AcDbLine
 10
4.2326145533
 20
1.9287122094
 30
0.0
 11
4.4305042238
 21
1.9287122094
 31
0.0
  0
LINE
  5
92
330
81
100
AcDbEntity
  8
0
  6
Continuous
 62
     7
370
    18
100
AcDbLine
 10
4.4305042238
 20
1.9287122094
 30
0.0
 11
4.4305042238
 21
1.3417570697
 31
0.0
  0
LINE
  5
93
330
81
100
AcDbEntity
  8
0
  6
Continuous
 62
     7
370
    18
100
AcDbLine
 10
4.4305042238
 20
1.3417570697
 30
0.0
 11
4.7945045723
 21
1.3417570697
 31
0.0
  0
LINE
  5
94
330
81
100
AcDbEntity
  8
0
  6
Continuous
 62
     7
370
    18
100
AcDbLine
 10
4.7945045723
 20
1.3417570697
 30
0.0
 11
5.0153706034
 21
1.9287122094
 31
0.0
  0
LINE
  5
95
330
81
100
AcDbEntity
  8
0
  6
Continuous
 62
     7
370
    18
100
AcDbLine
 10
5.0153706034
 20
1.9287122094
 30
0.0
 11
5.2164205406
 21
1.9287122094
 31
0.0
  0
LINE
  5
96
330
81
100
AcDbEntity
  8
0
  6
Continuous
 62
     7
370
    18
100
AcDbLine
 10
5.2164205406
 20
1.9287122094
 30
0.0
 11
5.4843243631
 21
1.2215584227
 31
0.0
  0
LINE
  5
97
330
81
100
AcDbEntity
  8
0
  6
Continuous
 62
     7
370
    18
100
AcDbLine
 10
5.4843243631
 20
1.2215584227
 30
0.0
 11
5.4843243631
 21
1.9287122094
 31
0.0
  0
LINE
  5
98
330
81
100
AcDbEntity
  8
0
  6
Continuous
 62
     7
370
    18
100
AcDbLine
 10
5.4843243631
 20
1.9287122094
 30
0.0
 11
5.8396034603
 21
1.9287122094
 31
0.0
  0
LINE
  5
99
330
81
100
AcDbEntity
  8
0
  6
Continuous
 62
     7
370
    18
100
AcDbLine
 10
6.1439656401
 20
1.4265146126
 30
0.0
 11
6.3331069324
 21
1.4265146126
 31
0.0
  0
LINE
  5
9A
330
81
100
AcDbEntity
  8
0
  6
Continuous
 62
     7
370
    18
100
AcDbLine
 10
6.7713803334
 20
1.7009356377
 30
0.0
 11
6.5735177897
 21
1.7009356377
 31
0.0
  0
LINE
  5
9B
330
81
100
AcDbEntity
  8
0
  6
Continuous
 62
     7
370
    18
100
AcDbLine
 10
6.3611288693
 20
1.4617251393
 30
0.0
 11
6.1697496198
 21
1.4617251393
 31
0.0
  0
LINE
  5
9C
330
81
100
AcDbEntity
  8
0
  6
Continuous
 62
     7
370
    18
100
AcDbLine
 10
6.5822574058
 20
1.661764605
 30
0.0
 11
6.8137468534
 21
1.6601369997
 31
0.0
  0
LINE
  5
9D
330
81
100
AcDbEntity
  8
0
  6
Continuous
 62
     7
370
    18
100
AcDbLine
 10
5.8160384047
 20
1.9703585585
 30
0.0
 11
5.445043348
 21
1.9703585585
 31
0.0
  0
LINE
  5
9E
330
81
100
AcDbEntity
  8
0
  6
Continuous
 62
     7
370
    18
100
AcDbLine
 10
5.445043348
 20
1.9703585585
 30
0.0
 11
5.445043348
 21
1.4468596781
 31
0.0
  0
LINE
  5
9F
330
81
100
AcDbEntity
  8
0
  6
Continuous
 62
     7
370
    18
100
AcDbLine
 10
5.445043348
 20
1.4468596781
 30
0.0
 11
5.2510328034
 21
1.9703585585
 31
0.0
  0
LINE
  5
A0
330
81
100
AcDbEntity
  8
0
  6
Continuous
 62
     7
370
    18
100
AcDbLine
 10
5.2510328034
 20
1.9703585585
 30
0.0
 11
4.9914754811
 21
1.9703585585
 31
0.0
  0
LINE
  5
A1
330
81
100
AcDbEntity
  8
0
  6
Continuous
 62
     7
370
    18
100
AcDbLine
 10
4.9914754811
 20
1.9703585585
 30
0.0
 11
4.7654196175
 21
1.3715077401
 31
0.0
  0
LINE
  5
A2
330
81
100
AcDbEntity
  8
0
  6
Continuous
 62
     7
370
    18
100
AcDbLine
 10
4.7654196175
 20
1.3715077401
 30
0.0
 11
4.4777117365
 21
1.3697177642
 31
0.0
  0
LINE
  5
A3
330
81
100
AcDbEntity
  8
0
  6
Continuous
 62
     7
370
    18
100
AcDbLine
 10
4.4777117365
 20
1.3697177642
 30
0.0
 11
4.473974847
 21
1.9703585585
 31
0.0
  0
LINE
  5
A4
330
81
100
AcDbEntity
  8
0
  6
Continuous
 62
     7
370
    18
100
AcDbLine
 10
4.473974847
 20
1.9703585585
 30
0.0
 11
4.1883843809
 21
1.9703585585
 31
0.0
  0
LINE
  5
A5
330
81
100
AcDbEntity
  8
0
  6
Continuous
 62
     7
370
    18
100
AcDbLine
 10
4.1883843809
 20
1.9703585585
 30
0.0
 11
4.1878689726
 21
1.1298564308
 31
0.0
  0
LINE
  5
A6
330
81
100
AcDbEntity
  8
0
  6
Continuous
 62
     7
370
    18
100
AcDbLine
 10
4.1878689726
 20
1.1298564308
 30
0.0
 11
4.9634093061
 21
1.1323114021
 31
0.0
  0
LINE
  5
A7
330
81
100
AcDbEntity
  8
0
  6
Continuous
 62
     7
370
    18
100
AcDbLine
 10
4.9634093061
 20
1.1323114021
 30
0.0
 11
5.0133903503
 21
1.2561992876
 31
0.0
  0
LINE
  5
A8
330
81
100
AcDbEntity
  8
0
  6
Continuous
 62
     7
370
    18
100
AcDbLine
 10
5.0133903503
 20
1.2561992876
 30
0.0
 11
5.2171800897
 21
1.2561992876
 31
0.0
  0
LINE
  5
A9
330
81
100
AcDbEntity
  8
0
  6
Continuous
 62
     7
370
    18
100
AcDbLine
 10
5.2171800897
 20
1.2561992876
 30
0.0
 11
5.2651401908
 21
1.1323114021
 31
0.0
  0
LINE
  5
AA
330
81
100
AcDbEntity
  8
0
  6
Continuous
 62
     7
370
    18
100
AcDbLine
 10
5.2651401908
 20
1.1323114021
 30
0.0
 11
5.8927766994
 21
1.1323114021
 31
0.0
  0
LINE
  5
AB
330
81
100
AcDbEntity
  8
0
  6
Continuous
 62
     7
370
    18
100
AcDbLine
 10
1.888727374
 20
1.7820107237
 30
0.0
 11
1.6606795348
 21
1.7820107237
 31
0.0
  0
LINE
  5
AC
330
81
100
AcDbEntity
  8
0
  6
Continuous
 62
     7
370
    18
100
AcDbLine
 10
1.6606795348
 20
1.7820107237
 30
0.0
 11
1.6606795348
 21
1.1298564308
 31
0.0
  0
LINE
  5
AD
330
81
100
AcDbEntity
  8
0
  6
Continuous
 62
     7
370
    18
100
AcDbLine
 10
1.6606795348
 20
1.1298564308
 30
0.0
 11
1.4408443204
 21
1.1298564308
 31
0.0
  0
LINE
  5
AE
330
81
100
AcDbEntity
  8
0
  6
Continuous
 62
     7
370
    18
100
AcDbLine
 10
1.4408443204
 20
1.1298564308
 30
0.0
 11
1.4408443204
 21
1.7820107237
 31
0.0
  0
LINE
  5
AF
330
81
100
AcDbEntity
  8
0
  6
Continuous
 62
     7
370
    18
100
AcDbLine
 10
1.4408443204
 20
1.7820107237
 30
0.0
 11
1.1890944799
 21
1.7820107237
 31
0.0
  0
LINE
  5
B0
330
81
100
AcDbEntity
  8
0
  6
Continuous
 62
     7
370
    18
100
AcDbLine
 10
1.1890944799
 20
1.7820107237
 30
0.0
 11
1.1890944799
 21
1.9703585585
 31
0.0
  0
LINE
  5
B1
330
81
100
AcDbEntity
  8
0
  6
Continuous
 62
     7
370
    18
100
AcDbLine
 10
1.1890944799
 20
1.9703585585
 30
0.0
 11
2.1085422433
 21
1.9703585585
 31
0.0
  0
LINE
  5
B2
330
81
100
AcDbEntity
  8
0
  6
Continuous
 62
     7
370
    18
100
AcDbLine
 10
2.1085422433
 20
1.9703585585
 30
0.0
 11
2.1085422433
 21
1.6642873931
 31
0.0
  0
LINE
  5
B3
330
81
100
AcDbEntity
  8
0
  6
Continuous
 62
     7
370
    18
100
AcDbLine
 10
2.1085422433
 20
1.6642873931
 30
0.0
 11
2.398127124
 21
1.6642873931
 31
0.0
  0
LINE
  5
B4
330
81
100
AcDbEntity
  8
0
  6
Continuous
 62
     7
370
    18
100
AcDbLine
 10
2.398127124
 20
1.6642873931
 30
0.0
 11
2.398127124
 21
1.9703585585
 31
0.0
  0
LINE
  5
B5
330
81
100
AcDbEntity
  8
0
  6
Continuous
 62
     7
370
    18
100
AcDbLine
 10
2.398127124
 20
1.9703585585
 30
0.0
 11
2.6179691201
 21
1.9703585585
 31
0.0
  0
LINE
  5
B6
330
81
100
AcDbEntity
  8
0
  6
Continuous
 62
     7
370
    18
100
AcDbLine
 10
2.6179691201
 20
1.9703585585
 30
0.0
 11
2.6179691201
 21
1.1298564308
 31
0.0
  0
LINE
  5
B7
330
81
100
AcDbEntity
  8
0
  6
Continuous
 62
     7
370
    18
100
AcDbLine
 10
2.6179691201
 20
1.1298564308
 30
0.0
 11
2.398127124
 21
1.1298564308
 31
0.0
  0
LINE
  5
B8
330
81
100
AcDbEntity
  8
0
  6
Continuous
 62
     7
370
    18
100
AcDbLine
 10
2.398127124
 20
1.1298564308
 30
0.0
 11
2.398127124
 21
1.4759666851
 31
0.0
  0
LINE
  5
B9
330
81
100
AcDbEntity
  8
0
  6
Continuous
 62
     7
370
    18
100
AcDbLine
 10
2.398127124
 20
1.4759666851
 30
0.0
 11
2.1085422433
 21
1.4759666851
 31
0.0
  0
LINE
  5
BA
330
81
100
AcDbEntity
  8
0
  6
Continuous
 62
     7
370
    18
100
AcDbLine
 10
2.1085422433
 20
1.4759666851
 30
0.0
 11
2.1085422433
 21
1.1298564308
 31
0.0
  0
LINE
  5
BB
330
81
100
AcDbEntity
  8
0
  6
Continuous
 62
     7
370
    18
100
AcDbLine
 10
2.1085422433
 20
1.1298564308
 30
0.0
 11
1.888727374
 21
1.1298564308
 31
0.0
  0
LINE
  5
BC
330
81
100
AcDbEntity
  8
0
  6
Continuous
 62
     7
370
    18
100
AcDbLine
 10
1.888727374
 20
1.1298564308
 30
0.0
 11
1.888727374
 21
1.7820107237
 31
0.0
  0
LINE
  5
BD
330
81
100
AcDbEntity
  8
0
  6
Continuous
 62
     7
370
    18
100
AcDbLine
 10
3.6696191191
 20
1.6063107381
 30
0.0
 11
3.8539996661
 21
1.6063107381
 31
0.0
  0
LINE
  5
BE
330
81
100
AcDbEntity
  8
0
  6
Continuous
 62
     7
370
    18
100
AcDbLine
 10
3.8445459923
 20
1.7958182415
 30
0.0
 11
3.6696191191
 21
1.7958182415
 31
0.0
  0
LINE
  5
BF
330
81
100
AcDbEntity
  8
0
  6
Continuous
 62
     7
370
    18
100
AcDbLine
 10
3.6696191191
 20
1.7958182415
 30
0.0
 11
3.6696191191
 21
1.6063107381
 31
0.0
  0
LINE
  5
C0
330
81
100
AcDbEntity
  8
0
  6
Continuous
 62
     7
370
    18
100
AcDbLine
 10
3.4497771227
 20
1.9703585585
 30
0.0
 11
3.8800074411
 21
1.9703585585
 31
0.0
  0
LINE
  5
C1
330
81
100
AcDbEntity
  8
0
  6
Continuous
 62
     7
370
    18
100
AcDbLine
 10
4.0430934862
 20
1.5230587301
 30
0.0
 11
4.0430934862
 21
1.5206987025
 31
0.0
  0
LINE
  5
C2
330
81
100
AcDbEntity
  8
0
  6
Continuous
 62
     7
370
    18
100
AcDbLine
 10
4.1876713682
 20
1.1298564308
 30
0.0
 11
3.9839978526
 21
1.1298564308
 31
0.0
  0
LINE
  5
C3
330
81
100
AcDbEntity
  8
0
  6
Continuous
 62
     7
370
    18
100
AcDbLine
 10
3.8362994587
 20
1.4359411596
 30
0.0
 11
3.6696191188
 21
1.4359411596
 31
0.0
  0
LINE
  5
C4
330
81
100
AcDbEntity
  8
0
  6
Continuous
 62
     7
370
    18
100
AcDbLine
 10
3.6696191188
 20
1.4359411596
 30
0.0
 11
3.6696191188
 21
1.1298564308
 31
0.0
  0
LINE
  5
C5
330
81
100
AcDbEntity
  8
0
  6
Continuous
 62
     7
370
    18
100
AcDbLine
 10
3.6696191188
 20
1.1298564308
 30
0.0
 11
3.4497771227
 21
1.1298564308
 31
0.0
  0
LINE
  5
C6
330
81
100
AcDbEntity
  8
0
  6
Continuous
 62
     7
370
    18
100
AcDbLine
 10
3.4497771227
 20
1.1298564308
 30
0.0
 11
3.4497771227
 21
1.9703585585
 31
0.0
  0
LINE
  5
C7
330
81
100
AcDbEntity
  8
0
  6
Continuous
 62
     7
370
    18
100
AcDbLine
 10
5.6646494603
 20
1.7856524905
 30
0.0
 11
5.8407563473
 21
1.7856524905
 31
0.0
  0
LINE
  5
C8
330
81
100
AcDbEntity
  8
0
  6
Continuous
 62
     7
370
    18
100
AcDbLine
 10
5.8407563473
 20
1.601936549
 30
0.0
 11
5.6646494603
 21
1.601936549
 31
0.0
  0
LINE
  5
C9
330
81
100
AcDbEntity
  8
0
  6
Continuous
 62
     7
370
    18
100
AcDbLine
 10
5.6646494603
 20
1.601936549
 30
0.0
 11
5.6646494603
 21
1.7856524905
 31
0.0
  0
LINE
  5
CA
330
81
100
AcDbEntity
  8
0
  6
Continuous
 62
     7
370
    18
100
AcDbLine
 10
5.7031965778
 20
1.7453489157
 30
0.0
 11
5.7031965778
 21
1.6393104343
 31
0.0
  0
LINE
  5
CB
330
81
100
AcDbEntity
  8
0
  6
Continuous
 62
     7
370
    18
100
AcDbLine
 10
5.7031965778
 20
1.6393104343
 30
0.0
 11
5.8261350269
 21
1.6393104343
 31
0.0
  0
LINE
  5
CC
330
81
100
AcDbEntity
  8
0
  6
Continuous
 62
     7
370
    18
100
AcDbLine
 10
5.8261350269
 20
1.7453489157
 30
0.0
 11
5.7031965778
 21
1.7453489157
 31
0.0
  0
LINE
  5
CD
330
81
100
AcDbEntity
  8
0
  6
Continuous
 62
     7
370
    18
100
AcDbLine
 10
5.6646494603
 20
1.5140797745
 30
0.0
 11
5.8602604834
 21
1.5140797745
 31
0.0
  0
LINE
  5
CE
330
81
100
AcDbEntity
  8
0
  6
Continuous
 62
     7
370
    18
100
AcDbLine
 10
5.8602604834
 20
1.3023554595
 30
0.0
 11
5.6646494603
 21
1.3023554595
 31
0.0
  0
LINE
  5
CF
330
81
100
AcDbEntity
  8
0
  6
Continuous
 62
     7
370
    18
100
AcDbLine
 10
5.6646494603
 20
1.3023554595
 30
0.0
 11
5.6646494603
 21
1.5140797745
 31
0.0
  0
LINE
  5
D0
330
81
100
AcDbEntity
  8
0
  6
Continuous
 62
     7
370
    18
100
AcDbLine
 10
5.7021793245
 20
1.4746510376
 30
0.0
 11
5.7021793245
 21
1.338420479
 31
0.0
  0
LINE
  5
D1
330
81
100
AcDbEntity
  8
0
  6
Continuous
 62
     7
370
    18
100
AcDbLine
 10
5.7021793245
 20
1.338420479
 30
0.0
 11
5.849057134
 21
1.338420479
 31
0.0
  0
LINE
  5
D2
330
81
100
AcDbEntity
  8
0
  6
Continuous
 62
     7
370
    18
100
AcDbLine
 10
5.849057134
 20
1.4746510376
 30
0.0
 11
5.7021793245
 21
1.4746510376
 31
0.0
  0
LINE
  5
D3
330
81
100
AcDbEntity
  8
0
  6
Continuous
 62
     7
370
    18
100
AcDbLine
 10
4.1876713682
 20
1.169893795
 30
0.0
 11
4.1876713682
 21
1.1298564308
 31
0.0
  0
SPLINE
  5
D4
330
81
100
AcDbEntity
  8
0
  6
Continuous
 62
     8
370
     0
100
AcDbSpline
210
0.0
220
0.0
230
1.0
 70
     8
 71
     3
 72
     8
 73
     4
 74
     0
 42
0.000000001
 43
0.00000001
 40
0.0
 40
0.0
 40
0.0
 40
0.0
 40
1.0
 40
1.0
 40
1.0
 40
1.0
 10
6.53206810961936
 20
1.672201623557404
 30
0.0
 10
6.42666710695353
 20
1.698718025592109
 30
0.0
 10
6.398197578630848
 20
1.703322792083558
 30
0.0
 10
6.398197578630848
 20
1.725763399329808
 30
0.0
  0
SPLINE
  5
D5
330
81
100
AcDbEntity
  8
0
  6
Continuous
 62
     8
370
     0
100
AcDbSpline
210
0.0
220
0.0
230
1.0
 70
     8
 71
     3
 72
     8
 73
     4
 74
     0
 42
0.000000001
 43
0.00000001
 40
1.0
 40
1.0
 40
1.0
 40
1.0
 40
2.0
 40
2.0
 40
2.0
 40
2.0
 10
6.398197578630848
 20
1.725763399329808
 30
0.0
 10
6.398197578630848
 20
1.735746044801697
 30
0.0
 10
6.444163863283336
 20
1.742378536154624
 30
0.0
 10
6.466136534023091
 20
1.741747839124131
 30
0.0
  0
SPLINE
  5
D6
330
81
100
AcDbEntity
  8
0
  6
Continuous
 62
     8
370
     0
100
AcDbSpline
210
0.0
220
0.0
230
1.0
 70
     8
 71
     3
 72
     8
 73
     4
 74
     0
 42
0.000000001
 43
0.00000001
 40
2.0
 40
2.0
 40
2.0
 40
2.0
 40
3.0
 40
3.0
 40
3.0
 40
3.0
 10
6.466136534023091
 20
1.741747839124131
 30
0.0
 10
6.511465339956586
 20
1.740405064801146
 30
0.0
 10
6.525652632298431
 20
1.731161623375749
 30
0.0
 10
6.53007429320038
 20
1.703790728590053
 30
0.0
  0
SPLINE
  5
D7
330
81
100
AcDbEntity
  8
0
  6
Continuous
 62
     8
370
     0
100
AcDbSpline
210
0.0
220
0.0
230
1.0
 70
     8
 71
     3
 72
     8
 73
     4
 74
     0
 42
0.000000001
 43
0.00000001
 40
3.0
 40
3.0
 40
3.0
 40
3.0
 40
4.0
 40
4.0
 40
4.0
 40
4.0
 10
6.53007429320038
 20
1.703790728590053
 30
0.0
 10
6.531851095587361
 20
1.692994280498173
 30
0.0
 10
6.532040982865359
 20
1.686293972260247
 30
0.0
 10
6.53206810961936
 20
1.672201623557404
 30
0.0
  0
SPLINE
  5
D8
330
81
100
AcDbEntity
  8
0
  6
Continuous
 62
     8
370
     0
100
AcDbSpline
210
0.0
220
0.0
230
1.0
 70
     8
 71
     3
 72
     8
 73
     4
 74
     0
 42
0.000000001
 43
0.00000001
 40
0.0
 40
0.0
 40
0.0
 40
0.0
 40
1.0
 40
1.0
 40
1.0
 40
1.0
 10
6.464970083601106
 20
1.146580074682249
 30
0.0
 10
6.310659543473821
 20
1.146580074682249
 30
0.0
 10
6.172313098075359
 20
1.216228015576475
 30
0.0
 10
6.1417005561867
 20
1.364258712152829
 30
0.0
  0
SPLINE
  5
D9
330
81
100
AcDbEntity
  8
0
  6
Continuous
 62
     8
370
     0
100
AcDbSpline
210
0.0
220
0.0
230
1.0
 70
     8
 71
     3
 72
     8
 73
     4
 74
     0
 42
0.000000001
 43
0.00000001
 40
1.0
 40
1.0
 40
1.0
 40
1.0
 40
2.0
 40
2.0
 40
2.0
 40
2.0
 10
6.1417005561867
 20
1.364258712152829
 30
0.0
 10
6.121531814587923
 20
1.219727366842436
 30
0.0
 10
5.997969450119299
 20
1.169135970632998
 30
0.0
 10
5.849192767807954
 20
1.169135970632998
 30
0.0
  0
SPLINE
  5
DA
330
81
100
AcDbEntity
  8
0
  6
Continuous
 62
     8
370
     0
100
AcDbSpline
210
0.0
220
0.0
230
1.0
 70
     8
 71
     3
 72
     8
 73
     4
 74
     0
 42
0.000000001
 43
0.00000001
 40
16.0
 40
16.0
 40
16.0
 40
16.0
 40
17.0
 40
17.0
 40
17.0
 40
17.0
 10
5.839603460269061
 20
1.928712209378552
 30
0.0
 10
5.970422231432604
 20
1.930828096190528
 30
0.0
 10
6.114058393861008
 20
1.896939998756405
 30
0.0
 10
6.114058393861008
 20
1.739062290478161
 30
0.0
  0
SPLINE
  5
DB
330
81
100
AcDbEntity
  8
0
  6
Continuous
 62
     8
370
     0
100
AcDbSpline
210
0.0
220
0.0
230
1.0
 70
     8
 71
     3
 72
     8
 73
     4
 74
     0
 42
0.000000001
 43
0.00000001
 40
17.0
 40
17.0
 40
17.0
 40
17.0
 40
18.0
 40
18.0
 40
18.0
 40
18.0
 10
6.114058393861008
 20
1.739062290478161
 30
0.0
 10
6.114058393861008
 20
1.671245405478915
 30
0.0
 10
6.073639530401458
 20
1.616178094859527
 30
0.0
 10
6.014055615241119
 20
1.586508207672357
 30
0.0
  0
SPLINE
  5
DC
330
81
100
AcDbEntity
  8
0
  6
Continuous
 62
     8
370
     0
100
AcDbSpline
210
0.0
220
0.0
230
1.0
 70
     8
 71
     3
 72
     8
 73
     4
 74
     0
 42
0.000000001
 43
0.00000001
 40
18.0
 40
18.0
 40
18.0
 40
18.0
 40
19.0
 40
19.0
 40
19.0
 40
19.0
 10
6.014055615241119
 20
1.586508207672357
 30
0.0
 10
6.088844076018288
 20
1.564935656554097
 30
0.0
 10
6.137129698137751
 20
1.50351390381028
 30
0.0
 10
6.143965640145676
 20
1.426514612582136
 30
0.0
  0
SPLINE
  5
DD
330
81
100
AcDbEntity
  8
0
  6
Continuous
 62
     8
370
     0
100
AcDbSpline
210
0.0
220
0.0
230
1.0
 70
     8
 71
     3
 72
     8
 73
     4
 74
     0
 42
0.000000001
 43
0.00000001
 40
20.0
 40
20.0
 40
20.0
 40
20.0
 40
21.0
 40
21.0
 40
21.0
 40
21.0
 10
6.33310693240857
 20
1.426514612582136
 30
0.0
 10
6.337338706032524
 20
1.337511732709126
 30
0.0
 10
6.392663720814909
 20
1.308906570616444
 30
0.0
 10
6.476688841328976
 20
1.308906570616444
 30
0.0
  0
SPLINE
  5
DE
330
81
100
AcDbEntity
  8
0
  6
Continuous
 62
     8
370
     0
100
AcDbSpline
210
0.0
220
0.0
230
1.0
 70
     8
 71
     3
 72
     8
 73
     4
 74
     0
 42
0.000000001
 43
0.00000001
 40
21.0
 40
21.0
 40
21.0
 40
21.0
 40
22.0
 40
22.0
 40
22.0
 40
22.0
 10
6.476688841328976
 20
1.308906570616444
 30
0.0
 10
6.536259193112312
 20
1.308906570616444
 30
0.0
 10
6.597972558461627
 20
1.330119692244208
 30
0.0
 10
6.597972558461627
 20
1.386272073023584
 30
0.0
  0
SPLINE
  5
DF
330
81
100
AcDbEntity
  8
0
  6
Continuous
 62
     8
370
     0
100
AcDbSpline
210
0.0
220
0.0
230
1.0
 70
     8
 71
     3
 72
     8
 73
     4
 74
     0
 42
0.000000001
 43
0.00000001
 40
22.0
 40
22.0
 40
22.0
 40
22.0
 40
23.0
 40
23.0
 40
23.0
 40
23.0
 10
6.597972558461627
 20
1.386272073023584
 30
0.0
 10
6.597972558461627
 20
1.453003887862842
 30
0.0
 10
6.489492669216833
 20
1.4657127721117
 30
0.0
 10
6.379887019681052
 20
1.496433821016359
 30
0.0
  0
SPLINE
  5
E0
330
81
100
AcDbEntity
  8
0
  6
Continuous
 62
     8
370
     0
100
AcDbSpline
210
0.0
220
0.0
230
1.0
 70
     8
 71
     3
 72
     8
 73
     4
 74
     0
 42
0.000000001
 43
0.00000001
 40
23.0
 40
23.0
 40
23.0
 40
23.0
 40
24.0
 40
24.0
 40
24.0
 40
24.0
 10
6.379887019681052
 20
1.496433821016359
 30
0.0
 10
6.271380003682258
 20
1.527148088232517
 30
0.0
 10
6.157569707276522
 20
1.575894865169975
 30
0.0
 10
6.157569707276522
 20
1.714702465386432
 30
0.0
  0
SPLINE
  5
E1
330
81
100
AcDbEntity
  8
0
  6
Continuous
 62
     8
370
     0
100
AcDbSpline
210
0.0
220
0.0
230
1.0
 70
     8
 71
     3
 72
     8
 73
     4
 74
     0
 42
0.000000001
 43
0.00000001
 40
24.0
 40
24.0
 40
24.0
 40
24.0
 40
25.0
 40
25.0
 40
25.0
 40
25.0
 10
6.157569707276522
 20
1.714702465386432
 30
0.0
 10
6.157569707276522
 20
1.879972214129594
 30
0.0
 10
6.324602695029665
 20
1.944588142156874
 30
0.0
 10
6.467113097167081
 20
1.944588142156874
 30
0.0
  0
SPLINE
  5
E2
330
81
100
AcDbEntity
  8
0
  6
Continuous
 62
     8
370
     0
100
AcDbSpline
210
0.0
220
0.0
230
1.0
 70
     8
 71
     3
 72
     8
 73
     4
 74
     0
 42
0.000000001
 43
0.00000001
 40
25.0
 40
25.0
 40
25.0
 40
25.0
 40
26.0
 40
26.0
 40
26.0
 40
26.0
 10
6.467113097167081
 20
1.944588142156874
 30
0.0
 10
6.6181819901914
 20
1.944588142156874
 30
0.0
 10
6.77029526324471
 20
1.871501885193187
 30
0.0
 10
6.771380333404697
 20
1.700935637731585
 30
0.0
  0
SPLINE
  5
E3
330
81
100
AcDbEntity
  8
0
  6
Continuous
 62
     8
370
     0
100
AcDbSpline
210
0.0
220
0.0
230
1.0
 70
     8
 71
     3
 72
     8
 73
     4
 74
     0
 42
0.000000001
 43
0.00000001
 40
27.0
 40
27.0
 40
27.0
 40
27.0
 40
28.0
 40
28.0
 40
28.0
 40
28.0
 10
6.573517789730897
 20
1.700935637731585
 30
0.0
 10
6.576718746702861
 20
1.769776557694319
 30
0.0
 10
6.511804424381583
 20
1.792034059351072
 30
0.0
 10
6.451149002438259
 20
1.792034059351072
 30
0.0
  0
SPLINE
  5
E4
330
81
100
AcDbEntity
  8
0
  6
Continuous
 62
     8
370
     0
100
AcDbSpline
210
0.0
220
0.0
230
1.0
 70
     8
 71
     3
 72
     8
 73
     4
 74
     0
 42
0.000000001
 43
0.00000001
 40
28.0
 40
28.0
 40
28.0
 40
28.0
 40
29.0
 40
29.0
 40
29.0
 40
29.0
 10
6.451149002438259
 20
1.792034059351072
 30
0.0
 10
6.408641378920731
 20
1.792034059351072
 30
0.0
 10
6.355459377704324
 20
1.777202506601737
 30
0.0
 10
6.355459377704324
 20
1.72741813132379
 30
0.0
  0
SPLINE
  5
E5
330
81
100
AcDbEntity
  8
0
  6
Continuous
 62
     8
370
     0
100
AcDbSpline
210
0.0
220
0.0
230
1.0
 70
     8
 71
     3
 72
     8
 73
     4
 74
     0
 42
0.000000001
 43
0.00000001
 40
29.0
 40
29.0
 40
29.0
 40
29.0
 40
30.0
 40
30.0
 40
30.0
 40
30.0
 10
6.355459377704324
 20
1.72741813132379
 30
0.0
 10
6.355459377704324
 20
1.669136300355438
 30
0.0
 10
6.464970083601106
 20
1.658529739541556
 30
0.0
 10
6.575633676542875
 20
1.627808690636898
 30
0.0
  0
SPLINE
  5
E6
330
81
100
AcDbEntity
  8
0
  6
Continuous
 62
     8
370
     0
100
AcDbSpline
210
0.0
220
0.0
230
1.0
 70
     8
 71
     3
 72
     8
 73
     4
 74
     0
 42
0.000000001
 43
0.00000001
 40
30.0
 40
30.0
 40
30.0
 40
30.0
 40
31.0
 40
31.0
 40
31.0
 40
31.0
 10
6.575633676542875
 20
1.627808690636898
 30
0.0
 10
6.685225762701656
 20
1.597094423420739
 30
0.0
 10
6.795835102135427
 20
1.546231759671305
 30
0.0
 10
6.795835102135427
 20
1.409573954709325
 30
0.0
  0
SPLINE
  5
E7
330
81
100
AcDbEntity
  8
0
  6
Continuous
 62
     8
370
     0
100
AcDbSpline
210
0.0
220
0.0
230
1.0
 70
     8
 71
     3
 72
     8
 73
     4
 74
     0
 42
0.000000001
 43
0.00000001
 40
31.0
 40
31.0
 40
31.0
 40
31.0
 40
32.0
 40
32.0
 40
32.0
 40
32.0
 10
6.795835102135427
 20
1.409573954709325
 30
0.0
 10
6.795835102135427
 20
1.217814930685457
 30
0.0
 10
6.632016634731248
 20
1.146580074682249
 30
0.0
 10
6.464970083601106
 20
1.146580074682249
 30
0.0
  0
SPLINE
  5
E8
330
81
100
AcDbEntity
  8
0
  6
Continuous
 62
     8
370
     0
100
AcDbSpline
210
0.0
220
0.0
230
1.0
 70
     8
 71
     3
 72
     8
 73
     4
 74
     0
 42
0.000000001
 43
0.00000001
 40
0.0
 40
0.0
 40
0.0
 40
0.0
 40
1.0
 40
1.0
 40
1.0
 40
1.0
 10
6.323924526179674
 20
1.472182502940628
 30
0.0
 10
6.336145128856538
 20
1.468805222067666
 30
0.0
 10
6.348623435696399
 20
1.465305870801705
 30
0.0
 10
6.361128869290259
 20
1.461725139273745
 30
0.0
  0
SPLINE
  5
E9
330
81
100
AcDbEntity
  8
0
  6
Continuous
 62
     8
370
     0
100
AcDbSpline
210
0.0
220
0.0
230
1.0
 70
     8
 71
     3
 72
     8
 73
     4
 74
     0
 42
0.000000001
 43
0.00000001
 40
3.00211844657731
 40
3.00211844657731
 40
3.00211844657731
 40
3.00211844657731
 40
4.0
 40
4.0
 40
4.0
 40
4.0
 10
2.618907161005894
 20
1.540397219651859
 30
0.0
 10
2.619039712447584
 20
1.78244579638247
 30
0.0
 10
2.768105767566222
 20
1.975436844263769
 30
0.0
 10
3.032483353120667
 20
1.975982452153303
 30
0.0
  0
SPLINE
  5
EA
330
81
100
AcDbEntity
  8
0
  6
Continuous
 62
     8
370
     0
100
AcDbSpline
210
0.0
220
0.0
230
1.0
 70
     8
 71
     3
 72
     8
 73
     4
 74
     0
 42
0.000000001
 43
0.00000001
 40
3.0
 40
3.0
 40
3.0
 40
3.0
 40
4.0
 40
4.0
 40
4.0
 40
4.0
 10
6.366310079304203
 20
1.460219604426761
 30
0.0
 10
6.459436225785168
 20
1.43335055459006
 30
0.0
 10
6.553118470723124
 20
1.401395238378416
 30
0.0
 10
6.548235655003179
 20
1.381891102252633
 30
0.0
  0
SPLINE
  5
EB
330
81
100
AcDbEntity
  8
0
  6
Continuous
 62
     8
370
     0
100
AcDbSpline
210
0.0
220
0.0
230
1.0
 70
     8
 71
     3
 72
     8
 73
     4
 74
     0
 42
0.000000001
 43
0.00000001
 40
4.0
 40
4.0
 40
4.0
 40
4.0
 40
5.0
 40
5.0
 40
5.0
 40
5.0
 10
6.548235655003179
 20
1.381891102252633
 30
0.0
 10
6.538971868512282
 20
1.344741012650046
 30
0.0
 10
6.511858677889584
 20
1.33444640950716
 30
0.0
 10
6.441261300605367
 20
1.353719968223946
 30
0.0
  0
SPLINE
  5
EC
330
81
100
AcDbEntity
  8
0
  6
Continuous
 62
     8
370
     0
100
AcDbSpline
210
0.0
220
0.0
230
1.0
 70
     8
 71
     3
 72
     8
 73
     4
 74
     0
 42
0.000000001
 43
0.00000001
 40
5.0
 40
5.0
 40
5.0
 40
5.0
 40
6.0
 40
6.0
 40
6.0
 40
6.0
 10
6.441261300605367
 20
1.353719968223946
 30
0.0
 10
6.367259515694191
 20
1.373970090084721
 30
0.0
 10
6.366323642681204
 20
1.414755164723267
 30
0.0
 10
6.366310079304203
 20
1.460219604426761
 30
0.0
  0
SPLINE
  5
ED
330
81
100
AcDbEntity
  8
0
  6
Continuous
 62
     8
370
     0
100
AcDbSpline
210
0.0
220
0.0
230
1.0
 70
     8
 71
     3
 72
     8
 73
     4
 74
     0
 42
0.000000001
 43
0.00000001
 40
8.0
 40
8.0
 40
8.0
 40
8.0
 40
9.0
 40
9.0
 40
9.0
 40
9.0
 10
6.169749619822387
 20
1.461725139273745
 30
0.0
 10
6.169749619822387
 20
1.519206730999106
 30
0.0
 10
6.12010766000294
 20
1.568855472507053
 30
0.0
 10
6.088749132379288
 20
1.589756636463821
 30
0.0
  0
SPLINE
  5
EE
330
81
100
AcDbEntity
  8
0
  6
Continuous
 62
     8
370
     0
100
AcDbSpline
210
0.0
220
0.0
230
1.0
 70
     8
 71
     3
 72
     8
 73
     4
 74
     0
 42
0.000000001
 43
0.00000001
 40
9.0
 40
9.0
 40
9.0
 40
9.0
 40
10.0
 40
10.0
 40
10.0
 40
10.0
 10
6.088749132379288
 20
1.589756636463821
 30
0.0
 10
6.104401269437113
 20
1.608040068659618
 30
0.0
 10
6.127933728531853
 20
1.626343845920914
 30
0.0
 10
6.135800487191765
 20
1.657695591856065
 30
0.0
  0
SPLINE
  5
EF
330
81
100
AcDbEntity
  8
0
  6
Continuous
 62
     8
370
     0
100
AcDbSpline
210
0.0
220
0.0
230
1.0
 70
     8
 71
     3
 72
     8
 73
     4
 74
     0
 42
0.000000001
 43
0.00000001
 40
10.0
 40
10.0
 40
10.0
 40
10.0
 40
11.0
 40
11.0
 40
11.0
 40
11.0
 10
6.135800487191765
 20
1.657695591856065
 30
0.0
 10
6.135800487191765
 20
1.568855472507053
 30
0.0
 10
6.219418706395836
 20
1.500902953737809
 30
0.0
 10
6.323924526179674
 20
1.472182502940628
 30
0.0
  0
SPLINE
  5
F0
330
81
100
AcDbEntity
  8
0
  6
Continuous
 62
     8
370
     0
100
AcDbSpline
210
0.0
220
0.0
230
1.0
 70
     8
 71
     3
 72
     8
 73
     4
 74
     0
 42
0.000000001
 43
0.00000001
 40
0.0
 40
0.0
 40
0.0
 40
0.0
 40
1.0
 40
1.0
 40
1.0
 40
1.0
 10
6.588021841015449
 20
1.660259070109037
 30
0.0
 10
6.58601446121947
 20
1.660788041812031
 30
0.0
 10
6.58427834896349
 20
1.661255978318526
 30
0.0
 10
6.582257405790513
 20
1.66176460495602
 30
0.0
  0
SPLINE
  5
F1
330
81
100
AcDbEntity
  8
0
  6
Continuous
 62
     8
370
     0
100
AcDbSpline
210
0.0
220
0.0
230
1.0
 70
     8
 71
     3
 72
     8
 73
     4
 74
     0
 42
0.000000001
 43
0.00000001
 40
2.0
 40
2.0
 40
2.0
 40
2.0
 40
3.0
 40
3.0
 40
3.0
 40
3.0
 10
6.813746853383429
 20
1.660136999716037
 30
0.0
 10
6.813746853383429
 20
1.782356589861678
 30
0.0
 10
6.789753239470694
 20
1.978347387509499
 30
0.0
 10
6.464055867573316
 20
1.978347387509499
 30
0.0
  0
SPLINE
  5
F2
330
81
100
AcDbEntity
  8
0
  6
Continuous
 62
     8
370
     0
100
AcDbSpline
210
0.0
220
0.0
230
1.0
 70
     8
 71
     3
 72
     8
 73
     4
 74
     0
 42
0.000000001
 43
0.00000001
 40
3.0
 40
3.0
 40
3.0
 40
3.0
 40
4.0
 40
4.0
 40
4.0
 40
4.0
 10
6.464055867573316
 20
1.978347387509499
 30
0.0
 10
6.274209279706429
 20
1.978347387509499
 30
0.0
 10
6.180160823589475
 20
1.885858719747527
 30
0.0
 10
6.142373255267896
 20
1.818496207877776
 30
0.0
  0
SPLINE
  5
F3
330
81
100
AcDbEntity
  8
0
  6
Continuous
 62
     8
370
     0
100
AcDbSpline
210
0.0
220
0.0
230
1.0
 70
     8
 71
     3
 72
     8
 73
     4
 74
     0
 42
0.000000001
 43
0.00000001
 40
4.0
 40
4.0
 40
4.0
 40
4.0
 40
5.0
 40
5.0
 40
5.0
 40
5.0
 10
6.142373255267896
 20
1.818496207877776
 30
0.0
 10
6.106986404675287
 20
1.885858719747527
 30
0.0
 10
6.08608524071852
 20
1.970358558456588
 30
0.0
 10
5.816038404651523
 20
1.970358558456588
 30
0.0
  0
SPLINE
  5
F4
330
81
100
AcDbEntity
  8
0
  6
Continuous
 62
     8
370
     0
100
AcDbSpline
210
0.0
220
0.0
230
1.0
 70
     8
 71
     3
 72
     8
 73
     4
 74
     0
 42
0.000000001
 43
0.00000001
 40
19.0
 40
19.0
 40
19.0
 40
19.0
 40
20.0
 40
20.0
 40
20.0
 40
20.0
 10
5.892776699380181
 20
1.132311402078408
 30
0.0
 10
6.004742376513936
 20
1.134291655120386
 30
0.0
 10
6.109207506166772
 20
1.187310895812797
 30
0.0
 10
6.140986498477418
 20
1.265490200839927
 30
0.0
  0
SPLINE
  5
F5
330
81
100
AcDbEntity
  8
0
  6
Continuous
 62
     8
370
     0
100
AcDbSpline
210
0.0
220
0.0
230
1.0
 70
     8
 71
     3
 72
     8
 73
     4
 74
     0
 42
0.000000001
 43
0.00000001
 40
20.0
 40
20.0
 40
20.0
 40
20.0
 40
21.0
 40
21.0
 40
21.0
 40
21.0
 10
6.140986498477418
 20
1.265490200839927
 30
0.0
 10
6.171124322171085
 20
1.187310895812797
 30
0.0
 10
6.276294747427915
 20
1.10880606973767
 30
0.0
 10
6.480111613604649
 20
1.10880606973767
 30
0.0
  0
SPLINE
  5
F6
330
81
100
AcDbEntity
  8
0
  6
Continuous
 62
     8
370
     0
100
AcDbSpline
210
0.0
220
0.0
230
1.0
 70
     8
 71
     3
 72
     8
 73
     4
 74
     0
 42
0.000000001
 43
0.00000001
 40
21.0
 40
21.0
 40
21.0
 40
21.0
 40
22.0
 40
22.0
 40
22.0
 40
22.0
 10
6.480111613604649
 20
1.10880606973767
 30
0.0
 10
6.683928479781382
 20
1.10880606973767
 30
0.0
 10
6.835295767099698
 20
1.232531194730293
 30
0.0
 10
6.835295767099698
 20
1.395590113022481
 30
0.0
  0
SPLINE
  5
F7
330
81
100
AcDbEntity
  8
0
  6
Continuous
 62
     8
370
     0
100
AcDbSpline
210
0.0
220
0.0
230
1.0
 70
     8
 71
     3
 72
     8
 73
     4
 74
     0
 42
0.000000001
 43
0.00000001
 40
22.0
 40
22.0
 40
22.0
 40
22.0
 40
23.0
 40
23.0
 40
23.0
 40
23.0
 10
6.835295767099698
 20
1.395590113022481
 30
0.0
 10
6.835295767099698
 20
1.561429523599636
 30
0.0
 10
6.739904536659761
 20
1.620294579778982
 30
0.0
 10
6.588021841015449
 20
1.660259070109037
 30
0.0
  0
SPLINE
  5
F8
330
81
100
AcDbEntity
  8
0
  6
Continuous
 62
     8
370
     0
100
AcDbSpline
210
0.0
220
0.0
230
1.0
 70
     8
 71
     3
 72
     8
 73
     4
 74
     0
 42
0.000000001
 43
0.00000001
 40
0.0
 40
0.0
 40
0.0
 40
0.0
 40
1.0
 40
1.0
 40
1.0
 40
1.0
 10
3.032764315477773
 20
1.301406023135528
 30
0.0
 10
3.174616893830695
 20
1.301406023135528
 30
0.0
 10
3.228951782092092
 20
1.42620265491114
 30
0.0
 10
3.228951782092092
 20
1.550965378244252
 30
0.0
  0
SPLINE
  5
F9
330
81
100
AcDbEntity
  8
0
  6
Continuous
 62
     8
370
     0
100
AcDbSpline
210
0.0
220
0.0
230
1.0
 70
     8
 71
     3
 72
     8
 73
     4
 74
     0
 42
0.000000001
 43
0.00000001
 40
1.0
 40
1.0
 40
1.0
 40
1.0
 40
2.0
 40
2.0
 40
2.0
 40
2.0
 10
3.228951782092092
 20
1.550965378244252
 30
0.0
 10
3.228951782092092
 20
1.675741664954365
 30
0.0
 10
3.174616893830695
 20
1.800517951664477
 30
0.0
 10
3.032764315477773
 20
1.800517951664477
 30
0.0
  0
SPLINE
  5
FA
330
81
100
AcDbEntity
  8
0
  6
Continuous
 62
     8
370
     0
100
AcDbSpline
210
0.0
220
0.0
230
1.0
 70
     8
 71
     3
 72
     8
 73
     4
 74
     0
 42
0.000000001
 43
0.00000001
 40
2.0
 40
2.0
 40
2.0
 40
2.0
 40
3.0
 40
3.0
 40
3.0
 40
3.0
 10
3.032764315477773
 20
1.800517951664477
 30
0.0
 10
2.890925300501851
 20
1.800517951664477
 30
0.0
 10
2.836570067174956
 20
1.675741664954365
 30
0.0
 10
2.836570067174955
 20
1.550965378244252
 30
0.0
  0
SPLINE
  5
FB
330
81
100
AcDbEntity
  8
0
  6
Continuous
 62
     8
370
     0
100
AcDbSpline
210
0.0
220
0.0
230
1.0
 70
     8
 71
     3
 72
     8
 73
     4
 74
     0
 42
0.000000001
 43
0.00000001
 40
3.0
 40
3.0
 40
3.0
 40
3.0
 40
4.0
 40
4.0
 40
4.0
 40
4.0
 10
2.836570067174955
 20
1.550965378244252
 30
0.0
 10
2.836570067174956
 20
1.42620265491114
 30
0.0
 10
2.890925300501851
 20
1.301406023135528
 30
0.0
 10
3.032764315477773
 20
1.301406023135528
 30
0.0
  0
SPLINE
  5
FC
330
81
100
AcDbEntity
  8
0
  6
Continuous
 62
     8
370
     0
100
AcDbSpline
210
0.0
220
0.0
230
1.0
 70
     8
 71
     3
 72
    11
 73
     7
 74
     0
 42
0.000000001
 43
0.00000001
 40
2.0
 40
2.0
 40
2.0
 40
2.0
 40
3.0
 40
3.0
 40
3.0
 40
3.00211844657731
 40
3.00211844657731
 40
3.00211844657731
 40
3.00211844657731
 10
3.034117935009433
 20
1.100203506378222
 30
0.0
 10
2.768194808885813
 20
1.100689084870614
 30
0.0
 10
2.61845739025513
 20
1.295190389455294
 30
0.0
 10
2.618902313994104
 20
1.538849269351653
 30
0.0
 10
2.618903256593752
 20
1.539365476405043
 30
0.0
 10
2.618904872373764
 20
1.53988146029703
 30
0.0
 10
2.618907161005894
 20
1.540397219651859
 30
0.0
  0
SPLINE
  5
FD
330
81
100
AcDbEntity
  8
0
  6
Continuous
 62
     8
370
     0
100
AcDbSpline
210
0.0
220
0.0
230
1.0
 70
     8
 71
     3
 72
    11
 73
     7
 74
     0
 42
0.000000001
 43
0.00000001
 40
0.0
 40
0.0
 40
0.0
 40
0.0
 40
1.0
 40
1.0
 40
1.0
 40
2.0
 40
2.0
 40
2.0
 40
2.0
 10
3.032483353120667
 20
1.975982452153303
 30
0.0
 10
3.298426804429495
 20
1.976478817532996
 30
0.0
 10
3.448874590455874
 20
1.782538502862197
 30
0.0
 10
3.44932938847851
 20
1.538866077795837
 30
0.0
 10
3.449784161186067
 20
1.295207216082856
 30
0.0
 10
3.300061386318252
 20
1.100699871757913
 30
0.0
 10
3.034117935009433
 20
1.100203506378222
 30
0.0
  0
SPLINE
  5
FE
330
81
100
AcDbEntity
  8
0
  6
Continuous
 62
     8
370
     0
100
AcDbSpline
210
0.0
220
0.0
230
1.0
 70
     8
 71
     3
 72
     8
 73
     4
 74
     0
 42
0.000000001
 43
0.00000001
 40
1.0
 40
1.0
 40
1.0
 40
1.0
 40
2.0
 40
2.0
 40
2.0
 40
2.0
 10
3.853999666064641
 20
1.606310738092137
 30
0.0
 10
3.920188945823905
 20
1.606310738092137
 30
0.0
 10
3.955630049924511
 20
1.641602645045744
 30
0.0
 10
3.955630049924511
 20
1.705167411355538
 30
0.0
  0
SPLINE
  5
FF
330
81
100
AcDbEntity
  8
0
  6
Continuous
 62
     8
370
     0
100
AcDbSpline
210
0.0
220
0.0
230
1.0
 70
     8
 71
     3
 72
     8
 73
     4
 74
     0
 42
0.000000001
 43
0.00000001
 40
2.0
 40
2.0
 40
2.0
 40
2.0
 40
3.0
 40
3.0
 40
3.0
 40
3.0
 10
3.955630049924511
 20
1.705167411355538
 30
0.0
 10
3.955630049924511
 20
1.767545382177844
 30
0.0
 10
3.906021998547562
 20
1.795818241534029
 30
0.0
 10
3.844545992295747
 20
1.795818241534029
 30
0.0
  0
SPLINE
  5
100
330
81
100
AcDbEntity
  8
0
  6
Continuous
 62
     8
370
     0
100
AcDbSpline
210
0.0
220
0.0
230
1.0
 70
     8
 71
     3
 72
     8
 73
     4
 74
     0
 42
0.000000001
 43
0.00000001
 40
1.0
 40
1.0
 40
1.0
 40
1.0
 40
2.0
 40
2.0
 40
2.0
 40
2.0
 10
3.880007441125517
 20
1.970358558456588
 30
0.0
 10
4.028906193829861
 20
1.970358558456588
 30
0.0
 10
4.175485609067231
 20
1.903253750749834
 30
0.0
 10
4.175485609067231
 20
1.733765791759719
 30
0.0
  0
SPLINE
  5
101
330
81
100
AcDbEntity
  8
0
  6
Continuous
 62
     8
370
     0
100
AcDbSpline
210
0.0
220
0.0
230
1.0
 70
     8
 71
     3
 72
     8
 73
     4
 74
     0
 42
0.000000001
 43
0.00000001
 40
2.0
 40
2.0
 40
2.0
 40
2.0
 40
3.0
 40
3.0
 40
3.0
 40
3.0
 10
4.175485609067231
 20
1.733765791759719
 30
0.0
 10
4.175485609067231
 20
1.643108179892727
 30
0.0
 10
4.131730154865718
 20
1.557190968287183
 30
0.0
 10
4.043093486171702
 20
1.523058730067062
 30
0.0
  0
SPLINE
  5
102
330
81
100
AcDbEntity
  8
0
  6
Continuous
 62
     8
370
     0
100
AcDbSpline
210
0.0
220
0.0
230
1.0
 70
     8
 71
     3
 72
     8
 73
     4
 74
     0
 42
0.000000001
 43
0.00000001
 40
4.0
 40
4.0
 40
4.0
 40
4.0
 40
5.0
 40
5.0
 40
5.0
 40
5.0
 10
4.043093486171702
 20
1.520698702469088
 30
0.0
 10
4.132937295418703
 20
1.499499144218324
 30
0.0
 10
4.158951852504415
 20
1.399428548713437
 30
0.0
 10
4.166045498675334
 20
1.319391061037327
 30
0.0
  0
SPLINE
  5
103
330
81
100
AcDbEntity
  8
0
  6
Continuous
 62
     8
370
     0
100
AcDbSpline
210
0.0
220
0.0
230
1.0
 70
     8
 71
     3
 72
     8
 73
     4
 74
     0
 42
0.000000001
 43
0.00000001
 40
5.0
 40
5.0
 40
5.0
 40
5.0
 40
5.74044267676188
 40
5.74044267676188
 40
5.74044267676188
 40
5.74044267676188
 10
4.166045498675334
 20
1.319391061037327
 30
0.0
 10
4.168535794277692
 20
1.293311000813384
 30
0.0
 10
4.173109208796841
 20
1.218861526889058
 30
0.0
 10
4.187671368160243
 20
1.169893794958518
 30
0.0
  0
SPLINE
  5
104
330
81
100
AcDbEntity
  8
0
  6
Continuous
 62
     8
370
     0
100
AcDbSpline
210
0.0
220
0.0
230
1.0
 70
     8
 71
     3
 72
     8
 73
     4
 74
     0
 42
0.000000001
 43
0.00000001
 40
7.0
 40
7.0
 40
7.0
 40
7.0
 40
8.0
 40
8.0
 40
8.0
 40
8.0
 10
3.983997852583361
 20
1.129856430841435
 30
0.0
 10
3.965117631799571
 20
1.15813607188612
 30
0.0
 10
3.961564027025609
 20
1.240520023783204
 30
0.0
 10
3.959190436050636
 20
1.264052482877943
 30
0.0
  0
SPLINE
  5
105
330
81
100
AcDbEntity
  8
0
  6
Continuous
 62
     8
370
     0
100
AcDbSpline
210
0.0
220
0.0
230
1.0
 70
     8
 71
     3
 72
     8
 73
     4
 74
     0
 42
0.000000001
 43
0.00000001
 40
8.0
 40
8.0
 40
8.0
 40
8.0
 40
9.0
 40
9.0
 40
9.0
 40
9.0
 10
3.959190436050636
 20
1.264052482877943
 30
0.0
 10
3.953283585367202
 20
1.348837152504
 30
0.0
 10
3.939109856402359
 20
1.435941159597031
 30
0.0
 10
3.836299458743503
 20
1.435941159597031
 30
0.0
  0
SPLINE
  5
106
330
81
100
AcDbEntity
  8
0
  6
Continuous
 62
     8
370
     0
100
AcDbSpline
210
0.0
220
0.0
230
1.0
 70
     8
 71
     3
 72
     8
 73
     4
 74
     0
 42
0.000000001
 43
0.00000001
 40
1.0
 40
1.0
 40
1.0
 40
1.0
 40
2.0
 40
2.0
 40
2.0
 40
2.0
 10
5.840756347314047
 20
1.785652490472643
 30
0.0
 10
5.888512997730517
 20
1.785652490472643
 30
0.0
 10
5.933733296648012
 20
1.762825326981896
 30
0.0
 10
5.933733296648012
 20
1.693116350891172
 30
0.0
  0
SPLINE
  5
107
330
81
100
AcDbEntity
  8
0
  6
Continuous
 62
     8
370
     0
100
AcDbSpline
210
0.0
220
0.0
230
1.0
 70
     8
 71
     3
 72
     8
 73
     4
 74
     0
 42
0.000000001
 43
0.00000001
 40
2.0
 40
2.0
 40
2.0
 40
2.0
 40
3.0
 40
3.0
 40
3.0
 40
3.0
 10
5.933733296648012
 20
1.693116350891172
 30
0.0
 10
5.933733296648012
 20
1.624750149123432
 30
0.0
 10
5.879940943466611
 20
1.601936549009686
 30
0.0
 10
5.840756347314047
 20
1.601936549009686
 30
0.0
  0
SPLINE
  5
108
330
81
100
AcDbEntity
  8
0
  6
Continuous
 62
     8
370
     0
100
AcDbSpline
210
0.0
220
0.0
230
1.0
 70
     8
 71
     3
 72
     8
 73
     4
 74
     0
 42
0.000000001
 43
0.00000001
 40
2.0
 40
2.0
 40
2.0
 40
2.0
 40
3.0
 40
3.0
 40
3.0
 40
3.0
 10
5.82613502690821
 20
1.63931043433277
 30
0.0
 10
5.853478794939905
 20
1.63931043433277
 30
0.0
 10
5.891008659098489
 20
1.652480473399623
 30
0.0
 10
5.891008659098489
 20
1.691943118780685
 30
0.0
  0
SPLINE
  5
109
330
81
100
AcDbEntity
  8
0
  6
Continuous
 62
     8
370
     0
100
AcDbSpline
210
0.0
220
0.0
230
1.0
 70
     8
 71
     3
 72
     8
 73
     4
 74
     0
 42
0.000000001
 43
0.00000001
 40
3.0
 40
3.0
 40
3.0
 40
3.0
 40
4.0
 40
4.0
 40
4.0
 40
4.0
 10
5.891008659098489
 20
1.691943118780685
 30
0.0
 10
5.891008659098489
 20
1.732178876650737
 30
0.0
 10
5.85943311744284
 20
1.745348915717591
 30
0.0
 10
5.82613502690821
 20
1.745348915717591
 30
0.0
  0
SPLINE
  5
10A
330
81
100
AcDbEntity
  8
0
  6
Continuous
 62
     8
370
     0
100
AcDbSpline
210
0.0
220
0.0
230
1.0
 70
     8
 71
     3
 72
     8
 73
     4
 74
     0
 42
0.000000001
 43
0.00000001
 40
1.0
 40
1.0
 40
1.0
 40
1.0
 40
2.0
 40
2.0
 40
2.0
 40
2.0
 10
5.860260483439831
 20
1.514079774493162
 30
0.0
 10
5.913279724132241
 20
1.514079774493162
 30
0.0
 10
5.96349134578568
 20
1.487787168178955
 30
0.0
 10
5.96349134578568
 20
1.407458067897348
 30
0.0
  0
SPLINE
  5
10B
330
81
100
AcDbEntity
  8
0
  6
Continuous
 62
     8
370
     0
100
AcDbSpline
210
0.0
220
0.0
230
1.0
 70
     8
 71
     3
 72
     8
 73
     4
 74
     0
 42
0.000000001
 43
0.00000001
 40
2.0
 40
2.0
 40
2.0
 40
2.0
 40
3.0
 40
3.0
 40
3.0
 40
3.0
 10
5.96349134578568
 20
1.407458067897348
 30
0.0
 10
5.96349134578568
 20
1.328641284151225
 30
0.0
 10
5.903771796855347
 20
1.302355459525517
 30
0.0
 10
5.860260483439831
 20
1.302355459525517
 30
0.0
  0
SPLINE
  5
10C
330
81
100
AcDbEntity
  8
0
  6
Continuous
 62
     8
370
     0
100
AcDbSpline
210
0.0
220
0.0
230
1.0
 70
     8
 71
     3
 72
     8
 73
     4
 74
     0
 42
0.000000001
 43
0.00000001
 40
2.0
 40
2.0
 40
2.0
 40
2.0
 40
3.0
 40
3.0
 40
3.0
 40
3.0
 10
5.849057134037955
 20
1.338420478968116
 30
0.0
 10
5.881731309230591
 20
1.338420478968116
 30
0.0
 10
5.926571833592093
 20
1.355320446709928
 30
0.0
 10
5.926571833592093
 20
1.406033913312364
 30
0.0
  0
SPLINE
  5
10D
330
81
100
AcDbEntity
  8
0
  6
Continuous
 62
     8
370
     0
100
AcDbSpline
210
0.0
220
0.0
230
1.0
 70
     8
 71
     3
 72
     8
 73
     4
 74
     0
 42
0.000000001
 43
0.00000001
 40
3.0
 40
3.0
 40
3.0
 40
3.0
 40
4.0
 40
4.0
 40
4.0
 40
4.0
 10
5.926571833592093
 20
1.406033913312364
 30
0.0
 10
5.926571833592093
 20
1.457723943058789
 30
0.0
 10
5.888865645532511
 20
1.474651037554601
 30
0.0
 10
5.849057134037955
 20
1.474651037554601
 30
0.0
  0
HATCH
  5
10E
330
81
100
AcDbEntity
  8
0
  6
Continuous
 62
     7
100
AcDbHatch
 10
0.0
 20
0.0
 30
0.0
210
0.0
220
0.0
230
1.0
  2
SOLID
 70
     1
 71
     0
 91
        2
 92
        0
 93
        3
 72
     4
 94
        3
 73
     1
 74
     0
 95
       11
 96
        7
 40
0.0
 40
0.0
 40
0.0
 40
0.0
 40
1.0
 40
1.0
 40
1.0
 40
2.0
 40
2.0
 40
2.0
 40
2.0
 10
3.034117935009431
 20
1.100203506378222
 42
1.0
 10
3.300061386318251
 20
1.100699871757914
 42
1.0
 10
3.449784161186065
 20
1.295207216082855
 42
1.0
 10
3.449329388478511
 20
1.538866077795837
 42
1.0
 10
3.448874590455874
 20
1.782538502862197
 42
1.0
 10
3.298426804429493
 20
1.976478817532996
 42
1.0
 10
3.032483353120669
 20
1.975982452153303
 42
1.0
 72
     4
 94
        3
 73
     1
 74
     0
 95
        8
 96
        4
 40
3.00211844657731
 40
3.00211844657731
 40
3.00211844657731
 40
3.00211844657731
 40
4.0
 40
4.0
 40
4.0
 40
4.0
 10
3.032483353120669
 20
1.975982452153303
 42
1.0
 10
2.768105767566224
 20
1.975436844263769
 42
1.0
 10
2.619039712447582
 20
1.78244579638247
 42
1.0
 10
2.618907161005896
 20
1.540397219651859
 42
1.0
 72
     4
 94
        3
 73
     1
 74
     0
 95
       11
 96
        7
 40
2.0
 40
2.0
 40
2.0
 40
2.0
 40
2.00211844657731
 40
2.00211844657731
 40
2.00211844657731
 40
3.00211844657731
 40
3.00211844657731
 40
3.00211844657731
 40
3.00211844657731
 10
2.618907161005896
 20
1.540397219651859
 42
1.0
 10
2.618904872373764
 20
1.539881460297031
 42
1.0
 10
2.618903256593752
 20
1.539365476405043
 42
1.0
 10
2.618902313994106
 20
1.538849269351653
 42
1.0
 10
2.61845739025513
 20
1.295190389455295
 42
1.0
 10
2.768194808885812
 20
1.100689084870614
 42
1.0
 10
3.034117935009431
 20
1.100203506378222
 42
1.0
 97
        0
 92
        0
 93
        4
 72
     4
 94
        3
 73
     1
 74
     0
 95
        8
 96
        4
 40
3.0
 40
3.0
 40
3.0
 40
3.0
 40
4.0
 40
4.0
 40
4.0
 40
4.0
 10
3.032764315477776
 20
1.301406023135528
 42
1.0
 10
2.890925300501853
 20
1.301406023135528
 42
1.0
 10
2.836570067174955
 20
1.42620265491114
 42
1.0
 10
2.836570067174955
 20
1.550965378244252
 42
1.0
 72
     4
 94
        3
 73
     1
 74
     0
 95
        8
 96
        4
 40
2.0
 40
2.0
 40
2.0
 40
2.0
 40
3.0
 40
3.0
 40
3.0
 40
3.0
 10
2.836570067174955
 20
1.550965378244252
 42
1.0
 10
2.836570067174955
 20
1.675741664954365
 42
1.0
 10
2.890925300501853
 20
1.800517951664477
 42
1.0
 10
3.032764315477776
 20
1.800517951664477
 42
1.0
 72
     4
 94
        3
 73
     1
 74
     0
 95
        8
 96
        4
 40
1.0
 40
1.0
 40
1.0
 40
1.0
 40
2.0
 40
2.0
 40
2.0
 40
2.0
 10
3.032764315477776
 20
1.800517951664477
 42
1.0
 10
3.174616893830695
 20
1.800517951664477
 42
1.0
 10
3.228951782092092
 20
1.675741664954365
 42
1.0
 10
3.228951782092092
 20
1.550965378244252
 42
1.0
 72
     4
 94
        3
 73
     1
 74
     0
 95
        8
 96
        4
 40
0.0
 40
0.0
 40
0.0
 40
0.0
 40
1.0
 40
1.0
 40
1.0
 40
1.0
 10
3.228951782092092
 20
1.550965378244252
 42
1.0
 10
3.228951782092092
 20
1.42620265491114
 42
1.0
 10
3.174616893830695
 20
1.301406023135528
 42
1.0
 10
3.032764315477776
 20
1.301406023135528
 42
1.0
 97
        0
 75
     0
 76
     1
 98
        1
 10
0.0
 20
0.0
  0
HATCH
  5
10F
330
81
100
AcDbEntity
  8
0
  6
Continuous
 62
     7
100
AcDbHatch
 10
0.0
 20
0.0
 30
0.0
210
0.0
220
0.0
230
1.0
  2
SOLID
 70
     1
 71
     0
 91
        1
 92
        0
 93
       18
 72
     1
 10
2.398127123966332
 20
1.664287393077992
 11
2.398127123966332
 21
1.970358558456588
 72
     1
 10
2.398127123966332
 20
1.970358558456588
 11
2.617969120068386
 21
1.970358558456588
 72
     1
 10
2.617969120068386
 20
1.970358558456588
 11
2.617969120068386
 21
1.129856430841435
 72
     1
 10
2.617969120068386
 20
1.129856430841435
 11
2.398127123966332
 21
1.129856430841435
 72
     1
 10
2.398127123966332
 20
1.129856430841435
 11
2.398127123966332
 21
1.475966685123586
 72
     1
 10
2.398127123966332
 20
1.475966685123586
 11
2.108542243331052
 21
1.475966685123586
 72
     1
 10
2.108542243331052
 20
1.475966685123586
 11
2.108542243331052
 21
1.129856430841435
 72
     1
 10
2.108542243331052
 20
1.129856430841435
 11
1.888727373982996
 21
1.129856430841435
 72
     1
 10
1.888727373982996
 20
1.129856430841435
 11
1.888727373982996
 21
1.782010723748182
 72
     1
 10
1.888727373982996
 20
1.782010723748182
 11
1.660679534796032
 21
1.782010723748182
 72
     1
 10
1.660679534796032
 20
1.782010723748182
 11
1.660679534796032
 21
1.129856430841435
 72
     1
 10
1.660679534796032
 20
1.129856430841435
 11
1.440844320382477
 21
1.129856430841435
 72
     1
 10
1.440844320382477
 20
1.129856430841435
 11
1.440844320382477
 21
1.782010723748182
 72
     1
 10
1.440844320382477
 20
1.782010723748182
 11
1.189094479888277
 21
1.782010723748182
 72
     1
 10
1.189094479888277
 20
1.782010723748182
 11
1.189094479888277
 21
1.970358558456588
 72
     1
 10
1.189094479888277
 20
1.970358558456588
 11
2.108542243331052
 21
1.970358558456588
 72
     1
 10
2.108542243331052
 20
1.970358558456588
 11
2.108542243331052
 21
1.664287393077992
 72
     1
 10
2.108542243331052
 20
1.664287393077992
 11
2.398127123966332
 21
1.664287393077992
 97
        0
 75
     0
 76
     1
 98
        1
 10
0.0
 20
0.0
  0
HATCH
  5
110
330
81
100
AcDbEntity
  8
0
  6
Continuous
 62
     7
100
AcDbHatch
 10
0.0
 20
0.0
 30
0.0
210
0.0
220
0.0
230
1.0
  2
SOLID
 70
     1
 71
     0
 91
        2
 92
        0
 93
       14
 72
     1
 10
3.449777122690302
 20
1.129856430841435
 11
3.449777122690302
 21
1.970358558456588
 72
     1
 10
3.449777122690302
 20
1.970358558456588
 11
3.880007441125517
 21
1.970358558456588
 72
     4
 94
        3
 73
     1
 74
     0
 95
        8
 96
        4
 40
1.0
 40
1.0
 40
1.0
 40
1.0
 40
2.0
 40
2.0
 40
2.0
 40
2.0
 10
3.880007441125517
 20
1.970358558456588
 42
1.0
 10
4.028906193829861
 20
1.970358558456588
 42
1.0
 10
4.175485609067231
 20
1.903253750749834
 42
1.0
 10
4.175485609067231
 20
1.733765791759719
 42
1.0
 72
     4
 94
        3
 73
     1
 74
     0
 95
        8
 96
        4
 40
2.0
 40
2.0
 40
2.0
 40
2.0
 40
3.0
 40
3.0
 40
3.0
 40
3.0
 10
4.175485609067231
 20
1.733765791759719
 42
1.0
 10
4.175485609067231
 20
1.643108179892727
 42
1.0
 10
4.131730154865718
 20
1.557190968287183
 42
1.0
 10
4.043093486171702
 20
1.523058730067062
 42
1.0
 72
     1
 10
4.043093486171702
 20
1.523058730067062
 11
4.043093486171702
 21
1.520698702469088
 72
     4
 94
        3
 73
     1
 74
     0
 95
        8
 96
        4
 40
4.0
 40
4.0
 40
4.0
 40
4.0
 40
5.0
 40
5.0
 40
5.0
 40
5.0
 10
4.043093486171702
 20
1.520698702469088
 42
1.0
 10
4.132937295418703
 20
1.499499144218324
 42
1.0
 10
4.158951852504415
 20
1.399428548713437
 42
1.0
 10
4.166045498675334
 20
1.319391061037327
 42
1.0
 72
     4
 94
        3
 73
     1
 74
     0
 95
        8
 96
        4
 40
5.0
 40
5.0
 40
5.0
 40
5.0
 40
5.74044267676188
 40
5.74044267676188
 40
5.74044267676188
 40
5.74044267676188
 10
4.166045498675334
 20
1.319391061037327
 42
1.0
 10
4.168535794277692
 20
1.293311000813384
 42
1.0
 10
4.173109208796841
 20
1.218861526889058
 42
1.0
 10
4.187671368160243
 20
1.169893794958518
 42
1.0
 72
     1
 10
4.187671368160243
 20
1.169893794958518
 11
4.187671368160243
 21
1.129856430841435
 72
     1
 10
4.187671368160243
 20
1.129856430841435
 11
3.983997852583361
 21
1.129856430841435
 72
     4
 94
        3
 73
     1
 74
     0
 95
        8
 96
        4
 40
7.0
 40
7.0
 40
7.0
 40
7.0
 40
8.0
 40
8.0
 40
8.0
 40
8.0
 10
3.983997852583361
 20
1.129856430841435
 42
1.0
 10
3.965117631799571
 20
1.15813607188612
 42
1.0
 10
3.961564027025609
 20
1.240520023783204
 42
1.0
 10
3.959190436050636
 20
1.264052482877943
 42
1.0
 72
     4
 94
        3
 73
     1
 74
     0
 95
        8
 96
        4
 40
8.0
 40
8.0
 40
8.0
 40
8.0
 40
9.0
 40
9.0
 40
9.0
 40
9.0
 10
3.959190436050636
 20
1.264052482877943
 42
1.0
 10
3.953283585367202
 20
1.348837152504
 42
1.0
 10
3.939109856402359
 20
1.435941159597031
 42
1.0
 10
3.836299458743503
 20
1.435941159597031
 42
1.0
 72
     1
 10
3.836299458743503
 20
1.435941159597031
 11
3.669619118792356
 21
1.435941159597031
 72
     1
 10
3.669619118792356
 20
1.435941159597031
 11
3.669619118792356
 21
1.129856430841435
 72
     1
 10
3.669619118792356
 20
1.129856430841435
 11
3.449777122690302
 21
1.129856430841435
 97
        0
 92
        0
 93
        5
 72
     1
 10
3.844545992295747
 20
1.795818241534029
 11
3.669619119128692
 21
1.795818241534029
 72
     1
 10
3.669619119128692
 20
1.795818241534029
 11
3.669619119128692
 21
1.606310738092137
 72
     1
 10
3.669619119128692
 20
1.606310738092137
 11
3.853999666064641
 21
1.606310738092137
 72
     4
 94
        3
 73
     1
 74
     0
 95
        8
 96
        4
 40
1.0
 40
1.0
 40
1.0
 40
1.0
 40
2.0
 40
2.0
 40
2.0
 40
2.0
 10
3.853999666064641
 20
1.606310738092137
 42
1.0
 10
3.920188945823905
 20
1.606310738092137
 42
1.0
 10
3.955630049924511
 20
1.641602645045744
 42
1.0
 10
3.955630049924511
 20
1.705167411355538
 42
1.0
 72
     4
 94
        3
 73
     1
 74
     0
 95
        8
 96
        4
 40
2.0
 40
2.0
 40
2.0
 40
2.0
 40
3.0
 40
3.0
 40
3.0
 40
3.0
 10
3.955630049924511
 20
1.705167411355538
 42
1.0
 10
3.955630049924511
 20
1.767545382177844
 42
1.0
 10
3.906021998547562
 20
1.795818241534029
 42
1.0
 10
3.844545992295747
 20
1.795818241534029
 42
1.0
 97
        0
 75
     0
 76
     1
 98
        1
 10
0.0
 20
0.0
  0
HATCH
  5
111
330
81
100
AcDbEntity
  8
0
  6
Continuous
 62
     7
100
AcDbHatch
 10
0.0
 20
0.0
 30
0.0
210
0.0
220
0.0
230
1.0
  2
SOLID
 70
     1
 71
     0
 91
        5
 92
        0
 93
       23
 72
     4
 94
        3
 73
     1
 74
     0
 95
        8
 96
        4
 40
4.0
 40
4.0
 40
4.0
 40
4.0
 40
5.0
 40
5.0
 40
5.0
 40
5.0
 10
6.142373255267896
 20
1.818496207877776
 42
1.0
 10
6.106986404675287
 20
1.885858719747527
 42
1.0
 10
6.08608524071852
 20
1.970358558456588
 42
1.0
 10
5.816038404651523
 20
1.970358558456588
 42
1.0
 72
     1
 10
5.816038404651523
 20
1.970358558456588
 11
5.445043348028588
 21
1.970358558456588
 72
     1
 10
5.445043348028588
 20
1.970358558456588
 11
5.445043348028588
 21
1.446859678081909
 72
     1
 10
5.445043348028588
 20
1.446859678081909
 11
5.251032803422746
 21
1.970358558456588
 72
     1
 10
5.251032803422746
 20
1.970358558456588
 11
4.9914754810861
 21
1.970358558456588
 72
     1
 10
4.9914754810861
 20
1.970358558456588
 11
4.76541961746511
 21
1.371507740129275
 72
     1
 10
4.76541961746511
 20
1.371507740129275
 11
4.477711736478974
 21
1.369717764235982
 72
     1
 10
4.477711736478974
 20
1.369717764235982
 11
4.473974847039246
 21
1.970358558456588
 72
     1
 10
4.473974847039246
 20
1.970358558456588
 11
4.188384380930422
 21
1.970358558456588
 72
     1
 10
4.188384380930422
 20
1.970358558456588
 11
4.187868972604427
 21
1.129856430841435
 72
     1
 10
4.187868972604427
 20
1.129856430841435
 11
4.963409306078804
 21
1.132311402078408
 72
     1
 10
4.963409306078804
 20
1.132311402078408
 11
5.013390350323246
 21
1.25619928759503
 72
     1
 10
5.013390350323246
 20
1.25619928759503
 11
5.217180089745982
 21
1.25619928759503
 72
     1
 10
5.217180089745982
 20
1.25619928759503
 11
5.265140190817449
 21
1.132311402078408
 72
     1
 10
5.265140190817449
 20
1.132311402078408
 11
5.892776699380181
 21
1.132311402078408
 72
     4
 94
        3
 73
     1
 74
     0
 95
        8
 96
        4
 40
19.0
 40
19.0
 40
19.0
 40
19.0
 40
20.0
 40
20.0
 40
20.0
 40
20.0
 10
5.892776699380181
 20
1.132311402078408
 42
1.0
 10
6.004742376513936
 20
1.134291655120386
 42
1.0
 10
6.109207506166772
 20
1.187310895812797
 42
1.0
 10
6.140986498477418
 20
1.265490200839927
 42
1.0
 72
     4
 94
        3
 73
     1
 74
     0
 95
        8
 96
        4
 40
20.0
 40
20.0
 40
20.0
 40
20.0
 40
21.0
 40
21.0
 40
21.0
 40
21.0
 10
6.140986498477418
 20
1.265490200839927
 42
1.0
 10
6.171124322171085
 20
1.187310895812797
 42
1.0
 10
6.276294747427915
 20
1.10880606973767
 42
1.0
 10
6.480111613604649
 20
1.10880606973767
 42
1.0
 72
     4
 94
        3
 73
     1
 74
     0
 95
        8
 96
        4
 40
21.0
 40
21.0
 40
21.0
 40
21.0
 40
22.0
 40
22.0
 40
22.0
 40
22.0
 10
6.480111613604649
 20
1.10880606973767
 42
1.0
 10
6.683928479781382
 20
1.10880606973767
 42
1.0
 10
6.835295767099698
 20
1.232531194730293
 42
1.0
 10
6.835295767099698
 20
1.395590113022481
 42
1.0
 72
     4
 94
        3
 73
     1
 74
     0
 95
        8
 96
        4
 40
22.0
 40
22.0
 40
22.0
 40
22.0
 40
23.0
 40
23.0
 40
23.0
 40
23.0
 10
6.835295767099698
 20
1.395590113022481
 42
1.0
 10
6.835295767099698
 20
1.561429523599636
 42
1.0
 10
6.739904536659761
 20
1.620294579778982
 42
1.0
 10
6.588021841015449
 20
1.660259070109037
 42
1.0
 72
     4
 94
        3
 73
     1
 74
     0
 95
        8
 96
        4
 40
0.0
 40
0.0
 40
0.0
 40
0.0
 40
1.0
 40
1.0
 40
1.0
 40
1.0
 10
6.588021841015449
 20
1.660259070109037
 42
1.0
 10
6.58601446121947
 20
1.660788041812031
 42
1.0
 10
6.58427834896349
 20
1.661255978318526
 42
1.0
 10
6.582257405790513
 20
1.66176460495602
 42
1.0
 72
     1
 10
6.582257405790513
 20
1.66176460495602
 11
6.813746853383429
 21
1.660136999716037
 72
     4
 94
        3
 73
     1
 74
     0
 95
        8
 96
        4
 40
2.0
 40
2.0
 40
2.0
 40
2.0
 40
3.0
 40
3.0
 40
3.0
 40
3.0
 10
6.813746853383429
 20
1.660136999716037
 42
1.0
 10
6.813746853383429
 20
1.782356589861678
 42
1.0
 10
6.789753239470694
 20
1.978347387509499
 42
1.0
 10
6.464055867573316
 20
1.978347387509499
 42
1.0
 72
     4
 94
        3
 73
     1
 74
     0
 95
        8
 96
        4
 40
3.0
 40
3.0
 40
3.0
 40
3.0
 40
4.0
 40
4.0
 40
4.0
 40
4.0
 10
6.464055867573316
 20
1.978347387509499
 42
1.0
 10
6.274209279706429
 20
1.978347387509499
 42
1.0
 10
6.180160823589475
 20
1.885858719747527
 42
1.0
 10
6.142373255267896
 20
1.818496207877776
 42
1.0
 97
        0
 92
        0
 93
        3
 72
     4
 94
        3
 73
     1
 74
     0
 95
        8
 96
        4
 40
4.0
 40
4.0
 40
4.0
 40
4.0
 40
5.0
 40
5.0
 40
5.0
 40
5.0
 10
6.548235655003179
 20
1.381891102252633
 42
1.0
 10
6.538971868512282
 20
1.344741012650046
 42
1.0
 10
6.511858677889584
 20
1.33444640950716
 42
1.0
 10
6.441261300605367
 20
1.353719968223946
 42
1.0
 72
     4
 94
        3
 73
     1
 74
     0
 95
        8
 96
        4
 40
5.0
 40
5.0
 40
5.0
 40
5.0
 40
6.0
 40
6.0
 40
6.0
 40
6.0
 10
6.441261300605367
 20
1.353719968223946
 42
1.0
 10
6.367259515694191
 20
1.373970090084721
 42
1.0
 10
6.366323642681204
 20
1.414755164723267
 42
1.0
 10
6.366310079304203
 20
1.460219604426761
 42
1.0
 72
     4
 94
        3
 73
     1
 74
     0
 95
        8
 96
        4
 40
3.0
 40
3.0
 40
3.0
 40
3.0
 40
4.0
 40
4.0
 40
4.0
 40
4.0
 10
6.366310079304203
 20
1.460219604426761
 42
1.0
 10
6.459436225785168
 20
1.43335055459006
 42
1.0
 10
6.553118470723124
 20
1.401395238378416
 42
1.0
 10
6.548235655003179
 20
1.381891102252633
 42
1.0
 97
        0
 92
        0
 93
       32
 72
     4
 94
        3
 73
     1
 74
     0
 95
        8
 96
        4
 40
17.0
 40
17.0
 40
17.0
 40
17.0
 40
18.0
 40
18.0
 40
18.0
 40
18.0
 10
6.114058393861008
 20
1.739062290478161
 42
1.0
 10
6.114058393861008
 20
1.671245405478915
 42
1.0
 10
6.073639530401458
 20
1.616178094859527
 42
1.0
 10
6.014055615241119
 20
1.586508207672357
 42
1.0
 72
     4
 94
        3
 73
     1
 74
     0
 95
        8
 96
        4
 40
18.0
 40
18.0
 40
18.0
 40
18.0
 40
19.0
 40
19.0
 40
19.0
 40
19.0
 10
6.014055615241119
 20
1.586508207672357
 42
1.0
 10
6.088844076018288
 20
1.564935656554097
 42
1.0
 10
6.137129698137751
 20
1.50351390381028
 42
1.0
 10
6.143965640145676
 20
1.426514612582136
 42
1.0
 72
     1
 10
6.143965640145676
 20
1.426514612582136
 11
6.33310693240857
 21
1.426514612582136
 72
     4
 94
        3
 73
     1
 74
     0
 95
        8
 96
        4
 40
20.0
 40
20.0
 40
20.0
 40
20.0
 40
21.0
 40
21.0
 40
21.0
 40
21.0
 10
6.33310693240857
 20
1.426514612582136
 42
1.0
 10
6.337338706032524
 20
1.337511732709126
 42
1.0
 10
6.392663720814909
 20
1.308906570616444
 42
1.0
 10
6.476688841328976
 20
1.308906570616444
 42
1.0
 72
     4
 94
        3
 73
     1
 74
     0
 95
        8
 96
        4
 40
21.0
 40
21.0
 40
21.0
 40
21.0
 40
22.0
 40
22.0
 40
22.0
 40
22.0
 10
6.476688841328976
 20
1.308906570616444
 42
1.0
 10
6.536259193112312
 20
1.308906570616444
 42
1.0
 10
6.597972558461627
 20
1.330119692244208
 42
1.0
 10
6.597972558461627
 20
1.386272073023584
 42
1.0
 72
     4
 94
        3
 73
     1
 74
     0
 95
        8
 96
        4
 40
22.0
 40
22.0
 40
22.0
 40
22.0
 40
23.0
 40
23.0
 40
23.0
 40
23.0
 10
6.597972558461627
 20
1.386272073023584
 42
1.0
 10
6.597972558461627
 20
1.453003887862842
 42
1.0
 10
6.489492669216833
 20
1.4657127721117
 42
1.0
 10
6.379887019681052
 20
1.496433821016359
 42
1.0
 72
     4
 94
        3
 73
     1
 74
     0
 95
        8
 96
        4
 40
23.0
 40
23.0
 40
23.0
 40
23.0
 40
24.0
 40
24.0
 40
24.0
 40
24.0
 10
6.379887019681052
 20
1.496433821016359
 42
1.0
 10
6.271380003682258
 20
1.527148088232517
 42
1.0
 10
6.157569707276522
 20
1.575894865169975
 42
1.0
 10
6.157569707276522
 20
1.714702465386432
 42
1.0
 72
     4
 94
        3
 73
     1
 74
     0
 95
        8
 96
        4
 40
24.0
 40
24.0
 40
24.0
 40
24.0
 40
25.0
 40
25.0
 40
25.0
 40
25.0
 10
6.157569707276522
 20
1.714702465386432
 42
1.0
 10
6.157569707276522
 20
1.879972214129594
 42
1.0
 10
6.324602695029665
 20
1.944588142156874
 42
1.0
 10
6.467113097167081
 20
1.944588142156874
 42
1.0
 72
     4
 94
        3
 73
     1
 74
     0
 95
        8
 96
        4
 40
25.0
 40
25.0
 40
25.0
 40
25.0
 40
26.0
 40
26.0
 40
26.0
 40
26.0
 10
6.467113097167081
 20
1.944588142156874
 42
1.0
 10
6.6181819901914
 20
1.944588142156874
 42
1.0
 10
6.77029526324471
 20
1.871501885193187
 42
1.0
 10
6.771380333404697
 20
1.700935637731585
 42
1.0
 72
     1
 10
6.771380333404697
 20
1.700935637731585
 11
6.573517789730897
 21
1.700935637731585
 72
     4
 94
        3
 73
     1
 74
     0
 95
        8
 96
        4
 40
27.0
 40
27.0
 40
27.0
 40
27.0
 40
28.0
 40
28.0
 40
28.0
 40
28.0
 10
6.573517789730897
 20
1.700935637731585
 42
1.0
 10
6.576718746702861
 20
1.769776557694319
 42
1.0
 10
6.511804424381583
 20
1.792034059351072
 42
1.0
 10
6.451149002438259
 20
1.792034059351072
 42
1.0
 72
     4
 94
        3
 73
     1
 74
     0
 95
        8
 96
        4
 40
28.0
 40
28.0
 40
28.0
 40
28.0
 40
29.0
 40
29.0
 40
29.0
 40
29.0
 10
6.451149002438259
 20
1.792034059351072
 42
1.0
 10
6.408641378920731
 20
1.792034059351072
 42
1.0
 10
6.355459377704324
 20
1.777202506601737
 42
1.0
 10
6.355459377704324
 20
1.72741813132379
 42
1.0
 72
     4
 94
        3
 73
     1
 74
     0
 95
        8
 96
        4
 40
29.0
 40
29.0
 40
29.0
 40
29.0
 40
30.0
 40
30.0
 40
30.0
 40
30.0
 10
6.355459377704324
 20
1.72741813132379
 42
1.0
 10
6.355459377704324
 20
1.669136300355438
 42
1.0
 10
6.464970083601106
 20
1.658529739541556
 42
1.0
 10
6.575633676542875
 20
1.627808690636898
 42
1.0
 72
     4
 94
        3
 73
     1
 74
     0
 95
        8
 96
        4
 40
30.0
 40
30.0
 40
30.0
 40
30.0
 40
31.0
 40
31.0
 40
31.0
 40
31.0
 10
6.575633676542875
 20
1.627808690636898
 42
1.0
 10
6.685225762701656
 20
1.597094423420739
 42
1.0
 10
6.795835102135427
 20
1.546231759671305
 42
1.0
 10
6.795835102135427
 20
1.409573954709325
 42
1.0
 72
     4
 94
        3
 73
     1
 74
     0
 95
        8
 96
        4
 40
31.0
 40
31.0
 40
31.0
 40
31.0
 40
32.0
 40
32.0
 40
32.0
 40
32.0
 10
6.795835102135427
 20
1.409573954709325
 42
1.0
 10
6.795835102135427
 20
1.217814930685457
 42
1.0
 10
6.632016634731248
 20
1.146580074682249
 42
1.0
 10
6.464970083601106
 20
1.146580074682249
 42
1.0
 72
     4
 94
        3
 73
     1
 74
     0
 95
        8
 96
        4
 40
0.0
 40
0.0
 40
0.0
 40
0.0
 40
1.0
 40
1.0
 40
1.0
 40
1.0
 10
6.464970083601106
 20
1.146580074682249
 42
1.0
 10
6.310659543473821
 20
1.146580074682249
 42
1.0
 10
6.172313098075359
 20
1.216228015576475
 42
1.0
 10
6.1417005561867
 20
1.364258712152829
 42
1.0
 72
     4
 94
        3
 73
     1
 74
     0
 95
        8
 96
        4
 40
1.0
 40
1.0
 40
1.0
 40
1.0
 40
2.0
 40
2.0
 40
2.0
 40
2.0
 10
6.1417005561867
 20
1.364258712152829
 42
1.0
 10
6.121531814587923
 20
1.219727366842436
 42
1.0
 10
5.997969450119299
 20
1.169135970632998
 42
1.0
 10
5.849192767807954
 20
1.169135970632998
 42
1.0
 72
     1
 10
5.849192767807954
 20
1.169135970632998
 11
5.294057310581126
 21
1.169135970632998
 72
     1
 10
5.294057310581126
 20
1.169135970632998
 11
5.237511591868754
 21
1.298082995770565
 72
     1
 10
5.237511591868754
 20
1.298082995770565
 11
4.992177228695482
 21
1.298082995770565
 72
     1
 10
4.992177228695482
 20
1.298082995770565
 11
4.934519313069123
 21
1.170180350661987
 72
     1
 10
4.934519313069123
 20
1.170180350661987
 11
4.23261455332693
 21
1.170180350661987
 72
     1
 10
4.23261455332693
 20
1.170180350661987
 11
4.23261455332693
 21
1.928712209378552
 72
     1
 10
4.23261455332693
 20
1.928712209378552
 11
4.430504223754729
 21
1.928712209378552
 72
     1
 10
4.430504223754729
 20
1.928712209378552
 11
4.430504223754729
 21
1.341757069710079
 72
     1
 10
4.430504223754729
 20
1.341757069710079
 11
4.794504572299681
 21
1.341757069710079
 72
     1
 10
4.794504572299681
 20
1.341757069710079
 11
5.015370603365226
 21
1.928712209378552
 72
     1
 10
5.015370603365226
 20
1.928712209378552
 11
5.21642054063399
 21
1.928712209378552
 72
     1
 10
5.21642054063399
 20
1.928712209378552
 11
5.48432436313501
 21
1.221558422737415
 72
     1
 10
5.48432436313501
 20
1.221558422737415
 11
5.48432436313501
 21
1.928712209378552
 72
     1
 10
5.48432436313501
 20
1.928712209378552
 11
5.839603460269061
 21
1.928712209378552
 72
     4
 94
        3
 73
     1
 74
     0
 95
        8
 96
        4
 40
16.0
 40
16.0
 40
16.0
 40
16.0
 40
17.0
 40
17.0
 40
17.0
 40
17.0
 10
5.839603460269061
 20
1.928712209378552
 42
1.0
 10
5.970422231432604
 20
1.930828096190528
 42
1.0
 10
6.114058393861008
 20
1.896939998756405
 42
1.0
 10
6.114058393861008
 20
1.739062290478161
 42
1.0
 97
        0
 92
        0
 93
        5
 72
     1
 10
6.361128869290259
 20
1.461725139273745
 11
6.169749619822387
 21
1.461725139273745
 72
     4
 94
        3
 73
     1
 74
     0
 95
        8
 96
        4
 40
8.0
 40
8.0
 40
8.0
 40
8.0
 40
9.0
 40
9.0
 40
9.0
 40
9.0
 10
6.169749619822387
 20
1.461725139273745
 42
1.0
 10
6.169749619822387
 20
1.519206730999106
 42
1.0
 10
6.12010766000294
 20
1.568855472507053
 42
1.0
 10
6.088749132379288
 20
1.589756636463821
 42
1.0
 72
     4
 94
        3
 73
     1
 74
     0
 95
        8
 96
        4
 40
9.0
 40
9.0
 40
9.0
 40
9.0
 40
10.0
 40
10.0
 40
10.0
 40
10.0
 10
6.088749132379288
 20
1.589756636463821
 42
1.0
 10
6.104401269437113
 20
1.608040068659618
 42
1.0
 10
6.127933728531853
 20
1.626343845920914
 42
1.0
 10
6.135800487191765
 20
1.657695591856065
 42
1.0
 72
     4
 94
        3
 73
     1
 74
     0
 95
        8
 96
        4
 40
10.0
 40
10.0
 40
10.0
 40
10.0
 40
11.0
 40
11.0
 40
11.0
 40
11.0
 10
6.135800487191765
 20
1.657695591856065
 42
1.0
 10
6.135800487191765
 20
1.568855472507053
 42
1.0
 10
6.219418706395836
 20
1.500902953737809
 42
1.0
 10
6.323924526179674
 20
1.472182502940628
 42
1.0
 72
     4
 94
        3
 73
     1
 74
     0
 95
        8
 96
        4
 40
0.0
 40
0.0
 40
0.0
 40
0.0
 40
1.0
 40
1.0
 40
1.0
 40
1.0
 10
6.323924526179674
 20
1.472182502940628
 42
1.0
 10
6.336145128856538
 20
1.468805222067666
 42
1.0
 10
6.348623435696399
 20
1.465305870801705
 42
1.0
 10
6.361128869290259
 20
1.461725139273745
 42
1.0
 97
        0
 92
        0
 93
        4
 72
     4
 94
        3
 73
     1
 74
     0
 95
        8
 96
        4
 40
2.0
 40
2.0
 40
2.0
 40
2.0
 40
3.0
 40
3.0
 40
3.0
 40
3.0
 10
6.466136534023091
 20
1.741747839124131
 42
1.0
 10
6.511465339956586
 20
1.740405064801146
 42
1.0
 10
6.525652632298431
 20
1.731161623375749
 42
1.0
 10
6.53007429320038
 20
1.703790728590053
 42
1.0
 72
     4
 94
        3
 73
     1
 74
     0
 95
        8
 96
        4
 40
3.0
 40
3.0
 40
3.0
 40
3.0
 40
4.0
 40
4.0
 40
4.0
 40
4.0
 10
6.53007429320038
 20
1.703790728590053
 42
1.0
 10
6.531851095587361
 20
1.692994280498173
 42
1.0
 10
6.532040982865359
 20
1.686293972260247
 42
1.0
 10
6.53206810961936
 20
1.672201623557404
 42
1.0
 72
     4
 94
        3
 73
     1
 74
     0
 95
        8
 96
        4
 40
0.0
 40
0.0
 40
0.0
 40
0.0
 40
1.0
 40
1.0
 40
1.0
 40
1.0
 10
6.53206810961936
 20
1.672201623557404
 42
1.0
 10
6.42666710695353
 20
1.698718025592109
 42
1.0
 10
6.398197578630848
 20
1.703322792083558
 42
1.0
 10
6.398197578630848
 20
1.725763399329808
 42
1.0
 72
     4
 94
        3
 73
     1
 74
     0
 95
        8
 96
        4
 40
1.0
 40
1.0
 40
1.0
 40
1.0
 40
2.0
 40
2.0
 40
2.0
 40
2.0
 10
6.398197578630848
 20
1.725763399329808
 42
1.0
 10
6.398197578630848
 20
1.735746044801697
 42
1.0
 10
6.444163863283336
 20
1.742378536154624
 42
1.0
 10
6.466136534023091
 20
1.741747839124131
 42
1.0
 97
        0
 75
     0
 76
     1
 98
        1
 10
0.0
 20
0.0
  0
HATCH
  5
112
330
81
100
AcDbEntity
  8
0
  6
Continuous
 62
     7
100
AcDbHatch
 10
0.0
 20
0.0
 30
0.0
210
0.0
220
0.0
230
1.0
  2
SOLID
 70
     1
 71
     0
 91
        2
 92
        0
 93
        4
 72
     1
 10
5.002756662755367
 20
1.425280345275149
 11
5.228763213703859
 21
1.42528034527515
 72
     1
 10
5.228763213703859
 20
1.42528034527515
 11
5.132856574937915
 21
1.728862630974274
 72
     1
 10
5.132856574937915
 20
1.728862630974274
 11
5.101959202132266
 21
1.728862630974275
 72
     1
 10
5.101959202132266
 20
1.728862630974275
 11
5.002756662755367
 21
1.425280345275149
 97
        0
 92
        0
 93
        3
 72
     1
 10
5.056020044233768
 20
1.4657534622427
 11
5.115346255231104
 21
1.648899741871664
 72
     1
 10
5.115346255231104
 20
1.648899741871664
 11
5.172705776563476
 21
1.4657534622427
 72
     1
 10
5.172705776563476
 20
1.4657534622427
 11
5.056020044233768
 21
1.4657534622427
 97
        0
 75
     0
 76
     1
 98
        1
 10
0.0
 20
0.0
  0
HATCH
  5
113
330
81
100
AcDbEntity
  8
0
  6
Continuous
 62
     7
100
AcDbHatch
 10
0.0
 20
0.0
 30
0.0
210
0.0
220
0.0
230
1.0
  2
SOLID
 70
     1
 71
     0
 91
        2
 92
        0
 93
        5
 72
     1
 10
5.664649460348006
 20
1.601936549009686
 11
5.664649460348006
 21
1.785652490472643
 72
     1
 10
5.664649460348006
 20
1.785652490472643
 11
5.840756347314047
 21
1.785652490472643
 72
     4
 94
        3
 73
     1
 74
     0
 95
        8
 96
        4
 40
1.0
 40
1.0
 40
1.0
 40
1.0
 40
2.0
 40
2.0
 40
2.0
 40
2.0
 10
5.840756347314047
 20
1.785652490472643
 42
1.0
 10
5.888512997730517
 20
1.785652490472643
 42
1.0
 10
5.933733296648012
 20
1.762825326981896
 42
1.0
 10
5.933733296648012
 20
1.693116350891172
 42
1.0
 72
     4
 94
        3
 73
     1
 74
     0
 95
        8
 96
        4
 40
2.0
 40
2.0
 40
2.0
 40
2.0
 40
3.0
 40
3.0
 40
3.0
 40
3.0
 10
5.933733296648012
 20
1.693116350891172
 42
1.0
 10
5.933733296648012
 20
1.624750149123432
 42
1.0
 10
5.879940943466611
 20
1.601936549009686
 42
1.0
 10
5.840756347314047
 20
1.601936549009686
 42
1.0
 72
     1
 10
5.840756347314047
 20
1.601936549009686
 11
5.664649460348006
 21
1.601936549009686
 97
        0
 92
        0
 93
        5
 72
     4
 94
        3
 73
     1
 74
     0
 95
        8
 96
        4
 40
3.0
 40
3.0
 40
3.0
 40
3.0
 40
4.0
 40
4.0
 40
4.0
 40
4.0
 10
5.891008659098489
 20
1.691943118780685
 42
1.0
 10
5.891008659098489
 20
1.732178876650737
 42
1.0
 10
5.85943311744284
 20
1.745348915717591
 42
1.0
 10
5.82613502690821
 20
1.745348915717591
 42
1.0
 72
     1
 10
5.82613502690821
 20
1.745348915717591
 11
5.703196577781577
 21
1.745348915717591
 72
     1
 10
5.703196577781577
 20
1.745348915717591
 11
5.703196577781577
 21
1.63931043433277
 72
     1
 10
5.703196577781577
 20
1.63931043433277
 11
5.82613502690821
 21
1.63931043433277
 72
     4
 94
        3
 73
     1
 74
     0
 95
        8
 96
        4
 40
2.0
 40
2.0
 40
2.0
 40
2.0
 40
3.0
 40
3.0
 40
3.0
 40
3.0
 10
5.82613502690821
 20
1.63931043433277
 42
1.0
 10
5.853478794939905
 20
1.63931043433277
 42
1.0
 10
5.891008659098489
 20
1.652480473399623
 42
1.0
 10
5.891008659098489
 20
1.691943118780685
 42
1.0
 97
        0
 75
     0
 76
     1
 98
        1
 10
0.0
 20
0.0
  0
HATCH
  5
114
330
81
100
AcDbEntity
  8
0
  6
Continuous
 62
     7
100
AcDbHatch
 10
0.0
 20
0.0
 30
0.0
210
0.0
220
0.0
230
1.0
  2
SOLID
 70
     1
 71
     0
 91
        2
 92
        0
 93
        5
 72
     1
 10
5.664649460348006
 20
1.302355459525517
 11
5.664649460348006
 21
1.514079774493162
 72
     1
 10
5.664649460348006
 20
1.514079774493162
 11
5.860260483439831
 21
1.514079774493162
 72
     4
 94
        3
 73
     1
 74
     0
 95
        8
 96
        4
 40
1.0
 40
1.0
 40
1.0
 40
1.0
 40
2.0
 40
2.0
 40
2.0
 40
2.0
 10
5.860260483439831
 20
1.514079774493162
 42
1.0
 10
5.913279724132241
 20
1.514079774493162
 42
1.0
 10
5.96349134578568
 20
1.487787168178955
 42
1.0
 10
5.96349134578568
 20
1.407458067897348
 42
1.0
 72
     4
 94
        3
 73
     1
 74
     0
 95
        8
 96
        4
 40
2.0
 40
2.0
 40
2.0
 40
2.0
 40
3.0
 40
3.0
 40
3.0
 40
3.0
 10
5.96349134578568
 20
1.407458067897348
 42
1.0
 10
5.96349134578568
 20
1.328641284151225
 42
1.0
 10
5.903771796855347
 20
1.302355459525517
 42
1.0
 10
5.860260483439831
 20
1.302355459525517
 42
1.0
 72
     1
 10
5.860260483439831
 20
1.302355459525517
 11
5.664649460348006
 21
1.302355459525517
 97
        0
 92
        0
 93
        5
 72
     4
 94
        3
 73
     1
 74
     0
 95
        8
 96
        4
 40
3.0
 40
3.0
 40
3.0
 40
3.0
 40
4.0
 40
4.0
 40
4.0
 40
4.0
 10
5.926571833592093
 20
1.406033913312364
 42
1.0
 10
5.926571833592093
 20
1.457723943058789
 42
1.0
 10
5.888865645532511
 20
1.474651037554601
 42
1.0
 10
5.849057134037955
 20
1.474651037554601
 42
1.0
 72
     1
 10
5.849057134037955
 20
1.474651037554601
 11
5.702179324506586
 21
1.474651037554601
 72
     1
 10
5.702179324506586
 20
1.474651037554601
 11
5.702179324506586
 21
1.338420478968116
 72
     1
 10
5.702179324506586
 20
1.338420478968116
 11
5.849057134037955
 21
1.338420478968116
 72
     4
 94
        3
 73
     1
 74
     0
 95
        8
 96
        4
 40
2.0
 40
2.0
 40
2.0
 40
2.0
 40
3.0
 40
3.0
 40
3.0
 40
3.0
 10
5.849057134037955
 20
1.338420478968116
 42
1.0
 10
5.881731309230591
 20
1.338420478968116
 42
1.0
 10
5.926571833592093
 20
1.355320446709928
 42
1.0
 10
5.926571833592093
 20
1.406033913312364
 42
1.0
 97
        0
 75
     0
 76
     1
 98
        1
 10
0.0
 20
0.0
  0
ENDBLK
  5
83
330
81
100
AcDbEntity
  8
0
100
AcDbBlockEnd
  0
BLOCK
  5
143
330
142
100
AcDbEntity
  8
0
100
AcDbBlockBegin
  2
SW_NOTE_0
 70
     0
 10
0.0
 20
0.0
 30
0.0
  3
SW_NOTE_0
  1

  0
MTEXT
  5
145
330
142
100
AcDbEntity
  8
0
  6
Continuous
 62
     0
370
     0
100
AcDbMText
 10
0.78375
 20
0.0773440644
 30
0.0
 40
0.06
 41
0.0
 71
     2
 72
     1
  1
VALUES IN PARENTHESIS ARE CALCULATED
  7
SLDTEXTSTYLE0
 73
     1
 44
1.0
  0
MTEXT
  5
146
330
142
100
AcDbEntity
  8
0
  6
Continuous
 62
     0
370
     0
100
AcDbMText
 10
0.7825936818
 20
-0.0220260102
 30
0.0
 40
0.06
 41
0.0
 71
     2
 72
     1
  1
AND MAY CONTAIN ROUNDOFF ERRORS
  7
SLDTEXTSTYLE0
 73
     1
 44
1.0
  0
ENDBLK
  5
144
330
142
100
AcDbEntity
  8
0
100
AcDbBlockEnd
  0
BLOCK
  5
149
330
148
100
AcDbEntity
  8
0
100
AcDbBlockBegin
  2
SW_NOTE_1
 70
     0
 10
0.0
 20
0.0
 30
0.0
  3
SW_NOTE_1
  1

  0
MTEXT
  5
14B
330
148
100
AcDbEntity
  8
0
  6
Continuous
 62
     0
370
     0
100
AcDbMText
 10
0.0
 20
0.1074223116
 30
0.0
 40
0.0833333333
 41
0.0
 71
     1
 72
     1
  1
DRAWING
  7
SLDTEXTSTYLE0
 73
     1
 44
1.0
  0
MTEXT
  5
14C
330
148
100
AcDbEntity
  8
0
  6
Continuous
 62
     0
370
     0
100
AcDbMText
 10
0.0
 20
-0.0036887981
 30
0.0
 40
0.0833333333
 41
0.0
 71
     1
 72
     1
  1
PROJECTION
  7
SLDTEXTSTYLE0
 73
     1
 44
1.0
  0
ENDBLK
  5
14A
330
148
100
AcDbEntity
  8
0
100
AcDbBlockEnd
  0
BLOCK
  5
150
330
14F
100
AcDbEntity
  8
0
100
AcDbBlockBegin
  2
SW_NOTE_2
 70
     0
 10
0.0
 20
0.0
 30
0.0
  3
SW_NOTE_2
  1

  0
MTEXT
  5
152
330
14F
100
AcDbEntity
  8
0
  6
Continuous
 62
     0
370
     0
100
AcDbMText
 10
0.7145182292
 20
0.1342778896
 30
0.0
 40
0.1041666667
 41
0.0
 71
     2
 72
     1
  1
PLANO CONVEX LENS
  7
SLDTEXTSTYLE0
 73
     1
 44
1.0
  0
MTEXT
  5
153
330
14F
100
AcDbEntity
  8
0
  6
Continuous
 62
     0
370
     0
100
AcDbMText
 10
0.3609303496
 20
-0.0057684043
 30
0.0
 40
0.1041666667
 41
0.0
 71
     2
 72
     1
  1
f=500.0 mm
  7
SLDTEXTSTYLE0
 73
     1
 44
1.0
  0
MTEXT
  5
155
330
14F
100
AcDbEntity
  8
0
  6
Continuous
 62
     0
370
     0
100
AcDbMText
 10
0.8865741732
 20
-0.0046109977
 30
0.0
 40
0.1041666667
 41
0.0
 71
     2
 72
     1
  1
\U+2205
  7
SLDTEXTSTYLE3
 73
     1
 44
1.0
  0
MTEXT
  5
156
330
14F
100
AcDbEntity
  8
0
  6
Continuous
 62
     0
370
     0
100
AcDbMText
 10
1.1958189682
 20
-0.0057684043
 30
0.0
 40
0.1041666667
 41
0.0
 71
     2
 72
     1
  1
50.0mm
  7
SLDTEXTSTYLE0
 73
     1
 44
1.0
  0
ENDBLK
  5
151
330
14F
100
AcDbEntity
  8
0
100
AcDbBlockEnd
  0
BLOCK
  5
15A
330
159
100
AcDbEntity
  8
0
100
AcDbBlockBegin
  2
SW_NOTE_3
 70
     0
 10
0.0
 20
0.0
 30
0.0
  3
SW_NOTE_3
  1

  0
MTEXT
  5
15C
330
159
100
AcDbEntity
  8
0
  6
Continuous
 62
     0
370
     0
100
AcDbMText
 10
0.986328125
 20
0.1611334675
 30
0.0
 40
0.125
 41
0.0
 71
     2
 72
     1
  1
FOR INFORMATION ONLY
  7
SLDTEXTSTYLE0
 73
     1
 44
1.0
  0
MTEXT
  5
15D
330
159
100
AcDbEntity
  8
0
  6
Continuous
 62
     0
370
     0
100
AcDbMText
 10
0.999088459
 20
-0.0055331972
 30
0.0
 40
0.125
 41
0.0
 71
     2
 72
     1
  1
NOT FOR MANUFACTURING PURPOSES
  7
SLDTEXTSTYLE0
 73
     1
 44
1.0
  0
ENDBLK
  5
15B
330
159
100
AcDbEntity
  8
0
100
AcDbBlockEnd
  0
BLOCK
  5
160
330
15F
100
AcDbEntity
  8
0
100
AcDbBlockBegin
  2
SW_NOTE_4
 70
     0
 10
0.0
 20
0.0
 30
0.0
  3
SW_NOTE_4
  1

  0
MTEXT
  5
162
330
15F
100
AcDbEntity
  8
0
  6
Continuous
 62
     0
370
     0
100
AcDbMText
 10
0.0
 20
0.1074223116
 30
0.0
 40
0.0833333333
 41
0.0
 71
     1
 72
     1
  1
NOTES/SPECIFICATIONS:
  7
SLDTEXTSTYLE3
 73
     1
 44
1.0
  0
MTEXT
  5
163
330
15F
100
AcDbEntity
  8
0
  6
Continuous
 62
     0
370
     0
100
AcDbMText
 10
0.0
 20
-0.0430588741
 30
0.0
 40
0.0833333333
 41
0.0
 71
     1
 72
     1
  1
1. DESIGN FREQUENCY: 500GHz (n=1.43)
  7
SLDTEXTSTYLE3
 73
     1
 44
1.0
  0
MTEXT
  5
164
330
15F
100
AcDbEntity
  8
0
  6
Continuous
 62
     0
370
     0
100
AcDbMText
 10
0.0
 20
-0.1935400599
 30
0.0
 40
0.0833333333
 41
0.0
 71
     1
 72
     1
  1
2. FOCAL LENGTH: f=500.0 mm ± 2.0%
  7
SLDTEXTSTYLE3
 73
     1
 44
1.0
  0
MTEXT
  5
165
330
15F
100
AcDbEntity
  8
0
  6
Continuous
 62
     0
370
     0
100
AcDbMText
 10
0.0
 20
-0.3440212457
 30
0.0
 40
0.0833333333
 41
0.0
 71
     1
 72
     1
  1
3. BACK FOCAL LENGTH(REF): fb=495.0 mm
  7
SLDTEXTSTYLE3
 73
     1
 44
1.0
  0
MTEXT
  5
166
330
15F
100
AcDbEntity
  8
0
  6
Continuous
 62
     0
370
     0
100
AcDbMText
 10
0.0
 20
-0.4945024315
 30
0.0
 40
0.0833333333
 41
0.0
 71
     1
 72
     1
  1
4. CLEAR APERTURE:
  7
SLDTEXTSTYLE3
 73
     1
 44
1.0
  0
MTEXT
  5
167
330
15F
100
AcDbEntity
  8
0
  6
Continuous
 62
     0
370
     0
100
AcDbMText
 10
1.1913580307
 20
-0.4945024315
 30
0.0
 40
0.0833333333
 41
0.0
 71
     1
 72
     1
  1
\U+2205 42.5
  7
SLDTEXTSTYLE3
 73
     1
 44
1.0
  0
MTEXT
  5
168
330
15F
100
AcDbEntity
  8
0
  6
Continuous
 62
     0
370
     0
100
AcDbMText
 10
1.5524691191
 20
-0.4945024315
 30
0.0
 40
0.0833333333
 41
0.0
 71
     1
 72
     1
  1
mm
  7
SLDTEXTSTYLE3
 73
     1
 44
1.0
  0
MTEXT
  5
169
330
15F
100
AcDbEntity
  8
0
  6
Continuous
 62
     0
370
     0
100
AcDbMText
 10
0.0
 20
-0.6449836173
 30
0.0
 40
0.0833333333
 41
0.0
 71
     1
 72
     1
  1
5. SURFACE QUALITY: 60-40 SCRATCH-DIG
  7
SLDTEXTSTYLE3
 73
     1
 44
1.0
  0
MTEXT
  5
16B
330
15F
100
AcDbEntity
  8
0
  6
Continuous
 62
     0
370
     0
100
AcDbMText
 10
0.0
 20
-0.7954648031
 30
0.0
 40
0.0833333333
 41
0.0
 71
     1
 72
     1
  1
6. TRANSMITTED WAVEFRONT ERROR: <10 \M+183CAm, CORRESPONDING TO \M+183C9/20 AT 1.5 THz
  7
SLDTEXTSTYLE4
 73
     1
 44
1.0
  0
MTEXT
  5
16C
330
15F
100
AcDbEntity
  8
0
  6
Continuous
 62
     0
370
     0
100
AcDbMText
 10
0.0
 20
-0.9459459889
 30
0.0
 40
0.0833333333
 41
0.0
 71
     1
 72
     1
  1
7. CENTRATION: <3 arcmin
  7
SLDTEXTSTYLE3
 73
     1
 44
1.0
  0
MTEXT
  5
16D
330
15F
100
AcDbEntity
  8
0
  6
Continuous
 62
     0
370
     0
100
AcDbMText
 10
0.0
 20
-1.0964271747
 30
0.0
 40
0.0833333333
 41
0.0
 71
     1
 72
     1
  1
8. DIAMETER TOLERANCE: +0.0/-0.2 mm
  7
SLDTEXTSTYLE3
 73
     1
 44
1.0
  0
MTEXT
  5
16E
330
15F
100
AcDbEntity
  8
0
  6
Continuous
 62
     0
370
     0
100
AcDbMText
 10
0.0
 20
-1.2469083605
 30
0.0
 40
0.0833333333
 41
0.0
 71
     1
 72
     1
  1
9. CENTER THICKNESS TOLERANCE: ± 0.20 mm
  7
SLDTEXTSTYLE3
 73
     1
 44
1.0
  0
MTEXT
  5
16F
330
15F
100
AcDbEntity
  8
0
  6
Continuous
 62
     0
370
     0
100
AcDbMText
 10
0.0
 20
-1.3973895463
 30
0.0
 40
0.0833333333
 41
0.0
 71
     1
 72
     1
  1
10. RADIUS OF CURVATURE TOLERANCE: ± 2.0 mm
  7
SLDTEXTSTYLE3
 73
     1
 44
1.0
  0
ENDBLK
  5
161
330
15F
100
AcDbEntity
  8
0
100
AcDbBlockEnd
  0
BLOCK
  5
175
330
174
100
AcDbEntity
  8
0
100
AcDbBlockBegin
  2
_D
 70
     0
 10
0.0
 20
0.0
 30
0.0
  3
_D
  1

  0
SOLID
  5
177
330
174
100
AcDbEntity
  8
0
  6
Continuous
 62
     7
370
    18
100
AcDbTrace
 10
3.8778962881
 20
5.2826970009
 30
0.0
 11
3.9800588664
 21
5.3574486402
 31
0.0
 12
3.9516352621
 22
5.3855928886
 32
0.0
 13
3.9516352621
 23
5.3855928886
 33
0.0
  0
LINE
  5
178
330
174
100
AcDbEntity
  8
0
  6
Continuous
 62
     7
370
    18
100
AcDbLine
 10
4.615084479
 20
5.762647057
 30
0.0
 11
4.5897372563
 21
5.762647057
 31
0.0
  0
LINE
  5
179
330
174
100
AcDbEntity
  8
0
  6
Continuous
 62
     7
370
    18
100
AcDbLine
 10
4.5897372563
 20
5.762647057
 30
0.0
 11
4.5897372563
 21
5.6302396524
 31
0.0
  0
LINE
  5
17A
330
174
100
AcDbEntity
  8
0
  6
Continuous
 62
     7
370
    18
100
AcDbLine
 10
4.5897372563
 20
5.6302396524
 30
0.0
 11
4.615084479
 21
5.6302396524
 31
0.0
  0
LINE
  5
17B
330
174
100
AcDbEntity
  8
0
  6
Continuous
 62
     7
370
    18
100
AcDbLine
 10
4.9204857209
 20
5.762647057
 30
0.0
 11
4.9458329435
 21
5.762647057
 31
0.0
  0
LINE
  5
17C
330
174
100
AcDbEntity
  8
0
  6
Continuous
 62
     7
370
    18
100
AcDbLine
 10
4.9458329435
 20
5.762647057
 30
0.0
 11
4.9458329435
 21
5.6302396524
 31
0.0
  0
LINE
  5
17D
330
174
100
AcDbEntity
  8
0
  6
Continuous
 62
     7
370
    18
100
AcDbLine
 10
4.9458329435
 20
5.6302396524
 30
0.0
 11
4.9204857209
 21
5.6302396524
 31
0.0
  0
LINE
  5
17E
330
174
100
AcDbEntity
  8
0
  6
Continuous
 62
     7
370
    18
100
AcDbLine
 10
3.8778962881
 20
5.2826970009
 30
0.0
 11
4.4143900337
 21
5.8245159098
 31
0.0
  0
LINE
  5
17F
330
174
100
AcDbEntity
  8
0
  6
Continuous
 62
     7
370
    18
100
AcDbLine
 10
4.4143900337
 20
5.8245159098
 30
0.0
 11
4.5643900337
 21
5.8245159098
 31
0.0
  0
MTEXT
  5
180
330
174
100
AcDbEntity
  8
0
  6
Continuous
 62
     7
370
    18
100
AcDbMText
 10
4.5643900337
 20
5.8869675155
 30
0.0
 40
0.0833333333
 41
0.0
 71
     1
 72
     1
  1
%%c
  7
SLDTEXTSTYLE0
 73
     1
 44
1.0
  0
MTEXT
  5
181
330
174
100
AcDbEntity
  8
0
  6
Continuous
 62
     7
370
    18
100
AcDbMText
 10
4.6901770731
 20
5.8869675155
 30
0.0
 40
0.0833333333
 41
0.0
 71
     1
 72
     1
  1
50.0mm
  7
SLDTEXTSTYLE0
 73
     1
 44
1.0
  0
MTEXT
  5
182
330
174
100
AcDbEntity
  8
0
  6
Continuous
 62
     7
370
    18
100
AcDbMText
 10
4.615084479
 20
5.7376619595
 30
0.0
 40
0.0833333333
 41
0.0
 71
     1
 72
     1
  1
1.97in
  7
SLDTEXTSTYLE0
 73
     1
 44
1.0
  0
ENDBLK
  5
176
330
174
100
AcDbEntity
  8
0
100
AcDbBlockEnd
  0
BLOCK
  5
19C
330
19B
100
AcDbEntity
  8
0
100
AcDbBlockBegin
  2
_D_1
 70
     0
 10
0.0
 20
0.0
 30
0.0
  3
_D_1
  1

  0
SOLID
  5
19E
330
19B
100
AcDbEntity
  8
0
  6
Continuous
 62
     7
370
    18
100
AcDbTrace
 10
7.3490906074
 20
6.2735363882
 30
0.0
 11
7.2240906074
 21
6.2935363882
 31
0.0
 12
7.2240906074
 22
6.2535363882
 32
0.0
 13
7.2240906074
 23
6.2535363882
 33
0.0
  0
SOLID
  5
19F
330
19B
100
AcDbEntity
  8
0
  6
Continuous
 62
     7
370
    18
100
AcDbTrace
 10
7.6077520247
 20
6.2735363882
 30
0.0
 11
7.7327520247
 21
6.2535363882
 31
0.0
 12
7.7327520247
 22
6.2935363882
 32
0.0
 13
7.7327520247
 23
6.2935363882
 33
0.0
  0
LINE
  5
1A0
330
19B
100
AcDbEntity
  8
0
  6
Continuous
 62
     7
370
    18
100
AcDbLine
 10
7.9919758305
 20
6.273536379
 30
0.0
 11
7.9666286078
 21
6.273536379
 31
0.0
  0
LINE
  5
1A1
330
19B
100
AcDbEntity
  8
0
  6
Continuous
 62
     7
370
    18
100
AcDbLine
 10
7.9666286078
 20
6.273536379
 30
0.0
 11
7.9666286078
 21
6.1411289744
 31
0.0
  0
LINE
  5
1A2
330
19B
100
AcDbEntity
  8
0
  6
Continuous
 62
     7
370
    18
100
AcDbLine
 10
7.9666286078
 20
6.1411289744
 30
0.0
 11
7.9919758305
 21
6.1411289744
 31
0.0
  0
LINE
  5
1A3
330
19B
100
AcDbEntity
  8
0
  6
Continuous
 62
     7
370
    18
100
AcDbLine
 10
8.2973770724
 20
6.273536379
 30
0.0
 11
8.322724295
 21
6.273536379
 31
0.0
  0
LINE
  5
1A4
330
19B
100
AcDbEntity
  8
0
  6
Continuous
 62
     7
370
    18
100
AcDbLine
 10
8.322724295
 20
6.273536379
 30
0.0
 11
8.322724295
 21
6.1411289744
 31
0.0
  0
LINE
  5
1A5
330
19B
100
AcDbEntity
  8
0
  6
Continuous
 62
     7
370
    18
100
AcDbLine
 10
8.322724295
 20
6.1411289744
 30
0.0
 11
8.2973770724
 21
6.1411289744
 31
0.0
  0
LINE
  5
1A6
330
19B
100
AcDbEntity
  8
0
  6
Continuous
 62
     7
370
    18
100
AcDbLine
 10
7.3490906074
 20
5.607706737
 30
0.0
 11
7.3490906074
 21
6.3435363882
 31
0.0
  0
LINE
  5
1A7
330
19B
100
AcDbEntity
  8
0
  6
Continuous
 62
     7
370
    18
100
AcDbLine
 10
7.6077520247
 20
4.6332972882
 30
0.0
 11
7.6077520247
 21
6.3435363882
 31
0.0
  0
LINE
  5
1A8
330
19B
100
AcDbEntity
  8
0
  6
Continuous
 62
     7
370
    18
100
AcDbLine
 10
7.3490906074
 20
6.2735363882
 30
0.0
 11
7.0990906074
 21
6.2735363882
 31
0.0
  0
LINE
  5
1A9
330
19B
100
AcDbEntity
  8
0
  6
Continuous
 62
     7
370
    18
100
AcDbLine
 10
7.6077520247
 20
6.2735363882
 30
0.0
 11
7.8629662891
 21
6.2735363882
 31
0.0
  0
MTEXT
  5
1AA
330
19B
100
AcDbEntity
  8
0
  6
Continuous
 62
     7
370
    18
100
AcDbMText
 10
7.9423616331
 20
6.3978568375
 30
0.0
 40
0.0833333333
 41
0.0
 71
     1
 72
     1
  1

  7
SLDTEXTSTYLE0
 73
     1
 44
1.0
  0
MTEXT
  5
1AB
330
19B
100
AcDbEntity
  8
0
  6
Continuous
 62
     7
370
    18
100
AcDbMText
 10
7.9635807676
 20
6.3978568375
 30
0.0
 40
0.0833333333
 41
0.0
 71
     1
 72
     1
  1
6.6mm
  7
SLDTEXTSTYLE0
 73
     1
 44
1.0
  0
MTEXT
  5
1AC
330
19B
100
AcDbEntity
  8
0
  6
Continuous
 62
     7
370
    18
100
AcDbMText
 10
7.9919758305
 20
6.2485512815
 30
0.0
 40
0.0833333333
 41
0.0
 71
     1
 72
     1
  1
0.26in
  7
SLDTEXTSTYLE0
 73
     1
 44
1.0
  0
MTEXT
  5
1AD
330
19B
100
AcDbEntity
  8
0
  6
Continuous
 62
     7
370
    18
100
AcDbMText
 10
8.4105715176
 20
6.3978568375
 30
0.0
 40
0.0833333333
 41
0.0
 71
     1
 72
     1
  1

  7
SLDTEXTSTYLE0
 73
     1
 44
1.0
  0
ENDBLK
  5
19D
330
19B
100
AcDbEntity
  8
0
100
AcDbBlockEnd
  0
BLOCK
  5
1B1
330
1B0
100
AcDbEntity
  8
0
100
AcDbBlockBegin
  2
_D_2
 70
     0
 10
0.0
 20
0.0
 30
0.0
  3
_D_2
  1

  0
SOLID
  5
1B3
330
1B0
100
AcDbEntity
  8
0
  6
Continuous
 62
     7
370
    18
100
AcDbTrace
 10
7.5500050555
 20
3.6314220986
 30
0.0
 11
7.6716705594
 21
3.5964577572
 31
0.0
 12
7.6765060854
 22
3.6361644026
 32
0.0
 13
7.6765060854
 23
3.6361644026
 33
0.0
  0
LINE
  5
1B4
330
1B0
100
AcDbEntity
  8
0
  6
Continuous
 62
     7
370
    18
100
AcDbLine
 10
8.1995679728
 20
3.5148894703
 30
0.0
 11
8.1742207502
 21
3.5148894703
 31
0.0
  0
LINE
  5
1B5
330
1B0
100
AcDbEntity
  8
0
  6
Continuous
 62
     7
370
    18
100
AcDbLine
 10
8.1742207502
 20
3.5148894703
 30
0.0
 11
8.1742207502
 21
3.3824820657
 31
0.0
  0
LINE
  5
1B6
330
1B0
100
AcDbEntity
  8
0
  6
Continuous
 62
     7
370
    18
100
AcDbLine
 10
8.1742207502
 20
3.3824820657
 30
0.0
 11
8.1995679728
 21
3.3824820657
 31
0.0
  0
LINE
  5
1B7
330
1B0
100
AcDbEntity
  8
0
  6
Continuous
 62
     7
370
    18
100
AcDbLine
 10
8.5049692148
 20
3.5148894703
 30
0.0
 11
8.5303164374
 21
3.5148894703
 31
0.0
  0
LINE
  5
1B8
330
1B0
100
AcDbEntity
  8
0
  6
Continuous
 62
     7
370
    18
100
AcDbLine
 10
8.5303164374
 20
3.5148894703
 30
0.0
 11
8.5303164374
 21
3.3824820657
 31
0.0
  0
LINE
  5
1B9
330
1B0
100
AcDbEntity
  8
0
  6
Continuous
 62
     7
370
    18
100
AcDbLine
 10
8.5303164374
 20
3.3824820657
 30
0.0
 11
8.5049692148
 21
3.3824820657
 31
0.0
  0
LINE
  5
1BA
330
1B0
100
AcDbEntity
  8
0
  6
Continuous
 62
     7
370
    18
100
AcDbLine
 10
7.5500050555
 20
3.6314220986
 30
0.0
 11
7.9988735276
 21
3.5767583231
 31
0.0
  0
LINE
  5
1BB
330
1B0
100
AcDbEntity
  8
0
  6
Continuous
 62
     7
370
    18
100
AcDbLine
 10
7.9988735276
 20
3.5767583231
 30
0.0
 11
8.1488735276
 21
3.5767583231
 31
0.0
  0
MTEXT
  5
1BC
330
1B0
100
AcDbEntity
  8
0
  6
Continuous
 62
     7
370
    18
100
AcDbMText
 10
8.1488735276
 20
3.6392099288
 30
0.0
 40
0.0833333333
 41
0.0
 71
     1
 72
     1
  1
R200.0mm
  7
SLDTEXTSTYLE0
 73
     1
 44
1.0
  0
MTEXT
  5
1BD
330
1B0
100
AcDbEntity
  8
0
  6
Continuous
 62
     7
370
    18
100
AcDbMText
 10
8.1995679728
 20
3.4899043728
 30
0.0
 40
0.0833333333
 41
0.0
 71
     1
 72
     1
  1
7.87in
  7
SLDTEXTSTYLE0
 73
     1
 44
1.0
  0
ENDBLK
  5
1B2
330
1B0
100
AcDbEntity
  8
0
100
AcDbBlockEnd
  0
BLOCK
  5
1C1
330
1C0
100
AcDbEntity
  8
0
100
AcDbBlockBegin
  2
_D_3
 70
     0
 10
0.0
 20
0.0
 30
0.0
  3
_D_3
  1

  0
SOLID
  5
1C3
330
1C0
100
AcDbEntity
  8
0
  6
Continuous
 62
     7
370
    18
100
AcDbTrace
 10
7.3490906074
 20
5.7984914856
 30
0.0
 11
7.2240906074
 21
5.8184914856
 31
0.0
 12
7.2240906074
 22
5.7784914856
 32
0.0
 13
7.2240906074
 23
5.7784914856
 33
0.0
  0
SOLID
  5
1C4
330
1C0
100
AcDbEntity
  8
0
  6
Continuous
 62
     7
370
    18
100
AcDbTrace
 10
7.5459940849
 20
5.7984914856
 30
0.0
 11
7.6709940849
 21
5.7784914856
 31
0.0
 12
7.6709940849
 22
5.8184914856
 32
0.0
 13
7.6709940849
 23
5.8184914856
 33
0.0
  0
LINE
  5
1C5
330
1C0
100
AcDbEntity
  8
0
  6
Continuous
 62
     7
370
    18
100
AcDbLine
 10
6.7248445109
 20
5.8753433261
 30
0.0
 11
6.6994972883
 21
5.8753433261
 31
0.0
  0
LINE
  5
1C6
330
1C0
100
AcDbEntity
  8
0
  6
Continuous
 62
     7
370
    18
100
AcDbLine
 10
6.6994972883
 20
5.8753433261
 30
0.0
 11
6.6994972883
 21
5.7429359215
 31
0.0
  0
LINE
  5
1C7
330
1C0
100
AcDbEntity
  8
0
  6
Continuous
 62
     7
370
    18
100
AcDbLine
 10
6.6994972883
 20
5.7429359215
 30
0.0
 11
6.7248445109
 21
5.7429359215
 31
0.0
  0
LINE
  5
1C8
330
1C0
100
AcDbEntity
  8
0
  6
Continuous
 62
     7
370
    18
100
AcDbLine
 10
7.0302457529
 20
5.8753433261
 30
0.0
 11
7.0555929755
 21
5.8753433261
 31
0.0
  0
LINE
  5
1C9
330
1C0
100
AcDbEntity
  8
0
  6
Continuous
 62
     7
370
    18
100
AcDbLine
 10
7.0555929755
 20
5.8753433261
 30
0.0
 11
7.0555929755
 21
5.7429359215
 31
0.0
  0
LINE
  5
1CA
330
1C0
100
AcDbEntity
  8
0
  6
Continuous
 62
     7
370
    18
100
AcDbLine
 10
7.0555929755
 20
5.7429359215
 30
0.0
 11
7.0302457529
 21
5.7429359215
 31
0.0
  0
LINE
  5
1CB
330
1C0
100
AcDbEntity
  8
0
  6
Continuous
 62
     7
370
    18
100
AcDbLine
 10
7.3490906074
 20
5.607706737
 30
0.0
 11
7.3490906074
 21
5.8684914856
 31
0.0
  0
LINE
  5
1CC
330
1C0
100
AcDbEntity
  8
0
  6
Continuous
 62
     7
370
    18
100
AcDbLine
 10
7.5459940849
 20
5.6175492567
 30
0.0
 11
7.5459940849
 21
5.8684914856
 31
0.0
  0
LINE
  5
1CD
330
1C0
100
AcDbEntity
  8
0
  6
Continuous
 62
     7
370
    18
100
AcDbLine
 10
7.3490906074
 20
5.7984914856
 30
0.0
 11
7.0978355237
 21
5.7984914856
 31
0.0
  0
LINE
  5
1CE
330
1C0
100
AcDbEntity
  8
0
  6
Continuous
 62
     7
370
    18
100
AcDbLine
 10
7.5459940849
 20
5.7984914856
 30
0.0
 11
7.7959940849
 21
5.7984914856
 31
0.0
  0
MTEXT
  5
1CF
330
1C0
100
AcDbEntity
  8
0
  6
Continuous
 62
     7
370
    18
100
AcDbMText
 10
6.6964494481
 20
5.9996637846
 30
0.0
 40
0.0833333333
 41
0.0
 71
     1
 72
     1
  1
5.0mm
  7
SLDTEXTSTYLE0
 73
     1
 44
1.0
  0
MTEXT
  5
1D0
330
1C0
100
AcDbEntity
  8
0
  6
Continuous
 62
     7
370
    18
100
AcDbMText
 10
6.7248445109
 20
5.8503582286
 30
0.0
 40
0.0833333333
 41
0.0
 71
     1
 72
     1
  1
0.20in
  7
SLDTEXTSTYLE0
 73
     1
 44
1.0
  0
MTEXT
  5
1D1
330
1C0
100
AcDbEntity
  8
0
  6
Continuous
 62
     7
370
    18
100
AcDbMText
 10
6.7460636416
 20
5.7010526817
 30
0.0
 40
0.0833333333
 41
0.0
 71
     1
 72
     1
  1
(REF)
  7
SLDTEXTSTYLE0
 73
     1
 44
1.0
  0
ENDBLK
  5
1C2
330
1C0
100
AcDbEntity
  8
0
100
AcDbBlockEnd
  0
BLOCK
  5
1D3
330
1D2
100
AcDbEntity
  8
0
100
AcDbBlockBegin
  2
SW_NOTE_5
 70
     0
 10
0.0
 20
0.0
 30
0.0
  3
SW_NOTE_5
  1

  0
MTEXT
  5
1D5
330
1D2
100
AcDbEntity
  8
0
  6
Continuous
 62
     0
370
     0
100
AcDbMText
 10
0.3372395833
 20
0.1074223116
 30
0.0
 40
0.0833333333
 41
0.0
 71
     2
 72
     1
  1
SECTION A-A
  7
SLDTEXTSTYLE0
 73
     1
 44
1.0
  0
MTEXT
  5
1D7
330
1D2
100
AcDbEntity
  8
0
  6
Continuous
 62
     0
370
     0
100
AcDbMText
 10
0.3370852751
 20
-0.0430588741
 30
0.0
 40
0.0833333333
 41
0.0
 71
     2
 72
     1
  1
SCALE 1 : 1
  7
SLDTEXTSTYLE5
 73
     1
 44
1.0
  0
ENDBLK
  5
1D4
330
1D2
100
AcDbEntity
  8
0
100
AcDbBlockEnd
  0
ENDSEC
  0
SECTION
  2
ENTITIES
  0
LINE
  5
115
330
1F
100
AcDbEntity
  8
0
  6
Continuous
 62
     7
370
    18
100
AcDbLine
 10
0.0621791378
 20
8.4506055117
 30
0.0
 11
10.9444569626
 21
8.4506055117
 31
0.0
  0
LINE
  5
116
330
1F
100
AcDbEntity
  8
0
  6
Continuous
 62
     7
370
    18
100
AcDbLine
 10
0.0621791378
 20
8.4506055117
 30
0.0
 11
0.0621791378
 21
0.035557648
 31
0.0
  0
LINE
  5
117
330
1F
100
AcDbEntity
  8
0
  6
Continuous
 62
     7
370
    18
100
AcDbLine
 10
10.9444569626
 20
0.035557648
 30
0.0
 11
0.0621791378
 21
0.035557648
 31
0.0
  0
LINE
  5
118
330
1F
100
AcDbEntity
  8
0
  6
Continuous
 62
     7
370
    18
100
AcDbLine
 10
10.9444569626
 20
0.035557648
 30
0.0
 11
10.9444569626
 21
8.4506055117
 31
0.0
  0
LINE
  5
119
330
1F
100
AcDbEntity
  8
0
  6
Continuous
 62
     7
370
    18
100
AcDbLine
 10
8.4938096065
 20
0.4840901186
 30
0.0
 11
6.7571952625
 21
0.4840901186
 31
0.0
  0
LINE
  5
11A
330
1F
100
AcDbEntity
  8
0
  6
Continuous
 62
     7
370
    18
100
AcDbLine
 10
6.7571952625
 20
0.4840901186
 30
0.0
 11
6.7571952625
 21
1.030163002
 31
0.0
  0
LINE
  5
11B
330
1F
100
AcDbEntity
  8
0
  6
Continuous
 62
     7
370
    18
100
AcDbLine
 10
6.7571952625
 20
0.035557648
 30
0.0
 11
6.7571952625
 21
1.030163002
 31
0.0
  0
LINE
  5
11C
330
1F
100
AcDbEntity
  8
0
  6
Continuous
 62
     7
370
    18
100
AcDbLine
 10
8.4938096065
 20
0.6756085809
 30
0.0
 11
10.9444569626
 21
0.6756085809
 31
0.0
  0
LINE
  5
11D
330
1F
100
AcDbEntity
  8
0
  6
Continuous
 62
     7
370
    18
100
AcDbLine
 10
8.4938096065
 20
1.3873799542
 30
0.0
 11
8.4938096065
 21
0.035557648
 31
0.0
  0
LINE
  5
11E
330
1F
100
AcDbEntity
  8
0
  6
Continuous
 62
     7
370
    18
100
AcDbLine
 10
8.4938096065
 20
1.030163002
 30
0.0
 11
6.7571952625
 21
1.030163002
 31
0.0
  0
LINE
  5
11F
330
1F
100
AcDbEntity
  8
0
  6
Continuous
 62
     7
370
    18
100
AcDbLine
 10
8.4938096065
 20
0.3598787426
 30
0.0
 11
10.9444569626
 21
0.3598787426
 31
0.0
  0
LINE
  5
120
330
1F
100
AcDbEntity
  8
0
  6
Continuous
 62
     7
370
    18
100
AcDbLine
 10
8.4938096065
 20
0.6662079686
 30
0.0
 11
6.7571952625
 21
0.6662079686
 31
0.0
  0
LINE
  5
121
330
1F
100
AcDbEntity
  8
0
  6
Continuous
 62
     7
370
    18
100
AcDbLine
 10
8.4938096065
 20
0.8459606517
 30
0.0
 11
6.7571952625
 21
0.8459606517
 31
0.0
  0
LINE
  5
122
330
1F
100
AcDbEntity
  8
0
  6
Continuous
 62
     7
370
    18
100
AcDbLine
 10
7.3281027587
 20
1.030163002
 30
0.0
 11
7.3281027587
 21
0.4840901186
 31
0.0
  0
LINE
  5
123
330
1F
100
AcDbEntity
  8
0
  6
Continuous
 62
     7
370
    18
100
AcDbLine
 10
7.8037240401
 20
1.030163002
 30
0.0
 11
7.8037240401
 21
0.4840901186
 31
0.0
  0
LINE
  5
124
330
1F
100
AcDbEntity
  8
0
  6
Continuous
 62
     7
370
    18
100
AcDbLine
 10
9.990119718
 20
0.3598787426
 30
0.0
 11
9.990119718
 21
0.035557648
 31
0.0
  0
LINE
  5
125
330
1F
100
AcDbEntity
  8
0
  6
Continuous
 62
     7
370
    18
100
AcDbLine
 10
6.7571952625
 20
0.4840901186
 30
0.0
 11
6.7571952625
 21
0.297745443
 31
0.0
  0
LINE
  5
126
330
1F
100
AcDbEntity
  8
0
  6
Continuous
 62
     7
370
    18
100
AcDbLine
 10
6.7571952625
 20
0.297745443
 30
0.0
 11
8.4938096065
 21
0.297745443
 31
0.0
  0
LINE
  5
127
330
1F
100
AcDbEntity
  8
0
  6
Continuous
 62
     7
370
    18
100
AcDbLine
 10
6.7571952625
 20
0.297745443
 30
0.0
 11
6.7571952625
 21
1.3873799542
 31
0.0
  0
LINE
  5
128
330
1F
100
AcDbEntity
  8
0
  6
Continuous
 62
     7
370
    18
100
AcDbLine
 10
6.7571952625
 20
1.3873799542
 30
0.0
 11
8.4938096065
 21
1.3873799542
 31
0.0
  0
LINE
  5
129
330
1F
100
AcDbEntity
  8
0
  6
Continuous
 62
     7
370
    18
100
AcDbLine
 10
10.6365495992
 20
0.6756085809
 30
0.0
 11
10.6365495992
 21
0.3598787426
 31
0.0
  0
LINE
  5
12A
330
1F
100
AcDbEntity
  8
0
  6
Continuous
 62
     7
370
    18
100
AcDbLine
 10
8.4938096065
 20
1.3873799542
 30
0.0
 11
10.9444569626
 21
1.3873799542
 31
0.0
  0
LINE
  5
12B
330
1F
100
AcDbEntity
  8
0
  6
Continuous
 62
     7
370
    18
100
AcDbLine
 10
10.9444569626
 20
1.3873799542
 30
0.0
 11
10.9444569626
 21
1.9698084888
 31
0.0
  0
LINE
  5
12C
330
1F
100
AcDbEntity
  8
0
  6
Continuous
 62
     7
370
    18
100
AcDbLine
 10
8.4938096065
 20
0.9800288797
 30
0.0
 11
10.9444569626
 21
0.9800288797
 31
0.0
  0
INSERT
  5
12D
330
1F
100
AcDbEntity
  8
0
  6
Continuous
 62
     7
100
AcDbBlockReference
  2
THORLABS LOGO1
 10
8.7223523294
 20
0.8395657607
 30
0.0
 41
0.25
 42
0.25
 43
0.25
  0
INSERT
  5
12E
330
1F
100
AcDbEntity
  8
0
  6
Continuous
 62
     7
100
AcDbBlockReference
  2
Third Angle Projection Block
 10
4.6348905679
 20
0.6108753523
 30
0.0
 41
0.8
 42
0.8
 43
0.8
  0
MTEXT
  5
130
330
1F
100
AcDbEntity
  8
0
  6
Continuous
 62
     7
370
     0
100
AcDbMText
 10
10.7953498493
 20
0.5227176726
 30
0.0
 40
0.125
 41
0.0
 71
     2
 72
     1
  1
E
  7
SLDTEXTSTYLE0
 73
     1
 44
1.0
  0
MTEXT
  5
131
330
1F
100
AcDbEntity
  8
0
  6
Continuous
 62
     7
370
     0
100
AcDbMText
 10
9.2319620376
 20
0.2019943461
 30
0.0
 40
0.125
 41
0.0
 71
     2
 72
     1
  1
LAT500
  7
SLDTEXTSTYLE0
 73
     1
 44
1.0
  0
MTEXT
  5
132
330
1F
100
AcDbEntity
  8
0
  6
Continuous
 62
     7
370
     0
100
AcDbMText
 10
8.5204715199
 20
0.6623747189
 30
0.0
 40
0.0833333333
 41
0.0
 71
     1
 72
     1
  1
MATERIAL
  7
SLDTEXTSTYLE0
 73
     1
 44
1.0
  0
MTEXT
  5
133
330
1F
100
AcDbEntity
  8
0
  6
Continuous
 62
     7
370
     0
100
AcDbMText
 10
6.8594860853
 20
0.7895493672
 30
0.0
 40
0.0729166667
 41
0.0
 71
     1
 72
     1
  1
DRAWN
  7
SLDTEXTSTYLE0
 73
     1
 44
1.0
  0
MTEXT
  5
134
330
1F
100
AcDbEntity
  8
0
  6
Continuous
 62
     7
370
     0
100
AcDbMText
 10
6.7872445848
 20
0.613335314
 30
0.0
 40
0.0729166667
 41
0.0
 71
     1
 72
     1
  1
APPROVAL
  7
SLDTEXTSTYLE0
 73
     1
 44
1.0
  0
MTEXT
  5
135
330
1F
100
AcDbEntity
  8
0
  6
Continuous
 62
     7
370
     0
100
AcDbMText
 10
10.6936137314
 20
0.6373332609
 30
0.0
 40
0.0833333333
 41
0.0
 71
     1
 72
     1
  1
REV
  7
SLDTEXTSTYLE0
 73
     1
 44
1.0
  0
MTEXT
  5
136
330
1F
100
AcDbEntity
  8
0
  6
Continuous
 62
     7
370
     0
100
AcDbMText
 10
7.4919633718
 20
0.7999100272
 30
0.0
 40
0.0833333333
 41
0.0
 71
     1
 72
     1
  1
DS
  7
SLDTEXTSTYLE0
 73
     1
 44
1.0
  0
MTEXT
  5
137
330
1F
100
AcDbEntity
  8
0
  6
Continuous
 62
     7
370
     0
100
AcDbMText
 10
7.4919633718
 20
0.623695974
 30
0.0
 40
0.0833333333
 41
0.0
 71
     1
 72
     1
  1
BW
  7
SLDTEXTSTYLE0
 73
     1
 44
1.0
  0
MTEXT
  5
138
330
1F
100
AcDbEntity
  8
0
  6
Continuous
 62
     7
370
     0
100
AcDbMText
 10
7.8687497515
 20
0.7999100272
 30
0.0
 40
0.0833333333
 41
0.0
 71
     1
 72
     1
  1
07/01/2019
  7
SLDTEXTSTYLE0
 73
     1
 44
1.0
  0
MTEXT
  5
139
330
1F
100
AcDbEntity
  8
0
  6
Continuous
 62
     7
370
     0
100
AcDbMText
 10
8.0163191884
 20
0.9772495896
 30
0.0
 40
0.0833333333
 41
0.0
 71
     1
 72
     1
  1
DATE
  7
SLDTEXTSTYLE0
 73
     1
 44
1.0
  0
MTEXT
  5
13A
330
1F
100
AcDbEntity
  8
0
  6
Continuous
 62
     7
370
     0
100
AcDbMText
 10
7.8687497515
 20
0.623695974
 30
0.0
 40
0.0833333333
 41
0.0
 71
     1
 72
     1
  1
07/10/2019
  7
SLDTEXTSTYLE0
 73
     1
 44
1.0
  0
MTEXT
  5
13C
330
1F
100
AcDbEntity
  8
0
  6
Continuous
 62
     7
370
     0
100
AcDbMText
 10
9.0316104912
 20
1.0943207896
 30
0.0
 40
0.0833333333
 41
0.0
 71
     1
 72
     1
  1
w w w . t h o r  l a b s . c o m
  7
SLDTEXTSTYLE1
 73
     1
 44
1.0
  0
MTEXT
  5
13D
330
1F
100
AcDbEntity
  8
0
  6
Continuous
 62
     7
370
     0
100
AcDbMText
 10
8.5315119501
 20
0.328719653
 30
0.0
 40
0.0833333333
 41
0.0
 71
     1
 72
     1
  1
ITEM #
  7
SLDTEXTSTYLE0
 73
     1
 44
1.0
  0
MTEXT
  5
13E
330
1F
100
AcDbEntity
  8
0
  6
Continuous
 62
     7
370
     0
100
AcDbMText
 10
10.0209370115
 20
0.328719653
 30
0.0
 40
0.0833333333
 41
0.0
 71
     1
 72
     1
  1
APPROX WEIGHT
  7
SLDTEXTSTYLE0
 73
     1
 44
1.0
  0
MTEXT
  5
13F
330
1F
100
AcDbEntity
  8
0
  6
Continuous
 62
     7
370
     0
100
AcDbMText
 10
9.5974743449
 20
0.5414715262
 30
0.0
 40
0.125
 41
0.0
 71
     2
 72
     1
  1
Virgin Grade PTFE
  7
SLDTEXTSTYLE0
 73
     1
 44
1.0
  0
MTEXT
  5
141
330
1F
100
AcDbEntity
  8
0
  6
Continuous
 62
     7
370
     0
100
AcDbMText
 10
10.4826226539
 20
0.2019943461
 30
0.0
 40
0.125
 41
0.0
 71
     2
 72
     1
  1
26 g
  7
SLDTEXTSTYLE2
 73
     1
 44
1.0
  0
INSERT
  5
147
330
1F
100
AcDbEntity
  8
0
  6
Continuous
 62
     7
370
     0
100
AcDbBlockReference
  2
SW_NOTE_0
 10
6.8835832285
 20
0.1754273811
 30
0.0
  0
INSERT
  5
14D
330
1F
100
AcDbEntity
  8
0
  6
Continuous
 62
     7
370
     0
100
AcDbBlockReference
  2
SW_NOTE_1
 10
6.8719828753
 20
1.2001390658
 30
0.0
  0
MTEXT
  5
14E
330
1F
100
AcDbEntity
  8
0
  6
Continuous
 62
     7
370
     0
100
AcDbMText
 10
7.3987149145
 20
0.9772495896
 30
0.0
 40
0.0833333333
 41
0.0
 71
     1
 72
     1
  1
NAME
  7
SLDTEXTSTYLE0
 73
     1
 44
1.0
  0
INSERT
  5
157
330
1F
100
AcDbEntity
  8
0
  6
Continuous
 62
     7
370
     0
100
AcDbBlockReference
  2
SW_NOTE_2
 10
8.8754305044
 20
0.8263997492
 30
0.0
  0
MTEXT
  5
158
330
1F
100
AcDbEntity
  8
0
  6
Continuous
 62
     7
370
     0
100
AcDbMText
 10
7.0281258754
 20
0.4200025137
 30
0.0
 40
0.0625
 41
0.0
 71
     1
 72
     1
  1
COPYRIGHT © 2019 BY THORLABS
  7
SLDTEXTSTYLE0
 73
     1
 44
1.0
  0
INSERT
  5
15E
330
1F
100
AcDbEntity
  8
0
  6
Continuous
 62
     7
370
     0
100
AcDbBlockReference
  2
SW_NOTE_3
 10
2.1096529316
 20
0.3219551564
 30
0.0
  0
INSERT
  5
170
330
1F
100
AcDbEntity
  8
0
  6
Continuous
 62
     7
370
     0
100
AcDbBlockReference
  2
SW_NOTE_4
 10
0.6508773567
 20
2.3764910127
 30
0.0
  0
CIRCLE
  5
171
330
1F
100
AcDbEntity
  8
0
  6
Continuous
 62
     7
370
    18
100
AcDbCircle
 10
3.1853704912
 20
4.5832972882
 30
0.0
 40
0.984251968503937
  0
DIMENSION
  5
172
330
1F
100
AcDbEntity
  8
0
  6
Continuous
 62
     7
370
    18
100
AcDbDimension
  2
_D
 10
2.4928446944
 20
3.8838975754
 30
0.0
 11
4.8391662728
 21
5.8245159098
 31
0.0
 70
   163
  1
<>
 71
     1
 42
-1.0
  3
SLDDIMSTYLE0
100
AcDbDiametricDimension
 15
3.8778962881
 25
5.2826970009
 35
0.0
 40
0.0
  0
LINE
  5
183
330
1F
100
AcDbEntity
  8
0
  6
PHANTOM
 62
     7
370
    35
100
AcDbLine
 10
3.1853704912
 20
5.8037697291
 30
0.0
 11
3.1853704912
 21
3.3628248472
 31
0.0
  0
LINE
  5
184
330
1F
100
AcDbEntity
  8
0
  6
Continuous
 62
     7
370
    35
100
AcDbLine
 10
3.1853704912
 20
5.8037697291
 30
0.0
 11
3.5353704912
 21
5.8037697291
 31
0.0
  0
SOLID
  5
185
330
1F
100
AcDbEntity
  8
0
  6
Continuous
 62
     7
370
    35
100
AcDbTrace
 10
3.5353704912
 20
5.8037697291
 30
0.0
 11
3.3853704912
 21
5.8287697291
 31
0.0
 12
3.3853704912
 22
5.7787697291
 32
0.0
 13
3.3853704912
 23
5.7787697291
 33
0.0
  0
LINE
  5
186
330
1F
100
AcDbEntity
  8
0
  6
Continuous
 62
     7
370
    35
100
AcDbLine
 10
3.1853704912
 20
3.3628248472
 30
0.0
 11
3.5353704912
 21
3.3628248472
 31
0.0
  0
SOLID
  5
187
330
1F
100
AcDbEntity
  8
0
  6
Continuous
 62
     7
370
    35
100
AcDbTrace
 10
3.5353704912
 20
3.3628248472
 30
0.0
 11
3.3853704912
 21
3.3878248472
 31
0.0
 12
3.3853704912
 22
3.3378248472
 32
0.0
 13
3.3853704912
 23
3.3378248472
 33
0.0
  0
MTEXT
  5
188
330
1F
100
AcDbEntity
  8
0
  6
Continuous
 62
     7
100
AcDbMText
 10
3.5667115345
 20
5.8864092155
 30
0.0
 40
0.1041666667
 41
0.0
 71
     1
 72
     1
  1
A
  7
SLDTEXTSTYLE0
 73
     1
 44
1.0
  0
MTEXT
  5
189
330
1F
100
AcDbEntity
  8
0
  6
Continuous
 62
     7
100
AcDbMText
 10
3.5667115345
 20
3.4454643336
 30
0.0
 40
0.1041666667
 41
0.0
 71
     1
 72
     1
  1
A
  7
SLDTEXTSTYLE0
 73
     1
 44
1.0
  0
LINE
  5
18A
330
1F
100
AcDbEntity
  8
0
  6
Continuous
 62
     7
370
    18
100
AcDbLine
 10
10.3522387177
 20
6.46792131
 30
0.0
 11
10.4845107895
 21
6.5442803517
 31
0.0
  0
LINE
  5
18B
330
1F
100
AcDbEntity
  8
0
  6
Continuous
 62
     7
370
    18
100
AcDbLine
 10
9.5003388086
 20
8.2491009469
 30
0.0
 11
9.3680667368
 21
8.1727419052
 31
0.0
  0
LINE
  5
18C
330
1F
100
AcDbEntity
  8
0
  6
Continuous
 62
     7
370
    18
100
AcDbLine
 10
10.6883960404
 20
6.9949150037
 30
0.0
 11
10.6883960404
 21
7.0029505166
 31
0.0
  0
LINE
  5
18D
330
1F
100
AcDbEntity
  8
0
  6
Continuous
 62
     7
370
    18
100
AcDbLine
 10
9.9994964952
 20
8.1962888309
 30
0.0
 11
9.992537914
 21
8.2003072403
 31
0.0
  0
LWPOLYLINE
  5
18E
330
1F
100
AcDbEntity
  8
0
  6
Continuous
 62
     7
370
    18
100
AcDbPolyline
 90
      170
 70
   128
 43
0.0
 10
9.8601527273
 20
6.5166497061
 10
9.8860220109
 20
6.5022710669
 10
9.9118555409
 20
6.4890230609
 10
9.9376176129
 20
6.476923998
 10
9.9632726215
 20
6.4659906004
 10
9.9887851092
 20
6.4562379788
 10
10.0141198153
 20
6.4476796123
 10
10.039241725
 20
6.4403273294
 10
10.0641161177
 20
6.4341912915
 10
10.0887086146
 20
6.4292799792
 10
10.1129852267
 20
6.4256001803
 10
10.1369124016
 20
6.4231569808
 10
10.1604570697
 20
6.4219537573
 10
10.1835866902
 20
6.4219921728
 10
10.2062692959
 20
6.4232721741
 10
10.2284735373
 20
6.4257919923
 10
10.2501687263
 20
6.4295481446
 10
10.2713248781
 20
6.4345354398
 10
10.291912753
 20
6.440746985
 10
10.3119038967
 20
6.4481741952
 10
10.3312706797
 20
6.4568068054
 10
10.3499863353
 20
6.4666328845
 10
10.3680249968
 20
6.477638852
 10
10.3853617332
 20
6.4898094967
 10
10.4019725834
 20
6.5031279976
 10
10.41783459
 20
6.5175759475
 10
10.43292583
 20
6.5331333778
 10
10.4472254461
 20
6.5497787868
 10
10.4607136749
 20
6.5674891692
 10
10.4733718745
 20
6.5862400475
 10
10.48518255
 20
6.6060055064
 10
10.4961293782
 20
6.6267582281
 10
10.5061972294
 20
6.6484695307
 10
10.515372189
 20
6.671109407
 10
10.5236415764
 20
6.6946465668
 10
10.5309939626
 20
6.7190484796
 10
10.5374191858
 20
6.7442814198
 10
10.5429083659
 20
6.7703105131
 10
10.5474539163
 20
6.7970997851
 10
10.5510495546
 20
6.8246122105
 10
10.5536903114
 20
6.8528097646
 10
10.5553725369
 20
6.881653476
 10
10.5560939061
 20
6.91110348
 10
10.555853422
 20
6.9411190741
 10
10.554651417
 20
6.971658774
 10
10.5524895523
 20
7.0026803711
 10
10.5493708159
 20
7.0341409908
 10
10.5452995181
 20
7.0659971517
 10
10.5402812859
 20
7.0982048256
 10
10.5343230548
 20
7.1307194988
 10
10.5274330596
 20
7.1634962329
 10
10.5196208231
 20
7.1964897276
 10
10.5108971423
 20
7.229654383
 10
10.5012740743
 20
7.2629443624
 10
10.4907649189
 20
7.2963136561
 10
10.4793842007
 20
7.3297161448
 10
10.4671476489
 20
7.3631056633
 10
10.4540721756
 20
7.3964360641
 10
10.4401758522
 20
7.4296612818
 10
10.4254778847
 20
7.462735396
 10
10.409998587
 20
7.4956126953
 10
10.3937593528
 20
7.5282477405
 10
10.3767826263
 20
7.5605954268
 10
10.3590918708
 20
7.5926110469
 10
10.3407115366
 20
7.6242503524
 10
10.3216670269
 20
7.6554696148
 10
10.3019846629
 20
7.6862256864
 10
10.2816916474
 20
7.7164760595
 10
10.2608160273
 20
7.7461789253
 10
10.2393866544
 20
7.7752932318
 10
10.2174331461
 20
7.8037787404
 10
10.1949858442
 20
7.8315960816
 10
10.1720757728
 20
7.8587068093
 10
10.1487345957
 20
7.8850734541
 10
10.1249945725
 20
7.9106595749
 10
10.1008885141
 20
7.9354298093
 10
10.0764497371
 20
7.9593499227
 10
10.0517120182
 20
7.9823868554
 10
10.0267095472
 20
8.0045087681
 10
10.0014768797
 20
8.0256850865
 10
9.9760488894
 20
8.045886543
 10
9.9504607203
 20
8.0650852172
 10
9.9247477374
 20
8.083254575
 10
9.8989454784
 20
8.1003695047
 10
9.8730896043
 20
8.1164063519
 10
9.8472158503
 20
8.1313429521
 10
9.8213599762
 20
8.1451586618
 10
9.7955577171
 20
8.1578343863
 10
9.7698447342
 20
8.1693526066
 10
9.7442565651
 20
8.1796974036
 10
9.7188285749
 20
8.1888544797
 10
9.6935959073
 20
8.1968111792
 10
9.6685934363
 20
8.203556505
 10
9.6438557174
 20
8.2090811346
 10
9.6194169405
 20
8.2133774325
 10
9.595310882
 20
8.2164394607
 10
9.5715708588
 20
8.2182629873
 10
9.5482296817
 20
8.2188454919
 10
9.5253196103
 20
8.2181861696
 10
9.5028723084
 20
8.2162859315
 10
9.4809188001
 20
8.213147404
 10
9.4594894273
 20
8.2087749248
 10
9.4386138071
 20
8.203174537
 10
9.4183207916
 20
8.1963539809
 10
9.3986384277
 20
8.1883226831
 10
9.3795939179
 20
8.1790917435
 10
9.3612135837
 20
8.1686739203
 10
9.3435228282
 20
8.1570836116
 10
9.3265461017
 20
8.1443368365
 10
9.3103068676
 20
8.130451212
 10
9.2948275698
 20
8.1154459294
 10
9.2801296023
 20
8.0993417273
 10
9.2662332789
 20
8.0821608631
 10
9.2531578056
 20
8.0639270824
 10
9.2409212538
 20
8.0446655859
 10
9.2295405357
 20
8.0244029947
 10
9.2190313802
 20
8.0031673135
 10
9.2094083122
 20
7.980987892
 10
9.2006846314
 20
7.9578953841
 10
9.1928723949
 20
7.9339217057
 10
9.1859823998
 20
7.9090999906
 10
9.1800241687
 20
7.8834645447
 10
9.1750059364
 20
7.8570507984
 10
9.1709346386
 20
7.8298952579
 10
9.1678159022
 20
7.8020354546
 10
9.1656540375
 20
7.7735098933
 10
9.1644520325
 20
7.7443579989
 10
9.1642115484
 20
7.7146200618
 10
9.1649329176
 20
7.6843371826
 10
9.1666151431
 20
7.653551215
 10
9.1692558999
 20
7.622304708
 10
9.1728515382
 20
7.5906408469
 10
9.1773970886
 20
7.5586033942
 10
9.1828862687
 20
7.5262366285
 10
9.1893114919
 20
7.4935852835
 10
9.1966638781
 20
7.4606944863
 10
9.2049332655
 20
7.427609695
 10
9.2141082251
 20
7.3943766358
 10
9.2241760763
 20
7.3610412396
 10
9.2351229045
 20
7.3276495791
 10
9.24693358
 20
7.2942478045
 10
9.2595917796
 20
7.2608820801
 10
9.2730800084
 20
7.2275985202
 10
9.2873796245
 20
7.1944431258
 10
9.3024708646
 20
7.1614617206
 10
9.3183328711
 20
7.1286998879
 10
9.3349437214
 20
7.0962029075
 10
9.3522804577
 20
7.0640156931
 10
9.3703191192
 20
7.0321827303
 10
9.3890347748
 20
7.0007480152
 10
9.4084015578
 20
6.9697549933
 10
9.4283927015
 20
6.9392464998
 10
9.4489805764
 20
6.9092647003
 10
9.4701367282
 20
6.8798510322
 10
9.4918319172
 20
6.8510461478
 10
9.5140361587
 20
6.8228898581
 10
9.5367187643
 20
6.7954210777
 10
9.5598483848
 20
6.7686777708
 10
9.583393053
 20
6.7426968992
 10
9.6073202278
 20
6.7175143706
 10
9.6315968399
 20
6.6931649897
 10
9.6561893368
 20
6.6696824095
 10
9.6810637295
 20
6.6470990849
 10
9.7061856392
 20
6.6254462283
 10
9.7315203454
 20
6.6047537657
 10
9.757032833
 20
6.585050296
 10
9.7826878416
 20
6.5663630513
 10
9.8084499136
 20
6.5487178589
 10
9.8342834436
 20
6.532139106
 10
9.8601527273
 20
6.5166497061
  0
LWPOLYLINE
  5
18F
330
1F
100
AcDbEntity
  8
0
  6
Continuous
 62
     7
370
    18
100
AcDbPolyline
 90
       65
 70
   128
 43
0.0
 10
10.6883960404
 20
6.9949150037
 10
10.687915093
 20
7.0250655427
 10
10.6864729154
 20
7.055729701
 10
10.684071501
 20
7.086865098
 10
10.6807141686
 20
7.1184287017
 10
10.6764055584
 20
7.1503768885
 10
10.6711516252
 20
7.1826655031
 10
10.6649596306
 20
7.2152499196
 10
10.6578381324
 20
7.2480851036
 10
10.649796973
 20
7.2811256738
 10
10.6408472663
 20
7.3143259652
 10
10.6310013813
 20
7.3476400919
 10
10.6202729261
 20
7.381022011
 10
10.6086767284
 20
7.4144255855
 10
10.596228815
 20
7.4478046488
 10
10.5829463902
 20
7.4811130679
 10
10.5688478115
 20
7.5143048076
 10
10.5539525643
 20
7.547333994
 10
10.5382812353
 20
7.5801549777
 10
10.5218554835
 20
7.6127223973
 10
10.504698011
 20
7.6449912415
 10
10.4868325308
 20
7.676916912
 10
10.4682837347
 20
7.7084552846
 10
10.4490772587
 20
7.7395627704
 10
10.4292396479
 20
7.7701963762
 10
10.4087983198
 20
7.8003137634
 10
10.387781526
 20
7.8298733072
 10
10.3662183137
 20
7.8588341536
 10
10.3441384851
 20
7.8871562761
 10
10.3215725565
 20
7.914800531
 10
10.2985517162
 20
7.9417287115
 10
10.2751077809
 20
7.9679036003
 10
10.2512731524
 20
7.9932890215
 10
10.2270807721
 20
8.0178498901
 10
10.2025640762
 20
8.0415522607
 10
10.1777569489
 20
8.0643633746
 10
10.1526936759
 20
8.0862517048
 10
10.1274088969
 20
8.1071869996
 10
10.1019375577
 20
8.1271403245
 10
10.076314862
 20
8.1460841023
 10
10.0505762228
 20
8.163992151
 10
10.024757213
 20
8.1808397199
 10
9.998893517
 20
8.1966035244
 10
9.9730208806
 20
8.2112617773
 10
9.9471750621
 20
8.2247942197
 10
9.9213917829
 20
8.2371821484
 10
9.8957066777
 20
8.2484084424
 10
9.8701552456
 20
8.2584575857
 10
9.844772801
 20
8.2673156896
 10
9.8195944248
 20
8.2749705115
 10
9.7946549157
 20
8.2814114716
 10
9.7699887424
 20
8.2866296679
 10
9.7456299957
 20
8.2906178885
 10
9.7216123416
 20
8.2933706213
 10
9.6979689746
 20
8.2948840617
 10
9.6747325721
 20
8.2951561181
 10
9.6519352489
 20
8.2941864144
 10
9.6296085128
 20
8.2919762908
 10
9.6077832214
 20
8.2885288019
 10
9.5864895393
 20
8.2838487126
 10
9.5657568962
 20
8.277942491
 10
9.5456139466
 20
8.2708183001
 10
9.5260885297
 20
8.2624859862
 10
9.5072076314
 20
8.2529570652
 10
9.5003388086
 20
8.2491009469
  0
LWPOLYLINE
  5
190
330
1F
100
AcDbEntity
  8
0
  6
Continuous
 62
     7
370
    18
100
AcDbPolyline
 90
       23
 70
   128
 43
0.0
 10
10.4845107895
 20
6.5442803517
 10
10.4868325308
 20
6.54563337
 10
10.504698011
 20
6.5569319961
 10
10.5218554835
 20
6.5693912442
 10
10.5382812353
 20
6.5829938945
 10
10.5539525643
 20
6.5977211469
 10
10.5688478115
 20
6.6135526469
 10
10.5829463902
 20
6.6304665141
 10
10.596228815
 20
6.648439372
 10
10.6086767284
 20
6.6674463804
 10
10.6202729261
 20
6.68746127
 10
10.6310013813
 20
6.7084563783
 10
10.6408472663
 20
6.7304026883
 10
10.649796973
 20
6.7532698682
 10
10.6578381324
 20
6.7770263135
 10
10.6649596306
 20
6.8016391906
 10
10.6711516252
 20
6.8270744823
 10
10.6764055584
 20
6.8532970348
 10
10.6807141686
 20
6.8802706062
 10
10.684071501
 20
6.9079579164
 10
10.6864729154
 20
6.9363206993
 10
10.687915093
 20
6.9653197548
 10
10.6883960404
 20
6.9949150037
  0
ARC
  5
191
330
1F
100
AcDbEntity
  8
0
  6
Continuous
 62
     7
370
    18
100
AcDbCircle
 10
9.1948122516
 20
6.9362387266
 30
0.0
 40
1.495072906964212
100
AcDbArc
 50
2.5574495568
 51
57.4371739105
  0
ARC
  5
192
330
1F
100
AcDbEntity
  8
0
  6
Continuous
 62
     7
370
    18
100
AcDbCircle
 10
-0.2662637233
 20
4.5832972882
 30
0.0
 40
7.874015748031498
100
AcDbArc
 50
352.8192442185
 51
7.1807557815
  0
LINE
  5
193
330
1F
100
AcDbEntity
  8
0
  6
Continuous
 62
     7
370
    18
100
AcDbLine
 10
7.5459940849
 20
3.5990453197
 30
0.0
 11
7.3589331271
 21
3.5990453197
 31
0.0
  0
LINE
  5
194
330
1F
100
AcDbEntity
  8
0
  6
Continuous
 62
     7
370
    18
100
AcDbLine
 10
7.3490906074
 20
3.6088878393
 30
0.0
 11
7.3589331271
 21
3.5990453197
 31
0.0
  0
LINE
  5
195
330
1F
100
AcDbEntity
  8
0
  6
Continuous
 62
     7
370
    18
100
AcDbLine
 10
7.3490906074
 20
3.6088878393
 30
0.0
 11
7.3490906074
 21
5.557706737
 31
0.0
  0
LINE
  5
196
330
1F
100
AcDbEntity
  8
0
  6
Continuous
 62
     7
370
    18
100
AcDbLine
 10
7.3589331271
 20
5.5675492567
 30
0.0
 11
7.3490906074
 21
5.557706737
 31
0.0
  0
LINE
  5
197
330
1F
100
AcDbEntity
  8
0
  6
Continuous
 62
     7
370
    18
100
AcDbLine
 10
7.3589331271
 20
5.5675492567
 30
0.0
 11
7.5459940849
 21
5.5675492567
 31
0.0
  0
HATCH
  5
198
330
1F
100
AcDbEntity
  8
0
  6
Continuous
 62
     7
370
    18
100
AcDbHatch
 10
0.0
 20
0.0
 30
0.0
210
0.0
220
0.0
230
1.0
  2
ANSI31
 70
     0
 71
     0
 91
        1
 92
        0
 93
        6
 72
     1
 10
7.545994084926106
 20
5.567549256672428
 11
7.358933127058219
 21
5.567549256672428
 72
     1
 10
7.358933127058219
 20
5.567549256672428
 11
7.349090607373179
 21
5.557706736987387
 72
     1
 10
7.349090607373179
 20
5.557706736987387
 11
7.349090607373179
 21
3.608887839349593
 72
     1
 10
7.349090607373179
 20
3.608887839349593
 11
7.358933127058219
 21
3.599045319664553
 72
     1
 10
7.358933127058219
 20
3.599045319664553
 11
7.545994084926106
 21
3.599045319664553
 72
     2
 10
-0.2662637233354825
 20
4.58329728816849
 40
7.874015748031496
 50
352.8192442185426
 51
367.1807557814591
 73
     1
 97
        0
 75
     0
 76
     1
 52
0.0
 41
1.0
 77
     0
 78
     1
 53
45.0
 43
0.0
 44
0.0
 45
-0.0883883476483184
 46
0.0883883476483184
 79
     0
 98
        1
 10
0.0
 20
0.0
  0
DIMENSION
  5
199
330
1F
100
AcDbEntity
  8
0
  6
Continuous
 62
     7
370
    18
100
AcDbDimension
  2
_D_1
 10
7.6077520247
 20
6.2735363882
 30
0.0
 11
8.1446764606
 21
6.2735363882
 31
0.0
 70
   160
  1
<>
 71
     2
 42
-1.0
  3
SLDDIMSTYLE1
100
AcDbAlignedDimension
 13
7.3490906074
 23
5.557706737
 33
0.0
 14
7.6077520247
 24
4.5832972882
 34
0.0
100
AcDbRotatedDimension
  0
DIMENSION
  5
1AE
330
1F
100
AcDbEntity
  8
0
  6
Continuous
 62
     7
370
    18
100
AcDbDimension
  2
_D_2
 10
-0.2662637233
 20
4.5832972882
 30
0.0
 11
8.4252624214
 21
3.5767583231
 31
0.0
 70
   164
  1
<>
 71
     1
 42
-1.0
  3
SLDDIMSTYLE2
100
AcDbRadialDimension
 15
7.5500050555
 25
3.6314220986
 35
0.0
 40
0.0
  0
DIMENSION
  5
1BE
330
1F
100
AcDbEntity
  8
0
  6
Continuous
 62
     7
370
    18
100
AcDbDimension
  2
_D_3
 10
7.5459940849
 20
5.7984914856
 30
0.0
 11
6.8775451227
 21
5.7984914856
 31
0.0
 70
   160
  1
<>\P(REF)
 71
     2
 42
-1.0
  3
SLDDIMSTYLE3
100
AcDbAlignedDimension
 13
7.3490906074
 23
5.557706737
 33
0.0
 14
7.5459940849
 24
5.5675492567
 34
0.0
100
AcDbRotatedDimension
  0
INSERT
  5
1D8
330
1F
100
AcDbEntity
  8
0
  6
Continuous
 62
     7
370
     0
100
AcDbBlockReference
  2
SW_NOTE_5
 10
7.1340540142
 20
3.0850470735
 30
0.0
  0
ENDSEC
  0
SECTION
  2
OBJECTS
  0
DICTIONARY
  5
C
330
0
100
AcDbDictionary
281
     1
  3
ACAD_GROUP
350
D
  3
ACAD_LAYOUT
350
1A
  3
ACAD_MLINESTYLE
350
17
  3
ACAD_PLOTSETTINGS
350
19
  3
ACAD_PLOTSTYLENAME
350
E
  3
ACAD_SCALELIST
350
47
  0
DICTIONARY
  5
D
102
{ACAD_REACTORS
330
C
102
}
330
C
100
AcDbDictionary
281
     1
  0
DICTIONARY
  5
1A
102
{ACAD_REACTORS
330
C
102
}
330
C
100
AcDbDictionary
281
     1
  3
Layout1
350
1E
  3
Layout2
350
26
  3
Model
350
22
  0
DICTIONARY
  5
17
102
{ACAD_REACTORS
330
C
102
}
330
C
100
AcDbDictionary
281
     1
  3
Standard
350
18
  0
DICTIONARY
  5
19
102
{ACAD_REACTORS
330
C
102
}
330
C
100
AcDbDictionary
281
     1
  0
ACDBDICTIONARYWDFLT
  5
E
102
{ACAD_REACTORS
330
C
102
}
330
C
100
AcDbDictionary
281
     1
  3
Normal
350
F
100
AcDbDictionaryWithDefault
340
F
  0
DICTIONARY
  5
47
102
{ACAD_REACTORS
330
C
102
}
330
C
100
AcDbDictionary
281
     1
  3
A0
350
48
  3
A1
350
49
  3
A2
350
4A
  3
A3
350
4B
  3
A4
350
4C
  3
A5
350
4D
  3
A6
350
4E
  3
A7
350
4F
  3
A8
350
50
  3
A9
350
51
  3
B0
350
52
  3
B1
350
53
  3
B2
350
54
  3
B3
350
55
  3
B4
350
56
  3
B5
350
57
  3
B6
350
58
  3
B7
350
59
  3
B8
350
5A
  3
B9
350
5B
  3
C0
350
5C
  3
C1
350
5D
  3
C2
350
5E
  3
C3
350
5F
  3
C4
350
60
  3
C5
350
61
  3
C6
350
62
  3
C7
350
63
  3
C8
350
64
  3
C9
350
65
  3
D0
350
66
  3
D1
350
67
  3
D2
350
68
  0
LAYOUT
  5
1E
102
{ACAD_REACTORS
330
1A
102
}
330
1A
100
AcDbPlotSettings
  1

  2
none_device
  4

  6

 40
0.0
 41
0.0
 42
0.0
 43
0.0
 44
0.0
 45
0.0
 46
0.0
 47
0.0
 48
0.0
 49
0.0
140
0.0
141
0.0
142
1.0
143
1.0
 70
   688
 72
     0
 73
     0
 74
     5
  7

 75
    16
147
1.0
148
0.0
149
0.0
100
AcDbLayout
  1
Layout1
 70
     1
 71
     1
 10
0.0
 20
0.0
 11
12.0
 21
9.0
 12
0.0
 22
0.0
 32
0.0
 14
1.0000000000E+20
 24
1.0000000000E+20
 34
1.0000000000E+20
 15
-1.0000000000E+20
 25
-1.0000000000E+20
 35
-1.0000000000E+20
146
0.0
 13
0.0
 23
0.0
 33
0.0
 16
1.0
 26
0.0
 36
0.0
 17
0.0
 27
1.0
 37
0.0
 76
     0
330
1B
  0
LAYOUT
  5
26
102
{ACAD_REACTORS
330
1A
102
}
330
1A
100
AcDbPlotSettings
  1

  2
none_device
  4

  6

 40
0.0
 41
0.0
 42
0.0
 43
0.0
 44
0.0
 45
0.0
 46
0.0
 47
0.0
 48
0.0
 49
0.0
140
0.0
141
0.0
142
1.0
143
1.0
 70
   688
 72
     0
 73
     0
 74
     5
  7

 75
    16
147
1.0
148
0.0
149
0.0
100
AcDbLayout
  1
Layout2
 70
     1
 71
     2
 10
0.0
 20
0.0
 11
0.0
 21
0.0
 12
0.0
 22
0.0
 32
0.0
 14
0.0
 24
0.0
 34
0.0
 15
0.0
 25
0.0
 35
0.0
146
0.0
 13
0.0
 23
0.0
 33
0.0
 16
1.0
 26
0.0
 36
0.0
 17
0.0
 27
1.0
 37
0.0
 76
     0
330
23
  0
LAYOUT
  5
22
102
{ACAD_REACTORS
330
1A
102
}
330
1A
100
AcDbPlotSettings
  1

  2
none_device
  4
Letter_(8.50_x_11.00_Inches)
  6

 40
6.35
 41
6.35
 42
6.35000508
 43
6.35000508
 44
215.9
 45
279.4
 46
0.0
 47
0.0
 48
0.0
 49
0.0
140
0.0
141
0.0
142
1.0
143
1.0
 70
  1712
 72
     0
 73
     0
 74
     0
  7

 75
     0
147
1.0
148
0.0
149
0.0
100
AcDbLayout
  1
Model
 70
     1
 71
     0
 10
0.0
 20
0.0
 11
11.0
 21
8.5
 12
0.0
 22
0.0
 32
0.0
 14
0.0
 24
0.0
 34
0.0
 15
11.0
 25
8.5
 35
0.0
146
0.0
 13
0.0
 23
0.0
 33
0.0
 16
1.0
 26
0.0
 36
0.0
 17
0.0
 27
1.0
 37
0.0
 76
     0
330
1F
331
29
  0
MLINESTYLE
  5
18
102
{ACAD_REACTORS
330
17
102
}
330
17
100
AcDbMlineStyle
  2
Standard
 70
     0
  3

 62
   256
 51
90.0
 52
90.0
 71
     2
 49
0.5
 62
   256
  6
BYLAYER
 49
-0.5
 62
   256
  6
BYLAYER
  0
ACDBPLACEHOLDER
  5
F
102
{ACAD_REACTORS
330
E
102
}
330
E
  0
SCALE
  5
48
102
{ACAD_REACTORS
330
47
102
}
330
47
100
AcDbScale
 70
     0
300
1:1
140
1.0
141
1.0
290
     1
  0
SCALE
  5
49
102
{ACAD_REACTORS
330
47
102
}
330
47
100
AcDbScale
 70
     0
300
1:2
140
1.0
141
2.0
290
     0
  0
SCALE
  5
4A
102
{ACAD_REACTORS
330
47
102
}
330
47
100
AcDbScale
 70
     0
300
1:4
140
1.0
141
4.0
290
     0
  0
SCALE
  5
4B
102
{ACAD_REACTORS
330
47
102
}
330
47
100
AcDbScale
 70
     0
300
1:5
140
1.0
141
5.0
290
     0
  0
SCALE
  5
4C
102
{ACAD_REACTORS
330
47
102
}
330
47
100
AcDbScale
 70
     0
300
1:8
140
1.0
141
8.0
290
     0
  0
SCALE
  5
4D
102
{ACAD_REACTORS
330
47
102
}
330
47
100
AcDbScale
 70
     0
300
1:10
140
1.0
141
10.0
290
     0
  0
SCALE
  5
4E
102
{ACAD_REACTORS
330
47
102
}
330
47
100
AcDbScale
 70
     0
300
1:16
140
1.0
141
16.0
290
     0
  0
SCALE
  5
4F
102
{ACAD_REACTORS
330
47
102
}
330
47
100
AcDbScale
 70
     0
300
1:20
140
1.0
141
20.0
290
     0
  0
SCALE
  5
50
102
{ACAD_REACTORS
330
47
102
}
330
47
100
AcDbScale
 70
     0
300
1:30
140
1.0
141
30.0
290
     0
  0
SCALE
  5
51
102
{ACAD_REACTORS
330
47
102
}
330
47
100
AcDbScale
 70
     0
300
1:40
140
1.0
141
40.0
290
     0
  0
SCALE
  5
52
102
{ACAD_REACTORS
330
47
102
}
330
47
100
AcDbScale
 70
     0
300
1:50
140
1.0
141
50.0
290
     0
  0
SCALE
  5
53
102
{ACAD_REACTORS
330
47
102
}
330
47
100
AcDbScale
 70
     0
300
1:100
140
1.0
141
100.0
290
     0
  0
SCALE
  5
54
102
{ACAD_REACTORS
330
47
102
}
330
47
100
AcDbScale
 70
     0
300
2:1
140
2.0
141
1.0
290
     0
  0
SCALE
  5
55
102
{ACAD_REACTORS
330
47
102
}
330
47
100
AcDbScale
 70
     0
300
4:1
140
4.0
141
1.0
290
     0
  0
SCALE
  5
56
102
{ACAD_REACTORS
330
47
102
}
330
47
100
AcDbScale
 70
     0
300
8:1
140
8.0
141
1.0
290
     0
  0
SCALE
  5
57
102
{ACAD_REACTORS
330
47
102
}
330
47
100
AcDbScale
 70
     0
300
10:1
140
10.0
141
1.0
290
     0
  0
SCALE
  5
58
102
{ACAD_REACTORS
330
47
102
}
330
47
100
AcDbScale
 70
     0
300
100:1
140
100.0
141
1.0
290
     0
  0
SCALE
  5
59
102
{ACAD_REACTORS
330
47
102
}
330
47
100
AcDbScale
 70
     0
300
1/128" = 1'-0"
140
0.0078125
141
12.0
290
     0
  0
SCALE
  5
5A
102
{ACAD_REACTORS
330
47
102
}
330
47
100
AcDbScale
 70
     0
300
1/64" = 1'-0"
140
0.015625
141
12.0
290
     0
  0
SCALE
  5
5B
102
{ACAD_REACTORS
330
47
102
}
330
47
100
AcDbScale
 70
     0
300
1/32" = 1'-0"
140
0.03125
141
12.0
290
     0
  0
SCALE
  5
5C
102
{ACAD_REACTORS
330
47
102
}
330
47
100
AcDbScale
 70
     0
300
1/16" = 1'-0"
140
0.0625
141
12.0
290
     0
  0
SCALE
  5
5D
102
{ACAD_REACTORS
330
47
102
}
330
47
100
AcDbScale
 70
     0
300
3/32" = 1'-0"
140
0.09375
141
12.0
290
     0
  0
SCALE
  5
5E
102
{ACAD_REACTORS
330
47
102
}
330
47
100
AcDbScale
 70
     0
300
1/8" = 1'-0"
140
0.125
141
12.0
290
     0
  0
SCALE
  5
5F
102
{ACAD_REACTORS
330
47
102
}
330
47
100
AcDbScale
 70
     0
300
3/16" = 1'-0"
140
0.1875
141
12.0
290
     0
  0
SCALE
  5
60
102
{ACAD_REACTORS
330
47
102
}
330
47
100
AcDbScale
 70
     0
300
1/4" = 1'-0"
140
0.25
141
12.0
290
     0
  0
SCALE
  5
61
102
{ACAD_REACTORS
330
47
102
}
330
47
100
AcDbScale
 70
     0
300
3/8" = 1'-0"
140
0.375
141
12.0
290
     0
  0
SCALE
  5
62
102
{ACAD_REACTORS
330
47
102
}
330
47
100
AcDbScale
 70
     0
300
1/2" = 1'-0"
140
0.5
141
12.0
290
     0
  0
SCALE
  5
63
102
{ACAD_REACTORS
330
47
102
}
330
47
100
AcDbScale
 70
     0
300
3/4" = 1'-0"
140
0.75
141
12.0
290
     0
  0
SCALE
  5
64
102
{ACAD_REACTORS
330
47
102
}
330
47
100
AcDbScale
 70
     0
300
1" = 1'-0"
140
1.0
141
12.0
290
     0
  0
SCALE
  5
65
102
{ACAD_REACTORS
330
47
102
}
330
47
100
AcDbScale
 70
     0
300
1-1/2" = 1'-0"
140
1.5
141
12.0
290
     0
  0
SCALE
  5
66
102
{ACAD_REACTORS
330
47
102
}
330
47
100
AcDbScale
 70
     0
300
3" = 1'-0"
140
3.0
141
12.0
290
     0
  0
SCALE
  5
67
102
{ACAD_REACTORS
330
47
102
}
330
47
100
AcDbScale
 70
     0
300
6" = 1'-0"
140
6.0
141
12.0
290
     0
  0
SCALE
  5
68
102
{ACAD_REACTORS
330
47
102
}
330
47
100
AcDbScale
 70
     0
300
1'-0" = 1'-0"
140
12.0
141
12.0
290
     0
  0
ENDSEC
  0
EOF
