  0
SECTION
  2
HEADER
  9
$ACADVER
  1
AC1015
  9
$ACADMAINTVER
 70
     6
  9
$DWGCODEPAGE
  3
ANSI_1252
  9
$INSBASE
 10
0.0
 20
0.0
 30
0.0
  9
$EXTMIN
 10
0.0
 20
0.0
 30
0.0
  9
$EXTMAX
 10
11.0
 20
8.5
 30
0.0
  9
$LIMMIN
 10
0.0
 20
0.0
  9
$LIMMAX
 10
11.0
 20
8.5
  9
$ORTHOMODE
 70
     0
  9
$REGENMODE
 70
     1
  9
$FILLMODE
 70
     1
  9
$QTEXTMODE
 70
     0
  9
$MIRRTEXT
 70
     1
  9
$LTSCALE
 40
1.0
  9
$ATTMODE
 70
     1
  9
$TEXTSIZE
 40
0.1111111111
  9
$TRACEWID
 40
0.05
  9
$TEXTSTYLE
  7
Standard
  9
$CLAYER
  8
0
  9
$CELTYPE
  6
ByLayer
  9
$CECOLOR
 62
   256
  9
$CELTSCALE
 40
1.0
  9
$DISPSILH
 70
     0
  9
$DIMSCALE
 40
1.0
  9
$DIMASZ
 40
0.125
  9
$DIMEXO
 40
0.05
  9
$DIMDLI
 40
0.38
  9
$DIMRND
 40
0.0
  9
$DIMDLE
 40
0.0
  9
$DIMEXE
 40
0.07
  9
$DIMTP
 40
0.0
  9
$DIMTM
 40
0.0
  9
$DIMTXT
 40
0.1111111111
  9
$DIMCEN
 40
0.09
  9
$DIMTSZ
 40
0.0
  9
$DIMTOL
 70
     0
  9
$DIMLIM
 70
     0
  9
$DIMTIH
 70
     1
  9
$DIMTOH
 70
     1
  9
$DIMSE1
 70
     0
  9
$DIMSE2
 70
     0
  9
$DIMTAD
 70
     0
  9
$DIMZIN
 70
     1
  9
$DIMBLK
  1

  9
$DIMASO
 70
     1
  9
$DIMSHO
 70
     1
  9
$DIMPOST
  1

  9
$DIMAPOST
  1

  9
$DIMALT
 70
     0
  9
$DIMALTD
 70
     2
  9
$DIMALTF
 40
25.4
  9
$DIMLFAC
 40
1.0
  9
$DIMTOFL
 70
     0
  9
$DIMTVP
 40
0.0
  9
$DIMTIX
 70
     0
  9
$DIMSOXD
 70
     0
  9
$DIMSAH
 70
     0
  9
$DIMBLK1
  1

  9
$DIMBLK2
  1

  9
$DIMSTYLE
  2
Standard
  9
$DIMCLRD
 70
     0
  9
$DIMCLRE
 70
     0
  9
$DIMCLRT
 70
     0
  9
$DIMTFAC
 40
1.0
  9
$DIMGAP
 40
0.1
  9
$DIMJUST
 70
     0
  9
$DIMSD1
 70
     0
  9
$DIMSD2
 70
     0
  9
$DIMTOLJ
 70
     1
  9
$DIMTZIN
 70
     1
  9
$DIMALTZ
 70
     0
  9
$DIMALTTZ
 70
     0
  9
$DIMUPT
 70
     0
  9
$DIMDEC
 70
     2
  9
$DIMTDEC
 70
     2
  9
$DIMALTU
 70
     2
  9
$DIMALTTD
 70
     2
  9
$DIMTXSTY
  7
Standard
  9
$DIMAUNIT
 70
     0
  9
$DIMADEC
 70
     0
  9
$DIMALTRND
 40
0.0
  9
$DIMAZIN
 70
     0
  9
$DIMDSEP
 70
    46
  9
$DIMATFIT
 70
     3
  9
$DIMFRAC
 70
     0
  9
$DIMLDRBLK
  1

  9
$DIMLUNIT
 70
     2
  9
$DIMLWD
 70
    -2
  9
$DIMLWE
 70
    -2
  9
$DIMTMOVE
 70
     0
  9
$LUNITS
 70
     2
  9
$LUPREC
 70
     2
  9
$SKETCHINC
 40
0.1
  9
$FILLETRAD
 40
0.5
  9
$AUNITS
 70
     0
  9
$AUPREC
 70
     0
  9
$MENU
  1
.
  9
$ELEVATION
 40
0.0
  9
$PELEVATION
 40
0.0
  9
$THICKNESS
 40
0.0
  9
$LIMCHECK
 70
     0
  9
$CHAMFERA
 40
0.0
  9
$CHAMFERB
 40
0.0
  9
$CHAMFERC
 40
0.0
  9
$CHAMFERD
 40
0.0
  9
$SKPOLY
 70
     0
  9
$TDCREATE
 40
2457343.571928264
  9
$TDUCREATE
 40
2457343.780261597
  9
$TDUPDATE
 40
2457343.571931343
  9
$TDUUPDATE
 40
2457343.780264676
  9
$TDINDWG
 40
0.0000000116
  9
$TDUSRTIMER
 40
0.0000000116
  9
$USRTIMER
 70
     1
  9
$ANGBASE
 50
0.0
  9
$ANGDIR
 70
     0
  9
$PDMODE
 70
     0
  9
$PDSIZE
 40
-1.0
  9
$PLINEWID
 40
0.0
  9
$SPLFRAME
 70
     0
  9
$SPLINETYPE
 70
     6
  9
$SPLINESEGS
 70
     8
  9
$HANDSEED
  5
341
  9
$SURFTAB1
 70
     6
  9
$SURFTAB2
 70
     6
  9
$SURFTYPE
 70
     6
  9
$SURFU
 70
     6
  9
$SURFV
 70
     6
  9
$UCSBASE
  2

  9
$UCSNAME
  2

  9
$UCSORG
 10
0.0
 20
0.0
 30
0.0
  9
$UCSXDIR
 10
1.0
 20
0.0
 30
0.0
  9
$UCSYDIR
 10
0.0
 20
1.0
 30
0.0
  9
$UCSORTHOREF
  2

  9
$UCSORTHOVIEW
 70
     0
  9
$UCSORGTOP
 10
0.0
 20
0.0
 30
0.0
  9
$UCSORGBOTTOM
 10
0.0
 20
0.0
 30
0.0
  9
$UCSORGLEFT
 10
0.0
 20
0.0
 30
0.0
  9
$UCSORGRIGHT
 10
0.0
 20
0.0
 30
0.0
  9
$UCSORGFRONT
 10
0.0
 20
0.0
 30
0.0
  9
$UCSORGBACK
 10
0.0
 20
0.0
 30
0.0
  9
$PUCSBASE
  2

  9
$PUCSNAME
  2

  9
$PUCSORG
 10
0.0
 20
0.0
 30
0.0
  9
$PUCSXDIR
 10
1.0
 20
0.0
 30
0.0
  9
$PUCSYDIR
 10
0.0
 20
1.0
 30
0.0
  9
$PUCSORTHOREF
  2

  9
$PUCSORTHOVIEW
 70
     0
  9
$PUCSORGTOP
 10
0.0
 20
0.0
 30
0.0
  9
$PUCSORGBOTTOM
 10
0.0
 20
0.0
 30
0.0
  9
$PUCSORGLEFT
 10
0.0
 20
0.0
 30
0.0
  9
$PUCSORGRIGHT
 10
0.0
 20
0.0
 30
0.0
  9
$PUCSORGFRONT
 10
0.0
 20
0.0
 30
0.0
  9
$PUCSORGBACK
 10
0.0
 20
0.0
 30
0.0
  9
$USERI1
 70
     0
  9
$USERI2
 70
     0
  9
$USERI3
 70
     0
  9
$USERI4
 70
     0
  9
$USERI5
 70
     0
  9
$USERR1
 40
0.0
  9
$USERR2
 40
0.0
  9
$USERR3
 40
0.0
  9
$USERR4
 40
0.0
  9
$USERR5
 40
0.0
  9
$WORLDVIEW
 70
     1
  9
$SHADEDGE
 70
     3
  9
$SHADEDIF
 70
    70
  9
$TILEMODE
 70
     1
  9
$MAXACTVP
 70
    64
  9
$PINSBASE
 10
0.0
 20
0.0
 30
0.0
  9
$PLIMCHECK
 70
     0
  9
$PEXTMIN
 10
1.0000000000E+20
 20
1.0000000000E+20
 30
1.0000000000E+20
  9
$PEXTMAX
 10
-1.0000000000E+20
 20
-1.0000000000E+20
 30
-1.0000000000E+20
  9
$PLIMMIN
 10
0.0
 20
0.0
  9
$PLIMMAX
 10
12.0
 20
9.0
  9
$UNITMODE
 70
     0
  9
$VISRETAIN
 70
     1
  9
$PLINEGEN
 70
     0
  9
$PSLTSCALE
 70
     1
  9
$TREEDEPTH
 70
  3020
  9
$CMLSTYLE
  2
Standard
  9
$CMLJUST
 70
     0
  9
$CMLSCALE
 40
1.0
  9
$PROXYGRAPHICS
 70
     1
  9
$MEASUREMENT
 70
     0
  9
$CELWEIGHT
370
    -1
  9
$ENDCAPS
280
     0
  9
$JOINSTYLE
280
     0
  9
$LWDISPLAY
290
     1
  9
$INSUNITS
 70
     1
  9
$HYPERLINKBASE
  1

  9
$STYLESHEET
  1

  9
$XEDIT
290
     1
  9
$CEPSNTYPE
380
     0
  9
$PSTYLEMODE
290
     1
  9
$FINGERPRINTGUID
  2
{9627A52C-53C7-42DB-B16D-34C15BCC5BA0}
  9
$VERSIONGUID
  2
{FAEB1C32-E019-11D5-929B-00C0DF256EC4}
  9
$EXTNAMES
290
     1
  9
$PSVPSCALE
 40
0.0
  9
$OLESTARTUP
290
     0
  0
ENDSEC
  0
SECTION
  2
CLASSES
  0
CLASS
  1
ACDBDICTIONARYWDFLT
  2
AcDbDictionaryWithDefault
  3
ObjectDBX Classes
 90
        0
280
     0
281
     0
  0
CLASS
  1
VISUALSTYLE
  2
AcDbVisualStyle
  3
ObjectDBX Classes
 90
     4095
280
     0
281
     0
  0
CLASS
  1
MATERIAL
  2
AcDbMaterial
  3
ObjectDBX Classes
 90
     1153
280
     0
281
     0
  0
CLASS
  1
SCALE
  2
AcDbScale
  3
ObjectDBX Classes
 90
     1153
280
     0
281
     0
  0
CLASS
  1
SUN
  2
AcDbSun
  3
SCENEOE
 90
     1153
280
     0
281
     0
  0
CLASS
  1
ACDBPLACEHOLDER
  2
AcDbPlaceHolder
  3
ObjectDBX Classes
 90
        0
280
     0
281
     0
  0
CLASS
  1
LAYOUT
  2
AcDbLayout
  3
ObjectDBX Classes
 90
        0
280
     0
281
     0
  0
ENDSEC
  0
SECTION
  2
TABLES
  0
TABLE
  2
VPORT
  5
8
330
0
100
AcDbSymbolTable
 70
     1
  0
VPORT
  5
29
330
8
100
AcDbSymbolTableRecord
100
AcDbViewportTableRecord
  2
*Active
 70
     0
 10
0.0
 20
0.0
 11
1.0
 21
1.0
 12
5.5
 22
4.25
 13
0.0
 23
0.0
 14
0.5
 24
0.5
 15
0.5
 25
0.5
 16
0.0
 26
0.0
 36
1.0
 17
0.0
 27
0.0
 37
0.0
 40
8.5
 41
1.2941176471
 42
50.0
 43
0.0
 44
0.0
 50
0.0
 51
0.0
 71
     0
 72
  2000
 73
     1
 74
     3
 75
     0
 76
     0
 77
     0
 78
     0
281
     0
 65
     1
110
0.0
120
0.0
130
0.0
111
1.0
121
0.0
131
0.0
112
0.0
122
1.0
132
0.0
 79
     0
146
0.0
  0
ENDTAB
  0
TABLE
  2
LTYPE
  5
5
330
0
100
AcDbSymbolTable
 70
     6
  0
LTYPE
  5
14
330
5
100
AcDbSymbolTableRecord
100
AcDbLinetypeTableRecord
  2
ByBlock
 70
     0
  3

 72
    65
 73
     0
 40
0.0
  0
LTYPE
  5
15
330
5
100
AcDbSymbolTableRecord
100
AcDbLinetypeTableRecord
  2
ByLayer
 70
     0
  3

 72
    65
 73
     0
 40
0.0
  0
LTYPE
  5
16
330
5
100
AcDbSymbolTableRecord
100
AcDbLinetypeTableRecord
  2
Continuous
 70
     0
  3
Solid line
 72
    65
 73
     0
 40
0.0
  0
LTYPE
  5
6A
330
5
100
AcDbSymbolTableRecord
100
AcDbLinetypeTableRecord
  2
HIDDEN
 70
     0
  3
Hidden __ __ __ __ __ __ __ __ __ __ __ __ __ __
 72
    65
 73
     2
 40
0.075
 49
0.05
 74
     0
 49
-0.025
 74
     0
  0
LTYPE
  5
6B
330
5
100
AcDbSymbolTableRecord
100
AcDbLinetypeTableRecord
  2
PHANTOM
 70
     0
  3
Phantom ______  __  __  ______  __  __  ______
 72
    65
 73
     6
 40
0.5
 49
0.25
 74
     0
 49
-0.05
 74
     0
 49
0.05
 74
     0
 49
-0.05
 74
     0
 49
0.05
 74
     0
 49
-0.05
 74
     0
  0
LTYPE
  5
6C
330
5
100
AcDbSymbolTableRecord
100
AcDbLinetypeTableRecord
  2
CENTER
 70
     0
  3
Center ____ _ ____ _ ____ _ ____ _ ____ _ ____
 72
    65
 73
     4
 40
0.4
 49
0.25
 74
     0
 49
-0.05
 74
     0
 49
0.05
 74
     0
 49
-0.05
 74
     0
  0
LTYPE
  5
6D
330
5
100
AcDbSymbolTableRecord
100
AcDbLinetypeTableRecord
  2
CENTERX2
 70
     0
  3
Center (2x) ________  __  ________  __  _____
 72
    65
 73
     4
 40
0.8
 49
0.5
 74
     0
 49
-0.1
 74
     0
 49
0.1
 74
     0
 49
-0.1
 74
     0
  0
LTYPE
  5
6E
330
5
100
AcDbSymbolTableRecord
100
AcDbLinetypeTableRecord
  2
DOT2
 70
     0
  3
Dot (.5x) ........................................
 72
    65
 73
     2
 40
0.025
 49
0.0
 74
     0
 49
-0.025
 74
     0
  0
ENDTAB
  0
TABLE
  2
LAYER
  5
2
330
0
100
AcDbSymbolTable
 70
     2
  0
LAYER
  5
10
330
2
100
AcDbSymbolTableRecord
100
AcDbLayerTableRecord
  2
0
 70
     0
 62
     7
  6
Continuous
370
    -3
390
F
  0
LAYER
  5
6F
330
2
100
AcDbSymbolTableRecord
100
AcDbLayerTableRecord
  2
FORMAT
 70
     0
 62
     7
  6
Continuous
370
    -3
390
F
  0
ENDTAB
  0
TABLE
  2
STYLE
  5
3
330
0
100
AcDbSymbolTable
 70
     4
  0
STYLE
  5
11
330
3
100
AcDbSymbolTableRecord
100
AcDbTextStyleTableRecord
  2
Standard
 70
     0
 40
0.0
 41
1.0
 50
0.0
 71
     0
 42
0.1111111111
  3
txt
  4

  0
STYLE
  5
96
330
3
100
AcDbSymbolTableRecord
100
AcDbTextStyleTableRecord
  2
SLDTEXTSTYLE0
 70
     0
 40
0.0
 41
0.75
 50
0.0
 71
     0
 42
0.1111111111
  3
TXT
  4

  0
STYLE
  5
A2
330
3
100
AcDbSymbolTableRecord
100
AcDbTextStyleTableRecord
  2
SLDTEXTSTYLE1
 70
     0
 40
0.0
 41
0.6
 50
0.0
 71
     0
 42
0.1111111111
  3
TXT
  4

  0
STYLE
  5
A7
330
3
100
AcDbSymbolTableRecord
100
AcDbTextStyleTableRecord
  2
SLDTEXTSTYLE2
 70
     0
 40
0.0
 41
0.6875
 50
0.0
 71
     0
 42
0.1111111111
  3
TXT
  4

  0
ENDTAB
  0
TABLE
  2
VIEW
  5
6
330
0
100
AcDbSymbolTable
 70
     0
  0
ENDTAB
  0
TABLE
  2
UCS
  5
7
330
0
100
AcDbSymbolTable
 70
     0
  0
ENDTAB
  0
TABLE
  2
APPID
  5
9
330
0
100
AcDbSymbolTable
 70
     1
  0
APPID
  5
12
330
9
100
AcDbSymbolTableRecord
100
AcDbRegAppTableRecord
  2
ACAD
 70
     0
  0
ENDTAB
  0
TABLE
  2
DIMSTYLE
  5
A
330
0
100
AcDbSymbolTable
 70
     4
100
AcDbDimStyleTable
  0
DIMSTYLE
105
27
330
A
100
AcDbSymbolTableRecord
100
AcDbDimStyleTableRecord
  2
Standard
 70
     0
178
     0
340
11
  0
DIMSTYLE
105
11A
102
{ACAD_REACTORS
330
119
102
}
330
A
100
AcDbSymbolTableRecord
100
AcDbDimStyleTableRecord
  2
SLDDIMSTYLE0
 70
     0
 41
0.125
 44
0.0
 45
0.000000001
 78
     4
 79
     1
140
0.0833333333
141
0.0
147
0.0208333333
148
0.000000001
170
     1
171
     1
173
     1
178
     0
271
     2
272
     2
274
     1
276
     2
284
    12
340
96
  0
DIMSTYLE
105
186
102
{ACAD_REACTORS
330
185
330
19A
102
}
330
A
100
AcDbSymbolTableRecord
100
AcDbDimStyleTableRecord
  2
SLDDIMSTYLE1
 70
     0
 41
0.125
 44
0.0
 45
0.000000001
 78
     8
 79
     2
140
0.0833333333
147
0.0208333333
148
0.000000001
170
     1
171
     1
172
     1
173
     1
178
     0
271
     2
272
     2
274
     1
276
     2
284
    12
289
     0
340
96
  0
DIMSTYLE
105
1B5
330
A
100
AcDbSymbolTableRecord
100
AcDbDimStyleTableRecord
  2
SLDDIMSTYLE2
 70
     0
 41
0.125
 44
0.0
 45
0.000000001
146
0.125
147
0.0
173
     1
178
     0
271
     0
272
     0
276
     2
340
11
  0
ENDTAB
  0
TABLE
  2
BLOCK_RECORD
  5
1
330
0
100
AcDbSymbolTable
 70
    19
  0
BLOCK_RECORD
  5
1F
330
1
100
AcDbSymbolTableRecord
100
AcDbBlockTableRecord
  2
*Model_Space
340
22
  0
BLOCK_RECORD
  5
1B
330
1
100
AcDbSymbolTableRecord
100
AcDbBlockTableRecord
  2
*Paper_Space
340
1E
  0
BLOCK_RECORD
  5
23
330
1
100
AcDbSymbolTableRecord
100
AcDbBlockTableRecord
  2
*Paper_Space0
340
26
  0
BLOCK_RECORD
  5
70
330
1
100
AcDbSymbolTableRecord
100
AcDbBlockTableRecord
  2
Third Angle Projection Block
340
0
102
{BLKREFS
331
95
102
}
  0
BLOCK_RECORD
  5
A9
330
1
100
AcDbSymbolTableRecord
100
AcDbBlockTableRecord
  2
SW_NOTE_0
340
0
102
{BLKREFS
331
AE
102
}
  0
BLOCK_RECORD
  5
AF
330
1
100
AcDbSymbolTableRecord
100
AcDbBlockTableRecord
  2
SW_NOTE_1
340
0
102
{BLKREFS
331
B4
102
}
  0
BLOCK_RECORD
  5
B6
330
1
100
AcDbSymbolTableRecord
100
AcDbBlockTableRecord
  2
SW_NOTE_2
340
0
102
{BLKREFS
331
BC
102
}
  0
BLOCK_RECORD
  5
BE
330
1
100
AcDbSymbolTableRecord
100
AcDbBlockTableRecord
  2
SW_NOTE_3
340
0
102
{BLKREFS
331
C3
102
}
  0
BLOCK_RECORD
  5
C4
330
1
100
AcDbSymbolTableRecord
100
AcDbBlockTableRecord
  2
SW_NOTE_4
340
0
102
{BLKREFS
331
D6
102
}
  0
BLOCK_RECORD
  5
D7
330
1
100
AcDbSymbolTableRecord
100
AcDbBlockTableRecord
  2
SW_TABLEANNOTATION_0
340
0
102
{BLKREFS
331
100
102
}
  0
BLOCK_RECORD
  5
E5
330
1
100
AcDbSymbolTableRecord
100
AcDbBlockTableRecord
  2
SW_SYMBOL_C#_1
340
0
102
{BLKREFS
331
EA
102
}
  0
BLOCK_RECORD
  5
EE
330
1
100
AcDbSymbolTableRecord
100
AcDbBlockTableRecord
  2
SW_SYMBOL_C#_2
340
0
102
{BLKREFS
331
F3
102
}
  0
BLOCK_RECORD
  5
F6
330
1
100
AcDbSymbolTableRecord
100
AcDbBlockTableRecord
  2
SW_SYMBOL_C#_3
340
0
102
{BLKREFS
331
FB
102
}
  0
BLOCK_RECORD
  5
11B
330
1
100
AcDbSymbolTableRecord
100
AcDbBlockTableRecord
  2
_D
340
0
  0
BLOCK_RECORD
  5
187
330
1
100
AcDbSymbolTableRecord
100
AcDbBlockTableRecord
  2
_D_1
340
0
  0
BLOCK_RECORD
  5
19B
330
1
100
AcDbSymbolTableRecord
100
AcDbBlockTableRecord
  2
_D_2
340
0
  0
BLOCK_RECORD
  5
1AE
330
1
100
AcDbSymbolTableRecord
100
AcDbBlockTableRecord
  2
SW_NOTE_5
340
0
102
{BLKREFS
331
1B4
102
}
  0
BLOCK_RECORD
  5
1B7
330
1
100
AcDbSymbolTableRecord
100
AcDbBlockTableRecord
  2
SW_NOTE_6
340
0
102
{BLKREFS
331
1BD
102
}
  0
BLOCK_RECORD
  5
1BF
330
1
100
AcDbSymbolTableRecord
100
AcDbBlockTableRecord
  2
SW_NOTE_7
340
0
102
{BLKREFS
331
1C4
102
}
  0
BLOCK_RECORD
  5
1C6
330
1
100
AcDbSymbolTableRecord
100
AcDbBlockTableRecord
  2
SW_NOTE_8
340
0
102
{BLKREFS
331
1CB
102
}
  0
BLOCK_RECORD
  5
1CD
330
1
100
AcDbSymbolTableRecord
100
AcDbBlockTableRecord
  2
SW_NOTE_9
340
0
102
{BLKREFS
331
1D2
102
}
  0
ENDTAB
  0
ENDSEC
  0
SECTION
  2
BLOCKS
  0
BLOCK
  5
20
330
1F
100
AcDbEntity
  8
0
100
AcDbBlockBegin
  2
*Model_Space
 70
     0
 10
0.0
 20
0.0
 30
0.0
  3
*Model_Space
  1
*Model_Space
  0
ENDBLK
  5
21
330
1F
100
AcDbEntity
  8
0
100
AcDbBlockEnd
  0
BLOCK
  5
1C
330
1B
100
AcDbEntity
 67
     1
  8
0
100
AcDbBlockBegin
  2
*Paper_Space
 70
     0
 10
0.0
 20
0.0
 30
0.0
  3
*Paper_Space
  1
*Paper_Space
  0
ENDBLK
  5
1D
330
1B
100
AcDbEntity
 67
     1
  8
0
100
AcDbBlockEnd
  0
BLOCK
  5
24
330
23
100
AcDbEntity
  8
0
100
AcDbBlockBegin
  2
*Paper_Space0
 70
     0
 10
0.0
 20
0.0
 30
0.0
  3
*Paper_Space0
  1
*Paper_Space0
  0
ENDBLK
  5
25
330
23
100
AcDbEntity
  8
0
100
AcDbBlockEnd
  0
BLOCK
  5
71
330
70
100
AcDbEntity
  8
0
100
AcDbBlockBegin
  2
Third Angle Projection Block
 70
     0
 10
0.0
 20
0.0
 30
0.0
  3
Third Angle Projection Block
  1
Third Angle Projection Block
  0
CIRCLE
  5
73
330
70
100
AcDbEntity
  8
0
  6
Continuous
 62
     7
370
    30
100
AcDbCircle
 10
3.9951432636
 20
0.7456853688
 30
0.0
 40
0.0696152422706639
  0
CIRCLE
  5
74
330
70
100
AcDbEntity
  8
0
  6
Continuous
 62
     7
370
    30
100
AcDbCircle
 10
3.9951432636
 20
0.7456853688
 30
0.0
 40
0.1535916633280245
  0
LINE
  5
75
330
70
100
AcDbEntity
  8
0
  6
CENTERX2
 62
     7
370
     0
100
AcDbLine
 10
4.3360937897
 20
0.7456853688
 30
0.0
 11
4.7028635231
 21
0.7456853688
 31
0.0
  0
LINE
  5
76
330
70
100
AcDbEntity
  8
0
  6
Continuous
 62
     7
370
    30
100
AcDbLine
 10
4.3701432636
 20
0.815300611
 30
0.0
 11
4.3701432636
 21
0.6760701265
 31
0.0
  0
LINE
  5
77
330
70
100
AcDbEntity
  8
0
  6
Continuous
 62
     7
370
    30
100
AcDbLine
 10
4.3701432636
 20
0.6760701265
 30
0.0
 11
4.6701432636
 21
0.5956853688
 31
0.0
  0
LINE
  5
78
330
70
100
AcDbEntity
  8
0
  6
Continuous
 62
     7
370
    30
100
AcDbLine
 10
4.6701432636
 20
0.5956853688
 30
0.0
 11
4.6701432636
 21
0.8956853688
 31
0.0
  0
LINE
  5
79
330
70
100
AcDbEntity
  8
0
  6
Continuous
 62
     7
370
    30
100
AcDbLine
 10
4.6701432636
 20
0.8956853688
 30
0.0
 11
4.3701432636
 21
0.815300611
 31
0.0
  0
LINE
  5
7A
330
70
100
AcDbEntity
  8
0
  6
CENTERX2
 62
     7
370
     0
100
AcDbLine
 10
3.8032513961
 20
0.7456853688
 30
0.0
 11
4.187035131
 21
0.7456853688
 31
0.0
  0
LINE
  5
7B
330
70
100
AcDbEntity
  8
0
  6
CENTERX2
 62
     7
370
     0
100
AcDbLine
 10
3.9951432636
 20
0.9375772362
 30
0.0
 11
3.9951432636
 21
0.5537935013
 31
0.0
  0
POINT
  5
7C
330
70
100
AcDbEntity
  8
0
  6
Continuous
 62
     7
370
     0
100
AcDbPoint
 10
3.9951432636
 20
0.7456853688
 30
0.0
  0
ENDBLK
  5
72
330
70
100
AcDbEntity
  8
0
100
AcDbBlockEnd
  0
BLOCK
  5
AA
330
A9
100
AcDbEntity
  8
0
100
AcDbBlockBegin
  2
SW_NOTE_0
 70
     0
 10
0.0
 20
0.0
 30
0.0
  3
SW_NOTE_0
  1
SW_NOTE_0
  0
MTEXT
  5
AC
330
A9
100
AcDbEntity
  8
0
  6
Continuous
 62
     0
370
     0
100
AcDbMText
 10
0.78375
 20
0.0773440644
 30
0.0
 40
0.06
 41
0.0
 71
     2
 72
     1
  1
VALUES IN PARENTHESIS ARE CALCULATED
  7
SLDTEXTSTYLE0
 73
     1
 44
1.0
  0
MTEXT
  5
AD
330
A9
100
AcDbEntity
  8
0
  6
Continuous
 62
     0
370
     0
100
AcDbMText
 10
0.7825936818
 20
-0.0220260102
 30
0.0
 40
0.06
 41
0.0
 71
     2
 72
     1
  1
AND MAY CONTAIN ROUNDOFF ERRORS
  7
SLDTEXTSTYLE0
 73
     1
 44
1.0
  0
ENDBLK
  5
AB
330
A9
100
AcDbEntity
  8
0
100
AcDbBlockEnd
  0
BLOCK
  5
B0
330
AF
100
AcDbEntity
  8
0
100
AcDbBlockBegin
  2
SW_NOTE_1
 70
     0
 10
0.0
 20
0.0
 30
0.0
  3
SW_NOTE_1
  1
SW_NOTE_1
  0
MTEXT
  5
B2
330
AF
100
AcDbEntity
  8
0
  6
Continuous
 62
     0
370
     0
100
AcDbMText
 10
0.0
 20
0.1074223116
 30
0.0
 40
0.0833333333
 41
0.0
 71
     1
 72
     1
  1
DRAWING
  7
SLDTEXTSTYLE0
 73
     1
 44
1.0
  0
MTEXT
  5
B3
330
AF
100
AcDbEntity
  8
0
  6
Continuous
 62
     0
370
     0
100
AcDbMText
 10
0.0
 20
-0.0036887981
 30
0.0
 40
0.0833333333
 41
0.0
 71
     1
 72
     1
  1
PROJECTION
  7
SLDTEXTSTYLE0
 73
     1
 44
1.0
  0
ENDBLK
  5
B1
330
AF
100
AcDbEntity
  8
0
100
AcDbBlockEnd
  0
BLOCK
  5
B7
330
B6
100
AcDbEntity
  8
0
100
AcDbBlockBegin
  2
SW_NOTE_2
 70
     0
 10
0.0
 20
0.0
 30
0.0
  3
SW_NOTE_2
  1
SW_NOTE_2
  0
MTEXT
  5
B9
330
B6
100
AcDbEntity
  8
0
  6
Continuous
 62
     0
370
     0
100
AcDbMText
 10
0.0823567708
 20
0.1477056785
 30
0.0
 40
0.1145833333
 41
0.0
 71
     2
 72
     1
  1
%%c
  7
SLDTEXTSTYLE0
 73
     1
 44
1.0
  0
MTEXT
  5
BA
330
B6
100
AcDbEntity
  8
0
  6
Continuous
 62
     0
370
     0
100
AcDbMText
 10
1.2471759303
 20
0.1477056785
 30
0.0
 40
0.1145833333
 41
0.0
 71
     2
 72
     1
  1
2" MOUNTED PLANO-CONVEX
  7
SLDTEXTSTYLE0
 73
     1
 44
1.0
  0
MTEXT
  5
BB
330
B6
100
AcDbEntity
  8
0
  6
Continuous
 62
     0
370
     0
100
AcDbMText
 10
1.1668775604
 20
-0.0050720974
 30
0.0
 40
0.1145833333
 41
0.0
 71
     2
 72
     1
  1
LENS, f=100mm
  7
SLDTEXTSTYLE0
 73
     1
 44
1.0
  0
ENDBLK
  5
B8
330
B6
100
AcDbEntity
  8
0
100
AcDbBlockEnd
  0
BLOCK
  5
BF
330
BE
100
AcDbEntity
  8
0
100
AcDbBlockBegin
  2
SW_NOTE_3
 70
     0
 10
0.0
 20
0.0
 30
0.0
  3
SW_NOTE_3
  1
SW_NOTE_3
  0
MTEXT
  5
C1
330
BE
100
AcDbEntity
  8
0
  6
Continuous
 62
     0
370
     0
100
AcDbMText
 10
0.986328125
 20
0.1611334675
 30
0.0
 40
0.125
 41
0.0
 71
     2
 72
     1
  1
FOR INFORMATION ONLY
  7
SLDTEXTSTYLE0
 73
     1
 44
1.0
  0
MTEXT
  5
C2
330
BE
100
AcDbEntity
  8
0
  6
Continuous
 62
     0
370
     0
100
AcDbMText
 10
0.999088459
 20
-0.0055331972
 30
0.0
 40
0.125
 41
0.0
 71
     2
 72
     1
  1
NOT FOR MANUFACTURING PURPOSES
  7
SLDTEXTSTYLE0
 73
     1
 44
1.0
  0
ENDBLK
  5
C0
330
BE
100
AcDbEntity
  8
0
100
AcDbBlockEnd
  0
BLOCK
  5
C5
330
C4
100
AcDbEntity
  8
0
100
AcDbBlockBegin
  2
SW_NOTE_4
 70
     0
 10
0.0
 20
0.0
 30
0.0
  3
SW_NOTE_4
  1
SW_NOTE_4
  0
MTEXT
  5
C7
330
C4
100
AcDbEntity
  8
0
  6
Continuous
 62
     0
370
     0
100
AcDbMText
 10
0.0
 20
0.1074223116
 30
0.0
 40
0.0833333333
 41
0.0
 71
     1
 72
     1
  1
NOTES/SPECIFICATIONS:
  7
SLDTEXTSTYLE0
 73
     1
 44
1.0
  0
MTEXT
  5
C8
330
C4
100
AcDbEntity
  8
0
  6
Continuous
 62
     0
370
     0
100
AcDbMText
 10
0.4183921567
 20
-0.1147999079
 30
0.0
 40
0.0833333333
 41
0.0
 71
     1
 72
     1
  1
DESIGN WAVELENGTH: 633nm
  7
SLDTEXTSTYLE0
 73
     1
 44
1.0
  0
MTEXT
  5
C9
330
C4
100
AcDbEntity
  8
0
  6
Continuous
 62
     0
370
     0
100
AcDbMText
 10
0.0
 20
-0.1147999079
 30
0.0
 40
0.0833333333
 41
0.0
 71
     1
 72
     1
  1
1.
  7
SLDTEXTSTYLE0
 73
     1
 44
1.0
  0
MTEXT
  5
CA
330
C4
100
AcDbEntity
  8
0
  6
Continuous
 62
     0
370
     0
100
AcDbMText
 10
0.4183921567
 20
-0.2259110177
 30
0.0
 40
0.0833333333
 41
0.0
 71
     1
 72
     1
  1
FOCAL LENGTH: f=100.0mm
  7
SLDTEXTSTYLE0
 73
     1
 44
1.0
  0
MTEXT
  5
CB
330
C4
100
AcDbEntity
  8
0
  6
Continuous
 62
     0
370
     0
100
AcDbMText
 10
1.8858304981
 20
-0.2259110177
 30
0.0
 40
0.0833333333
 41
0.0
 71
     1
 72
     1
  1
%%p
  7
SLDTEXTSTYLE0
 73
     1
 44
1.0
  0
MTEXT
  5
CC
330
C4
100
AcDbEntity
  8
0
  6
Continuous
 62
     0
370
     0
100
AcDbMText
 10
1.9652749536
 20
-0.2259110177
 30
0.0
 40
0.0833333333
 41
0.0
 71
     1
 72
     1
  1
1%
  7
SLDTEXTSTYLE0
 73
     1
 44
1.0
  0
MTEXT
  5
CD
330
C4
100
AcDbEntity
  8
0
  6
Continuous
 62
     0
370
     0
100
AcDbMText
 10
0.0
 20
-0.2259110177
 30
0.0
 40
0.0833333333
 41
0.0
 71
     1
 72
     1
  1
2.
  7
SLDTEXTSTYLE0
 73
     1
 44
1.0
  0
MTEXT
  5
CE
330
C4
100
AcDbEntity
  8
0
  6
Continuous
 62
     0
370
     0
100
AcDbMText
 10
0.4183921567
 20
-0.3370221274
 30
0.0
 40
0.0833333333
 41
0.0
 71
     1
 72
     1
  1
WORKING DISTANCE (REF): 89.8mm
  7
SLDTEXTSTYLE0
 73
     1
 44
1.0
  0
MTEXT
  5
CF
330
C4
100
AcDbEntity
  8
0
  6
Continuous
 62
     0
370
     0
100
AcDbMText
 10
0.0
 20
-0.3370221274
 30
0.0
 40
0.0833333333
 41
0.0
 71
     1
 72
     1
  1
3.
  7
SLDTEXTSTYLE0
 73
     1
 44
1.0
  0
MTEXT
  5
D0
330
C4
100
AcDbEntity
  8
0
  6
Continuous
 62
     0
370
     0
100
AcDbMText
 10
0.4183921567
 20
-0.4481332372
 30
0.0
 40
0.0833333333
 41
0.0
 71
     1
 72
     1
  1
CLEAR APERTURE: >
  7
SLDTEXTSTYLE0
 73
     1
 44
1.0
  0
MTEXT
  5
D1
330
C4
100
AcDbEntity
  8
0
  6
Continuous
 62
     0
370
     0
100
AcDbMText
 10
1.4507996036
 20
-0.4481332372
 30
0.0
 40
0.0833333333
 41
0.0
 71
     1
 72
     1
  1
%%c
  7
SLDTEXTSTYLE0
 73
     1
 44
1.0
  0
MTEXT
  5
D2
330
C4
100
AcDbEntity
  8
0
  6
Continuous
 62
     0
370
     0
100
AcDbMText
 10
1.5765865971
 20
-0.4481332372
 30
0.0
 40
0.0833333333
 41
0.0
 71
     1
 72
     1
  1
45.72mm
  7
SLDTEXTSTYLE0
 73
     1
 44
1.0
  0
MTEXT
  5
D3
330
C4
100
AcDbEntity
  8
0
  6
Continuous
 62
     0
370
     0
100
AcDbMText
 10
0.0
 20
-0.4481332372
 30
0.0
 40
0.0833333333
 41
0.0
 71
     1
 72
     1
  1
4.
  7
SLDTEXTSTYLE0
 73
     1
 44
1.0
  0
MTEXT
  5
D4
330
C4
100
AcDbEntity
  8
0
  6
Continuous
 62
     0
370
     0
100
AcDbMText
 10
0.4183921567
 20
-0.559244347
 30
0.0
 40
0.0833333333
 41
0.0
 71
     1
 72
     1
  1
SURFACE QUALITY: 40-20 SCRATCH-DIG
  7
SLDTEXTSTYLE0
 73
     1
 44
1.0
  0
MTEXT
  5
D5
330
C4
100
AcDbEntity
  8
0
  6
Continuous
 62
     0
370
     0
100
AcDbMText
 10
0.0
 20
-0.559244347
 30
0.0
 40
0.0833333333
 41
0.0
 71
     1
 72
     1
  1
5.
  7
SLDTEXTSTYLE0
 73
     1
 44
1.0
  0
ENDBLK
  5
C6
330
C4
100
AcDbEntity
  8
0
100
AcDbBlockEnd
  0
BLOCK
  5
D8
330
D7
100
AcDbEntity
  8
0
100
AcDbBlockBegin
  2
SW_TABLEANNOTATION_0
 70
     0
 10
0.0
 20
0.0
 30
0.0
  3
SW_TABLEANNOTATION_0
  1
SW_TABLEANNOTATION_0
  0
LINE
  5
DA
330
D7
100
AcDbEntity
  8
0
  6
Continuous
 62
     0
370
     0
100
AcDbLine
 10
0.0
 20
0.0
 30
0.0
 11
0.0
 21
-1.2444444391
 31
0.0
  0
LINE
  5
DB
330
D7
100
AcDbEntity
  8
0
  6
Continuous
 62
     0
370
     0
100
AcDbLine
 10
0.0
 20
-1.2444444391
 30
0.0
 11
3.3
 21
-1.2444444391
 31
0.0
  0
LINE
  5
DC
330
D7
100
AcDbEntity
  8
0
  6
Continuous
 62
     0
370
     0
100
AcDbLine
 10
3.3
 20
-1.2444444391
 30
0.0
 11
3.3
 21
0.0
 31
0.0
  0
LINE
  5
DD
330
D7
100
AcDbEntity
  8
0
  6
Continuous
 62
     0
370
     0
100
AcDbLine
 10
3.3
 20
0.0
 30
0.0
 11
0.0
 21
0.0
 31
0.0
  0
LINE
  5
DE
330
D7
100
AcDbEntity
  8
0
  6
Continuous
 62
     0
370
     0
100
AcDbLine
 10
1.1
 20
0.0
 30
0.0
 11
1.1
 21
-1.2444444391
 31
0.0
  0
LINE
  5
DF
330
D7
100
AcDbEntity
  8
0
  6
Continuous
 62
     0
370
     0
100
AcDbLine
 10
2.2
 20
0.0
 30
0.0
 11
2.2
 21
-1.2444444391
 31
0.0
  0
LINE
  5
E0
330
D7
100
AcDbEntity
  8
0
  6
Continuous
 62
     0
370
     0
100
AcDbLine
 10
0.0
 20
-0.3111111098
 30
0.0
 11
3.3
 21
-0.3111111098
 31
0.0
  0
LINE
  5
E1
330
D7
100
AcDbEntity
  8
0
  6
Continuous
 62
     0
370
     0
100
AcDbLine
 10
0.0
 20
-0.6222222195
 30
0.0
 11
3.3
 21
-0.6222222195
 31
0.0
  0
LINE
  5
E2
330
D7
100
AcDbEntity
  8
0
  6
Continuous
 62
     0
370
     0
100
AcDbLine
 10
0.0
 20
-0.9333333293
 30
0.0
 11
3.3
 21
-0.9333333293
 31
0.0
  0
MTEXT
  5
E3
330
D7
100
AcDbEntity
  8
0
  6
Continuous
 62
     0
370
     0
100
AcDbMText
 10
1.1543981952
 20
-0.1140616841
 30
0.0
 40
0.0833333333
 41
0.0
 71
     1
 72
     1
  1
PART DESCRIPTION
  7
SLDTEXTSTYLE0
 73
     1
 44
1.0
  0
MTEXT
  5
E4
330
D7
100
AcDbEntity
  8
0
  6
Continuous
 62
     0
370
     0
100
AcDbMText
 10
2.491203698
 20
-0.1140616841
 30
0.0
 40
0.0833333333
 41
0.0
 71
     1
 72
     1
  1
MATERIAL
  7
SLDTEXTSTYLE0
 73
     1
 44
1.0
  0
INSERT
  5
EA
330
D7
100
AcDbEntity
  8
0
  6
Continuous
 62
     0
370
     0
100
AcDbBlockReference
  2
SW_SYMBOL_C#_1
 10
0.4374537001
 20
-0.5210391159
 30
0.0
 41
0.0027037109
 42
0.0027037109
 43
0.0027037109
  0
MTEXT
  5
EB
330
D7
100
AcDbEntity
  8
0
  6
Continuous
 62
     0
370
     0
100
AcDbMText
 10
1.4729938215
 20
-0.4251727938
 30
0.0
 40
0.0833333333
 41
0.0
 71
     1
 72
     1
  1
SM2RR
  7
SLDTEXTSTYLE0
 73
     1
 44
1.0
  0
MTEXT
  5
EC
330
D7
100
AcDbEntity
  8
0
  6
Continuous
 62
     0
370
     0
100
AcDbMText
 10
2.4676697448
 20
-0.3696172389
 30
0.0
 40
0.0833333333
 41
0.0
 71
     1
 72
     1
  1
ANODIZED
  7
SLDTEXTSTYLE0
 73
     1
 44
1.0
  0
MTEXT
  5
ED
330
D7
100
AcDbEntity
  8
0
  6
Continuous
 62
     0
370
     0
100
AcDbMText
 10
2.4546296155
 20
-0.4807283487
 30
0.0
 40
0.0833333333
 41
0.0
 71
     1
 72
     1
  1
ALUMINUM
  7
SLDTEXTSTYLE0
 73
     1
 44
1.0
  0
INSERT
  5
F3
330
D7
100
AcDbEntity
  8
0
  6
Continuous
 62
     0
370
     0
100
AcDbBlockReference
  2
SW_SYMBOL_C#_2
 10
0.4374537001
 20
-0.8321502257
 30
0.0
 41
0.0027037109
 42
0.0027037109
 43
0.0027037109
  0
MTEXT
  5
F4
330
D7
100
AcDbEntity
  8
0
  6
Continuous
 62
     0
370
     0
100
AcDbMText
 10
1.4600308562
 20
-0.7362839036
 30
0.0
 40
0.0833333333
 41
0.0
 71
     1
 72
     1
  1
LA1050
  7
SLDTEXTSTYLE0
 73
     1
 44
1.0
  0
MTEXT
  5
F5
330
D7
100
AcDbEntity
  8
0
  6
Continuous
 62
     0
370
     0
100
AcDbMText
 10
2.5949845658
 20
-0.7362839036
 30
0.0
 40
0.0833333333
 41
0.0
 71
     1
 72
     1
  1
N-BK7
  7
SLDTEXTSTYLE0
 73
     1
 44
1.0
  0
INSERT
  5
FB
330
D7
100
AcDbEntity
  8
0
  6
Continuous
 62
     0
370
     0
100
AcDbBlockReference
  2
SW_SYMBOL_C#_3
 10
0.4374537001
 20
-1.1432613354
 30
0.0
 41
0.0027037109
 42
0.0027037109
 43
0.0027037109
  0
MTEXT
  5
FC
330
D7
100
AcDbEntity
  8
0
  6
Continuous
 62
     0
370
     0
100
AcDbMText
 10
1.3456018548
 20
-0.9918394585
 30
0.0
 40
0.0833333333
 41
0.0
 71
     1
 72
     1
  1
ENGRAVED
  7
SLDTEXTSTYLE0
 73
     1
 44
1.0
  0
MTEXT
  5
FD
330
D7
100
AcDbEntity
  8
0
  6
Continuous
 62
     0
370
     0
100
AcDbMText
 10
1.3975308615
 20
-1.1029505682
 30
0.0
 40
0.0833333333
 41
0.0
 71
     1
 72
     1
  1
HOUSING
  7
SLDTEXTSTYLE0
 73
     1
 44
1.0
  0
MTEXT
  5
FE
330
D7
100
AcDbEntity
  8
0
  6
Continuous
 62
     0
370
     0
100
AcDbMText
 10
2.4676697448
 20
-0.9918394585
 30
0.0
 40
0.0833333333
 41
0.0
 71
     1
 72
     1
  1
ANODIZED
  7
SLDTEXTSTYLE0
 73
     1
 44
1.0
  0
MTEXT
  5
FF
330
D7
100
AcDbEntity
  8
0
  6
Continuous
 62
     0
370
     0
100
AcDbMText
 10
2.4546296155
 20
-1.1029505682
 30
0.0
 40
0.0833333333
 41
0.0
 71
     1
 72
     1
  1
ALUMINUM
  7
SLDTEXTSTYLE0
 73
     1
 44
1.0
  0
ENDBLK
  5
D9
330
D7
100
AcDbEntity
  8
0
100
AcDbBlockEnd
  0
BLOCK
  5
E6
330
E5
100
AcDbEntity
  8
0
100
AcDbBlockBegin
  2
SW_SYMBOL_C#_1
 70
     0
 10
0.0
 20
0.0
 30
0.0
  3
SW_SYMBOL_C#_1
  1
SW_SYMBOL_C#_1
  0
CIRCLE
  5
E8
330
E5
100
AcDbEntity
  8
0
  6
Continuous
 62
     0
370
     0
100
AcDbCircle
 10
31.4960629921
 20
19.6850393701
 30
0.0
 40
31.49606299212599
  0
MTEXT
  5
E9
330
E5
100
AcDbEntity
  8
0
  6
Continuous
 62
     0
370
     0
100
AcDbMText
 10
31.4960629921
 20
19.6850393701
 30
0.0
 40
30.821835344
 41
0.0
 71
     5
 72
     1
  1
1
  7
SLDTEXTSTYLE0
 73
     1
 44
1.0
  0
ENDBLK
  5
E7
330
E5
100
AcDbEntity
  8
0
100
AcDbBlockEnd
  0
BLOCK
  5
EF
330
EE
100
AcDbEntity
  8
0
100
AcDbBlockBegin
  2
SW_SYMBOL_C#_2
 70
     0
 10
0.0
 20
0.0
 30
0.0
  3
SW_SYMBOL_C#_2
  1
SW_SYMBOL_C#_2
  0
CIRCLE
  5
F1
330
EE
100
AcDbEntity
  8
0
  6
Continuous
 62
     0
370
     0
100
AcDbCircle
 10
31.4960629921
 20
19.6850393701
 30
0.0
 40
31.49606299212599
  0
MTEXT
  5
F2
330
EE
100
AcDbEntity
  8
0
  6
Continuous
 62
     0
370
     0
100
AcDbMText
 10
31.4960629921
 20
19.6850393701
 30
0.0
 40
30.821835344
 41
0.0
 71
     5
 72
     1
  1
2
  7
SLDTEXTSTYLE0
 73
     1
 44
1.0
  0
ENDBLK
  5
F0
330
EE
100
AcDbEntity
  8
0
100
AcDbBlockEnd
  0
BLOCK
  5
F7
330
F6
100
AcDbEntity
  8
0
100
AcDbBlockBegin
  2
SW_SYMBOL_C#_3
 70
     0
 10
0.0
 20
0.0
 30
0.0
  3
SW_SYMBOL_C#_3
  1
SW_SYMBOL_C#_3
  0
CIRCLE
  5
F9
330
F6
100
AcDbEntity
  8
0
  6
Continuous
 62
     0
370
     0
100
AcDbCircle
 10
31.4960629921
 20
19.6850393701
 30
0.0
 40
31.49606299212599
  0
MTEXT
  5
FA
330
F6
100
AcDbEntity
  8
0
  6
Continuous
 62
     0
370
     0
100
AcDbMText
 10
31.4960629921
 20
19.6850393701
 30
0.0
 40
30.821835344
 41
0.0
 71
     5
 72
     1
  1
3
  7
SLDTEXTSTYLE0
 73
     1
 44
1.0
  0
ENDBLK
  5
F8
330
F6
100
AcDbEntity
  8
0
100
AcDbBlockEnd
  0
BLOCK
  5
11C
330
11B
100
AcDbEntity
  8
0
100
AcDbBlockBegin
  2
_D
 70
     0
 10
0.0
 20
0.0
 30
0.0
  3
_D
  1
_D
  0
SOLID
  5
11E
330
11B
100
AcDbEntity
  8
0
  6
Continuous
 62
     7
370
     0
100
AcDbTrace
 10
3.3425303593
 20
5.3133728363
 30
0.0
 11
3.4449084846
 21
5.3878289942
 31
0.0
 12
3.4165663137
 22
5.416055247
 32
0.0
 13
3.4165663137
 23
5.416055247
 33
0.0
  0
LINE
  5
11F
330
11B
100
AcDbEntity
  8
0
  6
Continuous
 62
     7
370
     0
100
AcDbLine
 10
4.2395809551
 20
5.9658538434
 30
0.0
 11
4.222682807
 21
5.9658538434
 31
0.0
  0
LINE
  5
120
330
11B
100
AcDbEntity
  8
0
  6
Continuous
 62
     7
370
     0
100
AcDbLine
 10
4.222682807
 20
5.9658538434
 30
0.0
 11
4.222682807
 21
5.8334464388
 31
0.0
  0
LINE
  5
121
330
11B
100
AcDbEntity
  8
0
  6
Continuous
 62
     7
370
     0
100
AcDbLine
 10
4.222682807
 20
5.8334464388
 30
0.0
 11
4.2395809551
 21
5.8334464388
 31
0.0
  0
LINE
  5
122
330
11B
100
AcDbEntity
  8
0
  6
Continuous
 62
     7
370
     0
100
AcDbLine
 10
4.7055917748
 20
5.9658538434
 30
0.0
 11
4.7224899228
 21
5.9658538434
 31
0.0
  0
LINE
  5
123
330
11B
100
AcDbEntity
  8
0
  6
Continuous
 62
     7
370
     0
100
AcDbLine
 10
4.7224899228
 20
5.9658538434
 30
0.0
 11
4.7224899228
 21
5.8334464388
 31
0.0
  0
LINE
  5
124
330
11B
100
AcDbEntity
  8
0
  6
Continuous
 62
     7
370
     0
100
AcDbLine
 10
4.7224899228
 20
5.8334464388
 30
0.0
 11
4.7055917748
 21
5.8334464388
 31
0.0
  0
LINE
  5
125
330
11B
100
AcDbEntity
  8
0
  6
Continuous
 62
     7
370
     0
100
AcDbLine
 10
3.3425303593
 20
5.3133728363
 30
0.0
 11
4.0600091957
 21
6.0337981801
 31
0.0
  0
LINE
  5
126
330
11B
100
AcDbEntity
  8
0
  6
Continuous
 62
     7
370
     0
100
AcDbLine
 10
4.0600091957
 20
6.0337981801
 30
0.0
 11
4.2100091957
 21
6.0337981801
 31
0.0
  0
MTEXT
  5
127
330
11B
100
AcDbEntity
  8
0
  6
Continuous
 62
     7
370
     0
100
AcDbMText
 10
4.2100091957
 20
6.0901743019
 30
0.0
 40
0.0833333333
 41
0.0
 71
     1
 72
     1
  1
%%c
  7
SLDTEXTSTYLE0
 73
     1
 44
1.0
  0
MTEXT
  5
128
330
11B
100
AcDbEntity
  8
0
  6
Continuous
 62
     7
370
     0
100
AcDbMText
 10
4.3357962351
 20
6.0901743019
 30
0.0
 40
0.0833333333
 41
0.0
 71
     1
 72
     1
  1
2.20in
  7
SLDTEXTSTYLE0
 73
     1
 44
1.0
  0
MTEXT
  5
129
330
11B
100
AcDbEntity
  8
0
  6
Continuous
 62
     7
370
     0
100
AcDbMText
 10
4.2607036409
 20
5.9408687459
 30
0.0
 40
0.0833333333
 41
0.0
 71
     1
 72
     1
  1
55.9mm
  7
SLDTEXTSTYLE0
 73
     1
 44
1.0
  0
ENDBLK
  5
11D
330
11B
100
AcDbEntity
  8
0
100
AcDbBlockEnd
  0
BLOCK
  5
188
330
187
100
AcDbEntity
  8
0
100
AcDbBlockBegin
  2
_D_1
 70
     0
 10
0.0
 20
0.0
 30
0.0
  3
_D_1
  1
_D_1
  0
SOLID
  5
18A
330
187
100
AcDbEntity
  8
0
  6
Continuous
 62
     7
370
     0
100
AcDbTrace
 10
7.261043095
 20
6.2638843946
 30
0.0
 11
7.386043095
 21
6.2438843946
 31
0.0
 12
7.386043095
 22
6.2838843946
 32
0.0
 13
7.386043095
 23
6.2838843946
 33
0.0
  0
SOLID
  5
18B
330
187
100
AcDbEntity
  8
0
  6
Continuous
 62
     7
370
     0
100
AcDbTrace
 10
6.711043095
 20
6.2638843946
 30
0.0
 11
6.586043095
 21
6.2838843946
 31
0.0
 12
6.586043095
 22
6.2438843946
 32
0.0
 13
6.586043095
 23
6.2438843946
 33
0.0
  0
LINE
  5
18C
330
187
100
AcDbEntity
  8
0
  6
Continuous
 62
     7
370
     0
100
AcDbLine
 10
5.8481164161
 20
6.2638843855
 30
0.0
 11
5.8312182681
 21
6.2638843855
 31
0.0
  0
LINE
  5
18D
330
187
100
AcDbEntity
  8
0
  6
Continuous
 62
     7
370
     0
100
AcDbLine
 10
5.8312182681
 20
6.2638843855
 30
0.0
 11
5.8312182681
 21
6.1314769809
 31
0.0
  0
LINE
  5
18E
330
187
100
AcDbEntity
  8
0
  6
Continuous
 62
     7
370
     0
100
AcDbLine
 10
5.8312182681
 20
6.1314769809
 30
0.0
 11
5.8481164161
 21
6.1314769809
 31
0.0
  0
LINE
  5
18F
330
187
100
AcDbEntity
  8
0
  6
Continuous
 62
     7
370
     0
100
AcDbLine
 10
6.3141272359
 20
6.2638843855
 30
0.0
 11
6.3310253839
 21
6.2638843855
 31
0.0
  0
LINE
  5
190
330
187
100
AcDbEntity
  8
0
  6
Continuous
 62
     7
370
     0
100
AcDbLine
 10
6.3310253839
 20
6.2638843855
 30
0.0
 11
6.3310253839
 21
6.1314769809
 31
0.0
  0
LINE
  5
191
330
187
100
AcDbEntity
  8
0
  6
Continuous
 62
     7
370
     0
100
AcDbLine
 10
6.3310253839
 20
6.1314769809
 30
0.0
 11
6.3141272359
 21
6.1314769809
 31
0.0
  0
LINE
  5
192
330
187
100
AcDbEntity
  8
0
  6
Continuous
 62
     7
370
     0
100
AcDbLine
 10
7.261043095
 20
5.5841426267
 30
0.0
 11
7.261043095
 21
6.3338843946
 31
0.0
  0
LINE
  5
193
330
187
100
AcDbEntity
  8
0
  6
Continuous
 62
     7
370
     0
100
AcDbLine
 10
6.711043095
 20
5.6739631348
 30
0.0
 11
6.711043095
 21
6.3338843946
 31
0.0
  0
LINE
  5
194
330
187
100
AcDbEntity
  8
0
  6
Continuous
 62
     7
370
     0
100
AcDbLine
 10
7.261043095
 20
6.2638843946
 30
0.0
 11
7.511043095
 21
6.2638843946
 31
0.0
  0
LINE
  5
195
330
187
100
AcDbEntity
  8
0
  6
Continuous
 62
     7
370
     0
100
AcDbLine
 10
6.711043095
 20
6.2638843946
 30
0.0
 11
6.4220346513
 21
6.2638843946
 31
0.0
  0
MTEXT
  5
196
330
187
100
AcDbEntity
  8
0
  6
Continuous
 62
     7
370
     0
100
AcDbMText
 10
5.8196249047
 20
6.388204844
 30
0.0
 40
0.0833333333
 41
0.0
 71
     1
 72
     1
  1

  7
SLDTEXTSTYLE0
 73
     1
 44
1.0
  0
MTEXT
  5
197
330
187
100
AcDbEntity
  8
0
  6
Continuous
 62
     7
370
     0
100
AcDbMText
 10
5.9284211958
 20
6.388204844
 30
0.0
 40
0.0833333333
 41
0.0
 71
     1
 72
     1
  1
0.55in
  7
SLDTEXTSTYLE0
 73
     1
 44
1.0
  0
MTEXT
  5
198
330
187
100
AcDbEntity
  8
0
  6
Continuous
 62
     7
370
     0
100
AcDbMText
 10
5.869239102
 20
6.2388992879
 30
0.0
 40
0.0833333333
 41
0.0
 71
     1
 72
     1
  1
14.0mm
  7
SLDTEXTSTYLE0
 73
     1
 44
1.0
  0
MTEXT
  5
199
330
187
100
AcDbEntity
  8
0
  6
Continuous
 62
     7
370
     0
100
AcDbMText
 10
6.4061989952
 20
6.388204844
 30
0.0
 40
0.0833333333
 41
0.0
 71
     1
 72
     1
  1

  7
SLDTEXTSTYLE0
 73
     1
 44
1.0
  0
ENDBLK
  5
189
330
187
100
AcDbEntity
  8
0
100
AcDbBlockEnd
  0
BLOCK
  5
19C
330
19B
100
AcDbEntity
  8
0
100
AcDbBlockBegin
  2
_D_2
 70
     0
 10
0.0
 20
0.0
 30
0.0
  3
_D_2
  1
_D_2
  0
SOLID
  5
19E
330
19B
100
AcDbEntity
  8
0
  6
Continuous
 62
     7
370
     0
100
AcDbTrace
 10
7.141043095
 20
5.9035717563
 30
0.0
 11
7.016043095
 21
5.9235717563
 31
0.0
 12
7.016043095
 22
5.8835717563
 32
0.0
 13
7.016043095
 23
5.8835717563
 33
0.0
  0
SOLID
  5
19F
330
19B
100
AcDbEntity
  8
0
  6
Continuous
 62
     7
370
     0
100
AcDbTrace
 10
7.261043095
 20
5.9035717563
 30
0.0
 11
7.386043095
 21
5.8835717563
 31
0.0
 12
7.386043095
 22
5.9235717563
 32
0.0
 13
7.386043095
 23
5.9235717563
 33
0.0
  0
LINE
  5
1A0
330
19B
100
AcDbEntity
  8
0
  6
Continuous
 62
     7
370
     0
100
AcDbLine
 10
7.6887460035
 20
5.9035717471
 30
0.0
 11
7.6718478555
 21
5.9035717471
 31
0.0
  0
LINE
  5
1A1
330
19B
100
AcDbEntity
  8
0
  6
Continuous
 62
     7
370
     0
100
AcDbLine
 10
7.6718478555
 20
5.9035717471
 30
0.0
 11
7.6718478555
 21
5.7711643425
 31
0.0
  0
LINE
  5
1A2
330
19B
100
AcDbEntity
  8
0
  6
Continuous
 62
     7
370
     0
100
AcDbLine
 10
7.6718478555
 20
5.7711643425
 30
0.0
 11
7.6887460035
 21
5.7711643425
 31
0.0
  0
LINE
  5
1A3
330
19B
100
AcDbEntity
  8
0
  6
Continuous
 62
     7
370
     0
100
AcDbLine
 10
8.0931827245
 20
5.9035717471
 30
0.0
 11
8.1100808726
 21
5.9035717471
 31
0.0
  0
LINE
  5
1A4
330
19B
100
AcDbEntity
  8
0
  6
Continuous
 62
     7
370
     0
100
AcDbLine
 10
8.1100808726
 20
5.9035717471
 30
0.0
 11
8.1100808726
 21
5.7711643425
 31
0.0
  0
LINE
  5
1A5
330
19B
100
AcDbEntity
  8
0
  6
Continuous
 62
     7
370
     0
100
AcDbLine
 10
8.1100808726
 20
5.7711643425
 30
0.0
 11
8.0931827245
 21
5.7711643425
 31
0.0
  0
LINE
  5
1A6
330
19B
100
AcDbEntity
  8
0
  6
Continuous
 62
     7
370
     0
100
AcDbLine
 10
7.141043095
 20
5.6739631348
 30
0.0
 11
7.141043095
 21
5.9735717563
 31
0.0
  0
LINE
  5
1A7
330
19B
100
AcDbEntity
  8
0
  6
Continuous
 62
     7
370
     0
100
AcDbLine
 10
7.261043095
 20
5.5841426267
 30
0.0
 11
7.261043095
 21
5.9735717563
 31
0.0
  0
LINE
  5
1A8
330
19B
100
AcDbEntity
  8
0
  6
Continuous
 62
     7
370
     0
100
AcDbLine
 10
7.141043095
 20
5.9035717563
 30
0.0
 11
6.891043095
 21
5.9035717563
 31
0.0
  0
LINE
  5
1A9
330
19B
100
AcDbEntity
  8
0
  6
Continuous
 62
     7
370
     0
100
AcDbLine
 10
7.261043095
 20
5.9035717563
 30
0.0
 11
7.5808386064
 21
5.9035717563
 31
0.0
  0
MTEXT
  5
1AA
330
19B
100
AcDbEntity
  8
0
  6
Continuous
 62
     7
370
     0
100
AcDbMText
 10
7.660254492
 20
6.0278922056
 30
0.0
 40
0.0833333333
 41
0.0
 71
     1
 72
     1
  1

  7
SLDTEXTSTYLE0
 73
     1
 44
1.0
  0
MTEXT
  5
1AB
330
19B
100
AcDbEntity
  8
0
  6
Continuous
 62
     7
370
     0
100
AcDbMText
 10
7.7382637339
 20
6.0278922056
 30
0.0
 40
0.0833333333
 41
0.0
 71
     1
 72
     1
  1
0.12in
  7
SLDTEXTSTYLE0
 73
     1
 44
1.0
  0
MTEXT
  5
1AC
330
19B
100
AcDbEntity
  8
0
  6
Continuous
 62
     7
370
     0
100
AcDbMText
 10
7.7098686894
 20
5.8785866496
 30
0.0
 40
0.0833333333
 41
0.0
 71
     1
 72
     1
  1
3.0mm
  7
SLDTEXTSTYLE0
 73
     1
 44
1.0
  0
MTEXT
  5
1AD
330
19B
100
AcDbEntity
  8
0
  6
Continuous
 62
     7
370
     0
100
AcDbMText
 10
8.1852544472
 20
6.0278922056
 30
0.0
 40
0.0833333333
 41
0.0
 71
     1
 72
     1
  1

  7
SLDTEXTSTYLE0
 73
     1
 44
1.0
  0
ENDBLK
  5
19D
330
19B
100
AcDbEntity
  8
0
100
AcDbBlockEnd
  0
BLOCK
  5
1AF
330
1AE
100
AcDbEntity
  8
0
100
AcDbBlockBegin
  2
SW_NOTE_5
 70
     0
 10
0.0
 20
0.0
 30
0.0
  3
SW_NOTE_5
  1
SW_NOTE_5
  0
MTEXT
  5
1B1
330
1AE
100
AcDbEntity
  8
0
  6
Continuous
 62
     0
370
     0
100
AcDbMText
 10
-2.241162975
 20
0.0389352634
 30
0.0
 40
0.0833333333
 41
0.0
 71
     1
 72
     1
  1
SM2(
  7
SLDTEXTSTYLE0
 73
     1
 44
1.0
  0
MTEXT
  5
1B2
330
1AE
100
AcDbEntity
  8
0
  6
Continuous
 62
     0
370
     0
100
AcDbMText
 10
-1.9502679071
 20
0.0389352634
 30
0.0
 40
0.0833333333
 41
0.0
 71
     1
 72
     1
  1
%%c
  7
SLDTEXTSTYLE0
 73
     1
 44
1.0
  0
MTEXT
  5
1B3
330
1AE
100
AcDbEntity
  8
0
  6
Continuous
 62
     0
370
     0
100
AcDbMText
 10
-1.8244808585
 20
0.0389352634
 30
0.0
 40
0.0833333333
 41
0.0
 71
     1
 72
     1
  1
2.035-40) SERIES INTERNAL THREAD
  7
SLDTEXTSTYLE0
 73
     1
 44
1.0
  0
ENDBLK
  5
1B0
330
1AE
100
AcDbEntity
  8
0
100
AcDbBlockEnd
  0
BLOCK
  5
1B8
330
1B7
100
AcDbEntity
  8
0
100
AcDbBlockBegin
  2
SW_NOTE_6
 70
     0
 10
0.0
 20
0.0
 30
0.0
  3
SW_NOTE_6
  1
SW_NOTE_6
  0
MTEXT
  5
1BA
330
1B7
100
AcDbEntity
  8
0
  6
Continuous
 62
     0
370
     0
100
AcDbMText
 10
0.0232265597
 20
0.0378512816
 30
0.0
 40
0.0833333333
 41
0.0
 71
     1
 72
     1
  1
SM2(
  7
SLDTEXTSTYLE0
 73
     1
 44
1.0
  0
MTEXT
  5
1BB
330
1B7
100
AcDbEntity
  8
0
  6
Continuous
 62
     0
370
     0
100
AcDbMText
 10
0.3141216276
 20
0.0378512816
 30
0.0
 40
0.0833333333
 41
0.0
 71
     1
 72
     1
  1
%%c
  7
SLDTEXTSTYLE0
 73
     1
 44
1.0
  0
MTEXT
  5
1BC
330
1B7
100
AcDbEntity
  8
0
  6
Continuous
 62
     0
370
     0
100
AcDbMText
 10
0.4399086762
 20
0.0378512816
 30
0.0
 40
0.0833333333
 41
0.0
 71
     1
 72
     1
  1
2.035-40) SERIES EXTERNAL THREAD
  7
SLDTEXTSTYLE0
 73
     1
 44
1.0
  0
ENDBLK
  5
1B9
330
1B7
100
AcDbEntity
  8
0
100
AcDbBlockEnd
  0
BLOCK
  5
1C0
330
1BF
100
AcDbEntity
  8
0
100
AcDbBlockBegin
  2
SW_NOTE_7
 70
     0
 10
0.0
 20
0.0
 30
0.0
  3
SW_NOTE_7
  1
SW_NOTE_7
  0
CIRCLE
  5
1C2
330
1BF
100
AcDbEntity
  8
0
  6
Continuous
 62
     0
370
     0
100
AcDbCircle
 10
-0.1711409232
 20
0.0
 30
0.0
 40
0.1711409231876097
  0
MTEXT
  5
1C3
330
1BF
100
AcDbEntity
  8
0
  6
Continuous
 62
     0
370
     0
100
AcDbMText
 10
-0.1723996039
 20
0.0665400942
 30
0.0
 40
0.125
 41
0.0
 71
     2
 72
     1
  1
1
  7
SLDTEXTSTYLE0
 73
     1
 44
1.0
  0
ENDBLK
  5
1C1
330
1BF
100
AcDbEntity
  8
0
100
AcDbBlockEnd
  0
BLOCK
  5
1C7
330
1C6
100
AcDbEntity
  8
0
100
AcDbBlockBegin
  2
SW_NOTE_8
 70
     0
 10
0.0
 20
0.0
 30
0.0
  3
SW_NOTE_8
  1
SW_NOTE_8
  0
CIRCLE
  5
1C9
330
1C6
100
AcDbEntity
  8
0
  6
Continuous
 62
     0
370
     0
100
AcDbCircle
 10
0.1711409232
 20
0.0
 30
0.0
 40
0.1711409231876097
  0
MTEXT
  5
1CA
330
1C6
100
AcDbEntity
  8
0
  6
Continuous
 62
     0
370
     0
100
AcDbMText
 10
0.1698822425
 20
0.0665400942
 30
0.0
 40
0.125
 41
0.0
 71
     2
 72
     1
  1
2
  7
SLDTEXTSTYLE0
 73
     1
 44
1.0
  0
ENDBLK
  5
1C8
330
1C6
100
AcDbEntity
  8
0
100
AcDbBlockEnd
  0
BLOCK
  5
1CE
330
1CD
100
AcDbEntity
  8
0
100
AcDbBlockBegin
  2
SW_NOTE_9
 70
     0
 10
0.0
 20
0.0
 30
0.0
  3
SW_NOTE_9
  1
SW_NOTE_9
  0
CIRCLE
  5
1D0
330
1CD
100
AcDbEntity
  8
0
  6
Continuous
 62
     0
370
     0
100
AcDbCircle
 10
-0.1711409232
 20
0.0
 30
0.0
 40
0.1711409231876099
  0
MTEXT
  5
1D1
330
1CD
100
AcDbEntity
  8
0
  6
Continuous
 62
     0
370
     0
100
AcDbMText
 10
-0.1723996039
 20
0.0665400942
 30
0.0
 40
0.125
 41
0.0
 71
     2
 72
     1
  1
3
  7
SLDTEXTSTYLE0
 73
     1
 44
1.0
  0
ENDBLK
  5
1CF
330
1CD
100
AcDbEntity
  8
0
100
AcDbBlockEnd
  0
ENDSEC
  0
SECTION
  2
ENTITIES
  0
LINE
  5
7D
330
1F
100
AcDbEntity
  8
0
  6
Continuous
 62
     7
370
     0
100
AcDbLine
 10
0.0621791378
 20
8.4506055117
 30
0.0
 11
10.9444569626
 21
8.4506055117
 31
0.0
  0
LINE
  5
7E
330
1F
100
AcDbEntity
  8
0
  6
Continuous
 62
     7
370
     0
100
AcDbLine
 10
0.0621791378
 20
8.4506055117
 30
0.0
 11
0.0621791378
 21
0.035557648
 31
0.0
  0
LINE
  5
7F
330
1F
100
AcDbEntity
  8
0
  6
Continuous
 62
     7
370
     0
100
AcDbLine
 10
10.9444569626
 20
0.035557648
 30
0.0
 11
0.0621791378
 21
0.035557648
 31
0.0
  0
LINE
  5
80
330
1F
100
AcDbEntity
  8
0
  6
Continuous
 62
     7
370
     0
100
AcDbLine
 10
10.9444569626
 20
0.035557648
 30
0.0
 11
10.9444569626
 21
8.4506055117
 31
0.0
  0
LINE
  5
81
330
1F
100
AcDbEntity
  8
0
  6
Continuous
 62
     7
370
     0
100
AcDbLine
 10
8.4938096065
 20
0.4840901186
 30
0.0
 11
6.7571952625
 21
0.4840901186
 31
0.0
  0
LINE
  5
82
330
1F
100
AcDbEntity
  8
0
  6
Continuous
 62
     7
370
     0
100
AcDbLine
 10
6.7571952625
 20
0.4840901186
 30
0.0
 11
6.7571952625
 21
1.030163002
 31
0.0
  0
LINE
  5
83
330
1F
100
AcDbEntity
  8
0
  6
Continuous
 62
     7
370
     0
100
AcDbLine
 10
6.7571952625
 20
0.035557648
 30
0.0
 11
6.7571952625
 21
1.030163002
 31
0.0
  0
LINE
  5
84
330
1F
100
AcDbEntity
  8
0
  6
Continuous
 62
     7
370
     0
100
AcDbLine
 10
8.4938096065
 20
0.6756085809
 30
0.0
 11
10.9444569626
 21
0.6756085809
 31
0.0
  0
LINE
  5
85
330
1F
100
AcDbEntity
  8
0
  6
Continuous
 62
     7
370
     0
100
AcDbLine
 10
8.4938096065
 20
1.3873799542
 30
0.0
 11
8.4938096065
 21
0.035557648
 31
0.0
  0
LINE
  5
86
330
1F
100
AcDbEntity
  8
0
  6
Continuous
 62
     7
370
     0
100
AcDbLine
 10
8.4938096065
 20
1.030163002
 30
0.0
 11
6.7571952625
 21
1.030163002
 31
0.0
  0
LINE
  5
87
330
1F
100
AcDbEntity
  8
0
  6
Continuous
 62
     7
370
     0
100
AcDbLine
 10
8.4938096065
 20
0.3598787426
 30
0.0
 11
10.9444569626
 21
0.3598787426
 31
0.0
  0
LINE
  5
88
330
1F
100
AcDbEntity
  8
0
  6
Continuous
 62
     7
370
     0
100
AcDbLine
 10
8.4938096065
 20
0.6662079686
 30
0.0
 11
6.7571952625
 21
0.6662079686
 31
0.0
  0
LINE
  5
89
330
1F
100
AcDbEntity
  8
0
  6
Continuous
 62
     7
370
     0
100
AcDbLine
 10
8.4938096065
 20
0.8459606517
 30
0.0
 11
6.7571952625
 21
0.8459606517
 31
0.0
  0
LINE
  5
8A
330
1F
100
AcDbEntity
  8
0
  6
Continuous
 62
     7
370
     0
100
AcDbLine
 10
7.3281027587
 20
1.030163002
 30
0.0
 11
7.3281027587
 21
0.4840901186
 31
0.0
  0
LINE
  5
8B
330
1F
100
AcDbEntity
  8
0
  6
Continuous
 62
     7
370
     0
100
AcDbLine
 10
7.8037240401
 20
1.030163002
 30
0.0
 11
7.8037240401
 21
0.4840901186
 31
0.0
  0
LINE
  5
8C
330
1F
100
AcDbEntity
  8
0
  6
Continuous
 62
     7
370
     0
100
AcDbLine
 10
9.990119718
 20
0.3598787426
 30
0.0
 11
9.990119718
 21
0.035557648
 31
0.0
  0
LINE
  5
8D
330
1F
100
AcDbEntity
  8
0
  6
Continuous
 62
     7
370
     0
100
AcDbLine
 10
6.7571952625
 20
0.4840901186
 30
0.0
 11
6.7571952625
 21
0.297745443
 31
0.0
  0
LINE
  5
8E
330
1F
100
AcDbEntity
  8
0
  6
Continuous
 62
     7
370
     0
100
AcDbLine
 10
6.7571952625
 20
0.297745443
 30
0.0
 11
8.4938096065
 21
0.297745443
 31
0.0
  0
LINE
  5
8F
330
1F
100
AcDbEntity
  8
0
  6
Continuous
 62
     7
370
     0
100
AcDbLine
 10
6.7571952625
 20
0.297745443
 30
0.0
 11
6.7571952625
 21
1.3873799542
 31
0.0
  0
LINE
  5
90
330
1F
100
AcDbEntity
  8
0
  6
Continuous
 62
     7
370
     0
100
AcDbLine
 10
6.7571952625
 20
1.3873799542
 30
0.0
 11
8.4938096065
 21
1.3873799542
 31
0.0
  0
LINE
  5
91
330
1F
100
AcDbEntity
  8
0
  6
Continuous
 62
     7
370
     0
100
AcDbLine
 10
10.6365495992
 20
0.6756085809
 30
0.0
 11
10.6365495992
 21
0.3598787426
 31
0.0
  0
LINE
  5
92
330
1F
100
AcDbEntity
  8
0
  6
Continuous
 62
     7
370
     0
100
AcDbLine
 10
8.4938096065
 20
1.3873799542
 30
0.0
 11
10.9444569626
 21
1.3873799542
 31
0.0
  0
LINE
  5
93
330
1F
100
AcDbEntity
  8
0
  6
Continuous
 62
     7
370
     0
100
AcDbLine
 10
10.9444569626
 20
1.3873799542
 30
0.0
 11
10.9444569626
 21
1.9698084888
 31
0.0
  0
LINE
  5
94
330
1F
100
AcDbEntity
  8
0
  6
Continuous
 62
     7
370
     0
100
AcDbLine
 10
8.4938096065
 20
0.9800288797
 30
0.0
 11
10.9444569626
 21
0.9800288797
 31
0.0
  0
INSERT
  5
95
330
1F
100
AcDbEntity
  8
0
  6
Continuous
 62
     7
100
AcDbBlockReference
  2
Third Angle Projection Block
 10
4.6348905679
 20
0.6108753523
 30
0.0
 41
0.8
 42
0.8
 43
0.8
  0
MTEXT
  5
97
330
1F
100
AcDbEntity
  8
0
  6
Continuous
 62
     7
370
     0
100
AcDbMText
 10
10.7892734632
 20
0.5227176726
 30
0.0
 40
0.125
 41
0.0
 71
     2
 72
     1
  1
A
  7
SLDTEXTSTYLE0
 73
     1
 44
1.0
  0
MTEXT
  5
98
330
1F
100
AcDbEntity
  8
0
  6
Continuous
 62
     7
370
     0
100
AcDbMText
 10
9.2314701621
 20
0.2019943461
 30
0.0
 40
0.125
 41
0.0
 71
     2
 72
     1
  1
LA1050-ML
  7
SLDTEXTSTYLE0
 73
     1
 44
1.0
  0
MTEXT
  5
99
330
1F
100
AcDbEntity
  8
0
  6
Continuous
 62
     7
370
     0
100
AcDbMText
 10
8.5204715199
 20
0.6623747189
 30
0.0
 40
0.0833333333
 41
0.0
 71
     1
 72
     1
  1
MATERIAL
  7
SLDTEXTSTYLE0
 73
     1
 44
1.0
  0
MTEXT
  5
9A
330
1F
100
AcDbEntity
  8
0
  6
Continuous
 62
     7
370
     0
100
AcDbMText
 10
6.8594860853
 20
0.7895493672
 30
0.0
 40
0.0729166667
 41
0.0
 71
     1
 72
     1
  1
DRAWN
  7
SLDTEXTSTYLE0
 73
     1
 44
1.0
  0
MTEXT
  5
9B
330
1F
100
AcDbEntity
  8
0
  6
Continuous
 62
     7
370
     0
100
AcDbMText
 10
6.7872445848
 20
0.613335314
 30
0.0
 40
0.0729166667
 41
0.0
 71
     1
 72
     1
  1
APPROVAL
  7
SLDTEXTSTYLE0
 73
     1
 44
1.0
  0
MTEXT
  5
9C
330
1F
100
AcDbEntity
  8
0
  6
Continuous
 62
     7
370
     0
100
AcDbMText
 10
10.6936137314
 20
0.6373332609
 30
0.0
 40
0.0833333333
 41
0.0
 71
     1
 72
     1
  1
REV
  7
SLDTEXTSTYLE0
 73
     1
 44
1.0
  0
MTEXT
  5
9D
330
1F
100
AcDbEntity
  8
0
  6
Continuous
 62
     7
370
     0
100
AcDbMText
 10
7.4919633718
 20
0.7999100272
 30
0.0
 40
0.0833333333
 41
0.0
 71
     1
 72
     1
  1
GG
  7
SLDTEXTSTYLE0
 73
     1
 44
1.0
  0
MTEXT
  5
9E
330
1F
100
AcDbEntity
  8
0
  6
Continuous
 62
     7
370
     0
100
AcDbMText
 10
7.4919633718
 20
0.623695974
 30
0.0
 40
0.0833333333
 41
0.0
 71
     1
 72
     1
  1
DD
  7
SLDTEXTSTYLE0
 73
     1
 44
1.0
  0
MTEXT
  5
9F
330
1F
100
AcDbEntity
  8
0
  6
Continuous
 62
     7
370
     0
100
AcDbMText
 10
7.8687497515
 20
0.7999100272
 30
0.0
 40
0.0833333333
 41
0.0
 71
     1
 72
     1
  1
15/OCT/15
  7
SLDTEXTSTYLE0
 73
     1
 44
1.0
  0
MTEXT
  5
A0
330
1F
100
AcDbEntity
  8
0
  6
Continuous
 62
     7
370
     0
100
AcDbMText
 10
8.0163191884
 20
0.9772495896
 30
0.0
 40
0.0833333333
 41
0.0
 71
     1
 72
     1
  1
DATE
  7
SLDTEXTSTYLE0
 73
     1
 44
1.0
  0
MTEXT
  5
A1
330
1F
100
AcDbEntity
  8
0
  6
Continuous
 62
     7
370
     0
100
AcDbMText
 10
7.8687497515
 20
0.623695974
 30
0.0
 40
0.0833333333
 41
0.0
 71
     1
 72
     1
  1
15/OCT/15
  7
SLDTEXTSTYLE0
 73
     1
 44
1.0
  0
MTEXT
  5
A3
330
1F
100
AcDbEntity
  8
0
  6
Continuous
 62
     7
370
     0
100
AcDbMText
 10
9.0316104912
 20
1.0943207896
 30
0.0
 40
0.0833333333
 41
0.0
 71
     1
 72
     1
  1
w w w . t h o r  l a b s . c o m
  7
SLDTEXTSTYLE1
 73
     1
 44
1.0
  0
MTEXT
  5
A4
330
1F
100
AcDbEntity
  8
0
  6
Continuous
 62
     7
370
     0
100
AcDbMText
 10
8.5315119501
 20
0.328719653
 30
0.0
 40
0.0833333333
 41
0.0
 71
     1
 72
     1
  1
ITEM #
  7
SLDTEXTSTYLE0
 73
     1
 44
1.0
  0
MTEXT
  5
A5
330
1F
100
AcDbEntity
  8
0
  6
Continuous
 62
     7
370
     0
100
AcDbMText
 10
10.0209370115
 20
0.328719653
 30
0.0
 40
0.0833333333
 41
0.0
 71
     1
 72
     1
  1
APPROX WEIGHT
  7
SLDTEXTSTYLE0
 73
     1
 44
1.0
  0
MTEXT
  5
A6
330
1F
100
AcDbEntity
  8
0
  6
Continuous
 62
     7
370
     0
100
AcDbMText
 10
9.5949135982
 20
0.5414715262
 30
0.0
 40
0.125
 41
0.0
 71
     2
 72
     1
  1
SEE TABLE
  7
SLDTEXTSTYLE0
 73
     1
 44
1.0
  0
MTEXT
  5
A8
330
1F
100
AcDbEntity
  8
0
  6
Continuous
 62
     7
370
     0
100
AcDbMText
 10
10.4826226539
 20
0.2019943461
 30
0.0
 40
0.125
 41
0.0
 71
     2
 72
     1
  1
47 g
  7
SLDTEXTSTYLE2
 73
     1
 44
1.0
  0
INSERT
  5
AE
330
1F
100
AcDbEntity
  8
0
  6
Continuous
 62
     7
370
     0
100
AcDbBlockReference
  2
SW_NOTE_0
 10
6.8835832285
 20
0.1754273811
 30
0.0
  0
INSERT
  5
B4
330
1F
100
AcDbEntity
  8
0
  6
Continuous
 62
     7
370
     0
100
AcDbBlockReference
  2
SW_NOTE_1
 10
6.8719828753
 20
1.2001390658
 30
0.0
  0
MTEXT
  5
B5
330
1F
100
AcDbEntity
  8
0
  6
Continuous
 62
     7
370
     0
100
AcDbMText
 10
7.3987149145
 20
0.9772495896
 30
0.0
 40
0.0833333333
 41
0.0
 71
     1
 72
     1
  1
NAME
  7
SLDTEXTSTYLE0
 73
     1
 44
1.0
  0
INSERT
  5
BC
330
1F
100
AcDbEntity
  8
0
  6
Continuous
 62
     7
370
     0
100
AcDbBlockReference
  2
SW_NOTE_2
 10
8.5755302951
 20
0.8160048101
 30
0.0
  0
MTEXT
  5
BD
330
1F
100
AcDbEntity
  8
0
  6
Continuous
 62
     7
370
     0
100
AcDbMText
 10
7.0281258754
 20
0.4200025137
 30
0.0
 40
0.0625
 41
0.0
 71
     1
 72
     1
  1
COPYRIGHT © 2015 BY THORLABS
  7
SLDTEXTSTYLE0
 73
     1
 44
1.0
  0
INSERT
  5
C3
330
1F
100
AcDbEntity
  8
0
  6
Continuous
 62
     7
370
     0
100
AcDbBlockReference
  2
SW_NOTE_3
 10
2.1096529316
 20
0.3219551564
 30
0.0
  0
INSERT
  5
D6
330
1F
100
AcDbEntity
  8
0
  6
Continuous
 62
     7
370
     0
100
AcDbBlockReference
  2
SW_NOTE_4
 10
0.2229009106
 20
1.7636814979
 30
0.0
  0
INSERT
  5
100
330
1F
100
AcDbEntity
  8
0
  6
Continuous
 62
     7
370
     0
100
AcDbBlockReference
  2
SW_TABLEANNOTATION_0
 10
0.0612779343
 20
8.4504327236
 30
0.0
  0
CIRCLE
  5
101
330
1F
100
AcDbEntity
  8
0
  6
Continuous
 62
     7
370
     0
100
AcDbCircle
 10
2.5663084083
 20
4.5339631348
 30
0.0
 40
1.034820508075688
  0
CIRCLE
  5
102
330
1F
100
AcDbEntity
  8
0
  6
Continuous
 62
     7
370
     0
100
AcDbCircle
 10
2.5663084083
 20
4.5339631348
 30
0.0
 40
1.0175
  0
CIRCLE
  5
103
330
1F
100
AcDbEntity
  8
0
  6
Continuous
 62
     7
370
     0
100
AcDbCircle
 10
2.5663084083
 20
4.5339631348
 30
0.0
 40
1.09
  0
CIRCLE
  5
104
330
1F
100
AcDbEntity
  8
0
  6
Continuous
 62
     7
370
     0
100
AcDbCircle
 10
2.5663084083
 20
4.5339631348
 30
0.0
 40
1.1
  0
ARC
  5
105
330
1F
100
AcDbEntity
  8
0
  6
Continuous
 62
     7
370
     0
100
AcDbCircle
 10
2.5663084083
 20
4.5339631348
 30
0.0
 40
0.9499999999999998
100
AcDbArc
 50
180.9047077972
 51
359.0952922028
  0
LINE
  5
106
330
1F
100
AcDbEntity
  8
0
  6
Continuous
 62
     7
370
     0
100
AcDbLine
 10
3.5161899686
 20
4.5189631351
 30
0.0
 11
3.5261911997
 21
4.5189631351
 31
0.0
  0
ARC
  5
107
330
1F
100
AcDbEntity
  8
0
  6
Continuous
 62
     7
370
     0
100
AcDbCircle
 10
2.5663084083
 20
4.5339631348
 30
0.0
 40
0.9600000000000013
100
AcDbArc
 50
180.8952829866
 51
359.1047170134
  0
LINE
  5
108
330
1F
100
AcDbEntity
  8
0
  6
Continuous
 62
     7
370
     0
100
AcDbLine
 10
1.606425617
 20
4.5189631351
 30
0.0
 11
1.6164268481
 21
4.5189631351
 31
0.0
  0
ARC
  5
109
330
1F
100
AcDbEntity
  8
0
  6
Continuous
 62
     7
370
     0
100
AcDbCircle
 10
2.5663084083
 20
4.5339631348
 30
0.0
 40
1.000179491924312
100
AcDbArc
 50
0.8593146732
 51
179.1406853268
  0
LINE
  5
10A
330
1F
100
AcDbEntity
  8
0
  6
Continuous
 62
     7
370
     0
100
AcDbLine
 10
1.5662413945
 20
4.5489631344
 30
0.0
 11
1.5489190146
 21
4.5489631344
 31
0.0
  0
LINE
  5
10B
330
1F
100
AcDbEntity
  8
0
  6
Continuous
 62
     7
370
     0
100
AcDbLine
 10
3.583697802
 20
4.5489631344
 30
0.0
 11
3.5663754221
 21
4.5489631344
 31
0.0
  0
ARC
  5
10C
330
1F
100
AcDbEntity
  8
0
  6
Continuous
 62
     7
370
     0
100
AcDbCircle
 10
2.5663084083
 20
4.5339631348
 30
0.0
 40
1.000179491924312
100
AcDbArc
 50
180.8593146732
 51
359.1406853268
  0
LINE
  5
10D
330
1F
100
AcDbEntity
  8
0
  6
Continuous
 62
     7
370
     0
100
AcDbLine
 10
3.5663754221
 20
4.5189631351
 30
0.0
 11
3.583697802
 21
4.5189631351
 31
0.0
  0
LINE
  5
10E
330
1F
100
AcDbEntity
  8
0
  6
Continuous
 62
     7
370
     0
100
AcDbLine
 10
1.5489190146
 20
4.5189631351
 30
0.0
 11
1.5662413945
 21
4.5189631351
 31
0.0
  0
LINE
  5
10F
330
1F
100
AcDbEntity
  8
0
  6
Continuous
 62
     7
370
     0
100
AcDbLine
 10
1.5662413945
 20
4.5189631351
 30
0.0
 11
1.606425617
 21
4.5189631351
 31
0.0
  0
LINE
  5
110
330
1F
100
AcDbEntity
  8
0
  6
Continuous
 62
     7
370
     0
100
AcDbLine
 10
3.5261911997
 20
4.5189631351
 30
0.0
 11
3.5663754221
 21
4.5189631351
 31
0.0
  0
ARC
  5
111
330
1F
100
AcDbEntity
  8
0
  6
Continuous
 62
     7
370
     0
100
AcDbCircle
 10
2.5663084083
 20
4.5339631348
 30
0.0
 40
0.9499999999999998
100
AcDbArc
 50
0.9047077972
 51
179.0952922028
  0
ARC
  5
112
330
1F
100
AcDbEntity
  8
0
  6
Continuous
 62
     7
370
     0
100
AcDbCircle
 10
2.5663084083
 20
4.5339631348
 30
0.0
 40
0.9600000000000013
100
AcDbArc
 50
0.8952829866
 51
179.1047170134
  0
LINE
  5
113
330
1F
100
AcDbEntity
  8
0
  6
Continuous
 62
     7
370
     0
100
AcDbLine
 10
1.6164268481
 20
4.5489631344
 30
0.0
 11
1.606425617
 21
4.5489631344
 31
0.0
  0
LINE
  5
114
330
1F
100
AcDbEntity
  8
0
  6
Continuous
 62
     7
370
     0
100
AcDbLine
 10
3.5261911997
 20
4.5489631344
 30
0.0
 11
3.5161899686
 21
4.5489631344
 31
0.0
  0
LINE
  5
115
330
1F
100
AcDbEntity
  8
0
  6
Continuous
 62
     7
370
     0
100
AcDbLine
 10
1.606425617
 20
4.5489631344
 30
0.0
 11
1.5662413945
 21
4.5489631344
 31
0.0
  0
LINE
  5
116
330
1F
100
AcDbEntity
  8
0
  6
Continuous
 62
     7
370
     0
100
AcDbLine
 10
3.5663754221
 20
4.5489631344
 30
0.0
 11
3.5261911997
 21
4.5489631344
 31
0.0
  0
ARC
  5
117
330
1F
100
AcDbEntity
  8
0
  6
Continuous
 62
     7
370
     0
100
AcDbCircle
 10
2.5663084083
 20
4.5339631348
 30
0.0
 40
0.9499999999999998
100
AcDbArc
 50
179.0952922028
 51
180.9047077972
  0
ARC
  5
118
330
1F
100
AcDbEntity
  8
0
  6
Continuous
 62
     7
370
     0
100
AcDbCircle
 10
2.5663084083
 20
4.5339631348
 30
0.0
 40
0.9499999999999997
100
AcDbArc
 50
359.0952922028
 51
0.9047077972
  0
DIMENSION
  5
119
330
1F
100
AcDbEntity
  8
0
  6
Continuous
 62
     7
370
     0
100
AcDbDimension
  2
_D
 10
1.7900864574
 20
3.7545534332
 30
0.0
 11
4.4725863558
 21
6.0276639222
 31
0.0
 70
   163
  1
<>
 71
     1
 42
-1.0
  3
SLDDIMSTYLE0
100
AcDbDiametricDimension
 15
3.3425303593
 25
5.3133728363
 35
0.0
 40
0.0
  0
LINE
  5
12A
330
1F
100
AcDbEntity
  8
0
  6
PHANTOM
 62
     7
370
    30
100
AcDbLine
 10
2.5663084083
 20
5.8979631348
 30
0.0
 11
2.5663084083
 21
3.1699631348
 31
0.0
  0
LINE
  5
12B
330
1F
100
AcDbEntity
  8
0
  6
Continuous
 62
     7
370
    30
100
AcDbLine
 10
2.5663084083
 20
5.8979631348
 30
0.0
 11
2.2163084083
 21
5.8979631348
 31
0.0
  0
SOLID
  5
12C
330
1F
100
AcDbEntity
  8
0
  6
Continuous
 62
     7
370
    30
100
AcDbTrace
 10
2.2163084083
 20
5.8979631348
 30
0.0
 11
2.3663084083
 21
5.8729631348
 31
0.0
 12
2.3663084083
 22
5.9229631348
 32
0.0
 13
2.3663084083
 23
5.9229631348
 33
0.0
  0
LINE
  5
12D
330
1F
100
AcDbEntity
  8
0
  6
Continuous
 62
     7
370
    30
100
AcDbLine
 10
2.5663084083
 20
3.1699631348
 30
0.0
 11
2.2163084083
 21
3.1699631348
 31
0.0
  0
SOLID
  5
12E
330
1F
100
AcDbEntity
  8
0
  6
Continuous
 62
     7
370
    30
100
AcDbTrace
 10
2.2163084083
 20
3.1699631348
 30
0.0
 11
2.3663084083
 21
3.1449631348
 31
0.0
 12
2.3663084083
 22
3.1949631348
 32
0.0
 13
2.3663084083
 23
3.1949631348
 33
0.0
  0
MTEXT
  5
12F
330
1F
100
AcDbEntity
  8
0
  6
Continuous
 62
     7
100
AcDbMText
 10
2.0822437025
 20
5.9806742414
 30
0.0
 40
0.1041666667
 41
0.0
 71
     1
 72
     1
  1
A
  7
SLDTEXTSTYLE0
 73
     1
 44
1.0
  0
MTEXT
  5
130
330
1F
100
AcDbEntity
  8
0
  6
Continuous
 62
     7
100
AcDbMText
 10
2.0822437025
 20
3.2526742414
 30
0.0
 40
0.1041666667
 41
0.0
 71
     1
 72
     1
  1
A
  7
SLDTEXTSTYLE0
 73
     1
 44
1.0
  0
LINE
  5
131
330
1F
100
AcDbEntity
  8
0
  6
Continuous
 62
     7
370
     0
100
AcDbLine
 10
6.9751726551
 20
3.5264631402
 30
0.0
 11
6.9578521463
 21
3.5164631557
 31
0.0
  0
LINE
  5
132
330
1F
100
AcDbEntity
  8
0
  6
Continuous
 62
     7
370
     0
100
AcDbLine
 10
6.9578521463
 20
5.5514631139
 30
0.0
 11
6.9751726551
 21
5.5414631294
 31
0.0
  0
LINE
  5
133
330
1F
100
AcDbEntity
  8
0
  6
Continuous
 62
     7
370
     0
100
AcDbLine
 10
6.9751726551
 20
5.5012836735
 30
0.0
 11
6.9651726557
 21
5.483963127
 31
0.0
  0
LINE
  5
134
330
1F
100
AcDbEntity
  8
0
  6
Continuous
 62
     7
370
     0
100
AcDbLine
 10
6.9651726557
 20
3.5839631426
 30
0.0
 11
6.9751726551
 21
3.566642596
 31
0.0
  0
LINE
  5
135
330
1F
100
AcDbEntity
  8
0
  6
Continuous
 62
     7
370
     0
100
AcDbLine
 10
6.9651726557
 20
3.5839631426
 30
0.0
 11
6.9651726557
 21
3.5852955205
 31
0.0
  0
LINE
  5
136
330
1F
100
AcDbEntity
  8
0
  6
Continuous
 62
     7
370
     0
100
AcDbLine
 10
6.9651726557
 20
5.482630749
 30
0.0
 11
6.9651726557
 21
5.483963127
 31
0.0
  0
LINE
  5
137
330
1F
100
AcDbEntity
  8
0
  6
Continuous
 62
     7
370
     0
100
AcDbLine
 10
6.9651726557
 20
3.5839631426
 30
0.0
 11
6.8924931632
 21
3.5839631426
 31
0.0
  0
LINE
  5
138
330
1F
100
AcDbEntity
  8
0
  6
Continuous
 62
     7
370
     0
100
AcDbLine
 10
6.8924931632
 20
3.7375873679
 30
0.0
 11
6.8924931632
 21
3.5839631426
 31
0.0
  0
LINE
  5
139
330
1F
100
AcDbEntity
  8
0
  6
Continuous
 62
     7
370
     0
100
AcDbLine
 10
6.8924931632
 20
5.483963127
 30
0.0
 11
6.8924931632
 21
5.3303389016
 31
0.0
  0
LINE
  5
13A
330
1F
100
AcDbEntity
  8
0
  6
Continuous
 62
     7
370
     0
100
AcDbLine
 10
6.8924931632
 20
5.483963127
 30
0.0
 11
6.9651726557
 21
5.483963127
 31
0.0
  0
LINE
  5
13B
330
1F
100
AcDbEntity
  8
0
  6
Continuous
 62
     7
370
     0
100
AcDbLine
 10
6.8851726561
 20
3.5164631557
 30
0.0
 11
6.9578521463
 21
3.5164631557
 31
0.0
  0
LINE
  5
13C
330
1F
100
AcDbEntity
  8
0
  6
Continuous
 62
     7
370
     0
100
AcDbLine
 10
6.9578521463
 20
5.5514631139
 30
0.0
 11
6.8851726561
 21
5.5514631139
 31
0.0
  0
LINE
  5
13D
330
1F
100
AcDbEntity
  8
0
  6
Continuous
 62
     7
370
     0
100
AcDbLine
 10
6.8924931632
 20
5.483963127
 30
0.0
 11
6.8751726533
 21
5.4939631114
 31
0.0
  0
LINE
  5
13E
330
1F
100
AcDbEntity
  8
0
  6
Continuous
 62
     7
370
     0
100
AcDbLine
 10
6.8751726533
 20
5.5341426406
 30
0.0
 11
6.8751726533
 21
5.4939631114
 31
0.0
  0
LINE
  5
13F
330
1F
100
AcDbEntity
  8
0
  6
Continuous
 62
     7
370
     0
100
AcDbLine
 10
6.8751726533
 20
5.5341426406
 30
0.0
 11
6.8851726561
 21
5.5514631139
 31
0.0
  0
LINE
  5
140
330
1F
100
AcDbEntity
  8
0
  6
Continuous
 62
     7
370
     0
100
AcDbLine
 10
6.9751726551
 20
5.5012836735
 30
0.0
 11
6.9751726551
 21
5.5414631294
 31
0.0
  0
LINE
  5
141
330
1F
100
AcDbEntity
  8
0
  6
Continuous
 62
     7
370
     0
100
AcDbLine
 10
6.8851726561
 20
3.5164631557
 30
0.0
 11
6.8751726533
 21
3.5337836289
 31
0.0
  0
LINE
  5
142
330
1F
100
AcDbEntity
  8
0
  6
Continuous
 62
     7
370
     0
100
AcDbLine
 10
6.8751726533
 20
3.5739631581
 30
0.0
 11
6.8751726533
 21
3.5337836289
 31
0.0
  0
LINE
  5
143
330
1F
100
AcDbEntity
  8
0
  6
Continuous
 62
     7
370
     0
100
AcDbLine
 10
6.8751726533
 20
3.5739631581
 30
0.0
 11
6.8924931632
 21
3.5839631426
 31
0.0
  0
LINE
  5
144
330
1F
100
AcDbEntity
  8
0
  6
Continuous
 62
     7
370
     0
100
AcDbLine
 10
6.9751726551
 20
3.5264631402
 30
0.0
 11
6.9751726551
 21
3.566642596
 31
0.0
  0
LINE
  5
145
330
1F
100
AcDbEntity
  8
0
  6
Continuous
 62
     7
370
     0
100
AcDbLine
 10
6.8751726533
 20
5.288497585
 30
0.0
 11
6.8751726533
 21
5.4939631114
 31
0.0
  0
LINE
  5
146
330
1F
100
AcDbEntity
  8
0
  6
Continuous
 62
     7
370
     0
100
AcDbLine
 10
6.8751726533
 20
3.5739631581
 30
0.0
 11
6.8751726533
 21
3.7794286846
 31
0.0
  0
LINE
  5
147
330
1F
100
AcDbEntity
  8
0
  6
Continuous
 62
     7
370
     0
100
AcDbLine
 10
6.9933045901
 20
3.5339631469
 30
0.0
 11
7.1110430935
 21
3.5339631469
 31
0.0
  0
ARC
  5
148
330
1F
100
AcDbEntity
  8
0
  6
Continuous
 62
     7
370
     0
100
AcDbCircle
 10
8.7571060871
 20
4.5339631348
 30
0.0
 40
2.02755905511811
100
AcDbArc
 50
150.4486180325
 51
209.5513819675
  0
LINE
  5
149
330
1F
100
AcDbEntity
  8
0
  6
Continuous
 62
     7
370
     0
100
AcDbLine
 10
7.1110430935
 20
5.5339631227
 30
0.0
 11
6.9933045901
 21
5.5339631227
 31
0.0
  0
LINE
  5
14A
330
1F
100
AcDbEntity
  8
0
  6
Continuous
 62
     7
370
     0
100
AcDbLine
 10
7.1110430935
 20
3.5339631469
 30
0.0
 11
7.1110430935
 21
5.5339631227
 31
0.0
  0
LINE
  5
14B
330
1F
100
AcDbEntity
  8
0
  6
Continuous
 62
     7
370
     0
100
AcDbLine
 10
6.9264121651
 20
3.4339631554
 30
0.0
 11
7.1310430991
 21
3.4339631554
 31
0.0
  0
LINE
  5
14C
330
1F
100
AcDbEntity
  8
0
  6
Continuous
 62
     7
370
     0
100
AcDbLine
 10
7.1310430991
 20
5.6339631142
 30
0.0
 11
7.0160430943
 21
5.6339631142
 31
0.0
  0
LINE
  5
14D
330
1F
100
AcDbEntity
  8
0
  6
Continuous
 62
     7
370
     0
100
AcDbLine
 10
7.0068123263
 20
5.6339631142
 30
0.0
 11
6.9791200179
 21
5.6339631142
 31
0.0
  0
LINE
  5
14E
330
1F
100
AcDbEntity
  8
0
  6
Continuous
 62
     7
370
     0
100
AcDbLine
 10
6.9698892488
 20
5.6339631142
 30
0.0
 11
6.9452738626
 21
5.6339631142
 31
0.0
  0
LINE
  5
14F
330
1F
100
AcDbEntity
  8
0
  6
Continuous
 62
     7
370
     0
100
AcDbLine
 10
6.9360430947
 20
5.6339631142
 30
0.0
 11
6.9169426312
 21
5.6339631142
 31
0.0
  0
LINE
  5
150
330
1F
100
AcDbEntity
  8
0
  6
Continuous
 62
     7
370
     0
100
AcDbLine
 10
6.8635299478
 20
5.6339631142
 30
0.0
 11
6.8473251458
 21
5.6339631142
 31
0.0
  0
LINE
  5
151
330
1F
100
AcDbEntity
  8
0
  6
Continuous
 62
     7
370
     0
100
AcDbLine
 10
6.837068736
 20
5.6339631142
 30
0.0
 11
6.721043103
 21
5.6339631142
 31
0.0
  0
LINE
  5
152
330
1F
100
AcDbEntity
  8
0
  6
Continuous
 62
     7
370
     0
100
AcDbLine
 10
6.721043103
 20
3.4339631554
 30
0.0
 11
6.8555859312
 21
3.4339631554
 31
0.0
  0
LINE
  5
153
330
1F
100
AcDbEntity
  8
0
  6
Continuous
 62
     7
370
     0
100
AcDbLine
 10
6.9087325323
 20
3.4339631554
 30
0.0
 11
6.9264121651
 21
3.4339631554
 31
0.0
  0
LINE
  5
154
330
1F
100
AcDbEntity
  8
0
  6
Continuous
 62
     7
370
     0
100
AcDbLine
 10
6.8555859312
 20
3.4339631554
 30
0.0
 11
6.8899604791
 21
3.4339631554
 31
0.0
  0
LINE
  5
155
330
1F
100
AcDbEntity
  8
0
  6
Continuous
 62
     7
370
     0
100
AcDbLine
 10
6.9076213984
 20
5.6339631142
 30
0.0
 11
6.872141235
 21
5.6339631142
 31
0.0
  0
LINE
  5
156
330
1F
100
AcDbEntity
  8
0
  6
Continuous
 62
     7
370
     0
100
AcDbLine
 10
6.9169426312
 20
5.6339631142
 30
0.0
 11
6.9076213984
 21
5.6339631142
 31
0.0
  0
LINE
  5
157
330
1F
100
AcDbEntity
  8
0
  6
Continuous
 62
     7
370
     0
100
AcDbLine
 10
6.9452738626
 20
5.6339631142
 30
0.0
 11
6.9360430947
 21
5.6339631142
 31
0.0
  0
LINE
  5
158
330
1F
100
AcDbEntity
  8
0
  6
Continuous
 62
     7
370
     0
100
AcDbLine
 10
6.9791200179
 20
5.6339631142
 30
0.0
 11
6.9698892488
 21
5.6339631142
 31
0.0
  0
LINE
  5
159
330
1F
100
AcDbEntity
  8
0
  6
Continuous
 62
     7
370
     0
100
AcDbLine
 10
7.0160430943
 20
5.6339631142
 30
0.0
 11
7.0068123263
 21
5.6339631142
 31
0.0
  0
LINE
  5
15A
330
1F
100
AcDbEntity
  8
0
  6
Continuous
 62
     7
370
     0
100
AcDbLine
 10
7.1310430991
 20
5.6339631142
 30
0.0
 11
7.1410430928
 21
5.6239631297
 31
0.0
  0
LINE
  5
15B
330
1F
100
AcDbEntity
  8
0
  6
Continuous
 62
     7
370
     0
100
AcDbLine
 10
7.1410430928
 20
5.5414631294
 30
0.0
 11
7.1410430928
 21
5.6239631297
 31
0.0
  0
LINE
  5
15C
330
1F
100
AcDbEntity
  8
0
  6
Continuous
 62
     7
370
     0
100
AcDbLine
 10
7.1510430956
 20
5.5414631294
 30
0.0
 11
7.1410430928
 21
5.5414631294
 31
0.0
  0
LINE
  5
15D
330
1F
100
AcDbEntity
  8
0
  6
Continuous
 62
     7
370
     0
100
AcDbLine
 10
7.1510430956
 20
5.5514631139
 30
0.0
 11
7.1510430956
 21
5.5414631294
 31
0.0
  0
LINE
  5
15E
330
1F
100
AcDbEntity
  8
0
  6
Continuous
 62
     7
370
     0
100
AcDbLine
 10
7.251043087
 20
5.5514631139
 30
0.0
 11
7.1510430956
 21
5.5514631139
 31
0.0
  0
LINE
  5
15F
330
1F
100
AcDbEntity
  8
0
  6
Continuous
 62
     7
370
     0
100
AcDbLine
 10
7.251043087
 20
5.5514631139
 30
0.0
 11
7.2610430898
 21
5.5341426406
 31
0.0
  0
LINE
  5
160
330
1F
100
AcDbEntity
  8
0
  6
Continuous
 62
     7
370
     0
100
AcDbLine
 10
7.2610430898
 20
5.483963127
 30
0.0
 11
7.2610430898
 21
5.5341426406
 31
0.0
  0
LINE
  5
161
330
1F
100
AcDbEntity
  8
0
  6
Continuous
 62
     7
370
     0
100
AcDbLine
 10
7.1110430935
 20
5.483963127
 30
0.0
 11
7.2610430898
 21
5.483963127
 31
0.0
  0
LINE
  5
162
330
1F
100
AcDbEntity
  8
0
  6
Continuous
 62
     7
370
     0
100
AcDbLine
 10
7.1110430935
 20
5.5614630983
 30
0.0
 11
7.1110430935
 21
5.483963127
 31
0.0
  0
LINE
  5
163
330
1F
100
AcDbEntity
  8
0
  6
Continuous
 62
     7
370
     0
100
AcDbLine
 10
7.1010430907
 20
5.5614630983
 30
0.0
 11
7.1110430935
 21
5.5614630983
 31
0.0
  0
LINE
  5
164
330
1F
100
AcDbEntity
  8
0
  6
Continuous
 62
     7
370
     0
100
AcDbLine
 10
7.1010430907
 20
5.5514631139
 30
0.0
 11
7.1010430907
 21
5.5614630983
 31
0.0
  0
LINE
  5
165
330
1F
100
AcDbEntity
  8
0
  6
Continuous
 62
     7
370
     0
100
AcDbLine
 10
6.721043103
 20
5.5514631139
 30
0.0
 11
7.1010430907
 21
5.5514631139
 31
0.0
  0
LINE
  5
166
330
1F
100
AcDbEntity
  8
0
  6
Continuous
 62
     7
370
     0
100
AcDbLine
 10
6.721043103
 20
5.5514631139
 30
0.0
 11
6.7110431002
 21
5.5687836604
 31
0.0
  0
LINE
  5
167
330
1F
100
AcDbEntity
  8
0
  6
Continuous
 62
     7
370
     0
100
AcDbLine
 10
6.7110431002
 20
5.6239631297
 30
0.0
 11
6.7110431002
 21
5.5687836604
 31
0.0
  0
LINE
  5
168
330
1F
100
AcDbEntity
  8
0
  6
Continuous
 62
     7
370
     0
100
AcDbLine
 10
6.7110431002
 20
5.6239631297
 30
0.0
 11
6.721043103
 21
5.6339631142
 31
0.0
  0
LINE
  5
169
330
1F
100
AcDbEntity
  8
0
  6
Continuous
 62
     7
370
     0
100
AcDbLine
 10
6.8473251458
 20
5.6339631142
 30
0.0
 11
6.837068736
 21
5.6339631142
 31
0.0
  0
LINE
  5
16A
330
1F
100
AcDbEntity
  8
0
  6
Continuous
 62
     7
370
     0
100
AcDbLine
 10
6.872141235
 20
5.6339631142
 30
0.0
 11
6.8635299478
 21
5.6339631142
 31
0.0
  0
LINE
  5
16B
330
1F
100
AcDbEntity
  8
0
  6
Continuous
 62
     7
370
     0
100
AcDbLine
 10
7.2610430898
 20
3.5337836289
 30
0.0
 11
7.251043087
 21
3.5164631557
 31
0.0
  0
LINE
  5
16C
330
1F
100
AcDbEntity
  8
0
  6
Continuous
 62
     7
370
     0
100
AcDbLine
 10
7.2610430898
 20
3.5839631426
 30
0.0
 11
7.2610430898
 21
5.483963127
 31
0.0
  0
LINE
  5
16D
330
1F
100
AcDbEntity
  8
0
  6
Continuous
 62
     7
370
     0
100
AcDbLine
 10
7.2610430898
 20
3.5839631426
 30
0.0
 11
7.1110430935
 21
3.5839631426
 31
0.0
  0
LINE
  5
16E
330
1F
100
AcDbEntity
  8
0
  6
Continuous
 62
     7
370
     0
100
AcDbLine
 10
7.1010430907
 20
3.5164631557
 30
0.0
 11
6.721043103
 21
3.5164631557
 31
0.0
  0
LINE
  5
16F
330
1F
100
AcDbEntity
  8
0
  6
Continuous
 62
     7
370
     0
100
AcDbLine
 10
7.1010430907
 20
3.5064631712
 30
0.0
 11
7.1010430907
 21
3.5164631557
 31
0.0
  0
LINE
  5
170
330
1F
100
AcDbEntity
  8
0
  6
Continuous
 62
     7
370
     0
100
AcDbLine
 10
7.1110430935
 20
3.5064631712
 30
0.0
 11
7.1010430907
 21
3.5064631712
 31
0.0
  0
LINE
  5
171
330
1F
100
AcDbEntity
  8
0
  6
Continuous
 62
     7
370
     0
100
AcDbLine
 10
7.1110430935
 20
3.5839631426
 30
0.0
 11
7.1110430935
 21
3.5064631712
 31
0.0
  0
LINE
  5
172
330
1F
100
AcDbEntity
  8
0
  6
Continuous
 62
     7
370
     0
100
AcDbLine
 10
7.2610430898
 20
3.5337836289
 30
0.0
 11
7.2610430898
 21
3.5839631426
 31
0.0
  0
LINE
  5
173
330
1F
100
AcDbEntity
  8
0
  6
Continuous
 62
     7
370
     0
100
AcDbLine
 10
7.1510430956
 20
3.5164631557
 30
0.0
 11
7.251043087
 21
3.5164631557
 31
0.0
  0
LINE
  5
174
330
1F
100
AcDbEntity
  8
0
  6
Continuous
 62
     7
370
     0
100
AcDbLine
 10
7.1510430956
 20
3.5264631402
 30
0.0
 11
7.1510430956
 21
3.5164631557
 31
0.0
  0
LINE
  5
175
330
1F
100
AcDbEntity
  8
0
  6
Continuous
 62
     7
370
     0
100
AcDbLine
 10
7.1410430928
 20
3.5264631402
 30
0.0
 11
7.1510430956
 21
3.5264631402
 31
0.0
  0
LINE
  5
176
330
1F
100
AcDbEntity
  8
0
  6
Continuous
 62
     7
370
     0
100
AcDbLine
 10
7.1410430928
 20
3.4439631399
 30
0.0
 11
7.1410430928
 21
3.5264631402
 31
0.0
  0
LINE
  5
177
330
1F
100
AcDbEntity
  8
0
  6
Continuous
 62
     7
370
     0
100
AcDbLine
 10
7.1410430928
 20
3.4439631399
 30
0.0
 11
7.1310430991
 21
3.4339631554
 31
0.0
  0
LINE
  5
178
330
1F
100
AcDbEntity
  8
0
  6
Continuous
 62
     7
370
     0
100
AcDbLine
 10
6.8899604791
 20
3.4339631554
 30
0.0
 11
6.9087325323
 21
3.4339631554
 31
0.0
  0
LINE
  5
179
330
1F
100
AcDbEntity
  8
0
  6
Continuous
 62
     7
370
     0
100
AcDbLine
 10
6.721043103
 20
3.4339631554
 30
0.0
 11
6.7110431002
 21
3.4439631399
 31
0.0
  0
LINE
  5
17A
330
1F
100
AcDbEntity
  8
0
  6
Continuous
 62
     7
370
     0
100
AcDbLine
 10
6.7110431002
 20
3.4991426091
 30
0.0
 11
6.7110431002
 21
3.4439631399
 31
0.0
  0
LINE
  5
17B
330
1F
100
AcDbEntity
  8
0
  6
Continuous
 62
     7
370
     0
100
AcDbLine
 10
6.7110431002
 20
3.4991426091
 30
0.0
 11
6.721043103
 21
3.5164631557
 31
0.0
  0
LINE
  5
17C
330
1F
100
AcDbEntity
  8
0
  6
Continuous
 62
     7
370
     0
100
AcDbLine
 10
6.721043103
 20
5.5514631139
 30
0.0
 11
6.721043103
 21
3.5164631557
 31
0.0
  0
LINE
  5
17D
330
1F
100
AcDbEntity
  8
0
  6
Continuous
 62
     7
370
     0
100
AcDbLine
 10
7.1010430907
 20
3.5164631557
 30
0.0
 11
7.1010430907
 21
3.5339631469
 31
0.0
  0
LINE
  5
17E
330
1F
100
AcDbEntity
  8
0
  6
Continuous
 62
     7
370
     0
100
AcDbLine
 10
7.1010430907
 20
5.5339631227
 30
0.0
 11
7.1010430907
 21
5.5514631139
 31
0.0
  0
LINE
  5
17F
330
1F
100
AcDbEntity
  8
0
  6
Continuous
 62
     7
370
     0
100
AcDbLine
 10
6.7110431002
 20
3.4991426091
 30
0.0
 11
6.7110431002
 21
5.5687836604
 31
0.0
  0
HATCH
  5
180
330
1F
100
AcDbEntity
  8
0
  6
Continuous
 62
     7
370
     0
100
AcDbHatch
 10
0.0
 20
0.0
 30
0.0
210
0.0
220
0.0
230
1.0
  2
ANSI31
 70
     0
 71
     0
 91
        1
 92
        0
 93
       20
 72
     1
 10
6.721043095004896
 20
3.516463134783532
 11
6.711043095004896
 21
3.499142626707843
 72
     1
 10
6.711043095004896
 20
3.499142626707843
 11
6.711043095004896
 21
3.443963134783532
 72
     1
 10
6.711043095004896
 20
3.443963134783532
 11
6.721043095004897
 21
3.433963134783532
 72
     1
 10
6.721043095004897
 20
3.433963134783532
 11
6.855585934352152
 21
3.433963134783532
 72
     1
 10
6.855585934352152
 20
3.433963134783532
 11
6.889960482589483
 21
3.433963134783532
 72
     1
 10
6.889960482589483
 20
3.433963134783532
 11
6.908732528127949
 21
3.433963134783532
 72
     1
 10
6.908732528127949
 20
3.433963134783532
 11
6.926412163546227
 21
3.433963134783532
 72
     1
 10
6.926412163546227
 20
3.433963134783532
 11
7.131043095004896
 21
3.433963134783531
 72
     1
 10
7.131043095004896
 20
3.433963134783531
 11
7.141043095004896
 21
3.443963134783532
 72
     1
 10
7.141043095004896
 20
3.443963134783532
 11
7.141043095004896
 21
3.526463134783531
 72
     1
 10
7.141043095004896
 20
3.526463134783531
 11
7.151043095004897
 21
3.526463134783531
 72
     1
 10
7.151043095004897
 20
3.526463134783531
 11
7.151043095004897
 21
3.516463134783532
 72
     1
 10
7.151043095004897
 20
3.516463134783532
 11
7.251043095004897
 21
3.516463134783532
 72
     1
 10
7.251043095004897
 20
3.516463134783532
 11
7.261043095004896
 21
3.53378364285922
 72
     1
 10
7.261043095004896
 20
3.53378364285922
 11
7.261043095004896
 21
3.583963134783531
 72
     1
 10
7.261043095004896
 20
3.583963134783531
 11
7.111043095004897
 21
3.583963134783531
 72
     1
 10
7.111043095004897
 20
3.583963134783531
 11
7.111043095004897
 21
3.506463134783532
 72
     1
 10
7.111043095004897
 20
3.506463134783532
 11
7.101043095004897
 21
3.506463134783532
 72
     1
 10
7.101043095004897
 20
3.506463134783532
 11
7.101043095004897
 21
3.516463134783532
 72
     1
 10
7.101043095004897
 20
3.516463134783532
 11
6.721043095004896
 21
3.516463134783532
 97
        0
 75
     0
 76
     1
 52
0.0
 41
1.0
 77
     0
 78
     1
 53
45.0
 43
0.0
 44
0.0
 45
-0.0883883476483184
 46
0.0883883476483184
 79
     0
 98
        1
 10
0.0
 20
0.0
  0
HATCH
  5
181
330
1F
100
AcDbEntity
  8
0
  6
Continuous
 62
     7
370
     0
100
AcDbHatch
 10
0.0
 20
0.0
 30
0.0
210
0.0
220
0.0
230
1.0
  2
ANSI31
 70
     0
 71
     0
 91
        1
 92
        0
 93
       28
 72
     1
 10
6.872141232124569
 20
5.633963134783532
 11
6.863529949352592
 21
5.633963134783532
 72
     1
 10
6.863529949352592
 20
5.633963134783532
 11
6.847325146286948
 21
5.633963134783532
 72
     1
 10
6.847325146286948
 20
5.633963134783532
 11
6.837068736030538
 21
5.633963134783532
 72
     1
 10
6.837068736030538
 20
5.633963134783532
 11
6.721043095004897
 21
5.633963134783532
 72
     1
 10
6.721043095004897
 20
5.633963134783532
 11
6.711043095004896
 21
5.623963134783531
 72
     1
 10
6.711043095004896
 20
5.623963134783531
 11
6.711043095004896
 21
5.56878364285922
 72
     1
 10
6.711043095004896
 20
5.56878364285922
 11
6.721043095004896
 21
5.551463134783531
 72
     1
 10
6.721043095004896
 20
5.551463134783531
 11
7.101043095004897
 21
5.551463134783531
 72
     1
 10
7.101043095004897
 20
5.551463134783531
 11
7.101043095004897
 21
5.561463134783531
 72
     1
 10
7.101043095004897
 20
5.561463134783531
 11
7.111043095004897
 21
5.561463134783531
 72
     1
 10
7.111043095004897
 20
5.561463134783531
 11
7.111043095004897
 21
5.483963134783531
 72
     1
 10
7.111043095004897
 20
5.483963134783531
 11
7.261043095004896
 21
5.483963134783531
 72
     1
 10
7.261043095004896
 20
5.483963134783531
 11
7.261043095004896
 21
5.534142626707843
 72
     1
 10
7.261043095004896
 20
5.534142626707843
 11
7.251043095004897
 21
5.551463134783531
 72
     1
 10
7.251043095004897
 20
5.551463134783531
 11
7.151043095004897
 21
5.551463134783531
 72
     1
 10
7.151043095004897
 20
5.551463134783531
 11
7.151043095004897
 21
5.541463134783531
 72
     1
 10
7.151043095004897
 20
5.541463134783531
 11
7.141043095004896
 21
5.541463134783531
 72
     1
 10
7.141043095004896
 20
5.541463134783531
 11
7.141043095004896
 21
5.623963134783531
 72
     1
 10
7.141043095004896
 20
5.623963134783531
 11
7.131043095004896
 21
5.633963134783532
 72
     1
 10
7.131043095004896
 20
5.633963134783532
 11
7.016043095004897
 21
5.633963134783532
 72
     1
 10
7.016043095004897
 20
5.633963134783532
 11
7.006812325774128
 21
5.633963134783532
 72
     1
 10
7.006812325774128
 20
5.633963134783532
 11
6.97912001808182
 21
5.633963134783532
 72
     1
 10
6.97912001808182
 20
5.633963134783532
 11
6.969889248851051
 21
5.633963134783532
 72
     1
 10
6.969889248851051
 20
5.633963134783532
 11
6.945273864235666
 21
5.633963134783532
 72
     1
 10
6.945273864235666
 20
5.633963134783532
 11
6.936043095004897
 21
5.633963134783532
 72
     1
 10
6.936043095004897
 20
5.633963134783532
 11
6.916942632483677
 21
5.633963134783532
 72
     1
 10
6.916942632483677
 20
5.633963134783532
 11
6.907621393921218
 21
5.633963134783532
 72
     1
 10
6.907621393921218
 20
5.633963134783532
 11
6.872141232124569
 21
5.633963134783532
 97
        0
 75
     0
 76
     1
 52
0.0
 41
1.0
 77
     0
 78
     1
 53
45.0
 43
0.0
 44
0.0
 45
-0.0883883476483184
 46
0.0883883476483184
 79
     0
 98
        1
 10
0.0
 20
0.0
  0
HATCH
  5
182
330
1F
100
AcDbEntity
  8
0
  6
Continuous
 62
     7
370
     0
100
AcDbHatch
 10
0.0
 20
0.0
 30
0.0
210
0.0
220
0.0
230
1.0
  2
ANSI31
 70
     0
 71
     0
 91
        1
 92
        0
 93
        4
 72
     1
 10
7.111043095004897
 20
5.533963134783532
 11
6.993304589798643
 21
5.533963134783532
 72
     2
 10
8.75710608713088
 20
4.533963134783531
 40
2.02755905511811
 50
150.448618032509
 51
209.5513819674918
 73
     1
 72
     1
 10
6.993304589798643
 20
3.533963134783531
 11
7.111043095004897
 21
3.533963134783531
 72
     1
 10
7.111043095004897
 20
3.533963134783531
 11
7.111043095004897
 21
5.533963134783532
 97
        0
 75
     0
 76
     1
 52
0.0
 41
1.0
 77
     0
 78
     1
 53
45.0
 43
0.0
 44
0.0
 45
-0.0883883476483184
 46
0.0883883476483184
 79
     0
 98
        1
 10
0.0
 20
0.0
  0
HATCH
  5
183
330
1F
100
AcDbEntity
  8
0
  6
Continuous
 62
     7
370
     0
100
AcDbHatch
 10
0.0
 20
0.0
 30
0.0
210
0.0
220
0.0
230
1.0
  2
ANSI31
 70
     0
 71
     0
 91
        1
 92
        0
 93
        8
 72
     1
 10
6.975172654971409
 20
3.566642626707843
 11
6.965172654971409
 21
3.583963134783531
 72
     1
 10
6.965172654971409
 20
3.583963134783531
 11
6.892493163047099
 21
3.583963134783531
 72
     1
 10
6.892493163047099
 20
3.583963134783531
 11
6.87517265497141
 21
3.573963134783531
 72
     1
 10
6.87517265497141
 20
3.573963134783531
 11
6.87517265497141
 21
3.533783642859219
 72
     1
 10
6.87517265497141
 20
3.533783642859219
 11
6.885172654971409
 21
3.516463134783532
 72
     1
 10
6.885172654971409
 20
3.516463134783532
 11
6.957852146895719
 21
3.516463134783532
 72
     1
 10
6.957852146895719
 20
3.516463134783532
 11
6.975172654971409
 21
3.526463134783532
 72
     1
 10
6.975172654971409
 20
3.526463134783532
 11
6.975172654971409
 21
3.566642626707843
 97
        0
 75
     0
 76
     1
 52
90.0
 41
0.25
 77
     0
 78
     1
 53
135.0000000000002
 43
0.0
 44
0.0
 45
-0.0220970869120795
 46
-0.0220970869120797
 79
     0
 98
        1
 10
0.0
 20
0.0
  0
HATCH
  5
184
330
1F
100
AcDbEntity
  8
0
  6
Continuous
 62
     7
370
     0
100
AcDbHatch
 10
0.0
 20
0.0
 30
0.0
210
0.0
220
0.0
230
1.0
  2
ANSI31
 70
     0
 71
     0
 91
        1
 92
        0
 93
        8
 72
     1
 10
6.965172654971409
 20
5.483963134783531
 11
6.975172654971409
 21
5.50128364285922
 72
     1
 10
6.975172654971409
 20
5.50128364285922
 11
6.975172654971409
 21
5.541463134783531
 72
     1
 10
6.975172654971409
 20
5.541463134783531
 11
6.957852146895719
 21
5.551463134783531
 72
     1
 10
6.957852146895719
 20
5.551463134783531
 11
6.885172654971409
 21
5.551463134783531
 72
     1
 10
6.885172654971409
 20
5.551463134783531
 11
6.87517265497141
 21
5.534142626707844
 72
     1
 10
6.87517265497141
 20
5.534142626707844
 11
6.87517265497141
 21
5.493963134783532
 72
     1
 10
6.87517265497141
 20
5.493963134783532
 11
6.892493163047099
 21
5.483963134783531
 72
     1
 10
6.892493163047099
 20
5.483963134783531
 11
6.965172654971409
 21
5.483963134783531
 97
        0
 75
     0
 76
     1
 52
90.0
 41
0.25
 77
     0
 78
     1
 53
135.0000000000002
 43
0.0
 44
0.0
 45
-0.0220970869120795
 46
-0.0220970869120797
 79
     0
 98
        1
 10
0.0
 20
0.0
  0
DIMENSION
  5
185
330
1F
100
AcDbEntity
  8
0
  6
Continuous
 62
     7
370
     0
100
AcDbDimension
  2
_D_1
 10
6.711043095
 20
6.2638843946
 30
0.0
 11
6.0811218352
 21
6.2638843946
 31
0.0
 70
   160
  1
<>
 71
     2
 42
-1.0
  3
SLDDIMSTYLE1
100
AcDbAlignedDimension
 13
7.261043095
 23
5.5341426267
 33
0.0
 14
6.711043095
 24
5.6239631348
 34
0.0
100
AcDbRotatedDimension
  0
DIMENSION
  5
19A
330
1F
100
AcDbEntity
  8
0
  6
Continuous
 62
     7
370
     0
100
AcDbDimension
  2
_D_2
 10
7.261043095
 20
5.9035717563
 30
0.0
 11
7.8909643548
 21
5.9035717563
 31
0.0
 70
   160
  1
<>
 71
     2
 42
-1.0
  3
SLDDIMSTYLE1
100
AcDbAlignedDimension
 13
7.141043095
 23
5.6239631348
 33
0.0
 14
7.261043095
 24
5.5341426267
 34
0.0
100
AcDbRotatedDimension
  0
INSERT
  5
1B4
102
{ACAD_REACTORS
330
1B6
102
}
330
1F
100
AcDbEntity
  8
0
  6
Continuous
 62
     7
370
     0
100
AcDbBlockReference
  2
SW_NOTE_5
 10
6.3325616716
 20
3.8047489055
 30
0.0
  0
LEADER
  5
1B6
330
1F
100
AcDbEntity
  8
0
  6
Continuous
 62
     7
370
     0
100
AcDbLeader
  3
SLDDIMSTYLE2
 73
     2
 76
     3
 10
6.7955878077
 20
3.5164631348
 30
0.0
 10
6.5825616716
 20
3.8047489055
 30
0.0
 10
6.3325616716
 20
3.8047489055
 30
0.0
340
1B4
  0
INSERT
  5
1BD
102
{ACAD_REACTORS
330
1BE
102
}
330
1F
100
AcDbEntity
  8
0
  6
Continuous
 62
     7
370
     0
100
AcDbBlockReference
  2
SW_NOTE_6
 10
8.0700876374
 20
2.8216090862
 30
0.0
  0
LEADER
  5
1BE
330
1F
100
AcDbEntity
  8
0
  6
Continuous
 62
     7
370
     0
100
AcDbLeader
  3
SLDDIMSTYLE2
 73
     2
 76
     3
 10
7.1932939123
 20
3.5164631348
 30
0.0
 10
7.8200876374
 20
2.8216090862
 30
0.0
 10
8.0700876374
 20
2.8216090862
 30
0.0
340
1BD
  0
INSERT
  5
1C4
102
{ACAD_REACTORS
330
1C5
102
}
330
1F
100
AcDbEntity
  8
0
  6
Continuous
 62
     7
370
     0
100
AcDbBlockReference
  2
SW_NOTE_7
 10
6.2323536106
 20
4.168025268
 30
0.0
  0
LEADER
  5
1C5
330
1F
100
AcDbEntity
  8
0
  6
Continuous
 62
     7
370
     0
100
AcDbLeader
  3
SLDDIMSTYLE2
 73
     2
 76
     3
 10
6.875172655
 20
3.6776072039
 30
0.0
 10
6.4784166027
 20
4.168025268
 30
0.0
 10
6.2323536106
 20
4.168025268
 30
0.0
340
1C4
  0
INSERT
  5
1CB
102
{ACAD_REACTORS
330
1CC
102
}
330
1F
100
AcDbEntity
  8
0
  6
Continuous
 62
     7
370
     0
100
AcDbBlockReference
  2
SW_NOTE_8
 10
7.8830429818
 20
3.1893340451
 30
0.0
  0
LEADER
  5
1CC
330
1F
100
AcDbEntity
  8
0
  6
Continuous
 62
     7
370
     0
100
AcDbLeader
  3
SLDDIMSTYLE2
 73
     2
 76
     3
 10
7.111043095
 20
3.7180340678
 30
0.0
 10
7.6369799897
 20
3.1893340451
 30
0.0
 10
7.8830429818
 20
3.1893340451
 30
0.0
340
1CB
  0
INSERT
  5
1D2
102
{ACAD_REACTORS
330
1D3
102
}
330
1F
100
AcDbEntity
  8
0
  6
Continuous
 62
     7
370
     0
100
AcDbBlockReference
  2
SW_NOTE_9
 10
6.1300358918
 20
2.9891472041
 30
0.0
  0
LEADER
  5
1D3
330
1F
100
AcDbEntity
  8
0
  6
Continuous
 62
     7
370
     0
100
AcDbLeader
  3
SLDDIMSTYLE2
 73
     2
 76
     3
 10
6.7829393884
 20
3.4339631348
 30
0.0
 10
6.376098884
 20
2.9891472041
 30
0.0
 10
6.1300358918
 20
2.9891472041
 30
0.0
340
1D2
  0
LINE
  5
1D4
330
1F
100
AcDbEntity
  8
0
  6
Continuous
 62
     7
370
     0
100
AcDbLine
 10
8.8740450811
 20
7.473773991
 30
0.0
 11
8.8740450811
 21
7.4656099099
 31
0.0
  0
LINE
  5
1D5
330
1F
100
AcDbEntity
  8
0
  6
Continuous
 62
     7
370
     0
100
AcDbLine
 10
9.6446662046
 20
6.1307103314
 30
0.0
 11
9.6517361232
 21
6.1266276274
 31
0.0
  0
LINE
  5
1D6
330
1F
100
AcDbEntity
  8
0
  6
Continuous
 62
     7
370
     0
100
AcDbLine
 10
9.3918210177
 20
8.144766941
 30
0.0
 11
9.1019072375
 21
7.9774032781
 31
0.0
  0
LINE
  5
1D7
330
1F
100
AcDbEntity
  8
0
  6
Continuous
 62
     7
370
     0
100
AcDbLine
 10
10.2018178433
 20
6.0720957809
 30
0.0
 11
10.4917316236
 21
6.2394594438
 31
0.0
  0
LINE
  5
1D8
330
1F
100
AcDbEntity
  8
0
  6
Continuous
 62
     7
370
     0
100
AcDbLine
 10
10.71959378
 20
6.7430887309
 30
0.0
 11
10.71959378
 21
6.751252812
 31
0.0
  0
LINE
  5
1D9
330
1F
100
AcDbEntity
  8
0
  6
Continuous
 62
     7
370
     0
100
AcDbLine
 10
9.9489726565
 20
8.0861523905
 30
0.0
 11
9.9419027379
 21
8.0902350945
 31
0.0
  0
LWPOLYLINE
  5
1DA
330
1F
100
AcDbEntity
  8
0
  6
Continuous
 62
     7
370
     0
100
AcDbPolyline
 90
       20
 70
   128
 43
0.0
 10
9.2466026474
 20
7.945195403
 10
9.2397171857
 20
7.9406273421
 10
9.2208267731
 20
7.9267701463
 10
9.2028180941
 20
7.9115428828
 10
9.1857205529
 20
7.8949704142
 10
9.1695620659
 20
7.8770797995
 10
9.1543690162
 20
7.8579002501
 10
9.1401662108
 20
7.8374630819
 10
9.1269768394
 20
7.8158016642
 10
9.1148224375
 20
7.7929513651
 10
9.1037228504
 20
7.7689494941
 10
9.0936962013
 20
7.7438352407
 10
9.0847588613
 20
7.7176496109
 10
9.0769254231
 20
7.6904353599
 10
9.070208677
 20
7.6622369224
 10
9.0646195899
 20
7.6331003401
 10
9.0601672875
 20
7.6030731865
 10
9.0568590395
 20
7.5722044891
 10
9.0547002473
 20
7.5405446495
 10
9.053694436
 20
7.5081453611
  0
LINE
  5
1DB
330
1F
100
AcDbEntity
  8
0
  6
Continuous
 62
     7
370
     0
100
AcDbLine
 10
9.053694436
 20
7.5081453611
 30
0.0
 11
9.048516701
 21
7.5192984851
 31
0.0
  0
ARC
  5
1DC
330
1F
100
AcDbEntity
  8
0
  6
Continuous
 62
     7
370
     0
100
AcDbCircle
 10
9.5916522835
 20
7.5514175636
 30
0.0
 40
0.5440844568533437
100
AcDbArc
 50
135.3622347095
 51
183.3843242078
  0
LWPOLYLINE
  5
1DD
330
1F
100
AcDbEntity
  8
0
  6
Continuous
 62
     7
370
     0
100
AcDbPolyline
 90
        3
 70
   128
 43
0.0
 10
9.059079837
 20
7.5050364353
 10
9.0590890968
 20
7.5040069506
 10
9.0591233027
 20
7.5009253215
  0
LINE
  5
1DE
330
1F
100
AcDbEntity
  8
0
  6
Continuous
 62
     7
370
     0
100
AcDbLine
 10
9.048516701
 20
7.4948022607
 30
0.0
 11
9.0591233027
 21
7.5009253215
 31
0.0
  0
LWPOLYLINE
  5
1DF
330
1F
100
AcDbEntity
  8
0
  6
Continuous
 62
     7
370
     0
100
AcDbPolyline
 90
       57
 70
   128
 43
0.0
 10
10.2152803352
 20
6.1827940201
 10
10.1966556736
 20
6.1770360083
 10
10.1732675369
 20
6.1713204864
 10
10.1492342063
 20
6.1670700128
 10
10.1245939357
 20
6.1642913528
 10
10.0993859451
 20
6.1629889294
 10
10.0736503583
 20
6.1631648155
 10
10.0474281386
 20
6.1648187313
 10
10.0207610241
 20
6.1679480441
 10
9.9936914609
 20
6.172547773
 10
9.9662625358
 20
6.1786105967
 10
9.9385179075
 20
6.1861268648
 10
9.9105017372
 20
6.1950846138
 10
9.8822586185
 20
6.2054695855
 10
9.853833506
 20
6.2172652502
 10
9.825271644
 20
6.2304528326
 10
9.7966184946
 20
6.245011342
 10
9.7679196652
 20
6.2609176055
 10
9.7392208358
 20
6.2781463051
 10
9.7105676865
 20
6.2966700178
 10
9.6820058245
 20
6.3164592593
 10
9.653580712
 20
6.337482531
 10
9.6253375933
 20
6.3597063701
 10
9.597321423
 20
6.3830954027
 10
9.5695767947
 20
6.4076124006
 10
9.5421478696
 20
6.4332183397
 10
9.5150783064
 20
6.4598724632
 10
9.4884111919
 20
6.4875323454
 10
9.4621889722
 20
6.5161539601
 10
9.4364533854
 20
6.5456917501
 10
9.4112453948
 20
6.5760986999
 10
9.3866051242
 20
6.6073264108
 10
9.3625717936
 20
6.6393251773
 10
9.3391836569
 20
6.672044067
 10
9.3164779411
 20
6.705431001
 10
9.294490787
 20
6.7394328373
 10
9.2732571917
 20
6.7739954549
 10
9.2528109528
 20
6.8090638404
 10
9.2331846146
 20
6.8445821753
 10
9.2144094164
 20
6.8804939249
 10
9.1965152429
 20
6.9167419283
 10
9.1795305762
 20
6.9532684895
 10
9.1634824509
 20
6.9900154688
 10
9.1483964109
 20
7.0269243761
 10
9.1342964687
 20
7.0639364633
 10
9.1212050673
 20
7.100992818
 10
9.1091430442
 20
7.1380344575
 10
9.0981295987
 20
7.1750024224
 10
9.0881822608
 20
7.2118378707
 10
9.0793168639
 20
7.2484821713
 10
9.071547519
 20
7.2848769973
 10
9.0648865926
 20
7.3209644188
 10
9.0593446869
 20
7.3566869954
 10
9.0549306231
 20
7.3919878673
 10
9.0516514269
 20
7.4268108459
 10
9.0495123179
 20
7.4611005034
 10
9.048516701
 20
7.4948022607
  0
LWPOLYLINE
  5
1E0
330
1F
100
AcDbEntity
  8
0
  6
Continuous
 62
     7
370
     0
100
AcDbPolyline
 90
       24
 70
   128
 43
0.0
 10
9.0821089566
 20
7.4917420075
 10
9.0831112477
 20
7.5232209539
 10
9.0852485227
 20
7.5539704907
 10
9.0885172025
 20
7.5839391228
 10
9.0929118131
 20
7.6130766627
 10
9.098424995
 20
7.6413343148
 10
9.1050475155
 20
7.6686647568
 10
9.112768284
 20
7.6950222194
 10
9.1215743709
 20
7.7203625627
 10
9.1314510289
 20
7.7446433501
 10
9.1423817179
 20
7.7678239192
 10
9.1543481325
 20
7.7898654505
 10
9.1673302332
 20
7.8107310316
 10
9.1813062791
 20
7.8303857198
 10
9.1962528651
 20
7.8487965999
 10
9.2121449606
 20
7.8659328398
 10
9.2289559517
 20
7.8817657422
 10
9.2466576855
 20
7.8962687921
 10
9.2652205176
 20
7.9094177018
 10
9.2846133614
 20
7.9211904512
 10
9.3048037404
 20
7.9315673249
 10
9.3257578424
 20
7.9405309452
 10
9.3474405763
 20
7.9480663009
 10
9.3628735976
 20
7.9524433243
  0
LINE
  5
1E1
330
1F
100
AcDbEntity
  8
0
  6
Continuous
 62
     7
370
     0
100
AcDbLine
 10
9.0821089566
 20
7.4917420075
 30
0.0
 11
9.053694436
 21
7.5081453611
 31
0.0
  0
LWPOLYLINE
  5
1E2
330
1F
100
AcDbEntity
  8
0
  6
Continuous
 62
     7
370
     0
100
AcDbPolyline
 90
       24
 70
   128
 43
0.0
 10
9.3806452212
 20
7.9508586973
 10
9.3704565257
 20
7.9481019777
 10
9.3485119285
 20
7.9409619455
 10
9.3272972983
 20
7.932367038
 10
9.3068491084
 20
7.9223320321
 10
9.2872025143
 20
7.9108741806
 10
9.2683912936
 20
7.8980131822
 10
9.2504477874
 20
7.8837711484
 10
9.2334028451
 20
7.8681725647
 10
9.2172857714
 20
7.8512442491
 10
9.2021242754
 20
7.8330153056
 10
9.1879444237
 20
7.8135170744
 10
9.1747705949
 20
7.7927830777
 10
9.1626254382
 20
7.7708489626
 10
9.1515298342
 20
7.7477524394
 10
9.1415028591
 20
7.7235332167
 10
9.1325617516
 20
7.6982329335
 10
9.1247218838
 20
7.6718950875
 10
9.1179967345
 20
7.6445649598
 10
9.1123978658
 20
7.616289538
 10
9.1079349037
 20
7.5871174346
 10
9.104615521
 20
7.5570988038
 10
9.1024454246
 20
7.5262852552
 10
9.1014283456
 20
7.494729765
  0
LINE
  5
1E3
330
1F
100
AcDbEntity
  8
0
  6
Continuous
 62
     7
370
     0
100
AcDbLine
 10
9.1014283456
 20
7.494729765
 30
0.0
 11
9.0821089566
 21
7.4917420075
 31
0.0
  0
LWPOLYLINE
  5
1E4
330
1F
100
AcDbEntity
  8
0
  6
Continuous
 62
     7
370
     0
100
AcDbPolyline
 90
       62
 70
   128
 43
0.0
 10
9.1014283456
 20
7.4702335406
 10
9.1024454246
 20
7.4375037559
 10
9.104615521
 20
7.4041846674
 10
9.1079349037
 20
7.3703335589
 10
9.1123978658
 20
7.3360086291
 10
9.1179967345
 20
7.3012688911
 10
9.1247218838
 20
7.2661740713
 10
9.1325617516
 20
7.2307845066
 10
9.1415028591
 20
7.1951610405
 10
9.1515298342
 20
7.1593649187
 10
9.1626254382
 20
7.1234576837
 10
9.1747705949
 20
7.0875010692
 10
9.1879444237
 20
7.0515568937
 10
9.2021242754
 20
7.0156869541
 10
9.2172857714
 20
6.9799529199
 10
9.2334028451
 20
6.9444162271
 10
9.2504477874
 20
6.909137972
 10
9.2683912936
 20
6.8741788069
 10
9.2872025143
 20
6.8395988354
 10
9.3068491084
 20
6.8054575091
 10
9.3272972983
 20
6.7718135257
 10
9.3485119285
 20
6.7387247275
 10
9.3704565257
 20
6.7062480026
 10
9.3930933617
 20
6.6744391866
 10
9.4163835179
 20
6.643352967
 10
9.4402869528
 20
6.6130427886
 10
9.4647625702
 20
6.5835607624
 10
9.4897682906
 20
6.5549575753
 10
9.5152611227
 20
6.5272824036
 10
9.541197238
 20
6.5005828277
 10
9.5675320457
 20
6.4749047509
 10
9.5942202696
 20
6.4502923203
 10
9.6212160261
 20
6.4267878509
 10
9.6484729026
 20
6.4044317528
 10
9.6759440376
 20
6.3832624618
 10
9.7035822014
 20
6.3633163731
 10
9.731339877
 20
6.3446277792
 10
9.7591693419
 20
6.3272288104
 10
9.7870227504
 20
6.31114938
 10
9.8148522153
 20
6.2964171325
 10
9.8426098909
 20
6.2830573963
 10
9.8702480547
 20
6.2710931403
 10
9.8977191897
 20
6.260544934
 10
9.9249760662
 20
6.2514309124
 10
9.9519718226
 20
6.2437667448
 10
9.9786600466
 20
6.2375656078
 10
10.0049948543
 20
6.2328381628
 10
10.0309309696
 20
6.2295925375
 10
10.0564238017
 20
6.2278343118
 10
10.081429522
 20
6.2275665087
 10
10.1059051395
 20
6.2287895884
 10
10.1298085744
 20
6.2315014483
 10
10.1530987306
 20
6.235697426
 10
10.1757355665
 20
6.2413703076
 10
10.1976801638
 20
6.2485103398
 10
10.218894794
 20
6.2571052473
 10
10.2393429839
 20
6.2671402532
 10
10.258989578
 20
6.2785981048
 10
10.2778007987
 20
6.2914591031
 10
10.2957443049
 20
6.3057011369
 10
10.3127892472
 20
6.3212997206
 10
10.3182224508
 20
6.3267513241
  0
LINE
  5
1E5
330
1F
100
AcDbEntity
  8
0
  6
Continuous
 62
     7
370
     0
100
AcDbLine
 10
9.1068585664
 20
7.4733683404
 30
0.0
 11
9.1014283456
 21
7.4702335406
 31
0.0
  0
ARC
  5
1E6
330
1F
100
AcDbEntity
  8
0
  6
Continuous
 62
     7
370
     0
100
AcDbCircle
 10
10.0025125383
 20
7.4856164526
 30
0.0
 40
0.8957377147315402
100
AcDbArc
 50
179.2165262291
 51
180.7834737709
  0
LINE
  5
1E7
330
1F
100
AcDbEntity
  8
0
  6
Continuous
 62
     7
370
     0
100
AcDbLine
 10
9.1014283456
 20
7.494729765
 30
0.0
 11
9.1068585664
 21
7.4978645647
 31
0.0
  0
LWPOLYLINE
  5
1E8
330
1F
100
AcDbEntity
  8
0
  6
Continuous
 62
     7
370
     0
100
AcDbPolyline
 90
       58
 70
   128
 43
0.0
 10
9.8244882077
 20
6.3486904347
 10
9.796909433
 20
6.365265337
 10
9.7693771623
 20
6.3831203191
 10
9.7419378213
 20
6.4022252735
 10
9.7146376789
 20
6.422547985
 10
9.6875227693
 20
6.4440541849
 10
9.6606388145
 20
6.4667076087
 10
9.6340311468
 20
6.4904700579
 10
9.6077446328
 20
6.5153014634
 10
9.5818235975
 20
6.541159954
 10
9.5563117497
 20
6.5680019263
 10
9.531252108
 20
6.5957821187
 10
9.5066869287
 20
6.6244536875
 10
9.4826576342
 20
6.6539682861
 10
9.4592047435
 20
6.684276146
 10
9.4363678033
 20
6.7153261614
 10
9.4141853219
 20
6.7470659749
 10
9.392694704
 20
6.779442066
 10
9.3719321876
 20
6.8123998413
 10
9.351932783
 20
6.8458837266
 10
9.3327302138
 20
6.8798372604
 10
9.3143568598
 20
6.9142031894
 10
9.2968437027
 20
6.9489235649
 10
9.2802202736
 20
6.9839398404
 10
9.2645146033
 20
7.0191929707
 10
9.2497531752
 20
7.0546235108
 10
9.2359608804
 20
7.0901717171
 10
9.2231609758
 20
7.125777647
 10
9.211375045
 20
7.161381261
 10
9.2006229616
 20
7.1969225233
 10
9.1909228562
 20
7.2323415034
 10
9.1822910853
 20
7.2675784767
 10
9.1747422041
 20
7.3025740258
 10
9.1682889415
 20
7.3372691403
 10
9.1629421794
 20
7.3716053164
 10
9.1587109336
 20
7.4055246555
 10
9.1556023388
 20
7.4389699619
 10
9.153621637
 20
7.4718848392
 10
9.1527721679
 20
7.5042137856
 10
9.1530553641
 20
7.5359022872
 10
9.1544707479
 20
7.5668969099
 10
9.1570159327
 20
7.5971453898
 10
9.1606866268
 20
7.6265967211
 10
9.1654766405
 20
7.6552012422
 10
9.1713778968
 20
7.6829107194
 10
9.1783804449
 20
7.7096784283
 10
9.1864724768
 20
7.7354592325
 10
9.1956403475
 20
7.7602096596
 10
9.205868598
 20
7.783887975
 10
9.2171399811
 20
7.8064542515
 10
9.2294354907
 20
7.8278704373
 10
9.2427343938
 20
7.8481004199
 10
9.2570142655
 20
7.867110087
 10
9.2722510266
 20
7.884867384
 10
9.2884189845
 20
7.901342368
 10
9.3054908764
 20
7.9165072585
 10
9.3234379152
 20
7.930336484
 10
9.3245261092
 20
7.9311120292
  0
LWPOLYLINE
  5
1E9
330
1F
100
AcDbEntity
  8
0
  6
Continuous
 62
     7
370
     0
100
AcDbPolyline
 90
       19
 70
   128
 43
0.0
 10
10.2730581447
 20
6.2880283195
 10
10.2562817115
 20
6.2809038982
 10
10.2347910936
 20
6.2733403464
 10
10.2126086122
 20
6.2672118807
 10
10.189771672
 20
6.2625288353
 10
10.1663187812
 20
6.2592991067
 10
10.1422894868
 20
6.257528141
 10
10.1177243075
 20
6.2572189244
 10
10.0926646658
 20
6.2583719784
 10
10.067152818
 20
6.2609853587
 10
10.0412317827
 20
6.2650546585
 10
10.0149452687
 20
6.270573016
 10
9.988337601
 20
6.2775311261
 10
9.9614536461
 20
6.2859172557
 10
9.9343387366
 20
6.295717264
 10
9.9070385942
 20
6.306914626
 10
9.8795992532
 20
6.3194904604
 10
9.8520669825
 20
6.3334235614
 10
9.8244882077
 20
6.3486904347
  0
LWPOLYLINE
  5
1EA
330
1F
100
AcDbEntity
  8
0
  6
Continuous
 62
     7
370
     0
100
AcDbPolyline
 90
       59
 70
   128
 43
0.0
 10
9.053694436
 20
7.4836491368
 10
9.0547002473
 20
7.4500885633
 10
9.0568590395
 20
7.4159362354
 10
9.0601672875
 20
7.3812479161
 10
9.0646195899
 20
7.3460802436
 10
9.070208677
 20
7.3104906387
 10
9.0769254231
 20
7.2745372112
 10
9.0847588613
 20
7.238278665
 10
9.0936962013
 20
7.2017742021
 10
9.1037228504
 20
7.165083426
 10
9.1148224375
 20
7.1282662445
 10
9.1269768394
 20
7.0913827717
 10
9.1401662108
 20
7.0544932299
 10
9.1543690162
 20
7.0176578516
 10
9.1695620659
 20
6.9809367805
 10
9.1857205529
 20
6.9443899738
 10
9.2028180941
 20
6.9080771043
 10
9.2208267731
 20
6.8720574626
 10
9.2397171857
 20
6.8363898607
 10
9.2594584882
 20
6.8011325357
 10
9.2800184476
 20
6.7663430549
 10
9.3013634939
 20
6.7320782217
 10
9.3234587757
 20
6.6983939826
 10
9.3462682162
 20
6.6653453367
 10
9.3697545729
 20
6.6329862447
 10
9.3938794978
 20
6.6013695418
 10
9.4186036003
 20
6.5705468509
 10
9.4438865117
 20
6.5405684985
 10
9.4696869505
 20
6.5114834326
 10
9.4959627905
 20
6.4833391423
 10
9.5226711292
 20
6.4561815811
 10
9.5497683579
 20
6.430055091
 10
9.577210233
 20
6.4050023308
 10
9.6049519481
 20
6.3810642058
 10
9.6329482071
 20
6.3582798018
 10
9.6611532987
 20
6.3366863204
 10
9.6895211701
 20
6.316319019
 10
9.7180055031
 20
6.2972111527
 10
9.7465597892
 20
6.2793939203
 10
9.7751374057
 20
6.2628964135
 10
9.8036916918
 20
6.2477455688
 10
9.8321760248
 20
6.2339661243
 10
9.8605438962
 20
6.2215805785
 10
9.8887489877
 20
6.2106091544
 10
9.9167452468
 20
6.2010697658
 10
9.9444869619
 20
6.1929779883
 10
9.9719288369
 20
6.1863470339
 10
9.9990260657
 20
6.1811877297
 10
10.0257344044
 20
6.1775084994
 10
10.0520102444
 20
6.1753153505
 10
10.0778106832
 20
6.1746118639
 10
10.1030935945
 20
6.1753991882
 10
10.1278176971
 20
6.1776760379
 10
10.1519426219
 20
6.1814386954
 10
10.1754289786
 20
6.1866810172
 10
10.1982384192
 20
6.1933944437
 10
10.2203337009
 20
6.2015680134
 10
10.2416787473
 20
6.2111883807
 10
10.2462859801
 20
6.213505447
  0
LINE
  5
1EB
330
1F
100
AcDbEntity
  8
0
  6
Continuous
 62
     7
370
     0
100
AcDbLine
 10
9.048516701
 20
7.4948022607
 30
0.0
 11
9.053694436
 21
7.4836491368
 31
0.0
  0
LINE
  5
1EC
330
1F
100
AcDbEntity
  8
0
  6
Continuous
 62
     7
370
     0
100
AcDbLine
 10
9.053694436
 20
7.4836491368
 30
0.0
 11
9.0821089566
 21
7.4672457832
 31
0.0
  0
LWPOLYLINE
  5
1ED
330
1F
100
AcDbEntity
  8
0
  6
Continuous
 62
     7
370
     0
100
AcDbPolyline
 90
       63
 70
   128
 43
0.0
 10
10.3107074477
 20
6.3105690382
 10
10.3095522342
 20
6.3093988422
 10
10.2927412432
 20
6.2935659398
 10
10.2750395093
 20
6.2790628899
 10
10.2564766772
 20
6.2659139802
 10
10.2370838334
 20
6.2541412308
 10
10.2168934545
 20
6.2437643571
 10
10.1959393525
 20
6.2348007368
 10
10.1742566186
 20
6.2272653811
 10
10.1518815642
 20
6.2211709092
 10
10.12885166
 20
6.2165275273
 10
10.1052054735
 20
6.2133430114
 10
10.080982604
 20
6.2116226946
 10
10.0562236169
 20
6.2113694579
 10
10.0309699751
 20
6.2125837254
 10
10.0052639702
 20
6.2152634634
 10
9.979148651
 20
6.2194041845
 10
9.952667752
 20
6.2249989542
 10
9.92586562
 20
6.2320384031
 10
9.8987871394
 20
6.2405107426
 10
9.8714776579
 20
6.2504017844
 10
9.8439829095
 20
6.2616949641
 10
9.8163489389
 20
6.2743713695
 10
9.7886220238
 20
6.2884097719
 10
9.7608485974
 20
6.3037866616
 10
9.7330751711
 20
6.3204762874
 10
9.7053482559
 20
6.3384506999
 10
9.6777142853
 20
6.3576797977
 10
9.650219537
 20
6.3781313787
 10
9.6229100554
 20
6.3997711933
 10
9.5958315749
 20
6.4225630019
 10
9.5690294428
 20
6.4464686359
 10
9.5425485439
 20
6.4714480614
 10
9.5164332247
 20
6.4974594461
 10
9.4907272197
 20
6.5244592296
 10
9.465473578
 20
6.5524021963
 10
9.4407145908
 20
6.5812415511
 10
9.4164917214
 20
6.6109289976
 10
9.3928455348
 20
6.6414148194
 10
9.3698156306
 20
6.6726479627
 10
9.3474405763
 20
6.7045761226
 10
9.3257578424
 20
6.7371458299
 10
9.3048037404
 20
6.7703025413
 10
9.2846133614
 20
6.8039907304
 10
9.2652205176
 20
6.8381539807
 10
9.2466576855
 20
6.8727350801
 10
9.2289559517
 20
6.9076761169
 10
9.2121449606
 20
6.9429185764
 10
9.1962528651
 20
6.9784034393
 10
9.1813062791
 20
7.0140712802
 10
9.1673302332
 20
7.0498623675
 10
9.1543481325
 20
7.085716763
 10
9.1423817179
 20
7.1215744226
 10
9.1314510289
 20
7.1573752966
 10
9.1215743709
 20
7.1930594305
 10
9.112768284
 20
7.2285670653
 10
9.1050475155
 20
7.2638387376
 10
9.098424995
 20
7.298815379
 10
9.0929118131
 20
7.3334384154
 10
9.0885172025
 20
7.3676498647
 10
9.0852485227
 20
7.4013924341
 10
9.0831112477
 20
7.4346096162
 10
9.0821089566
 20
7.4672457832
  0
LINE
  5
1EE
330
1F
100
AcDbEntity
  8
0
  6
Continuous
 62
     7
370
     0
100
AcDbLine
 10
9.0821089566
 20
7.4672457832
 30
0.0
 11
9.1014283456
 21
7.4702335406
 31
0.0
  0
LINE
  5
1EF
330
1F
100
AcDbEntity
  8
0
  6
Continuous
 62
     7
370
     0
100
AcDbLine
 10
9.0591233027
 20
7.5009253215
 30
0.0
 11
9.1068585664
 21
7.4733683404
 31
0.0
  0
LWPOLYLINE
  5
1F0
330
1F
100
AcDbEntity
  8
0
  6
Continuous
 62
     7
370
     0
100
AcDbPolyline
 90
      125
 70
   128
 43
0.0
 10
8.8740450811
 20
7.473773991
 10
8.8746089616
 20
7.5076433856
 10
8.8762997854
 20
7.5408126304
 10
8.8791151011
 20
7.5732336329
 10
8.8830508268
 20
7.604859386
 10
8.8881012559
 20
7.6356440352
 10
8.8942590658
 20
7.6655429458
 10
8.9015153284
 20
7.6945127672
 10
8.9098595227
 20
7.7225114959
 10
8.9192795504
 20
7.7494985365
 10
8.9297617534
 20
7.7754347603
 10
8.9412909336
 20
7.8002825623
 10
8.9538503746
 20
7.8240059155
 10
8.9674218666
 20
7.8465704234
 10
8.981985732
 20
7.8679433696
 10
8.9975208549
 20
7.8880937653
 10
9.0140047106
 20
7.9069923944
 10
9.0314133991
 20
7.9246118557
 10
9.0497216797
 20
7.9409266026
 10
9.0689030069
 20
7.9559129804
 10
9.0889295697
 20
7.9695492602
 10
9.1097723315
 20
7.9818156707
 10
9.1314010722
 20
7.9926944267
 10
9.1537844324
 20
8.0021697553
 10
9.1768899581
 20
8.0102279179
 10
9.2006841487
 20
8.0168572311
 10
9.2251325049
 20
8.022048083
 10
9.2501995788
 20
8.0257929473
 10
9.2758490256
 20
8.0280863943
 10
9.302043656
 20
8.0289250989
 10
9.3287454904
 20
8.0283078448
 10
9.3559158136
 20
8.0262355271
 10
9.3835152313
 20
8.0227111505
 10
9.411503727
 20
8.0177398249
 10
9.4398407199
 20
8.0113287584
 10
9.4684851242
 20
8.0034872463
 10
9.4973954082
 20
7.994226658
 10
9.5265296548
 20
7.9835604206
 10
9.5558456221
 20
7.9715039991
 10
9.5853008047
 20
7.9580748741
 10
9.6148524955
 20
7.9432925165
 10
9.6444578474
 20
7.9271783595
 10
9.6740739353
 20
7.9097557669
 10
9.7036578188
 20
7.8910499999
 10
9.7331666041
 20
7.87108818
 10
9.7625575063
 20
7.84989925
 10
9.7917879114
 20
7.8275139318
 10
9.8208154381
 20
7.803964682
 10
9.8495979992
 20
7.7792856446
 10
9.8780938628
 20
7.7535126021
 10
9.9062617126
 20
7.7266829227
 10
9.934060708
 20
7.698835507
 10
9.961450543
 20
7.6700107312
 10
9.9883915049
 20
7.6402503882
 10
10.0148445321
 20
7.6095976279
 10
10.0407712701
 20
7.5780968937
 10
10.0661341275
 20
7.5457938587
 10
10.0908963308
 20
7.5127353593
 10
10.1150219771
 20
7.4789693271
 10
10.1384760864
 20
7.4445447196
 10
10.1612246527
 20
7.4095114492
 10
10.1832346925
 20
7.3739203108
 10
10.2044742936
 20
7.3378229082
 10
10.2249126604
 20
7.301271579
 10
10.2445201594
 20
7.2643193194
 10
10.2632683614
 20
7.2270197064
 10
10.2811300835
 20
7.1894268211
 10
10.2980794278
 20
7.1515951694
 10
10.3140918194
 20
7.1135796036
 10
10.3291440418
 20
7.0754352428
 10
10.3432142708
 20
7.0372173925
 10
10.3562821059
 20
6.998981465
 10
10.3683286
 20
6.9607828987
 10
10.3793362867
 20
6.9226770779
 10
10.3892892061
 20
6.8847192524
 10
10.3981729274
 20
6.8469644575
 10
10.4059745699
 20
6.8094674339
 10
10.412682822
 20
6.7722825487
 10
10.4182879575
 20
6.7354637165
 10
10.4227818494
 20
6.6990643211
 10
10.426157982
 20
6.6631371382
 10
10.4284114603
 20
6.6277342586
 10
10.4295390168
 20
6.5929070132
 10
10.4295390168
 20
6.5587058982
 10
10.4284114603
 20
6.5251805019
 10
10.426157982
 20
6.4923794329
 10
10.4227818494
 20
6.4603502496
 10
10.4182879575
 20
6.4291393914
 10
10.412682822
 20
6.3987921109
 10
10.4059745699
 20
6.3693524088
 10
10.3981729274
 20
6.3408629699
 10
10.3892892061
 20
6.3133651012
 10
10.3793362867
 20
6.2868986718
 10
10.3683286
 20
6.2615020557
 10
10.3562821059
 20
6.2372120754
 10
10.3432142708
 20
6.2140639491
 10
10.3291440418
 20
6.1920912394
 10
10.3140918194
 20
6.1713258047
 10
10.2980794278
 20
6.1517977527
 10
10.2811300835
 20
6.1335353974
 10
10.2632683614
 20
6.1165652174
 10
10.2445201594
 20
6.1009118178
 10
10.2249126604
 20
6.0865978945
 10
10.2044742936
 20
6.0736442015
 10
10.1832346925
 20
6.0620695202
 10
10.1612246527
 20
6.0518906329
 10
10.1384760864
 20
6.0431222981
 10
10.1150219771
 20
6.0357772288
 10
10.0908963308
 20
6.0298660749
 10
10.0661341275
 20
6.0253974068
 10
10.0407712701
 20
6.0223777038
 10
10.0148445321
 20
6.0208113441
 10
9.9883915049
 20
6.0207005988
 10
9.961450543
 20
6.0220456284
 10
9.934060708
 20
6.0248444829
 10
9.9062617126
 20
6.0290931041
 10
9.8780938628
 20
6.0347853319
 10
9.8495979992
 20
6.0419129131
 10
9.8208154381
 20
6.0504655135
 10
9.7917879114
 20
6.0604307326
 10
9.7625575063
 20
6.0717941217
 10
9.7331666041
 20
6.0845392051
 10
9.7036578188
 20
6.0986475035
 10
9.6740739353
 20
6.1140985614
 10
9.6517361232
 20
6.1266276274
  0
LWPOLYLINE
  5
1F1
330
1F
100
AcDbEntity
  8
0
  6
Continuous
 62
     7
370
     0
100
AcDbPolyline
 90
      165
 70
   128
 43
0.0
 10
8.8740450811
 20
7.4656099099
 10
8.8746106694
 20
7.4311928404
 10
8.8763066042
 20
7.3961732683
 10
8.8791303966
 20
7.3606025897
 10
8.8830779022
 20
7.3245330094
 10
8.8881433275
 20
7.2880174647
 10
8.8943192382
 20
7.2511095469
 10
8.9015965705
 20
7.2138634237
 10
8.9099646437
 20
7.1763337588
 10
8.9194111767
 20
7.1385756321
 10
8.9299223053
 20
7.100644459
 10
8.941482603
 20
7.0625959087
 10
8.9540751034
 20
7.0244858227
 10
8.9676813253
 20
6.9863701327
 10
8.9822812998
 20
6.9483047788
 10
8.9978535993
 20
6.9103456271
 10
9.0143753693
 20
6.872548388
 10
9.0318223619
 20
6.8349685341
 10
9.0501689712
 20
6.7976612191
 10
9.069388271
 20
6.7606811965
 10
9.0894520543
 20
6.7240827396
 10
9.1103308749
 20
6.6879195617
 10
9.13199409
 20
6.6522447374
 10
9.154409906
 20
6.6171106242
 10
9.1775454247
 20
6.5825687863
 10
9.2013666913
 20
6.5486699187
 10
9.2258387449
 20
6.5154637727
 10
9.2509256694
 20
6.4829990827
 10
9.2765906463
 20
6.4513234953
 10
9.3027960087
 20
6.4204834987
 10
9.3295032966
 20
6.3905243549
 10
9.3566733134
 20
6.361490033
 10
9.3842661833
 20
6.333423145
 10
9.41224141
 20
6.3063648827
 10
9.440557936
 20
6.2803549581
 10
9.4691742028
 20
6.2554315442
 10
9.4980482122
 20
6.2316312195
 10
9.5271375876
 20
6.2089889144
 10
9.5563996363
 20
6.1875378596
 10
9.5857914122
 20
6.1673095373
 10
9.6152697788
 20
6.1483336355
 10
9.6447914726
 20
6.130638004
 10
9.6743131664
 20
6.1142486134
 10
9.703791533
 20
6.0991895176
 10
9.7331833089
 20
6.0854828177
 10
9.7624453576
 20
6.0731486303
 10
9.7915347329
 20
6.0622050575
 10
9.8204087424
 20
6.0526681604
 10
9.8490250092
 20
6.0445519359
 10
9.8773415352
 20
6.0378682956
 10
9.9053167619
 20
6.0326270486
 10
9.9329096318
 20
6.0288358871
 10
9.9600796486
 20
6.0265003754
 10
9.9867869365
 20
6.025623941
 10
10.0129922989
 20
6.0262078701
 10
10.0386572758
 20
6.028251306
 10
10.0637442003
 20
6.0317512494
 10
10.0882162539
 20
6.0367025637
 10
10.1120375205
 20
6.0430979823
 10
10.1351730391
 20
6.050928119
 10
10.1575888552
 20
6.0601814819
 10
10.1792520703
 20
6.0708444904
 10
10.2001308908
 20
6.0829014952
 10
10.2201946742
 20
6.0963348009
 10
10.239413974
 20
6.1111246923
 10
10.2577605833
 20
6.1272494631
 10
10.2752075759
 20
6.1446854482
 10
10.2917293459
 20
6.1634070576
 10
10.3073016454
 20
6.183386815
 10
10.3219016199
 20
6.2045953972
 10
10.3355078418
 20
6.2270016777
 10
10.3481003422
 20
6.2505727722
 10
10.3596606399
 20
6.275274087
 10
10.3701717685
 20
6.3010693693
 10
10.3796183014
 20
6.3279207612
 10
10.3879863747
 20
6.3557888543
 10
10.395263707
 20
6.3846327486
 10
10.4014396177
 20
6.4144101115
 10
10.406505043
 20
6.4450772408
 10
10.4104525486
 20
6.4765891281
 10
10.4132763409
 20
6.5088995254
 10
10.4149722758
 20
6.5419610128
 10
10.4155378641
 20
6.575725068
 10
10.4149722758
 20
6.6101421375
 10
10.4132763409
 20
6.6451617096
 10
10.4104525486
 20
6.6807323882
 10
10.406505043
 20
6.7168019684
 10
10.4014396177
 20
6.7533175132
 10
10.395263707
 20
6.7902254309
 10
10.3879863747
 20
6.8274715542
 10
10.3796183014
 20
6.8650012191
 10
10.3701717685
 20
6.9027593457
 10
10.3596606399
 20
6.9406905188
 10
10.3481003422
 20
6.9787390692
 10
10.3355078418
 20
7.0168491552
 10
10.3219016199
 20
7.0549648452
 10
10.3073016454
 20
7.0930301991
 10
10.2917293459
 20
7.1309893507
 10
10.2752075759
 20
7.1687865898
 10
10.2577605833
 20
7.2063664437
 10
10.239413974
 20
7.2436737588
 10
10.2201946742
 20
7.2806537814
 10
10.2001308908
 20
7.3172522383
 10
10.1792520703
 20
7.3534154161
 10
10.1575888552
 20
7.3890902405
 10
10.1351730391
 20
7.4242243537
 10
10.1120375205
 20
7.4587661915
 10
10.0882162539
 20
7.4926650591
 10
10.0637442003
 20
7.5258712052
 10
10.0386572758
 20
7.5583358951
 10
10.0129922989
 20
7.5900114826
 10
9.9867869365
 20
7.6208514791
 10
9.9600796486
 20
7.650810623
 10
9.9329096318
 20
7.6798449448
 10
9.9053167619
 20
7.7079118329
 10
9.8773415352
 20
7.7349700951
 10
9.8490250092
 20
7.7609800198
 10
9.8204087424
 20
7.7859034337
 10
9.7915347329
 20
7.8097037583
 10
9.7624453576
 20
7.8323460634
 10
9.7331833089
 20
7.8537971183
 10
9.703791533
 20
7.8740254405
 10
9.6743131664
 20
7.8930013423
 10
9.6447914726
 20
7.9106969739
 10
9.6152697788
 20
7.9270863644
 10
9.5857914122
 20
7.9421454603
 10
9.5563996363
 20
7.9558521602
 10
9.5271375876
 20
7.9681863476
 10
9.4980482122
 20
7.9791299204
 10
9.4691742028
 20
7.9886668174
 10
9.440557936
 20
7.996783042
 10
9.41224141
 20
8.0034666823
 10
9.3842661833
 20
8.0087079293
 10
9.3566733134
 20
8.0124990907
 10
9.3295032966
 20
8.0148346025
 10
9.3027960087
 20
8.0157110369
 10
9.2765906463
 20
8.0151271077
 10
9.2509256694
 20
8.0130836719
 10
9.2258387449
 20
8.0095837285
 10
9.2013666913
 20
8.0046324141
 10
9.1775454247
 20
7.9982369955
 10
9.154409906
 20
7.9904068589
 10
9.13199409
 20
7.981153496
 10
9.1103308749
 20
7.9704904874
 10
9.0894520543
 20
7.9584334827
 10
9.069388271
 20
7.945000177
 10
9.0501689712
 20
7.9302102856
 10
9.0318223619
 20
7.9140855147
 10
9.0143753693
 20
7.8966495297
 10
8.9978535993
 20
7.8779279203
 10
8.9822812998
 20
7.8579481629
 10
8.9676813253
 20
7.8367395807
 10
8.9540751034
 20
7.8143333002
 10
8.941482603
 20
7.7907622056
 10
8.9299223053
 20
7.7660608909
 10
8.9194111767
 20
7.7402656085
 10
8.9099646437
 20
7.7134142167
 10
8.9015965705
 20
7.6855461235
 10
8.8943192382
 20
7.6567022293
 10
8.8881433275
 20
7.6269248663
 10
8.8830779022
 20
7.5962577371
 10
8.8791303966
 20
7.5647458498
 10
8.8763066042
 20
7.5324354524
 10
8.8746106694
 20
7.499373965
 10
8.8740450811
 20
7.4656099099
  0
ARC
  5
1F2
330
1F
100
AcDbEntity
  8
0
  6
Continuous
 62
     7
370
     0
100
AcDbCircle
 10
9.4008714977
 20
7.4094844788
 30
0.0
 40
0.6987621414936458
100
AcDbArc
 50
72.5022799718
 51
74.7296667561
  0
LINE
  5
1F3
330
1F
100
AcDbEntity
  8
0
  6
Continuous
 62
     7
370
     0
100
AcDbLine
 10
9.5609254041
 20
8.0470258515
 30
0.0
 11
9.6109668071
 21
8.0759141385
 31
0.0
  0
ARC
  5
1F4
330
1F
100
AcDbEntity
  8
0
  6
Continuous
 62
     7
370
     0
100
AcDbCircle
 10
9.3426737969
 20
7.3543002078
 30
0.0
 40
0.72629372946261
100
AcDbArc
 50
71.8669884465
 51
72.51233501
  0
LINE
  5
1F5
330
1F
100
AcDbEntity
  8
0
  6
Continuous
 62
     7
370
     0
100
AcDbLine
 10
9.625282399
 20
8.0771800272
 30
0.0
 11
9.5687138565
 21
8.0445237027
 31
0.0
  0
ARC
  5
1F6
330
1F
100
AcDbEntity
  8
0
  6
Continuous
 62
     7
370
     0
100
AcDbCircle
 10
9.4056700102
 20
7.4072723799
 30
0.0
 40
0.7049864234602836
100
AcDbArc
 50
71.8495694362
 51
74.7221420844
  0
LINE
  5
1F7
330
1F
100
AcDbEntity
  8
0
  6
Continuous
 62
     7
370
     0
100
AcDbLine
 10
9.584906987
 20
8.0835760669
 30
0.0
 11
9.5914341265
 21
8.0873441043
 31
0.0
  0
ARC
  5
1F8
330
1F
100
AcDbEntity
  8
0
  6
Continuous
 62
     7
370
     0
100
AcDbCircle
 10
9.3196848878
 20
7.2292681969
 30
0.0
 40
0.8812842850539501
100
AcDbArc
 50
64.6754719879
 51
66.1710072782
  0
LINE
  5
1F9
330
1F
100
AcDbEntity
  8
0
  6
Continuous
 62
     7
370
     0
100
AcDbLine
 10
9.7031768479
 20
8.0296286742
 30
0.0
 11
9.6966497084
 21
8.0258606368
 31
0.0
  0
ARC
  5
1FA
330
1F
100
AcDbEntity
  8
0
  6
Continuous
 62
     7
370
     0
100
AcDbCircle
 10
9.3262120273
 20
7.2330362344
 30
0.0
 40
0.8812842850525733
100
AcDbArc
 50
64.6754719879
 51
66.1710072782
  0
LINE
  5
1FB
330
1F
100
AcDbEntity
  8
0
  6
Continuous
 62
     7
370
     0
100
AcDbLine
 10
9.675730993
 20
8.035427711
 30
0.0
 11
9.6822581325
 21
8.0391957484
 31
0.0
  0
SPLINE
  5
1FC
330
1F
100
AcDbEntity
  8
0
  6
Continuous
 62
     7
370
     0
100
AcDbSpline
210
0.0
220
0.0
230
1.0
 70
     8
 71
     3
 72
    12
 73
     8
 74
     0
 42
0.000000001
 43
0.00000001
 40
0.0
 40
0.0
 40
0.0
 40
0.0
 40
0.2500254403219276
 40
0.4999661796302554
 40
0.7498412451501832
 40
0.8749080833013111
 40
1.0
 40
1.0
 40
1.0
 40
1.0
 10
9.74968141096922
 20
8.002958373007832
 30
0.0
 10
9.750910904570427
 20
8.003617807197644
 30
0.0
 10
9.753369475257808
 20
8.004936452181024
 30
0.0
 10
9.757660448450894
 20
8.006500559244357
 30
0.0
 10
9.761544094987352
 20
8.007455907843543
 30
0.0
 10
9.764780142603998
 20
8.007995821820526
 30
0.0
 10
9.766438122271989
 20
8.008153854996523
 30
0.0
 10
9.767267195212654
 20
8.008232879505977
 30
0.0
  0
SPLINE
  5
1FD
330
1F
100
AcDbEntity
  8
0
  6
Continuous
 62
     7
370
     0
100
AcDbSpline
210
0.0
220
0.0
230
1.0
 70
     8
 71
     3
 72
    15
 73
    11
 74
     0
 42
0.000000001
 43
0.00000001
 40
0.0
 40
0.0
 40
0.0
 40
0.0
 40
0.0626631227622256
 40
0.1253010678552609
 40
0.2503942881654804
 40
0.4992765565484983
 40
0.6245124185222928
 40
0.7495575867238966
 40
0.8747501309314256
 40
1.0
 40
1.0
 40
1.0
 40
1.0
 10
9.747967889255404
 20
7.983109516483299
 30
0.0
 10
9.747406912823612
 20
7.98344675947974
 30
0.0
 10
9.746285185357012
 20
7.984121109970395
 30
0.0
 10
9.744349802732565
 20
7.985612974764807
 30
0.0
 10
9.741725952465087
 20
7.988494503373726
 30
0.0
 10
9.740930600533396
 20
7.992265618342273
 30
0.0
 10
9.741979934535134
 20
7.995905678565248
 30
0.0
 10
9.743764175443202
 20
7.99850823444921
 30
0.0
 10
9.746362137547413
 20
8.00089011483398
 30
0.0
 10
9.748574817671937
 20
8.002268848421759
 30
0.0
 10
9.74968141096922
 20
8.002958373007832
 30
0.0
  0
SPLINE
  5
1FE
330
1F
100
AcDbEntity
  8
0
  6
Continuous
 62
     7
370
     0
100
AcDbSpline
210
0.0
220
0.0
230
1.0
 70
     8
 71
     3
 72
    12
 73
     8
 74
     0
 42
0.000000001
 43
0.00000001
 40
0.0
 40
0.0
 40
0.0
 40
0.0
 40
0.2500264305438115
 40
0.4999579935017463
 40
0.6999160723307213
 40
0.8499541454005103
 40
1.0
 40
1.0
 40
1.0
 40
1.0
 10
9.761826650328567
 20
7.979451225753243
 30
0.0
 10
9.76054769763588
 20
7.979572244781132
 30
0.0
 10
9.75799027752382
 20
7.979814236918633
 30
0.0
 10
9.754541525373458
 20
7.980501850950444
 30
0.0
 10
9.751801633242982
 20
7.981351282788231
 30
0.0
 10
9.749662778215432
 20
7.982194673300143
 30
0.0
 10
9.748532862008766
 20
7.982804563483857
 30
0.0
 10
9.747967889255404
 20
7.983109516483299
 30
0.0
  0
SPLINE
  5
1FF
330
1F
100
AcDbEntity
  8
0
  6
Continuous
 62
     7
370
     0
100
AcDbSpline
210
0.0
220
0.0
230
1.0
 70
     8
 71
     3
 72
     8
 73
     4
 74
     0
 42
0.000000001
 43
0.00000001
 40
0.0
 40
0.0
 40
0.0
 40
0.0
 40
1.0
 40
1.0
 40
1.0
 40
1.0
 10
9.744296346209127
 20
7.972673899504519
 30
0.0
 10
9.750139790268983
 20
7.974935052723096
 30
0.0
 10
9.755983227165073
 20
7.977194160193752
 30
0.0
 10
9.761826650328567
 20
7.979451225753243
 30
0.0
  0
ARC
  5
200
330
1F
100
AcDbEntity
  8
0
  6
Continuous
 62
     7
370
     0
100
AcDbCircle
 10
9.2300151386
 20
7.0891109275
 30
0.0
 40
1.02233491870566
100
AcDbArc
 50
59.7982912271
 51
61.1448618192
  0
LINE
  5
201
330
1F
100
AcDbEntity
  8
0
  6
Continuous
 62
     7
370
     0
100
AcDbLine
 10
9.716138279
 20
7.980328756
 30
0.0
 11
9.7233906563
 21
7.9845154643
 31
0.0
  0
ARC
  5
202
330
1F
100
AcDbEntity
  8
0
  6
Continuous
 62
     7
370
     0
100
AcDbCircle
 10
9.2198753106
 20
7.0797929855
 30
0.0
 40
1.028222547845898
100
AcDbArc
 50
59.4202511735
 51
61.1419287871
  0
SPLINE
  5
203
330
1F
100
AcDbEntity
  8
0
  6
Continuous
 62
     7
370
     0
100
AcDbSpline
210
0.0
220
0.0
230
1.0
 70
     8
 71
     3
 72
     8
 73
     4
 74
     0
 42
0.000000001
 43
0.00000001
 40
0.0
 40
0.0
 40
0.0
 40
0.0
 40
1.0
 40
1.0
 40
1.0
 40
1.0
 10
9.777781034989431
 20
7.978307089284173
 30
0.0
 10
9.766177584680703
 20
7.97388374787944
 30
0.0
 10
9.754573996510278
 20
7.969452158316368
 30
0.0
 10
9.742970324274465
 20
7.96501228858321
 30
0.0
  0
SPLINE
  5
204
330
1F
100
AcDbEntity
  8
0
  6
Continuous
 62
     7
370
     0
100
AcDbSpline
210
0.0
220
0.0
230
1.0
 70
     8
 71
     3
 72
     8
 73
     4
 74
     0
 42
0.000000001
 43
0.00000001
 40
0.0
 40
0.0
 40
0.0
 40
0.0
 40
1.0
 40
1.0
 40
1.0
 40
1.0
 10
9.77125467911504
 20
7.983033045417861
 30
0.0
 10
9.773430276434288
 20
7.981470656094809
 30
0.0
 10
9.775605763416518
 20
7.979895316580043
 30
0.0
 10
9.777781034989431
 20
7.978307089284173
 30
0.0
  0
SPLINE
  5
205
330
1F
100
AcDbEntity
  8
0
  6
Continuous
 62
     7
370
     0
100
AcDbSpline
210
0.0
220
0.0
230
1.0
 70
     8
 71
     3
 72
    12
 73
     8
 74
     0
 42
0.000000001
 43
0.00000001
 40
0.0
 40
0.0
 40
0.0
 40
0.0
 40
0.2501600746970212
 40
0.4997212708768939
 40
0.7496198846855774
 40
0.8747847392147517
 40
1.0
 40
1.0
 40
1.0
 40
1.0
 10
9.756500748224763
 20
7.985728804302863
 30
0.0
 10
9.757496868561368
 20
7.985202995664273
 30
0.0
 10
9.759486724541214
 20
7.984152637163091
 30
0.0
 10
9.763200888694442
 20
7.98312618068448
 30
0.0
 10
9.766561071326706
 20
7.982826099237584
 30
0.0
 10
9.769262573594201
 20
7.982830757983194
 30
0.0
 10
9.770590554825509
 20
7.982965607223738
 30
0.0
 10
9.77125467911504
 20
7.983033045417861
 30
0.0
  0
SPLINE
  5
206
330
1F
100
AcDbEntity
  8
0
  6
Continuous
 62
     7
370
     0
100
AcDbSpline
210
0.0
220
0.0
230
1.0
 70
     8
 71
     3
 72
    14
 73
    10
 74
     0
 42
0.000000001
 43
0.00000001
 40
0.0
 40
0.0
 40
0.0
 40
0.0
 40
0.14316291597901
 40
0.2862518345746042
 40
0.4291627725286021
 40
0.5719568474698262
 40
0.785233365293424
 40
0.8925763382905539
 40
1.0
 40
1.0
 40
1.0
 40
1.0
 10
9.757362630945167
 20
7.999204758644983
 30
0.0
 10
9.756491286139076
 20
7.998664499596368
 30
0.0
 10
9.754749046903552
 20
7.997584260745729
 30
0.0
 10
9.75269850469928
 20
7.995706708850539
 30
0.0
 10
9.75142351754239
 20
7.993626100762495
 30
0.0
 10
9.751022256880809
 20
7.991059802452567
 30
0.0
 10
9.752394891276188
 20
7.988748766543197
 30
0.0
 10
9.754527555788735
 20
7.986932345144011
 30
0.0
 10
9.755842852691925
 20
7.986130085054056
 30
0.0
 10
9.756500748224763
 20
7.985728804302863
 30
0.0
  0
SPLINE
  5
207
330
1F
100
AcDbEntity
  8
0
  6
Continuous
 62
     7
370
     0
100
AcDbSpline
210
0.0
220
0.0
230
1.0
 70
     8
 71
     3
 72
    14
 73
    10
 74
     0
 42
0.000000001
 43
0.00000001
 40
0.0
 40
0.0
 40
0.0
 40
0.0
 40
0.1251970014422971
 40
0.2502999019766239
 40
0.3727610839046567
 40
0.5003498491039806
 40
0.749454598445765
 40
0.8747156920712336
 40
1.0
 40
1.0
 40
1.0
 40
1.0
 10
9.781918063975832
 20
8.000362761337794
 30
0.0
 10
9.781061533756057
 20
8.000811302550249
 30
0.0
 10
9.77934911710406
 20
8.0017080478414
 30
0.0
 10
9.776272800978257
 20
8.002632173200395
 30
0.0
 10
9.772883398873724
 20
8.003114504511858
 30
0.0
 10
9.768224377867396
 20
8.003046386837553
 30
0.0
 10
9.763730114929757
 20
8.002094293117569
 30
0.0
 10
9.759896865611864
 20
8.00058133781452
 30
0.0
 10
9.758207428012389
 20
7.999663646711076
 30
0.0
 10
9.757362630945167
 20
7.999204758644983
 30
0.0
  0
SPLINE
  5
208
330
1F
100
AcDbEntity
  8
0
  6
Continuous
 62
     7
370
     0
100
AcDbSpline
210
0.0
220
0.0
230
1.0
 70
     8
 71
     3
 72
    14
 73
    10
 74
     0
 42
0.000000001
 43
0.00000001
 40
0.0
 40
0.0
 40
0.0
 40
0.0
 40
0.1252774937451752
 40
0.2504957049744264
 40
0.4995727217354492
 40
0.6240990078211434
 40
0.7496548526517256
 40
0.8747861893683664
 40
1.0
 40
1.0
 40
1.0
 40
1.0
 10
9.782133206808204
 20
7.988467198834599
 30
0.0
 10
9.782676746501819
 20
7.988917865682902
 30
0.0
 10
9.783763568680834
 20
7.98981898611962
 30
0.0
 10
9.78550792607812
 20
7.991768377345273
 30
0.0
 10
9.78649766369766
 20
7.993944998379384
 30
0.0
 10
9.786227202956717
 20
7.996155789810967
 30
0.0
 10
9.785310116118385
 20
7.997730652124002
 30
0.0
 10
9.783852774670292
 20
7.999160189873759
 30
0.0
 10
9.78256310916348
 20
7.999961816153637
 30
0.0
 10
9.781918063975832
 20
8.000362761337794
 30
0.0
  0
SPLINE
  5
209
330
1F
100
AcDbEntity
  8
0
  6
Continuous
 62
     7
370
     0
100
AcDbSpline
210
0.0
220
0.0
230
1.0
 70
     8
 71
     3
 72
     8
 73
     4
 74
     0
 42
0.000000001
 43
0.00000001
 40
0.0
 40
0.0
 40
0.0
 40
0.0
 40
1.0
 40
1.0
 40
1.0
 40
1.0
 10
9.790109937255131
 20
7.984570834835654
 30
0.0
 10
9.787451217998271
 20
7.985882525154562
 30
0.0
 10
9.784792272825683
 20
7.987181333995175
 30
0.0
 10
9.782133206808204
 20
7.988467198834599
 30
0.0
  0
SPLINE
  5
20A
330
1F
100
AcDbEntity
  8
0
  6
Continuous
 62
     7
370
     0
100
AcDbSpline
210
0.0
220
0.0
230
1.0
 70
     8
 71
     3
 72
    14
 73
    10
 74
     0
 42
0.000000001
 43
0.00000001
 40
0.0
 40
0.0
 40
0.0
 40
0.0
 40
0.1252473964946503
 40
0.2504302969101851
 40
0.4993057413268474
 40
0.6244083469248107
 40
0.7495630757481891
 40
0.8747729446731852
 40
1.0
 40
1.0
 40
1.0
 40
1.0
 10
9.788490530701537
 20
8.00410476691091
 30
0.0
 10
9.789547630074221
 20
8.003448499252242
 30
0.0
 10
9.791661284466839
 20
8.002136301879585
 30
0.0
 10
9.79493832305144
 20
7.999064109733747
 30
0.0
 10
9.79656232865114
 20
7.995452970225495
 30
0.0
 10
9.796193123667747
 20
7.991819151664541
 30
0.0
 10
9.795001383618036
 20
7.989173204820397
 30
0.0
 10
9.792945133647583
 20
7.986716957672762
 30
0.0
 10
9.79105504595546
 20
7.985286241842633
 30
0.0
 10
9.790109937255131
 20
7.984570834835654
 30
0.0
  0
SPLINE
  5
20B
330
1F
100
AcDbEntity
  8
0
  6
Continuous
 62
     7
370
     0
100
AcDbSpline
210
0.0
220
0.0
230
1.0
 70
     8
 71
     3
 72
    13
 73
     9
 74
     0
 42
0.000000001
 43
0.00000001
 40
0.0
 40
0.0
 40
0.0
 40
0.0
 40
0.125164323424166
 40
0.2502678499793793
 40
0.4999977268183783
 40
0.7497087214712019
 40
0.874830757553557
 40
1.0
 40
1.0
 40
1.0
 40
1.0
 10
9.767267195212654
 20
8.008232879505977
 30
0.0
 10
9.768237213540989
 20
8.008301768953695
 30
0.0
 10
9.770176779024435
 20
8.008439514387014
 30
0.0
 10
9.774076750713911
 20
8.008401209916924
 30
0.0
 10
9.77887994049051
 20
8.0078449891978
 30
0.0
 10
9.783238958636948
 20
8.006580436230173
 30
0.0
 10
9.7863774016375
 20
8.005264796831586
 30
0.0
 10
9.787786065786158
 20
8.004491492167693
 30
0.0
 10
9.788490530701537
 20
8.00410476691091
 30
0.0
  0
SPLINE
  5
20C
330
1F
100
AcDbEntity
  8
0
  6
Continuous
 62
     7
370
     0
100
AcDbSpline
210
0.0
220
0.0
230
1.0
 70
     8
 71
     3
 72
    13
 73
     9
 74
     0
 42
0.000000001
 43
0.00000001
 40
0.0
 40
0.0
 40
0.0
 40
0.0
 40
0.1250710524897538
 40
0.2501213755201647
 40
0.5000714595751194
 40
0.7499678126074928
 40
0.8749906036692461
 40
0.9999999999999999
 40
0.9999999999999999
 40
0.9999999999999999
 40
0.9999999999999999
 10
9.84461094803464
 20
7.914834460427984
 30
0.0
 10
9.843414232932322
 20
7.915167666337751
 30
0.0
 10
9.841021001073
 20
7.915834022931247
 30
0.0
 10
9.836133418191386
 20
7.916936450720562
 30
0.0
 10
9.829885574655904
 20
7.917904541265284
 30
0.0
 10
9.823576237764492
 20
7.91828183498885
 30
0.0
 10
9.818560335364936
 20
7.918198115674093
 30
0.0
 10
9.816143446235925
 20
7.917876879830743
 30
0.0
 10
9.814935066410246
 20
7.917716270513697
 30
0.0
  0
LINE
  5
20D
330
1F
100
AcDbEntity
  8
0
  6
Continuous
 62
     7
370
     0
100
AcDbLine
 10
9.8512967333
 20
7.9186940821
 30
0.0
 11
9.844610948
 21
7.9148344604
 31
0.0
  0
SPLINE
  5
20E
330
1F
100
AcDbEntity
  8
0
  6
Continuous
 62
     7
370
     0
100
AcDbSpline
210
0.0
220
0.0
230
1.0
 70
     8
 71
     3
 72
    13
 73
     9
 74
     0
 42
0.000000001
 43
0.00000001
 40
0.0
 40
0.0
 40
0.0
 40
0.0
 40
0.1250131719674693
 40
0.250019243913447
 40
0.4999856528643556
 40
0.7500043584872335
 40
0.8671891874214382
 40
1.0
 40
1.0
 40
1.0
 40
1.0
 10
9.82999164560231
 20
7.923123749031353
 30
0.0
 10
9.830907133082144
 20
7.923055829364743
 30
0.0
 10
9.832738056047445
 20
7.922919993888967
 30
0.0
 10
9.836376936168826
 20
7.92242356388367
 30
0.0
 10
9.840873115626975
 20
7.92158637691442
 30
0.0
 10
9.845237132997234
 20
7.920544483590247
 30
0.0
 10
9.848705965221136
 20
7.919559818055157
 30
0.0
 10
9.850397892622915
 20
7.91899444040659
 30
0.0
 10
9.851296733305475
 20
7.91869408211048
 30
0.0
  0
LINE
  5
20F
330
1F
100
AcDbEntity
  8
0
  6
Continuous
 62
     7
370
     0
100
AcDbLine
 10
9.874072501
 20
7.9485710852
 30
0.0
 11
9.8299916456
 21
7.923123749
 31
0.0
  0
ARC
  5
210
330
1F
100
AcDbEntity
  8
0
  6
Continuous
 62
     7
370
     0
100
AcDbCircle
 10
9.1828904004
 20
6.9657040018
 30
0.0
 40
1.201565811655253
100
AcDbArc
 50
54.883944456
 51
55.3033584563
  0
LINE
  5
211
330
1F
100
AcDbEntity
  8
0
  6
Continuous
 62
     7
370
     0
100
AcDbLine
 10
9.8102907649
 20
7.9209479426
 30
0.0
 11
9.8668593074
 21
7.9536042671
 31
0.0
  0
ARC
  5
212
330
1F
100
AcDbEntity
  8
0
  6
Continuous
 62
     7
370
     0
100
AcDbCircle
 10
9.1278361747
 20
6.9352255646
 30
0.0
 40
1.198913205499976
100
AcDbArc
 50
55.033216568
 51
55.3036124774
  0
ARC
  5
213
330
1F
100
AcDbEntity
  8
0
  6
Continuous
 62
     7
370
     0
100
AcDbCircle
 10
9.0610958595
 20
6.8116167338
 30
0.0
 40
1.391052789451256
100
AcDbArc
 50
49.2627137009
 51
50.6702001199
  0
LINE
  5
214
330
1F
100
AcDbEntity
  8
0
  6
Continuous
 62
     7
370
     0
100
AcDbLine
 10
9.9188438718
 20
7.8367427922
 30
0.0
 11
9.9688852748
 21
7.8656310793
 31
0.0
  0
ARC
  5
215
330
1F
100
AcDbEntity
  8
0
  6
Continuous
 62
     7
370
     0
100
AcDbCircle
 10
8.9886614542
 20
6.7565729777
 30
0.0
 40
1.425484534580258
100
AcDbArc
 50
48.8551120033
 51
49.2667910816
  0
LINE
  5
216
330
1F
100
AcDbEntity
  8
0
  6
Continuous
 62
     7
370
     0
100
AcDbLine
 10
9.9831495246
 20
7.8626877865
 30
0.0
 11
9.9265809821
 21
7.830031462
 31
0.0
  0
ARC
  5
217
330
1F
100
AcDbEntity
  8
0
  6
Continuous
 62
     7
370
     0
100
AcDbCircle
 10
9.062578232
 20
6.8093445438
 30
0.0
 40
1.398922260750683
100
AcDbArc
 50
48.8481051926
 51
50.6671698674
  0
LINE
  5
218
330
1F
100
AcDbEntity
  8
0
  6
Continuous
 62
     7
370
     0
100
AcDbLine
 10
9.9427218394
 20
7.8876109227
 30
0.0
 11
9.9492489789
 21
7.8913789602
 31
0.0
  0
LINE
  5
219
330
1F
100
AcDbEntity
  8
0
  6
Continuous
 62
     7
370
     0
100
AcDbLine
 10
9.4461807746
 20
8.1512066964
 30
0.0
 11
9.3898048734
 21
8.1186615814
 31
0.0
  0
ARC
  5
21A
330
1F
100
AcDbEntity
  8
0
  6
Continuous
 62
     7
370
     0
100
AcDbCircle
 10
9.5227866418
 20
7.749227641
 30
0.0
 40
0.409213416082676
100
AcDbArc
 50
100.7895833263
 51
101.2478126769
  0
LINE
  5
21B
330
1F
100
AcDbEntity
  8
0
  6
Continuous
 62
     7
370
     0
100
AcDbLine
 10
9.3865924855
 20
8.1180360684
 30
0.0
 11
9.4429683867
 21
8.1505811835
 31
0.0
  0
SPLINE
  5
21C
330
1F
100
AcDbEntity
  8
0
  6
Continuous
 62
     7
370
     0
100
AcDbSpline
210
0.0
220
0.0
230
1.0
 70
     8
 71
     3
 72
    12
 73
     8
 74
     0
 42
0.000000001
 43
0.00000001
 40
0.0
 40
0.0
 40
0.0
 40
0.0
 40
0.2500197623417203
 40
0.5000174565970742
 40
0.7000073827253881
 40
0.8500145534344841
 40
1.0
 40
1.0
 40
1.0
 40
1.0
 10
9.384369391198264
 20
8.120320593622932
 30
0.0
 10
9.38472900832654
 20
8.120220009877261
 30
0.0
 10
9.385448210841354
 20
8.12001885126398
 30
0.0
 10
9.386167571354546
 20
8.11957875927132
 30
0.0
 10
9.386566378010023
 20
8.119091477374155
 30
0.0
 10
9.38672144701139
 20
8.118599176700352
 30
0.0
 10
9.386635470606823
 20
8.118223762115987
 30
0.0
 10
9.386592485517557
 20
8.11803606841674
 30
0.0
  0
LINE
  5
21D
330
1F
100
AcDbEntity
  8
0
  6
Continuous
 62
     7
370
     0
100
AcDbLine
 10
9.3814231129
 20
8.1186197434
 30
0.0
 11
9.3843693912
 21
8.1203205936
 31
0.0
  0
SPLINE
  5
21E
330
1F
100
AcDbEntity
  8
0
  6
Continuous
 62
     7
370
     0
100
AcDbSpline
210
0.0
220
0.0
230
1.0
 70
     8
 71
     3
 72
    11
 73
     7
 74
     0
 42
0.000000001
 43
0.00000001
 40
0.0
 40
0.0
 40
0.0
 40
0.0
 40
0.1250486697797344
 40
0.2500820807313205
 40
0.5000562481132635
 40
1.0
 40
1.0
 40
1.0
 40
1.0
 10
9.376329900674033
 20
8.111740048739126
 30
0.0
 10
9.376780052297974
 20
8.112121299850171
 30
0.0
 10
9.377680300616955
 20
8.112883755550817
 30
0.0
 10
9.379087911845103
 20
8.114265855503403
 30
0.0
 10
9.380827153666294
 20
8.116407501029133
 30
0.0
 10
9.381184729669553
 20
8.117734848067965
 30
0.0
 10
9.381423112943322
 20
8.118619743389969
 30
0.0
  0
ARC
  5
21F
330
1F
100
AcDbEntity
  8
0
  6
Continuous
 62
     7
370
     0
100
AcDbCircle
 10
9.4551827836
 20
7.710122159
 30
0.0
 40
0.4092856050795892
100
AcDbArc
 50
100.8984428834
 51
101.1080479608
  0
SPLINE
  5
220
330
1F
100
AcDbEntity
  8
0
  6
Continuous
 62
     7
370
     0
100
AcDbSpline
210
0.0
220
0.0
230
1.0
 70
     8
 71
     3
 72
    11
 73
     7
 74
     0
 42
0.000000001
 43
0.00000001
 40
0.0
 40
0.0
 40
0.0
 40
0.0
 40
0.4999651355568726
 40
0.6999694370052234
 40
0.8499895917083078
 40
1.0
 40
1.0
 40
1.0
 40
1.0
 10
9.404251484881197
 20
8.123051855585945
 30
0.0
 10
9.399826838983111
 20
8.121349117819221
 30
0.0
 10
9.393632173239508
 20
8.118965222800991
 30
0.0
 10
9.386085529070385
 20
8.115773121536034
 30
0.0
 10
9.38167062443567
 20
8.113834601845342
 30
0.0
 10
9.37908995570921
 20
8.11262873958714
 30
0.0
 10
9.377799663262142
 20
8.112025828044095
 30
0.0
  0
LINE
  5
221
330
1F
100
AcDbEntity
  8
0
  6
Continuous
 62
     7
370
     0
100
AcDbLine
 10
9.4071524358
 20
8.1247265389
 30
0.0
 11
9.4042514849
 21
8.1230518556
 31
0.0
  0
SPLINE
  5
222
330
1F
100
AcDbEntity
  8
0
  6
Continuous
 62
     7
370
     0
100
AcDbSpline
210
0.0
220
0.0
230
1.0
 70
     8
 71
     3
 72
    11
 73
     7
 74
     0
 42
0.000000001
 43
0.00000001
 40
0.0
 40
0.0
 40
0.0
 40
0.0
 40
0.3023087415334345
 40
0.4999876043954804
 40
0.702037721560317
 40
1.0
 40
1.0
 40
1.0
 40
1.0
 10
9.38980487341007
 20
8.118661581383531
 30
0.0
 10
9.391601342518676
 20
8.119338232369234
 30
0.0
 10
9.394572517885377
 20
8.120457343591877
 30
0.0
 10
9.398714435918201
 20
8.121961729240756
 30
0.0
 10
9.402675707583706
 20
8.123286712756148
 30
0.0
 10
9.40548083368845
 20
8.124188910456128
 30
0.0
 10
9.407152435778373
 20
8.124726538892249
 30
0.0
  0
SPLINE
  5
223
330
1F
100
AcDbEntity
  8
0
  6
Continuous
 62
     7
370
     0
100
AcDbSpline
210
0.0
220
0.0
230
1.0
 70
     8
 71
     3
 72
    16
 73
    12
 74
     0
 42
0.000000001
 43
0.00000001
 40
0.0
 40
0.0
 40
0.0
 40
0.0
 40
0.0625970617097932
 40
0.1251497037903435
 40
0.2500363750335534
 40
0.3752748441851698
 40
0.4995205038009086
 40
0.6423186562677718
 40
0.7853466580360686
 40
0.8840246588215817
 40
1.0
 40
1.0
 40
1.0
 40
1.0
 10
9.524344670913829
 20
8.126593893382038
 30
0.0
 10
9.524738709002667
 20
8.126565197506439
 30
0.0
 10
9.525526505566168
 20
8.126507826118182
 30
0.0
 10
9.527357320657034
 20
8.126554534821482
 30
0.0
 10
9.529929731255269
 20
8.126831354437504
 30
0.0
 10
9.533294919770261
 20
8.127520069382399
 30
0.0
 10
9.536842351764887
 20
8.128615537128546
 30
0.0
 10
9.540242654287638
 20
8.13002310703932
 30
0.0
 10
9.54309716716268
 20
8.131438554759505
 30
0.0
 10
9.545617684645295
 20
8.132779799582869
 30
0.0
 10
9.547045817809112
 20
8.133596590072903
 30
0.0
 10
9.547817425785984
 20
8.134037894899032
 30
0.0
  0
SPLINE
  5
224
330
1F
100
AcDbEntity
  8
0
  6
Continuous
 62
     7
370
     0
100
AcDbSpline
210
0.0
220
0.0
230
1.0
 70
     8
 71
     3
 72
    14
 73
    10
 74
     0
 42
0.000000001
 43
0.00000001
 40
0.0
 40
0.0
 40
0.0
 40
0.0
 40
0.196242959692371
 40
0.3614928809079735
 40
0.5004684503034325
 40
0.6266180396352605
 40
0.7498473153959018
 40
0.8499254015606749
 40
1.0
 40
1.0
 40
1.0
 40
1.0
 10
9.527106998960996
 20
8.13244580389486
 30
0.0
 10
9.526270220970213
 20
8.131945501587314
 30
0.0
 10
9.524728818990534
 20
8.131023910704444
 30
0.0
 10
9.522949388837404
 20
8.129739628344057
 30
0.0
 10
9.521832933543063
 20
8.12866391979603
 30
0.0
 10
9.521453982949103
 20
8.12779223015246
 30
0.0
 10
9.521842448368643
 20
8.1272077867884
 30
0.0
 10
9.522803977852035
 20
8.12679404589287
 30
0.0
 10
9.523766951946724
 20
8.126668945256217
 30
0.0
 10
9.524344670913829
 20
8.126593893382038
 30
0.0
  0
LINE
  5
225
330
1F
100
AcDbEntity
  8
0
  6
Continuous
 62
     7
370
     0
100
AcDbLine
 10
9.5534761893
 20
8.1476684135
 30
0.0
 11
9.527106999
 21
8.1324458039
 31
0.0
  0
ARC
  5
226
330
1F
100
AcDbEntity
  8
0
  6
Continuous
 62
     7
370
     0
100
AcDbCircle
 10
9.5110456219
 20
7.6256722351
 30
0.0
 40
0.5237178279392732
100
AcDbArc
 50
85.3529175915
 51
86.0825049025
  0
LINE
  5
227
330
1F
100
AcDbEntity
  8
0
  6
Continuous
 62
     7
370
     0
100
AcDbLine
 10
9.523244428
 20
8.1345530339
 30
0.0
 11
9.5468259859
 21
8.1481663775
 31
0.0
  0
SPLINE
  5
228
330
1F
100
AcDbEntity
  8
0
  6
Continuous
 62
     7
370
     0
100
AcDbSpline
210
0.0
220
0.0
230
1.0
 70
     8
 71
     3
 72
    13
 73
     9
 74
     0
 42
0.000000001
 43
0.00000001
 40
0.0
 40
0.0
 40
0.0
 40
0.0
 40
0.1431483331898691
 40
0.2861300558850349
 40
0.4997986267800805
 40
0.7490771388913491
 40
0.8745090927370428
 40
1.0
 40
1.0
 40
1.0
 40
1.0
 10
9.502478662725116
 20
8.12817910829782
 30
0.0
 10
9.50328474057856
 20
8.128167350157224
 30
0.0
 10
9.504895958090586
 20
8.128143847561342
 30
0.0
 10
9.508476538552507
 20
8.128632991359554
 30
0.0
 10
9.51335317690608
 20
8.129834530458556
 30
0.0
 10
9.51777912393335
 20
8.13166953716897
 30
0.0
 10
9.521020406580838
 20
8.133296912818553
 30
0.0
 10
9.522502971425668
 20
8.134134261303375
 30
0.0
 10
9.523244428009704
 20
8.134553033911784
 30
0.0
  0
SPLINE
  5
229
330
1F
100
AcDbEntity
  8
0
  6
Continuous
 62
     7
370
     0
100
AcDbSpline
210
0.0
220
0.0
230
1.0
 70
     8
 71
     3
 72
    14
 73
    10
 74
     0
 42
0.000000001
 43
0.00000001
 40
0.0
 40
0.0
 40
0.0
 40
0.0
 40
0.2504938292205819
 40
0.3757028501511458
 40
0.5005307050945953
 40
0.6429117438464539
 40
0.7855348750382818
 40
0.8927018362619339
 40
1.0
 40
1.0
 40
1.0
 40
1.0
 10
9.506070309828907
 20
8.134222577581157
 30
0.0
 10
9.504915461770475
 20
8.133545453227487
 30
0.0
 10
9.503183364383506
 20
8.132529869129577
 30
0.0
 10
9.501162471205664
 20
8.131177608386372
 30
0.0
 10
9.500002856931344
 20
8.130147256014519
 30
0.0
 10
9.499685411612152
 20
8.129244179644417
 30
0.0
 10
9.500178790039906
 20
8.128629486586128
 30
0.0
 10
9.501167174975345
 20
8.128282918175062
 30
0.0
 10
9.502041321884015
 20
8.128213725700107
 30
0.0
 10
9.502478662725116
 20
8.12817910829782
 30
0.0
  0
LINE
  5
22A
330
1F
100
AcDbEntity
  8
0
  6
Continuous
 62
     7
370
     0
100
AcDbLine
 10
9.5316349396
 20
8.1489807242
 30
0.0
 11
9.5060703098
 21
8.1342225776
 31
0.0
  0
ARC
  5
22B
330
1F
100
AcDbEntity
  8
0
  6
Continuous
 62
     7
370
     0
100
AcDbCircle
 10
9.5123845456
 20
7.6505347348
 30
0.0
 40
0.4988175839321721
100
AcDbArc
 50
87.7882890774
 51
88.541958813
  0
LINE
  5
22C
330
1F
100
AcDbEntity
  8
0
  6
Continuous
 62
     7
370
     0
100
AcDbLine
 10
9.4968379517
 20
8.1328888197
 30
0.0
 11
9.5250768956
 21
8.149190815
 31
0.0
  0
SPLINE
  5
22D
330
1F
100
AcDbEntity
  8
0
  6
Continuous
 62
     7
370
     0
100
AcDbSpline
210
0.0
220
0.0
230
1.0
 70
     8
 71
     3
 72
    13
 73
     9
 74
     0
 42
0.000000001
 43
0.00000001
 40
0.0
 40
0.0
 40
0.0
 40
0.0
 40
0.1255997205531043
 40
0.2510728045682515
 40
0.4995957155071243
 40
0.7487890782142442
 40
0.8492801662769672
 40
1.0
 40
1.0
 40
1.0
 40
1.0
 10
9.494364245282346
 20
8.124489938446414
 30
0.0
 10
9.493588486310914
 20
8.124547335195382
 30
0.0
 10
9.492037750530857
 20
8.124662070822767
 30
0.0
 10
9.489719600951311
 20
8.125262514946893
 30
0.0
 10
9.488677193445792
 20
8.126828137682626
 30
0.0
 10
9.49114647328087
 20
8.129212892793891
 30
0.0
 10
9.494062179400002
 20
8.131240168915099
 30
0.0
 10
9.49579706608747
 20
8.132270592855548
 30
0.0
 10
9.496837951695486
 20
8.132888819658207
 30
0.0
  0
SPLINE
  5
22E
330
1F
100
AcDbEntity
  8
0
  6
Continuous
 62
     7
370
     0
100
AcDbSpline
210
0.0
220
0.0
230
1.0
 70
     8
 71
     3
 72
    13
 73
     9
 74
     0
 42
0.000000001
 43
0.00000001
 40
0.0
 40
0.0
 40
0.0
 40
0.0
 40
0.1252111800123901
 40
0.2503709188547502
 40
0.5001800844950581
 40
0.7497098314791408
 40
0.8748093757729488
 40
1.0
 40
1.0
 40
1.0
 40
1.0
 10
9.513471164802134
 20
8.128240161864438
 30
0.0
 10
9.512611457244793
 20
8.12795293832646
 30
0.0
 10
9.510892395328307
 20
8.127378609252071
 30
0.0
 10
9.507416071293228
 20
8.126339133564969
 30
0.0
 10
9.503060547995924
 20
8.125252096431934
 30
0.0
 10
9.499000721336264
 20
8.124620959500534
 30
0.0
 10
9.496193829278393
 20
8.124449278407686
 30
0.0
 10
9.494974254547706
 20
8.124476381812551
 30
0.0
 10
9.494364245282346
 20
8.124489938446414
 30
0.0
  0
SPLINE
  5
22F
330
1F
100
AcDbEntity
  8
0
  6
Continuous
 62
     7
370
     0
100
AcDbSpline
210
0.0
220
0.0
230
1.0
 70
     8
 71
     3
 72
    13
 73
     9
 74
     0
 42
0.000000001
 43
0.00000001
 40
0.0
 40
0.0
 40
0.0
 40
0.0
 40
0.1253429328899748
 40
0.25058980656046
 40
0.500056515417789
 40
0.7494697823308872
 40
0.8746743889016472
 40
1.0
 40
1.0
 40
1.0
 40
1.0
 10
9.515895531597613
 20
8.12300198347672
 30
0.0
 10
9.515356741138563
 20
8.12306143857352
 30
0.0
 10
9.514279573133978
 20
8.123180303202442
 30
0.0
 10
9.512515886670409
 20
8.123609939986192
 30
0.0
 10
9.511130300834854
 20
8.124515057298769
 30
0.0
 10
9.511329240420599
 20
8.125925447891
 30
0.0
 10
9.512319001085356
 20
8.1272149503652
 30
0.0
 10
9.51308698658581
 20
8.127898314677797
 30
0.0
 10
9.513471164802134
 20
8.128240161864438
 30
0.0
  0
SPLINE
  5
230
330
1F
100
AcDbEntity
  8
0
  6
Continuous
 62
     7
370
     0
100
AcDbSpline
210
0.0
220
0.0
230
1.0
 70
     8
 71
     3
 72
    13
 73
     9
 74
     0
 42
0.000000001
 43
0.00000001
 40
0.0
 40
0.0
 40
0.0
 40
0.0
 40
0.125197155896823
 40
0.2503378710232831
 40
0.5001340654709815
 40
0.7497012951317843
 40
0.8748025018892623
 40
1.0
 40
1.0
 40
1.0
 40
1.0
 10
9.533981249827189
 20
8.126050440535767
 30
0.0
 10
9.533172500466152
 20
8.125784406926696
 30
0.0
 10
9.531555366340514
 20
8.12525245964053
 30
0.0
 10
9.528258215475553
 20
8.124340842332051
 30
0.0
 10
9.524141595319582
 20
8.123431000020108
 30
0.0
 10
9.520293456637132
 20
8.122949845188515
 30
0.0
 10
9.517634378384802
 20
8.12288956394027
 30
0.0
 10
9.516475295828586
 20
8.12296450068837
 30
0.0
 10
9.515895531597613
 20
8.12300198347672
 30
0.0
  0
LINE
  5
231
330
1F
100
AcDbEntity
  8
0
  6
Continuous
 62
     7
370
     0
100
AcDbLine
 10
9.5275334332
 20
8.1223281952
 30
0.0
 11
9.5339812498
 21
8.1260504405
 31
0.0
  0
ARC
  5
232
330
1F
100
AcDbEntity
  8
0
  6
Continuous
 62
     7
370
     0
100
AcDbCircle
 10
9.4671206227
 20
7.5748885082
 30
0.0
 40
0.5507630330316998
100
AcDbArc
 50
82.9970916264
 51
83.702594717
  0
LINE
  5
233
330
1F
100
AcDbEntity
  8
0
  6
Continuous
 62
     7
370
     0
100
AcDbLine
 10
9.5756080508
 20
8.1454070664
 30
0.0
 11
9.5342695005
 21
8.1215428293
 31
0.0
  0
ARC
  5
234
330
1F
100
AcDbEntity
  8
0
  6
Continuous
 62
     7
370
     0
100
AcDbCircle
 10
9.5084591729
 20
7.5987527453
 30
0.0
 40
0.5507630330453277
100
AcDbArc
 50
82.9970916264
 51
83.702594717
  0
LINE
  5
235
330
1F
100
AcDbEntity
  8
0
  6
Continuous
 62
     7
370
     0
100
AcDbLine
 10
9.5478174258
 20
8.1340378949
 30
0.0
 11
9.5688719835
 21
8.1461924323
 31
0.0
  0
SPLINE
  5
236
330
1F
100
AcDbEntity
  8
0
  6
Continuous
 62
     7
370
     0
100
AcDbSpline
210
0.0
220
0.0
230
1.0
 70
     8
 71
     3
 72
    16
 73
    12
 74
     0
 42
0.000000001
 43
0.00000001
 40
0.0
 40
0.0
 40
0.0
 40
0.0
 40
0.1252094946983879
 40
0.2504046739964392
 40
0.3833289736491458
 40
0.5006376999521309
 40
0.6312680262803781
 40
0.7501982147431587
 40
0.874850603123593
 40
0.937418374427696
 40
1.0
 40
1.0
 40
1.0
 40
1.0
 10
9.596990152770594
 20
8.121066774204463
 30
0.0
 10
9.598611789710539
 20
8.121985992401008
 30
0.0
 10
9.601854878186098
 20
8.123824323698427
 30
0.0
 10
9.607164120182574
 20
8.126553468437823
 30
0.0
 10
9.612732625502318
 20
8.12910442913725
 30
0.0
 10
9.61885091889701
 20
8.131458104945485
 30
0.0
 10
9.625218160054093
 20
8.133333909372364
 30
0.0
 10
9.631944950664577
 20
8.134504437213085
 30
0.0
 10
9.636991974140166
 20
8.13457153703446
 30
0.0
 10
9.640590073476773
 20
8.134202068527086
 30
0.0
 10
9.64216745592817
 20
8.133859229131833
 30
0.0
 10
9.642956234463437
 20
8.13368779045773
 30
0.0
  0
SPLINE
  5
237
330
1F
100
AcDbEntity
  8
0
  6
Continuous
 62
     7
370
     0
100
AcDbSpline
210
0.0
220
0.0
230
1.0
 70
     8
 71
     3
 72
    15
 73
    11
 74
     0
 42
0.000000001
 43
0.00000001
 40
0.0
 40
0.0
 40
0.0
 40
0.0
 40
0.0626310590473299
 40
0.1252239280246655
 40
0.2500458433027662
 40
0.3746204791019457
 40
0.4996116293767696
 40
0.7494432638969595
 40
0.87471013583549
 40
1.0
 40
1.0
 40
1.0
 40
1.0
 10
9.585662454244218
 20
8.100612795158247
 30
0.0
 10
9.584918242144301
 20
8.10081027361049
 30
0.0
 10
9.583430271737084
 20
8.101205110100027
 30
0.0
 10
9.581015474532466
 20
8.102258100174193
 30
0.0
 10
9.578975136271335
 20
8.10396735875952
 30
0.0
 10
9.578817241878053
 20
8.106638123706793
 30
0.0
 10
9.581723444384174
 20
8.110554877322606
 30
0.0
 10
9.586367407015068
 20
8.114494034131555
 30
0.0
 10
9.592242541198418
 20
8.118282973731972
 30
0.0
 10
9.595407518768956
 20
8.12013878394777
 30
0.0
 10
9.596990152770594
 20
8.121066774204463
 30
0.0
  0
SPLINE
  5
238
330
1F
100
AcDbEntity
  8
0
  6
Continuous
 62
     7
370
     0
100
AcDbSpline
210
0.0
220
0.0
230
1.0
 70
     8
 71
     3
 72
    17
 73
    13
 74
     0
 42
0.000000001
 43
0.00000001
 40
0.0
 40
0.0
 40
0.0
 40
0.0
 40
0.1251519328702338
 40
0.2502835494578067
 40
0.3838490249549859
 40
0.5004249589582173
 40
0.6316909228122866
 40
0.7498767247056219
 40
0.812395824471487
 40
0.8749120167803326
 40
0.937447730866727
 40
1.0
 40
1.0
 40
1.0
 40
1.0
 10
9.631792433701952
 20
8.112723111741305
 30
0.0
 10
9.630170739848642
 20
8.111803877314683
 30
0.0
 10
9.626927615396372
 20
8.109965557683479
 30
0.0
 10
9.6215844588538
 20
8.107260893037264
 30
0.0
 10
9.616014217030344
 20
8.104750558927249
 30
0.0
 10
9.609859893536921
 20
8.102475440608325
 30
0.0
 10
9.603469630385483
 20
8.100707054256679
 30
0.0
 10
9.597840180522443
 20
8.099861595865487
 30
0.0
 10
9.593699144108099
 20
8.099667650706609
 30
0.0
 10
9.59075914520468
 20
8.099795281951092
 30
0.0
 10
9.588029823089418
 20
8.100091382993298
 30
0.0
 10
9.586451646815032
 20
8.100438975768952
 30
0.0
 10
9.585662454244218
 20
8.100612795158247
 30
0.0
  0
SPLINE
  5
239
330
1F
100
AcDbEntity
  8
0
  6
Continuous
 62
     7
370
     0
100
AcDbSpline
210
0.0
220
0.0
230
1.0
 70
     8
 71
     3
 72
    12
 73
     8
 74
     0
 42
0.000000001
 43
0.00000001
 40
0.0
 40
0.0
 40
0.0
 40
0.0
 40
0.1249981962352775
 40
0.2500181853098276
 40
0.4998430509921692
 40
0.7498766505114263
 40
0.9999999999999999
 40
0.9999999999999999
 40
0.9999999999999999
 40
0.9999999999999999
 10
9.649661395965477
 20
8.127503473630846
 30
0.0
 10
9.649371326512584
 20
8.126878290272593
 30
0.0
 10
9.648791137034571
 20
8.125627814558351
 30
0.0
 10
9.64661578847676
 20
8.123073568424228
 30
0.0
 10
9.643006881003178
 20
8.119915941931744
 30
0.0
 10
9.637733076729898
 20
8.116245299731043
 30
0.0
 10
9.633772884921642
 20
8.113897314848181
 30
0.0
 10
9.631792433701952
 20
8.112723111741305
 30
0.0
  0
SPLINE
  5
23A
330
1F
100
AcDbEntity
  8
0
  6
Continuous
 62
     7
370
     0
100
AcDbSpline
210
0.0
220
0.0
230
1.0
 70
     8
 71
     3
 72
    12
 73
     8
 74
     0
 42
0.000000001
 43
0.00000001
 40
0.0
 40
0.0
 40
0.0
 40
0.0
 40
0.2501121538982728
 40
0.5000209053225296
 40
0.7497559520083871
 40
0.8748533096535156
 40
1.0
 40
1.0
 40
1.0
 40
1.0
 10
9.642956234463437
 20
8.13368779045773
 30
0.0
 10
9.644044208832543
 20
8.133382950057419
 30
0.0
 10
9.646219272780975
 20
8.132773517166745
 30
0.0
 10
9.648569645969005
 20
8.131382520816505
 30
0.0
 10
9.649577176733828
 20
8.129891596942025
 30
0.0
 10
9.649849048943691
 20
8.128567884880152
 30
0.0
 10
9.649723955178475
 20
8.127858324007837
 30
0.0
 10
9.649661395965477
 20
8.127503473630846
 30
0.0
  0
LINE
  5
23B
330
1F
100
AcDbEntity
  8
0
  6
Continuous
 62
     7
370
     0
100
AcDbLine
 10
9.730330283
 20
8.0903356932
 30
0.0
 11
9.7230779058
 21
8.0861489849
 31
0.0
  0
ARC
  5
23C
330
1F
100
AcDbEntity
  8
0
  6
Continuous
 62
     7
370
     0
100
AcDbCircle
 10
9.4339900681
 20
7.3609928948
 30
0.0
 40
0.7872473820318795
100
AcDbArc
 50
67.8875374089
 51
70.7231332177
  0
LINE
  5
23D
330
1F
100
AcDbEntity
  8
0
  6
Continuous
 62
     7
370
     0
100
AcDbLine
 10
9.6866342712
 20
8.0999160089
 30
0.0
 11
9.6938866485
 21
8.1041027171
 31
0.0
  0
ARC
  5
23E
330
1F
100
AcDbEntity
  8
0
  6
Continuous
 62
     7
370
     0
100
AcDbCircle
 10
9.4267376909
 20
7.3568061866
 30
0.0
 40
0.7872473820316863
100
AcDbArc
 50
67.8875374089
 51
70.7231332177
  0
ARC
  5
23F
330
1F
100
AcDbEntity
  8
0
  6
Continuous
 62
     7
370
     0
100
AcDbCircle
 10
9.3975279743
 20
7.3062500562
 30
0.0
 40
0.8345065093800079
100
AcDbArc
 50
67.0143991326
 51
67.5491955301
  0
LINE
  5
240
330
1F
100
AcDbEntity
  8
0
  6
Continuous
 62
     7
370
     0
100
AcDbLine
 10
9.7096905476
 20
8.0737394214
 30
0.0
 11
9.7162176871
 21
8.0775074588
 31
0.0
  0
ARC
  5
241
330
1F
100
AcDbEntity
  8
0
  6
Continuous
 62
     7
370
     0
100
AcDbCircle
 10
9.3910008348
 20
7.3024820189
 30
0.0
 40
0.8345065091846073
100
AcDbArc
 50
67.0143991325
 51
67.5491955301
  0
LINE
  5
242
330
1F
100
AcDbEntity
  8
0
  6
Continuous
 62
     7
370
     0
100
AcDbLine
 10
9.7133739064
 20
8.0687098363
 30
0.0
 11
9.7168754448
 21
8.0707312314
 31
0.0
  0
SPLINE
  5
243
330
1F
100
AcDbEntity
  8
0
  6
Continuous
 62
     7
370
     0
100
AcDbSpline
210
0.0
220
0.0
230
1.0
 70
     8
 71
     3
 72
    11
 73
     7
 74
     0
 42
0.000000001
 43
0.00000001
 40
0.0
 40
0.0
 40
0.0
 40
0.0
 40
0.2514051028349994
 40
0.4995925313080951
 40
0.748476675180992
 40
1.0
 40
1.0
 40
1.0
 40
1.0
 10
9.701766028417573
 20
8.067673705597343
 30
0.0
 10
9.702589305620215
 20
8.067359422665664
 30
0.0
 10
9.704225323095589
 20
8.0667348792351
 30
0.0
 10
9.707607576993984
 20
8.066343873576136
 30
0.0
 10
9.710907167106628
 20
8.067357936286546
 30
0.0
 10
9.712548773965421
 20
8.068257621313533
 30
0.0
 10
9.713373906364522
 20
8.06870983632517
 30
0.0
  0
SPLINE
  5
244
330
1F
100
AcDbEntity
  8
0
  6
Continuous
 62
     7
370
     0
100
AcDbSpline
210
0.0
220
0.0
230
1.0
 70
     8
 71
     3
 72
     9
 73
     5
 74
     0
 42
0.000000001
 43
0.00000001
 40
0.0
 40
0.0
 40
0.0
 40
0.0
 40
0.5000055301934825
 40
1.0
 40
1.0
 40
1.0
 40
1.0
 10
9.69811257761102
 20
8.069539353925151
 30
0.0
 10
9.698675068604244
 20
8.069207056655996
 30
0.0
 10
9.69980003814809
 20
8.068542469468275
 30
0.0
 10
9.7011107031599
 20
8.06796329141901
 30
0.0
 10
9.701766028417573
 20
8.067673705597343
 30
0.0
  0
LINE
  5
245
330
1F
100
AcDbEntity
  8
0
  6
Continuous
 62
     7
370
     0
100
AcDbLine
 10
9.6909163617
 20
8.0663909957
 30
0.0
 11
9.6981125776
 21
8.0695393539
 31
0.0
  0
SPLINE
  5
246
330
1F
100
AcDbEntity
  8
0
  6
Continuous
 62
     7
370
     0
100
AcDbSpline
210
0.0
220
0.0
230
1.0
 70
     8
 71
     3
 72
     9
 73
     5
 74
     0
 42
0.000000001
 43
0.00000001
 40
0.0
 40
0.0
 40
0.0
 40
0.0
 40
0.4999614776740853
 40
1.0
 40
1.0
 40
1.0
 40
1.0
 10
9.696563270037206
 20
8.063354056850166
 30
0.0
 10
9.695534762693818
 20
8.063822566051794
 30
0.0
 10
9.693477589512847
 20
8.06475965665287
 30
0.0
 10
9.691770148127244
 20
8.06584718806642
 30
0.0
 10
9.690916361659829
 20
8.066390995667437
 30
0.0
  0
SPLINE
  5
247
330
1F
100
AcDbEntity
  8
0
  6
Continuous
 62
     7
370
     0
100
AcDbSpline
210
0.0
220
0.0
230
1.0
 70
     8
 71
     3
 72
    12
 73
     8
 74
     0
 42
0.000000001
 43
0.00000001
 40
0.0
 40
0.0
 40
0.0
 40
0.0
 40
0.1252020070481013
 40
0.2502889761809585
 40
0.4998446615956926
 40
0.7496271040880875
 40
1.0
 40
1.0
 40
1.0
 40
1.0
 10
9.713185155068176
 20
8.06213103634524
 30
0.0
 10
9.71245574954272
 20
8.06194369502235
 30
0.0
 10
9.710997608683066
 20
8.061569184509233
 30
0.0
 10
9.707900661122702
 20
8.061207959592918
 30
0.0
 10
9.704030445082406
 20
8.0612320241808
 30
0.0
 10
9.699940690003958
 20
8.062060704699215
 30
0.0
 10
9.697689962384173
 20
8.062922600299084
 30
0.0
 10
9.696563270037206
 20
8.063354056850166
 30
0.0
  0
SPLINE
  5
248
330
1F
100
AcDbEntity
  8
0
  6
Continuous
 62
     7
370
     0
100
AcDbSpline
210
0.0
220
0.0
230
1.0
 70
     8
 71
     3
 72
    10
 73
     6
 74
     0
 42
0.000000001
 43
0.00000001
 40
0.0
 40
0.0
 40
0.0
 40
0.0
 40
0.5000183278221683
 40
0.7500559199693906
 40
1.0
 40
1.0
 40
1.0
 40
1.0
 10
9.719865118327643
 20
8.065213519204878
 30
0.0
 10
9.718843280560051
 20
8.064647158491658
 30
0.0
 10
9.717310465812702
 20
8.063797585221739
 30
0.0
 10
9.715073298504608
 20
8.062755684726254
 30
0.0
 10
9.713814457732868
 20
8.0623392265087
 30
0.0
 10
9.713185155068176
 20
8.06213103634524
 30
0.0
  0
LINE
  5
249
330
1F
100
AcDbEntity
  8
0
  6
Continuous
 62
     7
370
     0
100
AcDbLine
 10
9.7240692308
 20
8.0676405017
 30
0.0
 11
9.7198651183
 21
8.0652135192
 31
0.0
  0
ARC
  5
24A
330
1F
100
AcDbEntity
  8
0
  6
Continuous
 62
     7
370
     0
100
AcDbCircle
 10
9.3811722029
 20
7.2795817745
 30
0.0
 40
0.859427093527222
100
AcDbArc
 50
66.06584121
 51
66.4853671569
  0
LINE
  5
24B
330
1F
100
AcDbEntity
  8
0
  6
Continuous
 62
     7
370
     0
100
AcDbLine
 10
9.7363573788
 20
8.068876707
 30
0.0
 11
9.7298302393
 21
8.0651086695
 31
0.0
  0
ARC
  5
24C
330
1F
100
AcDbEntity
  8
0
  6
Continuous
 62
     7
370
     0
100
AcDbCircle
 10
9.3876993424
 20
7.2833498119
 30
0.0
 40
0.8594270936213262
100
AcDbArc
 50
66.06584121
 51
66.4853671568
  0
LINE
  5
24D
330
1F
100
AcDbEntity
  8
0
  6
Continuous
 62
     7
370
     0
100
AcDbLine
 10
9.765407781
 20
8.0915047388
 30
0.0
 11
9.7305963703
 21
8.0714085391
 31
0.0
  0
ARC
  5
24E
330
1F
100
AcDbEntity
  8
0
  6
Continuous
 62
     7
370
     0
100
AcDbCircle
 10
9.4272408727
 20
7.314326215
 30
0.0
 40
0.8475631632527882
100
AcDbArc
 50
66.4851172291
 51
67.0144070735
  0
LINE
  5
24F
330
1F
100
AcDbEntity
  8
0
  6
Continuous
 62
     7
370
     0
100
AcDbLine
 10
9.7234025843
 20
8.0744992688
 30
0.0
 11
9.758213995
 21
8.0945954685
 31
0.0
  0
ARC
  5
250
330
1F
100
AcDbEntity
  8
0
  6
Continuous
 62
     7
370
     0
100
AcDbCircle
 10
9.3290390512
 20
7.130245318
 30
0.0
 40
1.049967098005723
100
AcDbArc
 50
58.5325888184
 51
60.6433960093
  0
LINE
  5
251
330
1F
100
AcDbEntity
  8
0
  6
Continuous
 62
     7
370
     0
100
AcDbLine
 10
9.8575546467
 20
8.0144972173
 30
0.0
 11
9.8771360653
 21
8.0258013297
 31
0.0
  0
ARC
  5
252
330
1F
100
AcDbEntity
  8
0
  6
Continuous
 62
     7
370
     0
100
AcDbCircle
 10
9.3075861967
 20
7.1158019067
 30
0.0
 40
1.053621638666083
100
AcDbArc
 50
58.5349020882
 51
60.4119207573
  0
LINE
  5
253
330
1F
100
AcDbEntity
  8
0
  6
Continuous
 62
     7
370
     0
100
AcDbLine
 10
9.8212962803
 20
8.0282608002
 30
0.0
 11
9.8278234199
 21
8.0320288377
 31
0.0
  0
ARC
  5
254
330
1F
100
AcDbEntity
  8
0
  6
Continuous
 62
     7
370
     0
100
AcDbCircle
 10
9.3010590571
 20
7.1120338692
 30
0.0
 40
1.053621638665634
100
AcDbArc
 50
58.5349020882
 51
60.4119207573
  0
LINE
  5
255
330
1F
100
AcDbEntity
  8
0
  6
Continuous
 62
     7
370
     0
100
AcDbLine
 10
9.8336218018
 20
8.0006810801
 30
0.0
 11
9.8510275072
 21
8.0107291799
 31
0.0
  0
ARC
  5
256
330
1F
100
AcDbEntity
  8
0
  6
Continuous
 62
     7
370
     0
100
AcDbCircle
 10
9.2847768722
 20
7.1038693197
 30
0.0
 40
1.051428594971292
100
AcDbArc
 50
58.5335475068
 51
60.550709035
  0
LINE
  5
257
330
1F
100
AcDbEntity
  8
0
  6
Continuous
 62
     7
370
     0
100
AcDbLine
 10
9.7951878272
 20
8.015676018
 30
0.0
 11
9.8017149668
 21
8.0194440554
 31
0.0
  0
ARC
  5
258
330
1F
100
AcDbEntity
  8
0
  6
Continuous
 62
     7
370
     0
100
AcDbCircle
 10
9.2742307125
 20
7.0931973248
 30
0.0
 40
1.059416468976886
100
AcDbArc
 50
58.0362503459
 51
60.5450100812
  0
LINE
  5
259
330
1F
100
AcDbEntity
  8
0
  6
Continuous
 62
     7
370
     0
100
AcDbLine
 10
9.8916359088
 20
8.0246447833
 30
0.0
 11
9.8350673663
 21
7.9919884588
 31
0.0
  0
ARC
  5
25A
330
1F
100
AcDbEntity
  8
0
  6
Continuous
 62
     7
370
     0
100
AcDbCircle
 10
9.3315568885
 20
7.1271090646
 30
0.0
 40
1.057950317971781
100
AcDbArc
 50
58.0350680081
 51
60.6374569123
  0
LINE
  5
25B
330
1F
100
AcDbEntity
  8
0
  6
Continuous
 62
     7
370
     0
100
AcDbLine
 10
9.8437788615
 20
8.045381283
 30
0.0
 11
9.8503060011
 21
8.0491493205
 31
0.0
  0
SPLINE
  5
25C
330
1F
100
AcDbEntity
  8
0
  6
Continuous
 62
     7
370
     0
100
AcDbSpline
210
0.0
220
0.0
230
1.0
 70
     8
 71
     3
 72
     8
 73
     4
 74
     0
 42
0.000000001
 43
0.00000001
 40
0.0
 40
0.0
 40
0.0
 40
0.0
 40
1.0
 40
1.0
 40
1.0
 40
1.0
 10
9.96502895456174
 20
7.974843621173126
 30
0.0
 10
9.959911815940616
 20
7.96014969021681
 30
0.0
 10
9.954773509712734
 20
7.945287814096708
 30
0.0
 10
9.949608613242944
 20
7.930262084182467
 30
0.0
  0
ARC
  5
25D
330
1F
100
AcDbEntity
  8
0
  6
Continuous
 62
     7
370
     0
100
AcDbCircle
 10
9.2299834699
 20
6.9733801974
 30
0.0
 40
1.242264405716522
100
AcDbArc
 50
53.7223968718
 51
54.1992575228
  0
LINE
  5
25E
330
1F
100
AcDbEntity
  8
0
  6
Continuous
 62
     7
370
     0
100
AcDbLine
 10
9.9001000824
 20
7.9482701692
 30
0.0
 11
9.9566686249
 21
7.9809264937
 31
0.0
  0
ARC
  5
25F
330
1F
100
AcDbEntity
  8
0
  6
Continuous
 62
     7
370
     0
100
AcDbCircle
 10
9.1736877944
 20
6.9411000582
 30
0.0
 40
1.24179967973405
100
AcDbArc
 50
53.7479798129
 51
54.1993153856
  0
LINE
  5
260
330
1F
100
AcDbEntity
  8
0
  6
Continuous
 62
     7
370
     0
100
AcDbLine
 10
9.9502223376
 20
7.9668847692
 30
0.0
 11
9.9080112357
 21
7.9425168187
 31
0.0
  0
SPLINE
  5
261
330
1F
100
AcDbEntity
  8
0
  6
Continuous
 62
     7
370
     0
100
AcDbSpline
210
0.0
220
0.0
230
1.0
 70
     8
 71
     3
 72
     8
 73
     4
 74
     0
 42
0.000000001
 43
0.00000001
 40
0.0
 40
0.0
 40
0.0
 40
0.0
 40
1.0
 40
1.0
 40
1.0
 40
1.0
 10
9.93480438763913
 20
7.922319881046681
 30
0.0
 10
9.93996839639802
 20
7.937340130289229
 30
0.0
 10
9.945105905354726
 20
7.952196455664724
 30
0.0
 10
9.950222337628414
 20
7.96688476917336
 30
0.0
  0
ARC
  5
262
330
1F
100
AcDbEntity
  8
0
  6
Continuous
 62
     7
370
     0
100
AcDbCircle
 10
9.1302201922
 20
6.8834386974
 30
0.0
 40
1.314012877120231
100
AcDbArc
 50
51.7838872718
 51
52.2432273887
  0
LINE
  5
263
330
1F
100
AcDbEntity
  8
0
  6
Continuous
 62
     7
370
     0
100
AcDbLine
 10
9.9996756926
 20
7.9484925398
 30
0.0
 11
9.9431071501
 21
7.9158362153
 31
0.0
  0
ARC
  5
264
330
1F
100
AcDbEntity
  8
0
  6
Continuous
 62
     7
370
     0
100
AcDbCircle
 10
9.1865041618
 20
6.9157316627
 30
0.0
 40
1.31447440741847
100
AcDbArc
 50
51.7839396074
 51
52.2184823
  0
LINE
  5
265
330
1F
100
AcDbEntity
  8
0
  6
Continuous
 62
     7
370
     0
100
AcDbLine
 10
9.9496086132
 20
7.9302620842
 30
0.0
 11
9.9918197152
 21
7.9546300346
 31
0.0
  0
SPLINE
  5
266
330
1F
100
AcDbEntity
  8
0
  6
Continuous
 62
     7
370
     0
100
AcDbSpline
210
0.0
220
0.0
230
1.0
 70
     8
 71
     3
 72
    15
 73
    11
 74
     0
 42
0.000000001
 43
0.00000001
 40
0.0
 40
0.0
 40
0.0
 40
0.0
 40
0.0627077247449543
 40
0.1254112927258575
 40
0.2505229930352317
 40
0.4986822572927319
 40
0.6238561955984375
 40
0.7492159321906058
 40
0.874604982422564
 40
1.0
 40
1.0
 40
1.0
 40
1.0
 10
10.04083027110445
 20
7.840050490752734
 30
0.0
 10
10.0414818283659
 20
7.839462125210725
 30
0.0
 10
10.04278489969843
 20
7.83828543312823
 30
0.0
 10
10.04567983034893
 20
7.836129079306134
 30
0.0
 10
10.05132561327211
 20
7.832910421382809
 30
0.0
 10
10.05900379183777
 20
7.831178951220316
 30
0.0
 10
10.06607340611248
 20
7.831681342164193
 30
0.0
 10
10.07094778482983
 20
7.832943807539003
 30
0.0
 10
10.0755832819365
 20
7.834548593009919
 30
0.0
 10
10.07832695215095
 20
7.83601683850522
 30
0.0
 10
10.07969881990065
 20
7.836750978721141
 30
0.0
  0
SPLINE
  5
267
330
1F
100
AcDbEntity
  8
0
  6
Continuous
 62
     7
370
     0
100
AcDbSpline
210
0.0
220
0.0
230
1.0
 70
     8
 71
     3
 72
    13
 73
     9
 74
     0
 42
0.000000001
 43
0.00000001
 40
0.0
 40
0.0
 40
0.0
 40
0.0
 40
0.1432749372462753
 40
0.250727339926153
 40
0.5002687912373461
 40
0.7494047175484839
 40
0.8746601628232932
 40
0.9999999999999999
 40
0.9999999999999999
 40
0.9999999999999999
 40
0.9999999999999999
 10
10.03885070811172
 20
7.859349743367765
 30
0.0
 10
10.03823689068569
 20
7.858564648683307
 30
0.0
 10
10.03716272647116
 20
7.857190753809521
 30
0.0
 10
10.03555487928183
 20
7.854199232159072
 30
0.0
 10
10.03457418030202
 20
7.850137039332313
 30
0.0
 10
10.03615139492611
 20
7.845639927637196
 30
0.0
 10
10.03853010076731
 20
7.842329715593113
 30
0.0
 10
10.04006337554061
 20
7.840810402917006
 30
0.0
 10
10.04083027110445
 20
7.840050490752734
 30
0.0
  0
SPLINE
  5
268
330
1F
100
AcDbEntity
  8
0
  6
Continuous
 62
     7
370
     0
100
AcDbSpline
210
0.0
220
0.0
230
1.0
 70
     8
 71
     3
 72
     8
 73
     4
 74
     0
 42
0.000000001
 43
0.00000001
 40
0.0
 40
0.0
 40
0.0
 40
0.0
 40
1.0
 40
1.0
 40
1.0
 40
1.0
 10
10.02946901440064
 20
7.865321062021677
 30
0.0
 10
10.03259996985398
 20
7.863343621305583
 30
0.0
 10
10.03572724591882
 20
7.861353141084355
 30
0.0
 10
10.03885070811172
 20
7.859349743367765
 30
0.0
  0
SPLINE
  5
269
330
1F
100
AcDbEntity
  8
0
  6
Continuous
 62
     7
370
     0
100
AcDbSpline
210
0.0
220
0.0
230
1.0
 70
     8
 71
     3
 72
    14
 73
    10
 74
     0
 42
0.000000001
 43
0.00000001
 40
0.0
 40
0.0
 40
0.0
 40
0.0
 40
0.0716530045517846
 40
0.1432915146744447
 40
0.2864108891677029
 40
0.570953682072884
 40
0.7851429384798603
 40
0.8925549501623634
 40
1.0
 40
1.0
 40
1.0
 40
1.0
 10
10.03393522505486
 20
7.836626946422695
 30
0.0
 10
10.03327581077311
 20
7.837263716815811
 30
0.0
 10
10.03195711560016
 20
7.838537128792045
 30
0.0
 10
10.0295996418306
 20
7.841213368874023
 30
0.0
 10
10.02612022045648
 20
7.846111277662661
 30
0.0
 10
10.0241079534646
 20
7.852963770160772
 30
0.0
 10
10.02533514622519
 20
7.858945459785331
 30
0.0
 10
10.02736844775364
 20
7.862745440581503
 30
0.0
 10
10.02876875374419
 20
7.864462433535389
 30
0.0
 10
10.02946901440064
 20
7.865321062021677
 30
0.0
  0
SPLINE
  5
26A
330
1F
100
AcDbEntity
  8
0
  6
Continuous
 62
     7
370
     0
100
AcDbSpline
210
0.0
220
0.0
230
1.0
 70
     8
 71
     3
 72
    16
 73
    12
 74
     0
 42
0.000000001
 43
0.00000001
 40
0.0
 40
0.0
 40
0.0
 40
0.0
 40
0.0626673372254293
 40
0.125323613599547
 40
0.2505320761324584
 40
0.4994286266901254
 40
0.6209451481911192
 40
0.7495714564986924
 40
0.8746959905394937
 40
0.9373444465983137
 40
1.0
 40
1.0
 40
1.0
 40
1.0
 10
10.08728096769633
 20
7.829431448119936
 30
0.0
 10
10.08635666359061
 20
7.828922653500304
 30
0.0
 10
10.08450821851982
 20
7.827905154063828
 30
0.0
 10
10.08056277989046
 20
7.826134462616571
 30
0.0
 10
10.07312762024089
 20
7.823752039686494
 30
0.0
 10
10.06330319893857
 20
7.823051113926717
 30
0.0
 10
10.05327296992674
 20
7.825160580865203
 30
0.0
 10
10.0460780963668
 20
7.828047040125409
 30
0.0
 10
10.04055018436479
 20
7.831285241894167
 30
0.0
 10
10.03660947346061
 20
7.834230203040171
 30
0.0
 10
10.03482667484993
 20
7.835828001794887
 30
0.0
 10
10.03393522505486
 20
7.836626946422695
 30
0.0
  0
SPLINE
  5
26B
330
1F
100
AcDbEntity
  8
0
  6
Continuous
 62
     7
370
     0
100
AcDbSpline
210
0.0
220
0.0
230
1.0
 70
     8
 71
     3
 72
    16
 73
    12
 74
     0
 42
0.000000001
 43
0.00000001
 40
0.0
 40
0.0
 40
0.0
 40
0.0
 40
0.0626596732655863
 40
0.1253066935863615
 40
0.2504130650862198
 40
0.3753509260122141
 40
0.5003167170701762
 40
0.7494642842602036
 40
0.8746874249442926
 40
0.9373399599321066
 40
1.0
 40
1.0
 40
1.0
 40
1.0
 10
10.09180273561121
 20
7.870262410986866
 30
0.0
 10
10.09267701738493
 20
7.869419935439995
 30
0.0
 10
10.09442540438757
 20
7.867735154468375
 30
0.0
 10
10.09753393847688
 20
7.864165887003289
 30
0.0
 10
10.10077705271577
 20
7.859415159354464
 30
0.0
 10
10.1027237426171
 20
7.8533357891123
 30
0.0
 10
10.10248045722361
 20
7.845411614643125
 30
0.0
 10
10.09847884734121
 20
7.838485889073404
 30
0.0
 10
10.09336216048269
 20
7.833597697444898
 30
0.0
 10
10.09003357850322
 20
7.831085829044544
 30
0.0
 10
10.08819854126596
 20
7.829982930445993
 30
0.0
 10
10.08728096769633
 20
7.829431448119936
 30
0.0
  0
SPLINE
  5
26C
330
1F
100
AcDbEntity
  8
0
  6
Continuous
 62
     7
370
     0
100
AcDbSpline
210
0.0
220
0.0
230
1.0
 70
     8
 71
     3
 72
    14
 73
    10
 74
     0
 42
0.000000001
 43
0.00000001
 40
0.0
 40
0.0
 40
0.0
 40
0.0
 40
0.0716724462801659
 40
0.1433330938213274
 40
0.286513506605958
 40
0.5710080364222956
 40
0.7850962256137299
 40
0.8925354065145935
 40
1.0
 40
1.0
 40
1.0
 40
1.0
 10
10.05081496869314
 20
7.879707227878515
 30
0.0
 10
10.05175348888534
 20
7.879965269368692
 30
0.0
 10
10.05363037477026
 20
7.88048130987018
 30
0.0
 10
10.05756251267736
 20
7.881222932742802
 30
0.0
 10
10.06469350174994
 20
7.881957211072099
 30
0.0
 10
10.07463337389033
 20
7.880661176534645
 30
0.0
 10
10.08313033296053
 20
7.876832550212566
 30
0.0
 10
10.08836654420421
 20
7.873297551587283
 30
0.0
 10
10.09065724818287
 20
7.871274204274614
 30
0.0
 10
10.09180273561121
 20
7.870262410986866
 30
0.0
  0
SPLINE
  5
26D
330
1F
100
AcDbEntity
  8
0
  6
Continuous
 62
     7
370
     0
100
AcDbSpline
210
0.0
220
0.0
230
1.0
 70
     8
 71
     3
 72
     8
 73
     4
 74
     0
 42
0.000000001
 43
0.00000001
 40
0.0
 40
0.0
 40
0.0
 40
0.0
 40
1.0
 40
1.0
 40
1.0
 40
1.0
 10
10.05663120687338
 20
7.87168943420587
 30
0.0
 10
10.05469620541134
 20
7.874375012464421
 30
0.0
 10
10.05275741449963
 20
7.877047650942413
 30
0.0
 10
10.05081496869314
 20
7.879707227878515
 30
0.0
  0
SPLINE
  5
26E
330
1F
100
AcDbEntity
  8
0
  6
Continuous
 62
     7
370
     0
100
AcDbSpline
210
0.0
220
0.0
230
1.0
 70
     8
 71
     3
 72
    14
 73
    10
 74
     0
 42
0.000000001
 43
0.00000001
 40
0.0
 40
0.0
 40
0.0
 40
0.0
 40
0.1144070908854772
 40
0.2002230675503021
 40
0.3997605577182259
 40
0.5482287445059275
 40
0.6997074444438339
 40
0.8498328043130107
 40
1.0
 40
1.0
 40
1.0
 40
1.0
 10
10.08598976110271
 20
7.865825631354855
 30
0.0
 10
10.08510697688826
 20
7.866598109627697
 30
0.0
 10
10.0835620222702
 20
7.867950018571514
 30
0.0
 10
10.08002531715161
 20
7.870295612684284
 30
0.0
 10
10.07562327319615
 20
7.872239195568018
 30
0.0
 10
10.07023775954097
 20
7.873389814703899
 30
0.0
 10
10.06541780238567
 20
7.873520679140009
 30
0.0
 10
10.06082329346406
 20
7.872922337079196
 30
0.0
 10
10.05802869884833
 20
7.872100439998354
 30
0.0
 10
10.05663120687338
 20
7.87168943420587
 30
0.0
  0
SPLINE
  5
26F
330
1F
100
AcDbEntity
  8
0
  6
Continuous
 62
     7
370
     0
100
AcDbSpline
210
0.0
220
0.0
230
1.0
 70
     8
 71
     3
 72
    15
 73
    11
 74
     0
 42
0.000000001
 43
0.00000001
 40
0.0
 40
0.0
 40
0.0
 40
0.0
 40
0.1252899332557443
 40
0.2505321937203285
 40
0.4998875512559088
 40
0.6248075308142848
 40
0.7497334520959937
 40
0.8747525524942663
 40
0.9373611783787399
 40
1.0
 40
1.0
 40
1.0
 40
1.0
 10
10.07969881990065
 20
7.836750978721141
 30
0.0
 10
10.08103155101784
 20
7.837563512244304
 30
0.0
 10
10.08369650614835
 20
7.839188270121812
 30
0.0
 10
10.08829109011941
 20
7.843022103658428
 30
0.0
 10
10.09193806376154
 20
7.847651412108108
 30
0.0
 10
10.09285199557615
 20
7.853282038376737
 30
0.0
 10
10.09182120167393
 20
7.857703448344698
 30
0.0
 10
10.08995528519643
 20
7.861279403033882
 30
0.0
 10
10.08787446736974
 20
7.863963979079198
 30
0.0
 10
10.08661809749055
 20
7.865204980865824
 30
0.0
 10
10.08598976110271
 20
7.865825631354855
 30
0.0
  0
SPLINE
  5
270
330
1F
100
AcDbEntity
  8
0
  6
Continuous
 62
     7
370
     0
100
AcDbSpline
210
0.0
220
0.0
230
1.0
 70
     8
 71
     3
 72
    15
 73
    11
 74
     0
 42
0.000000001
 43
0.00000001
 40
0.0
 40
0.0
 40
0.0
 40
0.0
 40
0.0626761947927254
 40
0.1253392690170513
 40
0.2504957453420236
 40
0.4992172028459843
 40
0.6369416197841546
 40
0.7852085601041838
 40
0.8925889660601415
 40
0.9999999999999999
 40
0.9999999999999999
 40
0.9999999999999999
 40
0.9999999999999999
 10
10.11469187938981
 20
7.755261896891059
 30
0.0
 10
10.11386295797015
 20
7.756191629344558
 30
0.0
 10
10.11220528865636
 20
7.758050899622345
 30
0.0
 10
10.10936266871395
 20
7.761980621396011
 30
0.0
 10
10.10547475630311
 20
7.769149993908231
 30
0.0
 10
10.10405264044132
 20
7.77802615989294
 30
0.0
 10
10.10652528872932
 20
7.786154035226378
 30
0.0
 10
10.11010150267776
 20
7.791305355246372
 30
0.0
 10
10.11443352413811
 20
7.795346486019889
 30
0.0
 10
10.11751475884353
 20
7.797278774314746
 30
0.0
 10
10.11905559587913
 20
7.798245056228593
 30
0.0
  0
SPLINE
  5
271
330
1F
100
AcDbEntity
  8
0
  6
Continuous
 62
     7
370
     0
100
AcDbSpline
210
0.0
220
0.0
230
1.0
 70
     8
 71
     3
 72
    17
 73
    13
 74
     0
 42
0.000000001
 43
0.00000001
 40
0.0
 40
0.0
 40
0.0
 40
0.0
 40
0.0625872523499313
 40
0.1251621031373152
 40
0.2502151565810604
 40
0.3769364927708413
 40
0.5001010314360429
 40
0.6250388192666017
 40
0.7499288092931831
 40
0.874855559110904
 40
0.9374185878446685
 40
1.0
 40
1.0
 40
1.0
 40
1.0
 10
10.16887726612099
 20
7.745423718102582
 30
0.0
 10
10.16792078484198
 20
7.744895474323742
 30
0.0
 10
10.16600801180917
 20
7.74383909143671
 30
0.0
 10
10.16195331819398
 20
7.742009029022261
 30
0.0
 10
10.15645422619588
 20
7.740262511849965
 30
0.0
 10
10.14927087772671
 20
7.739354549249575
 30
0.0
 10
10.14166380203436
 20
7.739921136243829
 30
0.0
 10
10.13405325050171
 20
7.741910987896357
 30
0.0
 10
10.12672521413996
 20
7.745244776298133
 30
0.0
 10
10.12127417299888
 20
7.749067972658953
 30
0.0
 10
10.117347004528
 20
7.752493227645052
 30
0.0
 10
10.11557700777198
 20
7.754338916766605
 30
0.0
 10
10.11469187938981
 20
7.755261896891059
 30
0.0
  0
SPLINE
  5
272
330
1F
100
AcDbEntity
  8
0
  6
Continuous
 62
     7
370
     0
100
AcDbSpline
210
0.0
220
0.0
230
1.0
 70
     8
 71
     3
 72
    17
 73
    13
 74
     0
 42
0.000000001
 43
0.00000001
 40
0.0
 40
0.0
 40
0.0
 40
0.0
 40
0.0625735814875162
 40
0.125143834497332
 40
0.2500878788322726
 40
0.3750376600705203
 40
0.4999484912518437
 40
0.6426403265606629
 40
0.7498323494477067
 40
0.8748525257198521
 40
0.9374292607999327
 40
0.9999999999999999
 40
0.9999999999999999
 40
0.9999999999999999
 40
0.9999999999999999
 10
10.17274204681411
 20
7.788721857140891
 30
0.0
 10
10.17355404903739
 20
7.787807749386766
 30
0.0
 10
10.17517801029111
 20
7.785979582502668
 30
0.0
 10
10.17797418603435
 20
7.782101662920583
 30
0.0
 10
10.18068527358828
 20
7.776971048961893
 30
0.0
 10
10.18243636834607
 20
7.770612552021527
 30
0.0
 10
10.18259252757721
 20
7.764055216315009
 30
0.0
 10
10.18095090846114
 20
7.758246380989327
 30
0.0
 10
10.17790701687086
 20
7.75313950480029
 30
0.0
 10
10.17473152180892
 20
7.74962501221478
 30
0.0
 10
10.17154991052572
 20
7.747059815337825
 30
0.0
 10
10.16976811913372
 20
7.745969066428215
 30
0.0
 10
10.16887726612099
 20
7.745423718102582
 30
0.0
  0
SPLINE
  5
273
330
1F
100
AcDbEntity
  8
0
  6
Continuous
 62
     7
370
     0
100
AcDbSpline
210
0.0
220
0.0
230
1.0
 70
     8
 71
     3
 72
    16
 73
    12
 74
     0
 42
0.000000001
 43
0.00000001
 40
0.0
 40
0.0
 40
0.0
 40
0.0
 40
0.0626649867820409
 40
0.1253199439526306
 40
0.250512625244012
 40
0.499472427563603
 40
0.620638966328817
 40
0.7495739117792042
 40
0.8746967496056874
 40
0.9373438300020028
 40
1.0
 40
1.0
 40
1.0
 40
1.0
 10
10.11905559587913
 20
7.798245056228593
 30
0.0
 10
10.11999564964441
 20
7.798761668605223
 30
0.0
 10
10.12187560671814
 20
7.799794810674009
 30
0.0
 10
10.12592868536369
 20
7.801526619799152
 30
0.0
 10
10.13354287598535
 20
7.803787106093498
 30
0.0
 10
10.14351037432231
 20
7.804214476440906
 30
0.0
 10
10.15357250724691
 20
7.801662753189262
 30
0.0
 10
10.16074021172697
 20
7.798370101931472
 30
0.0
 10
10.16623235229619
 20
7.79472998392119
 30
0.0
 10
10.17012938680896
 20
7.79142616741509
 30
0.0
 10
10.17187111803018
 20
7.789623337491884
 30
0.0
 10
10.17274204681411
 20
7.788721857140891
 30
0.0
  0
ARC
  5
274
330
1F
100
AcDbEntity
  8
0
  6
Continuous
 62
     7
370
     0
100
AcDbCircle
 10
8.821825168
 20
6.5552760568
 30
0.0
 40
1.809037938212336
100
AcDbArc
 50
37.077870018
 51
38.1394762575
  0
SPLINE
  5
275
330
1F
100
AcDbEntity
  8
0
  6
Continuous
 62
     7
370
     0
100
AcDbSpline
210
0.0
220
0.0
230
1.0
 70
     8
 71
     3
 72
     8
 73
     4
 74
     0
 42
0.000000001
 43
0.00000001
 40
0.0
 40
0.0
 40
0.0
 40
0.0
 40
1.0
 40
1.0
 40
1.0
 40
1.0
 10
10.25653087525962
 20
7.689547251206203
 30
0.0
 10
10.25257547813888
 20
7.683870334718661
 30
0.0
 10
10.24861556071746
 20
7.678187205343132
 30
0.0
 10
10.24465105992961
 20
7.67249794298285
 30
0.0
  0
ARC
  5
276
330
1F
100
AcDbEntity
  8
0
  6
Continuous
 62
     7
370
     0
100
AcDbCircle
 10
8.8591438754
 20
6.5809714292
 30
0.0
 40
1.783712639617671
100
AcDbArc
 50
38.4256904251
 51
38.8018726297
  0
SPLINE
  5
277
330
1F
100
AcDbEntity
  8
0
  6
Continuous
 62
     7
370
     0
100
AcDbSpline
210
0.0
220
0.0
230
1.0
 70
     8
 71
     3
 72
     8
 73
     4
 74
     0
 42
0.000000001
 43
0.00000001
 40
0.0
 40
0.0
 40
0.0
 40
0.0
 40
1.0
 40
1.0
 40
1.0
 40
1.0
 10
10.2119421169371
 20
7.64162128773734
 30
0.0
 10
10.22442466720037
 20
7.66072152197806
 30
0.0
 10
10.23685050921804
 20
7.679748224203456
 30
0.0
 10
10.2492223234067
 20
7.698698000817785
 30
0.0
  0
ARC
  5
278
330
1F
100
AcDbEntity
  8
0
  6
Continuous
 62
     7
370
     0
100
AcDbCircle
 10
8.7825949919
 20
6.532637352
 30
0.0
 40
1.809109884353758
100
AcDbArc
 50
37.4106232058
 51
37.8067230697
  0
SPLINE
  5
279
330
1F
100
AcDbEntity
  8
0
  6
Continuous
 62
     7
370
     0
100
AcDbSpline
210
0.0
220
0.0
230
1.0
 70
     8
 71
     3
 72
     8
 73
     4
 74
     0
 42
0.000000001
 43
0.00000001
 40
0.0
 40
0.0
 40
0.0
 40
0.0
 40
1.0
 40
1.0
 40
1.0
 40
1.0
 10
10.29495051984819
 20
7.639337317783712
 30
0.0
 10
10.26988471780968
 20
7.636865859752472
 30
0.0
 10
10.24475853308646
 20
7.634325725474997
 30
0.0
 10
10.21957457926126
 20
7.631713436300996
 30
0.0
  0
ARC
  5
27A
330
1F
100
AcDbEntity
  8
0
  6
Continuous
 62
     7
370
     0
100
AcDbCircle
 10
8.8211144989
 20
6.5516338164
 30
0.0
 40
1.831745485504133
100
AcDbArc
 50
36.4276406417
 51
36.7972174682
  0
SPLINE
  5
27B
330
1F
100
AcDbEntity
  8
0
  6
Continuous
 62
     7
370
     0
100
AcDbSpline
210
0.0
220
0.0
230
1.0
 70
     8
 71
     3
 72
     8
 73
     4
 74
     0
 42
0.000000001
 43
0.00000001
 40
0.0
 40
0.0
 40
0.0
 40
0.0
 40
1.0
 40
1.0
 40
1.0
 40
1.0
 10
10.26510612282056
 20
7.645944818232659
 30
0.0
 10
10.27271020541322
 20
7.646909466925561
 30
0.0
 10
10.28030947118901
 20
7.647868285680381
 30
0.0
 10
10.28790385860989
 20
7.64882135634456
 30
0.0
  0
ARC
  5
27C
330
1F
100
AcDbEntity
  8
0
  6
Continuous
 62
     7
370
     0
100
AcDbCircle
 10
8.7530337873
 20
6.506678387
 30
0.0
 40
1.88661172992606
100
AcDbArc
 50
32.9767969666
 51
33.5700837074
  0
SPLINE
  5
27D
330
1F
100
AcDbEntity
  8
0
  6
Continuous
 62
     7
370
     0
100
AcDbSpline
210
0.0
220
0.0
230
1.0
 70
     8
 71
     3
 72
    15
 73
    11
 74
     0
 42
0.000000001
 43
0.00000001
 40
0.0
 40
0.0
 40
0.0
 40
0.0
 40
0.0626964153114141
 40
0.125378708157393
 40
0.2505492576971807
 40
0.3756933751300134
 40
0.5006718414742769
 40
0.7492845741561992
 40
0.8746116954167872
 40
1.0
 40
1.0
 40
1.0
 40
1.0
 10
10.29195805181575
 20
7.563619773660227
 30
0.0
 10
10.29260081528238
 20
7.5639673684647
 30
0.0
 10
10.29388619743218
 20
7.564662479777374
 30
0.0
 10
10.29665713585094
 20
7.565716196210587
 30
0.0
 10
10.30041222253205
 20
7.566452798430218
 30
0.0
 10
10.30520004941781
 20
7.566211495239918
 30
0.0
 10
10.31169883842986
 20
7.564491092730703
 30
0.0
 10
10.31735980183119
 20
7.55969283972111
 30
0.0
 10
10.32194875258755
 20
7.554298688298817
 30
0.0
 10
10.32396787732943
 20
7.551361632345882
 30
0.0
 10
10.32497768606886
 20
7.549892745997287
 30
0.0
  0
SPLINE
  5
27E
330
1F
100
AcDbEntity
  8
0
  6
Continuous
 62
     7
370
     0
100
AcDbSpline
210
0.0
220
0.0
230
1.0
 70
     8
 71
     3
 72
    14
 73
    10
 74
     0
 42
0.000000001
 43
0.00000001
 40
0.0
 40
0.0
 40
0.0
 40
0.0
 40
0.125199978723322
 40
0.2503250813998992
 40
0.3754446600944883
 40
0.5003442011329173
 40
0.749650120949964
 40
0.8748058919807994
 40
1.0
 40
1.0
 40
1.0
 40
1.0
 10
10.28641649261561
 20
7.539528490444906
 30
0.0
 10
10.28588343026917
 20
7.540702742899011
 30
0.0
 10
10.28481762437507
 20
7.543050545543669
 30
0.0
 10
10.28384401623202
 20
7.546697547148349
 30
0.0
 10
10.28353409436449
 20
7.550322315509211
 30
0.0
 10
10.28423247142765
 20
7.554874320463552
 30
0.0
 10
10.28629721632328
 20
7.558791939357165
 30
0.0
 10
10.28924126636162
 20
7.561888579705748
 30
0.0
 10
10.2910523642177
 20
7.563042650099733
 30
0.0
 10
10.29195805181575
 20
7.563619773660227
 30
0.0
  0
SPLINE
  5
27F
330
1F
100
AcDbEntity
  8
0
  6
Continuous
 62
     7
370
     0
100
AcDbSpline
210
0.0
220
0.0
230
1.0
 70
     8
 71
     3
 72
    10
 73
     6
 74
     0
 42
0.000000001
 43
0.00000001
 40
0.0
 40
0.0
 40
0.0
 40
0.0
 40
0.5000056856159634
 40
0.7500189825075423
 40
1.0
 40
1.0
 40
1.0
 40
1.0
 10
10.29243724304673
 20
7.529396497739748
 30
0.0
 10
10.29136571573865
 20
7.531053451561953
 30
0.0
 10
10.28975840237311
 20
7.533538916938733
 30
0.0
 10
10.28772450051804
 20
7.536911388442948
 30
0.0
 10
10.28685247648394
 20
7.538656160658146
 30
0.0
 10
10.28641649261561
 20
7.539528490444906
 30
0.0
  0
ARC
  5
280
330
1F
100
AcDbEntity
  8
0
  6
Continuous
 62
     7
370
     0
100
AcDbCircle
 10
8.7179456543
 20
6.486286222
 30
0.0
 40
1.888677529432893
100
AcDbArc
 50
32.6356813336
 51
33.524715987
  0
LINE
  5
281
330
1F
100
AcDbEntity
  8
0
  6
Continuous
 62
     7
370
     0
100
AcDbLine
 10
10.3650011052
 20
7.5374975056
 30
0.0
 11
10.3084325627
 21
7.5048411811
 31
0.0
  0
ARC
  5
282
330
1F
100
AcDbEntity
  8
0
  6
Continuous
 62
     7
370
     0
100
AcDbCircle
 10
8.7721434499
 20
6.5174122251
 30
0.0
 40
1.891499270219671
100
AcDbArc
 50
32.6359895922
 51
32.9769176915
  0
LINE
  5
283
330
1F
100
AcDbEntity
  8
0
  6
Continuous
 62
     7
370
     0
100
AcDbLine
 10
10.3356955037
 20
7.5335599339
 30
0.0
 11
10.3589031108
 21
7.5469574003
 31
0.0
  0
LWPOLYLINE
  5
284
330
1F
100
AcDbEntity
  8
0
  6
Continuous
 62
     7
370
     0
100
AcDbPolyline
 90
       63
 70
   128
 43
0.0
 10
10.71959378
 20
6.7430887309
 10
10.7190298995
 20
6.7776091681
 10
10.7173390757
 20
6.8127305965
 10
10.7145237599
 20
6.8484020934
 10
10.7105880343
 20
6.8845719385
 10
10.7055376052
 20
6.9211876891
 10
10.6993797953
 20
6.9581962557
 10
10.6921235327
 20
6.9955439795
 10
10.6837793384
 20
7.0331767099
 10
10.6743593107
 20
7.071039883
 10
10.6638771076
 20
7.1090786008
 10
10.6523479275
 20
7.1472377109
 10
10.6397884865
 20
7.1854618861
 10
10.6262169945
 20
7.223695705
 10
10.611653129
 20
7.2618837324
 10
10.5961180062
 20
7.2999705991
 10
10.5796341505
 20
7.3379010829
 10
10.5622254619
 20
7.3756201882
 10
10.5439171814
 20
7.4130732258
 10
10.5247358542
 20
7.4502058926
 10
10.5047092914
 20
7.4869643496
 10
10.4838665296
 20
7.5232953006
 10
10.4622377889
 20
7.5591460693
 10
10.4398544287
 20
7.5944646753
 10
10.416748903
 20
7.6291999102
 10
10.3929547123
 20
7.6633014111
 10
10.3685063562
 20
7.6967197341
 10
10.3434392823
 20
7.7294064259
 10
10.3177898355
 20
7.7613140939
 10
10.291595205
 20
7.792396475
 10
10.2648933707
 20
7.8226085027
 10
10.2377230474
 20
7.8519063725
 10
10.2101236298
 20
7.8802476052
 10
10.1821351341
 20
7.9075911089
 10
10.1537981412
 20
7.9338972379
 10
10.1251537369
 20
7.9591278511
 10
10.0962434529
 20
7.9832463662
 10
10.0671092063
 20
8.0062178139
 10
10.037793239
 20
8.0280088878
 10
10.0083380564
 20
8.0485879928
 10
9.9787863656
 20
8.0679252912
 10
9.9491810137
 20
8.0859927458
 10
9.9195649258
 20
8.1027641605
 10
9.8899810423
 20
8.1182152184
 10
9.860472257
 20
8.1323235168
 10
9.8310813548
 20
8.1450686002
 10
9.8018509497
 20
8.1564319893
 10
9.772823423
 20
8.1663972084
 10
9.7440408619
 20
8.1749498088
 10
9.7155449983
 20
8.18207739
 10
9.6873771484
 20
8.1877696178
 10
9.6595781531
 20
8.192018239
 10
9.6321883181
 20
8.1948170935
 10
9.6052473561
 20
8.1961621231
 10
9.578794329
 20
8.1960513778
 10
9.552867591
 20
8.1944850181
 10
9.5275047336
 20
8.1914653151
 10
9.5027425303
 20
8.186996647
 10
9.478616884
 20
8.1810854931
 10
9.4551627746
 20
8.1737404238
 10
9.4324142084
 20
8.164972089
 10
9.4104041685
 20
8.1547932017
 10
9.3918210177
 20
8.144766941
  0
LWPOLYLINE
  5
285
330
1F
100
AcDbEntity
  8
0
  6
Continuous
 62
     7
370
     0
100
AcDbPolyline
 90
       22
 70
   128
 43
0.0
 10
10.4917316236
 20
6.2394594438
 10
10.5047092914
 20
6.2473134618
 10
10.5247358542
 20
6.2609497415
 10
10.5439171814
 20
6.2759361193
 10
10.5622254619
 20
6.2922508662
 10
10.5796341505
 20
6.3098703275
 10
10.5961180062
 20
6.3287689566
 10
10.611653129
 20
6.3489193523
 10
10.6262169945
 20
6.3702922985
 10
10.6397884865
 20
6.3928568064
 10
10.6523479275
 20
6.4165801596
 10
10.6638771076
 20
6.4414279616
 10
10.6743593107
 20
6.4673641854
 10
10.6837793384
 20
6.494351226
 10
10.6921235327
 20
6.5223499547
 10
10.6993797953
 20
6.5513197761
 10
10.7055376052
 20
6.5812186867
 10
10.7105880343
 20
6.6120033359
 10
10.7145237599
 20
6.643629089
 10
10.7173390757
 20
6.6760500915
 10
10.7190298995
 20
6.7092193363
 10
10.71959378
 20
6.7430887309
  0
ARC
  5
286
330
1F
100
AcDbEntity
  8
0
  6
Continuous
 62
     7
370
     0
100
AcDbCircle
 10
8.8014447526
 20
6.5382198215
 30
0.0
 40
1.84804799434128
100
AcDbArc
 50
35.2199434753
 51
36.3845929742
  0
LINE
  5
287
330
1F
100
AcDbEntity
  8
0
  6
Continuous
 62
     7
370
     0
100
AcDbLine
 10
10.2611554485
 20
7.5751316983
 30
0.0
 11
10.3111968515
 21
7.6040199853
 31
0.0
  0
ARC
  5
288
330
1F
100
AcDbEntity
  8
0
  6
Continuous
 62
     7
370
     0
100
AcDbCircle
 10
8.7402836863
 20
6.5014398545
 30
0.0
 40
1.861683402895893
100
AcDbArc
 50
34.8764364379
 51
35.2209949971
  0
LINE
  5
289
330
1F
100
AcDbEntity
  8
0
  6
Continuous
 62
     7
370
     0
100
AcDbLine
 10
10.3241532921
 20
7.5986226251
 30
0.0
 11
10.2675847496
 21
7.5659663007
 31
0.0
  0
ARC
  5
28A
330
1F
100
AcDbEntity
  8
0
  6
Continuous
 62
     7
370
     0
100
AcDbCircle
 10
8.8053933916
 20
6.5401186792
 30
0.0
 40
1.851232626900392
100
AcDbArc
 50
34.8746762508
 51
36.3838259278
  0
LINE
  5
28B
330
1F
100
AcDbEntity
  8
0
  6
Continuous
 62
     7
370
     0
100
AcDbLine
 10
10.2892219639
 20
7.6344863761
 30
0.0
 11
10.2957491035
 21
7.6382544135
 31
0.0
  0
SPLINE
  5
28C
330
1F
100
AcDbEntity
  8
0
  6
Continuous
 62
     7
370
     0
100
AcDbSpline
210
0.0
220
0.0
230
1.0
 70
     8
 71
     3
 72
     8
 73
     4
 74
     0
 42
0.000000001
 43
0.00000001
 40
0.0
 40
0.0
 40
0.0
 40
0.0
 40
1.0
 40
1.0
 40
1.0
 40
1.0
 10
10.21307748378813
 20
7.74220080461319
 30
0.0
 10
10.20706056232137
 20
7.72469900542806
 30
0.0
 10
10.20097226246887
 20
7.707076353474108
 30
0.0
 10
10.19480773833456
 20
7.689338616182081
 30
0.0
  0
ARC
  5
28D
330
1F
100
AcDbEntity
  8
0
  6
Continuous
 62
     7
370
     0
100
AcDbCircle
 10
8.9086174133
 20
6.6221294125
 30
0.0
 40
1.719353366507858
100
AcDbArc
 50
40.6509554091
 51
41.0349193557
  0
LINE
  5
28E
330
1F
100
AcDbEntity
  8
0
  6
Continuous
 62
     7
370
     0
100
AcDbLine
 10
10.1489736207
 20
7.7182610185
 30
0.0
 11
10.2055421632
 21
7.750917343
 31
0.0
  0
ARC
  5
28F
330
1F
100
AcDbEntity
  8
0
  6
Continuous
 62
     7
370
     0
100
AcDbCircle
 10
8.8522905482
 20
6.5896825122
 30
0.0
 40
1.719033575962641
100
AcDbArc
 50
40.6715766967
 51
41.0349425223
  0
LINE
  5
290
330
1F
100
AcDbEntity
  8
0
  6
Continuous
 62
     7
370
     0
100
AcDbLine
 10
10.1983159643
 20
7.7343828551
 30
0.0
 11
10.1561048624
 21
7.7100149046
 31
0.0
  0
SPLINE
  5
291
330
1F
100
AcDbEntity
  8
0
  6
Continuous
 62
     7
370
     0
100
AcDbSpline
210
0.0
220
0.0
230
1.0
 70
     8
 71
     3
 72
     8
 73
     4
 74
     0
 42
0.000000001
 43
0.00000001
 40
0.0
 40
0.0
 40
0.0
 40
0.0
 40
1.0
 40
1.0
 40
1.0
 40
1.0
 10
10.18005361963836
 20
7.681532507829012
 30
0.0
 10
10.18621559605957
 20
7.699266394878004
 30
0.0
 10
10.19230142849593
 20
7.716885098967207
 30
0.0
 10
10.19831596434147
 20
7.734382855062619
 30
0.0
  0
ARC
  5
292
330
1F
100
AcDbEntity
  8
0
  6
Continuous
 62
     7
370
     0
100
AcDbCircle
 10
8.8162464432
 20
6.5593618544
 30
0.0
 40
1.766136175304772
100
AcDbArc
 50
39.0711490649
 51
39.4483022062
  0
LINE
  5
293
330
1F
100
AcDbEntity
  8
0
  6
Continuous
 62
     7
370
     0
100
AcDbLine
 10
10.2439793222
 20
7.7051872372
 30
0.0
 11
10.1874107797
 21
7.6725309127
 31
0.0
  0
ARC
  5
294
330
1F
100
AcDbEntity
  8
0
  6
Continuous
 62
     7
370
     0
100
AcDbCircle
 10
8.8725948275
 20
6.5918386638
 30
0.0
 40
1.766420243904008
100
AcDbArc
 50
39.0711687404
 51
39.4280066145
  0
LINE
  5
295
330
1F
100
AcDbEntity
  8
0
  6
Continuous
 62
     7
370
     0
100
AcDbLine
 10
10.1948077383
 20
7.6893386162
 30
0.0
 11
10.2370188403
 21
7.7137065666
 31
0.0
  0
ARC
  5
296
330
1F
100
AcDbEntity
  8
0
  6
Continuous
 62
     7
370
     0
100
AcDbCircle
 10
8.9835910551
 20
6.6998237793
 30
0.0
 40
1.585397968687711
100
AcDbArc
 50
44.2797280712
 51
45.2907901848
  0
LINE
  5
297
330
1F
100
AcDbEntity
  8
0
  6
Continuous
 62
     7
370
     0
100
AcDbLine
 10
10.1251676938
 20
7.8104564668
 30
0.0
 11
10.1186405543
 21
7.8066884294
 31
0.0
  0
ARC
  5
298
330
1F
100
AcDbEntity
  8
0
  6
Continuous
 62
     7
370
     0
100
AcDbCircle
 10
8.9901181946
 20
6.7035918167
 30
0.0
 40
1.585397968704898
100
AcDbArc
 50
44.2797280712
 51
45.2907901848
  0
LINE
  5
299
330
1F
100
AcDbEntity
  8
0
  6
Continuous
 62
     7
370
     0
100
AcDbLine
 10
10.0989327135
 20
7.8265445541
 30
0.0
 11
10.105459853
 21
7.8303125915
 31
0.0
  0
SPLINE
  5
29A
330
1F
100
AcDbEntity
  8
0
  6
Continuous
 62
     7
370
     0
100
AcDbSpline
210
0.0
220
0.0
230
1.0
 70
     8
 71
     3
 72
    15
 73
    11
 74
     0
 42
0.000000001
 43
0.00000001
 40
0.0
 40
0.0
 40
0.0
 40
0.0
 40
0.0626761947927331
 40
0.1253392690170716
 40
0.2504957453420728
 40
0.499217202846087
 40
0.6369416197774116
 40
0.7852085601041372
 40
0.8925889660601175
 40
1.0
 40
1.0
 40
1.0
 40
1.0
 10
9.978567566044196
 20
7.885896178699444
 30
0.0
 10
9.977685115170035
 20
7.886669488816224
 30
0.0
 10
9.975920398153043
 20
7.888215947165864
 30
0.0
 10
9.97286855360406
 20
7.891523020166773
 30
0.0
 10
9.968631869672592
 20
7.897632835078644
 30
0.0
 10
9.966861236723236
 20
7.905401035496589
 30
0.0
 10
9.969097914282203
 20
7.9127558940489
 30
0.0
 10
9.972566575881716
 20
7.917549317355292
 30
0.0
 10
9.976845199499158
 20
7.921411443811149
 30
0.0
 10
9.979921123034385
 20
7.923325872692009
 30
0.0
 10
9.981459304106215
 20
7.924283223625534
 30
0.0
  0
SPLINE
  5
29B
330
1F
100
AcDbEntity
  8
0
  6
Continuous
 62
     7
370
     0
100
AcDbSpline
210
0.0
220
0.0
230
1.0
 70
     8
 71
     3
 72
    17
 73
    13
 74
     0
 42
0.000000001
 43
0.00000001
 40
0.0
 40
0.0
 40
0.0
 40
0.0
 40
0.0625872523498943
 40
0.1251621031372413
 40
0.2502151565809138
 40
0.3769364927852128
 40
0.50010103143634
 40
0.6250388192668234
 40
0.7499288092933253
 40
0.874855559110974
 40
0.9374185878447033
 40
0.9999999999999999
 40
0.9999999999999999
 40
0.9999999999999999
 40
0.9999999999999999
 10
10.03439086422325
 20
7.88051011161924
 30
0.0
 10
10.03343338933194
 20
7.879979340400863
 30
0.0
 10
10.03151862927142
 20
7.878917903135563
 30
0.0
 10
10.02744273581188
 20
7.877033867753074
 30
0.0
 10
10.0218844197598
 20
7.875136325426191
 30
0.0
 10
10.01456736683768
 20
7.873884874943324
 30
0.0
 10
10.00675730066349
 20
7.87392307017518
 30
0.0
 10
9.998888424938489
 20
7.875227996719754
 30
0.0
 10
9.99125868653141
 20
7.877743381674045
 30
0.0
 10
9.985534434151234
 20
7.880805095684762
 30
0.0
 10
9.98138709676207
 20
7.883603904320903
 30
0.0
 10
9.979507501652844
 20
7.885132012414779
 30
0.0
 10
9.978567566044196
 20
7.885896178699444
 30
0.0
  0
SPLINE
  5
29C
330
1F
100
AcDbEntity
  8
0
  6
Continuous
 62
     7
370
     0
100
AcDbSpline
210
0.0
220
0.0
230
1.0
 70
     8
 71
     3
 72
    17
 73
    13
 74
     0
 42
0.000000001
 43
0.00000001
 40
0.0
 40
0.0
 40
0.0
 40
0.0
 40
0.0625735814875132
 40
0.1251438344973339
 40
0.2500878788322734
 40
0.3750376600705211
 40
0.4999484912518449
 40
0.6426403265606602
 40
0.7498323494477058
 40
0.8748525257198551
 40
0.9374292607999338
 40
1.0
 40
1.0
 40
1.0
 40
1.0
 10
10.03661970367643
 20
7.919361871773284
 30
0.0
 10
10.03748456117386
 20
7.918600918822838
 30
0.0
 10
10.03921423016432
 20
7.917079053399331
 30
0.0
 10
10.04222274727359
 20
7.913805670109147
 30
0.0
 10
10.04519605463537
 20
7.909406934687777
 30
0.0
 10
10.04724063508664
 20
7.903846452593369
 30
0.0
 10
10.04766535524574
 20
7.898003081982283
 30
0.0
 10
10.04622263444226
 20
7.892712501912431
 30
0.0
 10
10.04331682947365
 20
7.887961155081046
 30
0.0
 10
10.04021100828919
 20
7.884624556660472
 30
0.0
 10
10.03705963663121
 20
7.882136360626754
 30
0.0
 10
10.03528042661161
 20
7.881052177307151
 30
0.0
 10
10.03439086422325
 20
7.88051011161924
 30
0.0
  0
SPLINE
  5
29D
330
1F
100
AcDbEntity
  8
0
  6
Continuous
 62
     7
370
     0
100
AcDbSpline
210
0.0
220
0.0
230
1.0
 70
     8
 71
     3
 72
    16
 73
    12
 74
     0
 42
0.000000001
 43
0.00000001
 40
0.0
 40
0.0
 40
0.0
 40
0.0
 40
0.0626649867820319
 40
0.1253199439526125
 40
0.2505126252439739
 40
0.4994724275635253
 40
0.6206389663330976
 40
0.7495739117792445
 40
0.8746967496057068
 40
0.9373438300020088
 40
1.0
 40
1.0
 40
1.0
 40
1.0
 10
9.981459304106215
 20
7.924283223625534
 30
0.0
 10
9.982400260134083
 20
7.924802867846633
 30
0.0
 10
9.984282021588605
 20
7.925842073119108
 30
0.0
 10
9.98835615501269
 20
7.927644572086984
 30
0.0
 10
9.99604444477236
 20
7.930153058710813
 30
0.0
 10
10.00619796966599
 20
7.931197371288731
 30
0.0
 10
10.01655893685436
 20
7.929603414155327
 30
0.0
 10
10.0239967550475
 20
7.927155044123943
 30
0.0
 10
10.0297412507616
 20
7.924281447429029
 30
0.0
 10
10.0338469002193
 20
7.921598300604394
 30
0.0
 10
10.03569539116036
 20
7.920107384101095
 30
0.0
 10
10.03661970367643
 20
7.919361871773284
 30
0.0
  0
ARC
  5
29E
330
1F
100
AcDbEntity
  8
0
  6
Continuous
 62
     7
370
     0
100
AcDbCircle
 10
9.2428081328
 20
7.0424334398
 30
0.0
 40
1.11911853891112
100
AcDbArc
 50
57.2130112237
 51
57.7372975116
  0
SPLINE
  5
29F
330
1F
100
AcDbEntity
  8
0
  6
Continuous
 62
     7
370
     0
100
AcDbSpline
210
0.0
220
0.0
230
1.0
 70
     8
 71
     3
 72
     8
 73
     4
 74
     0
 42
0.000000001
 43
0.00000001
 40
0.0
 40
0.0
 40
0.0
 40
0.0
 40
1.0
 40
1.0
 40
1.0
 40
1.0
 10
9.9047625464437
 20
7.996583159112794
 30
0.0
 10
9.886122046970453
 20
7.99220030836213
 30
0.0
 10
9.86747759444101
 20
7.987761060338848
 30
0.0
 10
9.84883019710492
 20
7.983264754023049
 30
0.0
  0
SPLINE
  5
2A0
330
1F
100
AcDbEntity
  8
0
  6
Continuous
 62
     7
370
     0
100
AcDbSpline
210
0.0
220
0.0
230
1.0
 70
     8
 71
     3
 72
     9
 73
     5
 74
     0
 42
0.000000001
 43
0.00000001
 40
0.0
 40
0.0
 40
0.0
 40
0.0
 40
0.4999996840328779
 40
1.0
 40
1.0
 40
1.0
 40
1.0
 10
9.916957209033747
 20
7.999806583825936
 30
0.0
 10
9.914956773701864
 20
7.99922852348085
 30
0.0
 10
9.910955900509805
 20
7.998072402060084
 30
0.0
 10
9.906826998668802
 20
7.997079573637691
 30
0.0
 10
9.9047625464437
 20
7.996583159112794
 30
0.0
  0
SPLINE
  5
2A1
330
1F
100
AcDbEntity
  8
0
  6
Continuous
 62
     7
370
     0
100
AcDbSpline
210
0.0
220
0.0
230
1.0
 70
     8
 71
     3
 72
     9
 73
     5
 74
     0
 42
0.000000001
 43
0.00000001
 40
0.0
 40
0.0
 40
0.0
 40
0.0
 40
0.5154276969651811
 40
1.0
 40
1.0
 40
1.0
 40
1.0
 10
9.910917829544115
 20
7.992448445295939
 30
0.0
 10
9.911898657873737
 20
7.993733758980193
 30
0.0
 10
9.913801598548824
 20
7.996227442753538
 30
0.0
 10
9.915927200972142
 20
7.998638333125857
 30
0.0
 10
9.916957209033747
 20
7.999806583825936
 30
0.0
  0
SPLINE
  5
2A2
330
1F
100
AcDbEntity
  8
0
  6
Continuous
 62
     7
370
     0
100
AcDbSpline
210
0.0
220
0.0
230
1.0
 70
     8
 71
     3
 72
     8
 73
     4
 74
     0
 42
0.000000001
 43
0.00000001
 40
0.0
 40
0.0
 40
0.0
 40
0.0
 40
1.0
 40
1.0
 40
1.0
 40
1.0
 10
9.88569082066859
 20
7.958505151058357
 30
0.0
 10
9.894104827083883
 20
7.969875003348203
 30
0.0
 10
9.902513496933482
 20
7.981189663895715
 30
0.0
 10
9.910917829544115
 20
7.992448445295939
 30
0.0
  0
ARC
  5
2A3
330
1F
100
AcDbEntity
  8
0
  6
Continuous
 62
     7
370
     0
100
AcDbCircle
 10
9.1906463415
 20
6.9647654782
 30
0.0
 40
1.21268518811551
100
AcDbArc
 50
54.5332109564
 51
55.0301697943
  0
SPLINE
  5
2A4
330
1F
100
AcDbEntity
  8
0
  6
Continuous
 62
     7
370
     0
100
AcDbSpline
210
0.0
220
0.0
230
1.0
 70
     8
 71
     3
 72
     8
 73
     4
 74
     0
 42
0.000000001
 43
0.00000001
 40
0.0
 40
0.0
 40
0.0
 40
0.0
 40
1.0
 40
1.0
 40
1.0
 40
1.0
 10
9.928160327776304
 20
8.000872678905543
 30
0.0
 10
9.916878953869503
 20
7.984850145130726
 30
0.0
 10
9.905587874550715
 20
7.96870494211458
 30
0.0
 10
9.89428383698714
 20
7.952439331442722
 30
0.0
  0
ARC
  5
2A5
330
1F
100
AcDbEntity
  8
0
  6
Continuous
 62
     7
370
     0
100
AcDbCircle
 10
9.2737941344
 20
7.0360121764
 30
0.0
 40
1.165826275341335
100
AcDbArc
 50
55.8549690714
 51
56.3651567342
  0
SPLINE
  5
2A6
330
1F
100
AcDbEntity
  8
0
  6
Continuous
 62
     7
370
     0
100
AcDbSpline
210
0.0
220
0.0
230
1.0
 70
     8
 71
     3
 72
     8
 73
     4
 74
     0
 42
0.000000001
 43
0.00000001
 40
0.0
 40
0.0
 40
0.0
 40
0.0
 40
1.0
 40
1.0
 40
1.0
 40
1.0
 10
9.840195848099164
 20
7.988770706241953
 30
0.0
 10
9.866651179011871
 20
7.994859213439246
 30
0.0
 10
9.893101300104366
 20
8.000821979977246
 30
0.0
 10
9.919542942899277
 20
8.006661124604737
 30
0.0
  0
SPLINE
  5
2A7
330
1F
100
AcDbEntity
  8
0
  6
Continuous
 62
     7
370
     0
100
AcDbSpline
210
0.0
220
0.0
230
1.0
 70
     8
 71
     3
 72
     8
 73
     4
 74
     0
 42
0.000000001
 43
0.00000001
 40
0.0
 40
0.0
 40
0.0
 40
0.0
 40
1.0
 40
1.0
 40
1.0
 40
1.0
 10
9.796497942636583
 20
8.052098755914479
 30
0.0
 10
9.798679999932435
 20
8.052388469412588
 30
0.0
 10
9.800862136555546
 20
8.052676384816653
 30
0.0
 10
9.803044347310218
 20
8.05296250482273
 30
0.0
  0
SPLINE
  5
2A8
330
1F
100
AcDbEntity
  8
0
  6
Continuous
 62
     7
370
     0
100
AcDbSpline
210
0.0
220
0.0
230
1.0
 70
     8
 71
     3
 72
     8
 73
     4
 74
     0
 42
0.000000001
 43
0.00000001
 40
0.0
 40
0.0
 40
0.0
 40
0.0
 40
1.0
 40
1.0
 40
1.0
 40
1.0
 10
9.797543824151047
 20
8.055236726751364
 30
0.0
 10
9.797195134314293
 20
8.054192105966191
 30
0.0
 10
9.796846508292301
 20
8.053146115095018
 30
0.0
 10
9.796497942636583
 20
8.052098755914479
 30
0.0
  0
SPLINE
  5
2A9
330
1F
100
AcDbEntity
  8
0
  6
Continuous
 62
     7
370
     0
100
AcDbSpline
210
0.0
220
0.0
230
1.0
 70
     8
 71
     3
 72
     8
 73
     4
 74
     0
 42
0.000000001
 43
0.00000001
 40
0.0
 40
0.0
 40
0.0
 40
0.0
 40
1.0
 40
1.0
 40
1.0
 40
1.0
 10
9.8037934292748
 20
8.073690258694864
 30
0.0
 10
9.80170750752161
 20
8.067587450737298
 30
0.0
 10
9.799624544983802
 20
8.061436153071174
 30
0.0
 10
9.797543824151047
 20
8.055236726751364
 30
0.0
  0
ARC
  5
2AA
330
1F
100
AcDbEntity
  8
0
  6
Continuous
 62
     7
370
     0
100
AcDbCircle
 10
9.3983944728
 20
7.2513142399
 30
0.0
 40
0.9168700181506457
100
AcDbArc
 50
63.7585198937
 51
64.4248112112
  0
SPLINE
  5
2AB
330
1F
100
AcDbEntity
  8
0
  6
Continuous
 62
     7
370
     0
100
AcDbSpline
210
0.0
220
0.0
230
1.0
 70
     8
 71
     3
 72
     8
 73
     4
 74
     0
 42
0.000000001
 43
0.00000001
 40
0.0
 40
0.0
 40
0.0
 40
0.0
 40
1.0
 40
1.0
 40
1.0
 40
1.0
 10
9.7847088548094
 20
8.050525193483733
 30
0.0
 10
9.787867212264873
 20
8.059911319563946
 30
0.0
 10
9.79103103745484
 20
8.069186309397976
 30
0.0
 10
9.79420284142165
 20
8.078348922079627
 30
0.0
  0
SPLINE
  5
2AC
330
1F
100
AcDbEntity
  8
0
  6
Continuous
 62
     7
370
     0
100
AcDbSpline
210
0.0
220
0.0
230
1.0
 70
     8
 71
     3
 72
     8
 73
     4
 74
     0
 42
0.000000001
 43
0.00000001
 40
0.0
 40
0.0
 40
0.0
 40
0.0
 40
1.0
 40
1.0
 40
1.0
 40
1.0
 10
9.7405251601118
 20
8.044302866875725
 30
0.0
 10
9.75524793319549
 20
8.046459940160405
 30
0.0
 10
9.769976366207727
 20
8.04853378359505
 30
0.0
 10
9.7847088548094
 20
8.050525193483733
 30
0.0
  0
ARC
  5
2AD
330
1F
100
AcDbEntity
  8
0
  6
Continuous
 62
     7
370
     0
100
AcDbCircle
 10
9.3393591859
 20
7.213602237
 30
0.0
 40
0.9224953524415567
100
AcDbArc
 50
63.5507714547
 51
64.2229489468
  0
SPLINE
  5
2AE
330
1F
100
AcDbEntity
  8
0
  6
Continuous
 62
     7
370
     0
100
AcDbSpline
210
0.0
220
0.0
230
1.0
 70
     8
 71
     3
 72
     8
 73
     4
 74
     0
 42
0.000000001
 43
0.00000001
 40
0.0
 40
0.0
 40
0.0
 40
0.0
 40
1.0
 40
1.0
 40
1.0
 40
1.0
 10
9.77439428710417
 20
8.042859449455243
 30
0.0
 10
9.766342559062853
 20
8.041777401415056
 30
0.0
 10
9.758291999232336
 20
8.040670777799226
 30
0.0
 10
9.750242869248753
 20
8.03953944653791
 30
0.0
  0
SPLINE
  5
2AF
330
1F
100
AcDbEntity
  8
0
  6
Continuous
 62
     7
370
     0
100
AcDbSpline
210
0.0
220
0.0
230
1.0
 70
     8
 71
     3
 72
     8
 73
     4
 74
     0
 42
0.000000001
 43
0.00000001
 40
0.0
 40
0.0
 40
0.0
 40
0.0
 40
1.0
 40
1.0
 40
1.0
 40
1.0
 10
9.783465700946836
 20
8.044067552671027
 30
0.0
 10
9.780441740795302
 20
8.043668313365052
 30
0.0
 10
9.777417931558418
 20
8.043265614673158
 30
0.0
 10
9.77439428710417
 20
8.042859449455243
 30
0.0
  0
SPLINE
  5
2B0
330
1F
100
AcDbEntity
  8
0
  6
Continuous
 62
     7
370
     0
100
AcDbSpline
210
0.0
220
0.0
230
1.0
 70
     8
 71
     3
 72
    12
 73
     8
 74
     0
 42
0.000000001
 43
0.00000001
 40
0.0
 40
0.0
 40
0.0
 40
0.0
 40
0.5002192200952849
 40
0.7502916379679826
 40
0.8753235573824935
 40
0.9381223094069828
 40
1.0
 40
1.0
 40
1.0
 40
1.0
 10
9.78100305943301
 20
8.039430001496344
 30
0.0
 10
9.781279458987129
 20
8.040225257461158
 30
0.0
 10
9.781694037767513
 20
8.041418082279703
 30
0.0
 10
9.782354610337832
 20
8.042790643661762
 30
0.0
 10
9.782764145221147
 20
8.043466390238619
 30
0.0
 10
9.7831005697302
 20
8.043833917592918
 30
0.0
 10
9.783344591454057
 20
8.04399005881535
 30
0.0
 10
9.783465700946836
 20
8.044067552671027
 30
0.0
  0
SPLINE
  5
2B1
330
1F
100
AcDbEntity
  8
0
  6
Continuous
 62
     7
370
     0
100
AcDbSpline
210
0.0
220
0.0
230
1.0
 70
     8
 71
     3
 72
     8
 73
     4
 74
     0
 42
0.000000001
 43
0.00000001
 40
0.0
 40
0.0
 40
0.0
 40
0.0
 40
1.0
 40
1.0
 40
1.0
 40
1.0
 10
9.776541076649066
 20
8.025941366974651
 30
0.0
 10
9.778027582044967
 20
8.030462138977905
 30
0.0
 10
9.779514821422726
 20
8.034958397180247
 30
0.0
 10
9.78100305943301
 20
8.039430001496344
 30
0.0
  0
ARC
  5
2B2
330
1F
100
AcDbEntity
  8
0
  6
Continuous
 62
     7
370
     0
100
AcDbCircle
 10
9.3073440222
 20
7.1516856356
 30
0.0
 40
0.9922040918241175
100
AcDbArc
 50
61.1469797468
 51
61.7783585911
  0
SPLINE
  5
2B3
330
1F
100
AcDbEntity
  8
0
  6
Continuous
 62
     7
370
     0
100
AcDbSpline
210
0.0
220
0.0
230
1.0
 70
     8
 71
     3
 72
     8
 73
     4
 74
     0
 42
0.000000001
 43
0.00000001
 40
0.0
 40
0.0
 40
0.0
 40
0.0
 40
1.0
 40
1.0
 40
1.0
 40
1.0
 10
9.79428235438144
 20
8.045476769481176
 30
0.0
 10
9.79156770546254
 20
8.037305548286133
 30
0.0
 10
9.788856248848244
 20
8.029052339838584
 30
0.0
 10
9.786146377213825
 20
8.020718008172409
 30
0.0
  0
SPLINE
  5
2B4
330
1F
100
AcDbEntity
  8
0
  6
Continuous
 62
     7
370
     0
100
AcDbSpline
210
0.0
220
0.0
230
1.0
 70
     8
 71
     3
 72
     8
 73
     4
 74
     0
 42
0.000000001
 43
0.00000001
 40
0.0
 40
0.0
 40
0.0
 40
0.0
 40
1.0
 40
1.0
 40
1.0
 40
1.0
 10
9.845615232338025
 20
8.051770192874514
 30
0.0
 10
9.828501646672386
 20
8.049782014253381
 30
0.0
 10
9.811389848618319
 20
8.047684659134465
 30
0.0
 10
9.79428235438144
 20
8.045476769481176
 30
0.0
  0
ARC
  5
2B5
330
1F
100
AcDbEntity
  8
0
  6
Continuous
 62
     7
370
     0
100
AcDbCircle
 10
9.3612340761
 20
7.179435006
 30
0.0
 40
0.9977944591952295
100
AcDbArc
 50
60.9579200213
 51
61.5950977888
  0
SPLINE
  5
2B6
330
1F
100
AcDbEntity
  8
0
  6
Continuous
 62
     7
370
     0
100
AcDbSpline
210
0.0
220
0.0
230
1.0
 70
     8
 71
     3
 72
     8
 73
     4
 74
     0
 42
0.000000001
 43
0.00000001
 40
0.0
 40
0.0
 40
0.0
 40
0.0
 40
1.0
 40
1.0
 40
1.0
 40
1.0
 10
9.803044347310218
 20
8.05296250482273
 30
0.0
 10
9.813989369615241
 20
8.054387855487395
 30
0.0
 10
9.824936264222657
 20
8.055767860561641
 30
0.0
 10
9.835884371366312
 20
8.057102870274623
 30
0.0
  0
LINE
  5
2B7
330
1F
100
AcDbEntity
  8
0
  6
Continuous
 62
     7
370
     0
100
AcDbLine
 10
9.7136498154
 20
8.0807062642
 30
0.0
 11
9.7063974381
 21
8.0765195559
 31
0.0
  0
ARC
  5
2B8
330
1F
100
AcDbEntity
  8
0
  6
Continuous
 62
     7
370
     0
100
AcDbCircle
 10
9.4173096004
 20
7.3513634658
 30
0.0
 40
0.7872473820290217
100
AcDbArc
 50
67.8875374089
 51
70.7231332177
  0
LINE
  5
2B9
330
1F
100
AcDbEntity
  8
0
  6
Continuous
 62
     7
370
     0
100
AcDbLine
 10
9.6699538036
 20
8.0902865799
 30
0.0
 11
9.6772061808
 21
8.0944732881
 31
0.0
  0
ARC
  5
2BA
330
1F
100
AcDbEntity
  8
0
  6
Continuous
 62
     7
370
     0
100
AcDbCircle
 10
9.4100572232
 20
7.3471767576
 30
0.0
 40
0.7872473820290494
100
AcDbArc
 50
67.8875374089
 51
70.7231332177
  0
SPLINE
  5
2BB
330
1F
100
AcDbEntity
  8
0
  6
Continuous
 62
     7
370
     0
100
AcDbSpline
210
0.0
220
0.0
230
1.0
 70
     8
 71
     3
 72
    13
 73
     9
 74
     0
 42
0.000000001
 43
0.00000001
 40
0.0
 40
0.0
 40
0.0
 40
0.0
 40
0.1250710524897536
 40
0.2501213755201641
 40
0.500071459575118
 40
0.7499678126074907
 40
0.8749906036692509
 40
1.0
 40
1.0
 40
1.0
 40
1.0
 10
9.654630090725199
 20
8.093159052470417
 30
0.0
 10
9.653445105059891
 20
8.093178032229828
 30
0.0
 10
9.651075330130539
 20
8.093215988602916
 30
0.0
 10
9.64623675981266
 20
8.093108685745348
 30
0.0
 10
9.640051270714634
 20
8.092659093287105
 30
0.0
 10
9.633802585550427
 20
8.091782590501145
 30
0.0
 10
9.62883158375432
 20
8.09081832909624
 30
0.0
 10
9.626432509759548
 20
8.090159841260514
 30
0.0
 10
9.625233037023788
 20
8.089830614980913
 30
0.0
  0
LINE
  5
2BC
330
1F
100
AcDbEntity
  8
0
  6
Continuous
 62
     7
370
     0
100
AcDbLine
 10
9.661315876
 20
8.0970186742
 30
0.0
 11
9.6546300907
 21
8.0931590525
 31
0.0
  0
SPLINE
  5
2BD
330
1F
100
AcDbEntity
  8
0
  6
Continuous
 62
     7
370
     0
100
AcDbSpline
210
0.0
220
0.0
230
1.0
 70
     8
 71
     3
 72
    13
 73
     9
 74
     0
 42
0.000000001
 43
0.00000001
 40
0.0
 40
0.0
 40
0.0
 40
0.0
 40
0.1250131719674685
 40
0.2500192439134474
 40
0.4999856528643476
 40
0.7500043584872216
 40
0.8671891874135252
 40
1.0
 40
1.0
 40
1.0
 40
1.0
 10
9.640236286894627
 20
8.096267861497644
 30
0.0
 10
9.64114244627057
 20
8.096386436571606
 30
0.0
 10
9.64295471355787
 20
8.096623579985154
 30
0.0
 10
9.646554637947087
 20
8.09693691927044
 30
0.0
 10
9.651002011064502
 20
8.097166310903717
 30
0.0
 10
9.655319621791326
 20
8.097224993728954
 30
0.0
 10
9.658752034600074
 20
8.09716000782107
 30
0.0
 10
9.660426377254582
 20
8.097067708434109
 30
0.0
 10
9.661315875996031
 20
8.097018674152912
 30
0.0
  0
LINE
  5
2BE
330
1F
100
AcDbEntity
  8
0
  6
Continuous
 62
     7
370
     0
100
AcDbLine
 10
9.6843171423
 20
8.1217151977
 30
0.0
 11
9.6402362869
 21
8.0962678615
 31
0.0
  0
ARC
  5
2BF
330
1F
100
AcDbEntity
  8
0
  6
Continuous
 62
     7
370
     0
100
AcDbCircle
 10
9.4754546926
 20
7.4454009277
 30
0.0
 40
0.7078308517435596
100
AcDbArc
 50
72.838027842
 51
73.4348644809
  0
LINE
  5
2C0
330
1F
100
AcDbEntity
  8
0
  6
Continuous
 62
     7
370
     0
100
AcDbLine
 10
9.6206923892
 20
8.091197812
 30
0.0
 11
9.6772609317
 21
8.1238541365
 31
0.0
  0
ARC
  5
2C1
330
1F
100
AcDbEntity
  8
0
  6
Continuous
 62
     7
370
     0
100
AcDbCircle
 10
9.4194701791
 20
7.4146877626
 30
0.0
 40
0.7058018311218429
100
AcDbArc
 50
73.0503846925
 51
73.4353340818
  0
SPLINE
  5
2C2
330
1F
100
AcDbEntity
  8
0
  6
Continuous
 62
     7
370
     0
100
AcDbSpline
210
0.0
220
0.0
230
1.0
 70
     8
 71
     3
 72
    16
 73
    12
 74
     0
 42
0.000000001
 43
0.00000001
 40
0.0
 40
0.0
 40
0.0
 40
0.0
 40
0.1252094946983331
 40
0.2504046739963295
 40
0.3833289736378069
 40
0.5006376999517099
 40
0.6312680262732778
 40
0.750198214743271
 40
0.8748506031236496
 40
0.9374183744277211
 40
1.0
 40
1.0
 40
1.0
 40
1.0
 10
9.555909704512187
 20
8.128232435915507
 30
0.0
 10
9.557530925609928
 20
8.129153270202893
 30
0.0
 10
9.56077318244863
 20
8.13099483349722
 30
0.0
 10
9.566074189992383
 20
8.133756007769158
 30
0.0
 10
9.571626480589067
 20
8.136370169733699
 30
0.0
 10
9.577716197794306
 20
8.138835703480689
 30
0.0
 10
9.58404027533924
 20
8.140881559366498
 30
0.0
 10
9.590703207724356
 20
8.142306384434205
 30
0.0
 10
9.595684942221196
 20
8.142637450164655
 30
0.0
 10
9.599228142942458
 20
8.142492831201714
 30
0.0
 10
9.600777928615374
 20
8.142264303675901
 30
0.0
 10
9.601552907233891
 20
8.142150027263787
 30
0.0
  0
SPLINE
  5
2C3
330
1F
100
AcDbEntity
  8
0
  6
Continuous
 62
     7
370
     0
100
AcDbSpline
210
0.0
220
0.0
230
1.0
 70
     8
 71
     3
 72
    15
 73
    11
 74
     0
 42
0.000000001
 43
0.00000001
 40
0.0
 40
0.0
 40
0.0
 40
0.0
 40
0.0626310590473276
 40
0.125223928024668
 40
0.2500458433027671
 40
0.374620479101951
 40
0.4996116293767756
 40
0.7494432638969601
 40
0.8747101358354902
 40
1.0
 40
1.0
 40
1.0
 40
1.0
 10
9.544259127014673
 20
8.109075031964302
 30
0.0
 10
9.543528721630258
 20
8.10921531981167
 30
0.0
 10
9.542068356235228
 20
8.10949580996414
 30
0.0
 10
9.539708469714764
 20
8.110323907709436
 30
0.0
 10
9.537734338741796
 20
8.111765454996407
 30
0.0
 10
9.537641528233191
 20
8.114177200723217
 30
0.0
 10
9.540601443417083
 20
8.117882385455339
 30
0.0
 10
9.545276158656396
 20
8.121701700202431
 30
0.0
 10
9.551161035274562
 20
8.125452745587257
 30
0.0
 10
9.55432671793383
 20
8.127305815790708
 30
0.0
 10
9.555909704512187
 20
8.128232435915507
 30
0.0
  0
SPLINE
  5
2C4
330
1F
100
AcDbEntity
  8
0
  6
Continuous
 62
     7
370
     0
100
AcDbSpline
210
0.0
220
0.0
230
1.0
 70
     8
 71
     3
 72
    17
 73
    13
 74
     0
 42
0.000000001
 43
0.00000001
 40
0.0
 40
0.0
 40
0.0
 40
0.0
 40
0.1251519328702337
 40
0.2502835494578053
 40
0.3838490249499546
 40
0.5004249589583363
 40
0.6316909228108598
 40
0.7498767247056218
 40
0.8123958244714861
 40
0.8749120167803354
 40
0.9374477308667312
 40
1.0
 40
1.0
 40
1.0
 40
1.0
 10
9.590088723278043
 20
8.122477325833382
 30
0.0
 10
9.588467359780282
 20
8.121556617119484
 30
0.0
 10
9.58522489598548
 20
8.119715349153054
 30
0.0
 10
9.579889158523336
 20
8.11697761739915
 30
0.0
 10
9.574332742158903
 20
8.114405804126042
 30
0.0
 10
9.568203665004527
 20
8.112018977191685
 30
0.0
 10
9.561851789509545
 20
8.110081940340477
 30
0.0
 10
9.556271370759443
 20
8.10902372786888
 30
0.0
 10
9.552176030434874
 20
8.108633905679007
 30
0.0
 10
9.549274552505457
 20
8.10859787839931
 30
0.0
 10
9.546585293668203
 20
8.108725195605679
 30
0.0
 10
9.545034584309875
 20
8.108958409556356
 30
0.0
 10
9.544259127014673
 20
8.109075031964302
 30
0.0
  0
SPLINE
  5
2C5
330
1F
100
AcDbEntity
  8
0
  6
Continuous
 62
     7
370
     0
100
AcDbSpline
210
0.0
220
0.0
230
1.0
 70
     8
 71
     3
 72
    12
 73
     8
 74
     0
 42
0.000000001
 43
0.00000001
 40
0.0
 40
0.0
 40
0.0
 40
0.0
 40
0.1249981962352804
 40
0.2500181853098288
 40
0.4998430509921692
 40
0.7498766505114253
 40
1.0
 40
1.0
 40
1.0
 40
1.0
 10
9.608046353201669
 20
8.136866584718708
 30
0.0
 10
9.607747063199286
 20
8.136281714582672
 30
0.0
 10
9.607148431014737
 20
8.13511187234128
 30
0.0
 10
9.60494727159838
 20
8.132671406774346
 30
0.0
 10
9.601317209454988
 20
8.129607581808214
 30
0.0
 10
9.596031174774874
 20
8.125991446334387
 30
0.0
 10
9.592069777392803
 20
8.123648839455663
 30
0.0
 10
9.590088723278043
 20
8.122477325833382
 30
0.0
  0
SPLINE
  5
2C6
330
1F
100
AcDbEntity
  8
0
  6
Continuous
 62
     7
370
     0
100
AcDbSpline
210
0.0
220
0.0
230
1.0
 70
     8
 71
     3
 72
    12
 73
     8
 74
     0
 42
0.000000001
 43
0.00000001
 40
0.0
 40
0.0
 40
0.0
 40
0.0
 40
0.2501121538982759
 40
0.5000209053225353
 40
0.7497559520083898
 40
0.8748533096535145
 40
1.0
 40
1.0
 40
1.0
 40
1.0
 10
9.601552907233891
 20
8.142150027263787
 30
0.0
 10
9.602620566260338
 20
8.141929892433206
 30
0.0
 10
9.604755016044804
 20
8.14148980179561
 30
0.0
 10
9.607047255188712
 20
8.140345456382219
 30
0.0
 10
9.608011797723199
 20
8.139039134490767
 30
0.0
 10
9.608253374705582
 20
8.137846609683892
 30
0.0
 10
9.60811536943835
 20
8.13719330263773
 30
0.0
 10
9.608046353201669
 20
8.136866584718708
 30
0.0
  0
SPLINE
  5
2C7
330
1F
100
AcDbEntity
  8
0
  6
Continuous
 62
     7
370
     0
100
AcDbSpline
210
0.0
220
0.0
230
1.0
 70
     8
 71
     3
 72
    16
 73
    12
 74
     0
 42
0.000000001
 43
0.00000001
 40
0.0
 40
0.0
 40
0.0
 40
0.0
 40
0.0625970617097769
 40
0.1251497037902944
 40
0.2500363750334746
 40
0.3752748441815108
 40
0.4995205038010646
 40
0.6423186562678884
 40
0.7853466580361355
 40
0.8840246588224775
 40
1.0
 40
1.0
 40
1.0
 40
1.0
 10
9.465272170709694
 20
8.128687837597791
 30
0.0
 10
9.465651483937412
 20
8.128703924206008
 30
0.0
 10
9.46640984122761
 20
8.12873608600719
 30
0.0
 10
9.468183119724435
 20
8.1289585238056
 30
0.0
 10
9.470687423545213
 20
8.129444356880999
 30
0.0
 10
9.473982860041406
 20
8.130348470590716
 30
0.0
 10
9.477477857213975
 20
8.131606648211925
 30
0.0
 10
9.48084780274126
 20
8.133108739432533
 30
0.0
 10
9.483689650592574
 20
8.134563679749675
 30
0.0
 10
9.486203972782931
 20
8.135924252936917
 30
0.0
 10
9.487631689738416
 20
8.136742342475003
 30
0.0
 10
9.488403072841527
 20
8.137184349165539
 30
0.0
  0
SPLINE
  5
2C8
330
1F
100
AcDbEntity
  8
0
  6
Continuous
 62
     7
370
     0
100
AcDbSpline
210
0.0
220
0.0
230
1.0
 70
     8
 71
     3
 72
    14
 73
    10
 74
     0
 42
0.000000001
 43
0.00000001
 40
0.0
 40
0.0
 40
0.0
 40
0.0
 40
0.1962429597026371
 40
0.3614928809182678
 40
0.5004684503041723
 40
0.6266180396398238
 40
0.7498473153958762
 40
0.8499254015606563
 40
1.0
 40
1.0
 40
1.0
 40
1.0
 10
9.46828480373089
 20
8.133786342860152
 30
0.0
 10
9.467446990657061
 20
8.133289126738559
 30
0.0
 10
9.465903681984033
 20
8.132373220820172
 30
0.0
 10
9.4641088438866
 20
8.131134910748964
 30
0.0
 10
9.462966627547686
 20
8.130136180860172
 30
0.0
 10
9.46254886449816
 20
8.129380733946688
 30
0.0
 10
9.46288963070968
 20
8.128939654764649
 30
0.0
 10
9.463794450546477
 20
8.128696952577547
 30
0.0
 10
9.464718064906577
 20
8.128691255473045
 30
0.0
 10
9.465272170709694
 20
8.128687837597791
 30
0.0
  0
LINE
  5
2C9
330
1F
100
AcDbEntity
  8
0
  6
Continuous
 62
     7
370
     0
100
AcDbLine
 10
9.4946539941
 20
8.1490089524
 30
0.0
 11
9.4682848037
 21
8.1337863429
 31
0.0
  0
ARC
  5
2CA
330
1F
100
AcDbEntity
  8
0
  6
Continuous
 62
     7
370
     0
100
AcDbCircle
 10
9.5121928088
 20
7.6884410485
 30
0.0
 40
0.4609017293750509
100
AcDbArc
 50
92.1808178967
 51
92.9752744214
  0
LINE
  5
2CB
330
1F
100
AcDbEntity
  8
0
  6
Continuous
 62
     7
370
     0
100
AcDbLine
 10
9.4646881466
 20
8.1351081512
 30
0.0
 11
9.4882697045
 21
8.1487214948
 31
0.0
  0
SPLINE
  5
2CC
330
1F
100
AcDbEntity
  8
0
  6
Continuous
 62
     7
370
     0
100
AcDbSpline
210
0.0
220
0.0
230
1.0
 70
     8
 71
     3
 72
    13
 73
     9
 74
     0
 42
0.000000001
 43
0.00000001
 40
0.0
 40
0.0
 40
0.0
 40
0.0
 40
0.1431483331898697
 40
0.2861300558850401
 40
0.4997986267800817
 40
0.7490771388913444
 40
0.8745090927370407
 40
0.9999999999999999
 40
0.9999999999999999
 40
0.9999999999999999
 40
0.9999999999999999
 10
9.444284274484604
 20
8.127688569800714
 30
0.0
 10
9.445058838739591
 20
8.127766919391476
 30
0.0
 10
9.446607065733424
 20
8.127923527381833
 30
0.0
 10
9.45008534957387
 20
8.128707521927165
 30
0.0
 10
9.454859100995778
 20
8.130207764930072
 30
0.0
 10
9.459239875077277
 20
8.132174849181443
 30
0.0
 10
9.462465862788987
 20
8.13384694301437
 30
0.0
 10
9.46394726931775
 20
8.134687682631165
 30
0.0
 10
9.464688146607678
 20
8.135108151203925
 30
0.0
  0
SPLINE
  5
2CD
330
1F
100
AcDbEntity
  8
0
  6
Continuous
 62
     7
370
     0
100
AcDbSpline
210
0.0
220
0.0
230
1.0
 70
     8
 71
     3
 72
    14
 73
    10
 74
     0
 42
0.000000001
 43
0.00000001
 40
0.0
 40
0.0
 40
0.0
 40
0.0
 40
0.2504938292205841
 40
0.3757028501511471
 40
0.500530705094608
 40
0.6429117438464619
 40
0.7855348750382749
 40
0.8927018362619413
 40
1.0
 40
1.0
 40
1.0
 40
1.0
 10
9.448144910560423
 20
8.13297115417474
 30
0.0
 10
9.446989338962531
 20
8.132296057619726
 30
0.0
 10
9.44525615637583
 20
8.131283514913045
 30
0.0
 10
9.443222432082926
 20
8.129967246893301
 30
0.0
 10
9.442037920707886
 20
8.129006793520794
 30
0.0
 10
9.44167109564913
 20
8.128242672690924
 30
0.0
 10
9.442103379786346
 20
8.127800619836984
 30
0.0
 10
9.44303005502477
 20
8.127629121800052
 30
0.0
 10
9.443866030857407
 20
8.127668745720301
 30
0.0
 10
9.444284274484604
 20
8.127688569800714
 30
0.0
  0
LINE
  5
2CE
330
1F
100
AcDbEntity
  8
0
  6
Continuous
 62
     7
370
     0
100
AcDbLine
 10
9.4737095403
 20
8.1477293008
 30
0.0
 11
9.4481449106
 21
8.1329711542
 31
0.0
  0
ARC
  5
2CF
330
1F
100
AcDbEntity
  8
0
  6
Continuous
 62
     7
370
     0
100
AcDbCircle
 10
9.5109087293
 20
7.7073906234
 30
0.0
 40
0.4419071514360787
100
AcDbArc
 50
94.8288011036
 51
95.6458632152
  0
LINE
  5
2D0
330
1F
100
AcDbEntity
  8
0
  6
Continuous
 62
     7
370
     0
100
AcDbLine
 10
9.4391951754
 20
8.1308520745
 30
0.0
 11
9.4674341193
 21
8.1471540698
 31
0.0
  0
SPLINE
  5
2D1
330
1F
100
AcDbEntity
  8
0
  6
Continuous
 62
     7
370
     0
100
AcDbSpline
210
0.0
220
0.0
230
1.0
 70
     8
 71
     3
 72
    13
 73
     9
 74
     0
 42
0.000000001
 43
0.00000001
 40
0.0
 40
0.0
 40
0.0
 40
0.0
 40
0.1255997205531058
 40
0.2510728045682569
 40
0.4995957155071236
 40
0.7487890782142458
 40
0.8492801662769678
 40
1.0
 40
1.0
 40
1.0
 40
1.0
 10
9.436236228077055
 20
8.123810399808354
 30
0.0
 10
9.435494500550677
 20
8.123771294037576
 30
0.0
 10
9.434011793348358
 20
8.123693121924608
 30
0.0
 10
9.431826859921946
 20
8.123918954119079
 30
0.0
 10
9.430937067438133
 20
8.125059734148534
 30
0.0
 10
9.433475532701973
 20
8.127253770285758
 30
0.0
 10
9.436416053356638
 20
8.129212640487063
 30
0.0
 10
9.438153033647643
 20
8.130237303851487
 30
0.0
 10
9.439195175361784
 20
8.130852074462615
 30
0.0
  0
SPLINE
  5
2D2
330
1F
100
AcDbEntity
  8
0
  6
Continuous
 62
     7
370
     0
100
AcDbSpline
210
0.0
220
0.0
230
1.0
 70
     8
 71
     3
 72
    13
 73
     9
 74
     0
 42
0.000000001
 43
0.00000001
 40
0.0
 40
0.0
 40
0.0
 40
0.0
 40
0.1252111800123852
 40
0.2503709188547457
 40
0.500180084495064
 40
0.7497098314791398
 40
0.8748093757729427
 40
0.9999999999999999
 40
0.9999999999999999
 40
0.9999999999999999
 40
0.9999999999999999
 10
9.454872998204712
 20
8.128918006209048
 30
0.0
 10
9.45402632175505
 20
8.128592572085063
 30
0.0
 10
9.45233331670028
 20
8.127941837536913
 30
0.0
 10
9.448917782885989
 20
8.12672475177815
 30
0.0
 10
9.444652895718782
 20
8.125374109245396
 30
0.0
 10
9.440704011091224
 20
8.124423096568792
 30
0.0
 10
9.437992524053065
 20
8.123978272331907
 30
0.0
 10
9.436821802076606
 20
8.12386637088975
 30
0.0
 10
9.436236228077055
 20
8.123810399808354
 30
0.0
  0
SPLINE
  5
2D3
330
1F
100
AcDbEntity
  8
0
  6
Continuous
 62
     7
370
     0
100
AcDbSpline
210
0.0
220
0.0
230
1.0
 70
     8
 71
     3
 72
    13
 73
     9
 74
     0
 42
0.000000001
 43
0.00000001
 40
0.0
 40
0.0
 40
0.0
 40
0.0
 40
0.1253429328899712
 40
0.2505898065604564
 40
0.5000565154177825
 40
0.7494697823308835
 40
0.8746743889016442
 40
1.0
 40
1.0
 40
1.0
 40
1.0
 10
9.45689754625346
 20
8.124870166367684
 30
0.0
 10
9.456380428243637
 20
8.12486423685271
 30
0.0
 10
9.455346588528363
 20
8.124852382366974
 30
0.0
 10
9.453668733631087
 20
8.125024642023254
 30
0.0
 10
9.45238581694782
 20
8.125624052913672
 30
0.0
 10
9.45266426138042
 20
8.126799707204752
 30
0.0
 10
9.45369844654468
 20
8.127958513092084
 30
0.0
 10
9.454481354938084
 20
8.128598072202378
 30
0.0
 10
9.454872998204712
 20
8.128918006209048
 30
0.0
  0
SPLINE
  5
2D4
330
1F
100
AcDbEntity
  8
0
  6
Continuous
 62
     7
370
     0
100
AcDbSpline
210
0.0
220
0.0
230
1.0
 70
     8
 71
     3
 72
    13
 73
     9
 74
     0
 42
0.000000001
 43
0.00000001
 40
0.0
 40
0.0
 40
0.0
 40
0.0
 40
0.1251971558968292
 40
0.2503378710232811
 40
0.5001340654709696
 40
0.7497012951317786
 40
0.8748025018892686
 40
1.0
 40
1.0
 40
1.0
 40
1.0
 10
9.474566896882733
 20
8.129196894802272
 30
0.0
 10
9.473769090503449
 20
8.128896736504943
 30
0.0
 10
9.472173837408059
 20
8.12829655522618
 30
0.0
 10
9.468931126101015
 20
8.127215769223545
 30
0.0
 10
9.464895821729138
 20
8.126054433464425
 30
0.0
 10
9.461145992247475
 20
8.125271871549806
 30
0.0
 10
9.458571502421233
 20
8.124954076391216
 30
0.0
 10
9.457455674731165
 20
8.12489814354809
 30
0.0
 10
9.45689754625346
 20
8.124870166367684
 30
0.0
  0
LINE
  5
2D5
330
1F
100
AcDbEntity
  8
0
  6
Continuous
 62
     7
370
     0
100
AcDbLine
 10
9.4681190802
 20
8.1254746495
 30
0.0
 11
9.4745668969
 21
8.1291968948
 31
0.0
  0
ARC
  5
2D6
330
1F
100
AcDbEntity
  8
0
  6
Continuous
 62
     7
370
     0
100
AcDbCircle
 10
9.4713189527
 20
7.6434203739
 30
0.0
 40
0.4820648958645117
100
AcDbArc
 50
89.6092921389
 51
90.380323347
  0
LINE
  5
2D7
330
1F
100
AcDbEntity
  8
0
  6
Continuous
 62
     7
370
     0
100
AcDbLine
 10
9.5159447449
 20
8.1493382987
 30
0.0
 11
9.4746061946
 21
8.1254740616
 31
0.0
  0
ARC
  5
2D8
330
1F
100
AcDbEntity
  8
0
  6
Continuous
 62
     7
370
     0
100
AcDbCircle
 10
9.512657503
 20
7.6672846109
 30
0.0
 40
0.4820648958994269
100
AcDbArc
 50
89.609292139
 51
90.380323347
  0
LINE
  5
2D9
330
1F
100
AcDbEntity
  8
0
  6
Continuous
 62
     7
370
     0
100
AcDbLine
 10
9.4884030728
 20
8.1371843492
 30
0.0
 11
9.5094576305
 21
8.1493388866
 31
0.0
  0
SPLINE
  5
2DA
330
1F
100
AcDbEntity
  8
0
  6
Continuous
 62
     7
370
     0
100
AcDbSpline
210
0.0
220
0.0
230
1.0
 70
     8
 71
     3
 72
    15
 73
    11
 74
     0
 42
0.000000001
 43
0.00000001
 40
0.0
 40
0.0
 40
0.0
 40
0.0
 40
0.0715686387664987
 40
0.1431353726650517
 40
0.2503322464845855
 40
0.4992737633368761
 40
0.6243899522806139
 40
0.7495239290832694
 40
0.8747465879576757
 40
1.0
 40
1.0
 40
1.0
 40
1.0
 10
9.364911622272924
 20
8.119592472777356
 30
0.0
 10
9.365207433644024
 20
8.119684789432037
 30
0.0
 10
9.365799048512917
 20
8.119869420284308
 30
0.0
 10
9.36655377007115
 20
8.120032367451177
 30
0.0
 10
9.367407236110761
 20
8.120074638417602
 30
0.0
 10
9.367175155466972
 20
8.119513235835463
 30
0.0
 10
9.366077716802113
 20
8.118557932780199
 30
0.0
 10
9.364793558888108
 20
8.117647309997034
 30
0.0
 10
9.363149984083647
 20
8.116599387425564
 30
0.0
 10
9.361823229108317
 20
8.115823704575305
 30
0.0
 10
9.361159770171916
 20
8.115435815531445
 30
0.0
  0
SPLINE
  5
2DB
330
1F
100
AcDbEntity
  8
0
  6
Continuous
 62
     7
370
     0
100
AcDbSpline
210
0.0
220
0.0
230
1.0
 70
     8
 71
     3
 72
    12
 73
     8
 74
     0
 42
0.000000001
 43
0.00000001
 40
0.0
 40
0.0
 40
0.0
 40
0.0
 40
0.2502273872369865
 40
0.5002411532953547
 40
0.7498657105196276
 40
0.8749015259391032
 40
1.0
 40
1.0
 40
1.0
 40
1.0
 10
9.348971780600843
 20
8.112492037358418
 30
0.0
 10
9.350427857827187
 20
8.11320777691687
 30
0.0
 10
9.353338769214771
 20
8.114638645001023
 30
0.0
 10
9.357669381748666
 20
8.116666815841189
 30
0.0
 10
9.361076785814342
 20
8.118155187925067
 30
0.0
 10
9.36346664748493
 20
8.119102315590482
 30
0.0
 10
9.364429883580042
 20
8.119429059765258
 30
0.0
 10
9.364911622272924
 20
8.119592472777356
 30
0.0
  0
SPLINE
  5
2DC
330
1F
100
AcDbEntity
  8
0
  6
Continuous
 62
     7
370
     0
100
AcDbSpline
210
0.0
220
0.0
230
1.0
 70
     8
 71
     3
 72
    11
 73
     7
 74
     0
 42
0.000000001
 43
0.00000001
 40
0.0
 40
0.0
 40
0.0
 40
0.0
 40
0.1406923327707444
 40
0.2856504977000969
 40
0.4999629897009581
 40
1.0
 40
1.0
 40
1.0
 40
1.0
 10
9.350659049935583
 20
8.114536459679417
 30
0.0
 10
9.350655966802545
 20
8.114479313644946
 30
0.0
 10
9.350649707054988
 20
8.114363288891736
 30
0.0
 10
9.350466174402687
 20
8.114072345340313
 30
0.0
 10
9.349988249731753
 20
8.113490412872764
 30
0.0
 10
9.349390322951246
 20
8.11290312946309
 30
0.0
 10
9.348971780600843
 20
8.112492037358418
 30
0.0
  0
SPLINE
  5
2DD
330
1F
100
AcDbEntity
  8
0
  6
Continuous
 62
     7
370
     0
100
AcDbSpline
210
0.0
220
0.0
230
1.0
 70
     8
 71
     3
 72
    11
 73
     7
 74
     0
 42
0.000000001
 43
0.00000001
 40
0.0
 40
0.0
 40
0.0
 40
0.0
 40
0.2500722882310525
 40
0.4999620443496762
 40
0.7498852660693376
 40
1.0
 40
1.0
 40
1.0
 40
1.0
 10
9.347810437944078
 20
8.113909798460663
 30
0.0
 10
9.348225701628046
 20
8.114061986123824
 30
0.0
 10
9.349055925887793
 20
8.114366250365727
 30
0.0
 10
9.349913421965145
 20
8.114598277572144
 30
0.0
 10
9.350474586090112
 20
8.114667354368407
 30
0.0
 10
9.350597546289364
 20
8.11458010238145
 30
0.0
 10
9.350659049935583
 20
8.114536459679417
 30
0.0
  0
SPLINE
  5
2DE
330
1F
100
AcDbEntity
  8
0
  6
Continuous
 62
     7
370
     0
100
AcDbSpline
210
0.0
220
0.0
230
1.0
 70
     8
 71
     3
 72
    14
 73
    10
 74
     0
 42
0.000000001
 43
0.00000001
 40
0.0
 40
0.0
 40
0.0
 40
0.0
 40
0.1253688471069054
 40
0.2506913889048759
 40
0.3794432808286919
 40
0.5007734369136605
 40
0.7496382694918605
 40
0.8748235175243783
 40
1.0
 40
1.0
 40
1.0
 40
1.0
 10
9.326446381345042
 20
8.103109848923038
 30
0.0
 10
9.32725879644868
 20
8.10357681102707
 30
0.0
 10
9.328883326588333
 20
8.104510562761467
 30
0.0
 10
9.331557568661932
 20
8.106008288086676
 30
0.0
 10
9.334417316873862
 20
8.107564166248906
 30
0.0
 10
9.33845583802255
 20
8.109664950807476
 30
0.0
 10
9.342378752244349
 20
8.111565474934372
 30
0.0
 10
9.34580214280264
 20
8.113110010827944
 30
0.0
 10
9.347141021855684
 20
8.113643208805788
 30
0.0
 10
9.347810437944078
 20
8.113909798460663
 30
0.0
  0
SPLINE
  5
2DF
330
1F
100
AcDbEntity
  8
0
  6
Continuous
 62
     7
370
     0
100
AcDbSpline
210
0.0
220
0.0
230
1.0
 70
     8
 71
     3
 72
    15
 73
    11
 74
     0
 42
0.000000001
 43
0.00000001
 40
0.0
 40
0.0
 40
0.0
 40
0.0
 40
0.068826181342747
 40
0.125306932710833
 40
0.250501087426337
 40
0.3757413007373635
 40
0.5009237703813643
 40
0.7493266030478655
 40
0.8746205673268436
 40
1.0
 40
1.0
 40
1.0
 40
1.0
 10
9.322427117593792
 20
8.099256319530511
 30
0.0
 10
9.322116845276634
 20
8.099141340718393
 30
0.0
 10
9.321551954538693
 20
8.098932006973705
 30
0.0
 10
9.3206322151485
 20
8.098626910884265
 30
0.0
 10
9.319876016910346
 20
8.098451117635477
 30
0.0
 10
9.319547772096348
 20
8.098540649446395
 30
0.0
 10
9.31968670793542
 20
8.098946896668181
 30
0.0
 10
9.321525514596292
 20
8.100191189631012
 30
0.0
 10
9.324161358783476
 20
8.10178256592151
 30
0.0
 10
9.325684534046351
 20
8.102667320701952
 30
0.0
 10
9.326446381345042
 20
8.103109848923038
 30
0.0
  0
SPLINE
  5
2E0
330
1F
100
AcDbEntity
  8
0
  6
Continuous
 62
     7
370
     0
100
AcDbSpline
210
0.0
220
0.0
230
1.0
 70
     8
 71
     3
 72
    11
 73
     7
 74
     0
 42
0.000000001
 43
0.00000001
 40
0.0
 40
0.0
 40
0.0
 40
0.0
 40
0.250105728906339
 40
0.5000274417325287
 40
0.7499366741641704
 40
1.0
 40
1.0
 40
1.0
 40
1.0
 10
9.329570496733849
 20
8.102362297050394
 30
0.0
 10
9.32887807841082
 20
8.102041178127115
 30
0.0
 10
9.327493751213733
 20
8.101399176544817
 30
0.0
 10
9.325590625912263
 20
8.100556605340426
 30
0.0
 10
9.323839140818318
 20
8.099808183630365
 30
0.0
 10
9.322897888701105
 20
8.099440312023596
 30
0.0
 10
9.322427117593792
 20
8.099256319530511
 30
0.0
  0
SPLINE
  5
2E1
330
1F
100
AcDbEntity
  8
0
  6
Continuous
 62
     7
370
     0
100
AcDbSpline
210
0.0
220
0.0
230
1.0
 70
     8
 71
     3
 72
    11
 73
     7
 74
     0
 42
0.000000001
 43
0.00000001
 40
0.0
 40
0.0
 40
0.0
 40
0.0
 40
0.5000481029605629
 40
0.7000739104333442
 40
0.8545686097634959
 40
1.0
 40
1.0
 40
1.0
 40
1.0
 10
9.340914842757515
 20
8.107840866144427
 30
0.0
 10
9.339006657734322
 20
8.106908614805187
 30
0.0
 10
9.336335173644875
 20
8.105603450688564
 30
0.0
 10
9.333094639318281
 20
8.104035847484386
 30
0.0
 10
9.331212122645729
 20
8.103134359244441
 30
0.0
 10
9.330106569325958
 20
8.102614413795528
 30
0.0
 10
9.329570496733849
 20
8.102362297050394
 30
0.0
  0
SPLINE
  5
2E2
330
1F
100
AcDbEntity
  8
0
  6
Continuous
 62
     7
370
     0
100
AcDbSpline
210
0.0
220
0.0
230
1.0
 70
     8
 71
     3
 72
    12
 73
     8
 74
     0
 42
0.000000001
 43
0.00000001
 40
0.0
 40
0.0
 40
0.0
 40
0.0
 40
0.1251004913760306
 40
0.2501590347327305
 40
0.4997202301425538
 40
0.7497461316783002
 40
1.0
 40
1.0
 40
1.0
 40
1.0
 10
9.342429252819812
 20
8.106613677153506
 30
0.0
 10
9.342006857309622
 20
8.106484328532337
 30
0.0
 10
9.341162207924619
 20
8.106225674662479
 30
0.0
 10
9.340060096504583
 20
8.106021618170683
 30
0.0
 10
9.33951444584195
 20
8.106184942861264
 30
0.0
 10
9.339823867934891
 20
8.106836432435303
 30
0.0
 10
9.340551074025889
 20
8.107505953212621
 30
0.0
 10
9.340914842757515
 20
8.107840866144427
 30
0.0
  0
SPLINE
  5
2E3
330
1F
100
AcDbEntity
  8
0
  6
Continuous
 62
     7
370
     0
100
AcDbSpline
210
0.0
220
0.0
230
1.0
 70
     8
 71
     3
 72
    15
 73
    11
 74
     0
 42
0.000000001
 43
0.00000001
 40
0.0
 40
0.0
 40
0.0
 40
0.0
 40
0.1252383696494302
 40
0.250448214341174
 40
0.372919744168275
 40
0.5007462977269165
 40
0.7496979142811269
 40
0.8497381416192226
 40
0.9248704692275403
 40
1.0
 40
1.0
 40
1.0
 40
1.0
 10
9.361159770171916
 20
8.115435815531445
 30
0.0
 10
9.360461494089812
 20
8.11503754783617
 30
0.0
 10
9.359065100968678
 20
8.114241103157191
 30
0.0
 10
9.35671775219991
 20
8.112986524143803
 30
0.0
 10
9.354208669989578
 20
8.111704411307523
 30
0.0
 10
9.350750118698015
 20
8.110033988590734
 30
0.0
 10
9.34737143472514
 20
8.108502629984107
 30
0.0
 10
9.34479768245056
 20
8.10746156017749
 30
0.0
 10
9.343435217817811
 20
8.106947411872381
 30
0.0
 10
9.342764570324874
 20
8.106724920679383
 30
0.0
 10
9.342429252819812
 20
8.106613677153506
 30
0.0
  0
ARC
  5
2E4
330
1F
100
AcDbEntity
  8
0
  6
Continuous
 62
     7
370
     0
100
AcDbCircle
 10
9.1025293053
 20
6.8701132096
 30
0.0
 40
1.307787668173817
100
AcDbArc
 50
51.5202921491
 51
52.8382641041
  0
SPLINE
  5
2E5
330
1F
100
AcDbEntity
  8
0
  6
Continuous
 62
     7
370
     0
100
AcDbSpline
210
0.0
220
0.0
230
1.0
 70
     8
 71
     3
 72
     8
 73
     4
 74
     0
 42
0.000000001
 43
0.00000001
 40
0.0
 40
0.0
 40
0.0
 40
0.0
 40
1.0
 40
1.0
 40
1.0
 40
1.0
 10
9.903563187186215
 20
7.927172540382911
 30
0.0
 10
9.899883687165518
 20
7.922235409324609
 30
0.0
 10
9.896202888195408
 20
7.917288887524871
 30
0.0
 10
9.892520717653689
 20
7.912333029667008
 30
0.0
  0
ARC
  5
2E6
330
1F
100
AcDbEntity
  8
0
  6
Continuous
 62
     7
370
     0
100
AcDbCircle
 10
9.147951555
 20
6.9171487541
 30
0.0
 40
1.26138693016256
100
AcDbArc
 50
53.1993706613
 51
53.6733029297
  0
SPLINE
  5
2E7
330
1F
100
AcDbEntity
  8
0
  6
Continuous
 62
     7
370
     0
100
AcDbSpline
210
0.0
220
0.0
230
1.0
 70
     8
 71
     3
 72
     8
 73
     4
 74
     0
 42
0.000000001
 43
0.00000001
 40
0.0
 40
0.0
 40
0.0
 40
0.0
 40
1.0
 40
1.0
 40
1.0
 40
1.0
 10
9.860819663384442
 20
7.88402678453256
 30
0.0
 10
9.872290765727902
 20
7.900594220533098
 30
0.0
 10
9.883744129614374
 20
7.917048763681982
 30
0.0
 10
9.895182840827363
 20
7.933388092559926
 30
0.0
  0
ARC
  5
2E8
330
1F
100
AcDbEntity
  8
0
  6
Continuous
 62
     7
370
     0
100
AcDbCircle
 10
9.0633070952
 20
6.8474945561
 30
0.0
 40
1.3078323122594
100
AcDbArc
 50
51.9334016642
 51
52.425154589
  0
SPLINE
  5
2E9
330
1F
100
AcDbEntity
  8
0
  6
Continuous
 62
     7
370
     0
100
AcDbSpline
210
0.0
220
0.0
230
1.0
 70
     8
 71
     3
 72
     8
 73
     4
 74
     0
 42
0.000000001
 43
0.00000001
 40
0.0
 40
0.0
 40
0.0
 40
0.0
 40
1.0
 40
1.0
 40
1.0
 40
1.0
 10
9.948306119580879
 20
7.892150672259781
 30
0.0
 10
9.922120571459422
 20
7.88725870743694
 30
0.0
 10
9.89591298811285
 20
7.882257259114898
 30
0.0
 10
9.869686433893113
 20
7.877143874615277
 30
0.0
  0
ARC
  5
2EA
330
1F
100
AcDbEntity
  8
0
  6
Continuous
 62
     7
370
     0
100
AcDbCircle
 10
9.091259793
 20
6.8440942813
 30
0.0
 40
1.353865061381626
100
AcDbArc
 50
50.7254751424
 51
51.1775720166
  0
SPLINE
  5
2EB
330
1F
100
AcDbEntity
  8
0
  6
Continuous
 62
     7
370
     0
100
AcDbSpline
210
0.0
220
0.0
230
1.0
 70
     8
 71
     3
 72
     8
 73
     4
 74
     0
 42
0.000000001
 43
0.00000001
 40
0.0
 40
0.0
 40
0.0
 40
0.0
 40
1.0
 40
1.0
 40
1.0
 40
1.0
 10
9.916283736806815
 20
7.893886773498134
 30
0.0
 10
9.924194075826831
 20
7.895560477755344
 30
0.0
 10
9.932102772071609
 20
7.897225056478671
 30
0.0
 10
9.940009753408837
 20
7.898880567351789
 30
0.0
  0
SPLINE
  5
2EC
330
1F
100
AcDbEntity
  8
0
  6
Continuous
 62
     7
370
     0
100
AcDbSpline
210
0.0
220
0.0
230
1.0
 70
     8
 71
     3
 72
    16
 73
    12
 74
     0
 42
0.000000001
 43
0.00000001
 40
0.0
 40
0.0
 40
0.0
 40
0.0
 40
0.1252094946983267
 40
0.2504046739963145
 40
0.3833289736380696
 40
0.5006376999516737
 40
0.631268026274017
 40
0.7501982147432781
 40
0.874850603123657
 40
0.9374183744277277
 40
1.0
 40
1.0
 40
1.0
 40
1.0
 10
9.78469107800495
 20
7.972864856259583
 30
0.0
 10
9.78631376559654
 20
7.973774812001276
 30
0.0
 10
9.78955895525527
 20
7.975594619447977
 30
0.0
 10
9.794888973812016
 20
7.978140202425736
 30
0.0
 10
9.800498258197019
 20
7.980329012539654
 30
0.0
 10
9.806687937851176
 20
7.982041935124459
 30
0.0
 10
9.81316189799241
 20
7.982944109597002
 30
0.0
 10
9.820043820254096
 20
7.9826598229951
 30
0.0
 10
9.82524542445128
 20
7.981218479953037
 30
0.0
 10
9.828970571127513
 20
7.979565309506447
 30
0.0
 10
9.830610517477055
 20
7.97857037486011
 30
0.0
 10
9.831430581424362
 20
7.978072852466394
 30
0.0
  0
SPLINE
  5
2ED
330
1F
100
AcDbEntity
  8
0
  6
Continuous
 62
     7
370
     0
100
AcDbSpline
210
0.0
220
0.0
230
1.0
 70
     8
 71
     3
 72
    15
 73
    11
 74
     0
 42
0.000000001
 43
0.00000001
 40
0.0
 40
0.0
 40
0.0
 40
0.0
 40
0.0626310590473294
 40
0.1252239280246692
 40
0.2500458433027695
 40
0.3746204791019494
 40
0.499611629376774
 40
0.7494432638969603
 40
0.8747101358354908
 40
0.9999999999999999
 40
0.9999999999999999
 40
0.9999999999999999
 40
0.9999999999999999
 10
9.774136801205143
 20
7.94499785716691
 30
0.0
 10
9.773361288463416
 20
7.945521580947734
 30
0.0
 10
9.771810735858534
 20
7.946568709162269
 30
0.0
 10
9.769268856645386
 20
7.948905648181236
 30
0.0
 10
9.767071796523298
 20
7.952144739155155
 30
0.0
 10
9.766755631899235
 20
7.956297400112686
 30
0.0
 10
9.769528990331338
 20
7.961425510085343
 30
0.0
 10
9.774095587096012
 20
7.966051386460075
 30
0.0
 10
9.779946138964595
 20
7.970057498810093
 30
0.0
 10
9.78310933490175
 20
7.971929013196861
 30
0.0
 10
9.78469107800495
 20
7.972864856259583
 30
0.0
  0
SPLINE
  5
2EE
330
1F
100
AcDbEntity
  8
0
  6
Continuous
 62
     7
370
     0
100
AcDbSpline
210
0.0
220
0.0
230
1.0
 70
     8
 71
     3
 72
    17
 73
    13
 74
     0
 42
0.000000001
 43
0.00000001
 40
0.0
 40
0.0
 40
0.0
 40
0.0
 40
0.1251519328701601
 40
0.2502835494576592
 40
0.3838490249388524
 40
0.5004249589578484
 40
0.6316909228052033
 40
0.7498767247057614
 40
0.8123958244715961
 40
0.8749120167804081
 40
0.9374477308667627
 40
1.0
 40
1.0
 40
1.0
 40
1.0
 10
9.820899378720018
 20
7.949757525313438
 30
0.0
 10
9.819277043290892
 20
7.948846657798726
 30
0.0
 10
9.816032635791139
 20
7.947025070633114
 30
0.0
 10
9.810675027997407
 20
7.944508085256802
 30
0.0
 10
9.805077712878925
 20
7.94234674258423
 30
0.0
 10
9.798873386687163
 20
7.940705958946337
 30
0.0
 10
9.79240587128959
 20
7.939895710686655
 30
0.0
 10
9.786675055983178
 20
7.940259973941356
 30
0.0
 10
9.782437109353873
 20
7.941180724419165
 30
0.0
 10
9.779413934182008
 20
7.942240278976548
 30
0.0
 10
9.7765966583598
 20
7.943498056231022
 30
0.0
 10
9.77495682593245
 20
7.944497879413674
 30
0.0
 10
9.774136801205143
 20
7.94499785716691
 30
0.0
  0
SPLINE
  5
2EF
330
1F
100
AcDbEntity
  8
0
  6
Continuous
 62
     7
370
     0
100
AcDbSpline
210
0.0
220
0.0
230
1.0
 70
     8
 71
     3
 72
    12
 73
     8
 74
     0
 42
0.000000001
 43
0.00000001
 40
0.0
 40
0.0
 40
0.0
 40
0.0
 40
0.124998196235277
 40
0.250018185309825
 40
0.4998430509921672
 40
0.7498766505114238
 40
1.0
 40
1.0
 40
1.0
 40
1.0
 10
9.83859148053501
 20
7.966759225533222
 30
0.0
 10
9.838320165379608
 20
7.965904939127916
 30
0.0
 10
9.837777487766298
 20
7.964196217376544
 30
0.0
 10
9.835653691852325
 20
7.960995708356897
 30
0.0
 10
9.83208648288169
 20
7.957305507595444
 30
0.0
 10
9.82683650629988
 20
7.95332549933498
 30
0.0
 10
9.822878657983503
 20
7.950946992256586
 30
0.0
 10
9.820899378720018
 20
7.949757525313438
 30
0.0
  0
SPLINE
  5
2F0
330
1F
100
AcDbEntity
  8
0
  6
Continuous
 62
     7
370
     0
100
AcDbSpline
210
0.0
220
0.0
230
1.0
 70
     8
 71
     3
 72
    12
 73
     8
 74
     0
 42
0.000000001
 43
0.00000001
 40
0.0
 40
0.0
 40
0.0
 40
0.0
 40
0.2501121538982752
 40
0.5000209053225421
 40
0.7497559520083951
 40
0.8748533096535244
 40
1.0
 40
1.0
 40
1.0
 40
1.0
 10
9.831430581424362
 20
7.978072852466394
 30
0.0
 10
9.832564049388854
 20
7.977285033220701
 30
0.0
 10
9.834830063530616
 20
7.975710035419428
 30
0.0
 10
9.837306301938632
 20
7.972914397563503
 30
0.0
 10
9.838404663327196
 20
7.970373073008125
 30
0.0
 10
9.838739439466663
 20
7.968303324347474
 30
0.0
 10
9.838640806660331
 20
7.967273992778219
 30
0.0
 10
9.83859148053501
 20
7.966759225533222
 30
0.0
  0
SPLINE
  5
2F1
330
1F
100
AcDbEntity
  8
0
  6
Continuous
 62
     7
370
     0
100
AcDbSpline
210
0.0
220
0.0
230
1.0
 70
     8
 71
     3
 72
    16
 73
    12
 74
     0
 42
0.000000001
 43
0.00000001
 40
0.0
 40
0.0
 40
0.0
 40
0.0
 40
0.1252094946984011
 40
0.2504046739964645
 40
0.3833289736554729
 40
0.5006376999520941
 40
0.6312680262819449
 40
0.7501982147431328
 40
0.8748506031235842
 40
0.9374183744276912
 40
1.0
 40
1.0
 40
1.0
 40
1.0
 10
9.697738649692608
 20
8.020392573154872
 30
0.0
 10
9.699361269999063
 20
8.021305480387575
 30
0.0
 10
9.702606325095216
 20
8.023131190478848
 30
0.0
 10
9.707935025981833
 20
8.025735263169013
 30
0.0
 10
9.713541784632863
 20
8.028039456725434
 30
0.0
 10
9.719727262935011
 20
8.029956485988164
 30
0.0
 10
9.726195452589876
 20
8.031168707523788
 30
0.0
 10
9.733070267727493
 20
8.031347464470484
 30
0.0
 10
9.738266696921832
 20
8.030385895112937
 30
0.0
 10
9.74198901536712
 20
8.029140774102167
 30
0.0
 10
9.743628215737807
 20
8.028353013827363
 30
0.0
 10
9.744447906654399
 20
8.027959090086705
 30
0.0
  0
SPLINE
  5
2F2
330
1F
100
AcDbEntity
  8
0
  6
Continuous
 62
     7
370
     0
100
AcDbSpline
210
0.0
220
0.0
230
1.0
 70
     8
 71
     3
 72
    15
 73
    11
 74
     0
 42
0.000000001
 43
0.00000001
 40
0.0
 40
0.0
 40
0.0
 40
0.0
 40
0.0626310590473282
 40
0.1252239280246671
 40
0.2500458433027677
 40
0.3746204791019466
 40
0.4996116293767683
 40
0.7494432638969571
 40
0.8747101358354892
 40
1.0
 40
1.0
 40
1.0
 40
1.0
 10
9.687154126435182
 20
7.994884094787222
 30
0.0
 10
9.686378986812644
 20
7.995304168585789
 30
0.0
 10
9.684829180218628
 20
7.996144060037683
 30
0.0
 10
9.682290133358283
 20
7.998072870552725
 30
0.0
 10
9.68009830384321
 20
8.000825387459015
 30
0.0
 10
9.679789466408586
 20
8.004506371693209
 30
0.0
 10
9.682570028091002
 20
8.009248728268917
 30
0.0
 10
9.687141428049793
 20
8.013655809356957
 30
0.0
 10
9.692993539375385
 20
8.017592722184466
 30
0.0
 10
9.696156849493624
 20
8.019459232404913
 30
0.0
 10
9.697738649692608
 20
8.020392573154872
 30
0.0
  0
SPLINE
  5
2F3
330
1F
100
AcDbEntity
  8
0
  6
Continuous
 62
     7
370
     0
100
AcDbSpline
210
0.0
220
0.0
230
1.0
 70
     8
 71
     3
 72
    17
 73
    13
 74
     0
 42
0.000000001
 43
0.00000001
 40
0.0
 40
0.0
 40
0.0
 40
0.0
 40
0.1251519328702349
 40
0.2502835494578063
 40
0.3838490249500405
 40
0.5004249589583344
 40
0.6316909228108607
 40
0.7498767247056195
 40
0.8123958244714894
 40
0.8749120167803337
 40
0.9374477308667257
 40
1.0
 40
1.0
 40
1.0
 40
1.0
 10
9.733933718013885
 20
8.001975178840379
 30
0.0
 10
9.732311335752422
 20
8.00106166182248
 30
0.0
 10
9.729066834595598
 20
7.999234776080599
 30
0.0
 10
9.72370819729126
 20
7.996658356117408
 30
0.0
 10
9.718109038149256
 20
7.994386483381177
 30
0.0
 10
9.711901637975236
 20
7.992544754912057
 30
0.0
 10
9.70543008317033
 20
7.99143089397487
 30
0.0
 10
9.699695507703028
 20
7.99141161634719
 30
0.0
 10
9.695455323688423
 20
7.991978764242051
 30
0.0
 10
9.69243103252791
 20
7.992742578512626
 30
0.0
 10
9.689613347687725
 20
7.99369505887113
 30
0.0
 10
9.687973939176416
 20
7.994487714513267
 30
0.0
 10
9.687154126435182
 20
7.994884094787222
 30
0.0
  0
SPLINE
  5
2F4
330
1F
100
AcDbEntity
  8
0
  6
Continuous
 62
     7
370
     0
100
AcDbSpline
210
0.0
220
0.0
230
1.0
 70
     8
 71
     3
 72
    12
 73
     8
 74
     0
 42
0.000000001
 43
0.00000001
 40
0.0
 40
0.0
 40
0.0
 40
0.0
 40
0.1249981962352803
 40
0.2500181853098247
 40
0.4998430509921658
 40
0.749876650511424
 40
1.0
 40
1.0
 40
1.0
 40
1.0
 10
9.751615670831464
 20
8.018273107397892
 30
0.0
 10
9.751345222754917
 20
8.017491433919217
 30
0.0
 10
9.75080427945049
 20
8.015927950680824
 30
0.0
 10
9.748683401955475
 20
8.012932198071969
 30
0.0
 10
9.745118872781502
 20
8.009410691148393
 30
0.0
 10
9.739870590913588
 20
8.005528653808364
 30
0.0
 10
9.73591291237383
 20
8.003159812187539
 30
0.0
 10
9.733933718013885
 20
8.001975178840379
 30
0.0
  0
SPLINE
  5
2F5
330
1F
100
AcDbEntity
  8
0
  6
Continuous
 62
     7
370
     0
100
AcDbSpline
210
0.0
220
0.0
230
1.0
 70
     8
 71
     3
 72
    12
 73
     8
 74
     0
 42
0.000000001
 43
0.00000001
 40
0.0
 40
0.0
 40
0.0
 40
0.0
 40
0.2501121538982746
 40
0.5000209053225391
 40
0.7497559520083912
 40
0.8748533096535174
 40
1.0
 40
1.0
 40
1.0
 40
1.0
 10
9.744447906654399
 20
8.027959090086705
 30
0.0
 10
9.745581117750772
 20
8.027324670301676
 30
0.0
 10
9.747846618365193
 20
8.02605634667037
 30
0.0
 10
9.750324364641072
 20
8.023706490299515
 30
0.0
 10
9.751425005801464
 20
8.021498346267695
 30
0.0
 10
9.751761963735369
 20
8.019665148845599
 30
0.0
 10
9.751664441541221
 20
8.01873718219307
 30
0.0
 10
9.751615670831464
 20
8.018273107397892
 30
0.0
  0
SPLINE
  5
2F6
330
1F
100
AcDbEntity
  8
0
  6
Continuous
 62
     7
370
     0
100
AcDbSpline
210
0.0
220
0.0
230
1.0
 70
     8
 71
     3
 72
     8
 73
     4
 74
     0
 42
0.000000001
 43
0.00000001
 40
0.0
 40
0.0
 40
0.0
 40
0.0
 40
1.0
 40
1.0
 40
1.0
 40
1.0
 10
9.668271766075074
 20
8.061649596205982
 30
0.0
 10
9.657256286923639
 20
8.050489115023284
 30
0.0
 10
9.64624834090449
 20
8.039269268660973
 30
0.0
 10
9.635247007707878
 20
8.027990430856129
 30
0.0
  0
ARC
  5
2F7
330
1F
100
AcDbEntity
  8
0
  6
Continuous
 62
     7
370
     0
100
AcDbCircle
 10
9.3748247995
 20
7.3182187674
 30
0.0
 40
0.799249973025154
100
AcDbArc
 50
68.4598623207
 51
69.092834327
  0
SPLINE
  5
2F8
330
1F
100
AcDbEntity
  8
0
  6
Continuous
 62
     7
370
     0
100
AcDbSpline
210
0.0
220
0.0
230
1.0
 70
     8
 71
     3
 72
     8
 73
     4
 74
     0
 42
0.000000001
 43
0.00000001
 40
0.0
 40
0.0
 40
0.0
 40
0.0
 40
1.0
 40
1.0
 40
1.0
 40
1.0
 10
9.597318019164875
 20
8.042717510725236
 30
0.0
 10
9.618216921601151
 20
8.050154190751869
 30
0.0
 10
9.639124897600004
 20
8.05753023993879
 30
0.0
 10
9.66004101466875
 20
8.064846003721186
 30
0.0
  0
LINE
  5
2F9
330
1F
100
AcDbEntity
  8
0
  6
Continuous
 62
     7
370
     0
100
AcDbLine
 10
9.645183709
 20
8.0703497853
 30
0.0
 11
9.5973180192
 21
8.0427175107
 31
0.0
  0
ARC
  5
2FA
330
1F
100
AcDbEntity
  8
0
  6
Continuous
 62
     7
370
     0
100
AcDbCircle
 10
9.3886012608
 20
7.3553892129
 30
0.0
 40
0.7596072489841993
100
AcDbArc
 50
70.2581374881
 51
70.8844749746
  0
LINE
  5
2FB
330
1F
100
AcDbEntity
  8
0
  6
Continuous
 62
     7
370
     0
100
AcDbLine
 10
9.5807842916
 20
8.040455556
 30
0.0
 11
9.6373528341
 21
8.0731118805
 31
0.0
  0
ARC
  5
2FC
330
1F
100
AcDbEntity
  8
0
  6
Continuous
 62
     7
370
     0
100
AcDbCircle
 10
9.330944174
 20
7.3196375917
 30
0.0
 40
0.7628883417519197
100
AcDbArc
 50
69.9518678017
 51
70.8833564407
  0
SPLINE
  5
2FD
330
1F
100
AcDbEntity
  8
0
  6
Continuous
 62
     7
370
     0
100
AcDbSpline
210
0.0
220
0.0
230
1.0
 70
     8
 71
     3
 72
     8
 73
     4
 74
     0
 42
0.000000001
 43
0.00000001
 40
0.0
 40
0.0
 40
0.0
 40
0.0
 40
1.0
 40
1.0
 40
1.0
 40
1.0
 10
9.643817796772064
 20
8.054203525521014
 30
0.0
 10
9.626695971198183
 20
8.048276780153994
 30
0.0
 10
9.609579690828813
 20
8.042308568641914
 30
0.0
 10
9.592469488362854
 20
8.036298691501127
 30
0.0
  0
SPLINE
  5
2FE
330
1F
100
AcDbEntity
  8
0
  6
Continuous
 62
     7
370
     0
100
AcDbSpline
210
0.0
220
0.0
230
1.0
 70
     8
 71
     3
 72
     9
 73
     5
 74
     0
 42
0.000000001
 43
0.00000001
 40
0.0
 40
0.0
 40
0.0
 40
0.0
 40
0.5714251866672576
 40
1.0
 40
1.0
 40
1.0
 40
1.0
 10
9.655542982404056
 20
8.058333402319526
 30
0.0
 10
9.653316427567715
 20
8.057541884319281
 30
0.0
 10
9.649419933523893
 20
8.056156719614059
 30
0.0
 10
9.645498447088919
 20
8.054789486988357
 30
0.0
 10
9.643817796772064
 20
8.054203525521014
 30
0.0
  0
SPLINE
  5
2FF
330
1F
100
AcDbEntity
  8
0
  6
Continuous
 62
     7
370
     0
100
AcDbSpline
210
0.0
220
0.0
230
1.0
 70
     8
 71
     3
 72
     9
 73
     5
 74
     0
 42
0.000000001
 43
0.00000001
 40
0.0
 40
0.0
 40
0.0
 40
0.0
 40
0.3333359272971071
 40
1.0
 40
1.0
 40
1.0
 40
1.0
 10
9.649753597027654
 20
8.052556178737643
 30
0.0
 10
9.650388441979917
 20
8.05319991532622
 30
0.0
 10
9.652292962015938
 20
8.055131110063602
 30
0.0
 10
9.654242977283769
 20
8.057052488407548
 30
0.0
 10
9.655542982404056
 20
8.058333402319526
 30
0.0
  0
SPLINE
  5
300
330
1F
100
AcDbEntity
  8
0
  6
Continuous
 62
     7
370
     0
100
AcDbSpline
210
0.0
220
0.0
230
1.0
 70
     8
 71
     3
 72
     8
 73
     4
 74
     0
 42
0.000000001
 43
0.00000001
 40
0.0
 40
0.0
 40
0.0
 40
0.0
 40
1.0
 40
1.0
 40
1.0
 40
1.0
 10
9.622560780208289
 20
8.024617174160989
 30
0.0
 10
9.631619995126785
 20
8.033972234107567
 30
0.0
 10
9.640684083786594
 20
8.043285309405526
 30
0.0
 10
9.649753597027654
 20
8.052556178737643
 30
0.0
  0
ARC
  5
301
330
1F
100
AcDbEntity
  8
0
  6
Continuous
 62
     7
370
     0
100
AcDbCircle
 10
9.3042556276
 20
7.2509292938
 30
0.0
 40
0.8366069007552704
100
AcDbArc
 50
66.7536634187
 51
67.6371032947
  0
LINE
  5
302
330
1F
100
AcDbEntity
  8
0
  6
Continuous
 62
     7
370
     0
100
AcDbLine
 10
9.6910204561
 20
8.052273799
 30
0.0
 11
9.6344519136
 21
8.0196174745
 31
0.0
  0
ARC
  5
303
330
1F
100
AcDbEntity
  8
0
  6
Continuous
 62
     7
370
     0
100
AcDbCircle
 10
9.3594113757
 20
7.2802574203
 30
0.0
 40
0.8402225128174278
100
AcDbArc
 50
66.7547198043
 51
67.3403248401
  0
LINE
  5
304
330
1F
100
AcDbEntity
  8
0
  6
Continuous
 62
     7
370
     0
100
AcDbLine
 10
9.6352470077
 20
8.0279904309
 30
0.0
 11
9.6831126975
 21
8.0556227054
 31
0.0
  0
LWPOLYLINE
  5
305
330
1F
100
AcDbEntity
  8
0
  6
Continuous
 62
     7
370
     0
100
AcDbPolyline
 90
      161
 70
   128
 43
0.0
 10
8.913062874
 20
7.4430854175
 10
8.9136270102
 20
7.4759332398
 10
8.9153185491
 20
7.5080790754
 10
8.9181348823
 20
7.5394733577
 10
8.9220716673
 20
7.5700676789
 10
8.9271228339
 20
7.5998148648
 10
8.9332805934
 20
7.6286690474
 10
8.9405354512
 20
7.6565857357
 10
8.9488762208
 20
7.6835218842
 10
8.9582900412
 20
7.7094359592
 10
8.968762397
 20
7.7342880032
 10
8.9802771407
 20
7.7580396961
 10
8.9928165173
 20
7.7806544145
 10
9.0063611921
 20
7.8020972881
 10
9.02089028
 20
7.8223352536
 10
9.0363813784
 20
7.8413371055
 10
9.0528106011
 20
7.8590735444
 10
9.0701526153
 20
7.8755172218
 10
9.088380681
 20
7.890642783
 10
9.1074666919
 20
7.9044269053
 10
9.1273812186
 20
7.9168483347
 10
9.1480935544
 20
7.9278879181
 10
9.1695717623
 20
7.9375286334
 10
9.1917827247
 20
7.9457556153
 10
9.2146921937
 20
7.9525561783
 10
9.2382648446
 20
7.9579198365
 10
9.2624643301
 20
7.9618383195
 10
9.2872533363
 20
7.9643055853
 10
9.3125936404
 20
7.9653178296
 10
9.3384461696
 20
7.9648734915
 10
9.3647710609
 20
7.9629732562
 10
9.3915277235
 20
7.9596200537
 10
9.4186749004
 20
7.9548190544
 10
9.4461707326
 20
7.9485776611
 10
9.4739728237
 20
7.9409054976
 10
9.5020383047
 20
7.9318143938
 10
9.5303239007
 20
7.9213183675
 10
9.5587859975
 20
7.9094336028
 10
9.5873807084
 20
7.8961784251
 10
9.6160639426
 20
7.8815732731
 10
9.6447914726
 20
7.8656406668
 10
9.6735190026
 20
7.848405173
 10
9.7022022368
 20
7.8298933678
 10
9.7307969477
 20
7.8101337948
 10
9.7592590445
 20
7.7891569221
 10
9.7875446405
 20
7.7669950944
 10
9.8156101215
 20
7.7436824836
 10
9.8434122126
 20
7.719255036
 10
9.8709080448
 20
7.6937504171
 10
9.8980552217
 20
7.6672079532
 10
9.9248118842
 20
7.6396685707
 10
9.9511367756
 20
7.6111747333
 10
9.9769893047
 20
7.5817703767
 10
10.0023296089
 20
7.55150084
 10
10.0271186151
 20
7.5204127968
 10
10.0513181006
 20
7.4885541825
 10
10.0748907515
 20
7.4559741209
 10
10.0978002205
 20
7.422722848
 10
10.1200111828
 20
7.3888516349
 10
10.1414893908
 20
7.3544127085
 10
10.1622017266
 20
7.3194591711
 10
10.1821162533
 20
7.2840449187
 10
10.2012022641
 20
7.2482245573
 10
10.2194303299
 20
7.2120533195
 10
10.2367723441
 20
7.1755869785
 10
10.2532015668
 20
7.138881763
 10
10.2686926651
 20
7.1019942696
 10
10.2832217531
 20
7.0649813761
 10
10.2967664279
 20
7.0279001539
 10
10.3093058045
 20
6.9908077795
 10
10.3208205482
 20
6.9537614465
 10
10.331292904
 20
6.9168182779
 10
10.3407067244
 20
6.8800352371
 10
10.3490474939
 20
6.8434690412
 10
10.3563023517
 20
6.8071760723
 10
10.3624601113
 20
6.7712122918
 10
10.3675112779
 20
6.7356331531
 10
10.3714480629
 20
6.7004935167
 10
10.3742643961
 20
6.6658475653
 10
10.3759559349
 20
6.6317487206
 10
10.3765200712
 20
6.5982495604
 10
10.3759559349
 20
6.565401738
 10
10.3742643961
 20
6.5332559024
 10
10.3714480629
 20
6.5018616202
 10
10.3675112779
 20
6.471267299
 10
10.3624601113
 20
6.4415201131
 10
10.3563023517
 20
6.4126659304
 10
10.3490474939
 20
6.3847492421
 10
10.3407067244
 20
6.3578130937
 10
10.331292904
 20
6.3318990186
 10
10.3208205482
 20
6.3070469746
 10
10.3093058045
 20
6.2832952818
 10
10.2967664279
 20
6.2606805634
 10
10.2832217531
 20
6.2392376898
 10
10.2686926651
 20
6.2189997243
 10
10.2532015668
 20
6.1999978724
 10
10.2367723441
 20
6.1822614335
 10
10.2194303299
 20
6.165817756
 10
10.2012022641
 20
6.1506921949
 10
10.1821162533
 20
6.1369080726
 10
10.1622017266
 20
6.1244866432
 10
10.1414893908
 20
6.1134470598
 10
10.1200111828
 20
6.1038063445
 10
10.0978002205
 20
6.0955793626
 10
10.0748907515
 20
6.0887787996
 10
10.0513181006
 20
6.0834151414
 10
10.0271186151
 20
6.0794966584
 10
10.0023296089
 20
6.0770293925
 10
9.9769893047
 20
6.0760171483
 10
9.9511367756
 20
6.0764614863
 10
9.9248118842
 20
6.0783617216
 10
9.8980552217
 20
6.0817149241
 10
9.8709080448
 20
6.0865159234
 10
9.8434122126
 20
6.0927573167
 10
9.8156101215
 20
6.1004294803
 10
9.7875446405
 20
6.1095205841
 10
9.7592590445
 20
6.1200166104
 10
9.7307969477
 20
6.1319013751
 10
9.7022022368
 20
6.1451565527
 10
9.6735190026
 20
6.1597617048
 10
9.6447914726
 20
6.1756943111
 10
9.6160639426
 20
6.1929298049
 10
9.5873807084
 20
6.2114416101
 10
9.5587859975
 20
6.231201183
 10
9.5303239007
 20
6.2521780558
 10
9.5020383047
 20
6.2743398835
 10
9.4739728237
 20
6.2976524943
 10
9.4461707326
 20
6.3220799418
 10
9.4186749004
 20
6.3475845607
 10
9.3915277235
 20
6.3741270247
 10
9.3647710609
 20
6.4016664072
 10
9.3384461696
 20
6.4301602445
 10
9.3125936404
 20
6.4595646012
 10
9.2872533363
 20
6.4898341379
 10
9.2624643301
 20
6.5209221811
 10
9.2382648446
 20
6.5527807954
 10
9.2146921937
 20
6.585360857
 10
9.1917827247
 20
6.6186121299
 10
9.1695717623
 20
6.652483343
 10
9.1480935544
 20
6.6869222694
 10
9.1273812186
 20
6.7218758067
 10
9.1074666919
 20
6.7572900592
 10
9.088380681
 20
6.7931104205
 10
9.0701526153
 20
6.8292816584
 10
9.0528106011
 20
6.8657479993
 10
9.0363813784
 20
6.9024532149
 10
9.02089028
 20
6.9393407083
 10
9.0063611921
 20
6.9763536017
 10
8.9928165173
 20
7.0134348239
 10
8.9802771407
 20
7.0505271984
 10
8.968762397
 20
7.0875735313
 10
8.9582900412
 20
7.1245167
 10
8.9488762208
 20
7.1612997407
 10
8.9405354512
 20
7.1978659367
 10
8.9332805934
 20
7.2341589055
 10
8.9271228339
 20
7.2701226861
 10
8.9220716673
 20
7.3057018248
 10
8.9181348823
 20
7.3408414612
 10
8.9153185491
 20
7.3754874125
 10
8.9136270102
 20
7.4095862573
 10
8.913062874
 20
7.4430854175
  0
LWPOLYLINE
  5
306
330
1F
100
AcDbEntity
  8
0
  6
Continuous
 62
     7
370
     0
100
AcDbPolyline
 90
      159
 70
   128
 43
0.0
 10
8.9323813905
 20
7.4400971564
 10
8.9329502143
 20
7.406737865
 10
8.9346557863
 20
7.3727745715
 10
8.9374954095
 20
7.3382609789
 10
8.941464594
 20
7.3032516603
 10
8.9465570637
 20
7.2678019725
 10
8.9527647663
 20
7.2319679689
 10
8.9600778862
 20
7.1958063103
 10
8.9684848599
 20
7.1593741758
 10
8.9779723941
 20
7.1227291721
 10
8.9885254871
 20
7.0859292424
 10
9.0001274524
 20
7.049032575
 10
9.0127599448
 20
7.0120975111
 10
9.0264029898
 20
6.9751824527
 10
9.0410350148
 20
6.9383457699
 10
9.0566328838
 20
6.9016457093
 10
9.0731719332
 20
6.8651403012
 10
9.0906260114
 20
6.828887268
 10
9.1089675198
 20
6.7929439334
 10
9.128167457
 20
6.757367131
 10
9.1481954636
 20
6.7222131152
 10
9.1690198715
 20
6.6875374716
 10
9.1906077529
 20
6.6533950296
 10
9.2129249728
 20
6.6198397753
 10
9.2359362434
 20
6.5869247667
 10
9.2596051788
 20
6.554702049
 10
9.2838943538
 20
6.5232225729
 10
9.3087653621
 20
6.4925361141
 10
9.3341788776
 20
6.4626911941
 10
9.3600947163
 20
6.4337350038
 10
9.3864718998
 20
6.4057133289
 10
9.4132687206
 20
6.3786704776
 10
9.4404428071
 20
6.35264921
 10
9.4679511918
 20
6.3276906712
 10
9.495750378
 20
6.3038343257
 10
9.5237964097
 20
6.2811178953
 10
9.5520449403
 20
6.2595772994
 10
9.580451303
 20
6.2392465981
 10
9.6089705816
 20
6.2201579383
 10
9.6375576812
 20
6.2023415033
 10
9.6661673996
 20
6.1858254643
 10
9.6947544992
 20
6.1706359368
 10
9.7232737778
 20
6.1567969384
 10
9.7516801405
 20
6.1443303515
 10
9.7799286711
 20
6.1332558882
 10
9.8079747028
 20
6.1235910596
 10
9.835773889
 20
6.1153511478
 10
9.8632822737
 20
6.1085491818
 10
9.8904563602
 20
6.1031959168
 10
9.917253181
 20
6.0992998176
 10
9.9436303645
 20
6.0968670445
 10
9.9695462032
 20
6.0959014444
 10
9.9949597187
 20
6.096404544
 10
10.019830727
 20
6.0983755478
 10
10.044119902
 20
6.1018113393
 10
10.0677888374
 20
6.1067064858
 10
10.090800108
 20
6.1130532471
 10
10.1131173279
 20
6.1208415876
 10
10.1347052093
 20
6.1300591923
 10
10.1555296172
 20
6.1406914864
 10
10.1755576238
 20
6.1527216579
 10
10.194757561
 20
6.1661306847
 10
10.2130990694
 20
6.1808973644
 10
10.2305531476
 20
6.1969983479
 10
10.247092197
 20
6.2144081761
 10
10.262690066
 20
6.2330993205
 10
10.277322091
 20
6.2530422267
 10
10.290965136
 20
6.2742053607
 10
10.3035976284
 20
6.2965552593
 10
10.3151995937
 20
6.3200565827
 10
10.3257526867
 20
6.3446721705
 10
10.3352402209
 20
6.3703631004
 10
10.3436471946
 20
6.3970887498
 10
10.3509603145
 20
6.4248068599
 10
10.3571680171
 20
6.4534736026
 10
10.3622604868
 20
6.48304365
 10
10.3662296713
 20
6.5134702458
 10
10.3690692945
 20
6.5447052792
 10
10.3707748665
 20
6.5766993612
 10
10.3713436903
 20
6.6094019026
 10
10.3707748665
 20
6.642761194
 10
10.3690692945
 20
6.6767244875
 10
10.3662296713
 20
6.7112380801
 10
10.3622604868
 20
6.7462473987
 10
10.3571680171
 20
6.7816970865
 10
10.3509603145
 20
6.8175310901
 10
10.3436471946
 20
6.8536927487
 10
10.3352402209
 20
6.8901248832
 10
10.3257526867
 20
6.9267698869
 10
10.3151995937
 20
6.9635698166
 10
10.3035976284
 20
7.000466484
 10
10.290965136
 20
7.0374015479
 10
10.277322091
 20
7.0743166063
 10
10.262690066
 20
7.111153289
 10
10.247092197
 20
7.1478533496
 10
10.2305531476
 20
7.1843587578
 10
10.2130990694
 20
7.220611791
 10
10.194757561
 20
7.2565551256
 10
10.1755576238
 20
7.292131928
 10
10.1555296172
 20
7.3272859438
 10
10.1347052093
 20
7.3619615874
 10
10.1131173279
 20
7.3961040294
 10
10.090800108
 20
7.4296592836
 10
10.0677888374
 20
7.4625742923
 10
10.044119902
 20
7.49479701
 10
10.019830727
 20
7.5262764861
 10
9.9949597187
 20
7.5569629449
 10
9.9695462032
 20
7.5868078649
 10
9.9436303645
 20
7.6157640552
 10
9.917253181
 20
7.64378573
 10
9.8904563602
 20
7.6708285814
 10
9.8632822737
 20
7.696849849
 10
9.835773889
 20
7.7218083878
 10
9.8079747028
 20
7.7456647333
 10
9.7799286711
 20
7.7683811637
 10
9.7516801405
 20
7.7899217596
 10
9.7232737778
 20
7.8102524609
 10
9.6947544992
 20
7.8293411207
 10
9.6661673996
 20
7.8471575557
 10
9.6375576812
 20
7.8636735946
 10
9.6089705816
 20
7.8788631222
 10
9.580451303
 20
7.8927021206
 10
9.5520449403
 20
7.9051687075
 10
9.5237964097
 20
7.9162431708
 10
9.495750378
 20
7.9259079994
 10
9.4679511918
 20
7.9341479111
 10
9.4404428071
 20
7.9409498772
 10
9.4132687206
 20
7.9463031421
 10
9.3864718998
 20
7.9501992414
 10
9.3600947163
 20
7.9526320145
 10
9.3341788776
 20
7.9535976146
 10
9.3087653621
 20
7.953094515
 10
9.2838943538
 20
7.9511235112
 10
9.2596051788
 20
7.9476877197
 10
9.2359362434
 20
7.9427925731
 10
9.2129249728
 20
7.9364458119
 10
9.1906077529
 20
7.9286574714
 10
9.1690198715
 20
7.9194398667
 10
9.1481954636
 20
7.9088075726
 10
9.128167457
 20
7.8967774011
 10
9.1089675198
 20
7.8833683743
 10
9.0906260114
 20
7.8686016945
 10
9.0731719332
 20
7.8525007111
 10
9.0566328838
 20
7.8350908829
 10
9.0410350148
 20
7.8163997385
 10
9.0264029898
 20
7.7964568323
 10
9.0127599448
 20
7.7752936983
 10
9.0001274524
 20
7.7529437997
 10
8.9885254871
 20
7.7294424763
 10
8.9779723941
 20
7.7048268885
 10
8.9684848599
 20
7.6791359586
 10
8.9600778862
 20
7.6524103092
 10
8.9527647663
 20
7.6246921991
 10
8.9465570637
 20
7.5960254564
 10
8.941464594
 20
7.566455409
 10
8.9374954095
 20
7.5360288132
 10
8.9346557863
 20
7.5047937798
 10
8.9329502143
 20
7.4727996978
 10
8.9323813905
 20
7.4400971564
  0
ARC
  5
307
330
1F
100
AcDbEntity
  8
0
  6
Continuous
 62
     7
370
     0
100
AcDbCircle
 10
9.047553391
 20
6.6758892832
 30
0.0
 40
1.673737949627868
100
AcDbArc
 50
2.5807340673
 51
57.4138894
  0
LWPOLYLINE
  5
308
330
1F
100
AcDbEntity
  8
0
  6
Continuous
 62
     7
370
     0
100
AcDbPolyline
 90
       50
 70
   128
 43
0.0
 10
10.7461102843
 20
6.8257500522
 10
10.7455414605
 20
6.8591093436
 10
10.7438358885
 20
6.8930726371
 10
10.7409962653
 20
6.9275862297
 10
10.7370270808
 20
6.9625955484
 10
10.7319346111
 20
6.9980452361
 10
10.7257269085
 20
7.0338792397
 10
10.7184137886
 20
7.0700408983
 10
10.710006815
 20
7.1064730328
 10
10.7005192808
 20
7.1431180366
 10
10.6899661877
 20
7.1799179662
 10
10.6783642225
 20
7.2168146336
 10
10.66573173
 20
7.2537496975
 10
10.6520886851
 20
7.290664756
 10
10.63745666
 20
7.3275014387
 10
10.621858791
 20
7.3642014993
 10
10.6053197417
 20
7.4007069074
 10
10.5878656635
 20
7.4369599406
 10
10.569524155
 20
7.4729032753
 10
10.5503242179
 20
7.5084800776
 10
10.5302962112
 20
7.5436340935
 10
10.5094718033
 20
7.5783097371
 10
10.487883922
 20
7.6124521791
 10
10.465566702
 20
7.6460074333
 10
10.4425554315
 20
7.6789224419
 10
10.418886496
 20
7.7111451597
 10
10.394597321
 20
7.7426246357
 10
10.3697263127
 20
7.7733110945
 10
10.3443127972
 20
7.8031560146
 10
10.3183969585
 20
7.8321122048
 10
10.292019775
 20
7.8601338797
 10
10.2652229543
 20
7.887176731
 10
10.2380488677
 20
7.9131979986
 10
10.2105404831
 20
7.9381565374
 10
10.1827412968
 20
7.9620128829
 10
10.1546952651
 20
7.9847293133
 10
10.1264467345
 20
8.0062699092
 10
10.0980403718
 20
8.0266006105
 10
10.0695210932
 20
8.0456892703
 10
10.0409339937
 20
8.0635057053
 10
10.0123242752
 20
8.0800217443
 10
9.9837371756
 20
8.0952112718
 10
9.9552178971
 20
8.1090502702
 10
9.9268115343
 20
8.1215168572
 10
9.8985630038
 20
8.1325913204
 10
9.8705169721
 20
8.142256149
 10
9.8427177858
 20
8.1504960608
 10
9.8152094012
 20
8.1572980268
 10
9.7880353146
 20
8.1626512918
 10
9.7805177507
 20
8.1638854031
  0
ARC
  5
309
330
1F
100
AcDbEntity
  8
0
  6
Continuous
 62
     7
370
     0
100
AcDbCircle
 10
10.0219639038
 20
6.8138319893
 30
0.0
 40
0.7242444481119863
100
AcDbArc
 50
340.0316403511
 51
0.9428937051
  0
ARC
  5
30A
330
1F
100
AcDbEntity
  8
0
  6
Continuous
 62
     7
370
     0
100
AcDbCircle
 10
8.7464627356
 20
6.5028816439
 30
0.0
 40
1.886664191935945
100
AcDbArc
 50
32.9768024204
 51
33.5608613522
  0
SPLINE
  5
30B
330
1F
100
AcDbEntity
  8
0
  6
Continuous
 62
     7
370
     0
100
AcDbSpline
210
0.0
220
0.0
230
1.0
 70
     8
 71
     3
 72
    14
 73
    10
 74
     0
 42
0.000000001
 43
0.00000001
 40
0.0
 40
0.0
 40
0.0
 40
0.0
 40
0.1253839955034228
 40
0.2507191295888544
 40
0.4995238767913209
 40
0.6221861952457944
 40
0.7495943121208638
 40
0.8747213849328318
 40
1.0
 40
1.0
 40
1.0
 40
1.0
 10
10.31861824683168
 20
7.545871970716616
 30
0.0
 10
10.31799754394267
 20
7.546774106312175
 30
0.0
 10
10.31675638004897
 20
7.548578025946269
 30
0.0
 10
10.31396118188147
 20
7.551922520511106
 30
0.0
 10
10.31057217085711
 20
7.554883468539066
 30
0.0
 10
10.30660674457723
 20
7.556209289461074
 30
0.0
 10
10.30366577939242
 20
7.556308063261346
 30
0.0
 10
10.30090304986869
 20
7.555712358837786
 30
0.0
 10
10.29930278071127
 20
7.554889754697326
 30
0.0
 10
10.29850216190155
 20
7.554478203712449
 30
0.0
  0
SPLINE
  5
30C
330
1F
100
AcDbEntity
  8
0
  6
Continuous
 62
     7
370
     0
100
AcDbSpline
210
0.0
220
0.0
230
1.0
 70
     8
 71
     3
 72
    13
 73
     9
 74
     0
 42
0.000000001
 43
0.00000001
 40
0.0
 40
0.0
 40
0.0
 40
0.0
 40
0.1253123608593348
 40
0.2505410036197043
 40
0.5002407886108573
 40
0.749657883611242
 40
0.8747738520886714
 40
1.0
 40
1.0
 40
1.0
 40
1.0
 10
10.29850216190155
 20
7.554478203712449
 30
0.0
 10
10.29800938419076
 20
7.554170895443659
 30
0.0
 10
10.29702415798184
 20
7.553556484211155
 30
0.0
 10
10.2953122309213
 20
7.5520052855039
 30
0.0
 10
10.29368452837189
 20
7.549543146765036
 30
0.0
 10
10.29303483638565
 20
7.546487559461335
 30
0.0
 10
10.29320206907077
 20
7.543872969314932
 30
0.0
 10
10.29361740549569
 20
7.542566101050843
 30
0.0
 10
10.29382516510614
 20
7.541912379332341
 30
0.0
  0
SPLINE
  5
30D
330
1F
100
AcDbEntity
  8
0
  6
Continuous
 62
     7
370
     0
100
AcDbSpline
210
0.0
220
0.0
230
1.0
 70
     8
 71
     3
 72
    11
 73
     7
 74
     0
 42
0.000000001
 43
0.00000001
 40
0.0
 40
0.0
 40
0.0
 40
0.0
 40
0.2245830904408898
 40
0.49984700298044
 40
0.7047624397695431
 40
1.0
 40
1.0
 40
1.0
 40
1.0
 10
10.29382516510614
 20
7.541912379332341
 30
0.0
 10
10.29410616789706
 20
7.541294283493376
 30
0.0
 10
10.29473158632281
 20
7.539918608450104
 30
0.0
 10
10.29581665943184
 20
7.538051054130088
 30
0.0
 10
10.29708047332563
 20
7.536036133525847
 30
0.0
 10
10.29792120687392
 20
7.534749210657744
 30
0.0
 10
10.29841748725829
 20
7.533989547174676
 30
0.0
  0
ARC
  5
30E
330
1F
100
AcDbEntity
  8
0
  6
Continuous
 62
     7
370
     0
100
AcDbCircle
 10
8.7261283812
 20
6.491140756
 30
0.0
 40
1.886697282066863
100
AcDbArc
 50
32.9768058162
 51
33.5550368419
  0
LINE
  5
30F
330
1F
100
AcDbEntity
  8
0
  6
Continuous
 62
     7
370
     0
100
AcDbLine
 10
10.3088617079
 20
7.5180691133
 30
0.0
 11
10.3291683641
 21
7.5297918964
 31
0.0
  0
ARC
  5
310
330
1F
100
AcDbEntity
  8
0
  6
Continuous
 62
     7
370
     0
100
AcDbCircle
 10
8.81526996
 20
6.5514953145
 30
0.0
 40
1.809067926936505
100
AcDbArc
 50
37.1836346618
 51
38.0337116137
  0
SPLINE
  5
311
330
1F
100
AcDbEntity
  8
0
  6
Continuous
 62
     7
370
     0
100
AcDbSpline
210
0.0
220
0.0
230
1.0
 70
     8
 71
     3
 72
     8
 73
     4
 74
     0
 42
0.000000001
 43
0.00000001
 40
0.0
 40
0.0
 40
0.0
 40
0.0
 40
1.0
 40
1.0
 40
1.0
 40
1.0
 10
10.24017937320751
 20
7.666107322498536
 30
0.0
 10
10.23678956074903
 20
7.661244531225614
 30
0.0
 10
10.23339638946174
 20
7.656377290226361
 30
0.0
 10
10.22999982033809
 20
7.651505649584511
 30
0.0
  0
SPLINE
  5
312
330
1F
100
AcDbEntity
  8
0
  6
Continuous
 62
     7
370
     0
100
AcDbSpline
210
0.0
220
0.0
230
1.0
 70
     8
 71
     3
 72
     8
 73
     4
 74
     0
 42
0.000000001
 43
0.00000001
 40
0.0
 40
0.0
 40
0.0
 40
0.0
 40
1.0
 40
1.0
 40
1.0
 40
1.0
 10
10.22999982033809
 20
7.651505649584511
 30
0.0
 10
10.22743262365162
 20
7.647821000566148
 30
0.0
 10
10.22486348137953
 20
7.6441338323326
 30
0.0
 10
10.22229237668492
 20
7.640444166668027
 30
0.0
  0
SPLINE
  5
313
330
1F
100
AcDbEntity
  8
0
  6
Continuous
 62
     7
370
     0
100
AcDbSpline
210
0.0
220
0.0
230
1.0
 70
     8
 71
     3
 72
    11
 73
     7
 74
     0
 42
0.000000001
 43
0.00000001
 40
0.0
 40
0.0
 40
0.0
 40
0.0
 40
0.250010043689009
 40
0.4999937932095435
 40
0.7499834514766642
 40
0.9999999999999999
 40
0.9999999999999999
 40
0.9999999999999999
 40
0.9999999999999999
 10
10.22229237668492
 20
7.640444166668027
 30
0.0
 10
10.22338332964911
 20
7.640725696834361
 30
0.0
 10
10.22556512083929
 20
7.641288727557812
 30
0.0
 10
10.22898196914668
 20
7.641804908862159
 30
0.0
 10
10.23245563864929
 20
7.642158391311743
 30
0.0
 10
10.23482728789395
 20
7.642195485481769
 30
0.0
 10
10.23601317628974
 20
7.642214033564241
 30
0.0
  0
SPLINE
  5
314
330
1F
100
AcDbEntity
  8
0
  6
Continuous
 62
     7
370
     0
100
AcDbSpline
210
0.0
220
0.0
230
1.0
 70
     8
 71
     3
 72
     8
 73
     4
 74
     0
 42
0.000000001
 43
0.00000001
 40
0.0
 40
0.0
 40
0.0
 40
0.0
 40
1.0
 40
1.0
 40
1.0
 40
1.0
 10
10.23601317628974
 20
7.642214033564241
 30
0.0
 10
10.24286564689143
 20
7.643095655849345
 30
0.0
 10
10.24971428271245
 20
7.643972475729837
 30
0.0
 10
10.2565590386271
 20
7.644844552417054
 30
0.0
  0
SPLINE
  5
315
330
1F
100
AcDbEntity
  8
0
  6
Continuous
 62
     7
370
     0
100
AcDbSpline
210
0.0
220
0.0
230
1.0
 70
     8
 71
     3
 72
    15
 73
    11
 74
     0
 42
0.000000001
 43
0.00000001
 40
0.0
 40
0.0
 40
0.0
 40
0.0
 40
0.1252951067982225
 40
0.2505670241322522
 40
0.377050793157142
 40
0.5008984838908662
 40
0.7495825887399732
 40
0.8746661269954594
 40
0.9373222084020646
 40
1.0
 40
1.0
 40
1.0
 40
1.0
 10
10.16175526931926
 20
7.753576102729972
 30
0.0
 10
10.16306131036131
 20
7.754393989577422
 30
0.0
 10
10.16567315072494
 20
7.756029611898831
 30
0.0
 10
10.16893925470062
 20
7.759127446577018
 30
0.0
 10
10.17141817907212
 20
7.762771633080061
 30
0.0
 10
10.1732064750519
 20
7.768351009296333
 30
0.0
 10
10.17273334718393
 20
7.774701161203612
 30
0.0
 10
10.1700712945617
 20
7.780012492717776
 30
0.0
 10
10.16804087658553
 20
7.782890385502837
 30
0.0
 10
10.16684439873342
 20
7.784243458772969
 30
0.0
 10
10.16624605618109
 20
7.784920112596943
 30
0.0
  0
SPLINE
  5
316
330
1F
100
AcDbEntity
  8
0
  6
Continuous
 62
     7
370
     0
100
AcDbSpline
210
0.0
220
0.0
230
1.0
 70
     8
 71
     3
 72
    14
 73
    10
 74
     0
 42
0.000000001
 43
0.00000001
 40
0.0
 40
0.0
 40
0.0
 40
0.0
 40
0.0627712587146605
 40
0.1255164908687006
 40
0.2507936783371126
 40
0.4996926161412397
 40
0.7490368580308162
 40
0.8744925538895081
 40
1.0
 40
1.0
 40
1.0
 40
1.0
 10
10.16624605618109
 20
7.784920112596943
 30
0.0
 10
10.16559689793096
 20
7.785593314281805
 30
0.0
 10
10.16429885058822
 20
7.786939438524987
 30
0.0
 10
10.16138110311086
 20
7.789397463205527
 30
0.0
 10
10.15565993328202
 20
7.793064939211893
 30
0.0
 10
10.14603612759021
 20
7.795883042799233
 30
0.0
 10
10.13695157809258
 20
7.794975083421971
 30
0.0
 10
10.13063511295145
 20
7.792784261834369
 30
0.0
 10
10.12781140906294
 20
7.791261332537313
 30
0.0
 10
10.12639926598551
 20
7.790499710869764
 30
0.0
  0
SPLINE
  5
317
330
1F
100
AcDbEntity
  8
0
  6
Continuous
 62
     7
370
     0
100
AcDbSpline
210
0.0
220
0.0
230
1.0
 70
     8
 71
     3
 72
    15
 73
    11
 74
     0
 42
0.000000001
 43
0.00000001
 40
0.0
 40
0.0
 40
0.0
 40
0.0
 40
0.074284455383826
 40
0.1433906268050435
 40
0.2866474824502594
 40
0.5007283791548293
 40
0.7493687920853693
 40
0.8745590569702911
 40
0.9372675318370971
 40
1.0
 40
1.0
 40
1.0
 40
1.0
 10
10.12639926598551
 20
7.790499710869764
 30
0.0
 10
10.12560302839123
 20
7.790011753660192
 30
0.0
 10
10.12406605800973
 20
7.78906985417701
 30
0.0
 10
10.12120320463271
 20
7.786983140297321
 30
0.0
 10
10.11752589330136
 20
7.783384089697599
 30
0.0
 10
10.11409186718177
 20
7.777028740526534
 30
0.0
 10
10.1146389313399
 20
7.769474759847465
 30
0.0
 10
10.11730235529642
 20
7.764094501943668
 30
0.0
 10
10.11933776678303
 20
7.76114819545086
 30
0.0
 10
10.12056416763025
 20
7.759766068995738
 30
0.0
 10
10.12117748534172
 20
7.759074873587373
 30
0.0
  0
SPLINE
  5
318
330
1F
100
AcDbEntity
  8
0
  6
Continuous
 62
     7
370
     0
100
AcDbSpline
210
0.0
220
0.0
230
1.0
 70
     8
 71
     3
 72
    16
 73
    12
 74
     0
 42
0.000000001
 43
0.00000001
 40
0.0
 40
0.0
 40
0.0
 40
0.0
 40
0.0625794781288198
 40
0.1251437417759406
 40
0.2500356406551111
 40
0.3749737287994387
 40
0.4998276230516497
 40
0.6246967345498219
 40
0.7497162312909456
 40
0.874837434408727
 40
0.9999999999999999
 40
0.9999999999999999
 40
0.9999999999999999
 40
0.9999999999999999
 10
10.12117748534172
 20
7.759074873587373
 30
0.0
 10
10.1218445846452
 20
7.75837959723683
 30
0.0
 10
10.12317862106527
 20
7.756989213573099
 30
0.0
 10
10.12621189366142
 20
7.754472063023118
 30
0.0
 10
10.13043010788924
 20
7.751720148111232
 30
0.0
 10
10.13602429987333
 20
7.749447317799936
 30
0.0
 10
10.14182291550201
 20
7.748052605845268
 30
0.0
 10
10.14745530455182
 20
7.7482297820893
 30
0.0
 10
10.15264284088479
 20
7.749372794148988
 30
0.0
 10
10.15740946462911
 20
7.751215204854473
 30
0.0
 10
10.16030650816517
 20
7.752789050072375
 30
0.0
 10
10.16175526931926
 20
7.753576102729972
 30
0.0
  0
ARC
  5
319
330
1F
100
AcDbEntity
  8
0
  6
Continuous
 62
     7
370
     0
100
AcDbCircle
 10
9.0959774178
 20
6.8663408252
 30
0.0
 40
1.307806276653842
100
AcDbArc
 50
51.6515979668
 51
52.7069582864
  0
SPLINE
  5
31A
330
1F
100
AcDbEntity
  8
0
  6
Continuous
 62
     7
370
     0
100
AcDbSpline
210
0.0
220
0.0
230
1.0
 70
     8
 71
     3
 72
     8
 73
     4
 74
     0
 42
0.000000001
 43
0.00000001
 40
0.0
 40
0.0
 40
0.0
 40
0.0
 40
1.0
 40
1.0
 40
1.0
 40
1.0
 10
9.88836650304929
 20
7.906762275697504
 30
0.0
 10
9.88521981086053
 20
7.902523674297186
 30
0.0
 10
9.882072098915643
 20
7.898278280992684
 30
0.0
 10
9.878923322079661
 20
7.894026130344585
 30
0.0
  0
SPLINE
  5
31B
330
1F
100
AcDbEntity
  8
0
  6
Continuous
 62
     7
370
     0
100
AcDbSpline
210
0.0
220
0.0
230
1.0
 70
     8
 71
     3
 72
     8
 73
     4
 74
     0
 42
0.000000001
 43
0.00000001
 40
0.0
 40
0.0
 40
0.0
 40
0.0
 40
1.0
 40
1.0
 40
1.0
 40
1.0
 10
9.878923322079661
 20
7.894026130344585
 30
0.0
 10
9.876543630072742
 20
7.890810250043144
 30
0.0
 10
9.874163328313987
 20
7.887590500517673
 30
0.0
 10
9.87178239726729
 20
7.884366896871176
 30
0.0
  0
SPLINE
  5
31C
330
1F
100
AcDbEntity
  8
0
  6
Continuous
 62
     7
370
     0
100
AcDbSpline
210
0.0
220
0.0
230
1.0
 70
     8
 71
     3
 72
    11
 73
     7
 74
     0
 42
0.000000001
 43
0.00000001
 40
0.0
 40
0.0
 40
0.0
 40
0.0
 40
0.2500100436890085
 40
0.4999937932095391
 40
0.7499834514766595
 40
1.0
 40
1.0
 40
1.0
 40
1.0
 10
9.87178239726729
 20
7.884366896871176
 30
0.0
 10
9.872903394249855
 20
7.884722007335219
 30
0.0
 10
9.87514527031699
 20
7.885432190915465
 30
0.0
 10
9.878688124492125
 20
7.886255557641142
 30
0.0
 10
9.88230507838183
 20
7.886956971498855
 30
0.0
 10
9.88479281489464
 20
7.887273902570484
 30
0.0
 10
9.886036750046086
 20
7.887432376628549
 30
0.0
  0
SPLINE
  5
31D
330
1F
100
AcDbEntity
  8
0
  6
Continuous
 62
     7
370
     0
100
AcDbSpline
210
0.0
220
0.0
230
1.0
 70
     8
 71
     3
 72
     8
 73
     4
 74
     0
 42
0.000000001
 43
0.00000001
 40
0.0
 40
0.0
 40
0.0
 40
0.0
 40
1.0
 40
1.0
 40
1.0
 40
1.0
 10
9.886036750046086
 20
7.887432376628549
 30
0.0
 10
9.893157458977132
 20
7.888959411590189
 30
0.0
 10
9.900276912747168
 20
7.890479001964295
 30
0.0
 10
9.907395058725816
 20
7.891991189150335
 30
0.0
  0
SPLINE
  5
31E
330
1F
100
AcDbEntity
  8
0
  6
Continuous
 62
     7
370
     0
100
AcDbSpline
210
0.0
220
0.0
230
1.0
 70
     8
 71
     3
 72
    15
 73
    11
 74
     0
 42
0.000000001
 43
0.00000001
 40
0.0
 40
0.0
 40
0.0
 40
0.0
 40
0.1252951067981939
 40
0.2505670241321941
 40
0.3770507931524848
 40
0.5008984838909741
 40
0.7495825887400309
 40
0.8746661269954853
 40
0.9373222084020721
 40
1.0
 40
1.0
 40
1.0
 40
1.0
 10
10.02676569718119
 20
7.887357156723161
 30
0.0
 10
10.02806914660558
 20
7.88816819157878
 30
0.0
 10
10.03067580421354
 20
7.889790111184684
 30
0.0
 10
10.03389282475728
 20
7.892757894199211
 30
0.0
 10
10.03628245063039
 20
7.896164208139615
 30
0.0
 10
10.03788832874123
 20
7.901253245877608
 30
0.0
 10
10.03715247615573
 20
7.906884566890734
 30
0.0
 10
10.03422406579301
 20
7.911444547400031
 30
0.0
 10
10.03203761747311
 20
7.913875785910041
 30
0.0
 10
10.03076306842394
 20
7.915002436786811
 30
0.0
 10
10.03012568351138
 20
7.91556585980379
 30
0.0
  0
SPLINE
  5
31F
330
1F
100
AcDbEntity
  8
0
  6
Continuous
 62
     7
370
     0
100
AcDbSpline
210
0.0
220
0.0
230
1.0
 70
     8
 71
     3
 72
    14
 73
    10
 74
     0
 42
0.000000001
 43
0.00000001
 40
0.0
 40
0.0
 40
0.0
 40
0.0
 40
0.0627712587146597
 40
0.125516490868695
 40
0.2507936783371121
 40
0.4996926161412404
 40
0.7490368580308168
 40
0.8744925538895073
 40
1.0
 40
1.0
 40
1.0
 40
1.0
 10
10.03012568351138
 20
7.91556585980379
 30
0.0
 10
10.02943665442802
 20
7.916122716975873
 30
0.0
 10
10.02805888195029
 20
7.917236200432888
 30
0.0
 10
10.02498492539922
 20
7.919232189509486
 30
0.0
 10
10.01900355867959
 20
7.922118148681605
 30
0.0
 10
10.00907403567098
 20
7.923986801396304
 30
0.0
 10
9.99983418108257
 20
7.922582532340315
 30
0.0
 10
9.99346572036811
 20
7.92022490879255
 30
0.0
 10
9.990638198719886
 20
7.918689684055725
 30
0.0
 10
9.989224146368985
 20
7.917921913400591
 30
0.0
  0
SPLINE
  5
320
330
1F
100
AcDbEntity
  8
0
  6
Continuous
 62
     7
370
     0
100
AcDbSpline
210
0.0
220
0.0
230
1.0
 70
     8
 71
     3
 72
    15
 73
    11
 74
     0
 42
0.000000001
 43
0.00000001
 40
0.0
 40
0.0
 40
0.0
 40
0.0
 40
0.07428445538404
 40
0.1433906268050416
 40
0.286647482450255
 40
0.5007283791548248
 40
0.7493687920853717
 40
0.874559056970292
 40
0.9372675318370987
 40
1.0
 40
1.0
 40
1.0
 40
1.0
 10
9.989224146368985
 20
7.917921913400591
 30
0.0
 10
9.988428918144319
 20
7.917437201389588
 30
0.0
 10
9.986893896140073
 20
7.916501566084485
 30
0.0
 10
9.984046528269692
 20
7.914464616699282
 30
0.0
 10
9.980421970621537
 20
7.911034692431119
 30
0.0
 10
9.977144881521328
 20
7.90517932953913
 30
0.0
 10
9.977979223845768
 20
7.898517711603549
 30
0.0
 10
9.980900813225825
 20
7.893913208263204
 30
0.0
 10
9.983091582793323
 20
7.891426672322389
 30
0.0
 10
9.984397474642202
 20
7.890276638258593
 30
0.0
 10
9.985050545456687
 20
7.889701511242237
 30
0.0
  0
SPLINE
  5
321
330
1F
100
AcDbEntity
  8
0
  6
Continuous
 62
     7
370
     0
100
AcDbSpline
210
0.0
220
0.0
230
1.0
 70
     8
 71
     3
 72
    16
 73
    12
 74
     0
 42
0.000000001
 43
0.00000001
 40
0.0
 40
0.0
 40
0.0
 40
0.0
 40
0.0625794781288147
 40
0.1251437417759453
 40
0.250035640655114
 40
0.3749737287994394
 40
0.4998276230516485
 40
0.624696734549821
 40
0.7497162312909464
 40
0.8748374344087271
 40
1.0
 40
1.0
 40
1.0
 40
1.0
 10
9.985050545456687
 20
7.889701511242237
 30
0.0
 10
9.985758903898395
 20
7.889125942782867
 30
0.0
 10
9.98717544856391
 20
7.887974945797794
 30
0.0
 10
9.99037318962539
 20
7.885928463559425
 30
0.0
 10
9.994793316253713
 20
7.883745404453646
 30
0.0
 10
10.00060446102603
 20
7.882071748653677
 30
0.0
 10
10.00659213360669
 20
7.881190250897622
 30
0.0
 10
10.01234812762533
 20
7.881698542932915
 30
0.0
 10
10.01761044766851
 20
7.883040472190832
 30
0.0
 10
10.02241389875858
 20
7.884980405364927
 30
0.0
 10
10.02531493789618
 20
7.886564818989132
 30
0.0
 10
10.02676569718119
 20
7.887357156723161
 30
0.0
  0
SPLINE
  5
322
330
1F
100
AcDbEntity
  8
0
  6
Continuous
 62
     7
370
     0
100
AcDbSpline
210
0.0
220
0.0
230
1.0
 70
     8
 71
     3
 72
    14
 73
    10
 74
     0
 42
0.000000001
 43
0.00000001
 40
0.0
 40
0.0
 40
0.0
 40
0.0
 40
0.2504464664184501
 40
0.500626983625378
 40
0.6256171862413126
 40
0.7503617214490084
 40
0.8749138878876715
 40
0.9374334273388318
 40
1.0
 40
1.0
 40
1.0
 40
1.0
 10
9.813642805429023
 20
7.954517342161394
 30
0.0
 10
9.815904153715984
 20
7.955867743227879
 30
0.0
 10
9.820424448963172
 20
7.958567111369372
 30
0.0
 10
9.825384796251848
 20
7.962353905007619
 30
0.0
 10
9.828318481774561
 20
7.965851887059753
 30
0.0
 10
9.828835293695661
 20
7.96884806462025
 30
0.0
 10
9.828089889105454
 20
7.971351343254859
 30
0.0
 10
9.826540012537452
 20
7.97315585675338
 30
0.0
 10
9.825449102179478
 20
7.973921732944421
 30
0.0
 10
9.824903441905716
 20
7.974304815027213
 30
0.0
  0
SPLINE
  5
323
330
1F
100
AcDbEntity
  8
0
  6
Continuous
 62
     7
370
     0
100
AcDbSpline
210
0.0
220
0.0
230
1.0
 70
     8
 71
     3
 72
    14
 73
    10
 74
     0
 42
0.000000001
 43
0.00000001
 40
0.0
 40
0.0
 40
0.0
 40
0.0
 40
0.0625718620266085
 40
0.1250838325594709
 40
0.2496292595893074
 40
0.3743667264462936
 40
0.4993490079196421
 40
0.7495426895023105
 40
1.0
 40
1.0
 40
1.0
 40
1.0
 10
9.824903441905716
 20
7.974304815027213
 30
0.0
 10
9.824302529405916
 20
7.974655654734376
 30
0.0
 10
9.823101279577742
 20
7.97535699833779
 30
0.0
 10
9.820206245896388
 20
7.976356473048812
 30
0.0
 10
9.816166599507776
 20
7.976943352798663
 30
0.0
 10
9.811251541017814
 20
7.976730125078899
 30
0.0
 10
9.805377513033608
 20
7.975122178209165
 30
0.0
 10
9.798916148902542
 20
7.972290141910201
 30
0.0
 10
9.794250579083293
 20
7.969685534025711
 30
0.0
 10
9.79191656579389
 20
7.968382544326359
 30
0.0
  0
SPLINE
  5
324
330
1F
100
AcDbEntity
  8
0
  6
Continuous
 62
     7
370
     0
100
AcDbSpline
210
0.0
220
0.0
230
1.0
 70
     8
 71
     3
 72
    15
 73
    11
 74
     0
 42
0.000000001
 43
0.00000001
 40
0.0
 40
0.0
 40
0.0
 40
0.0
 40
0.2504089787798934
 40
0.3868224180874503
 40
0.5007925876291436
 40
0.625735960601813
 40
0.7504625586280246
 40
0.8749216804690251
 40
0.9374459870515642
 40
1.0
 40
1.0
 40
1.0
 40
1.0
 10
9.79191656579389
 20
7.968382544326359
 30
0.0
 10
9.7896484950062
 20
7.967029731622878
 30
0.0
 10
9.786144864142951
 20
7.964939957191747
 30
0.0
 10
9.78207593367023
 20
7.961972360359403
 30
0.0
 10
9.779356691117737
 20
7.959600836178462
 30
0.0
 10
9.777278289730013
 20
7.957060601741425
 30
0.0
 10
9.776697612261634
 20
7.95411550590951
 30
0.0
 10
9.777497983095044
 20
7.951637918560126
 30
0.0
 10
9.779096866216042
 20
7.949861648351517
 30
0.0
 10
9.780194304085253
 20
7.949097502079715
 30
0.0
 10
9.780743153341769
 20
7.948715338200635
 30
0.0
  0
SPLINE
  5
325
330
1F
100
AcDbEntity
  8
0
  6
Continuous
 62
     7
370
     0
100
AcDbSpline
210
0.0
220
0.0
230
1.0
 70
     8
 71
     3
 72
    11
 73
     7
 74
     0
 42
0.000000001
 43
0.00000001
 40
0.0
 40
0.0
 40
0.0
 40
0.0
 40
0.2499764207202803
 40
0.4998293549776699
 40
0.7498122864636071
 40
1.0
 40
1.0
 40
1.0
 40
1.0
 10
9.780743153341769
 20
7.948715338200635
 30
0.0
 10
9.781517455981797
 20
7.94826983783865
 30
0.0
 10
9.783065678762203
 20
7.947379057188492
 30
0.0
 10
9.785939502853525
 20
7.946502257810112
 30
0.0
 10
9.78902661077894
 20
7.946047351893506
 30
0.0
 10
9.791095566278996
 20
7.946092950532446
 30
0.0
 10
9.792130467569422
 20
7.946115759186513
 30
0.0
  0
SPLINE
  5
326
330
1F
100
AcDbEntity
  8
0
  6
Continuous
 62
     7
370
     0
100
AcDbSpline
210
0.0
220
0.0
230
1.0
 70
     8
 71
     3
 72
    12
 73
     8
 74
     0
 42
0.000000001
 43
0.00000001
 40
0.0
 40
0.0
 40
0.0
 40
0.0
 40
0.1249203065853088
 40
0.2499253476585026
 40
0.4998213427851134
 40
0.7498857630912065
 40
1.0
 40
1.0
 40
1.0
 40
1.0
 10
9.792130467569422
 20
7.946115759186513
 30
0.0
 10
9.793197222387274
 20
7.946256898751525
 30
0.0
 10
9.795331455611686
 20
7.946539273617694
 30
0.0
 10
9.799261437423802
 20
7.947659703351614
 30
0.0
 10
9.803825215437826
 20
7.949407987945432
 30
0.0
 10
9.80889573728414
 20
7.951849907179827
 30
0.0
 10
9.812060344318288
 20
7.953628138131682
 30
0.0
 10
9.813642805429023
 20
7.954517342161394
 30
0.0
  0
SPLINE
  5
327
330
1F
100
AcDbEntity
  8
0
  6
Continuous
 62
     7
370
     0
100
AcDbSpline
210
0.0
220
0.0
230
1.0
 70
     8
 71
     3
 72
    14
 73
    10
 74
     0
 42
0.000000001
 43
0.00000001
 40
0.0
 40
0.0
 40
0.0
 40
0.0
 40
0.2504464664184483
 40
0.5006269836253814
 40
0.6256171862413121
 40
0.7503617214490065
 40
0.8749138878876701
 40
0.9374334273388313
 40
1.0
 40
1.0
 40
1.0
 40
1.0
 10
9.726664667851223
 20
8.005805763312818
 30
0.0
 10
9.728925972363614
 20
8.007151466222048
 30
0.0
 10
9.73344618010815
 20
8.009841443038
 30
0.0
 10
9.73840564631594
 20
8.01353171574638
 30
0.0
 10
9.741337876948633
 20
8.016840626357325
 30
0.0
 10
9.741853034443915
 20
8.019553277695005
 30
0.0
 10
9.741106757828932
 20
8.021746760558731
 30
0.0
 10
9.739556833339197
 20
8.023265012226815
 30
0.0
 10
9.738466259224607
 20
8.023882295139796
 30
0.0
 10
9.737920767135753
 20
8.024191052647524
 30
0.0
  0
SPLINE
  5
328
330
1F
100
AcDbEntity
  8
0
  6
Continuous
 62
     7
370
     0
100
AcDbSpline
210
0.0
220
0.0
230
1.0
 70
     8
 71
     3
 72
    14
 73
    10
 74
     0
 42
0.000000001
 43
0.00000001
 40
0.0
 40
0.0
 40
0.0
 40
0.0
 40
0.0625718620266076
 40
0.1250838325594668
 40
0.2496292595893116
 40
0.3743667264462982
 40
0.4993490079196454
 40
0.7495426895023123
 40
1.0
 40
1.0
 40
1.0
 40
1.0
 10
9.737920767135753
 20
8.024191052647524
 30
0.0
 10
9.73732010636898
 20
8.024467469987183
 30
0.0
 10
9.736119359765912
 20
8.02502004008995
 30
0.0
 10
9.733225983235771
 20
8.025733531154918
 30
0.0
 10
9.729188979774353
 20
8.02600651356976
 30
0.0
 10
9.724277153491894
 20
8.025509706658733
 30
0.0
 10
9.718405673987393
 20
8.023708508181583
 30
0.0
 10
9.711945737818905
 20
8.020778908972732
 30
0.0
 10
9.707280310242881
 20
8.018164655454129
 30
0.0
 10
9.704946368112543
 20
8.01685684039816
 30
0.0
  0
SPLINE
  5
329
330
1F
100
AcDbEntity
  8
0
  6
Continuous
 62
     7
370
     0
100
AcDbSpline
210
0.0
220
0.0
230
1.0
 70
     8
 71
     3
 72
    15
 73
    11
 74
     0
 42
0.000000001
 43
0.00000001
 40
0.0
 40
0.0
 40
0.0
 40
0.0
 40
0.2504089787798808
 40
0.3868224180960004
 40
0.500792587629175
 40
0.6257359606018353
 40
0.7504625586280422
 40
0.874921680469035
 40
0.9374459870515663
 40
1.0
 40
1.0
 40
1.0
 40
1.0
 10
9.704946368112543
 20
8.01685684039816
 30
0.0
 10
9.70267822622423
 20
8.015508754918406
 30
0.0
 10
9.699174485527324
 20
8.01342628292551
 30
0.0
 10
9.69510458172426
 20
8.010525880507593
 30
0.0
 10
9.692384135561447
 20
8.00824134340915
 30
0.0
 10
9.69030382610775
 20
8.005846371851264
 30
0.0
 10
9.68971994761622
 20
8.00318328833579
 30
0.0
 10
9.690517668232411
 20
8.001021807386886
 30
0.0
 10
9.69211489924854
 20
7.999534540657388
 30
0.0
 10
9.693211846290858
 20
7.998919452732043
 30
0.0
 10
9.69376045007564
 20
7.998611835727028
 30
0.0
  0
SPLINE
  5
32A
330
1F
100
AcDbEntity
  8
0
  6
Continuous
 62
     7
370
     0
100
AcDbSpline
210
0.0
220
0.0
230
1.0
 70
     8
 71
     3
 72
    11
 73
     7
 74
     0
 42
0.000000001
 43
0.00000001
 40
0.0
 40
0.0
 40
0.0
 40
0.0
 40
0.2499764207202812
 40
0.4998293549776559
 40
0.7498122864636015
 40
1.0
 40
1.0
 40
1.0
 40
1.0
 10
9.69376045007564
 20
7.998611835727028
 30
0.0
 10
9.694534561283833
 20
7.998261320722025
 30
0.0
 10
9.696082401295133
 20
7.99756046386378
 30
0.0
 10
9.698956521250379
 20
7.996952191849889
 30
0.0
 10
9.702044359740343
 20
7.996733419886265
 30
0.0
 10
9.704113953506887
 20
7.996899855694052
 30
0.0
 10
9.70514917406122
 20
7.996983107669383
 30
0.0
  0
SPLINE
  5
32B
330
1F
100
AcDbEntity
  8
0
  6
Continuous
 62
     7
370
     0
100
AcDbSpline
210
0.0
220
0.0
230
1.0
 70
     8
 71
     3
 72
    12
 73
     8
 74
     0
 42
0.000000001
 43
0.00000001
 40
0.0
 40
0.0
 40
0.0
 40
0.0
 40
0.1249203065853079
 40
0.2499253476584985
 40
0.4998213427851149
 40
0.7498857630912025
 40
1.0
 40
1.0
 40
1.0
 40
1.0
 10
9.70514917406122
 20
7.996983107669383
 30
0.0
 10
9.706216233076676
 20
7.997174112793327
 30
0.0
 10
9.708351074902637
 20
7.997556252601585
 30
0.0
 10
9.712281976674358
 20
7.998797014764276
 30
0.0
 10
9.716846537802425
 20
8.000638061704894
 30
0.0
 10
9.721917528760294
 20
8.003130699747004
 30
0.0
 10
9.725082183090235
 20
8.004914016252854
 30
0.0
 10
9.726664667851223
 20
8.005805763312818
 30
0.0
  0
SPLINE
  5
32C
330
1F
100
AcDbEntity
  8
0
  6
Continuous
 62
     7
370
     0
100
AcDbSpline
210
0.0
220
0.0
230
1.0
 70
     8
 71
     3
 72
    14
 73
    10
 74
     0
 42
0.000000001
 43
0.00000001
 40
0.0
 40
0.0
 40
0.0
 40
0.0
 40
0.2504464664184513
 40
0.5006269836253823
 40
0.6256171862413131
 40
0.7503617214490077
 40
0.8749138878876708
 40
0.9374334273388257
 40
1.0
 40
1.0
 40
1.0
 40
1.0
 10
9.624771977079686
 20
8.114550410198504
 30
0.0
 10
9.627034573462504
 20
8.115885993975832
 30
0.0
 10
9.63155736357606
 20
8.118555743273498
 30
0.0
 10
9.636543403577763
 20
8.122038133130093
 30
0.0
 10
9.639528179873404
 20
8.124939961206364
 30
0.0
 10
9.64012308899342
 20
8.12704241950958
 30
0.0
 10
9.63946564901811
 20
8.128569628308899
 30
0.0
 10
9.63799918610636
 20
8.129472588741217
 30
0.0
 10
9.636952589841034
 20
8.1297706609004
 30
0.0
 10
9.636429094944791
 20
8.12991975301855
 30
0.0
  0
SPLINE
  5
32D
330
1F
100
AcDbEntity
  8
0
  6
Continuous
 62
     7
370
     0
100
AcDbSpline
210
0.0
220
0.0
230
1.0
 70
     8
 71
     3
 72
    14
 73
    10
 74
     0
 42
0.000000001
 43
0.00000001
 40
0.0
 40
0.0
 40
0.0
 40
0.0
 40
0.0625718620266098
 40
0.1250838325594632
 40
0.2496292595893118
 40
0.3743667264462966
 40
0.4993490079196481
 40
0.7495426895023134
 40
1.0
 40
1.0
 40
1.0
 40
1.0
 10
9.636429094944791
 20
8.12991975301855
 30
0.0
 10
9.635850611330298
 20
8.13003633542387
 30
0.0
 10
9.634694197804633
 20
8.130269388646106
 30
0.0
 10
9.631887291840561
 20
8.130369015822986
 30
0.0
 10
9.627946692404795
 20
8.129968618469613
 30
0.0
 10
9.623123489467893
 20
8.128863881803857
 30
0.0
 10
9.6173130311342
 20
8.126648563740375
 30
0.0
 10
9.610884157653588
 20
8.123509965377604
 30
0.0
 10
9.606221803047728
 20
8.120875049511483
 30
0.0
 10
9.60388939821154
 20
8.119556897841647
 30
0.0
  0
SPLINE
  5
32E
330
1F
100
AcDbEntity
  8
0
  6
Continuous
 62
     7
370
     0
100
AcDbSpline
210
0.0
220
0.0
230
1.0
 70
     8
 71
     3
 72
    15
 73
    11
 74
     0
 42
0.000000001
 43
0.00000001
 40
0.0
 40
0.0
 40
0.0
 40
0.0
 40
0.2504089787798943
 40
0.3868224180876263
 40
0.5007925876291441
 40
0.625735960601817
 40
0.7504625586280265
 40
0.8749216804690296
 40
0.9374459870515643
 40
1.0
 40
1.0
 40
1.0
 40
1.0
 10
9.60388939821154
 20
8.119556897841647
 30
0.0
 10
9.601619747776052
 20
8.11821893808533
 30
0.0
 10
9.598113676732009
 20
8.11615210793106
 30
0.0
 10
9.594022397545766
 20
8.113395654247856
 30
0.0
 10
9.591274381961265
 20
8.11129749461631
 30
0.0
 10
9.58914821798553
 20
8.109213811102629
 30
0.0
 10
9.588476229973573
 20
8.107155304798216
 30
0.0
 10
9.589176888613844
 20
8.105671948057116
 30
0.0
 10
9.590686776840602
 20
8.104805038254383
 30
0.0
 10
9.591739330140193
 20
8.104510085465186
 30
0.0
 10
9.59226573178181
 20
8.104362574044632
 30
0.0
  0
SPLINE
  5
32F
330
1F
100
AcDbEntity
  8
0
  6
Continuous
 62
     7
370
     0
100
AcDbSpline
210
0.0
220
0.0
230
1.0
 70
     8
 71
     3
 72
    11
 73
     7
 74
     0
 42
0.000000001
 43
0.00000001
 40
0.0
 40
0.0
 40
0.0
 40
0.0
 40
0.2499764207202813
 40
0.4998293549776692
 40
0.7498122864636023
 40
1.0
 40
1.0
 40
1.0
 40
1.0
 10
9.59226573178181
 20
8.104362574044632
 30
0.0
 10
9.593011773606476
 20
8.104216119726921
 30
0.0
 10
9.59450348871678
 20
8.103923283438828
 30
0.0
 10
9.597299772435008
 20
8.103892306252893
 30
0.0
 10
9.600320016861929
 20
8.104181416812166
 30
0.0
 10
9.602355499829471
 20
8.10460788070227
 30
0.0
 10
9.603373658001408
 20
8.104821199949676
 30
0.0
  0
SPLINE
  5
330
330
1F
100
AcDbEntity
  8
0
  6
Continuous
 62
     7
370
     0
100
AcDbSpline
210
0.0
220
0.0
230
1.0
 70
     8
 71
     3
 72
    12
 73
     8
 74
     0
 42
0.000000001
 43
0.00000001
 40
0.0
 40
0.0
 40
0.0
 40
0.0
 40
0.1249203065853086
 40
0.2499253476585
 40
0.499821342785112
 40
0.7498857630912042
 40
1.0
 40
1.0
 40
1.0
 40
1.0
 10
9.603373658001408
 20
8.104821199949676
 30
0.0
 10
9.604426714556737
 20
8.10511953003354
 30
0.0
 10
9.606533541964462
 20
8.105716392561062
 30
0.0
 10
9.610430990775582
 20
8.107216234989702
 30
0.0
 10
9.614969897540824
 20
8.109257038732547
 30
0.0
 10
9.620026935890062
 20
8.11185891586137
 30
0.0
 10
9.623190191665564
 20
8.11365318585112
 30
0.0
 10
9.624771977079686
 20
8.114550410198504
 30
0.0
  0
SPLINE
  5
331
330
1F
100
AcDbEntity
  8
0
  6
Continuous
 62
     7
370
     0
100
AcDbSpline
210
0.0
220
0.0
230
1.0
 70
     8
 71
     3
 72
    14
 73
    10
 74
     0
 42
0.000000001
 43
0.00000001
 40
0.0
 40
0.0
 40
0.0
 40
0.0
 40
0.2504464664184501
 40
0.500626983625379
 40
0.6256171862413109
 40
0.750361721449007
 40
0.8749138878876689
 40
0.9374334273388262
 40
1.0
 40
1.0
 40
1.0
 40
1.0
 10
9.583185709720146
 20
8.123788430099953
 30
0.0
 10
9.585448907621238
 20
8.125121408262908
 30
0.0
 10
9.589972900132587
 20
8.127785949098731
 30
0.0
 10
9.594971305284814
 20
8.13121481211785
 30
0.0
 10
9.597980411763947
 20
8.134011847884388
 30
0.0
 10
9.598612016882992
 20
8.135957278383582
 30
0.0
 10
9.597995047574262
 20
8.137313115777593
 30
0.0
 10
9.59656628440153
 20
8.138057889639695
 30
0.0
 10
9.595539401982213
 20
8.138273929352179
 30
0.0
 10
9.595025767715246
 20
8.138381989824605
 30
0.0
  0
SPLINE
  5
332
330
1F
100
AcDbEntity
  8
0
  6
Continuous
 62
     7
370
     0
100
AcDbSpline
210
0.0
220
0.0
230
1.0
 70
     8
 71
     3
 72
    14
 73
    10
 74
     0
 42
0.000000001
 43
0.00000001
 40
0.0
 40
0.0
 40
0.0
 40
0.0
 40
0.062571862026608
 40
0.1250838325594686
 40
0.2496292595893075
 40
0.3743667264462939
 40
0.4993490079196453
 40
0.7495426895023127
 40
1.0
 40
1.0
 40
1.0
 40
1.0
 10
9.595025767715246
 20
8.138381989824605
 30
0.0
 10
9.59445719107037
 20
8.138457504896763
 30
0.0
 10
9.59332058200135
 20
8.138608462760821
 30
0.0
 10
9.590552021877333
 20
8.13855043154114
 30
0.0
 10
9.586653841023946
 20
8.137977168372313
 30
0.0
 10
9.581869297800745
 20
8.13671644781605
 30
0.0
 10
9.576085323498447
 20
8.13439490686475
 30
0.0
 10
9.569669877064731
 20
8.131202713013202
 30
0.0
 10
9.565008850361549
 20
8.128562498621008
 30
0.0
 10
9.562677109826318
 20
8.127241696293105
 30
0.0
  0
SPLINE
  5
333
330
1F
100
AcDbEntity
  8
0
  6
Continuous
 62
     7
370
     0
100
AcDbSpline
210
0.0
220
0.0
230
1.0
 70
     8
 71
     3
 72
    15
 73
    11
 74
     0
 42
0.000000001
 43
0.00000001
 40
0.0
 40
0.0
 40
0.0
 40
0.0
 40
0.2504089787798957
 40
0.3868224180875759
 40
0.5007925876291459
 40
0.6257359606018198
 40
0.7504625586280284
 40
0.8749216804690271
 40
0.9374459870515641
 40
1.0
 40
1.0
 40
1.0
 40
1.0
 10
9.562677109826318
 20
8.127241696293105
 30
0.0
 10
9.560406808043629
 20
8.12590633298365
 30
0.0
 10
9.556899730822803
 20
8.12384351372331
 30
0.0
 10
9.552799208102687
 20
8.121123975041366
 30
0.0
 10
9.550039248818278
 20
8.119073616419927
 30
0.0
 10
9.547893180423591
 20
8.1170697799199
 30
0.0
 10
9.547182751642241
 20
8.115166398566549
 30
0.0
 10
9.547840697706297
 20
8.113857126675011
 30
0.0
 10
9.549311844209205
 20
8.113149545007705
 30
0.0
 10
9.55034456048437
 20
8.112936847693142
 30
0.0
 10
9.550861041258106
 20
8.11283047377783
 30
0.0
  0
SPLINE
  5
334
330
1F
100
AcDbEntity
  8
0
  6
Continuous
 62
     7
370
     0
100
AcDbSpline
210
0.0
220
0.0
230
1.0
 70
     8
 71
     3
 72
    11
 73
     7
 74
     0
 42
0.000000001
 43
0.00000001
 40
0.0
 40
0.0
 40
0.0
 40
0.0
 40
0.2499764207202766
 40
0.4998293549776794
 40
0.7498122864636021
 40
1.0
 40
1.0
 40
1.0
 40
1.0
 10
9.550861041258106
 20
8.11283047377783
 30
0.0
 10
9.551594490803014
 20
8.112736462265005
 30
0.0
 10
9.5530610275743
 20
8.112548485680334
 30
0.0
 10
9.555822047595509
 20
8.112665950209134
 30
0.0
 10
9.558811470667779
 20
8.11308569873631
 30
0.0
 10
9.560831287257098
 20
8.113579072251829
 30
0.0
 10
9.561841609032825
 20
8.113825860009158
 30
0.0
  0
SPLINE
  5
335
330
1F
100
AcDbEntity
  8
0
  6
Continuous
 62
     7
370
     0
100
AcDbSpline
210
0.0
220
0.0
230
1.0
 70
     8
 71
     3
 72
    12
 73
     8
 74
     0
 42
0.000000001
 43
0.00000001
 40
0.0
 40
0.0
 40
0.0
 40
0.0
 40
0.124920306585308
 40
0.2499253476585002
 40
0.4998213427851116
 40
0.7498857630912038
 40
1.0
 40
1.0
 40
1.0
 40
1.0
 10
9.561841609032825
 20
8.113825860009158
 30
0.0
 10
9.562888216924486
 20
8.11415181047503
 30
0.0
 10
9.564982142630686
 20
8.114803932501701
 30
0.0
 10
9.568864104367286
 20
8.116370467522216
 30
0.0
 10
9.573391101998471
 20
8.118462699755204
 30
0.0
 10
9.578441645292635
 20
8.121092704952522
 30
0.0
 10
9.581604249915015
 20
8.122889795388833
 30
0.0
 10
9.583185709720146
 20
8.123788430099953
 30
0.0
  0
SPLINE
  5
336
330
1F
100
AcDbEntity
  8
0
  6
Continuous
 62
     7
370
     0
100
AcDbSpline
210
0.0
220
0.0
230
1.0
 70
     8
 71
     3
 72
    11
 73
     7
 74
     0
 42
0.000000001
 43
0.00000001
 40
0.0
 40
0.0
 40
0.0
 40
0.0
 40
0.2786390363854889
 40
0.5001886617786427
 40
0.7655079241615738
 40
1.0
 40
1.0
 40
1.0
 40
1.0
 10
9.342676129426254
 20
8.109379749385804
 30
0.0
 10
9.342987621893379
 20
8.109636103383682
 30
0.0
 10
9.34354678618818
 20
8.110096287874716
 30
0.0
 10
9.344247519912404
 20
8.110724241822266
 30
0.0
 10
9.344715434036324
 20
8.111223195906653
 30
0.0
 10
9.344729072055435
 20
8.111412147276578
 30
0.0
 10
9.344735470484533
 20
8.111500795923734
 30
0.0
  0
SPLINE
  5
337
330
1F
100
AcDbEntity
  8
0
  6
Continuous
 62
     7
370
     0
100
AcDbSpline
210
0.0
220
0.0
230
1.0
 70
     8
 71
     3
 72
    11
 73
     7
 74
     0
 42
0.000000001
 43
0.00000001
 40
0.0
 40
0.0
 40
0.0
 40
0.0
 40
0.2501057527660892
 40
0.5000136770967447
 40
0.7499022689413063
 40
1.0
 40
1.0
 40
1.0
 40
1.0
 10
9.344735470484533
 20
8.111500795923734
 30
0.0
 10
9.344698321906545
 20
8.111522898653263
 30
0.0
 10
9.344624054134318
 20
8.111567086629524
 30
0.0
 10
9.3442918541108
 20
8.111517283966936
 30
0.0
 10
9.343779442112
 20
8.111369101201541
 30
0.0
 10
9.343303367482758
 20
8.11119318019557
 30
0.0
 10
9.34306523059954
 20
8.1111051828996
 30
0.0
  0
SPLINE
  5
338
330
1F
100
AcDbEntity
  8
0
  6
Continuous
 62
     7
370
     0
100
AcDbSpline
210
0.0
220
0.0
230
1.0
 70
     8
 71
     3
 72
    13
 73
     9
 74
     0
 42
0.000000001
 43
0.00000001
 40
0.0
 40
0.0
 40
0.0
 40
0.0
 40
0.1254299417467638
 40
0.25068422830242
 40
0.499614329272912
 40
0.7490348254190045
 40
0.8744607112379299
 40
1.0
 40
1.0
 40
1.0
 40
1.0
 10
9.34306523059954
 20
8.1111051828996
 30
0.0
 10
9.342684180506605
 20
8.110955142088866
 30
0.0
 10
9.341922613952706
 20
8.110655270588257
 30
0.0
 10
9.33994982502667
 20
8.109774484426351
 30
0.0
 10
9.337038376436253
 20
8.108358104344969
 30
0.0
 10
9.33413205471291
 20
8.10682005505338
 30
0.0
 10
9.332077714768788
 20
8.105676838017867
 30
0.0
 10
9.331131192532421
 20
8.105134676811586
 30
0.0
 10
9.330657717563037
 20
8.104863473716
 30
0.0
  0
SPLINE
  5
339
330
1F
100
AcDbEntity
  8
0
  6
Continuous
 62
     7
370
     0
100
AcDbSpline
210
0.0
220
0.0
230
1.0
 70
     8
 71
     3
 72
    13
 73
     9
 74
     0
 42
0.000000001
 43
0.00000001
 40
0.0
 40
0.0
 40
0.0
 40
0.0
 40
0.143520777728654
 40
0.2868797370952123
 40
0.570906324299658
 40
0.7849096377848812
 40
0.8923723273037005
 40
1.0
 40
1.0
 40
1.0
 40
1.0
 10
9.330657717563037
 20
8.104863473716
 30
0.0
 10
9.330130485091328
 20
8.104556798826678
 30
0.0
 10
9.32907661459769
 20
8.103943794821161
 30
0.0
 10
9.327292677264039
 20
8.102854174486776
 30
0.0
 10
9.326081973908886
 20
8.101978756813079
 30
0.0
 10
9.326293197046049
 20
8.101817438989888
 30
0.0
 10
9.327076837479561
 20
8.102036874836132
 30
0.0
 10
9.3276579081975
 20
8.102249676825414
 30
0.0
 10
9.32794866640907
 20
8.102356159434004
 30
0.0
  0
SPLINE
  5
33A
330
1F
100
AcDbEntity
  8
0
  6
Continuous
 62
     7
370
     0
100
AcDbSpline
210
0.0
220
0.0
230
1.0
 70
     8
 71
     3
 72
    11
 73
     7
 74
     0
 42
0.000000001
 43
0.00000001
 40
0.0
 40
0.0
 40
0.0
 40
0.0
 40
0.2500487591314246
 40
0.4999858921708069
 40
0.749926363797151
 40
1.0
 40
1.0
 40
1.0
 40
1.0
 10
9.32794866640907
 20
8.102356159434004
 30
0.0
 10
9.32817959015346
 20
8.102445399333225
 30
0.0
 10
9.32864133455389
 20
8.10262383929343
 30
0.0
 10
9.329505085295063
 20
8.102992231964803
 30
0.0
 10
9.330429917353262
 20
8.103398621383075
 30
0.0
 10
9.331112936507553
 20
8.10371525229989
 30
0.0
 10
9.33145453703609
 20
8.10387360992113
 30
0.0
  0
SPLINE
  5
33B
330
1F
100
AcDbEntity
  8
0
  6
Continuous
 62
     7
370
     0
100
AcDbSpline
210
0.0
220
0.0
230
1.0
 70
     8
 71
     3
 72
    11
 73
     7
 74
     0
 42
0.000000001
 43
0.00000001
 40
0.0
 40
0.0
 40
0.0
 40
0.0
 40
0.1427889218553865
 40
0.2856613563781156
 40
0.4999550547499525
 40
0.9999999999999999
 40
0.9999999999999999
 40
0.9999999999999999
 40
0.9999999999999999
 10
9.33145453703609
 20
8.10387360992113
 30
0.0
 10
9.331973374618938
 20
8.104119012203578
 30
0.0
 10
9.333011353236122
 20
8.104609960296406
 30
0.0
 10
9.334886201481739
 20
8.10552606251465
 30
0.0
 10
9.33810149203766
 20
8.107103866958179
 30
0.0
 10
9.340792437713453
 20
8.10844261262412
 30
0.0
 10
9.342676129426254
 20
8.109379749385804
 30
0.0
  0
SPLINE
  5
33C
330
1F
100
AcDbEntity
  8
0
  6
Continuous
 62
     7
370
     0
100
AcDbSpline
210
0.0
220
0.0
230
1.0
 70
     8
 71
     3
 72
    13
 73
     9
 74
     0
 42
0.000000001
 43
0.00000001
 40
0.0
 40
0.0
 40
0.0
 40
0.0
 40
0.2001718321700978
 40
0.500290093036251
 40
0.6253436745187138
 40
0.7503297953505752
 40
0.8752622292163947
 40
1.0
 40
1.0
 40
1.0
 40
1.0
 10
9.347456128703
 20
8.1110575133956
 30
0.0
 10
9.34721117323177
 20
8.110842497401302
 30
0.0
 10
9.346598955248036
 20
8.110305107246925
 30
0.0
 10
9.345997122833946
 20
8.109702651620097
 30
0.0
 10
9.345773356636508
 20
8.109310884003344
 30
0.0
 10
9.345939665521888
 20
8.109196315349516
 30
0.0
 10
9.346343095015328
 20
8.109196989409936
 30
0.0
 10
9.34693973678677
 20
8.109370875852147
 30
0.0
 10
9.347237825077402
 20
8.109457751285285
 30
0.0
  0
SPLINE
  5
33D
330
1F
100
AcDbEntity
  8
0
  6
Continuous
 62
     7
370
     0
100
AcDbSpline
210
0.0
220
0.0
230
1.0
 70
     8
 71
     3
 72
    12
 73
     8
 74
     0
 42
0.000000001
 43
0.00000001
 40
0.0
 40
0.0
 40
0.0
 40
0.0
 40
0.1254098869537927
 40
0.2505747542013528
 40
0.4996165625312224
 40
0.7494318480725042
 40
1.0
 40
1.0
 40
1.0
 40
1.0
 10
9.347237825077402
 20
8.109457751285285
 30
0.0
 10
9.347544614072449
 20
8.109562260016085
 30
0.0
 10
9.348157592673205
 20
8.109771073293638
 30
0.0
 10
9.34977923607676
 20
8.110432418243603
 30
0.0
 10
9.352126090751238
 20
8.111512670491095
 30
0.0
 10
9.354835350237359
 20
8.11289909925103
 30
0.0
 10
9.35633282446536
 20
8.113749045341216
 30
0.0
 10
9.35708268811346
 20
8.114174657791805
 30
0.0
  0
SPLINE
  5
33E
330
1F
100
AcDbEntity
  8
0
  6
Continuous
 62
     7
370
     0
100
AcDbSpline
210
0.0
220
0.0
230
1.0
 70
     8
 71
     3
 72
    12
 73
     8
 74
     0
 42
0.000000001
 43
0.00000001
 40
0.0
 40
0.0
 40
0.0
 40
0.0
 40
0.2505615752638358
 40
0.5002616093772927
 40
0.7495438170942994
 40
0.8746545161303727
 40
1.0
 40
1.0
 40
1.0
 40
1.0
 10
9.35708268811346
 20
8.114174657791805
 30
0.0
 10
9.35778224048231
 20
8.114586694308775
 30
0.0
 10
9.359178939850581
 20
8.11540935057953
 30
0.0
 10
9.360530051698618
 20
8.116374170627687
 30
0.0
 10
9.36078053908919
 20
8.116794444551639
 30
0.0
 10
9.360312858995703
 20
8.116799306923184
 30
0.0
 10
9.359779958845744
 20
8.116638358227554
 30
0.0
 10
9.359513258992797
 20
8.11655780844077
 30
0.0
  0
SPLINE
  5
33F
330
1F
100
AcDbEntity
  8
0
  6
Continuous
 62
     7
370
     0
100
AcDbSpline
210
0.0
220
0.0
230
1.0
 70
     8
 71
     3
 72
    12
 73
     8
 74
     0
 42
0.000000001
 43
0.00000001
 40
0.0
 40
0.0
 40
0.0
 40
0.0
 40
0.124839307724713
 40
0.2498284197823315
 40
0.4994890782924239
 40
0.7496925475890628
 40
0.9999999999999999
 40
0.9999999999999999
 40
0.9999999999999999
 40
0.9999999999999999
 10
9.359513258992797
 20
8.11655780844077
 30
0.0
 10
9.359146310856447
 20
8.116429886286127
 30
0.0
 10
9.358411974254322
 20
8.116173888473163
 30
0.0
 10
9.356470570933858
 20
8.115354458598485
 30
0.0
 10
9.353865834539084
 20
8.114172557036273
 30
0.0
 10
9.350655682704605
 20
8.112637675082057
 30
0.0
 10
9.348522794408847
 20
8.11158430690488
 30
0.0
 10
9.347456128703
 20
8.111057513395599
 30
0.0
  0
OLE2FRAME
  5
340
330
1F
100
AcDbEntity
  8
0
100
AcDbOle2Frame
 70
     2
  3
Paintbrush Picture
 10
9.0178120406
 20
1.3267570784
 30
0.0
 11
10.4397105087
 21
1.1242314806
 31
0.0
 71
     2
 72
     0
 73
     1
 90
     7296
310
8055C64EE7A81E092240C05F59A1653AF53F0000000000000000FD155DBC21E1
310
2440C05F59A1653AF53F0000000000000000FD155DBC21E12440A1732426DAFC
310
F13F0000000000000000C64EE7A81E092240A1732426DAFCF13F000000000000
310
00000000000001000000000100000100000001000000000001000000001C0000
310
D0CF11E0A1B11AE1000000000000000000000000000000003E000300FEFF0900
310
0600000000000000000000000100000001000000000000000010000002000000
310
01000000FEFFFFFF0000000000000000FFFFFFFFFFFFFFFFFFFFFFFFFFFFFFFF
310
FFFFFFFFFFFFFFFFFFFFFFFFFFFFFFFFFFFFFFFFFFFFFFFFFFFFFFFFFFFFFFFF
310
FFFFFFFFFFFFFFFFFFFFFFFFFFFFFFFFFFFFFFFFFFFFFFFFFFFFFFFFFFFFFFFF
310
FFFFFFFFFFFFFFFFFFFFFFFFFFFFFFFFFFFFFFFFFFFFFFFFFFFFFFFFFFFFFFFF
310
FFFFFFFFFFFFFFFFFFFFFFFFFFFFFFFFFFFFFFFFFFFFFFFFFFFFFFFFFFFFFFFF
310
FFFFFFFFFFFFFFFFFFFFFFFFFFFFFFFFFFFFFFFFFFFFFFFFFFFFFFFFFFFFFFFF
310
FFFFFFFFFFFFFFFFFFFFFFFFFFFFFFFFFFFFFFFFFFFFFFFFFFFFFFFFFFFFFFFF
310
FFFFFFFFFFFFFFFFFFFFFFFFFFFFFFFFFFFFFFFFFFFFFFFFFFFFFFFFFFFFFFFF
310
FFFFFFFFFFFFFFFFFFFFFFFFFFFFFFFFFFFFFFFFFFFFFFFFFFFFFFFFFFFFFFFF
310
FFFFFFFFFFFFFFFFFFFFFFFFFFFFFFFFFFFFFFFFFFFFFFFFFFFFFFFFFFFFFFFF
310
FFFFFFFFFFFFFFFFFFFFFFFFFFFFFFFFFFFFFFFFFFFFFFFFFFFFFFFFFFFFFFFF
310
FFFFFFFFFFFFFFFFFFFFFFFFFFFFFFFFFFFFFFFFFFFFFFFFFFFFFFFFFFFFFFFF
310
FFFFFFFFFFFFFFFFFFFFFFFFFFFFFFFFFFFFFFFFFFFFFFFFFFFFFFFFFFFFFFFF
310
FFFFFFFFFFFFFFFFFFFFFFFFFFFFFFFFFFFFFFFFFFFFFFFFFFFFFFFFFFFFFFFF
310
FDFFFFFFFEFFFFFFFEFFFFFFFEFFFFFF05000000060000000700000008000000
310
090000000A0000000B0000000C000000FEFFFFFFFFFFFFFFFFFFFFFFFFFFFFFF
310
FFFFFFFFFFFFFFFFFFFFFFFFFFFFFFFFFFFFFFFFFFFFFFFFFFFFFFFFFFFFFFFF
310
FFFFFFFFFFFFFFFFFFFFFFFFFFFFFFFFFFFFFFFFFFFFFFFFFFFFFFFFFFFFFFFF
310
FFFFFFFFFFFFFFFFFFFFFFFFFFFFFFFFFFFFFFFFFFFFFFFFFFFFFFFFFFFFFFFF
310
FFFFFFFFFFFFFFFFFFFFFFFFFFFFFFFFFFFFFFFFFFFFFFFFFFFFFFFFFFFFFFFF
310
FFFFFFFFFFFFFFFFFFFFFFFFFFFFFFFFFFFFFFFFFFFFFFFFFFFFFFFFFFFFFFFF
310
FFFFFFFFFFFFFFFFFFFFFFFFFFFFFFFFFFFFFFFFFFFFFFFFFFFFFFFFFFFFFFFF
310
FFFFFFFFFFFFFFFFFFFFFFFFFFFFFFFFFFFFFFFFFFFFFFFFFFFFFFFFFFFFFFFF
310
FFFFFFFFFFFFFFFFFFFFFFFFFFFFFFFFFFFFFFFFFFFFFFFFFFFFFFFFFFFFFFFF
310
FFFFFFFFFFFFFFFFFFFFFFFFFFFFFFFFFFFFFFFFFFFFFFFFFFFFFFFFFFFFFFFF
310
FFFFFFFFFFFFFFFFFFFFFFFFFFFFFFFFFFFFFFFFFFFFFFFFFFFFFFFFFFFFFFFF
310
FFFFFFFFFFFFFFFFFFFFFFFFFFFFFFFFFFFFFFFFFFFFFFFFFFFFFFFFFFFFFFFF
310
FFFFFFFFFFFFFFFFFFFFFFFFFFFFFFFFFFFFFFFFFFFFFFFFFFFFFFFFFFFFFFFF
310
FFFFFFFFFFFFFFFFFFFFFFFFFFFFFFFFFFFFFFFFFFFFFFFFFFFFFFFFFFFFFFFF
310
FFFFFFFFFFFFFFFFFFFFFFFFFFFFFFFFFFFFFFFFFFFFFFFFFFFFFFFFFFFFFFFF
310
52006F006F007400200045006E00740072007900000000000000000000000000
310
0000000000000000000000000000000000000000000000000000000000000000
310
16000500FFFFFFFFFFFFFFFF020000000A00030000000000C000000000000046
310
0000000000000000000000004041E4B29E20D10103000000C000000000000000
310
01004F006C006500000000000000000000000000000000000000000000000000
310
0000000000000000000000000000000000000000000000000000000000000000
310
0A000200FFFFFFFFFFFFFFFFFFFFFFFF00000000000000000000000000000000
310
0000000000000000000000000000000000000000000000001400000000000000
310
010043006F006D0070004F0062006A0000000000000000000000000000000000
310
0000000000000000000000000000000000000000000000000000000000000000
310
120002010100000003000000FFFFFFFF00000000000000000000000000000000
310
0000000000000000000000000000000000000000010000004D00000000000000
310
01004F006C006500310030004E00610074006900760065000000000000000000
310
0000000000000000000000000000000000000000000000000000000000000000
310
1A000200FFFFFFFFFFFFFFFFFFFFFFFF00000000000000000000000000000000
310
000000000000000000000000000000000000000004000000E411000000000000
310
FEFFFFFF02000000FEFFFFFFFFFFFFFFFFFFFFFFFFFFFFFFFFFFFFFFFFFFFFFF
310
FFFFFFFFFFFFFFFFFFFFFFFFFFFFFFFFFFFFFFFFFFFFFFFFFFFFFFFFFFFFFFFF
310
FFFFFFFFFFFFFFFFFFFFFFFFFFFFFFFFFFFFFFFFFFFFFFFFFFFFFFFFFFFFFFFF
310
FFFFFFFFFFFFFFFFFFFFFFFFFFFFFFFFFFFFFFFFFFFFFFFFFFFFFFFFFFFFFFFF
310
FFFFFFFFFFFFFFFFFFFFFFFFFFFFFFFFFFFFFFFFFFFFFFFFFFFFFFFFFFFFFFFF
310
FFFFFFFFFFFFFFFFFFFFFFFFFFFFFFFFFFFFFFFFFFFFFFFFFFFFFFFFFFFFFFFF
310
FFFFFFFFFFFFFFFFFFFFFFFFFFFFFFFFFFFFFFFFFFFFFFFFFFFFFFFFFFFFFFFF
310
FFFFFFFFFFFFFFFFFFFFFFFFFFFFFFFFFFFFFFFFFFFFFFFFFFFFFFFFFFFFFFFF
310
FFFFFFFFFFFFFFFFFFFFFFFFFFFFFFFFFFFFFFFFFFFFFFFFFFFFFFFFFFFFFFFF
310
FFFFFFFFFFFFFFFFFFFFFFFFFFFFFFFFFFFFFFFFFFFFFFFFFFFFFFFFFFFFFFFF
310
FFFFFFFFFFFFFFFFFFFFFFFFFFFFFFFFFFFFFFFFFFFFFFFFFFFFFFFFFFFFFFFF
310
FFFFFFFFFFFFFFFFFFFFFFFFFFFFFFFFFFFFFFFFFFFFFFFFFFFFFFFFFFFFFFFF
310
FFFFFFFFFFFFFFFFFFFFFFFFFFFFFFFFFFFFFFFFFFFFFFFFFFFFFFFFFFFFFFFF
310
FFFFFFFFFFFFFFFFFFFFFFFFFFFFFFFFFFFFFFFFFFFFFFFFFFFFFFFFFFFFFFFF
310
FFFFFFFFFFFFFFFFFFFFFFFFFFFFFFFFFFFFFFFFFFFFFFFFFFFFFFFFFFFFFFFF
310
FFFFFFFFFFFFFFFFFFFFFFFFFFFFFFFFFFFFFFFFFFFFFFFFFFFFFFFFFFFFFFFF
310
0100000200000000000000000000000000000000000000000000000000000000
310
0000000000000000000000000000000000000000000000000000000000000000
310
0100FEFF030A0000FFFFFFFF0A00030000000000C00000000000004607000000
310
5042727573680007000000504272757368000700000050427275736800F439B2
310
7100000000000000000000000000000000000000000000000000000000000000
310
0000000000000000000000000000000000000000000000000000000000000000
310
0000000000000000000000000000000000000000000000000000000000000000
310
0000000000000000000000000000000000000000000000000000000000000000
310
0000000000000000000000000000000000000000000000000000000000000000
310
0000000000000000000000000000000000000000000000000000000000000000
310
0000000000000000000000000000000000000000000000000000000000000000
310
0000000000000000000000000000000000000000000000000000000000000000
310
0000000000000000000000000000000000000000000000000000000000000000
310
0000000000000000000000000000000000000000000000000000000000000000
310
0000000000000000000000000000000000000000000000000000000000000000
310
0000000000000000000000000000000000000000000000000000000000000000
310
E0110000424DDE11000000000000360400002800000096000000170000000100
310
08000000000000000000E7240000E72400000001000000010000000000FF0101
310
01FF020202FF030303FF040404FF050505FF060606FF070707FF080808FF0909
310
09FF0A0A0AFF0B0B0BFF0C0C0CFF0D0D0DFF0E0E0EFF0F0F0FFF101010FF1111
310
11FF121212FF131313FF141414FF151515FF161616FF171717FF181818FF1919
310
19FF1A1A1AFF1B1B1BFF1C1C1CFF1D1D1DFF1E1E1EFF1F1F1FFF202020FF2121
310
21FF222222FF232323FF242424FF252525FF262626FF272727FF282828FF2929
310
29FF2A2A2AFF2B2B2BFF2C2C2CFF2D2D2DFF2E2E2EFF2F2F2FFF303030FF3131
310
31FF323232FF333333FF343434FF353535FF363636FF373737FF383838FF3939
310
39FF3A3A3AFF3B3B3BFF3C3C3CFF3D3D3DFF3E3E3EFF3F3F3FFF404040FF4141
310
41FF424242FF434343FF444444FF454545FF464646FF474747FF484848FF4949
310
49FF4A4A4AFF4B4B4BFF4C4C4CFF4D4D4DFF4E4E4EFF4F4F4FFF505050FF5151
310
51FF525252FF535353FF545454FF555555FF565656FF575757FF585858FF5959
310
59FF5A5A5AFF5B5B5BFF5C5C5CFF5D5D5DFF5E5E5EFF5F5F5FFF606060FF6161
310
61FF626262FF636363FF646464FF656565FF666666FF676767FF686868FF6969
310
69FF6A6A6AFF6B6B6BFF6C6C6CFF6D6D6DFF6E6E6EFF6F6F6FFF707070FF7171
310
71FF727272FF737373FF747474FF757575FF767676FF777777FF787878FF7979
310
79FF7A7A7AFF7B7B7BFF7C7C7CFF7D7D7DFF7E7E7EFF7F7F7FFF808080FF8181
310
81FF828282FF838383FF848484FF858585FF868686FF878787FF888888FF8989
310
89FF8A8A8AFF8B8B8BFF8C8C8CFF8D8D8DFF8E8E8EFF8F8F8FFF909090FF9191
310
91FF929292FF939393FF949494FF959595FF969696FF979797FF989898FF9999
310
99FF9A9A9AFF9B9B9BFF9C9C9CFF9D9D9DFF9E9E9EFF9F9F9FFFA0A0A0FFA1A1
310
A1FFA2A2A2FFA3A3A3FFA4A4A4FFA5A5A5FFA6A6A6FFA7A7A7FFA8A8A8FFA9A9
310
A9FFAAAAAAFFABABABFFACACACFFADADADFFAEAEAEFFAFAFAFFFB0B0B0FFB1B1
310
B1FFB2B2B2FFB3B3B3FFB4B4B4FFB5B5B5FFB6B6B6FFB7B7B7FFB8B8B8FFB9B9
310
B9FFBABABAFFBBBBBBFFBCBCBCFFBDBDBDFFBEBEBEFFBFBFBFFFC0C0C0FFC1C1
310
C1FFC2C2C2FFC3C3C3FFC4C4C4FFC5C5C5FFC6C6C6FFC7C7C7FFC8C8C8FFC9C9
310
C9FFCACACAFFCBCBCBFFCCCCCCFFCDCDCDFFCECECEFFCFCFCFFFD0D0D0FFD1D1
310
D1FFD2D2D2FFD3D3D3FFD4D4D4FFD5D5D5FFD6D6D6FFD7D7D7FFD8D8D8FFD9D9
310
D9FFDADADAFFDBDBDBFFDCDCDCFFDDDDDDFFDEDEDEFFDFDFDFFFE0E0E0FFE1E1
310
E1FFE2E2E2FFE3E3E3FFE4E4E4FFE5E5E5FFE6E6E6FFE7E7E7FFE8E8E8FFE9E9
310
E9FFEAEAEAFFEBEBEBFFECECECFFEDEDEDFFEEEEEEFFEFEFEFFFF0F0F0FFF1F1
310
F1FFF2F2F2FFF3F3F3FFF4F4F4FFF5F5F5FFF6F6F6FFF7F7F7FFF8F8F8FFF9F9
310
F9FFFAFAFAFFFBFBFBFFFCFCFCFFFDFDFDFFFEFEFEFFFFFFFFFFFFFFFFFFFFFF
310
C94E4E4E4F4E4EFFFFFFFFFFC94E4E4E4E4E72FFFFFFFFFFFFFF734E4D4E4E4E
310
C9FFFFFFFFFFAA683516171616265B9BE9FFFFFFFFFF4E4E4E4D4E4EFFFFFFFF
310
FFFFFFFF4E4E4F4E4D4E4E4E4F4E4E4F4D4E4E4E4E4E4D4E4F4E4D4E4E4EAAFF
310
FFFFFFFFFFEA4E4F4F4E4E4E4E4E4D4D4F4F4E4E4E4E4E5B7FAAFFFFFFFFFFFF
310
C9744E1716171616164D8DEAFFFFFFFF0000FFFFFFFFFFFFBA161617161716FF
310
FFFFFFFFB917171616174FFFFFFFFFFFFFFF4E1716161616B9FFFFFFB9341717
310
1716171617171616268CFFFFFFFF161617161617FFFFFFFFFFFFFFB917161717
310
1617167F807F7F7F7F7F7F807F7F807F7F807F7F7F414EFFFFFFFFFFFF8C167F
310
7F807F7F7F7E7F7F807F807F7F807F4E3417258EFFFFEA4E162674AABAEAEBBA
310
AA74341680FFFFFF0000FFFFFFFFFFFFB9171717171617FFFFFFFFFFBB161616
310
16164EFFFFFFFFFFFFFF4E1717171717B9FFFF9C171617171716161616171616
310
171766FFFFFF161717161617FFFFFFFFFFFFFF8E16171717161616FFFFFFFFFF
310
FFFFFFFFFFFFFFFFFFFFFFFFFFAA16D9FFFFFFFFFF3467FFFFFFFFEAFFFFFFFF
310
FFFFFFFFFFFFFFFFFFCA671667EB26278DFFFFFFFFFFFFFFFFFFFF8C2541EAFF
310
0000FFFFFFFFFFFFB9171717171716FFFFFFFFFFBA16171617174EFFFFFFFFFF
310
FFFF4E1717161616BAFF9B1617161616171716171617161616161667FFFF1616
310
16161716FFFFFFFFFFFFFF7F16161617174017FFFFFFFFFFFFFFFFFFFFFFFFFF
310
FFFFFFFFFFFF344E7F7F7F7E7417DAFFFFFFFF80FFFFFFFFFFFFFFFFFFFFFFFF
310
FFFFFF9B163425CAFFFFFFFFFFFFFFFFFFFFFFFFCA2667FF0000FFFFFFFFFFFF
310
BA171717171617FFFFFFFFFFB916171716164EFFFFFFFFFFFFFF4F1716161717
310
B9C91716171616161716161617171616161617168DFF161716161717FFFFFFFF
310
FFFFFF7F17171716164F16FFFFFFFFFFFFFFFFFFFFFFFFFFFFFFFFFFFFFF9B16
310
17161617174EFFFFFFFFFF34FFFFFFFFD9BABABABABADAFFFFFFFFFF7F16AAFF
310
FFFFFFFFFFFFFFFFFFFFFFFFFF9C16BA0000FFFFFFFFFFFFB9161717161717FF
310
FFFFFFFFB917161716174DFFFFFFFFFFFFFF4E1616161616BA4E161617171716
310
419BEAEAAA4E16161617161726E9171717161616FFFFFFFFFFFFFF4F16161717
310
164E16FFFFFFFFFFBAB9B9B9B9B9BABABACAFFFFFFFFFFFFFFFFFFFFFFFFFFFF
310
FFFFBA16FFFFFFFF7F1617161617174DEAFFFFFFEA41FFFFFFFFFFAA4D16174E
310
9BFFFFFFFFFF34730000FFFFFFFFFFFFB9161617171617FFFFFFFFFFBA161616
310
16164EFFFFFFFFFFFFFF4F16161717169B1617161716175BFFFFFFFFFFFF7417
310
16171616168D171717161617FFFFFFFFFFFFEA2616171717167416FFFFFFFFFF
310
16171616171717171717EAFFFFFFFFFFFFFFFFFFFFFFFFFFFFFF6716FFFFFFFF
310
7F4EFFFFFFFFBA2573FFFFFFFFBAFFFFFFFFAA167FB9BB9B269BFFFFFFFF664F
310
0000FFFFFFFFFFFFB9171616161616FFFFFFFFFFBA16161717164EFFFFFFFFFF
310
FFFF4E16161616174E161617171626EAFFFFFFFFFFFFFF4E16161616164E1716
310
16161617FFFFFFFFFFFF671616161716347F16FFFFFFFFFF16B9FFFFFFFFFFFF
310
D9168DFFFFFFFFFFFFFFFFFFFFFFFFFFFFEA1716FFFFFFFF7F4EFFFFFFFFFF7F
310
4EFFFFFFFFFFFFFFFFFF5B66FFFFFFEA347FFFFFFFFF7F4D0000FFFFFFFFFFFF
310
B9171616171617FFFFFFFFFFBA17161716174EFFFFFFFFFFFFFF4D1716161617
310
17161716161673FFFFFFFFFFFFFFFF9B1617161717161616171616174F4E4E4E
310
4E341616171616167E7F16FFFFFFFFFF16BAFFFFFFFFFFFFFF5B41FFFFFFFF34
310
1616171616BAFFFFFF9B1716FFFFFFFF7F4EFFFFFFFFFF4E4EFFFFFFFF734E4E
310
4E4E267EDA9B67164EEAFFFFFFFF744D0000FFFFFFFFFFFFBA171717161617FF
310
FFFFFFFFBA1616171616347F7F7F7F80807F331616161717161717161716B9FF
310
FFFFFFFFFFFFFFE9161616161616171716161716171616161616171616171734
310
EA7F16FFFFFFFFFF16BAFFFFFFFFFFFFFFAA17C9FFFFFF7326BABA5B25FFFFFF
310
FF401716FFFFFFFF7F264F4E4E4E4217AAFFFFFFEA16677F73261616164173CA
310
FFFFFFFFFFFF417F0000FFFFFFFFFFFFBA171616171617FFFFFFFFFFBA161616
310
17171616161616161616161717161616161616161617EAFFFFFFFFFFFFFFFFFF
310
261717161716161617161616161617161617161616174EEAFF8016FFFFFFFFFF
310
17BAFFFFFFFFFFFFFFFF3467FFFFFFC916C9FF3467FFFFFFDA166716FFFFFFFF
310
9C4D4E4E4E4E67AAFFFFFFFF6834FF7F262567AAEAFFFFFFFFFFFFFFFF9B17D9
310
0000FFFFFFFFFFFFB9161616161616FFFFFFFFFFBA1617161717171616161616
310
1716171716161716161617171716FFFFFFFFFFFFFFFFFFFF4E17161716171616
310
1617171616161716171717161616169BFF7F17FFFFFFFFFF17B9FFFFFFFFFFFF
310
FFFF7326FFFFFFFF3473DA16AAFFFFFF7317AA16FFFFFFFFFFFFFFFFFFFFFFFF
310
FFFFEA6725BA4E167FEAFFFFFFFFFFFFFFFFFFFF9C167FFF0000FFFFFFFFFFFF
310
B9161717171716FFFFFFFFFFBA16161716171616171717161617161716161616
310
171617171617EAFFFFFFFFFFFFFFFFFF26161717161616161616161617171616
310
1616161616171616AA8016FFFFFFFFFF16BAFFFFFFFFFFFFFFFFDA179BFFFFFF
310
74348D26FFFFFFFF2566B917FFFFFFFFD8BAB9BAB9BADAFFFFEA41169B7425C9
310
FFFFFFFFFFFFFFFFFFFFAB4F1680FFFF0000FFFFFFFFFFFFBA161717171617FF
310
FFFFFFFFBA17161717161617171617161616161617171616171716171617BBFF
310
FFFFFFFFFFFFFFE9171616161617161617161716FFFFFFFFFFD9671616161617
310
348017FFFFFFFFFF16BAFFFFFFFFFFFFFFFFFF4E5AFFFFFFC916265AFFFFFFAA
310
16AABA16FFFFFFFF7F1617161616179BFFFFEB4127168DFFFFFFFFFFFFFFD99B
310
6734175AC9FFFFFF0000FFFFFFFFFFFFB9161617171617FFFFFFFFFFBB161616
310
1616347F807F7F7F7F8033171716171617171616161672FFFFFFFFFFFFFFFF9C
310
171617171617161716161617FFFFFFFFFFFFFF4117161616174E17FFFFFFFFFF
310
16BAFFFFFFFFFFFFFFFFFF9B16DAFFFFFF34169BFFFFFF5A26FFB917FFFFFFFF
310
7F4EFFFFFFEA5B26FFFFFFEA2616EAFFFFFFFFDA743416331617414E4E4E4ECA
310
0000FFFFFFFFFFFFBA161716161616FFFFFFFFFFBA17171616164EFFFFFFFFFF
310
FFFF4E16161717174E161717171626EBFFFFFFFFFFFFFF4E16161617165B1616
310
16171617FFFFFFFFFFFFFF6716161616161617FFFFFFFFFF16BAFFFFFFFFFFFF
310
FFFFFFEA268CFFFFFF7316EAFFFFEB1774FFB916FFFFFFFF7F4EFFFFFFFF7316
310
FFFFFFFF6826FFFFFFFFEB264D9CEABA257F807F7F6616BA0000FFFFFFFFFFFF
310
BA161716161616FFFFFFFFFFBA16171616164DFFFFFFFFFFFFFF4E1617161617
310
9B1617171717165BEBFFFFFFFFFF671616161617179B171616161616FFFFFFFF
310
FFFFFF3417161617171617FFFFFFFFFF17BAFFFFFFFFFFFFFFFFFFFF6734FFFF
310
FFEBCAFFFFFF8D17C9FFBA17FFFFFFFF7F357F808066174FFFFFFFFF7F16FFFF
310
FFFFD91673B99B415BFFFFFFFFBA16DA00009B7F7F7F807F671617161616167F
310
80807F7E6617161616164EFFFFFFFFFFFFFF4E1616161617B94E171716161616
310
349BC9D9AA4E16171616161634FF161617161717B9B9BAB9BA9B411716171716
310
163416FFFFFFFFFF16B9FFFFFFFFFFFFFFFFFFFFC917CAFFFFFFFFFFFFFF3342
310
FFFFBA17FFFFFFFF9B4E4E4F4E4E66EAFFFFFFFF5B16C9FFFFFFFFAA4E164E73
310
EAFFFFFFFF8D26FF00004E161716161616171617171616171717171617161616
310
17174EFFFFFFFFFFFFFF4E1717171616B9D92616171716171716171717171716
310
16171716AAFF161717171617161617171616161617161716166717FFFFFFFFFF
310
17B9FFFFFFFFFFFFFFFFFFFFFF3467FFFFFFFFFFFFCA168CFFFFBB17FFFFFFFF
310
FFFFFFFFFFFFFFFFFFFFFFEA26265BFFFFFFFFFFFFFFFFFFFFFFFFFFEA3467FF
310
00004D16161616161617161717161617161616171617171616164EFFFFFFFFFF
310
FFFF4D1617161616BAFF9B1616161616161716161616171717161766FFFF1616
310
16171617161617161716171616171717667F16FFFFFFFFFF17BAFFFFFFFFFFFF
310
FFFFFFFFFF8C26EAFFFFFFFFFF6617EAFFFFBA17FFFFFFFFFFFFFFFFFFFFFFFF
310
FFFFEA5A25BA269BFFFFFFFFFFFFFFFFFFFFFFFF6616DAFF00004E1616171616
310
1616161616161716161617171616171616174EFFFFFFFFFFFFFF4D1717171716
310
B9FFFF9C161616161616161716161717171667FFFFFF17161717171716161617
310
1716161616161641E97E16FFFFFFFFFF16B9FFFFFFFFFFFFFFFFFFFFFFEA169B
310
FFFFFFFFEA265BFFFFFFB916FFFFFFFFFFFFFFFFFFFFFFFFFF9B3416AAFF9B17
310
67EAFFFFFFFFFFFFFFFFEA5B169BFFFF00004D17161716161616161717171616
310
161717161716171716174EFFFFFFFFFFFFFF4D1616161616BAFFFFFFBB411616
310
161716161616171634ABFFFFFFFF161716161617171716171617171617267FFF
310
FF7F164E4E4E4E4F17BAFFFFFFFFFFFFFFFFFFFFFFFF66344D4E4E4F4117AAFF
310
FFFFBA174E4E4E4D4E4D4D4E4E4E4E4116174EBBFFFFFFCA342666ABEAFFFFEA
310
AA6725269CFFFFFF0000724F4E4D4D4D4E4D4D4E4E4E4D4E4E4E4E4E4E4E4E4D
310
4E4E74FFFFFFFFFFFFFF734E4E4E4D4ECAFFFFFFFFFFAA663416171717265B9B
310
FFFFFFFFFFFF7F8080807F80807F7F7F7F7F807FBAFFFFFFFF9B4E4E4F4D4D4E
310
4DC9FFFFFFFFFFFFFFFFFFFFFFFFBA4E4E4E4E4D4E4EFFFFFFFFC94E4E4E4F4E
310
4E4E4D4E4E5A807F9CD9FFFFFFFFFFFFFF9B5B2617171716174E8DEAFFFFFFFF
310
0000000000000000000000000000000000000000000000000000000000000000
  1
OLE
  0
ENDSEC
  0
SECTION
  2
OBJECTS
  0
DICTIONARY
  5
C
330
0
100
AcDbDictionary
281
     1
  3
ACAD_GROUP
350
D
  3
ACAD_LAYOUT
350
1A
  3
ACAD_MLINESTYLE
350
17
  3
ACAD_PLOTSETTINGS
350
19
  3
ACAD_PLOTSTYLENAME
350
E
  3
ACAD_SCALELIST
350
47
  0
DICTIONARY
  5
D
102
{ACAD_REACTORS
330
C
102
}
330
C
100
AcDbDictionary
281
     1
  0
DICTIONARY
  5
1A
102
{ACAD_REACTORS
330
C
102
}
330
C
100
AcDbDictionary
281
     1
  3
Layout1
350
1E
  3
Layout2
350
26
  3
Model
350
22
  0
DICTIONARY
  5
17
102
{ACAD_REACTORS
330
C
102
}
330
C
100
AcDbDictionary
281
     1
  3
Standard
350
18
  0
DICTIONARY
  5
19
102
{ACAD_REACTORS
330
C
102
}
330
C
100
AcDbDictionary
281
     1
  0
ACDBDICTIONARYWDFLT
  5
E
102
{ACAD_REACTORS
330
C
102
}
330
C
100
AcDbDictionary
281
     1
  3
Normal
350
F
100
AcDbDictionaryWithDefault
340
F
  0
DICTIONARY
  5
47
102
{ACAD_REACTORS
330
C
102
}
330
C
100
AcDbDictionary
281
     1
  3
A0
350
48
  3
A1
350
49
  3
A2
350
4A
  3
A3
350
4B
  3
A4
350
4C
  3
A5
350
4D
  3
A6
350
4E
  3
A7
350
4F
  3
A8
350
50
  3
A9
350
51
  3
B0
350
52
  3
B1
350
53
  3
B2
350
54
  3
B3
350
55
  3
B4
350
56
  3
B5
350
57
  3
B6
350
58
  3
B7
350
59
  3
B8
350
5A
  3
B9
350
5B
  3
C0
350
5C
  3
C1
350
5D
  3
C2
350
5E
  3
C3
350
5F
  3
C4
350
60
  3
C5
350
61
  3
C6
350
62
  3
C7
350
63
  3
C8
350
64
  3
C9
350
65
  3
D0
350
66
  3
D1
350
67
  3
D2
350
68
  0
LAYOUT
  5
1E
102
{ACAD_REACTORS
330
1A
102
}
330
1A
100
AcDbPlotSettings
  1

  2
none_device
  4

  6

 40
0.0
 41
0.0
 42
0.0
 43
0.0
 44
0.0
 45
0.0
 46
0.0
 47
0.0
 48
0.0
 49
0.0
140
0.0
141
0.0
142
1.0
143
1.0
 70
   688
 72
     0
 73
     0
 74
     5
  7

 75
    16
147
1.0
148
0.0
149
0.0
100
AcDbLayout
  1
Layout1
 70
     1
 71
     1
 10
0.0
 20
0.0
 11
12.0
 21
9.0
 12
0.0
 22
0.0
 32
0.0
 14
1.0000000000E+20
 24
1.0000000000E+20
 34
1.0000000000E+20
 15
-1.0000000000E+20
 25
-1.0000000000E+20
 35
-1.0000000000E+20
146
0.0
 13
0.0
 23
0.0
 33
0.0
 16
1.0
 26
0.0
 36
0.0
 17
0.0
 27
1.0
 37
0.0
 76
     0
330
1B
  0
LAYOUT
  5
26
102
{ACAD_REACTORS
330
1A
102
}
330
1A
100
AcDbPlotSettings
  1

  2
none_device
  4

  6

 40
0.0
 41
0.0
 42
0.0
 43
0.0
 44
0.0
 45
0.0
 46
0.0
 47
0.0
 48
0.0
 49
0.0
140
0.0
141
0.0
142
1.0
143
1.0
 70
   688
 72
     0
 73
     0
 74
     5
  7

 75
    16
147
1.0
148
0.0
149
0.0
100
AcDbLayout
  1
Layout2
 70
     1
 71
     2
 10
0.0
 20
0.0
 11
0.0
 21
0.0
 12
0.0
 22
0.0
 32
0.0
 14
0.0
 24
0.0
 34
0.0
 15
0.0
 25
0.0
 35
0.0
146
0.0
 13
0.0
 23
0.0
 33
0.0
 16
1.0
 26
0.0
 36
0.0
 17
0.0
 27
1.0
 37
0.0
 76
     0
330
23
  0
LAYOUT
  5
22
102
{ACAD_REACTORS
330
1A
102
}
330
1A
100
AcDbPlotSettings
  1

  2
none_device
  4
Letter_(8.50_x_11.00_Inches)
  6

 40
6.35
 41
6.35
 42
6.35000508
 43
6.35000508
 44
215.9
 45
279.4
 46
0.0
 47
0.0
 48
0.0
 49
0.0
140
0.0
141
0.0
142
1.0
143
1.0
 70
  1712
 72
     0
 73
     0
 74
     0
  7

 75
     0
147
1.0
148
0.0
149
0.0
100
AcDbLayout
  1
Model
 70
     1
 71
     0
 10
0.0
 20
0.0
 11
11.0
 21
8.5
 12
0.0
 22
0.0
 32
0.0
 14
0.0
 24
0.0
 34
0.0
 15
11.0
 25
8.5
 35
0.0
146
0.0
 13
0.0
 23
0.0
 33
0.0
 16
1.0
 26
0.0
 36
0.0
 17
0.0
 27
1.0
 37
0.0
 76
     0
330
1F
331
29
  0
MLINESTYLE
  5
18
102
{ACAD_REACTORS
330
17
102
}
330
17
100
AcDbMlineStyle
  2
Standard
 70
     0
  3

 62
   256
 51
90.0
 52
90.0
 71
     2
 49
0.5
 62
   256
  6
BYLAYER
 49
-0.5
 62
   256
  6
BYLAYER
  0
ACDBPLACEHOLDER
  5
F
102
{ACAD_REACTORS
330
E
102
}
330
E
  0
SCALE
  5
48
102
{ACAD_REACTORS
330
47
102
}
330
47
100
AcDbScale
 70
     0
300
1:1
140
1.0
141
1.0
290
     1
  0
SCALE
  5
49
102
{ACAD_REACTORS
330
47
102
}
330
47
100
AcDbScale
 70
     0
300
1:2
140
1.0
141
2.0
290
     0
  0
SCALE
  5
4A
102
{ACAD_REACTORS
330
47
102
}
330
47
100
AcDbScale
 70
     0
300
1:4
140
1.0
141
4.0
290
     0
  0
SCALE
  5
4B
102
{ACAD_REACTORS
330
47
102
}
330
47
100
AcDbScale
 70
     0
300
1:5
140
1.0
141
5.0
290
     0
  0
SCALE
  5
4C
102
{ACAD_REACTORS
330
47
102
}
330
47
100
AcDbScale
 70
     0
300
1:8
140
1.0
141
8.0
290
     0
  0
SCALE
  5
4D
102
{ACAD_REACTORS
330
47
102
}
330
47
100
AcDbScale
 70
     0
300
1:10
140
1.0
141
10.0
290
     0
  0
SCALE
  5
4E
102
{ACAD_REACTORS
330
47
102
}
330
47
100
AcDbScale
 70
     0
300
1:16
140
1.0
141
16.0
290
     0
  0
SCALE
  5
4F
102
{ACAD_REACTORS
330
47
102
}
330
47
100
AcDbScale
 70
     0
300
1:20
140
1.0
141
20.0
290
     0
  0
SCALE
  5
50
102
{ACAD_REACTORS
330
47
102
}
330
47
100
AcDbScale
 70
     0
300
1:30
140
1.0
141
30.0
290
     0
  0
SCALE
  5
51
102
{ACAD_REACTORS
330
47
102
}
330
47
100
AcDbScale
 70
     0
300
1:40
140
1.0
141
40.0
290
     0
  0
SCALE
  5
52
102
{ACAD_REACTORS
330
47
102
}
330
47
100
AcDbScale
 70
     0
300
1:50
140
1.0
141
50.0
290
     0
  0
SCALE
  5
53
102
{ACAD_REACTORS
330
47
102
}
330
47
100
AcDbScale
 70
     0
300
1:100
140
1.0
141
100.0
290
     0
  0
SCALE
  5
54
102
{ACAD_REACTORS
330
47
102
}
330
47
100
AcDbScale
 70
     0
300
2:1
140
2.0
141
1.0
290
     0
  0
SCALE
  5
55
102
{ACAD_REACTORS
330
47
102
}
330
47
100
AcDbScale
 70
     0
300
4:1
140
4.0
141
1.0
290
     0
  0
SCALE
  5
56
102
{ACAD_REACTORS
330
47
102
}
330
47
100
AcDbScale
 70
     0
300
8:1
140
8.0
141
1.0
290
     0
  0
SCALE
  5
57
102
{ACAD_REACTORS
330
47
102
}
330
47
100
AcDbScale
 70
     0
300
10:1
140
10.0
141
1.0
290
     0
  0
SCALE
  5
58
102
{ACAD_REACTORS
330
47
102
}
330
47
100
AcDbScale
 70
     0
300
100:1
140
100.0
141
1.0
290
     0
  0
SCALE
  5
59
102
{ACAD_REACTORS
330
47
102
}
330
47
100
AcDbScale
 70
     0
300
1/128" = 1'-0"
140
0.0078125
141
12.0
290
     0
  0
SCALE
  5
5A
102
{ACAD_REACTORS
330
47
102
}
330
47
100
AcDbScale
 70
     0
300
1/64" = 1'-0"
140
0.015625
141
12.0
290
     0
  0
SCALE
  5
5B
102
{ACAD_REACTORS
330
47
102
}
330
47
100
AcDbScale
 70
     0
300
1/32" = 1'-0"
140
0.03125
141
12.0
290
     0
  0
SCALE
  5
5C
102
{ACAD_REACTORS
330
47
102
}
330
47
100
AcDbScale
 70
     0
300
1/16" = 1'-0"
140
0.0625
141
12.0
290
     0
  0
SCALE
  5
5D
102
{ACAD_REACTORS
330
47
102
}
330
47
100
AcDbScale
 70
     0
300
3/32" = 1'-0"
140
0.09375
141
12.0
290
     0
  0
SCALE
  5
5E
102
{ACAD_REACTORS
330
47
102
}
330
47
100
AcDbScale
 70
     0
300
1/8" = 1'-0"
140
0.125
141
12.0
290
     0
  0
SCALE
  5
5F
102
{ACAD_REACTORS
330
47
102
}
330
47
100
AcDbScale
 70
     0
300
3/16" = 1'-0"
140
0.1875
141
12.0
290
     0
  0
SCALE
  5
60
102
{ACAD_REACTORS
330
47
102
}
330
47
100
AcDbScale
 70
     0
300
1/4" = 1'-0"
140
0.25
141
12.0
290
     0
  0
SCALE
  5
61
102
{ACAD_REACTORS
330
47
102
}
330
47
100
AcDbScale
 70
     0
300
3/8" = 1'-0"
140
0.375
141
12.0
290
     0
  0
SCALE
  5
62
102
{ACAD_REACTORS
330
47
102
}
330
47
100
AcDbScale
 70
     0
300
1/2" = 1'-0"
140
0.5
141
12.0
290
     0
  0
SCALE
  5
63
102
{ACAD_REACTORS
330
47
102
}
330
47
100
AcDbScale
 70
     0
300
3/4" = 1'-0"
140
0.75
141
12.0
290
     0
  0
SCALE
  5
64
102
{ACAD_REACTORS
330
47
102
}
330
47
100
AcDbScale
 70
     0
300
1" = 1'-0"
140
1.0
141
12.0
290
     0
  0
SCALE
  5
65
102
{ACAD_REACTORS
330
47
102
}
330
47
100
AcDbScale
 70
     0
300
1-1/2" = 1'-0"
140
1.5
141
12.0
290
     0
  0
SCALE
  5
66
102
{ACAD_REACTORS
330
47
102
}
330
47
100
AcDbScale
 70
     0
300
3" = 1'-0"
140
3.0
141
12.0
290
     0
  0
SCALE
  5
67
102
{ACAD_REACTORS
330
47
102
}
330
47
100
AcDbScale
 70
     0
300
6" = 1'-0"
140
6.0
141
12.0
290
     0
  0
SCALE
  5
68
102
{ACAD_REACTORS
330
47
102
}
330
47
100
AcDbScale
 70
     0
300
1'-0" = 1'-0"
140
12.0
141
12.0
290
     0
  0
ENDSEC
  0
EOF
