  0
SECTION
  2
HEADER
  9
$ACADVER
  1
AC1015
  9
$ACADMAINTVER
 70
     6
  9
$DWGCODEPAGE
  3
ANSI_936
  9
$INSBASE
 10
0.0
 20
0.0
 30
0.0
  9
$EXTMIN
 10
0.0
 20
0.0
 30
0.0
  9
$EXTMAX
 10
27.94
 20
21.59
 30
0.0
  9
$LIMMIN
 10
0.0
 20
0.0
  9
$LIMMAX
 10
27.94
 20
21.59
  9
$ORTHOMODE
 70
     0
  9
$REGENMODE
 70
     1
  9
$FILLMODE
 70
     1
  9
$QTEXTMODE
 70
     0
  9
$MIRRTEXT
 70
     1
  9
$LTSCALE
 40
0.1
  9
$ATTMODE
 70
     1
  9
$TEXTSIZE
 40
0.2822222222
  9
$TRACEWID
 40
1.0
  9
$TEXTSTYLE
  7
Standard
  9
$CLAYER
  8
0
  9
$CELTYPE
  6
ByLayer
  9
$CECOLOR
 62
   256
  9
$CELTSCALE
 40
1.0
  9
$DISPSILH
 70
     0
  9
$DIMSCALE
 40
1.0
  9
$DIMASZ
 40
0.33
  9
$DIMEXO
 40
0.127
  9
$DIMDLI
 40
3.75
  9
$DIMRND
 40
0.0
  9
$DIMDLE
 40
0.0
  9
$DIMEXE
 40
0.1778
  9
$DIMTP
 40
0.0
  9
$DIMTM
 40
0.0
  9
$DIMTXT
 40
0.2822222222
  9
$DIMCEN
 40
2.5
  9
$DIMTSZ
 40
0.0
  9
$DIMTOL
 70
     0
  9
$DIMLIM
 70
     0
  9
$DIMTIH
 70
     1
  9
$DIMTOH
 70
     1
  9
$DIMSE1
 70
     0
  9
$DIMSE2
 70
     0
  9
$DIMTAD
 70
     0
  9
$DIMZIN
 70
     1
  9
$DIMBLK
  1

  9
$DIMASO
 70
     1
  9
$DIMSHO
 70
     1
  9
$DIMPOST
  1

  9
$DIMAPOST
  1

  9
$DIMALT
 70
     0
  9
$DIMALTD
 70
     3
  9
$DIMALTF
 40
0.0393700787
  9
$DIMLFAC
 40
1.0
  9
$DIMTOFL
 70
     1
  9
$DIMTVP
 40
0.0
  9
$DIMTIX
 70
     0
  9
$DIMSOXD
 70
     0
  9
$DIMSAH
 70
     0
  9
$DIMBLK1
  1

  9
$DIMBLK2
  1

  9
$DIMSTYLE
  2
ISO-25
  9
$DIMCLRD
 70
     0
  9
$DIMCLRE
 70
     0
  9
$DIMCLRT
 70
     0
  9
$DIMTFAC
 40
1.0
  9
$DIMGAP
 40
0.254
  9
$DIMJUST
 70
     0
  9
$DIMSD1
 70
     0
  9
$DIMSD2
 70
     0
  9
$DIMTOLJ
 70
     0
  9
$DIMTZIN
 70
     1
  9
$DIMALTZ
 70
     0
  9
$DIMALTTZ
 70
     0
  9
$DIMUPT
 70
     0
  9
$DIMDEC
 70
     1
  9
$DIMTDEC
 70
     3
  9
$DIMALTU
 70
     2
  9
$DIMALTTD
 70
     3
  9
$DIMTXSTY
  7
Standard
  9
$DIMAUNIT
 70
     0
  9
$DIMADEC
 70
     2
  9
$DIMALTRND
 40
0.0
  9
$DIMAZIN
 70
     0
  9
$DIMDSEP
 70
    44
  9
$DIMATFIT
 70
     3
  9
$DIMFRAC
 70
     0
  9
$DIMLDRBLK
  1

  9
$DIMLUNIT
 70
     2
  9
$DIMLWD
 70
    -2
  9
$DIMLWE
 70
    -2
  9
$DIMTMOVE
 70
     0
  9
$LUNITS
 70
     2
  9
$LUPREC
 70
     2
  9
$SKETCHINC
 40
1.0
  9
$FILLETRAD
 40
10.0
  9
$AUNITS
 70
     0
  9
$AUPREC
 70
     2
  9
$MENU
  1
.
  9
$ELEVATION
 40
0.0
  9
$PELEVATION
 40
0.0
  9
$THICKNESS
 40
0.0
  9
$LIMCHECK
 70
     0
  9
$CHAMFERA
 40
0.0
  9
$CHAMFERB
 40
0.0
  9
$CHAMFERC
 40
0.0
  9
$CHAMFERD
 40
0.0
  9
$SKPOLY
 70
     0
  9
$TDCREATE
 40
2459580.744740498
  9
$TDUCREATE
 40
2459580.411407164
  9
$TDUPDATE
 40
2459580.744746123
  9
$TDUUPDATE
 40
2459580.411412789
  9
$TDINDWG
 40
0.0000000116
  9
$TDUSRTIMER
 40
0.0000000116
  9
$USRTIMER
 70
     1
  9
$ANGBASE
 50
0.0
  9
$ANGDIR
 70
     0
  9
$PDMODE
 70
     0
  9
$PDSIZE
 40
-1.0
  9
$PLINEWID
 40
0.0
  9
$SPLFRAME
 70
     0
  9
$SPLINETYPE
 70
     6
  9
$SPLINESEGS
 70
     8
  9
$HANDSEED
  5
1F8
  9
$SURFTAB1
 70
     6
  9
$SURFTAB2
 70
     6
  9
$SURFTYPE
 70
     6
  9
$SURFU
 70
     6
  9
$SURFV
 70
     6
  9
$UCSBASE
  2

  9
$UCSNAME
  2

  9
$UCSORG
 10
0.0
 20
0.0
 30
0.0
  9
$UCSXDIR
 10
1.0
 20
0.0
 30
0.0
  9
$UCSYDIR
 10
0.0
 20
1.0
 30
0.0
  9
$UCSORTHOREF
  2

  9
$UCSORTHOVIEW
 70
     0
  9
$UCSORGTOP
 10
0.0
 20
0.0
 30
0.0
  9
$UCSORGBOTTOM
 10
0.0
 20
0.0
 30
0.0
  9
$UCSORGLEFT
 10
0.0
 20
0.0
 30
0.0
  9
$UCSORGRIGHT
 10
0.0
 20
0.0
 30
0.0
  9
$UCSORGFRONT
 10
0.0
 20
0.0
 30
0.0
  9
$UCSORGBACK
 10
0.0
 20
0.0
 30
0.0
  9
$PUCSBASE
  2

  9
$PUCSNAME
  2

  9
$PUCSORG
 10
0.0
 20
0.0
 30
0.0
  9
$PUCSXDIR
 10
1.0
 20
0.0
 30
0.0
  9
$PUCSYDIR
 10
0.0
 20
1.0
 30
0.0
  9
$PUCSORTHOREF
  2

  9
$PUCSORTHOVIEW
 70
     0
  9
$PUCSORGTOP
 10
0.0
 20
0.0
 30
0.0
  9
$PUCSORGBOTTOM
 10
0.0
 20
0.0
 30
0.0
  9
$PUCSORGLEFT
 10
0.0
 20
0.0
 30
0.0
  9
$PUCSORGRIGHT
 10
0.0
 20
0.0
 30
0.0
  9
$PUCSORGFRONT
 10
0.0
 20
0.0
 30
0.0
  9
$PUCSORGBACK
 10
0.0
 20
0.0
 30
0.0
  9
$USERI1
 70
     0
  9
$USERI2
 70
     0
  9
$USERI3
 70
     0
  9
$USERI4
 70
     0
  9
$USERI5
 70
     0
  9
$USERR1
 40
0.0
  9
$USERR2
 40
0.0
  9
$USERR3
 40
0.0
  9
$USERR4
 40
0.0
  9
$USERR5
 40
0.0
  9
$WORLDVIEW
 70
     1
  9
$SHADEDGE
 70
     3
  9
$SHADEDIF
 70
    70
  9
$TILEMODE
 70
     1
  9
$MAXACTVP
 70
    64
  9
$PINSBASE
 10
0.0
 20
0.0
 30
0.0
  9
$PLIMCHECK
 70
     0
  9
$PEXTMIN
 10
1.0000000000E+20
 20
1.0000000000E+20
 30
1.0000000000E+20
  9
$PEXTMAX
 10
-1.0000000000E+20
 20
-1.0000000000E+20
 30
-1.0000000000E+20
  9
$PLIMMIN
 10
0.0
 20
0.0
  9
$PLIMMAX
 10
420.0
 20
297.0
  9
$UNITMODE
 70
     0
  9
$VISRETAIN
 70
     1
  9
$PLINEGEN
 70
     0
  9
$PSLTSCALE
 70
     1
  9
$TREEDEPTH
 70
  3020
  9
$CMLSTYLE
  2
Standard
  9
$CMLJUST
 70
     0
  9
$CMLSCALE
 40
20.0
  9
$PROXYGRAPHICS
 70
     1
  9
$MEASUREMENT
 70
     1
  9
$CELWEIGHT
370
    -1
  9
$ENDCAPS
280
     0
  9
$JOINSTYLE
280
     0
  9
$LWDISPLAY
290
     1
  9
$INSUNITS
 70
     4
  9
$HYPERLINKBASE
  1

  9
$STYLESHEET
  1

  9
$XEDIT
290
     1
  9
$CEPSNTYPE
380
     0
  9
$PSTYLEMODE
290
     1
  9
$FINGERPRINTGUID
  2
{d2732ce9-98f0-46d9-9669-31a289b486f5}
  9
$VERSIONGUID
  2
{FAEB1C32-E019-11D5-929B-00C0DF256EC4}
  9
$EXTNAMES
290
     1
  9
$PSVPSCALE
 40
0.0
  9
$OLESTARTUP
290
     0
  0
ENDSEC
  0
SECTION
  2
CLASSES
  0
CLASS
  1
ACDBDICTIONARYWDFLT
  2
AcDbDictionaryWithDefault
  3
ObjectDBX Classes
 90
        0
280
     0
281
     0
  0
CLASS
  1
VISUALSTYLE
  2
AcDbVisualStyle
  3
ObjectDBX Classes
 90
     4095
280
     0
281
     0
  0
CLASS
  1
MATERIAL
  2
AcDbMaterial
  3
ObjectDBX Classes
 90
     1153
280
     0
281
     0
  0
CLASS
  1
SCALE
  2
AcDbScale
  3
ObjectDBX Classes
 90
     1153
280
     0
281
     0
  0
CLASS
  1
TABLESTYLE
  2
AcDbTableStyle
  3
ObjectDBX Classes
 90
     4095
280
     0
281
     0
  0
CLASS
  1
MLEADERSTYLE
  2
AcDbMLeaderStyle
  3
ACDB_MLEADERSTYLE_CLASS
 90
     4095
280
     0
281
     0
  0
CLASS
  1
SUN
  2
AcDbSun
  3
SCENEOE
 90
     1153
280
     0
281
     0
  0
CLASS
  1
ACDBPLACEHOLDER
  2
AcDbPlaceHolder
  3
ObjectDBX Classes
 90
        0
280
     0
281
     0
  0
CLASS
  1
LAYOUT
  2
AcDbLayout
  3
ObjectDBX Classes
 90
        0
280
     0
281
     0
  0
ENDSEC
  0
SECTION
  2
TABLES
  0
TABLE
  2
VPORT
  5
8
330
0
100
AcDbSymbolTable
 70
     1
  0
VPORT
  5
29
330
8
100
AcDbSymbolTableRecord
100
AcDbViewportTableRecord
  2
*Active
 70
     0
 10
0.0
 20
0.0
 11
1.0
 21
1.0
 12
13.97
 22
10.795
 13
0.0
 23
0.0
 14
10.0
 24
10.0
 15
10.0
 25
10.0
 16
0.0
 26
0.0
 36
1.0
 17
0.0
 27
0.0
 37
0.0
 40
21.59
 41
1.2941176471
 42
50.0
 43
0.0
 44
0.0
 50
0.0
 51
0.0
 71
     0
 72
  2000
 73
     1
 74
     3
 75
     0
 76
     0
 77
     0
 78
     0
281
     0
 65
     1
110
0.0
120
0.0
130
0.0
111
1.0
121
0.0
131
0.0
112
0.0
122
1.0
132
0.0
 79
     0
146
0.0
  0
ENDTAB
  0
TABLE
  2
LTYPE
  5
5
330
0
100
AcDbSymbolTable
 70
     6
  0
LTYPE
  5
14
330
5
100
AcDbSymbolTableRecord
100
AcDbLinetypeTableRecord
  2
ByBlock
 70
     0
  3

 72
    65
 73
     0
 40
0.0
  0
LTYPE
  5
15
330
5
100
AcDbSymbolTableRecord
100
AcDbLinetypeTableRecord
  2
ByLayer
 70
     0
  3

 72
    65
 73
     0
 40
0.0
  0
LTYPE
  5
16
330
5
100
AcDbSymbolTableRecord
100
AcDbLinetypeTableRecord
  2
Continuous
 70
     0
  3
Solid line
 72
    65
 73
     0
 40
0.0
  0
LTYPE
  5
6E
330
5
100
AcDbSymbolTableRecord
100
AcDbLinetypeTableRecord
  2
HIDDEN
 70
     0
  3
Hidden __ __ __ __ __ __ __ __ __ __ __ __ __ __
 72
    65
 73
     2
 40
1.905
 49
1.27
 74
     0
 49
-0.635
 74
     0
  0
LTYPE
  5
6F
330
5
100
AcDbSymbolTableRecord
100
AcDbLinetypeTableRecord
  2
PHANTOM
 70
     0
  3
Phantom ______  __  __  ______  __  __  ______
 72
    65
 73
     6
 40
12.7
 49
6.35
 74
     0
 49
-1.27
 74
     0
 49
1.27
 74
     0
 49
-1.27
 74
     0
 49
1.27
 74
     0
 49
-1.27
 74
     0
  0
LTYPE
  5
70
330
5
100
AcDbSymbolTableRecord
100
AcDbLinetypeTableRecord
  2
CENTER
 70
     0
  3
Center ____ _ ____ _ ____ _ ____ _ ____ _ ____
 72
    65
 73
     4
 40
10.16
 49
6.35
 74
     0
 49
-1.27
 74
     0
 49
1.27
 74
     0
 49
-1.27
 74
     0
  0
LTYPE
  5
71
330
5
100
AcDbSymbolTableRecord
100
AcDbLinetypeTableRecord
  2
CENTERX2
 70
     0
  3
Center (2x) ________  __  ________  __  _____
 72
    65
 73
     4
 40
20.32
 49
12.7
 74
     0
 49
-2.54
 74
     0
 49
2.54
 74
     0
 49
-2.54
 74
     0
  0
LTYPE
  5
72
330
5
100
AcDbSymbolTableRecord
100
AcDbLinetypeTableRecord
  2
DOT2
 70
     0
  3
Dot (.5x) ........................................
 72
    65
 73
     2
 40
0.635
 49
0.0
 74
     0
 49
-0.635
 74
     0
  0
ENDTAB
  0
TABLE
  2
LAYER
  5
2
330
0
100
AcDbSymbolTable
 70
     2
  0
LAYER
  5
10
330
2
100
AcDbSymbolTableRecord
100
AcDbLayerTableRecord
  2
0
 70
     0
 62
     7
  6
Continuous
370
    -3
390
F
  0
LAYER
  5
73
330
2
100
AcDbSymbolTableRecord
100
AcDbLayerTableRecord
  2
FORMAT
 70
     0
 62
     7
  6
Continuous
370
    -3
390
F
  0
ENDTAB
  0
TABLE
  2
STYLE
  5
3
330
0
100
AcDbSymbolTable
 70
     3
  0
STYLE
  5
11
330
3
100
AcDbSymbolTableRecord
100
AcDbTextStyleTableRecord
  2
Standard
 70
     0
 40
0.0
 41
1.0
 50
0.0
 71
     0
 42
0.2822222222
  3
txt
  4

  0
STYLE
  5
12C
330
3
100
AcDbSymbolTableRecord
100
AcDbTextStyleTableRecord
  2
SLDTEXTSTYLE0
 70
     0
 40
0.0
 41
0.75
 50
0.0
 71
     0
 42
0.2822222222
  3
TXT
  4

  0
STYLE
  5
138
330
3
100
AcDbSymbolTableRecord
100
AcDbTextStyleTableRecord
  2
SLDTEXTSTYLE1
 70
     0
 40
0.0
 41
0.5204708954
 50
0.0
 71
     0
 42
0.2822222222
  3
TXT
  4

  0
ENDTAB
  0
TABLE
  2
VIEW
  5
6
330
0
100
AcDbSymbolTable
 70
     0
  0
ENDTAB
  0
TABLE
  2
UCS
  5
7
330
0
100
AcDbSymbolTable
 70
     0
  0
ENDTAB
  0
TABLE
  2
APPID
  5
9
330
0
100
AcDbSymbolTable
 70
     1
  0
APPID
  5
12
330
9
100
AcDbSymbolTableRecord
100
AcDbRegAppTableRecord
  2
ACAD
 70
     0
  0
ENDTAB
  0
TABLE
  2
DIMSTYLE
  5
A
330
0
100
AcDbSymbolTable
 70
     5
100
AcDbDimStyleTable
  0
DIMSTYLE
105
27
330
A
100
AcDbSymbolTableRecord
100
AcDbDimStyleTableRecord
  2
ISO-25
 70
     0
 41
2.5
 42
0.625
 43
3.75
 44
1.25
 73
     0
 74
     0
 77
     1
 78
     8
140
2.5
141
2.5
143
0.0393700787
147
0.625
171
     3
172
     1
178
     0
271
     2
272
     2
274
     3
278
    44
283
     0
284
     8
340
11
  0
DIMSTYLE
105
164
330
A
100
AcDbSymbolTableRecord
100
AcDbDimStyleTableRecord
  2
SLDDIMSTYLE0
 70
     0
 41
0.33
 44
0.0
 45
0.000000001
146
0.33
147
0.0
173
     1
178
     0
271
     0
272
     0
276
     2
340
11
  0
DIMSTYLE
105
169
330
A
100
AcDbSymbolTableRecord
100
AcDbDimStyleTableRecord
  2
SLDDIMSTYLE1
 70
     0
 41
0.1
 44
0.0
 45
0.000000001
146
0.1
147
0.0
173
     1
178
     0
271
     0
272
     0
276
     2
340
11
341
16A
343
16A
344
16A
  0
DIMSTYLE
105
17B
102
{ACAD_REACTORS
330
17A
102
}
330
A
100
AcDbSymbolTableRecord
100
AcDbDimStyleTableRecord
  2
SLDDIMSTYLE2
 70
     0
 41
0.33
 44
0.0
 45
0.000000001
 78
    12
 79
     3
140
0.2116666667
143
0.0393700787
147
0.0529166667
148
0.000000001
170
     1
172
     1
173
     1
178
     0
271
     1
272
     3
274
     3
276
     2
284
    12
289
     0
340
12C
  0
DIMSTYLE
105
190
102
{ACAD_REACTORS
330
18F
330
1B3
330
1C7
102
}
330
A
100
AcDbSymbolTableRecord
100
AcDbDimStyleTableRecord
  2
SLDDIMSTYLE3
 70
     0
 41
0.33
 44
0.0
 45
0.000000001
 78
     4
 79
     1
140
0.2116666667
143
0.0393700787
147
0.0529166667
148
0.000000001
170
     1
173
     1
178
     0
271
     1
272
     3
274
     3
276
     2
284
    12
340
12C
  0
ENDTAB
  0
TABLE
  2
BLOCK_RECORD
  5
1
330
0
100
AcDbSymbolTable
 70
    12
  0
BLOCK_RECORD
  5
1F
330
1
100
AcDbSymbolTableRecord
100
AcDbBlockTableRecord
  2
*Model_Space
340
22
  0
BLOCK_RECORD
  5
1B
330
1
100
AcDbSymbolTableRecord
100
AcDbBlockTableRecord
  2
*Paper_Space
340
1E
  0
BLOCK_RECORD
  5
23
330
1
100
AcDbSymbolTableRecord
100
AcDbBlockTableRecord
  2
*Paper_Space0
340
26
  0
BLOCK_RECORD
  5
74
330
1
100
AcDbSymbolTableRecord
100
AcDbBlockTableRecord
  2
Third Angle Projection Block
340
0
102
{BLKREFS
331
12A
102
}
  0
BLOCK_RECORD
  5
81
330
1
100
AcDbSymbolTableRecord
100
AcDbBlockTableRecord
  2
THORLABS LOGO1
340
0
102
{BLKREFS
331
12B
102
}
  0
BLOCK_RECORD
  5
13E
330
1
100
AcDbSymbolTableRecord
100
AcDbBlockTableRecord
  2
SW_NOTE_0
340
0
102
{BLKREFS
331
143
102
}
  0
BLOCK_RECORD
  5
144
330
1
100
AcDbSymbolTableRecord
100
AcDbBlockTableRecord
  2
SW_NOTE_0_1
340
0
102
{BLKREFS
331
149
102
}
  0
BLOCK_RECORD
  5
14D
330
1
100
AcDbSymbolTableRecord
100
AcDbBlockTableRecord
  2
SW_NOTE_0_2
340
0
102
{BLKREFS
331
152
102
}
  0
BLOCK_RECORD
  5
16A
330
1
100
AcDbSymbolTableRecord
100
AcDbBlockTableRecord
  2
_Dot
340
0
  0
BLOCK_RECORD
  5
17C
330
1
100
AcDbSymbolTableRecord
100
AcDbBlockTableRecord
  2
_D
340
0
  0
BLOCK_RECORD
  5
191
330
1
100
AcDbSymbolTableRecord
100
AcDbBlockTableRecord
  2
_D_1
340
0
  0
BLOCK_RECORD
  5
1A4
330
1
100
AcDbSymbolTableRecord
100
AcDbBlockTableRecord
  2
SW_NOTE_0_3
340
0
102
{BLKREFS
331
1A9
102
}
  0
BLOCK_RECORD
  5
1B4
330
1
100
AcDbSymbolTableRecord
100
AcDbBlockTableRecord
  2
_D_2
340
0
  0
BLOCK_RECORD
  5
1C8
330
1
100
AcDbSymbolTableRecord
100
AcDbBlockTableRecord
  2
_D_3
340
0
  0
ENDTAB
  0
ENDSEC
  0
SECTION
  2
BLOCKS
  0
BLOCK
  5
20
330
1F
100
AcDbEntity
  8
0
100
AcDbBlockBegin
  2
*Model_Space
 70
     0
 10
0.0
 20
0.0
 30
0.0
  3
*Model_Space
  1

  0
ENDBLK
  5
21
330
1F
100
AcDbEntity
  8
0
100
AcDbBlockEnd
  0
BLOCK
  5
1C
330
1B
100
AcDbEntity
 67
     1
  8
0
100
AcDbBlockBegin
  2
*Paper_Space
 70
     0
 10
0.0
 20
0.0
 30
0.0
  3
*Paper_Space
  1

  0
ENDBLK
  5
1D
330
1B
100
AcDbEntity
 67
     1
  8
0
100
AcDbBlockEnd
  0
BLOCK
  5
24
330
23
100
AcDbEntity
  8
0
100
AcDbBlockBegin
  2
*Paper_Space0
 70
     0
 10
0.0
 20
0.0
 30
0.0
  3
*Paper_Space0
  1

  0
ENDBLK
  5
25
330
23
100
AcDbEntity
  8
0
100
AcDbBlockEnd
  0
BLOCK
  5
75
330
74
100
AcDbEntity
  8
0
100
AcDbBlockBegin
  2
Third Angle Projection Block
 70
     0
 10
0.0
 20
0.0
 30
0.0
  3
Third Angle Projection Block
  1

  0
CIRCLE
  5
77
330
74
100
AcDbEntity
  8
0
  6
Continuous
 62
     7
370
    35
100
AcDbCircle
 10
10.1476638894
 20
1.8940408367
 30
0.0
 40
0.1768227153674867
  0
CIRCLE
  5
78
330
74
100
AcDbEntity
  8
0
  6
Continuous
 62
     7
370
    35
100
AcDbCircle
 10
10.1476638894
 20
1.8940408367
 30
0.0
 40
0.3901228248531828
  0
LINE
  5
79
330
74
100
AcDbEntity
  8
0
  6
CENTERX2
 62
     7
370
    18
100
AcDbLine
 10
11.0136782258
 20
1.8940408367
 30
0.0
 11
11.9452733487
 21
1.8940408367
 31
0.0
  0
LINE
  5
7A
330
74
100
AcDbEntity
  8
0
  6
Continuous
 62
     7
370
    35
100
AcDbLine
 10
11.1001638894
 20
2.070863552
 30
0.0
 11
11.1001638894
 21
1.7172181213
 31
0.0
  0
LINE
  5
7B
330
74
100
AcDbEntity
  8
0
  6
Continuous
 62
     7
370
    35
100
AcDbLine
 10
11.1001638894
 20
1.7172181213
 30
0.0
 11
11.8621638894
 21
1.5130408367
 31
0.0
  0
LINE
  5
7C
330
74
100
AcDbEntity
  8
0
  6
Continuous
 62
     7
370
    35
100
AcDbLine
 10
11.8621638894
 20
1.5130408367
 30
0.0
 11
11.8621638894
 21
2.2750408367
 31
0.0
  0
LINE
  5
7D
330
74
100
AcDbEntity
  8
0
  6
Continuous
 62
     7
370
    35
100
AcDbLine
 10
11.8621638894
 20
2.2750408367
 30
0.0
 11
11.1001638894
 21
2.070863552
 31
0.0
  0
LINE
  5
7E
330
74
100
AcDbEntity
  8
0
  6
CENTERX2
 62
     7
370
    18
100
AcDbLine
 10
9.6602585462
 20
1.8940408367
 30
0.0
 11
10.6350692327
 21
1.8940408367
 31
0.0
  0
LINE
  5
7F
330
74
100
AcDbEntity
  8
0
  6
CENTERX2
 62
     7
370
    18
100
AcDbLine
 10
10.1476638894
 20
2.3814461799
 30
0.0
 11
10.1476638894
 21
1.4066354934
 31
0.0
  0
POINT
  5
80
330
74
100
AcDbEntity
  8
0
  6
Continuous
 62
     7
370
     0
100
AcDbPoint
 10
10.1476638894
 20
1.8940408367
 30
0.0
  0
ENDBLK
  5
76
330
74
100
AcDbEntity
  8
0
100
AcDbBlockEnd
  0
BLOCK
  5
82
330
81
100
AcDbEntity
  8
0
100
AcDbBlockBegin
  2
THORLABS LOGO1
 70
     0
 10
0.0
 20
0.0
 30
0.0
  3
THORLABS LOGO1
  1

  0
LINE
  5
84
330
81
100
AcDbEntity
  8
0
  6
Continuous
 62
     7
370
    18
100
AcDbLine
 10
12.7070019234
 20
3.620212077
 30
0.0
 11
12.9589763734
 21
4.3913110827
 31
0.0
  0
LINE
  5
85
330
81
100
AcDbEntity
  8
0
  6
Continuous
 62
     7
370
    18
100
AcDbLine
 10
12.9589763734
 20
4.3913110827
 30
0.0
 11
13.0374557003
 21
4.3913110827
 31
0.0
  0
LINE
  5
86
330
81
100
AcDbEntity
  8
0
  6
Continuous
 62
     7
370
    18
100
AcDbLine
 10
13.0374557003
 20
4.3913110827
 30
0.0
 11
13.2810585628
 21
3.620212077
 31
0.0
  0
LINE
  5
87
330
81
100
AcDbEntity
  8
0
  6
Continuous
 62
     7
370
    18
100
AcDbLine
 10
13.2810585628
 20
3.620212077
 30
0.0
 11
12.7070019234
 21
3.620212077
 31
0.0
  0
LINE
  5
88
330
81
100
AcDbEntity
  8
0
  6
Continuous
 62
     7
370
    18
100
AcDbLine
 10
12.8422909124
 20
3.7230137941
 30
0.0
 11
13.1386726725
 21
3.7230137941
 31
0.0
  0
LINE
  5
89
330
81
100
AcDbEntity
  8
0
  6
Continuous
 62
     7
370
    18
100
AcDbLine
 10
13.1386726725
 20
3.7230137941
 30
0.0
 11
12.9929794883
 21
4.1882053444
 31
0.0
  0
LINE
  5
8A
330
81
100
AcDbEntity
  8
0
  6
Continuous
 62
     7
370
    18
100
AcDbLine
 10
12.9929794883
 20
4.1882053444
 30
0.0
 11
12.8422909124
 21
3.7230137941
 31
0.0
  0
LINE
  5
8B
330
81
100
AcDbEntity
  8
0
  6
Continuous
 62
     7
370
    18
100
AcDbLine
 10
14.8569496302
 20
2.9696053654
 30
0.0
 11
13.4469055689
 21
2.9696053654
 31
0.0
  0
LINE
  5
8C
330
81
100
AcDbEntity
  8
0
  6
Continuous
 62
     7
370
    18
100
AcDbLine
 10
13.4469055689
 20
2.9696053654
 30
0.0
 11
13.3032794433
 21
3.2971308093
 31
0.0
  0
LINE
  5
8D
330
81
100
AcDbEntity
  8
0
  6
Continuous
 62
     7
370
    18
100
AcDbLine
 10
13.3032794433
 20
3.2971308093
 30
0.0
 11
12.6801301609
 21
3.2971308093
 31
0.0
  0
LINE
  5
8E
330
81
100
AcDbEntity
  8
0
  6
Continuous
 62
     7
370
    18
100
AcDbLine
 10
12.6801301609
 20
3.2971308093
 30
0.0
 11
12.5336790552
 21
2.9722580907
 31
0.0
  0
LINE
  5
8F
330
81
100
AcDbEntity
  8
0
  6
Continuous
 62
     7
370
    18
100
AcDbLine
 10
12.5336790552
 20
2.9722580907
 30
0.0
 11
10.7508409655
 21
2.9722580907
 31
0.0
  0
LINE
  5
90
330
81
100
AcDbEntity
  8
0
  6
Continuous
 62
     7
370
    18
100
AcDbLine
 10
10.7508409655
 20
2.9722580907
 30
0.0
 11
10.7508409655
 21
4.8989290118
 31
0.0
  0
LINE
  5
91
330
81
100
AcDbEntity
  8
0
  6
Continuous
 62
     7
370
    18
100
AcDbLine
 10
10.7508409655
 20
4.8989290118
 30
0.0
 11
11.2534807283
 21
4.8989290118
 31
0.0
  0
LINE
  5
92
330
81
100
AcDbEntity
  8
0
  6
Continuous
 62
     7
370
    18
100
AcDbLine
 10
11.2534807283
 20
4.8989290118
 30
0.0
 11
11.2534807283
 21
3.4080629571
 31
0.0
  0
LINE
  5
93
330
81
100
AcDbEntity
  8
0
  6
Continuous
 62
     7
370
    18
100
AcDbLine
 10
11.2534807283
 20
3.4080629571
 30
0.0
 11
12.1780416136
 21
3.4080629571
 31
0.0
  0
LINE
  5
94
330
81
100
AcDbEntity
  8
0
  6
Continuous
 62
     7
370
    18
100
AcDbLine
 10
12.1780416136
 20
3.4080629571
 30
0.0
 11
12.7390413325
 21
4.8989290118
 31
0.0
  0
LINE
  5
95
330
81
100
AcDbEntity
  8
0
  6
Continuous
 62
     7
370
    18
100
AcDbLine
 10
12.7390413325
 20
4.8989290118
 30
0.0
 11
13.2497081732
 21
4.8989290118
 31
0.0
  0
LINE
  5
96
330
81
100
AcDbEntity
  8
0
  6
Continuous
 62
     7
370
    18
100
AcDbLine
 10
13.2497081732
 20
4.8989290118
 30
0.0
 11
13.9301838824
 21
3.1027583938
 31
0.0
  0
LINE
  5
97
330
81
100
AcDbEntity
  8
0
  6
Continuous
 62
     7
370
    18
100
AcDbLine
 10
13.9301838824
 20
3.1027583938
 30
0.0
 11
13.9301838824
 21
4.8989290118
 31
0.0
  0
LINE
  5
98
330
81
100
AcDbEntity
  8
0
  6
Continuous
 62
     7
370
    18
100
AcDbLine
 10
13.9301838824
 20
4.8989290118
 30
0.0
 11
14.8325927891
 21
4.8989290118
 31
0.0
  0
LINE
  5
99
330
81
100
AcDbEntity
  8
0
  6
Continuous
 62
     7
370
    18
100
AcDbLine
 10
15.605672726
 20
3.623347116
 30
0.0
 11
16.0860916083
 21
3.623347116
 31
0.0
  0
LINE
  5
9A
330
81
100
AcDbEntity
  8
0
  6
Continuous
 62
     7
370
    18
100
AcDbLine
 10
17.1993060468
 20
4.3203765198
 30
0.0
 11
16.6967351859
 21
4.3203765198
 31
0.0
  0
LINE
  5
9B
330
81
100
AcDbEntity
  8
0
  6
Continuous
 62
     7
370
    18
100
AcDbLine
 10
16.157267328
 20
3.7127818538
 30
0.0
 11
15.6711640343
 21
3.7127818538
 31
0.0
  0
LINE
  5
9C
330
81
100
AcDbEntity
  8
0
  6
Continuous
 62
     7
370
    18
100
AcDbLine
 10
16.7189338107
 20
4.2208820966
 30
0.0
 11
17.3069170076
 21
4.2167479793
 31
0.0
  0
LINE
  5
9D
330
81
100
AcDbEntity
  8
0
  6
Continuous
 62
     7
370
    18
100
AcDbLine
 10
14.7727375478
 20
5.0047107385
 30
0.0
 11
13.830410104
 21
5.0047107385
 31
0.0
  0
LINE
  5
9E
330
81
100
AcDbEntity
  8
0
  6
Continuous
 62
     7
370
    18
100
AcDbLine
 10
13.830410104
 20
5.0047107385
 30
0.0
 11
13.830410104
 21
3.6750235823
 31
0.0
  0
LINE
  5
9F
330
81
100
AcDbEntity
  8
0
  6
Continuous
 62
     7
370
    18
100
AcDbLine
 10
13.830410104
 20
3.6750235823
 30
0.0
 11
13.3376233207
 21
5.0047107385
 31
0.0
  0
LINE
  5
A0
330
81
100
AcDbEntity
  8
0
  6
Continuous
 62
     7
370
    18
100
AcDbLine
 10
13.3376233207
 20
5.0047107385
 30
0.0
 11
12.678347722
 21
5.0047107385
 31
0.0
  0
LINE
  5
A1
330
81
100
AcDbEntity
  8
0
  6
Continuous
 62
     7
370
    18
100
AcDbLine
 10
12.678347722
 20
5.0047107385
 30
0.0
 11
12.1041658284
 21
3.4836296599
 31
0.0
  0
LINE
  5
A2
330
81
100
AcDbEntity
  8
0
  6
Continuous
 62
     7
370
    18
100
AcDbLine
 10
12.1041658284
 20
3.4836296599
 30
0.0
 11
11.3733878107
 21
3.4790831212
 31
0.0
  0
LINE
  5
A3
330
81
100
AcDbEntity
  8
0
  6
Continuous
 62
     7
370
    18
100
AcDbLine
 10
11.3733878107
 20
3.4790831212
 30
0.0
 11
11.3638961115
 21
5.0047107385
 31
0.0
  0
LINE
  5
A4
330
81
100
AcDbEntity
  8
0
  6
Continuous
 62
     7
370
    18
100
AcDbLine
 10
11.3638961115
 20
5.0047107385
 30
0.0
 11
10.6384963276
 21
5.0047107385
 31
0.0
  0
LINE
  5
A5
330
81
100
AcDbEntity
  8
0
  6
Continuous
 62
     7
370
    18
100
AcDbLine
 10
10.6384963276
 20
5.0047107385
 30
0.0
 11
10.6371871904
 21
2.8698353343
 31
0.0
  0
LINE
  5
A6
330
81
100
AcDbEntity
  8
0
  6
Continuous
 62
     7
370
    18
100
AcDbLine
 10
10.6371871904
 20
2.8698353343
 30
0.0
 11
12.6070596374
 21
2.8760709613
 31
0.0
  0
LINE
  5
A7
330
81
100
AcDbEntity
  8
0
  6
Continuous
 62
     7
370
    18
100
AcDbLine
 10
12.6070596374
 20
2.8760709613
 30
0.0
 11
12.7340114898
 21
3.1907461905
 31
0.0
  0
LINE
  5
A8
330
81
100
AcDbEntity
  8
0
  6
Continuous
 62
     7
370
    18
100
AcDbLine
 10
12.7340114898
 20
3.1907461905
 30
0.0
 11
13.251637428
 21
3.1907461905
 31
0.0
  0
LINE
  5
A9
330
81
100
AcDbEntity
  8
0
  6
Continuous
 62
     7
370
    18
100
AcDbLine
 10
13.251637428
 20
3.1907461905
 30
0.0
 11
13.3734560847
 21
2.8760709613
 31
0.0
  0
LINE
  5
AA
330
81
100
AcDbEntity
  8
0
  6
Continuous
 62
     7
370
    18
100
AcDbLine
 10
13.3734560847
 20
2.8760709613
 30
0.0
 11
14.9676528164
 21
2.8760709613
 31
0.0
  0
LINE
  5
AB
330
81
100
AcDbEntity
  8
0
  6
Continuous
 62
     7
370
    18
100
AcDbLine
 10
4.7973675299
 20
4.5263072383
 30
0.0
 11
4.2181260184
 21
4.5263072383
 31
0.0
  0
LINE
  5
AC
330
81
100
AcDbEntity
  8
0
  6
Continuous
 62
     7
370
    18
100
AcDbLine
 10
4.2181260184
 20
4.5263072383
 30
0.0
 11
4.2181260184
 21
2.8698353343
 31
0.0
  0
LINE
  5
AD
330
81
100
AcDbEntity
  8
0
  6
Continuous
 62
     7
370
    18
100
AcDbLine
 10
4.2181260184
 20
2.8698353343
 30
0.0
 11
3.6597445738
 21
2.8698353343
 31
0.0
  0
LINE
  5
AE
330
81
100
AcDbEntity
  8
0
  6
Continuous
 62
     7
370
    18
100
AcDbLine
 10
3.6597445738
 20
2.8698353343
 30
0.0
 11
3.6597445738
 21
4.5263072383
 31
0.0
  0
LINE
  5
AF
330
81
100
AcDbEntity
  8
0
  6
Continuous
 62
     7
370
    18
100
AcDbLine
 10
3.6597445738
 20
4.5263072383
 30
0.0
 11
3.0202999789
 21
4.5263072383
 31
0.0
  0
LINE
  5
B0
330
81
100
AcDbEntity
  8
0
  6
Continuous
 62
     7
370
    18
100
AcDbLine
 10
3.0202999789
 20
4.5263072383
 30
0.0
 11
3.0202999789
 21
5.0047107385
 31
0.0
  0
LINE
  5
B1
330
81
100
AcDbEntity
  8
0
  6
Continuous
 62
     7
370
    18
100
AcDbLine
 10
3.0202999789
 20
5.0047107385
 30
0.0
 11
5.3556972981
 21
5.0047107385
 31
0.0
  0
LINE
  5
B2
330
81
100
AcDbEntity
  8
0
  6
Continuous
 62
     7
370
    18
100
AcDbLine
 10
5.3556972981
 20
5.0047107385
 30
0.0
 11
5.3556972981
 21
4.2272899784
 31
0.0
  0
LINE
  5
B3
330
81
100
AcDbEntity
  8
0
  6
Continuous
 62
     7
370
    18
100
AcDbLine
 10
5.3556972981
 20
4.2272899784
 30
0.0
 11
6.0912428949
 21
4.2272899784
 31
0.0
  0
LINE
  5
B4
330
81
100
AcDbEntity
  8
0
  6
Continuous
 62
     7
370
    18
100
AcDbLine
 10
6.0912428949
 20
4.2272899784
 30
0.0
 11
6.0912428949
 21
5.0047107385
 31
0.0
  0
LINE
  5
B5
330
81
100
AcDbEntity
  8
0
  6
Continuous
 62
     7
370
    18
100
AcDbLine
 10
6.0912428949
 20
5.0047107385
 30
0.0
 11
6.649641565
 21
5.0047107385
 31
0.0
  0
LINE
  5
B6
330
81
100
AcDbEntity
  8
0
  6
Continuous
 62
     7
370
    18
100
AcDbLine
 10
6.649641565
 20
5.0047107385
 30
0.0
 11
6.649641565
 21
2.8698353343
 31
0.0
  0
LINE
  5
B7
330
81
100
AcDbEntity
  8
0
  6
Continuous
 62
     7
370
    18
100
AcDbLine
 10
6.649641565
 20
2.8698353343
 30
0.0
 11
6.0912428949
 21
2.8698353343
 31
0.0
  0
LINE
  5
B8
330
81
100
AcDbEntity
  8
0
  6
Continuous
 62
     7
370
    18
100
AcDbLine
 10
6.0912428949
 20
2.8698353343
 30
0.0
 11
6.0912428949
 21
3.7489553802
 31
0.0
  0
LINE
  5
B9
330
81
100
AcDbEntity
  8
0
  6
Continuous
 62
     7
370
    18
100
AcDbLine
 10
6.0912428949
 20
3.7489553802
 30
0.0
 11
5.3556972981
 21
3.7489553802
 31
0.0
  0
LINE
  5
BA
330
81
100
AcDbEntity
  8
0
  6
Continuous
 62
     7
370
    18
100
AcDbLine
 10
5.3556972981
 20
3.7489553802
 30
0.0
 11
5.3556972981
 21
2.8698353343
 31
0.0
  0
LINE
  5
BB
330
81
100
AcDbEntity
  8
0
  6
Continuous
 62
     7
370
    18
100
AcDbLine
 10
5.3556972981
 20
2.8698353343
 30
0.0
 11
4.7973675299
 21
2.8698353343
 31
0.0
  0
LINE
  5
BC
330
81
100
AcDbEntity
  8
0
  6
Continuous
 62
     7
370
    18
100
AcDbLine
 10
4.7973675299
 20
2.8698353343
 30
0.0
 11
4.7973675299
 21
4.5263072383
 31
0.0
  0
LINE
  5
BD
330
81
100
AcDbEntity
  8
0
  6
Continuous
 62
     7
370
    18
100
AcDbLine
 10
9.3208325626
 20
4.0800292748
 30
0.0
 11
9.7891591518
 21
4.0800292748
 31
0.0
  0
LINE
  5
BE
330
81
100
AcDbEntity
  8
0
  6
Continuous
 62
     7
370
    18
100
AcDbLine
 10
9.7651468204
 20
4.5613783335
 30
0.0
 11
9.3208325626
 21
4.5613783335
 31
0.0
  0
LINE
  5
BF
330
81
100
AcDbEntity
  8
0
  6
Continuous
 62
     7
370
    18
100
AcDbLine
 10
9.3208325626
 20
4.5613783335
 30
0.0
 11
9.3208325626
 21
4.0800292748
 31
0.0
  0
LINE
  5
C0
330
81
100
AcDbEntity
  8
0
  6
Continuous
 62
     7
370
    18
100
AcDbLine
 10
8.7624338916
 20
5.0047107385
 30
0.0
 11
9.8552189005
 21
5.0047107385
 31
0.0
  0
LINE
  5
C1
330
81
100
AcDbEntity
  8
0
  6
Continuous
 62
     7
370
    18
100
AcDbLine
 10
10.2694574549
 20
3.8685691744
 30
0.0
 11
10.2694574549
 21
3.8625747043
 31
0.0
  0
LINE
  5
C2
330
81
100
AcDbEntity
  8
0
  6
Continuous
 62
     7
370
    18
100
AcDbLine
 10
10.6366852751
 20
2.8698353343
 30
0.0
 11
10.1193545456
 21
2.8698353343
 31
0.0
  0
LINE
  5
C3
330
81
100
AcDbEntity
  8
0
  6
Continuous
 62
     7
370
    18
100
AcDbLine
 10
9.7442006252
 20
3.6472905454
 30
0.0
 11
9.3208325617
 21
3.6472905454
 31
0.0
  0
LINE
  5
C4
330
81
100
AcDbEntity
  8
0
  6
Continuous
 62
     7
370
    18
100
AcDbLine
 10
9.3208325617
 20
3.6472905454
 30
0.0
 11
9.3208325617
 21
2.8698353343
 31
0.0
  0
LINE
  5
C5
330
81
100
AcDbEntity
  8
0
  6
Continuous
 62
     7
370
    18
100
AcDbLine
 10
9.3208325617
 20
2.8698353343
 30
0.0
 11
8.7624338916
 21
2.8698353343
 31
0.0
  0
LINE
  5
C6
330
81
100
AcDbEntity
  8
0
  6
Continuous
 62
     7
370
    18
100
AcDbLine
 10
8.7624338916
 20
2.8698353343
 30
0.0
 11
8.7624338916
 21
5.0047107385
 31
0.0
  0
LINE
  5
C7
330
81
100
AcDbEntity
  8
0
  6
Continuous
 62
     7
370
    18
100
AcDbLine
 10
14.3882096293
 20
4.5355573258
 30
0.0
 11
14.8355211222
 21
4.5355573258
 31
0.0
  0
LINE
  5
C8
330
81
100
AcDbEntity
  8
0
  6
Continuous
 62
     7
370
    18
100
AcDbLine
 10
14.8355211222
 20
4.0689188345
 30
0.0
 11
14.3882096293
 21
4.0689188345
 31
0.0
  0
LINE
  5
C9
330
81
100
AcDbEntity
  8
0
  6
Continuous
 62
     7
370
    18
100
AcDbLine
 10
14.3882096293
 20
4.0689188345
 30
0.0
 11
14.3882096293
 21
4.5355573258
 31
0.0
  0
LINE
  5
CA
330
81
100
AcDbEntity
  8
0
  6
Continuous
 62
     7
370
    18
100
AcDbLine
 10
14.4861193076
 20
4.4331862459
 30
0.0
 11
14.4861193076
 21
4.1638485032
 31
0.0
  0
LINE
  5
CB
330
81
100
AcDbEntity
  8
0
  6
Continuous
 62
     7
370
    18
100
AcDbLine
 10
14.4861193076
 20
4.1638485032
 30
0.0
 11
14.7983829683
 21
4.1638485032
 31
0.0
  0
LINE
  5
CC
330
81
100
AcDbEntity
  8
0
  6
Continuous
 62
     7
370
    18
100
AcDbLine
 10
14.7983829683
 20
4.4331862459
 30
0.0
 11
14.4861193076
 21
4.4331862459
 31
0.0
  0
LINE
  5
CD
330
81
100
AcDbEntity
  8
0
  6
Continuous
 62
     7
370
    18
100
AcDbLine
 10
14.3882096293
 20
3.8457626272
 30
0.0
 11
14.8850616279
 21
3.8457626272
 31
0.0
  0
LINE
  5
CE
330
81
100
AcDbEntity
  8
0
  6
Continuous
 62
     7
370
    18
100
AcDbLine
 10
14.8850616279
 20
3.3079828672
 30
0.0
 11
14.3882096293
 21
3.3079828672
 31
0.0
  0
LINE
  5
CF
330
81
100
AcDbEntity
  8
0
  6
Continuous
 62
     7
370
    18
100
AcDbLine
 10
14.3882096293
 20
3.3079828672
 30
0.0
 11
14.3882096293
 21
3.8457626272
 31
0.0
  0
LINE
  5
D0
330
81
100
AcDbEntity
  8
0
  6
Continuous
 62
     7
370
    18
100
AcDbLine
 10
14.4835354842
 20
3.7456136354
 30
0.0
 11
14.4835354842
 21
3.3995880166
 31
0.0
  0
LINE
  5
D1
330
81
100
AcDbEntity
  8
0
  6
Continuous
 62
     7
370
    18
100
AcDbLine
 10
14.4835354842
 20
3.3995880166
 30
0.0
 11
14.8566051205
 21
3.3995880166
 31
0.0
  0
LINE
  5
D2
330
81
100
AcDbEntity
  8
0
  6
Continuous
 62
     7
370
    18
100
AcDbLine
 10
14.8566051205
 20
3.7456136354
 30
0.0
 11
14.4835354842
 21
3.7456136354
 31
0.0
  0
LINE
  5
D3
330
81
100
AcDbEntity
  8
0
  6
Continuous
 62
     7
370
    18
100
AcDbLine
 10
10.6366852751
 20
2.9715302392
 30
0.0
 11
10.6366852751
 21
2.8698353343
 31
0.0
  0
SPLINE
  5
D4
330
81
100
AcDbEntity
  8
0
  6
Continuous
 62
     8
370
     0
100
AcDbSpline
210
0.0
220
0.0
230
1.0
 70
     8
 71
     3
 72
     8
 73
     4
 74
     0
 42
0.000000001
 43
0.00000001
 40
0.0
 40
0.0
 40
0.0
 40
0.0
 40
1.0
 40
1.0
 40
1.0
 40
1.0
 10
16.59145299843317
 20
4.247392123835806
 30
0.0
 10
16.32373445166196
 20
4.314743785003957
 30
0.0
 10
16.25142184972235
 20
4.326439891892237
 30
0.0
 10
16.25142184972235
 20
4.383439034297712
 30
0.0
  0
SPLINE
  5
D5
330
81
100
AcDbEntity
  8
0
  6
Continuous
 62
     8
370
     0
100
AcDbSpline
210
0.0
220
0.0
230
1.0
 70
     8
 71
     3
 72
     8
 73
     4
 74
     0
 42
0.000000001
 43
0.00000001
 40
1.0
 40
1.0
 40
1.0
 40
1.0
 40
2.0
 40
2.0
 40
2.0
 40
2.0
 10
16.25142184972235
 20
4.383439034297712
 30
0.0
 10
16.25142184972235
 20
4.408794953796312
 30
0.0
 10
16.36817621273967
 20
4.425641481832745
 30
0.0
 10
16.42398679641865
 20
4.424039511375293
 30
0.0
  0
SPLINE
  5
D6
330
81
100
AcDbEntity
  8
0
  6
Continuous
 62
     8
370
     0
100
AcDbSpline
210
0.0
220
0.0
230
1.0
 70
     8
 71
     3
 72
     8
 73
     4
 74
     0
 42
0.000000001
 43
0.00000001
 40
2.0
 40
2.0
 40
2.0
 40
2.0
 40
3.0
 40
3.0
 40
3.0
 40
3.0
 10
16.42398679641865
 20
4.424039511375293
 30
0.0
 10
16.53912196348973
 20
4.42062886459491
 30
0.0
 10
16.57515768603801
 20
4.397150523374402
 30
0.0
 10
16.58638870472896
 20
4.327628450618735
 30
0.0
  0
SPLINE
  5
D7
330
81
100
AcDbEntity
  8
0
  6
Continuous
 62
     8
370
     0
100
AcDbSpline
210
0.0
220
0.0
230
1.0
 70
     8
 71
     3
 72
     8
 73
     4
 74
     0
 42
0.000000001
 43
0.00000001
 40
3.0
 40
3.0
 40
3.0
 40
3.0
 40
4.0
 40
4.0
 40
4.0
 40
4.0
 10
16.58638870472896
 20
4.327628450618735
 30
0.0
 10
16.5909017827919
 20
4.300205472465359
 30
0.0
 10
16.59138409647801
 20
4.283186689541027
 30
0.0
 10
16.59145299843317
 20
4.247392123835806
 30
0.0
  0
SPLINE
  5
D8
330
81
100
AcDbEntity
  8
0
  6
Continuous
 62
     8
370
     0
100
AcDbSpline
210
0.0
220
0.0
230
1.0
 70
     8
 71
     3
 72
     8
 73
     4
 74
     0
 42
0.000000001
 43
0.00000001
 40
0.0
 40
0.0
 40
0.0
 40
0.0
 40
1.0
 40
1.0
 40
1.0
 40
1.0
 10
16.42102401234681
 20
2.912313389692912
 30
0.0
 10
16.02907524042351
 20
2.912313389692912
 30
0.0
 10
15.67767526911141
 20
3.089219159564247
 30
0.0
 10
15.59991941271422
 20
3.465217128868185
 30
0.0
  0
SPLINE
  5
D9
330
81
100
AcDbEntity
  8
0
  6
Continuous
 62
     8
370
     0
100
AcDbSpline
210
0.0
220
0.0
230
1.0
 70
     8
 71
     3
 72
     8
 73
     4
 74
     0
 42
0.000000001
 43
0.00000001
 40
1.0
 40
1.0
 40
1.0
 40
1.0
 40
2.0
 40
2.0
 40
2.0
 40
2.0
 10
15.59991941271422
 20
3.465217128868185
 30
0.0
 10
15.54869080905333
 20
3.098107511779787
 30
0.0
 10
15.23484240330302
 20
2.969605365407815
 30
0.0
 10
14.8569496302322
 20
2.969605365407815
 30
0.0
  0
SPLINE
  5
DA
330
81
100
AcDbEntity
  8
0
  6
Continuous
 62
     8
370
     0
100
AcDbSpline
210
0.0
220
0.0
230
1.0
 70
     8
 71
     3
 72
     8
 73
     4
 74
     0
 42
0.000000001
 43
0.00000001
 40
16.0
 40
16.0
 40
16.0
 40
16.0
 40
17.0
 40
17.0
 40
17.0
 40
17.0
 10
14.83259278908342
 20
4.898929011821522
 30
0.0
 10
15.16487246783881
 20
4.90430336432394
 30
0.0
 10
15.52970832040696
 20
4.818227596841268
 30
0.0
 10
15.52970832040696
 20
4.417218217814528
 30
0.0
  0
SPLINE
  5
DB
330
81
100
AcDbEntity
  8
0
  6
Continuous
 62
     8
370
     0
100
AcDbSpline
210
0.0
220
0.0
230
1.0
 70
     8
 71
     3
 72
     8
 73
     4
 74
     0
 42
0.000000001
 43
0.00000001
 40
17.0
 40
17.0
 40
17.0
 40
17.0
 40
18.0
 40
18.0
 40
18.0
 40
18.0
 10
15.52970832040696
 20
4.417218217814528
 30
0.0
 10
15.52970832040696
 20
4.244963329916444
 30
0.0
 10
15.4270444072197
 20
4.105092360943199
 30
0.0
 10
15.27570126271244
 20
4.029730847487786
 30
0.0
  0
SPLINE
  5
DC
330
81
100
AcDbEntity
  8
0
  6
Continuous
 62
     8
370
     0
100
AcDbSpline
210
0.0
220
0.0
230
1.0
 70
     8
 71
     3
 72
     8
 73
     4
 74
     0
 42
0.000000001
 43
0.00000001
 40
18.0
 40
18.0
 40
18.0
 40
18.0
 40
19.0
 40
19.0
 40
19.0
 40
19.0
 10
15.27570126271244
 20
4.029730847487786
 30
0.0
 10
15.46566395308645
 20
3.974936567647406
 30
0.0
 10
15.58830943326989
 20
3.818925315678111
 30
0.0
 10
15.60567272597001
 20
3.623347115958625
 30
0.0
  0
SPLINE
  5
DD
330
81
100
AcDbEntity
  8
0
  6
Continuous
 62
     8
370
     0
100
AcDbSpline
210
0.0
220
0.0
230
1.0
 70
     8
 71
     3
 72
     8
 73
     4
 74
     0
 42
0.000000001
 43
0.00000001
 40
20.0
 40
20.0
 40
20.0
 40
20.0
 40
21.0
 40
21.0
 40
21.0
 40
21.0
 10
16.08609160831777
 20
3.623347115958625
 30
0.0
 10
16.09684031332261
 20
3.39727980108118
 30
0.0
 10
16.23736585086987
 20
3.324622689365769
 30
0.0
 10
16.4507896569756
 20
3.324622689365769
 30
0.0
  0
SPLINE
  5
DE
330
81
100
AcDbEntity
  8
0
  6
Continuous
 62
     8
370
     0
100
AcDbSpline
210
0.0
220
0.0
230
1.0
 70
     8
 71
     3
 72
     8
 73
     4
 74
     0
 42
0.000000001
 43
0.00000001
 40
21.0
 40
21.0
 40
21.0
 40
21.0
 40
22.0
 40
22.0
 40
22.0
 40
22.0
 10
16.4507896569756
 20
3.324622689365769
 30
0.0
 10
16.60209835050527
 20
3.324622689365769
 30
0.0
 10
16.75885029849253
 20
3.378504018300289
 30
0.0
 10
16.75885029849253
 20
3.521131065479903
 30
0.0
  0
SPLINE
  5
DF
330
81
100
AcDbEntity
  8
0
  6
Continuous
 62
     8
370
     0
100
AcDbSpline
210
0.0
220
0.0
230
1.0
 70
     8
 71
     3
 72
     8
 73
     4
 74
     0
 42
0.000000001
 43
0.00000001
 40
22.0
 40
22.0
 40
22.0
 40
22.0
 40
23.0
 40
23.0
 40
23.0
 40
23.0
 10
16.75885029849253
 20
3.521131065479903
 30
0.0
 10
16.75885029849253
 20
3.690629875171619
 30
0.0
 10
16.48331137981075
 20
3.722910441163718
 30
0.0
 10
16.20491302998987
 20
3.800941905381552
 30
0.0
  0
SPLINE
  5
E0
330
81
100
AcDbEntity
  8
0
  6
Continuous
 62
     8
370
     0
100
AcDbSpline
210
0.0
220
0.0
230
1.0
 70
     8
 71
     3
 72
     8
 73
     4
 74
     0
 42
0.000000001
 43
0.00000001
 40
23.0
 40
23.0
 40
23.0
 40
23.0
 40
24.0
 40
24.0
 40
24.0
 40
24.0
 10
16.20491302998987
 20
3.800941905381552
 30
0.0
 10
15.92930520935293
 20
3.878956144110593
 30
0.0
 10
15.64022705648237
 20
4.002772957531736
 30
0.0
 10
15.64022705648237
 20
4.355344262081537
 30
0.0
  0
SPLINE
  5
E1
330
81
100
AcDbEntity
  8
0
  6
Continuous
 62
     8
370
     0
100
AcDbSpline
210
0.0
220
0.0
230
1.0
 70
     8
 71
     3
 72
     8
 73
     4
 74
     0
 42
0.000000001
 43
0.00000001
 40
24.0
 40
24.0
 40
24.0
 40
24.0
 40
25.0
 40
25.0
 40
25.0
 40
25.0
 10
15.64022705648237
 20
4.355344262081537
 30
0.0
 10
15.64022705648237
 20
4.775129423889169
 30
0.0
 10
16.06449084537535
 20
4.939253881078462
 30
0.0
 10
16.42646726680438
 20
4.939253881078462
 30
0.0
  0
SPLINE
  5
E2
330
81
100
AcDbEntity
  8
0
  6
Continuous
 62
     8
370
     0
100
AcDbSpline
210
0.0
220
0.0
230
1.0
 70
     8
 71
     3
 72
     8
 73
     4
 74
     0
 42
0.000000001
 43
0.00000001
 40
25.0
 40
25.0
 40
25.0
 40
25.0
 40
26.0
 40
26.0
 40
26.0
 40
26.0
 10
16.42646726680438
 20
4.939253881078462
 30
0.0
 10
16.81018225508616
 20
4.939253881078462
 30
0.0
 10
17.19654996864156
 20
4.753614788390697
 30
0.0
 10
17.19930604684793
 20
4.320376519838225
 30
0.0
  0
SPLINE
  5
E3
330
81
100
AcDbEntity
  8
0
  6
Continuous
 62
     8
370
     0
100
AcDbSpline
210
0.0
220
0.0
230
1.0
 70
     8
 71
     3
 72
     8
 73
     4
 74
     0
 42
0.000000001
 43
0.00000001
 40
27.0
 40
27.0
 40
27.0
 40
27.0
 40
28.0
 40
28.0
 40
28.0
 40
28.0
 10
16.69673518591648
 20
4.320376519838225
 30
0.0
 10
16.70486561662527
 20
4.49523245654357
 30
0.0
 10
16.53998323792922
 20
4.551766510751722
 30
0.0
 10
16.38591846619318
 20
4.551766510751722
 30
0.0
  0
SPLINE
  5
E4
330
81
100
AcDbEntity
  8
0
  6
Continuous
 62
     8
370
     0
100
AcDbSpline
210
0.0
220
0.0
230
1.0
 70
     8
 71
     3
 72
     8
 73
     4
 74
     0
 42
0.000000001
 43
0.00000001
 40
28.0
 40
28.0
 40
28.0
 40
28.0
 40
29.0
 40
29.0
 40
29.0
 40
29.0
 10
16.38591846619318
 20
4.551766510751722
 30
0.0
 10
16.27794910245866
 20
4.551766510751722
 30
0.0
 10
16.14286681936898
 20
4.514094366768412
 30
0.0
 10
16.14286681936898
 20
4.387642053562427
 30
0.0
  0
SPLINE
  5
E5
330
81
100
AcDbEntity
  8
0
  6
Continuous
 62
     8
370
     0
100
AcDbSpline
210
0.0
220
0.0
230
1.0
 70
     8
 71
     3
 72
     8
 73
     4
 74
     0
 42
0.000000001
 43
0.00000001
 40
29.0
 40
29.0
 40
29.0
 40
29.0
 40
30.0
 40
30.0
 40
30.0
 40
30.0
 10
16.14286681936898
 20
4.387642053562427
 30
0.0
 10
16.14286681936898
 20
4.239606202902813
 30
0.0
 10
16.42102401234681
 20
4.212665538435552
 30
0.0
 10
16.7021095384189
 20
4.134634074217721
 30
0.0
  0
SPLINE
  5
E6
330
81
100
AcDbEntity
  8
0
  6
Continuous
 62
     8
370
     0
100
AcDbSpline
210
0.0
220
0.0
230
1.0
 70
     8
 71
     3
 72
     8
 73
     4
 74
     0
 42
0.000000001
 43
0.00000001
 40
30.0
 40
30.0
 40
30.0
 40
30.0
 40
31.0
 40
31.0
 40
31.0
 40
31.0
 10
16.7021095384189
 20
4.134634074217721
 30
0.0
 10
16.98047343726221
 20
4.056619835488677
 30
0.0
 10
17.26142115942399
 20
3.927428669565115
 30
0.0
 10
17.26142115942399
 20
3.580317844961685
 30
0.0
  0
SPLINE
  5
E7
330
81
100
AcDbEntity
  8
0
  6
Continuous
 62
     8
370
     0
100
AcDbSpline
210
0.0
220
0.0
230
1.0
 70
     8
 71
     3
 72
     8
 73
     4
 74
     0
 42
0.000000001
 43
0.00000001
 40
31.0
 40
31.0
 40
31.0
 40
31.0
 40
32.0
 40
32.0
 40
32.0
 40
32.0
 10
17.26142115942399
 20
3.580317844961685
 30
0.0
 10
17.26142115942399
 20
3.093249923941061
 30
0.0
 10
16.84532225221737
 20
2.912313389692912
 30
0.0
 10
16.42102401234681
 20
2.912313389692912
 30
0.0
  0
SPLINE
  5
E8
330
81
100
AcDbEntity
  8
0
  6
Continuous
 62
     8
370
     0
100
AcDbSpline
210
0.0
220
0.0
230
1.0
 70
     8
 71
     3
 72
     8
 73
     4
 74
     0
 42
0.000000001
 43
0.00000001
 40
0.0
 40
0.0
 40
0.0
 40
0.0
 40
1.0
 40
1.0
 40
1.0
 40
1.0
 10
16.06276829649637
 20
3.739343557469195
 30
0.0
 10
16.0938086272956
 20
3.730765264051871
 30
0.0
 10
16.12550352666885
 20
3.72187691183633
 30
0.0
 10
16.15726732799726
 20
3.712781853755313
 30
0.0
  0
SPLINE
  5
E9
330
81
100
AcDbEntity
  8
0
  6
Continuous
 62
     8
370
     0
100
AcDbSpline
210
0.0
220
0.0
230
1.0
 70
     8
 71
     3
 72
     8
 73
     4
 74
     0
 42
0.000000001
 43
0.00000001
 40
3.00211844657731
 40
3.00211844657731
 40
3.00211844657731
 40
3.00211844657731
 40
4.0
 40
4.0
 40
4.0
 40
4.0
 10
6.652024188954972
 20
3.912608937915723
 30
0.0
 10
6.652360869616864
 20
4.527412322811475
 30
0.0
 10
7.030988649618203
 20
5.017609584429974
 30
0.0
 10
7.702507716926495
 20
5.01899542846939
 30
0.0
  0
SPLINE
  5
EA
330
81
100
AcDbEntity
  8
0
  6
Continuous
 62
     8
370
     0
100
AcDbSpline
210
0.0
220
0.0
230
1.0
 70
     8
 71
     3
 72
     8
 73
     4
 74
     0
 42
0.000000001
 43
0.00000001
 40
3.0
 40
3.0
 40
3.0
 40
3.0
 40
4.0
 40
4.0
 40
4.0
 40
4.0
 10
16.17042760143267
 20
3.708957795243973
 30
0.0
 10
16.40696801349432
 20
3.640710408658753
 30
0.0
 10
16.64492091563674
 20
3.559543905481176
 30
0.0
 10
16.63251856370808
 20
3.510003399721688
 30
0.0
  0
SPLINE
  5
EB
330
81
100
AcDbEntity
  8
0
  6
Continuous
 62
     8
370
     0
100
AcDbSpline
210
0.0
220
0.0
230
1.0
 70
     8
 71
     3
 72
     8
 73
     4
 74
     0
 42
0.000000001
 43
0.00000001
 40
4.0
 40
4.0
 40
4.0
 40
4.0
 40
5.0
 40
5.0
 40
5.0
 40
5.0
 10
16.63251856370808
 20
3.510003399721688
 30
0.0
 10
16.60898854602119
 20
3.415642172131117
 30
0.0
 10
16.54012104183954
 20
3.389493880148186
 30
0.0
 10
16.36080370353763
 20
3.438448719288822
 30
0.0
  0
SPLINE
  5
EC
330
81
100
AcDbEntity
  8
0
  6
Continuous
 62
     8
370
     0
100
AcDbSpline
210
0.0
220
0.0
230
1.0
 70
     8
 71
     3
 72
     8
 73
     4
 74
     0
 42
0.000000001
 43
0.00000001
 40
5.0
 40
5.0
 40
5.0
 40
5.0
 40
6.0
 40
6.0
 40
6.0
 40
6.0
 10
16.36080370353763
 20
3.438448719288822
 30
0.0
 10
16.17283916986324
 20
3.489884028815191
 30
0.0
 10
16.17046205241025
 20
3.593478118397099
 30
0.0
 10
16.17042760143267
 20
3.708957795243973
 30
0.0
  0
SPLINE
  5
ED
330
81
100
AcDbEntity
  8
0
  6
Continuous
 62
     8
370
     0
100
AcDbSpline
210
0.0
220
0.0
230
1.0
 70
     8
 71
     3
 72
     8
 73
     4
 74
     0
 42
0.000000001
 43
0.00000001
 40
8.0
 40
8.0
 40
8.0
 40
8.0
 40
9.0
 40
9.0
 40
9.0
 40
9.0
 10
15.67116403434886
 20
3.712781853755313
 30
0.0
 10
15.67116403434886
 20
3.85878509673773
 30
0.0
 10
15.54507345640747
 20
3.984892900167915
 30
0.0
 10
15.46542279624339
 20
4.037981856618105
 30
0.0
  0
SPLINE
  5
EE
330
81
100
AcDbEntity
  8
0
  6
Continuous
 62
     8
370
     0
100
AcDbSpline
210
0.0
220
0.0
230
1.0
 70
     8
 71
     3
 72
     8
 73
     4
 74
     0
 42
0.000000001
 43
0.00000001
 40
9.0
 40
9.0
 40
9.0
 40
9.0
 40
10.0
 40
10.0
 40
10.0
 40
10.0
 10
15.46542279624339
 20
4.037981856618105
 30
0.0
 10
15.50517922437027
 20
4.08442177439543
 30
0.0
 10
15.56495167047091
 20
4.130913368639122
 30
0.0
 10
15.58493323746708
 20
4.210546803314405
 30
0.0
  0
SPLINE
  5
EF
330
81
100
AcDbEntity
  8
0
  6
Continuous
 62
     8
370
     0
100
AcDbSpline
210
0.0
220
0.0
230
1.0
 70
     8
 71
     3
 72
     8
 73
     4
 74
     0
 42
0.000000001
 43
0.00000001
 40
10.0
 40
10.0
 40
10.0
 40
10.0
 40
11.0
 40
11.0
 40
11.0
 40
11.0
 10
15.58493323746708
 20
4.210546803314405
 30
0.0
 10
15.58493323746708
 20
3.984892900167915
 30
0.0
 10
15.79732351424542
 20
3.812293502494034
 30
0.0
 10
16.06276829649637
 20
3.739343557469195
 30
0.0
  0
SPLINE
  5
F0
330
81
100
AcDbEntity
  8
0
  6
Continuous
 62
     8
370
     0
100
AcDbSpline
210
0.0
220
0.0
230
1.0
 70
     8
 71
     3
 72
     8
 73
     4
 74
     0
 42
0.000000001
 43
0.00000001
 40
0.0
 40
0.0
 40
0.0
 40
0.0
 40
1.0
 40
1.0
 40
1.0
 40
1.0
 10
16.73357547617924
 20
4.217058038076953
 30
0.0
 10
16.72847673149746
 20
4.218401626202558
 30
0.0
 10
16.72406700636727
 20
4.219590184929055
 30
0.0
 10
16.7189338107079
 20
4.22088209658829
 30
0.0
  0
SPLINE
  5
F1
330
81
100
AcDbEntity
  8
0
  6
Continuous
 62
     8
370
     0
100
AcDbSpline
210
0.0
220
0.0
230
1.0
 70
     8
 71
     3
 72
     8
 73
     4
 74
     0
 42
0.000000001
 43
0.00000001
 40
2.0
 40
2.0
 40
2.0
 40
2.0
 40
3.0
 40
3.0
 40
3.0
 40
3.0
 10
17.30691700759391
 20
4.216747979278733
 30
0.0
 10
17.30691700759391
 20
4.527185738248661
 30
0.0
 10
17.24597322825556
 20
5.025002364274127
 30
0.0
 10
16.41870190363622
 20
5.025002364274127
 30
0.0
  0
SPLINE
  5
F2
330
81
100
AcDbEntity
  8
0
  6
Continuous
 62
     8
370
     0
100
AcDbSpline
210
0.0
220
0.0
230
1.0
 70
     8
 71
     3
 72
     8
 73
     4
 74
     0
 42
0.000000001
 43
0.00000001
 40
3.0
 40
3.0
 40
3.0
 40
3.0
 40
4.0
 40
4.0
 40
4.0
 40
4.0
 10
16.41870190363622
 20
5.025002364274127
 30
0.0
 10
15.93649157045433
 20
5.025002364274127
 30
0.0
 10
15.69760849191726
 20
4.790081148158717
 30
0.0
 10
15.60162806838045
 20
4.61898036800955
 30
0.0
  0
SPLINE
  5
F3
330
81
100
AcDbEntity
  8
0
  6
Continuous
 62
     8
370
     0
100
AcDbSpline
210
0.0
220
0.0
230
1.0
 70
     8
 71
     3
 72
     8
 73
     4
 74
     0
 42
0.000000001
 43
0.00000001
 40
4.0
 40
4.0
 40
4.0
 40
4.0
 40
5.0
 40
5.0
 40
5.0
 40
5.0
 10
15.60162806838045
 20
4.61898036800955
 30
0.0
 10
15.51174546787523
 20
4.790081148158717
 30
0.0
 10
15.45865651142504
 20
5.004710738479733
 30
0.0
 10
14.77273754781487
 20
5.004710738479733
 30
0.0
  0
SPLINE
  5
F4
330
81
100
AcDbEntity
  8
0
  6
Continuous
 62
     8
370
     0
100
AcDbSpline
210
0.0
220
0.0
230
1.0
 70
     8
 71
     3
 72
     8
 73
     4
 74
     0
 42
0.000000001
 43
0.00000001
 40
19.0
 40
19.0
 40
19.0
 40
19.0
 40
20.0
 40
20.0
 40
20.0
 40
20.0
 10
14.96765281642566
 20
2.876070961279156
 30
0.0
 10
15.2520456363454
 20
2.88110080400578
 30
0.0
 10
15.5173870656636
 20
3.015769675364504
 30
0.0
 10
15.59810570613264
 20
3.214345110133414
 30
0.0
  0
SPLINE
  5
F5
330
81
100
AcDbEntity
  8
0
  6
Continuous
 62
     8
370
     0
100
AcDbSpline
210
0.0
220
0.0
230
1.0
 70
     8
 71
     3
 72
     8
 73
     4
 74
     0
 42
0.000000001
 43
0.00000001
 40
20.0
 40
20.0
 40
20.0
 40
20.0
 40
21.0
 40
21.0
 40
21.0
 40
21.0
 10
15.59810570613264
 20
3.214345110133414
 30
0.0
 10
15.67465577831456
 20
3.015769675364504
 30
0.0
 10
15.9417886584669
 20
2.816367417133681
 30
0.0
 10
16.45948349855581
 20
2.816367417133681
 30
0.0
  0
SPLINE
  5
F6
330
81
100
AcDbEntity
  8
0
  6
Continuous
 62
     8
370
     0
100
AcDbSpline
210
0.0
220
0.0
230
1.0
 70
     8
 71
     3
 72
     8
 73
     4
 74
     0
 42
0.000000001
 43
0.00000001
 40
21.0
 40
21.0
 40
21.0
 40
21.0
 40
22.0
 40
22.0
 40
22.0
 40
22.0
 10
16.45948349855581
 20
2.816367417133681
 30
0.0
 10
16.97717833864471
 20
2.816367417133681
 30
0.0
 10
17.36165124843323
 20
3.130629234614946
 30
0.0
 10
17.36165124843323
 20
3.5447988870771
 30
0.0
  0
SPLINE
  5
F7
330
81
100
AcDbEntity
  8
0
  6
Continuous
 62
     8
370
     0
100
AcDbSpline
210
0.0
220
0.0
230
1.0
 70
     8
 71
     3
 72
     8
 73
     4
 74
     0
 42
0.000000001
 43
0.00000001
 40
22.0
 40
22.0
 40
22.0
 40
22.0
 40
23.0
 40
23.0
 40
23.0
 40
23.0
 10
17.36165124843323
 20
3.5447988870771
 30
0.0
 10
17.36165124843323
 20
3.966030989943075
 30
0.0
 10
17.1193575231158
 20
4.115548232638614
 30
0.0
 10
16.73357547617924
 20
4.217058038076953
 30
0.0
  0
SPLINE
  5
F8
330
81
100
AcDbEntity
  8
0
  6
Continuous
 62
     8
370
     0
100
AcDbSpline
210
0.0
220
0.0
230
1.0
 70
     8
 71
     3
 72
     8
 73
     4
 74
     0
 42
0.000000001
 43
0.00000001
 40
0.0
 40
0.0
 40
0.0
 40
0.0
 40
1.0
 40
1.0
 40
1.0
 40
1.0
 10
7.703221361313545
 20
3.305571298764241
 30
0.0
 10
8.063526910329966
 20
3.305571298764241
 30
0.0
 10
8.201537526513913
 20
3.622554743474296
 30
0.0
 10
8.201537526513913
 20
3.9394520607404
 30
0.0
  0
SPLINE
  5
F9
330
81
100
AcDbEntity
  8
0
  6
Continuous
 62
     8
370
     0
100
AcDbSpline
210
0.0
220
0.0
230
1.0
 70
     8
 71
     3
 72
     8
 73
     4
 74
     0
 42
0.000000001
 43
0.00000001
 40
1.0
 40
1.0
 40
1.0
 40
1.0
 40
2.0
 40
2.0
 40
2.0
 40
2.0
 10
8.201537526513913
 20
3.9394520607404
 30
0.0
 10
8.201537526513913
 20
4.256383828984087
 30
0.0
 10
8.063526910329966
 20
4.573315597227772
 30
0.0
 10
7.703221361313545
 20
4.573315597227772
 30
0.0
  0
SPLINE
  5
FA
330
81
100
AcDbEntity
  8
0
  6
Continuous
 62
     8
370
     0
100
AcDbSpline
210
0.0
220
0.0
230
1.0
 70
     8
 71
     3
 72
     8
 73
     4
 74
     0
 42
0.000000001
 43
0.00000001
 40
2.0
 40
2.0
 40
2.0
 40
2.0
 40
3.0
 40
3.0
 40
3.0
 40
3.0
 10
7.703221361313545
 20
4.573315597227772
 30
0.0
 10
7.342950263274702
 20
4.573315597227772
 30
0.0
 10
7.204887970624388
 20
4.256383828984087
 30
0.0
 10
7.204887970624386
 20
3.9394520607404
 30
0.0
  0
SPLINE
  5
FB
330
81
100
AcDbEntity
  8
0
  6
Continuous
 62
     8
370
     0
100
AcDbSpline
210
0.0
220
0.0
230
1.0
 70
     8
 71
     3
 72
     8
 73
     4
 74
     0
 42
0.000000001
 43
0.00000001
 40
3.0
 40
3.0
 40
3.0
 40
3.0
 40
4.0
 40
4.0
 40
4.0
 40
4.0
 10
7.204887970624386
 20
3.9394520607404
 30
0.0
 10
7.204887970624388
 20
3.622554743474296
 30
0.0
 10
7.342950263274702
 20
3.305571298764241
 30
0.0
 10
7.703221361313545
 20
3.305571298764241
 30
0.0
  0
SPLINE
  5
FC
330
81
100
AcDbEntity
  8
0
  6
Continuous
 62
     8
370
     0
100
AcDbSpline
210
0.0
220
0.0
230
1.0
 70
     8
 71
     3
 72
    11
 73
     7
 74
     0
 42
0.000000001
 43
0.00000001
 40
2.0
 40
2.0
 40
2.0
 40
2.0
 40
3.0
 40
3.0
 40
3.0
 40
3.00211844657731
 40
3.00211844657731
 40
3.00211844657731
 40
3.00211844657731
 10
7.706659554923958
 20
2.794516906200683
 30
0.0
 10
7.031214814569966
 20
2.795750275571359
 30
0.0
 10
6.650881771248031
 20
3.289783589216448
 30
0.0
 10
6.652011877545025
 20
3.908677144153198
 30
0.0
 10
6.652014271748132
 20
3.909988310068809
 30
0.0
 10
6.652018375829359
 20
3.911298909154457
 30
0.0
 10
6.652024188954972
 20
3.912608937915723
 30
0.0
  0
SPLINE
  5
FD
330
81
100
AcDbEntity
  8
0
  6
Continuous
 62
     8
370
     0
100
AcDbSpline
210
0.0
220
0.0
230
1.0
 70
     8
 71
     3
 72
    11
 73
     7
 74
     0
 42
0.000000001
 43
0.00000001
 40
0.0
 40
0.0
 40
0.0
 40
0.0
 40
1.0
 40
1.0
 40
1.0
 40
2.0
 40
2.0
 40
2.0
 40
2.0
 10
7.702507716926495
 20
5.01899542846939
 30
0.0
 10
8.378004083250916
 20
5.02025619653381
 30
0.0
 10
8.760141459757921
 20
4.52764779726998
 30
0.0
 10
8.761296646735415
 20
3.908719837601426
 30
0.0
 10
8.76245176941261
 20
3.289826328850453
 30
0.0
 10
8.382155921248359
 20
2.795777674265099
 30
0.0
 10
7.706659554923958
 20
2.794516906200683
 30
0.0
  0
SPLINE
  5
FE
330
81
100
AcDbEntity
  8
0
  6
Continuous
 62
     8
370
     0
100
AcDbSpline
210
0.0
220
0.0
230
1.0
 70
     8
 71
     3
 72
     8
 73
     4
 74
     0
 42
0.000000001
 43
0.00000001
 40
1.0
 40
1.0
 40
1.0
 40
1.0
 40
2.0
 40
2.0
 40
2.0
 40
2.0
 10
9.789159151804187
 20
4.080029274754029
 30
0.0
 10
9.957279922392718
 20
4.080029274754029
 30
0.0
 10
10.04730032680826
 20
4.16967071841619
 30
0.0
 10
10.04730032680826
 20
4.331125224843066
 30
0.0
  0
SPLINE
  5
FF
330
81
100
AcDbEntity
  8
0
  6
Continuous
 62
     8
370
     0
100
AcDbSpline
210
0.0
220
0.0
230
1.0
 70
     8
 71
     3
 72
     8
 73
     4
 74
     0
 42
0.000000001
 43
0.00000001
 40
2.0
 40
2.0
 40
2.0
 40
2.0
 40
3.0
 40
3.0
 40
3.0
 40
3.0
 10
10.04730032680826
 20
4.331125224843066
 30
0.0
 10
10.04730032680826
 20
4.489565270731723
 30
0.0
 10
9.921295876310808
 20
4.561378333496434
 30
0.0
 10
9.765146820431196
 20
4.561378333496434
 30
0.0
  0
SPLINE
  5
100
330
81
100
AcDbEntity
  8
0
  6
Continuous
 62
     8
370
     0
100
AcDbSpline
210
0.0
220
0.0
230
1.0
 70
     8
 71
     3
 72
     8
 73
     4
 74
     0
 42
0.000000001
 43
0.00000001
 40
1.0
 40
1.0
 40
1.0
 40
1.0
 40
2.0
 40
2.0
 40
2.0
 40
2.0
 10
9.855218900458812
 20
5.004710738479733
 30
0.0
 10
10.23342173232785
 20
5.004710738479733
 30
0.0
 10
10.60573344703077
 20
4.834264526904578
 30
0.0
 10
10.60573344703077
 20
4.403765111069685
 30
0.0
  0
SPLINE
  5
101
330
81
100
AcDbEntity
  8
0
  6
Continuous
 62
     8
370
     0
100
AcDbSpline
210
0.0
220
0.0
230
1.0
 70
     8
 71
     3
 72
     8
 73
     4
 74
     0
 42
0.000000001
 43
0.00000001
 40
2.0
 40
2.0
 40
2.0
 40
2.0
 40
3.0
 40
3.0
 40
3.0
 40
3.0
 10
10.60573344703077
 20
4.403765111069685
 30
0.0
 10
10.60573344703077
 20
4.173494776927527
 30
0.0
 10
10.49459459335892
 20
3.955265059449444
 30
0.0
 10
10.26945745487612
 20
3.868569174370337
 30
0.0
  0
SPLINE
  5
102
330
81
100
AcDbEntity
  8
0
  6
Continuous
 62
     8
370
     0
100
AcDbSpline
210
0.0
220
0.0
230
1.0
 70
     8
 71
     3
 72
     8
 73
     4
 74
     0
 42
0.000000001
 43
0.00000001
 40
4.0
 40
4.0
 40
4.0
 40
4.0
 40
5.0
 40
5.0
 40
5.0
 40
5.0
 10
10.26945745487612
 20
3.862574704271483
 30
0.0
 10
10.49766073036351
 20
3.808727826314542
 30
0.0
 10
10.56373770536121
 20
3.554548513732129
 30
0.0
 10
10.58175556663535
 20
3.35125329503481
 30
0.0
  0
SPLINE
  5
103
330
81
100
AcDbEntity
  8
0
  6
Continuous
 62
     8
370
     0
100
AcDbSpline
210
0.0
220
0.0
230
1.0
 70
     8
 71
     3
 72
     8
 73
     4
 74
     0
 42
0.000000001
 43
0.00000001
 40
5.0
 40
5.0
 40
5.0
 40
5.0
 40
5.74044267676188
 40
5.74044267676188
 40
5.74044267676188
 40
5.74044267676188
 10
10.58175556663535
 20
3.35125329503481
 30
0.0
 10
10.58808091746534
 20
3.285009942065996
 30
0.0
 10
10.59969739034398
 20
3.095908278298207
 30
0.0
 10
10.63668527512702
 20
2.971530239194635
 30
0.0
  0
SPLINE
  5
104
330
81
100
AcDbEntity
  8
0
  6
Continuous
 62
     8
370
     0
100
AcDbSpline
210
0.0
220
0.0
230
1.0
 70
     8
 71
     3
 72
     8
 73
     4
 74
     0
 42
0.000000001
 43
0.00000001
 40
7.0
 40
7.0
 40
7.0
 40
7.0
 40
8.0
 40
8.0
 40
8.0
 40
8.0
 10
10.11935454556174
 20
2.869835334337245
 30
0.0
 10
10.07139878477091
 20
2.941665622590745
 30
0.0
 10
10.06237262864505
 20
3.150920860409338
 30
0.0
 10
10.05634370756861
 20
3.210693306509976
 30
0.0
  0
SPLINE
  5
105
330
81
100
AcDbEntity
  8
0
  6
Continuous
 62
     8
370
     0
100
AcDbSpline
210
0.0
220
0.0
230
1.0
 70
     8
 71
     3
 72
     8
 73
     4
 74
     0
 42
0.000000001
 43
0.00000001
 40
8.0
 40
8.0
 40
8.0
 40
8.0
 40
9.0
 40
9.0
 40
9.0
 40
9.0
 10
10.05634370756861
 20
3.210693306509976
 30
0.0
 10
10.04134030683269
 20
3.42604636736016
 30
0.0
 10
10.00533903526199
 20
3.647290545376459
 30
0.0
 10
9.744200625208496
 20
3.647290545376459
 30
0.0
  0
SPLINE
  5
106
330
81
100
AcDbEntity
  8
0
  6
Continuous
 62
     8
370
     0
100
AcDbSpline
210
0.0
220
0.0
230
1.0
 70
     8
 71
     3
 72
     8
 73
     4
 74
     0
 42
0.000000001
 43
0.00000001
 40
1.0
 40
1.0
 40
1.0
 40
1.0
 40
2.0
 40
2.0
 40
2.0
 40
2.0
 10
14.83552112217768
 20
4.535557325800512
 30
0.0
 10
14.95682301423551
 20
4.535557325800512
 30
0.0
 10
15.07168257348595
 20
4.477576330534016
 30
0.0
 10
15.07168257348595
 20
4.300515531263577
 30
0.0
  0
SPLINE
  5
107
330
81
100
AcDbEntity
  8
0
  6
Continuous
 62
     8
370
     0
100
AcDbSpline
210
0.0
220
0.0
230
1.0
 70
     8
 71
     3
 72
     8
 73
     4
 74
     0
 42
0.000000001
 43
0.00000001
 40
2.0
 40
2.0
 40
2.0
 40
2.0
 40
3.0
 40
3.0
 40
3.0
 40
3.0
 10
15.07168257348595
 20
4.300515531263577
 30
0.0
 10
15.07168257348595
 20
4.126865378773517
 30
0.0
 10
14.93504999640519
 20
4.068918834484602
 30
0.0
 10
14.83552112217768
 20
4.068918834484602
 30
0.0
  0
SPLINE
  5
108
330
81
100
AcDbEntity
  8
0
  6
Continuous
 62
     8
370
     0
100
AcDbSpline
210
0.0
220
0.0
230
1.0
 70
     8
 71
     3
 72
     8
 73
     4
 74
     0
 42
0.000000001
 43
0.00000001
 40
2.0
 40
2.0
 40
2.0
 40
2.0
 40
3.0
 40
3.0
 40
3.0
 40
3.0
 10
14.79838296834685
 20
4.163848503205235
 30
0.0
 10
14.86783613914736
 20
4.163848503205235
 30
0.0
 10
14.96316199411016
 20
4.197300402435043
 30
0.0
 10
14.96316199411016
 20
4.29753552170294
 30
0.0
  0
SPLINE
  5
109
330
81
100
AcDbEntity
  8
0
  6
Continuous
 62
     8
370
     0
100
AcDbSpline
210
0.0
220
0.0
230
1.0
 70
     8
 71
     3
 72
     8
 73
     4
 74
     0
 42
0.000000001
 43
0.00000001
 40
3.0
 40
3.0
 40
3.0
 40
3.0
 40
4.0
 40
4.0
 40
4.0
 40
4.0
 10
14.96316199411016
 20
4.29753552170294
 30
0.0
 10
14.96316199411016
 20
4.399734346692872
 30
0.0
 10
14.88296011830481
 20
4.433186245922681
 30
0.0
 10
14.79838296834685
 20
4.433186245922681
 30
0.0
  0
SPLINE
  5
10A
330
81
100
AcDbEntity
  8
0
  6
Continuous
 62
     8
370
     0
100
AcDbSpline
210
0.0
220
0.0
230
1.0
 70
     8
 71
     3
 72
     8
 73
     4
 74
     0
 42
0.000000001
 43
0.00000001
 40
1.0
 40
1.0
 40
1.0
 40
1.0
 40
2.0
 40
2.0
 40
2.0
 40
2.0
 10
14.88506162793717
 20
3.845762627212632
 30
0.0
 10
15.01973049929589
 20
3.845762627212632
 30
0.0
 10
15.14726801829563
 20
3.778979407174546
 30
0.0
 10
15.14726801829563
 20
3.574943492459264
 30
0.0
  0
SPLINE
  5
10B
330
81
100
AcDbEntity
  8
0
  6
Continuous
 62
     8
370
     0
100
AcDbSpline
210
0.0
220
0.0
230
1.0
 70
     8
 71
     3
 72
     8
 73
     4
 74
     0
 42
0.000000001
 43
0.00000001
 40
2.0
 40
2.0
 40
2.0
 40
2.0
 40
3.0
 40
3.0
 40
3.0
 40
3.0
 10
15.14726801829563
 20
3.574943492459264
 30
0.0
 10
15.14726801829563
 20
3.374748861744111
 30
0.0
 10
14.99558036401258
 20
3.307982867194813
 30
0.0
 10
14.88506162793717
 20
3.307982867194813
 30
0.0
  0
SPLINE
  5
10C
330
81
100
AcDbEntity
  8
0
  6
Continuous
 62
     8
370
     0
100
AcDbSpline
210
0.0
220
0.0
230
1.0
 70
     8
 71
     3
 72
     8
 73
     4
 74
     0
 42
0.000000001
 43
0.00000001
 40
2.0
 40
2.0
 40
2.0
 40
2.0
 40
3.0
 40
3.0
 40
3.0
 40
3.0
 10
14.85660512045641
 20
3.399588016579015
 30
0.0
 10
14.9395975254457
 20
3.399588016579015
 30
0.0
 10
15.05349245732392
 20
3.442513934643217
 30
0.0
 10
15.05349245732392
 20
3.571326139813404
 30
0.0
  0
SPLINE
  5
10D
330
81
100
AcDbEntity
  8
0
  6
Continuous
 62
     8
370
     0
100
AcDbSpline
210
0.0
220
0.0
230
1.0
 70
     8
 71
     3
 72
     8
 73
     4
 74
     0
 42
0.000000001
 43
0.00000001
 40
3.0
 40
3.0
 40
3.0
 40
3.0
 40
4.0
 40
4.0
 40
4.0
 40
4.0
 10
15.05349245732392
 20
3.571326139813404
 30
0.0
 10
15.05349245732392
 20
3.702618815369325
 30
0.0
 10
14.95771873965258
 20
3.745613635388687
 30
0.0
 10
14.85660512045641
 20
3.745613635388687
 30
0.0
  0
HATCH
  5
10E
330
81
100
AcDbEntity
  8
0
  6
Continuous
 62
     7
100
AcDbHatch
 10
0.0
 20
0.0
 30
0.0
210
0.0
220
0.0
230
1.0
  2
SOLID
 70
     1
 71
     0
 91
        2
 92
        0
 93
        3
 72
     4
 94
        3
 73
     1
 74
     0
 95
       11
 96
        7
 40
0.0
 40
0.0
 40
0.0
 40
0.0
 40
1.0
 40
1.0
 40
1.0
 40
2.0
 40
2.0
 40
2.0
 40
2.0
 10
7.706659554923956
 20
2.794516906200684
 42
1.0
 10
8.382155921248359
 20
2.7957776742651
 42
1.0
 10
8.762451769412605
 20
3.289826328850452
 42
1.0
 10
8.761296646735417
 20
3.908719837601426
 42
1.0
 10
8.76014145975792
 20
4.527647797269981
 42
1.0
 10
8.37800408325091
 20
5.02025619653381
 42
1.0
 10
7.702507716926499
 20
5.01899542846939
 42
1.0
 72
     4
 94
        3
 73
     1
 74
     0
 95
        8
 96
        4
 40
3.00211844657731
 40
3.00211844657731
 40
3.00211844657731
 40
3.00211844657731
 40
4.0
 40
4.0
 40
4.0
 40
4.0
 10
7.702507716926499
 20
5.01899542846939
 42
1.0
 10
7.030988649618209
 20
5.017609584429973
 42
1.0
 10
6.652360869616858
 20
4.527412322811474
 42
1.0
 10
6.652024188954975
 20
3.912608937915722
 42
1.0
 72
     4
 94
        3
 73
     1
 74
     0
 95
       11
 96
        7
 40
2.0
 40
2.0
 40
2.0
 40
2.0
 40
2.00211844657731
 40
2.00211844657731
 40
2.00211844657731
 40
3.00211844657731
 40
3.00211844657731
 40
3.00211844657731
 40
3.00211844657731
 10
6.652024188954975
 20
3.912608937915722
 42
1.0
 10
6.652018375829361
 20
3.911298909154458
 42
1.0
 10
6.65201427174813
 20
3.909988310068809
 42
1.0
 10
6.652011877545028
 20
3.908677144153198
 42
1.0
 10
6.650881771248029
 20
3.289783589216448
 42
1.0
 10
7.031214814569964
 20
2.795750275571359
 42
1.0
 10
7.706659554923956
 20
2.794516906200684
 42
1.0
 97
        0
 92
        0
 93
        4
 72
     4
 94
        3
 73
     1
 74
     0
 95
        8
 96
        4
 40
3.0
 40
3.0
 40
3.0
 40
3.0
 40
4.0
 40
4.0
 40
4.0
 40
4.0
 10
7.703221361313551
 20
3.305571298764241
 42
1.0
 10
7.342950263274705
 20
3.305571298764241
 42
1.0
 10
7.204887970624386
 20
3.622554743474295
 42
1.0
 10
7.204887970624386
 20
3.9394520607404
 42
1.0
 72
     4
 94
        3
 73
     1
 74
     0
 95
        8
 96
        4
 40
2.0
 40
2.0
 40
2.0
 40
2.0
 40
3.0
 40
3.0
 40
3.0
 40
3.0
 10
7.204887970624386
 20
3.9394520607404
 42
1.0
 10
7.204887970624386
 20
4.256383828984088
 42
1.0
 10
7.342950263274705
 20
4.573315597227771
 42
1.0
 10
7.703221361313551
 20
4.573315597227771
 42
1.0
 72
     4
 94
        3
 73
     1
 74
     0
 95
        8
 96
        4
 40
1.0
 40
1.0
 40
1.0
 40
1.0
 40
2.0
 40
2.0
 40
2.0
 40
2.0
 10
7.703221361313551
 20
4.573315597227771
 42
1.0
 10
8.063526910329966
 20
4.573315597227771
 42
1.0
 10
8.201537526513913
 20
4.256383828984088
 42
1.0
 10
8.201537526513913
 20
3.9394520607404
 42
1.0
 72
     4
 94
        3
 73
     1
 74
     0
 95
        8
 96
        4
 40
0.0
 40
0.0
 40
0.0
 40
0.0
 40
1.0
 40
1.0
 40
1.0
 40
1.0
 10
8.201537526513913
 20
3.9394520607404
 42
1.0
 10
8.201537526513913
 20
3.622554743474295
 42
1.0
 10
8.063526910329966
 20
3.305571298764241
 42
1.0
 10
7.703221361313551
 20
3.305571298764241
 42
1.0
 97
        0
 75
     0
 76
     1
 98
        1
 10
0.0
 20
0.0
  0
HATCH
  5
10F
330
81
100
AcDbEntity
  8
0
  6
Continuous
 62
     7
100
AcDbHatch
 10
0.0
 20
0.0
 30
0.0
210
0.0
220
0.0
230
1.0
  2
SOLID
 70
     1
 71
     0
 91
        1
 92
        0
 93
       18
 72
     1
 10
6.091242894874484
 20
4.2272899784181
 11
6.091242894874484
 21
5.004710738479733
 72
     1
 10
6.091242894874484
 20
5.004710738479733
 11
6.649641564973701
 21
5.004710738479733
 72
     1
 10
6.649641564973701
 20
5.004710738479733
 11
6.649641564973701
 21
2.869835334337245
 72
     1
 10
6.649641564973701
 20
2.869835334337245
 11
6.091242894874484
 21
2.869835334337245
 72
     1
 10
6.091242894874484
 20
2.869835334337245
 11
6.091242894874484
 21
3.748955380213909
 72
     1
 10
6.091242894874484
 20
3.748955380213909
 11
5.355697298060871
 21
3.748955380213909
 72
     1
 10
5.355697298060871
 20
3.748955380213909
 11
5.355697298060871
 21
2.869835334337245
 72
     1
 10
5.355697298060871
 20
2.869835334337245
 11
4.797367529916809
 21
2.869835334337245
 72
     1
 10
4.797367529916809
 20
2.869835334337245
 11
4.797367529916809
 21
4.526307238320381
 72
     1
 10
4.797367529916809
 20
4.526307238320381
 11
4.218126018381921
 21
4.526307238320381
 72
     1
 10
4.218126018381921
 20
4.526307238320381
 11
4.218126018381921
 21
2.869835334337245
 72
     1
 10
4.218126018381921
 20
2.869835334337245
 11
3.659744573771491
 21
2.869835334337245
 72
     1
 10
3.659744573771491
 20
2.869835334337245
 11
3.659744573771491
 21
4.526307238320381
 72
     1
 10
3.659744573771491
 20
4.526307238320381
 11
3.020299978916224
 21
4.526307238320381
 72
     1
 10
3.020299978916224
 20
4.526307238320381
 11
3.020299978916224
 21
5.004710738479733
 72
     1
 10
3.020299978916224
 20
5.004710738479733
 11
5.355697298060871
 21
5.004710738479733
 72
     1
 10
5.355697298060871
 20
5.004710738479733
 11
5.355697298060871
 21
4.2272899784181
 72
     1
 10
5.355697298060871
 20
4.2272899784181
 11
6.091242894874484
 21
4.2272899784181
 97
        0
 75
     0
 76
     1
 98
        1
 10
0.0
 20
0.0
  0
HATCH
  5
110
330
81
100
AcDbEntity
  8
0
  6
Continuous
 62
     7
100
AcDbHatch
 10
0.0
 20
0.0
 30
0.0
210
0.0
220
0.0
230
1.0
  2
SOLID
 70
     1
 71
     0
 91
        2
 92
        0
 93
       14
 72
     1
 10
8.762433891633366
 20
2.869835334337245
 11
8.762433891633366
 21
5.004710738479733
 72
     1
 10
8.762433891633366
 20
5.004710738479733
 11
9.855218900458812
 21
5.004710738479733
 72
     4
 94
        3
 73
     1
 74
     0
 95
        8
 96
        4
 40
1.0
 40
1.0
 40
1.0
 40
1.0
 40
2.0
 40
2.0
 40
2.0
 40
2.0
 10
9.855218900458812
 20
5.004710738479733
 42
1.0
 10
10.23342173232785
 20
5.004710738479733
 42
1.0
 10
10.60573344703077
 20
4.834264526904578
 42
1.0
 10
10.60573344703077
 20
4.403765111069685
 42
1.0
 72
     4
 94
        3
 73
     1
 74
     0
 95
        8
 96
        4
 40
2.0
 40
2.0
 40
2.0
 40
2.0
 40
3.0
 40
3.0
 40
3.0
 40
3.0
 10
10.60573344703077
 20
4.403765111069685
 42
1.0
 10
10.60573344703077
 20
4.173494776927527
 42
1.0
 10
10.49459459335892
 20
3.955265059449444
 42
1.0
 10
10.26945745487612
 20
3.868569174370337
 42
1.0
 72
     1
 10
10.26945745487612
 20
3.868569174370337
 11
10.26945745487612
 21
3.862574704271483
 72
     4
 94
        3
 73
     1
 74
     0
 95
        8
 96
        4
 40
4.0
 40
4.0
 40
4.0
 40
4.0
 40
5.0
 40
5.0
 40
5.0
 40
5.0
 10
10.26945745487612
 20
3.862574704271483
 42
1.0
 10
10.49766073036351
 20
3.808727826314542
 42
1.0
 10
10.56373770536121
 20
3.554548513732129
 42
1.0
 10
10.58175556663535
 20
3.35125329503481
 42
1.0
 72
     4
 94
        3
 73
     1
 74
     0
 95
        8
 96
        4
 40
5.0
 40
5.0
 40
5.0
 40
5.0
 40
5.74044267676188
 40
5.74044267676188
 40
5.74044267676188
 40
5.74044267676188
 10
10.58175556663535
 20
3.35125329503481
 42
1.0
 10
10.58808091746534
 20
3.285009942065996
 42
1.0
 10
10.59969739034398
 20
3.095908278298207
 42
1.0
 10
10.63668527512702
 20
2.971530239194635
 42
1.0
 72
     1
 10
10.63668527512702
 20
2.971530239194635
 11
10.63668527512702
 21
2.869835334337245
 72
     1
 10
10.63668527512702
 20
2.869835334337245
 11
10.11935454556174
 21
2.869835334337245
 72
     4
 94
        3
 73
     1
 74
     0
 95
        8
 96
        4
 40
7.0
 40
7.0
 40
7.0
 40
7.0
 40
8.0
 40
8.0
 40
8.0
 40
8.0
 10
10.11935454556174
 20
2.869835334337245
 42
1.0
 10
10.07139878477091
 20
2.941665622590745
 42
1.0
 10
10.06237262864505
 20
3.150920860409338
 42
1.0
 10
10.05634370756861
 20
3.210693306509976
 42
1.0
 72
     4
 94
        3
 73
     1
 74
     0
 95
        8
 96
        4
 40
8.0
 40
8.0
 40
8.0
 40
8.0
 40
9.0
 40
9.0
 40
9.0
 40
9.0
 10
10.05634370756861
 20
3.210693306509976
 42
1.0
 10
10.04134030683269
 20
3.42604636736016
 42
1.0
 10
10.00533903526199
 20
3.647290545376459
 42
1.0
 10
9.744200625208496
 20
3.647290545376459
 42
1.0
 72
     1
 10
9.744200625208496
 20
3.647290545376459
 11
9.320832561732585
 21
3.647290545376459
 72
     1
 10
9.320832561732585
 20
3.647290545376459
 11
9.320832561732585
 21
2.869835334337245
 72
     1
 10
9.320832561732585
 20
2.869835334337245
 11
8.762433891633366
 21
2.869835334337245
 97
        0
 92
        0
 93
        5
 72
     1
 10
9.765146820431196
 20
4.561378333496434
 11
9.320832562586878
 21
4.561378333496434
 72
     1
 10
9.320832562586878
 20
4.561378333496434
 11
9.320832562586878
 21
4.080029274754029
 72
     1
 10
9.320832562586878
 20
4.080029274754029
 11
9.789159151804187
 21
4.080029274754029
 72
     4
 94
        3
 73
     1
 74
     0
 95
        8
 96
        4
 40
1.0
 40
1.0
 40
1.0
 40
1.0
 40
2.0
 40
2.0
 40
2.0
 40
2.0
 10
9.789159151804187
 20
4.080029274754029
 42
1.0
 10
9.957279922392718
 20
4.080029274754029
 42
1.0
 10
10.04730032680826
 20
4.16967071841619
 42
1.0
 10
10.04730032680826
 20
4.331125224843066
 42
1.0
 72
     4
 94
        3
 73
     1
 74
     0
 95
        8
 96
        4
 40
2.0
 40
2.0
 40
2.0
 40
2.0
 40
3.0
 40
3.0
 40
3.0
 40
3.0
 10
10.04730032680826
 20
4.331125224843066
 42
1.0
 10
10.04730032680826
 20
4.489565270731723
 42
1.0
 10
9.921295876310808
 20
4.561378333496434
 42
1.0
 10
9.765146820431196
 20
4.561378333496434
 42
1.0
 97
        0
 75
     0
 76
     1
 98
        1
 10
0.0
 20
0.0
  0
HATCH
  5
111
330
81
100
AcDbEntity
  8
0
  6
Continuous
 62
     7
100
AcDbHatch
 10
0.0
 20
0.0
 30
0.0
210
0.0
220
0.0
230
1.0
  2
SOLID
 70
     1
 71
     0
 91
        5
 92
        0
 93
       23
 72
     4
 94
        3
 73
     1
 74
     0
 95
        8
 96
        4
 40
4.0
 40
4.0
 40
4.0
 40
4.0
 40
5.0
 40
5.0
 40
5.0
 40
5.0
 10
15.60162806838045
 20
4.61898036800955
 42
1.0
 10
15.51174546787523
 20
4.790081148158717
 42
1.0
 10
15.45865651142504
 20
5.004710738479733
 42
1.0
 10
14.77273754781487
 20
5.004710738479733
 42
1.0
 72
     1
 10
14.77273754781487
 20
5.004710738479733
 11
13.83041010399261
 21
5.004710738479733
 72
     1
 10
13.83041010399261
 20
5.004710738479733
 11
13.83041010399261
 21
3.675023582328049
 72
     1
 10
13.83041010399261
 20
3.675023582328049
 11
13.33762332069377
 21
5.004710738479733
 72
     1
 10
13.33762332069377
 20
5.004710738479733
 11
12.67834772195869
 21
5.004710738479733
 72
     1
 10
12.67834772195869
 20
5.004710738479733
 11
12.10416582836138
 21
3.483629659928358
 72
     1
 10
12.10416582836138
 20
3.483629659928358
 11
11.37338781065659
 21
3.479083121159394
 72
     1
 10
11.37338781065659
 20
3.479083121159394
 11
11.36389611147968
 21
5.004710738479733
 72
     1
 10
11.36389611147968
 20
5.004710738479733
 11
10.63849632756327
 21
5.004710738479733
 72
     1
 10
10.63849632756327
 20
5.004710738479733
 11
10.63718719041525
 21
2.869835334337245
 72
     1
 10
10.63718719041525
 20
2.869835334337245
 11
12.60705963744016
 21
2.876070961279156
 72
     1
 10
12.60705963744016
 20
2.876070961279156
 11
12.73401148982104
 21
3.190746190491377
 72
     1
 10
12.73401148982104
 20
3.190746190491377
 11
13.25163742795479
 21
3.190746190491377
 72
     1
 10
13.25163742795479
 20
3.190746190491377
 11
13.37345608467632
 21
2.876070961279156
 72
     1
 10
13.37345608467632
 20
2.876070961279156
 11
14.96765281642566
 21
2.876070961279156
 72
     4
 94
        3
 73
     1
 74
     0
 95
        8
 96
        4
 40
19.0
 40
19.0
 40
19.0
 40
19.0
 40
20.0
 40
20.0
 40
20.0
 40
20.0
 10
14.96765281642566
 20
2.876070961279156
 42
1.0
 10
15.2520456363454
 20
2.88110080400578
 42
1.0
 10
15.5173870656636
 20
3.015769675364504
 42
1.0
 10
15.59810570613264
 20
3.214345110133414
 42
1.0
 72
     4
 94
        3
 73
     1
 74
     0
 95
        8
 96
        4
 40
20.0
 40
20.0
 40
20.0
 40
20.0
 40
21.0
 40
21.0
 40
21.0
 40
21.0
 10
15.59810570613264
 20
3.214345110133414
 42
1.0
 10
15.67465577831456
 20
3.015769675364504
 42
1.0
 10
15.9417886584669
 20
2.816367417133681
 42
1.0
 10
16.45948349855581
 20
2.816367417133681
 42
1.0
 72
     4
 94
        3
 73
     1
 74
     0
 95
        8
 96
        4
 40
21.0
 40
21.0
 40
21.0
 40
21.0
 40
22.0
 40
22.0
 40
22.0
 40
22.0
 10
16.45948349855581
 20
2.816367417133681
 42
1.0
 10
16.97717833864471
 20
2.816367417133681
 42
1.0
 10
17.36165124843323
 20
3.130629234614946
 42
1.0
 10
17.36165124843323
 20
3.5447988870771
 42
1.0
 72
     4
 94
        3
 73
     1
 74
     0
 95
        8
 96
        4
 40
22.0
 40
22.0
 40
22.0
 40
22.0
 40
23.0
 40
23.0
 40
23.0
 40
23.0
 10
17.36165124843323
 20
3.5447988870771
 42
1.0
 10
17.36165124843323
 20
3.966030989943075
 42
1.0
 10
17.1193575231158
 20
4.115548232638614
 42
1.0
 10
16.73357547617924
 20
4.217058038076953
 42
1.0
 72
     4
 94
        3
 73
     1
 74
     0
 95
        8
 96
        4
 40
0.0
 40
0.0
 40
0.0
 40
0.0
 40
1.0
 40
1.0
 40
1.0
 40
1.0
 10
16.73357547617924
 20
4.217058038076953
 42
1.0
 10
16.72847673149746
 20
4.218401626202558
 42
1.0
 10
16.72406700636727
 20
4.219590184929055
 42
1.0
 10
16.7189338107079
 20
4.22088209658829
 42
1.0
 72
     1
 10
16.7189338107079
 20
4.22088209658829
 11
17.30691700759391
 21
4.216747979278733
 72
     4
 94
        3
 73
     1
 74
     0
 95
        8
 96
        4
 40
2.0
 40
2.0
 40
2.0
 40
2.0
 40
3.0
 40
3.0
 40
3.0
 40
3.0
 10
17.30691700759391
 20
4.216747979278733
 42
1.0
 10
17.30691700759391
 20
4.527185738248661
 42
1.0
 10
17.24597322825556
 20
5.025002364274127
 42
1.0
 10
16.41870190363622
 20
5.025002364274127
 42
1.0
 72
     4
 94
        3
 73
     1
 74
     0
 95
        8
 96
        4
 40
3.0
 40
3.0
 40
3.0
 40
3.0
 40
4.0
 40
4.0
 40
4.0
 40
4.0
 10
16.41870190363622
 20
5.025002364274127
 42
1.0
 10
15.93649157045433
 20
5.025002364274127
 42
1.0
 10
15.69760849191726
 20
4.790081148158717
 42
1.0
 10
15.60162806838045
 20
4.61898036800955
 42
1.0
 97
        0
 92
        0
 93
        3
 72
     4
 94
        3
 73
     1
 74
     0
 95
        8
 96
        4
 40
4.0
 40
4.0
 40
4.0
 40
4.0
 40
5.0
 40
5.0
 40
5.0
 40
5.0
 10
16.63251856370808
 20
3.510003399721688
 42
1.0
 10
16.60898854602119
 20
3.415642172131117
 42
1.0
 10
16.54012104183954
 20
3.389493880148186
 42
1.0
 10
16.36080370353763
 20
3.438448719288822
 42
1.0
 72
     4
 94
        3
 73
     1
 74
     0
 95
        8
 96
        4
 40
5.0
 40
5.0
 40
5.0
 40
5.0
 40
6.0
 40
6.0
 40
6.0
 40
6.0
 10
16.36080370353763
 20
3.438448719288822
 42
1.0
 10
16.17283916986324
 20
3.489884028815191
 42
1.0
 10
16.17046205241025
 20
3.593478118397099
 42
1.0
 10
16.17042760143267
 20
3.708957795243973
 42
1.0
 72
     4
 94
        3
 73
     1
 74
     0
 95
        8
 96
        4
 40
3.0
 40
3.0
 40
3.0
 40
3.0
 40
4.0
 40
4.0
 40
4.0
 40
4.0
 10
16.17042760143267
 20
3.708957795243973
 42
1.0
 10
16.40696801349432
 20
3.640710408658753
 42
1.0
 10
16.64492091563674
 20
3.559543905481176
 42
1.0
 10
16.63251856370808
 20
3.510003399721688
 42
1.0
 97
        0
 92
        0
 93
       32
 72
     4
 94
        3
 73
     1
 74
     0
 95
        8
 96
        4
 40
17.0
 40
17.0
 40
17.0
 40
17.0
 40
18.0
 40
18.0
 40
18.0
 40
18.0
 10
15.52970832040696
 20
4.417218217814528
 42
1.0
 10
15.52970832040696
 20
4.244963329916444
 42
1.0
 10
15.4270444072197
 20
4.105092360943199
 42
1.0
 10
15.27570126271244
 20
4.029730847487786
 42
1.0
 72
     4
 94
        3
 73
     1
 74
     0
 95
        8
 96
        4
 40
18.0
 40
18.0
 40
18.0
 40
18.0
 40
19.0
 40
19.0
 40
19.0
 40
19.0
 10
15.27570126271244
 20
4.029730847487786
 42
1.0
 10
15.46566395308645
 20
3.974936567647406
 42
1.0
 10
15.58830943326989
 20
3.818925315678111
 42
1.0
 10
15.60567272597001
 20
3.623347115958625
 42
1.0
 72
     1
 10
15.60567272597001
 20
3.623347115958625
 11
16.08609160831777
 21
3.623347115958625
 72
     4
 94
        3
 73
     1
 74
     0
 95
        8
 96
        4
 40
20.0
 40
20.0
 40
20.0
 40
20.0
 40
21.0
 40
21.0
 40
21.0
 40
21.0
 10
16.08609160831777
 20
3.623347115958625
 42
1.0
 10
16.09684031332261
 20
3.39727980108118
 42
1.0
 10
16.23736585086987
 20
3.324622689365769
 42
1.0
 10
16.4507896569756
 20
3.324622689365769
 42
1.0
 72
     4
 94
        3
 73
     1
 74
     0
 95
        8
 96
        4
 40
21.0
 40
21.0
 40
21.0
 40
21.0
 40
22.0
 40
22.0
 40
22.0
 40
22.0
 10
16.4507896569756
 20
3.324622689365769
 42
1.0
 10
16.60209835050527
 20
3.324622689365769
 42
1.0
 10
16.75885029849253
 20
3.378504018300289
 42
1.0
 10
16.75885029849253
 20
3.521131065479903
 42
1.0
 72
     4
 94
        3
 73
     1
 74
     0
 95
        8
 96
        4
 40
22.0
 40
22.0
 40
22.0
 40
22.0
 40
23.0
 40
23.0
 40
23.0
 40
23.0
 10
16.75885029849253
 20
3.521131065479903
 42
1.0
 10
16.75885029849253
 20
3.690629875171619
 42
1.0
 10
16.48331137981075
 20
3.722910441163718
 42
1.0
 10
16.20491302998987
 20
3.800941905381552
 42
1.0
 72
     4
 94
        3
 73
     1
 74
     0
 95
        8
 96
        4
 40
23.0
 40
23.0
 40
23.0
 40
23.0
 40
24.0
 40
24.0
 40
24.0
 40
24.0
 10
16.20491302998987
 20
3.800941905381552
 42
1.0
 10
15.92930520935293
 20
3.878956144110593
 42
1.0
 10
15.64022705648237
 20
4.002772957531736
 42
1.0
 10
15.64022705648237
 20
4.355344262081537
 42
1.0
 72
     4
 94
        3
 73
     1
 74
     0
 95
        8
 96
        4
 40
24.0
 40
24.0
 40
24.0
 40
24.0
 40
25.0
 40
25.0
 40
25.0
 40
25.0
 10
15.64022705648237
 20
4.355344262081537
 42
1.0
 10
15.64022705648237
 20
4.775129423889169
 42
1.0
 10
16.06449084537535
 20
4.939253881078462
 42
1.0
 10
16.42646726680438
 20
4.939253881078462
 42
1.0
 72
     4
 94
        3
 73
     1
 74
     0
 95
        8
 96
        4
 40
25.0
 40
25.0
 40
25.0
 40
25.0
 40
26.0
 40
26.0
 40
26.0
 40
26.0
 10
16.42646726680438
 20
4.939253881078462
 42
1.0
 10
16.81018225508616
 20
4.939253881078462
 42
1.0
 10
17.19654996864156
 20
4.753614788390697
 42
1.0
 10
17.19930604684793
 20
4.320376519838225
 42
1.0
 72
     1
 10
17.19930604684793
 20
4.320376519838225
 11
16.69673518591648
 21
4.320376519838225
 72
     4
 94
        3
 73
     1
 74
     0
 95
        8
 96
        4
 40
27.0
 40
27.0
 40
27.0
 40
27.0
 40
28.0
 40
28.0
 40
28.0
 40
28.0
 10
16.69673518591648
 20
4.320376519838225
 42
1.0
 10
16.70486561662527
 20
4.49523245654357
 42
1.0
 10
16.53998323792922
 20
4.551766510751722
 42
1.0
 10
16.38591846619318
 20
4.551766510751722
 42
1.0
 72
     4
 94
        3
 73
     1
 74
     0
 95
        8
 96
        4
 40
28.0
 40
28.0
 40
28.0
 40
28.0
 40
29.0
 40
29.0
 40
29.0
 40
29.0
 10
16.38591846619318
 20
4.551766510751722
 42
1.0
 10
16.27794910245866
 20
4.551766510751722
 42
1.0
 10
16.14286681936898
 20
4.514094366768412
 42
1.0
 10
16.14286681936898
 20
4.387642053562427
 42
1.0
 72
     4
 94
        3
 73
     1
 74
     0
 95
        8
 96
        4
 40
29.0
 40
29.0
 40
29.0
 40
29.0
 40
30.0
 40
30.0
 40
30.0
 40
30.0
 10
16.14286681936898
 20
4.387642053562427
 42
1.0
 10
16.14286681936898
 20
4.239606202902813
 42
1.0
 10
16.42102401234681
 20
4.212665538435552
 42
1.0
 10
16.7021095384189
 20
4.134634074217721
 42
1.0
 72
     4
 94
        3
 73
     1
 74
     0
 95
        8
 96
        4
 40
30.0
 40
30.0
 40
30.0
 40
30.0
 40
31.0
 40
31.0
 40
31.0
 40
31.0
 10
16.7021095384189
 20
4.134634074217721
 42
1.0
 10
16.98047343726221
 20
4.056619835488677
 42
1.0
 10
17.26142115942399
 20
3.927428669565115
 42
1.0
 10
17.26142115942399
 20
3.580317844961685
 42
1.0
 72
     4
 94
        3
 73
     1
 74
     0
 95
        8
 96
        4
 40
31.0
 40
31.0
 40
31.0
 40
31.0
 40
32.0
 40
32.0
 40
32.0
 40
32.0
 10
17.26142115942399
 20
3.580317844961685
 42
1.0
 10
17.26142115942399
 20
3.093249923941061
 42
1.0
 10
16.84532225221737
 20
2.912313389692912
 42
1.0
 10
16.42102401234681
 20
2.912313389692912
 42
1.0
 72
     4
 94
        3
 73
     1
 74
     0
 95
        8
 96
        4
 40
0.0
 40
0.0
 40
0.0
 40
0.0
 40
1.0
 40
1.0
 40
1.0
 40
1.0
 10
16.42102401234681
 20
2.912313389692912
 42
1.0
 10
16.02907524042351
 20
2.912313389692912
 42
1.0
 10
15.67767526911141
 20
3.089219159564247
 42
1.0
 10
15.59991941271422
 20
3.465217128868185
 42
1.0
 72
     4
 94
        3
 73
     1
 74
     0
 95
        8
 96
        4
 40
1.0
 40
1.0
 40
1.0
 40
1.0
 40
2.0
 40
2.0
 40
2.0
 40
2.0
 10
15.59991941271422
 20
3.465217128868185
 42
1.0
 10
15.54869080905333
 20
3.098107511779787
 42
1.0
 10
15.23484240330302
 20
2.969605365407815
 42
1.0
 10
14.8569496302322
 20
2.969605365407815
 42
1.0
 72
     1
 10
14.8569496302322
 20
2.969605365407815
 11
13.44690556887606
 21
2.969605365407815
 72
     1
 10
13.44690556887606
 20
2.969605365407815
 11
13.30327944334664
 21
3.297130809257236
 72
     1
 10
13.30327944334664
 20
3.297130809257236
 11
12.68013016088652
 21
3.297130809257236
 72
     1
 10
12.68013016088652
 20
3.297130809257236
 11
12.53367905519557
 21
2.972258090681447
 72
     1
 10
12.53367905519557
 20
2.972258090681447
 11
10.7508409654504
 21
2.972258090681447
 72
     1
 10
10.7508409654504
 20
2.972258090681447
 11
10.7508409654504
 21
4.898929011821522
 72
     1
 10
10.7508409654504
 20
4.898929011821522
 11
11.25348072833701
 21
4.898929011821522
 72
     1
 10
11.25348072833701
 20
4.898929011821522
 11
11.25348072833701
 21
3.408062957063601
 72
     1
 10
11.25348072833701
 20
3.408062957063601
 11
12.17804161364119
 21
3.408062957063601
 72
     1
 10
12.17804161364119
 20
3.408062957063601
 11
12.73904133254767
 21
4.898929011821522
 72
     1
 10
12.73904133254767
 20
4.898929011821522
 11
13.24970817321033
 21
4.898929011821522
 72
     1
 10
13.24970817321033
 20
4.898929011821522
 11
13.93018388236293
 21
3.102758393753034
 72
     1
 10
13.93018388236293
 20
3.102758393753034
 11
13.93018388236293
 21
4.898929011821522
 72
     1
 10
13.93018388236293
 20
4.898929011821522
 11
14.83259278908342
 21
4.898929011821522
 72
     4
 94
        3
 73
     1
 74
     0
 95
        8
 96
        4
 40
16.0
 40
16.0
 40
16.0
 40
16.0
 40
17.0
 40
17.0
 40
17.0
 40
17.0
 10
14.83259278908342
 20
4.898929011821522
 42
1.0
 10
15.16487246783881
 20
4.90430336432394
 42
1.0
 10
15.52970832040696
 20
4.818227596841268
 42
1.0
 10
15.52970832040696
 20
4.417218217814528
 42
1.0
 97
        0
 92
        0
 93
        5
 72
     1
 10
16.15726732799726
 20
3.712781853755313
 11
15.67116403434886
 21
3.712781853755313
 72
     4
 94
        3
 73
     1
 74
     0
 95
        8
 96
        4
 40
8.0
 40
8.0
 40
8.0
 40
8.0
 40
9.0
 40
9.0
 40
9.0
 40
9.0
 10
15.67116403434886
 20
3.712781853755313
 42
1.0
 10
15.67116403434886
 20
3.85878509673773
 42
1.0
 10
15.54507345640747
 20
3.984892900167915
 42
1.0
 10
15.46542279624339
 20
4.037981856618105
 42
1.0
 72
     4
 94
        3
 73
     1
 74
     0
 95
        8
 96
        4
 40
9.0
 40
9.0
 40
9.0
 40
9.0
 40
10.0
 40
10.0
 40
10.0
 40
10.0
 10
15.46542279624339
 20
4.037981856618105
 42
1.0
 10
15.50517922437027
 20
4.08442177439543
 42
1.0
 10
15.56495167047091
 20
4.130913368639122
 42
1.0
 10
15.58493323746708
 20
4.210546803314405
 42
1.0
 72
     4
 94
        3
 73
     1
 74
     0
 95
        8
 96
        4
 40
10.0
 40
10.0
 40
10.0
 40
10.0
 40
11.0
 40
11.0
 40
11.0
 40
11.0
 10
15.58493323746708
 20
4.210546803314405
 42
1.0
 10
15.58493323746708
 20
3.984892900167915
 42
1.0
 10
15.79732351424542
 20
3.812293502494034
 42
1.0
 10
16.06276829649637
 20
3.739343557469195
 42
1.0
 72
     4
 94
        3
 73
     1
 74
     0
 95
        8
 96
        4
 40
0.0
 40
0.0
 40
0.0
 40
0.0
 40
1.0
 40
1.0
 40
1.0
 40
1.0
 10
16.06276829649637
 20
3.739343557469195
 42
1.0
 10
16.0938086272956
 20
3.730765264051871
 42
1.0
 10
16.12550352666885
 20
3.72187691183633
 42
1.0
 10
16.15726732799726
 20
3.712781853755313
 42
1.0
 97
        0
 92
        0
 93
        4
 72
     4
 94
        3
 73
     1
 74
     0
 95
        8
 96
        4
 40
2.0
 40
2.0
 40
2.0
 40
2.0
 40
3.0
 40
3.0
 40
3.0
 40
3.0
 10
16.42398679641865
 20
4.424039511375293
 42
1.0
 10
16.53912196348973
 20
4.42062886459491
 42
1.0
 10
16.57515768603801
 20
4.397150523374402
 42
1.0
 10
16.58638870472896
 20
4.327628450618735
 42
1.0
 72
     4
 94
        3
 73
     1
 74
     0
 95
        8
 96
        4
 40
3.0
 40
3.0
 40
3.0
 40
3.0
 40
4.0
 40
4.0
 40
4.0
 40
4.0
 10
16.58638870472896
 20
4.327628450618735
 42
1.0
 10
16.5909017827919
 20
4.300205472465359
 42
1.0
 10
16.59138409647801
 20
4.283186689541027
 42
1.0
 10
16.59145299843317
 20
4.247392123835806
 42
1.0
 72
     4
 94
        3
 73
     1
 74
     0
 95
        8
 96
        4
 40
0.0
 40
0.0
 40
0.0
 40
0.0
 40
1.0
 40
1.0
 40
1.0
 40
1.0
 10
16.59145299843317
 20
4.247392123835806
 42
1.0
 10
16.32373445166196
 20
4.314743785003957
 42
1.0
 10
16.25142184972235
 20
4.326439891892237
 42
1.0
 10
16.25142184972235
 20
4.383439034297712
 42
1.0
 72
     4
 94
        3
 73
     1
 74
     0
 95
        8
 96
        4
 40
1.0
 40
1.0
 40
1.0
 40
1.0
 40
2.0
 40
2.0
 40
2.0
 40
2.0
 10
16.25142184972235
 20
4.383439034297712
 42
1.0
 10
16.25142184972235
 20
4.408794953796312
 42
1.0
 10
16.36817621273967
 20
4.425641481832745
 42
1.0
 10
16.42398679641865
 20
4.424039511375293
 42
1.0
 97
        0
 75
     0
 76
     1
 98
        1
 10
0.0
 20
0.0
  0
HATCH
  5
112
330
81
100
AcDbEntity
  8
0
  6
Continuous
 62
     7
100
AcDbHatch
 10
0.0
 20
0.0
 30
0.0
210
0.0
220
0.0
230
1.0
  2
SOLID
 70
     1
 71
     0
 91
        2
 92
        0
 93
        4
 72
     1
 10
12.70700192339863
 20
3.620212076998878
 11
13.2810585628078
 21
3.620212076998881
 72
     1
 10
13.2810585628078
 20
3.620212076998881
 11
13.0374557003423
 21
4.391311082674656
 72
     1
 10
13.0374557003423
 20
4.391311082674656
 11
12.95897637341595
 21
4.391311082674658
 72
     1
 10
12.95897637341595
 20
4.391311082674658
 11
12.70700192339863
 21
3.620212076998878
 97
        0
 92
        0
 93
        3
 72
     1
 10
12.84229091235377
 20
3.723013794096456
 11
12.992979488287
 21
4.188205344354028
 72
     1
 10
12.992979488287
 20
4.188205344354028
 11
13.13867267247123
 21
3.723013794096456
 72
     1
 10
13.13867267247123
 20
3.723013794096456
 11
12.84229091235377
 21
3.723013794096456
 97
        0
 75
     0
 76
     1
 98
        1
 10
0.0
 20
0.0
  0
HATCH
  5
113
330
81
100
AcDbEntity
  8
0
  6
Continuous
 62
     7
100
AcDbHatch
 10
0.0
 20
0.0
 30
0.0
210
0.0
220
0.0
230
1.0
  2
SOLID
 70
     1
 71
     0
 91
        2
 92
        0
 93
        5
 72
     1
 10
14.38820962928393
 20
4.068918834484602
 11
14.38820962928393
 21
4.535557325800512
 72
     1
 10
14.38820962928393
 20
4.535557325800512
 11
14.83552112217768
 21
4.535557325800512
 72
     4
 94
        3
 73
     1
 74
     0
 95
        8
 96
        4
 40
1.0
 40
1.0
 40
1.0
 40
1.0
 40
2.0
 40
2.0
 40
2.0
 40
2.0
 10
14.83552112217768
 20
4.535557325800512
 42
1.0
 10
14.95682301423551
 20
4.535557325800512
 42
1.0
 10
15.07168257348595
 20
4.477576330534016
 42
1.0
 10
15.07168257348595
 20
4.300515531263577
 42
1.0
 72
     4
 94
        3
 73
     1
 74
     0
 95
        8
 96
        4
 40
2.0
 40
2.0
 40
2.0
 40
2.0
 40
3.0
 40
3.0
 40
3.0
 40
3.0
 10
15.07168257348595
 20
4.300515531263577
 42
1.0
 10
15.07168257348595
 20
4.126865378773517
 42
1.0
 10
14.93504999640519
 20
4.068918834484602
 42
1.0
 10
14.83552112217768
 20
4.068918834484602
 42
1.0
 72
     1
 10
14.83552112217768
 20
4.068918834484602
 11
14.38820962928393
 21
4.068918834484602
 97
        0
 92
        0
 93
        5
 72
     4
 94
        3
 73
     1
 74
     0
 95
        8
 96
        4
 40
3.0
 40
3.0
 40
3.0
 40
3.0
 40
4.0
 40
4.0
 40
4.0
 40
4.0
 10
14.96316199411016
 20
4.29753552170294
 42
1.0
 10
14.96316199411016
 20
4.399734346692872
 42
1.0
 10
14.88296011830481
 20
4.433186245922681
 42
1.0
 10
14.79838296834685
 20
4.433186245922681
 42
1.0
 72
     1
 10
14.79838296834685
 20
4.433186245922681
 11
14.4861193075652
 21
4.433186245922681
 72
     1
 10
14.4861193075652
 20
4.433186245922681
 11
14.4861193075652
 21
4.163848503205235
 72
     1
 10
14.4861193075652
 20
4.163848503205235
 11
14.79838296834685
 21
4.163848503205235
 72
     4
 94
        3
 73
     1
 74
     0
 95
        8
 96
        4
 40
2.0
 40
2.0
 40
2.0
 40
2.0
 40
3.0
 40
3.0
 40
3.0
 40
3.0
 10
14.79838296834685
 20
4.163848503205235
 42
1.0
 10
14.86783613914736
 20
4.163848503205235
 42
1.0
 10
14.96316199411016
 20
4.197300402435043
 42
1.0
 10
14.96316199411016
 20
4.29753552170294
 42
1.0
 97
        0
 75
     0
 76
     1
 98
        1
 10
0.0
 20
0.0
  0
HATCH
  5
114
330
81
100
AcDbEntity
  8
0
  6
Continuous
 62
     7
100
AcDbHatch
 10
0.0
 20
0.0
 30
0.0
210
0.0
220
0.0
230
1.0
  2
SOLID
 70
     1
 71
     0
 91
        2
 92
        0
 93
        5
 72
     1
 10
14.38820962928393
 20
3.307982867194813
 11
14.38820962928393
 21
3.845762627212632
 72
     1
 10
14.38820962928393
 20
3.845762627212632
 11
14.88506162793717
 21
3.845762627212632
 72
     4
 94
        3
 73
     1
 74
     0
 95
        8
 96
        4
 40
1.0
 40
1.0
 40
1.0
 40
1.0
 40
2.0
 40
2.0
 40
2.0
 40
2.0
 10
14.88506162793717
 20
3.845762627212632
 42
1.0
 10
15.01973049929589
 20
3.845762627212632
 42
1.0
 10
15.14726801829563
 20
3.778979407174546
 42
1.0
 10
15.14726801829563
 20
3.574943492459264
 42
1.0
 72
     4
 94
        3
 73
     1
 74
     0
 95
        8
 96
        4
 40
2.0
 40
2.0
 40
2.0
 40
2.0
 40
3.0
 40
3.0
 40
3.0
 40
3.0
 10
15.14726801829563
 20
3.574943492459264
 42
1.0
 10
15.14726801829563
 20
3.374748861744111
 42
1.0
 10
14.99558036401258
 20
3.307982867194813
 42
1.0
 10
14.88506162793717
 20
3.307982867194813
 42
1.0
 72
     1
 10
14.88506162793717
 20
3.307982867194813
 11
14.38820962928393
 21
3.307982867194813
 97
        0
 92
        0
 93
        5
 72
     4
 94
        3
 73
     1
 74
     0
 95
        8
 96
        4
 40
3.0
 40
3.0
 40
3.0
 40
3.0
 40
4.0
 40
4.0
 40
4.0
 40
4.0
 10
15.05349245732392
 20
3.571326139813404
 42
1.0
 10
15.05349245732392
 20
3.702618815369325
 42
1.0
 10
14.95771873965258
 20
3.745613635388687
 42
1.0
 10
14.85660512045641
 20
3.745613635388687
 42
1.0
 72
     1
 10
14.85660512045641
 20
3.745613635388687
 11
14.48353548424673
 21
3.745613635388687
 72
     1
 10
14.48353548424673
 20
3.745613635388687
 11
14.48353548424673
 21
3.399588016579015
 72
     1
 10
14.48353548424673
 20
3.399588016579015
 11
14.85660512045641
 21
3.399588016579015
 72
     4
 94
        3
 73
     1
 74
     0
 95
        8
 96
        4
 40
2.0
 40
2.0
 40
2.0
 40
2.0
 40
3.0
 40
3.0
 40
3.0
 40
3.0
 10
14.85660512045641
 20
3.399588016579015
 42
1.0
 10
14.9395975254457
 20
3.399588016579015
 42
1.0
 10
15.05349245732392
 20
3.442513934643217
 42
1.0
 10
15.05349245732392
 20
3.571326139813404
 42
1.0
 97
        0
 75
     0
 76
     1
 98
        1
 10
0.0
 20
0.0
  0
ENDBLK
  5
83
330
81
100
AcDbEntity
  8
0
100
AcDbBlockEnd
  0
BLOCK
  5
13F
330
13E
100
AcDbEntity
  8
0
100
AcDbBlockBegin
  2
SW_NOTE_0
 70
     0
 10
0.0
 20
0.0
 30
0.0
  3
SW_NOTE_0
  1

  0
MTEXT
  5
141
330
13E
100
AcDbEntity
  8
0
  6
Continuous
 62
     0
370
     0
100
AcDbMText
 10
1.990725
 20
0.1964539235
 30
0.0
 40
0.1524
 41
0.0
 71
     2
 72
     1
  1
VALUES IN PARENTHESIS ARE CALCULATED
  7
SLDTEXTSTYLE0
 73
     1
 44
1.0
  0
MTEXT
  5
142
330
13E
100
AcDbEntity
  8
0
  6
Continuous
 62
     0
370
     0
100
AcDbMText
 10
1.9877879517
 20
-0.0559460659
 30
0.0
 40
0.1524
 41
0.0
 71
     2
 72
     1
  1
AND MAY CONTAIN ROUNDOFF ERRORS
  7
SLDTEXTSTYLE0
 73
     1
 44
1.0
  0
ENDBLK
  5
140
330
13E
100
AcDbEntity
  8
0
100
AcDbBlockEnd
  0
BLOCK
  5
145
330
144
100
AcDbEntity
  8
0
100
AcDbBlockBegin
  2
SW_NOTE_0_1
 70
     0
 10
0.0
 20
0.0
 30
0.0
  3
SW_NOTE_0_1
  1

  0
MTEXT
  5
147
330
144
100
AcDbEntity
  8
0
  6
Continuous
 62
     0
370
     0
100
AcDbMText
 10
0.0
 20
0.2728526716
 30
0.0
 40
0.2116666667
 41
0.0
 71
     1
 72
     1
  1
DRAWING
  7
SLDTEXTSTYLE0
 73
     1
 44
1.0
  0
MTEXT
  5
148
330
144
100
AcDbEntity
  8
0
  6
Continuous
 62
     0
370
     0
100
AcDbMText
 10
0.0
 20
-0.0093695472
 30
0.0
 40
0.2116666667
 41
0.0
 71
     1
 72
     1
  1
PROJECTION
  7
SLDTEXTSTYLE0
 73
     1
 44
1.0
  0
ENDBLK
  5
146
330
144
100
AcDbEntity
  8
0
100
AcDbBlockEnd
  0
BLOCK
  5
14E
330
14D
100
AcDbEntity
  8
0
100
AcDbBlockBegin
  2
SW_NOTE_0_2
 70
     0
 10
0.0
 20
0.0
 30
0.0
  3
SW_NOTE_0_2
  1

  0
MTEXT
  5
150
330
14D
100
AcDbEntity
  8
0
  6
Continuous
 62
     0
370
     0
100
AcDbMText
 10
2.5052734375
 20
0.4092790074
 30
0.0
 40
0.3175
 41
0.0
 71
     2
 72
     1
  1
FOR INFORMATION ONLY
  7
SLDTEXTSTYLE0
 73
     1
 44
1.0
  0
MTEXT
  5
151
330
14D
100
AcDbEntity
  8
0
  6
Continuous
 62
     0
370
     0
100
AcDbMText
 10
2.5376846859
 20
-0.0140543208
 30
0.0
 40
0.3175
 41
0.0
 71
     2
 72
     1
  1
NOT FOR MANUFACTURING PURPOSES
  7
SLDTEXTSTYLE0
 73
     1
 44
1.0
  0
ENDBLK
  5
14F
330
14D
100
AcDbEntity
  8
0
100
AcDbBlockEnd
  0
BLOCK
  5
16B
330
16A
100
AcDbEntity
  8
0
100
AcDbBlockBegin
  2
_Dot
 70
     0
 10
0.0
 20
0.0
 30
0.0
  3
_Dot
  1

  0
LWPOLYLINE
  5
16D
330
16A
100
AcDbEntity
  8
0
  6
ByBlock
 62
     0
100
AcDbPolyline
 90
        2
 70
     1
 43
0.5
 10
-0.25
 20
0.0
 42
1.0
 10
0.25
 20
0.0
 42
1.0
  0
LINE
  5
16E
330
16A
100
AcDbEntity
  8
0
  6
ByBlock
 62
     0
370
    -2
100
AcDbLine
 10
-0.5
 20
0.0
 30
0.0
 11
-1.0
 21
0.0
 31
0.0
  0
ENDBLK
  5
16C
330
16A
100
AcDbEntity
  8
0
100
AcDbBlockEnd
  0
BLOCK
  5
17D
330
17C
100
AcDbEntity
  8
0
100
AcDbBlockBegin
  2
_D
 70
     0
 10
0.0
 20
0.0
 30
0.0
  3
_D
  1

  0
SOLID
  5
17F
330
17C
100
AcDbEntity
  8
0
  6
Continuous
 62
     7
370
    18
100
AcDbTrace
 10
4.4349660042
 20
18.0039384503
 30
0.0
 11
4.1049660042
 21
18.0539384503
 31
0.0
 12
4.1049660042
 22
17.9539384503
 32
0.0
 13
4.1049660042
 23
17.9539384503
 33
0.0
  0
SOLID
  5
180
330
17C
100
AcDbEntity
  8
0
  6
Continuous
 62
     7
370
    18
100
AcDbTrace
 10
6.6349660042
 20
18.0039384503
 30
0.0
 11
6.9649660042
 21
17.9539384503
 31
0.0
 12
6.9649660042
 22
18.0539384503
 32
0.0
 13
6.9649660042
 23
18.0539384503
 33
0.0
  0
LINE
  5
181
330
17C
100
AcDbEntity
  8
0
  6
Continuous
 62
     7
370
     0
100
AcDbLine
 10
5.1471064036
 20
18.003938427
 30
0.0
 11
5.0827244582
 21
18.003938427
 31
0.0
  0
LINE
  5
182
330
17C
100
AcDbEntity
  8
0
  6
Continuous
 62
     7
370
     0
100
AcDbLine
 10
5.0827244582
 20
18.003938427
 30
0.0
 11
5.0827244582
 21
17.6676236194
 31
0.0
  0
LINE
  5
183
330
17C
100
AcDbEntity
  8
0
  6
Continuous
 62
     7
370
     0
100
AcDbLine
 10
5.0827244582
 20
17.6676236194
 30
0.0
 11
5.1471064036
 21
17.6676236194
 31
0.0
  0
LINE
  5
184
330
17C
100
AcDbEntity
  8
0
  6
Continuous
 62
     7
370
     0
100
AcDbLine
 10
5.9228255582
 20
18.003938427
 30
0.0
 11
5.9872075037
 21
18.003938427
 31
0.0
  0
LINE
  5
185
330
17C
100
AcDbEntity
  8
0
  6
Continuous
 62
     7
370
     0
100
AcDbLine
 10
5.9872075037
 20
18.003938427
 30
0.0
 11
5.9872075037
 21
17.6676236194
 31
0.0
  0
LINE
  5
186
330
17C
100
AcDbEntity
  8
0
  6
Continuous
 62
     7
370
     0
100
AcDbLine
 10
5.9872075037
 20
17.6676236194
 30
0.0
 11
5.9228255582
 21
17.6676236194
 31
0.0
  0
LINE
  5
187
330
17C
100
AcDbEntity
  8
0
  6
Continuous
 62
     7
370
     0
100
AcDbLine
 10
4.4349660042
 20
17.1309384503
 30
0.0
 11
4.4349660042
 21
18.1817384503
 31
0.0
  0
LINE
  5
188
330
17C
100
AcDbEntity
  8
0
  6
Continuous
 62
     7
370
     0
100
AcDbLine
 10
6.6349660042
 20
17.1309384503
 30
0.0
 11
6.6349660042
 21
18.1817384503
 31
0.0
  0
LINE
  5
189
330
17C
100
AcDbEntity
  8
0
  6
Continuous
 62
     7
370
     0
100
AcDbLine
 10
4.4349660042
 20
18.0039384503
 30
0.0
 11
3.7999660042
 21
18.0039384503
 31
0.0
  0
LINE
  5
18A
330
17C
100
AcDbEntity
  8
0
  6
Continuous
 62
     7
370
     0
100
AcDbLine
 10
6.6349660042
 20
18.0039384503
 30
0.0
 11
7.2699660042
 21
18.0039384503
 31
0.0
  0
MTEXT
  5
18B
330
17C
100
AcDbEntity
  8
0
  6
Continuous
 62
     7
370
    18
100
AcDbMText
 10
5.0210863424
 20
18.3197123917
 30
0.0
 40
0.2116666667
 41
0.0
 71
     1
 72
     1
  1

  7
SLDTEXTSTYLE0
 73
     1
 44
1.0
  0
MTEXT
  5
18C
330
17C
100
AcDbEntity
  8
0
  6
Continuous
 62
     7
370
    18
100
AcDbMText
 10
5.0749829441
 20
18.3197123917
 30
0.0
 40
0.2116666667
 41
0.0
 71
     1
 72
     1
  1
2.2mm
  7
SLDTEXTSTYLE0
 73
     1
 44
1.0
  0
MTEXT
  5
18D
330
17C
100
AcDbEntity
  8
0
  6
Continuous
 62
     7
370
    18
100
AcDbMText
 10
5.1471064036
 20
17.9404762793
 30
0.0
 40
0.2116666667
 41
0.0
 71
     1
 72
     1
  1
0.09in
  7
SLDTEXTSTYLE0
 73
     1
 44
1.0
  0
MTEXT
  5
18E
330
17C
100
AcDbEntity
  8
0
  6
Continuous
 62
     7
370
    18
100
AcDbMText
 10
6.2103394491
 20
18.3197123917
 30
0.0
 40
0.2116666667
 41
0.0
 71
     1
 72
     1
  1

  7
SLDTEXTSTYLE0
 73
     1
 44
1.0
  0
ENDBLK
  5
17E
330
17C
100
AcDbEntity
  8
0
100
AcDbBlockEnd
  0
BLOCK
  5
192
330
191
100
AcDbEntity
  8
0
100
AcDbBlockBegin
  2
_D_1
 70
     0
 10
0.0
 20
0.0
 30
0.0
  3
_D_1
  1

  0
SOLID
  5
194
330
191
100
AcDbEntity
  8
0
  6
Continuous
 62
     7
370
    18
100
AcDbTrace
 10
1.8237406035
 20
12.0039384503
 30
0.0
 11
1.8737406035
 21
12.3339384503
 31
0.0
 12
1.7737406035
 22
12.3339384503
 32
0.0
 13
1.7737406035
 23
12.3339384503
 33
0.0
  0
SOLID
  5
195
330
191
100
AcDbEntity
  8
0
  6
Continuous
 62
     7
370
    18
100
AcDbTrace
 10
1.8237406035
 20
17.0039384503
 30
0.0
 11
1.7737406035
 21
16.6739384503
 31
0.0
 12
1.8737406035
 22
16.6739384503
 32
0.0
 13
1.8737406035
 23
16.6739384503
 33
0.0
  0
LINE
  5
196
330
191
100
AcDbEntity
  8
0
  6
Continuous
 62
     7
370
     0
100
AcDbLine
 10
1.4358810029
 20
14.503938427
 30
0.0
 11
1.3714990575
 21
14.503938427
 31
0.0
  0
LINE
  5
197
330
191
100
AcDbEntity
  8
0
  6
Continuous
 62
     7
370
     0
100
AcDbLine
 10
1.3714990575
 20
14.503938427
 30
0.0
 11
1.3714990575
 21
14.1676236194
 31
0.0
  0
LINE
  5
198
330
191
100
AcDbEntity
  8
0
  6
Continuous
 62
     7
370
     0
100
AcDbLine
 10
1.3714990575
 20
14.1676236194
 30
0.0
 11
1.4358810029
 21
14.1676236194
 31
0.0
  0
LINE
  5
199
330
191
100
AcDbEntity
  8
0
  6
Continuous
 62
     7
370
     0
100
AcDbLine
 10
2.2116001576
 20
14.503938427
 30
0.0
 11
2.275982103
 21
14.503938427
 31
0.0
  0
LINE
  5
19A
330
191
100
AcDbEntity
  8
0
  6
Continuous
 62
     7
370
     0
100
AcDbLine
 10
2.275982103
 20
14.503938427
 30
0.0
 11
2.275982103
 21
14.1676236194
 31
0.0
  0
LINE
  5
19B
330
191
100
AcDbEntity
  8
0
  6
Continuous
 62
     7
370
     0
100
AcDbLine
 10
2.275982103
 20
14.1676236194
 30
0.0
 11
2.2116001576
 21
14.1676236194
 31
0.0
  0
LINE
  5
19C
330
191
100
AcDbEntity
  8
0
  6
Continuous
 62
     7
370
     0
100
AcDbLine
 10
2.9079660042
 20
12.0039384503
 30
0.0
 11
1.6459406035
 21
12.0039384503
 31
0.0
  0
LINE
  5
19D
330
191
100
AcDbEntity
  8
0
  6
Continuous
 62
     7
370
     0
100
AcDbLine
 10
2.9079660042
 20
17.0039384503
 30
0.0
 11
1.6459406035
 21
17.0039384503
 31
0.0
  0
LINE
  5
19E
330
191
100
AcDbEntity
  8
0
  6
Continuous
 62
     7
370
     0
100
AcDbLine
 10
1.8237406035
 20
12.0039384503
 30
0.0
 11
1.8237406035
 21
14.1247023612
 31
0.0
  0
LINE
  5
19F
330
191
100
AcDbEntity
  8
0
  6
Continuous
 62
     7
370
     0
100
AcDbLine
 10
1.8237406035
 20
17.0039384503
 30
0.0
 11
1.8237406035
 21
14.8831745394
 31
0.0
  0
MTEXT
  5
1A0
330
191
100
AcDbEntity
  8
0
  6
Continuous
 62
     7
370
    18
100
AcDbMText
 10
1.3098609417
 20
14.8197123917
 30
0.0
 40
0.2116666667
 41
0.0
 71
     1
 72
     1
  1

  7
SLDTEXTSTYLE0
 73
     1
 44
1.0
  0
MTEXT
  5
1A1
330
191
100
AcDbEntity
  8
0
  6
Continuous
 62
     7
370
    18
100
AcDbMText
 10
1.3637575434
 20
14.8197123917
 30
0.0
 40
0.2116666667
 41
0.0
 71
     1
 72
     1
  1
5.0mm
  7
SLDTEXTSTYLE0
 73
     1
 44
1.0
  0
MTEXT
  5
1A2
330
191
100
AcDbEntity
  8
0
  6
Continuous
 62
     7
370
    18
100
AcDbMText
 10
1.4358810029
 20
14.4404762793
 30
0.0
 40
0.2116666667
 41
0.0
 71
     1
 72
     1
  1
0.20in
  7
SLDTEXTSTYLE0
 73
     1
 44
1.0
  0
MTEXT
  5
1A3
330
191
100
AcDbEntity
  8
0
  6
Continuous
 62
     7
370
    18
100
AcDbMText
 10
2.4991140484
 20
14.8197123917
 30
0.0
 40
0.2116666667
 41
0.0
 71
     1
 72
     1
  1

  7
SLDTEXTSTYLE0
 73
     1
 44
1.0
  0
ENDBLK
  5
193
330
191
100
AcDbEntity
  8
0
100
AcDbBlockEnd
  0
BLOCK
  5
1A5
330
1A4
100
AcDbEntity
  8
0
100
AcDbBlockBegin
  2
SW_NOTE_0_3
 70
     0
 10
0.0
 20
0.0
 30
0.0
  3
SW_NOTE_0_3
  1

  0
MTEXT
  5
1A7
330
1A4
100
AcDbEntity
  8
0
  6
Continuous
 62
     0
370
     0
100
AcDbMText
 10
0.057085655
 20
0.0547164984
 30
0.0
 40
0.2116666667
 41
0.0
 71
     1
 72
     1
  1
SCREEN-PRINTED ELECTRODE,
  7
SLDTEXTSTYLE0
 73
     1
 44
1.0
  0
MTEXT
  5
1A8
330
1A4
100
AcDbEntity
  8
0
  6
Continuous
 62
     0
370
     0
100
AcDbMText
 10
0.057085655
 20
-0.3275057135
 30
0.0
 40
0.2116666667
 41
0.0
 71
     1
 72
     1
  1
BOTH SIDES
  7
SLDTEXTSTYLE0
 73
     1
 44
1.0
  0
ENDBLK
  5
1A6
330
1A4
100
AcDbEntity
  8
0
100
AcDbBlockEnd
  0
BLOCK
  5
1B5
330
1B4
100
AcDbEntity
  8
0
100
AcDbBlockBegin
  2
_D_2
 70
     0
 10
0.0
 20
0.0
 30
0.0
  3
_D_2
  1

  0
SOLID
  5
1B7
330
1B4
100
AcDbEntity
  8
0
  6
Continuous
 62
     7
370
    18
100
AcDbTrace
 10
17.771394145
 20
10.7631778773
 30
0.0
 11
17.441394145
 21
10.8131778773
 31
0.0
 12
17.441394145
 22
10.7131778773
 32
0.0
 13
17.441394145
 23
10.7131778773
 33
0.0
  0
SOLID
  5
1B8
330
1B4
100
AcDbEntity
  8
0
  6
Continuous
 62
     7
370
    18
100
AcDbTrace
 10
12.771394145
 20
10.7631778773
 30
0.0
 11
13.101394145
 21
10.7131778773
 31
0.0
 12
13.101394145
 22
10.8131778773
 32
0.0
 13
13.101394145
 23
10.8131778773
 33
0.0
  0
LINE
  5
1B9
330
1B4
100
AcDbEntity
  8
0
  6
Continuous
 62
     7
370
     0
100
AcDbLine
 10
14.8835345444
 20
10.763177854
 30
0.0
 11
14.819152599
 21
10.763177854
 31
0.0
  0
LINE
  5
1BA
330
1B4
100
AcDbEntity
  8
0
  6
Continuous
 62
     7
370
     0
100
AcDbLine
 10
14.819152599
 20
10.763177854
 30
0.0
 11
14.819152599
 21
10.4268630463
 31
0.0
  0
LINE
  5
1BB
330
1B4
100
AcDbEntity
  8
0
  6
Continuous
 62
     7
370
     0
100
AcDbLine
 10
14.819152599
 20
10.4268630463
 30
0.0
 11
14.8835345444
 21
10.4268630463
 31
0.0
  0
LINE
  5
1BC
330
1B4
100
AcDbEntity
  8
0
  6
Continuous
 62
     7
370
     0
100
AcDbLine
 10
15.659253699
 20
10.763177854
 30
0.0
 11
15.7236356444
 21
10.763177854
 31
0.0
  0
LINE
  5
1BD
330
1B4
100
AcDbEntity
  8
0
  6
Continuous
 62
     7
370
     0
100
AcDbLine
 10
15.7236356444
 20
10.763177854
 30
0.0
 11
15.7236356444
 21
10.4268630463
 31
0.0
  0
LINE
  5
1BE
330
1B4
100
AcDbEntity
  8
0
  6
Continuous
 62
     7
370
     0
100
AcDbLine
 10
15.7236356444
 20
10.4268630463
 30
0.0
 11
15.659253699
 21
10.4268630463
 31
0.0
  0
LINE
  5
1BF
330
1B4
100
AcDbEntity
  8
0
  6
Continuous
 62
     7
370
     0
100
AcDbLine
 10
17.771394145
 20
9.8901778773
 30
0.0
 11
17.771394145
 21
10.9409778773
 31
0.0
  0
LINE
  5
1C0
330
1B4
100
AcDbEntity
  8
0
  6
Continuous
 62
     7
370
     0
100
AcDbLine
 10
12.771394145
 20
9.8901778773
 30
0.0
 11
12.771394145
 21
10.9409778773
 31
0.0
  0
LINE
  5
1C1
330
1B4
100
AcDbEntity
  8
0
  6
Continuous
 62
     7
370
     0
100
AcDbLine
 10
17.771394145
 20
10.7631778773
 30
0.0
 11
15.9869816287
 21
10.7631778773
 31
0.0
  0
LINE
  5
1C2
330
1B4
100
AcDbEntity
  8
0
  6
Continuous
 62
     7
370
     0
100
AcDbLine
 10
12.771394145
 20
10.7631778773
 30
0.0
 11
14.5558066613
 21
10.7631778773
 31
0.0
  0
MTEXT
  5
1C3
330
1B4
100
AcDbEntity
  8
0
  6
Continuous
 62
     7
370
    18
100
AcDbMText
 10
14.7575144831
 20
11.0789518186
 30
0.0
 40
0.2116666667
 41
0.0
 71
     1
 72
     1
  1

  7
SLDTEXTSTYLE0
 73
     1
 44
1.0
  0
MTEXT
  5
1C4
330
1B4
100
AcDbEntity
  8
0
  6
Continuous
 62
     7
370
    18
100
AcDbMText
 10
14.8114110848
 20
11.0789518186
 30
0.0
 40
0.2116666667
 41
0.0
 71
     1
 72
     1
  1
5.0mm
  7
SLDTEXTSTYLE0
 73
     1
 44
1.0
  0
MTEXT
  5
1C5
330
1B4
100
AcDbEntity
  8
0
  6
Continuous
 62
     7
370
    18
100
AcDbMText
 10
14.8835345444
 20
10.6997157063
 30
0.0
 40
0.2116666667
 41
0.0
 71
     1
 72
     1
  1
0.20in
  7
SLDTEXTSTYLE0
 73
     1
 44
1.0
  0
MTEXT
  5
1C6
330
1B4
100
AcDbEntity
  8
0
  6
Continuous
 62
     7
370
    18
100
AcDbMText
 10
15.9467675898
 20
11.0789518186
 30
0.0
 40
0.2116666667
 41
0.0
 71
     1
 72
     1
  1

  7
SLDTEXTSTYLE0
 73
     1
 44
1.0
  0
ENDBLK
  5
1B6
330
1B4
100
AcDbEntity
  8
0
100
AcDbBlockEnd
  0
BLOCK
  5
1C9
330
1C8
100
AcDbEntity
  8
0
100
AcDbBlockBegin
  2
_D_3
 70
     0
 10
0.0
 20
0.0
 30
0.0
  3
_D_3
  1

  0
SOLID
  5
1CB
330
1C8
100
AcDbEntity
  8
0
  6
Continuous
 62
     7
370
    18
100
AcDbTrace
 10
19.0392559517
 20
4.7631778773
 30
0.0
 11
19.0892559517
 21
5.0931778773
 31
0.0
 12
18.9892559517
 22
5.0931778773
 32
0.0
 13
18.9892559517
 23
5.0931778773
 33
0.0
  0
SOLID
  5
1CC
330
1C8
100
AcDbEntity
  8
0
  6
Continuous
 62
     7
370
    18
100
AcDbTrace
 10
19.0392559517
 20
9.7631778773
 30
0.0
 11
18.9892559517
 21
9.4331778773
 31
0.0
 12
19.0892559517
 22
9.4331778773
 32
0.0
 13
19.0892559517
 23
9.4331778773
 33
0.0
  0
LINE
  5
1CD
330
1C8
100
AcDbEntity
  8
0
  6
Continuous
 62
     7
370
     0
100
AcDbLine
 10
18.6513963511
 20
7.263177854
 30
0.0
 11
18.5870144057
 21
7.263177854
 31
0.0
  0
LINE
  5
1CE
330
1C8
100
AcDbEntity
  8
0
  6
Continuous
 62
     7
370
     0
100
AcDbLine
 10
18.5870144057
 20
7.263177854
 30
0.0
 11
18.5870144057
 21
6.9268630463
 31
0.0
  0
LINE
  5
1CF
330
1C8
100
AcDbEntity
  8
0
  6
Continuous
 62
     7
370
     0
100
AcDbLine
 10
18.5870144057
 20
6.9268630463
 30
0.0
 11
18.6513963511
 21
6.9268630463
 31
0.0
  0
LINE
  5
1D0
330
1C8
100
AcDbEntity
  8
0
  6
Continuous
 62
     7
370
     0
100
AcDbLine
 10
19.4271155057
 20
7.263177854
 30
0.0
 11
19.4914974511
 21
7.263177854
 31
0.0
  0
LINE
  5
1D1
330
1C8
100
AcDbEntity
  8
0
  6
Continuous
 62
     7
370
     0
100
AcDbLine
 10
19.4914974511
 20
7.263177854
 30
0.0
 11
19.4914974511
 21
6.9268630463
 31
0.0
  0
LINE
  5
1D2
330
1C8
100
AcDbEntity
  8
0
  6
Continuous
 62
     7
370
     0
100
AcDbLine
 10
19.4914974511
 20
6.9268630463
 30
0.0
 11
19.4271155057
 21
6.9268630463
 31
0.0
  0
LINE
  5
1D3
330
1C8
100
AcDbEntity
  8
0
  6
Continuous
 62
     7
370
     0
100
AcDbLine
 10
17.898394145
 20
4.7631778773
 30
0.0
 11
19.2170559517
 21
4.7631778773
 31
0.0
  0
LINE
  5
1D4
330
1C8
100
AcDbEntity
  8
0
  6
Continuous
 62
     7
370
     0
100
AcDbLine
 10
17.898394145
 20
9.7631778773
 30
0.0
 11
19.2170559517
 21
9.7631778773
 31
0.0
  0
LINE
  5
1D5
330
1C8
100
AcDbEntity
  8
0
  6
Continuous
 62
     7
370
     0
100
AcDbLine
 10
19.0392559517
 20
4.7631778773
 30
0.0
 11
19.0392559517
 21
6.8839417882
 31
0.0
  0
LINE
  5
1D6
330
1C8
100
AcDbEntity
  8
0
  6
Continuous
 62
     7
370
     0
100
AcDbLine
 10
19.0392559517
 20
9.7631778773
 30
0.0
 11
19.0392559517
 21
7.6424139663
 31
0.0
  0
MTEXT
  5
1D7
330
1C8
100
AcDbEntity
  8
0
  6
Continuous
 62
     7
370
    18
100
AcDbMText
 10
18.5253762898
 20
7.5789518186
 30
0.0
 40
0.2116666667
 41
0.0
 71
     1
 72
     1
  1

  7
SLDTEXTSTYLE0
 73
     1
 44
1.0
  0
MTEXT
  5
1D8
330
1C8
100
AcDbEntity
  8
0
  6
Continuous
 62
     7
370
    18
100
AcDbMText
 10
18.5792728916
 20
7.5789518186
 30
0.0
 40
0.2116666667
 41
0.0
 71
     1
 72
     1
  1
5.0mm
  7
SLDTEXTSTYLE0
 73
     1
 44
1.0
  0
MTEXT
  5
1D9
330
1C8
100
AcDbEntity
  8
0
  6
Continuous
 62
     7
370
    18
100
AcDbMText
 10
18.6513963511
 20
7.1997157063
 30
0.0
 40
0.2116666667
 41
0.0
 71
     1
 72
     1
  1
0.20in
  7
SLDTEXTSTYLE0
 73
     1
 44
1.0
  0
MTEXT
  5
1DA
330
1C8
100
AcDbEntity
  8
0
  6
Continuous
 62
     7
370
    18
100
AcDbMText
 10
19.7146293966
 20
7.5789518186
 30
0.0
 40
0.2116666667
 41
0.0
 71
     1
 72
     1
  1

  7
SLDTEXTSTYLE0
 73
     1
 44
1.0
  0
ENDBLK
  5
1CA
330
1C8
100
AcDbEntity
  8
0
100
AcDbBlockEnd
  0
ENDSEC
  0
SECTION
  2
ENTITIES
  0
LINE
  5
115
330
1F
100
AcDbEntity
  8
FORMAT
100
AcDbLine
 10
0.1579350101
 20
21.4645379997
 30
0.0
 11
27.7989206849
 21
21.4645379997
 31
0.0
  0
LINE
  5
116
330
1F
100
AcDbEntity
  8
FORMAT
100
AcDbLine
 10
0.1579350101
 20
21.4645379997
 30
0.0
 11
0.1579350101
 21
0.090316426
 31
0.0
  0
LINE
  5
117
330
1F
100
AcDbEntity
  8
FORMAT
100
AcDbLine
 10
27.7989206849
 20
0.090316426
 30
0.0
 11
0.1579350101
 21
0.090316426
 31
0.0
  0
LINE
  5
118
330
1F
100
AcDbEntity
  8
FORMAT
100
AcDbLine
 10
27.7989206849
 20
0.090316426
 30
0.0
 11
27.7989206849
 21
21.4645379997
 31
0.0
  0
LINE
  5
119
330
1F
100
AcDbEntity
  8
FORMAT
100
AcDbLine
 10
21.5742764004
 20
1.2295889013
 30
0.0
 11
17.1632759668
 21
1.2295889013
 31
0.0
  0
LINE
  5
11A
330
1F
100
AcDbEntity
  8
FORMAT
100
AcDbLine
 10
17.1632759668
 20
0.090316426
 30
0.0
 11
17.1632759668
 21
2.6166140251
 31
0.0
  0
LINE
  5
11B
330
1F
100
AcDbEntity
  8
FORMAT
100
AcDbLine
 10
21.5742764004
 20
1.7160457955
 30
0.0
 11
27.7989206849
 21
1.7160457955
 31
0.0
  0
LINE
  5
11C
330
1F
100
AcDbEntity
  8
FORMAT
100
AcDbLine
 10
21.5742764004
 20
3.5239450836
 30
0.0
 11
21.5742764004
 21
0.090316426
 31
0.0
  0
LINE
  5
11D
330
1F
100
AcDbEntity
  8
FORMAT
100
AcDbLine
 10
21.5742764004
 20
2.6166140251
 30
0.0
 11
17.1632759668
 21
2.6166140251
 31
0.0
  0
LINE
  5
11E
330
1F
100
AcDbEntity
  8
FORMAT
100
AcDbLine
 10
21.5742764004
 20
0.9140920061
 30
0.0
 11
27.7989206849
 21
0.9140920061
 31
0.0
  0
LINE
  5
11F
330
1F
100
AcDbEntity
  8
FORMAT
100
AcDbLine
 10
21.5742764004
 20
1.6921682403
 30
0.0
 11
17.1632759668
 21
1.6921682403
 31
0.0
  0
LINE
  5
120
330
1F
100
AcDbEntity
  8
FORMAT
100
AcDbLine
 10
21.5742764004
 20
2.1487400554
 30
0.0
 11
17.1632759668
 21
2.1487400554
 31
0.0
  0
LINE
  5
121
330
1F
100
AcDbEntity
  8
FORMAT
100
AcDbLine
 10
18.6133810071
 20
2.6166140251
 30
0.0
 11
18.6133810071
 21
1.2295889013
 31
0.0
  0
LINE
  5
122
330
1F
100
AcDbEntity
  8
FORMAT
100
AcDbLine
 10
19.8214590619
 20
2.6166140251
 30
0.0
 11
19.8214590619
 21
1.2295889013
 31
0.0
  0
LINE
  5
123
330
1F
100
AcDbEntity
  8
FORMAT
100
AcDbLine
 10
25.3749040837
 20
0.9140920061
 30
0.0
 11
25.3749040837
 21
0.090316426
 31
0.0
  0
LINE
  5
124
330
1F
100
AcDbEntity
  8
FORMAT
100
AcDbLine
 10
17.1632759668
 20
0.7562734253
 30
0.0
 11
21.5742764004
 21
0.7562734253
 31
0.0
  0
LINE
  5
125
330
1F
100
AcDbEntity
  8
FORMAT
100
AcDbLine
 10
17.1632759668
 20
0.7562734253
 30
0.0
 11
17.1632759668
 21
3.5239450836
 31
0.0
  0
LINE
  5
126
330
1F
100
AcDbEntity
  8
FORMAT
100
AcDbLine
 10
17.1632759668
 20
3.5239450836
 30
0.0
 11
21.5742764004
 21
3.5239450836
 31
0.0
  0
LINE
  5
127
330
1F
100
AcDbEntity
  8
FORMAT
100
AcDbLine
 10
27.0168359819
 20
1.7160457955
 30
0.0
 11
27.0168359819
 21
0.9140920061
 31
0.0
  0
LINE
  5
128
330
1F
100
AcDbEntity
  8
FORMAT
100
AcDbLine
 10
21.5742764004
 20
3.5239450836
 30
0.0
 11
27.7989206849
 21
3.5239450836
 31
0.0
  0
LINE
  5
129
330
1F
100
AcDbEntity
  8
FORMAT
100
AcDbLine
 10
21.5742764004
 20
2.4892733545
 30
0.0
 11
27.7989206849
 21
2.4892733545
 31
0.0
  0
INSERT
  5
12A
330
1F
100
AcDbEntity
  8
0
  6
Continuous
 62
     7
100
AcDbBlockReference
  2
Third Angle Projection Block
 10
11.7726220424
 20
1.5516233949
 30
0.0
 41
0.8
 42
0.8
 43
0.8
  0
INSERT
  5
12B
330
1F
100
AcDbEntity
  8
0
  6
Continuous
 62
     7
100
AcDbBlockReference
  2
THORLABS LOGO1
 10
22.1547749167
 20
2.1324970322
 30
0.0
 41
0.25
 42
0.25
 43
0.25
  0
MTEXT
  5
12D
330
1F
100
AcDbEntity
  8
0
  6
Continuous
 62
     7
370
     0
100
AcDbMText
 10
27.3963395646
 20
1.3613511184
 30
0.0
 40
0.3175
 41
0.0
 71
     2
 72
     1
  1
A
  7
SLDTEXTSTYLE0
 73
     1
 44
1.0
  0
MTEXT
  5
12E
330
1F
100
AcDbEntity
  8
0
  6
Continuous
 62
     7
370
     0
100
AcDbMText
 10
23.4630881897
 20
0.5359864337
 30
0.0
 40
0.3175
 41
0.0
 71
     2
 72
     1
  1
PA4FL
  7
SLDTEXTSTYLE0
 73
     1
 44
1.0
  0
MTEXT
  5
12F
330
1F
100
AcDbEntity
  8
0
  6
Continuous
 62
     7
370
     0
100
AcDbMText
 10
21.6419976606
 20
1.682431786
 30
0.0
 40
0.2116666667
 41
0.0
 71
     1
 72
     1
  1
MATERIAL
  7
SLDTEXTSTYLE0
 73
     1
 44
1.0
  0
MTEXT
  5
130
330
1F
100
AcDbEntity
  8
0
  6
Continuous
 62
     7
370
     0
100
AcDbMText
 10
17.8838054662
 20
2.0384577113
 30
0.0
 40
0.1852083333
 41
0.0
 71
     2
 72
     1
  1
DRAWN
  7
SLDTEXTSTYLE0
 73
     1
 44
1.0
  0
MTEXT
  5
131
330
1F
100
AcDbEntity
  8
0
  6
Continuous
 62
     7
370
     0
100
AcDbMText
 10
17.8768387478
 20
1.5728725189
 30
0.0
 40
0.1852083333
 41
0.0
 71
     2
 72
     1
  1
APPROVAL
  7
SLDTEXTSTYLE0
 73
     1
 44
1.0
  0
MTEXT
  5
132
330
1F
100
AcDbEntity
  8
0
  6
Continuous
 62
     7
370
     0
100
AcDbMText
 10
27.1617788779
 20
1.6809354999
 30
0.0
 40
0.2116666667
 41
0.0
 71
     1
 72
     1
  1
REV
  7
SLDTEXTSTYLE0
 73
     1
 44
1.0
  0
MTEXT
  5
133
330
1F
100
AcDbEntity
  8
0
  6
Continuous
 62
     7
370
     0
100
AcDbMText
 10
19.2237651356
 20
2.0493057545
 30
0.0
 40
0.2116666667
 41
0.0
 71
     2
 72
     1
  1
HHX
  7
SLDTEXTSTYLE0
 73
     1
 44
1.0
  0
MTEXT
  5
134
330
1F
100
AcDbEntity
  8
0
  6
Continuous
 62
     7
370
     0
100
AcDbMText
 10
19.2203353111
 20
1.5957397928
 30
0.0
 40
0.2116666667
 41
0.0
 71
     2
 72
     1
  1
RL_Gao
  7
SLDTEXTSTYLE0
 73
     1
 44
1.0
  0
MTEXT
  5
135
330
1F
100
AcDbEntity
  8
0
  6
Continuous
 62
     7
370
     0
100
AcDbMText
 10
20.7041638377
 20
2.0493057428
 30
0.0
 40
0.2116666667
 41
0.0
 71
     2
 72
     1
  1
13/OCT/21
  7
SLDTEXTSTYLE0
 73
     1
 44
1.0
  0
MTEXT
  5
136
330
1F
100
AcDbEntity
  8
0
  6
Continuous
 62
     7
370
     0
100
AcDbMText
 10
20.6926740395
 20
2.5115286352
 30
0.0
 40
0.2116666667
 41
0.0
 71
     2
 72
     1
  1
DATE
  7
SLDTEXTSTYLE0
 73
     1
 44
1.0
  0
MTEXT
  5
137
330
1F
100
AcDbEntity
  8
0
  6
Continuous
 62
     7
370
     0
100
AcDbMText
 10
20.7041638377
 20
1.5957397812
 30
0.0
 40
0.2116666667
 41
0.0
 71
     2
 72
     1
  1
13/OCT/21
  7
SLDTEXTSTYLE0
 73
     1
 44
1.0
  0
MTEXT
  5
139
330
1F
100
AcDbEntity
  8
0
  6
Continuous
 62
     7
370
     0
100
AcDbMText
 10
24.3396583476
 20
2.780097629
 30
0.0
 40
0.2116666667
 41
0.0
 71
     2
 72
     1
  1
w w w . t h o r  l a b s . c o m
  7
SLDTEXTSTYLE1
 73
     1
 44
1.0
  0
MTEXT
  5
13A
330
1F
100
AcDbEntity
  8
0
  6
Continuous
 62
     7
370
     0
100
AcDbMText
 10
21.6700403532
 20
0.8349479187
 30
0.0
 40
0.2116666667
 41
0.0
 71
     1
 72
     1
  1
ITEM #
  7
SLDTEXTSTYLE0
 73
     1
 44
1.0
  0
MTEXT
  5
13B
330
1F
100
AcDbEntity
  8
0
  6
Continuous
 62
     7
370
     0
100
AcDbMText
 10
26.6011705201
 20
0.8274211186
 30
0.0
 40
0.2116666667
 41
0.0
 71
     2
 72
     1
  1
APPROX WEIGHT
  7
SLDTEXTSTYLE0
 73
     1
 44
1.0
  0
MTEXT
  5
13C
330
1F
100
AcDbEntity
  8
0
  6
Continuous
 62
     7
370
     0
100
AcDbMText
 10
24.2798281923
 20
1.3613511184
 30
0.0
 40
0.3175
 41
0.0
 71
     2
 72
     1
  1
NA
  7
SLDTEXTSTYLE0
 73
     1
 44
1.0
  0
MTEXT
  5
13D
330
1F
100
AcDbEntity
  8
0
  6
Continuous
 62
     7
370
     0
100
AcDbMText
 10
26.5710373667
 20
0.5359864337
 30
0.0
 40
0.3175
 41
0.0
 71
     2
 72
     1
  1
0.95 g
  7
SLDTEXTSTYLE0
 73
     1
 44
1.0
  0
INSERT
  5
143
330
1F
100
AcDbEntity
  8
0
  6
Continuous
 62
     7
370
     0
100
AcDbBlockReference
  2
SW_NOTE_0
 10
17.4843014005
 20
0.445585548
 30
0.0
  0
INSERT
  5
149
330
1F
100
AcDbEntity
  8
0
  6
Continuous
 62
     7
370
     0
100
AcDbBlockReference
  2
SW_NOTE_0_1
 10
17.4548365034
 20
3.0483532271
 30
0.0
  0
MTEXT
  5
14A
330
1F
100
AcDbEntity
  8
0
  6
Continuous
 62
     7
370
     0
100
AcDbMText
 10
19.2080616269
 20
2.5115286352
 30
0.0
 40
0.2116666667
 41
0.0
 71
     2
 72
     1
  1
NAME
  7
SLDTEXTSTYLE0
 73
     1
 44
1.0
  0
MTEXT
  5
14B
330
1F
100
AcDbEntity
  8
0
  6
Continuous
 62
     7
370
     0
100
AcDbMText
 10
24.6553629741
 20
2.2989417926
 30
0.0
 40
0.3175
 41
0.0
 71
     2
 72
     1
  1
PIEZO ACTUATOR
  7
SLDTEXTSTYLE0
 73
     1
 44
1.0
  0
MTEXT
  5
14C
330
1F
100
AcDbEntity
  8
0
  6
Continuous
 62
     7
370
     0
100
AcDbMText
 10
19.3505123635
 20
1.0880674644
 30
0.0
 40
0.15875
 41
0.0
 71
     2
 72
     1
  1
COPYRIGHT \U+00A9 2021 BY THORLABS
  7
SLDTEXTSTYLE0
 73
     1
 44
1.0
  0
INSERT
  5
152
330
1F
100
AcDbEntity
  8
0
  6
Continuous
 62
     7
370
     0
100
AcDbBlockReference
  2
SW_NOTE_0_2
 10
5.3585184462
 20
0.8177660973
 30
0.0
  0
LINE
  5
153
330
1F
100
AcDbEntity
  8
0
  6
Continuous
 62
     7
370
    25
100
AcDbLine
 10
14.0213941729
 20
14.6706052002
 30
0.0
 11
13.688060785
 21
14.6706052002
 31
0.0
  0
LINE
  5
154
330
1F
100
AcDbEntity
  8
0
  6
Continuous
 62
     7
370
    25
100
AcDbLine
 10
13.688060785
 20
14.6706052002
 30
0.0
 11
13.688060785
 21
15.0039383553
 31
0.0
  0
LINE
  5
155
330
1F
100
AcDbEntity
  8
0
  6
Continuous
 62
     7
370
    25
100
AcDbLine
 10
13.688060785
 20
15.0039383553
 30
0.0
 11
13.3547275134
 21
15.0039383553
 31
0.0
  0
LINE
  5
156
330
1F
100
AcDbEntity
  8
0
  6
Continuous
 62
     7
370
    25
100
AcDbLine
 10
13.3547275134
 20
15.0039383553
 30
0.0
 11
13.3547275134
 21
14.6706052002
 31
0.0
  0
LINE
  5
157
330
1F
100
AcDbEntity
  8
0
  6
Continuous
 62
     7
370
    25
100
AcDbLine
 10
13.3547275134
 20
14.6706052002
 30
0.0
 11
13.0213942418
 21
14.6706052002
 31
0.0
  0
LINE
  5
158
330
1F
100
AcDbEntity
  8
0
  6
Continuous
 62
     7
370
    25
100
AcDbLine
 10
13.0213942418
 20
14.6706052002
 30
0.0
 11
13.0213942418
 21
14.3372718122
 31
0.0
  0
LINE
  5
159
330
1F
100
AcDbEntity
  8
0
  6
Continuous
 62
     7
370
    25
100
AcDbLine
 10
13.0213942418
 20
14.3372718122
 30
0.0
 11
13.3547275134
 21
14.3372718122
 31
0.0
  0
LINE
  5
15A
330
1F
100
AcDbEntity
  8
0
  6
Continuous
 62
     7
370
    25
100
AcDbLine
 10
13.3547275134
 20
14.3372718122
 30
0.0
 11
13.3547275134
 21
14.0039384242
 31
0.0
  0
LINE
  5
15B
330
1F
100
AcDbEntity
  8
0
  6
Continuous
 62
     7
370
    25
100
AcDbLine
 10
13.3547275134
 20
14.0039384242
 30
0.0
 11
13.688060785
 21
14.0039384242
 31
0.0
  0
LINE
  5
15C
330
1F
100
AcDbEntity
  8
0
  6
Continuous
 62
     7
370
    25
100
AcDbLine
 10
13.688060785
 20
14.0039384242
 30
0.0
 11
13.688060785
 21
14.3372718122
 31
0.0
  0
LINE
  5
15D
330
1F
100
AcDbEntity
  8
0
  6
Continuous
 62
     7
370
    25
100
AcDbLine
 10
13.688060785
 20
14.3372718122
 30
0.0
 11
14.0213941729
 21
14.3372718122
 31
0.0
  0
LINE
  5
15E
330
1F
100
AcDbEntity
  8
0
  6
Continuous
 62
     7
370
    25
100
AcDbLine
 10
14.0213941729
 20
14.3372718122
 30
0.0
 11
14.0213941729
 21
14.6706052002
 31
0.0
  0
LINE
  5
15F
330
1F
100
AcDbEntity
  8
0
  6
Continuous
 62
     7
370
    25
100
AcDbLine
 10
17.7713940891
 20
12.0039385621
 30
0.0
 11
12.7713942009
 21
12.0039385621
 31
0.0
  0
LINE
  5
160
330
1F
100
AcDbEntity
  8
0
  6
Continuous
 62
     7
370
    25
100
AcDbLine
 10
17.7713940891
 20
17.0039384503
 30
0.0
 11
12.7713942009
 21
17.0039384503
 31
0.0
  0
LINE
  5
161
330
1F
100
AcDbEntity
  8
0
  6
Continuous
 62
     7
370
    25
100
AcDbLine
 10
12.7713942009
 20
12.0039385621
 30
0.0
 11
12.7713942009
 21
17.0039384503
 31
0.0
  0
LINE
  5
162
330
1F
100
AcDbEntity
  8
0
  6
Continuous
 62
     7
370
    25
100
AcDbLine
 10
17.7713940891
 20
12.0039385621
 30
0.0
 11
17.7713940891
 21
17.0039384503
 31
0.0
  0
MTEXT
  5
163
330
1F
100
AcDbEntity
  8
0
  6
Continuous
 62
     7
370
     0
100
AcDbMText
 10
8.6499490669
 20
15.0187019736
 30
0.0
 40
0.2116666667
 41
0.0
 71
     1
 72
     1
  1
POSITIVE ELECTRODE
  7
SLDTEXTSTYLE0
 73
     1
 44
1.0
  0
LEADER
  5
165
330
1F
100
AcDbEntity
  8
0
  6
Continuous
 62
     7
370
     0
100
AcDbLeader
  3
SLDDIMSTYLE0
 76
     3
 10
12.771394145
 20
14.1396581848
 30
0.0
 10
12.1225246488
 20
14.9140893822
 30
0.0
 10
11.4875246488
 20
14.9140893822
 30
0.0
  0
MTEXT
  5
166
330
1F
100
AcDbEntity
  8
0
  6
Continuous
 62
     7
370
     0
100
AcDbMText
 10
19.1855699617
 20
12.9456750288
 30
0.0
 40
0.2116666667
 41
0.0
 71
     1
 72
     1
  1
NEGATIVE ELECTRODE
  7
SLDTEXTSTYLE0
 73
     1
 44
1.0
  0
LEADER
  5
167
330
1F
100
AcDbEntity
  8
0
  6
Continuous
 62
     7
370
     0
100
AcDbLeader
  3
SLDDIMSTYLE0
 76
     3
 10
17.771394145
 20
13.5646929113
 30
0.0
 10
18.4916826923
 20
12.8347624591
 30
0.0
 10
19.1266826923
 20
12.8347624591
 30
0.0
  0
MTEXT
  5
168
330
1F
100
AcDbEntity
  8
0
  6
Continuous
 62
     7
370
     0
100
AcDbMText
 10
14.8002518446
 20
18.2588710097
 30
0.0
 40
0.2116666667
 41
0.0
 71
     1
 72
     1
  1
POSITIVE MARK(CROSS HAIR)
  7
SLDTEXTSTYLE0
 73
     1
 44
1.0
  0
LEADER
  5
16F
330
1F
100
AcDbEntity
  8
0
  6
Continuous
 62
     7
370
     0
100
AcDbLeader
  3
SLDDIMSTYLE1
 76
     3
 10
13.4682342332
 20
14.6011371192
 30
0.0
 10
14.1046634615
 20
18.1472624591
 30
0.0
 10
14.7396634615
 20
18.1472624591
 30
0.0
  0
LINE
  5
170
330
1F
100
AcDbEntity
  8
0
  6
Continuous
 62
     7
370
    25
100
AcDbLine
 10
4.4349660102
 20
12.0039385621
 30
0.0
 11
3.0349660601
 21
12.0039385621
 31
0.0
  0
LINE
  5
171
330
1F
100
AcDbEntity
  8
0
  6
Continuous
 62
     7
370
    25
100
AcDbLine
 10
4.4349660102
 20
17.0039384503
 30
0.0
 11
4.4349660102
 21
12.0039385621
 31
0.0
  0
LINE
  5
172
330
1F
100
AcDbEntity
  8
0
  6
Continuous
 62
     7
370
    25
100
AcDbLine
 10
3.0349660601
 20
12.0039385621
 30
0.0
 11
3.0349660601
 21
17.0039384503
 31
0.0
  0
LINE
  5
173
330
1F
100
AcDbEntity
  8
0
  6
Continuous
 62
     7
370
    25
100
AcDbLine
 10
4.4349660102
 20
17.0039384503
 30
0.0
 11
3.0349660601
 21
17.0039384503
 31
0.0
  0
LINE
  5
174
330
1F
100
AcDbEntity
  8
0
  6
Continuous
 62
     7
370
    25
100
AcDbLine
 10
6.6349659983
 20
12.0039385621
 30
0.0
 11
6.6349659983
 21
17.0039384503
 31
0.0
  0
LINE
  5
175
330
1F
100
AcDbEntity
  8
0
  6
Continuous
 62
     7
370
    25
100
AcDbLine
 10
6.6349659983
 20
12.0039385621
 30
0.0
 11
4.4349660102
 21
12.0039385621
 31
0.0
  0
LINE
  5
176
330
1F
100
AcDbEntity
  8
0
  6
Continuous
 62
     7
370
    25
100
AcDbLine
 10
6.6349659983
 20
17.0039384503
 30
0.0
 11
4.4349660102
 21
17.0039384503
 31
0.0
  0
LINE
  5
177
330
1F
100
AcDbEntity
  8
0
  6
Continuous
 62
     7
370
    25
100
AcDbLine
 10
8.0349659483
 20
12.0039385621
 30
0.0
 11
8.0349659483
 21
17.0039384503
 31
0.0
  0
LINE
  5
178
330
1F
100
AcDbEntity
  8
0
  6
Continuous
 62
     7
370
    25
100
AcDbLine
 10
8.0349659483
 20
12.0039385621
 30
0.0
 11
6.6349659983
 21
12.0039385621
 31
0.0
  0
LINE
  5
179
330
1F
100
AcDbEntity
  8
0
  6
Continuous
 62
     7
370
    25
100
AcDbLine
 10
8.0349659483
 20
17.0039384503
 30
0.0
 11
6.6349659983
 21
17.0039384503
 31
0.0
  0
DIMENSION
  5
17A
330
1F
100
AcDbEntity
  8
0
  6
Continuous
 62
     7
370
    18
100
AcDbDimension
  2
_D
 10
6.6349660042
 20
18.0039384503
 30
0.0
 11
5.5349660042
 21
18.0039384503
 31
0.0
 70
   160
  1
<>
 71
     2
 42
-1.0
  3
SLDDIMSTYLE2
100
AcDbAlignedDimension
 13
4.4349660042
 23
17.0039384503
 33
0.0
 14
6.6349660042
 24
17.0039384503
 34
0.0
100
AcDbRotatedDimension
  0
DIMENSION
  5
18F
330
1F
100
AcDbEntity
  8
0
  6
Continuous
 62
     7
370
    18
100
AcDbDimension
  2
_D_1
 10
1.8237406035
 20
17.0039384503
 30
0.0
 11
1.8237406035
 21
14.5039384503
 31
0.0
 70
   160
  1
<>
 71
     2
 42
-1.0
  3
SLDDIMSTYLE3
100
AcDbAlignedDimension
 13
3.0349660042
 23
12.0039384503
 33
0.0
 14
3.0349660042
 24
17.0039384503
 34
0.0
 50
90.0
100
AcDbRotatedDimension
  0
INSERT
  5
1A9
102
{ACAD_REACTORS
330
1AA
102
}
330
1F
100
AcDbEntity
  8
0
  6
Continuous
 62
     7
370
     0
100
AcDbBlockReference
  2
SW_NOTE_0_3
 10
6.5665865385
 20
11.0299547703
 30
0.0
  0
LEADER
  5
1AA
330
1F
100
AcDbEntity
  8
0
  6
Continuous
 62
     7
370
     0
100
AcDbLeader
  3
SLDDIMSTYLE1
 73
     2
 76
     3
 10
5.0781577461
 20
12.3239211406
 30
0.0
 10
5.9315865385
 20
11.0299547703
 30
0.0
 10
6.5665865385
 20
11.0299547703
 30
0.0
340
1A9
  0
LINE
  5
1AB
330
1F
100
AcDbEntity
  8
0
  6
Continuous
 62
     7
370
    25
100
AcDbLine
 10
17.7713940891
 20
9.7631778214
 30
0.0
 11
12.7713942009
 21
9.7631778214
 31
0.0
  0
LINE
  5
1AC
330
1F
100
AcDbEntity
  8
0
  6
Continuous
 62
     7
370
    25
100
AcDbLine
 10
17.7713940891
 20
8.3631778713
 30
0.0
 11
17.7713940891
 21
9.7631778214
 31
0.0
  0
LINE
  5
1AD
330
1F
100
AcDbEntity
  8
0
  6
Continuous
 62
     7
370
    25
100
AcDbLine
 10
17.7713940891
 20
6.1631778832
 30
0.0
 11
17.7713940891
 21
8.3631778713
 31
0.0
  0
LINE
  5
1AE
330
1F
100
AcDbEntity
  8
0
  6
Continuous
 62
     7
370
    25
100
AcDbLine
 10
12.7713942009
 20
4.7631779332
 30
0.0
 11
17.7713940891
 21
4.7631779332
 31
0.0
  0
LINE
  5
1AF
330
1F
100
AcDbEntity
  8
0
  6
Continuous
 62
     7
370
    25
100
AcDbLine
 10
12.7713942009
 20
8.3631778713
 30
0.0
 11
12.7713942009
 21
6.1631778832
 31
0.0
  0
LINE
  5
1B0
330
1F
100
AcDbEntity
  8
0
  6
Continuous
 62
     7
370
    25
100
AcDbLine
 10
12.7713942009
 20
9.7631778214
 30
0.0
 11
12.7713942009
 21
8.3631778713
 31
0.0
  0
LINE
  5
1B1
330
1F
100
AcDbEntity
  8
0
  6
Continuous
 62
     7
370
    25
100
AcDbLine
 10
17.7713940891
 20
4.7631779332
 30
0.0
 11
17.7713940891
 21
6.1631778832
 31
0.0
  0
LINE
  5
1B2
330
1F
100
AcDbEntity
  8
0
  6
Continuous
 62
     7
370
    25
100
AcDbLine
 10
12.7713942009
 20
6.1631778832
 30
0.0
 11
12.7713942009
 21
4.7631779332
 31
0.0
  0
DIMENSION
  5
1B3
330
1F
100
AcDbEntity
  8
0
  6
Continuous
 62
     7
370
    18
100
AcDbDimension
  2
_D_2
 10
12.771394145
 20
10.7631778773
 30
0.0
 11
15.271394145
 21
10.7631778773
 31
0.0
 70
   160
  1
<>
 71
     2
 42
-1.0
  3
SLDDIMSTYLE3
100
AcDbAlignedDimension
 13
17.771394145
 23
9.7631778773
 33
0.0
 14
12.771394145
 24
9.7631778773
 34
0.0
100
AcDbRotatedDimension
  0
DIMENSION
  5
1C7
330
1F
100
AcDbEntity
  8
0
  6
Continuous
 62
     7
370
    18
100
AcDbDimension
  2
_D_3
 10
19.0392559517
 20
9.7631778773
 30
0.0
 11
19.0392559517
 21
7.2631778773
 31
0.0
 70
   160
  1
<>
 71
     2
 42
-1.0
  3
SLDDIMSTYLE3
100
AcDbAlignedDimension
 13
17.771394145
 23
4.7631778773
 33
0.0
 14
17.771394145
 24
9.7631778773
 34
0.0
 50
90.0
100
AcDbRotatedDimension
  0
LINE
  5
1DB
330
1F
100
AcDbEntity
  8
0
  6
Continuous
 62
     7
370
    25
100
AcDbLine
 10
24.8909711771
 20
13.5186376906
 30
0.0
 11
23.9010216834
 21
12.9471520123
 31
0.0
  0
LINE
  5
1DC
330
1F
100
AcDbEntity
  8
0
  6
Continuous
 62
     7
370
    25
100
AcDbLine
 10
23.9010216834
 20
12.9471520123
 30
0.0
 11
23.9010216834
 21
17.0298560717
 31
0.0
  0
LINE
  5
1DD
330
1F
100
AcDbEntity
  8
0
  6
Continuous
 62
     7
370
    25
100
AcDbLine
 10
24.8909711771
 20
17.60134175
 30
0.0
 11
23.9010216834
 21
17.0298560717
 31
0.0
  0
LINE
  5
1DE
330
1F
100
AcDbEntity
  8
0
  6
Continuous
 62
     7
370
    25
100
AcDbLine
 10
24.8909711771
 20
17.60134175
 30
0.0
 11
24.8909711771
 21
13.5186376906
 31
0.0
  0
LINE
  5
1DF
330
1F
100
AcDbEntity
  8
0
  6
Continuous
 62
     7
370
    25
100
AcDbLine
 10
21.3554372711
 20
19.6423620296
 30
0.0
 11
22.9110721897
 21
20.5404109526
 31
0.0
  0
LINE
  5
1E0
330
1F
100
AcDbEntity
  8
0
  6
Continuous
 62
     7
370
    25
100
AcDbLine
 10
22.9110721897
 20
20.5404109526
 30
0.0
 11
23.9010216834
 21
21.1118966309
 31
0.0
  0
LINE
  5
1E1
330
1F
100
AcDbEntity
  8
0
  6
Continuous
 62
     7
370
    25
100
AcDbLine
 10
23.9010216834
 20
21.1118966309
 30
0.0
 11
27.4365555893
 21
19.0708763513
 31
0.0
  0
LINE
  5
1E2
330
1F
100
AcDbEntity
  8
0
  6
Continuous
 62
     7
370
    25
100
AcDbLine
 10
27.4365555893
 20
19.0708763513
 30
0.0
 11
26.4466060957
 21
18.499390673
 31
0.0
  0
LINE
  5
1E3
330
1F
100
AcDbEntity
  8
0
  6
Continuous
 62
     7
370
    25
100
AcDbLine
 10
26.4466060957
 20
18.499390673
 30
0.0
 11
24.8909711771
 21
17.60134175
 31
0.0
  0
LINE
  5
1E4
330
1F
100
AcDbEntity
  8
0
  6
Continuous
 62
     7
370
    25
100
AcDbLine
 10
23.9010216834
 20
17.0298560717
 30
0.0
 11
20.3654877775
 21
19.0708763513
 31
0.0
  0
LINE
  5
1E5
330
1F
100
AcDbEntity
  8
0
  6
Continuous
 62
     7
370
    25
100
AcDbLine
 10
20.3654877775
 20
19.0708763513
 30
0.0
 11
21.3554372711
 21
19.6423620296
 31
0.0
  0
LINE
  5
1E6
330
1F
100
AcDbEntity
  8
0
  6
Continuous
 62
     7
370
    25
100
AcDbLine
 10
21.249371254
 20
16.655359387
 30
0.0
 11
21.0136689936
 21
16.7914274056
 31
0.0
  0
LINE
  5
1E7
330
1F
100
AcDbEntity
  8
0
  6
Continuous
 62
     7
370
    25
100
AcDbLine
 10
21.0136689936
 20
16.7914274056
 30
0.0
 11
21.0136689936
 21
17.0636076763
 31
0.0
  0
LINE
  5
1E8
330
1F
100
AcDbEntity
  8
0
  6
Continuous
 62
     7
370
    25
100
AcDbLine
 10
21.0136689936
 20
17.0636076763
 30
0.0
 11
20.7779667332
 21
17.1996756949
 31
0.0
  0
LINE
  5
1E9
330
1F
100
AcDbEntity
  8
0
  6
Continuous
 62
     7
370
    25
100
AcDbLine
 10
20.7779667332
 20
17.1996756949
 30
0.0
 11
20.7779667332
 21
16.9274954243
 31
0.0
  0
LINE
  5
1EA
330
1F
100
AcDbEntity
  8
0
  6
Continuous
 62
     7
370
    25
100
AcDbLine
 10
20.7779667332
 20
16.9274954243
 30
0.0
 11
20.5422644728
 21
17.0635634429
 31
0.0
  0
LINE
  5
1EB
330
1F
100
AcDbEntity
  8
0
  6
Continuous
 62
     7
370
    25
100
AcDbLine
 10
20.5422644728
 20
17.0635634429
 30
0.0
 11
20.5422644728
 21
16.7913831723
 31
0.0
  0
LINE
  5
1EC
330
1F
100
AcDbEntity
  8
0
  6
Continuous
 62
     7
370
    25
100
AcDbLine
 10
20.5422644728
 20
16.7913831723
 30
0.0
 11
20.7779667332
 21
16.6553151537
 31
0.0
  0
LINE
  5
1ED
330
1F
100
AcDbEntity
  8
0
  6
Continuous
 62
     7
370
    25
100
AcDbLine
 10
20.7779667332
 20
16.6553151537
 30
0.0
 11
20.7779667332
 21
16.383134883
 31
0.0
  0
LINE
  5
1EE
330
1F
100
AcDbEntity
  8
0
  6
Continuous
 62
     7
370
    25
100
AcDbLine
 10
20.7779667332
 20
16.383134883
 30
0.0
 11
21.0136689936
 21
16.2470668644
 31
0.0
  0
LINE
  5
1EF
330
1F
100
AcDbEntity
  8
0
  6
Continuous
 62
     7
370
    25
100
AcDbLine
 10
21.0136689936
 20
16.2470668644
 30
0.0
 11
21.0136689936
 21
16.519247135
 31
0.0
  0
LINE
  5
1F0
330
1F
100
AcDbEntity
  8
0
  6
Continuous
 62
     7
370
    25
100
AcDbLine
 10
21.0136689936
 20
16.519247135
 30
0.0
 11
21.249371254
 21
16.3831791164
 31
0.0
  0
LINE
  5
1F1
330
1F
100
AcDbEntity
  8
0
  6
Continuous
 62
     7
370
    25
100
AcDbLine
 10
21.249371254
 20
16.3831791164
 30
0.0
 11
21.249371254
 21
16.655359387
 31
0.0
  0
LINE
  5
1F2
330
1F
100
AcDbEntity
  8
0
  6
Continuous
 62
     7
370
    25
100
AcDbLine
 10
23.9010216834
 20
12.9471520123
 30
0.0
 11
20.3654877775
 21
14.9881722919
 31
0.0
  0
LINE
  5
1F3
330
1F
100
AcDbEntity
  8
0
  6
Continuous
 62
     7
370
    25
100
AcDbLine
 10
20.3654877775
 20
14.9881722919
 30
0.0
 11
20.3654877775
 21
19.0708763513
 31
0.0
  0
LINE
  5
1F4
330
1F
100
AcDbEntity
  8
0
  6
Continuous
 62
     7
370
    25
100
AcDbLine
 10
26.4466060957
 20
14.4166866136
 30
0.0
 11
26.4466060957
 21
18.499390673
 31
0.0
  0
LINE
  5
1F5
330
1F
100
AcDbEntity
  8
0
  6
Continuous
 62
     7
370
    25
100
AcDbLine
 10
26.4466060957
 20
14.4166866136
 30
0.0
 11
24.8909711771
 21
13.5186376906
 31
0.0
  0
LINE
  5
1F6
330
1F
100
AcDbEntity
  8
0
  6
Continuous
 62
     7
370
    25
100
AcDbLine
 10
27.4365555893
 20
14.9881722919
 30
0.0
 11
27.4365555893
 21
19.0708763513
 31
0.0
  0
LINE
  5
1F7
330
1F
100
AcDbEntity
  8
0
  6
Continuous
 62
     7
370
    25
100
AcDbLine
 10
27.4365555893
 20
14.9881722919
 30
0.0
 11
26.4466060957
 21
14.4166866136
 31
0.0
  0
ENDSEC
  0
SECTION
  2
OBJECTS
  0
DICTIONARY
  5
C
330
0
100
AcDbDictionary
281
     1
  3
ACAD_GROUP
350
D
  3
ACAD_LAYOUT
350
1A
  3
ACAD_MLINESTYLE
350
17
  3
ACAD_PLOTSETTINGS
350
19
  3
ACAD_PLOTSTYLENAME
350
E
  3
ACAD_SCALELIST
350
47
  0
DICTIONARY
  5
D
102
{ACAD_REACTORS
330
C
102
}
330
C
100
AcDbDictionary
281
     1
  0
DICTIONARY
  5
1A
102
{ACAD_REACTORS
330
C
102
}
330
C
100
AcDbDictionary
281
     1
  3
Layout1
350
1E
  3
Layout2
350
26
  3
Model
350
22
  0
DICTIONARY
  5
17
102
{ACAD_REACTORS
330
C
102
}
330
C
100
AcDbDictionary
281
     1
  3
Standard
350
18
  0
DICTIONARY
  5
19
102
{ACAD_REACTORS
330
C
102
}
330
C
100
AcDbDictionary
281
     1
  0
ACDBDICTIONARYWDFLT
  5
E
102
{ACAD_REACTORS
330
C
102
}
330
C
100
AcDbDictionary
281
     1
  3
Normal
350
F
100
AcDbDictionaryWithDefault
340
F
  0
DICTIONARY
  5
47
102
{ACAD_REACTORS
330
C
102
}
330
C
100
AcDbDictionary
281
     1
  3
A0
350
48
  3
A1
350
49
  3
A2
350
4A
  3
A3
350
4B
  3
A4
350
4C
  3
A5
350
4D
  3
A6
350
4E
  3
A7
350
4F
  3
A8
350
50
  3
A9
350
51
  3
B0
350
52
  3
B1
350
53
  3
B2
350
54
  3
B3
350
55
  3
B4
350
56
  3
B5
350
57
  3
B6
350
58
  3
B7
350
59
  3
B8
350
5A
  3
B9
350
5B
  3
C0
350
5C
  3
C1
350
5D
  3
C2
350
5E
  3
C3
350
5F
  3
C4
350
60
  3
C5
350
61
  3
C6
350
62
  3
C7
350
63
  3
C8
350
64
  3
C9
350
65
  3
D0
350
66
  3
D1
350
67
  3
D2
350
68
  0
LAYOUT
  5
1E
102
{ACAD_REACTORS
330
1A
102
}
330
1A
100
AcDbPlotSettings
  1

  2
none_device
  4

  6

 40
0.0
 41
0.0
 42
0.0
 43
0.0
 44
0.0
 45
0.0
 46
0.0
 47
0.0
 48
0.0
 49
0.0
140
0.0
141
0.0
142
1.0
143
1.0
 70
   688
 72
     1
 73
     0
 74
     5
  7

 75
    16
147
1.0
148
0.0
149
0.0
100
AcDbLayout
  1
Layout1
 70
     1
 71
     1
 10
0.0
 20
0.0
 11
420.0
 21
297.0
 12
0.0
 22
0.0
 32
0.0
 14
1.0000000000E+20
 24
1.0000000000E+20
 34
1.0000000000E+20
 15
-1.0000000000E+20
 25
-1.0000000000E+20
 35
-1.0000000000E+20
146
0.0
 13
0.0
 23
0.0
 33
0.0
 16
1.0
 26
0.0
 36
0.0
 17
0.0
 27
1.0
 37
0.0
 76
     0
330
1B
  0
LAYOUT
  5
26
102
{ACAD_REACTORS
330
1A
102
}
330
1A
100
AcDbPlotSettings
  1

  2
none_device
  4

  6

 40
0.0
 41
0.0
 42
0.0
 43
0.0
 44
0.0
 45
0.0
 46
0.0
 47
0.0
 48
0.0
 49
0.0
140
0.0
141
0.0
142
1.0
143
1.0
 70
   688
 72
     1
 73
     0
 74
     5
  7

 75
    16
147
1.0
148
0.0
149
0.0
100
AcDbLayout
  1
Layout2
 70
     1
 71
     2
 10
0.0
 20
0.0
 11
0.0
 21
0.0
 12
0.0
 22
0.0
 32
0.0
 14
0.0
 24
0.0
 34
0.0
 15
0.0
 25
0.0
 35
0.0
146
0.0
 13
0.0
 23
0.0
 33
0.0
 16
1.0
 26
0.0
 36
0.0
 17
0.0
 27
1.0
 37
0.0
 76
     0
330
23
  0
LAYOUT
  5
22
102
{ACAD_REACTORS
330
1A
102
}
330
1A
100
AcDbPlotSettings
  1

  2
none_device
  4
Letter_(8.50_x_11.00_Inches)
  6

 40
6.35
 41
6.35
 42
6.35000508
 43
6.35000508
 44
215.9
 45
279.4
 46
0.0
 47
0.0
 48
0.0
 49
0.0
140
0.0
141
0.0
142
1.0
143
1.0
 70
  1712
 72
     1
 73
     0
 74
     0
  7

 75
     0
147
1.0
148
0.0
149
0.0
100
AcDbLayout
  1
Model
 70
     1
 71
     0
 10
0.0
 20
0.0
 11
27.94
 21
21.59
 12
0.0
 22
0.0
 32
0.0
 14
0.0
 24
0.0
 34
0.0
 15
27.94
 25
21.59
 35
0.0
146
0.0
 13
0.0
 23
0.0
 33
0.0
 16
1.0
 26
0.0
 36
0.0
 17
0.0
 27
1.0
 37
0.0
 76
     0
330
1F
331
29
  0
MLINESTYLE
  5
18
102
{ACAD_REACTORS
330
17
102
}
330
17
100
AcDbMlineStyle
  2
Standard
 70
     0
  3

 62
   256
 51
90.0
 52
90.0
 71
     2
 49
0.5
 62
   256
  6
BYLAYER
 49
-0.5
 62
   256
  6
BYLAYER
  0
ACDBPLACEHOLDER
  5
F
102
{ACAD_REACTORS
330
E
102
}
330
E
  0
SCALE
  5
48
102
{ACAD_REACTORS
330
47
102
}
330
47
100
AcDbScale
 70
     0
300
1:1
140
1.0
141
1.0
290
     1
  0
SCALE
  5
49
102
{ACAD_REACTORS
330
47
102
}
330
47
100
AcDbScale
 70
     0
300
1:2
140
1.0
141
2.0
290
     0
  0
SCALE
  5
4A
102
{ACAD_REACTORS
330
47
102
}
330
47
100
AcDbScale
 70
     0
300
1:4
140
1.0
141
4.0
290
     0
  0
SCALE
  5
4B
102
{ACAD_REACTORS
330
47
102
}
330
47
100
AcDbScale
 70
     0
300
1:5
140
1.0
141
5.0
290
     0
  0
SCALE
  5
4C
102
{ACAD_REACTORS
330
47
102
}
330
47
100
AcDbScale
 70
     0
300
1:8
140
1.0
141
8.0
290
     0
  0
SCALE
  5
4D
102
{ACAD_REACTORS
330
47
102
}
330
47
100
AcDbScale
 70
     0
300
1:10
140
1.0
141
10.0
290
     0
  0
SCALE
  5
4E
102
{ACAD_REACTORS
330
47
102
}
330
47
100
AcDbScale
 70
     0
300
1:16
140
1.0
141
16.0
290
     0
  0
SCALE
  5
4F
102
{ACAD_REACTORS
330
47
102
}
330
47
100
AcDbScale
 70
     0
300
1:20
140
1.0
141
20.0
290
     0
  0
SCALE
  5
50
102
{ACAD_REACTORS
330
47
102
}
330
47
100
AcDbScale
 70
     0
300
1:30
140
1.0
141
30.0
290
     0
  0
SCALE
  5
51
102
{ACAD_REACTORS
330
47
102
}
330
47
100
AcDbScale
 70
     0
300
1:40
140
1.0
141
40.0
290
     0
  0
SCALE
  5
52
102
{ACAD_REACTORS
330
47
102
}
330
47
100
AcDbScale
 70
     0
300
1:50
140
1.0
141
50.0
290
     0
  0
SCALE
  5
53
102
{ACAD_REACTORS
330
47
102
}
330
47
100
AcDbScale
 70
     0
300
1:100
140
1.0
141
100.0
290
     0
  0
SCALE
  5
54
102
{ACAD_REACTORS
330
47
102
}
330
47
100
AcDbScale
 70
     0
300
2:1
140
2.0
141
1.0
290
     0
  0
SCALE
  5
55
102
{ACAD_REACTORS
330
47
102
}
330
47
100
AcDbScale
 70
     0
300
4:1
140
4.0
141
1.0
290
     0
  0
SCALE
  5
56
102
{ACAD_REACTORS
330
47
102
}
330
47
100
AcDbScale
 70
     0
300
8:1
140
8.0
141
1.0
290
     0
  0
SCALE
  5
57
102
{ACAD_REACTORS
330
47
102
}
330
47
100
AcDbScale
 70
     0
300
10:1
140
10.0
141
1.0
290
     0
  0
SCALE
  5
58
102
{ACAD_REACTORS
330
47
102
}
330
47
100
AcDbScale
 70
     0
300
100:1
140
100.0
141
1.0
290
     0
  0
SCALE
  5
59
102
{ACAD_REACTORS
330
47
102
}
330
47
100
AcDbScale
 70
     0
300
1/128" = 1'-0"
140
0.0078125
141
12.0
290
     0
  0
SCALE
  5
5A
102
{ACAD_REACTORS
330
47
102
}
330
47
100
AcDbScale
 70
     0
300
1/64" = 1'-0"
140
0.015625
141
12.0
290
     0
  0
SCALE
  5
5B
102
{ACAD_REACTORS
330
47
102
}
330
47
100
AcDbScale
 70
     0
300
1/32" = 1'-0"
140
0.03125
141
12.0
290
     0
  0
SCALE
  5
5C
102
{ACAD_REACTORS
330
47
102
}
330
47
100
AcDbScale
 70
     0
300
1/16" = 1'-0"
140
0.0625
141
12.0
290
     0
  0
SCALE
  5
5D
102
{ACAD_REACTORS
330
47
102
}
330
47
100
AcDbScale
 70
     0
300
3/32" = 1'-0"
140
0.09375
141
12.0
290
     0
  0
SCALE
  5
5E
102
{ACAD_REACTORS
330
47
102
}
330
47
100
AcDbScale
 70
     0
300
1/8" = 1'-0"
140
0.125
141
12.0
290
     0
  0
SCALE
  5
5F
102
{ACAD_REACTORS
330
47
102
}
330
47
100
AcDbScale
 70
     0
300
3/16" = 1'-0"
140
0.1875
141
12.0
290
     0
  0
SCALE
  5
60
102
{ACAD_REACTORS
330
47
102
}
330
47
100
AcDbScale
 70
     0
300
1/4" = 1'-0"
140
0.25
141
12.0
290
     0
  0
SCALE
  5
61
102
{ACAD_REACTORS
330
47
102
}
330
47
100
AcDbScale
 70
     0
300
3/8" = 1'-0"
140
0.375
141
12.0
290
     0
  0
SCALE
  5
62
102
{ACAD_REACTORS
330
47
102
}
330
47
100
AcDbScale
 70
     0
300
1/2" = 1'-0"
140
0.5
141
12.0
290
     0
  0
SCALE
  5
63
102
{ACAD_REACTORS
330
47
102
}
330
47
100
AcDbScale
 70
     0
300
3/4" = 1'-0"
140
0.75
141
12.0
290
     0
  0
SCALE
  5
64
102
{ACAD_REACTORS
330
47
102
}
330
47
100
AcDbScale
 70
     0
300
1" = 1'-0"
140
1.0
141
12.0
290
     0
  0
SCALE
  5
65
102
{ACAD_REACTORS
330
47
102
}
330
47
100
AcDbScale
 70
     0
300
1-1/2" = 1'-0"
140
1.5
141
12.0
290
     0
  0
SCALE
  5
66
102
{ACAD_REACTORS
330
47
102
}
330
47
100
AcDbScale
 70
     0
300
3" = 1'-0"
140
3.0
141
12.0
290
     0
  0
SCALE
  5
67
102
{ACAD_REACTORS
330
47
102
}
330
47
100
AcDbScale
 70
     0
300
6" = 1'-0"
140
6.0
141
12.0
290
     0
  0
SCALE
  5
68
102
{ACAD_REACTORS
330
47
102
}
330
47
100
AcDbScale
 70
     0
300
1'-0" = 1'-0"
140
12.0
141
12.0
290
     0
  0
ENDSEC
  0
EOF
