  0
SECTION
  2
HEADER
  9
$ACADVER
  1
AC1015
  9
$ACADMAINTVER
 70
     6
  9
$DWGCODEPAGE
  3
ANSI_1252
  9
$INSBASE
 10
0.0
 20
0.0
 30
0.0
  9
$EXTMIN
 10
0.0
 20
0.0
 30
0.0
  9
$EXTMAX
 10
279.4
 20
215.9
 30
0.0
  9
$LIMMIN
 10
0.0
 20
0.0
  9
$LIMMAX
 10
279.4
 20
215.9
  9
$ORTHOMODE
 70
     0
  9
$REGENMODE
 70
     1
  9
$FILLMODE
 70
     1
  9
$QTEXTMODE
 70
     0
  9
$MIRRTEXT
 70
     1
  9
$LTSCALE
 40
1.0
  9
$ATTMODE
 70
     1
  9
$TEXTSIZE
 40
2.8222222222
  9
$TRACEWID
 40
1.0
  9
$TEXTSTYLE
  7
Standard
  9
$CLAYER
  8
0
  9
$CELTYPE
  6
ByLayer
  9
$CECOLOR
 62
   256
  9
$CELTSCALE
 40
1.0
  9
$DISPSILH
 70
     0
  9
$DIMSCALE
 40
1.0
  9
$DIMASZ
 40
3.175
  9
$DIMEXO
 40
1.27
  9
$DIMDLI
 40
3.75
  9
$DIMRND
 40
0.0
  9
$DIMDLE
 40
0.0
  9
$DIMEXE
 40
1.778
  9
$DIMTP
 40
0.0
  9
$DIMTM
 40
0.0
  9
$DIMTXT
 40
2.8222222222
  9
$DIMCEN
 40
2.5
  9
$DIMTSZ
 40
0.0
  9
$DIMTOL
 70
     0
  9
$DIMLIM
 70
     0
  9
$DIMTIH
 70
     1
  9
$DIMTOH
 70
     1
  9
$DIMSE1
 70
     0
  9
$DIMSE2
 70
     0
  9
$DIMTAD
 70
     0
  9
$DIMZIN
 70
     1
  9
$DIMBLK
  1

  9
$DIMASO
 70
     1
  9
$DIMSHO
 70
     1
  9
$DIMPOST
  1

  9
$DIMAPOST
  1

  9
$DIMALT
 70
     0
  9
$DIMALTD
 70
     3
  9
$DIMALTF
 40
0.0393700787
  9
$DIMLFAC
 40
1.0
  9
$DIMTOFL
 70
     1
  9
$DIMTVP
 40
0.0
  9
$DIMTIX
 70
     0
  9
$DIMSOXD
 70
     0
  9
$DIMSAH
 70
     0
  9
$DIMBLK1
  1

  9
$DIMBLK2
  1

  9
$DIMSTYLE
  2
ISO-25
  9
$DIMCLRD
 70
     0
  9
$DIMCLRE
 70
     0
  9
$DIMCLRT
 70
     0
  9
$DIMTFAC
 40
1.0
  9
$DIMGAP
 40
2.54
  9
$DIMJUST
 70
     0
  9
$DIMSD1
 70
     0
  9
$DIMSD2
 70
     0
  9
$DIMTOLJ
 70
     0
  9
$DIMTZIN
 70
     1
  9
$DIMALTZ
 70
     0
  9
$DIMALTTZ
 70
     0
  9
$DIMUPT
 70
     0
  9
$DIMDEC
 70
     1
  9
$DIMTDEC
 70
     1
  9
$DIMALTU
 70
     2
  9
$DIMALTTD
 70
     3
  9
$DIMTXSTY
  7
Standard
  9
$DIMAUNIT
 70
     0
  9
$DIMADEC
 70
     0
  9
$DIMALTRND
 40
0.0
  9
$DIMAZIN
 70
     0
  9
$DIMDSEP
 70
    44
  9
$DIMATFIT
 70
     3
  9
$DIMFRAC
 70
     0
  9
$DIMLDRBLK
  1

  9
$DIMLUNIT
 70
     2
  9
$DIMLWD
 70
    -2
  9
$DIMLWE
 70
    -2
  9
$DIMTMOVE
 70
     0
  9
$LUNITS
 70
     2
  9
$LUPREC
 70
     1
  9
$SKETCHINC
 40
1.0
  9
$FILLETRAD
 40
10.0
  9
$AUNITS
 70
     0
  9
$AUPREC
 70
     0
  9
$MENU
  1
.
  9
$ELEVATION
 40
0.0
  9
$PELEVATION
 40
0.0
  9
$THICKNESS
 40
0.0
  9
$LIMCHECK
 70
     0
  9
$CHAMFERA
 40
0.0
  9
$CHAMFERB
 40
0.0
  9
$CHAMFERC
 40
0.0
  9
$CHAMFERD
 40
0.0
  9
$SKPOLY
 70
     0
  9
$TDCREATE
 40
2458470.651660093
  9
$TDUCREATE
 40
2458470.859993426
  9
$TDUPDATE
 40
2458470.65166868
  9
$TDUUPDATE
 40
2458470.860002014
  9
$TDINDWG
 40
0.0000000116
  9
$TDUSRTIMER
 40
0.0000000116
  9
$USRTIMER
 70
     1
  9
$ANGBASE
 50
0.0
  9
$ANGDIR
 70
     0
  9
$PDMODE
 70
     0
  9
$PDSIZE
 40
-1.0
  9
$PLINEWID
 40
0.0
  9
$SPLFRAME
 70
     0
  9
$SPLINETYPE
 70
     6
  9
$SPLINESEGS
 70
     8
  9
$HANDSEED
  5
276
  9
$SURFTAB1
 70
     6
  9
$SURFTAB2
 70
     6
  9
$SURFTYPE
 70
     6
  9
$SURFU
 70
     6
  9
$SURFV
 70
     6
  9
$UCSBASE
  2

  9
$UCSNAME
  2

  9
$UCSORG
 10
0.0
 20
0.0
 30
0.0
  9
$UCSXDIR
 10
1.0
 20
0.0
 30
0.0
  9
$UCSYDIR
 10
0.0
 20
1.0
 30
0.0
  9
$UCSORTHOREF
  2

  9
$UCSORTHOVIEW
 70
     0
  9
$UCSORGTOP
 10
0.0
 20
0.0
 30
0.0
  9
$UCSORGBOTTOM
 10
0.0
 20
0.0
 30
0.0
  9
$UCSORGLEFT
 10
0.0
 20
0.0
 30
0.0
  9
$UCSORGRIGHT
 10
0.0
 20
0.0
 30
0.0
  9
$UCSORGFRONT
 10
0.0
 20
0.0
 30
0.0
  9
$UCSORGBACK
 10
0.0
 20
0.0
 30
0.0
  9
$PUCSBASE
  2

  9
$PUCSNAME
  2

  9
$PUCSORG
 10
0.0
 20
0.0
 30
0.0
  9
$PUCSXDIR
 10
1.0
 20
0.0
 30
0.0
  9
$PUCSYDIR
 10
0.0
 20
1.0
 30
0.0
  9
$PUCSORTHOREF
  2

  9
$PUCSORTHOVIEW
 70
     0
  9
$PUCSORGTOP
 10
0.0
 20
0.0
 30
0.0
  9
$PUCSORGBOTTOM
 10
0.0
 20
0.0
 30
0.0
  9
$PUCSORGLEFT
 10
0.0
 20
0.0
 30
0.0
  9
$PUCSORGRIGHT
 10
0.0
 20
0.0
 30
0.0
  9
$PUCSORGFRONT
 10
0.0
 20
0.0
 30
0.0
  9
$PUCSORGBACK
 10
0.0
 20
0.0
 30
0.0
  9
$USERI1
 70
     0
  9
$USERI2
 70
     0
  9
$USERI3
 70
     0
  9
$USERI4
 70
     0
  9
$USERI5
 70
     0
  9
$USERR1
 40
0.0
  9
$USERR2
 40
0.0
  9
$USERR3
 40
0.0
  9
$USERR4
 40
0.0
  9
$USERR5
 40
0.0
  9
$WORLDVIEW
 70
     1
  9
$SHADEDGE
 70
     3
  9
$SHADEDIF
 70
    70
  9
$TILEMODE
 70
     1
  9
$MAXACTVP
 70
    64
  9
$PINSBASE
 10
0.0
 20
0.0
 30
0.0
  9
$PLIMCHECK
 70
     0
  9
$PEXTMIN
 10
1.0000000000E+20
 20
1.0000000000E+20
 30
1.0000000000E+20
  9
$PEXTMAX
 10
-1.0000000000E+20
 20
-1.0000000000E+20
 30
-1.0000000000E+20
  9
$PLIMMIN
 10
0.0
 20
0.0
  9
$PLIMMAX
 10
420.0
 20
297.0
  9
$UNITMODE
 70
     0
  9
$VISRETAIN
 70
     1
  9
$PLINEGEN
 70
     0
  9
$PSLTSCALE
 70
     1
  9
$TREEDEPTH
 70
  3020
  9
$CMLSTYLE
  2
Standard
  9
$CMLJUST
 70
     0
  9
$CMLSCALE
 40
20.0
  9
$PROXYGRAPHICS
 70
     1
  9
$MEASUREMENT
 70
     1
  9
$CELWEIGHT
370
    -1
  9
$ENDCAPS
280
     0
  9
$JOINSTYLE
280
     0
  9
$LWDISPLAY
290
     1
  9
$INSUNITS
 70
     4
  9
$HYPERLINKBASE
  1

  9
$STYLESHEET
  1

  9
$XEDIT
290
     1
  9
$CEPSNTYPE
380
     0
  9
$PSTYLEMODE
290
     1
  9
$FINGERPRINTGUID
  2
{15859722-931F-4A47-B28A-17DAD8B0B311}
  9
$VERSIONGUID
  2
{FAEB1C32-E019-11D5-929B-00C0DF256EC4}
  9
$EXTNAMES
290
     1
  9
$PSVPSCALE
 40
0.0
  9
$OLESTARTUP
290
     0
  0
ENDSEC
  0
SECTION
  2
CLASSES
  0
CLASS
  1
ACDBDICTIONARYWDFLT
  2
AcDbDictionaryWithDefault
  3
ObjectDBX Classes
 90
        0
280
     0
281
     0
  0
CLASS
  1
VISUALSTYLE
  2
AcDbVisualStyle
  3
ObjectDBX Classes
 90
     4095
280
     0
281
     0
  0
CLASS
  1
MATERIAL
  2
AcDbMaterial
  3
ObjectDBX Classes
 90
     1153
280
     0
281
     0
  0
CLASS
  1
SCALE
  2
AcDbScale
  3
ObjectDBX Classes
 90
     1153
280
     0
281
     0
  0
CLASS
  1
TABLESTYLE
  2
AcDbTableStyle
  3
ObjectDBX Classes
 90
     4095
280
     0
281
     0
  0
CLASS
  1
MLEADERSTYLE
  2
AcDbMLeaderStyle
  3
ACDB_MLEADERSTYLE_CLASS
 90
     4095
280
     0
281
     0
  0
CLASS
  1
SUN
  2
AcDbSun
  3
SCENEOE
 90
     1153
280
     0
281
     0
  0
CLASS
  1
ACDBPLACEHOLDER
  2
AcDbPlaceHolder
  3
ObjectDBX Classes
 90
        0
280
     0
281
     0
  0
CLASS
  1
LAYOUT
  2
AcDbLayout
  3
ObjectDBX Classes
 90
        0
280
     0
281
     0
  0
ENDSEC
  0
SECTION
  2
TABLES
  0
TABLE
  2
VPORT
  5
8
330
0
100
AcDbSymbolTable
 70
     1
  0
VPORT
  5
29
330
8
100
AcDbSymbolTableRecord
100
AcDbViewportTableRecord
  2
*Active
 70
     0
 10
0.0
 20
0.0
 11
1.0
 21
1.0
 12
139.7
 22
107.95
 13
0.0
 23
0.0
 14
10.0
 24
10.0
 15
10.0
 25
10.0
 16
0.0
 26
0.0
 36
1.0
 17
0.0
 27
0.0
 37
0.0
 40
215.9
 41
1.2941176471
 42
50.0
 43
0.0
 44
0.0
 50
0.0
 51
0.0
 71
     0
 72
  2000
 73
     1
 74
     3
 75
     0
 76
     0
 77
     0
 78
     0
281
     0
 65
     1
110
0.0
120
0.0
130
0.0
111
1.0
121
0.0
131
0.0
112
0.0
122
1.0
132
0.0
 79
     0
146
0.0
  0
ENDTAB
  0
TABLE
  2
LTYPE
  5
5
330
0
100
AcDbSymbolTable
 70
     6
  0
LTYPE
  5
14
330
5
100
AcDbSymbolTableRecord
100
AcDbLinetypeTableRecord
  2
ByBlock
 70
     0
  3

 72
    65
 73
     0
 40
0.0
  0
LTYPE
  5
15
330
5
100
AcDbSymbolTableRecord
100
AcDbLinetypeTableRecord
  2
ByLayer
 70
     0
  3

 72
    65
 73
     0
 40
0.0
  0
LTYPE
  5
16
330
5
100
AcDbSymbolTableRecord
100
AcDbLinetypeTableRecord
  2
Continuous
 70
     0
  3
Solid line
 72
    65
 73
     0
 40
0.0
  0
LTYPE
  5
6E
330
5
100
AcDbSymbolTableRecord
100
AcDbLinetypeTableRecord
  2
HIDDEN
 70
     0
  3
Hidden __ __ __ __ __ __ __ __ __ __ __ __ __ __
 72
    65
 73
     2
 40
1.905
 49
1.27
 74
     0
 49
-0.635
 74
     0
  0
LTYPE
  5
6F
330
5
100
AcDbSymbolTableRecord
100
AcDbLinetypeTableRecord
  2
PHANTOM
 70
     0
  3
Phantom ______  __  __  ______  __  __  ______
 72
    65
 73
     6
 40
12.7
 49
6.35
 74
     0
 49
-1.27
 74
     0
 49
1.27
 74
     0
 49
-1.27
 74
     0
 49
1.27
 74
     0
 49
-1.27
 74
     0
  0
LTYPE
  5
70
330
5
100
AcDbSymbolTableRecord
100
AcDbLinetypeTableRecord
  2
CENTER
 70
     0
  3
Center ____ _ ____ _ ____ _ ____ _ ____ _ ____
 72
    65
 73
     4
 40
10.16
 49
6.35
 74
     0
 49
-1.27
 74
     0
 49
1.27
 74
     0
 49
-1.27
 74
     0
  0
LTYPE
  5
71
330
5
100
AcDbSymbolTableRecord
100
AcDbLinetypeTableRecord
  2
CENTERX2
 70
     0
  3
Center (2x) ________  __  ________  __  _____
 72
    65
 73
     4
 40
20.32
 49
12.7
 74
     0
 49
-2.54
 74
     0
 49
2.54
 74
     0
 49
-2.54
 74
     0
  0
LTYPE
  5
72
330
5
100
AcDbSymbolTableRecord
100
AcDbLinetypeTableRecord
  2
DOT2
 70
     0
  3
Dot (.5x) ........................................
 72
    65
 73
     2
 40
0.635
 49
0.0
 74
     0
 49
-0.635
 74
     0
  0
ENDTAB
  0
TABLE
  2
LAYER
  5
2
330
0
100
AcDbSymbolTable
 70
     2
  0
LAYER
  5
10
330
2
100
AcDbSymbolTableRecord
100
AcDbLayerTableRecord
  2
0
 70
     0
 62
     7
  6
Continuous
370
    -3
390
F
  0
LAYER
  5
73
330
2
100
AcDbSymbolTableRecord
100
AcDbLayerTableRecord
  2
FORMAT
 70
     0
 62
     7
  6
Continuous
370
    -3
390
F
  0
ENDTAB
  0
TABLE
  2
STYLE
  5
3
330
0
100
AcDbSymbolTable
 70
     5
  0
STYLE
  5
11
330
3
100
AcDbSymbolTableRecord
100
AcDbTextStyleTableRecord
  2
Standard
 70
     0
 40
0.0
 41
1.0
 50
0.0
 71
     0
 42
2.8222222222
  3
txt
  4

  0
STYLE
  5
9D
330
3
100
AcDbSymbolTableRecord
100
AcDbTextStyleTableRecord
  2
SLDTEXTSTYLE0
 70
     0
 40
0.0
 41
0.75
 50
0.0
 71
     0
 42
2.8222222222
  3
TXT
  4

  0
STYLE
  5
A3
330
3
100
AcDbSymbolTableRecord
100
AcDbTextStyleTableRecord
  2
SLDTEXTSTYLE1
 70
     0
 40
0.0
 41
0.75
 50
0.0
 71
     0
 42
2.8222222222
  3
TXT
  4
bigfont
  0
STYLE
  5
B7
330
3
100
AcDbSymbolTableRecord
100
AcDbTextStyleTableRecord
  2
SLDTEXTSTYLE2
 70
     0
 40
0.0
 41
0.7
 50
0.0
 71
     0
 42
2.8222222222
  3
TXT
  4

  0
STYLE
  5
C6
330
3
100
AcDbSymbolTableRecord
100
AcDbTextStyleTableRecord
  2
SLDTEXTSTYLE3
 70
     0
 40
0.0
 41
0.6
 50
0.0
 71
     0
 42
2.8222222222
  3
TXT
  4

  0
ENDTAB
  0
TABLE
  2
VIEW
  5
6
330
0
100
AcDbSymbolTable
 70
     0
  0
ENDTAB
  0
TABLE
  2
UCS
  5
7
330
0
100
AcDbSymbolTable
 70
     0
  0
ENDTAB
  0
TABLE
  2
APPID
  5
9
330
0
100
AcDbSymbolTable
 70
     1
  0
APPID
  5
12
330
9
100
AcDbSymbolTableRecord
100
AcDbRegAppTableRecord
  2
ACAD
 70
     0
  0
ENDTAB
  0
TABLE
  2
DIMSTYLE
  5
A
330
0
100
AcDbSymbolTable
 70
     6
100
AcDbDimStyleTable
  0
DIMSTYLE
105
27
330
A
100
AcDbSymbolTableRecord
100
AcDbDimStyleTableRecord
  2
ISO-25
 70
     0
 41
2.5
 42
0.625
 43
3.75
 44
1.25
 73
     0
 74
     0
 77
     1
 78
     8
140
2.5
141
2.5
143
0.0393700787
147
0.625
171
     3
172
     1
178
     0
271
     2
272
     2
274
     3
278
    44
283
     0
284
     8
340
11
  0
DIMSTYLE
105
F5
102
{ACAD_REACTORS
330
F4
102
}
330
A
100
AcDbSymbolTableRecord
100
AcDbDimStyleTableRecord
  2
SLDDIMSTYLE0
 70
     0
 41
3.175
 44
0.0
 45
0.000000001
 78
    12
 79
     3
140
2.1166666667
141
0.0
143
0.0393700787
147
0.5291666667
148
0.000000001
170
     1
173
     1
178
     0
271
     1
272
     1
276
     2
284
    12
340
9D
  0
DIMSTYLE
105
11C
102
{ACAD_REACTORS
330
11B
102
}
330
A
100
AcDbSymbolTableRecord
100
AcDbDimStyleTableRecord
  2
SLDDIMSTYLE1
 70
     0
 41
3.175
 44
0.0
 45
0.000000001
 78
    12
 79
     3
140
2.1166666667
143
0.0393700787
147
0.5291666667
148
0.000000001
170
     1
172
     1
173
     1
178
     0
271
     1
272
     1
276
     2
284
    12
289
     0
340
9D
  0
DIMSTYLE
105
130
102
{ACAD_REACTORS
330
12F
102
}
330
A
100
AcDbSymbolTableRecord
100
AcDbDimStyleTableRecord
  2
SLDDIMSTYLE2
 70
     0
 41
3.175
 44
0.0
 45
0.000000001
 78
     4
 79
     1
140
2.1166666667
141
0.0
143
0.0393700787
147
0.5291666667
148
0.000000001
170
     1
173
     1
178
     0
271
     1
272
     1
276
     2
284
    12
340
9D
  0
DIMSTYLE
105
141
102
{ACAD_REACTORS
330
140
102
}
330
A
100
AcDbSymbolTableRecord
100
AcDbDimStyleTableRecord
  2
SLDDIMSTYLE3
 70
     0
 41
3.175
 44
0.0
 45
0.000000001
 78
     4
 79
     1
140
2.1166666667
143
0.0393700787
147
0.5291666667
148
0.000000001
170
     1
172
     1
173
     1
178
     0
271
     1
272
     1
276
     2
284
    12
289
     0
340
9D
  0
DIMSTYLE
105
157
330
A
100
AcDbSymbolTableRecord
100
AcDbDimStyleTableRecord
  2
SLDDIMSTYLE4
 70
     0
 41
3.175
 44
0.0
 45
0.000000001
146
3.175
147
0.0
173
     1
178
     0
271
     0
272
     0
276
     2
340
11
  0
ENDTAB
  0
TABLE
  2
BLOCK_RECORD
  5
1
330
0
100
AcDbSymbolTable
 70
    11
  0
BLOCK_RECORD
  5
1F
330
1
100
AcDbSymbolTableRecord
100
AcDbBlockTableRecord
  2
*Model_Space
340
22
  0
BLOCK_RECORD
  5
1B
330
1
100
AcDbSymbolTableRecord
100
AcDbBlockTableRecord
  2
*Paper_Space
340
1E
  0
BLOCK_RECORD
  5
23
330
1
100
AcDbSymbolTableRecord
100
AcDbBlockTableRecord
  2
*Paper_Space0
340
26
  0
BLOCK_RECORD
  5
74
330
1
100
AcDbSymbolTableRecord
100
AcDbBlockTableRecord
  2
Third Angle Projection Block
340
0
102
{BLKREFS
331
99
102
}
  0
BLOCK_RECORD
  5
9A
330
1
100
AcDbSymbolTableRecord
100
AcDbBlockTableRecord
  2
SW_NOTE_0
340
0
102
{BLKREFS
331
BA
102
}
  0
BLOCK_RECORD
  5
CC
330
1
100
AcDbSymbolTableRecord
100
AcDbBlockTableRecord
  2
SW_NOTE_1
340
0
102
{BLKREFS
331
D1
102
}
  0
BLOCK_RECORD
  5
D2
330
1
100
AcDbSymbolTableRecord
100
AcDbBlockTableRecord
  2
SW_NOTE_2
340
0
102
{BLKREFS
331
D7
102
}
  0
BLOCK_RECORD
  5
D9
330
1
100
AcDbSymbolTableRecord
100
AcDbBlockTableRecord
  2
SW_NOTE_3
340
0
102
{BLKREFS
331
DE
102
}
  0
BLOCK_RECORD
  5
DF
330
1
100
AcDbSymbolTableRecord
100
AcDbBlockTableRecord
  2
SW_NOTE_4
340
0
102
{BLKREFS
331
E5
102
}
  0
BLOCK_RECORD
  5
F6
330
1
100
AcDbSymbolTableRecord
100
AcDbBlockTableRecord
  2
_D
340
0
  0
BLOCK_RECORD
  5
11D
330
1
100
AcDbSymbolTableRecord
100
AcDbBlockTableRecord
  2
_D_1
340
0
  0
BLOCK_RECORD
  5
131
330
1
100
AcDbSymbolTableRecord
100
AcDbBlockTableRecord
  2
_D_2
340
0
  0
BLOCK_RECORD
  5
142
330
1
100
AcDbSymbolTableRecord
100
AcDbBlockTableRecord
  2
_D_3
340
0
  0
ENDTAB
  0
ENDSEC
  0
SECTION
  2
BLOCKS
  0
BLOCK
  5
20
330
1F
100
AcDbEntity
  8
0
100
AcDbBlockBegin
  2
*Model_Space
 70
     0
 10
0.0
 20
0.0
 30
0.0
  3
*Model_Space
  1

  0
ENDBLK
  5
21
330
1F
100
AcDbEntity
  8
0
100
AcDbBlockEnd
  0
BLOCK
  5
1C
330
1B
100
AcDbEntity
 67
     1
  8
0
100
AcDbBlockBegin
  2
*Paper_Space
 70
     0
 10
0.0
 20
0.0
 30
0.0
  3
*Paper_Space
  1

  0
ENDBLK
  5
1D
330
1B
100
AcDbEntity
 67
     1
  8
0
100
AcDbBlockEnd
  0
BLOCK
  5
24
330
23
100
AcDbEntity
  8
0
100
AcDbBlockBegin
  2
*Paper_Space0
 70
     0
 10
0.0
 20
0.0
 30
0.0
  3
*Paper_Space0
  1

  0
ENDBLK
  5
25
330
23
100
AcDbEntity
  8
0
100
AcDbBlockEnd
  0
BLOCK
  5
75
330
74
100
AcDbEntity
  8
0
100
AcDbBlockBegin
  2
Third Angle Projection Block
 70
     0
 10
0.0
 20
0.0
 30
0.0
  3
Third Angle Projection Block
  1

  0
CIRCLE
  5
77
330
74
100
AcDbEntity
  8
0
  6
Continuous
 62
     7
370
    35
100
AcDbCircle
 10
101.4766388944
 20
18.9404083667
 30
0.0
 40
1.768227153674871
  0
CIRCLE
  5
78
330
74
100
AcDbEntity
  8
0
  6
Continuous
 62
     7
370
    35
100
AcDbCircle
 10
101.4766388944
 20
18.9404083667
 30
0.0
 40
3.901228248531818
  0
LINE
  5
79
330
74
100
AcDbEntity
  8
0
  6
CENTERX2
 62
     7
370
    18
100
AcDbLine
 10
110.1367822585
 20
18.9404083667
 30
0.0
 11
119.4527334874
 21
18.9404083667
 31
0.0
  0
LINE
  5
7A
330
74
100
AcDbEntity
  8
0
  6
Continuous
 62
     7
370
    35
100
AcDbLine
 10
111.0016388944
 20
20.7086355204
 30
0.0
 11
111.0016388944
 21
17.172181213
 31
0.0
  0
LINE
  5
7B
330
74
100
AcDbEntity
  8
0
  6
Continuous
 62
     7
370
    35
100
AcDbLine
 10
111.0016388944
 20
17.172181213
 30
0.0
 11
118.6216388944
 21
15.1304083667
 31
0.0
  0
LINE
  5
7C
330
74
100
AcDbEntity
  8
0
  6
Continuous
 62
     7
370
    35
100
AcDbLine
 10
118.6216388944
 20
15.1304083667
 30
0.0
 11
118.6216388944
 21
22.7504083667
 31
0.0
  0
LINE
  5
7D
330
74
100
AcDbEntity
  8
0
  6
Continuous
 62
     7
370
    35
100
AcDbLine
 10
118.6216388944
 20
22.7504083667
 30
0.0
 11
111.0016388944
 21
20.7086355204
 31
0.0
  0
LINE
  5
7E
330
74
100
AcDbEntity
  8
0
  6
CENTERX2
 62
     7
370
    18
100
AcDbLine
 10
96.6025854619
 20
18.9404083667
 30
0.0
 11
106.3506923269
 21
18.9404083667
 31
0.0
  0
LINE
  5
7F
330
74
100
AcDbEntity
  8
0
  6
CENTERX2
 62
     7
370
    18
100
AcDbLine
 10
101.4766388944
 20
23.8144617992
 30
0.0
 11
101.4766388944
 21
14.0663549342
 31
0.0
  0
POINT
  5
80
330
74
100
AcDbEntity
  8
0
  6
Continuous
 62
     7
370
     0
100
AcDbPoint
 10
101.4766388944
 20
18.9404083667
 30
0.0
  0
ENDBLK
  5
76
330
74
100
AcDbEntity
  8
0
100
AcDbBlockEnd
  0
BLOCK
  5
9B
330
9A
100
AcDbEntity
  8
0
100
AcDbBlockBegin
  2
SW_NOTE_0
 70
     0
 10
0.0
 20
0.0
 30
0.0
  3
SW_NOTE_0
  1

  0
MTEXT
  5
9E
330
9A
100
AcDbEntity
  8
0
  6
Continuous
 62
     0
370
     0
100
AcDbMText
 10
0.0
 20
3.4106583948
 30
0.0
 40
2.6458333333
 41
0.0
 71
     1
 72
     1
  1
NOTES/SPECIFICATIONS:
  7
SLDTEXTSTYLE0
 73
     1
 44
1.0
  0
MTEXT
  5
9F
330
9A
100
AcDbEntity
  8
0
  6
Continuous
 62
     0
370
     0
100
AcDbMText
 10
9.9999997765
 20
-5.6448974033
 30
0.0
 40
2.6458333333
 41
0.0
 71
     1
 72
     1
  1
CLEAR APERTURE: >
  7
SLDTEXTSTYLE0
 73
     1
 44
1.0
  0
MTEXT
  5
A0
330
9A
100
AcDbEntity
  8
0
  6
Continuous
 62
     0
370
     0
100
AcDbMText
 10
42.7789334208
 20
-5.6448974033
 30
0.0
 40
2.6458333333
 41
0.0
 71
     1
 72
     1
  1
%%c
  7
SLDTEXTSTYLE0
 73
     1
 44
1.0
  0
MTEXT
  5
A1
330
9A
100
AcDbEntity
  8
0
  6
Continuous
 62
     0
370
     0
100
AcDbMText
 10
46.7726718634
 20
-5.6448974033
 30
0.0
 40
2.6458333333
 41
0.0
 71
     1
 72
     1
  1
45.72mm
  7
SLDTEXTSTYLE0
 73
     1
 44
1.0
  0
MTEXT
  5
A2
330
9A
100
AcDbEntity
  8
0
  6
Continuous
 62
     0
370
     0
100
AcDbMText
 10
0.0
 20
-5.6448974033
 30
0.0
 40
2.6458333333
 41
0.0
 71
     1
 72
     1
  1
1.
  7
SLDTEXTSTYLE0
 73
     1
 44
1.0
  0
MTEXT
  5
A4
330
9A
100
AcDbEntity
  8
0
  6
Continuous
 62
     0
370
     0
100
AcDbMText
 10
9.9999997765
 20
-10.1726753024
 30
0.0
 40
2.6458333333
 41
0.0
 71
     1
 72
     1
  1
SURFACE IRREGULARITY (S1): \U+2264\M+183C9/4 AT 633nm OVER CLEAR APERTURE
  7
SLDTEXTSTYLE1
 73
     1
 44
1.0
  0
MTEXT
  5
A5
330
9A
100
AcDbEntity
  8
0
  6
Continuous
 62
     0
370
     0
100
AcDbMText
 10
0.0
 20
-10.1726753024
 30
0.0
 40
2.6458333333
 41
0.0
 71
     1
 72
     1
  1
2.
  7
SLDTEXTSTYLE0
 73
     1
 44
1.0
  0
MTEXT
  5
A6
330
9A
100
AcDbEntity
  8
0
  6
Continuous
 62
     0
370
     0
100
AcDbMText
 10
9.9999997765
 20
-14.7004532014
 30
0.0
 40
2.6458333333
 41
0.0
 71
     1
 72
     1
  1
BACK SURFACE (S2): UNIFORM FINE GRIND #12-#20 GRIT
  7
SLDTEXTSTYLE0
 73
     1
 44
1.0
  0
MTEXT
  5
A7
330
9A
100
AcDbEntity
  8
0
  6
Continuous
 62
     0
370
     0
100
AcDbMText
 10
0.0
 20
-14.7004532014
 30
0.0
 40
2.6458333333
 41
0.0
 71
     1
 72
     1
  1
3.
  7
SLDTEXTSTYLE0
 73
     1
 44
1.0
  0
MTEXT
  5
A8
330
9A
100
AcDbEntity
  8
0
  6
Continuous
 62
     0
370
     0
100
AcDbMText
 10
9.9999997765
 20
-19.2282311005
 30
0.0
 40
2.6458333333
 41
0.0
 71
     1
 72
     1
  1
SURFACE QUALITY(S1): 20-10 SCRATCH-DIG
  7
SLDTEXTSTYLE0
 73
     1
 44
1.0
  0
MTEXT
  5
A9
330
9A
100
AcDbEntity
  8
0
  6
Continuous
 62
     0
370
     0
100
AcDbMText
 10
0.0
 20
-19.2282311005
 30
0.0
 40
2.6458333333
 41
0.0
 71
     1
 72
     1
  1
4.
  7
SLDTEXTSTYLE0
 73
     1
 44
1.0
  0
MTEXT
  5
AA
330
9A
100
AcDbEntity
  8
0
  6
Continuous
 62
     0
370
     0
100
AcDbMText
 10
9.9999997765
 20
-23.7560089995
 30
0.0
 40
2.6458333333
 41
0.0
 71
     1
 72
     1
  1
THICKNESS TOLERANCE:
  7
SLDTEXTSTYLE0
 73
     1
 44
1.0
  0
MTEXT
  5
AB
330
9A
100
AcDbEntity
  8
0
  6
Continuous
 62
     0
370
     0
100
AcDbMText
 10
50.8242268115
 20
-23.7560089995
 30
0.0
 40
2.6458333333
 41
0.0
 71
     1
 72
     1
  1
%%p
  7
SLDTEXTSTYLE0
 73
     1
 44
1.0
  0
MTEXT
  5
AC
330
9A
100
AcDbEntity
  8
0
  6
Continuous
 62
     0
370
     0
100
AcDbMText
 10
53.3465910703
 20
-23.7560089995
 30
0.0
 40
2.6458333333
 41
0.0
 71
     1
 72
     1
  1
0.1 mm
  7
SLDTEXTSTYLE0
 73
     1
 44
1.0
  0
MTEXT
  5
AD
330
9A
100
AcDbEntity
  8
0
  6
Continuous
 62
     0
370
     0
100
AcDbMText
 10
0.0
 20
-23.7560089995
 30
0.0
 40
2.6458333333
 41
0.0
 71
     1
 72
     1
  1
5.
  7
SLDTEXTSTYLE0
 73
     1
 44
1.0
  0
MTEXT
  5
AE
330
9A
100
AcDbEntity
  8
0
  6
Continuous
 62
     0
370
     0
100
AcDbMText
 10
9.9999997765
 20
-28.2837868986
 30
0.0
 40
2.6458333333
 41
0.0
 71
     1
 72
     1
  1
DIAMETER TOLERANCE: +0.0/-0.2 mm
  7
SLDTEXTSTYLE0
 73
     1
 44
1.0
  0
MTEXT
  5
AF
330
9A
100
AcDbEntity
  8
0
  6
Continuous
 62
     0
370
     0
100
AcDbMText
 10
0.0
 20
-28.2837868986
 30
0.0
 40
2.6458333333
 41
0.0
 71
     1
 72
     1
  1
6.
  7
SLDTEXTSTYLE0
 73
     1
 44
1.0
  0
MTEXT
  5
B0
330
9A
100
AcDbEntity
  8
0
  6
Continuous
 62
     0
370
     0
100
AcDbMText
 10
9.9999997765
 20
-32.8115647976
 30
0.0
 40
2.6458333333
 41
0.0
 71
     1
 72
     1
  1
DESIGN WAVELENGTH RANGE: 750-1100nm
  7
SLDTEXTSTYLE0
 73
     1
 44
1.0
  0
MTEXT
  5
B1
330
9A
100
AcDbEntity
  8
0
  6
Continuous
 62
     0
370
     0
100
AcDbMText
 10
0.0
 20
-32.8115647976
 30
0.0
 40
2.6458333333
 41
0.0
 71
     1
 72
     1
  1
7.
  7
SLDTEXTSTYLE0
 73
     1
 44
1.0
  0
MTEXT
  5
B2
330
9A
100
AcDbEntity
  8
0
  6
Continuous
 62
     0
370
     0
100
AcDbMText
 10
9.9999997765
 20
-37.3393426967
 30
0.0
 40
2.6458333333
 41
0.0
 71
     1
 72
     1
  1
COATING(S1): BROADBAND HR, DIELECTRIC
  7
SLDTEXTSTYLE0
 73
     1
 44
1.0
  0
MTEXT
  5
B3
330
9A
100
AcDbEntity
  8
0
  6
Continuous
 62
     0
370
     0
100
AcDbMText
 10
0.0
 20
-37.3393426967
 30
0.0
 40
2.6458333333
 41
0.0
 71
     1
 72
     1
  1
8.
  7
SLDTEXTSTYLE0
 73
     1
 44
1.0
  0
MTEXT
  5
B4
330
9A
100
AcDbEntity
  8
0
  6
Continuous
 62
     0
370
     0
100
AcDbMText
 10
34.8828125
 20
-41.8671205958
 30
0.0
 40
2.6458333333
 41
0.0
 71
     1
 72
     1
  1
Rs and Rp >99% AVERAGE OVER WAVELENGTH RANGE
  7
SLDTEXTSTYLE0
 73
     1
 44
1.0
  0
MTEXT
  5
B5
330
9A
100
AcDbEntity
  8
0
  6
Continuous
 62
     0
370
     0
100
AcDbMText
 10
35.71875
 20
-46.3948984948
 30
0.0
 40
2.6458333333
 41
0.0
 71
     1
 72
     1
  1
AOI: 0
  7
SLDTEXTSTYLE0
 73
     1
 44
1.0
  0
MTEXT
  5
B6
330
9A
100
AcDbEntity
  8
0
  6
Continuous
 62
     0
370
     0
100
AcDbMText
 10
45.4838350415
 20
-46.3948984948
 30
0.0
 40
2.6458333333
 41
0.0
 71
     1
 72
     1
  1
%%d
  7
SLDTEXTSTYLE0
 73
     1
 44
1.0
  0
MTEXT
  5
B8
330
9A
100
AcDbEntity
  8
0
  6
Continuous
 62
     0
370
     0
100
AcDbMText
 10
48.1575962305
 20
-46.3948984948
 30
0.0
 40
2.6458333333
 41
0.0
 71
     1
 72
     1
  1
TO 45
  7
SLDTEXTSTYLE2
 73
     1
 44
1.0
  0
MTEXT
  5
B9
330
9A
100
AcDbEntity
  8
0
  6
Continuous
 62
     0
370
     0
100
AcDbMText
 10
57.5968511403
 20
-46.3948984948
 30
0.0
 40
2.6458333333
 41
0.0
 71
     1
 72
     1
  1
%%d
  7
SLDTEXTSTYLE0
 73
     1
 44
1.0
  0
ENDBLK
  5
9C
330
9A
100
AcDbEntity
  8
0
100
AcDbBlockEnd
  0
BLOCK
  5
CD
330
CC
100
AcDbEntity
  8
0
100
AcDbBlockBegin
  2
SW_NOTE_1
 70
     0
 10
0.0
 20
0.0
 30
0.0
  3
SW_NOTE_1
  1

  0
MTEXT
  5
CF
330
CC
100
AcDbEntity
  8
0
  6
Continuous
 62
     0
370
     0
100
AcDbMText
 10
19.90725
 20
1.9645392354
 30
0.0
 40
1.524
 41
0.0
 71
     2
 72
     1
  1
VALUES IN PARENTHESIS ARE CALCULATED
  7
SLDTEXTSTYLE0
 73
     1
 44
1.0
  0
MTEXT
  5
D0
330
CC
100
AcDbEntity
  8
0
  6
Continuous
 62
     0
370
     0
100
AcDbMText
 10
19.8778795174
 20
-0.5594606586
 30
0.0
 40
1.524
 41
0.0
 71
     2
 72
     1
  1
AND MAY CONTAIN ROUNDOFF ERRORS
  7
SLDTEXTSTYLE0
 73
     1
 44
1.0
  0
ENDBLK
  5
CE
330
CC
100
AcDbEntity
  8
0
100
AcDbBlockEnd
  0
BLOCK
  5
D3
330
D2
100
AcDbEntity
  8
0
100
AcDbBlockBegin
  2
SW_NOTE_2
 70
     0
 10
0.0
 20
0.0
 30
0.0
  3
SW_NOTE_2
  1

  0
MTEXT
  5
D5
330
D2
100
AcDbEntity
  8
0
  6
Continuous
 62
     0
370
     0
100
AcDbMText
 10
0.0
 20
2.7285267159
 30
0.0
 40
2.1166666667
 41
0.0
 71
     1
 72
     1
  1
DRAWING
  7
SLDTEXTSTYLE0
 73
     1
 44
1.0
  0
MTEXT
  5
D6
330
D2
100
AcDbEntity
  8
0
  6
Continuous
 62
     0
370
     0
100
AcDbMText
 10
0.0
 20
-0.0936954723
 30
0.0
 40
2.1166666667
 41
0.0
 71
     1
 72
     1
  1
PROJECTION
  7
SLDTEXTSTYLE0
 73
     1
 44
1.0
  0
ENDBLK
  5
D4
330
D2
100
AcDbEntity
  8
0
100
AcDbBlockEnd
  0
BLOCK
  5
DA
330
D9
100
AcDbEntity
  8
0
100
AcDbBlockBegin
  2
SW_NOTE_3
 70
     0
 10
0.0
 20
0.0
 30
0.0
  3
SW_NOTE_3
  1

  0
MTEXT
  5
DC
330
D9
100
AcDbEntity
  8
0
  6
Continuous
 62
     0
370
     0
100
AcDbMText
 10
25.052734375
 20
4.0927900738
 30
0.0
 40
3.175
 41
0.0
 71
     2
 72
     1
  1
FOR INFORMATION ONLY
  7
SLDTEXTSTYLE0
 73
     1
 44
1.0
  0
MTEXT
  5
DD
330
D9
100
AcDbEntity
  8
0
  6
Continuous
 62
     0
370
     0
100
AcDbMText
 10
25.3768468589
 20
-0.1405432084
 30
0.0
 40
3.175
 41
0.0
 71
     2
 72
     1
  1
NOT FOR MANUFACTURING PURPOSES
  7
SLDTEXTSTYLE0
 73
     1
 44
1.0
  0
ENDBLK
  5
DB
330
D9
100
AcDbEntity
  8
0
100
AcDbBlockEnd
  0
BLOCK
  5
E0
330
DF
100
AcDbEntity
  8
0
100
AcDbBlockBegin
  2
SW_NOTE_4
 70
     0
 10
0.0
 20
0.0
 30
0.0
  3
SW_NOTE_4
  1

  0
MTEXT
  5
E2
330
DF
100
AcDbEntity
  8
0
  6
Continuous
 62
     0
370
     0
100
AcDbMText
 10
1.9016927083
 20
3.4106583948
 30
0.0
 40
2.6458333333
 41
0.0
 71
     2
 72
     1
  1
%%c
  7
SLDTEXTSTYLE0
 73
     1
 44
1.0
  0
MTEXT
  5
E3
330
DF
100
AcDbEntity
  8
0
  6
Continuous
 62
     0
370
     0
100
AcDbMText
 10
30.4107306302
 20
3.4106583948
 30
0.0
 40
2.6458333333
 41
0.0
 71
     2
 72
     1
  1
50.8mm, f=500mm BROADBAND
  7
SLDTEXTSTYLE0
 73
     1
 44
1.0
  0
MTEXT
  5
E4
330
DF
100
AcDbEntity
  8
0
  6
Continuous
 62
     0
370
     0
100
AcDbMText
 10
28.8410610904
 20
-0.1171193403
 30
0.0
 40
2.6458333333
 41
0.0
 71
     2
 72
     1
  1
MIRROR 750-1100nm
  7
SLDTEXTSTYLE0
 73
     1
 44
1.0
  0
ENDBLK
  5
E1
330
DF
100
AcDbEntity
  8
0
100
AcDbBlockEnd
  0
BLOCK
  5
F7
330
F6
100
AcDbEntity
  8
0
100
AcDbBlockBegin
  2
_D
 70
     0
 10
0.0
 20
0.0
 30
0.0
  3
_D
  1

  0
SOLID
  5
F9
330
F6
100
AcDbEntity
  8
0
  6
Continuous
 62
     7
370
    18
100
AcDbTrace
 10
73.2088747676
 20
140.0876999993
 30
0.0
 11
75.8131490427
 21
141.9735537847
 31
0.0
 12
75.094728553
 22
142.6919742744
 32
0.0
 13
75.094728553
 23
142.6919742744
 33
0.0
  0
LINE
  5
FA
330
F6
100
AcDbEntity
  8
0
  6
Continuous
 62
     7
370
    18
100
AcDbLine
 10
91.1611372312
 20
151.3712147146
 30
0.0
 11
90.5173177771
 21
151.3712147146
 31
0.0
  0
LINE
  5
FB
330
F6
100
AcDbEntity
  8
0
  6
Continuous
 62
     7
370
    18
100
AcDbLine
 10
90.5173177771
 20
151.3712147146
 30
0.0
 11
90.5173177771
 21
148.0080666382
 31
0.0
  0
LINE
  5
FC
330
F6
100
AcDbEntity
  8
0
  6
Continuous
 62
     7
370
    18
100
AcDbLine
 10
90.5173177771
 20
148.0080666382
 30
0.0
 11
91.1611372312
 21
148.0080666382
 31
0.0
  0
LINE
  5
FD
330
F6
100
AcDbEntity
  8
0
  6
Continuous
 62
     7
370
    18
100
AcDbLine
 10
98.9183287775
 20
151.3712147146
 30
0.0
 11
99.5621482316
 21
151.3712147146
 31
0.0
  0
LINE
  5
FE
330
F6
100
AcDbEntity
  8
0
  6
Continuous
 62
     7
370
    18
100
AcDbLine
 10
99.5621482316
 20
151.3712147146
 30
0.0
 11
99.5621482316
 21
148.0080666382
 31
0.0
  0
LINE
  5
FF
330
F6
100
AcDbEntity
  8
0
  6
Continuous
 62
     7
370
    18
100
AcDbLine
 10
99.5621482316
 20
148.0080666382
 30
0.0
 11
98.9183287775
 21
148.0080666382
 31
0.0
  0
LINE
  5
100
330
F6
100
AcDbEntity
  8
0
  6
Continuous
 62
     7
370
    18
100
AcDbLine
 10
73.2088747676
 20
140.0876999993
 30
0.0
 11
86.063498323
 21
152.9423235547
 31
0.0
  0
LINE
  5
101
330
F6
100
AcDbEntity
  8
0
  6
Continuous
 62
     7
370
    18
100
AcDbLine
 10
86.063498323
 20
152.9423235547
 30
0.0
 11
89.873498323
 21
152.9423235547
 31
0.0
  0
MTEXT
  5
102
330
F6
100
AcDbEntity
  8
0
  6
Continuous
 62
     7
370
    18
100
AcDbMText
 10
89.873498323
 20
154.5289543611
 30
0.0
 40
2.1166666667
 41
0.0
 71
     1
 72
     1
  1
%%c
  7
SLDTEXTSTYLE0
 73
     1
 44
1.0
  0
MTEXT
  5
103
330
F6
100
AcDbEntity
  8
0
  6
Continuous
 62
     7
370
    18
100
AcDbMText
 10
93.0684891237
 20
154.5289543611
 30
0.0
 40
2.1166666667
 41
0.0
 71
     1
 72
     1
  1
50.8mm
  7
SLDTEXTSTYLE0
 73
     1
 44
1.0
  0
MTEXT
  5
104
330
F6
100
AcDbEntity
  8
0
  6
Continuous
 62
     7
370
    18
100
AcDbMText
 10
91.1611372312
 20
150.7365932376
 30
0.0
 40
2.1166666667
 41
0.0
 71
     1
 72
     1
  1
2.00in
  7
SLDTEXTSTYLE0
 73
     1
 44
1.0
  0
ENDBLK
  5
F8
330
F6
100
AcDbEntity
  8
0
100
AcDbBlockEnd
  0
BLOCK
  5
11E
330
11D
100
AcDbEntity
  8
0
100
AcDbBlockBegin
  2
_D_1
 70
     0
 10
0.0
 20
0.0
 30
0.0
  3
_D_1
  1

  0
SOLID
  5
120
330
11D
100
AcDbEntity
  8
0
  6
Continuous
 62
     7
370
    18
100
AcDbTrace
 10
135.016103016
 20
161.2425229456
 30
0.0
 11
131.8413726348
 21
161.7522052063
 31
0.0
 12
131.8408342886
 22
160.7362053489
 32
0.0
 13
131.8408342886
 23
160.7362053489
 33
0.0
  0
SOLID
  5
121
330
11D
100
AcDbEntity
  8
0
  6
Continuous
 62
     7
370
    18
100
AcDbTrace
 10
144.3337978993
 20
161.2375857935
 30
0.0
 11
147.5085282805
 21
160.7279035329
 31
0.0
 12
147.5090666267
 22
161.7439033902
 32
0.0
 13
147.5090666267
 23
161.7439033902
 33
0.0
  0
LINE
  5
122
330
11D
100
AcDbEntity
  8
0
  6
Continuous
 62
     7
370
    18
100
AcDbLine
 10
157.7692902246
 20
161.2269876207
 30
0.0
 11
157.1254707705
 21
161.2269876207
 31
0.0
  0
LINE
  5
123
330
11D
100
AcDbEntity
  8
0
  6
Continuous
 62
     7
370
    18
100
AcDbLine
 10
157.1254707705
 20
161.2269876207
 30
0.0
 11
157.1254707705
 21
157.8638395443
 31
0.0
  0
LINE
  5
124
330
11D
100
AcDbEntity
  8
0
  6
Continuous
 62
     7
370
    18
100
AcDbLine
 10
157.1254707705
 20
157.8638395443
 30
0.0
 11
157.7692902246
 21
157.8638395443
 31
0.0
  0
LINE
  5
125
330
11D
100
AcDbEntity
  8
0
  6
Continuous
 62
     7
370
    18
100
AcDbLine
 10
165.5264817708
 20
161.2269876207
 30
0.0
 11
166.170301225
 21
161.2269876207
 31
0.0
  0
LINE
  5
126
330
11D
100
AcDbEntity
  8
0
  6
Continuous
 62
     7
370
    18
100
AcDbLine
 10
166.170301225
 20
161.2269876207
 30
0.0
 11
166.170301225
 21
157.8638395443
 31
0.0
  0
LINE
  5
127
330
11D
100
AcDbEntity
  8
0
  6
Continuous
 62
     7
370
    18
100
AcDbLine
 10
166.170301225
 20
157.8638395443
 30
0.0
 11
165.5264817708
 21
157.8638395443
 31
0.0
  0
LINE
  5
128
330
11D
100
AcDbEntity
  8
0
  6
Continuous
 62
     7
370
    18
100
AcDbLine
 10
135.0094052684
 20
148.602124731
 30
0.0
 11
135.0170451219
 21
163.020522696
 31
0.0
  0
LINE
  5
129
330
11D
100
AcDbEntity
  8
0
  6
Continuous
 62
     7
370
    18
100
AcDbLine
 10
144.3271001517
 20
148.5971875789
 30
0.0
 11
144.3347400052
 21
163.0155855439
 31
0.0
  0
LINE
  5
12A
330
11D
100
AcDbEntity
  8
0
  6
Continuous
 62
     7
370
    18
100
AcDbLine
 10
135.016103016
 20
161.2425229456
 30
0.0
 11
128.6661039074
 21
161.2458876095
 31
0.0
  0
LINE
  5
12B
330
11D
100
AcDbEntity
  8
0
  6
Continuous
 62
     7
370
    18
100
AcDbLine
 10
144.3337978993
 20
161.2375857935
 30
0.0
 11
156.0521378336
 21
161.2313766154
 31
0.0
  0
MTEXT
  5
12C
330
11D
100
AcDbEntity
  8
0
  6
Continuous
 62
     7
370
    18
100
AcDbMText
 10
157.0480556292
 20
164.3847272672
 30
0.0
 40
2.1166666667
 41
0.0
 71
     1
 72
     1
  1
9.3mm
  7
SLDTEXTSTYLE0
 73
     1
 44
1.0
  0
MTEXT
  5
12D
330
11D
100
AcDbEntity
  8
0
  6
Continuous
 62
     7
370
    18
100
AcDbMText
 10
157.7692902246
 20
160.5923661437
 30
0.0
 40
2.1166666667
 41
0.0
 71
     1
 72
     1
  1
0.37in
  7
SLDTEXTSTYLE0
 73
     1
 44
1.0
  0
MTEXT
  5
12E
330
11D
100
AcDbEntity
  8
0
  6
Continuous
 62
     7
370
    18
100
AcDbMText
 10
167.6078702134
 20
164.3847272672
 30
0.0
 40
2.1166666667
 41
0.0
 71
     1
 72
     1
  1
REF
  7
SLDTEXTSTYLE0
 73
     1
 44
1.0
  0
ENDBLK
  5
11F
330
11D
100
AcDbEntity
  8
0
100
AcDbBlockEnd
  0
BLOCK
  5
132
330
131
100
AcDbEntity
  8
0
100
AcDbBlockBegin
  2
_D_2
 70
     0
 10
0.0
 20
0.0
 30
0.0
  3
_D_2
  1

  0
ARC
  5
134
330
131
100
AcDbEntity
  8
0
  6
Continuous
 62
     7
370
    18
100
AcDbCircle
 10
-864.6736048164
 20
122.1271877571
 30
0.0
 40
1000.000032035271
100
AcDbArc
 50
358.1359485347
 51
358.482944975
  0
SOLID
  5
135
330
131
100
AcDbEntity
  8
0
  6
Continuous
 62
     7
370
    18
100
AcDbTrace
 10
134.8535037166
 20
91.3761978849
 30
0.0
 11
138.0113806822
 21
90.7708037403
 31
0.0
 12
138.0426236869
 22
91.78632325
 32
0.0
 13
138.0426236869
 23
91.78632325
 33
0.0
  0
LINE
  5
136
330
131
100
AcDbEntity
  8
0
  6
Continuous
 62
     7
370
    18
100
AcDbLine
 10
163.1940530579
 20
89.090008386
 30
0.0
 11
162.5502336038
 21
89.090008386
 31
0.0
  0
LINE
  5
137
330
131
100
AcDbEntity
  8
0
  6
Continuous
 62
     7
370
    18
100
AcDbLine
 10
162.5502336038
 20
89.090008386
 30
0.0
 11
162.5502336038
 21
85.7268603095
 31
0.0
  0
LINE
  5
138
330
131
100
AcDbEntity
  8
0
  6
Continuous
 62
     7
370
    18
100
AcDbLine
 10
162.5502336038
 20
85.7268603095
 30
0.0
 11
163.1940530579
 21
85.7268603095
 31
0.0
  0
LINE
  5
139
330
131
100
AcDbEntity
  8
0
  6
Continuous
 62
     7
370
    18
100
AcDbLine
 10
172.5152267109
 20
89.090008386
 30
0.0
 11
173.159046165
 21
89.090008386
 31
0.0
  0
LINE
  5
13A
330
131
100
AcDbEntity
  8
0
  6
Continuous
 62
     7
370
    18
100
AcDbLine
 10
173.159046165
 20
89.090008386
 30
0.0
 11
173.159046165
 21
85.7268603095
 31
0.0
  0
LINE
  5
13B
330
131
100
AcDbEntity
  8
0
  6
Continuous
 62
     7
370
    18
100
AcDbLine
 10
173.159046165
 20
85.7268603095
 30
0.0
 11
172.5152267109
 21
85.7268603095
 31
0.0
  0
LINE
  5
13C
330
131
100
AcDbEntity
  8
0
  6
Continuous
 62
     7
370
    18
100
AcDbLine
 10
134.8535037166
 20
91.3761978849
 30
0.0
 11
158.0964141496
 21
90.661117226
 31
0.0
  0
LINE
  5
13D
330
131
100
AcDbEntity
  8
0
  6
Continuous
 62
     7
370
    18
100
AcDbLine
 10
158.0964141496
 20
90.661117226
 30
0.0
 11
161.9064141496
 21
90.661117226
 31
0.0
  0
MTEXT
  5
13E
330
131
100
AcDbEntity
  8
0
  6
Continuous
 62
     7
370
    18
100
AcDbMText
 10
161.9064141496
 20
92.2477480324
 30
0.0
 40
2.1166666667
 41
0.0
 71
     1
 72
     1
  1
R1000.0mm
  7
SLDTEXTSTYLE0
 73
     1
 44
1.0
  0
MTEXT
  5
13F
330
131
100
AcDbEntity
  8
0
  6
Continuous
 62
     7
370
    18
100
AcDbMText
 10
163.1940530579
 20
88.4553869089
 30
0.0
 40
2.1166666667
 41
0.0
 71
     1
 72
     1
  1
39.37in
  7
SLDTEXTSTYLE0
 73
     1
 44
1.0
  0
ENDBLK
  5
133
330
131
100
AcDbEntity
  8
0
100
AcDbBlockEnd
  0
BLOCK
  5
143
330
142
100
AcDbEntity
  8
0
100
AcDbBlockBegin
  2
_D_3
 70
     0
 10
0.0
 20
0.0
 30
0.0
  3
_D_3
  1

  0
SOLID
  5
145
330
142
100
AcDbEntity
  8
0
  6
Continuous
 62
     7
370
    18
100
AcDbTrace
 10
144.3264272189
 20
152.3146467371
 30
0.0
 11
147.5014272189
 21
151.8066467371
 31
0.0
 12
147.5014272189
 22
152.8226467371
 32
0.0
 13
147.5014272189
 23
152.8226467371
 33
0.0
  0
SOLID
  5
146
330
142
100
AcDbEntity
  8
0
  6
Continuous
 62
     7
370
    18
100
AcDbTrace
 10
135.3264272189
 20
152.3146467371
 30
0.0
 11
132.1514272189
 21
152.8226467371
 31
0.0
 12
132.1514272189
 22
151.8066467371
 32
0.0
 13
132.1514272189
 23
151.8066467371
 33
0.0
  0
LINE
  5
147
330
142
100
AcDbEntity
  8
0
  6
Continuous
 62
     7
370
    18
100
AcDbLine
 10
156.4478312129
 20
152.3146465043
 30
0.0
 11
155.8040117588
 21
152.3146465043
 31
0.0
  0
LINE
  5
148
330
142
100
AcDbEntity
  8
0
  6
Continuous
 62
     7
370
    18
100
AcDbLine
 10
155.8040117588
 20
152.3146465043
 30
0.0
 11
155.8040117588
 21
148.9514984278
 31
0.0
  0
LINE
  5
149
330
142
100
AcDbEntity
  8
0
  6
Continuous
 62
     7
370
    18
100
AcDbLine
 10
155.8040117588
 20
148.9514984278
 30
0.0
 11
156.4478312129
 21
148.9514984278
 31
0.0
  0
LINE
  5
14A
330
142
100
AcDbEntity
  8
0
  6
Continuous
 62
     7
370
    18
100
AcDbLine
 10
164.2050227592
 20
152.3146465043
 30
0.0
 11
164.8488422133
 21
152.3146465043
 31
0.0
  0
LINE
  5
14B
330
142
100
AcDbEntity
  8
0
  6
Continuous
 62
     7
370
    18
100
AcDbLine
 10
164.8488422133
 20
152.3146465043
 30
0.0
 11
164.8488422133
 21
148.9514984278
 31
0.0
  0
LINE
  5
14C
330
142
100
AcDbEntity
  8
0
  6
Continuous
 62
     7
370
    18
100
AcDbLine
 10
164.8488422133
 20
148.9514984278
 30
0.0
 11
164.2050227592
 21
148.9514984278
 31
0.0
  0
LINE
  5
14D
330
142
100
AcDbEntity
  8
0
  6
Continuous
 62
     7
370
    18
100
AcDbLine
 10
144.3264272189
 20
148.5971877571
 30
0.0
 11
144.3264272189
 21
154.0926467371
 31
0.0
  0
LINE
  5
14E
330
142
100
AcDbEntity
  8
0
  6
Continuous
 62
     7
370
    18
100
AcDbLine
 10
135.3264272189
 20
123.3971877571
 30
0.0
 11
135.3264272189
 21
154.0926467371
 31
0.0
  0
LINE
  5
14F
330
142
100
AcDbEntity
  8
0
  6
Continuous
 62
     7
370
    18
100
AcDbLine
 10
144.3264272189
 20
152.3146467371
 30
0.0
 11
153.1706171176
 21
152.3146467371
 31
0.0
  0
LINE
  5
150
330
142
100
AcDbEntity
  8
0
  6
Continuous
 62
     7
370
    18
100
AcDbLine
 10
135.3264272189
 20
152.3146467371
 30
0.0
 11
128.9764272189
 21
152.3146467371
 31
0.0
  0
MTEXT
  5
151
330
142
100
AcDbEntity
  8
0
  6
Continuous
 62
     7
370
    18
100
AcDbMText
 10
155.1876306003
 20
155.4723861507
 30
0.0
 40
2.1166666667
 41
0.0
 71
     1
 72
     1
  1

  7
SLDTEXTSTYLE0
 73
     1
 44
1.0
  0
MTEXT
  5
152
330
142
100
AcDbEntity
  8
0
  6
Continuous
 62
     7
370
    18
100
AcDbMText
 10
155.7265966175
 20
155.4723861507
 30
0.0
 40
2.1166666667
 41
0.0
 71
     1
 72
     1
  1
9.0mm
  7
SLDTEXTSTYLE0
 73
     1
 44
1.0
  0
MTEXT
  5
153
330
142
100
AcDbEntity
  8
0
  6
Continuous
 62
     7
370
    18
100
AcDbMText
 10
156.4478312129
 20
151.6800250272
 30
0.0
 40
2.1166666667
 41
0.0
 71
     1
 72
     1
  1
0.35in
  7
SLDTEXTSTYLE0
 73
     1
 44
1.0
  0
MTEXT
  5
154
330
142
100
AcDbEntity
  8
0
  6
Continuous
 62
     7
370
    18
100
AcDbMText
 10
167.0801616674
 20
155.4723861507
 30
0.0
 40
2.1166666667
 41
0.0
 71
     1
 72
     1
  1

  7
SLDTEXTSTYLE0
 73
     1
 44
1.0
  0
ENDBLK
  5
144
330
142
100
AcDbEntity
  8
0
100
AcDbBlockEnd
  0
ENDSEC
  0
SECTION
  2
ENTITIES
  0
LINE
  5
81
330
1F
100
AcDbEntity
  8
0
  6
Continuous
 62
     7
370
    18
100
AcDbLine
 10
1.5793501011
 20
214.6453799966
 30
0.0
 11
277.9892068491
 21
214.6453799966
 31
0.0
  0
LINE
  5
82
330
1F
100
AcDbEntity
  8
0
  6
Continuous
 62
     7
370
    18
100
AcDbLine
 10
1.5793501011
 20
214.6453799966
 30
0.0
 11
1.5793501011
 21
0.9031642596
 31
0.0
  0
LINE
  5
83
330
1F
100
AcDbEntity
  8
0
  6
Continuous
 62
     7
370
    18
100
AcDbLine
 10
277.9892068491
 20
0.9031642596
 30
0.0
 11
1.5793501011
 21
0.9031642596
 31
0.0
  0
LINE
  5
84
330
1F
100
AcDbEntity
  8
0
  6
Continuous
 62
     7
370
    18
100
AcDbLine
 10
277.9892068491
 20
0.9031642596
 30
0.0
 11
277.9892068491
 21
214.6453799966
 31
0.0
  0
LINE
  5
85
330
1F
100
AcDbEntity
  8
0
  6
Continuous
 62
     7
370
    18
100
AcDbLine
 10
215.7427640041
 20
12.2958890132
 30
0.0
 11
171.6327596684
 21
12.2958890132
 31
0.0
  0
LINE
  5
86
330
1F
100
AcDbEntity
  8
0
  6
Continuous
 62
     7
370
    18
100
AcDbLine
 10
171.6327596684
 20
12.2958890132
 30
0.0
 11
171.6327596684
 21
26.1661402506
 31
0.0
  0
LINE
  5
87
330
1F
100
AcDbEntity
  8
0
  6
Continuous
 62
     7
370
    18
100
AcDbLine
 10
171.6327596684
 20
0.9031642596
 30
0.0
 11
171.6327596684
 21
26.1661402506
 31
0.0
  0
LINE
  5
88
330
1F
100
AcDbEntity
  8
0
  6
Continuous
 62
     7
370
    18
100
AcDbLine
 10
215.7427640041
 20
17.1604579552
 30
0.0
 11
277.9892068491
 21
17.1604579552
 31
0.0
  0
LINE
  5
89
330
1F
100
AcDbEntity
  8
0
  6
Continuous
 62
     7
370
    18
100
AcDbLine
 10
215.7427640041
 20
35.2394508358
 30
0.0
 11
215.7427640041
 21
0.9031642596
 31
0.0
  0
LINE
  5
8A
330
1F
100
AcDbEntity
  8
0
  6
Continuous
 62
     7
370
    18
100
AcDbLine
 10
215.7427640041
 20
26.1661402506
 30
0.0
 11
171.6327596684
 21
26.1661402506
 31
0.0
  0
LINE
  5
8B
330
1F
100
AcDbEntity
  8
0
  6
Continuous
 62
     7
370
    18
100
AcDbLine
 10
215.7427640041
 20
9.1409200612
 30
0.0
 11
277.9892068491
 21
9.1409200612
 31
0.0
  0
LINE
  5
8C
330
1F
100
AcDbEntity
  8
0
  6
Continuous
 62
     7
370
    18
100
AcDbLine
 10
215.7427640041
 20
16.9216824031
 30
0.0
 11
171.6327596684
 21
16.9216824031
 31
0.0
  0
LINE
  5
8D
330
1F
100
AcDbEntity
  8
0
  6
Continuous
 62
     7
370
    18
100
AcDbLine
 10
215.7427640041
 20
21.4874005542
 30
0.0
 11
171.6327596684
 21
21.4874005542
 31
0.0
  0
LINE
  5
8E
330
1F
100
AcDbEntity
  8
0
  6
Continuous
 62
     7
370
    18
100
AcDbLine
 10
186.1338100705
 20
26.1661402506
 30
0.0
 11
186.1338100705
 21
12.2958890132
 31
0.0
  0
LINE
  5
8F
330
1F
100
AcDbEntity
  8
0
  6
Continuous
 62
     7
370
    18
100
AcDbLine
 10
198.2145906188
 20
26.1661402506
 30
0.0
 11
198.2145906188
 21
12.2958890132
 31
0.0
  0
LINE
  5
90
330
1F
100
AcDbEntity
  8
0
  6
Continuous
 62
     7
370
    18
100
AcDbLine
 10
253.7490408369
 20
9.1409200612
 30
0.0
 11
253.7490408369
 21
0.9031642596
 31
0.0
  0
LINE
  5
91
330
1F
100
AcDbEntity
  8
0
  6
Continuous
 62
     7
370
    18
100
AcDbLine
 10
171.6327596684
 20
12.2958890132
 30
0.0
 11
171.6327596684
 21
7.5627342528
 31
0.0
  0
LINE
  5
92
330
1F
100
AcDbEntity
  8
0
  6
Continuous
 62
     7
370
    18
100
AcDbLine
 10
171.6327596684
 20
7.5627342528
 30
0.0
 11
215.7427640041
 21
7.5627342528
 31
0.0
  0
LINE
  5
93
330
1F
100
AcDbEntity
  8
0
  6
Continuous
 62
     7
370
    18
100
AcDbLine
 10
171.6327596684
 20
7.5627342528
 30
0.0
 11
171.6327596684
 21
35.2394508358
 31
0.0
  0
LINE
  5
94
330
1F
100
AcDbEntity
  8
0
  6
Continuous
 62
     7
370
    18
100
AcDbLine
 10
171.6327596684
 20
35.2394508358
 30
0.0
 11
215.7427640041
 21
35.2394508358
 31
0.0
  0
LINE
  5
95
330
1F
100
AcDbEntity
  8
0
  6
Continuous
 62
     7
370
    18
100
AcDbLine
 10
270.1683598194
 20
17.1604579552
 30
0.0
 11
270.1683598194
 21
9.1409200612
 31
0.0
  0
LINE
  5
96
330
1F
100
AcDbEntity
  8
0
  6
Continuous
 62
     7
370
    18
100
AcDbLine
 10
215.7427640041
 20
35.2394508358
 30
0.0
 11
277.9892068491
 21
35.2394508358
 31
0.0
  0
LINE
  5
97
330
1F
100
AcDbEntity
  8
0
  6
Continuous
 62
     7
370
    18
100
AcDbLine
 10
277.9892068491
 20
35.2394508358
 30
0.0
 11
277.9892068491
 21
50.0331356147
 31
0.0
  0
LINE
  5
98
330
1F
100
AcDbEntity
  8
0
  6
Continuous
 62
     7
370
    18
100
AcDbLine
 10
215.7427640041
 20
24.8927335446
 30
0.0
 11
277.9892068491
 21
24.8927335446
 31
0.0
  0
INSERT
  5
99
330
1F
100
AcDbEntity
  8
0
  6
Continuous
 62
     7
100
AcDbBlockReference
  2
Third Angle Projection Block
 10
117.7262204235
 20
15.5162339489
 30
0.0
 41
0.8
 42
0.8
 43
0.8
  0
INSERT
  5
BA
330
1F
100
AcDbEntity
  8
0
  6
Continuous
 62
     7
370
     0
100
AcDbBlockReference
  2
SW_NOTE_0
 10
20.173507833
 20
71.8984871508
 30
0.0
  0
MTEXT
  5
BB
330
1F
100
AcDbEntity
  8
0
  6
Continuous
 62
     7
370
     0
100
AcDbMText
 10
274.1458225539
 20
13.2559386876
 30
0.0
 40
3.175
 41
0.0
 71
     2
 72
     1
  1
A
  7
SLDTEXTSTYLE0
 73
     1
 44
1.0
  0
MTEXT
  5
BC
330
1F
100
AcDbEntity
  8
0
  6
Continuous
 62
     7
370
     0
100
AcDbMText
 10
234.519397778
 20
5.1306563898
 30
0.0
 40
3.175
 41
0.0
 71
     2
 72
     1
  1
CM508-500-E03
  7
SLDTEXTSTYLE0
 73
     1
 44
1.0
  0
MTEXT
  5
BD
330
1F
100
AcDbEntity
  8
0
  6
Continuous
 62
     7
370
     0
100
AcDbMText
 10
216.4199766059
 20
16.8243178599
 30
0.0
 40
2.1166666667
 41
0.0
 71
     1
 72
     1
  1
MATERIAL
  7
SLDTEXTSTYLE0
 73
     1
 44
1.0
  0
MTEXT
  5
BE
330
1F
100
AcDbEntity
  8
0
  6
Continuous
 62
     7
370
     0
100
AcDbMText
 10
174.230946566
 20
20.054553926
 30
0.0
 40
1.8520833333
 41
0.0
 71
     1
 72
     1
  1
DRAWN
  7
SLDTEXTSTYLE0
 73
     1
 44
1.0
  0
MTEXT
  5
BF
330
1F
100
AcDbEntity
  8
0
  6
Continuous
 62
     7
370
     0
100
AcDbMText
 10
172.3960124543
 20
15.5787169747
 30
0.0
 40
1.8520833333
 41
0.0
 71
     1
 72
     1
  1
APPROVAL
  7
SLDTEXTSTYLE0
 73
     1
 44
1.0
  0
MTEXT
  5
C0
330
1F
100
AcDbEntity
  8
0
  6
Continuous
 62
     7
370
     0
100
AcDbMText
 10
271.7160653675
 20
16.1671746307
 30
0.0
 40
2.1166666667
 41
0.0
 71
     1
 72
     1
  1
REV
  7
SLDTEXTSTYLE0
 73
     1
 44
1.0
  0
MTEXT
  5
C1
330
1F
100
AcDbEntity
  8
0
  6
Continuous
 62
     7
370
     0
100
AcDbMText
 10
190.2958696448
 20
20.3177146903
 30
0.0
 40
2.1166666667
 41
0.0
 71
     1
 72
     1
  1
YB
  7
SLDTEXTSTYLE0
 73
     1
 44
1.0
  0
MTEXT
  5
C2
330
1F
100
AcDbEntity
  8
0
  6
Continuous
 62
     7
370
     0
100
AcDbMText
 10
190.2958696448
 20
15.841877739
 30
0.0
 40
2.1166666667
 41
0.0
 71
     1
 72
     1
  1
DD
  7
SLDTEXTSTYLE0
 73
     1
 44
1.0
  0
MTEXT
  5
C3
330
1F
100
AcDbEntity
  8
0
  6
Continuous
 62
     7
370
     0
100
AcDbMText
 10
199.8662436873
 20
20.3177146903
 30
0.0
 40
2.1166666667
 41
0.0
 71
     1
 72
     1
  1
16/APR/18
  7
SLDTEXTSTYLE0
 73
     1
 44
1.0
  0
MTEXT
  5
C4
330
1F
100
AcDbEntity
  8
0
  6
Continuous
 62
     7
370
     0
100
AcDbMText
 10
203.6145073853
 20
24.8221395769
 30
0.0
 40
2.1166666667
 41
0.0
 71
     1
 72
     1
  1
DATE
  7
SLDTEXTSTYLE0
 73
     1
 44
1.0
  0
MTEXT
  5
C5
330
1F
100
AcDbEntity
  8
0
  6
Continuous
 62
     7
370
     0
100
AcDbMText
 10
199.8662436873
 20
15.841877739
 30
0.0
 40
2.1166666667
 41
0.0
 71
     1
 72
     1
  1
16/APR/18
  7
SLDTEXTSTYLE0
 73
     1
 44
1.0
  0
MTEXT
  5
C7
330
1F
100
AcDbEntity
  8
0
  6
Continuous
 62
     7
370
     0
100
AcDbMText
 10
229.402906477
 20
27.7957480569
 30
0.0
 40
2.1166666667
 41
0.0
 71
     1
 72
     1
  1
w w w . t h o r  l a b s . c o m
  7
SLDTEXTSTYLE3
 73
     1
 44
1.0
  0
MTEXT
  5
C8
330
1F
100
AcDbEntity
  8
0
  6
Continuous
 62
     7
370
     0
100
AcDbMText
 10
216.7004035316
 20
8.3494791871
 30
0.0
 40
2.1166666667
 41
0.0
 71
     1
 72
     1
  1
ITEM #
  7
SLDTEXTSTYLE0
 73
     1
 44
1.0
  0
MTEXT
  5
C9
330
1F
100
AcDbEntity
  8
0
  6
Continuous
 62
     7
370
     0
100
AcDbMText
 10
254.5318000914
 20
8.3494791871
 30
0.0
 40
2.1166666667
 41
0.0
 71
     1
 72
     1
  1
APPROX WEIGHT
  7
SLDTEXTSTYLE0
 73
     1
 44
1.0
  0
MTEXT
  5
CA
330
1F
100
AcDbEntity
  8
0
  6
Continuous
 62
     7
370
     0
100
AcDbMText
 10
243.5159064132
 20
13.8247651814
 30
0.0
 40
3.175
 41
0.0
 71
     2
 72
     1
  1
N-BK7
  7
SLDTEXTSTYLE0
 73
     1
 44
1.0
  0
MTEXT
  5
CB
330
1F
100
AcDbEntity
  8
0
  6
Continuous
 62
     7
370
     0
100
AcDbMText
 10
266.1553537756
 20
5.1306563898
 30
0.0
 40
3.175
 41
0.0
 71
     2
 72
     1
  1
46.61 g
  7
SLDTEXTSTYLE0
 73
     1
 44
1.0
  0
INSERT
  5
D1
330
1F
100
AcDbEntity
  8
0
  6
Continuous
 62
     7
370
     0
100
AcDbBlockReference
  2
SW_NOTE_1
 10
174.8430140051
 20
4.4558554801
 30
0.0
  0
INSERT
  5
D7
330
1F
100
AcDbEntity
  8
0
  6
Continuous
 62
     7
370
     0
100
AcDbBlockReference
  2
SW_NOTE_2
 10
174.5483650337
 20
30.4835322715
 30
0.0
  0
MTEXT
  5
D8
330
1F
100
AcDbEntity
  8
0
  6
Continuous
 62
     7
370
     0
100
AcDbMText
 10
187.9273588276
 20
24.8221395769
 30
0.0
 40
2.1166666667
 41
0.0
 71
     1
 72
     1
  1
NAME
  7
SLDTEXTSTYLE0
 73
     1
 44
1.0
  0
INSERT
  5
DE
330
1F
100
AcDbEntity
  8
0
  6
Continuous
 62
     7
370
     0
100
AcDbBlockReference
  2
SW_NOTE_3
 10
58.6204667508
 20
8.1776609732
 30
0.0
  0
INSERT
  5
E5
330
1F
100
AcDbEntity
  8
0
  6
Continuous
 62
     7
370
     0
100
AcDbBlockReference
  2
SW_NOTE_4
 10
218.0304396749
 20
20.7222222066
 30
0.0
  0
MTEXT
  5
E6
330
1F
100
AcDbEntity
  8
0
  6
Continuous
 62
     7
370
     0
100
AcDbMText
 10
177.6925831922
 20
10.7142101515
 30
0.0
 40
1.5875
 41
0.0
 71
     1
 72
     1
  1
COPYRIGHT © 2018 BY THORLABS
  7
SLDTEXTSTYLE0
 73
     1
 44
1.0
  0
LINE
  5
E7
330
1F
100
AcDbEntity
  8
0
  6
Continuous
 62
     7
370
    18
100
AcDbLine
 10
230.2639566966
 20
194.8255830041
 30
0.0
 11
230.2639566966
 21
194.6663321128
 31
0.0
  0
LINE
  5
E8
330
1F
100
AcDbEntity
  8
0
  6
Continuous
 62
     7
370
    18
100
AcDbLine
 10
248.0836420054
 20
163.7983871768
 30
0.0
 11
248.2215498504
 21
163.7187487898
 31
0.0
  0
LINE
  5
E9
330
1F
100
AcDbEntity
  8
0
  6
Continuous
 62
     7
370
    18
100
AcDbLine
 10
260.9234368432
 20
162.4595588795
 30
0.0
 11
267.2326904614
 21
166.1018134657
 31
0.0
  0
LINE
  5
EA
330
1F
100
AcDbEntity
  8
0
  6
Continuous
 62
     7
370
    18
100
AcDbLine
 10
241.8347546525
 20
210.0970956747
 30
0.0
 11
235.5255010342
 21
206.4548410884
 31
0.0
  0
LINE
  5
EB
330
1F
100
AcDbEntity
  8
0
  6
Continuous
 62
     7
370
    18
100
AcDbLine
 10
272.4942347991
 20
177.73107155
 30
0.0
 11
272.4942347991
 21
177.8943531724
 31
0.0
  0
LINE
  5
EC
330
1F
100
AcDbEntity
  8
0
  6
Continuous
 62
     7
370
    18
100
AcDbLine
 10
254.6780400166
 20
208.7562516842
 30
0.0
 11
254.5366416453
 21
208.8379057643
 31
0.0
  0
LWPOLYLINE
  5
ED
330
1F
100
AcDbEntity
  8
0
  6
Continuous
 62
     7
370
    18
100
AcDbPolyline
 90
      167
 70
   128
 43
0.0
 10
265.9091206559
 20
174.0888169638
 10
265.8963553174
 20
174.8749963655
 10
265.8580775881
 20
175.674788119
 10
265.7943423005
 20
176.4870465301
 10
265.7052407548
 20
177.3106080466
 10
265.590900588
 20
178.1442929246
 10
265.4514855915
 20
178.9869069184
 10
265.2871954758
 20
179.8372429916
 10
265.0982655849
 20
180.6940830461
 10
264.884966559
 20
181.5561996666
 10
264.6476039471
 20
182.4223578795
 10
264.3865177686
 20
183.2913169214
 10
264.1020820271
 20
184.1618320169
 10
263.7947041741
 20
185.0326561614
 10
263.4648245253
 20
185.9025419078
 10
263.1129156301
 20
186.7702431532
 10
262.7394815947
 20
187.6345169238
 10
262.3450573597
 20
188.4941251559
 10
261.9302079341
 20
189.3478364688
 10
261.4955275855
 20
190.1944279294
 10
261.0416389896
 20
191.0326868035
 10
260.5691923372
 20
191.8614122934
 10
260.0788644037
 20
192.6794172578
 10
259.5713575791
 20
193.4855299125
 10
259.0473988621
 20
194.2785955089
 10
258.5077388184
 20
195.0574779881
 10
257.9531505059
 20
195.8210616085
 10
257.384428367
 20
196.5682525438
 10
256.8023870907
 20
197.2979804504
 10
256.2078604455
 20
198.0091999999
 10
255.6017000851
 20
198.7008923773
 10
254.9847743283
 20
199.3720667399
 10
254.3579669155
 20
200.0217616368
 10
253.7221757421
 20
200.6490463864
 10
253.0783115729
 20
201.2530224093
 10
252.4272967371
 20
201.8328245157
 10
251.7700638071
 20
202.3876221446
 10
251.1075542629
 20
202.9166205538
 10
250.440717143
 20
203.4190619582
 10
249.7705076851
 20
203.8942266153
 10
249.0978859579
 20
204.3414338563
 10
248.4238154854
 20
204.7600430611
 10
247.7492618671
 20
205.1494545761
 10
247.0751913946
 20
205.509110573
 10
246.4025696673
 20
205.8384958481
 10
245.7323602094
 20
206.1371385601
 10
245.0655230895
 20
206.4046109063
 10
244.4030135453
 20
206.6405297351
 10
243.7457806154
 20
206.844557095
 10
243.0947657796
 20
207.0164007188
 10
242.4509016104
 20
207.1558144422
 10
241.8151104369
 20
207.2625985563
 10
241.1883030241
 20
207.336600094
 10
240.5713772673
 20
207.3777130487
 10
239.9652169069
 20
207.3858785266
 10
239.3706902617
 20
207.3610848306
 10
238.7886489854
 20
207.3033674775
 10
238.2199268465
 20
207.2128091469
 10
237.665338534
 20
207.0895395626
 10
237.1256784904
 20
206.9337353073
 10
236.6017197733
 20
206.7456195689
 10
236.0942129487
 20
206.5254618214
 10
235.6038850152
 20
206.2735774388
 10
235.1314383629
 20
205.990327243
 10
234.6775497669
 20
205.676116987
 10
234.2428694184
 20
205.3313967742
 10
233.8280199927
 20
204.9566604129
 10
233.4335957577
 20
204.5524447093
 10
233.0601617223
 20
204.1193286985
 10
232.7082528272
 20
203.657932815
 10
232.3783731783
 20
203.1689180041
 10
232.0709953253
 20
202.6529847746
 10
231.7865595838
 20
202.110872196
 10
231.5254734054
 20
201.5433568393
 10
231.2881107934
 20
200.9512516648
 10
231.0748117676
 20
200.3354048575
 10
230.8858818767
 20
199.696698612
 10
230.7215917609
 20
199.0360478688
 10
230.5821767644
 20
198.3543990038
 10
230.4678365977
 20
197.6527284723
 10
230.378735052
 20
196.9320414107
 10
230.3149997644
 20
196.1933701963
 10
230.2767220351
 20
195.4377729684
 10
230.2639566966
 20
194.6663321128
 10
230.2767220351
 20
193.880152711
 10
230.3149997644
 20
193.0803609576
 10
230.378735052
 20
192.2681025464
 10
230.4678365977
 20
191.4445410299
 10
230.5821767644
 20
190.610856152
 10
230.7215917609
 20
189.7682421582
 10
230.8858818767
 20
188.9179060849
 10
231.0748117676
 20
188.0610660305
 10
231.2881107934
 20
187.1989494099
 10
231.5254734054
 20
186.3327911971
 10
231.7865595838
 20
185.4638321552
 10
232.0709953253
 20
184.5933170597
 10
232.3783731783
 20
183.7224929152
 10
232.7082528272
 20
182.8526071687
 10
233.0601617223
 20
181.9849059234
 10
233.4335957577
 20
181.1206321527
 10
233.8280199927
 20
180.2610239207
 10
234.2428694184
 20
179.4073126078
 10
234.6775497669
 20
178.5607211472
 10
235.1314383629
 20
177.7224622731
 10
235.6038850152
 20
176.8937367831
 10
236.0942129487
 20
176.0757318187
 10
236.6017197733
 20
175.269619164
 10
237.1256784904
 20
174.4765535677
 10
237.665338534
 20
173.6976710885
 10
238.2199268465
 20
172.9340874681
 10
238.7886489854
 20
172.1868965327
 10
239.3706902617
 20
171.4571686262
 10
239.9652169069
 20
170.7459490766
 10
240.5713772673
 20
170.0542566992
 10
241.1883030241
 20
169.3830823367
 10
241.8151104369
 20
168.7333874398
 10
242.4509016104
 20
168.1061026902
 10
243.0947657796
 20
167.5021266673
 10
243.7457806154
 20
166.9223245609
 10
244.4030135453
 20
166.3675269319
 10
245.0655230895
 20
165.8385285227
 10
245.7323602094
 20
165.3360871183
 10
246.4025696673
 20
164.8609224613
 10
247.0751913946
 20
164.4137152203
 10
247.7492618671
 20
163.9951060155
 10
248.4238154854
 20
163.6056945005
 10
249.0978859579
 20
163.2460385036
 10
249.7705076851
 20
162.9166532285
 10
250.440717143
 20
162.6180105164
 10
251.1075542629
 20
162.3505381702
 10
251.7700638071
 20
162.1146193415
 10
252.4272967371
 20
161.9105919816
 10
253.0783115729
 20
161.7387483578
 10
253.7221757421
 20
161.5993346344
 10
254.3579669155
 20
161.4925505202
 10
254.9847743283
 20
161.4185489826
 10
255.6017000851
 20
161.3774360279
 10
256.2078604455
 20
161.36927055
 10
256.8023870907
 20
161.394064246
 10
257.384428367
 20
161.4517815991
 10
257.9531505059
 20
161.5423399297
 10
258.5077388184
 20
161.6656095139
 10
259.0473988621
 20
161.8214137693
 10
259.5713575791
 20
162.0095295077
 10
260.0788644037
 20
162.2296872551
 10
260.5691923372
 20
162.4815716377
 10
261.0416389896
 20
162.7648218336
 10
261.4955275855
 20
163.0790320895
 10
261.9302079341
 20
163.4237523023
 10
262.3450573597
 20
163.7984886637
 10
262.7394815947
 20
164.2027043673
 10
263.1129156301
 20
164.6358203781
 10
263.4648245253
 20
165.0972162615
 10
263.7947041741
 20
165.5862310725
 10
264.1020820271
 20
166.102164302
 10
264.3865177686
 20
166.6442768806
 10
264.6476039471
 20
167.2117922373
 10
264.884966559
 20
167.8038974117
 10
265.0982655849
 20
168.419744219
 10
265.2871954758
 20
169.0584504645
 10
265.4514855915
 20
169.7191012077
 10
265.590900588
 20
170.4007500728
 10
265.7052407548
 20
171.1024206042
 10
265.7943423005
 20
171.8231076658
 10
265.8580775881
 20
172.5617788803
 10
265.8963553174
 20
173.3173761082
 10
265.9091206559
 20
174.0888169638
  0
LWPOLYLINE
  5
EE
330
1F
100
AcDbEntity
  8
0
  6
Continuous
 62
     7
370
    18
100
AcDbPolyline
 90
      127
 70
   128
 43
0.0
 10
230.2639566966
 20
194.8255830041
 10
230.2766672449
 20
195.5983853571
 10
230.3147808995
 20
196.3554186081
 10
230.3782437148
 20
197.0956112611
 10
230.4669658663
 20
197.8179156563
 10
230.5808217777
 20
198.5213094524
 10
230.7196502986
 20
199.2047970743
 10
230.8832549328
 20
199.8674111217
 10
231.0714041163
 20
200.5082137385
 10
231.283831545
 20
201.1262979401
 10
231.5202365515
 20
201.7207888977
 10
231.780284531
 20
202.2908451755
 10
232.0636074146
 20
202.8356599229
 10
232.3698041906
 20
203.3544620154
 10
232.6984414716
 20
203.8465171466
 10
233.0490541083
 20
204.3111288676
 10
233.4211458477
 20
204.7476395724
 10
233.8141900356
 20
205.155431429
 10
234.2276303618
 20
205.5339272535
 10
234.6608816478
 20
205.8825913274
 10
235.113330675
 20
206.2009301557
 10
235.5843370522
 20
206.4884931655
 10
236.0732341226
 20
206.7448733434
 10
236.5793299071
 20
206.969707812
 10
237.1019080837
 20
207.1626783432
 10
237.6402290014
 20
207.3235118088
 10
238.1935307271
 20
207.451980567
 10
238.7610301242
 20
207.5479027846
 10
239.3419239607
 20
207.6111426946
 10
239.9353900463
 20
207.6416107878
 10
240.5405883962
 20
207.6392639401
 10
241.1566624197
 20
207.6041054732
 10
241.7827401331
 20
207.5361851499
 10
242.4179353932
 20
207.435599104
 10
243.0613491522
 20
207.3024897036
 10
243.7120707299
 20
207.1370453503
 10
244.3691791027
 20
206.939500212
 10
245.0317442071
 20
206.7101338918
 10
245.6988282564
 20
206.4492710321
 10
246.3694870676
 20
206.1572808551
 10
247.0427713983
 20
205.8345766402
 10
247.7177282896
 20
205.4816151391
 10
248.3934024157
 20
205.0988959294
 10
249.0688374353
 20
204.6869607074
 10
249.7430773458
 20
204.2463925212
 10
250.4151678359
 20
203.7778149459
 10
251.0841576366
 20
203.2818912007
 10
251.7490998678
 20
202.7593232101
 10
252.409053378
 20
202.2108506106
 10
253.063084077
 20
201.637249704
 10
253.7102662572
 20
201.0393323582
 10
254.3496839048
 20
200.4179448583
 10
254.9804319956
 20
199.7739667088
 10
255.6016177761
 20
199.1083093887
 10
256.2123620274
 20
198.4219150617
 10
256.8118003093
 20
197.7157552421
 10
257.3990841838
 20
196.9908294201
 10
257.9733824165
 20
196.2481636473
 10
258.5338821523
 20
195.4888090838
 10
259.0797900665
 20
194.7138405113
 10
259.6103334875
 20
193.9243548111
 10
260.1247614906
 20
193.1214694119
 10
260.6223459602
 20
192.3063207082
 10
261.1023826213
 20
191.4800624518
 10
261.5641920356
 20
190.6438641189
 10
262.0071205636
 20
189.7989092547
 10
262.4305412895
 20
188.9463937984
 10
262.8338549085
 20
188.0875243903
 10
263.2164905754
 20
187.2235166639
 10
263.5779067121
 20
186.3555935256
 10
263.9175917745
 20
185.4849834236
 10
264.2350649765
 20
184.612918609
 10
264.5298769701
 20
183.7406333921
 10
264.801610482
 20
182.8693623951
 10
265.0498809037
 20
182.0003388046
 10
265.2743368363
 20
181.1347926264
 10
265.4746605875
 20
180.2739489443
 10
265.6505686214
 20
179.4190261863
 10
265.8018119599
 20
178.5712343998
 10
265.9281765349
 20
177.7317735395
 10
266.0294834914
 20
176.9018317682
 10
266.105589441
 20
176.0825837758
 10
266.1563866639
 20
175.2751891161
 10
266.1818032626
 20
174.480790566
 10
266.1818032626
 20
173.7005125079
 10
266.1563866639
 20
172.935459338
 10
266.105589441
 20
172.1867139036
 10
266.0294834914
 20
171.4553359701
 10
265.9281765349
 20
170.7423607212
 10
265.8018119599
 20
170.0487972936
 10
265.6505686214
 20
169.3756273488
 10
265.4746605875
 20
168.7238036836
 10
265.2743368363
 20
168.0942488815
 10
265.0498809037
 20
167.4878540069
 10
264.801610482
 20
166.9054773439
 10
264.5298769701
 20
166.3479431817
 10
264.2350649765
 20
165.8160406474
 10
263.9175917745
 20
165.3105225896
 10
263.5779067121
 20
164.8321045125
 10
263.2164905754
 20
164.3814635636
 10
262.8338549085
 20
163.9592375746
 10
262.4305412895
 20
163.5660241592
 10
262.0071205636
 20
163.2023798671
 10
261.5641920356
 20
162.8688193961
 10
261.1023826213
 20
162.5658148636
 10
260.6223459602
 20
162.2937951388
 10
260.1247614906
 20
162.0531452352
 10
259.6103334875
 20
161.8442057657
 10
259.0797900665
 20
161.6672724609
 10
258.5338821523
 20
161.52259575
 10
257.9733824165
 20
161.4103804068
 10
257.3990841838
 20
161.3307852595
 10
256.8118003093
 20
161.2839229662
 10
256.2123620274
 20
161.2698598551
 10
255.6016177761
 20
161.2886158311
 10
254.9804319956
 20
161.3401643471
 10
254.3496839048
 20
161.424432442
 10
253.7102662572
 20
161.5413008438
 10
253.063084077
 20
161.6906041382
 10
252.409053378
 20
161.8721310032
 10
251.7490998678
 20
162.0856245078
 10
251.0841576366
 20
162.3307824758
 10
250.4151678359
 20
162.6072579135
 10
249.7430773458
 20
162.9146595009
 10
249.0688374353
 20
163.2525521453
 10
248.3934024157
 20
163.6204575976
 10
248.2215498504
 20
163.7187487898
  0
LWPOLYLINE
  5
EF
330
1F
100
AcDbEntity
  8
0
  6
Continuous
 62
     7
370
    18
100
AcDbPolyline
 90
       64
 70
   128
 43
0.0
 10
272.4942347991
 20
177.73107155
 10
272.4815242508
 20
178.5185491898
 10
272.4434105961
 20
179.3195875297
 10
272.3799477808
 20
180.1330527897
 10
272.2912256294
 20
180.9577936005
 10
272.177369718
 20
181.7926426338
 10
272.0385411971
 20
182.6364182541
 10
271.8749365628
 20
183.4879261915
 10
271.6867873793
 20
184.3459612316
 10
271.4743599507
 20
185.2093089218
 10
271.2379549442
 20
186.0767472899
 10
270.9779069647
 20
186.9470485741
 10
270.694584081
 20
187.81898096
 10
270.3883873051
 20
188.691310325
 10
270.0597500241
 20
189.5628019843
 10
269.7091373874
 20
190.4322224391
 10
269.337045648
 20
191.2983411217
 10
268.9440014601
 20
192.1599321382
 10
268.5305611339
 20
193.0157760027
 10
268.0973098478
 20
193.864661364
 10
267.6448608207
 20
194.7053867198
 10
267.1738544435
 20
195.5367621173
 10
266.6849573731
 20
196.3576108376
 10
266.1788615886
 20
197.1667710613
 10
265.656283412
 20
197.9630975123
 10
265.1179624943
 20
198.7454630798
 10
264.5646607686
 20
199.5127604127
 10
263.9971613715
 20
200.2639034875
 10
263.416267535
 20
200.9978291451
 10
262.8228014494
 20
201.7134985959
 10
262.2176030995
 20
202.4098988897
 10
261.6015290759
 20
203.0860443498
 10
260.9754513626
 20
203.740977968
 10
260.3402561025
 20
204.3737727589
 10
259.6968423435
 20
204.9835330723
 10
259.0461207658
 20
205.5693958606
 10
258.389012393
 20
206.1305319005
 10
257.7264472885
 20
206.6661469669
 10
257.0593632393
 20
207.1754829563
 10
256.388704428
 20
207.6578189607
 10
255.7154200974
 20
208.1124722874
 10
255.040463206
 20
208.5387994255
 10
254.36478908
 20
208.9361969566
 10
253.6893540603
 20
209.3041024088
 10
253.0151141499
 20
209.6419950532
 10
252.3430236598
 20
209.9493966406
 10
251.6740338591
 20
210.2258720783
 10
251.0090916279
 20
210.4710300463
 10
250.3491381176
 20
210.6845235509
 10
249.6951074187
 20
210.8660504159
 10
249.0479252385
 20
211.0153537104
 10
248.4085075909
 20
211.1322221121
 10
247.7777595001
 20
211.2164902071
 10
247.1565737196
 20
211.2680387231
 10
246.5458294683
 20
211.2867946991
 10
245.9463911864
 20
211.272731588
 10
245.3591073118
 20
211.2258692946
 10
244.7848090792
 20
211.1462741473
 10
244.2243093434
 20
211.0340588041
 10
243.6784014292
 20
210.8893820932
 10
243.1478580081
 20
210.7124487884
 10
242.6334300051
 20
210.5035093189
 10
242.1358455355
 20
210.2628594153
 10
241.8347546525
 20
210.0970956747
  0
LWPOLYLINE
  5
F0
330
1F
100
AcDbEntity
  8
0
  6
Continuous
 62
     7
370
    18
100
AcDbPolyline
 90
       22
 70
   128
 43
0.0
 10
267.2326904614
 20
166.1018134657
 10
267.6448608207
 20
166.3557243984
 10
268.0973098478
 20
166.6740632267
 10
268.5305611339
 20
167.0227273007
 10
268.9440014601
 20
167.4012231252
 10
269.337045648
 20
167.8090149817
 10
269.7091373874
 20
168.2455256865
 10
270.0597500241
 20
168.7101374075
 10
270.3883873051
 20
169.2021925387
 10
270.694584081
 20
169.7209946312
 10
270.9779069647
 20
170.2658093786
 10
271.2379549442
 20
170.8358656565
 10
271.4743599507
 20
171.430356614
 10
271.6867873793
 20
172.0484408157
 10
271.8749365628
 20
172.6892434324
 10
272.0385411971
 20
173.3518574798
 10
272.177369718
 20
174.0353451017
 10
272.2912256294
 20
174.7387388979
 10
272.3799477808
 20
175.461043293
 10
272.4434105961
 20
176.201235946
 10
272.4815242508
 20
176.958269197
 10
272.4942347991
 20
177.73107155
  0
ARC
  5
F1
330
1F
100
AcDbEntity
  8
0
  6
Continuous
 62
     7
370
    18
100
AcDbCircle
 10
233.8847263623
 20
176.1790428001
 30
0.0
 40
38.64759282808865
100
AcDbArc
 50
2.5438153591
 51
57.4508081082
  0
CIRCLE
  5
F2
330
1F
100
AcDbEntity
  8
0
  6
Continuous
 62
     7
370
    18
100
AcDbCircle
 10
55.2483625255
 20
122.1271877571
 30
0.0
 40
25.20493715211659
  0
CIRCLE
  5
F3
330
1F
100
AcDbEntity
  8
0
  6
Continuous
 62
     7
370
    18
100
AcDbCircle
 10
55.2483625255
 20
122.1271877571
 30
0.0
 40
25.40000000000002
  0
DIMENSION
  5
F4
330
1F
100
AcDbEntity
  8
0
  6
Continuous
 62
     7
370
    18
100
AcDbDimension
  2
_D
 10
37.2878502833
 20
104.166675515
 30
0.0
 11
96.852814796
 21
152.9423235547
 31
0.0
 70
   163
  1
<>
 71
     1
 42
-1.0
  3
SLDDIMSTYLE0
100
AcDbDiametricDimension
 15
73.2088747676
 25
140.0876999993
 35
0.0
 40
0.0
  0
LINE
  5
105
330
1F
100
AcDbEntity
  8
0
  6
PHANTOM
 62
     7
370
    35
100
AcDbLine
 10
55.2483625255
 20
153.6231877571
 30
0.0
 11
55.2483625255
 21
90.6311877571
 31
0.0
  0
LINE
  5
106
330
1F
100
AcDbEntity
  8
0
  6
Continuous
 62
     7
370
    35
100
AcDbLine
 10
55.2483625255
 20
153.6231877571
 30
0.0
 11
46.3583625255
 21
153.6231877571
 31
0.0
  0
SOLID
  5
107
330
1F
100
AcDbEntity
  8
0
  6
Continuous
 62
     7
370
    35
100
AcDbTrace
 10
46.3583625255
 20
153.6231877571
 30
0.0
 11
50.1683625255
 21
152.9881877571
 31
0.0
 12
50.1683625255
 22
154.2581877571
 32
0.0
 13
50.1683625255
 23
154.2581877571
 33
0.0
  0
LINE
  5
108
330
1F
100
AcDbEntity
  8
0
  6
Continuous
 62
     7
370
    35
100
AcDbLine
 10
55.2483625255
 20
90.6311877571
 30
0.0
 11
46.3583625255
 21
90.6311877571
 31
0.0
  0
SOLID
  5
109
330
1F
100
AcDbEntity
  8
0
  6
Continuous
 62
     7
370
    35
100
AcDbTrace
 10
46.3583625255
 20
90.6311877571
 30
0.0
 11
50.1683625255
 21
89.9961877571
 31
0.0
 12
50.1683625255
 22
91.2661877571
 32
0.0
 13
50.1683625255
 23
91.2661877571
 33
0.0
  0
MTEXT
  5
10A
330
1F
100
AcDbEntity
  8
0
  6
Continuous
 62
     7
100
AcDbMText
 10
42.9527269043
 20
155.7243212806
 30
0.0
 40
2.6458333333
 41
0.0
 71
     1
 72
     1
  1
A
  7
SLDTEXTSTYLE0
 73
     1
 44
1.0
  0
MTEXT
  5
10B
330
1F
100
AcDbEntity
  8
0
  6
Continuous
 62
     7
100
AcDbMText
 10
42.9527269043
 20
92.7323212806
 30
0.0
 40
2.6458333333
 41
0.0
 71
     1
 72
     1
  1
A
  7
SLDTEXTSTYLE0
 73
     1
 44
1.0
  0
LINE
  5
10C
330
1F
100
AcDbEntity
  8
0
  6
Continuous
 62
     7
370
    18
100
AcDbLine
 10
144.3264272189
 20
96.9271877571
 30
0.0
 11
144.1264272189
 21
96.7271877571
 31
0.0
  0
LINE
  5
10D
330
1F
100
AcDbEntity
  8
0
  6
Continuous
 62
     7
370
    18
100
AcDbLine
 10
135.2037951835
 20
96.7271877571
 30
0.0
 11
144.1264272189
 21
96.7271877571
 31
0.0
  0
LINE
  5
10E
330
1F
100
AcDbEntity
  8
0
  6
Continuous
 62
     7
370
    18
100
AcDbLine
 10
135.2037951835
 20
96.7271877571
 30
0.0
 11
135.0087323356
 21
96.922250605
 31
0.0
  0
ARC
  5
10F
330
1F
100
AcDbEntity
  8
0
  6
Continuous
 62
     7
370
    18
100
AcDbCircle
 10
-864.6736048164
 20
122.1271877571
 30
0.0
 40
1000.000032035271
100
AcDbArc
 50
358.5557105735
 51
1.4442894265
  0
LINE
  5
110
330
1F
100
AcDbEntity
  8
0
  6
Continuous
 62
     7
370
    18
100
AcDbLine
 10
135.0087323356
 20
147.3321249093
 30
0.0
 11
135.2037951835
 21
147.5271877571
 31
0.0
  0
LINE
  5
111
330
1F
100
AcDbEntity
  8
0
  6
Continuous
 62
     7
370
    18
100
AcDbLine
 10
144.1264272189
 20
147.5271877571
 30
0.0
 11
135.2037951835
 21
147.5271877571
 31
0.0
  0
LINE
  5
112
330
1F
100
AcDbEntity
  8
0
  6
Continuous
 62
     7
370
    18
100
AcDbLine
 10
144.1264272189
 20
147.5271877571
 30
0.0
 11
144.3264272189
 21
147.3271877571
 31
0.0
  0
LINE
  5
113
330
1F
100
AcDbEntity
  8
0
  6
Continuous
 62
     7
370
    18
100
AcDbLine
 10
144.3264272189
 20
119.3170468584
 30
0.0
 11
144.3264272189
 21
119.6964315148
 31
0.0
  0
LINE
  5
114
330
1F
100
AcDbEntity
  8
0
  6
Continuous
 62
     7
370
    18
100
AcDbLine
 10
144.3264272189
 20
123.1271877571
 30
0.0
 11
144.3264272189
 21
123.229661035
 31
0.0
  0
LINE
  5
115
330
1F
100
AcDbEntity
  8
0
  6
Continuous
 62
     7
370
    18
100
AcDbLine
 10
144.3264272189
 20
120.503122277
 30
0.0
 11
144.3264272189
 21
123.1271877571
 31
0.0
  0
LINE
  5
116
330
1F
100
AcDbEntity
  8
0
  6
Continuous
 62
     7
370
    18
100
AcDbLine
 10
144.3264272189
 20
123.229661035
 30
0.0
 11
144.3264272189
 21
147.3271877571
 31
0.0
  0
LINE
  5
117
330
1F
100
AcDbEntity
  8
0
  6
Continuous
 62
     7
370
    18
100
AcDbLine
 10
144.3264272189
 20
96.9271877571
 30
0.0
 11
144.3264272189
 21
118.8909391179
 31
0.0
  0
LINE
  5
118
330
1F
100
AcDbEntity
  8
0
  6
Continuous
 62
     7
370
    18
100
AcDbLine
 10
144.3264272189
 20
119.6964315148
 30
0.0
 11
144.3264272189
 21
120.503122277
 31
0.0
  0
LINE
  5
119
330
1F
100
AcDbEntity
  8
0
  6
Continuous
 62
     7
370
    18
100
AcDbLine
 10
144.3264272189
 20
118.8909391179
 30
0.0
 11
144.3264272189
 21
119.3170468584
 31
0.0
  0
HATCH
  5
11A
330
1F
100
AcDbEntity
  8
0
  6
Continuous
 62
     7
370
    18
100
AcDbHatch
 10
0.0
 20
0.0
 30
0.0
210
0.0
220
0.0
230
1.0
  2
ANSI31
 70
     0
 71
     0
 91
        1
 92
        0
 93
       14
 72
     1
 10
144.3264272188792
 20
118.8909391178757
 11
144.3264272188792
 21
119.3170468584033
 72
     1
 10
144.3264272188792
 20
119.3170468584033
 11
144.3264272188792
 21
119.6964315147893
 72
     1
 10
144.3264272188792
 20
119.6964315147893
 11
144.3264272188792
 21
120.503122277049
 72
     1
 10
144.3264272188792
 20
120.503122277049
 11
144.3264272188792
 21
123.1271877571367
 72
     1
 10
144.3264272188792
 20
123.1271877571367
 11
144.3264272188792
 21
123.2296610349502
 72
     1
 10
144.3264272188792
 20
123.2296610349502
 11
144.3264272188792
 21
147.3271877571367
 72
     1
 10
144.3264272188792
 20
147.3271877571367
 11
144.1264272188792
 21
147.5271877571367
 72
     1
 10
144.1264272188792
 20
147.5271877571367
 11
135.2037951834997
 21
147.5271877571367
 72
     1
 10
135.2037951834997
 20
147.5271877571367
 11
135.0087323356164
 21
147.3321249092535
 72
     2
 10
-864.6736048163912
 20
122.1271877571367
 40
1000.00003203527
 50
358.5557105735338
 51
361.4442894264678
 73
     0
 72
     1
 10
135.0087323356164
 20
96.92225060502328
 11
135.2037951834997
 21
96.72718775713672
 72
     1
 10
135.2037951834997
 20
96.72718775713672
 11
144.1264272188792
 21
96.72718775713672
 72
     1
 10
144.1264272188792
 20
96.72718775713672
 11
144.3264272188792
 21
96.92718775713674
 72
     1
 10
144.3264272188792
 20
96.92718775713674
 11
144.3264272188792
 21
118.8909391178757
 97
        0
 75
     0
 76
     1
 52
0.0
 41
1.0
 77
     0
 78
     1
 53
45.0
 43
0.0
 44
0.0
 45
-2.245064030267288
 46
2.245064030267288
 79
     0
 98
        1
 10
0.0
 20
0.0
  0
DIMENSION
  5
11B
330
1F
100
AcDbEntity
  8
0
  6
Continuous
 62
     7
370
    18
100
AcDbDimension
  2
_D_1
 10
144.3337978993
 20
161.2375857935
 30
0.0
 11
164.3348771212
 21
161.2269878536
 31
0.0
 70
   160
  1
<> REF
 71
     2
 42
-1.0
  3
SLDDIMSTYLE1
100
AcDbAlignedDimension
 13
135.0087323356
 23
147.3321249093
 33
0.0
 14
144.3264272189
 24
147.3271877571
 34
0.0
 50
-0.0303592204
100
AcDbRotatedDimension
  0
DIMENSION
  5
12F
330
1F
100
AcDbEntity
  8
0
  6
Continuous
 62
     7
370
    18
100
AcDbDimension
  2
_D_2
 10
-864.6736048164
 20
122.1271877571
 30
0.0
 11
169.7086826398
 21
90.661117226
 31
0.0
 70
   164
  1
<>
 71
     1
 42
-1.0
  3
SLDDIMSTYLE2
100
AcDbRadialDimension
 15
134.8535037166
 25
91.3761978849
 35
0.0
 40
0.0
  0
DIMENSION
  5
140
330
1F
100
AcDbEntity
  8
0
  6
Continuous
 62
     7
370
    18
100
AcDbDimension
  2
_D_3
 10
135.3264272189
 20
152.3146467371
 30
0.0
 11
160.3264272189
 21
152.3146467371
 31
0.0
 70
   160
  1
<>
 71
     2
 42
-1.0
  3
SLDDIMSTYLE3
100
AcDbAlignedDimension
 13
144.3264272189
 23
147.3271877571
 33
0.0
 14
135.3264272189
 24
122.1271877571
 34
0.0
100
AcDbRotatedDimension
  0
MTEXT
  5
155
330
1F
100
AcDbEntity
  8
0
  6
Continuous
 62
     7
370
     0
100
AcDbMText
 10
139.4865357272
 20
79.1423812427
 30
0.0
 40
2.1166666667
 41
0.0
 71
     2
 72
     1
  1
SECTION A-A
  7
SLDTEXTSTYLE0
 73
     1
 44
1.0
  0
MTEXT
  5
156
330
1F
100
AcDbEntity
  8
0
  6
Continuous
 62
     7
370
     0
100
AcDbMText
 10
114.4567151088
 20
101.4933836535
 30
0.0
 40
2.1166666667
 41
0.0
 71
     1
 72
     1
  1
S1
  7
SLDTEXTSTYLE0
 73
     1
 44
1.0
  0
LEADER
  5
158
330
1F
100
AcDbEntity
  8
0
  6
Continuous
 62
     7
370
     0
100
AcDbLeader
  3
SLDDIMSTYLE4
 76
     3
 10
135.3019985538
 20
115.1374284685
 30
0.0
 10
124.1598625388
 20
100.8726971273
 30
0.0
 10
117.8098625388
 20
100.8726971273
 30
0.0
  0
MTEXT
  5
159
330
1F
100
AcDbEntity
  8
0
  6
Continuous
 62
     7
370
     0
100
AcDbMText
 10
161.7174875134
 20
133.0812040772
 30
0.0
 40
2.1166666667
 41
0.0
 71
     1
 72
     1
  1
S2
  7
SLDTEXTSTYLE0
 73
     1
 44
1.0
  0
LEADER
  5
15A
330
1F
100
AcDbEntity
  8
0
  6
Continuous
 62
     7
370
     0
100
AcDbLeader
  3
SLDDIMSTYLE4
 76
     3
 10
144.3264272189
 20
120.503122277
 30
0.0
 10
154.8310877627
 20
132.5167020717
 30
0.0
 10
161.1810877627
 20
132.5167020717
 30
0.0
  0
SPLINE
  5
15B
330
1F
100
AcDbEntity
  8
0
  6
Continuous
 62
     7
370
    18
100
AcDbSpline
210
0.0
220
0.0
230
1.0
 70
     8
 71
     3
 72
    13
 73
     9
 74
     0
 42
0.000000001
 43
0.00000001
 40
0.0
 40
0.0
 40
0.0
 40
0.0
 40
0.1943389941804438
 40
0.3816850483972324
 40
0.5594858099432996
 40
0.6963399801806515
 40
0.8391066529687221
 40
0.9999999999999999
 40
0.9999999999999999
 40
0.9999999999999999
 40
0.9999999999999999
 10
223.3389159985552
 20
124.2465451934194
 30
0.0
 10
223.3360909061634
 20
124.3081776157309
 30
0.0
 10
223.3305423772598
 20
124.4292247282366
 30
0.0
 10
223.2815466691258
 20
124.6012432827759
 30
0.0
 10
223.201535283645
 20
124.7413653053137
 30
0.0
 10
223.0933017631259
 20
124.8403250328633
 30
0.0
 10
222.9642625047497
 20
124.9010955533384
 30
0.0
 10
222.8676106019219
 20
124.9076947592816
 30
0.0
 10
222.8163998822752
 20
124.9111913286772
 30
0.0
  0
SPLINE
  5
15C
330
1F
100
AcDbEntity
  8
0
  6
Continuous
 62
     7
370
    18
100
AcDbSpline
210
0.0
220
0.0
230
1.0
 70
     8
 71
     3
 72
    12
 73
     8
 74
     0
 42
0.000000001
 43
0.00000001
 40
0.0
 40
0.0
 40
0.0
 40
0.0
 40
0.2008908381631387
 40
0.3780365369998095
 40
0.5535498386387546
 40
0.7713747335183458
 40
1.0
 40
1.0
 40
1.0
 40
1.0
 10
222.8163998822752
 20
123.5818809961437
 30
0.0
 10
222.8805380537844
 20
123.5874031994516
 30
0.0
 10
223.0012333152933
 20
123.5977948859725
 30
0.0
 10
223.1539278033207
 20
123.6960552686253
 30
0.0
 10
223.2619097245208
 20
123.8435732469714
 30
0.0
 10
223.3275184770469
 20
124.0326970976995
 30
0.0
 10
223.3350560426383
 20
124.1741220598641
 30
0.0
 10
223.3389159985552
 20
124.2465451934194
 30
0.0
  0
SPLINE
  5
15D
330
1F
100
AcDbEntity
  8
0
  6
Continuous
 62
     7
370
    18
100
AcDbSpline
210
0.0
220
0.0
230
1.0
 70
     8
 71
     3
 72
    13
 73
     9
 74
     0
 42
0.000000001
 43
0.00000001
 40
0.0
 40
0.0
 40
0.0
 40
0.0
 40
0.1943256494037768
 40
0.3816748644005011
 40
0.5594881704966067
 40
0.6963511211546931
 40
0.8391184169589758
 40
1.0
 40
1.0
 40
1.0
 40
1.0
 10
222.2938657039772
 20
124.2465451934194
 30
0.0
 10
222.2966921582195
 20
124.1849165244341
 30
0.0
 10
222.3022435949082
 20
124.0638717012193
 30
0.0
 10
222.3512521238877
 20
123.891854293342
 30
0.0
 10
222.4312720374522
 20
123.7517278211429
 30
0.0
 10
222.5395078525064
 20
123.6527598475913
 30
0.0
 10
222.668543288146
 20
123.5919797546287
 30
0.0
 10
222.7651924698916
 20
123.585378515435
 30
0.0
 10
222.8163998822752
 20
123.5818809961437
 30
0.0
  0
SPLINE
  5
15E
330
1F
100
AcDbEntity
  8
0
  6
Continuous
 62
     7
370
    18
100
AcDbSpline
210
0.0
220
0.0
230
1.0
 70
     8
 71
     3
 72
    12
 73
     8
 74
     0
 42
0.000000001
 43
0.00000001
 40
0.0
 40
0.0
 40
0.0
 40
0.0
 40
0.2008792258750607
 40
0.3780217100331201
 40
0.5535332757399345
 40
0.7713595773327315
 40
1.0
 40
1.0
 40
1.0
 40
1.0
 10
222.8163998822752
 20
124.9111913286772
 30
0.0
 10
222.752266089722
 20
124.9056696651803
 30
0.0
 10
222.6315768256815
 20
124.8952788013752
 30
0.0
 10
222.4788832919636
 20
124.7970317237504
 30
0.0
 10
222.3708897219021
 20
124.6495254536112
 30
0.0
 10
222.3052662459051
 20
124.4604020857103
 30
0.0
 10
222.2977267573476
 20
124.3189727043208
 30
0.0
 10
222.2938657039772
 20
124.2465451934194
 30
0.0
  0
SPLINE
  5
15F
330
1F
100
AcDbEntity
  8
0
  6
Continuous
 62
     7
370
    18
100
AcDbSpline
210
0.0
220
0.0
230
1.0
 70
     8
 71
     3
 72
    19
 73
    15
 74
     0
 42
0.000000001
 43
0.00000001
 40
0.0
 40
0.0
 40
0.0
 40
0.0
 40
0.0915873397066451
 40
0.1741182870805898
 40
0.2526289966153892
 40
0.3313197891920882
 40
0.4131632671988439
 40
0.4999972215981986
 40
0.5868350001903235
 40
0.6686802724867941
 40
0.747371487938393
 40
0.8258819896397946
 40
0.908412700828622
 40
0.9999999999999999
 40
0.9999999999999999
 40
0.9999999999999999
 40
0.9999999999999999
 10
222.8200050464215
 20
123.0460080402608
 30
0.0
 10
222.9306426211133
 20
123.0534527528122
 30
0.0
 10
223.1409776418026
 20
123.0676060255398
 30
0.0
 10
223.4253052167717
 20
123.1909254223328
 30
0.0
 10
223.6494765033612
 20
123.3781911017026
 30
0.0
 10
223.8101557921619
 20
123.6213345271624
 30
0.0
 10
223.9062578722799
 20
123.9060918913532
 30
0.0
 10
223.936245500152
 20
124.2143445049879
 30
0.0
 10
223.9051078593121
 20
124.522485202695
 30
0.0
 10
223.8079442456676
 20
124.8068897765939
 30
0.0
 10
223.6463580546795
 20
125.049434676944
 30
0.0
 10
223.4214884952527
 20
125.2358615853301
 30
0.0
 10
223.1367021319518
 20
125.358116067688
 30
0.0
 10
222.9263161096312
 20
125.3714835299107
 30
0.0
 10
222.8156515808562
 20
125.3785149091416
 30
0.0
  0
SPLINE
  5
160
330
1F
100
AcDbEntity
  8
0
  6
Continuous
 62
     7
370
    18
100
AcDbSpline
210
0.0
220
0.0
230
1.0
 70
     8
 71
     3
 72
    14
 73
    10
 74
     0
 42
0.000000001
 43
0.00000001
 40
0.0
 40
0.0
 40
0.0
 40
0.0
 40
0.1466868109097159
 40
0.2859932799578322
 40
0.419815534109628
 40
0.5510853201411047
 40
0.6904104027401218
 40
0.8377115977293308
 40
1.0
 40
1.0
 40
1.0
 40
1.0
 10
221.7141529509028
 20
124.2183984760005
 30
0.0
 10
221.718035267782
 20
124.1297239817702
 30
0.0
 10
221.7256045681931
 20
123.9568365265435
 30
0.0
 10
221.7954237717475
 20
123.7108975270326
 30
0.0
 10
221.9077221508202
 20
123.4923942169662
 30
0.0
 10
222.0679647012332
 20
123.304953928687
 30
0.0
 10
222.2769583585691
 20
123.1594878981422
 30
0.0
 10
222.534438815785
 20
123.0631205402243
 30
0.0
 10
222.7217930353539
 20
123.0518933756244
 30
0.0
 10
222.8200050464215
 20
123.0460080402608
 30
0.0
  0
SPLINE
  5
161
330
1F
100
AcDbEntity
  8
0
  6
Continuous
 62
     7
370
    18
100
AcDbSpline
210
0.0
220
0.0
230
1.0
 70
     8
 71
     3
 72
    14
 73
    10
 74
     0
 42
0.000000001
 43
0.00000001
 40
0.0
 40
0.0
 40
0.0
 40
0.0
 40
0.155398965692284
 40
0.2968771122070972
 40
0.4305153137104959
 40
0.5617675040118884
 40
0.701406344972662
 40
0.8467289956139458
 40
1.0
 40
1.0
 40
1.0
 40
1.0
 10
222.8156515808562
 20
125.3785149091416
 30
0.0
 10
222.7224104402215
 20
125.3731599569184
 30
0.0
 10
222.5442808082308
 20
125.362929755289
 30
0.0
 10
222.2981014055567
 20
125.275927326846
 30
0.0
 10
222.0923330275267
 20
125.1423230881685
 30
0.0
 10
221.9263893401962
 20
124.962508873355
 30
0.0
 10
221.8050183025678
 20
124.7427900065758
 30
0.0
 10
221.7279458611361
 20
124.4893088199437
 30
0.0
 10
221.718831460631
 20
124.3102903725003
 30
0.0
 10
221.7141529509028
 20
124.2183984760005
 30
0.0
  0
LINE
  5
162
330
1F
100
AcDbEntity
  8
0
  6
Continuous
 62
     7
370
    18
100
AcDbLine
 10
218.5765539855
 20
124.8619000818
 30
0.0
 11
218.5765539855
 21
123.1271877571
 31
0.0
  0
LINE
  5
163
330
1F
100
AcDbEntity
  8
0
  6
Continuous
 62
     7
370
    18
100
AcDbLine
 10
217.9060596917
 20
124.8619000818
 30
0.0
 11
218.5765539855
 21
124.8619000818
 31
0.0
  0
LINE
  5
164
330
1F
100
AcDbEntity
  8
0
  6
Continuous
 62
     7
370
    18
100
AcDbLine
 10
217.9060596917
 20
125.3635365054
 30
0.0
 11
217.9060596917
 21
124.8619000818
 31
0.0
  0
LINE
  5
165
330
1F
100
AcDbEntity
  8
0
  6
Continuous
 62
     7
370
    18
100
AcDbLine
 10
220.3548719567
 20
125.3635365054
 30
0.0
 11
217.9060596917
 21
125.3635365054
 31
0.0
  0
LINE
  5
166
330
1F
100
AcDbEntity
  8
0
  6
Continuous
 62
     7
370
    18
100
AcDbLine
 10
220.3548719567
 20
124.5483615128
 30
0.0
 11
220.3548719567
 21
125.3635365054
 31
0.0
  0
LINE
  5
167
330
1F
100
AcDbEntity
  8
0
  6
Continuous
 62
     7
370
    18
100
AcDbLine
 10
221.1261381837
 20
124.5483615128
 30
0.0
 11
220.3548719567
 21
124.5483615128
 31
0.0
  0
LINE
  5
168
330
1F
100
AcDbEntity
  8
0
  6
Continuous
 62
     7
370
    18
100
AcDbLine
 10
221.1261381837
 20
125.3635365054
 30
0.0
 11
221.1261381837
 21
124.5483615128
 31
0.0
  0
LINE
  5
169
330
1F
100
AcDbEntity
  8
0
  6
Continuous
 62
     7
370
    18
100
AcDbLine
 10
221.7116506832
 20
125.3635365054
 30
0.0
 11
221.1261381837
 21
125.3635365054
 31
0.0
  0
LINE
  5
16A
330
1F
100
AcDbEntity
  8
0
  6
Continuous
 62
     7
370
    18
100
AcDbLine
 10
221.7116506832
 20
123.1271877571
 30
0.0
 11
221.7116506832
 21
125.3635365054
 31
0.0
  0
LINE
  5
16B
330
1F
100
AcDbEntity
  8
0
  6
Continuous
 62
     7
370
    18
100
AcDbLine
 10
221.1261342484
 20
123.1271877571
 30
0.0
 11
221.7116506832
 21
123.1271877571
 31
0.0
  0
LINE
  5
16C
330
1F
100
AcDbEntity
  8
0
  6
Continuous
 62
     7
370
    18
100
AcDbLine
 10
221.1261342484
 20
124.0490009035
 30
0.0
 11
221.1261342484
 21
123.1271877571
 31
0.0
  0
LINE
  5
16D
330
1F
100
AcDbEntity
  8
0
  6
Continuous
 62
     7
370
    18
100
AcDbLine
 10
220.3548680214
 20
124.0490009035
 30
0.0
 11
221.1261342484
 21
124.0490009035
 31
0.0
  0
LINE
  5
16E
330
1F
100
AcDbEntity
  8
0
  6
Continuous
 62
     7
370
    18
100
AcDbLine
 10
220.3548680214
 20
123.1271877571
 30
0.0
 11
220.3548680214
 21
124.0490009035
 31
0.0
  0
LINE
  5
16F
330
1F
100
AcDbEntity
  8
0
  6
Continuous
 62
     7
370
    18
100
AcDbLine
 10
219.7694238347
 20
123.1271877571
 30
0.0
 11
220.3548680214
 21
123.1271877571
 31
0.0
  0
LINE
  5
170
330
1F
100
AcDbEntity
  8
0
  6
Continuous
 62
     7
370
    18
100
AcDbLine
 10
219.7694238347
 20
124.864103648
 30
0.0
 11
219.7694238347
 21
123.1271877571
 31
0.0
  0
LINE
  5
171
330
1F
100
AcDbEntity
  8
0
  6
Continuous
 62
     7
370
    18
100
AcDbLine
 10
219.1620523583
 20
124.864103648
 30
0.0
 11
219.7694238347
 21
124.864103648
 31
0.0
  0
LINE
  5
172
330
1F
100
AcDbEntity
  8
0
  6
Continuous
 62
     7
370
    18
100
AcDbLine
 10
219.1620523583
 20
123.1271877571
 30
0.0
 11
219.1620523583
 21
124.864103648
 31
0.0
  0
LINE
  5
173
330
1F
100
AcDbEntity
  8
0
  6
Continuous
 62
     7
370
    18
100
AcDbLine
 10
218.5765539855
 20
123.1271877571
 30
0.0
 11
219.1620523583
 21
123.1271877571
 31
0.0
  0
SPLINE
  5
174
330
1F
100
AcDbEntity
  8
0
  6
Continuous
 62
     7
370
    18
100
AcDbSpline
210
0.0
220
0.0
230
1.0
 70
     8
 71
     3
 72
    12
 73
     8
 74
     0
 42
0.000000001
 43
0.00000001
 40
0.0
 40
0.0
 40
0.0
 40
0.0
 40
0.1970292569793941
 40
0.3714318737747092
 40
0.5434083414909542
 40
0.7603083066182464
 40
1.0
 40
1.0
 40
1.0
 40
1.0
 10
225.2743154042641
 20
124.657239356784
 30
0.0
 10
225.2721056915463
 20
124.685677518947
 30
0.0
 10
225.2679400272797
 20
124.7392880335518
 30
0.0
 10
225.2279025336268
 20
124.8090205676053
 30
0.0
 10
225.1644410160458
 20
124.8608123409415
 30
0.0
 10
225.0784434482381
 20
124.8932746330807
 30
0.0
 10
225.012878454578
 20
124.8968155274831
 30
0.0
 10
224.9784595508068
 20
124.8986743502617
 30
0.0
  0
SPLINE
  5
175
330
1F
100
AcDbEntity
  8
0
  6
Continuous
 62
     7
370
    18
100
AcDbSpline
210
0.0
220
0.0
230
1.0
 70
     8
 71
     3
 72
    12
 73
     8
 74
     0
 42
0.000000001
 43
0.00000001
 40
0.0
 40
0.0
 40
0.0
 40
0.0
 40
0.2111291888127878
 40
0.3927062339152239
 40
0.5599129747574153
 40
0.7634359056262756
 40
1.0
 40
1.0
 40
1.0
 40
1.0
 10
225.0036380037811
 20
124.3939493216285
 30
0.0
 10
225.033935958648
 20
124.3954879430444
 30
0.0
 10
225.0902910075071
 20
124.3983498221861
 30
0.0
 10
225.166615977317
 20
124.4275288458074
 30
0.0
 10
225.2279400755884
 20
124.4796892546003
 30
0.0
 10
225.2683876003786
 20
124.5598890535768
 30
0.0
 10
225.2722429839028
 20
124.6232047034042
 30
0.0
 10
225.2743154042641
 20
124.657239356784
 30
0.0
  0
LINE
  5
176
330
1F
100
AcDbEntity
  8
0
  6
Continuous
 62
     7
370
    18
100
AcDbLine
 10
224.5125678607
 20
124.3939493216
 30
0.0
 11
225.0036380038
 21
124.3939493216
 31
0.0
  0
LINE
  5
177
330
1F
100
AcDbEntity
  8
0
  6
Continuous
 62
     7
370
    18
100
AcDbLine
 10
224.5125678607
 20
124.8986743503
 30
0.0
 11
224.5125678607
 21
124.3939493216
 31
0.0
  0
LINE
  5
178
330
1F
100
AcDbEntity
  8
0
  6
Continuous
 62
     7
370
    18
100
AcDbLine
 10
224.9784595508
 20
124.8986743503
 30
0.0
 11
224.5125678607
 21
124.8986743503
 31
0.0
  0
SPLINE
  5
179
330
1F
100
AcDbEntity
  8
0
  6
Continuous
 62
     7
370
    18
100
AcDbSpline
210
0.0
220
0.0
230
1.0
 70
     8
 71
     3
 72
    14
 73
    10
 74
     0
 42
0.000000001
 43
0.00000001
 40
0.0
 40
0.0
 40
0.0
 40
0.0
 40
0.2575826845002086
 40
0.4580339644254271
 40
0.6128287983994989
 40
0.7093883131761942
 40
0.799802888308484
 40
0.8941338805613368
 40
1.0
 40
1.0
 40
1.0
 40
1.0
 10
231.894424272703
 20
123.7212114023446
 30
0.0
 10
231.9225015478862
 20
123.7140973387297
 30
0.0
 10
231.9724286060166
 20
123.7014470987999
 30
0.0
 10
232.0411152954227
 20
123.6938507821058
 30
0.0
 10
232.0923194167311
 20
123.6985436630205
 30
0.0
 10
232.1282470669768
 20
123.713652688523
 30
0.0
 10
232.1523391970231
 20
123.7348936237376
 30
0.0
 10
232.1696482165838
 20
123.7631373692071
 30
0.0
 10
232.1759840793564
 20
123.7847905949305
 30
0.0
 10
232.1793345433035
 20
123.7962410247659
 30
0.0
  0
SPLINE
  5
17A
330
1F
100
AcDbEntity
  8
0
  6
Continuous
 62
     7
370
    18
100
AcDbSpline
210
0.0
220
0.0
230
1.0
 70
     8
 71
     3
 72
    12
 73
     8
 74
     0
 42
0.000000001
 43
0.00000001
 40
0.0
 40
0.0
 40
0.0
 40
0.0
 40
0.2545415383352848
 40
0.4933538848768423
 40
0.6299818928893339
 40
0.7933578680691701
 40
1.0
 40
1.0
 40
1.0
 40
1.0
 10
231.6948028507
 20
124.004857331691
 30
0.0
 10
231.6946481558972
 20
123.9721948825417
 30
0.0
 10
231.6943483255338
 20
123.908888334295
 30
0.0
 10
231.7193421488516
 20
123.8286824895445
 30
0.0
 10
231.767399585688
 20
123.7774569177594
 30
0.0
 10
231.8235953606366
 20
123.7433327360084
 30
0.0
 10
231.8690432313188
 20
123.7291384263354
 30
0.0
 10
231.894424272703
 20
123.7212114023446
 30
0.0
  0
SPLINE
  5
17B
330
1F
100
AcDbEntity
  8
0
  6
Continuous
 62
     7
370
    18
100
AcDbSpline
210
0.0
220
0.0
230
1.0
 70
     8
 71
     3
 72
    14
 73
    10
 74
     0
 42
0.000000001
 43
0.00000001
 40
0.0
 40
0.0
 40
0.0
 40
0.0
 40
0.0123761948722825
 40
0.0260544786030458
 40
0.0423069896659046
 40
0.1107691877094737
 40
0.3353734156282139
 40
0.646563748969061
 40
1.0
 40
1.0
 40
1.0
 40
1.0
 10
232.1793345433035
 20
123.7962410247659
 30
0.0
 10
232.1796007827728
 20
123.7984776447493
 30
0.0
 10
232.1801612725378
 20
123.803186197588
 30
0.0
 10
232.177319884836
 20
123.8104920407397
 30
0.0
 10
232.1671965140246
 20
123.8250268813169
 30
0.0
 10
232.120825486069
 20
123.8578040373372
 30
0.0
 10
232.0211124842117
 20
123.9003164083033
 30
0.0
 10
231.8701717891973
 20
123.9531385965323
 30
0.0
 10
231.7556848886395
 20
123.9869023732867
 30
0.0
 10
231.6948028507
 20
124.004857331691
 30
0.0
  0
LINE
  5
17C
330
1F
100
AcDbEntity
  8
0
  6
Continuous
 62
     7
370
    18
100
AcDbLine
 10
231.1712933234
 20
124.0088670997
 30
0.0
 11
231.681003469
 21
124.0088670997
 31
0.0
  0
SPLINE
  5
17D
330
1F
100
AcDbEntity
  8
0
  6
Continuous
 62
     7
370
    18
100
AcDbSpline
210
0.0
220
0.0
230
1.0
 70
     8
 71
     3
 72
    11
 73
     7
 74
     0
 42
0.000000001
 43
0.00000001
 40
0.0
 40
0.0
 40
0.0
 40
0.0
 40
0.2403133392799487
 40
0.5276554281052314
 40
0.7630136347472218
 40
1.0
 40
1.0
 40
1.0
 40
1.0
 10
230.9555605814508
 20
124.3498599358966
 30
0.0
 10
230.9822564291981
 20
124.3295521009368
 30
0.0
 10
231.0408724386711
 20
124.2849622359642
 30
0.0
 10
231.1085537586513
 20
124.2022028742988
 30
0.0
 10
231.160305405779
 20
124.107900053568
 30
0.0
 10
231.1676222771986
 20
124.0419538558717
 30
0.0
 10
231.1712933234346
 20
124.0088670996682
 30
0.0
  0
SPLINE
  5
17E
330
1F
100
AcDbEntity
  8
0
  6
Continuous
 62
     7
370
    18
100
AcDbSpline
210
0.0
220
0.0
230
1.0
 70
     8
 71
     3
 72
    10
 73
     6
 74
     0
 42
0.000000001
 43
0.00000001
 40
0.0
 40
0.0
 40
0.0
 40
0.0
 40
0.3052209345869937
 40
0.5892711010915017
 40
0.9999999999999999
 40
0.9999999999999999
 40
0.9999999999999999
 40
0.9999999999999999
 10
231.0808748617492
 20
124.5308052313749
 30
0.0
 10
231.0733738720676
 20
124.5092595198999
 30
0.0
 10
231.0588921771769
 20
124.4676625529621
 30
0.0
 10
231.011966900689
 20
124.4091432262284
 30
0.0
 10
230.9765171969976
 20
124.3718854312774
 30
0.0
 10
230.9555605814508
 20
124.3498599358966
 30
0.0
  0
SPLINE
  5
17F
330
1F
100
AcDbEntity
  8
0
  6
Continuous
 62
     7
370
    18
100
AcDbSpline
210
0.0
220
0.0
230
1.0
 70
     8
 71
     3
 72
    11
 73
     7
 74
     0
 42
0.000000001
 43
0.00000001
 40
0.0
 40
0.0
 40
0.0
 40
0.0
 40
0.3113820865694061
 40
0.5952152429024645
 40
0.7995709864930258
 40
1.0
 40
1.0
 40
1.0
 40
1.0
 10
231.5819152387275
 20
124.0367187312941
 30
0.0
 10
231.5076113639992
 20
124.0620262834099
 30
0.0
 10
231.3655775067137
 20
124.1104023507228
 30
0.0
 10
231.203550653134
 20
124.2334759017685
 30
0.0
 10
231.0996633563069
 20
124.3780279502769
 30
0.0
 10
231.0870970589503
 20
124.4802098860209
 30
0.0
 10
231.0808748617492
 20
124.5308052313749
 30
0.0
  0
SPLINE
  5
180
330
1F
100
AcDbEntity
  8
0
  6
Continuous
 62
     7
370
    18
100
AcDbSpline
210
0.0
220
0.0
230
1.0
 70
     8
 71
     3
 72
     9
 73
     5
 74
     0
 42
0.000000001
 43
0.00000001
 40
0.0
 40
0.0
 40
0.0
 40
0.0
 40
0.5632377239369403
 40
0.9999999999999999
 40
0.9999999999999999
 40
0.9999999999999999
 40
0.9999999999999999
 10
231.6810034690125
 20
124.0088670996682
 30
0.0
 10
231.6624172533282
 20
124.0141573693253
 30
0.0
 10
231.629418370451
 20
124.0235499746715
 30
0.0
 10
231.5963557458854
 20
124.0327155526115
 30
0.0
 10
231.5819152387275
 20
124.0367187312941
 30
0.0
  0
SPLINE
  5
181
330
1F
100
AcDbEntity
  8
0
  6
Continuous
 62
     7
370
    18
100
AcDbSpline
210
0.0
220
0.0
230
1.0
 70
     8
 71
     3
 72
    13
 73
     9
 74
     0
 42
0.000000001
 43
0.00000001
 40
0.0
 40
0.0
 40
0.0
 40
0.0
 40
0.2070940199890577
 40
0.397864964662673
 40
0.5739369280037263
 40
0.7077750174858435
 40
0.8462504046616482
 40
1.0
 40
1.0
 40
1.0
 40
1.0
 10
230.3175378606006
 20
123.2295993987181
 30
0.0
 10
230.3889768528898
 20
123.2320659542563
 30
0.0
 10
230.5262240420853
 20
123.2368046523223
 30
0.0
 10
230.7199800880369
 20
123.2832340854981
 30
0.0
 10
230.8762639520686
 20
123.3617101017586
 30
0.0
 10
230.9894920257018
 20
123.4692413916885
 30
0.0
 10
231.06579629625
 20
123.5978137350897
 30
0.0
 10
231.0859731053838
 20
123.6970619075041
 30
0.0
 10
231.0965888173358
 20
123.7492797781854
 30
0.0
  0
LINE
  5
182
330
1F
100
AcDbEntity
  8
0
  6
Continuous
 62
     7
370
    18
100
AcDbLine
 10
228.8390171981
 20
123.2295993987
 30
0.0
 11
230.3175378606
 21
123.2295993987
 31
0.0
  0
LINE
  5
183
330
1F
100
AcDbEntity
  8
0
  6
Continuous
 62
     7
370
    18
100
AcDbLine
 10
228.6884160927
 20
123.5730306074
 30
0.0
 11
228.8390171981
 21
123.2295993987
 31
0.0
  0
LINE
  5
184
330
1F
100
AcDbEntity
  8
0
  6
Continuous
 62
     7
370
    18
100
AcDbLine
 10
228.0350045326
 20
123.5730306074
 30
0.0
 11
228.6884160927
 21
123.5730306074
 31
0.0
  0
LINE
  5
185
330
1F
100
AcDbEntity
  8
0
  6
Continuous
 62
     7
370
    18
100
AcDbLine
 10
227.8814412563
 20
123.2323809495
 30
0.0
 11
228.0350045326
 21
123.5730306074
 31
0.0
  0
LINE
  5
186
330
1F
100
AcDbEntity
  8
0
  6
Continuous
 62
     7
370
    18
100
AcDbLine
 10
226.012022402
 20
123.2323809495
 30
0.0
 11
227.8814412563
 21
123.2323809495
 31
0.0
  0
LINE
  5
187
330
1F
100
AcDbEntity
  8
0
  6
Continuous
 62
     7
370
    18
100
AcDbLine
 10
226.012022402
 20
125.2526176533
 30
0.0
 11
226.012022402
 21
123.2323809495
 31
0.0
  0
LINE
  5
188
330
1F
100
AcDbEntity
  8
0
  6
Continuous
 62
     7
370
    18
100
AcDbLine
 10
226.5390720848
 20
125.2526176533
 30
0.0
 11
226.012022402
 21
125.2526176533
 31
0.0
  0
LINE
  5
189
330
1F
100
AcDbEntity
  8
0
  6
Continuous
 62
     7
370
    18
100
AcDbLine
 10
226.5390720848
 20
123.6893500027
 30
0.0
 11
226.5390720848
 21
125.2526176533
 31
0.0
  0
LINE
  5
18A
330
1F
100
AcDbEntity
  8
0
  6
Continuous
 62
     7
370
    18
100
AcDbLine
 10
227.5085328344
 20
123.6893500027
 30
0.0
 11
226.5390720848
 21
123.6893500027
 31
0.0
  0
LINE
  5
18B
330
1F
100
AcDbEntity
  8
0
  6
Continuous
 62
     7
370
    18
100
AcDbLine
 10
228.0967766338
 20
125.2526176533
 30
0.0
 11
227.5085328344
 21
123.6893500027
 31
0.0
  0
LINE
  5
18C
330
1F
100
AcDbEntity
  8
0
  6
Continuous
 62
     7
370
    18
100
AcDbLine
 10
228.632243217
 20
125.2526176533
 30
0.0
 11
228.0967766338
 21
125.2526176533
 31
0.0
  0
LINE
  5
18D
330
1F
100
AcDbEntity
  8
0
  6
Continuous
 62
     7
370
    18
100
AcDbLine
 10
229.3457651727
 20
123.3692187972
 30
0.0
 11
228.632243217
 21
125.2526176533
 31
0.0
  0
LINE
  5
18E
330
1F
100
AcDbEntity
  8
0
  6
Continuous
 62
     7
370
    18
100
AcDbLine
 10
229.3457651727
 20
125.2526176533
 30
0.0
 11
229.3457651727
 21
123.3692187972
 31
0.0
  0
LINE
  5
18F
330
1F
100
AcDbEntity
  8
0
  6
Continuous
 62
     7
370
    18
100
AcDbLine
 10
230.2919981673
 20
125.2526176533
 30
0.0
 11
229.3457651727
 21
125.2526176533
 31
0.0
  0
SPLINE
  5
190
330
1F
100
AcDbEntity
  8
0
  6
Continuous
 62
     7
370
    18
100
AcDbSpline
210
0.0
220
0.0
230
1.0
 70
     8
 71
     3
 72
    14
 73
    10
 74
     0
 42
0.000000001
 43
0.00000001
 40
0.0
 40
0.0
 40
0.0
 40
0.0
 40
0.142381661263587
 40
0.265401025077828
 40
0.3802085707899266
 40
0.4953201289099334
 40
0.656243276611474
 40
0.8263515868701823
 40
1.0
 40
1.0
 40
1.0
 40
1.0
 10
231.0229680323118
 20
124.7475133223262
 30
0.0
 10
231.0201441710682
 20
124.7956162330562
 30
0.0
 10
231.014880461809
 20
124.8852806020745
 30
0.0
 10
230.9642999933085
 20
125.0055238227862
 30
0.0
 10
230.8870776997901
 20
125.0977251229768
 30
0.0
 10
230.7770728484664
 20
125.1722480464275
 30
0.0
 10
230.6345179618242
 20
125.2233657587151
 30
0.0
 10
230.466212185811
 20
125.2508484117846
 30
0.0
 10
230.3504668327871
 20
125.2520238710824
 30
0.0
 10
230.291998167268
 20
125.2526176533356
 30
0.0
  0
SPLINE
  5
191
330
1F
100
AcDbEntity
  8
0
  6
Continuous
 62
     7
370
    18
100
AcDbSpline
210
0.0
220
0.0
230
1.0
 70
     8
 71
     3
 72
    11
 73
     7
 74
     0
 42
0.000000001
 43
0.00000001
 40
0.0
 40
0.0
 40
0.0
 40
0.0
 40
0.2840562052455271
 40
0.5588619016419699
 40
0.7750993838285841
 40
1.0
 40
1.0
 40
1.0
 40
1.0
 10
230.7566255161286
 20
124.341208229315
 30
0.0
 10
230.7985316881117
 20
124.3660628000804
 30
0.0
 10
230.8809793253489
 20
124.4149625333935
 30
0.0
 10
230.96491816566
 20
124.5202774640057
 30
0.0
 10
231.0145484323131
 20
124.6336195426875
 30
0.0
 10
231.0201249945329
 20
124.7090549254491
 30
0.0
 10
231.0229680323118
 20
124.7475133223262
 30
0.0
  0
SPLINE
  5
192
330
1F
100
AcDbEntity
  8
0
  6
Continuous
 62
     7
370
    18
100
AcDbSpline
210
0.0
220
0.0
230
1.0
 70
     8
 71
     3
 72
    11
 73
     7
 74
     0
 42
0.000000001
 43
0.00000001
 40
0.0
 40
0.0
 40
0.0
 40
0.0
 40
0.2849839497112045
 40
0.5578557580524982
 40
0.7738896021956478
 40
1.0
 40
1.0
 40
1.0
 40
1.0
 10
231.1026215313195
 20
123.9150891026505
 30
0.0
 10
231.0929238964303
 20
123.9701395340575
 30
0.0
 10
231.0739407871431
 20
124.0779006910447
 30
0.0
 10
230.9875835956237
 20
124.2057876495779
 30
0.0
 10
230.8792738973722
 20
124.2960202418605
 30
0.0
 10
230.7981247779719
 20
124.3259184382511
 30
0.0
 10
230.7566255161286
 20
124.341208229315
 30
0.0
  0
LINE
  5
193
330
1F
100
AcDbEntity
  8
0
  6
Continuous
 62
     7
370
    18
100
AcDbLine
 10
231.606371211
 20
123.9150891027
 30
0.0
 11
231.1026215313
 21
123.9150891027
 31
0.0
  0
SPLINE
  5
194
330
1F
100
AcDbEntity
  8
0
  6
Continuous
 62
     7
370
    18
100
AcDbSpline
210
0.0
220
0.0
230
1.0
 70
     8
 71
     3
 72
    12
 73
     8
 74
     0
 42
0.000000001
 43
0.00000001
 40
0.0
 40
0.0
 40
0.0
 40
0.0
 40
0.302984817518161
 40
0.5555954840373184
 40
0.686125306864037
 40
0.8302562633026858
 40
1.0
 40
1.0
 40
1.0
 40
1.0
 10
231.9887802542941
 20
123.6018575879584
 30
0.0
 10
231.9319160557054
 20
123.604126365989
 30
0.0
 10
231.8276418805237
 20
123.6082867157992
 30
0.0
 10
231.7067510829968
 20
123.6672891312365
 30
0.0
 10
231.6453863875071
 20
123.7462394381861
 30
0.0
 10
231.6147379973167
 20
123.8247603290448
 30
0.0
 10
231.6093078434385
 20
123.8833848858191
 30
0.0
 10
231.6063712109852
 20
123.9150891026505
 30
0.0
  0
SPLINE
  5
195
330
1F
100
AcDbEntity
  8
0
  6
Continuous
 62
     7
370
    18
100
AcDbSpline
210
0.0
220
0.0
230
1.0
 70
     8
 71
     3
 72
    12
 73
     8
 74
     0
 42
0.000000001
 43
0.00000001
 40
0.0
 40
0.0
 40
0.0
 40
0.0
 40
0.1228977808113465
 40
0.2361517003655371
 40
0.4654549568724354
 40
0.7229435422785242
 40
0.9999999999999999
 40
0.9999999999999999
 40
0.9999999999999999
 40
0.9999999999999999
 10
232.3118013826964
 20
123.8079090883394
 30
0.0
 10
232.3104801306299
 20
123.7903829795431
 30
0.0
 10
232.3079413059247
 20
123.756706046032
 30
0.0
 10
232.2781309105318
 20
123.6960513610298
 30
0.0
 10
232.2088846126844
 20
123.6410401358602
 30
0.0
 10
232.1041154911084
 20
123.6076200007728
 30
0.0
 10
232.0281522516706
 20
123.6038247031998
 30
0.0
 10
231.9887802542941
 20
123.6018575879584
 30
0.0
  0
SPLINE
  5
196
330
1F
100
AcDbEntity
  8
0
  6
Continuous
 62
     7
370
    18
100
AcDbSpline
210
0.0
220
0.0
230
1.0
 70
     8
 71
     3
 72
    12
 73
     8
 74
     0
 42
0.000000001
 43
0.00000001
 40
0.0
 40
0.0
 40
0.0
 40
0.0
 40
0.3210306919457592
 40
0.6029592976098657
 40
0.8214028303124052
 40
0.9104117121954226
 40
1.0
 40
1.0
 40
1.0
 40
1.0
 10
231.730963010567
 20
124.1013085073602
 30
0.0
 10
231.8023381062095
 20
124.0829157341559
 30
0.0
 10
231.9363946890073
 20
124.0483704589203
 30
0.0
 10
232.1179788631095
 20
124.0003957388183
 30
0.0
 10
232.2439607300835
 20
123.9432910993379
 30
0.0
 10
232.3044462007622
 20
123.8702259388452
 30
0.0
 10
232.3093443585082
 20
123.8287262496814
 30
0.0
 10
232.3118013826964
 20
123.8079090883394
 30
0.0
  0
SPLINE
  5
197
330
1F
100
AcDbEntity
  8
0
  6
Continuous
 62
     7
370
    18
100
AcDbSpline
210
0.0
220
0.0
230
1.0
 70
     8
 71
     3
 72
    12
 73
     8
 74
     0
 42
0.000000001
 43
0.00000001
 40
0.0
 40
0.0
 40
0.0
 40
0.0
 40
0.2059303301559971
 40
0.3857152088822362
 40
0.5622731912300346
 40
0.7785006333333745
 40
1.0
 40
1.0
 40
1.0
 40
1.0
 10
231.1388539392582
 20
124.6826345539734
 30
0.0
 10
231.1438227809826
 20
124.6202347080186
 30
0.0
 10
231.1531296073358
 20
124.5033574631831
 30
0.0
 10
231.2419556370561
 20
124.3534230120569
 30
0.0
 10
231.3742232782403
 20
124.2406891177683
 30
0.0
 10
231.5413153252042
 20
124.1586292231969
 30
0.0
 10
231.6672415690302
 20
124.1205682132514
 30
0.0
 10
231.730963010567
 20
124.1013085073602
 30
0.0
  0
SPLINE
  5
198
330
1F
100
AcDbEntity
  8
0
  6
Continuous
 62
     7
370
    18
100
AcDbSpline
210
0.0
220
0.0
230
1.0
 70
     8
 71
     3
 72
    14
 73
    10
 74
     0
 42
0.000000001
 43
0.00000001
 40
0.0
 40
0.0
 40
0.0
 40
0.0
 40
0.1687571149027776
 40
0.3389805425085095
 40
0.5046286467510799
 40
0.6247827513896844
 40
0.7433698504427163
 40
0.8656643973442318
 40
1.0
 40
1.0
 40
1.0
 40
1.0
 10
231.9632766849973
 20
125.294900837276
 30
0.0
 10
231.8987410986694
 20
125.2920726156249
 30
0.0
 10
231.7691091831372
 20
125.2863915982042
 30
0.0
 10
231.5806258467274
 20
125.2400878015245
 30
0.0
 10
231.4204944385887
 20
125.1681825707888
 30
0.0
 10
231.2962388533412
 20
125.0741885975456
 30
0.0
 10
231.2084159008503
 20
124.9662094345974
 30
0.0
 10
231.1491325409542
 20
124.8326523033912
 30
0.0
 10
231.1423856607593
 20
124.7341805644948
 30
0.0
 10
231.1388539392582
 20
124.6826345539734
 30
0.0
  0
SPLINE
  5
199
330
1F
100
AcDbEntity
  8
0
  6
Continuous
 62
     7
370
    18
100
AcDbSpline
210
0.0
220
0.0
230
1.0
 70
     8
 71
     3
 72
    12
 73
     8
 74
     0
 42
0.000000001
 43
0.00000001
 40
0.0
 40
0.0
 40
0.0
 40
0.0
 40
0.1993974480574499
 40
0.3779257523812703
 40
0.5550669356786526
 40
0.7731143074051396
 40
1.0
 40
1.0
 40
1.0
 40
1.0
 10
232.773647180798
 20
124.6459686576047
 30
0.0
 10
232.7662602868901
 20
124.7237204917114
 30
0.0
 10
232.7522596190526
 20
124.871086572321
 30
0.0
 10
232.6321319216918
 20
125.0581030581355
 30
0.0
 10
232.4533150008878
 20
125.1938652325051
 30
0.0
 10
232.2236023273661
 20
125.2793814726704
 30
0.0
 10
232.0511934974724
 20
125.2896596591294
 30
0.0
 10
231.9632766849973
 20
125.294900837276
 30
0.0
  0
LINE
  5
19A
330
1F
100
AcDbEntity
  8
0
  6
Continuous
 62
     7
370
    18
100
AcDbLine
 10
232.2466697461
 20
124.6459686576
 30
0.0
 11
232.7736471808
 21
124.6459686576
 31
0.0
  0
SPLINE
  5
19B
330
1F
100
AcDbEntity
  8
0
  6
Continuous
 62
     7
370
    18
100
AcDbSpline
210
0.0
220
0.0
230
1.0
 70
     8
 71
     3
 72
    13
 73
     9
 74
     0
 42
0.000000001
 43
0.00000001
 40
0.0
 40
0.0
 40
0.0
 40
0.0
 40
0.2626041787201662
 40
0.509983956645249
 40
0.6263386331431532
 40
0.7414049134888278
 40
0.8625801387792151
 40
1.0
 40
1.0
 40
1.0
 40
1.0
 10
231.920758694824
 20
124.8885957442648
 30
0.0
 10
231.9611012524298
 20
124.8865757110628
 30
0.0
 10
232.0394475196115
 20
124.8826527554956
 30
0.0
 10
232.1321823331724
 20
124.8497321921028
 30
0.0
 10
232.1914319212261
 20
124.8051919438926
 30
0.0
 10
232.2248172919853
 20
124.7617716334868
 30
0.0
 10
232.2456720656364
 20
124.7071231262295
 30
0.0
 10
232.2463235442369
 20
124.6671896712043
 30
0.0
 10
232.2466697460928
 20
124.6459686576047
 30
0.0
  0
SPLINE
  5
19C
330
1F
100
AcDbEntity
  8
0
  6
Continuous
 62
     7
370
    18
100
AcDbSpline
210
0.0
220
0.0
230
1.0
 70
     8
 71
     3
 72
    12
 73
     8
 74
     0
 42
0.000000001
 43
0.00000001
 40
0.0
 40
0.0
 40
0.0
 40
0.0
 40
0.1338350776842965
 40
0.2542572338768605
 40
0.4899325118163999
 40
0.7434916633797872
 40
1.0
 40
1.0
 40
1.0
 40
1.0
 10
231.6659036220351
 20
124.7165008375651
 30
0.0
 10
231.667011607534
 20
124.7318773657811
 30
0.0
 10
231.6691165364735
 20
124.7610893900013
 30
0.0
 10
231.6939204921403
 20
124.8127460272887
 30
0.0
 10
231.7505150758714
 20
124.8580772612503
 30
0.0
 10
231.8330209902952
 20
124.8841210257193
 30
0.0
 10
231.8914002779272
 20
124.8870984330089
 30
0.0
 10
231.920758694824
 20
124.8885957442648
 30
0.0
  0
SPLINE
  5
19D
330
1F
100
AcDbEntity
  8
0
  6
Continuous
 62
     7
370
    18
100
AcDbSpline
210
0.0
220
0.0
230
1.0
 70
     8
 71
     3
 72
    12
 73
     8
 74
     0
 42
0.000000001
 43
0.00000001
 40
0.0
 40
0.0
 40
0.0
 40
0.0
 40
0.3295920737084764
 40
0.6175980183821557
 40
0.8358975487564522
 40
0.9197397490046714
 40
1.0
 40
1.0
 40
1.0
 40
1.0
 10
232.2523050956825
 20
124.4512059184209
 30
0.0
 10
232.1803081143989
 20
124.4693709573746
 30
0.0
 10
232.0453983379899
 20
124.5034090698067
 30
0.0
 10
231.8629164894134
 20
124.5478004849518
 30
0.0
 10
231.7372506038975
 20
124.5965200587414
 30
0.0
 10
231.6739145145446
 20
124.6606962223435
 30
0.0
 10
231.6685347774349
 20
124.6981719666558
 30
0.0
 10
231.6659036220351
 20
124.7165008375651
 30
0.0
  0
SPLINE
  5
19E
330
1F
100
AcDbEntity
  8
0
  6
Continuous
 62
     7
370
    18
100
AcDbSpline
210
0.0
220
0.0
230
1.0
 70
     8
 71
     3
 72
    12
 73
     8
 74
     0
 42
0.000000001
 43
0.00000001
 40
0.0
 40
0.0
 40
0.0
 40
0.0
 40
0.2045378821184161
 40
0.3838943514216823
 40
0.5601975822227061
 40
0.7766167962242719
 40
1.0
 40
1.0
 40
1.0
 40
1.0
 10
232.8387788174016
 20
123.8699701818974
 30
0.0
 10
232.8339148585735
 20
123.9315967025049
 30
0.0
 10
232.8247857608225
 20
124.047262675546
 30
0.0
 10
232.7381142013418
 20
124.1964805416543
 30
0.0
 10
232.6080389865681
 20
124.3101126029151
 30
0.0
 10
232.4420909187606
 20
124.3937325121848
 30
0.0
 10
232.3162313386718
 20
124.4318469437995
 30
0.0
 10
232.2523050956825
 20
124.4512059184209
 30
0.0
  0
SPLINE
  5
19F
330
1F
100
AcDbEntity
  8
0
  6
Continuous
 62
     7
370
    18
100
AcDbSpline
210
0.0
220
0.0
230
1.0
 70
     8
 71
     3
 72
    13
 73
     9
 74
     0
 42
0.000000001
 43
0.00000001
 40
0.0
 40
0.0
 40
0.0
 40
0.0
 40
0.1943984829390959
 40
0.3808229110812401
 40
0.5574598692554747
 40
0.6939226743571321
 40
0.8373010797229365
 40
1.0
 40
1.0
 40
1.0
 40
1.0
 10
231.9575690873359
 20
123.1695251271309
 30
0.0
 10
232.039810614744
 20
123.1732023620148
 30
0.0
 10
232.2009201944372
 20
123.1804059948418
 30
0.0
 10
232.429683361812
 20
123.2451864048163
 30
0.0
 10
232.6154205836623
 20
123.3520874587688
 30
0.0
 10
232.7459758107449
 20
123.4973520612199
 30
0.0
 10
232.8256672755857
 20
123.6709723003437
 30
0.0
 10
232.8342281736453
 20
123.8009036693597
 30
0.0
 10
232.8387788174016
 20
123.8699701818974
 30
0.0
  0
SPLINE
  5
1A0
330
1F
100
AcDbEntity
  8
0
  6
Continuous
 62
     7
370
    18
100
AcDbSpline
210
0.0
220
0.0
230
1.0
 70
     8
 71
     3
 72
    12
 73
     8
 74
     0
 42
0.000000001
 43
0.00000001
 40
0.0
 40
0.0
 40
0.0
 40
0.0
 40
0.1886637132768492
 40
0.3661825608804957
 40
0.5448728808046025
 40
0.7656579321773197
 40
1.0
 40
1.0
 40
1.0
 40
1.0
 10
231.0965888173358
 20
123.7492797781854
 30
0.0
 10
231.116824405763
 20
123.6807635712147
 30
0.0
 10
231.1561002127665
 20
123.547778591249
 30
0.0
 10
231.2894062326743
 20
123.3859734096482
 30
0.0
 10
231.4699860862215
 20
123.2633441409595
 30
0.0
 10
231.6982775892453
 20
123.1837717248568
 30
0.0
 10
231.869439107091
 20
123.1743673698785
 30
0.0
 10
231.9575690873359
 20
123.1695251271309
 30
0.0
  0
LINE
  5
1A1
330
1F
100
AcDbEntity
  8
0
  6
Continuous
 62
     7
370
    18
100
AcDbLine
 10
228.6651160896
 20
123.9118018154
 30
0.0
 11
228.4096830322
 21
124.7203480474
 31
0.0
  0
LINE
  5
1A2
330
1F
100
AcDbEntity
  8
0
  6
Continuous
 62
     7
370
    18
100
AcDbLine
 10
228.4096830322
 20
124.7203480474
 30
0.0
 11
228.3273924786
 21
124.7203480474
 31
0.0
  0
LINE
  5
1A3
330
1F
100
AcDbEntity
  8
0
  6
Continuous
 62
     7
370
    18
100
AcDbLine
 10
228.3273924786
 20
124.7203480474
 30
0.0
 11
228.0631812805
 21
123.9118018154
 31
0.0
  0
LINE
  5
1A4
330
1F
100
AcDbEntity
  8
0
  6
Continuous
 62
     7
370
    18
100
AcDbLine
 10
228.0631812805
 20
123.9118018154
 30
0.0
 11
228.6651160896
 21
123.9118018154
 31
0.0
  0
LINE
  5
1A5
330
1F
100
AcDbEntity
  8
0
  6
Continuous
 62
     7
370
    18
100
AcDbLine
 10
229.8260342291
 20
124.3822993201
 30
0.0
 11
230.2950687103
 21
124.3822993201
 31
0.0
  0
SPLINE
  5
1A6
330
1F
100
AcDbEntity
  8
0
  6
Continuous
 62
     7
370
    18
100
AcDbSpline
210
0.0
220
0.0
230
1.0
 70
     8
 71
     3
 72
    12
 73
     8
 74
     0
 42
0.000000001
 43
0.00000001
 40
0.0
 40
0.0
 40
0.0
 40
0.0
 40
0.242466320512141
 40
0.5040777209641408
 40
0.6506173645415592
 40
0.8119564965868009
 40
1.0
 40
1.0
 40
1.0
 40
1.0
 10
230.2950687103136
 20
124.382299320073
 30
0.0
 10
230.3265369088254
 20
124.3852923425404
 30
0.0
 10
230.3919580269219
 20
124.3915147157796
 30
0.0
 10
230.4675349420603
 20
124.4365946566314
 30
0.0
 10
230.5136685132541
 20
124.4948372683836
 30
0.0
 10
230.5385208245755
 20
124.5553329977636
 30
0.0
 10
230.5412370555665
 20
124.6007168254884
 30
0.0
 10
230.5426989759364
 20
124.625143150948
 30
0.0
  0
SPLINE
  5
1A7
330
1F
100
AcDbEntity
  8
0
  6
Continuous
 62
     7
370
    18
100
AcDbSpline
210
0.0
220
0.0
230
1.0
 70
     8
 71
     3
 72
    12
 73
     8
 74
     0
 42
0.000000001
 43
0.00000001
 40
0.0
 40
0.0
 40
0.0
 40
0.0
 40
0.2325061039550861
 40
0.422258003895175
 40
0.5928278045028547
 40
0.792214384270928
 40
1.0
 40
1.0
 40
1.0
 40
1.0
 10
230.5426989759364
 20
124.625143150948
 30
0.0
 10
230.5408772793214
 20
124.6560130729799
 30
0.0
 10
230.537568867356
 20
124.7120764254504
 30
0.0
 10
230.5033565844897
 20
124.7848774207669
 30
0.0
 10
230.4486835981471
 20
124.8366569900463
 30
0.0
 10
230.3765079006345
 20
124.8668909563865
 30
0.0
 10
230.3225858700218
 20
124.8700084733061
 30
0.0
 10
230.2950687103136
 20
124.8715993854062
 30
0.0
  0
LINE
  5
1A8
330
1F
100
AcDbEntity
  8
0
  6
Continuous
 62
     7
370
    18
100
AcDbLine
 10
230.2950687103
 20
124.8715993854
 30
0.0
 11
229.8260342291
 21
124.8715993854
 31
0.0
  0
LINE
  5
1A9
330
1F
100
AcDbEntity
  8
0
  6
Continuous
 62
     7
370
    18
100
AcDbLine
 10
229.8260342291
 20
124.8715993854
 30
0.0
 11
229.8260342291
 21
124.3822993201
 31
0.0
  0
LINE
  5
1AA
330
1F
100
AcDbEntity
  8
0
  6
Continuous
 62
     7
370
    18
100
AcDbLine
 10
229.8260342291
 20
123.5844096787
 30
0.0
 11
230.3470150738
 21
123.5844096787
 31
0.0
  0
SPLINE
  5
1AB
330
1F
100
AcDbEntity
  8
0
  6
Continuous
 62
     7
370
    18
100
AcDbSpline
210
0.0
220
0.0
230
1.0
 70
     8
 71
     3
 72
    12
 73
     8
 74
     0
 42
0.000000001
 43
0.00000001
 40
0.0
 40
0.0
 40
0.0
 40
0.0
 40
0.2382584506409018
 40
0.4976556531040064
 40
0.6448887038896378
 40
0.8084522641844554
 40
1.0
 40
1.0
 40
1.0
 40
1.0
 10
230.3470150738389
 20
123.5844096786519
 30
0.0
 10
230.3820076163389
 20
123.5878786345854
 30
0.0
 10
230.4550973075746
 20
123.5951243189506
 30
0.0
 10
230.538959023538
 20
123.6474437584596
 30
0.0
 10
230.5898745447944
 20
123.7143972577318
 30
0.0
 10
230.6173428009656
 20
123.7840368645362
 30
0.0
 10
230.6203389706781
 20
123.8361986578023
 30
0.0
 10
230.6219551105499
 20
123.8643348323077
 30
0.0
  0
SPLINE
  5
1AC
330
1F
100
AcDbEntity
  8
0
  6
Continuous
 62
     7
370
    18
100
AcDbSpline
210
0.0
220
0.0
230
1.0
 70
     8
 71
     3
 72
    12
 73
     8
 74
     0
 42
0.000000001
 43
0.00000001
 40
0.0
 40
0.0
 40
0.0
 40
0.0
 40
0.2366945835519308
 40
0.4286648826954234
 40
0.5991110185125298
 40
0.7959723284782185
 40
1.0
 40
1.0
 40
1.0
 40
1.0
 10
230.6219551105499
 20
123.8643348323077
 30
0.0
 10
230.6199416832544
 20
123.8998687144707
 30
0.0
 10
230.6162952729204
 20
123.9642222252292
 30
0.0
 10
230.5785702495255
 20
124.047946701495
 30
0.0
 10
230.5180106146467
 20
124.1077676927113
 30
0.0
 10
230.4376681086588
 20
124.1428581777107
 30
0.0
 10
230.3775907366491
 20
124.1464684651778
 30
0.0
 10
230.3470150738389
 20
124.1483058779766
 30
0.0
  0
LINE
  5
1AD
330
1F
100
AcDbEntity
  8
0
  6
Continuous
 62
     7
370
    18
100
AcDbLine
 10
230.3470150738
 20
124.148305878
 30
0.0
 11
229.8260342291
 21
124.148305878
 31
0.0
  0
LINE
  5
1AE
330
1F
100
AcDbEntity
  8
0
  6
Continuous
 62
     7
370
    18
100
AcDbLine
 10
229.8260342291
 20
124.148305878
 30
0.0
 11
229.8260342291
 21
123.5844096787
 31
0.0
  0
SPLINE
  5
1AF
330
1F
100
AcDbEntity
  8
0
  6
Continuous
 62
     7
370
    18
100
AcDbSpline
210
0.0
220
0.0
230
1.0
 70
     8
 71
     3
 72
    13
 73
     9
 74
     0
 42
0.000000001
 43
0.00000001
 40
0.0
 40
0.0
 40
0.0
 40
0.0
 40
0.5894795511906018
 40
0.8525979839264193
 40
0.9412877217975723
 40
0.9634735681078221
 40
0.9825903643577696
 40
1.0
 40
1.0
 40
1.0
 40
1.0
 10
231.9606757544174
 20
124.7546658814207
 30
0.0
 10
231.9229577110871
 20
124.7527379090626
 30
0.0
 10
231.8684039481345
 20
124.7499493723911
 30
0.0
 10
231.8098754804338
 20
124.7355492458964
 30
0.0
 10
231.7880348267733
 20
124.7247297831779
 30
0.0
 10
231.7821916705366
 20
124.7188060432309
 30
0.0
 10
231.7801409040393
 20
124.7155512581656
 30
0.0
 10
231.7798629435634
 20
124.7132097438707
 30
0.0
 10
231.7797304589391
 20
124.7120937051937
 30
0.0
  0
SPLINE
  5
1B0
330
1F
100
AcDbEntity
  8
0
  6
Continuous
 62
     7
370
    18
100
AcDbSpline
210
0.0
220
0.0
230
1.0
 70
     8
 71
     3
 72
    12
 73
     8
 74
     0
 42
0.000000001
 43
0.00000001
 40
0.0
 40
0.0
 40
0.0
 40
0.0
 40
0.1687932262470739
 40
0.3139712558224079
 40
0.4643534436981285
 40
0.6895611553267743
 40
1.0
 40
1.0
 40
1.0
 40
1.0
 10
232.1309644593256
 20
124.6535727671472
 30
0.0
 10
232.1285046520722
 20
124.6658033323144
 30
0.0
 10
232.1239291795274
 20
124.688553332361
 30
0.0
 10
232.105369612577
 20
124.7184217066538
 30
0.0
 10
232.0725749056557
 20
124.739955457756
 30
0.0
 10
232.0228270414431
 20
124.7517133916246
 30
0.0
 10
231.9834798043596
 20
124.7535825776311
 30
0.0
 10
231.9606757544174
 20
124.7546658814207
 30
0.0
  0
SPLINE
  5
1B1
330
1F
100
AcDbEntity
  8
0
  6
Continuous
 62
     7
370
    18
100
AcDbSpline
210
0.0
220
0.0
230
1.0
 70
     8
 71
     3
 72
     9
 73
     5
 74
     0
 42
0.000000001
 43
0.00000001
 40
0.0
 40
0.0
 40
0.0
 40
0.0
 40
0.5915228225856829
 40
1.0
 40
1.0
 40
1.0
 40
1.0
 10
232.1362746925927
 20
124.5694398876964
 30
0.0
 10
232.1363458789604
 20
124.5861091533578
 30
0.0
 10
232.1364662232057
 20
124.6142894112025
 30
0.0
 10
232.1325600442712
 20
124.6421800696914
 30
0.0
 10
232.1309644593256
 20
124.6535727671472
 30
0.0
  0
SPLINE
  5
1B2
330
1F
100
AcDbEntity
  8
0
  6
Continuous
 62
     7
370
    18
100
AcDbSpline
210
0.0
220
0.0
230
1.0
 70
     8
 71
     3
 72
    13
 73
     9
 74
     0
 42
0.000000001
 43
0.00000001
 40
0.0
 40
0.0
 40
0.0
 40
0.0
 40
0.0518958002713989
 40
0.1049388400652586
 40
0.1730026251899389
 40
0.2659228894279198
 40
0.550878000289066
 40
1.0
 40
1.0
 40
1.0
 40
1.0
 10
231.7797304589391
 20
124.7120937051937
 30
0.0
 10
231.7803626933672
 20
124.7050742566438
 30
0.0
 10
231.7816411387749
 20
124.6908801834265
 30
0.0
 10
231.7966217818457
 20
124.6719664942946
 30
0.0
 10
231.8210799360674
 20
124.6569731826614
 30
0.0
 10
231.8764705576224
 20
124.6350152485073
 30
0.0
 10
231.9833527313865
 20
124.6075600279655
 30
0.0
 10
232.0782281504514
 20
124.5839096362604
 30
0.0
 10
232.1362746925927
 20
124.5694398876964
 30
0.0
  0
LINE
  5
1B3
330
1F
100
AcDbEntity
  8
0
  6
Continuous
 62
     7
370
    18
100
AcDbLine
 10
226.6548496196
 20
125.3635365054
 30
0.0
 11
225.8942219211
 21
125.3635365054
 31
0.0
  0
LINE
  5
1B4
330
1F
100
AcDbEntity
  8
0
  6
Continuous
 62
     7
370
    18
100
AcDbLine
 10
226.6548496196
 20
123.7685556176
 30
0.0
 11
226.6548496196
 21
125.3635365054
 31
0.0
  0
LINE
  5
1B5
330
1F
100
AcDbEntity
  8
0
  6
Continuous
 62
     7
370
    18
100
AcDbLine
 10
227.4211463974
 20
123.7685556176
 30
0.0
 11
226.6548496196
 21
123.7685556176
 31
0.0
  0
LINE
  5
1B6
330
1F
100
AcDbEntity
  8
0
  6
Continuous
 62
     7
370
    18
100
AcDbLine
 10
228.0331355323
 20
125.3635365054
 30
0.0
 11
227.4211463974
 21
123.7685556176
 31
0.0
  0
LINE
  5
1B7
330
1F
100
AcDbEntity
  8
0
  6
Continuous
 62
     7
370
    18
100
AcDbLine
 10
228.7244278271
 20
125.3635365054
 30
0.0
 11
228.0331355323
 21
125.3635365054
 31
0.0
  0
LINE
  5
1B8
330
1F
100
AcDbEntity
  8
0
  6
Continuous
 62
     7
370
    18
100
AcDbLine
 10
229.2411460357
 20
123.9692751564
 30
0.0
 11
228.7244278271
 21
125.3635365054
 31
0.0
  0
LINE
  5
1B9
330
1F
100
AcDbEntity
  8
0
  6
Continuous
 62
     7
370
    18
100
AcDbLine
 10
229.2411460357
 20
125.3635365054
 30
0.0
 11
229.2411460357
 21
123.9692751564
 31
0.0
  0
LINE
  5
1BA
330
1F
100
AcDbEntity
  8
0
  6
Continuous
 62
     7
370
    18
100
AcDbLine
 10
230.2292361491
 20
125.3635365054
 30
0.0
 11
229.2411460357
 21
125.3635365054
 31
0.0
  0
SPLINE
  5
1BB
330
1F
100
AcDbEntity
  8
0
  6
Continuous
 62
     7
370
    18
100
AcDbSpline
210
0.0
220
0.0
230
1.0
 70
     8
 71
     3
 72
    13
 73
     9
 74
     0
 42
0.000000001
 43
0.00000001
 40
0.0
 40
0.0
 40
0.0
 40
0.0
 40
0.1129894123230106
 40
0.2349035042068367
 40
0.3805358024040095
 40
0.5310429421797477
 40
0.7319137862307437
 40
1.0
 40
1.0
 40
1.0
 40
1.0
 10
231.0983804512123
 20
124.9590737381714
 30
0.0
 10
231.0813581137831
 20
124.9939152759416
 30
0.0
 10
231.0459688978408
 20
125.066350375354
 30
0.0
 10
230.9729159741647
 20
125.1763794466022
 30
0.0
 10
230.8546586471545
 20
125.2633229591019
 30
0.0
 10
230.6932180146833
 20
125.3221037694226
 30
0.0
 10
230.482537850149
 20
125.3581597025546
 30
0.0
 10
230.3213700801726
 20
125.3615807901882
 30
0.0
 10
230.2292361491142
 20
125.3635365053552
 30
0.0
  0
SPLINE
  5
1BC
330
1F
100
AcDbEntity
  8
0
  6
Continuous
 62
     7
370
    18
100
AcDbSpline
210
0.0
220
0.0
230
1.0
 70
     8
 71
     3
 72
    12
 73
     8
 74
     0
 42
0.000000001
 43
0.00000001
 40
0.0
 40
0.0
 40
0.0
 40
0.0
 40
0.2577824677168405
 40
0.4746472252827225
 40
0.6603530347935911
 40
0.8468286435267817
 40
1.0
 40
1.0
 40
1.0
 40
1.0
 10
231.9551342090202
 20
125.3848135624597
 30
0.0
 10
231.8688728098494
 20
125.3807414662923
 30
0.0
 10
231.7100422496175
 20
125.3732436361874
 30
0.0
 10
231.4967036551549
 20
125.3085892154073
 30
0.0
 10
231.3235372868562
 20
125.2134842987303
 30
0.0
 10
231.1887250714827
 20
125.0973073685422
 30
0.0
 10
231.1264601865389
 20
125.0020377103751
 30
0.0
 10
231.0983804512123
 20
124.9590737381714
 30
0.0
  0
SPLINE
  5
1BD
330
1F
100
AcDbEntity
  8
0
  6
Continuous
 62
     7
370
    18
100
AcDbSpline
210
0.0
220
0.0
230
1.0
 70
     8
 71
     3
 72
    15
 73
    11
 74
     0
 42
0.000000001
 43
0.00000001
 40
0.0
 40
0.0
 40
0.0
 40
0.0
 40
0.1009667219583008
 40
0.2110426783902178
 40
0.3263227887254707
 40
0.4481367482187079
 40
0.5538549368465843
 40
0.6756292865222512
 40
0.8215985201030968
 40
0.9999999999999999
 40
0.9999999999999999
 40
0.9999999999999999
 40
0.9999999999999999
 10
232.8864841008196
 20
124.5373075578245
 30
0.0
 10
232.885615054238
 20
124.5861355690876
 30
0.0
 10
232.8837985555476
 20
124.6881968629234
 30
0.0
 10
232.8595074601889
 20
124.8447460798198
 30
0.0
 10
232.8034628171647
 20
125.0043843530909
 30
0.0
 10
232.7074526034261
 20
125.1425778932932
 30
0.0
 10
232.5749502852527
 20
125.2500539823498
 30
0.0
 10
232.4099345946927
 20
125.3268364803392
 30
0.0
 10
232.1985044897304
 20
125.3767428665258
 30
0.0
 10
232.0414906519854
 20
125.3819497921133
 30
0.0
 10
231.9551342090202
 20
125.3848135624597
 30
0.0
  0
LINE
  5
1BE
330
1F
100
AcDbEntity
  8
0
  6
Continuous
 62
     7
370
    18
100
AcDbLine
 10
232.2699528234
 20
124.5373075578
 30
0.0
 11
232.8864841008
 21
124.5373075578
 31
0.0
  0
SPLINE
  5
1BF
330
1F
100
AcDbEntity
  8
0
  6
Continuous
 62
     7
370
    18
100
AcDbSpline
210
0.0
220
0.0
230
1.0
 70
     8
 71
     3
 72
     9
 73
     5
 74
     0
 42
0.000000001
 43
0.00000001
 40
0.0
 40
0.0
 40
0.0
 40
0.0
 40
0.5581053349215993
 40
1.0
 40
1.0
 40
1.0
 40
1.0
 10
232.285305538634
 20
124.5332977898473
 30
0.0
 10
232.2824527442977
 20
124.5340565921576
 30
0.0
 10
232.2773411745673
 20
124.5354161962733
 30
0.0
 10
232.2722171170751
 20
124.5367279159135
 30
0.0
 10
232.2699528234057
 20
124.5373075578245
 30
0.0
  0
SPLINE
  5
1C0
330
1F
100
AcDbEntity
  8
0
  6
Continuous
 62
     7
370
    18
100
AcDbSpline
210
0.0
220
0.0
230
1.0
 70
     8
 71
     3
 72
    12
 73
     8
 74
     0
 42
0.000000001
 43
0.00000001
 40
0.0
 40
0.0
 40
0.0
 40
0.0
 40
0.2081936773952722
 40
0.3823854809342371
 40
0.5475549960392824
 40
0.7576294387459018
 40
1.0
 40
1.0
 40
1.0
 40
1.0
 10
232.9290384186137
 20
123.8148097728027
 30
0.0
 10
232.9267189370282
 20
123.8887802965252
 30
0.0
 10
232.9224587880521
 20
124.0246405908552
 30
0.0
 10
232.8470374761434
 20
124.2079266122436
 30
0.0
 10
232.7130564339329
 20
124.3528109819096
 30
0.0
 10
232.5199643592856
 20
124.4606352784317
 30
0.0
 10
232.3671609156749
 20
124.5079511301643
 30
0.0
 10
232.285305538634
 20
124.5332977898473
 30
0.0
  0
SPLINE
  5
1C1
330
1F
100
AcDbEntity
  8
0
  6
Continuous
 62
     7
370
    18
100
AcDbSpline
210
0.0
220
0.0
230
1.0
 70
     8
 71
     3
 72
    13
 73
     9
 74
     0
 42
0.000000001
 43
0.00000001
 40
0.0
 40
0.0
 40
0.0
 40
0.0
 40
0.2144903110109676
 40
0.4108455396423897
 40
0.5926499974110343
 40
0.7287207904635503
 40
0.8627130606487937
 40
1.0
 40
1.0
 40
1.0
 40
1.0
 10
231.9883480870034
 20
123.0444977305815
 30
0.0
 10
232.0851032027323
 20
123.051171672511
 30
0.0
 10
232.2704328222731
 20
123.0639552768643
 30
0.0
 10
232.5228082998765
 20
123.1614947850378
 30
0.0
 10
232.7131365073172
 20
123.2985307110198
 30
0.0
 10
232.8398690642938
 20
123.459711800029
 30
0.0
 10
232.9159894173955
 20
123.6301990095891
 30
0.0
 10
232.9246536759136
 20
123.7527766192439
 30
0.0
 10
232.9290384186137
 20
123.8148097728027
 30
0.0
  0
SPLINE
  5
1C2
330
1F
100
AcDbEntity
  8
0
  6
Continuous
 62
     7
370
    18
100
AcDbSpline
210
0.0
220
0.0
230
1.0
 70
     8
 71
     3
 72
    12
 73
     8
 74
     0
 42
0.000000001
 43
0.00000001
 40
0.0
 40
0.0
 40
0.0
 40
0.0
 40
0.1266166298736466
 40
0.2732454724470855
 40
0.4461934828620915
 40
0.6934352669522337
 40
1.0
 40
1.0
 40
1.0
 40
1.0
 10
231.0946934416743
 20
123.481889664963
 30
0.0
 10
231.1138176376388
 20
123.4415626019496
 30
0.0
 10
231.1550886773648
 20
123.3545346389045
 30
0.0
 10
231.2702511303661
 20
123.2443742957353
 30
0.0
 10
231.4413605558842
 20
123.1421717766136
 30
0.0
 10
231.6869401522582
 20
123.0640535131897
 30
0.0
 10
231.8809513753702
 20
123.0514657845158
 30
0.0
 10
231.9883480870034
 20
123.0444977305815
 30
0.0
  0
SPLINE
  5
1C3
330
1F
100
AcDbEntity
  8
0
  6
Continuous
 62
     7
370
    18
100
AcDbSpline
210
0.0
220
0.0
230
1.0
 70
     8
 71
     3
 72
    11
 73
     7
 74
     0
 42
0.000000001
 43
0.00000001
 40
0.0
 40
0.0
 40
0.0
 40
0.0
 40
0.3104248435957518
 40
0.6000686931456402
 40
0.8080123835287424
 40
0.9999999999999999
 40
0.9999999999999999
 40
0.9999999999999999
 40
0.9999999999999999
 10
230.4336235859638
 20
123.1271877571367
 30
0.0
 10
230.5153161488217
 20
123.1343791261563
 30
0.0
 10
230.6732324704215
 20
123.1482804471959
 30
0.0
 10
230.8702940647548
 20
123.2339945946497
 30
0.0
 10
231.0184446963309
 20
123.3446502447005
 30
0.0
 10
231.0699623268197
 20
123.4373763572383
 30
0.0
 10
231.0946934416743
 20
123.481889664963
 30
0.0
  0
LINE
  5
1C4
330
1F
100
AcDbEntity
  8
0
  6
Continuous
 62
     7
370
    18
100
AcDbLine
 10
228.7620071644
 20
123.1271877571
 30
0.0
 11
230.433623586
 21
123.1271877571
 31
0.0
  0
LINE
  5
1C5
330
1F
100
AcDbEntity
  8
0
  6
Continuous
 62
     7
370
    18
100
AcDbLine
 10
228.6342725737
 20
123.4571447004
 30
0.0
 11
228.7620071644
 21
123.1271877571
 31
0.0
  0
LINE
  5
1C6
330
1F
100
AcDbEntity
  8
0
  6
Continuous
 62
     7
370
    18
100
AcDbLine
 10
228.0915089354
 20
123.4571447004
 30
0.0
 11
228.6342725737
 21
123.4571447004
 31
0.0
  0
LINE
  5
1C7
330
1F
100
AcDbEntity
  8
0
  6
Continuous
 62
     7
370
    18
100
AcDbLine
 10
227.9583918633
 20
123.1271877571
 30
0.0
 11
228.0915089354
 21
123.4571447004
 31
0.0
  0
LINE
  5
1C8
330
1F
100
AcDbEntity
  8
0
  6
Continuous
 62
     7
370
    18
100
AcDbLine
 10
225.349864889
 20
123.1271877571
 30
0.0
 11
227.9583918633
 21
123.1271877571
 31
0.0
  0
SPLINE
  5
1C9
330
1F
100
AcDbEntity
  8
0
  6
Continuous
 62
     7
370
    18
100
AcDbSpline
210
0.0
220
0.0
230
1.0
 70
     8
 71
     3
 72
    11
 73
     7
 74
     0
 42
0.000000001
 43
0.00000001
 40
0.0
 40
0.0
 40
0.0
 40
0.0
 40
0.2274736611129819
 40
0.5494925387673868
 40
0.8007169048877155
 40
1.0
 40
1.0
 40
1.0
 40
1.0
 10
225.2837940274764
 20
123.4845989676504
 30
0.0
 10
225.2859599597738
 20
123.4569402870938
 30
0.0
 10
225.2911920540352
 20
123.3901271073892
 30
0.0
 10
225.3020364836679
 20
123.2933385321811
 30
0.0
 10
225.316738542938
 20
123.1995005454784
 30
0.0
 10
225.3397054296122
 20
123.14936523592
 30
0.0
 10
225.3498648890117
 20
123.1271877571367
 30
0.0
  0
SPLINE
  5
1CA
330
1F
100
AcDbEntity
  8
0
  6
Continuous
 62
     7
370
    18
100
AcDbSpline
210
0.0
220
0.0
230
1.0
 70
     8
 71
     3
 72
    13
 73
     9
 74
     0
 42
0.000000001
 43
0.00000001
 40
0.0
 40
0.0
 40
0.0
 40
0.0
 40
0.1455849753971023
 40
0.2684075940997167
 40
0.3810001390981634
 40
0.4935379506791356
 40
0.7360826269615448
 40
1.0
 40
1.0
 40
1.0
 40
1.0
 10
224.9564922008281
 20
123.9423988737389
 30
0.0
 10
224.9874928461192
 20
123.9407467541744
 30
0.0
 10
225.0446471547657
 20
123.9377008255938
 30
0.0
 10
225.1211106057303
 20
123.9070673932066
 30
0.0
 10
225.1788600468172
 20
123.8594208895368
 30
0.0
 10
225.2346071415431
 20
123.7760689916363
 30
0.0
 10
225.270487679295
 20
123.6473259790874
 30
0.0
 10
225.2792355250621
 20
123.5403461542112
 30
0.0
 10
225.2837940274764
 20
123.4845989676504
 30
0.0
  0
LINE
  5
1CB
330
1F
100
AcDbEntity
  8
0
  6
Continuous
 62
     7
370
    18
100
AcDbLine
 10
224.5125639245
 20
123.9423988737
 30
0.0
 11
224.9564922008
 21
123.9423988737
 31
0.0
  0
LINE
  5
1CC
330
1F
100
AcDbEntity
  8
0
  6
Continuous
 62
     7
370
    18
100
AcDbLine
 10
224.5125639245
 20
123.1271877571
 30
0.0
 11
224.5125639245
 21
123.9423988737
 31
0.0
  0
LINE
  5
1CD
330
1F
100
AcDbEntity
  8
0
  6
Continuous
 62
     7
370
    18
100
AcDbLine
 10
223.927051425
 20
123.1271877571
 30
0.0
 11
224.5125639245
 21
123.1271877571
 31
0.0
  0
LINE
  5
1CE
330
1F
100
AcDbEntity
  8
0
  6
Continuous
 62
     7
370
    18
100
AcDbLine
 10
223.927051425
 20
125.3635365054
 30
0.0
 11
223.927051425
 21
123.1271877571
 31
0.0
  0
LINE
  5
1CF
330
1F
100
AcDbEntity
  8
0
  6
Continuous
 62
     7
370
    18
100
AcDbLine
 10
225.0729058416
 20
125.3635365054
 30
0.0
 11
223.927051425
 21
125.3635365054
 31
0.0
  0
SPLINE
  5
1D0
330
1F
100
AcDbEntity
  8
0
  6
Continuous
 62
     7
370
    18
100
AcDbSpline
210
0.0
220
0.0
230
1.0
 70
     8
 71
     3
 72
    12
 73
     8
 74
     0
 42
0.000000001
 43
0.00000001
 40
0.0
 40
0.0
 40
0.0
 40
0.0
 40
0.2016496499628999
 40
0.3794039236986343
 40
0.5547793395586202
 40
0.7718110801448014
 40
1.0
 40
1.0
 40
1.0
 40
1.0
 10
225.8598679621738
 20
124.7334068863341
 30
0.0
 10
225.853372724855
 20
124.8101456657201
 30
0.0
 10
225.8411519323839
 20
124.9545297199659
 30
0.0
 10
225.7258404462375
 20
125.1381036661752
 30
0.0
 10
225.551754800449
 20
125.2691768349621
 30
0.0
 10
225.3273323748842
 20
125.3495265018426
 30
0.0
 10
225.1591198152463
 20
125.3587891307079
 30
0.0
 10
225.0729058415916
 20
125.3635365053552
 30
0.0
  0
SPLINE
  5
1D1
330
1F
100
AcDbEntity
  8
0
  6
Continuous
 62
     7
370
    18
100
AcDbSpline
210
0.0
220
0.0
230
1.0
 70
     8
 71
     3
 72
    11
 73
     7
 74
     0
 42
0.000000001
 43
0.00000001
 40
0.0
 40
0.0
 40
0.0
 40
0.0
 40
0.2852648350196972
 40
0.5586037747029546
 40
0.7765581993729922
 40
1.0
 40
1.0
 40
1.0
 40
1.0
 10
225.5072612484257
 20
124.1722199896968
 30
0.0
 10
225.5675531451664
 20
124.2032023188249
 30
0.0
 10
225.6856163515935
 20
124.2638717174868
 30
0.0
 10
225.7931063349121
 20
124.4180596600337
 30
0.0
 10
225.8504725096565
 20
124.577072677348
 30
0.0
 10
225.8567102955748
 20
124.6808653712682
 30
0.0
 10
225.8598679621738
 20
124.7334068863341
 30
0.0
  0
LINE
  5
1D2
330
1F
100
AcDbEntity
  8
0
  6
Continuous
 62
     7
370
    18
100
AcDbLine
 10
225.5072612484
 20
124.1659344075
 30
0.0
 11
225.5072612484
 21
124.1722199897
 31
0.0
  0
SPLINE
  5
1D3
330
1F
100
AcDbEntity
  8
0
  6
Continuous
 62
     7
370
    18
100
AcDbSpline
210
0.0
220
0.0
230
1.0
 70
     8
 71
     3
 72
    11
 73
     7
 74
     0
 42
0.000000001
 43
0.00000001
 40
0.0
 40
0.0
 40
0.0
 40
0.0
 40
0.2808304286447864
 40
0.5635450978390005
 40
0.7771991270060351
 40
1.0
 40
1.0
 40
1.0
 40
1.0
 10
225.8347256332352
 20
123.6297814676655
 30
0.0
 10
225.8270057383055
 20
123.6922449496894
 30
0.0
 10
225.8115141515694
 20
123.8175910144247
 30
0.0
 10
225.7502281463541
 20
123.9817800251347
 30
0.0
 10
225.6479119427066
 20
124.1134798810782
 30
0.0
 10
225.554795299175
 20
124.1482069719097
 30
0.0
 10
225.5072612484257
 20
124.1659344074718
 30
0.0
  0
SPLINE
  5
1D4
330
1F
100
AcDbEntity
  8
0
  6
Continuous
 62
     7
370
    18
100
AcDbSpline
210
0.0
220
0.0
230
1.0
 70
     8
 71
     3
 72
    11
 73
     7
 74
     0
 42
0.000000001
 43
0.00000001
 40
0.0
 40
0.0
 40
0.0
 40
0.0
 40
0.3074360073852277
 40
0.6261968550908458
 40
0.8442166228014035
 40
0.9999999999999999
 40
0.9999999999999999
 40
0.9999999999999999
 40
0.9999999999999999
 10
225.8929083503055
 20
123.229661035369
 30
0.0
 10
225.8830675877487
 20
123.2700075578594
 30
0.0
 10
225.8630235642225
 20
123.352186824082
 30
0.0
 10
225.8495951033592
 20
123.4655304766238
 30
0.0
 10
225.8408005451986
 20
123.5585603151416
 30
0.0
 10
225.8365126316997
 20
123.6088310257547
 30
0.0
 10
225.8347256332352
 20
123.6297814676655
 30
0.0
  0
LINE
  5
1D5
330
1F
100
AcDbEntity
  8
0
  6
Continuous
 62
     7
370
    18
100
AcDbLine
 10
225.8942219211
 20
125.3635365054
 30
0.0
 11
225.8929083503
 21
123.2296610354
 31
0.0
  0
SPLINE
  5
1D6
330
1F
100
AcDbEntity
  8
0
  6
Continuous
 62
     7
370
    18
100
AcDbSpline
210
0.0
220
0.0
230
1.0
 70
     8
 71
     3
 72
    12
 73
     8
 74
     0
 42
0.000000001
 43
0.00000001
 40
0.0
 40
0.0
 40
0.0
 40
0.0
 40
0.2554031448979543
 40
0.5239992272002586
 40
0.6685053607654261
 40
0.822947353711822
 40
1.0
 40
1.0
 40
1.0
 40
1.0
 10
230.3171766202423
 20
123.680463489927
 30
0.0
 10
230.3433070220806
 20
123.6826483407667
 30
0.0
 10
230.3969176006629
 20
123.6871309016686
 30
0.0
 10
230.4599223505641
 20
123.7198118464526
 30
0.0
 10
230.4990436668528
 20
123.7632932097013
 30
0.0
 10
230.5200725256968
 20
123.8083472473152
 30
0.0
 10
230.5223885088939
 20
123.8423700761407
 30
0.0
 10
230.5236254850174
 20
123.8605418085454
 30
0.0
  0
LINE
  5
1D7
330
1F
100
AcDbEntity
  8
0
  6
Continuous
 62
     7
370
    18
100
AcDbLine
 10
229.9259894362
 20
123.6804634899
 30
0.0
 11
230.3171766202
 21
123.6804634899
 31
0.0
  0
LINE
  5
1D8
330
1F
100
AcDbEntity
  8
0
  6
Continuous
 62
     7
370
    18
100
AcDbLine
 10
229.9259894362
 20
124.0432933058
 30
0.0
 11
229.9259894362
 21
123.6804634899
 31
0.0
  0
LINE
  5
1D9
330
1F
100
AcDbEntity
  8
0
  6
Continuous
 62
     7
370
    18
100
AcDbLine
 10
230.3171766202
 20
124.0432933058
 30
0.0
 11
229.9259894362
 21
124.0432933058
 31
0.0
  0
SPLINE
  5
1DA
330
1F
100
AcDbEntity
  8
0
  6
Continuous
 62
     7
370
    18
100
AcDbSpline
210
0.0
220
0.0
230
1.0
 70
     8
 71
     3
 72
    12
 73
     8
 74
     0
 42
0.000000001
 43
0.00000001
 40
0.0
 40
0.0
 40
0.0
 40
0.0
 40
0.2191709004622778
 40
0.4020322727962852
 40
0.5732124609680136
 40
0.7805893411712348
 40
1.0
 40
1.0
 40
1.0
 40
1.0
 10
230.5236254850174
 20
123.8605418085454
 30
0.0
 10
230.5220777983706
 20
123.8835231638076
 30
0.0
 10
230.5192388266874
 20
123.9256786072013
 30
0.0
 10
230.4900624408932
 20
123.9799355270234
 30
0.0
 10
230.4442530358359
 20
124.01790694011
 30
0.0
 10
230.3845857932138
 20
124.0398405459272
 30
0.0
 10
230.3400647853622
 20
124.0421209529299
 30
0.0
 10
230.3171766202423
 20
124.0432933058153
 30
0.0
  0
SPLINE
  5
1DB
330
1F
100
AcDbEntity
  8
0
  6
Continuous
 62
     7
370
    18
100
AcDbSpline
210
0.0
220
0.0
230
1.0
 70
     8
 71
     3
 72
    12
 73
     8
 74
     0
 42
0.000000001
 43
0.00000001
 40
0.0
 40
0.0
 40
0.0
 40
0.0
 40
0.2631780919768592
 40
0.5362228315034369
 40
0.6796343489711378
 40
0.8298665817545485
 40
1.0
 40
1.0
 40
1.0
 40
1.0
 10
230.2561269996876
 20
124.4818391008058
 30
0.0
 10
230.2779498275238
 20
124.4835316800554
 30
0.0
 10
230.3224136293768
 20
124.4869802939995
 30
0.0
 10
230.3750672061996
 20
124.5120792695593
 30
0.0
 10
230.4081111450961
 20
124.5460179517439
 30
0.0
 10
230.4258882718412
 20
124.5811595407651
 30
0.0
 10
230.4278607556157
 20
124.607846201064
 30
0.0
 10
230.4289082630682
 20
124.6220184218487
 30
0.0
  0
LINE
  5
1DC
330
1F
100
AcDbEntity
  8
0
  6
Continuous
 62
     7
370
    18
100
AcDbLine
 10
229.9286987389
 20
124.4818391008
 30
0.0
 11
230.2561269997
 21
124.4818391008
 31
0.0
  0
LINE
  5
1DD
330
1F
100
AcDbEntity
  8
0
  6
Continuous
 62
     7
370
    18
100
AcDbLine
 10
229.9286987389
 20
124.7642568129
 30
0.0
 11
229.9286987389
 21
124.4818391008
 31
0.0
  0
LINE
  5
1DE
330
1F
100
AcDbEntity
  8
0
  6
Continuous
 62
     7
370
    18
100
AcDbLine
 10
230.2561269997
 20
124.7642568129
 30
0.0
 11
229.9286987389
 21
124.7642568129
 31
0.0
  0
SPLINE
  5
1DF
330
1F
100
AcDbEntity
  8
0
  6
Continuous
 62
     7
370
    18
100
AcDbSpline
210
0.0
220
0.0
230
1.0
 70
     8
 71
     3
 72
    12
 73
     8
 74
     0
 42
0.000000001
 43
0.00000001
 40
0.0
 40
0.0
 40
0.0
 40
0.0
 40
0.2108655154368299
 40
0.3895958229608483
 40
0.5613353297982713
 40
0.7736399301224683
 40
1.0
 40
1.0
 40
1.0
 40
1.0
 10
230.4289082630682
 20
124.6220184218487
 30
0.0
 10
230.4275919328582
 20
124.6399593426143
 30
0.0
 10
230.4251598768135
 20
124.6731070470927
 30
0.0
 10
230.4003846862336
 20
124.7154235763806
 30
0.0
 10
230.3619974913849
 20
124.7447196282088
 30
0.0
 10
230.312323040795
 20
124.7615837349458
 30
0.0
 10
230.2752549193352
 20
124.7633469548734
 30
0.0
 10
230.2561269996876
 20
124.7642568129339
 30
0.0
  0
LINE
  5
1E0
330
1F
100
AcDbEntity
  8
0
  6
Continuous
 62
     7
370
    18
100
AcDbLine
 10
228.2050403692
 20
124.0195959383
 30
0.0
 11
228.5158154495
 21
124.0195959383
 31
0.0
  0
LINE
  5
1E1
330
1F
100
AcDbEntity
  8
0
  6
Continuous
 62
     7
370
    18
100
AcDbLine
 10
228.363046902
 20
124.5073787941
 30
0.0
 11
228.2050403692
 21
124.0195959383
 31
0.0
  0
LINE
  5
1E2
330
1F
100
AcDbEntity
  8
0
  6
Continuous
 62
     7
370
    18
100
AcDbLine
 10
228.5158154495
 20
124.0195959383
 30
0.0
 11
228.363046902
 21
124.5073787941
 31
0.0
  0
SPLINE
  5
1E3
330
1F
100
AcDbEntity
  8
0
  6
Continuous
 62
     7
370
    18
100
AcDbSpline
210
0.0
220
0.0
230
1.0
 70
     8
 71
     3
 72
    12
 73
     8
 74
     0
 42
0.000000001
 43
0.00000001
 40
0.0
 40
0.0
 40
0.0
 40
0.0
 40
0.1865231150417771
 40
0.3728360622105953
 40
0.5595600961534279
 40
0.779719368166368
 40
1.0
 40
1.0
 40
1.0
 40
1.0
 10
234.1069418586063
 20
119.8657331229038
 30
0.0
 10
234.1447115859349
 20
119.8519916312081
 30
0.0
 10
234.2202084829538
 20
119.8245241312599
 30
0.0
 10
234.3098683404016
 20
119.7402310966301
 30
0.0
 10
234.3711606081803
 20
119.6282787273562
 30
0.0
 10
234.4121453030037
 20
119.4990744382487
 30
0.0
 10
234.4163095136192
 20
119.4046931740885
 30
0.0
 10
234.4183921926351
 20
119.3574895389934
 30
0.0
  0
SPLINE
  5
1E4
330
1F
100
AcDbEntity
  8
0
  6
Continuous
 62
     7
370
    18
100
AcDbSpline
210
0.0
220
0.0
230
1.0
 70
     8
 71
     3
 72
    11
 73
     7
 74
     0
 42
0.000000001
 43
0.00000001
 40
0.0
 40
0.0
 40
0.0
 40
0.0
 40
0.2800132600904355
 40
0.5598106436052146
 40
0.7799087780995496
 40
1.0
 40
1.0
 40
1.0
 40
1.0
 10
234.3383407011578
 20
120.2847526486051
 30
0.0
 10
234.3353455208942
 20
120.2377350859784
 30
0.0
 10
234.329357469505
 20
120.1437362089742
 30
0.0
 10
234.2754144939123
 20
120.0222805293744
 30
0.0
 10
234.1997978745333
 20
119.926583143067
 30
0.0
 10
234.1378935398733
 20
119.8860162506083
 30
0.0
 10
234.1069418586063
 20
119.8657331229038
 30
0.0
  0
SPLINE
  5
1E5
330
1F
100
AcDbEntity
  8
0
  6
Continuous
 62
     7
370
    18
100
AcDbSpline
210
0.0
220
0.0
230
1.0
 70
     8
 71
     3
 72
    12
 73
     8
 74
     0
 42
0.000000001
 43
0.00000001
 40
0.0
 40
0.0
 40
0.0
 40
0.0
 40
0.1866910422901355
 40
0.3733006376310424
 40
0.5601167284607019
 40
0.7798728846449154
 40
1.0
 40
1.0
 40
1.0
 40
1.0
 10
233.8538624037797
 20
120.819680063008
 30
0.0
 10
233.9041132972612
 20
120.8156224781704
 30
0.0
 10
234.0045931614692
 20
120.8075090786814
 30
0.0
 10
234.138523260003
 20
120.7312841090532
 30
0.0
 10
234.249109055002
 20
120.6160885338889
 30
0.0
 10
234.3263977731357
 20
120.4621309722386
 30
0.0
 10
234.3343574876409
 20
120.3439119883417
 30
0.0
 10
234.3383407011578
 20
120.2847526486051
 30
0.0
  0
SPLINE
  5
1E6
330
1F
100
AcDbEntity
  8
0
  6
Continuous
 62
     7
370
    18
100
AcDbSpline
210
0.0
220
0.0
230
1.0
 70
     8
 71
     3
 72
    12
 73
     8
 74
     0
 42
0.000000001
 43
0.00000001
 40
0.0
 40
0.0
 40
0.0
 40
0.0
 40
0.187169846667048
 40
0.3741196032349037
 40
0.5607338791480644
 40
0.780308693330688
 40
0.9999999999999999
 40
0.9999999999999999
 40
0.9999999999999999
 40
0.9999999999999999
 10
233.3510389729381
 20
120.3126872836519
 30
0.0
 10
233.3602400846114
 20
120.3607825677463
 30
0.0
 10
233.3786314885145
 20
120.4569165814418
 30
0.0
 10
233.4381008957653
 20
120.5927354591759
 30
0.0
 10
233.536870276342
 20
120.7140914500969
 30
0.0
 10
233.6804900371134
 20
120.804101760294
 30
0.0
 10
233.7960613984605
 20
120.8144863774435
 30
0.0
 10
233.8538624037797
 20
120.819680063008
 30
0.0
  0
LINE
  5
1E7
330
1F
100
AcDbEntity
  8
0
  6
Continuous
 62
     7
370
    18
100
AcDbLine
 10
233.5645096169
 20
120.2860034532
 30
0.0
 11
233.3510389729
 21
120.3126872837
 31
0.0
  0
SPLINE
  5
1E8
330
1F
100
AcDbEntity
  8
0
  6
Continuous
 62
     7
370
    18
100
AcDbSpline
210
0.0
220
0.0
230
1.0
 70
     8
 71
     3
 72
    11
 73
     7
 74
     0
 42
0.000000001
 43
0.00000001
 40
0.0
 40
0.0
 40
0.0
 40
0.0
 40
0.2792540279117017
 40
0.5583061232959222
 40
0.7789266629868253
 40
0.9999999999999999
 40
0.9999999999999999
 40
0.9999999999999999
 40
0.9999999999999999
 10
233.8596994916999
 20
120.6062094190685
 30
0.0
 10
233.8145006545868
 20
120.6004042240912
 30
0.0
 10
233.7241356642773
 20
120.5887980319548
 30
0.0
 10
233.6300601121021
 20
120.4961114725831
 30
0.0
 10
233.5823187235981
 20
120.3905418293655
 30
0.0
 10
233.5704500414647
 20
120.3208733851589
 30
0.0
 10
233.5645096168775
 20
120.2860034531595
 30
0.0
  0
SPLINE
  5
1E9
330
1F
100
AcDbEntity
  8
0
  6
Continuous
 62
     7
370
    18
100
AcDbSpline
210
0.0
220
0.0
230
1.0
 70
     8
 71
     3
 72
    11
 73
     7
 74
     0
 42
0.000000001
 43
0.00000001
 40
0.0
 40
0.0
 40
0.0
 40
0.0
 40
0.2804610461207257
 40
0.559885553252572
 40
0.7799956456243075
 40
1.0
 40
1.0
 40
1.0
 40
1.0
 10
234.1248700572184
 20
120.296843759297
 30
0.0
 10
234.1219515675498
 20
120.3396604077868
 30
0.0
 10
234.1161253744817
 20
120.4251354613093
 30
0.0
 10
234.0507677021019
 20
120.5283039369505
 30
0.0
 10
233.9604987537457
 20
120.5955827758913
 30
0.0
 10
233.8932938636981
 20
120.6026677720689
 30
0.0
 10
233.8596994916999
 20
120.6062094190685
 30
0.0
  0
SPLINE
  5
1EA
330
1F
100
AcDbEntity
  8
0
  6
Continuous
 62
     7
370
    18
100
AcDbSpline
210
0.0
220
0.0
230
1.0
 70
     8
 71
     3
 72
    11
 73
     7
 74
     0
 42
0.000000001
 43
0.00000001
 40
0.0
 40
0.0
 40
0.0
 40
0.0
 40
0.2801509016047539
 40
0.5592967162890152
 40
0.779344391561601
 40
1.0
 40
1.0
 40
1.0
 40
1.0
 10
233.7834004138857
 20
119.9628789432903
 30
0.0
 10
233.8338883647021
 20
119.9672956816575
 30
0.0
 10
233.9346831326005
 20
119.9761133126248
 30
0.0
 10
234.052113415089
 20
120.0629101918572
 30
0.0
 10
234.1167630660726
 20
120.1780460191653
 30
0.0
 10
234.122165242805
 20
120.257208112236
 30
0.0
 10
234.1248700572184
 20
120.296843759297
 30
0.0
  0
LINE
  5
1EB
330
1F
100
AcDbEntity
  8
0
  6
Continuous
 62
     7
370
    18
100
AcDbLine
 10
233.7512964303
 20
119.9657974873
 30
0.0
 11
233.7834004139
 21
119.9628789433
 31
0.0
  0
LINE
  5
1EC
330
1F
100
AcDbEntity
  8
0
  6
Continuous
 62
     7
370
    18
100
AcDbLine
 10
233.7246125998
 20
119.7239752734
 30
0.0
 11
233.7512964303
 21
119.9657974873
 31
0.0
  0
SPLINE
  5
1ED
330
1F
100
AcDbEntity
  8
0
  6
Continuous
 62
     7
370
    18
100
AcDbSpline
210
0.0
220
0.0
230
1.0
 70
     8
 71
     3
 72
     9
 73
     5
 74
     0
 42
0.000000001
 43
0.00000001
 40
0.0
 40
0.0
 40
0.0
 40
0.0
 40
0.5596944510965765
 40
1.0
 40
1.0
 40
1.0
 40
1.0
 10
233.8717906023918
 20
119.752326843311
 30
0.0
 10
233.8437568366593
 20
119.7498922023055
 30
0.0
 10
233.7936692117463
 20
119.7455422556503
 30
0.0
 10
233.7457234047147
 20
119.7305683619137
 30
0.0
 10
233.724612599832
 20
119.7239752734128
 30
0.0
  0
SPLINE
  5
1EE
330
1F
100
AcDbEntity
  8
0
  6
Continuous
 62
     7
370
    18
100
AcDbSpline
210
0.0
220
0.0
230
1.0
 70
     8
 71
     3
 72
    11
 73
     7
 74
     0
 42
0.000000001
 43
0.00000001
 40
0.0
 40
0.0
 40
0.0
 40
0.0
 40
0.2805844227151165
 40
0.560067922227277
 40
0.7800546121183429
 40
1.0
 40
1.0
 40
1.0
 40
1.0
 10
234.2049215486957
 20
119.3549879298847
 30
0.0
 10
234.2011896818412
 20
119.4094200320582
 30
0.0
 10
234.1937405907797
 20
119.5180706623098
 30
0.0
 10
234.113852667904
 20
119.6509644216559
 30
0.0
 10
234.0001385360272
 20
119.7387225544546
 30
0.0
 10
233.9145705691531
 20
119.7477923641916
 30
0.0
 10
233.8717906023918
 20
119.752326843311
 30
0.0
  0
SPLINE
  5
1EF
330
1F
100
AcDbEntity
  8
0
  6
Continuous
 62
     7
370
    18
100
AcDbSpline
210
0.0
220
0.0
230
1.0
 70
     8
 71
     3
 72
    11
 73
     7
 74
     0
 42
0.000000001
 43
0.00000001
 40
0.0
 40
0.0
 40
0.0
 40
0.0
 40
0.2781149708072814
 40
0.5581047320844272
 40
0.7788600072296502
 40
1.0
 40
1.0
 40
1.0
 40
1.0
 10
233.8601164265513
 20
118.9251280980458
 30
0.0
 10
233.9171560229788
 20
118.9353386689335
 30
0.0
 10
234.0316197233326
 20
118.955828640808
 30
0.0
 10
234.1418557853441
 20
119.0825706028071
 30
0.0
 10
234.197409992085
 20
119.2197229316446
 30
0.0
 10
234.2024162436643
 20
119.3098734352167
 30
0.0
 10
234.2049215486957
 20
119.3549879298847
 30
0.0
  0
SPLINE
  5
1F0
330
1F
100
AcDbEntity
  8
0
  6
Continuous
 62
     7
370
    18
100
AcDbSpline
210
0.0
220
0.0
230
1.0
 70
     8
 71
     3
 72
    11
 73
     7
 74
     0
 42
0.000000001
 43
0.00000001
 40
0.0
 40
0.0
 40
0.0
 40
0.0
 40
0.2811553676135601
 40
0.5613360878206238
 40
0.7806898919970867
 40
1.0
 40
1.0
 40
1.0
 40
1.0
 10
233.537825786385
 20
119.3253855554322
 30
0.0
 10
233.5479720864104
 20
119.2735865752672
 30
0.0
 10
233.5682295135063
 20
119.170168180215
 30
0.0
 10
233.6304940867315
 20
119.0357250459457
 30
0.0
 10
233.7347826659997
 20
118.9393687889829
 30
0.0
 10
233.8183412808467
 20
118.9298746797826
 30
0.0
 10
233.8601164265513
 20
118.9251280980458
 30
0.0
  0
LINE
  5
1F1
330
1F
100
AcDbEntity
  8
0
  6
Continuous
 62
     7
370
    18
100
AcDbLine
 10
233.3243551424
 20
119.2987017249
 30
0.0
 11
233.5378257864
 21
119.3253855554
 31
0.0
  0
SPLINE
  5
1F2
330
1F
100
AcDbEntity
  8
0
  6
Continuous
 62
     7
370
    18
100
AcDbSpline
210
0.0
220
0.0
230
1.0
 70
     8
 71
     3
 72
    12
 73
     8
 74
     0
 42
0.000000001
 43
0.00000001
 40
0.0
 40
0.0
 40
0.0
 40
0.0
 40
0.1865439410818894
 40
0.3730108051258542
 40
0.5597434921546781
 40
0.7796658666461631
 40
1.0
 40
1.0
 40
1.0
 40
1.0
 10
233.8567809477398
 20
118.7116574541064
 30
0.0
 10
233.8020594766742
 20
118.716325032156
 30
0.0
 10
233.6926391445987
 20
118.7256582596849
 30
0.0
 10
233.5472628464754
 20
118.8099428555224
 30
0.0
 10
233.4293728967201
 20
118.9385446857401
 30
0.0
 10
233.3492507483745
 20
119.1070309569674
 30
0.0
 10
233.3326588503921
 20
119.2347716449226
 30
0.0
 10
233.3243551424457
 20
119.2987017249398
 30
0.0
  0
SPLINE
  5
1F3
330
1F
100
AcDbEntity
  8
0
  6
Continuous
 62
     7
370
    18
100
AcDbSpline
210
0.0
220
0.0
230
1.0
 70
     8
 71
     3
 72
    13
 73
     9
 74
     0
 42
0.000000001
 43
0.00000001
 40
0.0
 40
0.0
 40
0.0
 40
0.0
 40
0.1868283531794253
 40
0.3734106505270859
 40
0.5599403516428534
 40
0.7066981356281453
 40
0.8533139029427917
 40
1.0
 40
1.0
 40
1.0
 40
1.0
 10
234.4183921926351
 20
119.3574895389934
 30
0.0
 10
234.4152258958371
 20
119.2980580874501
 30
0.0
 10
234.4088974723032
 20
119.1792734565046
 30
0.0
 10
234.347065585207
 20
119.0093565442021
 30
0.0
 10
234.2463717679718
 20
118.8758332140621
 30
0.0
 10
234.1270053136316
 20
118.7795866329675
 30
0.0
 10
233.9969514805478
 20
118.7214252642404
 30
0.0
 10
233.9035119271813
 20
118.714913911262
 30
0.0
 10
233.8567809477398
 20
118.7116574541064
 30
0.0
  0
SPLINE
  5
1F4
330
1F
100
AcDbEntity
  8
0
  6
Continuous
 62
     7
370
    18
100
AcDbSpline
210
0.0
220
0.0
230
1.0
 70
     8
 71
     3
 72
    10
 73
     6
 74
     0
 42
0.000000001
 43
0.00000001
 40
0.0
 40
0.0
 40
0.0
 40
0.0
 40
0.2795751783825435
 40
0.5597049368157178
 40
1.0
 40
1.0
 40
1.0
 40
1.0
 10
232.9432766882257
 20
120.602873940257
 30
0.0
 10
232.9791552291312
 20
120.53037079279
 30
0.0
 10
233.0509834815058
 20
120.3852206767934
 30
0.0
 10
233.1005816048097
 20
120.0986990168076
 30
0.0
 10
233.1069763090365
 20
119.8914793353198
 30
0.0
 10
233.1108844985063
 20
119.7648348888543
 30
0.0
  0
SPLINE
  5
1F5
330
1F
100
AcDbEntity
  8
0
  6
Continuous
 62
     7
370
    18
100
AcDbSpline
210
0.0
220
0.0
230
1.0
 70
     8
 71
     3
 72
    11
 73
     7
 74
     0
 42
0.000000001
 43
0.00000001
 40
0.0
 40
0.0
 40
0.0
 40
0.0
 40
0.2798903849624062
 40
0.5594964420644583
 40
0.7796718965173927
 40
1.0
 40
1.0
 40
1.0
 40
1.0
 10
232.5651167779659
 20
120.819680063008
 30
0.0
 10
232.6078737196864
 20
120.816827544736
 30
0.0
 10
232.6933441683029
 20
120.8111254059353
 30
0.0
 10
232.8021144234058
 20
120.7575003240059
 30
0.0
 10
232.8856347489185
 20
120.685460955921
 30
0.0
 10
232.924058270117
 20
120.6304093045501
 30
0.0
 10
232.9432766882257
 20
120.602873940257
 30
0.0
  0
SPLINE
  5
1F6
330
1F
100
AcDbEntity
  8
0
  6
Continuous
 62
     7
370
    18
100
AcDbSpline
210
0.0
220
0.0
230
1.0
 70
     8
 71
     3
 72
    13
 73
     9
 74
     0
 42
0.000000001
 43
0.00000001
 40
0.0
 40
0.0
 40
0.0
 40
0.0
 40
0.2504890583456496
 40
0.5006738274425616
 40
0.625844637855521
 40
0.7507584155659034
 40
0.8753007099299314
 40
1.0
 40
1.0
 40
1.0
 40
1.0
 10
232.0168474483169
 20
119.7648348888543
 30
0.0
 10
232.019566062932
 20
119.8750750862121
 30
0.0
 10
232.0249999896419
 20
120.0954215632744
 30
0.0
 10
232.0750533616835
 20
120.3688489988217
 30
0.0
 10
232.1599888870607
 20
120.5733065331068
 30
0.0
 10
232.2569769627497
 20
120.708819154186
 30
0.0
 10
232.3989326258334
 20
120.8049184362744
 30
0.0
 10
232.5096988036155
 20
120.8147574549181
 30
0.0
 10
232.5651167779659
 20
120.819680063008
 30
0.0
  0
SPLINE
  5
1F7
330
1F
100
AcDbEntity
  8
0
  6
Continuous
 62
     7
370
    18
100
AcDbSpline
210
0.0
220
0.0
230
1.0
 70
     8
 71
     3
 72
    13
 73
     9
 74
     0
 42
0.000000001
 43
0.00000001
 40
0.0
 40
0.0
 40
0.0
 40
0.0
 40
0.1245870753534838
 40
0.24922271483854
 40
0.3742192396120911
 40
0.4992998133209625
 40
0.7494812006579982
 40
1.0
 40
1.0
 40
1.0
 40
1.0
 10
232.5626151688572
 20
118.7116574541064
 30
0.0
 10
232.5073515255684
 20
118.7172941503835
 30
0.0
 10
232.3968026971829
 20
118.7285697401259
 30
0.0
 10
232.2580137409602
 20
118.8272027529622
 30
0.0
 10
232.1549746322771
 20
118.9572070895222
 30
0.0
 10
232.0689507471087
 20
119.1615530405758
 30
0.0
 10
232.0237798604895
 20
119.4350552197616
 30
0.0
 10
232.0191592902782
 20
119.654858958685
 30
0.0
 10
232.0168474483169
 20
119.7648348888543
 30
0.0
  0
SPLINE
  5
1F8
330
1F
100
AcDbEntity
  8
0
  6
Continuous
 62
     7
370
    18
100
AcDbSpline
210
0.0
220
0.0
230
1.0
 70
     8
 71
     3
 72
    13
 73
     9
 74
     0
 42
0.000000001
 43
0.00000001
 40
0.0
 40
0.0
 40
0.0
 40
0.0
 40
0.2504702058475058
 40
0.5006494994159222
 40
0.6258027062132785
 40
0.750741095826351
 40
0.8752785399750074
 40
1.0
 40
1.0
 40
1.0
 40
1.0
 10
233.1108844985063
 20
119.7648348888543
 30
0.0
 10
233.1081710032512
 20
119.6547024333028
 30
0.0
 10
233.1027471643696
 20
119.4345654371488
 30
0.0
 10
233.0519773066456
 20
119.1616348369128
 30
0.0
 10
232.96762555921
 20
118.9572107244615
 30
0.0
 10
232.8707427992535
 20
118.8217558957292
 30
0.0
 10
232.7286661823846
 20
118.7260776309273
 30
0.0
 10
232.6179927416615
 20
118.7164665448478
 30
0.0
 10
232.5626151688572
 20
118.7116574541064
 30
0.0
  0
LINE
  5
1F9
330
1F
100
AcDbEntity
  8
0
  6
Continuous
 62
     7
370
    18
100
AcDbLine
 10
230.7360235847
 20
118.978495759
 30
0.0
 11
231.7766929739
 21
118.978495759
 31
0.0
  0
LINE
  5
1FA
330
1F
100
AcDbEntity
  8
0
  6
Continuous
 62
     7
370
    18
100
AcDbLine
 10
230.7360235847
 20
119.6722753518
 30
0.0
 11
230.7360235847
 21
118.978495759
 31
0.0
  0
LINE
  5
1FB
330
1F
100
AcDbEntity
  8
0
  6
Continuous
 62
     7
370
    18
100
AcDbLine
 10
231.6966414824
 20
119.6722753518
 30
0.0
 11
230.7360235847
 21
119.6722753518
 31
0.0
  0
LINE
  5
1FC
330
1F
100
AcDbEntity
  8
0
  6
Continuous
 62
     7
370
    18
100
AcDbLine
 10
231.6966414824
 20
119.9124298263
 30
0.0
 11
231.6966414824
 21
119.6722753518
 31
0.0
  0
LINE
  5
1FD
330
1F
100
AcDbEntity
  8
0
  6
Continuous
 62
     7
370
    18
100
AcDbLine
 10
230.7360235847
 20
119.9124298263
 30
0.0
 11
231.6966414824
 21
119.9124298263
 31
0.0
  0
LINE
  5
1FE
330
1F
100
AcDbEntity
  8
0
  6
Continuous
 62
     7
370
    18
100
AcDbLine
 10
230.7360235847
 20
120.5528417581
 30
0.0
 11
230.7360235847
 21
119.9124298263
 31
0.0
  0
LINE
  5
1FF
330
1F
100
AcDbEntity
  8
0
  6
Continuous
 62
     7
370
    18
100
AcDbLine
 10
231.7500091434
 20
120.5528417581
 30
0.0
 11
230.7360235847
 21
120.5528417581
 31
0.0
  0
LINE
  5
200
330
1F
100
AcDbEntity
  8
0
  6
Continuous
 62
     7
370
    18
100
AcDbLine
 10
231.7500091434
 20
120.7929962325
 30
0.0
 11
231.7500091434
 21
120.5528417581
 31
0.0
  0
LINE
  5
201
330
1F
100
AcDbEntity
  8
0
  6
Continuous
 62
     7
370
    18
100
AcDbLine
 10
230.5225529407
 20
120.7929962325
 30
0.0
 11
231.7500091434
 21
120.7929962325
 31
0.0
  0
LINE
  5
202
330
1F
100
AcDbEntity
  8
0
  6
Continuous
 62
     7
370
    18
100
AcDbLine
 10
230.5225529407
 20
118.7383412846
 30
0.0
 11
230.5225529407
 21
120.7929962325
 31
0.0
  0
LINE
  5
203
330
1F
100
AcDbEntity
  8
0
  6
Continuous
 62
     7
370
    18
100
AcDbLine
 10
231.7766929739
 20
118.7383412846
 30
0.0
 11
230.5225529407
 21
118.7383412846
 31
0.0
  0
LINE
  5
204
330
1F
100
AcDbEntity
  8
0
  6
Continuous
 62
     7
370
    18
100
AcDbLine
 10
231.7766929739
 20
118.978495759
 30
0.0
 11
231.7766929739
 21
118.7383412846
 31
0.0
  0
LINE
  5
205
330
1F
100
AcDbEntity
  8
0
  6
Continuous
 62
     7
370
    18
100
AcDbLine
 10
229.6419865345
 20
119.5922238604
 30
0.0
 11
230.2823984663
 21
119.5922238604
 31
0.0
  0
LINE
  5
206
330
1F
100
AcDbEntity
  8
0
  6
Continuous
 62
     7
370
    18
100
AcDbLine
 10
229.6419865345
 20
119.3520693859
 30
0.0
 11
229.6419865345
 21
119.5922238604
 31
0.0
  0
LINE
  5
207
330
1F
100
AcDbEntity
  8
0
  6
Continuous
 62
     7
370
    18
100
AcDbLine
 10
230.2823984663
 20
119.3520693859
 30
0.0
 11
229.6419865345
 21
119.3520693859
 31
0.0
  0
LINE
  5
208
330
1F
100
AcDbEntity
  8
0
  6
Continuous
 62
     7
370
    18
100
AcDbLine
 10
230.2823984663
 20
119.5922238604
 30
0.0
 11
230.2823984663
 21
119.3520693859
 31
0.0
  0
SPLINE
  5
209
330
1F
100
AcDbEntity
  8
0
  6
Continuous
 62
     7
370
    18
100
AcDbSpline
210
0.0
220
0.0
230
1.0
 70
     8
 71
     3
 72
    10
 73
     6
 74
     0
 42
0.000000001
 43
0.00000001
 40
0.0
 40
0.0
 40
0.0
 40
0.0
 40
0.2795751783825443
 40
0.559704936815718
 40
1.0
 40
1.0
 40
1.0
 40
1.0
 10
229.2875919107636
 20
120.602873940257
 30
0.0
 10
229.3234704516691
 20
120.53037079279
 30
0.0
 10
229.3952987040437
 20
120.3852206767935
 30
0.0
 10
229.4448968273475
 20
120.0986990168076
 30
0.0
 10
229.4512915315744
 20
119.8914793353198
 30
0.0
 10
229.4551997210442
 20
119.7648348888543
 30
0.0
  0
SPLINE
  5
20A
330
1F
100
AcDbEntity
  8
0
  6
Continuous
 62
     7
370
    18
100
AcDbSpline
210
0.0
220
0.0
230
1.0
 70
     8
 71
     3
 72
    11
 73
     7
 74
     0
 42
0.000000001
 43
0.00000001
 40
0.0
 40
0.0
 40
0.0
 40
0.0
 40
0.2798903849624051
 40
0.5594964420644629
 40
0.7796718965173829
 40
1.0
 40
1.0
 40
1.0
 40
1.0
 10
228.9094320005038
 20
120.819680063008
 30
0.0
 10
228.9521889422243
 20
120.816827544736
 30
0.0
 10
229.0376593908408
 20
120.8111254059353
 30
0.0
 10
229.1464296459437
 20
120.7575003240059
 30
0.0
 10
229.2299499714564
 20
120.685460955921
 30
0.0
 10
229.2683734926549
 20
120.6304093045501
 30
0.0
 10
229.2875919107636
 20
120.602873940257
 30
0.0
  0
SPLINE
  5
20B
330
1F
100
AcDbEntity
  8
0
  6
Continuous
 62
     7
370
    18
100
AcDbSpline
210
0.0
220
0.0
230
1.0
 70
     8
 71
     3
 72
    13
 73
     9
 74
     0
 42
0.000000001
 43
0.00000001
 40
0.0
 40
0.0
 40
0.0
 40
0.0
 40
0.2504890583456496
 40
0.5006738274425618
 40
0.6258446378555217
 40
0.7507584155659035
 40
0.8753007099299326
 40
1.0
 40
1.0
 40
1.0
 40
1.0
 10
228.3611626708548
 20
119.7648348888543
 30
0.0
 10
228.3638812854699
 20
119.8750750862121
 30
0.0
 10
228.3693152121798
 20
120.0954215632744
 30
0.0
 10
228.4193685842214
 20
120.3688489988217
 30
0.0
 10
228.5043041095986
 20
120.5733065331068
 30
0.0
 10
228.6012921852876
 20
120.708819154186
 30
0.0
 10
228.7432478483712
 20
120.8049184362744
 30
0.0
 10
228.8540140261534
 20
120.8147574549181
 30
0.0
 10
228.9094320005038
 20
120.819680063008
 30
0.0
  0
SPLINE
  5
20C
330
1F
100
AcDbEntity
  8
0
  6
Continuous
 62
     7
370
    18
100
AcDbSpline
210
0.0
220
0.0
230
1.0
 70
     8
 71
     3
 72
    13
 73
     9
 74
     0
 42
0.000000001
 43
0.00000001
 40
0.0
 40
0.0
 40
0.0
 40
0.0
 40
0.124587075353485
 40
0.2492227148385401
 40
0.3742192396120919
 40
0.4992998133209632
 40
0.749481200657996
 40
1.0
 40
1.0
 40
1.0
 40
1.0
 10
228.9069303913951
 20
118.7116574541064
 30
0.0
 10
228.8516667481063
 20
118.7172941503835
 30
0.0
 10
228.7411179197208
 20
118.7285697401259
 30
0.0
 10
228.602328963498
 20
118.8272027529622
 30
0.0
 10
228.499289854815
 20
118.9572070895222
 30
0.0
 10
228.4132659696466
 20
119.1615530405758
 30
0.0
 10
228.3680950830273
 20
119.4350552197616
 30
0.0
 10
228.3634745128161
 20
119.654858958685
 30
0.0
 10
228.3611626708548
 20
119.7648348888543
 30
0.0
  0
SPLINE
  5
20D
330
1F
100
AcDbEntity
  8
0
  6
Continuous
 62
     7
370
    18
100
AcDbSpline
210
0.0
220
0.0
230
1.0
 70
     8
 71
     3
 72
    13
 73
     9
 74
     0
 42
0.000000001
 43
0.00000001
 40
0.0
 40
0.0
 40
0.0
 40
0.0
 40
0.2504702058475086
 40
0.5006494994159222
 40
0.6258027062132785
 40
0.750741095826351
 40
0.8752785399750086
 40
0.9999999999999999
 40
0.9999999999999999
 40
0.9999999999999999
 40
0.9999999999999999
 10
229.4551997210442
 20
119.7648348888543
 30
0.0
 10
229.452486225789
 20
119.6547024333028
 30
0.0
 10
229.4470623869075
 20
119.4345654371488
 30
0.0
 10
229.3962925291834
 20
119.1616348369128
 30
0.0
 10
229.3119407817478
 20
118.9572107244615
 30
0.0
 10
229.2150580217914
 20
118.8217558957292
 30
0.0
 10
229.0729814049225
 20
118.7260776309274
 30
0.0
 10
228.9623079641994
 20
118.7164665448478
 30
0.0
 10
228.9069303913951
 20
118.7116574541064
 30
0.0
  0
SPLINE
  5
20E
330
1F
100
AcDbEntity
  8
0
  6
Continuous
 62
     7
370
    18
100
AcDbSpline
210
0.0
220
0.0
230
1.0
 70
     8
 71
     3
 72
    10
 73
     6
 74
     0
 42
0.000000001
 43
0.00000001
 40
0.0
 40
0.0
 40
0.0
 40
0.0
 40
0.2795751783825443
 40
0.559704936815718
 40
1.0
 40
1.0
 40
1.0
 40
1.0
 10
227.9800842166348
 20
120.602873940257
 30
0.0
 10
228.0159627575403
 20
120.53037079279
 30
0.0
 10
228.0877910099149
 20
120.3852206767935
 30
0.0
 10
228.1373891332187
 20
120.0986990168076
 30
0.0
 10
228.1437838374456
 20
119.8914793353198
 30
0.0
 10
228.1476920269153
 20
119.7648348888543
 30
0.0
  0
SPLINE
  5
20F
330
1F
100
AcDbEntity
  8
0
  6
Continuous
 62
     7
370
    18
100
AcDbSpline
210
0.0
220
0.0
230
1.0
 70
     8
 71
     3
 72
    11
 73
     7
 74
     0
 42
0.000000001
 43
0.00000001
 40
0.0
 40
0.0
 40
0.0
 40
0.0
 40
0.2798903849624034
 40
0.5594964420644563
 40
0.7796718965173836
 40
1.0
 40
1.0
 40
1.0
 40
1.0
 10
227.601924306375
 20
120.819680063008
 30
0.0
 10
227.6446812480955
 20
120.816827544736
 30
0.0
 10
227.730151696712
 20
120.8111254059353
 30
0.0
 10
227.8389219518149
 20
120.7575003240059
 30
0.0
 10
227.9224422773276
 20
120.685460955921
 30
0.0
 10
227.9608657985261
 20
120.6304093045501
 30
0.0
 10
227.9800842166348
 20
120.602873940257
 30
0.0
  0
SPLINE
  5
210
330
1F
100
AcDbEntity
  8
0
  6
Continuous
 62
     7
370
    18
100
AcDbSpline
210
0.0
220
0.0
230
1.0
 70
     8
 71
     3
 72
    13
 73
     9
 74
     0
 42
0.000000001
 43
0.00000001
 40
0.0
 40
0.0
 40
0.0
 40
0.0
 40
0.2504890583456467
 40
0.5006738274425611
 40
0.6258446378555207
 40
0.7507584155659023
 40
0.8753007099299301
 40
1.0
 40
1.0
 40
1.0
 40
1.0
 10
227.053654976726
 20
119.7648348888543
 30
0.0
 10
227.0563735913411
 20
119.8750750862121
 30
0.0
 10
227.061807518051
 20
120.0954215632744
 30
0.0
 10
227.1118608900925
 20
120.3688489988217
 30
0.0
 10
227.1967964154698
 20
120.5733065331068
 30
0.0
 10
227.2937844911588
 20
120.708819154186
 30
0.0
 10
227.4357401542424
 20
120.8049184362744
 30
0.0
 10
227.5465063320246
 20
120.8147574549181
 30
0.0
 10
227.601924306375
 20
120.819680063008
 30
0.0
  0
SPLINE
  5
211
330
1F
100
AcDbEntity
  8
0
  6
Continuous
 62
     7
370
    18
100
AcDbSpline
210
0.0
220
0.0
230
1.0
 70
     8
 71
     3
 72
    13
 73
     9
 74
     0
 42
0.000000001
 43
0.00000001
 40
0.0
 40
0.0
 40
0.0
 40
0.0
 40
0.1245870753534849
 40
0.249222714838541
 40
0.3742192396120927
 40
0.4992998133209628
 40
0.7494812006579985
 40
1.0
 40
1.0
 40
1.0
 40
1.0
 10
227.5994226972663
 20
118.7116574541064
 30
0.0
 10
227.5441590539775
 20
118.7172941503835
 30
0.0
 10
227.433610225592
 20
118.7285697401259
 30
0.0
 10
227.2948212693693
 20
118.8272027529622
 30
0.0
 10
227.1917821606862
 20
118.9572070895222
 30
0.0
 10
227.1057582755178
 20
119.1615530405758
 30
0.0
 10
227.0605873888986
 20
119.4350552197616
 30
0.0
 10
227.0559668186873
 20
119.654858958685
 30
0.0
 10
227.053654976726
 20
119.7648348888543
 30
0.0
  0
SPLINE
  5
212
330
1F
100
AcDbEntity
  8
0
  6
Continuous
 62
     7
370
    18
100
AcDbSpline
210
0.0
220
0.0
230
1.0
 70
     8
 71
     3
 72
    13
 73
     9
 74
     0
 42
0.000000001
 43
0.00000001
 40
0.0
 40
0.0
 40
0.0
 40
0.0
 40
0.2504702058475088
 40
0.5006494994159224
 40
0.6258027062132794
 40
0.750741095826352
 40
0.8752785399750086
 40
1.0
 40
1.0
 40
1.0
 40
1.0
 10
228.1476920269153
 20
119.7648348888543
 30
0.0
 10
228.1449785316602
 20
119.6547024333028
 30
0.0
 10
228.1395546927787
 20
119.4345654371488
 30
0.0
 10
228.0887848350546
 20
119.1616348369128
 30
0.0
 10
228.004433087619
 20
118.9572107244615
 30
0.0
 10
227.9075503276626
 20
118.8217558957292
 30
0.0
 10
227.7654737107937
 20
118.7260776309273
 30
0.0
 10
227.6548002700706
 20
118.7164665448478
 30
0.0
 10
227.5994226972663
 20
118.7116574541064
 30
0.0
  0
SPLINE
  5
213
330
1F
100
AcDbEntity
  8
0
  6
Continuous
 62
     7
370
    18
100
AcDbSpline
210
0.0
220
0.0
230
1.0
 70
     8
 71
     3
 72
    12
 73
     8
 74
     0
 42
0.000000001
 43
0.00000001
 40
0.0
 40
0.0
 40
0.0
 40
0.0
 40
0.1861323399318238
 40
0.3726108819815571
 40
0.5594136204052339
 40
0.7795030968206015
 40
0.9999999999999999
 40
0.9999999999999999
 40
0.9999999999999999
 40
0.9999999999999999
 10
226.3390286413507
 20
120.0992166397125
 30
0.0
 10
226.3966709562858
 20
120.0925307393296
 30
0.0
 10
226.5120627996123
 20
120.0791465029341
 30
0.0
 10
226.654208524441
 20
119.9720348587706
 30
0.0
 10
226.7653785432452
 20
119.8264735409578
 30
0.0
 10
226.8311754430261
 20
119.6411489304598
 30
0.0
 10
226.8371795188017
 20
119.5057300293484
 30
0.0
 10
226.8401843327866
 20
119.4379579653221
 30
0.0
  0
SPLINE
  5
214
330
1F
100
AcDbEntity
  8
0
  6
Continuous
 62
     7
370
    18
100
AcDbSpline
210
0.0
220
0.0
230
1.0
 70
     8
 71
     3
 72
     9
 73
     5
 74
     0
 42
0.000000001
 43
0.00000001
 40
0.0
 40
0.0
 40
0.0
 40
0.0
 40
0.5597945537684287
 40
1.0
 40
1.0
 40
1.0
 40
1.0
 10
226.0346661997965
 20
120.0187482133838
 30
0.0
 10
226.088787005837
 20
120.0445562185293
 30
0.0
 10
226.185466771076
 20
120.0906588555982
 30
0.0
 10
226.2920917464755
 20
120.0966009134738
 30
0.0
 10
226.3390286413507
 20
120.0992166397125
 30
0.0
  0
LINE
  5
215
330
1F
100
AcDbEntity
  8
0
  6
Continuous
 62
     7
370
    18
100
AcDbLine
 10
226.1117991473
 20
120.5261579276
 30
0.0
 11
226.0346661998
 21
120.0187482134
 31
0.0
  0
LINE
  5
216
330
1F
100
AcDbEntity
  8
0
  6
Continuous
 62
     7
370
    18
100
AcDbLine
 10
226.7601328413
 20
120.5261579276
 30
0.0
 11
226.1117991473
 21
120.5261579276
 31
0.0
  0
LINE
  5
217
330
1F
100
AcDbEntity
  8
0
  6
Continuous
 62
     7
370
    18
100
AcDbLine
 10
226.7601328413
 20
120.766312402
 30
0.0
 11
226.7601328413
 21
120.5261579276
 31
0.0
  0
LINE
  5
218
330
1F
100
AcDbEntity
  8
0
  6
Continuous
 62
     7
370
    18
100
AcDbLine
 10
225.932934096
 20
120.766312402
 30
0.0
 11
226.7601328413
 21
120.766312402
 31
0.0
  0
LINE
  5
219
330
1F
100
AcDbEntity
  8
0
  6
Continuous
 62
     7
370
    18
100
AcDbLine
 10
225.7728311131
 20
119.7135519021
 30
0.0
 11
225.932934096
 21
120.766312402
 31
0.0
  0
LINE
  5
21A
330
1F
100
AcDbEntity
  8
0
  6
Continuous
 62
     7
370
    18
100
AcDbLine
 10
225.986301757
 20
119.683115658
 30
0.0
 11
225.7728311131
 21
119.7135519021
 31
0.0
  0
SPLINE
  5
21B
330
1F
100
AcDbEntity
  8
0
  6
Continuous
 62
     7
370
    18
100
AcDbSpline
210
0.0
220
0.0
230
1.0
 70
     8
 71
     3
 72
    10
 73
     6
 74
     0
 42
0.000000001
 43
0.00000001
 40
0.0
 40
0.0
 40
0.0
 40
0.0
 40
0.28016827716769
 40
0.5607715634932497
 40
0.9999999999999999
 40
0.9999999999999999
 40
0.9999999999999999
 40
0.9999999999999999
 10
226.2794069575942
 20
119.8857459957731
 30
0.0
 10
226.2444189443566
 20
119.8818790279231
 30
0.0
 10
226.1743885930079
 20
119.8741390880942
 30
0.0
 10
226.0635440804508
 20
119.8074845457409
 30
0.0
 10
226.0155729080347
 20
119.7302455258086
 30
0.0
 10
225.986301757029
 20
119.6831156579713
 30
0.0
  0
SPLINE
  5
21C
330
1F
100
AcDbEntity
  8
0
  6
Continuous
 62
     7
370
    18
100
AcDbSpline
210
0.0
220
0.0
230
1.0
 70
     8
 71
     3
 72
    11
 73
     7
 74
     0
 42
0.000000001
 43
0.00000001
 40
0.0
 40
0.0
 40
0.0
 40
0.0
 40
0.2810318196216985
 40
0.5605860755662343
 40
0.7803889752948997
 40
1.0
 40
1.0
 40
1.0
 40
1.0
 10
226.6267136888472
 20
119.4262837894817
 30
0.0
 10
226.6238571956817
 20
119.4868355376108
 30
0.0
 10
226.6181592277588
 20
119.6076206746749
 30
0.0
 10
226.5441173805177
 20
119.7627219681264
 30
0.0
 10
226.4224253242366
 20
119.8688309446069
 30
0.0
 10
226.327065866549
 20
119.8801092869893
 30
0.0
 10
226.2794069575942
 20
119.8857459957731
 30
0.0
  0
SPLINE
  5
21D
330
1F
100
AcDbEntity
  8
0
  6
Continuous
 62
     7
370
    18
100
AcDbSpline
210
0.0
220
0.0
230
1.0
 70
     8
 71
     3
 72
    12
 73
     8
 74
     0
 42
0.000000001
 43
0.00000001
 40
0.0
 40
0.0
 40
0.0
 40
0.0
 40
0.1858835197478837
 40
0.3723018513499671
 40
0.5590684864252747
 40
0.779324338001526
 40
0.9999999999999999
 40
0.9999999999999999
 40
0.9999999999999999
 40
0.9999999999999999
 10
226.2739868045254
 20
118.9251280980458
 30
0.0
 10
226.3164881077086
 20
118.9306500885324
 30
0.0
 10
226.4016129960329
 20
118.9417099570139
 30
0.0
 10
226.5024008283502
 20
119.0265984838972
 30
0.0
 10
226.5782914577964
 20
119.1381700381165
 30
0.0
 10
226.620637707767
 20
119.2764833099897
 30
0.0
 10
226.6246870766872
 20
119.3763186119563
 30
0.0
 10
226.6267136888472
 20
119.4262837894817
 30
0.0
  0
SPLINE
  5
21E
330
1F
100
AcDbEntity
  8
0
  6
Continuous
 62
     7
370
    18
100
AcDbSpline
210
0.0
220
0.0
230
1.0
 70
     8
 71
     3
 72
    11
 73
     7
 74
     0
 42
0.000000001
 43
0.00000001
 40
0.0
 40
0.0
 40
0.0
 40
0.0
 40
0.2811074381184356
 40
0.5611160017532844
 40
0.7809929910720573
 40
1.0
 40
1.0
 40
1.0
 40
1.0
 10
225.9596179265366
 20
119.3253855554322
 30
0.0
 10
225.9678336554894
 20
119.2737393057134
 30
0.0
 10
225.9842329973651
 20
119.1706486961523
 30
0.0
 10
226.048487782666
 20
119.0383604480183
 30
0.0
 10
226.1508653406825
 20
118.94340910904
 30
0.0
 10
226.2330005876034
 20
118.9312137102435
 30
0.0
 10
226.2739868045254
 20
118.9251280980458
 30
0.0
  0
LINE
  5
21F
330
1F
100
AcDbEntity
  8
0
  6
Continuous
 62
     7
370
    18
100
AcDbLine
 10
225.7461472826
 20
119.2987017249
 30
0.0
 11
225.9596179265
 21
119.3253855554
 31
0.0
  0
SPLINE
  5
220
330
1F
100
AcDbEntity
  8
0
  6
Continuous
 62
     7
370
    18
100
AcDbSpline
210
0.0
220
0.0
230
1.0
 70
     8
 71
     3
 72
    12
 73
     8
 74
     0
 42
0.000000001
 43
0.00000001
 40
0.0
 40
0.0
 40
0.0
 40
0.0
 40
0.1865885886654279
 40
0.3730457041861946
 40
0.5597053661028952
 40
0.7796179230979424
 40
1.0
 40
1.0
 40
1.0
 40
1.0
 10
226.2760714787827
 20
118.7116574541064
 30
0.0
 10
226.2212545055163
 20
118.7160193021513
 30
0.0
 10
226.111659183853
 20
118.7247399248167
 30
0.0
 10
225.9659657089287
 20
118.8085562880956
 30
0.0
 10
225.8469185105587
 20
118.9365948351433
 30
0.0
 10
225.7699781123523
 20
119.1068963041604
 30
0.0
 10
225.7540965377622
 20
119.2347211482046
 30
0.0
 10
225.7461472825972
 20
119.2987017249398
 30
0.0
  0
SPLINE
  5
221
330
1F
100
AcDbEntity
  8
0
  6
Continuous
 62
     7
370
    18
100
AcDbSpline
210
0.0
220
0.0
230
1.0
 70
     8
 71
     3
 72
    13
 73
     9
 74
     0
 42
0.000000001
 43
0.00000001
 40
0.0
 40
0.0
 40
0.0
 40
0.0
 40
0.186889079651812
 40
0.3736670037034779
 40
0.5603596573753068
 40
0.7069433013335583
 40
0.8533827747571259
 40
1.0
 40
1.0
 40
1.0
 40
1.0
 10
226.8401843327866
 20
119.4379579653221
 30
0.0
 10
226.8370907527444
 20
119.3740391465051
 30
0.0
 10
226.8309054326217
 20
119.2462395257242
 30
0.0
 10
226.7737421169804
 20
119.0614676500161
 30
0.0
 10
226.6829581044646
 20
118.9067025878828
 30
0.0
 10
226.5650890098704
 20
118.7904429050196
 30
0.0
 10
226.4269049386717
 20
118.7222067486855
 30
0.0
 10
226.3263696251136
 20
118.7151753072593
 30
0.0
 10
226.2760714787827
 20
118.7116574541064
 30
0.0
  0
LINE
  5
222
330
1F
100
AcDbEntity
  8
0
  6
Continuous
 62
     7
370
    18
100
AcDbLine
 10
224.9456323678
 20
119.5922238604
 30
0.0
 11
225.5860442996
 21
119.5922238604
 31
0.0
  0
LINE
  5
223
330
1F
100
AcDbEntity
  8
0
  6
Continuous
 62
     7
370
    18
100
AcDbLine
 10
224.9456323678
 20
119.3520693859
 30
0.0
 11
224.9456323678
 21
119.5922238604
 31
0.0
  0
LINE
  5
224
330
1F
100
AcDbEntity
  8
0
  6
Continuous
 62
     7
370
    18
100
AcDbLine
 10
225.5860442996
 20
119.3520693859
 30
0.0
 11
224.9456323678
 21
119.3520693859
 31
0.0
  0
LINE
  5
225
330
1F
100
AcDbEntity
  8
0
  6
Continuous
 62
     7
370
    18
100
AcDbLine
 10
225.5860442996
 20
119.5922238604
 30
0.0
 11
225.5860442996
 21
119.3520693859
 31
0.0
  0
SPLINE
  5
226
330
1F
100
AcDbEntity
  8
0
  6
Continuous
 62
     7
370
    18
100
AcDbSpline
210
0.0
220
0.0
230
1.0
 70
     8
 71
     3
 72
    12
 73
     8
 74
     0
 42
0.000000001
 43
0.00000001
 40
0.0
 40
0.0
 40
0.0
 40
0.0
 40
0.1871057595240078
 40
0.3740211604078918
 40
0.5608338669252976
 40
0.780358512659648
 40
1.0
 40
1.0
 40
1.0
 40
1.0
 10
224.7588455543775
 20
119.3349750570154
 30
0.0
 10
224.7558964460538
 20
119.2772815070067
 30
0.0
 10
224.7500012297858
 20
119.1619531035562
 30
0.0
 10
224.6905009046419
 20
118.9965307425656
 30
0.0
 10
224.5805866818174
 20
118.8490350932663
 30
0.0
 10
224.4178936055624
 20
118.7318232961282
 30
0.0
 10
224.2813618659862
 20
118.7183805936055
 30
0.0
 10
224.2130778338371
 20
118.7116574541064
 30
0.0
  0
SPLINE
  5
227
330
1F
100
AcDbEntity
  8
0
  6
Continuous
 62
     7
370
    18
100
AcDbSpline
210
0.0
220
0.0
230
1.0
 70
     8
 71
     3
 72
    11
 73
     7
 74
     0
 42
0.000000001
 43
0.00000001
 40
0.0
 40
0.0
 40
0.0
 40
0.0
 40
0.2796220600248668
 40
0.5590245428560703
 40
0.7793847317261622
 40
1.0
 40
1.0
 40
1.0
 40
1.0
 10
224.4315516959938
 20
119.8657331229038
 30
0.0
 10
224.4878182246083
 20
119.8378978369557
 30
0.0
 10
224.6003070977467
 20
119.782249123113
 30
0.0
 10
224.7040767871441
 20
119.6358272215496
 30
0.0
 10
224.7520108336755
 20
119.4819507507195
 30
0.0
 10
224.7565664357573
 20
119.3839858439726
 30
0.0
 10
224.7588455543775
 20
119.3349750570154
 30
0.0
  0
SPLINE
  5
228
330
1F
100
AcDbEntity
  8
0
  6
Continuous
 62
     7
370
    18
100
AcDbSpline
210
0.0
220
0.0
230
1.0
 70
     8
 71
     3
 72
    11
 73
     7
 74
     0
 42
0.000000001
 43
0.00000001
 40
0.0
 40
0.0
 40
0.0
 40
0.0
 40
0.280190175248952
 40
0.5597317672418756
 40
0.7798035967389092
 40
1.0
 40
1.0
 40
1.0
 40
1.0
 10
224.6787940629002
 20
120.2801663652393
 30
0.0
 10
224.6761500396491
 20
120.2321683711113
 30
0.0
 10
224.6708681135229
 20
120.1362834884475
 30
0.0
 10
224.6157360488795
 20
120.0115861308861
 30
0.0
 10
224.5313599009634
 20
119.9193540490259
 30
0.0
 10
224.4648273727699
 20
119.8836101361876
 30
0.0
 10
224.4315516959938
 20
119.8657331229038
 30
0.0
  0
SPLINE
  5
229
330
1F
100
AcDbEntity
  8
0
  6
Continuous
 62
     7
370
    18
100
AcDbSpline
210
0.0
220
0.0
230
1.0
 70
     8
 71
     3
 72
    12
 73
     8
 74
     0
 42
0.000000001
 43
0.00000001
 40
0.0
 40
0.0
 40
0.0
 40
0.0
 40
0.1866818949369801
 40
0.3730939207975775
 40
0.5598445729636973
 40
0.7796788980924657
 40
0.9999999999999999
 40
0.9999999999999999
 40
0.9999999999999999
 40
0.9999999999999999
 10
224.2097423550256
 20
120.819680063008
 30
0.0
 10
224.2596926763968
 20
120.8156445974677
 30
0.0
 10
224.359521110492
 20
120.8075795000935
 30
0.0
 10
224.4921519197493
 20
120.7304584493913
 30
0.0
 10
224.5982754515528
 20
120.6120551073179
 30
0.0
 10
224.668764383131
 20
120.4564374303423
 30
0.0
 10
224.6754483723243
 20
120.3389666913614
 30
0.0
 10
224.6787940629002
 20
120.2801663652393
 30
0.0
  0
SPLINE
  5
22A
330
1F
100
AcDbEntity
  8
0
  6
Continuous
 62
     7
370
    18
100
AcDbSpline
210
0.0
220
0.0
230
1.0
 70
     8
 71
     3
 72
    12
 73
     8
 74
     0
 42
0.000000001
 43
0.00000001
 40
0.0
 40
0.0
 40
0.0
 40
0.0
 40
0.1871377587295348
 40
0.3740411921344247
 40
0.5608494686677246
 40
0.7803659435040499
 40
1.0
 40
1.0
 40
1.0
 40
1.0
 10
223.7448599956653
 20
120.2885050622681
 30
0.0
 10
223.7474090929007
 20
120.3377048160604
 30
0.0
 10
223.7525040955088
 20
120.436042717968
 30
0.0
 10
223.8026378191912
 20
120.5772224518372
 30
0.0
 10
223.89569495518
 20
120.7036602520382
 30
0.0
 10
224.0351810401083
 20
120.8026573044488
 30
0.0
 10
224.1515448646609
 20
120.8140047973989
 30
0.0
 10
224.2097423550256
 20
120.819680063008
 30
0.0
  0
SPLINE
  5
22B
330
1F
100
AcDbEntity
  8
0
  6
Continuous
 62
     7
370
    18
100
AcDbSpline
210
0.0
220
0.0
230
1.0
 70
     8
 71
     3
 72
    11
 73
     7
 74
     0
 42
0.000000001
 43
0.00000001
 40
0.0
 40
0.0
 40
0.0
 40
0.0
 40
0.2798399979573776
 40
0.5592260384591583
 40
0.7795665615265374
 40
1.0
 40
1.0
 40
1.0
 40
1.0
 10
223.9946039716804
 20
119.8657331229038
 30
0.0
 10
223.951661508936
 20
119.8895906727804
 30
0.0
 10
223.8658462448653
 20
119.93726707073
 30
0.0
 10
223.7862696646853
 20
120.0525486872985
 30
0.0
 10
223.7495775320286
 20
120.1734016837755
 30
0.0
 10
223.7464327287619
 20
120.2501318778475
 30
0.0
 10
223.7448599956653
 20
120.2885050622681
 30
0.0
  0
SPLINE
  5
22C
330
1F
100
AcDbEntity
  8
0
  6
Continuous
 62
     7
370
    18
100
AcDbSpline
210
0.0
220
0.0
230
1.0
 70
     8
 71
     3
 72
    11
 73
     7
 74
     0
 42
0.000000001
 43
0.00000001
 40
0.0
 40
0.0
 40
0.0
 40
0.0
 40
0.2804755498465858
 40
0.5600957930369873
 40
0.7800256682201219
 40
1.0
 40
1.0
 40
1.0
 40
1.0
 10
223.6648085041881
 20
119.34206294949
 30
0.0
 10
223.668134897135
 20
119.4044493819113
 30
0.0
 10
223.6747775392356
 20
119.5290320001141
 30
0.0
 10
223.7460171641164
 20
119.690865708708
 30
0.0
 10
223.8578088450499
 20
119.8102895599325
 30
0.0
 10
223.9490025241343
 20
119.8472506901528
 30
0.0
 10
223.9946039716804
 20
119.8657331229038
 30
0.0
  0
SPLINE
  5
22D
330
1F
100
AcDbEntity
  8
0
  6
Continuous
 62
     7
370
    18
100
AcDbSpline
210
0.0
220
0.0
230
1.0
 70
     8
 71
     3
 72
    12
 73
     8
 74
     0
 42
0.000000001
 43
0.00000001
 40
0.0
 40
0.0
 40
0.0
 40
0.0
 40
0.1866482491791764
 40
0.3730988090506981
 40
0.5597919176482345
 40
0.779654520329358
 40
1.0
 40
1.0
 40
1.0
 40
1.0
 10
224.2130778338371
 20
118.7116574541064
 30
0.0
 10
224.1546661463042
 20
118.7164178568017
 30
0.0
 10
224.0379046382322
 20
118.725933620191
 30
0.0
 10
223.8825289654981
 20
118.8153554423446
 30
0.0
 10
223.7569913434587
 20
118.9529251438472
 30
0.0
 10
223.6764591400986
 20
119.1359767264476
 30
0.0
 10
223.6686948884357
 20
119.2733173241833
 30
0.0
 10
223.6648085041881
 20
119.34206294949
 30
0.0
  0
SPLINE
  5
22E
330
1F
100
AcDbEntity
  8
0
  6
Continuous
 62
     7
370
    18
100
AcDbSpline
210
0.0
220
0.0
230
1.0
 70
     8
 71
     3
 72
    10
 73
     6
 74
     0
 42
0.000000001
 43
0.00000001
 40
0.0
 40
0.0
 40
0.0
 40
0.0
 40
0.2795751783825469
 40
0.5597049368157196
 40
1.0
 40
1.0
 40
1.0
 40
1.0
 10
223.2837300499681
 20
120.602873940257
 30
0.0
 10
223.3196085908736
 20
120.53037079279
 30
0.0
 10
223.3914368432482
 20
120.3852206767935
 30
0.0
 10
223.4410349665521
 20
120.0986990168076
 30
0.0
 10
223.4474296707789
 20
119.8914793353198
 30
0.0
 10
223.4513378602487
 20
119.7648348888543
 30
0.0
  0
SPLINE
  5
22F
330
1F
100
AcDbEntity
  8
0
  6
Continuous
 62
     7
370
    18
100
AcDbSpline
210
0.0
220
0.0
230
1.0
 70
     8
 71
     3
 72
    11
 73
     7
 74
     0
 42
0.000000001
 43
0.00000001
 40
0.0
 40
0.0
 40
0.0
 40
0.0
 40
0.2798903849624101
 40
0.5594964420644691
 40
0.7796718965173901
 40
0.9999999999999999
 40
0.9999999999999999
 40
0.9999999999999999
 40
0.9999999999999999
 10
222.9055701397083
 20
120.819680063008
 30
0.0
 10
222.9483270814288
 20
120.816827544736
 30
0.0
 10
223.0337975300453
 20
120.8111254059353
 30
0.0
 10
223.1425677851482
 20
120.7575003240059
 30
0.0
 10
223.226088110661
 20
120.685460955921
 30
0.0
 10
223.2645116318594
 20
120.6304093045501
 30
0.0
 10
223.2837300499681
 20
120.602873940257
 30
0.0
  0
SPLINE
  5
230
330
1F
100
AcDbEntity
  8
0
  6
Continuous
 62
     7
370
    18
100
AcDbSpline
210
0.0
220
0.0
230
1.0
 70
     8
 71
     3
 72
    13
 73
     9
 74
     0
 42
0.000000001
 43
0.00000001
 40
0.0
 40
0.0
 40
0.0
 40
0.0
 40
0.2504890583456498
 40
0.5006738274425626
 40
0.6258446378555227
 40
0.7507584155659045
 40
0.8753007099299326
 40
1.0
 40
1.0
 40
1.0
 40
1.0
 10
222.3573008100593
 20
119.7648348888543
 30
0.0
 10
222.3600194246744
 20
119.8750750862121
 30
0.0
 10
222.3654533513843
 20
120.0954215632744
 30
0.0
 10
222.4155067234259
 20
120.3688489988217
 30
0.0
 10
222.5004422488031
 20
120.5733065331068
 30
0.0
 10
222.5974303244922
 20
120.708819154186
 30
0.0
 10
222.7393859875758
 20
120.8049184362744
 30
0.0
 10
222.8501521653579
 20
120.8147574549181
 30
0.0
 10
222.9055701397083
 20
120.819680063008
 30
0.0
  0
SPLINE
  5
231
330
1F
100
AcDbEntity
  8
0
  6
Continuous
 62
     7
370
    18
100
AcDbSpline
210
0.0
220
0.0
230
1.0
 70
     8
 71
     3
 72
    13
 73
     9
 74
     0
 42
0.000000001
 43
0.00000001
 40
0.0
 40
0.0
 40
0.0
 40
0.0
 40
0.1245870753534858
 40
0.2492227148385385
 40
0.3742192396120906
 40
0.4992998133209621
 40
0.7494812006579978
 40
1.0
 40
1.0
 40
1.0
 40
1.0
 10
222.9030685305997
 20
118.7116574541064
 30
0.0
 10
222.8478048873108
 20
118.7172941503835
 30
0.0
 10
222.7372560589253
 20
118.7285697401259
 30
0.0
 10
222.5984671027026
 20
118.8272027529622
 30
0.0
 10
222.4954279940195
 20
118.9572070895222
 30
0.0
 10
222.4094041088511
 20
119.1615530405758
 30
0.0
 10
222.3642332222319
 20
119.4350552197616
 30
0.0
 10
222.3596126520206
 20
119.654858958685
 30
0.0
 10
222.3573008100593
 20
119.7648348888543
 30
0.0
  0
SPLINE
  5
232
330
1F
100
AcDbEntity
  8
0
  6
Continuous
 62
     7
370
    18
100
AcDbSpline
210
0.0
220
0.0
230
1.0
 70
     8
 71
     3
 72
    13
 73
     9
 74
     0
 42
0.000000001
 43
0.00000001
 40
0.0
 40
0.0
 40
0.0
 40
0.0
 40
0.2504702058475057
 40
0.5006494994159215
 40
0.6258027062132777
 40
0.75074109582635
 40
0.8752785399750063
 40
1.0
 40
1.0
 40
1.0
 40
1.0
 10
223.4513378602487
 20
119.7648348888543
 30
0.0
 10
223.4486243649936
 20
119.6547024333028
 30
0.0
 10
223.4432005261121
 20
119.4345654371488
 30
0.0
 10
223.392430668388
 20
119.1616348369129
 30
0.0
 10
223.3080789209524
 20
118.9572107244615
 30
0.0
 10
223.2111961609959
 20
118.8217558957292
 30
0.0
 10
223.069119544127
 20
118.7260776309273
 30
0.0
 10
222.9584461034039
 20
118.7164665448478
 30
0.0
 10
222.9030685305997
 20
118.7116574541064
 30
0.0
  0
SPLINE
  5
233
330
1F
100
AcDbEntity
  8
0
  6
Continuous
 62
     7
370
    18
100
AcDbSpline
210
0.0
220
0.0
230
1.0
 70
     8
 71
     3
 72
    12
 73
     8
 74
     0
 42
0.000000001
 43
0.00000001
 40
0.0
 40
0.0
 40
0.0
 40
0.0
 40
0.1861323399318203
 40
0.3726108819815547
 40
0.5594136204052346
 40
0.779503096820601
 40
1.0
 40
1.0
 40
1.0
 40
1.0
 10
221.642674474684
 20
120.0992166397125
 30
0.0
 10
221.7003167896191
 20
120.0925307393296
 30
0.0
 10
221.8157086329457
 20
120.0791465029341
 30
0.0
 10
221.9578543577743
 20
119.9720348587706
 30
0.0
 10
222.0690243765785
 20
119.8264735409578
 30
0.0
 10
222.1348212763594
 20
119.6411489304598
 30
0.0
 10
222.140825352135
 20
119.5057300293484
 30
0.0
 10
222.1438301661199
 20
119.4379579653221
 30
0.0
  0
SPLINE
  5
234
330
1F
100
AcDbEntity
  8
0
  6
Continuous
 62
     7
370
    18
100
AcDbSpline
210
0.0
220
0.0
230
1.0
 70
     8
 71
     3
 72
     9
 73
     5
 74
     0
 42
0.000000001
 43
0.00000001
 40
0.0
 40
0.0
 40
0.0
 40
0.0
 40
0.5597945537684121
 40
1.0
 40
1.0
 40
1.0
 40
1.0
 10
221.3383120331299
 20
120.0187482133838
 30
0.0
 10
221.3924328391703
 20
120.0445562185293
 30
0.0
 10
221.4891126044093
 20
120.0906588555982
 30
0.0
 10
221.5957375798089
 20
120.0966009134738
 30
0.0
 10
221.642674474684
 20
120.0992166397125
 30
0.0
  0
LINE
  5
235
330
1F
100
AcDbEntity
  8
0
  6
Continuous
 62
     7
370
    18
100
AcDbLine
 10
221.4154449806
 20
120.5261579276
 30
0.0
 11
221.3383120331
 21
120.0187482134
 31
0.0
  0
LINE
  5
236
330
1F
100
AcDbEntity
  8
0
  6
Continuous
 62
     7
370
    18
100
AcDbLine
 10
222.0637786746
 20
120.5261579276
 30
0.0
 11
221.4154449806
 21
120.5261579276
 31
0.0
  0
LINE
  5
237
330
1F
100
AcDbEntity
  8
0
  6
Continuous
 62
     7
370
    18
100
AcDbLine
 10
222.0637786746
 20
120.766312402
 30
0.0
 11
222.0637786746
 21
120.5261579276
 31
0.0
  0
LINE
  5
238
330
1F
100
AcDbEntity
  8
0
  6
Continuous
 62
     7
370
    18
100
AcDbLine
 10
221.2365799294
 20
120.766312402
 30
0.0
 11
222.0637786746
 21
120.766312402
 31
0.0
  0
LINE
  5
239
330
1F
100
AcDbEntity
  8
0
  6
Continuous
 62
     7
370
    18
100
AcDbLine
 10
221.0764769464
 20
119.7135519021
 30
0.0
 11
221.2365799294
 21
120.766312402
 31
0.0
  0
LINE
  5
23A
330
1F
100
AcDbEntity
  8
0
  6
Continuous
 62
     7
370
    18
100
AcDbLine
 10
221.2899475904
 20
119.683115658
 30
0.0
 11
221.0764769464
 21
119.7135519021
 31
0.0
  0
SPLINE
  5
23B
330
1F
100
AcDbEntity
  8
0
  6
Continuous
 62
     7
370
    18
100
AcDbSpline
210
0.0
220
0.0
230
1.0
 70
     8
 71
     3
 72
    10
 73
     6
 74
     0
 42
0.000000001
 43
0.00000001
 40
0.0
 40
0.0
 40
0.0
 40
0.0
 40
0.2801682771676941
 40
0.5607715634932552
 40
1.0
 40
1.0
 40
1.0
 40
1.0
 10
221.5830527909276
 20
119.8857459957731
 30
0.0
 10
221.5480647776899
 20
119.8818790279231
 30
0.0
 10
221.4780344263412
 20
119.8741390880942
 30
0.0
 10
221.3671899137842
 20
119.8074845457409
 30
0.0
 10
221.319218741368
 20
119.7302455258086
 30
0.0
 10
221.2899475903623
 20
119.6831156579713
 30
0.0
  0
SPLINE
  5
23C
330
1F
100
AcDbEntity
  8
0
  6
Continuous
 62
     7
370
    18
100
AcDbSpline
210
0.0
220
0.0
230
1.0
 70
     8
 71
     3
 72
    11
 73
     7
 74
     0
 42
0.000000001
 43
0.00000001
 40
0.0
 40
0.0
 40
0.0
 40
0.0
 40
0.2810318196216983
 40
0.5605860755662345
 40
0.7803889752949045
 40
1.0
 40
1.0
 40
1.0
 40
1.0
 10
221.9303595221805
 20
119.4262837894817
 30
0.0
 10
221.927503029015
 20
119.4868355376108
 30
0.0
 10
221.9218050610921
 20
119.6076206746749
 30
0.0
 10
221.847763213851
 20
119.7627219681264
 30
0.0
 10
221.7260711575699
 20
119.8688309446069
 30
0.0
 10
221.6307116998824
 20
119.8801092869893
 30
0.0
 10
221.5830527909276
 20
119.8857459957731
 30
0.0
  0
SPLINE
  5
23D
330
1F
100
AcDbEntity
  8
0
  6
Continuous
 62
     7
370
    18
100
AcDbSpline
210
0.0
220
0.0
230
1.0
 70
     8
 71
     3
 72
    12
 73
     8
 74
     0
 42
0.000000001
 43
0.00000001
 40
0.0
 40
0.0
 40
0.0
 40
0.0
 40
0.185883519747884
 40
0.3723018513499636
 40
0.5590684864252744
 40
0.7793243380015261
 40
1.0
 40
1.0
 40
1.0
 40
1.0
 10
221.5776326378588
 20
118.9251280980458
 30
0.0
 10
221.6201339410419
 20
118.9306500885324
 30
0.0
 10
221.7052588293663
 20
118.9417099570139
 30
0.0
 10
221.8060466616836
 20
119.0265984838972
 30
0.0
 10
221.8819372911298
 20
119.1381700381165
 30
0.0
 10
221.9242835411003
 20
119.2764833099897
 30
0.0
 10
221.9283329100205
 20
119.3763186119563
 30
0.0
 10
221.9303595221805
 20
119.4262837894817
 30
0.0
  0
SPLINE
  5
23E
330
1F
100
AcDbEntity
  8
0
  6
Continuous
 62
     7
370
    18
100
AcDbSpline
210
0.0
220
0.0
230
1.0
 70
     8
 71
     3
 72
    11
 73
     7
 74
     0
 42
0.000000001
 43
0.00000001
 40
0.0
 40
0.0
 40
0.0
 40
0.0
 40
0.2811074381184404
 40
0.5611160017532795
 40
0.7809929910720568
 40
1.0
 40
1.0
 40
1.0
 40
1.0
 10
221.2632637598699
 20
119.3253855554322
 30
0.0
 10
221.2714794888227
 20
119.2737393057134
 30
0.0
 10
221.2878788306984
 20
119.1706486961524
 30
0.0
 10
221.3521336159993
 20
119.0383604480183
 30
0.0
 10
221.4545111740158
 20
118.94340910904
 30
0.0
 10
221.5366464209368
 20
118.9312137102435
 30
0.0
 10
221.5776326378588
 20
118.9251280980458
 30
0.0
  0
LINE
  5
23F
330
1F
100
AcDbEntity
  8
0
  6
Continuous
 62
     7
370
    18
100
AcDbLine
 10
221.0497931159
 20
119.2987017249
 30
0.0
 11
221.2632637599
 21
119.3253855554
 31
0.0
  0
SPLINE
  5
240
330
1F
100
AcDbEntity
  8
0
  6
Continuous
 62
     7
370
    18
100
AcDbSpline
210
0.0
220
0.0
230
1.0
 70
     8
 71
     3
 72
    12
 73
     8
 74
     0
 42
0.000000001
 43
0.00000001
 40
0.0
 40
0.0
 40
0.0
 40
0.0
 40
0.1865885886654313
 40
0.373045704186194
 40
0.559705366102897
 40
0.7796179230979436
 40
1.0
 40
1.0
 40
1.0
 40
1.0
 10
221.579717312116
 20
118.7116574541064
 30
0.0
 10
221.5249003388497
 20
118.7160193021513
 30
0.0
 10
221.4153050171864
 20
118.7247399248167
 30
0.0
 10
221.2696115422621
 20
118.8085562880956
 30
0.0
 10
221.150564343892
 20
118.9365948351433
 30
0.0
 10
221.0736239456857
 20
119.1068963041604
 30
0.0
 10
221.0577423710955
 20
119.2347211482046
 30
0.0
 10
221.0497931159305
 20
119.2987017249398
 30
0.0
  0
SPLINE
  5
241
330
1F
100
AcDbEntity
  8
0
  6
Continuous
 62
     7
370
    18
100
AcDbSpline
210
0.0
220
0.0
230
1.0
 70
     8
 71
     3
 72
    13
 73
     9
 74
     0
 42
0.000000001
 43
0.00000001
 40
0.0
 40
0.0
 40
0.0
 40
0.0
 40
0.1868890796518121
 40
0.373667003703479
 40
0.5603596573753061
 40
0.70694330133356
 40
0.8533827747571291
 40
1.0
 40
1.0
 40
1.0
 40
1.0
 10
222.1438301661199
 20
119.4379579653221
 30
0.0
 10
222.1407365860777
 20
119.3740391465051
 30
0.0
 10
222.1345512659551
 20
119.2462395257242
 30
0.0
 10
222.0773879503137
 20
119.0614676500161
 30
0.0
 10
221.9866039377979
 20
118.9067025878828
 30
0.0
 10
221.8687348432038
 20
118.7904429050196
 30
0.0
 10
221.730550772005
 20
118.7222067486855
 30
0.0
 10
221.630015458447
 20
118.7151753072593
 30
0.0
 10
221.579717312116
 20
118.7116574541064
 30
0.0
  0
LINE
  5
242
330
1F
100
AcDbEntity
  8
0
  6
Continuous
 62
     7
370
    18
100
AcDbLine
 10
219.8577763757
 20
118.7383412846
 30
0.0
 11
219.3687117949
 21
120.5315780807
 31
0.0
  0
LINE
  5
243
330
1F
100
AcDbEntity
  8
0
  6
Continuous
 62
     7
370
    18
100
AcDbLine
 10
220.0762502378
 20
118.7383412846
 30
0.0
 11
219.8577763757
 21
118.7383412846
 31
0.0
  0
LINE
  5
244
330
1F
100
AcDbEntity
  8
0
  6
Continuous
 62
     7
370
    18
100
AcDbLine
 10
220.5694841671
 20
120.4344322603
 30
0.0
 11
220.0762502378
 21
118.7383412846
 31
0.0
  0
LINE
  5
245
330
1F
100
AcDbEntity
  8
0
  6
Continuous
 62
     7
370
    18
100
AcDbLine
 10
220.5694841671
 20
118.7383412846
 30
0.0
 11
220.5694841671
 21
120.4344322603
 31
0.0
  0
LINE
  5
246
330
1F
100
AcDbEntity
  8
0
  6
Continuous
 62
     7
370
    18
100
AcDbLine
 10
220.782954811
 20
118.7383412846
 30
0.0
 11
220.5694841671
 21
118.7383412846
 31
0.0
  0
LINE
  5
247
330
1F
100
AcDbEntity
  8
0
  6
Continuous
 62
     7
370
    18
100
AcDbLine
 10
220.782954811
 20
120.7929962325
 30
0.0
 11
220.782954811
 21
118.7383412846
 31
0.0
  0
LINE
  5
248
330
1F
100
AcDbEntity
  8
0
  6
Continuous
 62
     7
370
    18
100
AcDbLine
 10
220.4806770437
 20
120.7929962325
 30
0.0
 11
220.782954811
 21
120.7929962325
 31
0.0
  0
LINE
  5
249
330
1F
100
AcDbEntity
  8
0
  6
Continuous
 62
     7
370
    18
100
AcDbLine
 10
220.0620744529
 20
119.3633266269
 30
0.0
 11
220.4806770437
 21
120.7929962325
 31
0.0
  0
SPLINE
  5
24A
330
1F
100
AcDbEntity
  8
0
  6
Continuous
 62
     7
370
    18
100
AcDbSpline
210
0.0
220
0.0
230
1.0
 70
     8
 71
     3
 72
     9
 73
     5
 74
     0
 42
0.000000001
 43
0.00000001
 40
0.0
 40
0.0
 40
0.0
 40
0.0
 40
0.5599947003108182
 40
1.0
 40
1.0
 40
1.0
 40
1.0
 10
219.9690979809873
 20
119.0339480942728
 30
0.0
 10
219.9860278873053
 20
119.0955518903016
 30
0.0
 10
220.016260148983
 20
119.205559710009
 30
0.0
 10
220.0480755206947
 20
119.3151196657527
 30
0.0
 10
220.0620744528593
 20
119.3633266269136
 30
0.0
  0
LINE
  5
24B
330
1F
100
AcDbEntity
  8
0
  6
Continuous
 62
     7
370
    18
100
AcDbLine
 10
219.8890464895
 20
119.3383105358
 30
0.0
 11
219.969097981
 21
119.0339480943
 31
0.0
  0
LINE
  5
24C
330
1F
100
AcDbEntity
  8
0
  6
Continuous
 62
     7
370
    18
100
AcDbLine
 10
219.489205967
 20
120.7929962325
 30
0.0
 11
219.8890464895
 21
119.3383105358
 31
0.0
  0
LINE
  5
24D
330
1F
100
AcDbEntity
  8
0
  6
Continuous
 62
     7
370
    18
100
AcDbLine
 10
219.155241151
 20
120.7929962325
 30
0.0
 11
219.489205967
 21
120.7929962325
 31
0.0
  0
LINE
  5
24E
330
1F
100
AcDbEntity
  8
0
  6
Continuous
 62
     7
370
    18
100
AcDbLine
 10
219.155241151
 20
118.7383412846
 30
0.0
 11
219.155241151
 21
120.7929962325
 31
0.0
  0
LINE
  5
24F
330
1F
100
AcDbEntity
  8
0
  6
Continuous
 62
     7
370
    18
100
AcDbLine
 10
219.3687117949
 20
118.7383412846
 30
0.0
 11
219.155241151
 21
118.7383412846
 31
0.0
  0
LINE
  5
250
330
1F
100
AcDbEntity
  8
0
  6
Continuous
 62
     7
370
    18
100
AcDbLine
 10
219.3687117949
 20
120.5315780807
 30
0.0
 11
219.3687117949
 21
118.7383412846
 31
0.0
  0
SPLINE
  5
251
330
1F
100
AcDbEntity
  8
0
  6
Continuous
 62
     7
370
    18
100
AcDbSpline
210
0.0
220
0.0
230
1.0
 70
     8
 71
     3
 72
    14
 73
    10
 74
     0
 42
0.000000001
 43
0.00000001
 40
0.0
 40
0.0
 40
0.0
 40
0.0
 40
0.1250267645254237
 40
0.2499561862380699
 40
0.374750631388284
 40
0.4996959194189178
 40
0.6663177050472613
 40
0.8330998507676246
 40
1.0
 40
1.0
 40
1.0
 40
1.0
 10
218.1708579667088
 20
120.5795255885761
 30
0.0
 10
218.1248303784953
 20
120.5767092582664
 30
0.0
 10
218.0328110380344
 20
120.5710787903734
 30
0.0
 10
217.9027233283394
 20
120.5186204913169
 30
0.0
 10
217.7948691866165
 20
120.4300904790205
 30
0.0
 10
217.7080653831663
 20
120.3025331186933
 30
0.0
 10
217.6453506470383
 20
120.1449823419254
 30
0.0
 10
217.6123597299626
 20
119.9632635178141
 30
0.0
 10
217.6091729405851
 20
119.8407206904026
 30
0.0
 10
217.6075789824078
 20
119.7794276086548
 30
0.0
  0
SPLINE
  5
252
330
1F
100
AcDbEntity
  8
0
  6
Continuous
 62
     7
370
    18
100
AcDbSpline
210
0.0
220
0.0
230
1.0
 70
     8
 71
     3
 72
    11
 73
     7
 74
     0
 42
0.000000001
 43
0.00000001
 40
0.0
 40
0.0
 40
0.0
 40
0.0
 40
0.2807713074051749
 40
0.5604369820882232
 40
0.7800147849953724
 40
1.0
 40
1.0
 40
1.0
 40
1.0
 10
218.6215645411199
 20
120.1525843006973
 30
0.0
 10
218.6029711162737
 20
120.2129732830137
 30
0.0
 10
218.5658574845292
 20
120.3335134454452
 30
0.0
 10
218.4621861567822
 20
120.4797803479062
 30
0.0
 10
218.3200354812731
 20
120.5675548647255
 30
0.0
 10
218.2206145212373
 20
120.5755328824652
 30
0.0
 10
218.1708579667088
 20
120.5795255885761
 30
0.0
  0
LINE
  5
253
330
1F
100
AcDbEntity
  8
0
  6
Continuous
 62
     7
370
    18
100
AcDbLine
 10
218.8350351851
 20
120.2059519617
 30
0.0
 11
218.6215645411
 21
120.1525843007
 31
0.0
  0
SPLINE
  5
254
330
1F
100
AcDbEntity
  8
0
  6
Continuous
 62
     7
370
    18
100
AcDbSpline
210
0.0
220
0.0
230
1.0
 70
     8
 71
     3
 72
    12
 73
     8
 74
     0
 42
0.000000001
 43
0.00000001
 40
0.0
 40
0.0
 40
0.0
 40
0.0
 40
0.1866161660947042
 40
0.373065298577118
 40
0.5597027812570775
 40
0.7796715026895146
 40
1.0
 40
1.0
 40
1.0
 40
1.0
 10
218.1796135985891
 20
120.819680063008
 30
0.0
 10
218.2405738236102
 20
120.8152222497695
 30
0.0
 10
218.3624397102841
 20
120.8063106133256
 30
0.0
 10
218.5301121207496
 20
120.7249256220068
 30
0.0
 10
218.6730806087669
 20
120.5924011945901
 30
0.0
 10
218.7778699625868
 20
120.4135405626732
 30
0.0
 10
218.815969733534
 20
120.2751858461703
 30
0.0
 10
218.8350351850593
 20
120.2059519616822
 30
0.0
  0
SPLINE
  5
255
330
1F
100
AcDbEntity
  8
0
  6
Continuous
 62
     7
370
    18
100
AcDbSpline
210
0.0
220
0.0
230
1.0
 70
     8
 71
     3
 72
    13
 73
     9
 74
     0
 42
0.000000001
 43
0.00000001
 40
0.0
 40
0.0
 40
0.0
 40
0.0
 40
0.186988627014318
 40
0.3737840604657693
 40
0.5603785113196417
 40
0.7069405280508676
 40
0.8534458164057727
 40
1.0
 40
1.0
 40
1.0
 40
1.0
 10
217.3941083384684
 20
119.7794276086548
 30
0.0
 10
217.3973355958119
 20
119.8704844153322
 30
0.0
 10
217.40378677615
 20
120.0525039502973
 30
0.0
 10
217.4729357305901
 20
120.3186456026982
 30
0.0
 10
217.5970298782273
 20
120.5436172456421
 30
0.0
 10
217.7690247675007
 20
120.7051231258744
 30
0.0
 10
217.9648741775527
 20
120.8028844296282
 30
0.0
 10
218.1080258302415
 20
120.81408089586
 30
0.0
 10
218.1796135985891
 20
120.819680063008
 30
0.0
  0
SPLINE
  5
256
330
1F
100
AcDbEntity
  8
0
  6
Continuous
 62
     7
370
    18
100
AcDbSpline
210
0.0
220
0.0
230
1.0
 70
     8
 71
     3
 72
    14
 73
    10
 74
     0
 42
0.000000001
 43
0.00000001
 40
0.0
 40
0.0
 40
0.0
 40
0.0
 40
0.1249789553015521
 40
0.24980981635043
 40
0.3745823232578668
 40
0.4995715195159096
 40
0.666278116641619
 40
0.8331039635850064
 40
1.0
 40
1.0
 40
1.0
 40
1.0
 10
218.1604345954227
 20
118.7116574541064
 30
0.0
 10
218.0987903616054
 20
118.7151455901433
 30
0.0
 10
217.9755749395225
 20
118.7221177289378
 30
0.0
 10
217.8008804285489
 20
118.7913187591667
 30
0.0
 10
217.65665358361
 20
118.9104111942486
 30
0.0
 10
217.5409921071081
 20
119.0815822111529
 30
0.0
 10
217.4532058904751
 20
119.2907484098539
 30
0.0
 10
217.4018101119466
 20
119.5330461544701
 30
0.0
 10
217.3966759562386
 20
119.6972889425675
 30
0.0
 10
217.3941083384684
 20
119.7794276086548
 30
0.0
  0
SPLINE
  5
257
330
1F
100
AcDbEntity
  8
0
  6
Continuous
 62
     7
370
    18
100
AcDbSpline
210
0.0
220
0.0
230
1.0
 70
     8
 71
     3
 72
    13
 73
     9
 74
     0
 42
0.000000001
 43
0.00000001
 40
0.0
 40
0.0
 40
0.0
 40
0.0
 40
0.1869090516643021
 40
0.3736796016941298
 40
0.5601136847103898
 40
0.7067311959183759
 40
0.8533138294591279
 40
1.0
 40
1.0
 40
1.0
 40
1.0
 10
218.8617190155517
 20
119.4054370469095
 30
0.0
 10
218.8458651397666
 20
119.3401088939367
 30
0.0
 10
218.8141691360903
 20
119.2095009968612
 30
0.0
 10
218.7291061386715
 20
119.0255058105212
 30
0.0
 10
218.6114279741548
 20
118.8771865150473
 30
0.0
 10
218.4690183863597
 20
118.7773349099603
 30
0.0
 10
218.3188679494261
 20
118.7208301918087
 30
0.0
 10
218.2132581417518
 20
118.7147157528973
 30
0.0
 10
218.1604345954227
 20
118.7116574541064
 30
0.0
  0
LINE
  5
258
330
1F
100
AcDbEntity
  8
0
  6
Continuous
 62
     7
370
    18
100
AcDbLine
 10
218.6482483716
 20
119.4588047079
 30
0.0
 11
218.8617190156
 21
119.4054370469
 31
0.0
  0
SPLINE
  5
259
330
1F
100
AcDbEntity
  8
0
  6
Continuous
 62
     7
370
    18
100
AcDbSpline
210
0.0
220
0.0
230
1.0
 70
     8
 71
     3
 72
    12
 73
     8
 74
     0
 42
0.000000001
 43
0.00000001
 40
0.0
 40
0.0
 40
0.0
 40
0.0
 40
0.1865921528409282
 40
0.3730589116156858
 40
0.5596226295490484
 40
0.7796100104163911
 40
1.0
 40
1.0
 40
1.0
 40
1.0
 10
218.1537636377996
 20
118.9518119285382
 30
0.0
 10
218.2022577931003
 20
118.9556015797879
 30
0.0
 10
218.2992135145536
 20
118.9631783355575
 30
0.0
 10
218.4298446918296
 20
119.0337595823661
 30
0.0
 10
218.5385828509809
 20
119.1441771948733
 30
0.0
 10
218.6119039794565
 20
119.2917770848679
 30
0.0
 10
218.636126192623
 20
119.4030949099754
 30
0.0
 10
218.6482483716123
 20
119.4588047078943
 30
0.0
  0
SPLINE
  5
25A
330
1F
100
AcDbEntity
  8
0
  6
Continuous
 62
     7
370
    18
100
AcDbSpline
210
0.0
220
0.0
230
1.0
 70
     8
 71
     3
 72
    14
 73
    10
 74
     0
 42
0.000000001
 43
0.00000001
 40
0.0
 40
0.0
 40
0.0
 40
0.0
 40
0.1669299867484154
 40
0.3337709048041696
 40
0.5004211293286657
 40
0.6254239239505631
 40
0.7503194582828523
 40
0.8750931289475059
 40
1.0
 40
1.0
 40
1.0
 40
1.0
 10
217.6075789824078
 20
119.7794276086548
 30
0.0
 10
217.6089087183383
 20
119.7174806703942
 30
0.0
 10
217.6115674806933
 20
119.5936198468486
 30
0.0
 10
217.6417136689456
 20
119.4099248712998
 30
0.0
 10
217.6962939440935
 20
119.2472748065582
 30
0.0
 10
217.7820640913912
 20
119.1169802134943
 30
0.0
 10
217.8856473649646
 20
119.0222163584719
 30
0.0
 10
218.0142305367354
 20
118.9614150261345
 30
0.0
 10
218.1072360651475
 20
118.9550140993328
 30
0.0
 10
218.1537636377996
 20
118.9518119285383
 30
0.0
  0
CIRCLE
  5
25B
330
1F
100
AcDbEntity
  8
0
  6
Continuous
 62
     7
370
    18
100
AcDbCircle
 10
225.8929083503
 20
122.1271877571
 30
0.0
 40
25.19999999999999
  0
SPLINE
  5
25C
330
1F
100
AcDbEntity
  8
0
  6
Continuous
 62
     7
370
    18
100
AcDbSpline
210
0.0
220
0.0
230
1.0
 70
     8
 71
     3
 72
    13
 73
     9
 74
     0
 42
0.000000001
 43
0.00000001
 40
0.0
 40
0.0
 40
0.0
 40
0.0
 40
0.1237345749994074
 40
0.248423210174569
 40
0.3734713343328623
 40
0.498744496763746
 40
0.7493102257733215
 40
1.0
 40
1.0
 40
1.0
 40
1.0
 10
232.5688691916289
 20
118.9251280980458
 30
0.0
 10
232.6099535878185
 20
118.9324913397986
 30
0.0
 10
232.6924391630069
 20
118.9472745978616
 30
0.0
 10
232.7766337327093
 20
119.0449873919324
 30
0.0
 10
232.8337034552651
 20
119.1537294745486
 30
0.0
 10
232.8728736526809
 20
119.3145225816445
 30
0.0
 10
232.8941409756046
 20
119.5190795655043
 30
0.0
 10
232.8963227149418
 20
119.6834588012824
 30
0.0
 10
232.8974138545669
 20
119.7656687585572
 30
0.0
  0
SPLINE
  5
25D
330
1F
100
AcDbEntity
  8
0
  6
Continuous
 62
     7
370
    18
100
AcDbSpline
210
0.0
220
0.0
230
1.0
 70
     8
 71
     3
 72
    13
 73
     9
 74
     0
 42
0.000000001
 43
0.00000001
 40
0.0
 40
0.0
 40
0.0
 40
0.0
 40
0.2506668541570156
 40
0.5012048357437087
 40
0.6264537829510468
 40
0.751429187159486
 40
0.8760522367173378
 40
1.0
 40
1.0
 40
1.0
 40
1.0
 10
232.2303180922563
 20
119.7656687585572
 30
0.0
 10
232.2313663990729
 20
119.6827235227622
 30
0.0
 10
232.2334624737517
 20
119.5168756948865
 30
0.0
 10
232.2552815727905
 20
119.3105016925088
 30
0.0
 10
232.295384053061
 20
119.1484473090729
 30
0.0
 10
232.3547553946779
 20
119.0393418059537
 30
0.0
 10
232.4438567540256
 20
118.9446514804949
 30
0.0
 10
232.5272739182208
 20
118.9316240951353
 30
0.0
 10
232.5688691916289
 20
118.9251280980458
 30
0.0
  0
SPLINE
  5
25E
330
1F
100
AcDbEntity
  8
0
  6
Continuous
 62
     7
370
    18
100
AcDbSpline
210
0.0
220
0.0
230
1.0
 70
     8
 71
     3
 72
    13
 73
     9
 74
     0
 42
0.000000001
 43
0.00000001
 40
0.0
 40
0.0
 40
0.0
 40
0.0
 40
0.1236770548154447
 40
0.2483884878623322
 40
0.3734455614730981
 40
0.4987169325064014
 40
0.7492948497723048
 40
1.0
 40
1.0
 40
1.0
 40
1.0
 10
232.5563611460856
 20
120.6062094190685
 30
0.0
 10
232.5153725814313
 20
120.5987162198088
 30
0.0
 10
232.4330526425443
 20
120.5836671516032
 30
0.0
 10
232.3499389231227
 20
120.485309811273
 30
0.0
 10
232.2932058740495
 20
120.376675989937
 30
0.0
 10
232.2551900800569
 20
120.2158939607728
 30
0.0
 10
232.2334453313146
 20
120.0118450508364
 30
0.0
 10
232.2313606816472
 20
119.8477414066173
 30
0.0
 10
232.2303180922563
 20
119.7656687585572
 30
0.0
  0
SPLINE
  5
25F
330
1F
100
AcDbEntity
  8
0
  6
Continuous
 62
     7
370
    18
100
AcDbSpline
210
0.0
220
0.0
230
1.0
 70
     8
 71
     3
 72
    13
 73
     9
 74
     0
 42
0.000000001
 43
0.00000001
 40
0.0
 40
0.0
 40
0.0
 40
0.0
 40
0.2506736071386397
 40
0.5012152607338
 40
0.6264526015104158
 40
0.7514497498805417
 40
0.8760271183236275
 40
1.0
 40
1.0
 40
1.0
 40
1.0
 10
232.8974138545669
 20
119.7656687585572
 30
0.0
 10
232.8963753516548
 20
119.848814912311
 30
0.0
 10
232.8942988924943
 20
120.0150634520294
 30
0.0
 10
232.8723846480831
 20
120.2219545798331
 30
0.0
 10
232.8319921928465
 20
120.3843301555634
 30
0.0
 10
232.7722245620963
 20
120.4936709028229
 30
0.0
 10
232.6817044767435
 20
120.5874091545243
 30
0.0
 10
232.5980744588285
 20
120.5999528331739
 30
0.0
 10
232.5563611460856
 20
120.6062094190685
 30
0.0
  0
SPLINE
  5
260
330
1F
100
AcDbEntity
  8
0
  6
Continuous
 62
     7
370
    18
100
AcDbSpline
210
0.0
220
0.0
230
1.0
 70
     8
 71
     3
 72
    13
 73
     9
 74
     0
 42
0.000000001
 43
0.00000001
 40
0.0
 40
0.0
 40
0.0
 40
0.0
 40
0.1237345749994058
 40
0.2484232101745687
 40
0.3734713343328614
 40
0.4987444967637455
 40
0.7493102257733212
 40
1.0
 40
1.0
 40
1.0
 40
1.0
 10
228.9131844141668
 20
118.9251280980458
 30
0.0
 10
228.9542688103564
 20
118.9324913397986
 30
0.0
 10
229.0367543855448
 20
118.9472745978616
 30
0.0
 10
229.1209489552472
 20
119.0449873919324
 30
0.0
 10
229.178018677803
 20
119.1537294745486
 30
0.0
 10
229.2171888752187
 20
119.3145225816445
 30
0.0
 10
229.2384561981424
 20
119.5190795655042
 30
0.0
 10
229.2406379374797
 20
119.6834588012825
 30
0.0
 10
229.2417290771047
 20
119.7656687585572
 30
0.0
  0
SPLINE
  5
261
330
1F
100
AcDbEntity
  8
0
  6
Continuous
 62
     7
370
    18
100
AcDbSpline
210
0.0
220
0.0
230
1.0
 70
     8
 71
     3
 72
    13
 73
     9
 74
     0
 42
0.000000001
 43
0.00000001
 40
0.0
 40
0.0
 40
0.0
 40
0.0
 40
0.2506668541570156
 40
0.5012048357437084
 40
0.6264537829510461
 40
0.7514291871594861
 40
0.8760522367173379
 40
1.0
 40
1.0
 40
1.0
 40
1.0
 10
228.5746333147941
 20
119.7656687585572
 30
0.0
 10
228.5756816216107
 20
119.6827235227622
 30
0.0
 10
228.5777776962896
 20
119.5168756948865
 30
0.0
 10
228.5995967953284
 20
119.3105016925088
 30
0.0
 10
228.6396992755988
 20
119.1484473090729
 30
0.0
 10
228.6990706172158
 20
119.0393418059537
 30
0.0
 10
228.7881719765635
 20
118.9446514804949
 30
0.0
 10
228.8715891407587
 20
118.9316240951353
 30
0.0
 10
228.9131844141668
 20
118.9251280980458
 30
0.0
  0
SPLINE
  5
262
330
1F
100
AcDbEntity
  8
0
  6
Continuous
 62
     7
370
    18
100
AcDbSpline
210
0.0
220
0.0
230
1.0
 70
     8
 71
     3
 72
    13
 73
     9
 74
     0
 42
0.000000001
 43
0.00000001
 40
0.0
 40
0.0
 40
0.0
 40
0.0
 40
0.1236770548154464
 40
0.2483884878623325
 40
0.3734455614730951
 40
0.4987169325064013
 40
0.7492948497723046
 40
1.0
 40
1.0
 40
1.0
 40
1.0
 10
228.9006763686235
 20
120.6062094190685
 30
0.0
 10
228.8596878039691
 20
120.5987162198088
 30
0.0
 10
228.7773678650821
 20
120.5836671516032
 30
0.0
 10
228.6942541456606
 20
120.485309811273
 30
0.0
 10
228.6375210965874
 20
120.376675989937
 30
0.0
 10
228.5995053025948
 20
120.2158939607728
 30
0.0
 10
228.5777605538524
 20
120.0118450508364
 30
0.0
 10
228.5756759041851
 20
119.8477414066173
 30
0.0
 10
228.5746333147941
 20
119.7656687585572
 30
0.0
  0
SPLINE
  5
263
330
1F
100
AcDbEntity
  8
0
  6
Continuous
 62
     7
370
    18
100
AcDbSpline
210
0.0
220
0.0
230
1.0
 70
     8
 71
     3
 72
    13
 73
     9
 74
     0
 42
0.000000001
 43
0.00000001
 40
0.0
 40
0.0
 40
0.0
 40
0.0
 40
0.2506736071386392
 40
0.5012152607337993
 40
0.6264526015104145
 40
0.7514497498805432
 40
0.8760271183236301
 40
1.0
 40
1.0
 40
1.0
 40
1.0
 10
229.2417290771047
 20
119.7656687585572
 30
0.0
 10
229.2406905741927
 20
119.848814912311
 30
0.0
 10
229.2386141150321
 20
120.0150634520294
 30
0.0
 10
229.2166998706209
 20
120.2219545798331
 30
0.0
 10
229.1763074153843
 20
120.3843301555634
 30
0.0
 10
229.1165397846342
 20
120.4936709028229
 30
0.0
 10
229.0260196992814
 20
120.5874091545243
 30
0.0
 10
228.9423896813664
 20
120.5999528331739
 30
0.0
 10
228.9006763686235
 20
120.6062094190685
 30
0.0
  0
SPLINE
  5
264
330
1F
100
AcDbEntity
  8
0
  6
Continuous
 62
     7
370
    18
100
AcDbSpline
210
0.0
220
0.0
230
1.0
 70
     8
 71
     3
 72
    13
 73
     9
 74
     0
 42
0.000000001
 43
0.00000001
 40
0.0
 40
0.0
 40
0.0
 40
0.0
 40
0.123734574999404
 40
0.2484232101745681
 40
0.3734713343328623
 40
0.498744496763746
 40
0.749310225773325
 40
1.0
 40
1.0
 40
1.0
 40
1.0
 10
227.605676720038
 20
118.9251280980458
 30
0.0
 10
227.6467611162276
 20
118.9324913397986
 30
0.0
 10
227.7292466914159
 20
118.9472745978616
 30
0.0
 10
227.8134412611184
 20
119.0449873919324
 30
0.0
 10
227.8705109836742
 20
119.1537294745486
 30
0.0
 10
227.9096811810899
 20
119.3145225816445
 30
0.0
 10
227.9309485040137
 20
119.5190795655043
 30
0.0
 10
227.9331302433509
 20
119.6834588012824
 30
0.0
 10
227.934221382976
 20
119.7656687585572
 30
0.0
  0
SPLINE
  5
265
330
1F
100
AcDbEntity
  8
0
  6
Continuous
 62
     7
370
    18
100
AcDbSpline
210
0.0
220
0.0
230
1.0
 70
     8
 71
     3
 72
    13
 73
     9
 74
     0
 42
0.000000001
 43
0.00000001
 40
0.0
 40
0.0
 40
0.0
 40
0.0
 40
0.2506668541570155
 40
0.5012048357437084
 40
0.6264537829510461
 40
0.7514291871594861
 40
0.8760522367173379
 40
1.0
 40
1.0
 40
1.0
 40
1.0
 10
227.2671256206654
 20
119.7656687585572
 30
0.0
 10
227.2681739274819
 20
119.6827235227622
 30
0.0
 10
227.2702700021608
 20
119.5168756948865
 30
0.0
 10
227.2920891011996
 20
119.3105016925088
 30
0.0
 10
227.3321915814701
 20
119.1484473090729
 30
0.0
 10
227.391562923087
 20
119.0393418059537
 30
0.0
 10
227.4806642824347
 20
118.9446514804949
 30
0.0
 10
227.5640814466299
 20
118.9316240951353
 30
0.0
 10
227.605676720038
 20
118.9251280980458
 30
0.0
  0
SPLINE
  5
266
330
1F
100
AcDbEntity
  8
0
  6
Continuous
 62
     7
370
    18
100
AcDbSpline
210
0.0
220
0.0
230
1.0
 70
     8
 71
     3
 72
    13
 73
     9
 74
     0
 42
0.000000001
 43
0.00000001
 40
0.0
 40
0.0
 40
0.0
 40
0.0
 40
0.1236770548154432
 40
0.2483884878623308
 40
0.3734455614730969
 40
0.4987169325064004
 40
0.7492948497723043
 40
1.0
 40
1.0
 40
1.0
 40
1.0
 10
227.5931686744947
 20
120.6062094190685
 30
0.0
 10
227.5521801098404
 20
120.5987162198088
 30
0.0
 10
227.4698601709534
 20
120.5836671516032
 30
0.0
 10
227.3867464515318
 20
120.485309811273
 30
0.0
 10
227.3300134024586
 20
120.376675989937
 30
0.0
 10
227.291997608466
 20
120.2158939607728
 30
0.0
 10
227.2702528597237
 20
120.0118450508364
 30
0.0
 10
227.2681682100563
 20
119.8477414066173
 30
0.0
 10
227.2671256206654
 20
119.7656687585572
 30
0.0
  0
SPLINE
  5
267
330
1F
100
AcDbEntity
  8
0
  6
Continuous
 62
     7
370
    18
100
AcDbSpline
210
0.0
220
0.0
230
1.0
 70
     8
 71
     3
 72
    13
 73
     9
 74
     0
 42
0.000000001
 43
0.00000001
 40
0.0
 40
0.0
 40
0.0
 40
0.0
 40
0.2506736071386391
 40
0.5012152607337986
 40
0.6264526015104142
 40
0.7514497498805428
 40
0.8760271183236269
 40
1.0
 40
1.0
 40
1.0
 40
1.0
 10
227.934221382976
 20
119.7656687585572
 30
0.0
 10
227.9331828800639
 20
119.848814912311
 30
0.0
 10
227.9311064209033
 20
120.0150634520294
 30
0.0
 10
227.9091921764921
 20
120.2219545798331
 30
0.0
 10
227.8687997212556
 20
120.3843301555634
 30
0.0
 10
227.8090320905054
 20
120.4936709028229
 30
0.0
 10
227.7185120051526
 20
120.5874091545243
 30
0.0
 10
227.6348819872376
 20
120.5999528331739
 30
0.0
 10
227.5931686744947
 20
120.6062094190685
 30
0.0
  0
SPLINE
  5
268
330
1F
100
AcDbEntity
  8
0
  6
Continuous
 62
     7
370
    18
100
AcDbSpline
210
0.0
220
0.0
230
1.0
 70
     8
 71
     3
 72
    12
 73
     8
 74
     0
 42
0.000000001
 43
0.00000001
 40
0.0
 40
0.0
 40
0.0
 40
0.0
 40
0.1864266110451021
 40
0.3728066183672661
 40
0.5596384089196413
 40
0.7795953861027519
 40
1.0
 40
1.0
 40
1.0
 40
1.0
 10
224.2130778338371
 20
118.9251280980458
 30
0.0
 10
224.2498720772362
 20
118.9286837656344
 30
0.0
 10
224.3234513660518
 20
118.9357942119506
 30
0.0
 10
224.4182458640793
 20
118.9976910633839
 30
0.0
 10
224.4934129570664
 20
119.0876522453444
 30
0.0
 10
224.5386876092493
 20
119.2049132134857
 30
0.0
 10
224.5431442999356
 20
119.291313876581
 30
0.0
 10
224.5453749104381
 20
119.334558122164
 30
0.0
  0
SPLINE
  5
269
330
1F
100
AcDbEntity
  8
0
  6
Continuous
 62
     7
370
    18
100
AcDbSpline
210
0.0
220
0.0
230
1.0
 70
     8
 71
     3
 72
    11
 73
     7
 74
     0
 42
0.000000001
 43
0.00000001
 40
0.0
 40
0.0
 40
0.0
 40
0.0
 40
0.2807261943832933
 40
0.560397291612564
 40
0.7804346209650581
 40
1.0
 40
1.0
 40
1.0
 40
1.0
 10
223.8782791481275
 20
119.3428968191929
 30
0.0
 10
223.8818538880449
 20
119.2868642069725
 30
0.0
 10
223.8889899323758
 20
119.1750095786602
 30
0.0
 10
223.9675007363304
 20
119.0366341529415
 30
0.0
 10
224.0812360374774
 20
118.9418321152369
 30
0.0
 10
224.1691620336904
 20
118.9306921172026
 30
0.0
 10
224.2130778338371
 20
118.9251280980458
 30
0.0
  0
SPLINE
  5
26A
330
1F
100
AcDbEntity
  8
0
  6
Continuous
 62
     7
370
    18
100
AcDbSpline
210
0.0
220
0.0
230
1.0
 70
     8
 71
     3
 72
    11
 73
     7
 74
     0
 42
0.000000001
 43
0.00000001
 40
0.0
 40
0.0
 40
0.0
 40
0.0
 40
0.2782055765816049
 40
0.5579799253701343
 40
0.7788219222535238
 40
1.0
 40
1.0
 40
1.0
 40
1.0
 10
224.2076576807683
 20
119.752326843311
 30
0.0
 10
224.152973405367
 20
119.7431370908477
 30
0.0
 10
224.0432964956434
 20
119.7247057658661
 30
0.0
 10
223.9380519791694
 20
119.6032341178676
 30
0.0
 10
223.8849746891257
 20
119.472233431408
 30
0.0
 10
223.8805121261329
 20
119.386030870712
 30
0.0
 10
223.8782791481275
 20
119.3428968191929
 30
0.0
  0
SPLINE
  5
26B
330
1F
100
AcDbEntity
  8
0
  6
Continuous
 62
     7
370
    18
100
AcDbSpline
210
0.0
220
0.0
230
1.0
 70
     8
 71
     3
 72
    11
 73
     7
 74
     0
 42
0.000000001
 43
0.00000001
 40
0.0
 40
0.0
 40
0.0
 40
0.0
 40
0.2807535301687743
 40
0.5603207228591549
 40
0.7803822345379182
 40
1.0
 40
1.0
 40
1.0
 40
1.0
 10
224.5453749104381
 20
119.334558122164
 30
0.0
 10
224.5416907067406
 20
119.3907970729153
 30
0.0
 10
224.5343378671247
 20
119.5030373340399
 30
0.0
 10
224.4542127431304
 20
119.6410766160395
 30
0.0
 10
224.3399784113791
 20
119.7358234304148
 30
0.0
 10
224.2517349043917
 20
119.7468294082725
 30
0.0
 10
224.2076576807683
 20
119.752326843311
 30
0.0
  0
SPLINE
  5
26C
330
1F
100
AcDbEntity
  8
0
  6
Continuous
 62
     7
370
    18
100
AcDbSpline
210
0.0
220
0.0
230
1.0
 70
     8
 71
     3
 72
    11
 73
     7
 74
     0
 42
0.000000001
 43
0.00000001
 40
0.0
 40
0.0
 40
0.0
 40
0.0
 40
0.2783889696083879
 40
0.5580817055296868
 40
0.7789018539988232
 40
1.0
 40
1.0
 40
1.0
 40
1.0
 10
224.2130778338371
 20
119.9657974872504
 30
0.0
 10
224.2550648802525
 20
119.9729629476892
 30
0.0
 10
224.3392356090951
 20
119.9873274262395
 30
0.0
 10
224.419339004845
 20
120.0810212714408
 30
0.0
 10
224.46035446662
 20
120.1813406023323
 30
0.0
 10
224.4636664070331
 20
120.2474885302793
 30
0.0
 10
224.4653234189608
 20
120.2805833000907
 30
0.0
  0
SPLINE
  5
26D
330
1F
100
AcDbEntity
  8
0
  6
Continuous
 62
     7
370
    18
100
AcDbSpline
210
0.0
220
0.0
230
1.0
 70
     8
 71
     3
 72
    11
 73
     7
 74
     0
 42
0.000000001
 43
0.00000001
 40
0.0
 40
0.0
 40
0.0
 40
0.0
 40
0.2806987831964738
 40
0.5604086902325288
 40
0.7804393617933053
 40
1.0
 40
1.0
 40
1.0
 40
1.0
 10
223.9583306396048
 20
120.2943421501883
 30
0.0
 10
223.9607583230359
 20
120.2507850029459
 30
0.0
 10
223.9656051373913
 20
120.1638241563101
 30
0.0
 10
224.0228751371886
 20
120.0543252604212
 30
0.0
 10
224.1102955705347
 20
119.9785280941182
 30
0.0
 10
224.1788415103364
 20
119.9700379968586
 30
0.0
 10
224.2130778338371
 20
119.9657974872504
 30
0.0
  0
SPLINE
  5
26E
330
1F
100
AcDbEntity
  8
0
  6
Continuous
 62
     7
370
    18
100
AcDbSpline
210
0.0
220
0.0
230
1.0
 70
     8
 71
     3
 72
    11
 73
     7
 74
     0
 42
0.000000001
 43
0.00000001
 40
0.0
 40
0.0
 40
0.0
 40
0.0
 40
0.2781848052830279
 40
0.5582334878196241
 40
0.7790790531104522
 40
1.0
 40
1.0
 40
1.0
 40
1.0
 10
224.2105762247284
 20
120.6062094190685
 30
0.0
 10
224.1690192903039
 20
120.5989040373457
 30
0.0
 10
224.0856269841594
 20
120.5842443268168
 30
0.0
 10
224.0061956698789
 20
120.4916154690432
 30
0.0
 10
223.9640576149669
 20
120.3927089625484
 30
0.0
 10
223.9602398485425
 20
120.3271348174279
 30
0.0
 10
223.9583306396048
 20
120.2943421501884
 30
0.0
  0
SPLINE
  5
26F
330
1F
100
AcDbEntity
  8
0
  6
Continuous
 62
     7
370
    18
100
AcDbSpline
210
0.0
220
0.0
230
1.0
 70
     8
 71
     3
 72
    11
 73
     7
 74
     0
 42
0.000000001
 43
0.00000001
 40
0.0
 40
0.0
 40
0.0
 40
0.0
 40
0.2805990159984029
 40
0.5604527759419506
 40
0.7805133266133522
 40
1.0
 40
1.0
 40
1.0
 40
1.0
 10
224.4653234189608
 20
120.2805833000907
 30
0.0
 10
224.4626394964628
 20
120.323722586657
 30
0.0
 10
224.4572787798221
 20
120.4098865841402
 30
0.0
 10
224.3967662611471
 20
120.5157752440913
 30
0.0
 10
224.3120289998525
 20
120.5919290418517
 30
0.0
 10
224.2443643685617
 20
120.601453438379
 30
0.0
 10
224.2105762247284
 20
120.6062094190685
 30
0.0
  0
SPLINE
  5
270
330
1F
100
AcDbEntity
  8
0
  6
Continuous
 62
     7
370
    18
100
AcDbSpline
210
0.0
220
0.0
230
1.0
 70
     8
 71
     3
 72
    13
 73
     9
 74
     0
 42
0.000000001
 43
0.00000001
 40
0.0
 40
0.0
 40
0.0
 40
0.0
 40
0.1237345749994075
 40
0.2484232101745691
 40
0.3734713343328618
 40
0.4987444967637455
 40
0.749310225773325
 40
1.0
 40
1.0
 40
1.0
 40
1.0
 10
222.9093225533713
 20
118.9251280980458
 30
0.0
 10
222.9504069495609
 20
118.9324913397986
 30
0.0
 10
223.0328925247493
 20
118.9472745978616
 30
0.0
 10
223.1170870944517
 20
119.0449873919324
 30
0.0
 10
223.1741568170075
 20
119.1537294745486
 30
0.0
 10
223.2133270144233
 20
119.3145225816445
 30
0.0
 10
223.234594337347
 20
119.5190795655042
 30
0.0
 10
223.2367760766842
 20
119.6834588012824
 30
0.0
 10
223.2378672163093
 20
119.7656687585572
 30
0.0
  0
SPLINE
  5
271
330
1F
100
AcDbEntity
  8
0
  6
Continuous
 62
     7
370
    18
100
AcDbSpline
210
0.0
220
0.0
230
1.0
 70
     8
 71
     3
 72
    13
 73
     9
 74
     0
 42
0.000000001
 43
0.00000001
 40
0.0
 40
0.0
 40
0.0
 40
0.0
 40
0.2506668541570156
 40
0.5012048357437086
 40
0.6264537829510461
 40
0.7514291871594863
 40
0.8760522367173379
 40
1.0
 40
1.0
 40
1.0
 40
1.0
 10
222.5707714539987
 20
119.7656687585572
 30
0.0
 10
222.5718197608153
 20
119.6827235227622
 30
0.0
 10
222.5739158354941
 20
119.5168756948865
 30
0.0
 10
222.5957349345329
 20
119.3105016925088
 30
0.0
 10
222.6358374148034
 20
119.1484473090729
 30
0.0
 10
222.6952087564203
 20
119.0393418059537
 30
0.0
 10
222.784310115768
 20
118.9446514804949
 30
0.0
 10
222.8677272799632
 20
118.9316240951353
 30
0.0
 10
222.9093225533713
 20
118.9251280980458
 30
0.0
  0
SPLINE
  5
272
330
1F
100
AcDbEntity
  8
0
  6
Continuous
 62
     7
370
    18
100
AcDbSpline
210
0.0
220
0.0
230
1.0
 70
     8
 71
     3
 72
    13
 73
     9
 74
     0
 42
0.000000001
 43
0.00000001
 40
0.0
 40
0.0
 40
0.0
 40
0.0
 40
0.123677054815444
 40
0.2483884878623314
 40
0.3734455614730956
 40
0.4987169325064014
 40
0.7492948497723048
 40
1.0
 40
1.0
 40
1.0
 40
1.0
 10
222.896814507828
 20
120.6062094190686
 30
0.0
 10
222.8558259431737
 20
120.5987162198088
 30
0.0
 10
222.7735060042867
 20
120.5836671516032
 30
0.0
 10
222.6903922848651
 20
120.485309811273
 30
0.0
 10
222.6336592357919
 20
120.376675989937
 30
0.0
 10
222.5956434417993
 20
120.2158939607728
 30
0.0
 10
222.573898693057
 20
120.0118450508364
 30
0.0
 10
222.5718140433896
 20
119.8477414066173
 30
0.0
 10
222.5707714539987
 20
119.7656687585572
 30
0.0
  0
SPLINE
  5
273
330
1F
100
AcDbEntity
  8
0
  6
Continuous
 62
     7
370
    18
100
AcDbSpline
210
0.0
220
0.0
230
1.0
 70
     8
 71
     3
 72
    13
 73
     9
 74
     0
 42
0.000000001
 43
0.00000001
 40
0.0
 40
0.0
 40
0.0
 40
0.0
 40
0.2506736071386389
 40
0.5012152607337989
 40
0.6264526015104134
 40
0.7514497498805419
 40
0.876027118323626
 40
1.0
 40
1.0
 40
1.0
 40
1.0
 10
223.2378672163093
 20
119.7656687585572
 30
0.0
 10
223.2368287133972
 20
119.848814912311
 30
0.0
 10
223.2347522542367
 20
120.0150634520294
 30
0.0
 10
223.2128380098255
 20
120.2219545798331
 30
0.0
 10
223.1724455545889
 20
120.3843301555634
 30
0.0
 10
223.1126779238387
 20
120.4936709028229
 30
0.0
 10
223.022157838486
 20
120.5874091545243
 30
0.0
 10
222.938527820571
 20
120.5999528331739
 30
0.0
 10
222.896814507828
 20
120.6062094190686
 30
0.0
  0
CIRCLE
  5
274
330
1F
100
AcDbEntity
  8
0
  6
Continuous
 62
     7
370
    18
100
AcDbCircle
 10
225.8929083503
 20
122.1271877571
 30
0.0
 40
25.40000000000003
  0
OLE2FRAME
  5
275
330
1F
100
AcDbEntity
  8
0
100
AcDbOle2Frame
 70
     2
  3
Paintbrush Picture
 10
229.0524258301
 20
33.6996297921
 30
0.0
 11
265.1686469208
 21
28.555479607
 31
0.0
 71
     2
 72
     0
 73
     1
 90
     7296
310
80557333EF78ADA16C40002412788DD94040000000000000000041161DC7B292
310
7040002412788DD94040000000000000000041161DC7B2927040F6DD59E9338E
310
3C4000000000000000007333EF78ADA16C40F6DD59E9338E3C40000000000000
310
00000000000001000000000100000100000001000000000001000000001C0000
310
D0CF11E0A1B11AE1000000000000000000000000000000003E000300FEFF0900
310
0600000000000000000000000100000001000000000000000010000002000000
310
01000000FEFFFFFF0000000000000000FFFFFFFFFFFFFFFFFFFFFFFFFFFFFFFF
310
FFFFFFFFFFFFFFFFFFFFFFFFFFFFFFFFFFFFFFFFFFFFFFFFFFFFFFFFFFFFFFFF
310
FFFFFFFFFFFFFFFFFFFFFFFFFFFFFFFFFFFFFFFFFFFFFFFFFFFFFFFFFFFFFFFF
310
FFFFFFFFFFFFFFFFFFFFFFFFFFFFFFFFFFFFFFFFFFFFFFFFFFFFFFFFFFFFFFFF
310
FFFFFFFFFFFFFFFFFFFFFFFFFFFFFFFFFFFFFFFFFFFFFFFFFFFFFFFFFFFFFFFF
310
FFFFFFFFFFFFFFFFFFFFFFFFFFFFFFFFFFFFFFFFFFFFFFFFFFFFFFFFFFFFFFFF
310
FFFFFFFFFFFFFFFFFFFFFFFFFFFFFFFFFFFFFFFFFFFFFFFFFFFFFFFFFFFFFFFF
310
FFFFFFFFFFFFFFFFFFFFFFFFFFFFFFFFFFFFFFFFFFFFFFFFFFFFFFFFFFFFFFFF
310
FFFFFFFFFFFFFFFFFFFFFFFFFFFFFFFFFFFFFFFFFFFFFFFFFFFFFFFFFFFFFFFF
310
FFFFFFFFFFFFFFFFFFFFFFFFFFFFFFFFFFFFFFFFFFFFFFFFFFFFFFFFFFFFFFFF
310
FFFFFFFFFFFFFFFFFFFFFFFFFFFFFFFFFFFFFFFFFFFFFFFFFFFFFFFFFFFFFFFF
310
FFFFFFFFFFFFFFFFFFFFFFFFFFFFFFFFFFFFFFFFFFFFFFFFFFFFFFFFFFFFFFFF
310
FFFFFFFFFFFFFFFFFFFFFFFFFFFFFFFFFFFFFFFFFFFFFFFFFFFFFFFFFFFFFFFF
310
FFFFFFFFFFFFFFFFFFFFFFFFFFFFFFFFFFFFFFFFFFFFFFFFFFFFFFFFFFFFFFFF
310
FDFFFFFFFEFFFFFFFEFFFFFFFEFFFFFF05000000060000000700000008000000
310
090000000A0000000B0000000C000000FEFFFFFFFFFFFFFFFFFFFFFFFFFFFFFF
310
FFFFFFFFFFFFFFFFFFFFFFFFFFFFFFFFFFFFFFFFFFFFFFFFFFFFFFFFFFFFFFFF
310
FFFFFFFFFFFFFFFFFFFFFFFFFFFFFFFFFFFFFFFFFFFFFFFFFFFFFFFFFFFFFFFF
310
FFFFFFFFFFFFFFFFFFFFFFFFFFFFFFFFFFFFFFFFFFFFFFFFFFFFFFFFFFFFFFFF
310
FFFFFFFFFFFFFFFFFFFFFFFFFFFFFFFFFFFFFFFFFFFFFFFFFFFFFFFFFFFFFFFF
310
FFFFFFFFFFFFFFFFFFFFFFFFFFFFFFFFFFFFFFFFFFFFFFFFFFFFFFFFFFFFFFFF
310
FFFFFFFFFFFFFFFFFFFFFFFFFFFFFFFFFFFFFFFFFFFFFFFFFFFFFFFFFFFFFFFF
310
FFFFFFFFFFFFFFFFFFFFFFFFFFFFFFFFFFFFFFFFFFFFFFFFFFFFFFFFFFFFFFFF
310
FFFFFFFFFFFFFFFFFFFFFFFFFFFFFFFFFFFFFFFFFFFFFFFFFFFFFFFFFFFFFFFF
310
FFFFFFFFFFFFFFFFFFFFFFFFFFFFFFFFFFFFFFFFFFFFFFFFFFFFFFFFFFFFFFFF
310
FFFFFFFFFFFFFFFFFFFFFFFFFFFFFFFFFFFFFFFFFFFFFFFFFFFFFFFFFFFFFFFF
310
FFFFFFFFFFFFFFFFFFFFFFFFFFFFFFFFFFFFFFFFFFFFFFFFFFFFFFFFFFFFFFFF
310
FFFFFFFFFFFFFFFFFFFFFFFFFFFFFFFFFFFFFFFFFFFFFFFFFFFFFFFFFFFFFFFF
310
FFFFFFFFFFFFFFFFFFFFFFFFFFFFFFFFFFFFFFFFFFFFFFFFFFFFFFFFFFFFFFFF
310
FFFFFFFFFFFFFFFFFFFFFFFFFFFFFFFFFFFFFFFFFFFFFFFFFFFFFFFFFFFFFFFF
310
52006F006F007400200045006E00740072007900000000000000000000000000
310
0000000000000000000000000000000000000000000000000000000000000000
310
16000500FFFFFFFFFFFFFFFF020000000A00030000000000C000000000000046
310
000000000000000000000000B0BEB2744896D40103000000C000000000000000
310
01004F006C006500000000000000000000000000000000000000000000000000
310
0000000000000000000000000000000000000000000000000000000000000000
310
0A000200FFFFFFFFFFFFFFFFFFFFFFFF00000000000000000000000000000000
310
0000000000000000000000000000000000000000000000001400000000000000
310
010043006F006D0070004F0062006A0000000000000000000000000000000000
310
0000000000000000000000000000000000000000000000000000000000000000
310
120002010100000003000000FFFFFFFF00000000000000000000000000000000
310
0000000000000000000000000000000000000000010000004D00000000000000
310
01004F006C006500310030004E00610074006900760065000000000000000000
310
0000000000000000000000000000000000000000000000000000000000000000
310
1A000200FFFFFFFFFFFFFFFFFFFFFFFF00000000000000000000000000000000
310
000000000000000000000000000000000000000004000000E411000000000000
310
FEFFFFFF02000000FEFFFFFFFFFFFFFFFFFFFFFFFFFFFFFFFFFFFFFFFFFFFFFF
310
FFFFFFFFFFFFFFFFFFFFFFFFFFFFFFFFFFFFFFFFFFFFFFFFFFFFFFFFFFFFFFFF
310
FFFFFFFFFFFFFFFFFFFFFFFFFFFFFFFFFFFFFFFFFFFFFFFFFFFFFFFFFFFFFFFF
310
FFFFFFFFFFFFFFFFFFFFFFFFFFFFFFFFFFFFFFFFFFFFFFFFFFFFFFFFFFFFFFFF
310
FFFFFFFFFFFFFFFFFFFFFFFFFFFFFFFFFFFFFFFFFFFFFFFFFFFFFFFFFFFFFFFF
310
FFFFFFFFFFFFFFFFFFFFFFFFFFFFFFFFFFFFFFFFFFFFFFFFFFFFFFFFFFFFFFFF
310
FFFFFFFFFFFFFFFFFFFFFFFFFFFFFFFFFFFFFFFFFFFFFFFFFFFFFFFFFFFFFFFF
310
FFFFFFFFFFFFFFFFFFFFFFFFFFFFFFFFFFFFFFFFFFFFFFFFFFFFFFFFFFFFFFFF
310
FFFFFFFFFFFFFFFFFFFFFFFFFFFFFFFFFFFFFFFFFFFFFFFFFFFFFFFFFFFFFFFF
310
FFFFFFFFFFFFFFFFFFFFFFFFFFFFFFFFFFFFFFFFFFFFFFFFFFFFFFFFFFFFFFFF
310
FFFFFFFFFFFFFFFFFFFFFFFFFFFFFFFFFFFFFFFFFFFFFFFFFFFFFFFFFFFFFFFF
310
FFFFFFFFFFFFFFFFFFFFFFFFFFFFFFFFFFFFFFFFFFFFFFFFFFFFFFFFFFFFFFFF
310
FFFFFFFFFFFFFFFFFFFFFFFFFFFFFFFFFFFFFFFFFFFFFFFFFFFFFFFFFFFFFFFF
310
FFFFFFFFFFFFFFFFFFFFFFFFFFFFFFFFFFFFFFFFFFFFFFFFFFFFFFFFFFFFFFFF
310
FFFFFFFFFFFFFFFFFFFFFFFFFFFFFFFFFFFFFFFFFFFFFFFFFFFFFFFFFFFFFFFF
310
FFFFFFFFFFFFFFFFFFFFFFFFFFFFFFFFFFFFFFFFFFFFFFFFFFFFFFFFFFFFFFFF
310
0100000200000000000000000000000000000000000000000000000000000000
310
0000000000000000000000000000000000000000000000000000000000000000
310
0100FEFF030A0000FFFFFFFF0A00030000000000C00000000000004607000000
310
5042727573680007000000504272757368000700000050427275736800F439B2
310
7100000000000000000000000000000000000000000000000000000000000000
310
0000000000000000000000000000000000000000000000000000000000000000
310
0000000000000000000000000000000000000000000000000000000000000000
310
0000000000000000000000000000000000000000000000000000000000000000
310
0000000000000000000000000000000000000000000000000000000000000000
310
0000000000000000000000000000000000000000000000000000000000000000
310
0000000000000000000000000000000000000000000000000000000000000000
310
0000000000000000000000000000000000000000000000000000000000000000
310
0000000000000000000000000000000000000000000000000000000000000000
310
0000000000000000000000000000000000000000000000000000000000000000
310
0000000000000000000000000000000000000000000000000000000000000000
310
0000000000000000000000000000000000000000000000000000000000000000
310
E0110000424DDE11000000000000360400002800000096000000170000000100
310
08000000000000000000E7240000E72400000001000000010000000000FF0101
310
01FF020202FF030303FF040404FF050505FF060606FF070707FF080808FF0909
310
09FF0A0A0AFF0B0B0BFF0C0C0CFF0D0D0DFF0E0E0EFF0F0F0FFF101010FF1111
310
11FF121212FF131313FF141414FF151515FF161616FF171717FF181818FF1919
310
19FF1A1A1AFF1B1B1BFF1C1C1CFF1D1D1DFF1E1E1EFF1F1F1FFF202020FF2121
310
21FF222222FF232323FF242424FF252525FF262626FF272727FF282828FF2929
310
29FF2A2A2AFF2B2B2BFF2C2C2CFF2D2D2DFF2E2E2EFF2F2F2FFF303030FF3131
310
31FF323232FF333333FF343434FF353535FF363636FF373737FF383838FF3939
310
39FF3A3A3AFF3B3B3BFF3C3C3CFF3D3D3DFF3E3E3EFF3F3F3FFF404040FF4141
310
41FF424242FF434343FF444444FF454545FF464646FF474747FF484848FF4949
310
49FF4A4A4AFF4B4B4BFF4C4C4CFF4D4D4DFF4E4E4EFF4F4F4FFF505050FF5151
310
51FF525252FF535353FF545454FF555555FF565656FF575757FF585858FF5959
310
59FF5A5A5AFF5B5B5BFF5C5C5CFF5D5D5DFF5E5E5EFF5F5F5FFF606060FF6161
310
61FF626262FF636363FF646464FF656565FF666666FF676767FF686868FF6969
310
69FF6A6A6AFF6B6B6BFF6C6C6CFF6D6D6DFF6E6E6EFF6F6F6FFF707070FF7171
310
71FF727272FF737373FF747474FF757575FF767676FF777777FF787878FF7979
310
79FF7A7A7AFF7B7B7BFF7C7C7CFF7D7D7DFF7E7E7EFF7F7F7FFF808080FF8181
310
81FF828282FF838383FF848484FF858585FF868686FF878787FF888888FF8989
310
89FF8A8A8AFF8B8B8BFF8C8C8CFF8D8D8DFF8E8E8EFF8F8F8FFF909090FF9191
310
91FF929292FF939393FF949494FF959595FF969696FF979797FF989898FF9999
310
99FF9A9A9AFF9B9B9BFF9C9C9CFF9D9D9DFF9E9E9EFF9F9F9FFFA0A0A0FFA1A1
310
A1FFA2A2A2FFA3A3A3FFA4A4A4FFA5A5A5FFA6A6A6FFA7A7A7FFA8A8A8FFA9A9
310
A9FFAAAAAAFFABABABFFACACACFFADADADFFAEAEAEFFAFAFAFFFB0B0B0FFB1B1
310
B1FFB2B2B2FFB3B3B3FFB4B4B4FFB5B5B5FFB6B6B6FFB7B7B7FFB8B8B8FFB9B9
310
B9FFBABABAFFBBBBBBFFBCBCBCFFBDBDBDFFBEBEBEFFBFBFBFFFC0C0C0FFC1C1
310
C1FFC2C2C2FFC3C3C3FFC4C4C4FFC5C5C5FFC6C6C6FFC7C7C7FFC8C8C8FFC9C9
310
C9FFCACACAFFCBCBCBFFCCCCCCFFCDCDCDFFCECECEFFCFCFCFFFD0D0D0FFD1D1
310
D1FFD2D2D2FFD3D3D3FFD4D4D4FFD5D5D5FFD6D6D6FFD7D7D7FFD8D8D8FFD9D9
310
D9FFDADADAFFDBDBDBFFDCDCDCFFDDDDDDFFDEDEDEFFDFDFDFFFE0E0E0FFE1E1
310
E1FFE2E2E2FFE3E3E3FFE4E4E4FFE5E5E5FFE6E6E6FFE7E7E7FFE8E8E8FFE9E9
310
E9FFEAEAEAFFEBEBEBFFECECECFFEDEDEDFFEEEEEEFFEFEFEFFFF0F0F0FFF1F1
310
F1FFF2F2F2FFF3F3F3FFF4F4F4FFF5F5F5FFF6F6F6FFF7F7F7FFF8F8F8FFF9F9
310
F9FFFAFAFAFFFBFBFBFFFCFCFCFFFDFDFDFFFEFEFEFFFFFFFFFFFFFFFFFFFFFF
310
C94E4E4E4F4E4EFFFFFFFFFFC94E4E4E4E4E72FFFFFFFFFFFFFF734E4D4E4E4E
310
C9FFFFFFFFFFAA683516171616265B9BE9FFFFFFFFFF4E4E4E4D4E4EFFFFFFFF
310
FFFFFFFF4E4E4F4E4D4E4E4E4F4E4E4F4D4E4E4E4E4E4D4E4F4E4D4E4E4EAAFF
310
FFFFFFFFFFEA4E4F4F4E4E4E4E4E4D4D4F4F4E4E4E4E4E5B7FAAFFFFFFFFFFFF
310
C9744E1716171616164D8DEAFFFFFFFF0000FFFFFFFFFFFFBA161617161716FF
310
FFFFFFFFB917171616174FFFFFFFFFFFFFFF4E1716161616B9FFFFFFB9341717
310
1716171617171616268CFFFFFFFF161617161617FFFFFFFFFFFFFFB917161717
310
1617167F807F7F7F7F7F7F807F7F807F7F807F7F7F414EFFFFFFFFFFFF8C167F
310
7F807F7F7F7E7F7F807F807F7F807F4E3417258EFFFFEA4E162674AABAEAEBBA
310
AA74341680FFFFFF0000FFFFFFFFFFFFB9171717171617FFFFFFFFFFBB161616
310
16164EFFFFFFFFFFFFFF4E1717171717B9FFFF9C171617171716161616171616
310
171766FFFFFF161717161617FFFFFFFFFFFFFF8E16171717161616FFFFFFFFFF
310
FFFFFFFFFFFFFFFFFFFFFFFFFFAA16D9FFFFFFFFFF3467FFFFFFFFEAFFFFFFFF
310
FFFFFFFFFFFFFFFFFFCA671667EB26278DFFFFFFFFFFFFFFFFFFFF8C2541EAFF
310
0000FFFFFFFFFFFFB9171717171716FFFFFFFFFFBA16171617174EFFFFFFFFFF
310
FFFF4E1717161616BAFF9B1617161616171716171617161616161667FFFF1616
310
16161716FFFFFFFFFFFFFF7F16161617174017FFFFFFFFFFFFFFFFFFFFFFFFFF
310
FFFFFFFFFFFF344E7F7F7F7E7417DAFFFFFFFF80FFFFFFFFFFFFFFFFFFFFFFFF
310
FFFFFF9B163425CAFFFFFFFFFFFFFFFFFFFFFFFFCA2667FF0000FFFFFFFFFFFF
310
BA171717171617FFFFFFFFFFB916171716164EFFFFFFFFFFFFFF4F1716161717
310
B9C91716171616161716161617171616161617168DFF161716161717FFFFFFFF
310
FFFFFF7F17171716164F16FFFFFFFFFFFFFFFFFFFFFFFFFFFFFFFFFFFFFF9B16
310
17161617174EFFFFFFFFFF34FFFFFFFFD9BABABABABADAFFFFFFFFFF7F16AAFF
310
FFFFFFFFFFFFFFFFFFFFFFFFFF9C16BA0000FFFFFFFFFFFFB9161717161717FF
310
FFFFFFFFB917161716174DFFFFFFFFFFFFFF4E1616161616BA4E161617171716
310
419BEAEAAA4E16161617161726E9171717161616FFFFFFFFFFFFFF4F16161717
310
164E16FFFFFFFFFFBAB9B9B9B9B9BABABACAFFFFFFFFFFFFFFFFFFFFFFFFFFFF
310
FFFFBA16FFFFFFFF7F1617161617174DEAFFFFFFEA41FFFFFFFFFFAA4D16174E
310
9BFFFFFFFFFF34730000FFFFFFFFFFFFB9161617171617FFFFFFFFFFBA161616
310
16164EFFFFFFFFFFFFFF4F16161717169B1617161716175BFFFFFFFFFFFF7417
310
16171616168D171717161617FFFFFFFFFFFFEA2616171717167416FFFFFFFFFF
310
16171616171717171717EAFFFFFFFFFFFFFFFFFFFFFFFFFFFFFF6716FFFFFFFF
310
7F4EFFFFFFFFBA2573FFFFFFFFBAFFFFFFFFAA167FB9BB9B269BFFFFFFFF664F
310
0000FFFFFFFFFFFFB9171616161616FFFFFFFFFFBA16161717164EFFFFFFFFFF
310
FFFF4E16161616174E161617171626EAFFFFFFFFFFFFFF4E16161616164E1716
310
16161617FFFFFFFFFFFF671616161716347F16FFFFFFFFFF16B9FFFFFFFFFFFF
310
D9168DFFFFFFFFFFFFFFFFFFFFFFFFFFFFEA1716FFFFFFFF7F4EFFFFFFFFFF7F
310
4EFFFFFFFFFFFFFFFFFF5B66FFFFFFEA347FFFFFFFFF7F4D0000FFFFFFFFFFFF
310
B9171616171617FFFFFFFFFFBA17161716174EFFFFFFFFFFFFFF4D1716161617
310
17161716161673FFFFFFFFFFFFFFFF9B1617161717161616171616174F4E4E4E
310
4E341616171616167E7F16FFFFFFFFFF16BAFFFFFFFFFFFFFF5B41FFFFFFFF34
310
1616171616BAFFFFFF9B1716FFFFFFFF7F4EFFFFFFFFFF4E4EFFFFFFFF734E4E
310
4E4E267EDA9B67164EEAFFFFFFFF744D0000FFFFFFFFFFFFBA171717161617FF
310
FFFFFFFFBA1616171616347F7F7F7F80807F331616161717161717161716B9FF
310
FFFFFFFFFFFFFFE9161616161616171716161716171616161616171616171734
310
EA7F16FFFFFFFFFF16BAFFFFFFFFFFFFFFAA17C9FFFFFF7326BABA5B25FFFFFF
310
FF401716FFFFFFFF7F264F4E4E4E4217AAFFFFFFEA16677F73261616164173CA
310
FFFFFFFFFFFF417F0000FFFFFFFFFFFFBA171616171617FFFFFFFFFFBA161616
310
17171616161616161616161717161616161616161617EAFFFFFFFFFFFFFFFFFF
310
261717161716161617161616161617161617161616174EEAFF8016FFFFFFFFFF
310
17BAFFFFFFFFFFFFFFFF3467FFFFFFC916C9FF3467FFFFFFDA166716FFFFFFFF
310
9C4D4E4E4E4E67AAFFFFFFFF6834FF7F262567AAEAFFFFFFFFFFFFFFFF9B17D9
310
0000FFFFFFFFFFFFB9161616161616FFFFFFFFFFBA1617161717171616161616
310
1716171716161716161617171716FFFFFFFFFFFFFFFFFFFF4E17161716171616
310
1617171616161716171717161616169BFF7F17FFFFFFFFFF17B9FFFFFFFFFFFF
310
FFFF7326FFFFFFFF3473DA16AAFFFFFF7317AA16FFFFFFFFFFFFFFFFFFFFFFFF
310
FFFFEA6725BA4E167FEAFFFFFFFFFFFFFFFFFFFF9C167FFF0000FFFFFFFFFFFF
310
B9161717171716FFFFFFFFFFBA16161716171616171717161617161716161616
310
171617171617EAFFFFFFFFFFFFFFFFFF26161717161616161616161617171616
310
1616161616171616AA8016FFFFFFFFFF16BAFFFFFFFFFFFFFFFFDA179BFFFFFF
310
74348D26FFFFFFFF2566B917FFFFFFFFD8BAB9BAB9BADAFFFFEA41169B7425C9
310
FFFFFFFFFFFFFFFFFFFFAB4F1680FFFF0000FFFFFFFFFFFFBA161717171617FF
310
FFFFFFFFBA17161717161617171617161616161617171616171716171617BBFF
310
FFFFFFFFFFFFFFE9171616161617161617161716FFFFFFFFFFD9671616161617
310
348017FFFFFFFFFF16BAFFFFFFFFFFFFFFFFFF4E5AFFFFFFC916265AFFFFFFAA
310
16AABA16FFFFFFFF7F1617161616179BFFFFEB4127168DFFFFFFFFFFFFFFD99B
310
6734175AC9FFFFFF0000FFFFFFFFFFFFB9161617171617FFFFFFFFFFBB161616
310
1616347F807F7F7F7F8033171716171617171616161672FFFFFFFFFFFFFFFF9C
310
171617171617161716161617FFFFFFFFFFFFFF4117161616174E17FFFFFFFFFF
310
16BAFFFFFFFFFFFFFFFFFF9B16DAFFFFFF34169BFFFFFF5A26FFB917FFFFFFFF
310
7F4EFFFFFFEA5B26FFFFFFEA2616EAFFFFFFFFDA743416331617414E4E4E4ECA
310
0000FFFFFFFFFFFFBA161716161616FFFFFFFFFFBA17171616164EFFFFFFFFFF
310
FFFF4E16161717174E161717171626EBFFFFFFFFFFFFFF4E16161617165B1616
310
16171617FFFFFFFFFFFFFF6716161616161617FFFFFFFFFF16BAFFFFFFFFFFFF
310
FFFFFFEA268CFFFFFF7316EAFFFFEB1774FFB916FFFFFFFF7F4EFFFFFFFF7316
310
FFFFFFFF6826FFFFFFFFEB264D9CEABA257F807F7F6616BA0000FFFFFFFFFFFF
310
BA161716161616FFFFFFFFFFBA16171616164DFFFFFFFFFFFFFF4E1617161617
310
9B1617171717165BEBFFFFFFFFFF671616161617179B171616161616FFFFFFFF
310
FFFFFF3417161617171617FFFFFFFFFF17BAFFFFFFFFFFFFFFFFFFFF6734FFFF
310
FFEBCAFFFFFF8D17C9FFBA17FFFFFFFF7F357F808066174FFFFFFFFF7F16FFFF
310
FFFFD91673B99B415BFFFFFFFFBA16DA00009B7F7F7F807F671617161616167F
310
80807F7E6617161616164EFFFFFFFFFFFFFF4E1616161617B94E171716161616
310
349BC9D9AA4E16171616161634FF161617161717B9B9BAB9BA9B411716171716
310
163416FFFFFFFFFF16B9FFFFFFFFFFFFFFFFFFFFC917CAFFFFFFFFFFFFFF3342
310
FFFFBA17FFFFFFFF9B4E4E4F4E4E66EAFFFFFFFF5B16C9FFFFFFFFAA4E164E73
310
EAFFFFFFFF8D26FF00004E161716161616171617171616171717171617161616
310
17174EFFFFFFFFFFFFFF4E1717171616B9D92616171716171716171717171716
310
16171716AAFF161717171617161617171616161617161716166717FFFFFFFFFF
310
17B9FFFFFFFFFFFFFFFFFFFFFF3467FFFFFFFFFFFFCA168CFFFFBB17FFFFFFFF
310
FFFFFFFFFFFFFFFFFFFFFFEA26265BFFFFFFFFFFFFFFFFFFFFFFFFFFEA3467FF
310
00004D16161616161617161717161617161616171617171616164EFFFFFFFFFF
310
FFFF4D1617161616BAFF9B1616161616161716161616171717161766FFFF1616
310
16171617161617161716171616171717667F16FFFFFFFFFF17BAFFFFFFFFFFFF
310
FFFFFFFFFF8C26EAFFFFFFFFFF6617EAFFFFBA17FFFFFFFFFFFFFFFFFFFFFFFF
310
FFFFEA5A25BA269BFFFFFFFFFFFFFFFFFFFFFFFF6616DAFF00004E1616171616
310
1616161616161716161617171616171616174EFFFFFFFFFFFFFF4D1717171716
310
B9FFFF9C161616161616161716161717171667FFFFFF17161717171716161617
310
1716161616161641E97E16FFFFFFFFFF16B9FFFFFFFFFFFFFFFFFFFFFFEA169B
310
FFFFFFFFEA265BFFFFFFB916FFFFFFFFFFFFFFFFFFFFFFFFFF9B3416AAFF9B17
310
67EAFFFFFFFFFFFFFFFFEA5B169BFFFF00004D17161716161616161717171616
310
161717161716171716174EFFFFFFFFFFFFFF4D1616161616BAFFFFFFBB411616
310
161716161616171634ABFFFFFFFF161716161617171716171617171617267FFF
310
FF7F164E4E4E4E4F17BAFFFFFFFFFFFFFFFFFFFFFFFF66344D4E4E4F4117AAFF
310
FFFFBA174E4E4E4D4E4D4D4E4E4E4E4116174EBBFFFFFFCA342666ABEAFFFFEA
310
AA6725269CFFFFFF0000724F4E4D4D4D4E4D4D4E4E4E4D4E4E4E4E4E4E4E4E4D
310
4E4E74FFFFFFFFFFFFFF734E4E4E4D4ECAFFFFFFFFFFAA663416171717265B9B
310
FFFFFFFFFFFF7F8080807F80807F7F7F7F7F807FBAFFFFFFFF9B4E4E4F4D4D4E
310
4DC9FFFFFFFFFFFFFFFFFFFFFFFFBA4E4E4E4E4D4E4EFFFFFFFFC94E4E4E4F4E
310
4E4E4D4E4E5A807F9CD9FFFFFFFFFFFFFF9B5B2617171716174E8DEAFFFFFFFF
310
0000000000000000000000000000000000000000000000000000000000000000
  1
OLE
  0
ENDSEC
  0
SECTION
  2
OBJECTS
  0
DICTIONARY
  5
C
330
0
100
AcDbDictionary
281
     1
  3
ACAD_GROUP
350
D
  3
ACAD_LAYOUT
350
1A
  3
ACAD_MLINESTYLE
350
17
  3
ACAD_PLOTSETTINGS
350
19
  3
ACAD_PLOTSTYLENAME
350
E
  3
ACAD_SCALELIST
350
47
  0
DICTIONARY
  5
D
102
{ACAD_REACTORS
330
C
102
}
330
C
100
AcDbDictionary
281
     1
  0
DICTIONARY
  5
1A
102
{ACAD_REACTORS
330
C
102
}
330
C
100
AcDbDictionary
281
     1
  3
Layout1
350
1E
  3
Layout2
350
26
  3
Model
350
22
  0
DICTIONARY
  5
17
102
{ACAD_REACTORS
330
C
102
}
330
C
100
AcDbDictionary
281
     1
  3
Standard
350
18
  0
DICTIONARY
  5
19
102
{ACAD_REACTORS
330
C
102
}
330
C
100
AcDbDictionary
281
     1
  0
ACDBDICTIONARYWDFLT
  5
E
102
{ACAD_REACTORS
330
C
102
}
330
C
100
AcDbDictionary
281
     1
  3
Normal
350
F
100
AcDbDictionaryWithDefault
340
F
  0
DICTIONARY
  5
47
102
{ACAD_REACTORS
330
C
102
}
330
C
100
AcDbDictionary
281
     1
  3
A0
350
48
  3
A1
350
49
  3
A2
350
4A
  3
A3
350
4B
  3
A4
350
4C
  3
A5
350
4D
  3
A6
350
4E
  3
A7
350
4F
  3
A8
350
50
  3
A9
350
51
  3
B0
350
52
  3
B1
350
53
  3
B2
350
54
  3
B3
350
55
  3
B4
350
56
  3
B5
350
57
  3
B6
350
58
  3
B7
350
59
  3
B8
350
5A
  3
B9
350
5B
  3
C0
350
5C
  3
C1
350
5D
  3
C2
350
5E
  3
C3
350
5F
  3
C4
350
60
  3
C5
350
61
  3
C6
350
62
  3
C7
350
63
  3
C8
350
64
  3
C9
350
65
  3
D0
350
66
  3
D1
350
67
  3
D2
350
68
  0
LAYOUT
  5
1E
102
{ACAD_REACTORS
330
1A
102
}
330
1A
100
AcDbPlotSettings
  1

  2
none_device
  4

  6

 40
0.0
 41
0.0
 42
0.0
 43
0.0
 44
0.0
 45
0.0
 46
0.0
 47
0.0
 48
0.0
 49
0.0
140
0.0
141
0.0
142
1.0
143
1.0
 70
   688
 72
     1
 73
     0
 74
     5
  7

 75
    16
147
1.0
148
0.0
149
0.0
100
AcDbLayout
  1
Layout1
 70
     1
 71
     1
 10
0.0
 20
0.0
 11
420.0
 21
297.0
 12
0.0
 22
0.0
 32
0.0
 14
1.0000000000E+20
 24
1.0000000000E+20
 34
1.0000000000E+20
 15
-1.0000000000E+20
 25
-1.0000000000E+20
 35
-1.0000000000E+20
146
0.0
 13
0.0
 23
0.0
 33
0.0
 16
1.0
 26
0.0
 36
0.0
 17
0.0
 27
1.0
 37
0.0
 76
     0
330
1B
  0
LAYOUT
  5
26
102
{ACAD_REACTORS
330
1A
102
}
330
1A
100
AcDbPlotSettings
  1

  2
none_device
  4

  6

 40
0.0
 41
0.0
 42
0.0
 43
0.0
 44
0.0
 45
0.0
 46
0.0
 47
0.0
 48
0.0
 49
0.0
140
0.0
141
0.0
142
1.0
143
1.0
 70
   688
 72
     1
 73
     0
 74
     5
  7

 75
    16
147
1.0
148
0.0
149
0.0
100
AcDbLayout
  1
Layout2
 70
     1
 71
     2
 10
0.0
 20
0.0
 11
0.0
 21
0.0
 12
0.0
 22
0.0
 32
0.0
 14
0.0
 24
0.0
 34
0.0
 15
0.0
 25
0.0
 35
0.0
146
0.0
 13
0.0
 23
0.0
 33
0.0
 16
1.0
 26
0.0
 36
0.0
 17
0.0
 27
1.0
 37
0.0
 76
     0
330
23
  0
LAYOUT
  5
22
102
{ACAD_REACTORS
330
1A
102
}
330
1A
100
AcDbPlotSettings
  1

  2
none_device
  4
Letter_(8.50_x_11.00_Inches)
  6

 40
6.35
 41
6.35
 42
6.35000508
 43
6.35000508
 44
215.9
 45
279.4
 46
0.0
 47
0.0
 48
0.0
 49
0.0
140
0.0
141
0.0
142
1.0
143
1.0
 70
  1712
 72
     1
 73
     0
 74
     0
  7

 75
     0
147
1.0
148
0.0
149
0.0
100
AcDbLayout
  1
Model
 70
     1
 71
     0
 10
0.0
 20
0.0
 11
279.4
 21
215.9
 12
0.0
 22
0.0
 32
0.0
 14
0.0
 24
0.0
 34
0.0
 15
279.4
 25
215.9
 35
0.0
146
0.0
 13
0.0
 23
0.0
 33
0.0
 16
1.0
 26
0.0
 36
0.0
 17
0.0
 27
1.0
 37
0.0
 76
     0
330
1F
331
29
  0
MLINESTYLE
  5
18
102
{ACAD_REACTORS
330
17
102
}
330
17
100
AcDbMlineStyle
  2
Standard
 70
     0
  3

 62
   256
 51
90.0
 52
90.0
 71
     2
 49
0.5
 62
   256
  6
BYLAYER
 49
-0.5
 62
   256
  6
BYLAYER
  0
ACDBPLACEHOLDER
  5
F
102
{ACAD_REACTORS
330
E
102
}
330
E
  0
SCALE
  5
48
102
{ACAD_REACTORS
330
47
102
}
330
47
100
AcDbScale
 70
     0
300
1:1
140
1.0
141
1.0
290
     1
  0
SCALE
  5
49
102
{ACAD_REACTORS
330
47
102
}
330
47
100
AcDbScale
 70
     0
300
1:2
140
1.0
141
2.0
290
     0
  0
SCALE
  5
4A
102
{ACAD_REACTORS
330
47
102
}
330
47
100
AcDbScale
 70
     0
300
1:4
140
1.0
141
4.0
290
     0
  0
SCALE
  5
4B
102
{ACAD_REACTORS
330
47
102
}
330
47
100
AcDbScale
 70
     0
300
1:5
140
1.0
141
5.0
290
     0
  0
SCALE
  5
4C
102
{ACAD_REACTORS
330
47
102
}
330
47
100
AcDbScale
 70
     0
300
1:8
140
1.0
141
8.0
290
     0
  0
SCALE
  5
4D
102
{ACAD_REACTORS
330
47
102
}
330
47
100
AcDbScale
 70
     0
300
1:10
140
1.0
141
10.0
290
     0
  0
SCALE
  5
4E
102
{ACAD_REACTORS
330
47
102
}
330
47
100
AcDbScale
 70
     0
300
1:16
140
1.0
141
16.0
290
     0
  0
SCALE
  5
4F
102
{ACAD_REACTORS
330
47
102
}
330
47
100
AcDbScale
 70
     0
300
1:20
140
1.0
141
20.0
290
     0
  0
SCALE
  5
50
102
{ACAD_REACTORS
330
47
102
}
330
47
100
AcDbScale
 70
     0
300
1:30
140
1.0
141
30.0
290
     0
  0
SCALE
  5
51
102
{ACAD_REACTORS
330
47
102
}
330
47
100
AcDbScale
 70
     0
300
1:40
140
1.0
141
40.0
290
     0
  0
SCALE
  5
52
102
{ACAD_REACTORS
330
47
102
}
330
47
100
AcDbScale
 70
     0
300
1:50
140
1.0
141
50.0
290
     0
  0
SCALE
  5
53
102
{ACAD_REACTORS
330
47
102
}
330
47
100
AcDbScale
 70
     0
300
1:100
140
1.0
141
100.0
290
     0
  0
SCALE
  5
54
102
{ACAD_REACTORS
330
47
102
}
330
47
100
AcDbScale
 70
     0
300
2:1
140
2.0
141
1.0
290
     0
  0
SCALE
  5
55
102
{ACAD_REACTORS
330
47
102
}
330
47
100
AcDbScale
 70
     0
300
4:1
140
4.0
141
1.0
290
     0
  0
SCALE
  5
56
102
{ACAD_REACTORS
330
47
102
}
330
47
100
AcDbScale
 70
     0
300
8:1
140
8.0
141
1.0
290
     0
  0
SCALE
  5
57
102
{ACAD_REACTORS
330
47
102
}
330
47
100
AcDbScale
 70
     0
300
10:1
140
10.0
141
1.0
290
     0
  0
SCALE
  5
58
102
{ACAD_REACTORS
330
47
102
}
330
47
100
AcDbScale
 70
     0
300
100:1
140
100.0
141
1.0
290
     0
  0
SCALE
  5
59
102
{ACAD_REACTORS
330
47
102
}
330
47
100
AcDbScale
 70
     0
300
1/128" = 1'-0"
140
0.0078125
141
12.0
290
     0
  0
SCALE
  5
5A
102
{ACAD_REACTORS
330
47
102
}
330
47
100
AcDbScale
 70
     0
300
1/64" = 1'-0"
140
0.015625
141
12.0
290
     0
  0
SCALE
  5
5B
102
{ACAD_REACTORS
330
47
102
}
330
47
100
AcDbScale
 70
     0
300
1/32" = 1'-0"
140
0.03125
141
12.0
290
     0
  0
SCALE
  5
5C
102
{ACAD_REACTORS
330
47
102
}
330
47
100
AcDbScale
 70
     0
300
1/16" = 1'-0"
140
0.0625
141
12.0
290
     0
  0
SCALE
  5
5D
102
{ACAD_REACTORS
330
47
102
}
330
47
100
AcDbScale
 70
     0
300
3/32" = 1'-0"
140
0.09375
141
12.0
290
     0
  0
SCALE
  5
5E
102
{ACAD_REACTORS
330
47
102
}
330
47
100
AcDbScale
 70
     0
300
1/8" = 1'-0"
140
0.125
141
12.0
290
     0
  0
SCALE
  5
5F
102
{ACAD_REACTORS
330
47
102
}
330
47
100
AcDbScale
 70
     0
300
3/16" = 1'-0"
140
0.1875
141
12.0
290
     0
  0
SCALE
  5
60
102
{ACAD_REACTORS
330
47
102
}
330
47
100
AcDbScale
 70
     0
300
1/4" = 1'-0"
140
0.25
141
12.0
290
     0
  0
SCALE
  5
61
102
{ACAD_REACTORS
330
47
102
}
330
47
100
AcDbScale
 70
     0
300
3/8" = 1'-0"
140
0.375
141
12.0
290
     0
  0
SCALE
  5
62
102
{ACAD_REACTORS
330
47
102
}
330
47
100
AcDbScale
 70
     0
300
1/2" = 1'-0"
140
0.5
141
12.0
290
     0
  0
SCALE
  5
63
102
{ACAD_REACTORS
330
47
102
}
330
47
100
AcDbScale
 70
     0
300
3/4" = 1'-0"
140
0.75
141
12.0
290
     0
  0
SCALE
  5
64
102
{ACAD_REACTORS
330
47
102
}
330
47
100
AcDbScale
 70
     0
300
1" = 1'-0"
140
1.0
141
12.0
290
     0
  0
SCALE
  5
65
102
{ACAD_REACTORS
330
47
102
}
330
47
100
AcDbScale
 70
     0
300
1-1/2" = 1'-0"
140
1.5
141
12.0
290
     0
  0
SCALE
  5
66
102
{ACAD_REACTORS
330
47
102
}
330
47
100
AcDbScale
 70
     0
300
3" = 1'-0"
140
3.0
141
12.0
290
     0
  0
SCALE
  5
67
102
{ACAD_REACTORS
330
47
102
}
330
47
100
AcDbScale
 70
     0
300
6" = 1'-0"
140
6.0
141
12.0
290
     0
  0
SCALE
  5
68
102
{ACAD_REACTORS
330
47
102
}
330
47
100
AcDbScale
 70
     0
300
1'-0" = 1'-0"
140
12.0
141
12.0
290
     0
  0
ENDSEC
  0
EOF
