  0
SECTION
  2
HEADER
  9
$ACADVER
  1
AC1015
  9
$ACADMAINTVER
 70
     6
  9
$DWGCODEPAGE
  3
ANSI_1252
  9
$INSBASE
 10
0.0
 20
0.0
 30
0.0
  9
$EXTMIN
 10
0.0
 20
0.0
 30
0.0
  9
$EXTMAX
 10
279.4
 20
215.9
 30
0.0
  9
$LIMMIN
 10
0.0
 20
0.0
  9
$LIMMAX
 10
0.0
 20
0.0
  9
$ORTHOMODE
 70
     0
  9
$REGENMODE
 70
     1
  9
$FILLMODE
 70
     1
  9
$QTEXTMODE
 70
     0
  9
$MIRRTEXT
 70
     1
  9
$LTSCALE
 40
1.0
  9
$ATTMODE
 70
     1
  9
$TEXTSIZE
 40
2.286
  9
$TRACEWID
 40
1.0
  9
$TEXTSTYLE
  7
Standard
  9
$CLAYER
  8
0
  9
$CELTYPE
  6
ByLayer
  9
$CECOLOR
 62
   256
  9
$CELTSCALE
 40
1.0
  9
$DISPSILH
 70
     0
  9
$DIMSCALE
 40
1.0
  9
$DIMASZ
 40
4.064
  9
$DIMEXO
 40
1.27
  9
$DIMDLI
 40
3.75
  9
$DIMRND
 40
0.0
  9
$DIMDLE
 40
0.0
  9
$DIMEXE
 40
3.175
  9
$DIMTP
 40
0.0
  9
$DIMTM
 40
0.0
  9
$DIMTXT
 40
2.286
  9
$DIMCEN
 40
2.5
  9
$DIMTSZ
 40
0.0
  9
$DIMTOL
 70
     0
  9
$DIMLIM
 70
     0
  9
$DIMTIH
 70
     1
  9
$DIMTOH
 70
     1
  9
$DIMSE1
 70
     0
  9
$DIMSE2
 70
     0
  9
$DIMTAD
 70
     0
  9
$DIMZIN
 70
     1
  9
$DIMBLK
  1

  9
$DIMASO
 70
     1
  9
$DIMSHO
 70
     1
  9
$DIMPOST
  1

  9
$DIMAPOST
  1

  9
$DIMALT
 70
     0
  9
$DIMALTD
 70
     3
  9
$DIMALTF
 40
0.0393700787
  9
$DIMLFAC
 40
1.0
  9
$DIMTOFL
 70
     1
  9
$DIMTVP
 40
0.0
  9
$DIMTIX
 70
     0
  9
$DIMSOXD
 70
     0
  9
$DIMSAH
 70
     0
  9
$DIMBLK1
  1

  9
$DIMBLK2
  1

  9
$DIMSTYLE
  2
ISO-25
  9
$DIMCLRD
 70
     0
  9
$DIMCLRE
 70
     0
  9
$DIMCLRT
 70
     0
  9
$DIMTFAC
 40
1.0
  9
$DIMGAP
 40
2.54
  9
$DIMJUST
 70
     0
  9
$DIMSD1
 70
     0
  9
$DIMSD2
 70
     0
  9
$DIMTOLJ
 70
     0
  9
$DIMTZIN
 70
     1
  9
$DIMALTZ
 70
     0
  9
$DIMALTTZ
 70
     0
  9
$DIMUPT
 70
     0
  9
$DIMDEC
 70
     2
  9
$DIMTDEC
 70
     2
  9
$DIMALTU
 70
     2
  9
$DIMALTTD
 70
     3
  9
$DIMTXSTY
  7
Standard
  9
$DIMAUNIT
 70
     0
  9
$DIMADEC
 70
     0
  9
$DIMALTRND
 40
0.0
  9
$DIMAZIN
 70
     0
  9
$DIMDSEP
 70
    44
  9
$DIMATFIT
 70
     3
  9
$DIMFRAC
 70
     0
  9
$DIMLDRBLK
  1

  9
$DIMLUNIT
 70
     2
  9
$DIMLWD
 70
    -2
  9
$DIMLWE
 70
    -2
  9
$DIMTMOVE
 70
     0
  9
$LUNITS
 70
     2
  9
$LUPREC
 70
     1
  9
$SKETCHINC
 40
1.0
  9
$FILLETRAD
 40
10.0
  9
$AUNITS
 70
     0
  9
$AUPREC
 70
     0
  9
$MENU
  1
.
  9
$ELEVATION
 40
0.0
  9
$PELEVATION
 40
0.0
  9
$THICKNESS
 40
0.0
  9
$LIMCHECK
 70
     0
  9
$CHAMFERA
 40
10.0
  9
$CHAMFERB
 40
10.0
  9
$CHAMFERC
 40
20.0
  9
$CHAMFERD
 40
0.0
  9
$SKPOLY
 70
     0
  9
$TDCREATE
 40
2453892.457505278
  9
$TDUCREATE
 40
2453892.624171944
  9
$TDUPDATE
 40
2453892.45750529
  9
$TDUUPDATE
 40
2453892.624171956
  9
$TDINDWG
 40
0.0000000116
  9
$TDUSRTIMER
 40
0.0000000116
  9
$USRTIMER
 70
     1
  9
$ANGBASE
 50
0.0
  9
$ANGDIR
 70
     0
  9
$PDMODE
 70
     0
  9
$PDSIZE
 40
-1.0
  9
$PLINEWID
 40
0.0
  9
$SPLFRAME
 70
     0
  9
$SPLINETYPE
 70
     6
  9
$SPLINESEGS
 70
     8
  9
$HANDSEED
  5
11A
  9
$SURFTAB1
 70
     6
  9
$SURFTAB2
 70
     6
  9
$SURFTYPE
 70
     6
  9
$SURFU
 70
     6
  9
$SURFV
 70
     6
  9
$UCSBASE
  2

  9
$UCSNAME
  2

  9
$UCSORG
 10
0.0
 20
0.0
 30
0.0
  9
$UCSXDIR
 10
1.0
 20
0.0
 30
0.0
  9
$UCSYDIR
 10
0.0
 20
1.0
 30
0.0
  9
$UCSORTHOREF
  2

  9
$UCSORTHOVIEW
 70
     0
  9
$UCSORGTOP
 10
0.0
 20
0.0
 30
0.0
  9
$UCSORGBOTTOM
 10
0.0
 20
0.0
 30
0.0
  9
$UCSORGLEFT
 10
0.0
 20
0.0
 30
0.0
  9
$UCSORGRIGHT
 10
0.0
 20
0.0
 30
0.0
  9
$UCSORGFRONT
 10
0.0
 20
0.0
 30
0.0
  9
$UCSORGBACK
 10
0.0
 20
0.0
 30
0.0
  9
$PUCSBASE
  2

  9
$PUCSNAME
  2

  9
$PUCSORG
 10
0.0
 20
0.0
 30
0.0
  9
$PUCSXDIR
 10
1.0
 20
0.0
 30
0.0
  9
$PUCSYDIR
 10
0.0
 20
1.0
 30
0.0
  9
$PUCSORTHOREF
  2

  9
$PUCSORTHOVIEW
 70
     0
  9
$PUCSORGTOP
 10
0.0
 20
0.0
 30
0.0
  9
$PUCSORGBOTTOM
 10
0.0
 20
0.0
 30
0.0
  9
$PUCSORGLEFT
 10
0.0
 20
0.0
 30
0.0
  9
$PUCSORGRIGHT
 10
0.0
 20
0.0
 30
0.0
  9
$PUCSORGFRONT
 10
0.0
 20
0.0
 30
0.0
  9
$PUCSORGBACK
 10
0.0
 20
0.0
 30
0.0
  9
$USERI1
 70
     0
  9
$USERI2
 70
     0
  9
$USERI3
 70
     0
  9
$USERI4
 70
     0
  9
$USERI5
 70
     0
  9
$USERR1
 40
0.0
  9
$USERR2
 40
0.0
  9
$USERR3
 40
0.0
  9
$USERR4
 40
0.0
  9
$USERR5
 40
0.0
  9
$WORLDVIEW
 70
     1
  9
$SHADEDGE
 70
     3
  9
$SHADEDIF
 70
    70
  9
$TILEMODE
 70
     1
  9
$MAXACTVP
 70
    64
  9
$PINSBASE
 10
0.0
 20
0.0
 30
0.0
  9
$PLIMCHECK
 70
     0
  9
$PEXTMIN
 10
1.0000000000E+20
 20
1.0000000000E+20
 30
1.0000000000E+20
  9
$PEXTMAX
 10
-1.0000000000E+20
 20
-1.0000000000E+20
 30
-1.0000000000E+20
  9
$PLIMMIN
 10
0.0
 20
0.0
  9
$PLIMMAX
 10
420.0
 20
297.0
  9
$UNITMODE
 70
     0
  9
$VISRETAIN
 70
     1
  9
$PLINEGEN
 70
     0
  9
$PSLTSCALE
 70
     1
  9
$TREEDEPTH
 70
  3020
  9
$CMLSTYLE
  2
Standard
  9
$CMLJUST
 70
     0
  9
$CMLSCALE
 40
20.0
  9
$PROXYGRAPHICS
 70
     1
  9
$MEASUREMENT
 70
     1
  9
$CELWEIGHT
370
    -1
  9
$ENDCAPS
280
     0
  9
$JOINSTYLE
280
     0
  9
$LWDISPLAY
290
     1
  9
$INSUNITS
 70
     4
  9
$HYPERLINKBASE
  1

  9
$STYLESHEET
  1

  9
$XEDIT
290
     1
  9
$CEPSNTYPE
380
     0
  9
$PSTYLEMODE
290
     1
  9
$FINGERPRINTGUID
  2
{361C8211-31AD-4456-A87F-A099FA336960}
  9
$VERSIONGUID
  2
{FAEB1C32-E019-11D5-929B-00C0DF256EC4}
  9
$EXTNAMES
290
     1
  9
$PSVPSCALE
 40
0.0
  9
$OLESTARTUP
290
     0
  0
ENDSEC
  0
SECTION
  2
CLASSES
  0
CLASS
  1
ACDBDICTIONARYWDFLT
  2
AcDbDictionaryWithDefault
  3
ObjectDBX Classes
 90
        0
280
     0
281
     0
  0
CLASS
  1
ACDBPLACEHOLDER
  2
AcDbPlaceHolder
  3
ObjectDBX Classes
 90
        0
280
     0
281
     0
  0
CLASS
  1
LAYOUT
  2
AcDbLayout
  3
ObjectDBX Classes
 90
        0
280
     0
281
     0
  0
ENDSEC
  0
SECTION
  2
TABLES
  0
TABLE
  2
VPORT
  5
8
330
0
100
AcDbSymbolTable
 70
     1
  0
VPORT
  5
29
330
8
100
AcDbSymbolTableRecord
100
AcDbViewportTableRecord
  2
*Active
 70
     0
 10
0.0
 20
0.0
 11
1.0
 21
1.0
 12
139.7
 22
107.95
 13
0.0
 23
0.0
 14
10.0
 24
10.0
 15
10.0
 25
10.0
 16
0.0
 26
0.0
 36
1.0
 17
0.0
 27
0.0
 37
0.0
 40
215.9
 41
2.7140943628
 42
50.0
 43
0.0
 44
0.0
 50
0.0
 51
0.0
 71
     0
 72
  2000
 73
     1
 74
     3
 75
     0
 76
     0
 77
     0
 78
     0
281
     0
 65
     1
110
0.0
120
0.0
130
0.0
111
1.0
121
0.0
131
0.0
112
0.0
122
1.0
132
0.0
 79
     0
146
0.0
  0
ENDTAB
  0
TABLE
  2
LTYPE
  5
5
330
0
100
AcDbSymbolTable
 70
     6
  0
LTYPE
  5
14
330
5
100
AcDbSymbolTableRecord
100
AcDbLinetypeTableRecord
  2
ByBlock
 70
     0
  3

 72
    65
 73
     0
 40
0.0
  0
LTYPE
  5
15
330
5
100
AcDbSymbolTableRecord
100
AcDbLinetypeTableRecord
  2
ByLayer
 70
     0
  3

 72
    65
 73
     0
 40
0.0
  0
LTYPE
  5
16
330
5
100
AcDbSymbolTableRecord
100
AcDbLinetypeTableRecord
  2
Continuous
 70
     0
  3
Solid line
 72
    65
 73
     0
 40
0.0
  0
LTYPE
  5
2A
330
5
100
AcDbSymbolTableRecord
100
AcDbLinetypeTableRecord
  2
HIDDEN
 70
     0
  3
Hidden __ __ __ __ __ __ __ __ __ __ __ __ __ __
 72
    65
 73
     2
 40
1.905
 49
1.27
 74
     0
 49
-0.635
 74
     0
  0
LTYPE
  5
2B
330
5
100
AcDbSymbolTableRecord
100
AcDbLinetypeTableRecord
  2
PHANTOM
 70
     0
  3
Phantom ______  __  __  ______  __  __  ______
 72
    65
 73
     6
 40
12.7
 49
6.35
 74
     0
 49
-1.27
 74
     0
 49
1.27
 74
     0
 49
-1.27
 74
     0
 49
1.27
 74
     0
 49
-1.27
 74
     0
  0
LTYPE
  5
2C
330
5
100
AcDbSymbolTableRecord
100
AcDbLinetypeTableRecord
  2
CENTER
 70
     0
  3
Center ____ _ ____ _ ____ _ ____ _ ____ _ ____
 72
    65
 73
     4
 40
10.16
 49
6.35
 74
     0
 49
-1.27
 74
     0
 49
1.27
 74
     0
 49
-1.27
 74
     0
  0
LTYPE
  5
2D
330
5
100
AcDbSymbolTableRecord
100
AcDbLinetypeTableRecord
  2
CENTERX2
 70
     0
  3
Center (2x) ________  __  ________  __  _____
 72
    65
 73
     4
 40
20.32
 49
12.7
 74
     0
 49
-2.54
 74
     0
 49
2.54
 74
     0
 49
-2.54
 74
     0
  0
LTYPE
  5
2E
330
5
100
AcDbSymbolTableRecord
100
AcDbLinetypeTableRecord
  2
DOT2
 70
     0
  3
Dot (.5x) ........................................
 72
    65
 73
     2
 40
0.635
 49
0.0
 74
     0
 49
-0.635
 74
     0
  0
ENDTAB
  0
TABLE
  2
LAYER
  5
2
330
0
100
AcDbSymbolTable
 70
     3
  0
LAYER
  5
10
330
2
100
AcDbSymbolTableRecord
100
AcDbLayerTableRecord
  2
0
 70
     0
 62
     7
  6
Continuous
370
    -3
390
F
  0
LAYER
  5
2F
330
2
100
AcDbSymbolTableRecord
100
AcDbLayerTableRecord
  2
FORMAT
 70
     0
 62
     7
  6
Continuous
370
     0
390
F
  0
LAYER
  5
BF
330
2
100
AcDbSymbolTableRecord
100
AcDbLayerTableRecord
  2
Defpoints
 70
     0
 62
     7
  6
Continuous
290
     0
370
    -3
390
F
  0
ENDTAB
  0
TABLE
  2
STYLE
  5
3
330
0
100
AcDbSymbolTable
 70
    25
  0
STYLE
  5
11
330
3
100
AcDbSymbolTableRecord
100
AcDbTextStyleTableRecord
  2
Standard
 70
     0
 40
0.0
 41
1.0
 50
0.0
 71
     0
 42
2.5
  3
txt
  4

  0
STYLE
  5
58
330
3
100
AcDbSymbolTableRecord
100
AcDbTextStyleTableRecord
  2
SLDTEXTSTYLE0
 70
     0
 40
0.0
 41
0.75
 50
0.0
 71
     0
 42
0.2
  3
TXT
  4

  0
STYLE
  5
5F
330
3
100
AcDbSymbolTableRecord
100
AcDbTextStyleTableRecord
  2
SLDTEXTSTYLE1
 70
     0
 40
0.0
 41
0.6666666667
 50
0.0
 71
     0
 42
0.2
  3
TXT
  4

  0
STYLE
  5
62
330
3
100
AcDbSymbolTableRecord
100
AcDbTextStyleTableRecord
  2
SLDTEXTSTYLE2
 70
     0
 40
0.0
 41
0.7232142857
 50
0.0
 71
     0
 42
0.2
  3
TXT
  4

  0
STYLE
  5
67
330
3
100
AcDbSymbolTableRecord
100
AcDbTextStyleTableRecord
  2
SLDTEXTSTYLE3
 70
     0
 40
0.0
 41
0.703125
 50
0.0
 71
     0
 42
0.2
  3
TXT
  4

  0
STYLE
  5
69
330
3
100
AcDbSymbolTableRecord
100
AcDbTextStyleTableRecord
  2
SLDTEXTSTYLE4
 70
     0
 40
0.0
 41
0.7105263158
 50
0.0
 71
     0
 42
0.2
  3
TXT
  4

  0
STYLE
  5
6B
330
3
100
AcDbSymbolTableRecord
100
AcDbTextStyleTableRecord
  2
SLDTEXTSTYLE5
 70
     0
 40
0.0
 41
0.6358695652
 50
0.0
 71
     0
 42
0.2
  3
TXT
  4

  0
STYLE
  5
6F
330
3
100
AcDbSymbolTableRecord
100
AcDbTextStyleTableRecord
  2
SLDTEXTSTYLE6
 70
     0
 40
0.0
 41
0.645
 50
0.0
 71
     0
 42
0.2
  3
TXT
  4

  0
STYLE
  5
75
330
3
100
AcDbSymbolTableRecord
100
AcDbTextStyleTableRecord
  2
SLDTEXTSTYLE7
 70
     0
 40
0.0
 41
0.515625
 50
0.0
 71
     0
 42
0.2
  3
TXT
  4

  0
STYLE
  5
77
330
3
100
AcDbSymbolTableRecord
100
AcDbTextStyleTableRecord
  2
SLDTEXTSTYLE8
 70
     0
 40
0.0
 41
0.7125
 50
0.0
 71
     0
 42
0.2
  3
TXT
  4

  0
STYLE
  5
7E
330
3
100
AcDbSymbolTableRecord
100
AcDbTextStyleTableRecord
  2
SLDTEXTSTYLE9
 70
     0
 40
0.0
 41
0.6907894737
 50
0.0
 71
     0
 42
0.2
  3
TXT
  4

  0
STYLE
  5
89
330
3
100
AcDbSymbolTableRecord
100
AcDbTextStyleTableRecord
  2
SLDTEXTSTYLE10
 70
     0
 40
0.0
 41
0.65625
 50
0.0
 71
     0
 42
0.2
  3
TXT
  4

  0
STYLE
  5
8E
330
3
100
AcDbSymbolTableRecord
100
AcDbTextStyleTableRecord
  2
SLDTEXTSTYLE11
 70
     0
 40
0.0
 41
0.7045454545
 50
0.0
 71
     0
 42
0.2
  3
TXT
  4

  0
STYLE
  5
90
330
3
100
AcDbSymbolTableRecord
100
AcDbTextStyleTableRecord
  2
SLDTEXTSTYLE12
 70
     0
 40
0.0
 41
0.689516129
 50
0.0
 71
     0
 42
0.2
  3
TXT
  4

  0
STYLE
  5
92
330
3
100
AcDbSymbolTableRecord
100
AcDbTextStyleTableRecord
  2
SLDTEXTSTYLE13
 70
     0
 40
0.0
 41
0.6931818182
 50
0.0
 71
     0
 42
0.2
  3
TXT
  4

  0
STYLE
  5
94
330
3
100
AcDbSymbolTableRecord
100
AcDbTextStyleTableRecord
  2
SLDTEXTSTYLE14
 70
     0
 40
0.0
 41
0.6724137931
 50
0.0
 71
     0
 42
0.2
  3
TXT
  4

  0
STYLE
  5
96
330
3
100
AcDbSymbolTableRecord
100
AcDbTextStyleTableRecord
  2
SLDTEXTSTYLE15
 70
     0
 40
0.0
 41
0.705
 50
0.0
 71
     0
 42
0.2
  3
TXT
  4

  0
STYLE
  5
98
330
3
100
AcDbSymbolTableRecord
100
AcDbTextStyleTableRecord
  2
SLDTEXTSTYLE16
 70
     0
 40
0.0
 41
0.7112068966
 50
0.0
 71
     0
 42
0.2
  3
TXT
  4

  0
STYLE
  5
9B
330
3
100
AcDbSymbolTableRecord
100
AcDbTextStyleTableRecord
  2
SLDTEXTSTYLE17
 70
     0
 40
0.0
 41
0.7222222222
 50
0.0
 71
     0
 42
0.2
  3
TXT
  4

  0
STYLE
  5
A6
330
3
100
AcDbSymbolTableRecord
100
AcDbTextStyleTableRecord
  2
SLDTEXTSTYLE18
 70
     0
 40
0.0
 41
0.675
 50
0.0
 71
     0
 42
0.2
  3
TXT
  4

  0
STYLE
  5
B0
330
3
100
AcDbSymbolTableRecord
100
AcDbTextStyleTableRecord
  2
SLDTEXTSTYLE19
 70
     0
 40
0.0
 41
0.7
 50
0.0
 71
     0
 42
0.2
  3
TXT
  4

  0
STYLE
  5
B2
330
3
100
AcDbSymbolTableRecord
100
AcDbTextStyleTableRecord
  2
SLDTEXTSTYLE20
 70
     0
 40
0.0
 41
0.7058823529
 50
0.0
 71
     0
 42
0.2
  3
TXT
  4

  0
STYLE
  5
B8
330
3
100
AcDbSymbolTableRecord
100
AcDbTextStyleTableRecord
  2
SLDTEXTSTYLE21
 70
     0
 40
0.0
 41
0.7173913043
 50
0.0
 71
     0
 42
0.2
  3
TXT
  4

  0
STYLE
  5
10F
330
3
100
AcDbSymbolTableRecord
100
AcDbTextStyleTableRecord
  2
SLDTEXTSTYLE22
 70
     0
 40
0.0
 41
0.69140625
 50
0.0
 71
     0
 42
0.2
  3
TXT
  4

  0
STYLE
  5
111
330
3
100
AcDbSymbolTableRecord
100
AcDbTextStyleTableRecord
  2
SLDTEXTSTYLE23
 70
     0
 40
0.0
 41
0.6964285714
 50
0.0
 71
     0
 42
0.2
  3
TXT
  4

  0
ENDTAB
  0
TABLE
  2
VIEW
  5
6
330
0
100
AcDbSymbolTable
 70
     0
  0
ENDTAB
  0
TABLE
  2
UCS
  5
7
330
0
100
AcDbSymbolTable
 70
     0
  0
ENDTAB
  0
TABLE
  2
APPID
  5
9
330
0
100
AcDbSymbolTable
 70
     1
  0
APPID
  5
12
330
9
100
AcDbSymbolTableRecord
100
AcDbRegAppTableRecord
  2
ACAD
 70
     0
  0
ENDTAB
  0
TABLE
  2
DIMSTYLE
  5
A
330
0
100
AcDbSymbolTable
 70
     3
100
AcDbDimStyleTable
  0
DIMSTYLE
105
27
330
A
100
AcDbSymbolTableRecord
100
AcDbDimStyleTableRecord
  2
ISO-25
 70
     0
 41
2.5
 42
0.625
 43
3.75
 44
1.25
 73
     0
 74
     0
 77
     1
 78
     8
140
2.5
141
2.5
143
0.0393700787
147
0.625
171
     3
172
     1
271
     2
272
     2
274
     3
278
    44
283
     0
284
     8
340
11
  0
DIMSTYLE
105
CC
102
{ACAD_REACTORS
330
BE
102
}
330
A
100
AcDbSymbolTableRecord
100
AcDbDimStyleTableRecord
  2
SLDDIMSTYLE0
 70
     0
 41
4.064
 44
0.0
 78
    12
140
2.286
143
0.0393700787
147
0.5715
170
     1
171
     3
172
     1
173
     1
271
     1
272
     3
284
    12
340
58
  0
DIMSTYLE
105
EF
102
{ACAD_REACTORS
330
E0
102
}
330
A
100
AcDbSymbolTableRecord
100
AcDbDimStyleTableRecord
  2
SLDDIMSTYLE1
 70
     0
 41
4.064
 44
0.0
 78
     4
140
2.286
143
0.0393700787
147
0.5715
170
     1
173
     1
271
     1
272
     3
284
    12
340
58
  0
ENDTAB
  0
TABLE
  2
BLOCK_RECORD
  5
1
330
0
100
AcDbSymbolTable
 70
     7
  0
BLOCK_RECORD
  5
1F
330
1
100
AcDbSymbolTableRecord
100
AcDbBlockTableRecord
  2
*Model_Space
340
22
  0
BLOCK_RECORD
  5
1B
330
1
100
AcDbSymbolTableRecord
100
AcDbBlockTableRecord
  2
*Paper_Space
340
1E
  0
BLOCK_RECORD
  5
23
330
1
100
AcDbSymbolTableRecord
100
AcDbBlockTableRecord
  2
*Paper_Space0
340
26
  0
BLOCK_RECORD
  5
64
330
1
100
AcDbSymbolTableRecord
100
AcDbBlockTableRecord
  2
SW_NOTE_0
340
0
102
{BLKREFS
331
80
102
}
  0
BLOCK_RECORD
  5
8B
330
1
100
AcDbSymbolTableRecord
100
AcDbBlockTableRecord
  2
SW_NOTE_1
340
0
102
{BLKREFS
331
9A
102
}
  0
BLOCK_RECORD
  5
A3
330
1
100
AcDbSymbolTableRecord
100
AcDbBlockTableRecord
  2
SW_NOTE_2
340
0
102
{BLKREFS
331
A9
102
}
  0
BLOCK_RECORD
  5
AB
330
1
100
AcDbSymbolTableRecord
100
AcDbBlockTableRecord
  2
SW_NOTE_3
340
0
102
{BLKREFS
331
BB
102
}
  0
BLOCK_RECORD
  5
C0
330
1
100
AcDbSymbolTableRecord
100
AcDbBlockTableRecord
  2
*D5
340
0
  0
BLOCK_RECORD
  5
E1
330
1
100
AcDbSymbolTableRecord
100
AcDbBlockTableRecord
  2
*D6
340
0
  0
ENDTAB
  0
ENDSEC
  0
SECTION
  2
BLOCKS
  0
BLOCK
  5
20
330
1F
100
AcDbEntity
  8
0
100
AcDbBlockBegin
  2
*Model_Space
 70
     0
 71
     0
 10
0.0
 20
0.0
 30
0.0
  3
*Model_Space
  1

  0
ENDBLK
  5
21
330
1F
100
AcDbEntity
  8
0
100
AcDbBlockEnd
  0
BLOCK
  5
1C
330
1B
100
AcDbEntity
 67
     1
  8
0
100
AcDbBlockBegin
  2
*Paper_Space
 70
     0
 71
     0
 10
0.0
 20
0.0
 30
0.0
  3
*Paper_Space
  1

  0
ENDBLK
  5
1D
330
1B
100
AcDbEntity
 67
     1
  8
0
100
AcDbBlockEnd
  0
BLOCK
  5
24
330
23
100
AcDbEntity
  8
0
100
AcDbBlockBegin
  2
*Paper_Space0
 70
     0
 71
     0
 10
0.0
 20
0.0
 30
0.0
  3
*Paper_Space0
  1

  0
ENDBLK
  5
25
330
23
100
AcDbEntity
  8
0
100
AcDbBlockEnd
  0
BLOCK
  5
65
330
64
100
AcDbEntity
  8
0
100
AcDbBlockBegin
  2
SW_NOTE_0
 70
     0
 71
     0
 10
0.0
 20
0.0
 30
0.0
  3
SW_NOTE_0
  1

  0
MTEXT
  5
68
330
64
100
AcDbEntity
  8
0
  6
Continuous
 62
     7
370
     0
100
AcDbMText
 10
0.0
 20
2.0277832031
 30
0.0
 40
1.5875
 41
0.0
 71
     1
 72
     1
  1
{DIMENSIONS ARE IN INCHES}
  7
SLDTEXTSTYLE3
 73
     1
 44
1.0
  0
MTEXT
  5
6A
330
64
100
AcDbEntity
  8
0
  6
Continuous
 62
     7
370
     0
100
AcDbMText
 10
0.0
 20
-0.088883438
 30
0.0
 40
1.5875
 41
0.0
 71
     1
 72
     1
  1
{LINEAR TOLERANCES: }
  7
SLDTEXTSTYLE4
 73
     1
 44
1.0
  0
MTEXT
  5
6C
330
64
100
AcDbEntity
  8
0
  6
Continuous
 62
     7
370
     0
100
AcDbMText
 10
0.0
 20
-2.205550079
 30
0.0
 40
1.5875
 41
0.0
 71
     1
 72
     1
  1
{    TWO PLACE DECIMAL: }
  7
SLDTEXTSTYLE5
 73
     1
 44
1.0
  0
MTEXT
  5
6D
330
64
100
AcDbEntity
  8
0
  6
Continuous
 62
     7
370
     0
100
AcDbMText
 10
25.0468552113
 20
-2.205550079
 30
0.0
 40
1.5875
 41
0.0
 71
     1
 72
     1
  1
{%%p}
  7
SLDTEXTSTYLE0
 73
     1
 44
1.0
  0
MTEXT
  5
6E
330
64
100
AcDbEntity
  8
0
  6
Continuous
 62
     7
370
     0
100
AcDbMText
 10
26.5602711588
 20
-2.205550079
 30
0.0
 40
1.5875
 41
0.0
 71
     1
 72
     1
  1
{0.010}
  7
SLDTEXTSTYLE0
 73
     1
 44
1.0
  0
MTEXT
  5
70
330
64
100
AcDbEntity
  8
0
  6
Continuous
 62
     7
370
     0
100
AcDbMText
 10
0.0
 20
-4.3222167201
 30
0.0
 40
1.5875
 41
0.0
 71
     1
 72
     1
  1
{    THREE PLACE DECIMAL: }
  7
SLDTEXTSTYLE6
 73
     1
 44
1.0
  0
MTEXT
  5
71
330
64
100
AcDbEntity
  8
0
  6
Continuous
 62
     7
370
     0
100
AcDbMText
 10
26.0805673897
 20
-4.3222167201
 30
0.0
 40
1.5875
 41
0.0
 71
     1
 72
     1
  1
{%%p}
  7
SLDTEXTSTYLE0
 73
     1
 44
1.0
  0
MTEXT
  5
72
330
64
100
AcDbEntity
  8
0
  6
Continuous
 62
     7
370
     0
100
AcDbMText
 10
27.5939833373
 20
-4.3222167201
 30
0.0
 40
1.5875
 41
0.0
 71
     1
 72
     1
  1
{0.005}
  7
SLDTEXTSTYLE0
 73
     1
 44
1.0
  0
MTEXT
  5
73
330
64
100
AcDbEntity
  8
0
  6
Continuous
 62
     7
370
     0
100
AcDbMText
 10
0.0
 20
-6.4388833612
 30
0.0
 40
1.5875
 41
0.0
 71
     1
 72
     1
  1
{ANGULAR: }
  7
SLDTEXTSTYLE0
 73
     1
 44
1.0
  0
MTEXT
  5
74
330
64
100
AcDbEntity
  8
0
  6
Continuous
 62
     7
370
     0
100
AcDbMText
 10
11.1077222973
 20
-6.4388833612
 30
0.0
 40
1.5875
 41
0.0
 71
     1
 72
     1
  1
{%%p}
  7
SLDTEXTSTYLE0
 73
     1
 44
1.0
  0
MTEXT
  5
76
330
64
100
AcDbEntity
  8
0
  6
Continuous
 62
     7
370
     0
100
AcDbMText
 10
12.6211391762
 20
-6.4388833612
 30
0.0
 40
1.5875
 41
0.0
 71
     1
 72
     1
  1
{30'     }
  7
SLDTEXTSTYLE7
 73
     1
 44
1.0
  0
MTEXT
  5
78
330
64
100
AcDbEntity
  8
0
  6
Continuous
 62
     7
370
     0
100
AcDbMText
 10
0.0
 20
-8.5555500023
 30
0.0
 40
1.5875
 41
0.0
 71
     1
 72
     1
  1
{SURFACE FINISH: 32 MICROINCHES}
  7
SLDTEXTSTYLE8
 73
     1
 44
1.0
  0
MTEXT
  5
79
330
64
100
AcDbEntity
  8
0
  6
Continuous
 62
     7
370
     0
100
AcDbMText
 10
0.0
 20
-10.6722166434
 30
0.0
 40
1.5875
 41
0.0
 71
     1
 72
     1
  1
{PARALLELISM: 0.002}
  7
SLDTEXTSTYLE0
 73
     1
 44
1.0
  0
MTEXT
  5
7A
330
64
100
AcDbEntity
  8
0
  6
Continuous
 62
     7
370
     0
100
AcDbMText
 10
0.0
 20
-12.7888832845
 30
0.0
 40
1.5875
 41
0.0
 71
     1
 72
     1
  1
{FLATNESS: 0.002}
  7
SLDTEXTSTYLE0
 73
     1
 44
1.0
  0
MTEXT
  5
7B
330
64
100
AcDbEntity
  8
0
  6
Continuous
 62
     7
370
     0
100
AcDbMText
 10
0.0
 20
-14.9055499256
 30
0.0
 40
1.5875
 41
0.0
 71
     1
 72
     1
  1
{STRAIGHTNESS: 0.002}
  7
SLDTEXTSTYLE0
 73
     1
 44
1.0
  0
MTEXT
  5
7C
330
64
100
AcDbEntity
  8
0
  6
Continuous
 62
     7
370
     0
100
AcDbMText
 10
0.0
 20
-17.0222165667
 30
0.0
 40
1.5875
 41
0.0
 71
     1
 72
     1
  1
{CONCENTRICITY: 0.002}
  7
SLDTEXTSTYLE0
 73
     1
 44
1.0
  0
MTEXT
  5
7D
330
64
100
AcDbEntity
  8
0
  6
Continuous
 62
     7
370
     0
100
AcDbMText
 10
0.0
 20
-19.1388832077
 30
0.0
 40
1.5875
 41
0.0
 71
     1
 72
     1
  1
{PERPENDICULARITY: 0.002}
  7
SLDTEXTSTYLE0
 73
     1
 44
1.0
  0
MTEXT
  5
7F
330
64
100
AcDbEntity
  8
0
  6
Continuous
 62
     7
370
     0
100
AcDbMText
 10
0.0
 20
-21.2555498488
 30
0.0
 40
1.5875
 41
0.0
 71
     1
 72
     1
  1
{THREAD: CLASS 2 FIT}
  7
SLDTEXTSTYLE9
 73
     1
 44
1.0
  0
ENDBLK
  5
66
330
64
100
AcDbEntity
  8
0
100
AcDbBlockEnd
  0
BLOCK
  5
8C
330
8B
100
AcDbEntity
  8
0
100
AcDbBlockBegin
  2
SW_NOTE_1
 70
     0
 71
     0
 10
0.0
 20
0.0
 30
0.0
  3
SW_NOTE_1
  1

  0
MTEXT
  5
8F
330
8B
100
AcDbEntity
  8
0
  6
Continuous
 62
     7
370
     0
100
AcDbMText
 10
0.0
 20
1.946671875
 30
0.0
 40
1.524
 41
0.0
 71
     1
 72
     1
  1
{THE INFORMATION CONTAINED IN THIS}
  7
SLDTEXTSTYLE11
 73
     1
 44
1.0
  0
MTEXT
  5
91
330
8B
100
AcDbEntity
  8
0
  6
Continuous
 62
     7
370
     0
100
AcDbMText
 10
0.0
 20
-0.577328019
 30
0.0
 40
1.524
 41
0.0
 71
     1
 72
     1
  1
{DRAWING IS THE SOLE PROPERTY OF}
  7
SLDTEXTSTYLE12
 73
     1
 44
1.0
  0
MTEXT
  5
93
330
8B
100
AcDbEntity
  8
0
  6
Continuous
 62
     7
370
     0
100
AcDbMText
 10
0.0
 20
-3.1013279131
 30
0.0
 40
1.524
 41
0.0
 71
     1
 72
     1
  1
{THORLABS, INC.  ANY REPRODUCTION }
  7
SLDTEXTSTYLE13
 73
     1
 44
1.0
  0
MTEXT
  5
95
330
8B
100
AcDbEntity
  8
0
  6
Continuous
 62
     7
370
     0
100
AcDbMText
 10
0.0
 20
-5.6253278071
 30
0.0
 40
1.524
 41
0.0
 71
     1
 72
     1
  1
{IN PART OR AS A WHOLE WITHOUT}
  7
SLDTEXTSTYLE14
 73
     1
 44
1.0
  0
MTEXT
  5
97
330
8B
100
AcDbEntity
  8
0
  6
Continuous
 62
     7
370
     0
100
AcDbMText
 10
0.0
 20
-8.1493277012
 30
0.0
 40
1.524
 41
0.0
 71
     1
 72
     1
  1
{THE WRITTEN PERMISSION OF}
  7
SLDTEXTSTYLE15
 73
     1
 44
1.0
  0
MTEXT
  5
99
330
8B
100
AcDbEntity
  8
0
  6
Continuous
 62
     7
370
     0
100
AcDbMText
 10
0.0
 20
-10.6733275952
 30
0.0
 40
1.524
 41
0.0
 71
     1
 72
     1
  1
{THORLABS, INC. IS PROHIBITED.}
  7
SLDTEXTSTYLE16
 73
     1
 44
1.0
  0
ENDBLK
  5
8D
330
8B
100
AcDbEntity
  8
0
100
AcDbBlockEnd
  0
BLOCK
  5
A4
330
A3
100
AcDbEntity
  8
0
100
AcDbBlockBegin
  2
SW_NOTE_2
 70
     0
 71
     0
 10
0.0
 20
0.0
 30
0.0
  3
SW_NOTE_2
  1

  0
MTEXT
  5
A7
330
A3
100
AcDbEntity
  8
0
  6
Continuous
 62
     7
370
     0
100
AcDbMText
 10
0.0
 20
2.9200078125
 30
0.0
 40
2.286
 41
0.0
 71
     1
 72
     1
  1
{PO BOX 366}
  7
SLDTEXTSTYLE18
 73
     1
 44
1.0
  0
MTEXT
  5
A8
330
A3
100
AcDbEntity
  8
0
  6
Continuous
 62
     7
370
     0
100
AcDbMText
 10
0.0
 20
-0.3659922958
 30
0.0
 40
2.286
 41
0.0
 71
     1
 72
     1
  1
{NEWTON NJ}
  7
SLDTEXTSTYLE0
 73
     1
 44
1.0
  0
ENDBLK
  5
A5
330
A3
100
AcDbEntity
  8
0
100
AcDbBlockEnd
  0
BLOCK
  5
AC
330
AB
100
AcDbEntity
  8
0
100
AcDbBlockBegin
  2
SW_NOTE_3
 70
     0
 71
     0
 10
0.0
 20
0.0
 30
0.0
  3
SW_NOTE_3
  1

  0
MTEXT
  5
AE
330
AB
100
AcDbEntity
  8
0
  6
Continuous
 62
     7
370
     0
100
AcDbMText
 10
0.0
 20
4.0555664063
 30
0.0
 40
3.175
 41
0.0
 71
     1
 72
     1
  1
{\LSPECIFICATIONS:}
  7
SLDTEXTSTYLE0
 73
     1
 44
1.0
  0
MTEXT
  5
AF
330
AB
100
AcDbEntity
  8
0
  6
Continuous
 62
     7
370
     0
100
AcDbMText
 10
0.0
 20
-4.3863720917
 30
0.0
 40
2.6458333333
 41
0.0
 71
     1
 72
     1
  1
{FRONT SURFACE FLATNESS: }
  7
SLDTEXTSTYLE3
 73
     1
 44
1.0
  0
MTEXT
  5
B1
330
AB
100
AcDbEntity
  8
0
  6
Continuous
 62
     7
370
     0
100
AcDbMText
 10
45.6994213164
 20
-4.2917155356
 30
0.0
 40
2.6458333333
 41
0.0
 71
     1
 72
     1
  1
{l}
  7
SLDTEXTSTYLE19
 73
     1
 44
1.0
  0
MTEXT
  5
B3
330
AB
100
AcDbEntity
  8
0
  6
Continuous
 62
     7
370
     0
100
AcDbMText
 10
0.0
 20
-7.9141498269
 30
0.0
 40
2.6458333333
 41
0.0
 71
     1
 72
     1
  1
{SURFACE QUALITY: }
  7
SLDTEXTSTYLE20
 73
     1
 44
1.0
  0
MTEXT
  5
B4
330
AB
100
AcDbEntity
  8
0
  6
Continuous
 62
     7
370
     0
100
AcDbMText
 10
0.0
 20
-11.441927562
 30
0.0
 40
2.6458333333
 41
0.0
 71
     1
 72
     1
  1
{BACK SURFACE:}
  7
SLDTEXTSTYLE0
 73
     1
 44
1.0
  0
MTEXT
  5
B5
330
AB
100
AcDbEntity
  8
0
  6
Continuous
 62
     7
370
     0
100
AcDbMText
 10
0.0
 20
-14.9697052971
 30
0.0
 40
2.6458333333
 41
0.0
 71
     1
 72
     1
  1
{CLEAR APERTURE:}
  7
SLDTEXTSTYLE0
 73
     1
 44
1.0
  0
MTEXT
  5
B6
330
AB
100
AcDbEntity
  8
0
  6
Continuous
 62
     7
370
     0
100
AcDbMText
 10
0.0
 20
-18.4974830323
 30
0.0
 40
2.6458333333
 41
0.0
 71
     1
 72
     1
  1
{DIAMETER TOLERANCE:}
  7
SLDTEXTSTYLE0
 73
     1
 44
1.0
  0
MTEXT
  5
B7
330
AB
100
AcDbEntity
  8
0
  6
Continuous
 62
     7
370
     0
100
AcDbMText
 10
0.0
 20
-22.0252607674
 30
0.0
 40
2.6458333333
 41
0.0
 71
     1
 72
     1
  1
{THICKNESS TOLERANCE:}
  7
SLDTEXTSTYLE0
 73
     1
 44
1.0
  0
MTEXT
  5
B9
330
AB
100
AcDbEntity
  8
0
  6
Continuous
 62
     7
370
     0
100
AcDbMText
 10
0.0
 20
-25.5530385026
 30
0.0
 40
2.6458333333
 41
0.0
 71
     1
 72
     1
  1
{LASER DAMAGE THRESHOLD:}
  7
SLDTEXTSTYLE21
 73
     1
 44
1.0
  0
MTEXT
  5
BA
330
AB
100
AcDbEntity
  8
0
  6
Continuous
 62
     7
370
     0
100
AcDbMText
 10
0.0
 20
-29.0808162377
 30
0.0
 40
2.6458333333
 41
0.0
 71
     1
 72
     1
  1
{COATING:}
  7
SLDTEXTSTYLE0
 73
     1
 44
1.0
  0
ENDBLK
  5
AD
330
AB
100
AcDbEntity
  8
0
100
AcDbBlockEnd
  0
BLOCK
  5
CA
330
C0
100
AcDbEntity
  8
0
100
AcDbBlockBegin
  2
*D5
 70
     1
 71
     0
 10
0.0
 20
0.0
 30
0.0
  3
*D5
  1

  0
SOLID
  5
CD
330
C0
100
AcDbEntity
  8
0
  6
Continuous
 62
     7
370
     0
100
AcDbTrace
 10
102.8749968193
 20
120.6851096004
 30
0.0
 11
105.9647780889
 21
123.4064100003
 31
0.0
 12
104.9441279289
 22
124.2447332619
 32
0.0
 13
104.9441279289
 23
124.2447332619
 33
0.0
  0
LINE
  5
CE
330
C0
100
AcDbEntity
  8
0
  6
Continuous
 62
     7
370
     0
100
AcDbLine
 10
119.7752376295
 20
134.434014669
 30
0.0
 11
119.7752376295
 21
130.8073476061
 31
0.0
  0
LINE
  5
CF
330
C0
100
AcDbEntity
  8
0
  6
Continuous
 62
     7
370
     0
100
AcDbLine
 10
119.7752376295
 20
130.8073476061
 30
0.0
 11
121.1669999896
 21
130.8073476061
 31
0.0
  0
LINE
  5
D0
330
C0
100
AcDbEntity
  8
0
  6
Continuous
 62
     7
370
     0
100
AcDbLine
 10
119.7752376295
 20
134.434014669
 30
0.0
 11
121.1669999896
 21
134.434014669
 31
0.0
  0
LINE
  5
D1
330
C0
100
AcDbEntity
  8
0
  6
Continuous
 62
     7
370
     0
100
AcDbLine
 10
130.1585933288
 20
134.434014669
 30
0.0
 11
130.1585933288
 21
130.8073476061
 31
0.0
  0
LINE
  5
D2
330
C0
100
AcDbEntity
  8
0
  6
Continuous
 62
     7
370
     0
100
AcDbLine
 10
130.1585933288
 20
130.8073476061
 30
0.0
 11
128.7668309686
 21
130.8073476061
 31
0.0
  0
LINE
  5
D3
330
C0
100
AcDbEntity
  8
0
  6
Continuous
 62
     7
370
     0
100
AcDbLine
 10
130.1585933288
 20
134.434014669
 30
0.0
 11
128.7668309686
 21
134.434014669
 31
0.0
  0
LINE
  5
D4
330
C0
100
AcDbEntity
  8
0
  6
Continuous
 62
     7
370
     0
100
AcDbLine
 10
102.8749968193
 20
120.6851096004
 30
0.0
 11
111.1890185211
 21
130.8073476061
 31
0.0
  0
LINE
  5
D5
330
C0
100
AcDbEntity
  8
0
  6
Continuous
 62
     7
370
     0
100
AcDbLine
 10
111.1890185211
 20
130.8073476061
 30
0.0
 11
117.5390185211
 21
130.8073476061
 31
0.0
  0
MTEXT
  5
D6
330
C0
100
AcDbEntity
  8
0
  6
Continuous
 62
     7
370
     0
100
AcDbMText
 10
120.3800671364
 20
130.1006883557
 30
0.0
 40
2.286
 41
0.0
 71
     1
 72
     1
  1
{%%c}
  7
SLDTEXTSTYLE0
 73
     1
 44
1.0
  0
MTEXT
  5
D7
330
C0
100
AcDbEntity
  8
0
  6
Continuous
 62
     7
370
     0
100
AcDbMText
 10
123.6440674931
 20
130.1006885303
 30
0.0
 40
2.286
 41
0.0
 71
     1
 72
     1
  1
{25.4}
  7
SLDTEXTSTYLE0
 73
     1
 44
1.0
  0
MTEXT
  5
D8
330
C0
100
AcDbEntity
  8
0
  6
Continuous
 62
     7
370
     0
100
AcDbMText
 10
121.1669999896
 20
133.7273555932
 30
0.0
 40
2.286
 41
0.0
 71
     1
 72
     1
  1
{1.000}
  7
SLDTEXTSTYLE0
 73
     1
 44
1.0
  0
ENDBLK
  5
CB
330
C0
100
AcDbEntity
  8
0
100
AcDbBlockEnd
  0
BLOCK
  5
ED
330
E1
100
AcDbEntity
  8
0
100
AcDbBlockBegin
  2
*D6
 70
     1
 71
     0
 10
0.0
 20
0.0
 30
0.0
  3
*D6
  1

  0
SOLID
  5
F0
330
E1
100
AcDbEntity
  8
0
  6
Continuous
 62
     7
370
     0
100
AcDbTrace
 10
173.9799249294
 20
133.6650402872
 30
0.0
 11
169.9159249294
 21
134.3254402872
 31
0.0
 12
169.9159249294
 22
133.0046402872
 32
0.0
 13
169.9159249294
 23
133.0046402872
 33
0.0
  0
SOLID
  5
F1
330
E1
100
AcDbEntity
  8
0
  6
Continuous
 62
     7
370
     0
100
AcDbTrace
 10
179.9799249294
 20
133.6650402872
 30
0.0
 11
184.0439249294
 21
133.0046402872
 31
0.0
 12
184.0439249294
 22
134.3254402872
 32
0.0
 13
184.0439249294
 23
134.3254402872
 33
0.0
  0
LINE
  5
F2
330
E1
100
AcDbEntity
  8
0
  6
Continuous
 62
     7
370
     0
100
AcDbLine
 10
189.9207946778
 20
137.2917073502
 30
0.0
 11
189.9207946778
 21
133.6650402872
 31
0.0
  0
LINE
  5
F3
330
E1
100
AcDbEntity
  8
0
  6
Continuous
 62
     7
370
     0
100
AcDbLine
 10
189.9207946778
 20
133.6650402872
 30
0.0
 11
191.312557038
 21
133.6650402872
 31
0.0
  0
LINE
  5
F4
330
E1
100
AcDbEntity
  8
0
  6
Continuous
 62
     7
370
     0
100
AcDbLine
 10
189.9207946778
 20
137.2917073502
 30
0.0
 11
191.312557038
 21
137.2917073502
 31
0.0
  0
LINE
  5
F5
330
E1
100
AcDbEntity
  8
0
  6
Continuous
 62
     7
370
     0
100
AcDbLine
 10
200.3041503771
 20
137.2917073502
 30
0.0
 11
200.3041503771
 21
133.6650402872
 31
0.0
  0
LINE
  5
F6
330
E1
100
AcDbEntity
  8
0
  6
Continuous
 62
     7
370
     0
100
AcDbLine
 10
200.3041503771
 20
133.6650402872
 30
0.0
 11
198.912388017
 21
133.6650402872
 31
0.0
  0
LINE
  5
F7
330
E1
100
AcDbEntity
  8
0
  6
Continuous
 62
     7
370
     0
100
AcDbLine
 10
200.3041503771
 20
137.2917073502
 30
0.0
 11
198.912388017
 21
137.2917073502
 31
0.0
  0
LINE
  5
F8
330
E1
100
AcDbEntity
  8
0
  6
Continuous
 62
     7
370
     0
100
AcDbLine
 10
173.9799249294
 20
124.7411657546
 30
0.0
 11
173.9799249294
 21
136.8400402872
 31
0.0
  0
LINE
  5
F9
330
E1
100
AcDbEntity
  8
0
  6
Continuous
 62
     7
370
     0
100
AcDbLine
 10
179.9799249294
 20
124.8411657546
 30
0.0
 11
179.9799249294
 21
136.8400402872
 31
0.0
  0
LINE
  5
FA
330
E1
100
AcDbEntity
  8
0
  6
Continuous
 62
     7
370
     0
100
AcDbLine
 10
173.9799249294
 20
133.6650402872
 30
0.0
 11
165.0899249294
 21
133.6650402872
 31
0.0
  0
LINE
  5
FB
330
E1
100
AcDbEntity
  8
0
  6
Continuous
 62
     7
370
     0
100
AcDbLine
 10
179.9799249294
 20
133.6650402872
 30
0.0
 11
187.4054531044
 21
133.6650402872
 31
0.0
  0
MTEXT
  5
FC
330
E1
100
AcDbEntity
  8
0
  6
Continuous
 62
     7
370
     0
100
AcDbMText
 10
193.0026916883
 20
132.9583812114
 30
0.0
 40
2.286
 41
0.0
 71
     1
 72
     1
  1
{6.0}
  7
SLDTEXTSTYLE0
 73
     1
 44
1.0
  0
MTEXT
  5
FD
330
E1
100
AcDbEntity
  8
0
  6
Continuous
 62
     7
370
     0
100
AcDbMText
 10
191.312557038
 20
136.5850482744
 30
0.0
 40
2.286
 41
0.0
 71
     1
 72
     1
  1
{0.236}
  7
SLDTEXTSTYLE0
 73
     1
 44
1.0
  0
ENDBLK
  5
EE
330
E1
100
AcDbEntity
  8
0
100
AcDbBlockEnd
  0
ENDSEC
  0
SECTION
  2
ENTITIES
  0
LINE
  5
30
330
1F
100
AcDbEntity
  8
0
  6
Continuous
 62
     7
370
     0
100
AcDbLine
 10
8.3801458
 20
208.0786585366
 30
0.0
 11
270.0001458
 21
208.0786585366
 31
0.0
  0
LINE
  5
31
330
1F
100
AcDbEntity
  8
0
  6
Continuous
 62
     7
370
     0
100
AcDbLine
 10
8.3801458
 20
208.0786585366
 30
0.0
 11
8.3801458
 21
9.9586585366
 31
0.0
  0
LINE
  5
32
330
1F
100
AcDbEntity
  8
0
  6
Continuous
 62
     7
370
     0
100
AcDbLine
 10
270.0001458
 20
9.9586585366
 30
0.0
 11
8.3801458
 21
9.9586585366
 31
0.0
  0
LINE
  5
33
330
1F
100
AcDbEntity
  8
0
  6
Continuous
 62
     7
370
     0
100
AcDbLine
 10
270.0001458
 20
9.9586585366
 30
0.0
 11
270.0001458
 21
208.0786585366
 31
0.0
  0
LINE
  5
34
330
1F
100
AcDbEntity
  8
0
  6
Continuous
 62
     7
370
     0
100
AcDbLine
 10
200.2334576007
 20
30.5058740206
 30
0.0
 11
161.2692165563
 21
30.5058740206
 31
0.0
  0
LINE
  5
35
330
1F
100
AcDbEntity
  8
0
  6
Continuous
 62
     7
370
     0
100
AcDbLine
 10
161.2692165563
 20
9.9586585366
 30
0.0
 11
161.2692165563
 21
43.1508823427
 31
0.0
  0
LINE
  5
36
330
1F
100
AcDbEntity
  8
0
  6
Continuous
 62
     7
370
     0
100
AcDbLine
 10
200.2334576007
 20
32.2622398452
 30
0.0
 11
270.0001458
 21
32.2622398452
 31
0.0
  0
LINE
  5
37
330
1F
100
AcDbEntity
  8
0
  6
Continuous
 62
     7
370
     0
100
AcDbLine
 10
200.2334576007
 20
49.3719356552
 30
0.0
 11
200.2334576007
 21
9.9586585366
 31
0.0
  0
LINE
  5
38
330
1F
100
AcDbEntity
  8
0
  6
Continuous
 62
     7
370
     0
100
AcDbLine
 10
200.2334576007
 20
33.6128247466
 30
0.0
 11
161.2692165563
 21
33.6128247466
 31
0.0
  0
LINE
  5
39
330
1F
100
AcDbEntity
  8
0
  6
Continuous
 62
     7
370
     0
100
AcDbLine
 10
200.2334576007
 20
43.1508823427
 30
0.0
 11
125.1808533271
 21
43.1508823427
 31
0.0
  0
LINE
  5
3A
330
1F
100
AcDbEntity
  8
0
  6
Continuous
 62
     7
370
     0
100
AcDbLine
 10
200.2334576007
 20
20.0415123109
 30
0.0
 11
270.0001458
 21
20.0415123109
 31
0.0
  0
LINE
  5
3B
330
1F
100
AcDbEntity
  8
0
  6
Continuous
 62
     7
370
     0
100
AcDbLine
 10
200.2334576007
 20
36.7197754725
 30
0.0
 11
161.2692165563
 21
36.7197754725
 31
0.0
  0
LINE
  5
3C
330
1F
100
AcDbEntity
  8
0
  6
Continuous
 62
     7
370
     0
100
AcDbLine
 10
200.2334576007
 20
39.8267261984
 30
0.0
 11
161.2692165563
 21
39.8267261984
 31
0.0
  0
LINE
  5
3D
330
1F
100
AcDbEntity
  8
0
  6
Continuous
 62
     7
370
     0
100
AcDbLine
 10
176.0072388015
 20
43.1508823427
 30
0.0
 11
176.0072388015
 21
30.5058740206
 31
0.0
  0
LINE
  5
3E
330
1F
100
AcDbEntity
  8
0
  6
Continuous
 62
     7
370
     0
100
AcDbLine
 10
185.3931667464
 20
43.1508823427
 30
0.0
 11
185.3931667464
 21
30.5058740206
 31
0.0
  0
LINE
  5
3F
330
1F
100
AcDbEntity
  8
0
  6
Continuous
 62
     7
370
     0
100
AcDbLine
 10
226.0614310815
 20
20.0415123109
 30
0.0
 11
226.0614310815
 21
9.9586585366
 31
0.0
  0
LINE
  5
40
330
1F
100
AcDbEntity
  8
0
  6
Continuous
 62
     7
370
     0
100
AcDbLine
 10
236.509415189
 20
24.4195386643
 30
0.0
 11
236.509415189
 21
20.0415123109
 31
0.0
  0
LINE
  5
41
330
1F
100
AcDbEntity
  8
0
  6
Continuous
 62
     7
370
     0
100
AcDbLine
 10
254.824490219
 20
32.2622398452
 30
0.0
 11
254.824490219
 21
24.4195386643
 31
0.0
  0
LINE
  5
42
330
1F
100
AcDbEntity
  8
0
  6
Continuous
 62
     7
370
     0
100
AcDbLine
 10
125.1808533271
 20
43.1508823427
 30
0.0
 11
125.1808533271
 21
9.9586585366
 31
0.0
  0
LINE
  5
43
330
1F
100
AcDbEntity
  8
0
  6
Continuous
 62
     7
370
     0
100
AcDbLine
 10
125.1808533271
 20
39.1170198353
 30
0.0
 11
161.2692165563
 21
39.1170198353
 31
0.0
  0
LINE
  5
44
330
1F
100
AcDbEntity
  8
0
  6
Continuous
 62
     7
370
     0
100
AcDbLine
 10
125.1808533271
 20
36.4666474189
 30
0.0
 11
161.2692165563
 21
36.4666474189
 31
0.0
  0
LINE
  5
45
330
1F
100
AcDbEntity
  8
0
  6
Continuous
 62
     7
370
     0
100
AcDbLine
 10
197.2618485971
 20
208.0786585366
 30
0.0
 11
197.2618485971
 21
191.5870052847
 31
0.0
  0
LINE
  5
46
330
1F
100
AcDbEntity
  8
0
  6
Continuous
 62
     7
370
     0
100
AcDbLine
 10
205.7064827977
 20
208.0786585366
 30
0.0
 11
205.7064827977
 21
191.5870052847
 31
0.0
  0
LINE
  5
47
330
1F
100
AcDbEntity
  8
0
  6
Continuous
 62
     7
370
     0
100
AcDbLine
 10
253.5819016952
 20
208.0786585366
 30
0.0
 11
253.5819016952
 21
191.5870052847
 31
0.0
  0
LINE
  5
48
330
1F
100
AcDbEntity
  8
0
  6
Continuous
 62
     7
370
     0
100
AcDbLine
 10
197.2618485971
 20
204.6733101377
 30
0.0
 11
270.0001458
 21
204.6733101377
 31
0.0
  0
LINE
  5
49
330
1F
100
AcDbEntity
  8
0
  6
Continuous
 62
     7
370
     0
100
AcDbLine
 10
161.2692165563
 20
26.369540887
 30
0.0
 11
200.2334576007
 21
26.369540887
 31
0.0
  0
LINE
  5
4A
330
1F
100
AcDbEntity
  8
0
  6
Continuous
 62
     7
370
     0
100
AcDbLine
 10
200.2334576007
 20
49.3719356552
 30
0.0
 11
270.0001458
 21
49.3719356552
 31
0.0
  0
LINE
  5
4B
330
1F
100
AcDbEntity
  8
0
  6
Continuous
 62
     7
370
     0
100
AcDbLine
 10
197.2618485971
 20
201.4735177848
 30
0.0
 11
270.0001458
 21
201.4735177848
 31
0.0
  0
LINE
  5
4C
330
1F
100
AcDbEntity
  8
0
  6
Continuous
 62
     7
370
     0
100
AcDbLine
 10
197.2618485971
 20
198.1566204629
 30
0.0
 11
270.0001458
 21
198.1566204629
 31
0.0
  0
LINE
  5
4D
330
1F
100
AcDbEntity
  8
0
  6
Continuous
 62
     7
370
     0
100
AcDbLine
 10
197.2618485971
 20
194.8718128738
 30
0.0
 11
270.0001458
 21
194.8718128738
 31
0.0
  0
LINE
  5
4E
330
1F
100
AcDbEntity
  8
0
  6
Continuous
 62
     7
370
     0
100
AcDbLine
 10
197.2618485971
 20
191.5870052847
 30
0.0
 11
270.0001458
 21
191.5870052847
 31
0.0
  0
LINE
  5
4F
330
1F
100
AcDbEntity
  8
0
  6
Continuous
 62
     7
370
     0
100
AcDbLine
 10
262.007143296
 20
32.2427104882
 30
0.0
 11
262.007143296
 21
24.4195386643
 31
0.0
  0
LINE
  5
50
330
1F
100
AcDbEntity
  8
0
  6
Continuous
 62
     7
370
     0
100
AcDbLine
 10
200.2334576007
 20
24.4195386643
 30
0.0
 11
270.0001458
 21
24.4195386643
 31
0.0
  0
LINE
  5
51
330
1F
100
AcDbEntity
  8
0
  6
Continuous
 62
     7
370
     0
100
AcDbLine
 10
270.0001458
 20
49.3719356552
 30
0.0
 11
270.0001458
 21
50.0331356147
 31
0.0
  0
LINE
  5
52
330
1F
100
AcDbEntity
  8
0
  6
Continuous
 62
     7
370
     0
100
AcDbLine
 10
200.2334576007
 20
41.3209618421
 30
0.0
 11
270.0001458
 21
41.3209618421
 31
0.0
  0
LINE
  5
53
330
1F
100
AcDbEntity
  8
0
  6
Continuous
 62
     7
370
     0
100
AcDbLine
 10
169.9812958
 20
9.9586585366
 30
0.0
 11
169.9812958
 21
7.8047587093
 31
0.0
  0
LINE
  5
54
330
1F
100
AcDbEntity
  8
0
  6
Continuous
 62
     7
370
     0
100
AcDbLine
 10
69.9687958
 20
9.9586585366
 30
0.0
 11
69.9687958
 21
7.8047587093
 31
0.0
  0
LINE
  5
55
330
1F
100
AcDbEntity
  8
0
  6
Continuous
 62
     7
370
     0
100
AcDbLine
 10
69.9687958
 20
9.9586585366
 30
0.0
 11
70.2876921355
 21
9.0805
 31
0.0
  0
LINE
  5
56
330
1F
100
AcDbEntity
  8
0
  6
Continuous
 62
     7
370
     0
100
AcDbLine
 10
70.2876921355
 20
9.0805
 30
0.0
 11
69.6322174163
 21
9.0805
 31
0.0
  0
LINE
  5
57
330
1F
100
AcDbEntity
  8
0
  6
Continuous
 62
     7
370
     0
100
AcDbLine
 10
69.6322174163
 20
9.0805
 30
0.0
 11
69.9687958
 21
9.9586585366
 31
0.0
  0
MTEXT
  5
59
330
1F
100
AcDbEntity
  8
0
  6
Continuous
 62
     7
370
     0
100
AcDbMText
 10
44.1652901531
 20
7.8609774378
 30
0.0
 40
2.38125
 41
0.0
 71
     1
 72
     1
  1
{5}
  7
SLDTEXTSTYLE0
 73
     1
 44
1.0
  0
MTEXT
  5
5A
330
1F
100
AcDbEntity
  8
0
  6
Continuous
 62
     7
370
     0
100
AcDbMText
 10
94.5845283056
 20
7.9406655459
 30
0.0
 40
2.38125
 41
0.0
 71
     1
 72
     1
  1
{4}
  7
SLDTEXTSTYLE0
 73
     1
 44
1.0
  0
MTEXT
  5
5B
330
1F
100
AcDbEntity
  8
0
  6
Continuous
 62
     7
370
     0
100
AcDbMText
 10
143.0641214846
 20
7.8872095283
 30
0.0
 40
2.38125
 41
0.0
 71
     1
 72
     1
  1
{3}
  7
SLDTEXTSTYLE0
 73
     1
 44
1.0
  0
MTEXT
  5
5C
330
1F
100
AcDbEntity
  8
0
  6
Continuous
 62
     7
370
     0
100
AcDbMText
 10
193.1916931782
 20
7.9080362808
 30
0.0
 40
2.38125
 41
0.0
 71
     1
 72
     1
  1
{2}
  7
SLDTEXTSTYLE0
 73
     1
 44
1.0
  0
MTEXT
  5
5D
330
1F
100
AcDbEntity
  8
0
  6
Continuous
 62
     7
370
     0
100
AcDbMText
 10
245.4146001727
 20
7.6269313547
 30
0.0
 40
2.38125
 41
0.0
 71
     1
 72
     1
  1
{1}
  7
SLDTEXTSTYLE0
 73
     1
 44
1.0
  0
MTEXT
  5
5E
330
1F
100
AcDbEntity
  8
0
  6
Continuous
 62
     7
370
     0
100
AcDbMText
 10
201.4264288672
 20
31.7493154522
 30
0.0
 40
2.1166666667
 41
0.0
 71
     1
 72
     1
  1
{MATERIAL:}
  7
SLDTEXTSTYLE0
 73
     1
 44
1.0
  0
MTEXT
  5
60
330
1F
100
AcDbEntity
  8
0
  6
Continuous
 62
     7
370
     0
100
AcDbMText
 10
227.1732877783
 20
18.9416466292
 30
0.0
 40
2.1166666667
 41
0.0
 71
     1
 72
     1
  1
{PART  NO.}
  7
SLDTEXTSTYLE1
 73
     1
 44
1.0
  0
MTEXT
  5
61
330
1F
100
AcDbEntity
  8
0
  6
Continuous
 62
     7
370
     0
100
AcDbMText
 10
126.6755729332
 20
42.3456529578
 30
0.0
 40
2.54
 41
0.0
 71
     1
 72
     1
  1
{TOLERANCES}
  7
SLDTEXTSTYLE0
 73
     1
 44
1.0
  0
MTEXT
  5
63
330
1F
100
AcDbEntity
  8
0
  6
Continuous
 62
     7
370
     0
100
AcDbMText
 10
162.3747668481
 20
29.0583406418
 30
0.0
 40
1.524
 41
0.0
 71
     1
 72
     1
  1
{PROPRIETARY AND CONFIDENTIAL}
  7
SLDTEXTSTYLE2
 73
     1
 44
1.0
  0
INSERT
  5
80
330
1F
100
AcDbEntity
  8
0
  6
Continuous
 62
     7
370
     0
100
AcDbBlockReference
  2
SW_NOTE_0
 10
126.3148677893
 20
33.933485762
 30
0.0
  0
MTEXT
  5
81
330
1F
100
AcDbEntity
  8
0
  6
Continuous
 62
     7
370
     0
100
AcDbMText
 10
165.0635781822
 20
39.1325143367
 30
0.0
 40
1.651
 41
0.0
 71
     1
 72
     1
  1
{DRAWN}
  7
SLDTEXTSTYLE0
 73
     1
 44
1.0
  0
MTEXT
  5
82
330
1F
100
AcDbEntity
  8
0
  6
Continuous
 62
     7
370
     0
100
AcDbMText
 10
163.4989205914
 20
36.027211819
 30
0.0
 40
1.651
 41
0.0
 71
     1
 72
     1
  1
{ENG APPR.}
  7
SLDTEXTSTYLE0
 73
     1
 44
1.0
  0
MTEXT
  5
83
330
1F
100
AcDbEntity
  8
0
  6
Continuous
 62
     7
370
     0
100
AcDbMText
 10
163.2535607636
 20
32.976725333
 30
0.0
 40
1.651
 41
0.0
 71
     1
 72
     1
  1
{MFG APPR.}
  7
SLDTEXTSTYLE0
 73
     1
 44
1.0
  0
MTEXT
  5
84
330
1F
100
AcDbEntity
  8
0
  6
Continuous
 62
     7
370
     0
100
AcDbMText
 10
177.1717662961
 20
42.1845189986
 30
0.0
 40
1.651
 41
0.0
 71
     1
 72
     1
  1
{NAME}
  7
SLDTEXTSTYLE0
 73
     1
 44
1.0
  0
MTEXT
  5
85
330
1F
100
AcDbEntity
  8
0
  6
Continuous
 62
     7
370
     0
100
AcDbMText
 10
201.640568165
 20
39.7809832592
 30
0.0
 40
2.54
 41
0.0
 71
     1
 72
     1
  1
{TITLE:}
  7
SLDTEXTSTYLE0
 73
     1
 44
1.0
  0
MTEXT
  5
86
330
1F
100
AcDbEntity
  8
0
  6
Continuous
 62
     7
370
     0
100
AcDbMText
 10
255.6705425448
 20
31.1480064652
 30
0.0
 40
2.1166666667
 41
0.0
 71
     1
 72
     1
  1
{SIZE}
  7
SLDTEXTSTYLE0
 73
     1
 44
1.0
  0
MTEXT
  5
87
330
1F
100
AcDbEntity
  8
0
  6
Continuous
 62
     7
370
     0
100
AcDbMText
 10
256.9521432223
 20
28.3577319254
 30
0.0
 40
2.6458333333
 41
0.0
 71
     1
 72
     1
  1
{A}
  7
SLDTEXTSTYLE0
 73
     1
 44
1.0
  0
MTEXT
  5
88
330
1F
100
AcDbEntity
  8
0
  6
Continuous
 62
     7
370
     0
100
AcDbMText
 10
262.5115647388
 20
31.188643502
 30
0.0
 40
2.1166666667
 41
0.0
 71
     1
 72
     1
  1
{REV.}
  7
SLDTEXTSTYLE0
 73
     1
 44
1.0
  0
MTEXT
  5
8A
330
1F
100
AcDbEntity
  8
0
  6
Continuous
 62
     7
370
     0
100
AcDbMText
 10
244.8008308774
 20
23.5351081999
 30
0.0
 40
2.1166666667
 41
0.0
 71
     1
 72
     1
  1
{SHEET 1 OF 1}
  7
SLDTEXTSTYLE10
 73
     1
 44
1.0
  0
INSERT
  5
9A
330
1F
100
AcDbEntity
  8
0
  6
Continuous
 62
     7
370
     0
100
AcDbBlockReference
  2
SW_NOTE_1
 10
162.2847826607
 20
23.6526893282
 30
0.0
  0
MTEXT
  5
9C
330
1F
100
AcDbEntity
  8
0
  6
Continuous
 62
     7
370
     0
100
AcDbMText
 10
126.6683390745
 20
38.6343227777
 30
0.0
 40
1.5875
 41
0.0
 71
     1
 72
     1
  1
{UNLESS OTHERWISE SPECIFIED:}
  7
SLDTEXTSTYLE17
 73
     1
 44
1.0
  0
MTEXT
  5
9D
330
1F
100
AcDbEntity
  8
0
  6
Continuous
 62
     7
370
     0
100
AcDbMText
 10
200.8540544727
 20
18.9694968197
 30
0.0
 40
2.1166666667
 41
0.0
 71
     1
 72
     1
  1
{DWG.  NO.}
  7
SLDTEXTSTYLE1
 73
     1
 44
1.0
  0
MTEXT
  5
9E
330
1F
100
AcDbEntity
  8
0
  6
Continuous
 62
     7
370
     0
100
AcDbMText
 10
197.7433251528
 20
207.4682341711
 30
0.0
 40
1.8520833333
 41
0.0
 71
     1
 72
     1
  1
{REV. #}
  7
SLDTEXTSTYLE0
 73
     1
 44
1.0
  0
MTEXT
  5
9F
330
1F
100
AcDbEntity
  8
0
  6
Continuous
 62
     7
370
     0
100
AcDbMText
 10
219.9216403045
 20
207.5215316316
 30
0.0
 40
1.8520833333
 41
0.0
 71
     1
 72
     1
  1
{DESCRIPTION:}
  7
SLDTEXTSTYLE0
 73
     1
 44
1.0
  0
MTEXT
  5
A0
330
1F
100
AcDbEntity
  8
0
  6
Continuous
 62
     7
370
     0
100
AcDbMText
 10
254.2580089581
 20
207.4941499138
 30
0.0
 40
1.8520833333
 41
0.0
 71
     1
 72
     1
  1
{NAME/DATE:}
  7
SLDTEXTSTYLE0
 73
     1
 44
1.0
  0
MTEXT
  5
A1
330
1F
100
AcDbEntity
  8
0
  6
Continuous
 62
     7
370
     0
100
AcDbMText
 10
189.8181243794
 20
42.1200191196
 30
0.0
 40
1.651
 41
0.0
 71
     1
 72
     1
  1
{DATE}
  7
SLDTEXTSTYLE0
 73
     1
 44
1.0
  0
MTEXT
  5
A2
330
1F
100
AcDbEntity
  8
0
  6
Continuous
 62
     7
370
     0
100
AcDbMText
 10
201.1235751288
 20
48.1209305966
 30
0.0
 40
4.7625
 41
0.0
 71
     1
 72
     1
  1
{THORLABS INC.}
  7
SLDTEXTSTYLE0
 73
     1
 44
1.0
  0
INSERT
  5
A9
330
1F
100
AcDbEntity
  8
0
  6
Continuous
 62
     7
370
     0
100
AcDbBlockReference
  2
SW_NOTE_2
 10
248.665276374
 20
45.4206421968
 30
0.0
  0
MTEXT
  5
AA
330
1F
100
AcDbEntity
  8
0
  6
Continuous
 62
     7
370
     0
100
AcDbMText
 10
211.3984283698
 20
23.6468578975
 30
0.0
 40
2.1166666667
 41
0.0
 71
     1
 72
     1
  1
{SCALE: 1:1}
  7
SLDTEXTSTYLE0
 73
     1
 44
1.0
  0
INSERT
  5
BB
330
1F
100
AcDbEntity
  8
0
  6
Continuous
 62
     7
370
     0
100
AcDbBlockReference
  2
SW_NOTE_3
 10
13.8060656463
 20
82.6331139307
 30
0.0
  0
CIRCLE
  5
BC
330
1F
100
AcDbEntity
  8
0
  6
Continuous
 62
     7
370
     0
100
AcDbCircle
 10
94.8141962268
 20
110.8711657546
 30
0.0
 40
12.60000000000001
  0
CIRCLE
  5
BD
330
1F
100
AcDbEntity
  8
0
  6
Continuous
 62
     7
370
     0
100
AcDbCircle
 10
94.8141962268
 20
110.8711657546
 30
0.0
 40
12.7
  0
DIMENSION
  5
BE
330
1F
100
AcDbEntity
  8
0
  6
Continuous
 62
     7
370
     0
100
AcDbDimension
  2
*D5
 10
86.7533956344
 20
101.0572219088
 30
0.0
 11
124.7821171574
 21
130.8073476061
 31
0.0
 70
   163
  1
<>
 71
     1
 42
25.4
  3
SLDDIMSTYLE0
100
AcDbDiametricDimension
 15
102.8749968193
 25
120.6851096004
 35
0.0
 40
0.0
1001
ACAD
1000
DSTYLE
1002
{
1070
   143
1040
0.0393700787
1070
    41
1040
4.064
1070
    44
1040
3.175
1070
    42
1040
1.27
1070
   147
1040
2.54
1070
    77
1070
     0
1070
    73
1070
     1
1070
    74
1070
     1
1070
   140
1040
2.286
1070
   284
1070
    12
1070
    78
1070
    12
1002
}
  0
LINE
  5
D9
330
1F
100
AcDbEntity
  8
0
  6
Continuous
 62
     7
370
     0
100
AcDbLine
 10
174.0799249294
 20
98.1711657546
 30
0.0
 11
179.9799249294
 21
98.1711657546
 31
0.0
  0
LINE
  5
DA
330
1F
100
AcDbEntity
  8
0
  6
Continuous
 62
     7
370
     0
100
AcDbLine
 10
179.9799249294
 20
123.5711657546
 30
0.0
 11
174.0799249294
 21
123.5711657546
 31
0.0
  0
LINE
  5
DB
330
1F
100
AcDbEntity
  8
0
  6
Continuous
 62
     7
370
     0
100
AcDbLine
 10
174.0799249294
 20
123.5711657546
 30
0.0
 11
173.9799249294
 21
123.4711657546
 31
0.0
  0
LINE
  5
DC
330
1F
100
AcDbEntity
  8
0
  6
Continuous
 62
     7
370
     0
100
AcDbLine
 10
173.9799249294
 20
98.2711657546
 30
0.0
 11
174.0799249294
 21
98.1711657546
 31
0.0
  0
LINE
  5
DD
330
1F
100
AcDbEntity
  8
0
  6
Continuous
 62
     7
370
     0
100
AcDbLine
 10
179.9799249294
 20
123.5711657546
 30
0.0
 11
179.9799249294
 21
98.1711657546
 31
0.0
  0
LINE
  5
DE
330
1F
100
AcDbEntity
  8
0
  6
Continuous
 62
     7
370
     0
100
AcDbLine
 10
174.0799249294
 20
123.5711657546
 30
0.0
 11
174.0799249294
 21
98.1711657546
 31
0.0
  0
LINE
  5
DF
330
1F
100
AcDbEntity
  8
0
  6
Continuous
 62
     7
370
     0
100
AcDbLine
 10
173.9799249294
 20
98.2711657546
 30
0.0
 11
173.9799249294
 21
123.4711657546
 31
0.0
  0
DIMENSION
  5
E0
330
1F
100
AcDbEntity
  8
0
  6
Continuous
 62
     7
370
     0
100
AcDbDimension
  2
*D6
 10
179.9799249294
 20
133.6650402872
 30
0.0
 11
195.1124725275
 21
133.6650402872
 31
0.0
 70
   160
 71
     1
 42
6.0
  3
SLDDIMSTYLE1
100
AcDbAlignedDimension
 13
173.9799249294
 23
123.4711657546
 33
0.0
 14
179.9799249294
 24
123.5711657546
 34
0.0
100
AcDbRotatedDimension
1001
ACAD
1000
DSTYLE
1002
{
1070
   143
1040
0.0393700787
1070
    41
1040
4.064
1070
    44
1040
3.175
1070
    42
1040
1.27
1070
   147
1040
2.54
1070
    77
1070
     0
1070
    73
1070
     1
1070
    74
1070
     1
1070
   140
1040
2.286
1070
   284
1070
    12
1070
    78
1070
    12
1002
}
  0
MTEXT
  5
FE
330
1F
100
AcDbEntity
  8
0
  6
Continuous
 62
     7
370
     0
100
AcDbMText
 10
243.1506504234
 20
15.201781839
 30
0.0
 40
2.286
 41
0.0
 71
     1
 72
     1
  1
{NB1-J13}
  7
SLDTEXTSTYLE0
 73
     1
 44
1.0
  0
MTEXT
  5
FF
330
1F
100
AcDbEntity
  8
0
  6
Continuous
 62
     7
370
     0
100
AcDbMText
 10
206.7644275717
 20
14.80208993
 30
0.0
 40
2.286
 41
0.0
 71
     1
 72
     1
  1
{8659-E01}
  7
SLDTEXTSTYLE0
 73
     1
 44
1.0
  0
MTEXT
  5
100
330
1F
100
AcDbEntity
  8
0
  6
Continuous
 62
     7
370
     0
100
AcDbMText
 10
226.9036393361
 20
36.2154643128
 30
0.0
 40
2.286
 41
0.0
 71
     1
 72
     1
  1
{YAG MIRROR}
  7
SLDTEXTSTYLE0
 73
     1
 44
1.0
  0
MTEXT
  5
101
330
1F
100
AcDbEntity
  8
0
  6
Continuous
 62
     7
370
     0
100
AcDbMText
 10
264.6686828661
 20
28.3307632761
 30
0.0
 40
2.6458333333
 41
0.0
 71
     1
 72
     1
  1
{A}
  7
SLDTEXTSTYLE0
 73
     1
 44
1.0
  0
MTEXT
  5
102
330
1F
100
AcDbEntity
  8
0
  6
Continuous
 62
     7
370
     0
100
AcDbMText
 10
218.4505792391
 20
28.1402832822
 30
0.0
 40
2.286
 41
0.0
 71
     1
 72
     1
  1
{FUSED SILICA}
  7
SLDTEXTSTYLE0
 73
     1
 44
1.0
  0
MTEXT
  5
103
330
1F
100
AcDbEntity
  8
0
  6
Continuous
 62
     7
370
     0
100
AcDbMText
 10
187.5727958371
 20
39.4003219351
 30
0.0
 40
1.8520833333
 41
0.0
 71
     1
 72
     1
  1
{5/4/2006}
  7
SLDTEXTSTYLE0
 73
     1
 44
1.0
  0
MTEXT
  5
104
330
1F
100
AcDbEntity
  8
0
  6
Continuous
 62
     7
370
     0
100
AcDbMText
 10
177.9518066739
 20
39.2826328644
 30
0.0
 40
1.8520833333
 41
0.0
 71
     1
 72
     1
  1
{BAG}
  7
SLDTEXTSTYLE0
 73
     1
 44
1.0
  0
MTEXT
  5
105
330
1F
100
AcDbEntity
  8
0
  6
Continuous
 62
     7
370
     0
100
AcDbMText
 10
179.0232465323
 20
36.0410616933
 30
0.0
 40
1.8520833333
 41
0.0
 71
     1
 72
     1
  1
{TO}
  7
SLDTEXTSTYLE0
 73
     1
 44
1.0
  0
MTEXT
  5
106
330
1F
100
AcDbEntity
  8
0
  6
Continuous
 62
     7
370
     0
100
AcDbMText
 10
187.5208738174
 20
36.1653761386
 30
0.0
 40
1.8520833333
 41
0.0
 71
     1
 72
     1
  1
{5/4/2006}
  7
SLDTEXTSTYLE0
 73
     1
 44
1.0
  0
MTEXT
  5
107
330
1F
100
AcDbEntity
  8
0
  6
Continuous
 62
     7
370
     0
100
AcDbMText
 10
179.0826872154
 20
32.9805004009
 30
0.0
 40
1.8520833333
 41
0.0
 71
     1
 72
     1
  1
{TO}
  7
SLDTEXTSTYLE0
 73
     1
 44
1.0
  0
MTEXT
  5
108
330
1F
100
AcDbEntity
  8
0
  6
Continuous
 62
     7
370
     0
100
AcDbMText
 10
187.4028521555
 20
33.1759000053
 30
0.0
 40
1.8520833333
 41
0.0
 71
     1
 72
     1
  1
{5/4/2006}
  7
SLDTEXTSTYLE0
 73
     1
 44
1.0
  0
MTEXT
  5
109
330
1F
100
AcDbEntity
  8
0
  6
Continuous
 62
     7
370
     0
100
AcDbMText
 10
62.0402021059
 20
78.0258314391
 30
0.0
 40
2.286
 41
0.0
 71
     1
 72
     1
  1
{/10}
  7
SLDTEXTSTYLE0
 73
     1
 44
1.0
  0
MTEXT
  5
10A
330
1F
100
AcDbEntity
  8
0
  6
Continuous
 62
     7
370
     0
100
AcDbMText
 10
45.5055205587
 20
74.4310713495
 30
0.0
 40
2.286
 41
0.0
 71
     1
 72
     1
  1
{10/5  SCRATCH/DIG}
  7
SLDTEXTSTYLE20
 73
     1
 44
1.0
  0
MTEXT
  5
10B
330
1F
100
AcDbEntity
  8
0
  6
Continuous
 62
     7
370
     0
100
AcDbMText
 10
53.3813234033
 20
63.845878103
 30
0.0
 40
2.286
 41
0.0
 71
     1
 72
     1
  1
{+0.0/-0.2mm}
  7
SLDTEXTSTYLE0
 73
     1
 44
1.0
  0
MTEXT
  5
10C
330
1F
100
AcDbEntity
  8
0
  6
Continuous
 62
     7
370
     0
100
AcDbMText
 10
44.2485575103
 20
67.3404492499
 30
0.0
 40
2.286
 41
0.0
 71
     1
 72
     1
  1
{>80%}
  7
SLDTEXTSTYLE0
 73
     1
 44
1.0
  0
MTEXT
  5
10D
330
1F
100
AcDbEntity
  8
0
  6
Continuous
 62
     7
370
     0
100
AcDbMText
 10
41.2302544395
 20
70.8044052259
 30
0.0
 40
2.286
 41
0.0
 71
     1
 72
     1
  1
{FINE GROUND}
  7
SLDTEXTSTYLE0
 73
     1
 44
1.0
  0
MTEXT
  5
10E
330
1F
100
AcDbEntity
  8
0
  6
Continuous
 62
     7
370
     0
100
AcDbMText
 10
54.7471934963
 20
60.2944992996
 30
0.0
 40
2.286
 41
0.0
 71
     1
 72
     1
  1
{±0.3mm}
  7
SLDTEXTSTYLE0
 73
     1
 44
1.0
  0
MTEXT
  5
110
330
1F
100
AcDbEntity
  8
0
  6
Continuous
 62
     7
370
     0
100
AcDbMText
 10
63.00556389
 20
56.5890549743
 30
0.0
 40
2.286
 41
0.0
 71
     1
 72
     1
  1
{1 MW/cm² CW, 5J/cm² (10ns Pulse)}
  7
SLDTEXTSTYLE22
 73
     1
 44
1.0
  0
MTEXT
  5
112
330
1F
100
AcDbEntity
  8
0
  6
Continuous
 62
     7
370
     0
100
AcDbMText
 10
32.0244301792
 20
53.2032074022
 30
0.0
 40
2.286
 41
0.0
 71
     1
 72
     1
  1
{532 & 1064nm DUALWAVELENGTH, FUNDAMENTAL & 2nd HARMONIC }
  7
SLDTEXTSTYLE23
 73
     1
 44
1.0
  0
LINE
  5
113
330
1F
100
AcDbEntity
  8
0
  6
Continuous
 62
     7
370
     0
100
AcDbLine
 10
231.3854681412
 20
170.774066769
 30
0.0
 11
231.3854681412
 21
170.6924259578
 31
0.0
  0
LINE
  5
114
330
1F
100
AcDbEntity
  8
0
  6
Continuous
 62
     7
370
     0
100
AcDbLine
 10
240.2935655325
 20
155.2614767019
 30
0.0
 11
240.3642647181
 21
155.2206496619
 31
0.0
  0
LINE
  5
115
330
1F
100
AcDbEntity
  8
0
  6
Continuous
 62
     7
370
     0
100
AcDbLine
 10
246.7152082145
 20
154.5910547067
 30
0.0
 11
250.8871382235
 21
156.9994586366
 31
0.0
  0
LINE
  5
116
330
1F
100
AcDbEntity
  8
0
  6
Continuous
 62
     7
370
     0
100
AcDbLine
 10
238.188170319
 20
178.997099741
 30
0.0
 11
234.01624031
 21
176.5886958112
 31
0.0
  0
LWPOLYLINE
  5
117
330
1F
100
AcDbEntity
  8
0
  6
Continuous
 62
     7
370
     0
100
AcDbPolyline
 90
      149
 70
   128
 43
0.0
 10
231.3854681412
 20
170.774066769
 10
231.3900353324
 20
171.102120615
 10
231.4037322606
 20
171.42456761
 10
231.4265449935
 20
171.7410797731
 10
231.4584503272
 20
172.0513351597
 10
231.4994158085
 20
172.3550181897
 10
231.5493997689
 20
172.651819968
 10
231.6083513666
 20
172.9414385988
 10
231.6762106383
 20
173.2235794928
 10
231.75290856
 20
173.4979556669
 10
231.8383671174
 20
173.7642880358
 10
231.9324993853
 20
174.0223056961
 10
232.0352096158
 20
174.2717462018
 10
232.1463933359
 20
174.5123558314
 10
232.2659374537
 20
174.7438898457
 10
232.3937203733
 20
174.9661127368
 10
232.5296121187
 20
175.178798468
 10
232.6734744659
 20
175.3817307032
 10
232.8251610834
 20
175.5747030273
 10
232.9845176812
 20
175.7575191561
 10
233.1513821679
 20
175.9299931357
 10
233.3255848149
 20
176.091949532
 10
233.5069484299
 20
176.2432236091
 10
233.6952885365
 20
176.3836614965
 10
233.8904135622
 20
176.5131203462
 10
234.092125033
 20
176.6314684772
 10
234.3002177756
 20
176.7385855104
 10
234.5144801258
 20
176.8343624902
 10
234.7346941438
 20
176.918701996
 10
234.9606358362
 20
176.9915182406
 10
235.1920753835
 20
177.0527371581
 10
235.428777374
 20
177.1022964789
 10
235.6705010431
 20
177.1401457931
 10
235.9170005187
 20
177.1662466017
 10
236.1680250706
 20
177.1805723561
 10
236.4233193659
 20
177.1831084846
 10
236.6826237288
 20
177.1738524075
 10
236.9456744046
 20
177.1528135398
 10
237.2122038279
 20
177.1200132814
 10
237.4819408949
 20
177.0754849956
 10
237.754611239
 20
177.0192739747
 10
238.0299375101
 20
176.9514373947
 10
238.3076396567
 20
176.8720442563
 10
238.5874352103
 20
176.7811753153
 10
238.8690395734
 20
176.6789230002
 10
239.1521663085
 20
176.5653913183
 10
239.4365274296
 20
176.4406957497
 10
239.7218336952
 20
176.3049631302
 10
240.0077949023
 20
176.1583315219
 10
240.2941201818
 20
176.000950073
 10
240.5805182943
 20
175.8329788661
 10
240.8666979264
 20
175.6545887553
 10
241.1523679866
 20
175.4659611923
 10
241.4372379021
 20
175.2672880421
 10
241.7210179138
 20
175.0587713876
 10
242.0034193713
 20
174.8406233242
 10
242.2841550261
 20
174.613065744
 10
242.5629393246
 20
174.3763301101
 10
242.8394886977
 20
174.1306572212
 10
243.1135218496
 20
173.8762969666
 10
243.384760044
 20
173.613508072
 10
243.6529273875
 20
173.3425578367
 10
243.9177511102
 20
173.0637218611
 10
244.1789618434
 20
172.7772837667
 10
244.4362938932
 20
172.4835349077
 10
244.689485511
 20
172.1827740746
 10
244.9382791597
 20
171.8753071901
 10
245.1824217757
 20
171.561446998
 10
245.4216650261
 20
171.2415127454
 10
245.6557655616
 20
170.9158298573
 10
245.884485264
 20
170.5847296063
 10
246.1075914879
 20
170.2485487752
 10
246.3248572981
 20
169.9076293148
 10
246.5360616998
 20
169.5623179956
 10
246.7409898639
 20
169.2129660554
 10
246.9394333449
 20
168.859928842
 10
247.1311902936
 20
168.5035654518
 10
247.316065662
 20
168.1442383643
 10
247.4938714016
 20
167.7823130736
 10
247.6644266551
 20
167.4181577168
 10
247.82755794
 20
167.052142699
 10
247.9830993253
 20
166.6846403173
 10
248.1308926001
 20
166.3160243812
 10
248.2707874345
 20
165.9466698333
 10
248.4026415327
 20
165.5769523671
 10
248.5263207776
 20
165.2072480457
 10
248.6416993674
 20
164.8379329185
 10
248.7486599431
 20
164.469382639
 10
248.8470937085
 20
164.1019720829
 10
248.9369005404
 20
163.7360749666
 10
249.0179890906
 20
163.372063467
 10
249.0902768789
 20
163.010307843
 10
249.1536903769
 20
162.6511760591
 10
249.2081650826
 20
162.2950334106
 10
249.2536455865
 20
161.9422421527
 10
249.2900856274
 20
161.5931611316
 10
249.3174481399
 20
161.2481454193
 10
249.335705292
 20
160.9075459531
 10
249.3448385129
 20
160.5717091782
 10
249.3448385129
 20
160.240976695
 10
249.335705292
 20
159.9156849126
 10
249.3174481399
 20
159.5961647054
 10
249.2900856274
 20
159.2827410777
 10
249.2536455865
 20
158.9757328322
 10
249.2081650826
 20
158.6754522464
 10
249.1536903769
 20
158.3822047544
 10
249.0902768789
 20
158.0962886368
 10
249.0179890906
 20
157.8179947167
 10
248.9369005404
 20
157.5476060643
 10
248.8470937085
 20
157.2853977091
 10
248.7486599431
 20
157.0316363594
 10
248.6416993674
 20
156.786580132
 10
248.5263207776
 20
156.5504782889
 10
248.4026415327
 20
156.3235709842
 10
248.2707874345
 20
156.1060890194
 10
248.1308926001
 20
155.8982536093
 10
247.9830993253
 20
155.7002761561
 10
247.82755794
 20
155.5123580352
 10
247.6644266551
 20
155.33469039
 10
247.4938714016
 20
155.1674539373
 10
247.316065662
 20
155.0108187839
 10
247.1311902936
 20
154.8649442532
 10
246.9394333449
 20
154.7299787234
 10
246.7409898639
 20
154.6060594763
 10
246.5360616998
 20
154.493312558
 10
246.3248572981
 20
154.3918526505
 10
246.1075914879
 20
154.3017829551
 10
245.884485264
 20
154.2231950872
 10
245.6557655616
 20
154.1561689835
 10
245.4216650261
 20
154.1007728206
 10
245.1824217757
 20
154.0570629452
 10
244.9382791597
 20
154.0250838175
 10
244.689485511
 20
154.0048679654
 10
244.4362938932
 20
153.9964359519
 10
244.1789618434
 20
153.9997963534
 10
243.9177511102
 20
154.0149457521
 10
243.6529273875
 20
154.0418687385
 10
243.384760044
 20
154.0805379276
 10
243.1135218496
 20
154.1309139864
 10
242.8394886977
 20
154.1929456744
 10
242.5629393246
 20
154.2665698952
 10
242.2841550261
 20
154.351711761
 10
242.0034193713
 20
154.4482846686
 10
241.7210179138
 20
154.5561903877
 10
241.4372379021
 20
154.6753191606
 10
241.1523679866
 20
154.8055498139
 10
240.8666979264
 20
154.9467498819
 10
240.5805182943
 20
155.0987757411
 10
240.3642647181
 20
155.2206496619
  0
LWPOLYLINE
  5
118
330
1F
100
AcDbEntity
  8
0
  6
Continuous
 62
     7
370
     0
100
AcDbPolyline
 90
      197
 70
   128
 43
0.0
 10
231.3854681412
 20
170.6924259578
 10
231.3900457213
 20
170.3600234703
 10
231.4037737579
 20
170.0226773873
 10
231.4266381444
 20
169.6807343548
 10
231.4586153861
 20
169.3345457422
 10
231.4996726244
 20
168.9844672819
 10
231.54976767
 20
168.6308587031
 10
231.608849047
 20
168.2740833625
 10
231.6768560452
 20
167.9145078709
 10
231.7537187828
 20
167.5525017164
 10
231.8393582783
 20
167.1884368848
 10
231.9336865311
 20
166.8226874774
 10
232.0366066128
 20
166.4556293264
 10
232.1480127658
 20
166.0876396088
 10
232.2677905129
 20
165.7190964589
 10
232.3958167743
 20
165.3503785799
 10
232.5319599945
 20
164.9818648541
 10
232.676080277
 20
164.6139339544
 10
232.8280295284
 20
164.2469639546
 10
232.9876516108
 20
163.8813319412
 10
233.1547825015
 20
163.5174136259
 10
233.3292504624
 20
163.1555829593
 10
233.5108762157
 20
162.7962117468
 10
233.6994731288
 20
162.4396692667
 10
233.8948474056
 20
162.0863218905
 10
234.0967982857
 20
161.7365327065
 10
234.305118251
 20
161.3906611467
 10
234.5195932388
 20
161.0490626176
 10
234.7400028613
 20
160.7120881347
 10
234.9661206328
 20
160.380083962
 10
235.1977142021
 20
160.0533912564
 10
235.4345455911
 20
159.7323457165
 10
235.6763714395
 20
159.4172772386
 10
235.9229432549
 20
159.1085095766
 10
236.1740076682
 20
158.8063600103
 10
236.4293066935
 20
158.5111390187
 10
236.6885779941
 20
158.2231499614
 10
236.9515551509
 20
157.9426887666
 10
237.2179679374
 20
157.6700436271
 10
237.4875425962
 20
157.4054947043
 10
237.7600021213
 20
157.14931384
 10
238.035066542
 20
156.9017642775
 10
238.3124532111
 20
156.6631003905
 10
238.5918770949
 20
156.4335674224
 10
238.8730510667
 20
156.2134012339
 10
239.155686201
 20
156.0028280605
 10
239.4394920713
 20
155.8020642805
 10
239.7241770477
 20
155.6113161921
 10
240.0094485973
 20
155.4307798021
 10
240.2950135842
 20
155.2606406236
 10
240.5805785711
 20
155.1010734862
 10
240.8658501206
 20
154.9522423559
 10
241.1505350971
 20
154.8143001668
 10
241.4343409673
 20
154.6873886639
 10
241.7169761017
 20
154.5716382571
 10
241.9981500734
 20
154.467167888
 10
242.2775739573
 20
154.3740849068
 10
242.5549606263
 20
154.2924849627
 10
242.830025047
 20
154.222451905
 10
243.1024845721
 20
154.1640576976
 10
243.3720592309
 20
154.1173623443
 10
243.6384720174
 20
154.0824138279
 10
243.9014491743
 20
154.0592480602
 10
244.1607204748
 20
154.0478888458
 10
244.4160195002
 20
154.0483478568
 10
244.6670839134
 20
154.0606246217
 10
244.9136557288
 20
154.0847065253
 10
245.1554815772
 20
154.1205688218
 10
245.3923129662
 20
154.1681746602
 10
245.6239065355
 20
154.2274751224
 10
245.850024307
 20
154.298409273
 10
246.0704339296
 20
154.3809042225
 10
246.2849089173
 20
154.4748752018
 10
246.4932288826
 20
154.5802256492
 10
246.6951797628
 20
154.6968473101
 10
246.8905540395
 20
154.8246203478
 10
247.0791509526
 20
154.963413467
 10
247.2607767059
 20
155.1130840483
 10
247.4352446668
 20
155.273478295
 10
247.6023755575
 20
155.4444313913
 10
247.7619976399
 20
155.6257676712
 10
247.9139468914
 20
155.8173007995
 10
248.0580671738
 20
156.0188339629
 10
248.194210394
 20
156.2301600726
 10
248.3222366554
 20
156.4510619765
 10
248.4420144025
 20
156.6813126832
 10
248.5534205556
 20
156.9206755944
 10
248.6563406372
 20
157.1689047485
 10
248.75066889
 20
157.4257450734
 10
248.8363083855
 20
157.6909326482
 10
248.9131711231
 20
157.9641949747
 10
248.9811781213
 20
158.2452512575
 10
249.0402594983
 20
158.5338126923
 10
249.0903545439
 20
158.8295827625
 10
249.1314117822
 20
159.1322575446
 10
249.1633890239
 20
159.4415260197
 10
249.1862534105
 20
159.7570703935
 10
249.199981447
 20
160.0785664228
 10
249.2045590271
 20
160.4056837489
 10
249.199981447
 20
160.7380862364
 10
249.1862534105
 20
161.0754323194
 10
249.1633890239
 20
161.4173753519
 10
249.1314117822
 20
161.7635639645
 10
249.0903545439
 20
162.1136424248
 10
249.0402594983
 20
162.4672510036
 10
248.9811781213
 20
162.8240263442
 10
248.9131711231
 20
163.1836018358
 10
248.8363083855
 20
163.5456079903
 10
248.75066889
 20
163.9096728218
 10
248.6563406372
 20
164.2754222293
 10
248.5534205556
 20
164.6424803803
 10
248.4420144025
 20
165.0104700979
 10
248.3222366554
 20
165.3790132477
 10
248.194210394
 20
165.7477311268
 10
248.0580671738
 20
166.1162448526
 10
247.9139468914
 20
166.4841757523
 10
247.7619976399
 20
166.8511457521
 10
247.6023755575
 20
167.2167777654
 10
247.4352446668
 20
167.5806960808
 10
247.2607767059
 20
167.9425267474
 10
247.0791509526
 20
168.3018979599
 10
246.8905540395
 20
168.6584404399
 10
246.6951797628
 20
169.0117878161
 10
246.4932288826
 20
169.3615770002
 10
246.2849089173
 20
169.7074485599
 10
246.0704339296
 20
170.0490470891
 10
245.850024307
 20
170.386021572
 10
245.6239065355
 20
170.7180257447
 10
245.3923129662
 20
171.0447184503
 10
245.1554815772
 20
171.3657639901
 10
244.9136557288
 20
171.6808324681
 10
244.6670839134
 20
171.9896001301
 10
244.4160195002
 20
172.2917496964
 10
244.1607204748
 20
172.586970688
 10
243.9014491743
 20
172.8749597453
 10
243.6384720174
 20
173.1554209401
 10
243.3720592309
 20
173.4280660795
 10
243.1024845721
 20
173.6926150023
 10
242.830025047
 20
173.9487958666
 10
242.5549606263
 20
174.1963454292
 10
242.2775739573
 20
174.4350093162
 10
241.9981500734
 20
174.6645422842
 10
241.7169761017
 20
174.8847084728
 10
241.4343409673
 20
175.0952816462
 10
241.1505350971
 20
175.2960454262
 10
240.8658501206
 20
175.4867935145
 10
240.5805785711
 20
175.6673299046
 10
240.2950135842
 20
175.8374690831
 10
240.0094485973
 20
175.9970362205
 10
239.7241770477
 20
176.1458673507
 10
239.4394920713
 20
176.2838095398
 10
239.155686201
 20
176.4107210428
 10
238.8730510667
 20
176.5264714496
 10
238.5918770949
 20
176.6309418187
 10
238.3124532111
 20
176.7240247999
 10
238.035066542
 20
176.805624744
 10
237.7600021213
 20
176.8756578016
 10
237.4875425962
 20
176.9340520091
 10
237.2179679374
 20
176.9807473623
 10
236.9515551509
 20
177.0156958788
 10
236.6885779941
 20
177.0388616464
 10
236.4293066935
 20
177.0502208609
 10
236.1740076682
 20
177.0497618499
 10
235.9229432549
 20
177.0374850849
 10
235.6763714395
 20
177.0134031813
 10
235.4345455911
 20
176.9775408849
 10
235.1977142021
 20
176.9299350465
 10
234.9661206328
 20
176.8706345843
 10
234.7400028613
 20
176.7997004337
 10
234.5195932388
 20
176.7172054841
 10
234.305118251
 20
176.6232345049
 10
234.0967982857
 20
176.5178840575
 10
233.8948474056
 20
176.4012623966
 10
233.6994731288
 20
176.2734893588
 10
233.5108762157
 20
176.1346962397
 10
233.3292504624
 20
175.9850256584
 10
233.1547825015
 20
175.8246314117
 10
232.9876516108
 20
175.6536783154
 10
232.8280295284
 20
175.4723420355
 10
232.676080277
 20
175.2808089072
 10
232.5319599945
 20
175.0792757437
 10
232.3958167743
 20
174.8679496341
 10
232.2677905129
 20
174.6470477301
 10
232.1480127658
 20
174.4167970235
 10
232.0366066128
 20
174.1774341123
 10
231.9336865311
 20
173.9292049581
 10
231.8393582783
 20
173.6723646333
 10
231.7537187828
 20
173.4071770585
 10
231.6768560452
 20
173.1339147319
 10
231.608849047
 20
172.8528584491
 10
231.54976767
 20
172.5642970144
 10
231.4996726244
 20
172.2685269442
 10
231.4586153861
 20
171.9658521621
 10
231.4266381444
 20
171.656583687
 10
231.4037737579
 20
171.3410393132
 10
231.3900457213
 20
171.0195432838
 10
231.3854681412
 20
170.6924259578
  0
LWPOLYLINE
  5
119
330
1F
100
AcDbEntity
  8
0
  6
Continuous
 62
     7
370
     0
100
AcDbPolyline
 90
      101
 70
   128
 43
0.0
 10
238.188170319
 20
178.997099741
 10
238.264055042
 20
179.0398724071
 10
238.4721477846
 20
179.1469894403
 10
238.6864101348
 20
179.2427664201
 10
238.9066241528
 20
179.3271059258
 10
239.1325658452
 20
179.3999221704
 10
239.3640053925
 20
179.4611410879
 10
239.600707383
 20
179.5107004087
 10
239.8424310521
 20
179.5485497229
 10
240.0889305277
 20
179.5746505316
 10
240.3399550796
 20
179.588976286
 10
240.5952493749
 20
179.5915124145
 10
240.8545537378
 20
179.5822563374
 10
241.1176044136
 20
179.5612174697
 10
241.3841338369
 20
179.5284172113
 10
241.6538709039
 20
179.4838889254
 10
241.926541248
 20
179.4276779046
 10
242.2018675191
 20
179.3598413246
 10
242.4795696657
 20
179.2804481862
 10
242.7593652193
 20
179.1895792452
 10
243.0409695824
 20
179.0873269301
 10
243.3240963175
 20
178.9737952482
 10
243.6084574386
 20
178.8490996796
 10
243.8937637042
 20
178.7133670601
 10
244.1797249113
 20
178.5667354517
 10
244.4660501908
 20
178.4093540029
 10
244.7524483033
 20
178.241382796
 10
245.0386279354
 20
178.0629926851
 10
245.3242979956
 20
177.8743651221
 10
245.6091679111
 20
177.6756919719
 10
245.8929479228
 20
177.4671753174
 10
246.1753493803
 20
177.249027254
 10
246.4560850351
 20
177.0214696738
 10
246.7348693336
 20
176.78473404
 10
247.0114187067
 20
176.539061151
 10
247.2854518586
 20
176.2847008964
 10
247.556690053
 20
176.0219120019
 10
247.8248573965
 20
175.7509617666
 10
248.0896811192
 20
175.4721257909
 10
248.3508918524
 20
175.1856876965
 10
248.6082239022
 20
174.8919388376
 10
248.86141552
 20
174.5911780045
 10
249.1102091687
 20
174.28371112
 10
249.3543517847
 20
173.9698509279
 10
249.5935950351
 20
173.6499166752
 10
249.8276955706
 20
173.3242337871
 10
250.056415273
 20
172.9931335361
 10
250.2795214969
 20
172.6569527051
 10
250.4967873071
 20
172.3160332447
 10
250.7079917088
 20
171.9707219255
 10
250.9129198729
 20
171.6213699853
 10
251.1113633539
 20
171.2683327719
 10
251.3031203026
 20
170.9119693816
 10
251.487995671
 20
170.5526422941
 10
251.6658014106
 20
170.1907170035
 10
251.8363566641
 20
169.8265616467
 10
251.999487949
 20
169.4605466289
 10
252.1550293343
 20
169.0930442471
 10
252.3028226091
 20
168.7244283111
 10
252.4427174435
 20
168.3550737631
 10
252.5745715417
 20
167.985356297
 10
252.6982507866
 20
167.6156519756
 10
252.8136293764
 20
167.2463368483
 10
252.9205899521
 20
166.8777865689
 10
253.0190237175
 20
166.5103760128
 10
253.1088305494
 20
166.1444788965
 10
253.1899190996
 20
165.7804673969
 10
253.2622068879
 20
165.4187117729
 10
253.3256203859
 20
165.0595799889
 10
253.3800950916
 20
164.7034373405
 10
253.4255755955
 20
164.3506460826
 10
253.4620156364
 20
164.0015650614
 10
253.4893781489
 20
163.6565493492
 10
253.507635301
 20
163.315949883
 10
253.5167685219
 20
162.980113108
 10
253.5167685219
 20
162.6493806249
 10
253.507635301
 20
162.3240888424
 10
253.4893781489
 20
162.0045686353
 10
253.4620156364
 20
161.6911450076
 10
253.4255755955
 20
161.3841367621
 10
253.3800950916
 20
161.0838561763
 10
253.3256203859
 20
160.7906086843
 10
253.2622068879
 20
160.5046925667
 10
253.1899190996
 20
160.2263986465
 10
253.1088305494
 20
159.9560099942
 10
253.0190237175
 20
159.6938016389
 10
252.9205899521
 20
159.4400402893
 10
252.8136293764
 20
159.1949840619
 10
252.6982507866
 20
158.9588822188
 10
252.5745715417
 20
158.7319749141
 10
252.4427174435
 20
158.5144929493
 10
252.3028226091
 20
158.3066575391
 10
252.1550293343
 20
158.108680086
 10
251.999487949
 20
157.9207619651
 10
251.8363566641
 20
157.7430943199
 10
251.6658014106
 20
157.5758578672
 10
251.487995671
 20
157.4192227138
 10
251.3031203026
 20
157.2733481831
 10
251.1113633539
 20
157.1383826532
 10
250.9129198729
 20
157.0144634062
 10
250.8871382235
 20
156.9994586366
  0
ENDSEC
  0
SECTION
  2
OBJECTS
  0
DICTIONARY
  5
C
330
0
100
AcDbDictionary
281
     1
  3
ACAD_GROUP
350
D
  3
ACAD_LAYOUT
350
1A
  3
ACAD_MLINESTYLE
350
17
  3
ACAD_PLOTSETTINGS
350
19
  3
ACAD_PLOTSTYLENAME
350
E
  0
DICTIONARY
  5
D
102
{ACAD_REACTORS
330
C
102
}
330
C
100
AcDbDictionary
281
     1
  0
DICTIONARY
  5
1A
102
{ACAD_REACTORS
330
C
102
}
330
C
100
AcDbDictionary
281
     1
  3
Layout1
350
1E
  3
Layout2
350
26
  3
Model
350
22
  0
DICTIONARY
  5
17
102
{ACAD_REACTORS
330
C
102
}
330
C
100
AcDbDictionary
281
     1
  3
Standard
350
18
  0
DICTIONARY
  5
19
102
{ACAD_REACTORS
330
C
102
}
330
C
100
AcDbDictionary
281
     1
  0
ACDBDICTIONARYWDFLT
  5
E
102
{ACAD_REACTORS
330
C
102
}
330
C
100
AcDbDictionary
281
     1
  3
Normal
350
F
100
AcDbDictionaryWithDefault
340
F
  0
LAYOUT
  5
1E
102
{ACAD_REACTORS
330
1A
102
}
330
1A
100
AcDbPlotSettings
  1

  2

  4

  6

 40
0.0
 41
0.0
 42
0.0
 43
0.0
 44
0.0
 45
0.0
 46
0.0
 47
0.0
 48
0.0
 49
0.0
140
0.0
141
0.0
142
1.0
143
1.0
 70
   688
 72
     0
 73
     0
 74
     5
  7

 75
    16
147
1.0
148
0.0
149
0.0
100
AcDbLayout
  1
Layout1
 70
     1
 71
     1
 10
0.0
 20
0.0
 11
0.0
 21
0.0
 12
0.0
 22
0.0
 32
0.0
 14
0.0
 24
0.0
 34
0.0
 15
0.0
 25
0.0
 35
0.0
146
0.0
 13
0.0
 23
0.0
 33
0.0
 16
1.0
 26
0.0
 36
0.0
 17
0.0
 27
1.0
 37
0.0
 76
     0
330
1B
  0
LAYOUT
  5
26
102
{ACAD_REACTORS
330
1A
102
}
330
1A
100
AcDbPlotSettings
  1

  2

  4

  6

 40
0.0
 41
0.0
 42
0.0
 43
0.0
 44
0.0
 45
0.0
 46
0.0
 47
0.0
 48
0.0
 49
0.0
140
0.0
141
0.0
142
1.0
143
1.0
 70
   688
 72
     0
 73
     0
 74
     5
  7

 75
    16
147
1.0
148
0.0
149
0.0
100
AcDbLayout
  1
Layout2
 70
     1
 71
     2
 10
0.0
 20
0.0
 11
0.0
 21
0.0
 12
0.0
 22
0.0
 32
0.0
 14
0.0
 24
0.0
 34
0.0
 15
0.0
 25
0.0
 35
0.0
146
0.0
 13
0.0
 23
0.0
 33
0.0
 16
1.0
 26
0.0
 36
0.0
 17
0.0
 27
1.0
 37
0.0
 76
     0
330
23
  0
LAYOUT
  5
22
102
{ACAD_REACTORS
330
1A
102
}
330
1A
100
AcDbPlotSettings
  1

  2

  4

  6

 40
0.0
 41
0.0
 42
0.0
 43
0.0
 44
0.0
 45
0.0
 46
0.0
 47
0.0
 48
0.0
 49
0.0
140
0.0
141
0.0
142
1.0
143
1.0
 70
  1712
 72
     0
 73
     0
 74
     0
  7

 75
     0
147
1.0
148
0.0
149
0.0
100
AcDbLayout
  1
Model
 70
     1
 71
     0
 10
0.0
 20
0.0
 11
0.0
 21
0.0
 12
0.0
 22
0.0
 32
0.0
 14
0.0
 24
0.0
 34
0.0
 15
279.4
 25
215.9
 35
0.0
146
0.0
 13
0.0
 23
0.0
 33
0.0
 16
1.0
 26
0.0
 36
0.0
 17
0.0
 27
1.0
 37
0.0
 76
     0
330
1F
  0
MLINESTYLE
  5
18
102
{ACAD_REACTORS
330
17
102
}
330
17
100
AcDbMlineStyle
  2
Standard
 70
     0
  3

 62
   256
 51
90.0
 52
90.0
 71
     2
 49
0.5
 62
   256
  6
BYLAYER
 49
-0.5
 62
   256
  6
BYLAYER
  0
ACDBPLACEHOLDER
  5
F
102
{ACAD_REACTORS
330
E
102
}
330
E
  0
ENDSEC
  0
EOF
