  0
SECTION
  2
HEADER
  9
$ACADVER
  1
AC1012
  9
$DWGCODEPAGE
  3
ansi_1252
  9
$INSBASE
 10
0.0
 20
0.0
 30
0.0
  9
$EXTMIN
 10
0.0
 20
0.0
 30
0.0
  9
$EXTMAX
 10
11.0
 20
8.5
 30
0.0
  9
$LIMMIN
 10
0.0
 20
0.0
  9
$LIMMAX
 10
0.0
 20
0.0
  9
$ORTHOMODE
 70
         0
  9
$REGENMODE
 70
         1
  9
$FILLMODE
 70
         1
  9
$QTEXTMODE
 70
         0
  9
$MIRRTEXT
 70
         1
  9
$DRAGMODE
 70
         2
  9
$LTSCALE
 40
1.0
  9
$OSMODE
 70
         0
  9
$ATTMODE
 70
         1
  9
$TEXTSIZE
 40
0.1111111111
  9
$TRACEWID
 40
0.05
  9
$TEXTSTYLE
  7
STANDARD
  9
$CLAYER
  8
0
  9
$CELTYPE
  6
CONTINUOUS
  9
$CECOLOR
 62
       256
  9
$CELTSCALE
 40
1.0
  9
$DELOBJ
 70
         1
  9
$DISPSILH
 70
         0
  9
$DIMSCALE
 40
1.0
  9
$DIMASZ
 40
39.3700787402
  9
$DIMEXO
 40
0.0
  9
$DIMDLI
 40
0.38
  9
$DIMRND
 40
0.0
  9
$DIMDLE
 40
39.3700787402
  9
$DIMEXE
 40
0.18
  9
$DIMTP
 40
0.0
  9
$DIMTM
 40
0.0
  9
$DIMTXT
 40
0.1111111111
  9
$DIMCEN
 40
0.09
  9
$DIMTSZ
 40
0.0
  9
$DIMTOL
 70
         0
  9
$DIMLIM
 70
         0
  9
$DIMTIH
 70
         1
  9
$DIMTOH
 70
         1
  9
$DIMSE1
 70
         0
  9
$DIMSE2
 70
         0
  9
$DIMTAD
 70
         0
  9
$DIMZIN
 70
         1
  9
$DIMBLK
  1

  9
$DIMASO
 70
         1
  9
$DIMSHO
 70
         1
  9
$DIMPOST
  1

  9
$DIMAPOST
  1

  9
$DIMALT
 70
         0
  9
$DIMALTD
 70
         2
  9
$DIMALTF
 40
25.4
  9
$DIMLFAC
 40
1.0
  9
$DIMTOFL
 70
         0
  9
$DIMTVP
 40
0.0
  9
$DIMTIX
 70
         0
  9
$DIMSOXD
 70
         0
  9
$DIMSAH
 70
         0
  9
$DIMBLK1
  1

  9
$DIMBLK2
  1

  9
$DIMSTYLE
  2
STANDARD
  9
$DIMCLRD
 70
         0
  9
$DIMCLRE
 70
         0
  9
$DIMCLRT
 70
         0
  9
$DIMTFAC
 40
1.0
  9
$DIMGAP
 40
0.0
  9
$DIMJUST
 70
         0
  9
$DIMSD1
 70
         0
  9
$DIMSD2
 70
         0
  9
$DIMTOLJ
 70
         1
  9
$DIMTZIN
 70
         1
  9
$DIMALTZ
 70
         0
  9
$DIMALTTZ
 70
         0
  9
$DIMFIT
 70
         3
  9
$DIMUPT
 70
         0
  9
$DIMUNIT
 70
         2
  9
$DIMDEC
 70
         4
  9
$DIMTDEC
 70
         4
  9
$DIMALTU
 70
         2
  9
$DIMALTTD
 70
         2
  9
$DIMTXSTY
  7
STANDARD
  9
$DIMAUNIT
 70
         0
  9
$LUNITS
 70
         2
  9
$LUPREC
 70
         2
  9
$SKETCHINC
 40
0.1
  9
$FILLETRAD
 40
0.0
  9
$AUNITS
 70
         0
  9
$AUPREC
 70
         2
  9
$MENU
  1
acad
  9
$ELEVATION
 40
0.0
  9
$PELEVATION
 40
0.0
  9
$THICKNESS
 40
0.0
  9
$LIMCHECK
 70
         0
  9
$BLIPMODE
 70
         1
  9
$CHAMFERA
 40
0.0
  9
$CHAMFERB
 40
0.0
  9
$CHAMFERC
 40
0.0
  9
$CHAMFERD
 40
0.0
  9
$SKPOLY
 70
         0
  9
$TDCREATE
 40
0.000000000
  9
$TDUPDATE
 40
0.000000000
  9
$TDINDWG
 40
0.0000000000
  9
$TDUSRTIMER
 40
0.0000000000
  9
$USRTIMER
 70
         1
  9
$ANGBASE
 50
0.0
  9
$ANGDIR
 70
         0
  9
$PDMODE
 70
         0
  9
$PDSIZE
 40
-1.0
  9
$PLINEWID
 40
0.0
  9
$COORDS
 70
         0
  9
$SPLFRAME
 70
         0
  9
$SPLINETYPE
 70
         6
  9
$SPLINESEGS
 70
         8
  9
$ATTDIA
 70
         0
  9
$ATTREQ
 70
         1
  9
$HANDLING
 70
         1
  9
$HANDSEED
  5
5E9
  9
$SURFTAB1
 70
         6
  9
$SURFTAB2
 70
         6
  9
$SURFTYPE
 70
         6
  9
$SURFU
 70
         6
  9
$SURFV
 70
         6
  9
$UCSNAME
  2

  9
$UCSORG
 10
0.0
 20
0.0
 30
0.0
  9
$UCSXDIR
 10
1.0
 20
0.0
 30
0.0
  9
$UCSYDIR
 10
0.0
 20
1.0
 30
0.0
  9
$PUCSNAME
  2

  9
$PUCSORG
 10
0.0
 20
0.0
 30
0.0
  9
$PUCSXDIR
 10
1.0
 20
0.0
 30
0.0
  9
$PUCSYDIR
 10
0.0
 20
1.0
 30
0.0
  9
$USERI1
 70
         0
  9
$USERI2
 70
         0
  9
$USERI3
 70
         0
  9
$USERI4
 70
         0
  9
$USERI5
 70
         0
  9
$USERR1
 40
0.0
  9
$USERR2
 40
0.0
  9
$USERR3
 40
0.0
  9
$USERR4
 40
0.0
  9
$USERR5
 40
0.0
  9
$WORLDVIEW
 70
         1
  9
$SHADEDGE
 70
         3
  9
$SHADEDIF
 70
        70
  9
$TILEMODE
 70
         1
  9
$MAXACTVP
 70
        16
  9
$PINSBASE
 10
0.0
 20
0.0
 30
0.0
  9
$PLIMCHECK
 70
         0
  9
$PEXTMIN
 10
1.0000000000E+20
 20
1.0000000000E+20
 30
1.0000000000E+20
  9
$PEXTMAX
 10
-1.0000000000E+20
 20
-1.0000000000E+20
 30
-1.0000000000E+20
  9
$PLIMMIN
 10
0.0
 20
0.0
  9
$PLIMMAX
 10
12.0
 20
9.0
  9
$UNITMODE
 70
         0
  9
$VISRETAIN
 70
         0
  9
$PLINEGEN
 70
         1
  9
$PSLTSCALE
 70
         1
  9
$TREEDEPTH
 70
      3020
  9
$PICKSTYLE
 70
         1
  9
$CMLSTYLE
  2
STANDARD
  9
$CMLJUST
 70
         0
  9
$CMLSCALE
 40
1.0
  9
$SAVEIMAGES
 70
         0
  0
ENDSEC
  0
SECTION
  2
CLASSES
  0
CLASS
  1
LWPOLYLINE
  2
AcDbPolyline
  3
"AutoCAD"
 90
    32768
280
         0
281
         1
  0
CLASS
  1
IMAGE
  2
AcDbRasterImage
  3
ISM
 90
    32895
280
         0
281
         1
  0
CLASS
  1
OLE2FRAME
  2
AcDbOle2Frame
  3
""
 90
    32768
280
         0
281
         1
  0
CLASS
  1
HATCH
  2
AcDbHatch
  3
"ACAD_SEDONA"
 90
    32768
280
         0
281
         1
  0
CLASS
  1
DICTIONARYVAR
  2
AcDbDictionaryVar
  3
"AutoCAD"
 90
    32768
280
         0
281
         0
  0
CLASS
  1
RASTERVARIABLES
  2
AcDbRasterVariables
  3
ISM
 90
    32768
280
         0
281
         0
  0
CLASS
  1
IMAGEDEF
  2
AcDbRasterImageDef
  3
ISM
 90
    32768
280
         0
281
         0
  0
CLASS
  1
IMAGEDEF_REACTOR
  2
AcDbRasterImageDefReactor
  3
ISM
 90
    32769
280
         0
281
         0
  0
CLASS
  1
IDBUFFER
  2
AcDbIdBuffer
  3
"Acad"
 90
    32768
280
         0
281
         0
  0
CLASS
  1
SPATIAL_FILTER
  2
AcDbSpatialFilter
  3
"Acad"
 90
    32768
280
         0
281
         0
  0
CLASS
  1
XRECORD
  2
AcDbXrecord
  3
"<Built In>"
 90
    32768
280
         0
281
         0
  0
CLASS
  1
SORTENTSTABLE
  2
AcDbSortentsTable
  3
"AutoCAD"
 90
    32768
280
         0
281
         0
  0
CLASS
  1
LAYER_INDEX
  2
AcDbLayerIndex
  3
"Acad"
 90
    32768
280
         0
281
         0
  0
CLASS
  1
SPATIAL_INDEX
  2
AcDbSpatialIndex
  3
"Acad"
 90
    32768
280
         0
281
         0
  0
CLASS
  1
OBJECT_PTR
  2
CAseDLPNTableRecord
  3
"ASE-LPNTableRecord"
 90
    32769
280
         0
281
         0
  0
CLASS
  1
LAYOUT
  2
AcDbLayout
  3
"AutoCAD 2000"
 90
    32768
280
         0
281
         0
  0
CLASS
  1
PLOTSETTINGS
  2
AcDbPlotSettings
  3
"AutoCAD 2000"
 90
    32768
280
         0
281
         0
  0
CLASS
  1
ACDBDICTIONARYWDFLT
  2
AcDbDictionaryWithDefault
  3
"AutoCAD 2000"
 90
    32768
280
         0
281
         0
  0
CLASS
  1
ACDBPLACEHOLDER
  2
AcDbPlaceHolder
  3
"AutoCAD 2000"
 90
    32768
280
         0
281
         0
  0
CLASS
  1
VBA_PROJECT
  2
AcDbVbaProject
  3
"acadvba"
 90
    32768
280
         0
281
         0
  0
CLASS
  1
WIPEOUT
  2
AcDbWipeout
  3
WipeOut|AutoCAD Express Tool|expresstools@autodesk.com
 90
    32895
280
         0
281
         1
  0
CLASS
  1
WIPEOUTVARIABLES
  2
AcDbWipeoutVariables
  3
WipeOut|AutoCAD Express Tool|expresstools@autodesk.com
 90
    32768
280
         0
281
         0
  0
CLASS
  1
RTEXT
  2
RText
  3
RText|AutoCAD Express Tool|expresstools@autodesk.com
 90
    32768
280
         0
281
         1
  0
CLASS
  1
ARCALIGNEDTEXT
  2
AcDbArcAlignedText
  3
ATEXT|AutoCAD Express Tool|expresstools@autodesk.com
 90
    32768
280
         0
281
         1
  0
ENDSEC
  0
SECTION
  2
TABLES
  0
TABLE
  2
VPORT
  5
7
100
AcDbSymbolTable
 70
         1
  0
VPORT
  5
15
100
AcDbSymbolTableRecord
100
AcDbViewportTableRecord
  2
*ACTIVE
 70
         0
 10
0.0
 20
0.0
 11
1.0
 21
1.0
 12
5.5
 22
4.25
 13
0.0
 23
0.0
 14
1.0
 24
1.0
 15
0.0
 25
0.0
 16
0.0
 26
0.0
 36
1.0
 17
0.0
 27
0.0
 37
0.0
 40
8.5
 41
0.7727272727
 42
50.0
 43
0.0
 44
0.0
 50
0.0
 51
0.0
 71
         0
 72
      2000
 73
         1
 74
         1
 75
         0
 76
         0
 77
         0
 78
         0
  0
ENDTAB
  0
TABLE
  2
LTYPE
  5
4
100
AcDbSymbolTable
 70
         8
  0
LTYPE
  5
11
100
AcDbSymbolTableRecord
100
AcDbLinetypeTableRecord
  2
BYBLOCK
 70
        64
  3

 72
        65
 73
         0
 40
0.0
  0
LTYPE
  5
12
100
AcDbSymbolTableRecord
100
AcDbLinetypeTableRecord
  2
BYLAYER
 70
        64
  3

 72
        65
 73
         0
 40
0.0
  0
LTYPE
  5
13
100
AcDbSymbolTableRecord
100
AcDbLinetypeTableRecord
  2
CONTINUOUS
 70
        64
  3
Solid line
 72
        65
 73
         0
 40
0.0
  0
LTYPE
  5
1D
100
AcDbSymbolTableRecord
100
AcDbLinetypeTableRecord
  2
HIDDEN
 70
        64
  3
Hidden __ __ __ __ __ __ __ __ __ __ __ __ __ __
 72
        65
 73
         2
 40
0.075
 49
0.05
 74
         0
 49
-0.025
 74
         0
  0
LTYPE
  5
1E
100
AcDbSymbolTableRecord
100
AcDbLinetypeTableRecord
  2
PHANTOM
 70
        64
  3
Phantom ______  __  __  ______  __  __  ______
 72
        65
 73
         6
 40
0.5
 49
0.25
 74
         0
 49
-0.05
 74
         0
 49
0.05
 74
         0
 49
-0.05
 74
         0
 49
0.05
 74
         0
 49
-0.05
 74
         0
  0
LTYPE
  5
1F
100
AcDbSymbolTableRecord
100
AcDbLinetypeTableRecord
  2
CENTER
 70
        64
  3
Center ____ _ ____ _ ____ _ ____ _ ____ _ ____
 72
        65
 73
         4
 40
0.4
 49
0.25
 74
         0
 49
-0.05
 74
         0
 49
0.05
 74
         0
 49
-0.05
 74
         0
  0
LTYPE
  5
20
100
AcDbSymbolTableRecord
100
AcDbLinetypeTableRecord
  2
CENTERX2
 70
        64
  3
Center (2x) ________  __  ________  __  _____
 72
        65
 73
         4
 40
0.8
 49
0.5
 74
         0
 49
-0.1
 74
         0
 49
0.1
 74
         0
 49
-0.1
 74
         0
  0
LTYPE
  5
21
100
AcDbSymbolTableRecord
100
AcDbLinetypeTableRecord
  2
DOT2
 70
        64
  3
Dot (.5x) ........................................
 72
        65
 73
         2
 40
0.025
 49
0.0
 74
         0
 49
-0.025
 74
         0
  0
ENDTAB
  0
TABLE
  2
LAYER
  5
2
100
AcDbSymbolTable
 70
         3
  0
LAYER
  5
14
100
AcDbSymbolTableRecord
100
AcDbLayerTableRecord
  2
0
 70
         0
 62
         7
  6
CONTINUOUS
  0
LAYER
  5
23
100
AcDbSymbolTableRecord
100
AcDbLayerTableRecord
  2
DEFPOINTS
 70
         0
 62
         7
  6
CONTINUOUS
  0
LAYER
  5
24
100
AcDbSymbolTableRecord
100
AcDbLayerTableRecord
  2
FORMAT
 70
         0
 62
         7
  6
CONTINUOUS
  0
ENDTAB
  0
TABLE
  2
STYLE
  5
3
100
AcDbSymbolTable
 70
         2
  0
STYLE
  5
17
100
AcDbSymbolTableRecord
100
AcDbTextStyleTableRecord
  2
STANDARD
 70
         0
 40
0.0
 41
1.0
 50
0.0
 71
         0
 42
0.0
  3
txt
  4

  0
STYLE
  5
45
100
AcDbSymbolTableRecord
100
AcDbTextStyleTableRecord
  2
SLDTEXTSTYLE0
 70
         0
 40
0.0
 41
0.75
 50
0.0
 71
         0
 42
0.0
  3
TXT
  4

  0
ENDTAB
  0
TABLE
  2
VIEW
  5
5
100
AcDbSymbolTable
 70
         0
  0
ENDTAB
  0
TABLE
  2
UCS
  5
6
100
AcDbSymbolTable
 70
         0
  0
ENDTAB
  0
TABLE
  2
APPID
  5
8
100
AcDbSymbolTable
 70
         1
  0
APPID
  5
16
100
AcDbSymbolTableRecord
100
AcDbRegAppTableRecord
  2
ACAD
 70
         0
  0
ENDTAB
  0
TABLE
  2
DIMSTYLE
  5
9
100
AcDbSymbolTable
 70
         5
  0
DIMSTYLE
105
18
100
AcDbSymbolTableRecord
100
AcDbDimStyleTableRecord
  2
STANDARD
 70
         0
  3

  4

  5

  6

  7

 40
1.0
 41
0.18
 42
0.0625
 43
0.38
 44
0.18
 45
0.0
 46
0.0
 47
0.0
 48
0.0
 71
         0
 72
         0
 73
         1
 74
         1
 75
         0
 76
         0
 77
         0
 78
         0
140
0.18
141
0.09
142
0.0
143
25.4
144
1.0
145
0.0
146
1.0
147
0.09
170
         0
171
         2
172
         0
173
         0
174
         0
175
         0
176
         0
177
         0
178
         0
270
         2
271
         4
272
         4
273
         2
274
         2
275
         0
280
         0
281
         0
282
         0
283
         1
284
         0
285
         0
286
         0
287
         3
288
         0
340
17
  0
DIMSTYLE
105
EB
100
AcDbSymbolTableRecord
100
AcDbDimStyleTableRecord
  2
SLDDIMSTYLE0
 70
         0
  3

  4

  5

  6

  7

 40
1.0
 41
0.125
 42
0.0625
 43
0.38
 44
0.07
 45
0.0
 46
0.0
 47
0.0
 48
0.0
 71
         0
 72
         0
 73
         1
 74
         1
 75
         0
 76
         0
 77
         0
 78
         8
140
0.1111111111
141
0.09
142
0.0
143
25.4
144
1.0
145
0.0
146
1.0
147
0.0277777778
170
         0
171
         2
172
         0
173
         1
174
         0
175
         0
176
         7
177
         7
178
         7
270
         2
271
         2
272
         4
273
         2
274
         2
275
         0
280
         0
281
         0
282
         0
283
         1
284
        12
285
         0
286
         0
287
         3
288
         0
340
45
  0
DIMSTYLE
105
FA
100
AcDbSymbolTableRecord
100
AcDbDimStyleTableRecord
  2
SLDDIMSTYLE1
 70
         0
  3

  4

  5

  6

  7

 40
1.0
 41
0.125
 42
0.0625
 43
0.38
 44
0.07
 45
0.0
 46
0.0
 47
0.0
 48
0.0
 71
         0
 72
         0
 73
         1
 74
         1
 75
         0
 76
         0
 77
         0
 78
        12
140
0.1111111111
141
0.09
142
0.0
143
25.4
144
1.0
145
0.0
146
1.0
147
0.0277777778
170
         0
171
         2
172
         0
173
         1
174
         0
175
         0
176
         7
177
         7
178
         7
270
         2
271
         2
272
         4
273
         2
274
         2
275
         0
280
         0
281
         0
282
         0
283
         1
284
        12
285
         0
286
         0
287
         3
288
         0
340
45
  0
DIMSTYLE
105
100
100
AcDbSymbolTableRecord
100
AcDbDimStyleTableRecord
  2
SLDDIMSTYLE2
 70
         0
  3

  4

  5

  6

  7

 40
1.0
 41
0.125
 42
0.0625
 43
0.38
 44
0.0
 45
0.0
 46
0.0
 47
0.0
 48
0.0
 71
         0
 72
         0
 73
         1
 74
         1
 75
         0
 76
         0
 77
         0
 78
         0
140
0.125
141
0.09
142
0.0
143
25.4
144
1.0
145
0.0
146
1.0
147
0.03125
170
         0
171
         2
172
         0
173
         1
174
         0
175
         0
176
         0
177
         0
178
         0
270
         2
271
         0
272
         0
273
         2
274
         2
275
         0
280
         0
281
         0
282
         0
283
         1
284
         0
285
         0
286
         0
287
         3
288
         0
340
17
  0
DIMSTYLE
105
162
100
AcDbSymbolTableRecord
100
AcDbDimStyleTableRecord
  2
SLDDIMSTYLE3
 70
         0
  3

  4

  5

  6

  7

 40
1.0
 41
0.125
 42
0.0625
 43
0.38
 44
0.07
 45
0.0
 46
0.0
 47
0.0
 48
0.0
 71
         0
 72
         0
 73
         1
 74
         1
 75
         0
 76
         0
 77
         0
 78
         0
140
0.1111111111
141
0.09
142
0.0
143
25.4
144
1.0
145
0.0
146
1.0
147
0.0277777778
170
         0
171
         2
172
         0
173
         1
174
         0
175
         0
176
         7
177
         7
178
         7
270
         2
271
         2
272
         4
273
         2
274
         2
275
         0
280
         0
281
         0
282
         0
283
         1
284
        12
285
         0
286
         0
287
         3
288
         0
340
45
  0
ENDTAB
  0
TABLE
  2
BLOCK_RECORD
  5
1
100
AcDbSymbolTable
 70
        30
  0
BLOCK_RECORD
  5
A
100
AcDbSymbolTableRecord
100
AcDbBlockTableRecord
  2
*MODEL_SPACE
  0
BLOCK_RECORD
  5
B
100
AcDbSymbolTableRecord
100
AcDbBlockTableRecord
  2
*PAPER_SPACE
  0
BLOCK_RECORD
  5
51
100
AcDbSymbolTableRecord
100
AcDbBlockTableRecord
  2
NOTE11
  0
BLOCK_RECORD
  5
6B
100
AcDbSymbolTableRecord
100
AcDbBlockTableRecord
  2
NOTE16
  0
BLOCK_RECORD
  5
73
100
AcDbSymbolTableRecord
100
AcDbBlockTableRecord
  2
NOTE21
  0
BLOCK_RECORD
  5
79
100
AcDbSymbolTableRecord
100
AcDbBlockTableRecord
  2
NOTE22
  0
BLOCK_RECORD
  5
7D
100
AcDbSymbolTableRecord
100
AcDbBlockTableRecord
  2
NOTE23
  0
BLOCK_RECORD
  5
81
100
AcDbSymbolTableRecord
100
AcDbBlockTableRecord
  2
NOTE24
  0
BLOCK_RECORD
  5
85
100
AcDbSymbolTableRecord
100
AcDbBlockTableRecord
  2
NOTE25
  0
BLOCK_RECORD
  5
89
100
AcDbSymbolTableRecord
100
AcDbBlockTableRecord
  2
NOTE26
  0
BLOCK_RECORD
  5
8D
100
AcDbSymbolTableRecord
100
AcDbBlockTableRecord
  2
NOTE27
  0
BLOCK_RECORD
  5
91
100
AcDbSymbolTableRecord
100
AcDbBlockTableRecord
  2
NOTE28
  0
BLOCK_RECORD
  5
95
100
AcDbSymbolTableRecord
100
AcDbBlockTableRecord
  2
NOTE29
  0
BLOCK_RECORD
  5
99
100
AcDbSymbolTableRecord
100
AcDbBlockTableRecord
  2
NOTE30
  0
BLOCK_RECORD
  5
9D
100
AcDbSymbolTableRecord
100
AcDbBlockTableRecord
  2
NOTE31
  0
BLOCK_RECORD
  5
A1
100
AcDbSymbolTableRecord
100
AcDbBlockTableRecord
  2
NOTE32
  0
BLOCK_RECORD
  5
AA
100
AcDbSymbolTableRecord
100
AcDbBlockTableRecord
  2
NOTE34
  0
BLOCK_RECORD
  5
BE
100
AcDbSymbolTableRecord
100
AcDbBlockTableRecord
  2
NOTE45
  0
BLOCK_RECORD
  5
C4
100
AcDbSymbolTableRecord
100
AcDbBlockTableRecord
  2
NOTE46
  0
BLOCK_RECORD
  5
E1
100
AcDbSymbolTableRecord
100
AcDbBlockTableRecord
  2
*D17
  0
BLOCK_RECORD
  5
F0
100
AcDbSymbolTableRecord
100
AcDbBlockTableRecord
  2
*D18
  0
BLOCK_RECORD
  5
101
100
AcDbSymbolTableRecord
100
AcDbBlockTableRecord
  2
NOTE48
  0
BLOCK_RECORD
  5
108
100
AcDbSymbolTableRecord
100
AcDbBlockTableRecord
  2
SW_CENTERMARK0
  0
BLOCK_RECORD
  5
13B
100
AcDbSymbolTableRecord
100
AcDbBlockTableRecord
  2
*D21
  0
BLOCK_RECORD
  5
149
100
AcDbSymbolTableRecord
100
AcDbBlockTableRecord
  2
*D22
  0
BLOCK_RECORD
  5
157
100
AcDbSymbolTableRecord
100
AcDbBlockTableRecord
  2
*D23
  0
BLOCK_RECORD
  5
167
100
AcDbSymbolTableRecord
100
AcDbBlockTableRecord
  2
*D24
  0
BLOCK_RECORD
  5
178
100
AcDbSymbolTableRecord
100
AcDbBlockTableRecord
  2
NOTE49
  0
BLOCK_RECORD
  5
17F
100
AcDbSymbolTableRecord
100
AcDbBlockTableRecord
  2
NOTE50
  0
BLOCK_RECORD
  5
1C8
100
AcDbSymbolTableRecord
100
AcDbBlockTableRecord
  2
*D27
  0
BLOCK_RECORD
  5
1D6
100
AcDbSymbolTableRecord
100
AcDbBlockTableRecord
  2
*D28
  0
BLOCK_RECORD
  5
1E5
100
AcDbSymbolTableRecord
100
AcDbBlockTableRecord
  2
NOTE51
  0
ENDTAB
  0
ENDSEC
  0
SECTION
  2
BLOCKS
  0
BLOCK
  5
D
100
AcDbEntity
  8
0
100
AcDbBlockBegin
  2
*MODEL_SPACE
 70
         0
 10
0.0
 20
0.0
 30
0.0
  3
*MODEL_SPACE
  1

  0
ENDBLK
  5
E
100
AcDbEntity
  8
0
100
AcDbBlockEnd
  0
BLOCK
  5
F
100
AcDbEntity
 67
         1
  8
0
100
AcDbBlockBegin
  2
*PAPER_SPACE
 70
         0
 10
0.0
 20
0.0
 30
0.0
  3
*PAPER_SPACE
  1

  0
ENDBLK
  5
10
100
AcDbEntity
 67
         1
  8
0
100
AcDbBlockEnd
  0
BLOCK
  5
52
100
AcDbEntity
  8
0
 62
         0
100
AcDbBlockBegin
  2
NOTE11
 70
         0
 10
0.0
 20
0.0
 30
0.0
  3
NOTE11
  1

  0
MTEXT
  5
53
100
AcDbEntity
  8
0
 62
         7
100
AcDbMText
 10
0.0
 20
0.1018700787
 30
0.0
 40
0.0625
 41
0.0
 71
         1
 72
         1
  1
DIMENSIONS ARE IN INCHES
  7
SLDTEXTSTYLE0
  0
MTEXT
  5
54
100
AcDbEntity
  8
0
 62
         7
100
AcDbMText
 10
0.0
 20
0.0185367464
 30
0.0
 40
0.0625
 41
0.0
 71
         1
 72
         1
  1
LINEAR TOLERANCES: 
  7
SLDTEXTSTYLE0
  0
MTEXT
  5
55
100
AcDbEntity
  8
0
 62
         7
100
AcDbMText
 10
0.0
 20
-0.0647965859
 30
0.0
 40
0.0625
 41
0.0
 71
         1
 72
         1
  1
    TWO PLACE DECIMAL: 
  7
SLDTEXTSTYLE0
  0
MTEXT
  5
56
100
AcDbEntity
  8
0
 62
         7
100
AcDbMText
 10
0.9860966619
 20
-0.0647965859
 30
0.0
 40
0.0625
 41
0.0
 71
         1
 72
         1
  1
%%p
  7
SLDTEXTSTYLE0
  0
MTEXT
  5
57
100
AcDbEntity
  8
0
 62
         7
100
AcDbMText
 10
1.0456799669
 20
-0.0647965859
 30
0.0
 40
0.0625
 41
0.0
 71
         1
 72
         1
  1
0.010
  7
SLDTEXTSTYLE0
  0
MTEXT
  5
58
100
AcDbEntity
  8
0
 62
         7
100
AcDbMText
 10
0.0
 20
-0.1481299182
 30
0.0
 40
0.0625
 41
0.0
 71
         1
 72
         1
  1
    THREE PLACE DECIMAL: 
  7
SLDTEXTSTYLE0
  0
MTEXT
  5
59
100
AcDbEntity
  8
0
 62
         7
100
AcDbMText
 10
1.0267939917
 20
-0.1481299182
 30
0.0
 40
0.0625
 41
0.0
 71
         1
 72
         1
  1
%%p
  7
SLDTEXTSTYLE0
  0
MTEXT
  5
5A
100
AcDbEntity
  8
0
 62
         7
100
AcDbMText
 10
1.0863772967
 20
-0.1481299182
 30
0.0
 40
0.0625
 41
0.0
 71
         1
 72
         1
  1
0.005
  7
SLDTEXTSTYLE0
  0
MTEXT
  5
5B
100
AcDbEntity
  8
0
 62
         7
100
AcDbMText
 10
0.0
 20
-0.2314632506
 30
0.0
 40
0.0625
 41
0.0
 71
         1
 72
         1
  1
ANGULAR: 
  7
SLDTEXTSTYLE0
  0
MTEXT
  5
5C
100
AcDbEntity
  8
0
 62
         7
100
AcDbMText
 10
0.4373119015
 20
-0.2314632506
 30
0.0
 40
0.0625
 41
0.0
 71
         1
 72
         1
  1
%%p
  7
SLDTEXTSTYLE0
  0
MTEXT
  5
5D
100
AcDbEntity
  8
0
 62
         7
100
AcDbMText
 10
0.4968952432
 20
-0.2314632506
 30
0.0
 40
0.0625
 41
0.0
 71
         1
 72
         1
  1
30'     
  7
SLDTEXTSTYLE0
  0
MTEXT
  5
5E
100
AcDbEntity
  8
0
 62
         7
100
AcDbMText
 10
0.0
 20
-0.3147965829
 30
0.0
 40
0.0625
 41
0.0
 71
         1
 72
         1
  1
SURFACE FINISH: 32 MICROINCHES
  7
SLDTEXTSTYLE0
  0
MTEXT
  5
5F
100
AcDbEntity
  8
0
 62
         7
100
AcDbMText
 10
0.0
 20
-0.3981299152
 30
0.0
 40
0.0625
 41
0.0
 71
         1
 72
         1
  1
PARALLELISM: 0.002
  7
SLDTEXTSTYLE0
  0
MTEXT
  5
60
100
AcDbEntity
  8
0
 62
         7
100
AcDbMText
 10
0.0
 20
-0.4814632475
 30
0.0
 40
0.0625
 41
0.0
 71
         1
 72
         1
  1
FLATNESS: 0.002
  7
SLDTEXTSTYLE0
  0
MTEXT
  5
61
100
AcDbEntity
  8
0
 62
         7
100
AcDbMText
 10
0.0
 20
-0.5647965799
 30
0.0
 40
0.0625
 41
0.0
 71
         1
 72
         1
  1
STRAIGHTNESS: 0.002
  7
SLDTEXTSTYLE0
  0
MTEXT
  5
62
100
AcDbEntity
  8
0
 62
         7
100
AcDbMText
 10
0.0
 20
-0.6481299122
 30
0.0
 40
0.0625
 41
0.0
 71
         1
 72
         1
  1
CONCENTRICITY: 0.002
  7
SLDTEXTSTYLE0
  0
MTEXT
  5
63
100
AcDbEntity
  8
0
 62
         7
100
AcDbMText
 10
0.0
 20
-0.7314632445
 30
0.0
 40
0.0625
 41
0.0
 71
         1
 72
         1
  1
PERPENDICULARITY: 0.002
  7
SLDTEXTSTYLE0
  0
MTEXT
  5
64
100
AcDbEntity
  8
0
 62
         7
100
AcDbMText
 10
0.0
 20
-0.8147965768
 30
0.0
 40
0.0625
 41
0.0
 71
         1
 72
         1
  1
THREAD: CLASS 2 FIT
  7
SLDTEXTSTYLE0
  0
ENDBLK
  5
65
100
AcDbEntity
  8
0
100
AcDbBlockEnd
  0
BLOCK
  5
6C
100
AcDbEntity
  8
0
 62
         0
100
AcDbBlockBegin
  2
NOTE16
 70
         0
 10
0.0
 20
0.0
 30
0.0
  3
NOTE16
  1

  0
ENDBLK
  5
6D
100
AcDbEntity
  8
0
100
AcDbBlockEnd
  0
BLOCK
  5
74
100
AcDbEntity
  8
0
 62
         0
100
AcDbBlockBegin
  2
NOTE21
 70
         0
 10
0.0
 20
0.0
 30
0.0
  3
NOTE21
  1

  0
MTEXT
  5
75
100
AcDbEntity
  8
0
 62
         7
100
AcDbMText
 10
0.0
 20
0.1227034121
 30
0.0
 40
0.0833333333
 41
0.0
 71
         1
 72
         1
  1
SCALE: 
  7
SLDTEXTSTYLE0
  0
MTEXT
  5
76
100
AcDbEntity
  8
0
 62
         7
100
AcDbMText
 10
0.3914930674
 20
0.1227034121
 30
0.0
 40
0.0833333333
 41
0.0
 71
         1
 72
         1
  1
1:1
  7
SLDTEXTSTYLE0
  0
ENDBLK
  5
77
100
AcDbEntity
  8
0
100
AcDbBlockEnd
  0
BLOCK
  5
7A
100
AcDbEntity
  8
0
 62
         0
100
AcDbBlockBegin
  2
NOTE22
 70
         0
 10
0.0
 20
0.0
 30
0.0
  3
NOTE22
  1

  0
ENDBLK
  5
7B
100
AcDbEntity
  8
0
100
AcDbBlockEnd
  0
BLOCK
  5
7E
100
AcDbEntity
  8
0
 62
         0
100
AcDbBlockBegin
  2
NOTE23
 70
         0
 10
0.0
 20
0.0
 30
0.0
  3
NOTE23
  1

  0
ENDBLK
  5
7F
100
AcDbEntity
  8
0
100
AcDbBlockEnd
  0
BLOCK
  5
82
100
AcDbEntity
  8
0
 62
         0
100
AcDbBlockBegin
  2
NOTE24
 70
         0
 10
0.0
 20
0.0
 30
0.0
  3
NOTE24
  1

  0
ENDBLK
  5
83
100
AcDbEntity
  8
0
100
AcDbBlockEnd
  0
BLOCK
  5
86
100
AcDbEntity
  8
0
 62
         0
100
AcDbBlockBegin
  2
NOTE25
 70
         0
 10
0.0
 20
0.0
 30
0.0
  3
NOTE25
  1

  0
ENDBLK
  5
87
100
AcDbEntity
  8
0
100
AcDbBlockEnd
  0
BLOCK
  5
8A
100
AcDbEntity
  8
0
 62
         0
100
AcDbBlockBegin
  2
NOTE26
 70
         0
 10
0.0
 20
0.0
 30
0.0
  3
NOTE26
  1

  0
ENDBLK
  5
8B
100
AcDbEntity
  8
0
100
AcDbBlockEnd
  0
BLOCK
  5
8E
100
AcDbEntity
  8
0
 62
         0
100
AcDbBlockBegin
  2
NOTE27
 70
         0
 10
0.0
 20
0.0
 30
0.0
  3
NOTE27
  1

  0
ENDBLK
  5
8F
100
AcDbEntity
  8
0
100
AcDbBlockEnd
  0
BLOCK
  5
92
100
AcDbEntity
  8
0
 62
         0
100
AcDbBlockBegin
  2
NOTE28
 70
         0
 10
0.0
 20
0.0
 30
0.0
  3
NOTE28
  1

  0
ENDBLK
  5
93
100
AcDbEntity
  8
0
100
AcDbBlockEnd
  0
BLOCK
  5
96
100
AcDbEntity
  8
0
 62
         0
100
AcDbBlockBegin
  2
NOTE29
 70
         0
 10
0.0
 20
0.0
 30
0.0
  3
NOTE29
  1

  0
ENDBLK
  5
97
100
AcDbEntity
  8
0
100
AcDbBlockEnd
  0
BLOCK
  5
9A
100
AcDbEntity
  8
0
 62
         0
100
AcDbBlockBegin
  2
NOTE30
 70
         0
 10
0.0
 20
0.0
 30
0.0
  3
NOTE30
  1

  0
ENDBLK
  5
9B
100
AcDbEntity
  8
0
100
AcDbBlockEnd
  0
BLOCK
  5
9E
100
AcDbEntity
  8
0
 62
         0
100
AcDbBlockBegin
  2
NOTE31
 70
         0
 10
0.0
 20
0.0
 30
0.0
  3
NOTE31
  1

  0
ENDBLK
  5
9F
100
AcDbEntity
  8
0
100
AcDbBlockEnd
  0
BLOCK
  5
A2
100
AcDbEntity
  8
0
 62
         0
100
AcDbBlockBegin
  2
NOTE32
 70
         0
 10
0.0
 20
0.0
 30
0.0
  3
NOTE32
  1

  0
MTEXT
  5
A3
100
AcDbEntity
  8
0
 62
         7
100
AcDbMText
 10
0.0
 20
0.1227034121
 30
0.0
 40
0.0833333333
 41
0.0
 71
         1
 72
         1
  1
SHEET 
  7
SLDTEXTSTYLE0
  0
MTEXT
  5
A4
100
AcDbEntity
  8
0
 62
         7
100
AcDbMText
 10
0.3211612733
 20
0.1227034121
 30
0.0
 40
0.0833333333
 41
0.0
 71
         1
 72
         1
  1
1
  7
SLDTEXTSTYLE0
  0
MTEXT
  5
A5
100
AcDbEntity
  8
0
 62
         7
100
AcDbMText
 10
0.3776041512
 20
0.1227034121
 30
0.0
 40
0.0833333333
 41
0.0
 71
         1
 72
         1
  1
 OF 
  7
SLDTEXTSTYLE0
  0
MTEXT
  5
A6
100
AcDbEntity
  8
0
 62
         7
100
AcDbMText
 10
0.5861689652
 20
0.1227034121
 30
0.0
 40
0.0833333333
 41
0.0
 71
         1
 72
         1
  1
1
  7
SLDTEXTSTYLE0
  0
ENDBLK
  5
A7
100
AcDbEntity
  8
0
100
AcDbBlockEnd
  0
BLOCK
  5
AB
100
AcDbEntity
  8
0
 62
         0
100
AcDbBlockBegin
  2
NOTE34
 70
         0
 10
0.0
 20
0.0
 30
0.0
  3
NOTE34
  1

  0
MTEXT
  5
AC
100
AcDbEntity
  8
0
 62
         7
100
AcDbMText
 10
0.0
 20
0.0993700787
 30
0.0
 40
0.06
 41
0.0
 71
         1
 72
         1
  1
THE INFORMATION CONTAINED IN THIS
  7
SLDTEXTSTYLE0
  0
MTEXT
  5
AD
100
AcDbEntity
  8
0
 62
         7
100
AcDbMText
 10
0.0
 20
0.0000000042
 30
0.0
 40
0.06
 41
0.0
 71
         1
 72
         1
  1
DRAWING IS THE SOLE PROPERTY OF
  7
SLDTEXTSTYLE0
  0
MTEXT
  5
AE
100
AcDbEntity
  8
0
 62
         7
100
AcDbMText
 10
0.0
 20
-0.0993700704
 30
0.0
 40
0.06
 41
0.0
 71
         1
 72
         1
  1
THORLABS, INC.  ANY REPRODUCTION 
  7
SLDTEXTSTYLE0
  0
MTEXT
  5
AF
100
AcDbEntity
  8
0
 62
         7
100
AcDbMText
 10
0.0
 20
-0.198740145
 30
0.0
 40
0.06
 41
0.0
 71
         1
 72
         1
  1
IN PART OR AS A WHOLE WITHOUT
  7
SLDTEXTSTYLE0
  0
MTEXT
  5
B0
100
AcDbEntity
  8
0
 62
         7
100
AcDbMText
 10
0.0
 20
-0.2981102195
 30
0.0
 40
0.06
 41
0.0
 71
         1
 72
         1
  1
THE WRITTEN PERMISSION OF
  7
SLDTEXTSTYLE0
  0
MTEXT
  5
B1
100
AcDbEntity
  8
0
 62
         7
100
AcDbMText
 10
0.0
 20
-0.3974802941
 30
0.0
 40
0.06
 41
0.0
 71
         1
 72
         1
  1
THORLABS, INC. IS PROHIBITED.
  7
SLDTEXTSTYLE0
  0
ENDBLK
  5
B2
100
AcDbEntity
  8
0
100
AcDbBlockEnd
  0
BLOCK
  5
BF
100
AcDbEntity
  8
0
 62
         0
100
AcDbBlockBegin
  2
NOTE45
 70
         0
 10
0.0
 20
0.0
 30
0.0
  3
NOTE45
  1

  0
MTEXT
  5
C0
100
AcDbEntity
  8
0
 62
         7
100
AcDbMText
 10
0.0
 20
0.1227034121
 30
0.0
 40
0.0833333333
 41
0.0
 71
         1
 72
         1
  1
PO BOX 366
  7
SLDTEXTSTYLE0
  0
MTEXT
  5
C1
100
AcDbEntity
  8
0
 62
         7
100
AcDbMText
 10
0.0
 20
0.0115923023
 30
0.0
 40
0.0833333333
 41
0.0
 71
         1
 72
         1
  1
NEWTON NJ
  7
SLDTEXTSTYLE0
  0
ENDBLK
  5
C2
100
AcDbEntity
  8
0
100
AcDbBlockEnd
  0
BLOCK
  5
C5
100
AcDbEntity
  8
0
 62
         0
100
AcDbBlockBegin
  2
NOTE46
 70
         0
 10
0.0
 20
0.0
 30
0.0
  3
NOTE46
  1

  0
MTEXT
  5
C6
100
AcDbEntity
  8
0
 62
         7
100
AcDbMText
 10
0.0
 20
0.1539534121
 30
0.0
 40
0.1145833333
 41
0.0
 71
         1
 72
         1
  1
PIEZOELECTRIC ACTUATOR
  7
SLDTEXTSTYLE0
  0
MTEXT
  5
C7
100
AcDbEntity
  8
0
 62
         7
100
AcDbMText
 10
0.0
 20
0.0011756361
 30
0.0
 40
0.1145833333
 41
0.0
 71
         1
 72
         1
  1
WITH FEEDBACK, 40
  7
SLDTEXTSTYLE0
  0
MTEXT
  5
C8
100
AcDbEntity
  8
0
 62
         7
100
AcDbMText
 10
1.4134066722
 20
-0.0215288395
 30
0.0
 40
0.1145833333
 41
0.0
 71
         1
 72
         1
  1
m
  7
SLDTEXTSTYLE0
  0
MTEXT
  5
C9
100
AcDbEntity
  8
0
 62
         7
100
AcDbMText
 10
1.5388116768
 20
0.0011756361
 30
0.0
 40
0.1145833333
 41
0.0
 71
         1
 72
         1
  1
m TRAVEL
  7
SLDTEXTSTYLE0
  0
ENDBLK
  5
CA
100
AcDbEntity
  8
0
100
AcDbBlockEnd
  0
BLOCK
  5
E2
100
AcDbEntity
  8
0
 62
         7
100
AcDbBlockBegin
  2
*D17
 70
         1
 10
0.0
 20
0.0
 30
0.0
  3
*D17
  1

  0
MTEXT
  5
E3
100
AcDbEntity
  8
0
 62
         7
100
AcDbMText
 10
8.5462693325
 20
2.5321506258
 30
0.0
 40
0.0833333333
 41
0.0
 71
         1
 72
         1
  1
0.71
  7
SLDTEXTSTYLE0
  0
MTEXT
  5
E4
100
AcDbEntity
  8
0
 62
         7
100
AcDbMText
 10
8.4628400075
 20
2.3997763816
 30
0.0
 40
0.0833333333
 41
0.0
 71
         1
 72
         1
  1
(18mm)
  7
SLDTEXTSTYLE0
  0
LINE
  5
E5
100
AcDbEntity
  8
0
 62
         7
100
AcDbLine
 10
8.29963983
 20
2.7049484567
 30
0.0
 11
8.29963983
 21
2.3394472183
 31
0.0
  0
LINE
  5
E6
100
AcDbEntity
  8
0
 62
         7
100
AcDbLine
 10
9.0083012473
 20
2.7049484567
 30
0.0
 11
9.0083012473
 21
2.3394472183
 31
0.0
  0
LINE
  5
E7
100
AcDbEntity
  8
0
 62
         7
100
AcDbLine
 10
8.29963983
 20
2.4094472183
 30
0.0
 11
8.3847150075
 21
2.4094472183
 31
0.0
  0
LINE
  5
E8
100
AcDbEntity
  8
0
 62
         7
100
AcDbLine
 10
9.0083012473
 20
2.4094472183
 30
0.0
 11
8.9232260698
 21
2.4094472183
 31
0.0
  0
SOLID
  5
E9
100
AcDbEntity
  8
0
 62
         7
100
AcDbTrace
 10
8.29963983
 20
2.4094472183
 30
0.0
 11
8.42463983
 21
2.3894472183
 31
0.0
 12
8.42463983
 22
2.4294472183
 32
0.0
 13
8.42463983
 23
2.4294472183
 33
0.0
  0
SOLID
  5
EA
100
AcDbEntity
  8
0
 62
         7
100
AcDbTrace
 10
9.0083012473
 20
2.4094472183
 30
0.0
 11
8.8833012473
 21
2.4294472183
 31
0.0
 12
8.8833012473
 22
2.3894472183
 32
0.0
 13
8.8833012473
 23
2.3894472183
 33
0.0
  0
POINT
  5
EC
100
AcDbEntity
  8
DEFPOINTS
 62
         7
100
AcDbPoint
 10
8.29963983
 20
2.7549484567
 30
0.0
  0
POINT
  5
ED
100
AcDbEntity
  8
DEFPOINTS
 62
         7
100
AcDbPoint
 10
9.0083012473
 20
2.7549484567
 30
0.0
  0
ENDBLK
  5
EE
100
AcDbEntity
  8
0
 62
         7
100
AcDbBlockEnd
  0
BLOCK
  5
F1
100
AcDbEntity
  8
0
 62
         7
100
AcDbBlockBegin
  2
*D18
 70
         1
 10
0.0
 20
0.0
 30
0.0
  3
*D18
  1

  0
MTEXT
  5
F2
100
AcDbEntity
  8
0
 62
         7
100
AcDbMText
 10
7.7909490279
 20
3.8126912343
 30
0.0
 40
0.0833333333
 41
0.0
 71
         1
 72
         1
  1
1.87
  7
SLDTEXTSTYLE0
  0
MTEXT
  5
F3
100
AcDbEntity
  8
0
 62
         7
100
AcDbMText
 10
7.707519703
 20
3.6803169902
 30
0.0
 40
0.0833333333
 41
0.0
 71
         1
 72
         1
  1
(48mm)
  7
SLDTEXTSTYLE0
  0
LINE
  5
F4
100
AcDbEntity
  8
0
 62
         7
100
AcDbLine
 10
8.24963983
 20
2.7549484567
 30
0.0
 11
7.8286502341
 21
2.7549484567
 31
0.0
  0
LINE
  5
F5
100
AcDbEntity
  8
0
 62
         7
100
AcDbLine
 10
8.4661752631
 20
4.6250271969
 30
0.0
 11
7.8286502341
 21
4.6250271969
 31
0.0
  0
LINE
  5
F6
100
AcDbEntity
  8
0
 62
         7
100
AcDbLine
 10
7.8986502341
 20
2.7549484567
 30
0.0
 11
7.8986502341
 21
3.5576135827
 31
0.0
  0
LINE
  5
F7
100
AcDbEntity
  8
0
 62
         7
100
AcDbLine
 10
7.8986502341
 20
4.6250271969
 30
0.0
 11
7.8986502341
 21
3.822362071
 31
0.0
  0
SOLID
  5
F8
100
AcDbEntity
  8
0
 62
         7
100
AcDbTrace
 10
7.8986502341
 20
2.7549484567
 30
0.0
 11
7.9186502341
 21
2.8799484567
 31
0.0
 12
7.8786502341
 22
2.8799484567
 32
0.0
 13
7.8786502341
 23
2.8799484567
 33
0.0
  0
SOLID
  5
F9
100
AcDbEntity
  8
0
 62
         7
100
AcDbTrace
 10
7.8986502341
 20
4.6250271969
 30
0.0
 11
7.8786502341
 21
4.5000271969
 31
0.0
 12
7.9186502341
 22
4.5000271969
 32
0.0
 13
7.9186502341
 23
4.5000271969
 33
0.0
  0
POINT
  5
FB
100
AcDbEntity
  8
DEFPOINTS
 62
         7
100
AcDbPoint
 10
8.29963983
 20
2.7549484567
 30
0.0
  0
POINT
  5
FC
100
AcDbEntity
  8
DEFPOINTS
 62
         7
100
AcDbPoint
 10
8.5161752631
 20
4.6250271969
 30
0.0
  0
ENDBLK
  5
FD
100
AcDbEntity
  8
0
 62
         7
100
AcDbBlockEnd
  0
BLOCK
  5
102
100
AcDbEntity
  8
0
 62
         0
100
AcDbBlockBegin
  2
NOTE48
 70
         0
 10
0.0
 20
0.0
 30
0.0
  3
NOTE48
  1

  0
MTEXT
  5
103
100
AcDbEntity
  8
0
 62
         7
100
AcDbMText
 10
0.0197115724
 20
0.1782846928
 30
0.0
 40
0.0833333333
 41
0.0
 71
         1
 72
         1
  1
#6-32 UNC TAPPED
  7
SLDTEXTSTYLE0
  0
MTEXT
  5
104
100
AcDbEntity
  8
0
 62
         7
100
AcDbMText
 10
0.0197115724
 20
0.067173583
 30
0.0
 40
0.0833333333
 41
0.0
 71
         1
 72
         1
  1
0.30(7.5mm) TRAVEL
  7
SLDTEXTSTYLE0
  0
MTEXT
  5
105
100
AcDbEntity
  8
0
 62
         7
100
AcDbMText
 10
0.0197115724
 20
-0.0439375268
 30
0.0
 40
0.0833333333
 41
0.0
 71
         1
 72
         1
  1
2 PLACES
  7
SLDTEXTSTYLE0
  0
ENDBLK
  5
106
100
AcDbEntity
  8
0
100
AcDbBlockEnd
  0
BLOCK
  5
109
100
AcDbEntity
  8
0
 62
         0
100
AcDbBlockBegin
  2
SW_CENTERMARK0
 70
         0
 10
0.0
 20
0.0
 30
0.0
  3
SW_CENTERMARK0
  1

  0
LINE
  5
10A
100
AcDbEntity
  8
0
  6
CONTINUOUS
 62
         7
100
AcDbLine
 10
8.6539705387
 20
3.1289642048
 30
0.0
 11
8.6539705387
 21
3.1789642048
 31
0.0
  0
LINE
  5
10B
100
AcDbEntity
  8
0
  6
CONTINUOUS
 62
         7
100
AcDbLine
 10
8.6539705387
 20
3.1289642048
 30
0.0
 11
8.6039705387
 21
3.1289642048
 31
0.0
  0
LINE
  5
10C
100
AcDbEntity
  8
0
  6
CONTINUOUS
 62
         7
100
AcDbLine
 10
8.6539705387
 20
3.1289642048
 30
0.0
 11
8.6539705387
 21
3.0789642048
 31
0.0
  0
LINE
  5
10D
100
AcDbEntity
  8
0
  6
CONTINUOUS
 62
         7
100
AcDbLine
 10
8.6539705387
 20
3.1289642048
 30
0.0
 11
8.7039705387
 21
3.1289642048
 31
0.0
  0
ENDBLK
  5
10E
100
AcDbEntity
  8
0
100
AcDbBlockEnd
  0
BLOCK
  5
13C
100
AcDbEntity
  8
0
 62
         7
100
AcDbBlockBegin
  2
*D21
 70
         1
 10
0.0
 20
0.0
 30
0.0
  3
*D21
  1

  0
MTEXT
  5
13D
100
AcDbEntity
  8
0
 62
         7
100
AcDbMText
 10
4.0078234017
 20
2.5652342449
 30
0.0
 40
0.0833333333
 41
0.0
 71
         1
 72
         1
  1
3.66
  7
SLDTEXTSTYLE0
  0
MTEXT
  5
13E
100
AcDbEntity
  8
0
 62
         7
100
AcDbMText
 10
3.9243940768
 20
2.4328600008
 30
0.0
 40
0.0833333333
 41
0.0
 71
         1
 72
         1
  1
(93mm)
  7
SLDTEXTSTYLE0
  0
LINE
  5
13F
100
AcDbEntity
  8
0
 62
         7
100
AcDbLine
 10
2.2848159465
 20
2.8624287717
 30
0.0
 11
2.2848159465
 21
2.3725308374
 31
0.0
  0
LINE
  5
140
100
AcDbEntity
  8
0
 62
         7
100
AcDbLine
 10
5.9462332693
 20
2.8309327087
 30
0.0
 11
5.9462332693
 21
2.3725308374
 31
0.0
  0
LINE
  5
141
100
AcDbEntity
  8
0
 62
         7
100
AcDbLine
 10
2.2848159465
 20
2.4425308374
 30
0.0
 11
3.8462690768
 21
2.4425308374
 31
0.0
  0
LINE
  5
142
100
AcDbEntity
  8
0
 62
         7
100
AcDbLine
 10
5.9462332693
 20
2.4425308374
 30
0.0
 11
4.384780139
 21
2.4425308374
 31
0.0
  0
SOLID
  5
143
100
AcDbEntity
  8
0
 62
         7
100
AcDbTrace
 10
2.2848159465
 20
2.4425308374
 30
0.0
 11
2.4098159465
 21
2.4225308374
 31
0.0
 12
2.4098159465
 22
2.4625308374
 32
0.0
 13
2.4098159465
 23
2.4625308374
 33
0.0
  0
SOLID
  5
144
100
AcDbEntity
  8
0
 62
         7
100
AcDbTrace
 10
5.9462332693
 20
2.4425308374
 30
0.0
 11
5.8212332693
 21
2.4625308374
 31
0.0
 12
5.8212332693
 22
2.4225308374
 32
0.0
 13
5.8212332693
 23
2.4225308374
 33
0.0
  0
POINT
  5
145
100
AcDbEntity
  8
DEFPOINTS
 62
         7
100
AcDbPoint
 10
2.2848159465
 20
2.9124287717
 30
0.0
  0
POINT
  5
146
100
AcDbEntity
  8
DEFPOINTS
 62
         7
100
AcDbPoint
 10
5.9462332693
 20
2.8809327087
 30
0.0
  0
ENDBLK
  5
147
100
AcDbEntity
  8
0
 62
         7
100
AcDbBlockEnd
  0
BLOCK
  5
14A
100
AcDbEntity
  8
0
 62
         7
100
AcDbBlockBegin
  2
*D22
 70
         1
 10
0.0
 20
0.0
 30
0.0
  3
*D22
  1

  0
MTEXT
  5
14B
100
AcDbEntity
  8
0
 62
         7
100
AcDbMText
 10
3.9487682836
 20
2.1537052016
 30
0.0
 40
0.0833333333
 41
0.0
 71
         1
 72
         1
  1
3.78
  7
SLDTEXTSTYLE0
  0
MTEXT
  5
14C
100
AcDbEntity
  8
0
 62
         7
100
AcDbMText
 10
3.8653389587
 20
2.0213309574
 30
0.0
 40
0.0833333333
 41
0.0
 71
         1
 72
         1
  1
(96mm)
  7
SLDTEXTSTYLE0
  0
LINE
  5
14D
100
AcDbEntity
  8
0
 62
         7
100
AcDbLine
 10
2.1667057103
 20
2.8624287717
 30
0.0
 11
2.1667057103
 21
1.9610017941
 31
0.0
  0
LINE
  5
14E
100
AcDbEntity
  8
0
 62
         7
100
AcDbLine
 10
5.9462332693
 20
2.8309327087
 30
0.0
 11
5.9462332693
 21
1.9610017941
 31
0.0
  0
LINE
  5
14F
100
AcDbEntity
  8
0
 62
         7
100
AcDbLine
 10
2.1667057103
 20
2.0310017941
 30
0.0
 11
3.7872139587
 21
2.0310017941
 31
0.0
  0
LINE
  5
150
100
AcDbEntity
  8
0
 62
         7
100
AcDbLine
 10
5.9462332693
 20
2.0310017941
 30
0.0
 11
4.3257250209
 21
2.0310017941
 31
0.0
  0
SOLID
  5
151
100
AcDbEntity
  8
0
 62
         7
100
AcDbTrace
 10
2.1667057103
 20
2.0310017941
 30
0.0
 11
2.2917057103
 21
2.0110017941
 31
0.0
 12
2.2917057103
 22
2.0510017941
 32
0.0
 13
2.2917057103
 23
2.0510017941
 33
0.0
  0
SOLID
  5
152
100
AcDbEntity
  8
0
 62
         7
100
AcDbTrace
 10
5.9462332693
 20
2.0310017941
 30
0.0
 11
5.8212332693
 21
2.0510017941
 31
0.0
 12
5.8212332693
 22
2.0110017941
 32
0.0
 13
5.8212332693
 23
2.0110017941
 33
0.0
  0
POINT
  5
153
100
AcDbEntity
  8
DEFPOINTS
 62
         7
100
AcDbPoint
 10
2.1667057103
 20
2.9124287717
 30
0.0
  0
POINT
  5
154
100
AcDbEntity
  8
DEFPOINTS
 62
         7
100
AcDbPoint
 10
5.9462332693
 20
2.8809327087
 30
0.0
  0
ENDBLK
  5
155
100
AcDbEntity
  8
0
 62
         7
100
AcDbBlockEnd
  0
BLOCK
  5
158
100
AcDbEntity
  8
0
 62
         7
100
AcDbBlockBegin
  2
*D23
 70
         1
 10
0.0
 20
0.0
 30
0.0
  3
*D23
  1

  0
MTEXT
  5
159
100
AcDbEntity
  8
0
 62
         7
100
AcDbMText
 10
6.1331978523
 20
3.2516676123
 30
0.0
 40
0.0833333333
 41
0.0
 71
         1
 72
         1
  1
%%c
  7
SLDTEXTSTYLE0
  0
MTEXT
  5
15A
100
AcDbEntity
  8
0
 62
         7
100
AcDbMText
 10
6.2589624386
 20
3.2516676123
 30
0.0
 40
0.0833333333
 41
0.0
 71
         1
 72
         1
  1
0.50
  7
SLDTEXTSTYLE0
  0
MTEXT
  5
15B
100
AcDbEntity
  8
0
 62
         7
100
AcDbMText
 10
6.1126508205
 20
3.1192933681
 30
0.0
 40
0.0833333333
 41
0.0
 71
         1
 72
         1
  1
(13mm)
  7
SLDTEXTSTYLE0
  0
LINE
  5
15C
100
AcDbEntity
  8
0
 62
         7
100
AcDbLine
 10
5.9962332693
 20
3.3769957008
 30
0.0
 11
6.3737813516
 21
3.3769957008
 31
0.0
  0
LINE
  5
15D
100
AcDbEntity
  8
0
 62
         7
100
AcDbLine
 10
5.9962332693
 20
2.8809327087
 30
0.0
 11
6.3737813516
 21
2.8809327087
 31
0.0
  0
LINE
  5
15E
100
AcDbEntity
  8
0
 62
         7
100
AcDbLine
 10
6.3037813516
 20
3.3769957008
 30
0.0
 11
6.3037813516
 21
3.6269957008
 31
0.0
  0
LINE
  5
15F
100
AcDbEntity
  8
0
 62
         7
100
AcDbLine
 10
6.3037813516
 20
2.8809327087
 30
0.0
 11
6.3037813516
 21
2.6309327087
 31
0.0
  0
SOLID
  5
160
100
AcDbEntity
  8
0
 62
         7
100
AcDbTrace
 10
6.3037813516
 20
3.3769957008
 30
0.0
 11
6.3237813516
 21
3.5019957008
 31
0.0
 12
6.2837813516
 22
3.5019957008
 32
0.0
 13
6.2837813516
 23
3.5019957008
 33
0.0
  0
SOLID
  5
161
100
AcDbEntity
  8
0
 62
         7
100
AcDbTrace
 10
6.3037813516
 20
2.8809327087
 30
0.0
 11
6.2837813516
 21
2.7559327087
 31
0.0
 12
6.3237813516
 22
2.7559327087
 32
0.0
 13
6.3237813516
 23
2.7559327087
 33
0.0
  0
POINT
  5
163
100
AcDbEntity
  8
DEFPOINTS
 62
         7
100
AcDbPoint
 10
5.9462332693
 20
3.3769957008
 30
0.0
  0
POINT
  5
164
100
AcDbEntity
  8
DEFPOINTS
 62
         7
100
AcDbPoint
 10
5.9462332693
 20
2.8809327087
 30
0.0
  0
ENDBLK
  5
165
100
AcDbEntity
  8
0
 62
         7
100
AcDbBlockEnd
  0
BLOCK
  5
168
100
AcDbEntity
  8
0
 62
         7
100
AcDbBlockBegin
  2
*D24
 70
         1
 10
0.0
 20
0.0
 30
0.0
  3
*D24
  1

  0
MTEXT
  5
169
100
AcDbEntity
  8
0
 62
         7
100
AcDbMText
 10
1.2834390439
 20
2.8144801621
 30
0.0
 40
0.0833333333
 41
0.0
 71
         1
 72
         1
  1
%%c
  7
SLDTEXTSTYLE0
  0
MTEXT
  5
16A
100
AcDbEntity
  8
0
 62
         7
100
AcDbMText
 10
1.4092036302
 20
2.8144801621
 30
0.0
 40
0.0833333333
 41
0.0
 71
         1
 72
         1
  1
0.20
  7
SLDTEXTSTYLE0
  0
MTEXT
  5
16B
100
AcDbEntity
  8
0
 62
         7
100
AcDbMText
 10
1.2475449297
 20
2.6821059179
 30
0.0
 40
0.0833333333
 41
0.0
 71
         1
 72
         1
  1
(5.1mm)
  7
SLDTEXTSTYLE0
  0
LINE
  5
16C
100
AcDbEntity
  8
0
 62
         7
100
AcDbLine
 10
2.2348159465
 20
3.028570504
 30
0.0
 11
1.7436251566
 21
3.028570504
 31
0.0
  0
LINE
  5
16D
100
AcDbEntity
  8
0
 62
         7
100
AcDbLine
 10
2.2348159465
 20
3.2293579056
 30
0.0
 11
1.7436251566
 21
3.2293579056
 31
0.0
  0
LINE
  5
16E
100
AcDbEntity
  8
0
 62
         7
100
AcDbLine
 10
1.7386251566
 20
2.6917767546
 30
0.0
 11
1.8136251566
 21
2.6917767546
 31
0.0
  0
LINE
  5
16F
100
AcDbEntity
  8
0
 62
         7
100
AcDbLine
 10
1.8136251566
 20
2.6917767546
 30
0.0
 11
1.8136251566
 21
3.028570504
 31
0.0
  0
LINE
  5
170
100
AcDbEntity
  8
0
 62
         7
100
AcDbLine
 10
1.8136251566
 20
3.2293579056
 30
0.0
 11
1.8136251566
 21
3.4793579056
 31
0.0
  0
SOLID
  5
171
100
AcDbEntity
  8
0
 62
         7
100
AcDbTrace
 10
1.8136251566
 20
3.028570504
 30
0.0
 11
1.7936251566
 21
2.903570504
 31
0.0
 12
1.8336251566
 22
2.903570504
 32
0.0
 13
1.8336251566
 23
2.903570504
 33
0.0
  0
SOLID
  5
172
100
AcDbEntity
  8
0
 62
         7
100
AcDbTrace
 10
1.8136251566
 20
3.2293579056
 30
0.0
 11
1.8336251566
 21
3.3543579056
 31
0.0
 12
1.7936251566
 22
3.3543579056
 32
0.0
 13
1.7936251566
 23
3.3543579056
 33
0.0
  0
POINT
  5
173
100
AcDbEntity
  8
DEFPOINTS
 62
         7
100
AcDbPoint
 10
2.2848159465
 20
3.028570504
 30
0.0
  0
POINT
  5
174
100
AcDbEntity
  8
DEFPOINTS
 62
         7
100
AcDbPoint
 10
2.2848159465
 20
3.2293579056
 30
0.0
  0
ENDBLK
  5
175
100
AcDbEntity
  8
0
 62
         7
100
AcDbBlockEnd
  0
BLOCK
  5
179
100
AcDbEntity
  8
0
 62
         0
100
AcDbBlockBegin
  2
NOTE49
 70
         0
 10
0.0
 20
0.0
 30
0.0
  3
NOTE49
  1

  0
MTEXT
  5
17A
100
AcDbEntity
  8
0
 62
         7
100
AcDbMText
 10
-0.9779891537
 20
0.1227455508
 30
0.0
 40
0.0833333333
 41
0.0
 71
         1
 72
         1
  1
SMC PIEZO INPUTS
  7
SLDTEXTSTYLE0
  0
MTEXT
  5
17B
100
AcDbEntity
  8
0
 62
         7
100
AcDbMText
 10
-0.3193471591
 20
0.011634441
 30
0.0
 40
0.0833333333
 41
0.0
 71
         1
 72
         1
  1
0-75V
  7
SLDTEXTSTYLE0
  0
ENDBLK
  5
17C
100
AcDbEntity
  8
0
100
AcDbBlockEnd
  0
BLOCK
  5
180
100
AcDbEntity
  8
0
 62
         0
100
AcDbBlockBegin
  2
NOTE50
 70
         0
 10
0.0
 20
0.0
 30
0.0
  3
NOTE50
  1

  0
MTEXT
  5
181
100
AcDbEntity
  8
0
 62
         7
100
AcDbMText
 10
0.0197541968
 20
0.1227272772
 30
0.0
 40
0.0833333333
 41
0.0
 71
         1
 72
         1
  1
LEMO CONNECTOR
  7
SLDTEXTSTYLE0
  0
MTEXT
  5
182
100
AcDbEntity
  8
0
 62
         7
100
AcDbMText
 10
0.0197541968
 20
0.0116161674
 30
0.0
 40
0.0833333333
 41
0.0
 71
         1
 72
         1
  1
FOR POSITION FEEDBACK
  7
SLDTEXTSTYLE0
  0
ENDBLK
  5
183
100
AcDbEntity
  8
0
100
AcDbBlockEnd
  0
BLOCK
  5
1C9
100
AcDbEntity
  8
0
 62
         7
100
AcDbBlockBegin
  2
*D27
 70
         1
 10
0.0
 20
0.0
 30
0.0
  3
*D27
  1

  0
MTEXT
  5
1CA
100
AcDbEntity
  8
0
 62
         7
100
AcDbMText
 10
6.1851002197
 20
6.3527503018
 30
0.0
 40
0.0833333333
 41
0.0
 71
         1
 72
         1
  1
0.31
  7
SLDTEXTSTYLE0
  0
MTEXT
  5
1CB
100
AcDbEntity
  8
0
 62
         7
100
AcDbMText
 10
6.1324556026
 20
6.2203760576
 30
0.0
 40
0.0833333333
 41
0.0
 71
         1
 72
         1
  1
(8mm)
  7
SLDTEXTSTYLE0
  0
LINE
  5
1CC
100
AcDbEntity
  8
0
 62
         7
100
AcDbLine
 10
5.9462332693
 20
6.5631743877
 30
0.0
 11
5.9462332693
 21
6.1600468943
 31
0.0
  0
LINE
  5
1CD
100
AcDbEntity
  8
0
 62
         7
100
AcDbLine
 10
5.6312726394
 20
6.4568751751
 30
0.0
 11
5.6312726394
 21
6.1600468943
 31
0.0
  0
LINE
  5
1CE
100
AcDbEntity
  8
0
 62
         7
100
AcDbLine
 10
5.9462332693
 20
6.2300468943
 30
0.0
 11
6.0543306026
 21
6.2300468943
 31
0.0
  0
LINE
  5
1CF
100
AcDbEntity
  8
0
 62
         7
100
AcDbLine
 10
5.6312726394
 20
6.2300468943
 30
0.0
 11
5.9462332693
 21
6.2300468943
 31
0.0
  0
SOLID
  5
1D0
100
AcDbEntity
  8
0
 62
         7
100
AcDbTrace
 10
5.9462332693
 20
6.2300468943
 30
0.0
 11
5.8212332693
 21
6.2500468943
 31
0.0
 12
5.8212332693
 22
6.2100468943
 32
0.0
 13
5.8212332693
 23
6.2100468943
 33
0.0
  0
SOLID
  5
1D1
100
AcDbEntity
  8
0
 62
         7
100
AcDbTrace
 10
5.6312726394
 20
6.2300468943
 30
0.0
 11
5.7562726394
 21
6.2100468943
 31
0.0
 12
5.7562726394
 22
6.2500468943
 32
0.0
 13
5.7562726394
 23
6.2500468943
 33
0.0
  0
POINT
  5
1D2
100
AcDbEntity
  8
DEFPOINTS
 62
         7
100
AcDbPoint
 10
5.9462332693
 20
6.6131743877
 30
0.0
  0
POINT
  5
1D3
100
AcDbEntity
  8
DEFPOINTS
 62
         7
100
AcDbPoint
 10
5.6312726394
 20
6.5068751751
 30
0.0
  0
ENDBLK
  5
1D4
100
AcDbEntity
  8
0
 62
         7
100
AcDbBlockEnd
  0
BLOCK
  5
1D7
100
AcDbEntity
  8
0
 62
         7
100
AcDbBlockBegin
  2
*D28
 70
         1
 10
0.0
 20
0.0
 30
0.0
  3
*D28
  1

  0
MTEXT
  5
1D8
100
AcDbEntity
  8
0
 62
         7
100
AcDbMText
 10
4.8936501734
 20
6.3527503018
 30
0.0
 40
0.0833333333
 41
0.0
 71
         1
 72
         1
  1
1.26
  7
SLDTEXTSTYLE0
  0
MTEXT
  5
1D9
100
AcDbEntity
  8
0
 62
         7
100
AcDbMText
 10
4.8102208484
 20
6.2203760576
 30
0.0
 40
0.0833333333
 41
0.0
 71
         1
 72
         1
  1
(32mm)
  7
SLDTEXTSTYLE0
  0
LINE
  5
1DA
100
AcDbEntity
  8
0
 62
         7
100
AcDbLine
 10
4.3714301197
 20
6.4568751751
 30
0.0
 11
4.3714301197
 21
6.1600468943
 31
0.0
  0
LINE
  5
1DB
100
AcDbEntity
  8
0
 62
         7
100
AcDbLine
 10
5.6312726394
 20
6.4568751751
 30
0.0
 11
5.6312726394
 21
6.1600468943
 31
0.0
  0
LINE
  5
1DC
100
AcDbEntity
  8
0
 62
         7
100
AcDbLine
 10
4.3714301197
 20
6.2300468943
 30
0.0
 11
4.7320958484
 21
6.2300468943
 31
0.0
  0
LINE
  5
1DD
100
AcDbEntity
  8
0
 62
         7
100
AcDbLine
 10
5.6312726394
 20
6.2300468943
 30
0.0
 11
5.2706069107
 21
6.2300468943
 31
0.0
  0
SOLID
  5
1DE
100
AcDbEntity
  8
0
 62
         7
100
AcDbTrace
 10
4.3714301197
 20
6.2300468943
 30
0.0
 11
4.4964301197
 21
6.2100468943
 31
0.0
 12
4.4964301197
 22
6.2500468943
 32
0.0
 13
4.4964301197
 23
6.2500468943
 33
0.0
  0
SOLID
  5
1DF
100
AcDbEntity
  8
0
 62
         7
100
AcDbTrace
 10
5.6312726394
 20
6.2300468943
 30
0.0
 11
5.5062726394
 21
6.2500468943
 31
0.0
 12
5.5062726394
 22
6.2100468943
 32
0.0
 13
5.5062726394
 23
6.2100468943
 33
0.0
  0
POINT
  5
1E0
100
AcDbEntity
  8
DEFPOINTS
 62
         7
100
AcDbPoint
 10
4.3714301197
 20
6.5068751751
 30
0.0
  0
POINT
  5
1E1
100
AcDbEntity
  8
DEFPOINTS
 62
         7
100
AcDbPoint
 10
5.6312726394
 20
6.5068751751
 30
0.0
  0
ENDBLK
  5
1E2
100
AcDbEntity
  8
0
 62
         7
100
AcDbBlockEnd
  0
BLOCK
  5
1E6
100
AcDbEntity
  8
0
 62
         0
100
AcDbBlockBegin
  2
NOTE51
 70
         0
 10
0.0
 20
0.0
 30
0.0
  3
NOTE51
  1

  0
MTEXT
  5
1E7
100
AcDbEntity
  8
0
 62
         7
100
AcDbMText
 10
-0.8494946445
 20
0.2338638204
 30
0.0
 40
0.0833333333
 41
0.0
 71
         1
 72
         1
  1
REMOVABLE TIP
  7
SLDTEXTSTYLE0
  0
MTEXT
  5
1E8
100
AcDbEntity
  8
0
 62
         7
100
AcDbMText
 10
-0.8082910272
 20
0.1227527106
 30
0.0
 40
0.0833333333
 41
0.0
 71
         1
 72
         1
  1
PART# PAA001
  7
SLDTEXTSTYLE0
  0
MTEXT
  5
1E9
100
AcDbEntity
  8
0
 62
         7
100
AcDbMText
 10
-0.6093713051
 20
0.0116416009
 30
0.0
 40
0.0833333333
 41
0.0
 71
         1
 72
         1
  1
PAA-SERIES
  7
SLDTEXTSTYLE0
  0
MTEXT
  5
1EA
100
AcDbEntity
  8
0
 62
         7
100
AcDbMText
 10
-0.7039700656
 20
-0.0994695089
 30
0.0
 40
0.0833333333
 41
0.0
 71
         1
 72
         1
  1
COMPATIBLE
  7
SLDTEXTSTYLE0
  0
ENDBLK
  5
1EB
100
AcDbEntity
  8
0
100
AcDbBlockEnd
  0
ENDSEC
  0
SECTION
  2
ENTITIES
  0
LINE
  5
25
100
AcDbEntity
  8
0
  6
CONTINUOUS
 62
         7
100
AcDbLine
 10
0.329927
 20
8.1920731707
 30
0.0
 11
10.629927
 21
8.1920731707
 31
0.0
  0
LINE
  5
26
100
AcDbEntity
  8
0
  6
CONTINUOUS
 62
         7
100
AcDbLine
 10
0.329927
 20
8.1920731707
 30
0.0
 11
0.329927
 21
0.3920731707
 31
0.0
  0
LINE
  5
27
100
AcDbEntity
  8
0
  6
CONTINUOUS
 62
         7
100
AcDbLine
 10
10.629927
 20
0.3920731707
 30
0.0
 11
0.329927
 21
0.3920731707
 31
0.0
  0
LINE
  5
28
100
AcDbEntity
  8
0
  6
CONTINUOUS
 62
         7
100
AcDbLine
 10
10.629927
 20
0.3920731707
 30
0.0
 11
10.629927
 21
8.1920731707
 31
0.0
  0
LINE
  5
29
100
AcDbEntity
  8
0
  6
CONTINUOUS
 62
         7
100
AcDbLine
 10
7.8832069922
 20
1.2010186622
 30
0.0
 11
6.3491817542
 21
1.2010186622
 31
0.0
  0
LINE
  5
2A
100
AcDbEntity
  8
0
  6
CONTINUOUS
 62
         7
100
AcDbLine
 10
6.3491817542
 20
0.3920731707
 30
0.0
 11
6.3491817542
 21
1.6988536355
 31
0.0
  0
LINE
  5
2B
100
AcDbEntity
  8
0
  6
CONTINUOUS
 62
         7
100
AcDbLine
 10
7.8832069922
 20
1.270166923
 30
0.0
 11
10.629927
 21
1.270166923
 31
0.0
  0
LINE
  5
2C
100
AcDbEntity
  8
0
  6
CONTINUOUS
 62
         7
100
AcDbLine
 10
7.8832069922
 20
1.9437769943
 30
0.0
 11
7.8832069922
 21
0.3920731707
 31
0.0
  0
LINE
  5
2D
100
AcDbEntity
  8
0
  6
CONTINUOUS
 62
         7
100
AcDbLine
 10
7.8832069922
 20
1.323339557
 30
0.0
 11
6.3491817542
 21
1.323339557
 31
0.0
  0
LINE
  5
2E
100
AcDbEntity
  8
0
  6
CONTINUOUS
 62
         7
100
AcDbLine
 10
7.8832069922
 20
1.6988536355
 30
0.0
 11
4.9283800522
 21
1.6988536355
 31
0.0
  0
LINE
  5
2F
100
AcDbEntity
  8
0
  6
CONTINUOUS
 62
         7
100
AcDbLine
 10
7.8832069922
 20
0.7890359178
 30
0.0
 11
10.629927
 21
0.7890359178
 31
0.0
  0
LINE
  5
30
100
AcDbEntity
  8
0
  6
CONTINUOUS
 62
         7
100
AcDbLine
 10
7.8832069922
 20
1.4456604517
 30
0.0
 11
6.3491817542
 21
1.4456604517
 31
0.0
  0
LINE
  5
31
100
AcDbEntity
  8
0
  6
CONTINUOUS
 62
         7
100
AcDbLine
 10
7.8832069922
 20
1.5679813464
 30
0.0
 11
6.3491817542
 21
1.5679813464
 31
0.0
  0
LINE
  5
32
100
AcDbEntity
  8
0
  6
CONTINUOUS
 62
         7
100
AcDbLine
 10
6.9294188505
 20
1.6988536355
 30
0.0
 11
6.9294188505
 21
1.2010186622
 31
0.0
  0
LINE
  5
33
100
AcDbEntity
  8
0
  6
CONTINUOUS
 62
         7
100
AcDbLine
 10
7.2989435727
 20
1.6988536355
 30
0.0
 11
7.2989435727
 21
1.2010186622
 31
0.0
  0
LINE
  5
34
100
AcDbEntity
  8
0
  6
CONTINUOUS
 62
         7
100
AcDbLine
 10
8.9000563418
 20
0.7890359178
 30
0.0
 11
8.9000563418
 21
0.3920731707
 31
0.0
  0
LINE
  5
35
100
AcDbEntity
  8
0
  6
CONTINUOUS
 62
         7
100
AcDbLine
 10
9.3113942988
 20
0.96139916
 30
0.0
 11
9.3113942988
 21
0.7890359178
 31
0.0
  0
LINE
  5
36
100
AcDbEntity
  8
0
  6
CONTINUOUS
 62
         7
100
AcDbLine
 10
10.0324602448
 20
1.270166923
 30
0.0
 11
10.0324602448
 21
0.96139916
 31
0.0
  0
LINE
  5
37
100
AcDbEntity
  8
0
  6
CONTINUOUS
 62
         7
100
AcDbLine
 10
4.9283800522
 20
1.6988536355
 30
0.0
 11
4.9283800522
 21
0.3920731707
 31
0.0
  0
LINE
  5
38
100
AcDbEntity
  8
0
  6
CONTINUOUS
 62
         7
100
AcDbLine
 10
4.9283800522
 20
1.540040151
 30
0.0
 11
6.3491817542
 21
1.540040151
 31
0.0
  0
LINE
  5
39
100
AcDbEntity
  8
0
  6
CONTINUOUS
 62
         7
100
AcDbLine
 10
4.9283800522
 20
1.4356947803
 30
0.0
 11
6.3491817542
 21
1.4356947803
 31
0.0
  0
LINE
  5
3A
100
AcDbEntity
  8
0
  6
CONTINUOUS
 62
         7
100
AcDbLine
 10
6.3491817542
 20
1.0381709011
 30
0.0
 11
7.8832069922
 21
1.0381709011
 31
0.0
  0
LINE
  5
3B
100
AcDbEntity
  8
0
  6
CONTINUOUS
 62
         7
100
AcDbLine
 10
7.8832069922
 20
1.9437769943
 30
0.0
 11
10.629927
 21
1.9437769943
 31
0.0
  0
LINE
  5
3C
100
AcDbEntity
  8
0
  6
CONTINUOUS
 62
         7
100
AcDbLine
 10
10.315241862
 20
1.2693980507
 30
0.0
 11
10.315241862
 21
0.96139916
 31
0.0
  0
LINE
  5
3D
100
AcDbEntity
  8
0
  6
CONTINUOUS
 62
         7
100
AcDbLine
 10
7.8832069922
 20
0.96139916
 30
0.0
 11
10.629927
 21
0.96139916
 31
0.0
  0
LINE
  5
3E
100
AcDbEntity
  8
0
  6
CONTINUOUS
 62
         7
100
AcDbLine
 10
10.629927
 20
1.9437769943
 30
0.0
 11
10.629927
 21
1.9698084888
 31
0.0
  0
LINE
  5
3F
100
AcDbEntity
  8
0
  6
CONTINUOUS
 62
         7
100
AcDbLine
 10
7.8832069922
 20
1.6268095213
 30
0.0
 11
10.629927
 21
1.6268095213
 31
0.0
  0
LINE
  5
40
100
AcDbEntity
  8
0
  6
CONTINUOUS
 62
         7
100
AcDbLine
 10
6.692177
 20
0.3920731707
 30
0.0
 11
6.692177
 21
0.3072739649
 31
0.0
  0
LINE
  5
41
100
AcDbEntity
  8
0
  6
CONTINUOUS
 62
         7
100
AcDbLine
 10
2.754677
 20
0.3920731707
 30
0.0
 11
2.754677
 21
0.3072739649
 31
0.0
  0
LINE
  5
42
100
AcDbEntity
  8
0
  6
CONTINUOUS
 62
         7
100
AcDbLine
 10
2.754677
 20
0.3920731707
 30
0.0
 11
2.7672319738
 21
0.3575
 31
0.0
  0
LINE
  5
43
100
AcDbEntity
  8
0
  6
CONTINUOUS
 62
         7
100
AcDbLine
 10
2.7672319738
 20
0.3575
 30
0.0
 11
2.7414258825
 21
0.3575
 31
0.0
  0
LINE
  5
44
100
AcDbEntity
  8
0
  6
CONTINUOUS
 62
         7
100
AcDbLine
 10
2.7414258825
 20
0.3575
 30
0.0
 11
2.754677
 21
0.3920731707
 31
0.0
  0
MTEXT
  5
46
100
AcDbEntity
  8
0
 62
         7
100
AcDbMText
 10
10.4087758717
 20
1.1307921136
 30
0.0
 40
0.1041666667
 41
0.0
 71
         1
 72
         1
  1
A
  7
SLDTEXTSTYLE0
  0
MTEXT
  5
47
100
AcDbEntity
  8
0
 62
         7
100
AcDbMText
 10
1.7387909509
 20
0.3228564029
 30
0.0
 40
0.09375
 41
0.0
 71
         1
 72
         1
  1
5
  7
SLDTEXTSTYLE0
  0
MTEXT
  5
48
100
AcDbEntity
  8
0
 62
         7
100
AcDbMText
 10
3.723800327
 20
0.32599373
 30
0.0
 40
0.09375
 41
0.0
 71
         1
 72
         1
  1
4
  7
SLDTEXTSTYLE0
  0
MTEXT
  5
49
100
AcDbEntity
  8
0
 62
         7
100
AcDbMText
 10
5.6324457277
 20
0.3238891623
 30
0.0
 40
0.09375
 41
0.0
 71
         1
 72
         1
  1
3
  7
SLDTEXTSTYLE0
  0
MTEXT
  5
4A
100
AcDbEntity
  8
0
 62
         7
100
AcDbMText
 10
7.6059721724
 20
0.3247091132
 30
0.0
 40
0.09375
 41
0.0
 71
         1
 72
         1
  1
2
  7
SLDTEXTSTYLE0
  0
MTEXT
  5
4B
100
AcDbEntity
  8
0
 62
         7
100
AcDbMText
 10
9.6619921328
 20
0.3136419902
 30
0.0
 40
0.09375
 41
0.0
 71
         1
 72
         1
  1
1
  7
SLDTEXTSTYLE0
  0
MTEXT
  5
4C
100
AcDbEntity
  8
0
 62
         7
100
AcDbMText
 10
9.0733683252
 20
0.608503423
 30
0.0
 40
0.125
 41
0.0
 71
         1
 72
         1
  1
PAZ009
  7
SLDTEXTSTYLE0
  0
MTEXT
  5
4D
100
AcDbEntity
  8
0
 62
         7
100
AcDbMText
 10
7.9301743649
 20
1.2662311489
 30
0.0
 40
0.0833333333
 41
0.0
 71
         1
 72
         1
  1
MATERIAL:
  7
SLDTEXTSTYLE0
  0
MTEXT
  5
4E
100
AcDbEntity
  8
0
 62
         7
100
AcDbMText
 10
8.9438302275
 20
0.7619922188
 30
0.0
 40
0.0833333333
 41
0.0
 71
         1
 72
         1
  1
PART  NO.
  7
SLDTEXTSTYLE0
  0
MTEXT
  5
4F
100
AcDbEntity
  8
0
 62
         7
100
AcDbMText
 10
4.9872272808
 20
1.678787395
 30
0.0
 40
0.1
 41
0.0
 71
         1
 72
         1
  1
TOLERANCES
  7
SLDTEXTSTYLE0
  0
MTEXT
  5
50
100
AcDbEntity
  8
0
 62
         7
100
AcDbMText
 10
6.3927073562
 20
1.1667586129
 30
0.0
 40
0.06
 41
0.0
 71
         1
 72
         1
  1
PROPRIETARY AND CONFIDENTIAL
  7
SLDTEXTSTYLE0
  0
INSERT
  5
66
100
AcDbEntity
  8
0
100
AcDbBlockReference
  2
NOTE11
 10
4.9730262909
 20
1.3359640064
 30
0.0
  0
MTEXT
  5
67
100
AcDbEntity
  8
0
 62
         7
100
AcDbMText
 10
6.4985660702
 20
1.5619929057
 30
0.0
 40
0.065
 41
0.0
 71
         1
 72
         1
  1
DRAWN
  7
SLDTEXTSTYLE0
  0
MTEXT
  5
68
100
AcDbEntity
  8
0
 62
         7
100
AcDbMText
 10
6.4369653776
 20
1.4397369011
 30
0.0
 40
0.065
 41
0.0
 71
         1
 72
         1
  1
ENG APPR.
  7
SLDTEXTSTYLE0
  0
MTEXT
  5
69
100
AcDbEntity
  8
0
 62
         7
100
AcDbMText
 10
6.4273055419
 20
1.3196390079
 30
0.0
 40
0.065
 41
0.0
 71
         1
 72
         1
  1
MFG APPR.
  7
SLDTEXTSTYLE0
  0
MTEXT
  5
6A
100
AcDbEntity
  8
0
 62
         7
100
AcDbMText
 10
6.9752663896
 20
1.6821505696
 30
0.0
 40
0.065
 41
0.0
 71
         1
 72
         1
  1
NAME
  7
SLDTEXTSTYLE0
  0
INSERT
  5
6E
100
AcDbEntity
  8
0
100
AcDbBlockReference
  2
NOTE16
 10
0.0
 20
0.0
 30
0.0
  0
MTEXT
  5
6F
100
AcDbEntity
  8
0
 62
         7
100
AcDbMText
 10
7.9386050459
 20
1.577816147
 30
0.0
 40
0.1
 41
0.0
 71
         1
 72
         1
  1
TITLE:
  7
SLDTEXTSTYLE0
  0
MTEXT
  5
70
100
AcDbEntity
  8
0
 62
         7
100
AcDbMText
 10
10.0657693915
 20
1.2425575667
 30
0.0
 40
0.0833333333
 41
0.0
 71
         1
 72
         1
  1
SIZE
  7
SLDTEXTSTYLE0
  0
MTEXT
  5
71
100
AcDbEntity
  8
0
 62
         7
100
AcDbMText
 10
10.1162261111
 20
1.1269262436
 30
0.0
 40
0.1041666667
 41
0.0
 71
         1
 72
         1
  1
A
  7
SLDTEXTSTYLE0
  0
MTEXT
  5
72
100
AcDbEntity
  8
0
 62
         7
100
AcDbMText
 10
10.335100974
 20
1.24415745
 30
0.0
 40
0.0833333333
 41
0.0
 71
         1
 72
         1
  1
REV.
  7
SLDTEXTSTYLE0
  0
INSERT
  5
78
100
AcDbEntity
  8
0
100
AcDbBlockReference
  2
NOTE21
 10
8.3227727705
 20
0.8245333449
 30
0.0
  0
INSERT
  5
7C
100
AcDbEntity
  8
0
100
AcDbBlockReference
  2
NOTE22
 10
0.0
 20
0.0
 30
0.0
  0
INSERT
  5
80
100
AcDbEntity
  8
0
100
AcDbBlockReference
  2
NOTE23
 10
0.0
 20
0.0
 30
0.0
  0
INSERT
  5
84
100
AcDbEntity
  8
0
100
AcDbBlockReference
  2
NOTE24
 10
0.0
 20
0.0
 30
0.0
  0
INSERT
  5
88
100
AcDbEntity
  8
0
100
AcDbBlockReference
  2
NOTE25
 10
0.0
 20
0.0
 30
0.0
  0
INSERT
  5
8C
100
AcDbEntity
  8
0
100
AcDbBlockReference
  2
NOTE26
 10
0.0
 20
0.0
 30
0.0
  0
INSERT
  5
90
100
AcDbEntity
  8
0
100
AcDbBlockReference
  2
NOTE27
 10
0.0
 20
0.0
 30
0.0
  0
INSERT
  5
94
100
AcDbEntity
  8
0
100
AcDbBlockReference
  2
NOTE28
 10
0.0
 20
0.0
 30
0.0
  0
INSERT
  5
98
100
AcDbEntity
  8
0
100
AcDbBlockReference
  2
NOTE29
 10
0.0
 20
0.0
 30
0.0
  0
INSERT
  5
9C
100
AcDbEntity
  8
0
100
AcDbBlockReference
  2
NOTE30
 10
0.0
 20
0.0
 30
0.0
  0
INSERT
  5
A0
100
AcDbEntity
  8
0
100
AcDbBlockReference
  2
NOTE31
 10
0.0
 20
0.0
 30
0.0
  0
INSERT
  5
A8
100
AcDbEntity
  8
0
100
AcDbBlockReference
  2
NOTE32
 10
9.6378279873
 20
0.8201337505
 30
0.0
  0
MTEXT
  5
A9
100
AcDbEntity
  8
0
 62
         7
100
AcDbMText
 10
8.000122589
 20
0.6079408784
 30
0.0
 40
0.125
 41
0.0
 71
         1
 72
         1
  1
12771-E01
  7
SLDTEXTSTYLE0
  0
INSERT
  5
B3
100
AcDbEntity
  8
0
100
AcDbBlockReference
  2
NOTE34
 10
6.3891646717
 20
0.9312082413
 30
0.0
  0
MTEXT
  5
B4
100
AcDbEntity
  8
0
 62
         7
100
AcDbMText
 10
4.9869424832
 20
1.5430724242
 30
0.0
 40
0.0625
 41
0.0
 71
         1
 72
         1
  1
UNLESS OTHERWISE SPECIFIED:
  7
SLDTEXTSTYLE0
  0
MTEXT
  5
B5
100
AcDbEntity
  8
0
 62
         7
100
AcDbMText
 10
7.9076399399
 20
0.763088683
 30
0.0
 40
0.0833333333
 41
0.0
 71
         1
 72
         1
  1
DWG.  NO.
  7
SLDTEXTSTYLE0
  0
MTEXT
  5
B6
100
AcDbEntity
  8
0
 62
         7
100
AcDbMText
 10
7.0592138229
 20
1.5647861468
 30
0.0
 40
0.065
 41
0.0
 71
         1
 72
         1
  1
JPS
  7
SLDTEXTSTYLE0
  0
MTEXT
  5
B7
100
AcDbEntity
  8
0
 62
         7
100
AcDbMText
 10
7.0628716471
 20
1.4480432518
 30
0.0
 40
0.065
 41
0.0
 71
         1
 72
         1
  1
JMM
  7
SLDTEXTSTYLE0
  0
MTEXT
  5
B8
100
AcDbEntity
  8
0
 62
         7
100
AcDbMText
 10
7.0636219211
 20
1.3254688473
 30
0.0
 40
0.065
 41
0.0
 71
         1
 72
         1
  1
JMM
  7
SLDTEXTSTYLE0
  0
MTEXT
  5
B9
100
AcDbEntity
  8
0
 62
         7
100
AcDbMText
 10
7.3775562039
 20
1.5664735411
 30
0.0
 40
0.065
 41
0.0
 71
         1
 72
         1
  1
11/02/05
  7
SLDTEXTSTYLE0
  0
MTEXT
  5
BA
100
AcDbEntity
  8
0
 62
         7
100
AcDbMText
 10
7.4731545031
 20
1.6796112043
 30
0.0
 40
0.065
 41
0.0
 71
         1
 72
         1
  1
DATE
  7
SLDTEXTSTYLE0
  0
MTEXT
  5
BB
100
AcDbEntity
  8
0
 62
         7
100
AcDbMText
 10
7.3821011998
 20
1.4397569559
 30
0.0
 40
0.065
 41
0.0
 71
         1
 72
         1
  1
11/02/05
  7
SLDTEXTSTYLE0
  0
MTEXT
  5
BC
100
AcDbEntity
  8
0
 62
         7
100
AcDbMText
 10
7.3821011998
 20
1.3192883921
 30
0.0
 40
0.065
 41
0.0
 71
         1
 72
         1
  1
11/02/05
  7
SLDTEXTSTYLE0
  0
MTEXT
  5
BD
100
AcDbEntity
  8
0
 62
         7
100
AcDbMText
 10
7.9182509893
 20
1.8945249685
 30
0.0
 40
0.1875
 41
0.0
 71
         1
 72
         1
  1
THORLABS INC.
  7
SLDTEXTSTYLE0
  0
INSERT
  5
C3
100
AcDbEntity
  8
0
100
AcDbBlockReference
  2
NOTE45
 10
9.7899715108
 20
1.8064732284
 30
0.0
  0
INSERT
  5
CB
100
AcDbEntity
  8
0
100
AcDbBlockReference
  2
NOTE46
 10
8.298233521
 20
1.4556804721
 30
0.0
  0
MTEXT
  5
CC
100
AcDbEntity
  8
0
 62
         7
100
AcDbMText
 10
8.3691642187
 20
1.1419615018
 30
0.0
 40
0.1041666667
 41
0.0
 71
         1
 72
         1
  1
STAINLESS STEEL
  7
SLDTEXTSTYLE0
  0
LINE
  5
CD
100
AcDbEntity
  8
0
  6
CONTINUOUS
 62
         7
100
AcDbLine
 10
8.457120145
 20
4.2313264095
 30
0.0
 11
8.4571201404
 21
4.1919562986
 31
0.0
  0
LINE
  5
CE
100
AcDbEntity
  8
0
  6
CONTINUOUS
 62
         7
100
AcDbLine
 10
8.8508209374
 20
4.1919562986
 30
0.0
 11
8.8508209324
 21
4.2313264095
 31
0.0
  0
LINE
  5
CF
100
AcDbEntity
  8
0
  6
CONTINUOUS
 62
         7
100
AcDbLine
 10
8.5161752631
 20
4.6250271969
 30
0.0
 11
8.5161752682
 21
4.2313263838
 31
0.0
  0
LINE
  5
D0
100
AcDbEntity
  8
0
  6
CONTINUOUS
 62
         7
100
AcDbLine
 10
8.7917658187
 20
4.2313263838
 30
0.0
 11
8.7917658143
 21
4.6250271969
 31
0.0
  0
LINE
  5
D1
100
AcDbEntity
  8
0
  6
CONTINUOUS
 62
         7
100
AcDbLine
 10
8.2996398363
 20
2.7549484457
 30
0.0
 11
9.0083012598
 21
2.7549484457
 31
0.0
  0
ARC
  5
D2
100
AcDbEntity
  8
0
  6
CONTINUOUS
 62
         7
100
AcDbCircle
 10
8.6539705387
 20
3.1289642048
 30
0.0
 40
0.2519685039
100
AcDbArc
 50
58.1378896897
 51
31.2186383224
  0
ARC
  5
D3
100
AcDbEntity
  8
0
  6
CONTINUOUS
 62
       144
100
AcDbCircle
 10
8.6587778649
 20
3.1338350851
 30
0.0
 40
0.2451253945
100
AcDbArc
 50
30.8670498823
 51
58.4605219119
  0
LINE
  5
D4
100
AcDbEntity
  8
0
  6
CONTINUOUS
 62
         7
100
AcDbLine
 10
9.0083012598
 20
2.7549484457
 30
0.0
 11
9.0083012598
 21
3.562035073
 31
0.0
  0
LINE
  5
D5
100
AcDbEntity
  8
0
  6
CONTINUOUS
 62
         7
100
AcDbLine
 10
8.2996398363
 20
3.562035073
 30
0.0
 11
8.2996398363
 21
2.7549484457
 31
0.0
  0
ARC
  5
D6
100
AcDbEntity
  8
0
  6
CONTINUOUS
 62
         7
100
AcDbCircle
 10
8.8331368419
 20
3.3061295591
 30
0.0
 40
0.0590551181
100
AcDbArc
 50
307.9484511642
 51
141.4080768479
  0
LINE
  5
D7
100
AcDbEntity
  8
0
  6
CONTINUOUS
 62
       144
100
AcDbLine
 10
9.0083012598
 20
3.562035073
 30
0.0
 11
8.2996398363
 21
3.562035073
 31
0.0
  0
LINE
  5
D8
100
AcDbEntity
  8
0
  6
CONTINUOUS
 62
         7
100
AcDbLine
 10
8.2996398363
 20
4.1919562986
 30
0.0
 11
9.0083012598
 21
4.1919562986
 31
0.0
  0
LINE
  5
D9
100
AcDbEntity
  8
0
  6
CONTINUOUS
 62
         7
100
AcDbLine
 10
8.2996398363
 20
3.562035073
 30
0.0
 11
8.2996398363
 21
4.1919562986
 31
0.0
  0
LINE
  5
DA
100
AcDbEntity
  8
0
  6
CONTINUOUS
 62
         7
100
AcDbLine
 10
9.0083012598
 20
3.562035073
 30
0.0
 11
9.0083012598
 21
4.1919562986
 31
0.0
  0
LINE
  5
DB
100
AcDbEntity
  8
0
  6
CONTINUOUS
 62
       144
100
AcDbLine
 10
8.2996398363
 20
3.562035073
 30
0.0
 11
9.0083012598
 21
3.562035073
 31
0.0
  0
LINE
  5
DC
100
AcDbEntity
  8
0
  6
CONTINUOUS
 62
         7
100
AcDbLine
 10
8.457120145
 20
4.2313264095
 30
0.0
 11
8.8508209324
 21
4.2313264095
 31
0.0
  0
LINE
  5
DD
100
AcDbEntity
  8
0
  6
CONTINUOUS
 62
         7
100
AcDbLine
 10
8.5161752631
 20
4.6250271969
 30
0.0
 11
8.7917658143
 21
4.6250271969
 31
0.0
  0
CIRCLE
  5
DE
100
AcDbEntity
  8
0
  6
CONTINUOUS
 62
       144
100
AcDbCircle
 10
8.6539705387
 20
3.1289642048
 30
0.0
 40
0.25
  0
CIRCLE
  5
DF
100
AcDbEntity
  8
0
  6
CONTINUOUS
 62
         7
100
AcDbCircle
 10
8.6539705387
 20
3.1289642048
 30
0.0
 40
0.2480314961
  0
CIRCLE
  5
E0
100
AcDbEntity
  8
0
  6
CONTINUOUS
 62
         7
100
AcDbCircle
 10
8.6539705387
 20
3.1289642048
 30
0.0
 40
0.05325
  0
DIMENSION
  5
EF
100
AcDbEntity
  8
0
 62
         7
100
AcDbDimension
  2
*D17
 10
9.0083012473
 20
2.4094472183
 30
0.0
 11
8.6539705387
 21
2.4094472183
 31
0.0
 70
       160
  1
<>\P(18mm)
  3
SLDDIMSTYLE0
100
AcDbAlignedDimension
 13
8.29963983
 23
2.7549484567
 33
0.0
 14
9.0083012473
 24
2.7549484567
 34
0.0
100
AcDbRotatedDimension
  0
DIMENSION
  5
FE
100
AcDbEntity
  8
0
 62
         7
100
AcDbDimension
  2
*D18
 10
7.8986502341
 20
4.6250271969
 30
0.0
 11
7.8986502341
 21
3.6899878268
 31
0.0
 70
       160
  1
<>\P(48mm)
  3
SLDDIMSTYLE1
100
AcDbAlignedDimension
 13
8.29963983
 23
2.7549484567
 33
0.0
 14
8.5161752631
 24
4.6250271969
 34
0.0
 50
90.0
100
AcDbRotatedDimension
  0
LEADER
  5
FF
100
AcDbEntity
  8
0
 62
         7
100
AcDbLeader
  3
SLDDIMSTYLE2
 73
         2
 74
         0
 75
         0
 40
0.0
 76
         3
 10
8.6885815915
 20
3.169431939
 30
0.0
 10
9.1350205397
 20
3.6906601499
 30
0.0
 10
9.3850205397
 20
3.6906601499
 30
0.0
 77
       256
340
107
  0
INSERT
  5
107
100
AcDbEntity
  8
0
100
AcDbBlockReference
  2
NOTE48
 10
9.3850205397
 20
3.6906601499
 30
0.0
  0
INSERT
  5
10F
100
AcDbEntity
  8
0
100
AcDbBlockReference
  2
SW_CENTERMARK0
 10
0.0
 20
0.0
 30
0.0
  0
LINE
  5
110
100
AcDbEntity
  8
0
  6
CONTINUOUS
 62
         7
100
AcDbLine
 10
4.7139498048
 20
4.4675468819
 30
0.0
 11
4.7139497714
 21
4.2313263838
 31
0.0
  0
LINE
  5
111
100
AcDbEntity
  8
0
  6
CONTINUOUS
 62
         7
100
AcDbLine
 10
4.8950521927
 20
4.2313263838
 30
0.0
 11
4.895052167
 21
4.4675468819
 31
0.0
  0
LINE
  5
112
100
AcDbEntity
  8
0
  6
CONTINUOUS
 62
         7
100
AcDbLine
 10
2.8084379937
 20
3.3769957008
 30
0.0
 11
2.5131624032
 21
3.3769957008
 31
0.0
  0
LINE
  5
113
100
AcDbEntity
  8
0
  6
CONTINUOUS
 62
         7
100
AcDbLine
 10
2.5131624032
 20
2.8809327087
 30
0.0
 11
2.8084379937
 21
2.8809327087
 31
0.0
  0
LINE
  5
114
100
AcDbEntity
  8
0
  6
CONTINUOUS
 62
         7
100
AcDbLine
 10
2.2848158597
 20
3.0285705048
 30
0.0
 11
2.5131623685
 21
3.0285705048
 31
0.0
  0
LINE
  5
115
100
AcDbEntity
  8
0
  6
CONTINUOUS
 62
         7
100
AcDbLine
 10
2.5131623685
 20
3.2293579136
 30
0.0
 11
2.2848158597
 21
3.2293579136
 31
0.0
  0
LINE
  5
116
100
AcDbEntity
  8
0
  6
CONTINUOUS
 62
         7
100
AcDbLine
 10
5.0013513796
 20
4.2313264095
 30
0.0
 11
5.0013513713
 21
4.1919562986
 31
0.0
  0
LINE
  5
117
100
AcDbEntity
  8
0
  6
CONTINUOUS
 62
         7
100
AcDbLine
 10
5.3950521499
 20
4.1919562986
 30
0.0
 11
5.395052167
 21
4.2313264095
 31
0.0
  0
LINE
  5
118
100
AcDbEntity
  8
0
  6
CONTINUOUS
 62
         7
100
AcDbLine
 10
5.0604064977
 20
4.6250271969
 30
0.0
 11
5.0604064625
 21
4.2313263838
 31
0.0
  0
LINE
  5
119
100
AcDbEntity
  8
0
  6
CONTINUOUS
 62
         7
100
AcDbLine
 10
5.3359970588
 20
4.2313263838
 30
0.0
 11
5.3359970488
 21
4.6250271969
 31
0.0
  0
LINE
  5
11A
100
AcDbEntity
  8
0
  6
CONTINUOUS
 62
         7
100
AcDbLine
 10
4.3714301549
 20
3.3789642062
 30
0.0
 11
2.8753671276
 21
3.3789642048
 31
0.0
  0
LINE
  5
11B
100
AcDbEntity
  8
0
  6
CONTINUOUS
 62
         7
100
AcDbLine
 10
2.8753671276
 20
2.8789642048
 30
0.0
 11
4.3714301549
 21
2.8789642031
 31
0.0
  0
LINE
  5
11C
100
AcDbEntity
  8
0
  6
CONTINUOUS
 62
         7
100
AcDbLine
 10
2.8084379707
 20
2.9124287865
 30
0.0
 11
2.8753670642
 21
2.9124287865
 31
0.0
  0
LINE
  5
11D
100
AcDbEntity
  8
0
  6
CONTINUOUS
 62
         7
100
AcDbLine
 10
2.8753670642
 20
3.3454996411
 30
0.0
 11
2.8084379707
 21
3.3454996411
 31
0.0
  0
LINE
  5
11E
100
AcDbEntity
  8
0
  6
CONTINUOUS
 62
         7
100
AcDbLine
 10
5.9462332693
 20
3.3769957008
 30
0.0
 11
5.6312726244
 21
3.376995701
 31
0.0
  0
LINE
  5
11F
100
AcDbEntity
  8
0
  6
CONTINUOUS
 62
         7
100
AcDbLine
 10
5.6312726244
 20
2.8809327037
 30
0.0
 11
5.9462332693
 21
2.8809327087
 31
0.0
  0
LINE
  5
120
100
AcDbEntity
  8
0
  6
CONTINUOUS
 62
         7
100
AcDbLine
 10
2.1667057103
 20
2.9124287717
 30
0.0
 11
2.2848159465
 21
2.9124287717
 31
0.0
  0
LINE
  5
121
100
AcDbEntity
  8
0
  6
CONTINUOUS
 62
         7
100
AcDbLine
 10
2.2848159465
 20
3.3454996378
 30
0.0
 11
2.1667057103
 21
3.3454996378
 31
0.0
  0
LINE
  5
122
100
AcDbEntity
  8
0
  6
CONTINUOUS
 62
         7
100
AcDbLine
 10
4.8818215455
 20
4.2313263838
 30
0.0
 11
4.950076197
 21
4.2313263838
 31
0.0
  0
LINE
  5
123
100
AcDbEntity
  8
0
  6
CONTINUOUS
 62
         7
100
AcDbLine
 10
4.7362463672
 20
4.2313263838
 30
0.0
 11
4.8818215455
 21
4.2313263838
 31
0.0
  0
LINE
  5
124
100
AcDbEntity
  8
0
  6
CONTINUOUS
 62
         7
100
AcDbLine
 10
4.6589257671
 20
4.2313263838
 30
0.0
 11
4.7362463672
 21
4.2313263838
 31
0.0
  0
LINE
  5
125
100
AcDbEntity
  8
0
  6
CONTINUOUS
 62
         7
100
AcDbLine
 10
4.6589257671
 20
4.1919562986
 30
0.0
 11
4.6589257671
 21
4.2313263838
 31
0.0
  0
LINE
  5
126
100
AcDbEntity
  8
0
  6
CONTINUOUS
 62
         7
100
AcDbLine
 10
4.7362463672
 20
4.1919562986
 30
0.0
 11
4.7362463672
 21
4.2313263838
 31
0.0
  0
LINE
  5
127
100
AcDbEntity
  8
0
  6
CONTINUOUS
 62
         7
100
AcDbLine
 10
4.8818215455
 20
4.1919562986
 30
0.0
 11
4.8818215455
 21
4.2313263838
 31
0.0
  0
LINE
  5
128
100
AcDbEntity
  8
0
  6
CONTINUOUS
 62
         7
100
AcDbLine
 10
4.950076197
 20
4.1919562986
 30
0.0
 11
4.950076197
 21
4.2313263838
 31
0.0
  0
LINE
  5
129
100
AcDbEntity
  8
0
  6
CONTINUOUS
 62
         7
100
AcDbLine
 10
4.7139498048
 20
4.4675468819
 30
0.0
 11
4.895052167
 21
4.4675468819
 31
0.0
  0
LINE
  5
12A
100
AcDbEntity
  8
0
  6
CONTINUOUS
 62
         7
100
AcDbLine
 10
2.8084379937
 20
3.3769957008
 30
0.0
 11
2.8084379937
 21
2.8809327087
 31
0.0
  0
LINE
  5
12B
100
AcDbEntity
  8
0
  6
CONTINUOUS
 62
         7
100
AcDbLine
 10
2.5131624032
 20
3.3769957008
 30
0.0
 11
2.5131624032
 21
2.8809327087
 31
0.0
  0
LINE
  5
12C
100
AcDbEntity
  8
0
  6
CONTINUOUS
 62
         7
100
AcDbLine
 10
4.3714301549
 20
3.562035073
 30
0.0
 11
4.3714301549
 21
2.7549484457
 31
0.0
  0
LINE
  5
12D
100
AcDbEntity
  8
0
  6
CONTINUOUS
 62
         7
100
AcDbLine
 10
4.3714301549
 20
2.7549484457
 30
0.0
 11
5.6312726244
 21
2.7549484457
 31
0.0
  0
LINE
  5
12E
100
AcDbEntity
  8
0
  6
CONTINUOUS
 62
       144
100
AcDbLine
 10
4.3714301549
 20
3.562035073
 30
0.0
 11
5.6312726244
 21
3.562035073
 31
0.0
  0
LINE
  5
12F
100
AcDbEntity
  8
0
  6
CONTINUOUS
 62
         7
100
AcDbLine
 10
5.6312726244
 20
3.562035073
 30
0.0
 11
5.6312726244
 21
2.7549484457
 31
0.0
  0
LINE
  5
130
100
AcDbEntity
  8
0
  6
CONTINUOUS
 62
         7
100
AcDbLine
 10
5.6312726244
 20
3.562035073
 30
0.0
 11
5.6312726244
 21
4.1919562986
 31
0.0
  0
LINE
  5
131
100
AcDbEntity
  8
0
  6
CONTINUOUS
 62
       144
100
AcDbLine
 10
4.3714301549
 20
3.562035073
 30
0.0
 11
5.6312726244
 21
3.562035073
 31
0.0
  0
LINE
  5
132
100
AcDbEntity
  8
0
  6
CONTINUOUS
 62
         7
100
AcDbLine
 10
4.3714301549
 20
3.562035073
 30
0.0
 11
4.3714301549
 21
4.1919562986
 31
0.0
  0
LINE
  5
133
100
AcDbEntity
  8
0
  6
CONTINUOUS
 62
         7
100
AcDbLine
 10
4.3714301549
 20
4.1919562986
 30
0.0
 11
5.6312726244
 21
4.1919562986
 31
0.0
  0
LINE
  5
134
100
AcDbEntity
  8
0
  6
CONTINUOUS
 62
         7
100
AcDbLine
 10
5.0013513796
 20
4.2313264095
 30
0.0
 11
5.395052167
 21
4.2313264095
 31
0.0
  0
LINE
  5
135
100
AcDbEntity
  8
0
  6
CONTINUOUS
 62
         7
100
AcDbLine
 10
5.0604064977
 20
4.6250271969
 30
0.0
 11
5.3359970488
 21
4.6250271969
 31
0.0
  0
LINE
  5
136
100
AcDbEntity
  8
0
  6
CONTINUOUS
 62
         7
100
AcDbLine
 10
2.8753671276
 20
2.9951597701
 30
0.0
 11
2.8753671276
 21
2.8789642048
 31
0.0
  0
LINE
  5
137
100
AcDbEntity
  8
0
  6
CONTINUOUS
 62
         7
100
AcDbLine
 10
2.8753671276
 20
3.3789642048
 30
0.0
 11
2.8753671276
 21
2.9951597701
 31
0.0
  0
LINE
  5
138
100
AcDbEntity
  8
0
  6
CONTINUOUS
 62
         7
100
AcDbLine
 10
5.9462332693
 20
3.3769957008
 30
0.0
 11
5.9462332693
 21
2.8809327087
 31
0.0
  0
LINE
  5
139
100
AcDbEntity
  8
0
  6
CONTINUOUS
 62
         7
100
AcDbLine
 10
2.1667057103
 20
3.3454996378
 30
0.0
 11
2.1667057103
 21
2.9124287717
 31
0.0
  0
LINE
  5
13A
100
AcDbEntity
  8
0
  6
CONTINUOUS
 62
         7
100
AcDbLine
 10
2.2848159465
 20
3.3454996378
 30
0.0
 11
2.2848159465
 21
2.9124287717
 31
0.0
  0
DIMENSION
  5
148
100
AcDbEntity
  8
0
 62
         7
100
AcDbDimension
  2
*D21
 10
5.9462332693
 20
2.4425308374
 30
0.0
 11
4.1155246079
 21
2.4425308374
 31
0.0
 70
       160
  1
<>\P(93mm)
  3
SLDDIMSTYLE1
100
AcDbAlignedDimension
 13
2.2848159465
 23
2.9124287717
 33
0.0
 14
5.9462332693
 24
2.8809327087
 34
0.0
100
AcDbRotatedDimension
  0
DIMENSION
  5
156
100
AcDbEntity
  8
0
 62
         7
100
AcDbDimension
  2
*D22
 10
5.9462332693
 20
2.0310017941
 30
0.0
 11
4.0564694898
 21
2.0310017941
 31
0.0
 70
       160
  1
<>\P(96mm)
  3
SLDDIMSTYLE1
100
AcDbAlignedDimension
 13
2.1667057103
 23
2.9124287717
 33
0.0
 14
5.9462332693
 24
2.8809327087
 34
0.0
100
AcDbRotatedDimension
  0
DIMENSION
  5
166
100
AcDbEntity
  8
0
 62
         7
100
AcDbDimension
  2
*D23
 10
6.3037813516
 20
2.8809327087
 30
0.0
 11
6.3037813516
 21
3.1289642048
 31
0.0
 70
       160
  1
%%c<>\P(13mm)
  3
SLDDIMSTYLE3
100
AcDbAlignedDimension
 13
5.9462332693
 23
3.3769957008
 33
0.0
 14
5.9462332693
 24
2.8809327087
 34
0.0
 50
90.0
100
AcDbRotatedDimension
  0
DIMENSION
  5
176
100
AcDbEntity
  8
0
 62
         7
100
AcDbDimension
  2
*D24
 10
1.8136251566
 20
3.2293579056
 30
0.0
 11
1.8136251566
 21
2.6917767546
 31
0.0
 70
       160
  1
%%c<>\P(5.1mm)
  3
SLDDIMSTYLE3
100
AcDbAlignedDimension
 13
2.2848159465
 23
3.028570504
 33
0.0
 14
2.2848159465
 24
3.2293579056
 34
0.0
 50
90.0
100
AcDbRotatedDimension
  0
LEADER
  5
177
100
AcDbEntity
  8
0
 62
         7
100
AcDbLeader
  3
SLDDIMSTYLE2
 73
         2
 74
         1
 75
         0
 40
0.0
 76
         3
 10
4.7139498048
 20
4.4675468819
 30
0.0
 10
4.326634133
 20
4.9378482662
 30
0.0
 10
4.076634133
 20
4.9378482662
 30
0.0
 77
       256
340
17D
  0
INSERT
  5
17D
100
AcDbEntity
  8
0
100
AcDbBlockReference
  2
NOTE49
 10
4.076634133
 20
4.9378482662
 30
0.0
  0
LEADER
  5
17E
100
AcDbEntity
  8
0
 62
         7
100
AcDbLeader
  3
SLDDIMSTYLE2
 73
         2
 74
         0
 75
         0
 40
0.0
 76
         3
 10
5.3359970488
 20
4.6250271969
 30
0.0
 10
5.5404531714
 20
4.9393422299
 30
0.0
 10
5.7904531714
 20
4.9393422299
 30
0.0
 77
       256
340
184
  0
INSERT
  5
184
100
AcDbEntity
  8
0
100
AcDbBlockReference
  2
NOTE50
 10
5.7904531714
 20
4.9393422299
 30
0.0
  0
LINE
  5
185
100
AcDbEntity
  8
0
  6
CONTINUOUS
 62
         7
100
AcDbLine
 10
2.8084379937
 20
7.1092373798
 30
0.0
 11
2.5131624032
 21
7.1092373798
 31
0.0
  0
LINE
  5
186
100
AcDbEntity
  8
0
  6
CONTINUOUS
 62
         7
100
AcDbLine
 10
2.5131624032
 20
6.6131743877
 30
0.0
 11
2.8084379937
 21
6.6131743877
 31
0.0
  0
LINE
  5
187
100
AcDbEntity
  8
0
  6
CONTINUOUS
 62
         7
100
AcDbLine
 10
2.2848158597
 20
6.7608121796
 30
0.0
 11
2.5131623685
 21
6.7608121796
 31
0.0
  0
LINE
  5
188
100
AcDbEntity
  8
0
  6
CONTINUOUS
 62
         7
100
AcDbLine
 10
2.5131623685
 20
6.9615995838
 30
0.0
 11
2.2848158597
 21
6.9615995838
 31
0.0
  0
LINE
  5
189
100
AcDbEntity
  8
0
  6
CONTINUOUS
 62
         7
100
AcDbLine
 10
4.3714301549
 20
7.1112058901
 30
0.0
 11
2.8753671276
 21
7.1112058838
 31
0.0
  0
LINE
  5
18A
100
AcDbEntity
  8
0
  6
CONTINUOUS
 62
         7
100
AcDbLine
 10
2.8753671276
 20
6.6112058838
 30
0.0
 11
4.3714301549
 21
6.6112058779
 31
0.0
  0
LINE
  5
18B
100
AcDbEntity
  8
0
  6
CONTINUOUS
 62
         7
100
AcDbLine
 10
2.8084379707
 20
6.6446704429
 30
0.0
 11
2.8753670642
 21
6.6446704429
 31
0.0
  0
LINE
  5
18C
100
AcDbEntity
  8
0
  6
CONTINUOUS
 62
         7
100
AcDbLine
 10
2.8753670642
 20
7.0777413251
 30
0.0
 11
2.8084379707
 21
7.0777413251
 31
0.0
  0
LINE
  5
18D
100
AcDbEntity
  8
0
  6
CONTINUOUS
 62
         7
100
AcDbLine
 10
5.9462332693
 20
7.1092373798
 30
0.0
 11
5.6312726244
 21
7.1092373712
 31
0.0
  0
LINE
  5
18E
100
AcDbEntity
  8
0
  6
CONTINUOUS
 62
         7
100
AcDbLine
 10
5.6312726244
 20
6.6131743968
 30
0.0
 11
5.9462332693
 21
6.6131743877
 31
0.0
  0
LINE
  5
18F
100
AcDbEntity
  8
0
  6
CONTINUOUS
 62
         7
100
AcDbLine
 10
2.1667057103
 20
6.6446704507
 30
0.0
 11
2.2848159465
 21
6.6446704507
 31
0.0
  0
LINE
  5
190
100
AcDbEntity
  8
0
  6
CONTINUOUS
 62
         7
100
AcDbLine
 10
2.2848159465
 20
7.0777413168
 30
0.0
 11
2.1667057103
 21
7.0777413168
 31
0.0
  0
CIRCLE
  5
191
100
AcDbEntity
  8
0
  6
CONTINUOUS
 62
         7
100
AcDbCircle
 10
5.5131624032
 20
6.8612058838
 30
0.0
 40
0.0787401575
  0
CIRCLE
  5
192
100
AcDbEntity
  8
0
  6
CONTINUOUS
 62
       144
100
AcDbCircle
 10
5.5131624032
 20
6.8612058838
 30
0.0
 40
0.0885826772
  0
LINE
  5
193
100
AcDbEntity
  8
0
  6
CONTINUOUS
 62
         7
100
AcDbLine
 10
5.4790484263
 20
6.8927804461
 30
0.0
 11
5.4687610518
 21
6.847449585
 31
0.0
  0
LINE
  5
194
100
AcDbEntity
  8
0
  6
CONTINUOUS
 62
         7
100
AcDbLine
 10
5.4687610518
 20
6.847449585
 30
0.0
 11
5.502875031
 21
6.8158750227
 31
0.0
  0
LINE
  5
195
100
AcDbEntity
  8
0
  6
CONTINUOUS
 62
         7
100
AcDbLine
 10
5.5472763848
 20
6.8296313217
 30
0.0
 11
5.502875031
 21
6.8158750227
 31
0.0
  0
LINE
  5
196
100
AcDbEntity
  8
0
  6
CONTINUOUS
 62
         7
100
AcDbLine
 10
5.5575637593
 20
6.8749621841
 30
0.0
 11
5.5472763848
 21
6.8296313217
 31
0.0
  0
LINE
  5
197
100
AcDbEntity
  8
0
  6
CONTINUOUS
 62
         7
100
AcDbLine
 10
5.5575637593
 20
6.8749621841
 30
0.0
 11
5.52344978
 21
6.9065367465
 31
0.0
  0
LINE
  5
198
100
AcDbEntity
  8
0
  6
CONTINUOUS
 62
         7
100
AcDbLine
 10
5.4790484263
 20
6.8927804461
 30
0.0
 11
5.52344978
 21
6.9065367465
 31
0.0
  0
ARC
  5
199
100
AcDbEntity
  8
0
  6
CONTINUOUS
 62
         7
100
AcDbCircle
 10
5.5131624032
 20
6.8612058838
 30
0.0
 40
0.0402559055
100
AcDbArc
 50
347.2138716342
 51
47.2138716342
  0
ARC
  5
19A
100
AcDbEntity
  8
0
  6
CONTINUOUS
 62
         7
100
AcDbCircle
 10
5.5131624032
 20
6.8612058838
 30
0.0
 40
0.0402559055
100
AcDbArc
 50
47.2138716342
 51
107.2138716342
  0
ARC
  5
19B
100
AcDbEntity
  8
0
  6
CONTINUOUS
 62
         7
100
AcDbCircle
 10
5.5131624032
 20
6.8612058838
 30
0.0
 40
0.0402559055
100
AcDbArc
 50
227.2138716342
 51
287.2138716342
  0
ARC
  5
19C
100
AcDbEntity
  8
0
  6
CONTINUOUS
 62
       144
100
AcDbCircle
 10
5.5131624032
 20
6.8612058838
 30
0.0
 40
0.0402559055
100
AcDbArc
 50
107.2138716342
 51
167.2138716342
  0
ARC
  5
19D
100
AcDbEntity
  8
0
  6
CONTINUOUS
 62
       144
100
AcDbCircle
 10
5.5131624032
 20
6.8612058838
 30
0.0
 40
0.0402559055
100
AcDbArc
 50
167.2138716342
 51
227.2138716342
  0
ARC
  5
19E
100
AcDbEntity
  8
0
  6
CONTINUOUS
 62
       144
100
AcDbCircle
 10
5.5131624032
 20
6.8612058838
 30
0.0
 40
0.0402559055
100
AcDbArc
 50
287.2138716342
 51
347.2138716342
  0
CIRCLE
  5
19F
100
AcDbEntity
  8
0
  6
CONTINUOUS
 62
         7
100
AcDbCircle
 10
4.8045009859
 20
6.8612058838
 30
0.0
 40
0.0905511811
  0
LINE
  5
1A0
100
AcDbEntity
  8
0
  6
CONTINUOUS
 62
         7
100
AcDbLine
 10
4.7271804186
 20
6.9846606112
 30
0.0
 11
4.6589257671
 21
6.8559716609
 31
0.0
  0
LINE
  5
1A1
100
AcDbEntity
  8
0
  6
CONTINUOUS
 62
         7
100
AcDbLine
 10
4.8727555969
 20
6.9898948365
 30
0.0
 11
4.7271804186
 21
6.9846606112
 31
0.0
  0
LINE
  5
1A2
100
AcDbEntity
  8
0
  6
CONTINUOUS
 62
         7
100
AcDbLine
 10
4.950076197
 20
6.8664401071
 30
0.0
 11
4.8727555969
 21
6.9898948365
 31
0.0
  0
LINE
  5
1A3
100
AcDbEntity
  8
0
  6
CONTINUOUS
 62
         7
100
AcDbLine
 10
4.8818215455
 20
6.7377511477
 30
0.0
 11
4.950076197
 21
6.8664401071
 31
0.0
  0
LINE
  5
1A4
100
AcDbEntity
  8
0
  6
CONTINUOUS
 62
         7
100
AcDbLine
 10
4.7362463672
 20
6.7325169315
 30
0.0
 11
4.8818215455
 21
6.7377511477
 31
0.0
  0
LINE
  5
1A5
100
AcDbEntity
  8
0
  6
CONTINUOUS
 62
         7
100
AcDbLine
 10
4.6589257671
 20
6.8559716609
 30
0.0
 11
4.7362463672
 21
6.7325169315
 31
0.0
  0
LINE
  5
1A6
100
AcDbEntity
  8
0
  6
CONTINUOUS
 62
         7
100
AcDbLine
 10
2.8084379937
 20
7.0826795787
 30
0.0
 11
2.8084379937
 21
6.6131743877
 31
0.0
  0
LINE
  5
1A7
100
AcDbEntity
  8
0
  6
CONTINUOUS
 62
         7
100
AcDbLine
 10
2.8084379937
 20
7.1092373798
 30
0.0
 11
2.8084379937
 21
7.0826795787
 31
0.0
  0
LINE
  5
1A8
100
AcDbEntity
  8
0
  6
CONTINUOUS
 62
         7
100
AcDbLine
 10
2.5131624032
 20
7.0826795787
 30
0.0
 11
2.5131624032
 21
6.6131743877
 31
0.0
  0
LINE
  5
1A9
100
AcDbEntity
  8
0
  6
CONTINUOUS
 62
         7
100
AcDbLine
 10
2.5131624032
 20
7.1092373798
 30
0.0
 11
2.5131624032
 21
7.0826795787
 31
0.0
  0
LINE
  5
1AA
100
AcDbEntity
  8
0
  6
CONTINUOUS
 62
       144
100
AcDbLine
 10
5.4758354734
 20
6.8752559839
 30
0.0
 11
5.4749764933
 21
6.8723461611
 31
0.0
  0
LINE
  5
1AB
100
AcDbEntity
  8
0
  6
CONTINUOUS
 62
       144
100
AcDbLine
 10
5.4807157504
 20
6.8378704144
 30
0.0
 11
5.484639735
 21
6.8333755684
 31
0.0
  0
LINE
  5
1AC
100
AcDbEntity
  8
0
  6
CONTINUOUS
 62
         7
100
AcDbLine
 10
4.3714301549
 20
6.5068751814
 30
0.0
 11
5.6312726244
 21
6.5068751814
 31
0.0
  0
LINE
  5
1AD
100
AcDbEntity
  8
0
  6
CONTINUOUS
 62
         7
100
AcDbLine
 10
4.3714301549
 20
7.2155366049
 30
0.0
 11
4.3714301549
 21
6.5068751814
 31
0.0
  0
LINE
  5
1AE
100
AcDbEntity
  8
0
  6
CONTINUOUS
 62
         7
100
AcDbLine
 10
5.6312726244
 20
7.2155366049
 30
0.0
 11
4.3714301549
 21
7.2155366049
 31
0.0
  0
LINE
  5
1AF
100
AcDbEntity
  8
0
  6
CONTINUOUS
 62
         7
100
AcDbLine
 10
5.6312726244
 20
6.5068751814
 30
0.0
 11
5.6312726244
 21
7.2155366049
 31
0.0
  0
CIRCLE
  5
1B0
100
AcDbEntity
  8
0
  6
CONTINUOUS
 62
         7
100
AcDbCircle
 10
4.4895403559
 20
6.8612058838
 30
0.0
 40
0.0984251969
  0
CIRCLE
  5
1B1
100
AcDbEntity
  8
0
  6
CONTINUOUS
 62
         7
100
AcDbCircle
 10
5.5131624032
 20
6.8612058838
 30
0.0
 40
0.0984251969
  0
CIRCLE
  5
1B2
100
AcDbEntity
  8
0
  6
CONTINUOUS
 62
         7
100
AcDbCircle
 10
5.1982017733
 20
6.8612058838
 30
0.0
 40
0.1377952756
  0
CIRCLE
  5
1B3
100
AcDbEntity
  8
0
  6
CONTINUOUS
 62
         7
100
AcDbCircle
 10
5.1982017733
 20
6.8612058838
 30
0.0
 40
0.1968503937
  0
CIRCLE
  5
1B4
100
AcDbEntity
  8
0
  6
CONTINUOUS
 62
         7
100
AcDbCircle
 10
4.4895403559
 20
6.8612058838
 30
0.0
 40
0.0787401575
  0
LINE
  5
1B5
100
AcDbEntity
  8
0
  6
CONTINUOUS
 62
         7
100
AcDbLine
 10
4.4925025296
 20
6.8148168532
 30
0.0
 11
4.531195536
 21
6.8405767131
 31
0.0
  0
LINE
  5
1B6
100
AcDbEntity
  8
0
  6
CONTINUOUS
 62
         7
100
AcDbLine
 10
4.531195536
 20
6.8405767131
 30
0.0
 11
4.5282333435
 21
6.8869657491
 31
0.0
  0
LINE
  5
1B7
100
AcDbEntity
  8
0
  6
CONTINUOUS
 62
         7
100
AcDbLine
 10
4.4865781447
 20
6.9075949182
 30
0.0
 11
4.5282333435
 21
6.8869657491
 31
0.0
  0
LINE
  5
1B8
100
AcDbEntity
  8
0
  6
CONTINUOUS
 62
         7
100
AcDbLine
 10
4.4478851384
 20
6.8818350537
 30
0.0
 11
4.4865781447
 21
6.9075949182
 31
0.0
  0
LINE
  5
1B9
100
AcDbEntity
  8
0
  6
CONTINUOUS
 62
         7
100
AcDbLine
 10
4.4478851384
 20
6.8818350537
 30
0.0
 11
4.4508473308
 21
6.8354460195
 31
0.0
  0
LINE
  5
1BA
100
AcDbEntity
  8
0
  6
CONTINUOUS
 62
         7
100
AcDbLine
 10
4.4925025296
 20
6.8148168532
 30
0.0
 11
4.4508473308
 21
6.8354460195
 31
0.0
  0
CIRCLE
  5
1BB
100
AcDbEntity
  8
0
  6
CONTINUOUS
 62
       144
100
AcDbCircle
 10
4.4895403559
 20
6.8612058838
 30
0.0
 40
0.0885826772
  0
ARC
  5
1BC
100
AcDbEntity
  8
0
  6
CONTINUOUS
 62
         7
100
AcDbCircle
 10
4.4895403559
 20
6.8612058838
 30
0.0
 40
0.0402559055
100
AcDbArc
 50
63.6537067375
 51
123.6537067375
  0
ARC
  5
1BD
100
AcDbEntity
  8
0
  6
CONTINUOUS
 62
         7
100
AcDbCircle
 10
4.4895403559
 20
6.8612058838
 30
0.0
 40
0.0402559055
100
AcDbArc
 50
303.6537067375
 51
3.6537067375
  0
ARC
  5
1BE
100
AcDbEntity
  8
0
  6
CONTINUOUS
 62
         7
100
AcDbCircle
 10
4.4895403559
 20
6.8612058838
 30
0.0
 40
0.0402559055
100
AcDbArc
 50
243.6537067375
 51
303.6537067375
  0
ARC
  5
1BF
100
AcDbEntity
  8
0
  6
CONTINUOUS
 62
         7
100
AcDbCircle
 10
4.4895403559
 20
6.8612058838
 30
0.0
 40
0.0402559055
100
AcDbArc
 50
183.6537067375
 51
243.6537067375
  0
ARC
  5
1C0
100
AcDbEntity
  8
0
  6
CONTINUOUS
 62
       144
100
AcDbCircle
 10
4.4895403559
 20
6.8612058838
 30
0.0
 40
0.0402559055
100
AcDbArc
 50
3.6537067375
 51
63.6537067375
  0
ARC
  5
1C1
100
AcDbEntity
  8
0
  6
CONTINUOUS
 62
       144
100
AcDbCircle
 10
4.4895403559
 20
6.8612058838
 30
0.0
 40
0.0402559055
100
AcDbArc
 50
123.6537067375
 51
183.6537067375
  0
LINE
  5
1C2
100
AcDbEntity
  8
0
  6
CONTINUOUS
 62
         7
100
AcDbLine
 10
2.8753671276
 20
7.1112058838
 30
0.0
 11
2.8753671276
 21
6.6112058838
 31
0.0
  0
LINE
  5
1C3
100
AcDbEntity
  8
0
  6
CONTINUOUS
 62
         7
100
AcDbLine
 10
5.9462332693
 20
7.1092373798
 30
0.0
 11
5.9462332693
 21
6.6131743877
 31
0.0
  0
LINE
  5
1C4
100
AcDbEntity
  8
0
  6
CONTINUOUS
 62
         7
100
AcDbLine
 10
2.2848159465
 20
7.0349336289
 30
0.0
 11
2.2848159465
 21
6.6446704507
 31
0.0
  0
LINE
  5
1C5
100
AcDbEntity
  8
0
  6
CONTINUOUS
 62
         7
100
AcDbLine
 10
2.2848159465
 20
7.0777413168
 30
0.0
 11
2.2848159465
 21
7.0349336289
 31
0.0
  0
LINE
  5
1C6
100
AcDbEntity
  8
0
  6
CONTINUOUS
 62
         7
100
AcDbLine
 10
2.1667057103
 20
7.0349336289
 30
0.0
 11
2.1667057103
 21
6.6446704507
 31
0.0
  0
LINE
  5
1C7
100
AcDbEntity
  8
0
  6
CONTINUOUS
 62
         7
100
AcDbLine
 10
2.1667057103
 20
7.0777413168
 30
0.0
 11
2.1667057103
 21
7.0349336289
 31
0.0
  0
DIMENSION
  5
1D5
100
AcDbEntity
  8
0
 62
         7
100
AcDbDimension
  2
*D27
 10
5.6312726394
 20
6.2300468943
 30
0.0
 11
6.2928014258
 21
6.2300468943
 31
0.0
 70
       160
  1
<>\P(8mm)
  3
SLDDIMSTYLE0
100
AcDbAlignedDimension
 13
5.9462332693
 23
6.6131743877
 33
0.0
 14
5.6312726394
 24
6.5068751751
 34
0.0
100
AcDbRotatedDimension
  0
DIMENSION
  5
1E3
100
AcDbEntity
  8
0
 62
         7
100
AcDbDimension
  2
*D28
 10
5.6312726394
 20
6.2300468943
 30
0.0
 11
5.0013513796
 21
6.2300468943
 31
0.0
 70
       160
  1
<>\P(32mm)
  3
SLDDIMSTYLE1
100
AcDbAlignedDimension
 13
4.3714301197
 23
6.5068751751
 33
0.0
 14
5.6312726394
 24
6.5068751751
 34
0.0
100
AcDbRotatedDimension
  0
LEADER
  5
1E4
100
AcDbEntity
  8
0
 62
         7
100
AcDbLeader
  3
SLDDIMSTYLE2
 73
         2
 74
         1
 75
         0
 40
0.0
 76
         3
 10
2.1667057103
 20
7.0777413168
 30
0.0
 10
1.8267347617
 20
7.359880435
 30
0.0
 10
1.5767347617
 20
7.359880435
 30
0.0
 77
       256
340
1EC
  0
INSERT
  5
1EC
100
AcDbEntity
  8
0
100
AcDbBlockReference
  2
NOTE51
 10
1.5767347617
 20
7.359880435
 30
0.0
  0
LINE
  5
1ED
100
AcDbEntity
  8
0
  6
CONTINUOUS
 62
         7
100
AcDbLine
 10
9.7953191977
 20
7.564752767
 30
0.0
 11
9.7883583665
 21
7.5687724898
 31
0.0
  0
LINE
  5
1EE
100
AcDbEntity
  8
0
  6
CONTINUOUS
 62
         7
100
AcDbLine
 10
9.6769848624
 20
7.5687724842
 30
0.0
 11
9.6700240185
 21
7.564752767
 31
0.0
  0
LINE
  5
1EF
100
AcDbEntity
  8
0
  6
CONTINUOUS
 62
         7
100
AcDbLine
 10
9.1410211372
 20
7.4884617739
 30
0.0
 11
9.1410211332
 21
7.2955781037
 31
0.0
  0
LINE
  5
1F0
100
AcDbEntity
  8
0
  6
CONTINUOUS
 62
         7
100
AcDbLine
 10
9.3221234954
 20
7.2955781037
 30
0.0
 11
9.3221234842
 21
7.4884617655
 31
0.0
  0
LINE
  5
1F1
100
AcDbEntity
  8
0
  6
CONTINUOUS
 62
         7
100
AcDbLine
 10
7.6961369673
 20
5.7954607598
 30
0.0
 11
7.4873455719
 21
5.6749280478
 31
0.0
  0
LINE
  5
1F2
100
AcDbEntity
  8
0
  6
CONTINUOUS
 62
         7
100
AcDbLine
 10
7.7353569143
 20
5.2453132548
 30
0.0
 11
7.9441483065
 21
5.3658459698
 31
0.0
  0
LINE
  5
1F3
100
AcDbEntity
  8
0
  6
CONTINUOUS
 62
         7
100
AcDbLine
 10
7.5960143734
 20
5.3353453371
 30
0.0
 11
7.6757403643
 21
5.381370172
 31
0.0
  0
LINE
  5
1F4
100
AcDbEntity
  8
0
  6
CONTINUOUS
 62
         7
100
AcDbLine
 10
7.5753548211
 20
5.5552618945
 30
0.0
 11
7.4956288302
 21
5.5092370597
 31
0.0
  0
LINE
  5
1F5
100
AcDbEntity
  8
0
  6
CONTINUOUS
 62
         7
100
AcDbLine
 10
9.3721655392
 20
7.7777610949
 30
0.0
 11
9.3721655353
 21
7.4562883619
 31
0.0
  0
LINE
  5
1F6
100
AcDbEntity
  8
0
  6
CONTINUOUS
 62
         7
100
AcDbLine
 10
9.6477560865
 20
7.4562883619
 30
0.0
 11
9.6477560677
 21
7.7777610818
 31
0.0
  0
LINE
  5
1F7
100
AcDbEntity
  8
0
  6
CONTINUOUS
 62
         7
100
AcDbLine
 10
9.7068112046
 20
7.4241410858
 30
0.0
 11
9.7068112085
 21
7.4562883396
 31
0.0
  0
LINE
  5
1F8
100
AcDbEntity
  8
0
  6
CONTINUOUS
 62
         7
100
AcDbLine
 10
9.0715091067
 20
7.1469060956
 30
0.0
 11
9.0645482606
 21
7.1509258098
 31
0.0
  0
LINE
  5
1F9
100
AcDbEntity
  8
0
  6
CONTINUOUS
 62
         7
100
AcDbLine
 10
8.9531747824
 20
7.1509258192
 30
0.0
 11
8.9462139275
 21
7.1469060956
 31
0.0
  0
LINE
  5
1FA
100
AcDbEntity
  8
0
  6
CONTINUOUS
 62
         7
100
AcDbLine
 10
8.8160736231
 20
6.4442594026
 30
0.0
 11
7.7424787944
 21
5.8244863003
 31
0.0
  0
LINE
  5
1FB
100
AcDbEntity
  8
0
  6
CONTINUOUS
 62
         7
100
AcDbLine
 10
7.9924584719
 20
5.3914618841
 30
0.0
 11
9.0660533006
 21
6.0112349865
 31
0.0
  0
LINE
  5
1FC
100
AcDbEntity
  8
0
  6
CONTINUOUS
 62
         7
100
AcDbLine
 10
10.0667378083
 20
6.5911907971
 30
0.0
 11
10.1629046239
 21
6.6467067279
 31
0.0
  0
LINE
  5
1FD
100
AcDbEntity
  8
0
  6
CONTINUOUS
 62
         7
100
AcDbLine
 10
7.4746282802
 20
5.131165378
 30
0.0
 11
7.5581448544
 21
5.1793784559
 31
0.0
  0
LINE
  5
1FE
100
AcDbEntity
  8
0
  6
CONTINUOUS
 62
         7
100
AcDbLine
 10
7.3416270186
 20
5.5544389868
 30
0.0
 11
7.2581104482
 21
5.5062258904
 31
0.0
  0
POLYLINE
  5
1FF
100
AcDbEntity
  8
0
  6
CONTINUOUS
 62
         7
100
AcDb2dPolyline
 66
         1
 10
0.0
 20
0.0
 30
0.0
 70
       128
  0
VERTEX
  5
200
100
AcDbEntity
  8
0
100
AcDbVertex
100
AcDb2dVertex
 10
9.7296299101
 20
7.5820574594
 30
0.0
  0
VERTEX
  5
201
100
AcDbEntity
  8
0
100
AcDbVertex
100
AcDb2dVertex
 10
9.7187091648
 20
7.5813710306
 30
0.0
  0
VERTEX
  5
202
100
AcDbEntity
  8
0
100
AcDbVertex
100
AcDb2dVertex
 10
9.7080602003
 20
7.579813885
 30
0.0
  0
VERTEX
  5
203
100
AcDbEntity
  8
0
100
AcDbVertex
100
AcDb2dVertex
 10
9.6978902638
 20
7.5774163242
 30
0.0
  0
VERTEX
  5
204
100
AcDbEntity
  8
0
100
AcDbVertex
100
AcDb2dVertex
 10
9.688397322
 20
7.5742250226
 30
0.0
  0
VERTEX
  5
205
100
AcDbEntity
  8
0
100
AcDbVertex
100
AcDb2dVertex
 10
9.679766111
 20
7.5703020759
 30
0.0
  0
VERTEX
  5
206
100
AcDbEntity
  8
0
100
AcDbVertex
100
AcDb2dVertex
 10
9.6721646374
 20
7.5657238473
 30
0.0
  0
VERTEX
  5
207
100
AcDbEntity
  8
0
100
AcDbVertex
100
AcDb2dVertex
 10
9.6657408793
 20
7.5605794597
 30
0.0
  0
VERTEX
  5
208
100
AcDbEntity
  8
0
100
AcDbVertex
100
AcDb2dVertex
 10
9.6606198401
 20
7.5549690237
 30
0.0
  0
VERTEX
  5
209
100
AcDbEntity
  8
0
100
AcDbVertex
100
AcDb2dVertex
 10
9.6569012107
 20
7.5490017549
 30
0.0
  0
VERTEX
  5
20A
100
AcDbEntity
  8
0
100
AcDbVertex
100
AcDb2dVertex
 10
9.6546573791
 20
7.5427937997
 30
0.0
  0
VERTEX
  5
20B
100
AcDbEntity
  8
0
100
AcDbVertex
100
AcDb2dVertex
 10
9.6539319966
 20
7.5364659796
 30
0.0
  0
VERTEX
  5
20C
100
AcDbEntity
  8
0
100
AcDbVertex
100
AcDb2dVertex
 10
9.6540975077
 20
7.5336851771
 30
0.0
  0
SEQEND
  5
20D
100
AcDbEntity
  8
0
  0
POLYLINE
  5
20E
100
AcDbEntity
  8
0
  6
CONTINUOUS
 62
         7
100
AcDb2dPolyline
 66
         1
 10
0.0
 20
0.0
 30
0.0
 70
       128
  0
VERTEX
  5
20F
100
AcDbEntity
  8
0
100
AcDbVertex
100
AcDb2dVertex
 10
9.79454068
 20
7.5085185448
 30
0.0
  0
VERTEX
  5
210
100
AcDbEntity
  8
0
100
AcDbVertex
100
AcDb2dVertex
 10
9.7965460387
 20
7.5100549016
 30
0.0
  0
VERTEX
  5
211
100
AcDbEntity
  8
0
100
AcDbVertex
100
AcDb2dVertex
 10
9.8023325449
 20
7.5154454529
 30
0.0
  0
VERTEX
  5
212
100
AcDbEntity
  8
0
100
AcDbVertex
100
AcDb2dVertex
 10
9.8067631558
 20
7.5212484246
 30
0.0
  0
VERTEX
  5
213
100
AcDbEntity
  8
0
100
AcDbVertex
100
AcDb2dVertex
 10
9.8097516775
 20
7.5273509108
 30
0.0
  0
VERTEX
  5
214
100
AcDbEntity
  8
0
100
AcDbVertex
100
AcDb2dVertex
 10
9.8112399168
 20
7.5336341086
 30
0.0
  0
VERTEX
  5
215
100
AcDbEntity
  8
0
100
AcDbVertex
100
AcDb2dVertex
 10
9.8111989068
 20
7.5399757238
 30
0.0
  0
VERTEX
  5
216
100
AcDbEntity
  8
0
100
AcDbVertex
100
AcDb2dVertex
 10
9.8096294708
 20
7.5462523397
 30
0.0
  0
VERTEX
  5
217
100
AcDbEntity
  8
0
100
AcDbVertex
100
AcDb2dVertex
 10
9.8065621053
 20
7.5523417595
 30
0.0
  0
VERTEX
  5
218
100
AcDbEntity
  8
0
100
AcDbVertex
100
AcDb2dVertex
 10
9.8020565687
 20
7.5581254889
 30
0.0
  0
VERTEX
  5
219
100
AcDbEntity
  8
0
100
AcDbVertex
100
AcDb2dVertex
 10
9.7962005362
 20
7.5634909493
 30
0.0
  0
VERTEX
  5
21A
100
AcDbEntity
  8
0
100
AcDbVertex
100
AcDb2dVertex
 10
9.7891079584
 20
7.568333683
 30
0.0
  0
VERTEX
  5
21B
100
AcDbEntity
  8
0
100
AcDbVertex
100
AcDb2dVertex
 10
9.7809169465
 20
7.5725594716
 30
0.0
  0
VERTEX
  5
21C
100
AcDbEntity
  8
0
100
AcDbVertex
100
AcDb2dVertex
 10
9.7717868799
 20
7.5760860363
 30
0.0
  0
VERTEX
  5
21D
100
AcDbEntity
  8
0
100
AcDbVertex
100
AcDb2dVertex
 10
9.7618954645
 20
7.5788447353
 30
0.0
  0
VERTEX
  5
21E
100
AcDbEntity
  8
0
100
AcDbVertex
100
AcDb2dVertex
 10
9.7514352481
 20
7.5807818878
 30
0.0
  0
VERTEX
  5
21F
100
AcDbEntity
  8
0
100
AcDbVertex
100
AcDb2dVertex
 10
9.7406098329
 20
7.5818597922
 30
0.0
  0
VERTEX
  5
220
100
AcDbEntity
  8
0
100
AcDbVertex
100
AcDb2dVertex
 10
9.7296299101
 20
7.5820574594
 30
0.0
  0
SEQEND
  5
221
100
AcDbEntity
  8
0
  0
POLYLINE
  5
222
100
AcDbEntity
  8
0
  6
CONTINUOUS
 62
       144
100
AcDb2dPolyline
 66
         1
 10
0.0
 20
0.0
 30
0.0
 70
       128
  0
VERTEX
  5
223
100
AcDbEntity
  8
0
100
AcDbVertex
100
AcDb2dVertex
 10
9.670024008
 20
7.5647527475
 30
0.0
  0
VERTEX
  5
224
100
AcDbEntity
  8
0
100
AcDbVertex
100
AcDb2dVertex
 10
9.6676612916
 20
7.5633348007
 30
0.0
  0
VERTEX
  5
225
100
AcDbEntity
  8
0
100
AcDbVertex
100
AcDb2dVertex
 10
9.6603635717
 20
7.5581390247
 30
0.0
  0
VERTEX
  5
226
100
AcDbEntity
  8
0
100
AcDbVertex
100
AcDb2dVertex
 10
9.6543030436
 20
7.5524377971
 30
0.0
  0
VERTEX
  5
227
100
AcDbEntity
  8
0
100
AcDbVertex
100
AcDb2dVertex
 10
9.6495834703
 20
7.5463287027
 30
0.0
  0
VERTEX
  5
228
100
AcDbEntity
  8
0
100
AcDbVertex
100
AcDb2dVertex
 10
9.6477560936
 20
7.5431602693
 30
0.0
  0
SEQEND
  5
229
100
AcDbEntity
  8
0
  0
POLYLINE
  5
22A
100
AcDbEntity
  8
0
  6
CONTINUOUS
 62
       144
100
AcDb2dPolyline
 66
         1
 10
0.0
 20
0.0
 30
0.0
 70
       128
  0
VERTEX
  5
22B
100
AcDbEntity
  8
0
100
AcDbVertex
100
AcDb2dVertex
 10
9.8212467858
 20
7.5279332212
 30
0.0
  0
VERTEX
  5
22C
100
AcDbEntity
  8
0
100
AcDbVertex
100
AcDb2dVertex
 10
9.8211881585
 20
7.5305742516
 30
0.0
  0
VERTEX
  5
22D
100
AcDbEntity
  8
0
100
AcDbVertex
100
AcDb2dVertex
 10
9.8199842341
 20
7.5372271793
 30
0.0
  0
VERTEX
  5
22E
100
AcDbEntity
  8
0
100
AcDbVertex
100
AcDb2dVertex
 10
9.8172863859
 20
7.543732477
 30
0.0
  0
VERTEX
  5
22F
100
AcDbEntity
  8
0
100
AcDbVertex
100
AcDb2dVertex
 10
9.8131407413
 20
7.5499788309
 30
0.0
  0
VERTEX
  5
230
100
AcDbEntity
  8
0
100
AcDbVertex
100
AcDb2dVertex
 10
9.8076182234
 20
7.555859352
 30
0.0
  0
VERTEX
  5
231
100
AcDbEntity
  8
0
100
AcDbVertex
100
AcDb2dVertex
 10
9.8008133747
 20
7.5612734524
 30
0.0
  0
VERTEX
  5
232
100
AcDbEntity
  8
0
100
AcDbVertex
100
AcDb2dVertex
 10
9.7953191982
 20
7.5647527512
 30
0.0
  0
SEQEND
  5
233
100
AcDbEntity
  8
0
  0
LINE
  5
234
100
AcDbEntity
  8
0
  6
CONTINUOUS
 62
         7
100
AcDbLine
 10
9.6862227966
 20
7.5355990561
 30
0.0
 11
9.7110022836
 21
7.5128954668
 31
0.0
  0
LINE
  5
235
100
AcDbEntity
  8
0
  6
CONTINUOUS
 62
         7
100
AcDbLine
 10
9.7110022836
 20
7.5128954668
 30
0.0
 11
9.7574510968
 21
7.5139320671
 31
0.0
  0
LINE
  5
236
100
AcDbEntity
  8
0
  6
CONTINUOUS
 62
         7
100
AcDbLine
 10
9.7791204228
 20
7.5376722568
 30
0.0
 11
9.7574510968
 21
7.5139320671
 31
0.0
  0
LINE
  5
237
100
AcDbEntity
  8
0
  6
CONTINUOUS
 62
         7
100
AcDbLine
 10
9.7543409348
 20
7.5603758467
 30
0.0
 11
9.7791204228
 21
7.5376722568
 31
0.0
  0
LINE
  5
238
100
AcDbEntity
  8
0
  6
CONTINUOUS
 62
         7
100
AcDbLine
 10
9.7543409348
 20
7.5603758467
 30
0.0
 11
9.7078921216
 21
7.5593392464
 31
0.0
  0
LINE
  5
239
100
AcDbEntity
  8
0
  6
CONTINUOUS
 62
         7
100
AcDbLine
 10
9.6862227966
 20
7.5355990561
 30
0.0
 11
9.7078921216
 21
7.5593392464
 31
0.0
  0
POLYLINE
  5
23A
100
AcDbEntity
  8
0
  6
CONTINUOUS
 62
         7
100
AcDb2dPolyline
 66
         1
 10
0.0
 20
0.0
 30
0.0
 70
       128
  0
VERTEX
  5
23B
100
AcDbEntity
  8
0
100
AcDbVertex
100
AcDb2dVertex
 10
9.7609788568
 20
7.5177969655
 30
0.0
  0
VERTEX
  5
23C
100
AcDbEntity
  8
0
100
AcDbVertex
100
AcDb2dVertex
 10
9.7600159688
 20
7.5183287914
 30
0.0
  0
VERTEX
  5
23D
100
AcDbEntity
  8
0
100
AcDbVertex
100
AcDb2dVertex
 10
9.7559258354
 20
7.5202433208
 30
0.0
  0
VERTEX
  5
23E
100
AcDbEntity
  8
0
100
AcDbVertex
100
AcDb2dVertex
 10
9.751437793
 20
7.5218332587
 30
0.0
  0
VERTEX
  5
23F
100
AcDbEntity
  8
0
100
AcDbVertex
100
AcDb2dVertex
 10
9.7466286786
 20
7.5230714308
 30
0.0
  0
VERTEX
  5
240
100
AcDbEntity
  8
0
100
AcDbVertex
100
AcDb2dVertex
 10
9.7415807494
 20
7.5239366334
 30
0.0
  0
VERTEX
  5
241
100
AcDbEntity
  8
0
100
AcDbVertex
100
AcDb2dVertex
 10
9.7363803734
 20
7.5244140608
 30
0.0
  0
VERTEX
  5
242
100
AcDbEntity
  8
0
100
AcDbVertex
100
AcDb2dVertex
 10
9.7311165284
 20
7.524495543
 30
0.0
  0
SEQEND
  5
243
100
AcDbEntity
  8
0
  0
POLYLINE
  5
244
100
AcDbEntity
  8
0
  6
CONTINUOUS
 62
         7
100
AcDb2dPolyline
 66
         1
 10
0.0
 20
0.0
 30
0.0
 70
       128
  0
VERTEX
  5
245
100
AcDbEntity
  8
0
100
AcDbVertex
100
AcDb2dVertex
 10
9.7311165284
 20
7.524495543
 30
0.0
  0
VERTEX
  5
246
100
AcDbEntity
  8
0
100
AcDbVertex
100
AcDb2dVertex
 10
9.7258792971
 20
7.5241796956
 30
0.0
  0
VERTEX
  5
247
100
AcDbEntity
  8
0
100
AcDbVertex
100
AcDb2dVertex
 10
9.7207582986
 20
7.523471928
 30
0.0
  0
VERTEX
  5
248
100
AcDbEntity
  8
0
100
AcDbVertex
100
AcDb2dVertex
 10
9.7158411464
 20
7.522384345
 30
0.0
  0
VERTEX
  5
249
100
AcDbEntity
  8
0
100
AcDbVertex
100
AcDb2dVertex
 10
9.7112119435
 20
7.5209355382
 30
0.0
  0
VERTEX
  5
24A
100
AcDbEntity
  8
0
100
AcDbVertex
100
AcDb2dVertex
 10
9.7069499326
 20
7.5191503178
 30
0.0
  0
VERTEX
  5
24B
100
AcDbEntity
  8
0
100
AcDbVertex
100
AcDb2dVertex
 10
9.705166419
 20
7.5182424001
 30
0.0
  0
SEQEND
  5
24C
100
AcDbEntity
  8
0
  0
LINE
  5
24D
100
AcDbEntity
  8
0
  6
CONTINUOUS
 62
         7
100
AcDbLine
 10
9.7078921216
 20
7.523977243
 30
0.0
 11
9.7078921216
 21
7.5593392464
 31
0.0
  0
LINE
  5
24E
100
AcDbEntity
  8
0
  6
CONTINUOUS
 62
         7
100
AcDbLine
 10
9.7038001506
 20
7.5194942186
 30
0.0
 11
9.7078921216
 21
7.523977243
 31
0.0
  0
LINE
  5
24F
100
AcDbEntity
  8
0
  6
CONTINUOUS
 62
         7
100
AcDbLine
 10
9.7543409348
 20
7.5250138433
 30
0.0
 11
9.7609788604
 21
7.5177969663
 31
0.0
  0
LINE
  5
250
100
AcDbEntity
  8
0
  6
CONTINUOUS
 62
         7
100
AcDbLine
 10
9.7543409348
 20
7.5250138433
 30
0.0
 11
9.7543409348
 21
7.5603758467
 31
0.0
  0
LINE
  5
251
100
AcDbEntity
  8
0
  6
CONTINUOUS
 62
         7
100
AcDbLine
 10
9.7543409348
 20
7.5250138433
 30
0.0
 11
9.7311165331
 21
7.5244955444
 31
0.0
  0
LINE
  5
252
100
AcDbEntity
  8
0
  6
CONTINUOUS
 62
         7
100
AcDbLine
 10
9.7311165331
 20
7.5244955444
 30
0.0
 11
9.7078921216
 21
7.523977243
 31
0.0
  0
POLYLINE
  5
253
100
AcDbEntity
  8
0
  6
CONTINUOUS
 62
         7
100
AcDb2dPolyline
 66
         1
 10
0.0
 20
0.0
 30
0.0
 70
       128
  0
VERTEX
  5
254
100
AcDbEntity
  8
0
100
AcDbVertex
100
AcDb2dVertex
 10
9.1433209597
 20
7.5001682461
 30
0.0
  0
VERTEX
  5
255
100
AcDbEntity
  8
0
100
AcDbVertex
100
AcDb2dVertex
 10
9.1414290929
 20
7.493418246
 30
0.0
  0
VERTEX
  5
256
100
AcDbEntity
  8
0
100
AcDbVertex
100
AcDb2dVertex
 10
9.1410796106
 20
7.4865834467
 30
0.0
  0
VERTEX
  5
257
100
AcDbEntity
  8
0
100
AcDbVertex
100
AcDb2dVertex
 10
9.1422784937
 20
7.4797807926
 30
0.0
  0
VERTEX
  5
258
100
AcDbEntity
  8
0
100
AcDbVertex
100
AcDb2dVertex
 10
9.1450052124
 20
7.473126667
 30
0.0
  0
VERTEX
  5
259
100
AcDbEntity
  8
0
100
AcDbVertex
100
AcDb2dVertex
 10
9.1492131174
 20
7.4667349299
 30
0.0
  0
VERTEX
  5
25A
100
AcDbEntity
  8
0
100
AcDbVertex
100
AcDb2dVertex
 10
9.1548301868
 20
7.4607149309
 30
0.0
  0
VERTEX
  5
25B
100
AcDbEntity
  8
0
100
AcDbVertex
100
AcDb2dVertex
 10
9.161760376
 20
7.4551697113
 30
0.0
  0
VERTEX
  5
25C
100
AcDbEntity
  8
0
100
AcDbVertex
100
AcDb2dVertex
 10
9.1698850344
 20
7.450194109
 30
0.0
  0
VERTEX
  5
25D
100
AcDbEntity
  8
0
100
AcDbVertex
100
AcDb2dVertex
 10
9.1790651708
 20
7.4458732714
 30
0.0
  0
VERTEX
  5
25E
100
AcDbEntity
  8
0
100
AcDbVertex
100
AcDb2dVertex
 10
9.189143744
 20
7.4422811527
 30
0.0
  0
VERTEX
  5
25F
100
AcDbEntity
  8
0
100
AcDbVertex
100
AcDb2dVertex
 10
9.1999482718
 20
7.4394791883
 30
0.0
  0
VERTEX
  5
260
100
AcDbEntity
  8
0
100
AcDbVertex
100
AcDb2dVertex
 10
9.2112939242
 20
7.4375153464
 30
0.0
  0
VERTEX
  5
261
100
AcDbEntity
  8
0
100
AcDbVertex
100
AcDb2dVertex
 10
9.2229864986
 20
7.4364231893
 30
0.0
  0
VERTEX
  5
262
100
AcDbEntity
  8
0
100
AcDbVertex
100
AcDb2dVertex
 10
9.2348260464
 20
7.4362214562
 30
0.0
  0
VERTEX
  5
263
100
AcDbEntity
  8
0
100
AcDbVertex
100
AcDb2dVertex
 10
9.2466098577
 20
7.4369135371
 30
0.0
  0
VERTEX
  5
264
100
AcDbEntity
  8
0
100
AcDbVertex
100
AcDb2dVertex
 10
9.2581364089
 20
7.438487649
 30
0.0
  0
VERTEX
  5
265
100
AcDbEntity
  8
0
100
AcDbVertex
100
AcDb2dVertex
 10
9.2692084153
 20
7.4409168096
 30
0.0
  0
VERTEX
  5
266
100
AcDbEntity
  8
0
100
AcDbVertex
100
AcDb2dVertex
 10
9.2796364741
 20
7.4441594883
 30
0.0
  0
VERTEX
  5
267
100
AcDbEntity
  8
0
100
AcDbVertex
100
AcDb2dVertex
 10
9.289242117
 20
7.4481601789
 30
0.0
  0
VERTEX
  5
268
100
AcDbEntity
  8
0
100
AcDbVertex
100
AcDb2dVertex
 10
9.2978610516
 20
7.4528504622
 30
0.0
  0
VERTEX
  5
269
100
AcDbEntity
  8
0
100
AcDbVertex
100
AcDb2dVertex
 10
9.3053457211
 20
7.4581500421
 30
0.0
  0
VERTEX
  5
26A
100
AcDbEntity
  8
0
100
AcDbVertex
100
AcDb2dVertex
 10
9.3115681435
 20
7.4639682804
 30
0.0
  0
VERTEX
  5
26B
100
AcDbEntity
  8
0
100
AcDbVertex
100
AcDb2dVertex
 10
9.3164218175
 20
7.4702056109
 30
0.0
  0
VERTEX
  5
26C
100
AcDbEntity
  8
0
100
AcDbVertex
100
AcDb2dVertex
 10
9.3198236601
 20
7.4767552942
 30
0.0
  0
VERTEX
  5
26D
100
AcDbEntity
  8
0
100
AcDbVertex
100
AcDb2dVertex
 10
9.3217155301
 20
7.4835052924
 30
0.0
  0
VERTEX
  5
26E
100
AcDbEntity
  8
0
100
AcDbVertex
100
AcDb2dVertex
 10
9.3220650124
 20
7.4903400917
 30
0.0
  0
VERTEX
  5
26F
100
AcDbEntity
  8
0
100
AcDbVertex
100
AcDb2dVertex
 10
9.3208661308
 20
7.4971427449
 30
0.0
  0
VERTEX
  5
270
100
AcDbEntity
  8
0
100
AcDbVertex
100
AcDb2dVertex
 10
9.3181394098
 20
7.5037968719
 30
0.0
  0
VERTEX
  5
271
100
AcDbEntity
  8
0
100
AcDbVertex
100
AcDb2dVertex
 10
9.3139315567
 20
7.5101886388
 30
0.0
  0
VERTEX
  5
272
100
AcDbEntity
  8
0
100
AcDbVertex
100
AcDb2dVertex
 10
9.3083144378
 20
7.5162086066
 30
0.0
  0
VERTEX
  5
273
100
AcDbEntity
  8
0
100
AcDbVertex
100
AcDb2dVertex
 10
9.3013843004
 20
7.5217538562
 30
0.0
  0
VERTEX
  5
274
100
AcDbEntity
  8
0
100
AcDbVertex
100
AcDb2dVertex
 10
9.2932595886
 20
7.5267294294
 30
0.0
  0
VERTEX
  5
275
100
AcDbEntity
  8
0
100
AcDbVertex
100
AcDb2dVertex
 10
9.2840794538
 20
7.5310502661
 30
0.0
  0
VERTEX
  5
276
100
AcDbEntity
  8
0
100
AcDbVertex
100
AcDb2dVertex
 10
9.2740008788
 20
7.5346423858
 30
0.0
  0
VERTEX
  5
277
100
AcDbEntity
  8
0
100
AcDbVertex
100
AcDb2dVertex
 10
9.2631963516
 20
7.5374443499
 30
0.0
  0
VERTEX
  5
278
100
AcDbEntity
  8
0
100
AcDbVertex
100
AcDb2dVertex
 10
9.2518506996
 20
7.5394081916
 30
0.0
  0
VERTEX
  5
279
100
AcDbEntity
  8
0
100
AcDbVertex
100
AcDb2dVertex
 10
9.2401581212
 20
7.540500351
 30
0.0
  0
VERTEX
  5
27A
100
AcDbEntity
  8
0
100
AcDbVertex
100
AcDb2dVertex
 10
9.2283186301
 20
7.5407021113
 30
0.0
  0
VERTEX
  5
27B
100
AcDbEntity
  8
0
100
AcDbVertex
100
AcDb2dVertex
 10
9.2165347685
 20
7.5400099995
 30
0.0
  0
VERTEX
  5
27C
100
AcDbEntity
  8
0
100
AcDbVertex
100
AcDb2dVertex
 10
9.2050082659
 20
7.5384359194
 30
0.0
  0
VERTEX
  5
27D
100
AcDbEntity
  8
0
100
AcDbVertex
100
AcDb2dVertex
 10
9.1939362077
 20
7.5360067289
 30
0.0
  0
VERTEX
  5
27E
100
AcDbEntity
  8
0
100
AcDbVertex
100
AcDb2dVertex
 10
9.1835081521
 20
7.5327640482
 30
0.0
  0
VERTEX
  5
27F
100
AcDbEntity
  8
0
100
AcDbVertex
100
AcDb2dVertex
 10
9.1739025092
 20
7.5287633576
 30
0.0
  0
VERTEX
  5
280
100
AcDbEntity
  8
0
100
AcDbVertex
100
AcDb2dVertex
 10
9.1652835746
 20
7.5240730744
 30
0.0
  0
VERTEX
  5
281
100
AcDbEntity
  8
0
100
AcDbVertex
100
AcDb2dVertex
 10
9.1577989019
 20
7.5187734963
 30
0.0
  0
VERTEX
  5
282
100
AcDbEntity
  8
0
100
AcDbVertex
100
AcDb2dVertex
 10
9.1515764794
 20
7.512955258
 30
0.0
  0
VERTEX
  5
283
100
AcDbEntity
  8
0
100
AcDbVertex
100
AcDb2dVertex
 10
9.1467228055
 20
7.5067179275
 30
0.0
  0
VERTEX
  5
284
100
AcDbEntity
  8
0
100
AcDbVertex
100
AcDb2dVertex
 10
9.1433209597
 20
7.5001682461
 30
0.0
  0
SEQEND
  5
285
100
AcDbEntity
  8
0
  0
POLYLINE
  5
286
100
AcDbEntity
  8
0
  6
CONTINUOUS
 62
         7
100
AcDb2dPolyline
 66
         1
 10
0.0
 20
0.0
 30
0.0
 70
       128
  0
VERTEX
  5
287
100
AcDbEntity
  8
0
100
AcDbVertex
100
AcDb2dVertex
 10
9.1410211372
 20
7.2955780859
 30
0.0
  0
VERTEX
  5
288
100
AcDbEntity
  8
0
100
AcDbVertex
100
AcDb2dVertex
 10
9.1410796106
 20
7.2936997588
 30
0.0
  0
VERTEX
  5
289
100
AcDbEntity
  8
0
100
AcDbVertex
100
AcDb2dVertex
 10
9.1422784937
 20
7.2868971046
 30
0.0
  0
VERTEX
  5
28A
100
AcDbEntity
  8
0
100
AcDbVertex
100
AcDb2dVertex
 10
9.1450052124
 20
7.280242979
 30
0.0
  0
VERTEX
  5
28B
100
AcDbEntity
  8
0
100
AcDbVertex
100
AcDb2dVertex
 10
9.1492131174
 20
7.2738512419
 30
0.0
  0
VERTEX
  5
28C
100
AcDbEntity
  8
0
100
AcDbVertex
100
AcDb2dVertex
 10
9.1548301868
 20
7.2678312429
 30
0.0
  0
VERTEX
  5
28D
100
AcDbEntity
  8
0
100
AcDbVertex
100
AcDb2dVertex
 10
9.161760376
 20
7.2622860233
 30
0.0
  0
VERTEX
  5
28E
100
AcDbEntity
  8
0
100
AcDbVertex
100
AcDb2dVertex
 10
9.1698850344
 20
7.2573104211
 30
0.0
  0
VERTEX
  5
28F
100
AcDbEntity
  8
0
100
AcDbVertex
100
AcDb2dVertex
 10
9.1790651708
 20
7.2529895834
 30
0.0
  0
VERTEX
  5
290
100
AcDbEntity
  8
0
100
AcDbVertex
100
AcDb2dVertex
 10
9.189143744
 20
7.2493974648
 30
0.0
  0
VERTEX
  5
291
100
AcDbEntity
  8
0
100
AcDbVertex
100
AcDb2dVertex
 10
9.1999482718
 20
7.2465955003
 30
0.0
  0
VERTEX
  5
292
100
AcDbEntity
  8
0
100
AcDbVertex
100
AcDb2dVertex
 10
9.2112939242
 20
7.2446316584
 30
0.0
  0
VERTEX
  5
293
100
AcDbEntity
  8
0
100
AcDbVertex
100
AcDb2dVertex
 10
9.2229864986
 20
7.2435395013
 30
0.0
  0
VERTEX
  5
294
100
AcDbEntity
  8
0
100
AcDbVertex
100
AcDb2dVertex
 10
9.2348260464
 20
7.2433377682
 30
0.0
  0
VERTEX
  5
295
100
AcDbEntity
  8
0
100
AcDbVertex
100
AcDb2dVertex
 10
9.2466098577
 20
7.2440298491
 30
0.0
  0
VERTEX
  5
296
100
AcDbEntity
  8
0
100
AcDbVertex
100
AcDb2dVertex
 10
9.2581364089
 20
7.245603961
 30
0.0
  0
VERTEX
  5
297
100
AcDbEntity
  8
0
100
AcDbVertex
100
AcDb2dVertex
 10
9.2692084153
 20
7.2480331216
 30
0.0
  0
VERTEX
  5
298
100
AcDbEntity
  8
0
100
AcDbVertex
100
AcDb2dVertex
 10
9.2796364741
 20
7.2512758003
 30
0.0
  0
VERTEX
  5
299
100
AcDbEntity
  8
0
100
AcDbVertex
100
AcDb2dVertex
 10
9.289242117
 20
7.255276491
 30
0.0
  0
VERTEX
  5
29A
100
AcDbEntity
  8
0
100
AcDbVertex
100
AcDb2dVertex
 10
9.2978610516
 20
7.2599667742
 30
0.0
  0
VERTEX
  5
29B
100
AcDbEntity
  8
0
100
AcDbVertex
100
AcDb2dVertex
 10
9.3053457211
 20
7.2652663541
 30
0.0
  0
VERTEX
  5
29C
100
AcDbEntity
  8
0
100
AcDbVertex
100
AcDb2dVertex
 10
9.3115681435
 20
7.2710845925
 30
0.0
  0
VERTEX
  5
29D
100
AcDbEntity
  8
0
100
AcDbVertex
100
AcDb2dVertex
 10
9.3164218175
 20
7.2773219229
 30
0.0
  0
VERTEX
  5
29E
100
AcDbEntity
  8
0
100
AcDbVertex
100
AcDb2dVertex
 10
9.3198236601
 20
7.2838716062
 30
0.0
  0
VERTEX
  5
29F
100
AcDbEntity
  8
0
100
AcDbVertex
100
AcDb2dVertex
 10
9.3217155301
 20
7.2906216044
 30
0.0
  0
VERTEX
  5
2A0
100
AcDbEntity
  8
0
100
AcDbVertex
100
AcDb2dVertex
 10
9.3221234842
 20
7.2955780775
 30
0.0
  0
SEQEND
  5
2A1
100
AcDbEntity
  8
0
  0
LINE
  5
2A2
100
AcDbEntity
  8
0
  6
CONTINUOUS
 62
         7
100
AcDbLine
 10
9.089602742
 20
7.314410234
 30
0.0
 11
9.1323362444
 21
7.234017057
 31
0.0
  0
LINE
  5
2A3
100
AcDbEntity
  8
0
  6
CONTINUOUS
 62
         7
100
AcDbLine
 10
9.1410211582
 20
7.3463076128
 30
0.0
 11
9.089602742
 21
7.314410234
 31
0.0
  0
LINE
  5
2A4
100
AcDbEntity
  8
0
  6
CONTINUOUS
 62
         7
100
AcDbLine
 10
9.3308083785
 20
7.3571391055
 30
0.0
 11
9.3221234979
 21
7.3582911547
 31
0.0
  0
LINE
  5
2A5
100
AcDbEntity
  8
0
  6
CONTINUOUS
 62
         7
100
AcDbLine
 10
9.3735418875
 20
7.2767459248
 30
0.0
 11
9.3308083785
 21
7.3571391055
 31
0.0
  0
LINE
  5
2A6
100
AcDbEntity
  8
0
  6
CONTINUOUS
 62
         7
100
AcDbLine
 10
9.2743058415
 20
7.2151849182
 30
0.0
 11
9.3735418875
 21
7.2767459248
 31
0.0
  0
LINE
  5
2A7
100
AcDbEntity
  8
0
  6
CONTINUOUS
 62
         7
100
AcDbLine
 10
9.1323362444
 20
7.234017057
 30
0.0
 11
9.2743058415
 21
7.2151849182
 31
0.0
  0
LINE
  5
2A8
100
AcDbEntity
  8
0
  6
CONTINUOUS
 62
         7
100
AcDbLine
 10
9.1323362444
 20
7.2018697756
 30
0.0
 11
9.1323362444
 21
7.234017057
 31
0.0
  0
LINE
  5
2A9
100
AcDbEntity
  8
0
  6
CONTINUOUS
 62
         7
100
AcDbLine
 10
9.2743058415
 20
7.1830376369
 30
0.0
 11
9.2743058415
 21
7.2151849182
 31
0.0
  0
LINE
  5
2AA
100
AcDbEntity
  8
0
  6
CONTINUOUS
 62
       144
100
AcDbLine
 10
9.1323362444
 20
7.2018697756
 30
0.0
 11
9.2743058415
 21
7.1830376369
 31
0.0
  0
LINE
  5
2AB
100
AcDbEntity
  8
0
  6
CONTINUOUS
 62
         7
100
AcDbLine
 10
9.3735418875
 20
7.2445986434
 30
0.0
 11
9.3735418875
 21
7.2767459248
 31
0.0
  0
LINE
  5
2AC
100
AcDbEntity
  8
0
  6
CONTINUOUS
 62
       144
100
AcDbLine
 10
9.2743058415
 20
7.1830376369
 30
0.0
 11
9.3735418875
 21
7.2445986434
 31
0.0
  0
LINE
  5
2AD
100
AcDbEntity
  8
0
  6
CONTINUOUS
 62
         7
100
AcDbLine
 10
9.089602742
 20
7.2822629527
 30
0.0
 11
9.089602742
 21
7.314410234
 31
0.0
  0
LINE
  5
2AE
100
AcDbEntity
  8
0
  6
CONTINUOUS
 62
       144
100
AcDbLine
 10
9.089602742
 20
7.2822629527
 30
0.0
 11
9.1323362444
 21
7.2018697756
 31
0.0
  0
POLYLINE
  5
2AF
100
AcDbEntity
  8
0
  6
CONTINUOUS
 62
         7
100
AcDb2dPolyline
 66
         1
 10
0.0
 20
0.0
 30
0.0
 70
       128
  0
VERTEX
  5
2B0
100
AcDbEntity
  8
0
100
AcDbVertex
100
AcDb2dVertex
 10
7.6961369525
 20
5.7954607463
 30
0.0
  0
VERTEX
  5
2B1
100
AcDbEntity
  8
0
100
AcDbVertex
100
AcDb2dVertex
 10
7.7056742326
 20
5.8001781878
 30
0.0
  0
VERTEX
  5
2B2
100
AcDbEntity
  8
0
100
AcDbVertex
100
AcDb2dVertex
 10
7.7164526552
 20
5.8038539452
 30
0.0
  0
VERTEX
  5
2B3
100
AcDbEntity
  8
0
100
AcDbVertex
100
AcDb2dVertex
 10
7.7278703651
 20
5.806153598
 30
0.0
  0
VERTEX
  5
2B4
100
AcDbEntity
  8
0
100
AcDbVertex
100
AcDb2dVertex
 10
7.7398569641
 20
5.8070629669
 30
0.0
  0
VERTEX
  5
2B5
100
AcDbEntity
  8
0
100
AcDbVertex
100
AcDb2dVertex
 10
7.7523385474
 20
5.8065764463
 30
0.0
  0
VERTEX
  5
2B6
100
AcDbEntity
  8
0
100
AcDbVertex
100
AcDb2dVertex
 10
7.7652381671
 20
5.8046970361
 30
0.0
  0
VERTEX
  5
2B7
100
AcDbEntity
  8
0
100
AcDbVertex
100
AcDb2dVertex
 10
7.7784762923
 20
5.8014363191
 30
0.0
  0
VERTEX
  5
2B8
100
AcDbEntity
  8
0
100
AcDbVertex
100
AcDb2dVertex
 10
7.7919713038
 20
5.7968144003
 30
0.0
  0
VERTEX
  5
2B9
100
AcDbEntity
  8
0
100
AcDbVertex
100
AcDb2dVertex
 10
7.8056400007
 20
5.7908597785
 30
0.0
  0
VERTEX
  5
2BA
100
AcDbEntity
  8
0
100
AcDbVertex
100
AcDb2dVertex
 10
7.8193981103
 20
5.7836091651
 30
0.0
  0
VERTEX
  5
2BB
100
AcDbEntity
  8
0
100
AcDbVertex
100
AcDb2dVertex
 10
7.8331608107
 20
5.7751072641
 30
0.0
  0
VERTEX
  5
2BC
100
AcDbEntity
  8
0
100
AcDbVertex
100
AcDb2dVertex
 10
7.8468432492
 20
5.7654064842
 30
0.0
  0
VERTEX
  5
2BD
100
AcDbEntity
  8
0
100
AcDbVertex
100
AcDb2dVertex
 10
7.8603610679
 20
5.7545666468
 30
0.0
  0
VERTEX
  5
2BE
100
AcDbEntity
  8
0
100
AcDbVertex
100
AcDb2dVertex
 10
7.8736309277
 20
5.7426545709
 30
0.0
  0
VERTEX
  5
2BF
100
AcDbEntity
  8
0
100
AcDbVertex
100
AcDb2dVertex
 10
7.8865710162
 20
5.7297437015
 30
0.0
  0
VERTEX
  5
2C0
100
AcDbEntity
  8
0
100
AcDbVertex
100
AcDb2dVertex
 10
7.8991015496
 20
5.7159136441
 30
0.0
  0
VERTEX
  5
2C1
100
AcDbEntity
  8
0
100
AcDbVertex
100
AcDb2dVertex
 10
7.9111452721
 20
5.7012496628
 30
0.0
  0
VERTEX
  5
2C2
100
AcDbEntity
  8
0
100
AcDbVertex
100
AcDb2dVertex
 10
7.9226279419
 20
5.6858421678
 30
0.0
  0
VERTEX
  5
2C3
100
AcDbEntity
  8
0
100
AcDbVertex
100
AcDb2dVertex
 10
7.9334787461
 20
5.6697861467
 30
0.0
  0
VERTEX
  5
2C4
100
AcDbEntity
  8
0
100
AcDbVertex
100
AcDb2dVertex
 10
7.943630806
 20
5.6531805882
 30
0.0
  0
VERTEX
  5
2C5
100
AcDbEntity
  8
0
100
AcDbVertex
100
AcDb2dVertex
 10
7.9530215081
 20
5.6361278795
 30
0.0
  0
VERTEX
  5
2C6
100
AcDbEntity
  8
0
100
AcDbVertex
100
AcDb2dVertex
 10
7.9615929704
 20
5.618733155
 30
0.0
  0
VERTEX
  5
2C7
100
AcDbEntity
  8
0
100
AcDbVertex
100
AcDb2dVertex
 10
7.9692923539
 20
5.6011036456
 30
0.0
  0
VERTEX
  5
2C8
100
AcDbEntity
  8
0
100
AcDbVertex
100
AcDb2dVertex
 10
7.9760721733
 20
5.5833480571
 30
0.0
  0
VERTEX
  5
2C9
100
AcDbEntity
  8
0
100
AcDbVertex
100
AcDb2dVertex
 10
7.9818906344
 20
5.5655758592
 30
0.0
  0
VERTEX
  5
2CA
100
AcDbEntity
  8
0
100
AcDbVertex
100
AcDb2dVertex
 10
7.9867118673
 20
5.5478966048
 30
0.0
  0
VERTEX
  5
2CB
100
AcDbEntity
  8
0
100
AcDbVertex
100
AcDb2dVertex
 10
7.9905061337
 20
5.5304193305
 30
0.0
  0
VERTEX
  5
2CC
100
AcDbEntity
  8
0
100
AcDbVertex
100
AcDb2dVertex
 10
7.9932500735
 20
5.5132517415
 30
0.0
  0
VERTEX
  5
2CD
100
AcDbEntity
  8
0
100
AcDbVertex
100
AcDb2dVertex
 10
7.9949267304
 20
5.4964997322
 30
0.0
  0
VERTEX
  5
2CE
100
AcDbEntity
  8
0
100
AcDbVertex
100
AcDb2dVertex
 10
7.9955257985
 20
5.4802665403
 30
0.0
  0
VERTEX
  5
2CF
100
AcDbEntity
  8
0
100
AcDbVertex
100
AcDb2dVertex
 10
7.9950435572
 20
5.4646522608
 30
0.0
  0
VERTEX
  5
2D0
100
AcDbEntity
  8
0
100
AcDbVertex
100
AcDb2dVertex
 10
7.9934830012
 20
5.4497531868
 30
0.0
  0
VERTEX
  5
2D1
100
AcDbEntity
  8
0
100
AcDbVertex
100
AcDb2dVertex
 10
7.9908537493
 20
5.4356611436
 30
0.0
  0
VERTEX
  5
2D2
100
AcDbEntity
  8
0
100
AcDbVertex
100
AcDb2dVertex
 10
7.9871719929
 20
5.4224630395
 30
0.0
  0
VERTEX
  5
2D3
100
AcDbEntity
  8
0
100
AcDbVertex
100
AcDb2dVertex
 10
7.9824604569
 20
5.4102402147
 30
0.0
  0
VERTEX
  5
2D4
100
AcDbEntity
  8
0
100
AcDbVertex
100
AcDb2dVertex
 10
7.9767481667
 20
5.3990680372
 30
0.0
  0
VERTEX
  5
2D5
100
AcDbEntity
  8
0
100
AcDbVertex
100
AcDb2dVertex
 10
7.9700703568
 20
5.3890154161
 30
0.0
  0
VERTEX
  5
2D6
100
AcDbEntity
  8
0
100
AcDbVertex
100
AcDb2dVertex
 10
7.9624681994
 20
5.3801442698
 30
0.0
  0
VERTEX
  5
2D7
100
AcDbEntity
  8
0
100
AcDbVertex
100
AcDb2dVertex
 10
7.9539885574
 20
5.3725093698
 30
0.0
  0
VERTEX
  5
2D8
100
AcDbEntity
  8
0
100
AcDbVertex
100
AcDb2dVertex
 10
7.9446836994
 20
5.3661577259
 30
0.0
  0
VERTEX
  5
2D9
100
AcDbEntity
  8
0
100
AcDbVertex
100
AcDb2dVertex
 10
7.9441482949
 20
5.3658459533
 30
0.0
  0
SEQEND
  5
2DA
100
AcDbEntity
  8
0
  0
POLYLINE
  5
2DB
100
AcDbEntity
  8
0
  6
CONTINUOUS
 62
         7
100
AcDb2dPolyline
 66
         1
 10
0.0
 20
0.0
 30
0.0
 70
       128
  0
VERTEX
  5
2DC
100
AcDbEntity
  8
0
100
AcDbVertex
100
AcDb2dVertex
 10
7.4547456936
 20
5.6417059676
 30
0.0
  0
VERTEX
  5
2DD
100
AcDbEntity
  8
0
100
AcDbVertex
100
AcDb2dVertex
 10
7.4614235035
 20
5.6517586038
 30
0.0
  0
VERTEX
  5
2DE
100
AcDbEntity
  8
0
100
AcDbVertex
100
AcDb2dVertex
 10
7.4690256609
 20
5.660629735
 30
0.0
  0
VERTEX
  5
2DF
100
AcDbEntity
  8
0
100
AcDbVertex
100
AcDb2dVertex
 10
7.477505303
 20
5.66826465
 30
0.0
  0
VERTEX
  5
2E0
100
AcDbEntity
  8
0
100
AcDbVertex
100
AcDb2dVertex
 10
7.4868101609
 20
5.6746162864
 30
0.0
  0
VERTEX
  5
2E1
100
AcDbEntity
  8
0
100
AcDbVertex
100
AcDb2dVertex
 10
7.4968828519
 20
5.6796454893
 30
0.0
  0
VERTEX
  5
2E2
100
AcDbEntity
  8
0
100
AcDbVertex
100
AcDb2dVertex
 10
7.5076612745
 20
5.6833212467
 30
0.0
  0
VERTEX
  5
2E3
100
AcDbEntity
  8
0
100
AcDbVertex
100
AcDb2dVertex
 10
7.5190789844
 20
5.6856208995
 30
0.0
  0
VERTEX
  5
2E4
100
AcDbEntity
  8
0
100
AcDbVertex
100
AcDb2dVertex
 10
7.5310655834
 20
5.6865302684
 30
0.0
  0
VERTEX
  5
2E5
100
AcDbEntity
  8
0
100
AcDbVertex
100
AcDb2dVertex
 10
7.5435471667
 20
5.6860437479
 30
0.0
  0
VERTEX
  5
2E6
100
AcDbEntity
  8
0
100
AcDbVertex
100
AcDb2dVertex
 10
7.5564467864
 20
5.6841643377
 30
0.0
  0
VERTEX
  5
2E7
100
AcDbEntity
  8
0
100
AcDbVertex
100
AcDb2dVertex
 10
7.5696849117
 20
5.6809036207
 30
0.0
  0
VERTEX
  5
2E8
100
AcDbEntity
  8
0
100
AcDbVertex
100
AcDb2dVertex
 10
7.5831799231
 20
5.6762817018
 30
0.0
  0
VERTEX
  5
2E9
100
AcDbEntity
  8
0
100
AcDbVertex
100
AcDb2dVertex
 10
7.59684862
 20
5.67032708
 30
0.0
  0
VERTEX
  5
2EA
100
AcDbEntity
  8
0
100
AcDbVertex
100
AcDb2dVertex
 10
7.6106067296
 20
5.6630764666
 30
0.0
  0
VERTEX
  5
2EB
100
AcDbEntity
  8
0
100
AcDbVertex
100
AcDb2dVertex
 10
7.62436943
 20
5.6545745657
 30
0.0
  0
VERTEX
  5
2EC
100
AcDbEntity
  8
0
100
AcDbVertex
100
AcDb2dVertex
 10
7.6380518686
 20
5.6448737858
 30
0.0
  0
VERTEX
  5
2ED
100
AcDbEntity
  8
0
100
AcDbVertex
100
AcDb2dVertex
 10
7.6515696872
 20
5.6340339483
 30
0.0
  0
VERTEX
  5
2EE
100
AcDbEntity
  8
0
100
AcDbVertex
100
AcDb2dVertex
 10
7.664839547
 20
5.6221218724
 30
0.0
  0
VERTEX
  5
2EF
100
AcDbEntity
  8
0
100
AcDbVertex
100
AcDb2dVertex
 10
7.6777796355
 20
5.6092110031
 30
0.0
  0
VERTEX
  5
2F0
100
AcDbEntity
  8
0
100
AcDbVertex
100
AcDb2dVertex
 10
7.6903101689
 20
5.5953809456
 30
0.0
  0
VERTEX
  5
2F1
100
AcDbEntity
  8
0
100
AcDbVertex
100
AcDb2dVertex
 10
7.7023538914
 20
5.5807169643
 30
0.0
  0
VERTEX
  5
2F2
100
AcDbEntity
  8
0
100
AcDbVertex
100
AcDb2dVertex
 10
7.7138365612
 20
5.5653094693
 30
0.0
  0
VERTEX
  5
2F3
100
AcDbEntity
  8
0
100
AcDbVertex
100
AcDb2dVertex
 10
7.7246873654
 20
5.5492534482
 30
0.0
  0
VERTEX
  5
2F4
100
AcDbEntity
  8
0
100
AcDbVertex
100
AcDb2dVertex
 10
7.7348394253
 20
5.5326478898
 30
0.0
  0
VERTEX
  5
2F5
100
AcDbEntity
  8
0
100
AcDbVertex
100
AcDb2dVertex
 10
7.7442301274
 20
5.515595181
 30
0.0
  0
VERTEX
  5
2F6
100
AcDbEntity
  8
0
100
AcDbVertex
100
AcDb2dVertex
 10
7.7528015897
 20
5.4982004565
 30
0.0
  0
VERTEX
  5
2F7
100
AcDbEntity
  8
0
100
AcDbVertex
100
AcDb2dVertex
 10
7.7605009732
 20
5.4805709471
 30
0.0
  0
VERTEX
  5
2F8
100
AcDbEntity
  8
0
100
AcDbVertex
100
AcDb2dVertex
 10
7.7672807926
 20
5.4628153586
 30
0.0
  0
VERTEX
  5
2F9
100
AcDbEntity
  8
0
100
AcDbVertex
100
AcDb2dVertex
 10
7.7730992538
 20
5.4450431608
 30
0.0
  0
VERTEX
  5
2FA
100
AcDbEntity
  8
0
100
AcDbVertex
100
AcDb2dVertex
 10
7.7779204866
 20
5.4273639063
 30
0.0
  0
VERTEX
  5
2FB
100
AcDbEntity
  8
0
100
AcDbVertex
100
AcDb2dVertex
 10
7.781714753
 20
5.409886632
 30
0.0
  0
VERTEX
  5
2FC
100
AcDbEntity
  8
0
100
AcDbVertex
100
AcDb2dVertex
 10
7.7844586928
 20
5.392719043
 30
0.0
  0
VERTEX
  5
2FD
100
AcDbEntity
  8
0
100
AcDbVertex
100
AcDb2dVertex
 10
7.7861353497
 20
5.3759670337
 30
0.0
  0
VERTEX
  5
2FE
100
AcDbEntity
  8
0
100
AcDbVertex
100
AcDb2dVertex
 10
7.7867344178
 20
5.3597338419
 30
0.0
  0
VERTEX
  5
2FF
100
AcDbEntity
  8
0
100
AcDbVertex
100
AcDb2dVertex
 10
7.7862521765
 20
5.3441195624
 30
0.0
  0
VERTEX
  5
300
100
AcDbEntity
  8
0
100
AcDbVertex
100
AcDb2dVertex
 10
7.7846916205
 20
5.3292204883
 30
0.0
  0
VERTEX
  5
301
100
AcDbEntity
  8
0
100
AcDbVertex
100
AcDb2dVertex
 10
7.7820623686
 20
5.3151284451
 30
0.0
  0
VERTEX
  5
302
100
AcDbEntity
  8
0
100
AcDbVertex
100
AcDb2dVertex
 10
7.7783806122
 20
5.301930341
 30
0.0
  0
VERTEX
  5
303
100
AcDbEntity
  8
0
100
AcDbVertex
100
AcDb2dVertex
 10
7.7736690762
 20
5.2897075163
 30
0.0
  0
VERTEX
  5
304
100
AcDbEntity
  8
0
100
AcDbVertex
100
AcDb2dVertex
 10
7.767956786
 20
5.2785353388
 30
0.0
  0
VERTEX
  5
305
100
AcDbEntity
  8
0
100
AcDbVertex
100
AcDb2dVertex
 10
7.7612789762
 20
5.2684827176
 30
0.0
  0
VERTEX
  5
306
100
AcDbEntity
  8
0
100
AcDbVertex
100
AcDb2dVertex
 10
7.7536768187
 20
5.2596115714
 30
0.0
  0
VERTEX
  5
307
100
AcDbEntity
  8
0
100
AcDbVertex
100
AcDb2dVertex
 10
7.7451971767
 20
5.2519766714
 30
0.0
  0
VERTEX
  5
308
100
AcDbEntity
  8
0
100
AcDbVertex
100
AcDb2dVertex
 10
7.7358923187
 20
5.2456250275
 30
0.0
  0
VERTEX
  5
309
100
AcDbEntity
  8
0
100
AcDbVertex
100
AcDb2dVertex
 10
7.7258196342
 20
5.2405958134
 30
0.0
  0
VERTEX
  5
30A
100
AcDbEntity
  8
0
100
AcDbVertex
100
AcDb2dVertex
 10
7.7150412051
 20
5.2369200746
 30
0.0
  0
VERTEX
  5
30B
100
AcDbEntity
  8
0
100
AcDbVertex
100
AcDb2dVertex
 10
7.7036234952
 20
5.2346203994
 30
0.0
  0
VERTEX
  5
30C
100
AcDbEntity
  8
0
100
AcDbVertex
100
AcDb2dVertex
 10
7.6916368962
 20
5.2337110305
 30
0.0
  0
VERTEX
  5
30D
100
AcDbEntity
  8
0
100
AcDbVertex
100
AcDb2dVertex
 10
7.6791553129
 20
5.234197566
 30
0.0
  0
VERTEX
  5
30E
100
AcDbEntity
  8
0
100
AcDbVertex
100
AcDb2dVertex
 10
7.6662556899
 20
5.236076993
 30
0.0
  0
VERTEX
  5
30F
100
AcDbEntity
  8
0
100
AcDbVertex
100
AcDb2dVertex
 10
7.6530175647
 20
5.2393377063
 30
0.0
  0
VERTEX
  5
310
100
AcDbEntity
  8
0
100
AcDbVertex
100
AcDb2dVertex
 10
7.6395225553
 20
5.243959624
 30
0.0
  0
VERTEX
  5
311
100
AcDbEntity
  8
0
100
AcDbVertex
100
AcDb2dVertex
 10
7.6258538612
 20
5.2499142366
 30
0.0
  0
VERTEX
  5
312
100
AcDbEntity
  8
0
100
AcDbVertex
100
AcDb2dVertex
 10
7.61209575
 20
5.2571648435
 30
0.0
  0
VERTEX
  5
313
100
AcDbEntity
  8
0
100
AcDbVertex
100
AcDb2dVertex
 10
7.6023839799
 20
5.2630344073
 30
0.0
  0
SEQEND
  5
314
100
AcDbEntity
  8
0
  0
POLYLINE
  5
315
100
AcDbEntity
  8
0
  6
CONTINUOUS
 62
         7
100
AcDb2dPolyline
 66
         1
 10
0.0
 20
0.0
 30
0.0
 70
       128
  0
VERTEX
  5
316
100
AcDbEntity
  8
0
100
AcDbVertex
100
AcDb2dVertex
 10
7.43619443
 20
5.5509143362
 30
0.0
  0
VERTEX
  5
317
100
AcDbEntity
  8
0
100
AcDbVertex
100
AcDb2dVertex
 10
7.4359680618
 20
5.5605074795
 30
0.0
  0
VERTEX
  5
318
100
AcDbEntity
  8
0
100
AcDbVertex
100
AcDb2dVertex
 10
7.4364503031
 20
5.576121744
 30
0.0
  0
VERTEX
  5
319
100
AcDbEntity
  8
0
100
AcDbVertex
100
AcDb2dVertex
 10
7.4380108591
 20
5.591020833
 30
0.0
  0
VERTEX
  5
31A
100
AcDbEntity
  8
0
100
AcDbVertex
100
AcDb2dVertex
 10
7.440640111
 20
5.6051128763
 30
0.0
  0
VERTEX
  5
31B
100
AcDbEntity
  8
0
100
AcDbVertex
100
AcDb2dVertex
 10
7.4443218674
 20
5.6183109804
 30
0.0
  0
VERTEX
  5
31C
100
AcDbEntity
  8
0
100
AcDbVertex
100
AcDb2dVertex
 10
7.4490334034
 20
5.6305338051
 30
0.0
  0
VERTEX
  5
31D
100
AcDbEntity
  8
0
100
AcDbVertex
100
AcDb2dVertex
 10
7.4547456936
 20
5.6417059676
 30
0.0
  0
SEQEND
  5
31E
100
AcDbEntity
  8
0
  0
POLYLINE
  5
31F
100
AcDbEntity
  8
0
  6
CONTINUOUS
 62
         7
100
AcDb2dPolyline
 66
         1
 10
0.0
 20
0.0
 30
0.0
 70
       128
  0
VERTEX
  5
320
100
AcDbEntity
  8
0
100
AcDbVertex
100
AcDb2dVertex
 10
7.6473477752
 20
5.3649794947
 30
0.0
  0
VERTEX
  5
321
100
AcDbEntity
  8
0
100
AcDbVertex
100
AcDb2dVertex
 10
7.654244765
 20
5.3660480196
 30
0.0
  0
VERTEX
  5
322
100
AcDbEntity
  8
0
100
AcDbVertex
100
AcDb2dVertex
 10
7.6611668262
 20
5.3685277594
 30
0.0
  0
VERTEX
  5
323
100
AcDbEntity
  8
0
100
AcDbVertex
100
AcDb2dVertex
 10
7.667362466
 20
5.3723431213
 30
0.0
  0
VERTEX
  5
324
100
AcDbEntity
  8
0
100
AcDbVertex
100
AcDb2dVertex
 10
7.6727413422
 20
5.3774384766
 30
0.0
  0
VERTEX
  5
325
100
AcDbEntity
  8
0
100
AcDbVertex
100
AcDb2dVertex
 10
7.6772250062
 20
5.3837395345
 30
0.0
  0
VERTEX
  5
326
100
AcDbEntity
  8
0
100
AcDbVertex
100
AcDb2dVertex
 10
7.6807480832
 20
5.391154397
 30
0.0
  0
VERTEX
  5
327
100
AcDbEntity
  8
0
100
AcDbVertex
100
AcDb2dVertex
 10
7.6832591925
 20
5.399574944
 30
0.0
  0
VERTEX
  5
328
100
AcDbEntity
  8
0
100
AcDbVertex
100
AcDb2dVertex
 10
7.6847217317
 20
5.4088783867
 30
0.0
  0
VERTEX
  5
329
100
AcDbEntity
  8
0
100
AcDbVertex
100
AcDb2dVertex
 10
7.6851143564
 20
5.4189290409
 30
0.0
  0
VERTEX
  5
32A
100
AcDbEntity
  8
0
100
AcDbVertex
100
AcDb2dVertex
 10
7.6844313498
 20
5.4295803749
 30
0.0
  0
VERTEX
  5
32B
100
AcDbEntity
  8
0
100
AcDbVertex
100
AcDb2dVertex
 10
7.6826826744
 20
5.4406770597
 30
0.0
  0
VERTEX
  5
32C
100
AcDbEntity
  8
0
100
AcDbVertex
100
AcDb2dVertex
 10
7.6798938226
 20
5.4520572711
 30
0.0
  0
VERTEX
  5
32D
100
AcDbEntity
  8
0
100
AcDbVertex
100
AcDb2dVertex
 10
7.6761054676
 20
5.4635550622
 30
0.0
  0
VERTEX
  5
32E
100
AcDbEntity
  8
0
100
AcDbVertex
100
AcDb2dVertex
 10
7.671372853
 20
5.4750027806
 30
0.0
  0
VERTEX
  5
32F
100
AcDbEntity
  8
0
100
AcDbVertex
100
AcDb2dVertex
 10
7.6657649835
 20
5.486233468
 30
0.0
  0
VERTEX
  5
330
100
AcDbEntity
  8
0
100
AcDbVertex
100
AcDb2dVertex
 10
7.6593636393
 20
5.4970833891
 30
0.0
  0
VERTEX
  5
331
100
AcDbEntity
  8
0
100
AcDbVertex
100
AcDb2dVertex
 10
7.6522621701
 20
5.5073943002
 30
0.0
  0
VERTEX
  5
332
100
AcDbEntity
  8
0
100
AcDbVertex
100
AcDb2dVertex
 10
7.6445641219
 20
5.5170158585
 30
0.0
  0
VERTEX
  5
333
100
AcDbEntity
  8
0
100
AcDbVertex
100
AcDb2dVertex
 10
7.6363817582
 20
5.5258077633
 30
0.0
  0
VERTEX
  5
334
100
AcDbEntity
  8
0
100
AcDbVertex
100
AcDb2dVertex
 10
7.6278343949
 20
5.5336417799
 30
0.0
  0
VERTEX
  5
335
100
AcDbEntity
  8
0
100
AcDbVertex
100
AcDb2dVertex
 10
7.6190466662
 20
5.540403714
 30
0.0
  0
VERTEX
  5
336
100
AcDbEntity
  8
0
100
AcDbVertex
100
AcDb2dVertex
 10
7.610146724
 20
5.5459949299
 30
0.0
  0
VERTEX
  5
337
100
AcDbEntity
  8
0
100
AcDbVertex
100
AcDb2dVertex
 10
7.601264344
 20
5.5503339079
 30
0.0
  0
VERTEX
  5
338
100
AcDbEntity
  8
0
100
AcDbVertex
100
AcDb2dVertex
 10
7.592529055
 20
5.5533573845
 30
0.0
  0
VERTEX
  5
339
100
AcDbEntity
  8
0
100
AcDbVertex
100
AcDb2dVertex
 10
7.5840682355
 20
5.5550212411
 30
0.0
  0
VERTEX
  5
33A
100
AcDbEntity
  8
0
100
AcDbVertex
100
AcDb2dVertex
 10
7.5760052634
 20
5.5553012432
 30
0.0
  0
VERTEX
  5
33B
100
AcDbEntity
  8
0
100
AcDbVertex
100
AcDb2dVertex
 10
7.5684577162
 20
5.5541933008
 30
0.0
  0
VERTEX
  5
33C
100
AcDbEntity
  8
0
100
AcDbVertex
100
AcDb2dVertex
 10
7.5615356502
 20
5.5517135638
 30
0.0
  0
VERTEX
  5
33D
100
AcDbEntity
  8
0
100
AcDbVertex
100
AcDb2dVertex
 10
7.5553400103
 20
5.5478982019
 30
0.0
  0
VERTEX
  5
33E
100
AcDbEntity
  8
0
100
AcDbVertex
100
AcDb2dVertex
 10
7.5499611407
 20
5.5428028429
 30
0.0
  0
VERTEX
  5
33F
100
AcDbEntity
  8
0
100
AcDbVertex
100
AcDb2dVertex
 10
7.546962232
 20
5.5388711872
 30
0.0
  0
SEQEND
  5
340
100
AcDbEntity
  8
0
  0
LINE
  5
341
100
AcDbEntity
  8
0
  6
CONTINUOUS
 62
         7
100
AcDbLine
 10
9.1758946355
 20
5.768634743
 30
0.0
 11
10.0667377889
 21
6.2829075488
 31
0.0
  0
LINE
  5
342
100
AcDbEntity
  8
0
  6
CONTINUOUS
 62
         7
100
AcDbLine
 10
9.1758946355
 20
6.4276539129
 30
0.0
 11
9.1758946355
 21
5.768634743
 31
0.0
  0
LINE
  5
343
100
AcDbEntity
  8
0
  6
CONTINUOUS
 62
         7
100
AcDbLine
 10
10.0667377889
 20
6.9419267188
 30
0.0
 11
10.0667377889
 21
6.2829075488
 31
0.0
  0
LINE
  5
344
100
AcDbEntity
  8
0
  6
CONTINUOUS
 62
       144
100
AcDbLine
 10
9.1758946355
 20
6.4276539129
 30
0.0
 11
10.0667377889
 21
6.9419267188
 31
0.0
  0
LINE
  5
345
100
AcDbEntity
  8
0
  6
CONTINUOUS
 62
         7
100
AcDbLine
 10
9.1758946355
 20
5.768634743
 30
0.0
 11
8.9108532527
 21
5.9216398764
 31
0.0
  0
LINE
  5
346
100
AcDbEntity
  8
0
  6
CONTINUOUS
 62
         7
100
AcDbLine
 10
8.6747953373
 20
6.3627011983
 30
0.0
 11
8.6747953373
 21
6.7169323802
 31
0.0
  0
POLYLINE
  5
347
100
AcDbEntity
  8
0
  6
CONTINUOUS
 62
         7
100
AcDb2dPolyline
 66
         1
 10
0.0
 20
0.0
 30
0.0
 70
       128
  0
VERTEX
  5
348
100
AcDbEntity
  8
0
100
AcDbVertex
100
AcDb2dVertex
 10
8.7846366333
 20
6.4261112065
 30
0.0
  0
VERTEX
  5
349
100
AcDbEntity
  8
0
100
AcDbVertex
100
AcDb2dVertex
 10
8.7888599
 20
6.4297130457
 30
0.0
  0
VERTEX
  5
34A
100
AcDbEntity
  8
0
100
AcDbVertex
100
AcDb2dVertex
 10
8.7981451053
 20
6.4361685479
 30
0.0
  0
VERTEX
  5
34B
100
AcDbEntity
  8
0
100
AcDbVertex
100
AcDb2dVertex
 10
8.8081953048
 20
6.4413160171
 30
0.0
  0
VERTEX
  5
34C
100
AcDbEntity
  8
0
100
AcDbVertex
100
AcDb2dVertex
 10
8.8189500625
 20
6.4451244753
 30
0.0
  0
VERTEX
  5
34D
100
AcDbEntity
  8
0
100
AcDbVertex
100
AcDb2dVertex
 10
8.8303446844
 20
6.4475710315
 30
0.0
  0
VERTEX
  5
34E
100
AcDbEntity
  8
0
100
AcDbVertex
100
AcDb2dVertex
 10
8.842310652
 20
6.4486409752
 30
0.0
  0
VERTEX
  5
34F
100
AcDbEntity
  8
0
100
AcDbVertex
100
AcDb2dVertex
 10
8.8547760019
 20
6.4483278532
 30
0.0
  0
VERTEX
  5
350
100
AcDbEntity
  8
0
100
AcDbVertex
100
AcDb2dVertex
 10
8.8676657564
 20
6.4466335691
 30
0.0
  0
VERTEX
  5
351
100
AcDbEntity
  8
0
100
AcDbVertex
100
AcDb2dVertex
 10
8.8809024038
 20
6.4435683007
 30
0.0
  0
VERTEX
  5
352
100
AcDbEntity
  8
0
100
AcDbVertex
100
AcDb2dVertex
 10
8.8944063337
 20
6.4391504878
 30
0.0
  0
VERTEX
  5
353
100
AcDbEntity
  8
0
100
AcDbVertex
100
AcDb2dVertex
 10
8.908096332
 20
6.4334066968
 30
0.0
  0
VERTEX
  5
354
100
AcDbEntity
  8
0
100
AcDbVertex
100
AcDb2dVertex
 10
8.9218900665
 20
6.4263714707
 30
0.0
  0
VERTEX
  5
355
100
AcDbEntity
  8
0
100
AcDbVertex
100
AcDb2dVertex
 10
8.9357045786
 20
6.4180871242
 30
0.0
  0
VERTEX
  5
356
100
AcDbEntity
  8
0
100
AcDbVertex
100
AcDb2dVertex
 10
8.9494567866
 20
6.4086034795
 30
0.0
  0
VERTEX
  5
357
100
AcDbEntity
  8
0
100
AcDbVertex
100
AcDb2dVertex
 10
8.9630639852
 20
6.3979775699
 30
0.0
  0
VERTEX
  5
358
100
AcDbEntity
  8
0
100
AcDbVertex
100
AcDb2dVertex
 10
8.9764443327
 20
6.3862733031
 30
0.0
  0
VERTEX
  5
359
100
AcDbEntity
  8
0
100
AcDbVertex
100
AcDb2dVertex
 10
8.989517368
 20
6.3735610685
 30
0.0
  0
VERTEX
  5
35A
100
AcDbEntity
  8
0
100
AcDbVertex
100
AcDb2dVertex
 10
9.0022044613
 20
6.3599173205
 30
0.0
  0
VERTEX
  5
35B
100
AcDbEntity
  8
0
100
AcDbVertex
100
AcDb2dVertex
 10
9.0144293095
 20
6.345424116
 30
0.0
  0
VERTEX
  5
35C
100
AcDbEntity
  8
0
100
AcDbVertex
100
AcDb2dVertex
 10
9.0261183968
 20
6.3301686057
 30
0.0
  0
VERTEX
  5
35D
100
AcDbEntity
  8
0
100
AcDbVertex
100
AcDb2dVertex
 10
9.0372014286
 20
6.3142425512
 30
0.0
  0
VERTEX
  5
35E
100
AcDbEntity
  8
0
100
AcDbVertex
100
AcDb2dVertex
 10
9.0476117339
 20
6.2977417378
 30
0.0
  0
VERTEX
  5
35F
100
AcDbEntity
  8
0
100
AcDbVertex
100
AcDb2dVertex
 10
9.057286712
 20
6.2807653939
 30
0.0
  0
VERTEX
  5
360
100
AcDbEntity
  8
0
100
AcDbVertex
100
AcDb2dVertex
 10
9.0661681829
 20
6.2634156153
 30
0.0
  0
VERTEX
  5
361
100
AcDbEntity
  8
0
100
AcDbVertex
100
AcDb2dVertex
 10
9.074202724
 20
6.2457967509
 30
0.0
  0
VERTEX
  5
362
100
AcDbEntity
  8
0
100
AcDbVertex
100
AcDb2dVertex
 10
9.0813420076
 20
6.228014767
 30
0.0
  0
VERTEX
  5
363
100
AcDbEntity
  8
0
100
AcDbVertex
100
AcDb2dVertex
 10
9.0875431246
 20
6.2101766035
 30
0.0
  0
VERTEX
  5
364
100
AcDbEntity
  8
0
100
AcDbVertex
100
AcDb2dVertex
 10
9.092768753
 20
6.1923895225
 30
0.0
  0
VERTEX
  5
365
100
AcDbEntity
  8
0
100
AcDbVertex
100
AcDb2dVertex
 10
9.0969874695
 20
6.1747605398
 30
0.0
  0
VERTEX
  5
366
100
AcDbEntity
  8
0
100
AcDbVertex
100
AcDb2dVertex
 10
9.1001739175
 20
6.1573956237
 30
0.0
  0
VERTEX
  5
367
100
AcDbEntity
  8
0
100
AcDbVertex
100
AcDb2dVertex
 10
9.102308924
 20
6.1403992539
 30
0.0
  0
VERTEX
  5
368
100
AcDbEntity
  8
0
100
AcDbVertex
100
AcDb2dVertex
 10
9.1033796422
 20
6.123873635
 30
0.0
  0
VERTEX
  5
369
100
AcDbEntity
  8
0
100
AcDbVertex
100
AcDb2dVertex
 10
9.1033796422
 20
6.1079181355
 30
0.0
  0
VERTEX
  5
36A
100
AcDbEntity
  8
0
100
AcDbVertex
100
AcDb2dVertex
 10
9.102308924
 20
6.0926287415
 30
0.0
  0
VERTEX
  5
36B
100
AcDbEntity
  8
0
100
AcDbVertex
100
AcDb2dVertex
 10
9.1001739175
 20
6.0780973977
 30
0.0
  0
VERTEX
  5
36C
100
AcDbEntity
  8
0
100
AcDbVertex
100
AcDb2dVertex
 10
9.0969874695
 20
6.0644114762
 30
0.0
  0
VERTEX
  5
36D
100
AcDbEntity
  8
0
100
AcDbVertex
100
AcDb2dVertex
 10
9.092768753
 20
6.0516533198
 30
0.0
  0
VERTEX
  5
36E
100
AcDbEntity
  8
0
100
AcDbVertex
100
AcDb2dVertex
 10
9.0875431246
 20
6.039899636
 30
0.0
  0
VERTEX
  5
36F
100
AcDbEntity
  8
0
100
AcDbVertex
100
AcDb2dVertex
 10
9.0813420076
 20
6.0292211147
 30
0.0
  0
VERTEX
  5
370
100
AcDbEntity
  8
0
100
AcDbVertex
100
AcDb2dVertex
 10
9.074202724
 20
6.0196819872
 30
0.0
  0
VERTEX
  5
371
100
AcDbEntity
  8
0
100
AcDbVertex
100
AcDb2dVertex
 10
9.0661681829
 20
6.0113396066
 30
0.0
  0
VERTEX
  5
372
100
AcDbEntity
  8
0
100
AcDbVertex
100
AcDb2dVertex
 10
9.057286712
 20
6.0042441559
 30
0.0
  0
VERTEX
  5
373
100
AcDbEntity
  8
0
100
AcDbVertex
100
AcDb2dVertex
 10
9.0476117339
 20
5.9984382965
 30
0.0
  0
VERTEX
  5
374
100
AcDbEntity
  8
0
100
AcDbVertex
100
AcDb2dVertex
 10
9.0372014286
 20
5.9939569732
 30
0.0
  0
VERTEX
  5
375
100
AcDbEntity
  8
0
100
AcDbVertex
100
AcDb2dVertex
 10
9.0346163173
 20
5.9930867716
 30
0.0
  0
SEQEND
  5
376
100
AcDbEntity
  8
0
  0
LINE
  5
377
100
AcDbEntity
  8
0
  6
CONTINUOUS
 62
       144
100
AcDbLine
 10
8.6747953373
 20
6.7169323802
 30
0.0
 11
9.1758946355
 21
6.4276539129
 31
0.0
  0
LINE
  5
378
100
AcDbEntity
  8
0
  6
CONTINUOUS
 62
         7
100
AcDbLine
 10
9.1758946355
 20
6.4276539129
 30
0.0
 11
9.1758946355
 21
6.9420103019
 31
0.0
  0
LINE
  5
379
100
AcDbEntity
  8
0
  6
CONTINUOUS
 62
       144
100
AcDbLine
 10
8.6747953373
 20
6.7169323802
 30
0.0
 11
9.1758946355
 21
6.4276539129
 31
0.0
  0
LINE
  5
37A
100
AcDbEntity
  8
0
  6
CONTINUOUS
 62
         7
100
AcDbLine
 10
8.6747953373
 20
6.7169323802
 30
0.0
 11
8.6747953373
 21
7.2312887692
 31
0.0
  0
LINE
  5
37B
100
AcDbEntity
  8
0
  6
CONTINUOUS
 62
         7
100
AcDbLine
 10
8.6747953373
 20
7.2312887692
 30
0.0
 11
9.1758946355
 21
6.9420103019
 31
0.0
  0
LINE
  5
37C
100
AcDbEntity
  8
0
  6
CONTINUOUS
 62
         7
100
AcDbLine
 10
9.1758946355
 20
6.9420103019
 30
0.0
 11
10.0667377889
 21
7.4562831077
 31
0.0
  0
LINE
  5
37D
100
AcDbEntity
  8
0
  6
CONTINUOUS
 62
         7
100
AcDbLine
 10
9.3721655294
 20
7.6338720119
 30
0.0
 11
9.2076008312
 21
7.5388708337
 31
0.0
  0
LINE
  5
37E
100
AcDbEntity
  8
0
  6
CONTINUOUS
 62
         7
100
AcDbLine
 10
9.1442517015
 20
7.5023001596
 30
0.0
 11
8.6747953373
 21
7.2312887692
 31
0.0
  0
LINE
  5
37F
100
AcDbEntity
  8
0
  6
CONTINUOUS
 62
         7
100
AcDbLine
 10
10.0667377889
 20
7.4562831077
 30
0.0
 11
9.6477560741
 21
7.6981561032
 31
0.0
  0
POLYLINE
  5
380
100
AcDbEntity
  8
0
  6
CONTINUOUS
 62
         7
100
AcDb2dPolyline
 66
         1
 10
0.0
 20
0.0
 30
0.0
 70
       128
  0
VERTEX
  5
381
100
AcDbEntity
  8
0
100
AcDbVertex
100
AcDb2dVertex
 10
8.9392643811
 20
7.1750401509
 30
0.0
  0
VERTEX
  5
382
100
AcDbEntity
  8
0
100
AcDbVertex
100
AcDb2dVertex
 10
8.9310903108
 20
7.1696877382
 30
0.0
  0
VERTEX
  5
383
100
AcDbEntity
  8
0
100
AcDbVertex
100
AcDb2dVertex
 10
8.9241427959
 20
7.1637861432
 30
0.0
  0
VERTEX
  5
384
100
AcDbEntity
  8
0
100
AcDbVertex
100
AcDb2dVertex
 10
8.9185313453
 20
7.1574284063
 30
0.0
  0
VERTEX
  5
385
100
AcDbEntity
  8
0
100
AcDbVertex
100
AcDb2dVertex
 10
8.9143444509
 20
7.1507147918
 30
0.0
  0
VERTEX
  5
386
100
AcDbEntity
  8
0
100
AcDbVertex
100
AcDb2dVertex
 10
8.9116480838
 20
7.1437511408
 30
0.0
  0
VERTEX
  5
387
100
AcDbEntity
  8
0
100
AcDbVertex
100
AcDb2dVertex
 10
8.9104848518
 20
7.1366473228
 30
0.0
  0
VERTEX
  5
388
100
AcDbEntity
  8
0
100
AcDbVertex
100
AcDb2dVertex
 10
8.9108730884
 20
7.1295153664
 30
0.0
  0
VERTEX
  5
389
100
AcDbEntity
  8
0
100
AcDbVertex
100
AcDb2dVertex
 10
8.9128066911
 20
7.1224677563
 30
0.0
  0
VERTEX
  5
38A
100
AcDbEntity
  8
0
100
AcDbVertex
100
AcDb2dVertex
 10
8.9162551455
 20
7.1156156239
 30
0.0
  0
VERTEX
  5
38B
100
AcDbEntity
  8
0
100
AcDbVertex
100
AcDb2dVertex
 10
8.9211640345
 20
7.1090670162
 30
0.0
  0
VERTEX
  5
38C
100
AcDbEntity
  8
0
100
AcDbVertex
100
AcDb2dVertex
 10
8.9274559165
 20
7.1029251914
 30
0.0
  0
VERTEX
  5
38D
100
AcDbEntity
  8
0
100
AcDbVertex
100
AcDb2dVertex
 10
8.9350317159
 20
7.0972870977
 30
0.0
  0
VERTEX
  5
38E
100
AcDbEntity
  8
0
100
AcDbVertex
100
AcDb2dVertex
 10
8.9437717942
 20
7.092241558
 30
0.0
  0
VERTEX
  5
38F
100
AcDbEntity
  8
0
100
AcDbVertex
100
AcDb2dVertex
 10
8.9535383171
 20
7.087868142
 30
0.0
  0
VERTEX
  5
390
100
AcDbEntity
  8
0
100
AcDbVertex
100
AcDb2dVertex
 10
8.9641774212
 20
7.0842359166
 30
0.0
  0
VERTEX
  5
391
100
AcDbEntity
  8
0
100
AcDbVertex
100
AcDb2dVertex
 10
8.9755211745
 20
7.0814020736
 30
0.0
  0
VERTEX
  5
392
100
AcDbEntity
  8
0
100
AcDbVertex
100
AcDb2dVertex
 10
8.9873906971
 20
7.0794113261
 30
0.0
  0
VERTEX
  5
393
100
AcDbEntity
  8
0
100
AcDbVertex
100
AcDb2dVertex
 10
8.9995988418
 20
7.0782950792
 30
0.0
  0
VERTEX
  5
394
100
AcDbEntity
  8
0
100
AcDbVertex
100
AcDb2dVertex
 10
9.0119530914
 20
7.0780709549
 30
0.0
  0
VERTEX
  5
395
100
AcDbEntity
  8
0
100
AcDbVertex
100
AcDb2dVertex
 10
9.0242585984
 20
7.0787424745
 30
0.0
  0
VERTEX
  5
396
100
AcDbEntity
  8
0
100
AcDbVertex
100
AcDb2dVertex
 10
9.0363212994
 20
7.0802990559
 30
0.0
  0
VERTEX
  5
397
100
AcDbEntity
  8
0
100
AcDbVertex
100
AcDb2dVertex
 10
9.0479508843
 20
7.0827160967
 30
0.0
  0
VERTEX
  5
398
100
AcDbEntity
  8
0
100
AcDbVertex
100
AcDb2dVertex
 10
9.0589640041
 20
7.0859555164
 30
0.0
  0
VERTEX
  5
399
100
AcDbEntity
  8
0
100
AcDbVertex
100
AcDb2dVertex
 10
9.0691869742
 20
7.0899662314
 30
0.0
  0
VERTEX
  5
39A
100
AcDbEntity
  8
0
100
AcDbVertex
100
AcDb2dVertex
 10
9.0784586263
 20
7.0946850236
 30
0.0
  0
VERTEX
  5
39B
100
AcDbEntity
  8
0
100
AcDbVertex
100
AcDb2dVertex
 10
9.0866326998
 20
7.1000374343
 30
0.0
  0
VERTEX
  5
39C
100
AcDbEntity
  8
0
100
AcDbVertex
100
AcDb2dVertex
 10
9.0935802147
 20
7.1059390294
 30
0.0
  0
VERTEX
  5
39D
100
AcDbEntity
  8
0
100
AcDbVertex
100
AcDb2dVertex
 10
9.0991916621
 20
7.1122967681
 30
0.0
  0
VERTEX
  5
39E
100
AcDbEntity
  8
0
100
AcDbVertex
100
AcDb2dVertex
 10
9.1033786569
 20
7.1190104444
 30
0.0
  0
VERTEX
  5
39F
100
AcDbEntity
  8
0
100
AcDbVertex
100
AcDb2dVertex
 10
9.1060749235
 20
7.1259740337
 30
0.0
  0
VERTEX
  5
3A0
100
AcDbEntity
  8
0
100
AcDbVertex
100
AcDb2dVertex
 10
9.1072381556
 20
7.1330778516
 30
0.0
  0
VERTEX
  5
3A1
100
AcDbEntity
  8
0
100
AcDbVertex
100
AcDb2dVertex
 10
9.1068499189
 20
7.1402098081
 30
0.0
  0
VERTEX
  5
3A2
100
AcDbEntity
  8
0
100
AcDbVertex
100
AcDb2dVertex
 10
9.104916313
 20
7.14725742
 30
0.0
  0
VERTEX
  5
3A3
100
AcDbEntity
  8
0
100
AcDbVertex
100
AcDb2dVertex
 10
9.1014678635
 20
7.1541095496
 30
0.0
  0
VERTEX
  5
3A4
100
AcDbEntity
  8
0
100
AcDbVertex
100
AcDb2dVertex
 10
9.0965589716
 20
7.1606581589
 30
0.0
  0
VERTEX
  5
3A5
100
AcDbEntity
  8
0
100
AcDbVertex
100
AcDb2dVertex
 10
9.0902670909
 20
7.166799983
 30
0.0
  0
VERTEX
  5
3A6
100
AcDbEntity
  8
0
100
AcDbVertex
100
AcDb2dVertex
 10
9.0826913952
 20
7.1724381366
 30
0.0
  0
VERTEX
  5
3A7
100
AcDbEntity
  8
0
100
AcDbVertex
100
AcDb2dVertex
 10
9.0739513169
 20
7.1774836764
 30
0.0
  0
VERTEX
  5
3A8
100
AcDbEntity
  8
0
100
AcDbVertex
100
AcDb2dVertex
 10
9.0641846902
 20
7.1818570324
 30
0.0
  0
VERTEX
  5
3A9
100
AcDbEntity
  8
0
100
AcDbVertex
100
AcDb2dVertex
 10
9.0535455849
 20
7.1854892585
 30
0.0
  0
VERTEX
  5
3AA
100
AcDbEntity
  8
0
100
AcDbVertex
100
AcDb2dVertex
 10
9.0422018345
 20
7.1883230999
 30
0.0
  0
VERTEX
  5
3AB
100
AcDbEntity
  8
0
100
AcDbVertex
100
AcDb2dVertex
 10
9.030332307
 20
7.1903138502
 30
0.0
  0
VERTEX
  5
3AC
100
AcDbEntity
  8
0
100
AcDbVertex
100
AcDb2dVertex
 10
9.0181241655
 20
7.1914300953
 30
0.0
  0
VERTEX
  5
3AD
100
AcDbEntity
  8
0
100
AcDbVertex
100
AcDb2dVertex
 10
9.0057699159
 20
7.1916542195
 30
0.0
  0
VERTEX
  5
3AE
100
AcDbEntity
  8
0
100
AcDbVertex
100
AcDb2dVertex
 10
8.993464409
 20
7.1909827
 30
0.0
  0
VERTEX
  5
3AF
100
AcDbEntity
  8
0
100
AcDbVertex
100
AcDb2dVertex
 10
8.9814018084
 20
7.1894261803
 30
0.0
  0
VERTEX
  5
3B0
100
AcDbEntity
  8
0
100
AcDbVertex
100
AcDb2dVertex
 10
8.9697721231
 20
7.1870090777
 30
0.0
  0
VERTEX
  5
3B1
100
AcDbEntity
  8
0
100
AcDbVertex
100
AcDb2dVertex
 10
8.9587590065
 20
7.1837696562
 30
0.0
  0
VERTEX
  5
3B2
100
AcDbEntity
  8
0
100
AcDbVertex
100
AcDb2dVertex
 10
8.9485360364
 20
7.1797589412
 30
0.0
  0
VERTEX
  5
3B3
100
AcDbEntity
  8
0
100
AcDbVertex
100
AcDb2dVertex
 10
8.9392643811
 20
7.1750401509
 30
0.0
  0
SEQEND
  5
3B4
100
AcDbEntity
  8
0
  0
POLYLINE
  5
3B5
100
AcDbEntity
  8
0
  6
CONTINUOUS
 62
         7
100
AcDb2dPolyline
 66
         1
 10
0.0
 20
0.0
 30
0.0
 70
       128
  0
VERTEX
  5
3B6
100
AcDbEntity
  8
0
100
AcDbVertex
100
AcDb2dVertex
 10
9.663074487
 20
7.5928868309
 30
0.0
  0
VERTEX
  5
3B7
100
AcDbEntity
  8
0
100
AcDbVertex
100
AcDb2dVertex
 10
9.6549004427
 20
7.5875344332
 30
0.0
  0
VERTEX
  5
3B8
100
AcDbEntity
  8
0
100
AcDbVertex
100
AcDb2dVertex
 10
9.6479529018
 20
7.5816328232
 30
0.0
  0
VERTEX
  5
3B9
100
AcDbEntity
  8
0
100
AcDbVertex
100
AcDb2dVertex
 10
9.6477560741
 20
7.5814398291
 30
0.0
  0
SEQEND
  5
3BA
100
AcDbEntity
  8
0
  0
POLYLINE
  5
3BB
100
AcDbEntity
  8
0
  6
CONTINUOUS
 62
         7
100
AcDb2dPolyline
 66
         1
 10
0.0
 20
0.0
 30
0.0
 70
       128
  0
VERTEX
  5
3BC
100
AcDbEntity
  8
0
100
AcDbVertex
100
AcDb2dVertex
 10
9.6906998814
 20
7.5013147849
 30
0.0
  0
VERTEX
  5
3BD
100
AcDbEntity
  8
0
100
AcDbVertex
100
AcDb2dVertex
 10
9.6993312545
 20
7.4992487387
 30
0.0
  0
VERTEX
  5
3BE
100
AcDbEntity
  8
0
100
AcDbVertex
100
AcDb2dVertex
 10
9.711200803
 20
7.4972580061
 30
0.0
  0
VERTEX
  5
3BF
100
AcDbEntity
  8
0
100
AcDbVertex
100
AcDb2dVertex
 10
9.7234089737
 20
7.4961417742
 30
0.0
  0
VERTEX
  5
3C0
100
AcDbEntity
  8
0
100
AcDbVertex
100
AcDb2dVertex
 10
9.7357632233
 20
7.4959176499
 30
0.0
  0
VERTEX
  5
3C1
100
AcDbEntity
  8
0
100
AcDbVertex
100
AcDb2dVertex
 10
9.7480687043
 20
7.4965891545
 30
0.0
  0
VERTEX
  5
3C2
100
AcDbEntity
  8
0
100
AcDbVertex
100
AcDb2dVertex
 10
9.7601313535
 20
7.498145706
 30
0.0
  0
VERTEX
  5
3C3
100
AcDbEntity
  8
0
100
AcDbVertex
100
AcDb2dVertex
 10
9.7717609643
 20
7.5005627618
 30
0.0
  0
VERTEX
  5
3C4
100
AcDbEntity
  8
0
100
AcDbVertex
100
AcDb2dVertex
 10
9.78277411
 20
7.5038021964
 30
0.0
  0
VERTEX
  5
3C5
100
AcDbEntity
  8
0
100
AcDbVertex
100
AcDb2dVertex
 10
9.7929971061
 20
7.5078129264
 30
0.0
  0
VERTEX
  5
3C6
100
AcDbEntity
  8
0
100
AcDbVertex
100
AcDb2dVertex
 10
9.8022687322
 20
7.5125317036
 30
0.0
  0
VERTEX
  5
3C7
100
AcDbEntity
  8
0
100
AcDbVertex
100
AcDb2dVertex
 10
9.8104427798
 20
7.5178840994
 30
0.0
  0
VERTEX
  5
3C8
100
AcDbEntity
  8
0
100
AcDbVertex
100
AcDb2dVertex
 10
9.8173903206
 20
7.5237857094
 30
0.0
  0
VERTEX
  5
3C9
100
AcDbEntity
  8
0
100
AcDbVertex
100
AcDb2dVertex
 10
9.8230017939
 20
7.5301434631
 30
0.0
  0
VERTEX
  5
3CA
100
AcDbEntity
  8
0
100
AcDbVertex
100
AcDb2dVertex
 10
9.827188711
 20
7.5368570945
 30
0.0
  0
VERTEX
  5
3CB
100
AcDbEntity
  8
0
100
AcDbVertex
100
AcDb2dVertex
 10
9.8298850295
 20
7.5438207137
 30
0.0
  0
VERTEX
  5
3CC
100
AcDbEntity
  8
0
100
AcDbVertex
100
AcDb2dVertex
 10
9.8310482355
 20
7.5509245167
 30
0.0
  0
VERTEX
  5
3CD
100
AcDbEntity
  8
0
100
AcDbVertex
100
AcDb2dVertex
 10
9.8306599989
 20
7.5580564731
 30
0.0
  0
VERTEX
  5
3CE
100
AcDbEntity
  8
0
100
AcDbVertex
100
AcDb2dVertex
 10
9.828726393
 20
7.5651040851
 30
0.0
  0
VERTEX
  5
3CF
100
AcDbEntity
  8
0
100
AcDbVertex
100
AcDb2dVertex
 10
9.8252779953
 20
7.5719562446
 30
0.0
  0
VERTEX
  5
3D0
100
AcDbEntity
  8
0
100
AcDbVertex
100
AcDb2dVertex
 10
9.8203691034
 20
7.5785048539
 30
0.0
  0
VERTEX
  5
3D1
100
AcDbEntity
  8
0
100
AcDbVertex
100
AcDb2dVertex
 10
9.8140771709
 20
7.5846466481
 30
0.0
  0
VERTEX
  5
3D2
100
AcDbEntity
  8
0
100
AcDbVertex
100
AcDb2dVertex
 10
9.8065014492
 20
7.5902847867
 30
0.0
  0
VERTEX
  5
3D3
100
AcDbEntity
  8
0
100
AcDbVertex
100
AcDb2dVertex
 10
9.7977613709
 20
7.5953303264
 30
0.0
  0
VERTEX
  5
3D4
100
AcDbEntity
  8
0
100
AcDbVertex
100
AcDb2dVertex
 10
9.7879947702
 20
7.5997036975
 30
0.0
  0
VERTEX
  5
3D5
100
AcDbEntity
  8
0
100
AcDbVertex
100
AcDb2dVertex
 10
9.7773557167
 20
7.6033359535
 30
0.0
  0
VERTEX
  5
3D6
100
AcDbEntity
  8
0
100
AcDbVertex
100
AcDb2dVertex
 10
9.7660119663
 20
7.6061697949
 30
0.0
  0
VERTEX
  5
3D7
100
AcDbEntity
  8
0
100
AcDbVertex
100
AcDb2dVertex
 10
9.754142387
 20
7.6081605153
 30
0.0
  0
VERTEX
  5
3D8
100
AcDbEntity
  8
0
100
AcDbVertex
100
AcDb2dVertex
 10
9.7419342455
 20
7.6092767603
 30
0.0
  0
VERTEX
  5
3D9
100
AcDbEntity
  8
0
100
AcDbVertex
100
AcDb2dVertex
 10
9.7295799959
 20
7.6095008846
 30
0.0
  0
VERTEX
  5
3DA
100
AcDbEntity
  8
0
100
AcDbVertex
100
AcDb2dVertex
 10
9.7172745149
 20
7.60882938
 30
0.0
  0
VERTEX
  5
3DB
100
AcDbEntity
  8
0
100
AcDbVertex
100
AcDb2dVertex
 10
9.7052118625
 20
7.6072728303
 30
0.0
  0
VERTEX
  5
3DC
100
AcDbEntity
  8
0
100
AcDbVertex
100
AcDb2dVertex
 10
9.6935822549
 20
7.6048557727
 30
0.0
  0
VERTEX
  5
3DD
100
AcDbEntity
  8
0
100
AcDbVertex
100
AcDb2dVertex
 10
9.6825691124
 20
7.6016163362
 30
0.0
  0
VERTEX
  5
3DE
100
AcDbEntity
  8
0
100
AcDbVertex
100
AcDb2dVertex
 10
9.6723461163
 20
7.5976056063
 30
0.0
  0
VERTEX
  5
3DF
100
AcDbEntity
  8
0
100
AcDbVertex
100
AcDb2dVertex
 10
9.663074487
 20
7.5928868309
 30
0.0
  0
VERTEX
  5
3E0
100
AcDbEntity
  8
0
100
AcDbVertex
100
AcDb2dVertex
 10
9.663074487
 20
7.5928868309
 30
0.0
  0
SEQEND
  5
3E1
100
AcDbEntity
  8
0
  0
LINE
  5
3E2
100
AcDbEntity
  8
0
  6
CONTINUOUS
 62
         7
100
AcDbLine
 10
10.0667377889
 20
6.9419267188
 30
0.0
 11
10.0667377889
 21
7.4562831077
 31
0.0
  0
LINE
  5
3E3
100
AcDbEntity
  8
0
  6
CONTINUOUS
 62
       144
100
AcDbLine
 10
9.1758946355
 20
6.4276539129
 30
0.0
 11
10.0667377889
 21
6.9419267188
 31
0.0
  0
POLYLINE
  5
3E4
100
AcDbEntity
  8
0
  6
CONTINUOUS
 62
         7
100
AcDb2dPolyline
 66
         1
 10
0.0
 20
0.0
 30
0.0
 70
       128
  0
VERTEX
  5
3E5
100
AcDbEntity
  8
0
100
AcDbVertex
100
AcDb2dVertex
 10
9.3774643432
 20
7.7996083616
 30
0.0
  0
VERTEX
  5
3E6
100
AcDbEntity
  8
0
100
AcDbVertex
100
AcDb2dVertex
 10
9.3742342926
 20
7.791493427
 30
0.0
  0
VERTEX
  5
3E7
100
AcDbEntity
  8
0
100
AcDbVertex
100
AcDb2dVertex
 10
9.3724913566
 20
7.7832280729
 30
0.0
  0
VERTEX
  5
3E8
100
AcDbEntity
  8
0
100
AcDbVertex
100
AcDb2dVertex
 10
9.3722545367
 20
7.7749028084
 30
0.0
  0
VERTEX
  5
3E9
100
AcDbEntity
  8
0
100
AcDbVertex
100
AcDb2dVertex
 10
9.3735264577
 20
7.7666088556
 30
0.0
  0
VERTEX
  5
3EA
100
AcDbEntity
  8
0
100
AcDbVertex
100
AcDb2dVertex
 10
9.3762931516
 20
7.7584370771
 30
0.0
  0
VERTEX
  5
3EB
100
AcDbEntity
  8
0
100
AcDbVertex
100
AcDb2dVertex
 10
9.3805243568
 20
7.7504770252
 30
0.0
  0
VERTEX
  5
3EC
100
AcDbEntity
  8
0
100
AcDbVertex
100
AcDb2dVertex
 10
9.386173728
 20
7.7428159224
 30
0.0
  0
VERTEX
  5
3ED
100
AcDbEntity
  8
0
100
AcDbVertex
100
AcDb2dVertex
 10
9.3931793085
 20
7.7355376705
 30
0.0
  0
VERTEX
  5
3EE
100
AcDbEntity
  8
0
100
AcDbVertex
100
AcDb2dVertex
 10
9.401464352
 20
7.7287220166
 30
0.0
  0
VERTEX
  5
3EF
100
AcDbEntity
  8
0
100
AcDbVertex
100
AcDb2dVertex
 10
9.4109381395
 20
7.722443663
 30
0.0
  0
VERTEX
  5
3F0
100
AcDbEntity
  8
0
100
AcDbVertex
100
AcDb2dVertex
 10
9.4214968133
 20
7.7167713663
 30
0.0
  0
VERTEX
  5
3F1
100
AcDbEntity
  8
0
100
AcDbVertex
100
AcDb2dVertex
 10
9.433024716
 20
7.7117672841
 30
0.0
  0
VERTEX
  5
3F2
100
AcDbEntity
  8
0
100
AcDbVertex
100
AcDb2dVertex
 10
9.4453955523
 20
7.7074862445
 30
0.0
  0
VERTEX
  5
3F3
100
AcDbEntity
  8
0
100
AcDbVertex
100
AcDb2dVertex
 10
9.4584738023
 20
7.7039751701
 30
0.0
  0
VERTEX
  5
3F4
100
AcDbEntity
  8
0
100
AcDbVertex
100
AcDb2dVertex
 10
9.4721161416
 20
7.7012724969
 30
0.0
  0
VERTEX
  5
3F5
100
AcDbEntity
  8
0
100
AcDbVertex
100
AcDb2dVertex
 10
9.4861731306
 20
7.6994078583
 30
0.0
  0
VERTEX
  5
3F6
100
AcDbEntity
  8
0
100
AcDbVertex
100
AcDb2dVertex
 10
9.5004906984
 20
7.6984016472
 30
0.0
  0
VERTEX
  5
3F7
100
AcDbEntity
  8
0
100
AcDbVertex
100
AcDb2dVertex
 10
9.5149120453
 20
7.6982649358
 30
0.0
  0
VERTEX
  5
3F8
100
AcDbEntity
  8
0
100
AcDbVertex
100
AcDb2dVertex
 10
9.5292791596
 20
7.6989991983
 30
0.0
  0
VERTEX
  5
3F9
100
AcDbEntity
  8
0
100
AcDbVertex
100
AcDb2dVertex
 10
9.5434346256
 20
7.7005964048
 30
0.0
  0
VERTEX
  5
3FA
100
AcDbEntity
  8
0
100
AcDbVertex
100
AcDb2dVertex
 10
9.5572233031
 20
7.7030390098
 30
0.0
  0
VERTEX
  5
3FB
100
AcDbEntity
  8
0
100
AcDbVertex
100
AcDb2dVertex
 10
9.5704941935
 20
7.7063003116
 30
0.0
  0
VERTEX
  5
3FC
100
AcDbEntity
  8
0
100
AcDbVertex
100
AcDb2dVertex
 10
9.5831018985
 20
7.7103445684
 30
0.0
  0
VERTEX
  5
3FD
100
AcDbEntity
  8
0
100
AcDbVertex
100
AcDb2dVertex
 10
9.5949081755
 20
7.7151274169
 30
0.0
  0
VERTEX
  5
3FE
100
AcDbEntity
  8
0
100
AcDbVertex
100
AcDb2dVertex
 10
9.6057838177
 20
7.720596524
 30
0.0
  0
VERTEX
  5
3FF
100
AcDbEntity
  8
0
100
AcDbVertex
100
AcDb2dVertex
 10
9.6156095481
 20
7.7266919083
 30
0.0
  0
VERTEX
  5
400
100
AcDbEntity
  8
0
100
AcDbVertex
100
AcDb2dVertex
 10
9.6242777957
 20
7.7333468305
 30
0.0
  0
VERTEX
  5
401
100
AcDbEntity
  8
0
100
AcDbVertex
100
AcDb2dVertex
 10
9.6316935643
 20
7.7404883698
 30
0.0
  0
VERTEX
  5
402
100
AcDbEntity
  8
0
100
AcDbVertex
100
AcDb2dVertex
 10
9.6377756377
 20
7.7480382846
 30
0.0
  0
VERTEX
  5
403
100
AcDbEntity
  8
0
100
AcDbVertex
100
AcDb2dVertex
 10
9.6424573122
 20
7.7559138469
 30
0.0
  0
VERTEX
  5
404
100
AcDbEntity
  8
0
100
AcDbVertex
100
AcDb2dVertex
 10
9.645687311
 20
7.7640287515
 30
0.0
  0
VERTEX
  5
405
100
AcDbEntity
  8
0
100
AcDbVertex
100
AcDb2dVertex
 10
9.647430302
 20
7.7722941337
 30
0.0
  0
VERTEX
  5
406
100
AcDbEntity
  8
0
100
AcDbVertex
100
AcDb2dVertex
 10
9.6476671188
 20
7.7806194001
 30
0.0
  0
VERTEX
  5
407
100
AcDbEntity
  8
0
100
AcDbVertex
100
AcDb2dVertex
 10
9.646395201
 20
7.7889133511
 30
0.0
  0
VERTEX
  5
408
100
AcDbEntity
  8
0
100
AcDbVertex
100
AcDb2dVertex
 10
9.643628452
 20
7.7970851015
 30
0.0
  0
VERTEX
  5
409
100
AcDbEntity
  8
0
100
AcDbVertex
100
AcDb2dVertex
 10
9.6393972452
 20
7.8050451543
 30
0.0
  0
VERTEX
  5
40A
100
AcDbEntity
  8
0
100
AcDbVertex
100
AcDb2dVertex
 10
9.6337479282
 20
7.8127062856
 30
0.0
  0
VERTEX
  5
40B
100
AcDbEntity
  8
0
100
AcDbVertex
100
AcDb2dVertex
 10
9.6267423208
 20
7.8199845232
 30
0.0
  0
VERTEX
  5
40C
100
AcDbEntity
  8
0
100
AcDbVertex
100
AcDb2dVertex
 10
9.6184572767
 20
7.8268001774
 30
0.0
  0
VERTEX
  5
40D
100
AcDbEntity
  8
0
100
AcDbVertex
100
AcDb2dVertex
 10
9.6089834917
 20
7.8330785296
 30
0.0
  0
VERTEX
  5
40E
100
AcDbEntity
  8
0
100
AcDbVertex
100
AcDb2dVertex
 10
9.5984248162
 20
7.8387508273
 30
0.0
  0
VERTEX
  5
40F
100
AcDbEntity
  8
0
100
AcDbVertex
100
AcDb2dVertex
 10
9.5868968868
 20
7.843754895
 30
0.0
  0
VERTEX
  5
410
100
AcDbEntity
  8
0
100
AcDbVertex
100
AcDb2dVertex
 10
9.5745260521
 20
7.8480359336
 30
0.0
  0
VERTEX
  5
411
100
AcDbEntity
  8
0
100
AcDbVertex
100
AcDb2dVertex
 10
9.5614477997
 20
7.8515470094
 30
0.0
  0
VERTEX
  5
412
100
AcDbEntity
  8
0
100
AcDbVertex
100
AcDb2dVertex
 10
9.5478054604
 20
7.8542496826
 30
0.0
  0
VERTEX
  5
413
100
AcDbEntity
  8
0
100
AcDbVertex
100
AcDb2dVertex
 10
9.5337485248
 20
7.8561143502
 30
0.0
  0
VERTEX
  5
414
100
AcDbEntity
  8
0
100
AcDbVertex
100
AcDb2dVertex
 10
9.5194309084
 20
7.8571205295
 30
0.0
  0
VERTEX
  5
415
100
AcDbEntity
  8
0
100
AcDbVertex
100
AcDb2dVertex
 10
9.505009555
 20
7.8572572446
 30
0.0
  0
VERTEX
  5
416
100
AcDbEntity
  8
0
100
AcDbVertex
100
AcDb2dVertex
 10
9.490642444
 20
7.8565229802
 30
0.0
  0
VERTEX
  5
417
100
AcDbEntity
  8
0
100
AcDbVertex
100
AcDb2dVertex
 10
9.4764870298
 20
7.8549258037
 30
0.0
  0
VERTEX
  5
418
100
AcDbEntity
  8
0
100
AcDbVertex
100
AcDb2dVertex
 10
9.4626983069
 20
7.852483165
 30
0.0
  0
VERTEX
  5
419
100
AcDbEntity
  8
0
100
AcDbVertex
100
AcDb2dVertex
 10
9.4494274165
 20
7.8492218632
 30
0.0
  0
VERTEX
  5
41A
100
AcDbEntity
  8
0
100
AcDbVertex
100
AcDb2dVertex
 10
9.4368197634
 20
7.8451776364
 30
0.0
  0
VERTEX
  5
41B
100
AcDbEntity
  8
0
100
AcDbVertex
100
AcDb2dVertex
 10
9.425013428
 20
7.8403947617
 30
0.0
  0
VERTEX
  5
41C
100
AcDbEntity
  8
0
100
AcDbVertex
100
AcDb2dVertex
 10
9.4141378377
 20
7.8349256845
 30
0.0
  0
VERTEX
  5
41D
100
AcDbEntity
  8
0
100
AcDbVertex
100
AcDb2dVertex
 10
9.4043120555
 20
7.8288302703
 30
0.0
  0
VERTEX
  5
41E
100
AcDbEntity
  8
0
100
AcDbVertex
100
AcDb2dVertex
 10
9.3956438079
 20
7.8221753481
 30
0.0
  0
VERTEX
  5
41F
100
AcDbEntity
  8
0
100
AcDbVertex
100
AcDb2dVertex
 10
9.3882280328
 20
7.8150338126
 30
0.0
  0
VERTEX
  5
420
100
AcDbEntity
  8
0
100
AcDbVertex
100
AcDb2dVertex
 10
9.3821459724
 20
7.8074838902
 30
0.0
  0
VERTEX
  5
421
100
AcDbEntity
  8
0
100
AcDbVertex
100
AcDb2dVertex
 10
9.3774643432
 20
7.7996083616
 30
0.0
  0
SEQEND
  5
422
100
AcDbEntity
  8
0
  0
POLYLINE
  5
423
100
AcDbEntity
  8
0
  6
CONTINUOUS
 62
         7
100
AcDb2dPolyline
 66
         1
 10
0.0
 20
0.0
 30
0.0
 70
       128
  0
VERTEX
  5
424
100
AcDbEntity
  8
0
100
AcDbVertex
100
AcDb2dVertex
 10
9.3721655392
 20
7.4562883415
 30
0.0
  0
VERTEX
  5
425
100
AcDbEntity
  8
0
100
AcDbVertex
100
AcDb2dVertex
 10
9.3722545367
 20
7.453430055
 30
0.0
  0
VERTEX
  5
426
100
AcDbEntity
  8
0
100
AcDbVertex
100
AcDb2dVertex
 10
9.3735264577
 20
7.4451361022
 30
0.0
  0
VERTEX
  5
427
100
AcDbEntity
  8
0
100
AcDbVertex
100
AcDb2dVertex
 10
9.3762931516
 20
7.4369643237
 30
0.0
  0
VERTEX
  5
428
100
AcDbEntity
  8
0
100
AcDbVertex
100
AcDb2dVertex
 10
9.3805243568
 20
7.4290042718
 30
0.0
  0
VERTEX
  5
429
100
AcDbEntity
  8
0
100
AcDbVertex
100
AcDb2dVertex
 10
9.386173728
 20
7.421343169
 30
0.0
  0
VERTEX
  5
42A
100
AcDbEntity
  8
0
100
AcDbVertex
100
AcDb2dVertex
 10
9.3931793085
 20
7.4140649171
 30
0.0
  0
VERTEX
  5
42B
100
AcDbEntity
  8
0
100
AcDbVertex
100
AcDb2dVertex
 10
9.401464352
 20
7.4072492632
 30
0.0
  0
VERTEX
  5
42C
100
AcDbEntity
  8
0
100
AcDbVertex
100
AcDb2dVertex
 10
9.4109381395
 20
7.4009709096
 30
0.0
  0
VERTEX
  5
42D
100
AcDbEntity
  8
0
100
AcDbVertex
100
AcDb2dVertex
 10
9.4214968133
 20
7.3952986129
 30
0.0
  0
VERTEX
  5
42E
100
AcDbEntity
  8
0
100
AcDbVertex
100
AcDb2dVertex
 10
9.433024716
 20
7.3902945307
 30
0.0
  0
VERTEX
  5
42F
100
AcDbEntity
  8
0
100
AcDbVertex
100
AcDb2dVertex
 10
9.4453955523
 20
7.3860134911
 30
0.0
  0
VERTEX
  5
430
100
AcDbEntity
  8
0
100
AcDbVertex
100
AcDb2dVertex
 10
9.4584738023
 20
7.3825024167
 30
0.0
  0
VERTEX
  5
431
100
AcDbEntity
  8
0
100
AcDbVertex
100
AcDb2dVertex
 10
9.4721161416
 20
7.3797997435
 30
0.0
  0
VERTEX
  5
432
100
AcDbEntity
  8
0
100
AcDbVertex
100
AcDb2dVertex
 10
9.4861731306
 20
7.3779351049
 30
0.0
  0
VERTEX
  5
433
100
AcDbEntity
  8
0
100
AcDbVertex
100
AcDb2dVertex
 10
9.5004906984
 20
7.3769288938
 30
0.0
  0
VERTEX
  5
434
100
AcDbEntity
  8
0
100
AcDbVertex
100
AcDb2dVertex
 10
9.5149120453
 20
7.3767921824
 30
0.0
  0
VERTEX
  5
435
100
AcDbEntity
  8
0
100
AcDbVertex
100
AcDb2dVertex
 10
9.5292791596
 20
7.3775264449
 30
0.0
  0
VERTEX
  5
436
100
AcDbEntity
  8
0
100
AcDbVertex
100
AcDb2dVertex
 10
9.5434346256
 20
7.3791236514
 30
0.0
  0
VERTEX
  5
437
100
AcDbEntity
  8
0
100
AcDbVertex
100
AcDb2dVertex
 10
9.5572233031
 20
7.3815662564
 30
0.0
  0
VERTEX
  5
438
100
AcDbEntity
  8
0
100
AcDbVertex
100
AcDb2dVertex
 10
9.5704941935
 20
7.3848275582
 30
0.0
  0
VERTEX
  5
439
100
AcDbEntity
  8
0
100
AcDbVertex
100
AcDb2dVertex
 10
9.5831018985
 20
7.388871815
 30
0.0
  0
VERTEX
  5
43A
100
AcDbEntity
  8
0
100
AcDbVertex
100
AcDb2dVertex
 10
9.5949081755
 20
7.3936546635
 30
0.0
  0
VERTEX
  5
43B
100
AcDbEntity
  8
0
100
AcDbVertex
100
AcDb2dVertex
 10
9.6057838177
 20
7.3991237706
 30
0.0
  0
VERTEX
  5
43C
100
AcDbEntity
  8
0
100
AcDbVertex
100
AcDb2dVertex
 10
9.6156095481
 20
7.4052191549
 30
0.0
  0
VERTEX
  5
43D
100
AcDbEntity
  8
0
100
AcDbVertex
100
AcDb2dVertex
 10
9.6242777957
 20
7.4118740771
 30
0.0
  0
VERTEX
  5
43E
100
AcDbEntity
  8
0
100
AcDbVertex
100
AcDb2dVertex
 10
9.6316935643
 20
7.4190156164
 30
0.0
  0
VERTEX
  5
43F
100
AcDbEntity
  8
0
100
AcDbVertex
100
AcDb2dVertex
 10
9.6377756377
 20
7.4265655312
 30
0.0
  0
VERTEX
  5
440
100
AcDbEntity
  8
0
100
AcDbVertex
100
AcDb2dVertex
 10
9.6424573122
 20
7.4344410935
 30
0.0
  0
VERTEX
  5
441
100
AcDbEntity
  8
0
100
AcDbVertex
100
AcDb2dVertex
 10
9.645687311
 20
7.4425559981
 30
0.0
  0
VERTEX
  5
442
100
AcDbEntity
  8
0
100
AcDbVertex
100
AcDb2dVertex
 10
9.647430302
 20
7.4508213803
 30
0.0
  0
VERTEX
  5
443
100
AcDbEntity
  8
0
100
AcDbVertex
100
AcDb2dVertex
 10
9.6477560677
 20
7.4562883284
 30
0.0
  0
SEQEND
  5
444
100
AcDbEntity
  8
0
  0
POLYLINE
  5
445
100
AcDbEntity
  8
0
  6
CONTINUOUS
 62
         7
100
AcDb2dPolyline
 66
         1
 10
0.0
 20
0.0
 30
0.0
 70
       128
  0
VERTEX
  5
446
100
AcDbEntity
  8
0
100
AcDbVertex
100
AcDb2dVertex
 10
9.3221235068
 20
7.4222958537
 30
0.0
  0
VERTEX
  5
447
100
AcDbEntity
  8
0
100
AcDbVertex
100
AcDb2dVertex
 10
9.324461356
 20
7.4182572752
 30
0.0
  0
VERTEX
  5
448
100
AcDbEntity
  8
0
100
AcDbVertex
100
AcDb2dVertex
 10
9.3310096203
 20
7.4089417726
 30
0.0
  0
VERTEX
  5
449
100
AcDbEntity
  8
0
100
AcDbVertex
100
AcDb2dVertex
 10
9.3389584242
 20
7.3999968203
 30
0.0
  0
VERTEX
  5
44A
100
AcDbEntity
  8
0
100
AcDbVertex
100
AcDb2dVertex
 10
9.3482455828
 20
7.3914924426
 30
0.0
  0
VERTEX
  5
44B
100
AcDbEntity
  8
0
100
AcDbVertex
100
AcDb2dVertex
 10
9.3587983666
 20
7.3834951716
 30
0.0
  0
VERTEX
  5
44C
100
AcDbEntity
  8
0
100
AcDbVertex
100
AcDb2dVertex
 10
9.3705341815
 20
7.3760675954
 30
0.0
  0
VERTEX
  5
44D
100
AcDbEntity
  8
0
100
AcDbVertex
100
AcDb2dVertex
 10
9.3833612171
 20
7.3692678636
 30
0.0
  0
VERTEX
  5
44E
100
AcDbEntity
  8
0
100
AcDbVertex
100
AcDb2dVertex
 10
9.3971790333
 20
7.3631491696
 30
0.0
  0
VERTEX
  5
44F
100
AcDbEntity
  8
0
100
AcDbVertex
100
AcDb2dVertex
 10
9.4118795421
 20
7.3577594228
 30
0.0
  0
VERTEX
  5
450
100
AcDbEntity
  8
0
100
AcDbVertex
100
AcDb2dVertex
 10
9.4273476702
 20
7.3531408068
 30
0.0
  0
VERTEX
  5
451
100
AcDbEntity
  8
0
100
AcDbVertex
100
AcDb2dVertex
 10
9.4434623969
 20
7.3493294789
 30
0.0
  0
VERTEX
  5
452
100
AcDbEntity
  8
0
100
AcDbVertex
100
AcDb2dVertex
 10
9.4600975423
 20
7.3463552351
 30
0.0
  0
VERTEX
  5
453
100
AcDbEntity
  8
0
100
AcDbVertex
100
AcDb2dVertex
 10
9.4771228882
 20
7.3442413421
 30
0.0
  0
VERTEX
  5
454
100
AcDbEntity
  8
0
100
AcDbVertex
100
AcDb2dVertex
 10
9.494405274
 20
7.3430043838
 30
0.0
  0
VERTEX
  5
455
100
AcDbEntity
  8
0
100
AcDbVertex
100
AcDb2dVertex
 10
9.5118093997
 20
7.3426540365
 30
0.0
  0
VERTEX
  5
456
100
AcDbEntity
  8
0
100
AcDbVertex
100
AcDb2dVertex
 10
9.5291990582
 20
7.3431930168
 30
0.0
  0
VERTEX
  5
457
100
AcDbEntity
  8
0
100
AcDbVertex
100
AcDb2dVertex
 10
9.5464381719
 20
7.3446171413
 30
0.0
  0
VERTEX
  5
458
100
AcDbEntity
  8
0
100
AcDbVertex
100
AcDb2dVertex
 10
9.563391778
 20
7.3469152369
 30
0.0
  0
VERTEX
  5
459
100
AcDbEntity
  8
0
100
AcDbVertex
100
AcDb2dVertex
 10
9.5799271954
 20
7.3500693055
 30
0.0
  0
VERTEX
  5
45A
100
AcDbEntity
  8
0
100
AcDbVertex
100
AcDb2dVertex
 10
9.5959150616
 20
7.3540547033
 30
0.0
  0
VERTEX
  5
45B
100
AcDbEntity
  8
0
100
AcDbVertex
100
AcDb2dVertex
 10
9.6112302271
 20
7.3588402235
 30
0.0
  0
VERTEX
  5
45C
100
AcDbEntity
  8
0
100
AcDbVertex
100
AcDb2dVertex
 10
9.6257527928
 20
7.3643883954
 30
0.0
  0
VERTEX
  5
45D
100
AcDbEntity
  8
0
100
AcDbVertex
100
AcDb2dVertex
 10
9.6393691209
 20
7.370655799
 30
0.0
  0
VERTEX
  5
45E
100
AcDbEntity
  8
0
100
AcDbVertex
100
AcDb2dVertex
 10
9.6519726905
 20
7.3775934087
 30
0.0
  0
VERTEX
  5
45F
100
AcDbEntity
  8
0
100
AcDbVertex
100
AcDb2dVertex
 10
9.6634647978
 20
7.3851469082
 30
0.0
  0
VERTEX
  5
460
100
AcDbEntity
  8
0
100
AcDbVertex
100
AcDb2dVertex
 10
9.6737555539
 20
7.3932571916
 30
0.0
  0
VERTEX
  5
461
100
AcDbEntity
  8
0
100
AcDbVertex
100
AcDb2dVertex
 10
9.682764352
 20
7.4018607527
 30
0.0
  0
VERTEX
  5
462
100
AcDbEntity
  8
0
100
AcDbVertex
100
AcDb2dVertex
 10
9.6904207616
 20
7.4108903058
 30
0.0
  0
VERTEX
  5
463
100
AcDbEntity
  8
0
100
AcDbVertex
100
AcDb2dVertex
 10
9.6966648136
 20
7.4202751603
 30
0.0
  0
VERTEX
  5
464
100
AcDbEntity
  8
0
100
AcDbVertex
100
AcDb2dVertex
 10
9.7014476486
 20
7.4299418643
 30
0.0
  0
VERTEX
  5
465
100
AcDbEntity
  8
0
100
AcDbVertex
100
AcDb2dVertex
 10
9.7047318801
 20
7.4398147729
 30
0.0
  0
VERTEX
  5
466
100
AcDbEntity
  8
0
100
AcDbVertex
100
AcDb2dVertex
 10
9.7064917495
 20
7.4498166173
 30
0.0
  0
VERTEX
  5
467
100
AcDbEntity
  8
0
100
AcDbVertex
100
AcDb2dVertex
 10
9.7067134639
 20
7.4598690887
 30
0.0
  0
VERTEX
  5
468
100
AcDbEntity
  8
0
100
AcDbVertex
100
AcDb2dVertex
 10
9.7053953313
 20
7.4698935376
 30
0.0
  0
VERTEX
  5
469
100
AcDbEntity
  8
0
100
AcDbVertex
100
AcDb2dVertex
 10
9.7025476643
 20
7.479811509
 30
0.0
  0
VERTEX
  5
46A
100
AcDbEntity
  8
0
100
AcDbVertex
100
AcDb2dVertex
 10
9.6981927535
 20
7.4895453862
 30
0.0
  0
VERTEX
  5
46B
100
AcDbEntity
  8
0
100
AcDbVertex
100
AcDb2dVertex
 10
9.6923646735
 20
7.499018982
 30
0.0
  0
VERTEX
  5
46C
100
AcDbEntity
  8
0
100
AcDbVertex
100
AcDb2dVertex
 10
9.6851090103
 20
7.5081581444
 30
0.0
  0
VERTEX
  5
46D
100
AcDbEntity
  8
0
100
AcDbVertex
100
AcDb2dVertex
 10
9.6764826185
 20
7.5168913766
 30
0.0
  0
VERTEX
  5
46E
100
AcDbEntity
  8
0
100
AcDbVertex
100
AcDb2dVertex
 10
9.6665529405
 20
7.5251502892
 30
0.0
  0
VERTEX
  5
46F
100
AcDbEntity
  8
0
100
AcDbVertex
100
AcDb2dVertex
 10
9.6553976989
 20
7.532870257
 30
0.0
  0
VERTEX
  5
470
100
AcDbEntity
  8
0
100
AcDbVertex
100
AcDb2dVertex
 10
9.6477560871
 20
7.5374430431
 30
0.0
  0
SEQEND
  5
471
100
AcDbEntity
  8
0
  0
POLYLINE
  5
472
100
AcDbEntity
  8
0
  6
CONTINUOUS
 62
         7
100
AcDb2dPolyline
 66
         1
 10
0.0
 20
0.0
 30
0.0
 70
       128
  0
VERTEX
  5
473
100
AcDbEntity
  8
0
100
AcDbVertex
100
AcDb2dVertex
 10
9.3721655554
 20
7.537443058
 30
0.0
  0
VERTEX
  5
474
100
AcDbEntity
  8
0
100
AcDbVertex
100
AcDb2dVertex
 10
9.3620581157
 20
7.5312799242
 30
0.0
  0
VERTEX
  5
475
100
AcDbEntity
  8
0
100
AcDbVertex
100
AcDb2dVertex
 10
9.3511560151
 20
7.523440362
 30
0.0
  0
VERTEX
  5
476
100
AcDbEntity
  8
0
100
AcDbVertex
100
AcDb2dVertex
 10
9.3414967876
 20
7.5150752452
 30
0.0
  0
VERTEX
  5
477
100
AcDbEntity
  8
0
100
AcDbVertex
100
AcDb2dVertex
 10
9.3331559973
 20
7.5062500333
 30
0.0
  0
VERTEX
  5
478
100
AcDbEntity
  8
0
100
AcDbVertex
100
AcDb2dVertex
 10
9.3261989672
 20
7.4970338229
 30
0.0
  0
VERTEX
  5
479
100
AcDbEntity
  8
0
100
AcDbVertex
100
AcDb2dVertex
 10
9.3220739961
 20
7.490189568
 30
0.0
  0
SEQEND
  5
47A
100
AcDbEntity
  8
0
  0
POLYLINE
  5
47B
100
AcDbEntity
  8
0
  6
CONTINUOUS
 62
       144
100
AcDb2dPolyline
 66
         1
 10
0.0
 20
0.0
 30
0.0
 70
       128
  0
VERTEX
  5
47C
100
AcDbEntity
  8
0
100
AcDbVertex
100
AcDb2dVertex
 10
9.3221235068
 20
7.3901485724
 30
0.0
  0
VERTEX
  5
47D
100
AcDbEntity
  8
0
100
AcDbVertex
100
AcDb2dVertex
 10
9.324461356
 20
7.3861099939
 30
0.0
  0
VERTEX
  5
47E
100
AcDbEntity
  8
0
100
AcDbVertex
100
AcDb2dVertex
 10
9.3310096203
 20
7.3767944913
 30
0.0
  0
VERTEX
  5
47F
100
AcDbEntity
  8
0
100
AcDbVertex
100
AcDb2dVertex
 10
9.3389584242
 20
7.367849539
 30
0.0
  0
VERTEX
  5
480
100
AcDbEntity
  8
0
100
AcDbVertex
100
AcDb2dVertex
 10
9.3482455828
 20
7.3593451613
 30
0.0
  0
VERTEX
  5
481
100
AcDbEntity
  8
0
100
AcDbVertex
100
AcDb2dVertex
 10
9.3587983666
 20
7.3513478903
 30
0.0
  0
VERTEX
  5
482
100
AcDbEntity
  8
0
100
AcDbVertex
100
AcDb2dVertex
 10
9.3705341815
 20
7.343920314
 30
0.0
  0
VERTEX
  5
483
100
AcDbEntity
  8
0
100
AcDbVertex
100
AcDb2dVertex
 10
9.3833612171
 20
7.3371205822
 30
0.0
  0
VERTEX
  5
484
100
AcDbEntity
  8
0
100
AcDbVertex
100
AcDb2dVertex
 10
9.3971790333
 20
7.3310018882
 30
0.0
  0
VERTEX
  5
485
100
AcDbEntity
  8
0
100
AcDbVertex
100
AcDb2dVertex
 10
9.4118795421
 20
7.3256121415
 30
0.0
  0
VERTEX
  5
486
100
AcDbEntity
  8
0
100
AcDbVertex
100
AcDb2dVertex
 10
9.4273476702
 20
7.3209935255
 30
0.0
  0
VERTEX
  5
487
100
AcDbEntity
  8
0
100
AcDbVertex
100
AcDb2dVertex
 10
9.4434623969
 20
7.3171821975
 30
0.0
  0
VERTEX
  5
488
100
AcDbEntity
  8
0
100
AcDbVertex
100
AcDb2dVertex
 10
9.4600975423
 20
7.3142079537
 30
0.0
  0
VERTEX
  5
489
100
AcDbEntity
  8
0
100
AcDbVertex
100
AcDb2dVertex
 10
9.4771228882
 20
7.3120940608
 30
0.0
  0
VERTEX
  5
48A
100
AcDbEntity
  8
0
100
AcDbVertex
100
AcDb2dVertex
 10
9.494405274
 20
7.3108571025
 30
0.0
  0
VERTEX
  5
48B
100
AcDbEntity
  8
0
100
AcDbVertex
100
AcDb2dVertex
 10
9.5118093997
 20
7.3105067552
 30
0.0
  0
VERTEX
  5
48C
100
AcDbEntity
  8
0
100
AcDbVertex
100
AcDb2dVertex
 10
9.5291990582
 20
7.3110457355
 30
0.0
  0
VERTEX
  5
48D
100
AcDbEntity
  8
0
100
AcDbVertex
100
AcDb2dVertex
 10
9.5464381719
 20
7.31246986
 30
0.0
  0
VERTEX
  5
48E
100
AcDbEntity
  8
0
100
AcDbVertex
100
AcDb2dVertex
 10
9.563391778
 20
7.3147679556
 30
0.0
  0
VERTEX
  5
48F
100
AcDbEntity
  8
0
100
AcDbVertex
100
AcDb2dVertex
 10
9.5799271954
 20
7.3179220241
 30
0.0
  0
VERTEX
  5
490
100
AcDbEntity
  8
0
100
AcDbVertex
100
AcDb2dVertex
 10
9.5959150616
 20
7.3219074219
 30
0.0
  0
VERTEX
  5
491
100
AcDbEntity
  8
0
100
AcDbVertex
100
AcDb2dVertex
 10
9.6112302271
 20
7.3266929421
 30
0.0
  0
VERTEX
  5
492
100
AcDbEntity
  8
0
100
AcDbVertex
100
AcDb2dVertex
 10
9.6257527928
 20
7.3322411141
 30
0.0
  0
VERTEX
  5
493
100
AcDbEntity
  8
0
100
AcDbVertex
100
AcDb2dVertex
 10
9.6393691209
 20
7.3385085176
 30
0.0
  0
VERTEX
  5
494
100
AcDbEntity
  8
0
100
AcDbVertex
100
AcDb2dVertex
 10
9.6519726905
 20
7.3454461274
 30
0.0
  0
VERTEX
  5
495
100
AcDbEntity
  8
0
100
AcDbVertex
100
AcDb2dVertex
 10
9.6634647978
 20
7.3529996269
 30
0.0
  0
VERTEX
  5
496
100
AcDbEntity
  8
0
100
AcDbVertex
100
AcDb2dVertex
 10
9.6737555539
 20
7.3611099103
 30
0.0
  0
VERTEX
  5
497
100
AcDbEntity
  8
0
100
AcDbVertex
100
AcDb2dVertex
 10
9.682764352
 20
7.3697134713
 30
0.0
  0
VERTEX
  5
498
100
AcDbEntity
  8
0
100
AcDbVertex
100
AcDb2dVertex
 10
9.6904207616
 20
7.3787430244
 30
0.0
  0
VERTEX
  5
499
100
AcDbEntity
  8
0
100
AcDbVertex
100
AcDb2dVertex
 10
9.6966648136
 20
7.388127879
 30
0.0
  0
VERTEX
  5
49A
100
AcDbEntity
  8
0
100
AcDbVertex
100
AcDb2dVertex
 10
9.7014476486
 20
7.397794583
 30
0.0
  0
VERTEX
  5
49B
100
AcDbEntity
  8
0
100
AcDbVertex
100
AcDb2dVertex
 10
9.7047318801
 20
7.4076674915
 30
0.0
  0
VERTEX
  5
49C
100
AcDbEntity
  8
0
100
AcDbVertex
100
AcDb2dVertex
 10
9.7064917495
 20
7.417669336
 30
0.0
  0
VERTEX
  5
49D
100
AcDbEntity
  8
0
100
AcDbVertex
100
AcDb2dVertex
 10
9.7068112085
 20
7.4241410583
 30
0.0
  0
SEQEND
  5
49E
100
AcDbEntity
  8
0
  0
POLYLINE
  5
49F
100
AcDbEntity
  8
0
  6
CONTINUOUS
 62
         7
100
AcDb2dPolyline
 66
         1
 10
0.0
 20
0.0
 30
0.0
 70
       128
  0
VERTEX
  5
4A0
100
AcDbEntity
  8
0
100
AcDbVertex
100
AcDb2dVertex
 10
9.0707306259
 20
7.0906718947
 30
0.0
  0
VERTEX
  5
4A1
100
AcDbEntity
  8
0
100
AcDbVertex
100
AcDb2dVertex
 10
9.07308758
 20
7.0924921066
 30
0.0
  0
VERTEX
  5
4A2
100
AcDbEntity
  8
0
100
AcDbVertex
100
AcDb2dVertex
 10
9.0788021389
 20
7.0979080873
 30
0.0
  0
VERTEX
  5
4A3
100
AcDbEntity
  8
0
100
AcDbVertex
100
AcDb2dVertex
 10
9.0831554875
 20
7.1037305464
 30
0.0
  0
VERTEX
  5
4A4
100
AcDbEntity
  8
0
100
AcDbVertex
100
AcDb2dVertex
 10
9.0860627801
 20
7.1098460991
 30
0.0
  0
VERTEX
  5
4A5
100
AcDbEntity
  8
0
100
AcDbVertex
100
AcDb2dVertex
 10
9.0874674244
 20
7.1161357066
 30
0.0
  0
VERTEX
  5
4A6
100
AcDbEntity
  8
0
100
AcDbVertex
100
AcDb2dVertex
 10
9.0873421
 20
7.1224769626
 30
0.0
  0
VERTEX
  5
4A7
100
AcDbEntity
  8
0
100
AcDbVertex
100
AcDb2dVertex
 10
9.0856892537
 20
7.128746441
 30
0.0
  0
VERTEX
  5
4A8
100
AcDbEntity
  8
0
100
AcDbVertex
100
AcDb2dVertex
 10
9.082540954
 20
7.1348220553
 30
0.0
  0
VERTEX
  5
4A9
100
AcDbEntity
  8
0
100
AcDbVertex
100
AcDb2dVertex
 10
9.0779586996
 20
7.1405856836
 30
0.0
  0
VERTEX
  5
4AA
100
AcDbEntity
  8
0
100
AcDbVertex
100
AcDb2dVertex
 10
9.072031462
 20
7.1459250167
 30
0.0
  0
VERTEX
  5
4AB
100
AcDbEntity
  8
0
100
AcDbVertex
100
AcDb2dVertex
 10
9.0648746874
 20
7.1507361703
 30
0.0
  0
VERTEX
  5
4AC
100
AcDbEntity
  8
0
100
AcDbVertex
100
AcDb2dVertex
 10
9.0566277186
 20
7.1549255323
 30
0.0
  0
VERTEX
  5
4AD
100
AcDbEntity
  8
0
100
AcDbVertex
100
AcDb2dVertex
 10
9.0474510848
 20
7.1584115668
 30
0.0
  0
VERTEX
  5
4AE
100
AcDbEntity
  8
0
100
AcDbVertex
100
AcDb2dVertex
 10
9.0375232476
 20
7.1611263337
 30
0.0
  0
VERTEX
  5
4AF
100
AcDbEntity
  8
0
100
AcDbVertex
100
AcDb2dVertex
 10
9.0270376132
 20
7.163017093
 30
0.0
  0
VERTEX
  5
4B0
100
AcDbEntity
  8
0
100
AcDbVertex
100
AcDb2dVertex
 10
9.0161981043
 20
7.1640469463
 30
0.0
  0
VERTEX
  5
4B1
100
AcDbEntity
  8
0
100
AcDbVertex
100
AcDb2dVertex
 10
9.0052159299
 20
7.1641959823
 30
0.0
  0
VERTEX
  5
4B2
100
AcDbEntity
  8
0
100
AcDbVertex
100
AcDb2dVertex
 10
8.9943046042
 20
7.1634611595
 30
0.0
  0
VERTEX
  5
4B3
100
AcDbEntity
  8
0
100
AcDbVertex
100
AcDb2dVertex
 10
8.9836766746
 20
7.1618568772
 30
0.0
  0
VERTEX
  5
4B4
100
AcDbEntity
  8
0
100
AcDbVertex
100
AcDb2dVertex
 10
8.973538881
 20
7.1594142984
 30
0.0
  0
VERTEX
  5
4B5
100
AcDbEntity
  8
0
100
AcDbVertex
100
AcDb2dVertex
 10
8.9640887187
 20
7.1561810584
 30
0.0
  0
VERTEX
  5
4B6
100
AcDbEntity
  8
0
100
AcDbVertex
100
AcDb2dVertex
 10
8.9555098769
 20
7.152219947
 30
0.0
  0
VERTEX
  5
4B7
100
AcDbEntity
  8
0
100
AcDbVertex
100
AcDb2dVertex
 10
8.9479695422
 20
7.1476081898
 30
0.0
  0
VERTEX
  5
4B8
100
AcDbEntity
  8
0
100
AcDbVertex
100
AcDb2dVertex
 10
8.9416143576
 20
7.1424354709
 30
0.0
  0
VERTEX
  5
4B9
100
AcDbEntity
  8
0
100
AcDbVertex
100
AcDb2dVertex
 10
8.9365680983
 20
7.1368025203
 30
0.0
  0
VERTEX
  5
4BA
100
AcDbEntity
  8
0
100
AcDbVertex
100
AcDb2dVertex
 10
8.9329289626
 20
7.1308189662
 30
0.0
  0
VERTEX
  5
4BB
100
AcDbEntity
  8
0
100
AcDbVertex
100
AcDb2dVertex
 10
8.9307676629
 20
7.1246012036
 30
0.0
  0
VERTEX
  5
4BC
100
AcDbEntity
  8
0
100
AcDbVertex
100
AcDb2dVertex
 10
8.9301265267
 20
7.1182703995
 30
0.0
  0
VERTEX
  5
4BD
100
AcDbEntity
  8
0
100
AcDbVertex
100
AcDb2dVertex
 10
8.9310177948
 20
7.1119496431
 30
0.0
  0
VERTEX
  5
4BE
100
AcDbEntity
  8
0
100
AcDbVertex
100
AcDb2dVertex
 10
8.9334241397
 20
7.1057619704
 30
0.0
  0
VERTEX
  5
4BF
100
AcDbEntity
  8
0
100
AcDbVertex
100
AcDb2dVertex
 10
8.9372988275
 20
7.0998278762
 30
0.0
  0
VERTEX
  5
4C0
100
AcDbEntity
  8
0
100
AcDbVertex
100
AcDb2dVertex
 10
8.9425664406
 20
7.0942628608
 30
0.0
  0
VERTEX
  5
4C1
100
AcDbEntity
  8
0
100
AcDbVertex
100
AcDb2dVertex
 10
8.94699249
 20
7.0906718994
 30
0.0
  0
SEQEND
  5
4C2
100
AcDbEntity
  8
0
  0
POLYLINE
  5
4C3
100
AcDbEntity
  8
0
  6
CONTINUOUS
 62
       144
100
AcDb2dPolyline
 66
         1
 10
0.0
 20
0.0
 30
0.0
 70
       128
  0
VERTEX
  5
4C4
100
AcDbEntity
  8
0
100
AcDbVertex
100
AcDb2dVertex
 10
9.0974366539
 20
7.1100865263
 30
0.0
  0
VERTEX
  5
4C5
100
AcDbEntity
  8
0
100
AcDbVertex
100
AcDb2dVertex
 10
9.0972641166
 20
7.114010936
 30
0.0
  0
VERTEX
  5
4C6
100
AcDbEntity
  8
0
100
AcDbVertex
100
AcDb2dVertex
 10
9.09577099
 20
7.120644294
 30
0.0
  0
VERTEX
  5
4C7
100
AcDbEntity
  8
0
100
AcDbVertex
100
AcDb2dVertex
 10
9.0927908169
 20
7.1271083904
 30
0.0
  0
VERTEX
  5
4C8
100
AcDbEntity
  8
0
100
AcDbVertex
100
AcDb2dVertex
 10
9.0883746731
 20
7.1332926768
 30
0.0
  0
VERTEX
  5
4C9
100
AcDbEntity
  8
0
100
AcDbVertex
100
AcDb2dVertex
 10
9.0825979544
 20
7.1390912443
 30
0.0
  0
VERTEX
  5
4CA
100
AcDbEntity
  8
0
100
AcDbVertex
100
AcDb2dVertex
 10
9.0755595153
 20
7.1444048776
 30
0.0
  0
VERTEX
  5
4CB
100
AcDbEntity
  8
0
100
AcDbVertex
100
AcDb2dVertex
 10
9.0715091182
 20
7.1469060862
 30
0.0
  0
SEQEND
  5
4CC
100
AcDbEntity
  8
0
  0
POLYLINE
  5
4CD
100
AcDbEntity
  8
0
  6
CONTINUOUS
 62
       144
100
AcDb2dPolyline
 66
         1
 10
0.0
 20
0.0
 30
0.0
 70
       128
  0
VERTEX
  5
4CE
100
AcDbEntity
  8
0
100
AcDbVertex
100
AcDb2dVertex
 10
8.946213928
 20
7.1469060824
 30
0.0
  0
VERTEX
  5
4CF
100
AcDbEntity
  8
0
100
AcDbVertex
100
AcDb2dVertex
 10
8.9423597963
 20
7.1445341456
 30
0.0
  0
VERTEX
  5
4D0
100
AcDbEntity
  8
0
100
AcDbVertex
100
AcDb2dVertex
 10
8.9352905025
 20
7.1392341316
 30
0.0
  0
VERTEX
  5
4D1
100
AcDbEntity
  8
0
100
AcDbVertex
100
AcDb2dVertex
 10
8.9294801209
 20
7.1334468401
 30
0.0
  0
VERTEX
  5
4D2
100
AcDbEntity
  8
0
100
AcDbVertex
100
AcDb2dVertex
 10
8.925027835
 20
7.1272711524
 30
0.0
  0
VERTEX
  5
4D3
100
AcDbEntity
  8
0
100
AcDbVertex
100
AcDb2dVertex
 10
8.9220100548
 20
7.1208128708
 30
0.0
  0
VERTEX
  5
4D4
100
AcDbEntity
  8
0
100
AcDbVertex
100
AcDb2dVertex
 10
8.9204783311
 20
7.1141824492
 30
0.0
  0
VERTEX
  5
4D5
100
AcDbEntity
  8
0
100
AcDbVertex
100
AcDb2dVertex
 10
8.9202863097
 20
7.1100865291
 30
0.0
  0
SEQEND
  5
4D6
100
AcDbEntity
  8
0
  0
LINE
  5
4D7
100
AcDbEntity
  8
0
  6
CONTINUOUS
 62
         7
100
AcDbLine
 10
9.0437580883
 20
7.101061965
 30
0.0
 11
9.0529032038
 21
7.1273718864
 31
0.0
  0
LINE
  5
4D8
100
AcDbEntity
  8
0
  6
CONTINUOUS
 62
         7
100
AcDbLine
 10
9.0529032038
 20
7.1273718864
 30
0.0
 11
9.0180066156
 21
7.1450989
 31
0.0
  0
LINE
  5
4D9
100
AcDbEntity
  8
0
  6
CONTINUOUS
 62
         7
100
AcDbLine
 10
8.9739649166
 20
7.1365159894
 30
0.0
 11
9.0180066156
 21
7.1450989
 31
0.0
  0
LINE
  5
4DA
100
AcDbEntity
  8
0
  6
CONTINUOUS
 62
         7
100
AcDbLine
 10
8.9648198043
 20
7.1102060661
 30
0.0
 11
8.9739649166
 21
7.1365159894
 31
0.0
  0
LINE
  5
4DB
100
AcDbEntity
  8
0
  6
CONTINUOUS
 62
         7
100
AcDbLine
 10
8.9648198043
 20
7.1102060661
 30
0.0
 11
8.9997163914
 21
7.0924790532
 31
0.0
  0
LINE
  5
4DC
100
AcDbEntity
  8
0
  6
CONTINUOUS
 62
         7
100
AcDbLine
 10
9.0437580883
 20
7.101061965
 30
0.0
 11
8.9997163914
 21
7.0924790532
 31
0.0
  0
POLYLINE
  5
4DD
100
AcDbEntity
  8
0
  6
CONTINUOUS
 62
         7
100
AcDb2dPolyline
 66
         1
 10
0.0
 20
0.0
 30
0.0
 70
       128
  0
VERTEX
  5
4DE
100
AcDbEntity
  8
0
100
AcDbVertex
100
AcDb2dVertex
 10
8.9959857659
 20
7.1054454414
 30
0.0
  0
VERTEX
  5
4DF
100
AcDbEntity
  8
0
100
AcDbVertex
100
AcDb2dVertex
 10
8.9911174894
 20
7.1042868664
 30
0.0
  0
VERTEX
  5
4E0
100
AcDbEntity
  8
0
100
AcDbVertex
100
AcDb2dVertex
 10
8.9865528248
 20
7.1027713768
 30
0.0
  0
VERTEX
  5
4E1
100
AcDbEntity
  8
0
100
AcDbVertex
100
AcDb2dVertex
 10
8.9827334886
 20
7.1011061654
 30
0.0
  0
SEQEND
  5
4E2
100
AcDbEntity
  8
0
  0
LINE
  5
4E3
100
AcDbEntity
  8
0
  6
CONTINUOUS
 62
         7
100
AcDbLine
 10
9.0373926511
 20
7.0998214658
 30
0.0
 11
9.0354549085
 21
7.1008733882
 31
0.0
  0
POLYLINE
  5
4E4
100
AcDbEntity
  8
0
  6
CONTINUOUS
 62
       144
100
AcDb2dPolyline
 66
         1
 10
0.0
 20
0.0
 30
0.0
 70
       128
  0
VERTEX
  5
4E5
100
AcDbEntity
  8
0
100
AcDbVertex
100
AcDb2dVertex
 10
9.035454858
 20
7.1008733597
 30
0.0
  0
VERTEX
  5
4E6
100
AcDbEntity
  8
0
100
AcDbVertex
100
AcDb2dVertex
 10
9.0312827193
 20
7.1027279739
 30
0.0
  0
VERTEX
  5
4E7
100
AcDbEntity
  8
0
100
AcDbVertex
100
AcDb2dVertex
 10
9.0267269095
 20
7.1042523219
 30
0.0
  0
VERTEX
  5
4E8
100
AcDbEntity
  8
0
100
AcDbVertex
100
AcDb2dVertex
 10
9.0218653822
 20
7.1054203206
 30
0.0
  0
VERTEX
  5
4E9
100
AcDbEntity
  8
0
100
AcDbVertex
100
AcDb2dVertex
 10
9.0167814076
 20
7.1062120377
 30
0.0
  0
VERTEX
  5
4EA
100
AcDbEntity
  8
0
100
AcDbVertex
100
AcDb2dVertex
 10
9.0115618436
 20
7.1066138515
 30
0.0
  0
VERTEX
  5
4EB
100
AcDbEntity
  8
0
100
AcDbVertex
100
AcDb2dVertex
 10
9.0062961899
 20
7.1066189968
 30
0.0
  0
VERTEX
  5
4EC
100
AcDbEntity
  8
0
100
AcDbVertex
100
AcDb2dVertex
 10
9.0010743727
 20
7.1062272874
 30
0.0
  0
VERTEX
  5
4ED
100
AcDbEntity
  8
0
100
AcDbVertex
100
AcDb2dVertex
 10
8.9959857659
 20
7.1054454414
 30
0.0
  0
SEQEND
  5
4EE
100
AcDbEntity
  8
0
  0
LINE
  5
4EF
100
AcDbEntity
  8
0
  6
CONTINUOUS
 62
         7
100
AcDbLine
 10
8.9739649166
 20
7.1055604792
 30
0.0
 11
8.9739649166
 21
7.1365159894
 31
0.0
  0
LINE
  5
4F0
100
AcDbEntity
  8
0
  6
CONTINUOUS
 62
         7
100
AcDbLine
 10
9.0373926511
 20
7.0998214658
 30
0.0
 11
9.0354549085
 21
7.1008733882
 31
0.0
  0
LINE
  5
4F1
100
AcDbEntity
  8
0
  6
CONTINUOUS
 62
         7
100
AcDbLine
 10
9.0180066156
 20
7.1097368966
 30
0.0
 11
9.0180066156
 21
7.1450989
 31
0.0
  0
LINE
  5
4F2
100
AcDbEntity
  8
0
  6
CONTINUOUS
 62
       144
100
AcDbLine
 10
9.0354549085
 20
7.1008733882
 30
0.0
 11
9.0180066156
 21
7.1097368966
 31
0.0
  0
LINE
  5
4F3
100
AcDbEntity
  8
0
  6
CONTINUOUS
 62
         7
100
AcDbLine
 10
8.9802342814
 20
7.1023757852
 30
0.0
 11
8.9959857636
 21
7.1054454388
 31
0.0
  0
LINE
  5
4F4
100
AcDbEntity
  8
0
  6
CONTINUOUS
 62
       144
100
AcDbLine
 10
8.9959857636
 20
7.1054454388
 30
0.0
 11
9.0180066156
 21
7.1097368966
 31
0.0
  0
POLYLINE
  5
4F5
100
AcDbEntity
  8
0
  6
CONTINUOUS
 62
         7
100
AcDb2dPolyline
 66
         1
 10
0.0
 20
0.0
 30
0.0
 70
       128
  0
VERTEX
  5
4F6
100
AcDbEntity
  8
0
100
AcDbVertex
100
AcDb2dVertex
 10
7.9896752009
 20
5.4309032778
 30
0.0
  0
VERTEX
  5
4F7
100
AcDbEntity
  8
0
100
AcDbVertex
100
AcDb2dVertex
 10
7.9968059157
 20
5.4386773896
 30
0.0
  0
VERTEX
  5
4F8
100
AcDbEntity
  8
0
100
AcDbVertex
100
AcDb2dVertex
 10
8.0032096388
 20
5.4478101169
 30
0.0
  0
VERTEX
  5
4F9
100
AcDbEntity
  8
0
100
AcDbVertex
100
AcDb2dVertex
 10
8.0086612465
 20
5.4580662489
 30
0.0
  0
VERTEX
  5
4FA
100
AcDbEntity
  8
0
100
AcDbVertex
100
AcDb2dVertex
 10
8.0131224837
 20
5.46937389
 30
0.0
  0
VERTEX
  5
4FB
100
AcDbEntity
  8
0
100
AcDbVertex
100
AcDb2dVertex
 10
8.0165620565
 20
5.4816537124
 30
0.0
  0
VERTEX
  5
4FC
100
AcDbEntity
  8
0
100
AcDbVertex
100
AcDb2dVertex
 10
8.0189558528
 20
5.4948195781
 30
0.0
  0
VERTEX
  5
4FD
100
AcDbEntity
  8
0
100
AcDbVertex
100
AcDb2dVertex
 10
8.020287072
 20
5.508779152
 30
0.0
  0
VERTEX
  5
4FE
100
AcDbEntity
  8
0
100
AcDbVertex
100
AcDb2dVertex
 10
8.0205463804
 20
5.5234345013
 30
0.0
  0
VERTEX
  5
4FF
100
AcDbEntity
  8
0
100
AcDbVertex
100
AcDb2dVertex
 10
8.0197319501
 20
5.5386828361
 30
0.0
  0
VERTEX
  5
500
100
AcDbEntity
  8
0
100
AcDbVertex
100
AcDb2dVertex
 10
8.017849511
 20
5.554417198
 30
0.0
  0
VERTEX
  5
501
100
AcDbEntity
  8
0
100
AcDbVertex
100
AcDb2dVertex
 10
8.0149122599
 20
5.5705272165
 30
0.0
  0
VERTEX
  5
502
100
AcDbEntity
  8
0
100
AcDbVertex
100
AcDb2dVertex
 10
8.0109407957
 20
5.5868998943
 30
0.0
  0
VERTEX
  5
503
100
AcDbEntity
  8
0
100
AcDbVertex
100
AcDb2dVertex
 10
8.0059629771
 20
5.6034204087
 30
0.0
  0
VERTEX
  5
504
100
AcDbEntity
  8
0
100
AcDbVertex
100
AcDb2dVertex
 10
8.0000137145
 20
5.6199728597
 30
0.0
  0
VERTEX
  5
505
100
AcDbEntity
  8
0
100
AcDbVertex
100
AcDb2dVertex
 10
7.9931347504
 20
5.6364411309
 30
0.0
  0
VERTEX
  5
506
100
AcDbEntity
  8
0
100
AcDbVertex
100
AcDb2dVertex
 10
7.9853743349
 20
5.6527097353
 30
0.0
  0
VERTEX
  5
507
100
AcDbEntity
  8
0
100
AcDbVertex
100
AcDb2dVertex
 10
7.9767868886
 20
5.6686645637
 30
0.0
  0
VERTEX
  5
508
100
AcDbEntity
  8
0
100
AcDbVertex
100
AcDb2dVertex
 10
7.9674326528
 20
5.684193678
 30
0.0
  0
VERTEX
  5
509
100
AcDbEntity
  8
0
100
AcDbVertex
100
AcDb2dVertex
 10
7.9573772355
 20
5.6991881795
 30
0.0
  0
VERTEX
  5
50A
100
AcDbEntity
  8
0
100
AcDbVertex
100
AcDb2dVertex
 10
7.9466911842
 20
5.7135428674
 30
0.0
  0
VERTEX
  5
50B
100
AcDbEntity
  8
0
100
AcDbVertex
100
AcDb2dVertex
 10
7.9354494341
 20
5.7271570736
 30
0.0
  0
VERTEX
  5
50C
100
AcDbEntity
  8
0
100
AcDbVertex
100
AcDb2dVertex
 10
7.9237308549
 20
5.7399352909
 30
0.0
  0
VERTEX
  5
50D
100
AcDbEntity
  8
0
100
AcDbVertex
100
AcDb2dVertex
 10
7.9116176352
 20
5.7517878958
 30
0.0
  0
VERTEX
  5
50E
100
AcDbEntity
  8
0
100
AcDbVertex
100
AcDb2dVertex
 10
7.8991947408
 20
5.7626317524
 30
0.0
  0
VERTEX
  5
50F
100
AcDbEntity
  8
0
100
AcDbVertex
100
AcDb2dVertex
 10
7.8865493121
 20
5.7723908002
 30
0.0
  0
VERTEX
  5
510
100
AcDbEntity
  8
0
100
AcDbVertex
100
AcDb2dVertex
 10
7.873770042
 20
5.7809965777
 30
0.0
  0
VERTEX
  5
511
100
AcDbEntity
  8
0
100
AcDbVertex
100
AcDb2dVertex
 10
7.8609465762
 20
5.788388726
 30
0.0
  0
VERTEX
  5
512
100
AcDbEntity
  8
0
100
AcDbVertex
100
AcDb2dVertex
 10
7.8481688571
 20
5.7945153973
 30
0.0
  0
VERTEX
  5
513
100
AcDbEntity
  8
0
100
AcDbVertex
100
AcDb2dVertex
 10
7.8355265119
 20
5.7993336158
 30
0.0
  0
VERTEX
  5
514
100
AcDbEntity
  8
0
100
AcDbVertex
100
AcDb2dVertex
 10
7.8231082179
 20
5.8028095838
 30
0.0
  0
VERTEX
  5
515
100
AcDbEntity
  8
0
100
AcDbVertex
100
AcDb2dVertex
 10
7.8110010796
 20
5.8049189222
 30
0.0
  0
VERTEX
  5
516
100
AcDbEntity
  8
0
100
AcDbVertex
100
AcDb2dVertex
 10
7.7992900226
 20
5.8056468329
 30
0.0
  0
VERTEX
  5
517
100
AcDbEntity
  8
0
100
AcDbVertex
100
AcDb2dVertex
 10
7.7880571848
 20
5.8049882105
 30
0.0
  0
VERTEX
  5
518
100
AcDbEntity
  8
0
100
AcDbVertex
100
AcDb2dVertex
 10
7.7773813681
 20
5.802947675
 30
0.0
  0
VERTEX
  5
519
100
AcDbEntity
  8
0
100
AcDbVertex
100
AcDb2dVertex
 10
7.775242343
 20
5.8023521277
 30
0.0
  0
SEQEND
  5
51A
100
AcDbEntity
  8
0
  0
POLYLINE
  5
51B
100
AcDbEntity
  8
0
  6
CONTINUOUS
 62
         7
100
AcDb2dPolyline
 66
         1
 10
0.0
 20
0.0
 30
0.0
 70
       128
  0
VERTEX
  5
51C
100
AcDbEntity
  8
0
100
AcDbVertex
100
AcDb2dVertex
 10
8.0167944138
 20
5.4125133763
 30
0.0
  0
VERTEX
  5
51D
100
AcDbEntity
  8
0
100
AcDbVertex
100
AcDb2dVertex
 10
8.0089107545
 20
5.4038721314
 30
0.0
  0
VERTEX
  5
51E
100
AcDbEntity
  8
0
100
AcDbVertex
100
AcDb2dVertex
 10
8.0001550682
 20
5.396489281
 30
0.0
  0
VERTEX
  5
51F
100
AcDbEntity
  8
0
100
AcDbVertex
100
AcDb2dVertex
 10
7.9905813219
 20
5.3904102857
 30
0.0
  0
VERTEX
  5
520
100
AcDbEntity
  8
0
100
AcDbVertex
100
AcDb2dVertex
 10
7.9802485511
 20
5.3856726203
 30
0.0
  0
VERTEX
  5
521
100
AcDbEntity
  8
0
100
AcDbVertex
100
AcDb2dVertex
 10
7.9692204455
 20
5.3823055642
 30
0.0
  0
VERTEX
  5
522
100
AcDbEntity
  8
0
100
AcDbVertex
100
AcDb2dVertex
 10
7.9634183573
 20
5.3811345955
 30
0.0
  0
SEQEND
  5
523
100
AcDbEntity
  8
0
  0
POLYLINE
  5
524
100
AcDbEntity
  8
0
  6
CONTINUOUS
 62
         7
100
AcDb2dPolyline
 66
         1
 10
0.0
 20
0.0
 30
0.0
 70
       128
  0
VERTEX
  5
525
100
AcDbEntity
  8
0
100
AcDbVertex
100
AcDb2dVertex
 10
7.7190131878
 20
5.8045026478
 30
0.0
  0
VERTEX
  5
526
100
AcDbEntity
  8
0
100
AcDbVertex
100
AcDb2dVertex
 10
7.7260265183
 20
5.8120760268
 30
0.0
  0
VERTEX
  5
527
100
AcDbEntity
  8
0
100
AcDbVertex
100
AcDb2dVertex
 10
7.7347822045
 20
5.8194588922
 30
0.0
  0
VERTEX
  5
528
100
AcDbEntity
  8
0
100
AcDbVertex
100
AcDb2dVertex
 10
7.7443559509
 20
5.8255378875
 30
0.0
  0
VERTEX
  5
529
100
AcDbEntity
  8
0
100
AcDbVertex
100
AcDb2dVertex
 10
7.7546887281
 20
5.8302755341
 30
0.0
  0
VERTEX
  5
52A
100
AcDbEntity
  8
0
100
AcDbVertex
100
AcDb2dVertex
 10
7.7657168272
 20
5.8336426164
 30
0.0
  0
VERTEX
  5
52B
100
AcDbEntity
  8
0
100
AcDbVertex
100
AcDb2dVertex
 10
7.7773722678
 20
5.8356183725
 30
0.0
  0
VERTEX
  5
52C
100
AcDbEntity
  8
0
100
AcDbVertex
100
AcDb2dVertex
 10
7.7895831737
 20
5.8361906289
 30
0.0
  0
VERTEX
  5
52D
100
AcDbEntity
  8
0
100
AcDbVertex
100
AcDb2dVertex
 10
7.802274276
 20
5.8353558551
 30
0.0
  0
VERTEX
  5
52E
100
AcDbEntity
  8
0
100
AcDbVertex
100
AcDb2dVertex
 10
7.8153673205
 20
5.8331191933
 30
0.0
  0
VERTEX
  5
52F
100
AcDbEntity
  8
0
100
AcDbVertex
100
AcDb2dVertex
 10
7.8287815869
 20
5.82949444
 30
0.0
  0
VERTEX
  5
530
100
AcDbEntity
  8
0
100
AcDbVertex
100
AcDb2dVertex
 10
7.842434372
 20
5.8245039387
 30
0.0
  0
VERTEX
  5
531
100
AcDbEntity
  8
0
100
AcDbVertex
100
AcDb2dVertex
 10
7.8562415017
 20
5.8181784607
 30
0.0
  0
VERTEX
  5
532
100
AcDbEntity
  8
0
100
AcDbVertex
100
AcDb2dVertex
 10
7.8701178504
 20
5.8105570022
 30
0.0
  0
VERTEX
  5
533
100
AcDbEntity
  8
0
100
AcDbVertex
100
AcDb2dVertex
 10
7.8839778643
 20
5.8016865535
 30
0.0
  0
VERTEX
  5
534
100
AcDbEntity
  8
0
100
AcDbVertex
100
AcDb2dVertex
 10
7.8977360971
 20
5.7916218007
 30
0.0
  0
VERTEX
  5
535
100
AcDbEntity
  8
0
100
AcDbVertex
100
AcDb2dVertex
 10
7.9113077174
 20
5.7804247997
 30
0.0
  0
VERTEX
  5
536
100
AcDbEntity
  8
0
100
AcDbVertex
100
AcDb2dVertex
 10
7.924609059
 20
5.7681645829
 30
0.0
  0
VERTEX
  5
537
100
AcDbEntity
  8
0
100
AcDbVertex
100
AcDb2dVertex
 10
7.9375581052
 20
5.754916738
 30
0.0
  0
VERTEX
  5
538
100
AcDbEntity
  8
0
100
AcDbVertex
100
AcDb2dVertex
 10
7.9500750335
 20
5.7407629399
 30
0.0
  0
VERTEX
  5
539
100
AcDbEntity
  8
0
100
AcDbVertex
100
AcDb2dVertex
 10
7.9620826657
 20
5.7257904588
 30
0.0
  0
VERTEX
  5
53A
100
AcDbEntity
  8
0
100
AcDbVertex
100
AcDb2dVertex
 10
7.973506961
 20
5.7100916022
 30
0.0
  0
VERTEX
  5
53B
100
AcDbEntity
  8
0
100
AcDbVertex
100
AcDb2dVertex
 10
7.9842774953
 20
5.6937631542
 30
0.0
  0
VERTEX
  5
53C
100
AcDbEntity
  8
0
100
AcDbVertex
100
AcDb2dVertex
 10
7.9943278697
 20
5.6769057952
 30
0.0
  0
VERTEX
  5
53D
100
AcDbEntity
  8
0
100
AcDbVertex
100
AcDb2dVertex
 10
8.0035961188
 20
5.6596234391
 30
0.0
  0
VERTEX
  5
53E
100
AcDbEntity
  8
0
100
AcDbVertex
100
AcDb2dVertex
 10
8.0120250996
 20
5.6420226502
 30
0.0
  0
VERTEX
  5
53F
100
AcDbEntity
  8
0
100
AcDbVertex
100
AcDb2dVertex
 10
8.0195628286
 20
5.6242119319
 30
0.0
  0
VERTEX
  5
540
100
AcDbEntity
  8
0
100
AcDbVertex
100
AcDb2dVertex
 10
8.0261628576
 20
5.6063011127
 30
0.0
  0
VERTEX
  5
541
100
AcDbEntity
  8
0
100
AcDbVertex
100
AcDb2dVertex
 10
8.0317844813
 20
5.5884006057
 30
0.0
  0
VERTEX
  5
542
100
AcDbEntity
  8
0
100
AcDbVertex
100
AcDb2dVertex
 10
8.0363930354
 20
5.5706207796
 30
0.0
  0
VERTEX
  5
543
100
AcDbEntity
  8
0
100
AcDbVertex
100
AcDb2dVertex
 10
8.0399601169
 20
5.5530712475
 30
0.0
  0
VERTEX
  5
544
100
AcDbEntity
  8
0
100
AcDbVertex
100
AcDb2dVertex
 10
8.0424637398
 20
5.5358602087
 30
0.0
  0
VERTEX
  5
545
100
AcDbEntity
  8
0
100
AcDbVertex
100
AcDb2dVertex
 10
8.0438884516
 20
5.5190937674
 30
0.0
  0
VERTEX
  5
546
100
AcDbEntity
  8
0
100
AcDbVertex
100
AcDb2dVertex
 10
8.044225476
 20
5.5028753261
 30
0.0
  0
VERTEX
  5
547
100
AcDbEntity
  8
0
100
AcDbVertex
100
AcDb2dVertex
 10
8.0434727389
 20
5.4873048226
 30
0.0
  0
VERTEX
  5
548
100
AcDbEntity
  8
0
100
AcDbVertex
100
AcDb2dVertex
 10
8.0416348811
 20
5.4724783184
 30
0.0
  0
VERTEX
  5
549
100
AcDbEntity
  8
0
100
AcDbVertex
100
AcDb2dVertex
 10
8.0387232329
 20
5.4584871447
 30
0.0
  0
VERTEX
  5
54A
100
AcDbEntity
  8
0
100
AcDbVertex
100
AcDb2dVertex
 10
8.0347557356
 20
5.4454176488
 30
0.0
  0
VERTEX
  5
54B
100
AcDbEntity
  8
0
100
AcDbVertex
100
AcDb2dVertex
 10
8.0297568513
 20
5.4333503477
 30
0.0
  0
VERTEX
  5
54C
100
AcDbEntity
  8
0
100
AcDbVertex
100
AcDb2dVertex
 10
8.0237574201
 20
5.4223596813
 30
0.0
  0
VERTEX
  5
54D
100
AcDbEntity
  8
0
100
AcDbVertex
100
AcDb2dVertex
 10
8.0167944138
 20
5.4125133763
 30
0.0
  0
SEQEND
  5
54E
100
AcDbEntity
  8
0
  0
POLYLINE
  5
54F
100
AcDbEntity
  8
0
  6
CONTINUOUS
 62
         7
100
AcDb2dPolyline
 66
         1
 10
0.0
 20
0.0
 30
0.0
 70
       128
  0
VERTEX
  5
550
100
AcDbEntity
  8
0
100
AcDbVertex
100
AcDb2dVertex
 10
10.0667378051
 20
7.0454032882
 30
0.0
  0
VERTEX
  5
551
100
AcDbEntity
  8
0
100
AcDbVertex
100
AcDb2dVertex
 10
10.0798417097
 20
7.0348103509
 30
0.0
  0
VERTEX
  5
552
100
AcDbEntity
  8
0
100
AcDbVertex
100
AcDb2dVertex
 10
10.0930958254
 20
7.0228423578
 30
0.0
  0
VERTEX
  5
553
100
AcDbEntity
  8
0
100
AcDbVertex
100
AcDb2dVertex
 10
10.1060157945
 20
7.0098797174
 30
0.0
  0
VERTEX
  5
554
100
AcDbEntity
  8
0
100
AcDbVertex
100
AcDb2dVertex
 10
10.1185219631
 20
6.9960023646
 30
0.0
  0
VERTEX
  5
555
100
AcDbEntity
  8
0
100
AcDbVertex
100
AcDb2dVertex
 10
10.1305372308
 20
6.981295844
 30
0.0
  0
VERTEX
  5
556
100
AcDbEntity
  8
0
100
AcDbVertex
100
AcDb2dVertex
 10
10.1419875308
 20
6.9658508169
 30
0.0
  0
VERTEX
  5
557
100
AcDbEntity
  8
0
100
AcDbVertex
100
AcDb2dVertex
 10
10.1528022447
 20
6.9497625326
 30
0.0
  0
VERTEX
  5
558
100
AcDbEntity
  8
0
100
AcDbVertex
100
AcDb2dVertex
 10
10.1629147012
 20
6.9331301671
 30
0.0
  0
VERTEX
  5
559
100
AcDbEntity
  8
0
100
AcDbVertex
100
AcDb2dVertex
 10
10.1722625719
 20
6.9160562572
 30
0.0
  0
VERTEX
  5
55A
100
AcDbEntity
  8
0
100
AcDbVertex
100
AcDb2dVertex
 10
10.1807881954
 20
6.8986460796
 30
0.0
  0
VERTEX
  5
55B
100
AcDbEntity
  8
0
100
AcDbVertex
100
AcDb2dVertex
 10
10.1884390437
 20
6.8810069701
 30
0.0
  0
VERTEX
  5
55C
100
AcDbEntity
  8
0
100
AcDbVertex
100
AcDb2dVertex
 10
10.1951679166
 20
6.8632476792
 30
0.0
  0
VERTEX
  5
55D
100
AcDbEntity
  8
0
100
AcDbVertex
100
AcDb2dVertex
 10
10.2009333442
 20
6.8454777144
 30
0.0
  0
VERTEX
  5
55E
100
AcDbEntity
  8
0
100
AcDbVertex
100
AcDb2dVertex
 10
10.2056997675
 20
6.8278066133
 30
0.0
  0
VERTEX
  5
55F
100
AcDbEntity
  8
0
100
AcDbVertex
100
AcDb2dVertex
 10
10.2094378113
 20
6.810343323
 30
0.0
  0
VERTEX
  5
560
100
AcDbEntity
  8
0
100
AcDbVertex
100
AcDb2dVertex
 10
10.2121244266
 20
6.7931955186
 30
0.0
  0
VERTEX
  5
561
100
AcDbEntity
  8
0
100
AcDbVertex
100
AcDb2dVertex
 10
10.213743059
 20
6.7764689224
 30
0.0
  0
VERTEX
  5
562
100
AcDbEntity
  8
0
100
AcDbVertex
100
AcDb2dVertex
 10
10.2142837007
 20
6.7602666601
 30
0.0
  0
VERTEX
  5
563
100
AcDbEntity
  8
0
100
AcDbVertex
100
AcDb2dVertex
 10
10.213743059
 20
6.7446886094
 30
0.0
  0
VERTEX
  5
564
100
AcDbEntity
  8
0
100
AcDbVertex
100
AcDb2dVertex
 10
10.2121244266
 20
6.7298308464
 30
0.0
  0
VERTEX
  5
565
100
AcDbEntity
  8
0
100
AcDbVertex
100
AcDb2dVertex
 10
10.2094378113
 20
6.715784942
 30
0.0
  0
VERTEX
  5
566
100
AcDbEntity
  8
0
100
AcDbVertex
100
AcDb2dVertex
 10
10.2056997675
 20
6.7026375052
 30
0.0
  0
VERTEX
  5
567
100
AcDbEntity
  8
0
100
AcDbVertex
100
AcDb2dVertex
 10
10.2009333442
 20
6.6904695993
 30
0.0
  0
VERTEX
  5
568
100
AcDbEntity
  8
0
100
AcDbVertex
100
AcDb2dVertex
 10
10.1951679166
 20
6.6793562704
 30
0.0
  0
VERTEX
  5
569
100
AcDbEntity
  8
0
100
AcDbVertex
100
AcDb2dVertex
 10
10.1884390437
 20
6.6693659709
 30
0.0
  0
VERTEX
  5
56A
100
AcDbEntity
  8
0
100
AcDbVertex
100
AcDb2dVertex
 10
10.1807881954
 20
6.6605603277
 30
0.0
  0
VERTEX
  5
56B
100
AcDbEntity
  8
0
100
AcDbVertex
100
AcDb2dVertex
 10
10.1722625719
 20
6.652993648
 30
0.0
  0
VERTEX
  5
56C
100
AcDbEntity
  8
0
100
AcDbVertex
100
AcDb2dVertex
 10
10.1629147012
 20
6.6467125524
 30
0.0
  0
VERTEX
  5
56D
100
AcDbEntity
  8
0
100
AcDbVertex
100
AcDb2dVertex
 10
10.1629046286
 20
6.6467067208
 30
0.0
  0
SEQEND
  5
56E
100
AcDbEntity
  8
0
  0
POLYLINE
  5
56F
100
AcDbEntity
  8
0
  6
CONTINUOUS
 62
         7
100
AcDb2dPolyline
 66
         1
 10
0.0
 20
0.0
 30
0.0
 70
       128
  0
VERTEX
  5
570
100
AcDbEntity
  8
0
100
AcDbVertex
100
AcDb2dVertex
 10
7.2435252949
 20
5.4951521223
 30
0.0
  0
VERTEX
  5
571
100
AcDbEntity
  8
0
100
AcDbVertex
100
AcDb2dVertex
 10
7.2516039053
 20
5.5019884799
 30
0.0
  0
VERTEX
  5
572
100
AcDbEntity
  8
0
100
AcDbVertex
100
AcDb2dVertex
 10
7.2604875087
 20
5.5075391769
 30
0.0
  0
VERTEX
  5
573
100
AcDbEntity
  8
0
100
AcDbVertex
100
AcDb2dVertex
 10
7.2701138025
 20
5.5117652636
 30
0.0
  0
VERTEX
  5
574
100
AcDbEntity
  8
0
100
AcDbVertex
100
AcDb2dVertex
 10
7.2804152535
 20
5.5146371124
 30
0.0
  0
VERTEX
  5
575
100
AcDbEntity
  8
0
100
AcDbVertex
100
AcDb2dVertex
 10
7.291319613
 20
5.5161345765
 30
0.0
  0
VERTEX
  5
576
100
AcDbEntity
  8
0
100
AcDbVertex
100
AcDb2dVertex
 10
7.3027503933
 20
5.5162471418
 30
0.0
  0
VERTEX
  5
577
100
AcDbEntity
  8
0
100
AcDbVertex
100
AcDb2dVertex
 10
7.314627412
 20
5.5149740244
 30
0.0
  0
VERTEX
  5
578
100
AcDbEntity
  8
0
100
AcDbVertex
100
AcDb2dVertex
 10
7.3268673675
 20
5.5123241597
 30
0.0
  0
VERTEX
  5
579
100
AcDbEntity
  8
0
100
AcDbVertex
100
AcDb2dVertex
 10
7.3393843991
 20
5.508316127
 30
0.0
  0
VERTEX
  5
57A
100
AcDbEntity
  8
0
100
AcDbVertex
100
AcDb2dVertex
 10
7.3520907111
 20
5.5029780424
 30
0.0
  0
VERTEX
  5
57B
100
AcDbEntity
  8
0
100
AcDbVertex
100
AcDb2dVertex
 10
7.3648971769
 20
5.4963473537
 30
0.0
  0
VERTEX
  5
57C
100
AcDbEntity
  8
0
100
AcDbVertex
100
AcDb2dVertex
 10
7.3777139698
 20
5.4884705575
 30
0.0
  0
VERTEX
  5
57D
100
AcDbEntity
  8
0
100
AcDbVertex
100
AcDb2dVertex
 10
7.3904511896
 20
5.4794029202
 30
0.0
  0
VERTEX
  5
57E
100
AcDbEntity
  8
0
100
AcDbVertex
100
AcDb2dVertex
 10
7.4030194921
 20
5.4692080324
 30
0.0
  0
VERTEX
  5
57F
100
AcDbEntity
  8
0
100
AcDbVertex
100
AcDb2dVertex
 10
7.4153307159
 20
5.4579574093
 30
0.0
  0
VERTEX
  5
580
100
AcDbEntity
  8
0
100
AcDbVertex
100
AcDb2dVertex
 10
7.4272985178
 20
5.4457299672
 30
0.0
  0
VERTEX
  5
581
100
AcDbEntity
  8
0
100
AcDbVertex
100
AcDb2dVertex
 10
7.4388389399
 20
5.4326114709
 30
0.0
  0
VERTEX
  5
582
100
AcDbEntity
  8
0
100
AcDbVertex
100
AcDb2dVertex
 10
7.4498710448
 20
5.4186939282
 30
0.0
  0
VERTEX
  5
583
100
AcDbEntity
  8
0
100
AcDbVertex
100
AcDb2dVertex
 10
7.4603174469
 20
5.4040749756
 30
0.0
  0
VERTEX
  5
584
100
AcDbEntity
  8
0
100
AcDbVertex
100
AcDb2dVertex
 10
7.4701048572
 20
5.3888571528
 30
0.0
  0
VERTEX
  5
585
100
AcDbEntity
  8
0
100
AcDbVertex
100
AcDb2dVertex
 10
7.4791646536
 20
5.3731471839
 30
0.0
  0
VERTEX
  5
586
100
AcDbEntity
  8
0
100
AcDbVertex
100
AcDb2dVertex
 10
7.4874332633
 20
5.3570552851
 30
0.0
  0
VERTEX
  5
587
100
AcDbEntity
  8
0
100
AcDbVertex
100
AcDb2dVertex
 10
7.4948527005
 20
5.3406943228
 30
0.0
  0
VERTEX
  5
588
100
AcDbEntity
  8
0
100
AcDbVertex
100
AcDb2dVertex
 10
7.501370917
 20
5.3241790576
 30
0.0
  0
VERTEX
  5
589
100
AcDbEntity
  8
0
100
AcDbVertex
100
AcDb2dVertex
 10
7.5069422036
 20
5.3076253212
 30
0.0
  0
VERTEX
  5
58A
100
AcDbEntity
  8
0
100
AcDbVertex
100
AcDb2dVertex
 10
7.5115274623
 20
5.2911492451
 30
0.0
  0
VERTEX
  5
58B
100
AcDbEntity
  8
0
100
AcDbVertex
100
AcDb2dVertex
 10
7.5150945438
 20
5.2748663777
 30
0.0
  0
VERTEX
  5
58C
100
AcDbEntity
  8
0
100
AcDbVertex
100
AcDb2dVertex
 10
7.5176184156
 20
5.2588909434
 30
0.0
  0
VERTEX
  5
58D
100
AcDbEntity
  8
0
100
AcDbVertex
100
AcDb2dVertex
 10
7.5190813956
 20
5.2433350038
 30
0.0
  0
VERTEX
  5
58E
100
AcDbEntity
  8
0
100
AcDbVertex
100
AcDb2dVertex
 10
7.5194732166
 20
5.2283076577
 30
0.0
  0
VERTEX
  5
58F
100
AcDbEntity
  8
0
100
AcDbVertex
100
AcDb2dVertex
 10
7.5187911175
 20
5.213914314
 30
0.0
  0
VERTEX
  5
590
100
AcDbEntity
  8
0
100
AcDbVertex
100
AcDb2dVertex
 10
7.5170398817
 20
5.2002559517
 30
0.0
  0
VERTEX
  5
591
100
AcDbEntity
  8
0
100
AcDbVertex
100
AcDb2dVertex
 10
7.5142318116
 20
5.1874283409
 30
0.0
  0
VERTEX
  5
592
100
AcDbEntity
  8
0
100
AcDbVertex
100
AcDb2dVertex
 10
7.5103865858
 20
5.1755214964
 30
0.0
  0
VERTEX
  5
593
100
AcDbEntity
  8
0
100
AcDbVertex
100
AcDb2dVertex
 10
7.5055311812
 20
5.1646188847
 30
0.0
  0
VERTEX
  5
594
100
AcDbEntity
  8
0
100
AcDbVertex
100
AcDb2dVertex
 10
7.4996996529
 20
5.1547970416
 30
0.0
  0
VERTEX
  5
595
100
AcDbEntity
  8
0
100
AcDbVertex
100
AcDb2dVertex
 10
7.4929329266
 20
5.1461247944
 30
0.0
  0
VERTEX
  5
596
100
AcDbEntity
  8
0
100
AcDbVertex
100
AcDb2dVertex
 10
7.4852784356
 20
5.138663052
 30
0.0
  0
VERTEX
  5
597
100
AcDbEntity
  8
0
100
AcDbVertex
100
AcDb2dVertex
 10
7.4767898747
 20
5.1324640787
 30
0.0
  0
VERTEX
  5
598
100
AcDbEntity
  8
0
100
AcDbVertex
100
AcDb2dVertex
 10
7.467526811
 20
5.1275713898
 30
0.0
  0
VERTEX
  5
599
100
AcDbEntity
  8
0
100
AcDbVertex
100
AcDb2dVertex
 10
7.4575541915
 20
5.1240193168
 30
0.0
  0
VERTEX
  5
59A
100
AcDbEntity
  8
0
100
AcDbVertex
100
AcDb2dVertex
 10
7.4469419736
 20
5.1218327425
 30
0.0
  0
VERTEX
  5
59B
100
AcDbEntity
  8
0
100
AcDbVertex
100
AcDb2dVertex
 10
7.4357646001
 20
5.1210270139
 30
0.0
  0
VERTEX
  5
59C
100
AcDbEntity
  8
0
100
AcDbVertex
100
AcDb2dVertex
 10
7.4241004676
 20
5.1216078008
 30
0.0
  0
VERTEX
  5
59D
100
AcDbEntity
  8
0
100
AcDbVertex
100
AcDb2dVertex
 10
7.4120313949
 20
5.1235710128
 30
0.0
  0
VERTEX
  5
59E
100
AcDbEntity
  8
0
100
AcDbVertex
100
AcDb2dVertex
 10
7.3996420338
 20
5.1269028708
 30
0.0
  0
VERTEX
  5
59F
100
AcDbEntity
  8
0
100
AcDbVertex
100
AcDb2dVertex
 10
7.3870192879
 20
5.131580032
 30
0.0
  0
VERTEX
  5
5A0
100
AcDbEntity
  8
0
100
AcDbVertex
100
AcDb2dVertex
 10
7.374251698
 20
5.1375696761
 30
0.0
  0
VERTEX
  5
5A1
100
AcDbEntity
  8
0
100
AcDbVertex
100
AcDb2dVertex
 10
7.3614288204
 20
5.1448298035
 30
0.0
  0
VERTEX
  5
5A2
100
AcDbEntity
  8
0
100
AcDbVertex
100
AcDb2dVertex
 10
7.3486405978
 20
5.1533094496
 30
0.0
  0
VERTEX
  5
5A3
100
AcDbEntity
  8
0
100
AcDbVertex
100
AcDb2dVertex
 10
7.335976729
 20
5.1629491678
 30
0.0
  0
VERTEX
  5
5A4
100
AcDbEntity
  8
0
100
AcDbVertex
100
AcDb2dVertex
 10
7.3235260433
 20
5.1736813312
 30
0.0
  0
VERTEX
  5
5A5
100
AcDbEntity
  8
0
100
AcDbVertex
100
AcDb2dVertex
 10
7.3113758712
 20
5.185430675
 30
0.0
  0
VERTEX
  5
5A6
100
AcDbEntity
  8
0
100
AcDbVertex
100
AcDb2dVertex
 10
7.2996114402
 20
5.1981147658
 30
0.0
  0
VERTEX
  5
5A7
100
AcDbEntity
  8
0
100
AcDbVertex
100
AcDb2dVertex
 10
7.2883152662
 20
5.2116446517
 30
0.0
  0
VERTEX
  5
5A8
100
AcDbEntity
  8
0
100
AcDbVertex
100
AcDb2dVertex
 10
7.2775665883
 20
5.2259254281
 30
0.0
  0
VERTEX
  5
5A9
100
AcDbEntity
  8
0
100
AcDbVertex
100
AcDb2dVertex
 10
7.2674407989
 20
5.2408569265
 30
0.0
  0
VERTEX
  5
5AA
100
AcDbEntity
  8
0
100
AcDbVertex
100
AcDb2dVertex
 10
7.2580089183
 20
5.2563344066
 30
0.0
  0
VERTEX
  5
5AB
100
AcDbEntity
  8
0
100
AcDbVertex
100
AcDb2dVertex
 10
7.2493371122
 20
5.2722492841
 30
0.0
  0
VERTEX
  5
5AC
100
AcDbEntity
  8
0
100
AcDbVertex
100
AcDb2dVertex
 10
7.2414861986
 20
5.288489954
 30
0.0
  0
VERTEX
  5
5AD
100
AcDbEntity
  8
0
100
AcDbVertex
100
AcDb2dVertex
 10
7.2345112595
 20
5.3049424942
 30
0.0
  0
VERTEX
  5
5AE
100
AcDbEntity
  8
0
100
AcDbVertex
100
AcDb2dVertex
 10
7.2284612059
 20
5.3214915152
 30
0.0
  0
VERTEX
  5
5AF
100
AcDbEntity
  8
0
100
AcDbVertex
100
AcDb2dVertex
 10
7.2233784738
 20
5.3380209342
 30
0.0
  0
VERTEX
  5
5B0
100
AcDbEntity
  8
0
100
AcDbVertex
100
AcDb2dVertex
 10
7.2192987258
 20
5.3544147766
 30
0.0
  0
VERTEX
  5
5B1
100
AcDbEntity
  8
0
100
AcDbVertex
100
AcDb2dVertex
 10
7.2162505722
 20
5.3705580848
 30
0.0
  0
VERTEX
  5
5B2
100
AcDbEntity
  8
0
100
AcDbVertex
100
AcDb2dVertex
 10
7.2142553897
 20
5.3863376223
 30
0.0
  0
VERTEX
  5
5B3
100
AcDbEntity
  8
0
100
AcDbVertex
100
AcDb2dVertex
 10
7.213327179
 20
5.4016427042
 30
0.0
  0
VERTEX
  5
5B4
100
AcDbEntity
  8
0
100
AcDbVertex
100
AcDb2dVertex
 10
7.2134724477
 20
5.4163659531
 30
0.0
  0
VERTEX
  5
5B5
100
AcDbEntity
  8
0
100
AcDbVertex
100
AcDb2dVertex
 10
7.2146901847
 20
5.4304041225
 30
0.0
  0
VERTEX
  5
5B6
100
AcDbEntity
  8
0
100
AcDbVertex
100
AcDb2dVertex
 10
7.216971834
 20
5.4436587407
 30
0.0
  0
VERTEX
  5
5B7
100
AcDbEntity
  8
0
100
AcDbVertex
100
AcDb2dVertex
 10
7.2203014117
 20
5.4560368217
 30
0.0
  0
VERTEX
  5
5B8
100
AcDbEntity
  8
0
100
AcDbVertex
100
AcDb2dVertex
 10
7.2246555446
 20
5.4674515612
 30
0.0
  0
VERTEX
  5
5B9
100
AcDbEntity
  8
0
100
AcDbVertex
100
AcDb2dVertex
 10
7.2300036909
 20
5.4778228832
 30
0.0
  0
VERTEX
  5
5BA
100
AcDbEntity
  8
0
100
AcDbVertex
100
AcDb2dVertex
 10
7.2363083536
 20
5.4870780349
 30
0.0
  0
VERTEX
  5
5BB
100
AcDbEntity
  8
0
100
AcDbVertex
100
AcDb2dVertex
 10
7.2435252949
 20
5.4951521223
 30
0.0
  0
SEQEND
  5
5BC
100
AcDbEntity
  8
0
  0
POLYLINE
  5
5BD
100
AcDbEntity
  8
0
  6
CONTINUOUS
 62
         7
100
AcDb2dPolyline
 66
         1
 10
0.0
 20
0.0
 30
0.0
 70
       128
  0
VERTEX
  5
5BE
100
AcDbEntity
  8
0
100
AcDbVertex
100
AcDb2dVertex
 10
7.341626959
 20
5.5544389458
 30
0.0
  0
VERTEX
  5
5BF
100
AcDbEntity
  8
0
100
AcDbVertex
100
AcDb2dVertex
 10
7.3440040195
 20
5.5557522323
 30
0.0
  0
VERTEX
  5
5C0
100
AcDbEntity
  8
0
100
AcDbVertex
100
AcDb2dVertex
 10
7.3536303133
 20
5.5599783191
 30
0.0
  0
VERTEX
  5
5C1
100
AcDbEntity
  8
0
100
AcDbVertex
100
AcDb2dVertex
 10
7.3639317643
 20
5.5628501678
 30
0.0
  0
VERTEX
  5
5C2
100
AcDbEntity
  8
0
100
AcDbVertex
100
AcDb2dVertex
 10
7.3748361238
 20
5.5643476319
 30
0.0
  0
VERTEX
  5
5C3
100
AcDbEntity
  8
0
100
AcDbVertex
100
AcDb2dVertex
 10
7.3862669041
 20
5.5644601973
 30
0.0
  0
VERTEX
  5
5C4
100
AcDbEntity
  8
0
100
AcDbVertex
100
AcDb2dVertex
 10
7.3981439228
 20
5.5631870798
 30
0.0
  0
VERTEX
  5
5C5
100
AcDbEntity
  8
0
100
AcDbVertex
100
AcDb2dVertex
 10
7.4103838783
 20
5.5605372152
 30
0.0
  0
VERTEX
  5
5C6
100
AcDbEntity
  8
0
100
AcDbVertex
100
AcDb2dVertex
 10
7.4229009099
 20
5.5565291824
 30
0.0
  0
VERTEX
  5
5C7
100
AcDbEntity
  8
0
100
AcDbVertex
100
AcDb2dVertex
 10
7.4356072219
 20
5.5511910979
 30
0.0
  0
VERTEX
  5
5C8
100
AcDbEntity
  8
0
100
AcDbVertex
100
AcDb2dVertex
 10
7.4484136877
 20
5.5445604091
 30
0.0
  0
VERTEX
  5
5C9
100
AcDbEntity
  8
0
100
AcDbVertex
100
AcDb2dVertex
 10
7.4612304806
 20
5.5366836129
 30
0.0
  0
VERTEX
  5
5CA
100
AcDbEntity
  8
0
100
AcDbVertex
100
AcDb2dVertex
 10
7.4739677004
 20
5.5276159756
 30
0.0
  0
VERTEX
  5
5CB
100
AcDbEntity
  8
0
100
AcDbVertex
100
AcDb2dVertex
 10
7.4865360029
 20
5.5174210878
 30
0.0
  0
VERTEX
  5
5CC
100
AcDbEntity
  8
0
100
AcDbVertex
100
AcDb2dVertex
 10
7.4988472267
 20
5.5061704648
 30
0.0
  0
VERTEX
  5
5CD
100
AcDbEntity
  8
0
100
AcDbVertex
100
AcDb2dVertex
 10
7.5108150286
 20
5.4939430226
 30
0.0
  0
VERTEX
  5
5CE
100
AcDbEntity
  8
0
100
AcDbVertex
100
AcDb2dVertex
 10
7.5223554507
 20
5.4808245263
 30
0.0
  0
VERTEX
  5
5CF
100
AcDbEntity
  8
0
100
AcDbVertex
100
AcDb2dVertex
 10
7.5333875556
 20
5.4669069836
 30
0.0
  0
VERTEX
  5
5D0
100
AcDbEntity
  8
0
100
AcDbVertex
100
AcDb2dVertex
 10
7.5438339576
 20
5.4522880311
 30
0.0
  0
VERTEX
  5
5D1
100
AcDbEntity
  8
0
100
AcDbVertex
100
AcDb2dVertex
 10
7.553621368
 20
5.4370702083
 30
0.0
  0
VERTEX
  5
5D2
100
AcDbEntity
  8
0
100
AcDbVertex
100
AcDb2dVertex
 10
7.5626811644
 20
5.4213602394
 30
0.0
  0
VERTEX
  5
5D3
100
AcDbEntity
  8
0
100
AcDbVertex
100
AcDb2dVertex
 10
7.5709497741
 20
5.4052683405
 30
0.0
  0
VERTEX
  5
5D4
100
AcDbEntity
  8
0
100
AcDbVertex
100
AcDb2dVertex
 10
7.5783692113
 20
5.3889073782
 30
0.0
  0
VERTEX
  5
5D5
100
AcDbEntity
  8
0
100
AcDbVertex
100
AcDb2dVertex
 10
7.5848874278
 20
5.3723921131
 30
0.0
  0
VERTEX
  5
5D6
100
AcDbEntity
  8
0
100
AcDbVertex
100
AcDb2dVertex
 10
7.5904587144
 20
5.3558383766
 30
0.0
  0
VERTEX
  5
5D7
100
AcDbEntity
  8
0
100
AcDbVertex
100
AcDb2dVertex
 10
7.5950439731
 20
5.3393623005
 30
0.0
  0
VERTEX
  5
5D8
100
AcDbEntity
  8
0
100
AcDbVertex
100
AcDb2dVertex
 10
7.5986110546
 20
5.3230794332
 30
0.0
  0
VERTEX
  5
5D9
100
AcDbEntity
  8
0
100
AcDbVertex
100
AcDb2dVertex
 10
7.6011349264
 20
5.3071039988
 30
0.0
  0
VERTEX
  5
5DA
100
AcDbEntity
  8
0
100
AcDbVertex
100
AcDb2dVertex
 10
7.6025979064
 20
5.2915480593
 30
0.0
  0
VERTEX
  5
5DB
100
AcDbEntity
  8
0
100
AcDbVertex
100
AcDb2dVertex
 10
7.6029897274
 20
5.2765207131
 30
0.0
  0
VERTEX
  5
5DC
100
AcDbEntity
  8
0
100
AcDbVertex
100
AcDb2dVertex
 10
7.6023076283
 20
5.2621273694
 30
0.0
  0
VERTEX
  5
5DD
100
AcDbEntity
  8
0
100
AcDbVertex
100
AcDb2dVertex
 10
7.6005563925
 20
5.2484690072
 30
0.0
  0
VERTEX
  5
5DE
100
AcDbEntity
  8
0
100
AcDbVertex
100
AcDb2dVertex
 10
7.5977483224
 20
5.2356413963
 30
0.0
  0
VERTEX
  5
5DF
100
AcDbEntity
  8
0
100
AcDbVertex
100
AcDb2dVertex
 10
7.5939030966
 20
5.2237345519
 30
0.0
  0
VERTEX
  5
5E0
100
AcDbEntity
  8
0
100
AcDbVertex
100
AcDb2dVertex
 10
7.589047692
 20
5.2128319401
 30
0.0
  0
VERTEX
  5
5E1
100
AcDbEntity
  8
0
100
AcDbVertex
100
AcDb2dVertex
 10
7.5832161637
 20
5.203010097
 30
0.0
  0
VERTEX
  5
5E2
100
AcDbEntity
  8
0
100
AcDbVertex
100
AcDb2dVertex
 10
7.5764494374
 20
5.1943378498
 30
0.0
  0
VERTEX
  5
5E3
100
AcDbEntity
  8
0
100
AcDbVertex
100
AcDb2dVertex
 10
7.5687949464
 20
5.1868761074
 30
0.0
  0
VERTEX
  5
5E4
100
AcDbEntity
  8
0
100
AcDbVertex
100
AcDb2dVertex
 10
7.5603063855
 20
5.1806771341
 30
0.0
  0
VERTEX
  5
5E5
100
AcDbEntity
  8
0
100
AcDbVertex
100
AcDb2dVertex
 10
7.5581447909
 20
5.1793784334
 30
0.0
  0
SEQEND
  5
5E6
100
AcDbEntity
  8
0
  0
ENDSEC
  0
SECTION
  2
OBJECTS
  0
DICTIONARY
  5
19
100
AcDbDictionary
  3
ACAD_GROUP
350
1A
  3
ACAD_MLINESTYLE
350
1B
  0
DICTIONARY
  5
1A
102
{ACAD_REACTORS
330
19
102
}
100
AcDbDictionary
  0
DICTIONARY
  5
1B
102
{ACAD_REACTORS
330
19
102
}
100
AcDbDictionary
  3
STANDARD
350
1C
  0
MLINESTYLE
  5
1C
102
{ACAD_REACTORS
330
1B
102
}
100
AcDbMlineStyle
  2
STANDARD
 70
         0
  3

 62
         0
 51
90.0
 52
90.0
 71
         2
 49
0.5
 62
       256
  6
BYLAYER
 49
-0.5
 62
       256
  6
BYLAYER
  0
ENDSEC
  0
EOF
