  0
SECTION
  2
HEADER
  9
$ACADVER
  1
AC1015
  9
$ACADMAINTVER
 70
     6
  9
$DWGCODEPAGE
  3
ANSI_1252
  9
$INSBASE
 10
0.0
 20
0.0
 30
0.0
  9
$EXTMIN
 10
0.0
 20
0.0
 30
0.0
  9
$EXTMAX
 10
279.4
 20
215.9
 30
0.0
  9
$LIMMIN
 10
0.0
 20
0.0
  9
$LIMMAX
 10
279.4
 20
215.9
  9
$ORTHOMODE
 70
     0
  9
$REGENMODE
 70
     1
  9
$FILLMODE
 70
     1
  9
$QTEXTMODE
 70
     0
  9
$MIRRTEXT
 70
     1
  9
$LTSCALE
 40
1.0
  9
$ATTMODE
 70
     1
  9
$TEXTSIZE
 40
2.8222222222
  9
$TRACEWID
 40
1.0
  9
$TEXTSTYLE
  7
Standard
  9
$CLAYER
  8
0
  9
$CELTYPE
  6
ByLayer
  9
$CECOLOR
 62
   256
  9
$CELTSCALE
 40
1.0
  9
$DISPSILH
 70
     0
  9
$DIMSCALE
 40
1.0
  9
$DIMASZ
 40
3.175
  9
$DIMEXO
 40
1.27
  9
$DIMDLI
 40
3.75
  9
$DIMRND
 40
0.0
  9
$DIMDLE
 40
0.0
  9
$DIMEXE
 40
1.778
  9
$DIMTP
 40
0.0
  9
$DIMTM
 40
0.0
  9
$DIMTXT
 40
2.8222222222
  9
$DIMCEN
 40
2.5
  9
$DIMTSZ
 40
0.0
  9
$DIMTOL
 70
     0
  9
$DIMLIM
 70
     0
  9
$DIMTIH
 70
     1
  9
$DIMTOH
 70
     1
  9
$DIMSE1
 70
     0
  9
$DIMSE2
 70
     0
  9
$DIMTAD
 70
     0
  9
$DIMZIN
 70
     1
  9
$DIMBLK
  1

  9
$DIMASO
 70
     1
  9
$DIMSHO
 70
     1
  9
$DIMPOST
  1

  9
$DIMAPOST
  1

  9
$DIMALT
 70
     0
  9
$DIMALTD
 70
     3
  9
$DIMALTF
 40
0.0393700787
  9
$DIMLFAC
 40
1.0
  9
$DIMTOFL
 70
     1
  9
$DIMTVP
 40
0.0
  9
$DIMTIX
 70
     0
  9
$DIMSOXD
 70
     0
  9
$DIMSAH
 70
     0
  9
$DIMBLK1
  1

  9
$DIMBLK2
  1

  9
$DIMSTYLE
  2
ISO-25
  9
$DIMCLRD
 70
     0
  9
$DIMCLRE
 70
     0
  9
$DIMCLRT
 70
     0
  9
$DIMTFAC
 40
1.0
  9
$DIMGAP
 40
2.54
  9
$DIMJUST
 70
     0
  9
$DIMSD1
 70
     0
  9
$DIMSD2
 70
     0
  9
$DIMTOLJ
 70
     0
  9
$DIMTZIN
 70
     1
  9
$DIMALTZ
 70
     0
  9
$DIMALTTZ
 70
     0
  9
$DIMUPT
 70
     0
  9
$DIMDEC
 70
     1
  9
$DIMTDEC
 70
     1
  9
$DIMALTU
 70
     2
  9
$DIMALTTD
 70
     3
  9
$DIMTXSTY
  7
Standard
  9
$DIMAUNIT
 70
     0
  9
$DIMADEC
 70
     0
  9
$DIMALTRND
 40
0.0
  9
$DIMAZIN
 70
     0
  9
$DIMDSEP
 70
    44
  9
$DIMATFIT
 70
     3
  9
$DIMFRAC
 70
     0
  9
$DIMLDRBLK
  1

  9
$DIMLUNIT
 70
     2
  9
$DIMLWD
 70
    -2
  9
$DIMLWE
 70
    -2
  9
$DIMTMOVE
 70
     0
  9
$LUNITS
 70
     2
  9
$LUPREC
 70
     1
  9
$SKETCHINC
 40
1.0
  9
$FILLETRAD
 40
10.0
  9
$AUNITS
 70
     0
  9
$AUPREC
 70
     0
  9
$MENU
  1
.
  9
$ELEVATION
 40
0.0
  9
$PELEVATION
 40
0.0
  9
$THICKNESS
 40
0.0
  9
$LIMCHECK
 70
     0
  9
$CHAMFERA
 40
0.0
  9
$CHAMFERB
 40
0.0
  9
$CHAMFERC
 40
0.0
  9
$CHAMFERD
 40
0.0
  9
$SKPOLY
 70
     0
  9
$TDCREATE
 40
2459643.622117523
  9
$TDUCREATE
 40
2459643.28878419
  9
$TDUPDATE
 40
2459643.622134143
  9
$TDUUPDATE
 40
2459643.28880081
  9
$TDINDWG
 40
0.0000000116
  9
$TDUSRTIMER
 40
0.0000000116
  9
$USRTIMER
 70
     1
  9
$ANGBASE
 50
0.0
  9
$ANGDIR
 70
     0
  9
$PDMODE
 70
     0
  9
$PDSIZE
 40
-1.0
  9
$PLINEWID
 40
0.0
  9
$SPLFRAME
 70
     0
  9
$SPLINETYPE
 70
     6
  9
$SPLINESEGS
 70
     8
  9
$HANDSEED
  5
248
  9
$SURFTAB1
 70
     6
  9
$SURFTAB2
 70
     6
  9
$SURFTYPE
 70
     6
  9
$SURFU
 70
     6
  9
$SURFV
 70
     6
  9
$UCSBASE
  2

  9
$UCSNAME
  2

  9
$UCSORG
 10
0.0
 20
0.0
 30
0.0
  9
$UCSXDIR
 10
1.0
 20
0.0
 30
0.0
  9
$UCSYDIR
 10
0.0
 20
1.0
 30
0.0
  9
$UCSORTHOREF
  2

  9
$UCSORTHOVIEW
 70
     0
  9
$UCSORGTOP
 10
0.0
 20
0.0
 30
0.0
  9
$UCSORGBOTTOM
 10
0.0
 20
0.0
 30
0.0
  9
$UCSORGLEFT
 10
0.0
 20
0.0
 30
0.0
  9
$UCSORGRIGHT
 10
0.0
 20
0.0
 30
0.0
  9
$UCSORGFRONT
 10
0.0
 20
0.0
 30
0.0
  9
$UCSORGBACK
 10
0.0
 20
0.0
 30
0.0
  9
$PUCSBASE
  2

  9
$PUCSNAME
  2

  9
$PUCSORG
 10
0.0
 20
0.0
 30
0.0
  9
$PUCSXDIR
 10
1.0
 20
0.0
 30
0.0
  9
$PUCSYDIR
 10
0.0
 20
1.0
 30
0.0
  9
$PUCSORTHOREF
  2

  9
$PUCSORTHOVIEW
 70
     0
  9
$PUCSORGTOP
 10
0.0
 20
0.0
 30
0.0
  9
$PUCSORGBOTTOM
 10
0.0
 20
0.0
 30
0.0
  9
$PUCSORGLEFT
 10
0.0
 20
0.0
 30
0.0
  9
$PUCSORGRIGHT
 10
0.0
 20
0.0
 30
0.0
  9
$PUCSORGFRONT
 10
0.0
 20
0.0
 30
0.0
  9
$PUCSORGBACK
 10
0.0
 20
0.0
 30
0.0
  9
$USERI1
 70
     0
  9
$USERI2
 70
     0
  9
$USERI3
 70
     0
  9
$USERI4
 70
     0
  9
$USERI5
 70
     0
  9
$USERR1
 40
0.0
  9
$USERR2
 40
0.0
  9
$USERR3
 40
0.0
  9
$USERR4
 40
0.0
  9
$USERR5
 40
0.0
  9
$WORLDVIEW
 70
     1
  9
$SHADEDGE
 70
     3
  9
$SHADEDIF
 70
    70
  9
$TILEMODE
 70
     1
  9
$MAXACTVP
 70
    64
  9
$PINSBASE
 10
0.0
 20
0.0
 30
0.0
  9
$PLIMCHECK
 70
     0
  9
$PEXTMIN
 10
1.0000000000E+20
 20
1.0000000000E+20
 30
1.0000000000E+20
  9
$PEXTMAX
 10
-1.0000000000E+20
 20
-1.0000000000E+20
 30
-1.0000000000E+20
  9
$PLIMMIN
 10
0.0
 20
0.0
  9
$PLIMMAX
 10
420.0
 20
297.0
  9
$UNITMODE
 70
     0
  9
$VISRETAIN
 70
     1
  9
$PLINEGEN
 70
     0
  9
$PSLTSCALE
 70
     1
  9
$TREEDEPTH
 70
  3020
  9
$CMLSTYLE
  2
Standard
  9
$CMLJUST
 70
     0
  9
$CMLSCALE
 40
20.0
  9
$PROXYGRAPHICS
 70
     1
  9
$MEASUREMENT
 70
     1
  9
$CELWEIGHT
370
    -1
  9
$ENDCAPS
280
     0
  9
$JOINSTYLE
280
     0
  9
$LWDISPLAY
290
     1
  9
$INSUNITS
 70
     4
  9
$HYPERLINKBASE
  1

  9
$STYLESHEET
  1

  9
$XEDIT
290
     1
  9
$CEPSNTYPE
380
     0
  9
$PSTYLEMODE
290
     1
  9
$FINGERPRINTGUID
  2
{BEFF315B-9DC0-4163-AD87-A9A250A21954}
  9
$VERSIONGUID
  2
{FAEB1C32-E019-11D5-929B-00C0DF256EC4}
  9
$EXTNAMES
290
     1
  9
$PSVPSCALE
 40
0.0
  9
$OLESTARTUP
290
     0
  0
ENDSEC
  0
SECTION
  2
CLASSES
  0
CLASS
  1
ACDBDICTIONARYWDFLT
  2
AcDbDictionaryWithDefault
  3
ObjectDBX Classes
 90
        0
280
     0
281
     0
  0
CLASS
  1
VISUALSTYLE
  2
AcDbVisualStyle
  3
ObjectDBX Classes
 90
     4095
280
     0
281
     0
  0
CLASS
  1
MATERIAL
  2
AcDbMaterial
  3
ObjectDBX Classes
 90
     1153
280
     0
281
     0
  0
CLASS
  1
SCALE
  2
AcDbScale
  3
ObjectDBX Classes
 90
     1153
280
     0
281
     0
  0
CLASS
  1
TABLESTYLE
  2
AcDbTableStyle
  3
ObjectDBX Classes
 90
     4095
280
     0
281
     0
  0
CLASS
  1
MLEADERSTYLE
  2
AcDbMLeaderStyle
  3
ACDB_MLEADERSTYLE_CLASS
 90
     4095
280
     0
281
     0
  0
CLASS
  1
SUN
  2
AcDbSun
  3
SCENEOE
 90
     1153
280
     0
281
     0
  0
CLASS
  1
ACDBPLACEHOLDER
  2
AcDbPlaceHolder
  3
ObjectDBX Classes
 90
        0
280
     0
281
     0
  0
CLASS
  1
LAYOUT
  2
AcDbLayout
  3
ObjectDBX Classes
 90
        0
280
     0
281
     0
  0
ENDSEC
  0
SECTION
  2
TABLES
  0
TABLE
  2
VPORT
  5
8
330
0
100
AcDbSymbolTable
 70
     1
  0
VPORT
  5
29
330
8
100
AcDbSymbolTableRecord
100
AcDbViewportTableRecord
  2
*Active
 70
     0
 10
0.0
 20
0.0
 11
1.0
 21
1.0
 12
139.7
 22
107.95
 13
0.0
 23
0.0
 14
10.0
 24
10.0
 15
10.0
 25
10.0
 16
0.0
 26
0.0
 36
1.0
 17
0.0
 27
0.0
 37
0.0
 40
215.9
 41
1.2941176471
 42
50.0
 43
0.0
 44
0.0
 50
0.0
 51
0.0
 71
     0
 72
  2000
 73
     1
 74
     3
 75
     0
 76
     0
 77
     0
 78
     0
281
     0
 65
     1
110
0.0
120
0.0
130
0.0
111
1.0
121
0.0
131
0.0
112
0.0
122
1.0
132
0.0
 79
     0
146
0.0
  0
ENDTAB
  0
TABLE
  2
LTYPE
  5
5
330
0
100
AcDbSymbolTable
 70
     6
  0
LTYPE
  5
14
330
5
100
AcDbSymbolTableRecord
100
AcDbLinetypeTableRecord
  2
ByBlock
 70
     0
  3

 72
    65
 73
     0
 40
0.0
  0
LTYPE
  5
15
330
5
100
AcDbSymbolTableRecord
100
AcDbLinetypeTableRecord
  2
ByLayer
 70
     0
  3

 72
    65
 73
     0
 40
0.0
  0
LTYPE
  5
16
330
5
100
AcDbSymbolTableRecord
100
AcDbLinetypeTableRecord
  2
Continuous
 70
     0
  3
Solid line
 72
    65
 73
     0
 40
0.0
  0
LTYPE
  5
6E
330
5
100
AcDbSymbolTableRecord
100
AcDbLinetypeTableRecord
  2
HIDDEN
 70
     0
  3
Hidden __ __ __ __ __ __ __ __ __ __ __ __ __ __
 72
    65
 73
     2
 40
1.905
 49
1.27
 74
     0
 49
-0.635
 74
     0
  0
LTYPE
  5
6F
330
5
100
AcDbSymbolTableRecord
100
AcDbLinetypeTableRecord
  2
PHANTOM
 70
     0
  3
Phantom ______  __  __  ______  __  __  ______
 72
    65
 73
     6
 40
12.7
 49
6.35
 74
     0
 49
-1.27
 74
     0
 49
1.27
 74
     0
 49
-1.27
 74
     0
 49
1.27
 74
     0
 49
-1.27
 74
     0
  0
LTYPE
  5
70
330
5
100
AcDbSymbolTableRecord
100
AcDbLinetypeTableRecord
  2
CENTER
 70
     0
  3
Center ____ _ ____ _ ____ _ ____ _ ____ _ ____
 72
    65
 73
     4
 40
10.16
 49
6.35
 74
     0
 49
-1.27
 74
     0
 49
1.27
 74
     0
 49
-1.27
 74
     0
  0
LTYPE
  5
71
330
5
100
AcDbSymbolTableRecord
100
AcDbLinetypeTableRecord
  2
CENTERX2
 70
     0
  3
Center (2x) ________  __  ________  __  _____
 72
    65
 73
     4
 40
20.32
 49
12.7
 74
     0
 49
-2.54
 74
     0
 49
2.54
 74
     0
 49
-2.54
 74
     0
  0
LTYPE
  5
72
330
5
100
AcDbSymbolTableRecord
100
AcDbLinetypeTableRecord
  2
DOT2
 70
     0
  3
Dot (.5x) ........................................
 72
    65
 73
     2
 40
0.635
 49
0.0
 74
     0
 49
-0.635
 74
     0
  0
ENDTAB
  0
TABLE
  2
LAYER
  5
2
330
0
100
AcDbSymbolTable
 70
     2
  0
LAYER
  5
10
330
2
100
AcDbSymbolTableRecord
100
AcDbLayerTableRecord
  2
0
 70
     0
 62
     7
  6
Continuous
370
    -3
390
F
  0
LAYER
  5
73
330
2
100
AcDbSymbolTableRecord
100
AcDbLayerTableRecord
  2
FORMAT
 70
     0
 62
     7
  6
Continuous
370
    -3
390
F
  0
ENDTAB
  0
TABLE
  2
STYLE
  5
3
330
0
100
AcDbSymbolTable
 70
     3
  0
STYLE
  5
11
330
3
100
AcDbSymbolTableRecord
100
AcDbTextStyleTableRecord
  2
Standard
 70
     0
 40
0.0
 41
1.0
 50
0.0
 71
     0
 42
2.8222222222
  3
txt
  4

  0
STYLE
  5
132
330
3
100
AcDbSymbolTableRecord
100
AcDbTextStyleTableRecord
  2
SLDTEXTSTYLE0
 70
     0
 40
0.0
 41
0.75
 50
0.0
 71
     0
 42
2.8222222222
  3
TXT
  4

  0
STYLE
  5
14C
330
3
100
AcDbSymbolTableRecord
100
AcDbTextStyleTableRecord
  2
SLDTEXTSTYLE1
 70
     0
 40
0.0
 41
0.6
 50
0.0
 71
     0
 42
2.8222222222
  3
TXT
  4

  0
ENDTAB
  0
TABLE
  2
VIEW
  5
6
330
0
100
AcDbSymbolTable
 70
     0
  0
ENDTAB
  0
TABLE
  2
UCS
  5
7
330
0
100
AcDbSymbolTable
 70
     0
  0
ENDTAB
  0
TABLE
  2
APPID
  5
9
330
0
100
AcDbSymbolTable
 70
     1
  0
APPID
  5
12
330
9
100
AcDbSymbolTableRecord
100
AcDbRegAppTableRecord
  2
ACAD
 70
     0
  0
ENDTAB
  0
TABLE
  2
DIMSTYLE
  5
A
330
0
100
AcDbSymbolTable
 70
     5
100
AcDbDimStyleTable
  0
DIMSTYLE
105
27
330
A
100
AcDbSymbolTableRecord
100
AcDbDimStyleTableRecord
  2
ISO-25
 70
     0
 41
2.5
 42
0.625
 43
3.75
 44
1.25
 73
     0
 74
     0
 77
     1
 78
     8
140
2.5
141
2.5
143
0.0393700787
147
0.625
171
     3
172
     1
178
     0
271
     2
272
     2
274
     3
278
    44
283
     0
284
     8
340
11
  0
DIMSTYLE
105
170
102
{ACAD_REACTORS
330
16F
102
}
330
A
100
AcDbSymbolTableRecord
100
AcDbDimStyleTableRecord
  2
SLDDIMSTYLE0
 70
     0
 41
3.175
 44
0.0
 45
0.000000001
 78
     4
 79
     1
140
2.1166666667
141
0.0
143
0.0393700787
147
0.5291666667
148
0.000000001
170
     1
173
     1
178
     0
271
     1
272
     1
276
     2
284
    12
340
132
  0
DIMSTYLE
105
20F
102
{ACAD_REACTORS
330
20E
102
}
330
A
100
AcDbSymbolTableRecord
100
AcDbDimStyleTableRecord
  2
SLDDIMSTYLE1
 70
     0
 41
3.175
 44
0.0
 45
0.000000001
 78
    12
 79
     3
140
2.1166666667
141
0.0
143
0.0393700787
147
0.5291666667
148
0.000000001
170
     1
173
     1
178
     0
271
     1
272
     1
276
     2
284
    12
340
132
  0
DIMSTYLE
105
21F
102
{ACAD_REACTORS
330
21E
102
}
330
A
100
AcDbSymbolTableRecord
100
AcDbDimStyleTableRecord
  2
SLDDIMSTYLE2
 70
     0
 41
3.175
 44
0.0
 45
0.000000001
 78
    12
 79
     3
140
2.1166666667
143
0.0393700787
147
0.5291666667
148
0.000000001
170
     1
173
     1
178
     0
271
     1
272
     1
276
     2
284
    12
340
132
  0
DIMSTYLE
105
234
102
{ACAD_REACTORS
330
233
102
}
330
A
100
AcDbSymbolTableRecord
100
AcDbDimStyleTableRecord
  2
SLDDIMSTYLE3
 70
     0
 41
3.175
 44
0.0
 45
0.000000001
 78
     4
 79
     1
140
2.1166666667
143
0.0393700787
147
0.5291666667
148
0.000000001
170
     1
172
     1
173
     1
178
     0
271
     1
272
     1
276
     2
284
    12
289
     0
340
132
  0
ENDTAB
  0
TABLE
  2
BLOCK_RECORD
  5
1
330
0
100
AcDbSymbolTable
 70
    13
  0
BLOCK_RECORD
  5
1F
330
1
100
AcDbSymbolTableRecord
100
AcDbBlockTableRecord
  2
*Model_Space
340
22
  0
BLOCK_RECORD
  5
1B
330
1
100
AcDbSymbolTableRecord
100
AcDbBlockTableRecord
  2
*Paper_Space
340
1E
  0
BLOCK_RECORD
  5
23
330
1
100
AcDbSymbolTableRecord
100
AcDbBlockTableRecord
  2
*Paper_Space0
340
26
  0
BLOCK_RECORD
  5
74
330
1
100
AcDbSymbolTableRecord
100
AcDbBlockTableRecord
  2
Third Angle Projection Block
340
0
102
{BLKREFS
331
12D
102
}
  0
BLOCK_RECORD
  5
81
330
1
100
AcDbSymbolTableRecord
100
AcDbBlockTableRecord
  2
THORLABS LOGO1
340
0
102
{BLKREFS
331
12E
102
}
  0
BLOCK_RECORD
  5
12F
330
1
100
AcDbSymbolTableRecord
100
AcDbBlockTableRecord
  2
SW_NOTE_0
340
0
102
{BLKREFS
331
140
102
}
  0
BLOCK_RECORD
  5
152
330
1
100
AcDbSymbolTableRecord
100
AcDbBlockTableRecord
  2
SW_NOTE_1
340
0
102
{BLKREFS
331
157
102
}
  0
BLOCK_RECORD
  5
158
330
1
100
AcDbSymbolTableRecord
100
AcDbBlockTableRecord
  2
SW_NOTE_2
340
0
102
{BLKREFS
331
15D
102
}
  0
BLOCK_RECORD
  5
15F
330
1
100
AcDbSymbolTableRecord
100
AcDbBlockTableRecord
  2
SW_NOTE_3
340
0
102
{BLKREFS
331
164
102
}
  0
BLOCK_RECORD
  5
165
330
1
100
AcDbSymbolTableRecord
100
AcDbBlockTableRecord
  2
SW_NOTE_4
340
0
102
{BLKREFS
331
16B
102
}
  0
BLOCK_RECORD
  5
171
330
1
100
AcDbSymbolTableRecord
100
AcDbBlockTableRecord
  2
_D
340
0
  0
BLOCK_RECORD
  5
1FA
330
1
100
AcDbSymbolTableRecord
100
AcDbBlockTableRecord
  2
SW_NOTE_5
340
0
102
{BLKREFS
331
1FF
102
}
  0
BLOCK_RECORD
  5
210
330
1
100
AcDbSymbolTableRecord
100
AcDbBlockTableRecord
  2
_D_1
340
0
  0
BLOCK_RECORD
  5
220
330
1
100
AcDbSymbolTableRecord
100
AcDbBlockTableRecord
  2
_D_2
340
0
  0
BLOCK_RECORD
  5
235
330
1
100
AcDbSymbolTableRecord
100
AcDbBlockTableRecord
  2
_D_3
340
0
  0
ENDTAB
  0
ENDSEC
  0
SECTION
  2
BLOCKS
  0
BLOCK
  5
20
330
1F
100
AcDbEntity
  8
0
100
AcDbBlockBegin
  2
*Model_Space
 70
     0
 10
0.0
 20
0.0
 30
0.0
  3
*Model_Space
  1

  0
ENDBLK
  5
21
330
1F
100
AcDbEntity
  8
0
100
AcDbBlockEnd
  0
BLOCK
  5
1C
330
1B
100
AcDbEntity
 67
     1
  8
0
100
AcDbBlockBegin
  2
*Paper_Space
 70
     0
 10
0.0
 20
0.0
 30
0.0
  3
*Paper_Space
  1

  0
ENDBLK
  5
1D
330
1B
100
AcDbEntity
 67
     1
  8
0
100
AcDbBlockEnd
  0
BLOCK
  5
24
330
23
100
AcDbEntity
  8
0
100
AcDbBlockBegin
  2
*Paper_Space0
 70
     0
 10
0.0
 20
0.0
 30
0.0
  3
*Paper_Space0
  1

  0
ENDBLK
  5
25
330
23
100
AcDbEntity
  8
0
100
AcDbBlockEnd
  0
BLOCK
  5
75
330
74
100
AcDbEntity
  8
0
100
AcDbBlockBegin
  2
Third Angle Projection Block
 70
     0
 10
0.0
 20
0.0
 30
0.0
  3
Third Angle Projection Block
  1

  0
CIRCLE
  5
77
330
74
100
AcDbEntity
  8
0
  6
Continuous
 62
     7
370
    35
100
AcDbCircle
 10
101.4766388944
 20
18.9404083667
 30
0.0
 40
1.768227153674871
  0
CIRCLE
  5
78
330
74
100
AcDbEntity
  8
0
  6
Continuous
 62
     7
370
    35
100
AcDbCircle
 10
101.4766388944
 20
18.9404083667
 30
0.0
 40
3.901228248531818
  0
LINE
  5
79
330
74
100
AcDbEntity
  8
0
  6
CENTERX2
 62
     7
370
    18
100
AcDbLine
 10
110.1367822585
 20
18.9404083667
 30
0.0
 11
119.4527334874
 21
18.9404083667
 31
0.0
  0
LINE
  5
7A
330
74
100
AcDbEntity
  8
0
  6
Continuous
 62
     7
370
    35
100
AcDbLine
 10
111.0016388944
 20
20.7086355204
 30
0.0
 11
111.0016388944
 21
17.172181213
 31
0.0
  0
LINE
  5
7B
330
74
100
AcDbEntity
  8
0
  6
Continuous
 62
     7
370
    35
100
AcDbLine
 10
111.0016388944
 20
17.172181213
 30
0.0
 11
118.6216388944
 21
15.1304083667
 31
0.0
  0
LINE
  5
7C
330
74
100
AcDbEntity
  8
0
  6
Continuous
 62
     7
370
    35
100
AcDbLine
 10
118.6216388944
 20
15.1304083667
 30
0.0
 11
118.6216388944
 21
22.7504083667
 31
0.0
  0
LINE
  5
7D
330
74
100
AcDbEntity
  8
0
  6
Continuous
 62
     7
370
    35
100
AcDbLine
 10
118.6216388944
 20
22.7504083667
 30
0.0
 11
111.0016388944
 21
20.7086355204
 31
0.0
  0
LINE
  5
7E
330
74
100
AcDbEntity
  8
0
  6
CENTERX2
 62
     7
370
    18
100
AcDbLine
 10
96.6025854619
 20
18.9404083667
 30
0.0
 11
106.3506923269
 21
18.9404083667
 31
0.0
  0
LINE
  5
7F
330
74
100
AcDbEntity
  8
0
  6
CENTERX2
 62
     7
370
    18
100
AcDbLine
 10
101.4766388944
 20
23.8144617992
 30
0.0
 11
101.4766388944
 21
14.0663549342
 31
0.0
  0
POINT
  5
80
330
74
100
AcDbEntity
  8
0
  6
Continuous
 62
     7
370
     0
100
AcDbPoint
 10
101.4766388944
 20
18.9404083667
 30
0.0
  0
ENDBLK
  5
76
330
74
100
AcDbEntity
  8
0
100
AcDbBlockEnd
  0
BLOCK
  5
82
330
81
100
AcDbEntity
  8
0
100
AcDbBlockBegin
  2
THORLABS LOGO1
 70
     0
 10
0.0
 20
0.0
 30
0.0
  3
THORLABS LOGO1
  1

  0
LINE
  5
84
330
81
100
AcDbEntity
  8
0
  6
Continuous
 62
     7
370
    18
100
AcDbLine
 10
127.070019234
 20
36.20212077
 30
0.0
 11
129.5897637342
 21
43.9131108267
 31
0.0
  0
LINE
  5
85
330
81
100
AcDbEntity
  8
0
  6
Continuous
 62
     7
370
    18
100
AcDbLine
 10
129.5897637342
 20
43.9131108267
 30
0.0
 11
130.3745570034
 21
43.9131108267
 31
0.0
  0
LINE
  5
86
330
81
100
AcDbEntity
  8
0
  6
Continuous
 62
     7
370
    18
100
AcDbLine
 10
130.3745570034
 20
43.9131108267
 30
0.0
 11
132.8105856281
 21
36.20212077
 31
0.0
  0
LINE
  5
87
330
81
100
AcDbEntity
  8
0
  6
Continuous
 62
     7
370
    18
100
AcDbLine
 10
132.8105856281
 20
36.20212077
 30
0.0
 11
127.070019234
 21
36.20212077
 31
0.0
  0
LINE
  5
88
330
81
100
AcDbEntity
  8
0
  6
Continuous
 62
     7
370
    18
100
AcDbLine
 10
128.4229091235
 20
37.230137941
 30
0.0
 11
131.3867267247
 21
37.230137941
 31
0.0
  0
LINE
  5
89
330
81
100
AcDbEntity
  8
0
  6
Continuous
 62
     7
370
    18
100
AcDbLine
 10
131.3867267247
 20
37.230137941
 30
0.0
 11
129.9297948829
 21
41.8820534435
 31
0.0
  0
LINE
  5
8A
330
81
100
AcDbEntity
  8
0
  6
Continuous
 62
     7
370
    18
100
AcDbLine
 10
129.9297948829
 20
41.8820534435
 30
0.0
 11
128.4229091235
 21
37.230137941
 31
0.0
  0
LINE
  5
8B
330
81
100
AcDbEntity
  8
0
  6
Continuous
 62
     7
370
    18
100
AcDbLine
 10
148.5694963023
 20
29.6960536541
 30
0.0
 11
134.4690556888
 21
29.6960536541
 31
0.0
  0
LINE
  5
8C
330
81
100
AcDbEntity
  8
0
  6
Continuous
 62
     7
370
    18
100
AcDbLine
 10
134.4690556888
 20
29.6960536541
 30
0.0
 11
133.0327944335
 21
32.9713080926
 31
0.0
  0
LINE
  5
8D
330
81
100
AcDbEntity
  8
0
  6
Continuous
 62
     7
370
    18
100
AcDbLine
 10
133.0327944335
 20
32.9713080926
 30
0.0
 11
126.8013016089
 21
32.9713080926
 31
0.0
  0
LINE
  5
8E
330
81
100
AcDbEntity
  8
0
  6
Continuous
 62
     7
370
    18
100
AcDbLine
 10
126.8013016089
 20
32.9713080926
 30
0.0
 11
125.336790552
 21
29.7225809068
 31
0.0
  0
LINE
  5
8F
330
81
100
AcDbEntity
  8
0
  6
Continuous
 62
     7
370
    18
100
AcDbLine
 10
125.336790552
 20
29.7225809068
 30
0.0
 11
107.5084096545
 21
29.7225809068
 31
0.0
  0
LINE
  5
90
330
81
100
AcDbEntity
  8
0
  6
Continuous
 62
     7
370
    18
100
AcDbLine
 10
107.5084096545
 20
29.7225809068
 30
0.0
 11
107.5084096545
 21
48.9892901182
 31
0.0
  0
LINE
  5
91
330
81
100
AcDbEntity
  8
0
  6
Continuous
 62
     7
370
    18
100
AcDbLine
 10
107.5084096545
 20
48.9892901182
 30
0.0
 11
112.5348072834
 21
48.9892901182
 31
0.0
  0
LINE
  5
92
330
81
100
AcDbEntity
  8
0
  6
Continuous
 62
     7
370
    18
100
AcDbLine
 10
112.5348072834
 20
48.9892901182
 30
0.0
 11
112.5348072834
 21
34.0806295706
 31
0.0
  0
LINE
  5
93
330
81
100
AcDbEntity
  8
0
  6
Continuous
 62
     7
370
    18
100
AcDbLine
 10
112.5348072834
 20
34.0806295706
 30
0.0
 11
121.7804161364
 21
34.0806295706
 31
0.0
  0
LINE
  5
94
330
81
100
AcDbEntity
  8
0
  6
Continuous
 62
     7
370
    18
100
AcDbLine
 10
121.7804161364
 20
34.0806295706
 30
0.0
 11
127.3904133255
 21
48.9892901182
 31
0.0
  0
LINE
  5
95
330
81
100
AcDbEntity
  8
0
  6
Continuous
 62
     7
370
    18
100
AcDbLine
 10
127.3904133255
 20
48.9892901182
 30
0.0
 11
132.4970817321
 21
48.9892901182
 31
0.0
  0
LINE
  5
96
330
81
100
AcDbEntity
  8
0
  6
Continuous
 62
     7
370
    18
100
AcDbLine
 10
132.4970817321
 20
48.9892901182
 30
0.0
 11
139.3018388236
 21
31.0275839375
 31
0.0
  0
LINE
  5
97
330
81
100
AcDbEntity
  8
0
  6
Continuous
 62
     7
370
    18
100
AcDbLine
 10
139.3018388236
 20
31.0275839375
 30
0.0
 11
139.3018388236
 21
48.9892901182
 31
0.0
  0
LINE
  5
98
330
81
100
AcDbEntity
  8
0
  6
Continuous
 62
     7
370
    18
100
AcDbLine
 10
139.3018388236
 20
48.9892901182
 30
0.0
 11
148.3259278908
 21
48.9892901182
 31
0.0
  0
LINE
  5
99
330
81
100
AcDbEntity
  8
0
  6
Continuous
 62
     7
370
    18
100
AcDbLine
 10
156.0567272597
 20
36.2334711596
 30
0.0
 11
160.8609160832
 21
36.2334711596
 31
0.0
  0
LINE
  5
9A
330
81
100
AcDbEntity
  8
0
  6
Continuous
 62
     7
370
    18
100
AcDbLine
 10
171.9930604685
 20
43.2037651984
 30
0.0
 11
166.9673518592
 21
43.2037651984
 31
0.0
  0
LINE
  5
9B
330
81
100
AcDbEntity
  8
0
  6
Continuous
 62
     7
370
    18
100
AcDbLine
 10
161.57267328
 20
37.1278185376
 30
0.0
 11
156.7116403435
 21
37.1278185376
 31
0.0
  0
LINE
  5
9C
330
81
100
AcDbEntity
  8
0
  6
Continuous
 62
     7
370
    18
100
AcDbLine
 10
167.1893381071
 20
42.2088209659
 30
0.0
 11
173.0691700759
 21
42.1674797928
 31
0.0
  0
LINE
  5
9D
330
81
100
AcDbEntity
  8
0
  6
Continuous
 62
     7
370
    18
100
AcDbLine
 10
147.7273754781
 20
50.0471073848
 30
0.0
 11
138.3041010399
 21
50.0471073848
 31
0.0
  0
LINE
  5
9E
330
81
100
AcDbEntity
  8
0
  6
Continuous
 62
     7
370
    18
100
AcDbLine
 10
138.3041010399
 20
50.0471073848
 30
0.0
 11
138.3041010399
 21
36.7502358233
 31
0.0
  0
LINE
  5
9F
330
81
100
AcDbEntity
  8
0
  6
Continuous
 62
     7
370
    18
100
AcDbLine
 10
138.3041010399
 20
36.7502358233
 30
0.0
 11
133.3762332069
 21
50.0471073848
 31
0.0
  0
LINE
  5
A0
330
81
100
AcDbEntity
  8
0
  6
Continuous
 62
     7
370
    18
100
AcDbLine
 10
133.3762332069
 20
50.0471073848
 30
0.0
 11
126.7834772196
 21
50.0471073848
 31
0.0
  0
LINE
  5
A1
330
81
100
AcDbEntity
  8
0
  6
Continuous
 62
     7
370
    18
100
AcDbLine
 10
126.7834772196
 20
50.0471073848
 30
0.0
 11
121.0416582836
 21
34.8362965993
 31
0.0
  0
LINE
  5
A2
330
81
100
AcDbEntity
  8
0
  6
Continuous
 62
     7
370
    18
100
AcDbLine
 10
121.0416582836
 20
34.8362965993
 30
0.0
 11
113.7338781066
 21
34.7908312116
 31
0.0
  0
LINE
  5
A3
330
81
100
AcDbEntity
  8
0
  6
Continuous
 62
     7
370
    18
100
AcDbLine
 10
113.7338781066
 20
34.7908312116
 30
0.0
 11
113.6389611148
 21
50.0471073848
 31
0.0
  0
LINE
  5
A4
330
81
100
AcDbEntity
  8
0
  6
Continuous
 62
     7
370
    18
100
AcDbLine
 10
113.6389611148
 20
50.0471073848
 30
0.0
 11
106.3849632756
 21
50.0471073848
 31
0.0
  0
LINE
  5
A5
330
81
100
AcDbEntity
  8
0
  6
Continuous
 62
     7
370
    18
100
AcDbLine
 10
106.3849632756
 20
50.0471073848
 30
0.0
 11
106.3718719042
 21
28.6983533434
 31
0.0
  0
LINE
  5
A6
330
81
100
AcDbEntity
  8
0
  6
Continuous
 62
     7
370
    18
100
AcDbLine
 10
106.3718719042
 20
28.6983533434
 30
0.0
 11
126.0705963744
 21
28.7607096128
 31
0.0
  0
LINE
  5
A7
330
81
100
AcDbEntity
  8
0
  6
Continuous
 62
     7
370
    18
100
AcDbLine
 10
126.0705963744
 20
28.7607096128
 30
0.0
 11
127.3401148982
 21
31.9074619049
 31
0.0
  0
LINE
  5
A8
330
81
100
AcDbEntity
  8
0
  6
Continuous
 62
     7
370
    18
100
AcDbLine
 10
127.3401148982
 20
31.9074619049
 30
0.0
 11
132.5163742795
 21
31.9074619049
 31
0.0
  0
LINE
  5
A9
330
81
100
AcDbEntity
  8
0
  6
Continuous
 62
     7
370
    18
100
AcDbLine
 10
132.5163742795
 20
31.9074619049
 30
0.0
 11
133.7345608468
 21
28.7607096128
 31
0.0
  0
LINE
  5
AA
330
81
100
AcDbEntity
  8
0
  6
Continuous
 62
     7
370
    18
100
AcDbLine
 10
133.7345608468
 20
28.7607096128
 30
0.0
 11
149.6765281643
 21
28.7607096128
 31
0.0
  0
LINE
  5
AB
330
81
100
AcDbEntity
  8
0
  6
Continuous
 62
     7
370
    18
100
AcDbLine
 10
47.9736752992
 20
45.2630723832
 30
0.0
 11
42.1812601838
 21
45.2630723832
 31
0.0
  0
LINE
  5
AC
330
81
100
AcDbEntity
  8
0
  6
Continuous
 62
     7
370
    18
100
AcDbLine
 10
42.1812601838
 20
45.2630723832
 30
0.0
 11
42.1812601838
 21
28.6983533434
 31
0.0
  0
LINE
  5
AD
330
81
100
AcDbEntity
  8
0
  6
Continuous
 62
     7
370
    18
100
AcDbLine
 10
42.1812601838
 20
28.6983533434
 30
0.0
 11
36.5974457377
 21
28.6983533434
 31
0.0
  0
LINE
  5
AE
330
81
100
AcDbEntity
  8
0
  6
Continuous
 62
     7
370
    18
100
AcDbLine
 10
36.5974457377
 20
28.6983533434
 30
0.0
 11
36.5974457377
 21
45.2630723832
 31
0.0
  0
LINE
  5
AF
330
81
100
AcDbEntity
  8
0
  6
Continuous
 62
     7
370
    18
100
AcDbLine
 10
36.5974457377
 20
45.2630723832
 30
0.0
 11
30.2029997892
 21
45.2630723832
 31
0.0
  0
LINE
  5
B0
330
81
100
AcDbEntity
  8
0
  6
Continuous
 62
     7
370
    18
100
AcDbLine
 10
30.2029997892
 20
45.2630723832
 30
0.0
 11
30.2029997892
 21
50.0471073848
 31
0.0
  0
LINE
  5
B1
330
81
100
AcDbEntity
  8
0
  6
Continuous
 62
     7
370
    18
100
AcDbLine
 10
30.2029997892
 20
50.0471073848
 30
0.0
 11
53.5569729806
 21
50.0471073848
 31
0.0
  0
LINE
  5
B2
330
81
100
AcDbEntity
  8
0
  6
Continuous
 62
     7
370
    18
100
AcDbLine
 10
53.5569729806
 20
50.0471073848
 30
0.0
 11
53.5569729806
 21
42.2728997842
 31
0.0
  0
LINE
  5
B3
330
81
100
AcDbEntity
  8
0
  6
Continuous
 62
     7
370
    18
100
AcDbLine
 10
53.5569729806
 20
42.2728997842
 30
0.0
 11
60.9124289487
 21
42.2728997842
 31
0.0
  0
LINE
  5
B4
330
81
100
AcDbEntity
  8
0
  6
Continuous
 62
     7
370
    18
100
AcDbLine
 10
60.9124289487
 20
42.2728997842
 30
0.0
 11
60.9124289487
 21
50.0471073848
 31
0.0
  0
LINE
  5
B5
330
81
100
AcDbEntity
  8
0
  6
Continuous
 62
     7
370
    18
100
AcDbLine
 10
60.9124289487
 20
50.0471073848
 30
0.0
 11
66.4964156497
 21
50.0471073848
 31
0.0
  0
LINE
  5
B6
330
81
100
AcDbEntity
  8
0
  6
Continuous
 62
     7
370
    18
100
AcDbLine
 10
66.4964156497
 20
50.0471073848
 30
0.0
 11
66.4964156497
 21
28.6983533434
 31
0.0
  0
LINE
  5
B7
330
81
100
AcDbEntity
  8
0
  6
Continuous
 62
     7
370
    18
100
AcDbLine
 10
66.4964156497
 20
28.6983533434
 30
0.0
 11
60.9124289487
 21
28.6983533434
 31
0.0
  0
LINE
  5
B8
330
81
100
AcDbEntity
  8
0
  6
Continuous
 62
     7
370
    18
100
AcDbLine
 10
60.9124289487
 20
28.6983533434
 30
0.0
 11
60.9124289487
 21
37.4895538021
 31
0.0
  0
LINE
  5
B9
330
81
100
AcDbEntity
  8
0
  6
Continuous
 62
     7
370
    18
100
AcDbLine
 10
60.9124289487
 20
37.4895538021
 30
0.0
 11
53.5569729806
 21
37.4895538021
 31
0.0
  0
LINE
  5
BA
330
81
100
AcDbEntity
  8
0
  6
Continuous
 62
     7
370
    18
100
AcDbLine
 10
53.5569729806
 20
37.4895538021
 30
0.0
 11
53.5569729806
 21
28.6983533434
 31
0.0
  0
LINE
  5
BB
330
81
100
AcDbEntity
  8
0
  6
Continuous
 62
     7
370
    18
100
AcDbLine
 10
53.5569729806
 20
28.6983533434
 30
0.0
 11
47.9736752992
 21
28.6983533434
 31
0.0
  0
LINE
  5
BC
330
81
100
AcDbEntity
  8
0
  6
Continuous
 62
     7
370
    18
100
AcDbLine
 10
47.9736752992
 20
28.6983533434
 30
0.0
 11
47.9736752992
 21
45.2630723832
 31
0.0
  0
LINE
  5
BD
330
81
100
AcDbEntity
  8
0
  6
Continuous
 62
     7
370
    18
100
AcDbLine
 10
93.2083256259
 20
40.8002927475
 30
0.0
 11
97.891591518
 21
40.8002927475
 31
0.0
  0
LINE
  5
BE
330
81
100
AcDbEntity
  8
0
  6
Continuous
 62
     7
370
    18
100
AcDbLine
 10
97.6514682043
 20
45.613783335
 30
0.0
 11
93.2083256259
 21
45.613783335
 31
0.0
  0
LINE
  5
BF
330
81
100
AcDbEntity
  8
0
  6
Continuous
 62
     7
370
    18
100
AcDbLine
 10
93.2083256259
 20
45.613783335
 30
0.0
 11
93.2083256259
 21
40.8002927475
 31
0.0
  0
LINE
  5
C0
330
81
100
AcDbEntity
  8
0
  6
Continuous
 62
     7
370
    18
100
AcDbLine
 10
87.6243389163
 20
50.0471073848
 30
0.0
 11
98.5521890046
 21
50.0471073848
 31
0.0
  0
LINE
  5
C1
330
81
100
AcDbEntity
  8
0
  6
Continuous
 62
     7
370
    18
100
AcDbLine
 10
102.6945745488
 20
38.6856917437
 30
0.0
 11
102.6945745488
 21
38.6257470427
 31
0.0
  0
LINE
  5
C2
330
81
100
AcDbEntity
  8
0
  6
Continuous
 62
     7
370
    18
100
AcDbLine
 10
106.3668527513
 20
28.6983533434
 30
0.0
 11
101.1935454556
 21
28.6983533434
 31
0.0
  0
LINE
  5
C3
330
81
100
AcDbEntity
  8
0
  6
Continuous
 62
     7
370
    18
100
AcDbLine
 10
97.4420062521
 20
36.4729054538
 30
0.0
 11
93.2083256173
 21
36.4729054538
 31
0.0
  0
LINE
  5
C4
330
81
100
AcDbEntity
  8
0
  6
Continuous
 62
     7
370
    18
100
AcDbLine
 10
93.2083256173
 20
36.4729054538
 30
0.0
 11
93.2083256173
 21
28.6983533434
 31
0.0
  0
LINE
  5
C5
330
81
100
AcDbEntity
  8
0
  6
Continuous
 62
     7
370
    18
100
AcDbLine
 10
93.2083256173
 20
28.6983533434
 30
0.0
 11
87.6243389163
 21
28.6983533434
 31
0.0
  0
LINE
  5
C6
330
81
100
AcDbEntity
  8
0
  6
Continuous
 62
     7
370
    18
100
AcDbLine
 10
87.6243389163
 20
28.6983533434
 30
0.0
 11
87.6243389163
 21
50.0471073848
 31
0.0
  0
LINE
  5
C7
330
81
100
AcDbEntity
  8
0
  6
Continuous
 62
     7
370
    18
100
AcDbLine
 10
143.8820962928
 20
45.355573258
 30
0.0
 11
148.3552112218
 21
45.355573258
 31
0.0
  0
LINE
  5
C8
330
81
100
AcDbEntity
  8
0
  6
Continuous
 62
     7
370
    18
100
AcDbLine
 10
148.3552112218
 20
40.6891883448
 30
0.0
 11
143.8820962928
 21
40.6891883448
 31
0.0
  0
LINE
  5
C9
330
81
100
AcDbEntity
  8
0
  6
Continuous
 62
     7
370
    18
100
AcDbLine
 10
143.8820962928
 20
40.6891883448
 30
0.0
 11
143.8820962928
 21
45.355573258
 31
0.0
  0
LINE
  5
CA
330
81
100
AcDbEntity
  8
0
  6
Continuous
 62
     7
370
    18
100
AcDbLine
 10
144.8611930757
 20
44.3318624592
 30
0.0
 11
144.8611930757
 21
41.6384850321
 31
0.0
  0
LINE
  5
CB
330
81
100
AcDbEntity
  8
0
  6
Continuous
 62
     7
370
    18
100
AcDbLine
 10
144.8611930757
 20
41.6384850321
 30
0.0
 11
147.9838296835
 21
41.6384850321
 31
0.0
  0
LINE
  5
CC
330
81
100
AcDbEntity
  8
0
  6
Continuous
 62
     7
370
    18
100
AcDbLine
 10
147.9838296835
 20
44.3318624592
 30
0.0
 11
144.8611930757
 21
44.3318624592
 31
0.0
  0
LINE
  5
CD
330
81
100
AcDbEntity
  8
0
  6
Continuous
 62
     7
370
    18
100
AcDbLine
 10
143.8820962928
 20
38.4576262721
 30
0.0
 11
148.8506162794
 21
38.4576262721
 31
0.0
  0
LINE
  5
CE
330
81
100
AcDbEntity
  8
0
  6
Continuous
 62
     7
370
    18
100
AcDbLine
 10
148.8506162794
 20
33.0798286719
 30
0.0
 11
143.8820962928
 21
33.0798286719
 31
0.0
  0
LINE
  5
CF
330
81
100
AcDbEntity
  8
0
  6
Continuous
 62
     7
370
    18
100
AcDbLine
 10
143.8820962928
 20
33.0798286719
 30
0.0
 11
143.8820962928
 21
38.4576262721
 31
0.0
  0
LINE
  5
D0
330
81
100
AcDbEntity
  8
0
  6
Continuous
 62
     7
370
    18
100
AcDbLine
 10
144.8353548425
 20
37.4561363539
 30
0.0
 11
144.8353548425
 21
33.9958801658
 31
0.0
  0
LINE
  5
D1
330
81
100
AcDbEntity
  8
0
  6
Continuous
 62
     7
370
    18
100
AcDbLine
 10
144.8353548425
 20
33.9958801658
 30
0.0
 11
148.5660512046
 21
33.9958801658
 31
0.0
  0
LINE
  5
D2
330
81
100
AcDbEntity
  8
0
  6
Continuous
 62
     7
370
    18
100
AcDbLine
 10
148.5660512046
 20
37.4561363539
 30
0.0
 11
144.8353548425
 21
37.4561363539
 31
0.0
  0
LINE
  5
D3
330
81
100
AcDbEntity
  8
0
  6
Continuous
 62
     7
370
    18
100
AcDbLine
 10
106.3668527513
 20
29.7153023919
 30
0.0
 11
106.3668527513
 21
28.6983533434
 31
0.0
  0
SPLINE
  5
D4
330
81
100
AcDbEntity
  8
0
  6
Continuous
 62
     8
370
     0
100
AcDbSpline
210
0.0
220
0.0
230
1.0
 70
     8
 71
     3
 72
     8
 73
     4
 74
     0
 42
0.000000001
 43
0.00000001
 40
0.0
 40
0.0
 40
0.0
 40
0.0
 40
1.0
 40
1.0
 40
1.0
 40
1.0
 10
165.9145299843317
 20
42.47392123835806
 30
0.0
 10
163.2373445166196
 20
43.14743785003957
 30
0.0
 10
162.5142184972235
 20
43.26439891892237
 30
0.0
 10
162.5142184972235
 20
43.83439034297712
 30
0.0
  0
SPLINE
  5
D5
330
81
100
AcDbEntity
  8
0
  6
Continuous
 62
     8
370
     0
100
AcDbSpline
210
0.0
220
0.0
230
1.0
 70
     8
 71
     3
 72
     8
 73
     4
 74
     0
 42
0.000000001
 43
0.00000001
 40
1.0
 40
1.0
 40
1.0
 40
1.0
 40
2.0
 40
2.0
 40
2.0
 40
2.0
 10
162.5142184972235
 20
43.83439034297712
 30
0.0
 10
162.5142184972235
 20
44.08794953796311
 30
0.0
 10
163.6817621273968
 20
44.25641481832745
 30
0.0
 10
164.2398679641865
 20
44.24039511375292
 30
0.0
  0
SPLINE
  5
D6
330
81
100
AcDbEntity
  8
0
  6
Continuous
 62
     8
370
     0
100
AcDbSpline
210
0.0
220
0.0
230
1.0
 70
     8
 71
     3
 72
     8
 73
     4
 74
     0
 42
0.000000001
 43
0.00000001
 40
2.0
 40
2.0
 40
2.0
 40
2.0
 40
3.0
 40
3.0
 40
3.0
 40
3.0
 10
164.2398679641865
 20
44.24039511375292
 30
0.0
 10
165.3912196348973
 20
44.2062886459491
 30
0.0
 10
165.7515768603801
 20
43.97150523374403
 30
0.0
 10
165.8638870472897
 20
43.27628450618734
 30
0.0
  0
SPLINE
  5
D7
330
81
100
AcDbEntity
  8
0
  6
Continuous
 62
     8
370
     0
100
AcDbSpline
210
0.0
220
0.0
230
1.0
 70
     8
 71
     3
 72
     8
 73
     4
 74
     0
 42
0.000000001
 43
0.00000001
 40
3.0
 40
3.0
 40
3.0
 40
3.0
 40
4.0
 40
4.0
 40
4.0
 40
4.0
 10
165.8638870472897
 20
43.27628450618734
 30
0.0
 10
165.9090178279189
 20
43.00205472465359
 30
0.0
 10
165.9138409647801
 20
42.83186689541027
 30
0.0
 10
165.9145299843317
 20
42.47392123835806
 30
0.0
  0
SPLINE
  5
D8
330
81
100
AcDbEntity
  8
0
  6
Continuous
 62
     8
370
     0
100
AcDbSpline
210
0.0
220
0.0
230
1.0
 70
     8
 71
     3
 72
     8
 73
     4
 74
     0
 42
0.000000001
 43
0.00000001
 40
0.0
 40
0.0
 40
0.0
 40
0.0
 40
1.0
 40
1.0
 40
1.0
 40
1.0
 10
164.2102401234681
 20
29.12313389692912
 30
0.0
 10
160.290752404235
 20
29.12313389692912
 30
0.0
 10
156.7767526911141
 20
30.89219159564247
 30
0.0
 10
155.9991941271422
 20
34.65217128868185
 30
0.0
  0
SPLINE
  5
D9
330
81
100
AcDbEntity
  8
0
  6
Continuous
 62
     8
370
     0
100
AcDbSpline
210
0.0
220
0.0
230
1.0
 70
     8
 71
     3
 72
     8
 73
     4
 74
     0
 42
0.000000001
 43
0.00000001
 40
1.0
 40
1.0
 40
1.0
 40
1.0
 40
2.0
 40
2.0
 40
2.0
 40
2.0
 10
155.9991941271422
 20
34.65217128868185
 30
0.0
 10
155.4869080905333
 20
30.98107511779787
 30
0.0
 10
152.3484240330302
 20
29.69605365407815
 30
0.0
 10
148.569496302322
 20
29.69605365407815
 30
0.0
  0
SPLINE
  5
DA
330
81
100
AcDbEntity
  8
0
  6
Continuous
 62
     8
370
     0
100
AcDbSpline
210
0.0
220
0.0
230
1.0
 70
     8
 71
     3
 72
     8
 73
     4
 74
     0
 42
0.000000001
 43
0.00000001
 40
16.0
 40
16.0
 40
16.0
 40
16.0
 40
17.0
 40
17.0
 40
17.0
 40
17.0
 10
148.3259278908342
 20
48.98929011821522
 30
0.0
 10
151.6487246783881
 20
49.0430336432394
 30
0.0
 10
155.2970832040696
 20
48.18227596841268
 30
0.0
 10
155.2970832040696
 20
44.17218217814528
 30
0.0
  0
SPLINE
  5
DB
330
81
100
AcDbEntity
  8
0
  6
Continuous
 62
     8
370
     0
100
AcDbSpline
210
0.0
220
0.0
230
1.0
 70
     8
 71
     3
 72
     8
 73
     4
 74
     0
 42
0.000000001
 43
0.00000001
 40
17.0
 40
17.0
 40
17.0
 40
17.0
 40
18.0
 40
18.0
 40
18.0
 40
18.0
 10
155.2970832040696
 20
44.17218217814528
 30
0.0
 10
155.2970832040696
 20
42.44963329916444
 30
0.0
 10
154.270444072197
 20
41.05092360943199
 30
0.0
 10
152.7570126271244
 20
40.29730847487787
 30
0.0
  0
SPLINE
  5
DC
330
81
100
AcDbEntity
  8
0
  6
Continuous
 62
     8
370
     0
100
AcDbSpline
210
0.0
220
0.0
230
1.0
 70
     8
 71
     3
 72
     8
 73
     4
 74
     0
 42
0.000000001
 43
0.00000001
 40
18.0
 40
18.0
 40
18.0
 40
18.0
 40
19.0
 40
19.0
 40
19.0
 40
19.0
 10
152.7570126271244
 20
40.29730847487787
 30
0.0
 10
154.6566395308645
 20
39.74936567647406
 30
0.0
 10
155.8830943326989
 20
38.18925315678111
 30
0.0
 10
156.0567272597002
 20
36.23347115958625
 30
0.0
  0
SPLINE
  5
DD
330
81
100
AcDbEntity
  8
0
  6
Continuous
 62
     8
370
     0
100
AcDbSpline
210
0.0
220
0.0
230
1.0
 70
     8
 71
     3
 72
     8
 73
     4
 74
     0
 42
0.000000001
 43
0.00000001
 40
20.0
 40
20.0
 40
20.0
 40
20.0
 40
21.0
 40
21.0
 40
21.0
 40
21.0
 10
160.8609160831777
 20
36.23347115958625
 30
0.0
 10
160.9684031332261
 20
33.9727980108118
 30
0.0
 10
162.3736585086987
 20
33.24622689365768
 30
0.0
 10
164.507896569756
 20
33.24622689365768
 30
0.0
  0
SPLINE
  5
DE
330
81
100
AcDbEntity
  8
0
  6
Continuous
 62
     8
370
     0
100
AcDbSpline
210
0.0
220
0.0
230
1.0
 70
     8
 71
     3
 72
     8
 73
     4
 74
     0
 42
0.000000001
 43
0.00000001
 40
21.0
 40
21.0
 40
21.0
 40
21.0
 40
22.0
 40
22.0
 40
22.0
 40
22.0
 10
164.507896569756
 20
33.24622689365768
 30
0.0
 10
166.0209835050527
 20
33.24622689365768
 30
0.0
 10
167.5885029849253
 20
33.78504018300288
 30
0.0
 10
167.5885029849253
 20
35.21131065479903
 30
0.0
  0
SPLINE
  5
DF
330
81
100
AcDbEntity
  8
0
  6
Continuous
 62
     8
370
     0
100
AcDbSpline
210
0.0
220
0.0
230
1.0
 70
     8
 71
     3
 72
     8
 73
     4
 74
     0
 42
0.000000001
 43
0.00000001
 40
22.0
 40
22.0
 40
22.0
 40
22.0
 40
23.0
 40
23.0
 40
23.0
 40
23.0
 10
167.5885029849253
 20
35.21131065479903
 30
0.0
 10
167.5885029849253
 20
36.90629875171619
 30
0.0
 10
164.8331137981075
 20
37.22910441163718
 30
0.0
 10
162.0491302998987
 20
38.00941905381552
 30
0.0
  0
SPLINE
  5
E0
330
81
100
AcDbEntity
  8
0
  6
Continuous
 62
     8
370
     0
100
AcDbSpline
210
0.0
220
0.0
230
1.0
 70
     8
 71
     3
 72
     8
 73
     4
 74
     0
 42
0.000000001
 43
0.00000001
 40
23.0
 40
23.0
 40
23.0
 40
23.0
 40
24.0
 40
24.0
 40
24.0
 40
24.0
 10
162.0491302998987
 20
38.00941905381552
 30
0.0
 10
159.2930520935294
 20
38.78956144110593
 30
0.0
 10
156.4022705648237
 20
40.02772957531736
 30
0.0
 10
156.4022705648237
 20
43.55344262081537
 30
0.0
  0
SPLINE
  5
E1
330
81
100
AcDbEntity
  8
0
  6
Continuous
 62
     8
370
     0
100
AcDbSpline
210
0.0
220
0.0
230
1.0
 70
     8
 71
     3
 72
     8
 73
     4
 74
     0
 42
0.000000001
 43
0.00000001
 40
24.0
 40
24.0
 40
24.0
 40
24.0
 40
25.0
 40
25.0
 40
25.0
 40
25.0
 10
156.4022705648237
 20
43.55344262081537
 30
0.0
 10
156.4022705648237
 20
47.75129423889168
 30
0.0
 10
160.6449084537535
 20
49.39253881078461
 30
0.0
 10
164.2646726680438
 20
49.39253881078461
 30
0.0
  0
SPLINE
  5
E2
330
81
100
AcDbEntity
  8
0
  6
Continuous
 62
     8
370
     0
100
AcDbSpline
210
0.0
220
0.0
230
1.0
 70
     8
 71
     3
 72
     8
 73
     4
 74
     0
 42
0.000000001
 43
0.00000001
 40
25.0
 40
25.0
 40
25.0
 40
25.0
 40
26.0
 40
26.0
 40
26.0
 40
26.0
 10
164.2646726680438
 20
49.39253881078461
 30
0.0
 10
168.1018225508616
 20
49.39253881078461
 30
0.0
 10
171.9654996864157
 20
47.53614788390696
 30
0.0
 10
171.9930604684793
 20
43.20376519838225
 30
0.0
  0
SPLINE
  5
E3
330
81
100
AcDbEntity
  8
0
  6
Continuous
 62
     8
370
     0
100
AcDbSpline
210
0.0
220
0.0
230
1.0
 70
     8
 71
     3
 72
     8
 73
     4
 74
     0
 42
0.000000001
 43
0.00000001
 40
27.0
 40
27.0
 40
27.0
 40
27.0
 40
28.0
 40
28.0
 40
28.0
 40
28.0
 10
166.9673518591648
 20
43.20376519838225
 30
0.0
 10
167.0486561662527
 20
44.9523245654357
 30
0.0
 10
165.3998323792922
 20
45.51766510751722
 30
0.0
 10
163.8591846619318
 20
45.51766510751722
 30
0.0
  0
SPLINE
  5
E4
330
81
100
AcDbEntity
  8
0
  6
Continuous
 62
     8
370
     0
100
AcDbSpline
210
0.0
220
0.0
230
1.0
 70
     8
 71
     3
 72
     8
 73
     4
 74
     0
 42
0.000000001
 43
0.00000001
 40
28.0
 40
28.0
 40
28.0
 40
28.0
 40
29.0
 40
29.0
 40
29.0
 40
29.0
 10
163.8591846619318
 20
45.51766510751722
 30
0.0
 10
162.7794910245866
 20
45.51766510751722
 30
0.0
 10
161.4286681936898
 20
45.14094366768412
 30
0.0
 10
161.4286681936898
 20
43.87642053562427
 30
0.0
  0
SPLINE
  5
E5
330
81
100
AcDbEntity
  8
0
  6
Continuous
 62
     8
370
     0
100
AcDbSpline
210
0.0
220
0.0
230
1.0
 70
     8
 71
     3
 72
     8
 73
     4
 74
     0
 42
0.000000001
 43
0.00000001
 40
29.0
 40
29.0
 40
29.0
 40
29.0
 40
30.0
 40
30.0
 40
30.0
 40
30.0
 10
161.4286681936898
 20
43.87642053562427
 30
0.0
 10
161.4286681936898
 20
42.39606202902813
 30
0.0
 10
164.2102401234681
 20
42.12665538435552
 30
0.0
 10
167.021095384189
 20
41.34634074217721
 30
0.0
  0
SPLINE
  5
E6
330
81
100
AcDbEntity
  8
0
  6
Continuous
 62
     8
370
     0
100
AcDbSpline
210
0.0
220
0.0
230
1.0
 70
     8
 71
     3
 72
     8
 73
     4
 74
     0
 42
0.000000001
 43
0.00000001
 40
30.0
 40
30.0
 40
30.0
 40
30.0
 40
31.0
 40
31.0
 40
31.0
 40
31.0
 10
167.021095384189
 20
41.34634074217721
 30
0.0
 10
169.8047343726221
 20
40.56619835488677
 30
0.0
 10
172.6142115942398
 20
39.27428669565115
 30
0.0
 10
172.6142115942398
 20
35.80317844961686
 30
0.0
  0
SPLINE
  5
E7
330
81
100
AcDbEntity
  8
0
  6
Continuous
 62
     8
370
     0
100
AcDbSpline
210
0.0
220
0.0
230
1.0
 70
     8
 71
     3
 72
     8
 73
     4
 74
     0
 42
0.000000001
 43
0.00000001
 40
31.0
 40
31.0
 40
31.0
 40
31.0
 40
32.0
 40
32.0
 40
32.0
 40
32.0
 10
172.6142115942398
 20
35.80317844961686
 30
0.0
 10
172.6142115942398
 20
30.93249923941061
 30
0.0
 10
168.4532225221737
 20
29.12313389692912
 30
0.0
 10
164.2102401234681
 20
29.12313389692912
 30
0.0
  0
SPLINE
  5
E8
330
81
100
AcDbEntity
  8
0
  6
Continuous
 62
     8
370
     0
100
AcDbSpline
210
0.0
220
0.0
230
1.0
 70
     8
 71
     3
 72
     8
 73
     4
 74
     0
 42
0.000000001
 43
0.00000001
 40
0.0
 40
0.0
 40
0.0
 40
0.0
 40
1.0
 40
1.0
 40
1.0
 40
1.0
 10
160.6276829649637
 20
37.39343557469195
 30
0.0
 10
160.938086272956
 20
37.30765264051871
 30
0.0
 10
161.2550352666885
 20
37.2187691183633
 30
0.0
 10
161.5726732799726
 20
37.12781853755313
 30
0.0
  0
SPLINE
  5
E9
330
81
100
AcDbEntity
  8
0
  6
Continuous
 62
     8
370
     0
100
AcDbSpline
210
0.0
220
0.0
230
1.0
 70
     8
 71
     3
 72
     8
 73
     4
 74
     0
 42
0.000000001
 43
0.00000001
 40
3.00211844657731
 40
3.00211844657731
 40
3.00211844657731
 40
3.00211844657731
 40
4.0
 40
4.0
 40
4.0
 40
4.0
 10
66.52024188954972
 20
39.12608937915723
 30
0.0
 10
66.52360869616864
 20
45.27412322811475
 30
0.0
 10
70.30988649618203
 20
50.17609584429974
 30
0.0
 10
77.02507716926495
 20
50.1899542846939
 30
0.0
  0
SPLINE
  5
EA
330
81
100
AcDbEntity
  8
0
  6
Continuous
 62
     8
370
     0
100
AcDbSpline
210
0.0
220
0.0
230
1.0
 70
     8
 71
     3
 72
     8
 73
     4
 74
     0
 42
0.000000001
 43
0.00000001
 40
3.0
 40
3.0
 40
3.0
 40
3.0
 40
4.0
 40
4.0
 40
4.0
 40
4.0
 10
161.7042760143268
 20
37.08957795243973
 30
0.0
 10
164.0696801349432
 20
36.40710408658753
 30
0.0
 10
166.4492091563673
 20
35.59543905481176
 30
0.0
 10
166.3251856370807
 20
35.10003399721688
 30
0.0
  0
SPLINE
  5
EB
330
81
100
AcDbEntity
  8
0
  6
Continuous
 62
     8
370
     0
100
AcDbSpline
210
0.0
220
0.0
230
1.0
 70
     8
 71
     3
 72
     8
 73
     4
 74
     0
 42
0.000000001
 43
0.00000001
 40
4.0
 40
4.0
 40
4.0
 40
4.0
 40
5.0
 40
5.0
 40
5.0
 40
5.0
 10
166.3251856370807
 20
35.10003399721688
 30
0.0
 10
166.0898854602119
 20
34.15642172131117
 30
0.0
 10
165.4012104183954
 20
33.89493880148186
 30
0.0
 10
163.6080370353763
 20
34.38448719288822
 30
0.0
  0
SPLINE
  5
EC
330
81
100
AcDbEntity
  8
0
  6
Continuous
 62
     8
370
     0
100
AcDbSpline
210
0.0
220
0.0
230
1.0
 70
     8
 71
     3
 72
     8
 73
     4
 74
     0
 42
0.000000001
 43
0.00000001
 40
5.0
 40
5.0
 40
5.0
 40
5.0
 40
6.0
 40
6.0
 40
6.0
 40
6.0
 10
163.6080370353763
 20
34.38448719288822
 30
0.0
 10
161.7283916986325
 20
34.89884028815191
 30
0.0
 10
161.7046205241026
 20
35.93478118397098
 30
0.0
 10
161.7042760143268
 20
37.08957795243973
 30
0.0
  0
SPLINE
  5
ED
330
81
100
AcDbEntity
  8
0
  6
Continuous
 62
     8
370
     0
100
AcDbSpline
210
0.0
220
0.0
230
1.0
 70
     8
 71
     3
 72
     8
 73
     4
 74
     0
 42
0.000000001
 43
0.00000001
 40
8.0
 40
8.0
 40
8.0
 40
8.0
 40
9.0
 40
9.0
 40
9.0
 40
9.0
 10
156.7116403434886
 20
37.12781853755313
 30
0.0
 10
156.7116403434886
 20
38.5878509673773
 30
0.0
 10
155.4507345640747
 20
39.84892900167915
 30
0.0
 10
154.6542279624339
 20
40.37981856618105
 30
0.0
  0
SPLINE
  5
EE
330
81
100
AcDbEntity
  8
0
  6
Continuous
 62
     8
370
     0
100
AcDbSpline
210
0.0
220
0.0
230
1.0
 70
     8
 71
     3
 72
     8
 73
     4
 74
     0
 42
0.000000001
 43
0.00000001
 40
9.0
 40
9.0
 40
9.0
 40
9.0
 40
10.0
 40
10.0
 40
10.0
 40
10.0
 10
154.6542279624339
 20
40.37981856618105
 30
0.0
 10
155.0517922437027
 20
40.8442177439543
 30
0.0
 10
155.649516704709
 20
41.30913368639121
 30
0.0
 10
155.8493323746708
 20
42.10546803314405
 30
0.0
  0
SPLINE
  5
EF
330
81
100
AcDbEntity
  8
0
  6
Continuous
 62
     8
370
     0
100
AcDbSpline
210
0.0
220
0.0
230
1.0
 70
     8
 71
     3
 72
     8
 73
     4
 74
     0
 42
0.000000001
 43
0.00000001
 40
10.0
 40
10.0
 40
10.0
 40
10.0
 40
11.0
 40
11.0
 40
11.0
 40
11.0
 10
155.8493323746708
 20
42.10546803314405
 30
0.0
 10
155.8493323746708
 20
39.84892900167915
 30
0.0
 10
157.9732351424542
 20
38.12293502494035
 30
0.0
 10
160.6276829649637
 20
37.39343557469195
 30
0.0
  0
SPLINE
  5
F0
330
81
100
AcDbEntity
  8
0
  6
Continuous
 62
     8
370
     0
100
AcDbSpline
210
0.0
220
0.0
230
1.0
 70
     8
 71
     3
 72
     8
 73
     4
 74
     0
 42
0.000000001
 43
0.00000001
 40
0.0
 40
0.0
 40
0.0
 40
0.0
 40
1.0
 40
1.0
 40
1.0
 40
1.0
 10
167.3357547617924
 20
42.17058038076954
 30
0.0
 10
167.2847673149745
 20
42.18401626202559
 30
0.0
 10
167.2406700636727
 20
42.19590184929056
 30
0.0
 10
167.189338107079
 20
42.2088209658829
 30
0.0
  0
SPLINE
  5
F1
330
81
100
AcDbEntity
  8
0
  6
Continuous
 62
     8
370
     0
100
AcDbSpline
210
0.0
220
0.0
230
1.0
 70
     8
 71
     3
 72
     8
 73
     4
 74
     0
 42
0.000000001
 43
0.00000001
 40
2.0
 40
2.0
 40
2.0
 40
2.0
 40
3.0
 40
3.0
 40
3.0
 40
3.0
 10
173.0691700759391
 20
42.16747979278733
 30
0.0
 10
173.0691700759391
 20
45.27185738248661
 30
0.0
 10
172.4597322825556
 20
50.25002364274127
 30
0.0
 10
164.1870190363622
 20
50.25002364274127
 30
0.0
  0
SPLINE
  5
F2
330
81
100
AcDbEntity
  8
0
  6
Continuous
 62
     8
370
     0
100
AcDbSpline
210
0.0
220
0.0
230
1.0
 70
     8
 71
     3
 72
     8
 73
     4
 74
     0
 42
0.000000001
 43
0.00000001
 40
3.0
 40
3.0
 40
3.0
 40
3.0
 40
4.0
 40
4.0
 40
4.0
 40
4.0
 10
164.1870190363622
 20
50.25002364274127
 30
0.0
 10
159.3649157045433
 20
50.25002364274127
 30
0.0
 10
156.9760849191726
 20
47.90081148158718
 30
0.0
 10
156.0162806838046
 20
46.1898036800955
 30
0.0
  0
SPLINE
  5
F3
330
81
100
AcDbEntity
  8
0
  6
Continuous
 62
     8
370
     0
100
AcDbSpline
210
0.0
220
0.0
230
1.0
 70
     8
 71
     3
 72
     8
 73
     4
 74
     0
 42
0.000000001
 43
0.00000001
 40
4.0
 40
4.0
 40
4.0
 40
4.0
 40
5.0
 40
5.0
 40
5.0
 40
5.0
 10
156.0162806838046
 20
46.1898036800955
 30
0.0
 10
155.1174546787523
 20
47.90081148158718
 30
0.0
 10
154.5865651142504
 20
50.04710738479733
 30
0.0
 10
147.7273754781487
 20
50.04710738479733
 30
0.0
  0
SPLINE
  5
F4
330
81
100
AcDbEntity
  8
0
  6
Continuous
 62
     8
370
     0
100
AcDbSpline
210
0.0
220
0.0
230
1.0
 70
     8
 71
     3
 72
     8
 73
     4
 74
     0
 42
0.000000001
 43
0.00000001
 40
19.0
 40
19.0
 40
19.0
 40
19.0
 40
20.0
 40
20.0
 40
20.0
 40
20.0
 10
149.6765281642566
 20
28.76070961279156
 30
0.0
 10
152.520456363454
 20
28.8110080400578
 30
0.0
 10
155.173870656636
 20
30.15769675364504
 30
0.0
 10
155.9810570613264
 20
32.14345110133414
 30
0.0
  0
SPLINE
  5
F5
330
81
100
AcDbEntity
  8
0
  6
Continuous
 62
     8
370
     0
100
AcDbSpline
210
0.0
220
0.0
230
1.0
 70
     8
 71
     3
 72
     8
 73
     4
 74
     0
 42
0.000000001
 43
0.00000001
 40
20.0
 40
20.0
 40
20.0
 40
20.0
 40
21.0
 40
21.0
 40
21.0
 40
21.0
 10
155.9810570613264
 20
32.14345110133414
 30
0.0
 10
156.7465577831456
 20
30.15769675364504
 30
0.0
 10
159.417886584669
 20
28.16367417133681
 30
0.0
 10
164.5948349855581
 20
28.16367417133681
 30
0.0
  0
SPLINE
  5
F6
330
81
100
AcDbEntity
  8
0
  6
Continuous
 62
     8
370
     0
100
AcDbSpline
210
0.0
220
0.0
230
1.0
 70
     8
 71
     3
 72
     8
 73
     4
 74
     0
 42
0.000000001
 43
0.00000001
 40
21.0
 40
21.0
 40
21.0
 40
21.0
 40
22.0
 40
22.0
 40
22.0
 40
22.0
 10
164.5948349855581
 20
28.16367417133681
 30
0.0
 10
169.7717833864471
 20
28.16367417133681
 30
0.0
 10
173.6165124843323
 20
31.30629234614945
 30
0.0
 10
173.6165124843323
 20
35.44798887077101
 30
0.0
  0
SPLINE
  5
F7
330
81
100
AcDbEntity
  8
0
  6
Continuous
 62
     8
370
     0
100
AcDbSpline
210
0.0
220
0.0
230
1.0
 70
     8
 71
     3
 72
     8
 73
     4
 74
     0
 42
0.000000001
 43
0.00000001
 40
22.0
 40
22.0
 40
22.0
 40
22.0
 40
23.0
 40
23.0
 40
23.0
 40
23.0
 10
173.6165124843323
 20
35.44798887077101
 30
0.0
 10
173.6165124843323
 20
39.66030989943075
 30
0.0
 10
171.193575231158
 20
41.15548232638614
 30
0.0
 10
167.3357547617924
 20
42.17058038076954
 30
0.0
  0
SPLINE
  5
F8
330
81
100
AcDbEntity
  8
0
  6
Continuous
 62
     8
370
     0
100
AcDbSpline
210
0.0
220
0.0
230
1.0
 70
     8
 71
     3
 72
     8
 73
     4
 74
     0
 42
0.000000001
 43
0.00000001
 40
0.0
 40
0.0
 40
0.0
 40
0.0
 40
1.0
 40
1.0
 40
1.0
 40
1.0
 10
77.03221361313545
 20
33.05571298764242
 30
0.0
 10
80.63526910329966
 20
33.05571298764242
 30
0.0
 10
82.01537526513914
 20
36.22554743474296
 30
0.0
 10
82.01537526513914
 20
39.394520607404
 30
0.0
  0
SPLINE
  5
F9
330
81
100
AcDbEntity
  8
0
  6
Continuous
 62
     8
370
     0
100
AcDbSpline
210
0.0
220
0.0
230
1.0
 70
     8
 71
     3
 72
     8
 73
     4
 74
     0
 42
0.000000001
 43
0.00000001
 40
1.0
 40
1.0
 40
1.0
 40
1.0
 40
2.0
 40
2.0
 40
2.0
 40
2.0
 10
82.01537526513914
 20
39.394520607404
 30
0.0
 10
82.01537526513914
 20
42.56383828984087
 30
0.0
 10
80.63526910329966
 20
45.73315597227772
 30
0.0
 10
77.03221361313545
 20
45.73315597227772
 30
0.0
  0
SPLINE
  5
FA
330
81
100
AcDbEntity
  8
0
  6
Continuous
 62
     8
370
     0
100
AcDbSpline
210
0.0
220
0.0
230
1.0
 70
     8
 71
     3
 72
     8
 73
     4
 74
     0
 42
0.000000001
 43
0.00000001
 40
2.0
 40
2.0
 40
2.0
 40
2.0
 40
3.0
 40
3.0
 40
3.0
 40
3.0
 10
77.03221361313545
 20
45.73315597227772
 30
0.0
 10
73.42950263274702
 20
45.73315597227772
 30
0.0
 10
72.04887970624388
 20
42.56383828984087
 30
0.0
 10
72.04887970624385
 20
39.394520607404
 30
0.0
  0
SPLINE
  5
FB
330
81
100
AcDbEntity
  8
0
  6
Continuous
 62
     8
370
     0
100
AcDbSpline
210
0.0
220
0.0
230
1.0
 70
     8
 71
     3
 72
     8
 73
     4
 74
     0
 42
0.000000001
 43
0.00000001
 40
3.0
 40
3.0
 40
3.0
 40
3.0
 40
4.0
 40
4.0
 40
4.0
 40
4.0
 10
72.04887970624385
 20
39.394520607404
 30
0.0
 10
72.04887970624388
 20
36.22554743474296
 30
0.0
 10
73.42950263274702
 20
33.05571298764242
 30
0.0
 10
77.03221361313545
 20
33.05571298764242
 30
0.0
  0
SPLINE
  5
FC
330
81
100
AcDbEntity
  8
0
  6
Continuous
 62
     8
370
     0
100
AcDbSpline
210
0.0
220
0.0
230
1.0
 70
     8
 71
     3
 72
    11
 73
     7
 74
     0
 42
0.000000001
 43
0.00000001
 40
2.0
 40
2.0
 40
2.0
 40
2.0
 40
3.0
 40
3.0
 40
3.0
 40
3.00211844657731
 40
3.00211844657731
 40
3.00211844657731
 40
3.00211844657731
 10
77.06659554923958
 20
27.94516906200683
 30
0.0
 10
70.31214814569965
 20
27.95750275571358
 30
0.0
 10
66.50881771248031
 20
32.89783589216447
 30
0.0
 10
66.52011877545024
 20
39.08677144153199
 30
0.0
 10
66.52014271748132
 20
39.09988310068809
 30
0.0
 10
66.5201837582936
 20
39.11298909154457
 30
0.0
 10
66.52024188954972
 20
39.12608937915723
 30
0.0
  0
SPLINE
  5
FD
330
81
100
AcDbEntity
  8
0
  6
Continuous
 62
     8
370
     0
100
AcDbSpline
210
0.0
220
0.0
230
1.0
 70
     8
 71
     3
 72
    11
 73
     7
 74
     0
 42
0.000000001
 43
0.00000001
 40
0.0
 40
0.0
 40
0.0
 40
0.0
 40
1.0
 40
1.0
 40
1.0
 40
2.0
 40
2.0
 40
2.0
 40
2.0
 10
77.02507716926495
 20
50.1899542846939
 30
0.0
 10
83.78004083250916
 20
50.2025619653381
 30
0.0
 10
87.60141459757921
 20
45.2764779726998
 30
0.0
 10
87.61296646735416
 20
39.08719837601426
 30
0.0
 10
87.6245176941261
 20
32.89826328850453
 30
0.0
 10
83.82155921248359
 20
27.95777674265099
 30
0.0
 10
77.06659554923958
 20
27.94516906200683
 30
0.0
  0
SPLINE
  5
FE
330
81
100
AcDbEntity
  8
0
  6
Continuous
 62
     8
370
     0
100
AcDbSpline
210
0.0
220
0.0
230
1.0
 70
     8
 71
     3
 72
     8
 73
     4
 74
     0
 42
0.000000001
 43
0.00000001
 40
1.0
 40
1.0
 40
1.0
 40
1.0
 40
2.0
 40
2.0
 40
2.0
 40
2.0
 10
97.89159151804188
 20
40.80029274754029
 30
0.0
 10
99.57279922392719
 20
40.80029274754029
 30
0.0
 10
100.4730032680826
 20
41.69670718416189
 30
0.0
 10
100.4730032680826
 20
43.31125224843066
 30
0.0
  0
SPLINE
  5
FF
330
81
100
AcDbEntity
  8
0
  6
Continuous
 62
     8
370
     0
100
AcDbSpline
210
0.0
220
0.0
230
1.0
 70
     8
 71
     3
 72
     8
 73
     4
 74
     0
 42
0.000000001
 43
0.00000001
 40
2.0
 40
2.0
 40
2.0
 40
2.0
 40
3.0
 40
3.0
 40
3.0
 40
3.0
 10
100.4730032680826
 20
43.31125224843066
 30
0.0
 10
100.4730032680826
 20
44.89565270731723
 30
0.0
 10
99.21295876310808
 20
45.61378333496433
 30
0.0
 10
97.65146820431197
 20
45.61378333496433
 30
0.0
  0
SPLINE
  5
100
330
81
100
AcDbEntity
  8
0
  6
Continuous
 62
     8
370
     0
100
AcDbSpline
210
0.0
220
0.0
230
1.0
 70
     8
 71
     3
 72
     8
 73
     4
 74
     0
 42
0.000000001
 43
0.00000001
 40
1.0
 40
1.0
 40
1.0
 40
1.0
 40
2.0
 40
2.0
 40
2.0
 40
2.0
 10
98.55218900458812
 20
50.04710738479733
 30
0.0
 10
102.3342173232785
 20
50.04710738479733
 30
0.0
 10
106.0573344703076
 20
48.34264526904578
 30
0.0
 10
106.0573344703077
 20
44.03765111069685
 30
0.0
  0
SPLINE
  5
101
330
81
100
AcDbEntity
  8
0
  6
Continuous
 62
     8
370
     0
100
AcDbSpline
210
0.0
220
0.0
230
1.0
 70
     8
 71
     3
 72
     8
 73
     4
 74
     0
 42
0.000000001
 43
0.00000001
 40
2.0
 40
2.0
 40
2.0
 40
2.0
 40
3.0
 40
3.0
 40
3.0
 40
3.0
 10
106.0573344703077
 20
44.03765111069685
 30
0.0
 10
106.0573344703076
 20
41.73494776927527
 30
0.0
 10
104.9459459335892
 20
39.55265059449444
 30
0.0
 10
102.6945745487612
 20
38.68569174370337
 30
0.0
  0
SPLINE
  5
102
330
81
100
AcDbEntity
  8
0
  6
Continuous
 62
     8
370
     0
100
AcDbSpline
210
0.0
220
0.0
230
1.0
 70
     8
 71
     3
 72
     8
 73
     4
 74
     0
 42
0.000000001
 43
0.00000001
 40
4.0
 40
4.0
 40
4.0
 40
4.0
 40
5.0
 40
5.0
 40
5.0
 40
5.0
 10
102.6945745487612
 20
38.62574704271483
 30
0.0
 10
104.9766073036351
 20
38.08727826314542
 30
0.0
 10
105.6373770536121
 20
35.54548513732129
 30
0.0
 10
105.8175556663535
 20
33.5125329503481
 30
0.0
  0
SPLINE
  5
103
330
81
100
AcDbEntity
  8
0
  6
Continuous
 62
     8
370
     0
100
AcDbSpline
210
0.0
220
0.0
230
1.0
 70
     8
 71
     3
 72
     8
 73
     4
 74
     0
 42
0.000000001
 43
0.00000001
 40
5.0
 40
5.0
 40
5.0
 40
5.0
 40
5.74044267676188
 40
5.74044267676188
 40
5.74044267676188
 40
5.74044267676188
 10
105.8175556663535
 20
33.5125329503481
 30
0.0
 10
105.8808091746534
 20
32.85009942065996
 30
0.0
 10
105.9969739034398
 20
30.95908278298207
 30
0.0
 10
106.3668527512702
 20
29.71530239194635
 30
0.0
  0
SPLINE
  5
104
330
81
100
AcDbEntity
  8
0
  6
Continuous
 62
     8
370
     0
100
AcDbSpline
210
0.0
220
0.0
230
1.0
 70
     8
 71
     3
 72
     8
 73
     4
 74
     0
 42
0.000000001
 43
0.00000001
 40
7.0
 40
7.0
 40
7.0
 40
7.0
 40
8.0
 40
8.0
 40
8.0
 40
8.0
 10
101.1935454556174
 20
28.69835334337245
 30
0.0
 10
100.7139878477091
 20
29.41665622590745
 30
0.0
 10
100.6237262864505
 20
31.50920860409338
 30
0.0
 10
100.5634370756861
 20
32.10693306509975
 30
0.0
  0
SPLINE
  5
105
330
81
100
AcDbEntity
  8
0
  6
Continuous
 62
     8
370
     0
100
AcDbSpline
210
0.0
220
0.0
230
1.0
 70
     8
 71
     3
 72
     8
 73
     4
 74
     0
 42
0.000000001
 43
0.00000001
 40
8.0
 40
8.0
 40
8.0
 40
8.0
 40
9.0
 40
9.0
 40
9.0
 40
9.0
 10
100.5634370756861
 20
32.10693306509975
 30
0.0
 10
100.4134030683269
 20
34.26046367360161
 30
0.0
 10
100.0533903526199
 20
36.4729054537646
 30
0.0
 10
97.44200625208497
 20
36.4729054537646
 30
0.0
  0
SPLINE
  5
106
330
81
100
AcDbEntity
  8
0
  6
Continuous
 62
     8
370
     0
100
AcDbSpline
210
0.0
220
0.0
230
1.0
 70
     8
 71
     3
 72
     8
 73
     4
 74
     0
 42
0.000000001
 43
0.00000001
 40
1.0
 40
1.0
 40
1.0
 40
1.0
 40
2.0
 40
2.0
 40
2.0
 40
2.0
 10
148.3552112217768
 20
45.35557325800512
 30
0.0
 10
149.5682301423551
 20
45.35557325800512
 30
0.0
 10
150.7168257348595
 20
44.77576330534016
 30
0.0
 10
150.7168257348595
 20
43.00515531263576
 30
0.0
  0
SPLINE
  5
107
330
81
100
AcDbEntity
  8
0
  6
Continuous
 62
     8
370
     0
100
AcDbSpline
210
0.0
220
0.0
230
1.0
 70
     8
 71
     3
 72
     8
 73
     4
 74
     0
 42
0.000000001
 43
0.00000001
 40
2.0
 40
2.0
 40
2.0
 40
2.0
 40
3.0
 40
3.0
 40
3.0
 40
3.0
 10
150.7168257348595
 20
43.00515531263576
 30
0.0
 10
150.7168257348595
 20
41.26865378773517
 30
0.0
 10
149.3504999640519
 20
40.68918834484602
 30
0.0
 10
148.3552112217768
 20
40.68918834484602
 30
0.0
  0
SPLINE
  5
108
330
81
100
AcDbEntity
  8
0
  6
Continuous
 62
     8
370
     0
100
AcDbSpline
210
0.0
220
0.0
230
1.0
 70
     8
 71
     3
 72
     8
 73
     4
 74
     0
 42
0.000000001
 43
0.00000001
 40
2.0
 40
2.0
 40
2.0
 40
2.0
 40
3.0
 40
3.0
 40
3.0
 40
3.0
 10
147.9838296834685
 20
41.63848503205236
 30
0.0
 10
148.6783613914736
 20
41.63848503205236
 30
0.0
 10
149.6316199411016
 20
41.97300402435042
 30
0.0
 10
149.6316199411016
 20
42.9753552170294
 30
0.0
  0
SPLINE
  5
109
330
81
100
AcDbEntity
  8
0
  6
Continuous
 62
     8
370
     0
100
AcDbSpline
210
0.0
220
0.0
230
1.0
 70
     8
 71
     3
 72
     8
 73
     4
 74
     0
 42
0.000000001
 43
0.00000001
 40
3.0
 40
3.0
 40
3.0
 40
3.0
 40
4.0
 40
4.0
 40
4.0
 40
4.0
 10
149.6316199411016
 20
42.9753552170294
 30
0.0
 10
149.6316199411016
 20
43.99734346692872
 30
0.0
 10
148.8296011830481
 20
44.33186245922681
 30
0.0
 10
147.9838296834685
 20
44.33186245922681
 30
0.0
  0
SPLINE
  5
10A
330
81
100
AcDbEntity
  8
0
  6
Continuous
 62
     8
370
     0
100
AcDbSpline
210
0.0
220
0.0
230
1.0
 70
     8
 71
     3
 72
     8
 73
     4
 74
     0
 42
0.000000001
 43
0.00000001
 40
1.0
 40
1.0
 40
1.0
 40
1.0
 40
2.0
 40
2.0
 40
2.0
 40
2.0
 10
148.8506162793717
 20
38.45762627212632
 30
0.0
 10
150.1973049929589
 20
38.45762627212632
 30
0.0
 10
151.4726801829563
 20
37.78979407174546
 30
0.0
 10
151.4726801829563
 20
35.74943492459264
 30
0.0
  0
SPLINE
  5
10B
330
81
100
AcDbEntity
  8
0
  6
Continuous
 62
     8
370
     0
100
AcDbSpline
210
0.0
220
0.0
230
1.0
 70
     8
 71
     3
 72
     8
 73
     4
 74
     0
 42
0.000000001
 43
0.00000001
 40
2.0
 40
2.0
 40
2.0
 40
2.0
 40
3.0
 40
3.0
 40
3.0
 40
3.0
 10
151.4726801829563
 20
35.74943492459264
 30
0.0
 10
151.4726801829563
 20
33.74748861744111
 30
0.0
 10
149.9558036401258
 20
33.07982867194814
 30
0.0
 10
148.8506162793717
 20
33.07982867194814
 30
0.0
  0
SPLINE
  5
10C
330
81
100
AcDbEntity
  8
0
  6
Continuous
 62
     8
370
     0
100
AcDbSpline
210
0.0
220
0.0
230
1.0
 70
     8
 71
     3
 72
     8
 73
     4
 74
     0
 42
0.000000001
 43
0.00000001
 40
2.0
 40
2.0
 40
2.0
 40
2.0
 40
3.0
 40
3.0
 40
3.0
 40
3.0
 10
148.5660512045641
 20
33.99588016579015
 30
0.0
 10
149.395975254457
 20
33.99588016579015
 30
0.0
 10
150.5349245732392
 20
34.42513934643217
 30
0.0
 10
150.5349245732392
 20
35.71326139813404
 30
0.0
  0
SPLINE
  5
10D
330
81
100
AcDbEntity
  8
0
  6
Continuous
 62
     8
370
     0
100
AcDbSpline
210
0.0
220
0.0
230
1.0
 70
     8
 71
     3
 72
     8
 73
     4
 74
     0
 42
0.000000001
 43
0.00000001
 40
3.0
 40
3.0
 40
3.0
 40
3.0
 40
4.0
 40
4.0
 40
4.0
 40
4.0
 10
150.5349245732392
 20
35.71326139813404
 30
0.0
 10
150.5349245732392
 20
37.02618815369325
 30
0.0
 10
149.5771873965258
 20
37.45613635388687
 30
0.0
 10
148.5660512045641
 20
37.45613635388687
 30
0.0
  0
HATCH
  5
10E
330
81
100
AcDbEntity
  8
0
  6
Continuous
 62
     7
100
AcDbHatch
 10
0.0
 20
0.0
 30
0.0
210
0.0
220
0.0
230
1.0
  2
SOLID
 70
     1
 71
     0
 91
        1
 92
        0
 93
       18
 72
     1
 10
53.55697298060871
 20
28.69835334337245
 11
47.97367529916809
 21
28.69835334337245
 72
     1
 10
47.97367529916809
 20
28.69835334337245
 11
47.97367529916809
 21
45.26307238320382
 72
     1
 10
47.97367529916809
 20
45.26307238320382
 11
42.18126018381921
 21
45.26307238320382
 72
     1
 10
42.18126018381921
 20
45.26307238320382
 11
42.18126018381921
 21
28.69835334337245
 72
     1
 10
42.18126018381921
 20
28.69835334337245
 11
36.59744573771491
 21
28.69835334337245
 72
     1
 10
36.59744573771491
 20
28.69835334337245
 11
36.59744573771491
 21
45.26307238320382
 72
     1
 10
36.59744573771491
 20
45.26307238320382
 11
30.20299978916224
 21
45.26307238320382
 72
     1
 10
30.20299978916224
 20
45.26307238320382
 11
30.20299978916224
 21
50.04710738479733
 72
     1
 10
30.20299978916224
 20
50.04710738479733
 11
53.55697298060871
 21
50.04710738479733
 72
     1
 10
53.55697298060871
 20
50.04710738479733
 11
53.55697298060871
 21
42.272899784181
 72
     1
 10
53.55697298060871
 20
42.272899784181
 11
60.91242894874484
 21
42.272899784181
 72
     1
 10
60.91242894874484
 20
42.272899784181
 11
60.91242894874484
 21
50.04710738479733
 72
     1
 10
60.91242894874484
 20
50.04710738479733
 11
66.496415649737
 21
50.04710738479733
 72
     1
 10
66.496415649737
 20
50.04710738479733
 11
66.496415649737
 21
28.69835334337245
 72
     1
 10
66.496415649737
 20
28.69835334337245
 11
60.91242894874484
 21
28.69835334337245
 72
     1
 10
60.91242894874484
 20
28.69835334337245
 11
60.91242894874484
 21
37.48955380213908
 72
     1
 10
60.91242894874484
 20
37.48955380213908
 11
53.55697298060871
 21
37.48955380213908
 72
     1
 10
53.55697298060871
 20
37.48955380213908
 11
53.55697298060871
 21
28.69835334337245
 97
        0
 75
     0
 76
     1
 98
        1
 10
0.0
 20
0.0
  0
HATCH
  5
10F
330
81
100
AcDbEntity
  8
0
  6
Continuous
 62
     7
100
AcDbHatch
 10
0.0
 20
0.0
 30
0.0
210
0.0
220
0.0
230
1.0
  2
SOLID
 70
     1
 71
     0
 91
        2
 92
        0
 93
        3
 72
     4
 94
        3
 73
     1
 74
     0
 95
       11
 96
        7
 40
0.0
 40
0.0
 40
0.0
 40
0.0
 40
1.0
 40
1.0
 40
1.0
 40
2.0
 40
2.0
 40
2.0
 40
2.0
 10
77.02507716926495
 20
50.1899542846939
 42
1.0
 10
83.78004083250916
 20
50.2025619653381
 42
1.0
 10
87.60141459757921
 20
45.2764779726998
 42
1.0
 10
87.61296646735416
 20
39.08719837601426
 42
1.0
 10
87.6245176941261
 20
32.89826328850453
 42
1.0
 10
83.82155921248359
 20
27.95777674265099
 42
1.0
 10
77.06659554923958
 20
27.94516906200683
 42
1.0
 72
     4
 94
        3
 73
     1
 74
     0
 95
       11
 96
        7
 40
2.0
 40
2.0
 40
2.0
 40
2.0
 40
3.0
 40
3.0
 40
3.0
 40
3.00211844657731
 40
3.00211844657731
 40
3.00211844657731
 40
3.00211844657731
 10
77.06659554923958
 20
27.94516906200683
 42
1.0
 10
70.31214814569965
 20
27.95750275571358
 42
1.0
 10
66.50881771248031
 20
32.89783589216447
 42
1.0
 10
66.52011877545024
 20
39.08677144153199
 42
1.0
 10
66.52014271748132
 20
39.09988310068809
 42
1.0
 10
66.5201837582936
 20
39.11298909154457
 42
1.0
 10
66.52024188954972
 20
39.12608937915723
 42
1.0
 72
     4
 94
        3
 73
     1
 74
     0
 95
        8
 96
        4
 40
3.00211844657731
 40
3.00211844657731
 40
3.00211844657731
 40
3.00211844657731
 40
4.0
 40
4.0
 40
4.0
 40
4.0
 10
66.52024188954972
 20
39.12608937915723
 42
1.0
 10
66.52360869616864
 20
45.27412322811475
 42
1.0
 10
70.30988649618203
 20
50.17609584429974
 42
1.0
 10
77.02507716926495
 20
50.1899542846939
 42
1.0
 97
        0
 92
        0
 93
        4
 72
     4
 94
        3
 73
     1
 74
     0
 95
        8
 96
        4
 40
2.0
 40
2.0
 40
2.0
 40
2.0
 40
3.0
 40
3.0
 40
3.0
 40
3.0
 10
77.03221361313545
 20
45.73315597227772
 42
1.0
 10
73.42950263274702
 20
45.73315597227772
 42
1.0
 10
72.04887970624388
 20
42.56383828984087
 42
1.0
 10
72.04887970624385
 20
39.394520607404
 42
1.0
 72
     4
 94
        3
 73
     1
 74
     0
 95
        8
 96
        4
 40
3.0
 40
3.0
 40
3.0
 40
3.0
 40
4.0
 40
4.0
 40
4.0
 40
4.0
 10
72.04887970624385
 20
39.394520607404
 42
1.0
 10
72.04887970624388
 20
36.22554743474296
 42
1.0
 10
73.42950263274702
 20
33.05571298764242
 42
1.0
 10
77.03221361313545
 20
33.05571298764242
 42
1.0
 72
     4
 94
        3
 73
     1
 74
     0
 95
        8
 96
        4
 40
0.0
 40
0.0
 40
0.0
 40
0.0
 40
1.0
 40
1.0
 40
1.0
 40
1.0
 10
77.03221361313545
 20
33.05571298764242
 42
1.0
 10
80.63526910329966
 20
33.05571298764242
 42
1.0
 10
82.01537526513914
 20
36.22554743474296
 42
1.0
 10
82.01537526513914
 20
39.394520607404
 42
1.0
 72
     4
 94
        3
 73
     1
 74
     0
 95
        8
 96
        4
 40
1.0
 40
1.0
 40
1.0
 40
1.0
 40
2.0
 40
2.0
 40
2.0
 40
2.0
 10
82.01537526513914
 20
39.394520607404
 42
1.0
 10
82.01537526513914
 20
42.56383828984087
 42
1.0
 10
80.63526910329966
 20
45.73315597227772
 42
1.0
 10
77.03221361313545
 20
45.73315597227772
 42
1.0
 97
        0
 75
     0
 76
     1
 98
        1
 10
0.0
 20
0.0
  0
HATCH
  5
110
330
81
100
AcDbEntity
  8
0
  6
Continuous
 62
     7
100
AcDbHatch
 10
0.0
 20
0.0
 30
0.0
210
0.0
220
0.0
230
1.0
  2
SOLID
 70
     1
 71
     0
 91
        2
 92
        0
 93
       14
 72
     1
 10
106.3668527512702
 20
29.71530239194635
 11
106.3668527512702
 21
28.69835334337245
 72
     1
 10
106.3668527512702
 20
28.69835334337245
 11
101.1935454556174
 21
28.69835334337245
 72
     4
 94
        3
 73
     1
 74
     0
 95
        8
 96
        4
 40
7.0
 40
7.0
 40
7.0
 40
7.0
 40
8.0
 40
8.0
 40
8.0
 40
8.0
 10
101.1935454556174
 20
28.69835334337245
 42
1.0
 10
100.7139878477091
 20
29.41665622590745
 42
1.0
 10
100.6237262864505
 20
31.50920860409338
 42
1.0
 10
100.5634370756861
 20
32.10693306509975
 42
1.0
 72
     4
 94
        3
 73
     1
 74
     0
 95
        8
 96
        4
 40
8.0
 40
8.0
 40
8.0
 40
8.0
 40
9.0
 40
9.0
 40
9.0
 40
9.0
 10
100.5634370756861
 20
32.10693306509975
 42
1.0
 10
100.4134030683269
 20
34.26046367360161
 42
1.0
 10
100.0533903526199
 20
36.4729054537646
 42
1.0
 10
97.44200625208497
 20
36.4729054537646
 42
1.0
 72
     1
 10
97.44200625208497
 20
36.4729054537646
 11
93.20832561732585
 21
36.4729054537646
 72
     1
 10
93.20832561732585
 20
36.4729054537646
 11
93.20832561732585
 21
28.69835334337245
 72
     1
 10
93.20832561732585
 20
28.69835334337245
 11
87.62433891633366
 21
28.69835334337245
 72
     1
 10
87.62433891633366
 20
28.69835334337245
 11
87.62433891633366
 21
50.04710738479733
 72
     1
 10
87.62433891633366
 20
50.04710738479733
 11
98.55218900458812
 21
50.04710738479733
 72
     4
 94
        3
 73
     1
 74
     0
 95
        8
 96
        4
 40
1.0
 40
1.0
 40
1.0
 40
1.0
 40
2.0
 40
2.0
 40
2.0
 40
2.0
 10
98.55218900458812
 20
50.04710738479733
 42
1.0
 10
102.3342173232785
 20
50.04710738479733
 42
1.0
 10
106.0573344703076
 20
48.34264526904578
 42
1.0
 10
106.0573344703077
 20
44.03765111069685
 42
1.0
 72
     4
 94
        3
 73
     1
 74
     0
 95
        8
 96
        4
 40
2.0
 40
2.0
 40
2.0
 40
2.0
 40
3.0
 40
3.0
 40
3.0
 40
3.0
 10
106.0573344703077
 20
44.03765111069685
 42
1.0
 10
106.0573344703076
 20
41.73494776927527
 42
1.0
 10
104.9459459335892
 20
39.55265059449444
 42
1.0
 10
102.6945745487612
 20
38.68569174370337
 42
1.0
 72
     1
 10
102.6945745487612
 20
38.68569174370337
 11
102.6945745487612
 21
38.62574704271483
 72
     4
 94
        3
 73
     1
 74
     0
 95
        8
 96
        4
 40
4.0
 40
4.0
 40
4.0
 40
4.0
 40
5.0
 40
5.0
 40
5.0
 40
5.0
 10
102.6945745487612
 20
38.62574704271483
 42
1.0
 10
104.9766073036351
 20
38.08727826314542
 42
1.0
 10
105.6373770536121
 20
35.54548513732129
 42
1.0
 10
105.8175556663535
 20
33.5125329503481
 42
1.0
 72
     4
 94
        3
 73
     1
 74
     0
 95
        8
 96
        4
 40
5.0
 40
5.0
 40
5.0
 40
5.0
 40
5.74044267676188
 40
5.74044267676188
 40
5.74044267676188
 40
5.74044267676188
 10
105.8175556663535
 20
33.5125329503481
 42
1.0
 10
105.8808091746534
 20
32.85009942065996
 42
1.0
 10
105.9969739034398
 20
30.95908278298207
 42
1.0
 10
106.3668527512702
 20
29.71530239194635
 42
1.0
 97
        0
 92
        0
 93
        5
 72
     1
 10
97.65146820431197
 20
45.61378333496433
 11
93.20832562586878
 21
45.61378333496433
 72
     1
 10
93.20832562586878
 20
45.61378333496433
 11
93.20832562586878
 21
40.80029274754029
 72
     1
 10
93.20832562586878
 20
40.80029274754029
 11
97.89159151804188
 21
40.80029274754029
 72
     4
 94
        3
 73
     1
 74
     0
 95
        8
 96
        4
 40
1.0
 40
1.0
 40
1.0
 40
1.0
 40
2.0
 40
2.0
 40
2.0
 40
2.0
 10
97.89159151804188
 20
40.80029274754029
 42
1.0
 10
99.57279922392719
 20
40.80029274754029
 42
1.0
 10
100.4730032680826
 20
41.69670718416189
 42
1.0
 10
100.4730032680826
 20
43.31125224843066
 42
1.0
 72
     4
 94
        3
 73
     1
 74
     0
 95
        8
 96
        4
 40
2.0
 40
2.0
 40
2.0
 40
2.0
 40
3.0
 40
3.0
 40
3.0
 40
3.0
 10
100.4730032680826
 20
43.31125224843066
 42
1.0
 10
100.4730032680826
 20
44.89565270731723
 42
1.0
 10
99.21295876310808
 20
45.61378333496433
 42
1.0
 10
97.65146820431197
 20
45.61378333496433
 42
1.0
 97
        0
 75
     0
 76
     1
 98
        1
 10
0.0
 20
0.0
  0
HATCH
  5
111
330
81
100
AcDbEntity
  8
0
  6
Continuous
 62
     7
100
AcDbHatch
 10
0.0
 20
0.0
 30
0.0
210
0.0
220
0.0
230
1.0
  2
SOLID
 70
     1
 71
     0
 91
        5
 92
        0
 93
       23
 72
     4
 94
        3
 73
     1
 74
     0
 95
        8
 96
        4
 40
19.0
 40
19.0
 40
19.0
 40
19.0
 40
20.0
 40
20.0
 40
20.0
 40
20.0
 10
149.6765281642566
 20
28.76070961279156
 42
1.0
 10
152.520456363454
 20
28.8110080400578
 42
1.0
 10
155.173870656636
 20
30.15769675364504
 42
1.0
 10
155.9810570613264
 20
32.14345110133414
 42
1.0
 72
     4
 94
        3
 73
     1
 74
     0
 95
        8
 96
        4
 40
20.0
 40
20.0
 40
20.0
 40
20.0
 40
21.0
 40
21.0
 40
21.0
 40
21.0
 10
155.9810570613264
 20
32.14345110133414
 42
1.0
 10
156.7465577831456
 20
30.15769675364504
 42
1.0
 10
159.417886584669
 20
28.16367417133681
 42
1.0
 10
164.5948349855581
 20
28.16367417133681
 42
1.0
 72
     4
 94
        3
 73
     1
 74
     0
 95
        8
 96
        4
 40
21.0
 40
21.0
 40
21.0
 40
21.0
 40
22.0
 40
22.0
 40
22.0
 40
22.0
 10
164.5948349855581
 20
28.16367417133681
 42
1.0
 10
169.7717833864471
 20
28.16367417133681
 42
1.0
 10
173.6165124843323
 20
31.30629234614945
 42
1.0
 10
173.6165124843323
 20
35.44798887077101
 42
1.0
 72
     4
 94
        3
 73
     1
 74
     0
 95
        8
 96
        4
 40
22.0
 40
22.0
 40
22.0
 40
22.0
 40
23.0
 40
23.0
 40
23.0
 40
23.0
 10
173.6165124843323
 20
35.44798887077101
 42
1.0
 10
173.6165124843323
 20
39.66030989943075
 42
1.0
 10
171.193575231158
 20
41.15548232638614
 42
1.0
 10
167.3357547617924
 20
42.17058038076954
 42
1.0
 72
     4
 94
        3
 73
     1
 74
     0
 95
        8
 96
        4
 40
0.0
 40
0.0
 40
0.0
 40
0.0
 40
1.0
 40
1.0
 40
1.0
 40
1.0
 10
167.3357547617924
 20
42.17058038076954
 42
1.0
 10
167.2847673149745
 20
42.18401626202559
 42
1.0
 10
167.2406700636727
 20
42.19590184929056
 42
1.0
 10
167.189338107079
 20
42.2088209658829
 42
1.0
 72
     1
 10
167.189338107079
 20
42.2088209658829
 11
173.0691700759391
 21
42.16747979278733
 72
     4
 94
        3
 73
     1
 74
     0
 95
        8
 96
        4
 40
2.0
 40
2.0
 40
2.0
 40
2.0
 40
3.0
 40
3.0
 40
3.0
 40
3.0
 10
173.0691700759391
 20
42.16747979278733
 42
1.0
 10
173.0691700759391
 20
45.27185738248661
 42
1.0
 10
172.4597322825556
 20
50.25002364274127
 42
1.0
 10
164.1870190363622
 20
50.25002364274127
 42
1.0
 72
     4
 94
        3
 73
     1
 74
     0
 95
        8
 96
        4
 40
3.0
 40
3.0
 40
3.0
 40
3.0
 40
4.0
 40
4.0
 40
4.0
 40
4.0
 10
164.1870190363622
 20
50.25002364274127
 42
1.0
 10
159.3649157045433
 20
50.25002364274127
 42
1.0
 10
156.9760849191726
 20
47.90081148158718
 42
1.0
 10
156.0162806838046
 20
46.1898036800955
 42
1.0
 72
     4
 94
        3
 73
     1
 74
     0
 95
        8
 96
        4
 40
4.0
 40
4.0
 40
4.0
 40
4.0
 40
5.0
 40
5.0
 40
5.0
 40
5.0
 10
156.0162806838046
 20
46.1898036800955
 42
1.0
 10
155.1174546787523
 20
47.90081148158718
 42
1.0
 10
154.5865651142504
 20
50.04710738479733
 42
1.0
 10
147.7273754781487
 20
50.04710738479733
 42
1.0
 72
     1
 10
147.7273754781487
 20
50.04710738479733
 11
138.3041010399261
 21
50.04710738479733
 72
     1
 10
138.3041010399261
 20
50.04710738479733
 11
138.3041010399261
 21
36.75023582328049
 72
     1
 10
138.3041010399261
 20
36.75023582328049
 11
133.3762332069377
 21
50.04710738479733
 72
     1
 10
133.3762332069377
 20
50.04710738479733
 11
126.7834772195869
 21
50.04710738479733
 72
     1
 10
126.7834772195869
 20
50.04710738479733
 11
121.0416582836138
 21
34.83629659928359
 72
     1
 10
121.0416582836138
 20
34.83629659928359
 11
113.7338781065659
 21
34.79083121159394
 72
     1
 10
113.7338781065659
 20
34.79083121159394
 11
113.6389611147968
 21
50.04710738479733
 72
     1
 10
113.6389611147968
 20
50.04710738479733
 11
106.3849632756327
 21
50.04710738479733
 72
     1
 10
106.3849632756327
 20
50.04710738479733
 11
106.3718719041525
 21
28.69835334337245
 72
     1
 10
106.3718719041525
 20
28.69835334337245
 11
126.0705963744016
 21
28.76070961279156
 72
     1
 10
126.0705963744016
 20
28.76070961279156
 11
127.3401148982105
 21
31.90746190491377
 72
     1
 10
127.3401148982105
 20
31.90746190491377
 11
132.5163742795479
 21
31.90746190491377
 72
     1
 10
132.5163742795479
 20
31.90746190491377
 11
133.7345608467632
 21
28.76070961279156
 72
     1
 10
133.7345608467632
 20
28.76070961279156
 11
149.6765281642566
 21
28.76070961279156
 97
        0
 92
        0
 93
        4
 72
     4
 94
        3
 73
     1
 74
     0
 95
        8
 96
        4
 40
2.0
 40
2.0
 40
2.0
 40
2.0
 40
3.0
 40
3.0
 40
3.0
 40
3.0
 10
164.2398679641865
 20
44.24039511375292
 42
1.0
 10
165.3912196348973
 20
44.2062886459491
 42
1.0
 10
165.7515768603801
 20
43.97150523374403
 42
1.0
 10
165.8638870472897
 20
43.27628450618734
 42
1.0
 72
     4
 94
        3
 73
     1
 74
     0
 95
        8
 96
        4
 40
3.0
 40
3.0
 40
3.0
 40
3.0
 40
4.0
 40
4.0
 40
4.0
 40
4.0
 10
165.8638870472897
 20
43.27628450618734
 42
1.0
 10
165.9090178279189
 20
43.00205472465359
 42
1.0
 10
165.9138409647801
 20
42.83186689541027
 42
1.0
 10
165.9145299843317
 20
42.47392123835806
 42
1.0
 72
     4
 94
        3
 73
     1
 74
     0
 95
        8
 96
        4
 40
0.0
 40
0.0
 40
0.0
 40
0.0
 40
1.0
 40
1.0
 40
1.0
 40
1.0
 10
165.9145299843317
 20
42.47392123835806
 42
1.0
 10
163.2373445166196
 20
43.14743785003957
 42
1.0
 10
162.5142184972235
 20
43.26439891892237
 42
1.0
 10
162.5142184972235
 20
43.83439034297712
 42
1.0
 72
     4
 94
        3
 73
     1
 74
     0
 95
        8
 96
        4
 40
1.0
 40
1.0
 40
1.0
 40
1.0
 40
2.0
 40
2.0
 40
2.0
 40
2.0
 10
162.5142184972235
 20
43.83439034297712
 42
1.0
 10
162.5142184972235
 20
44.08794953796311
 42
1.0
 10
163.6817621273968
 20
44.25641481832745
 42
1.0
 10
164.2398679641865
 20
44.24039511375292
 42
1.0
 97
        0
 92
        0
 93
        3
 72
     4
 94
        3
 73
     1
 74
     0
 95
        8
 96
        4
 40
4.0
 40
4.0
 40
4.0
 40
4.0
 40
5.0
 40
5.0
 40
5.0
 40
5.0
 10
166.3251856370807
 20
35.10003399721688
 42
1.0
 10
166.0898854602119
 20
34.15642172131117
 42
1.0
 10
165.4012104183954
 20
33.89493880148186
 42
1.0
 10
163.6080370353763
 20
34.38448719288822
 42
1.0
 72
     4
 94
        3
 73
     1
 74
     0
 95
        8
 96
        4
 40
5.0
 40
5.0
 40
5.0
 40
5.0
 40
6.0
 40
6.0
 40
6.0
 40
6.0
 10
163.6080370353763
 20
34.38448719288822
 42
1.0
 10
161.7283916986325
 20
34.89884028815191
 42
1.0
 10
161.7046205241026
 20
35.93478118397098
 42
1.0
 10
161.7042760143268
 20
37.08957795243973
 42
1.0
 72
     4
 94
        3
 73
     1
 74
     0
 95
        8
 96
        4
 40
3.0
 40
3.0
 40
3.0
 40
3.0
 40
4.0
 40
4.0
 40
4.0
 40
4.0
 10
161.7042760143268
 20
37.08957795243973
 42
1.0
 10
164.0696801349432
 20
36.40710408658753
 42
1.0
 10
166.4492091563673
 20
35.59543905481176
 42
1.0
 10
166.3251856370807
 20
35.10003399721688
 42
1.0
 97
        0
 92
        0
 93
       32
 72
     4
 94
        3
 73
     1
 74
     0
 95
        8
 96
        4
 40
16.0
 40
16.0
 40
16.0
 40
16.0
 40
17.0
 40
17.0
 40
17.0
 40
17.0
 10
148.3259278908342
 20
48.98929011821522
 42
1.0
 10
151.6487246783881
 20
49.0430336432394
 42
1.0
 10
155.2970832040696
 20
48.18227596841268
 42
1.0
 10
155.2970832040696
 20
44.17218217814528
 42
1.0
 72
     4
 94
        3
 73
     1
 74
     0
 95
        8
 96
        4
 40
17.0
 40
17.0
 40
17.0
 40
17.0
 40
18.0
 40
18.0
 40
18.0
 40
18.0
 10
155.2970832040696
 20
44.17218217814528
 42
1.0
 10
155.2970832040696
 20
42.44963329916444
 42
1.0
 10
154.270444072197
 20
41.05092360943199
 42
1.0
 10
152.7570126271244
 20
40.29730847487787
 42
1.0
 72
     4
 94
        3
 73
     1
 74
     0
 95
        8
 96
        4
 40
18.0
 40
18.0
 40
18.0
 40
18.0
 40
19.0
 40
19.0
 40
19.0
 40
19.0
 10
152.7570126271244
 20
40.29730847487787
 42
1.0
 10
154.6566395308645
 20
39.74936567647406
 42
1.0
 10
155.8830943326989
 20
38.18925315678111
 42
1.0
 10
156.0567272597002
 20
36.23347115958625
 42
1.0
 72
     1
 10
156.0567272597002
 20
36.23347115958625
 11
160.8609160831777
 21
36.23347115958625
 72
     4
 94
        3
 73
     1
 74
     0
 95
        8
 96
        4
 40
20.0
 40
20.0
 40
20.0
 40
20.0
 40
21.0
 40
21.0
 40
21.0
 40
21.0
 10
160.8609160831777
 20
36.23347115958625
 42
1.0
 10
160.9684031332261
 20
33.9727980108118
 42
1.0
 10
162.3736585086987
 20
33.24622689365768
 42
1.0
 10
164.507896569756
 20
33.24622689365768
 42
1.0
 72
     4
 94
        3
 73
     1
 74
     0
 95
        8
 96
        4
 40
21.0
 40
21.0
 40
21.0
 40
21.0
 40
22.0
 40
22.0
 40
22.0
 40
22.0
 10
164.507896569756
 20
33.24622689365768
 42
1.0
 10
166.0209835050527
 20
33.24622689365768
 42
1.0
 10
167.5885029849253
 20
33.78504018300288
 42
1.0
 10
167.5885029849253
 20
35.21131065479903
 42
1.0
 72
     4
 94
        3
 73
     1
 74
     0
 95
        8
 96
        4
 40
22.0
 40
22.0
 40
22.0
 40
22.0
 40
23.0
 40
23.0
 40
23.0
 40
23.0
 10
167.5885029849253
 20
35.21131065479903
 42
1.0
 10
167.5885029849253
 20
36.90629875171619
 42
1.0
 10
164.8331137981075
 20
37.22910441163718
 42
1.0
 10
162.0491302998987
 20
38.00941905381552
 42
1.0
 72
     4
 94
        3
 73
     1
 74
     0
 95
        8
 96
        4
 40
23.0
 40
23.0
 40
23.0
 40
23.0
 40
24.0
 40
24.0
 40
24.0
 40
24.0
 10
162.0491302998987
 20
38.00941905381552
 42
1.0
 10
159.2930520935294
 20
38.78956144110593
 42
1.0
 10
156.4022705648237
 20
40.02772957531736
 42
1.0
 10
156.4022705648237
 20
43.55344262081537
 42
1.0
 72
     4
 94
        3
 73
     1
 74
     0
 95
        8
 96
        4
 40
24.0
 40
24.0
 40
24.0
 40
24.0
 40
25.0
 40
25.0
 40
25.0
 40
25.0
 10
156.4022705648237
 20
43.55344262081537
 42
1.0
 10
156.4022705648237
 20
47.75129423889168
 42
1.0
 10
160.6449084537535
 20
49.39253881078461
 42
1.0
 10
164.2646726680438
 20
49.39253881078461
 42
1.0
 72
     4
 94
        3
 73
     1
 74
     0
 95
        8
 96
        4
 40
25.0
 40
25.0
 40
25.0
 40
25.0
 40
26.0
 40
26.0
 40
26.0
 40
26.0
 10
164.2646726680438
 20
49.39253881078461
 42
1.0
 10
168.1018225508616
 20
49.39253881078461
 42
1.0
 10
171.9654996864157
 20
47.53614788390696
 42
1.0
 10
171.9930604684793
 20
43.20376519838225
 42
1.0
 72
     1
 10
171.9930604684793
 20
43.20376519838225
 11
166.9673518591648
 21
43.20376519838225
 72
     4
 94
        3
 73
     1
 74
     0
 95
        8
 96
        4
 40
27.0
 40
27.0
 40
27.0
 40
27.0
 40
28.0
 40
28.0
 40
28.0
 40
28.0
 10
166.9673518591648
 20
43.20376519838225
 42
1.0
 10
167.0486561662527
 20
44.9523245654357
 42
1.0
 10
165.3998323792922
 20
45.51766510751722
 42
1.0
 10
163.8591846619318
 20
45.51766510751722
 42
1.0
 72
     4
 94
        3
 73
     1
 74
     0
 95
        8
 96
        4
 40
28.0
 40
28.0
 40
28.0
 40
28.0
 40
29.0
 40
29.0
 40
29.0
 40
29.0
 10
163.8591846619318
 20
45.51766510751722
 42
1.0
 10
162.7794910245866
 20
45.51766510751722
 42
1.0
 10
161.4286681936898
 20
45.14094366768412
 42
1.0
 10
161.4286681936898
 20
43.87642053562427
 42
1.0
 72
     4
 94
        3
 73
     1
 74
     0
 95
        8
 96
        4
 40
29.0
 40
29.0
 40
29.0
 40
29.0
 40
30.0
 40
30.0
 40
30.0
 40
30.0
 10
161.4286681936898
 20
43.87642053562427
 42
1.0
 10
161.4286681936898
 20
42.39606202902813
 42
1.0
 10
164.2102401234681
 20
42.12665538435552
 42
1.0
 10
167.021095384189
 20
41.34634074217721
 42
1.0
 72
     4
 94
        3
 73
     1
 74
     0
 95
        8
 96
        4
 40
30.0
 40
30.0
 40
30.0
 40
30.0
 40
31.0
 40
31.0
 40
31.0
 40
31.0
 10
167.021095384189
 20
41.34634074217721
 42
1.0
 10
169.8047343726221
 20
40.56619835488677
 42
1.0
 10
172.6142115942398
 20
39.27428669565115
 42
1.0
 10
172.6142115942398
 20
35.80317844961686
 42
1.0
 72
     4
 94
        3
 73
     1
 74
     0
 95
        8
 96
        4
 40
31.0
 40
31.0
 40
31.0
 40
31.0
 40
32.0
 40
32.0
 40
32.0
 40
32.0
 10
172.6142115942398
 20
35.80317844961686
 42
1.0
 10
172.6142115942398
 20
30.93249923941061
 42
1.0
 10
168.4532225221737
 20
29.12313389692912
 42
1.0
 10
164.2102401234681
 20
29.12313389692912
 42
1.0
 72
     4
 94
        3
 73
     1
 74
     0
 95
        8
 96
        4
 40
0.0
 40
0.0
 40
0.0
 40
0.0
 40
1.0
 40
1.0
 40
1.0
 40
1.0
 10
164.2102401234681
 20
29.12313389692912
 42
1.0
 10
160.290752404235
 20
29.12313389692912
 42
1.0
 10
156.7767526911141
 20
30.89219159564247
 42
1.0
 10
155.9991941271422
 20
34.65217128868185
 42
1.0
 72
     4
 94
        3
 73
     1
 74
     0
 95
        8
 96
        4
 40
1.0
 40
1.0
 40
1.0
 40
1.0
 40
2.0
 40
2.0
 40
2.0
 40
2.0
 10
155.9991941271422
 20
34.65217128868185
 42
1.0
 10
155.4869080905333
 20
30.98107511779787
 42
1.0
 10
152.3484240330302
 20
29.69605365407815
 42
1.0
 10
148.569496302322
 20
29.69605365407815
 42
1.0
 72
     1
 10
148.569496302322
 20
29.69605365407815
 11
134.4690556887606
 21
29.69605365407815
 72
     1
 10
134.4690556887606
 20
29.69605365407815
 11
133.0327944334664
 21
32.97130809257236
 72
     1
 10
133.0327944334664
 20
32.97130809257236
 11
126.8013016088652
 21
32.97130809257236
 72
     1
 10
126.8013016088652
 20
32.97130809257236
 11
125.3367905519557
 21
29.72258090681447
 72
     1
 10
125.3367905519557
 20
29.72258090681447
 11
107.508409654504
 21
29.72258090681447
 72
     1
 10
107.508409654504
 20
29.72258090681447
 11
107.508409654504
 21
48.98929011821522
 72
     1
 10
107.508409654504
 20
48.98929011821522
 11
112.5348072833701
 21
48.98929011821522
 72
     1
 10
112.5348072833701
 20
48.98929011821522
 11
112.5348072833701
 21
34.08062957063601
 72
     1
 10
112.5348072833701
 20
34.08062957063601
 11
121.7804161364119
 21
34.08062957063601
 72
     1
 10
121.7804161364119
 20
34.08062957063601
 11
127.3904133254767
 21
48.98929011821522
 72
     1
 10
127.3904133254767
 20
48.98929011821522
 11
132.4970817321033
 21
48.98929011821522
 72
     1
 10
132.4970817321033
 20
48.98929011821522
 11
139.3018388236293
 21
31.02758393753034
 72
     1
 10
139.3018388236293
 20
31.02758393753034
 11
139.3018388236293
 21
48.98929011821522
 72
     1
 10
139.3018388236293
 20
48.98929011821522
 11
148.3259278908342
 21
48.98929011821522
 97
        0
 92
        0
 93
        5
 72
     4
 94
        3
 73
     1
 74
     0
 95
        8
 96
        4
 40
8.0
 40
8.0
 40
8.0
 40
8.0
 40
9.0
 40
9.0
 40
9.0
 40
9.0
 10
156.7116403434886
 20
37.12781853755313
 42
1.0
 10
156.7116403434886
 20
38.5878509673773
 42
1.0
 10
155.4507345640747
 20
39.84892900167915
 42
1.0
 10
154.6542279624339
 20
40.37981856618105
 42
1.0
 72
     4
 94
        3
 73
     1
 74
     0
 95
        8
 96
        4
 40
9.0
 40
9.0
 40
9.0
 40
9.0
 40
10.0
 40
10.0
 40
10.0
 40
10.0
 10
154.6542279624339
 20
40.37981856618105
 42
1.0
 10
155.0517922437027
 20
40.8442177439543
 42
1.0
 10
155.649516704709
 20
41.30913368639121
 42
1.0
 10
155.8493323746708
 20
42.10546803314405
 42
1.0
 72
     4
 94
        3
 73
     1
 74
     0
 95
        8
 96
        4
 40
10.0
 40
10.0
 40
10.0
 40
10.0
 40
11.0
 40
11.0
 40
11.0
 40
11.0
 10
155.8493323746708
 20
42.10546803314405
 42
1.0
 10
155.8493323746708
 20
39.84892900167915
 42
1.0
 10
157.9732351424542
 20
38.12293502494035
 42
1.0
 10
160.6276829649637
 20
37.39343557469195
 42
1.0
 72
     4
 94
        3
 73
     1
 74
     0
 95
        8
 96
        4
 40
0.0
 40
0.0
 40
0.0
 40
0.0
 40
1.0
 40
1.0
 40
1.0
 40
1.0
 10
160.6276829649637
 20
37.39343557469195
 42
1.0
 10
160.938086272956
 20
37.30765264051871
 42
1.0
 10
161.2550352666885
 20
37.2187691183633
 42
1.0
 10
161.5726732799726
 20
37.12781853755313
 42
1.0
 72
     1
 10
161.5726732799726
 20
37.12781853755313
 11
156.7116403434886
 21
37.12781853755313
 97
        0
 75
     0
 76
     1
 98
        1
 10
0.0
 20
0.0
  0
HATCH
  5
112
330
81
100
AcDbEntity
  8
0
  6
Continuous
 62
     7
100
AcDbHatch
 10
0.0
 20
0.0
 30
0.0
210
0.0
220
0.0
230
1.0
  2
SOLID
 70
     1
 71
     0
 91
        2
 92
        0
 93
        4
 72
     1
 10
130.3745570034231
 20
43.91311082674656
 11
132.8105856280779
 21
36.20212076998882
 72
     1
 10
132.8105856280779
 20
36.20212076998882
 11
127.0700192339863
 21
36.20212076998882
 72
     1
 10
127.0700192339863
 20
36.20212076998882
 11
129.5897637341595
 21
43.91311082674656
 72
     1
 10
129.5897637341595
 20
43.91311082674656
 11
130.3745570034231
 21
43.91311082674656
 97
        0
 92
        0
 93
        3
 72
     1
 10
128.4229091235378
 20
37.23013794096457
 11
131.3867267247123
 21
37.23013794096457
 72
     1
 10
131.3867267247123
 20
37.23013794096457
 11
129.9297948828703
 21
41.88205344354024
 72
     1
 10
129.9297948828703
 20
41.88205344354024
 11
128.4229091235378
 21
37.23013794096457
 97
        0
 75
     0
 76
     1
 98
        1
 10
0.0
 20
0.0
  0
HATCH
  5
113
330
81
100
AcDbEntity
  8
0
  6
Continuous
 62
     7
100
AcDbHatch
 10
0.0
 20
0.0
 30
0.0
210
0.0
220
0.0
230
1.0
  2
SOLID
 70
     1
 71
     0
 91
        2
 92
        0
 93
        5
 72
     4
 94
        3
 73
     1
 74
     0
 95
        8
 96
        4
 40
2.0
 40
2.0
 40
2.0
 40
2.0
 40
3.0
 40
3.0
 40
3.0
 40
3.0
 10
150.7168257348595
 20
43.00515531263576
 42
1.0
 10
150.7168257348595
 20
41.26865378773517
 42
1.0
 10
149.3504999640519
 20
40.68918834484602
 42
1.0
 10
148.3552112217768
 20
40.68918834484602
 42
1.0
 72
     1
 10
148.3552112217768
 20
40.68918834484602
 11
143.8820962928393
 21
40.68918834484602
 72
     1
 10
143.8820962928393
 20
40.68918834484602
 11
143.8820962928393
 21
45.35557325800512
 72
     1
 10
143.8820962928393
 20
45.35557325800512
 11
148.3552112217768
 21
45.35557325800512
 72
     4
 94
        3
 73
     1
 74
     0
 95
        8
 96
        4
 40
1.0
 40
1.0
 40
1.0
 40
1.0
 40
2.0
 40
2.0
 40
2.0
 40
2.0
 10
148.3552112217768
 20
45.35557325800512
 42
1.0
 10
149.5682301423551
 20
45.35557325800512
 42
1.0
 10
150.7168257348595
 20
44.77576330534016
 42
1.0
 10
150.7168257348595
 20
43.00515531263576
 42
1.0
 97
        0
 92
        0
 93
        5
 72
     1
 10
144.861193075652
 20
44.33186245922681
 11
144.861193075652
 21
41.63848503205236
 72
     1
 10
144.861193075652
 20
41.63848503205236
 11
147.9838296834685
 21
41.63848503205236
 72
     4
 94
        3
 73
     1
 74
     0
 95
        8
 96
        4
 40
2.0
 40
2.0
 40
2.0
 40
2.0
 40
3.0
 40
3.0
 40
3.0
 40
3.0
 10
147.9838296834685
 20
41.63848503205236
 42
1.0
 10
148.6783613914736
 20
41.63848503205236
 42
1.0
 10
149.6316199411016
 20
41.97300402435042
 42
1.0
 10
149.6316199411016
 20
42.9753552170294
 42
1.0
 72
     4
 94
        3
 73
     1
 74
     0
 95
        8
 96
        4
 40
3.0
 40
3.0
 40
3.0
 40
3.0
 40
4.0
 40
4.0
 40
4.0
 40
4.0
 10
149.6316199411016
 20
42.9753552170294
 42
1.0
 10
149.6316199411016
 20
43.99734346692872
 42
1.0
 10
148.8296011830481
 20
44.33186245922681
 42
1.0
 10
147.9838296834685
 20
44.33186245922681
 42
1.0
 72
     1
 10
147.9838296834685
 20
44.33186245922681
 11
144.861193075652
 21
44.33186245922681
 97
        0
 75
     0
 76
     1
 98
        1
 10
0.0
 20
0.0
  0
HATCH
  5
114
330
81
100
AcDbEntity
  8
0
  6
Continuous
 62
     7
100
AcDbHatch
 10
0.0
 20
0.0
 30
0.0
210
0.0
220
0.0
230
1.0
  2
SOLID
 70
     1
 71
     0
 91
        2
 92
        0
 93
        5
 72
     4
 94
        3
 73
     1
 74
     0
 95
        8
 96
        4
 40
2.0
 40
2.0
 40
2.0
 40
2.0
 40
3.0
 40
3.0
 40
3.0
 40
3.0
 10
151.4726801829563
 20
35.74943492459264
 42
1.0
 10
151.4726801829563
 20
33.74748861744111
 42
1.0
 10
149.9558036401258
 20
33.07982867194814
 42
1.0
 10
148.8506162793717
 20
33.07982867194814
 42
1.0
 72
     1
 10
148.8506162793717
 20
33.07982867194814
 11
143.8820962928393
 21
33.07982867194814
 72
     1
 10
143.8820962928393
 20
33.07982867194814
 11
143.8820962928393
 21
38.45762627212632
 72
     1
 10
143.8820962928393
 20
38.45762627212632
 11
148.8506162793717
 21
38.45762627212632
 72
     4
 94
        3
 73
     1
 74
     0
 95
        8
 96
        4
 40
1.0
 40
1.0
 40
1.0
 40
1.0
 40
2.0
 40
2.0
 40
2.0
 40
2.0
 10
148.8506162793717
 20
38.45762627212632
 42
1.0
 10
150.1973049929589
 20
38.45762627212632
 42
1.0
 10
151.4726801829563
 20
37.78979407174546
 42
1.0
 10
151.4726801829563
 20
35.74943492459264
 42
1.0
 97
        0
 92
        0
 93
        5
 72
     1
 10
144.8353548424673
 20
33.99588016579015
 11
148.5660512045641
 21
33.99588016579015
 72
     4
 94
        3
 73
     1
 74
     0
 95
        8
 96
        4
 40
2.0
 40
2.0
 40
2.0
 40
2.0
 40
3.0
 40
3.0
 40
3.0
 40
3.0
 10
148.5660512045641
 20
33.99588016579015
 42
1.0
 10
149.395975254457
 20
33.99588016579015
 42
1.0
 10
150.5349245732392
 20
34.42513934643217
 42
1.0
 10
150.5349245732392
 20
35.71326139813404
 42
1.0
 72
     4
 94
        3
 73
     1
 74
     0
 95
        8
 96
        4
 40
3.0
 40
3.0
 40
3.0
 40
3.0
 40
4.0
 40
4.0
 40
4.0
 40
4.0
 10
150.5349245732392
 20
35.71326139813404
 42
1.0
 10
150.5349245732392
 20
37.02618815369325
 42
1.0
 10
149.5771873965258
 20
37.45613635388687
 42
1.0
 10
148.5660512045641
 20
37.45613635388687
 42
1.0
 72
     1
 10
148.5660512045641
 20
37.45613635388687
 11
144.8353548424673
 21
37.45613635388687
 72
     1
 10
144.8353548424673
 20
37.45613635388687
 11
144.8353548424673
 21
33.99588016579015
 97
        0
 75
     0
 76
     1
 98
        1
 10
0.0
 20
0.0
  0
ENDBLK
  5
83
330
81
100
AcDbEntity
  8
0
100
AcDbBlockEnd
  0
BLOCK
  5
130
330
12F
100
AcDbEntity
  8
0
100
AcDbBlockBegin
  2
SW_NOTE_0
 70
     0
 10
0.0
 20
0.0
 30
0.0
  3
SW_NOTE_0
  1

  0
MTEXT
  5
133
330
12F
100
AcDbEntity
  8
0
  6
Continuous
 62
     0
370
     0
100
AcDbMText
 10
0.0
 20
3.4106583948
 30
0.0
 40
2.6458333333
 41
0.0
 71
     1
 72
     1
  1
NOTES/SPECIFICATIONS:
  7
SLDTEXTSTYLE0
 73
     1
 44
1.0
  0
MTEXT
  5
134
330
12F
100
AcDbEntity
  8
0
  6
Continuous
 62
     0
370
     0
100
AcDbMText
 10
0.0
 20
-1.1171195042
 30
0.0
 40
2.6458333333
 41
0.0
 71
     1
 72
     1
  1
1. DESIGN WAVELENGTH: 587.6 nm
  7
SLDTEXTSTYLE0
 73
     1
 44
1.0
  0
MTEXT
  5
135
330
12F
100
AcDbEntity
  8
0
  6
Continuous
 62
     0
370
     0
100
AcDbMText
 10
0.0
 20
-5.6448974033
 30
0.0
 40
2.6458333333
 41
0.0
 71
     1
 72
     1
  1
2. FOCAL LENGTH: f=90.3 mm ± 1%
  7
SLDTEXTSTYLE0
 73
     1
 44
1.0
  0
MTEXT
  5
136
330
12F
100
AcDbEntity
  8
0
  6
Continuous
 62
     0
370
     0
100
AcDbMText
 10
0.0
 20
-10.1726753024
 30
0.0
 40
2.6458333333
 41
0.0
 71
     1
 72
     1
  1
3. BACK FOCAL LENGTH(REF): bf=71.9 mm
  7
SLDTEXTSTYLE0
 73
     1
 44
1.0
  0
MTEXT
  5
137
330
12F
100
AcDbEntity
  8
0
  6
Continuous
 62
     0
370
     0
100
AcDbMText
 10
0.0
 20
-14.7004532014
 30
0.0
 40
2.6458333333
 41
0.0
 71
     1
 72
     1
  1
4. CLEAR APERTURE: >
  7
SLDTEXTSTYLE0
 73
     1
 44
1.0
  0
MTEXT
  5
138
330
12F
100
AcDbEntity
  8
0
  6
Continuous
 62
     0
370
     0
100
AcDbMText
 10
36.6839878261
 20
-14.7004532014
 30
0.0
 40
2.6458333333
 41
0.0
 71
     1
 72
     1
  1
%%c
  7
SLDTEXTSTYLE0
 73
     1
 44
1.0
  0
MTEXT
  5
139
330
12F
100
AcDbEntity
  8
0
  6
Continuous
 62
     0
370
     0
100
AcDbMText
 10
40.6777262688
 20
-14.7004532014
 30
0.0
 40
2.6458333333
 41
0.0
 71
     1
 72
     1
  1
67.50 mm
  7
SLDTEXTSTYLE0
 73
     1
 44
1.0
  0
MTEXT
  5
13A
330
12F
100
AcDbEntity
  8
0
  6
Continuous
 62
     0
370
     0
100
AcDbMText
 10
0.0
 20
-19.2282311005
 30
0.0
 40
2.6458333333
 41
0.0
 71
     1
 72
     1
  1
5. SURFACE QUALITY: 40-20 SCRATCH-DIG
  7
SLDTEXTSTYLE0
 73
     1
 44
1.0
  0
MTEXT
  5
13B
330
12F
100
AcDbEntity
  8
0
  6
Continuous
 62
     0
370
     0
100
AcDbMText
 10
0.0
 20
-23.7560089995
 30
0.0
 40
2.6458333333
 41
0.0
 71
     1
 72
     1
  1
6. CENTRATION: <3 arcmin
  7
SLDTEXTSTYLE0
 73
     1
 44
1.0
  0
MTEXT
  5
13C
330
12F
100
AcDbEntity
  8
0
  6
Continuous
 62
     0
370
     0
100
AcDbMText
 10
0.0
 20
-28.2837868986
 30
0.0
 40
2.6458333333
 41
0.0
 71
     1
 72
     1
  1
7. DIAMETER TOLERANCE: +0.0/-0.1 mm
  7
SLDTEXTSTYLE0
 73
     1
 44
1.0
  0
MTEXT
  5
13D
330
12F
100
AcDbEntity
  8
0
  6
Continuous
 62
     0
370
     0
100
AcDbMText
 10
0.0
 20
-32.8115647976
 30
0.0
 40
2.6458333333
 41
0.0
 71
     1
 72
     1
  1
8. THICKNESS TOLERANCE: ±0.1 mm
  7
SLDTEXTSTYLE0
 73
     1
 44
1.0
  0
MTEXT
  5
13E
330
12F
100
AcDbEntity
  8
0
  6
Continuous
 62
     0
370
     0
100
AcDbMText
 10
0.0
 20
-37.3393426967
 30
0.0
 40
2.6458333333
 41
0.0
 71
     1
 72
     1
  1
9. COATING: BBAR Ravg <0.5% FROM 650-1050 nm, AOI: 0
  7
SLDTEXTSTYLE0
 73
     1
 44
1.0
  0
MTEXT
  5
13F
330
12F
100
AcDbEntity
  8
0
  6
Continuous
 62
     0
370
     0
100
AcDbMText
 10
97.5087583065
 20
-37.3393426967
 30
0.0
 40
2.6458333333
 41
0.0
 71
     1
 72
     1
  1
%%d
  7
SLDTEXTSTYLE0
 73
     1
 44
1.0
  0
ENDBLK
  5
131
330
12F
100
AcDbEntity
  8
0
100
AcDbBlockEnd
  0
BLOCK
  5
153
330
152
100
AcDbEntity
  8
0
100
AcDbBlockBegin
  2
SW_NOTE_1
 70
     0
 10
0.0
 20
0.0
 30
0.0
  3
SW_NOTE_1
  1

  0
MTEXT
  5
155
330
152
100
AcDbEntity
  8
0
  6
Continuous
 62
     0
370
     0
100
AcDbMText
 10
19.90725
 20
1.9645392354
 30
0.0
 40
1.524
 41
0.0
 71
     2
 72
     1
  1
VALUES IN PARENTHESIS ARE CALCULATED
  7
SLDTEXTSTYLE0
 73
     1
 44
1.0
  0
MTEXT
  5
156
330
152
100
AcDbEntity
  8
0
  6
Continuous
 62
     0
370
     0
100
AcDbMText
 10
19.8778795174
 20
-0.5594606586
 30
0.0
 40
1.524
 41
0.0
 71
     2
 72
     1
  1
AND MAY CONTAIN ROUNDOFF ERRORS
  7
SLDTEXTSTYLE0
 73
     1
 44
1.0
  0
ENDBLK
  5
154
330
152
100
AcDbEntity
  8
0
100
AcDbBlockEnd
  0
BLOCK
  5
159
330
158
100
AcDbEntity
  8
0
100
AcDbBlockBegin
  2
SW_NOTE_2
 70
     0
 10
0.0
 20
0.0
 30
0.0
  3
SW_NOTE_2
  1

  0
MTEXT
  5
15B
330
158
100
AcDbEntity
  8
0
  6
Continuous
 62
     0
370
     0
100
AcDbMText
 10
0.0
 20
2.7285267159
 30
0.0
 40
2.1166666667
 41
0.0
 71
     1
 72
     1
  1
DRAWING
  7
SLDTEXTSTYLE0
 73
     1
 44
1.0
  0
MTEXT
  5
15C
330
158
100
AcDbEntity
  8
0
  6
Continuous
 62
     0
370
     0
100
AcDbMText
 10
0.0
 20
-0.0936954723
 30
0.0
 40
2.1166666667
 41
0.0
 71
     1
 72
     1
  1
PROJECTION
  7
SLDTEXTSTYLE0
 73
     1
 44
1.0
  0
ENDBLK
  5
15A
330
158
100
AcDbEntity
  8
0
100
AcDbBlockEnd
  0
BLOCK
  5
160
330
15F
100
AcDbEntity
  8
0
100
AcDbBlockBegin
  2
SW_NOTE_3
 70
     0
 10
0.0
 20
0.0
 30
0.0
  3
SW_NOTE_3
  1

  0
MTEXT
  5
162
330
15F
100
AcDbEntity
  8
0
  6
Continuous
 62
     0
370
     0
100
AcDbMText
 10
25.052734375
 20
4.0927900738
 30
0.0
 40
3.175
 41
0.0
 71
     2
 72
     1
  1
FOR INFORMATION ONLY
  7
SLDTEXTSTYLE0
 73
     1
 44
1.0
  0
MTEXT
  5
163
330
15F
100
AcDbEntity
  8
0
  6
Continuous
 62
     0
370
     0
100
AcDbMText
 10
25.3768468589
 20
-0.1405432084
 30
0.0
 40
3.175
 41
0.0
 71
     2
 72
     1
  1
NOT FOR MANUFACTURING PURPOSES
  7
SLDTEXTSTYLE0
 73
     1
 44
1.0
  0
ENDBLK
  5
161
330
15F
100
AcDbEntity
  8
0
100
AcDbBlockEnd
  0
BLOCK
  5
166
330
165
100
AcDbEntity
  8
0
100
AcDbBlockBegin
  2
SW_NOTE_4
 70
     0
 10
0.0
 20
0.0
 30
0.0
  3
SW_NOTE_4
  1

  0
MTEXT
  5
168
330
165
100
AcDbEntity
  8
0
  6
Continuous
 62
     0
370
     0
100
AcDbMText
 10
1.7115234375
 20
3.0695925553
 30
0.0
 40
2.38125
 41
0.0
 71
     2
 72
     1
  1
%%c
  7
SLDTEXTSTYLE0
 73
     1
 44
1.0
  0
MTEXT
  5
169
330
165
100
AcDbEntity
  8
0
  6
Continuous
 62
     0
370
     0
100
AcDbMText
 10
28.2254191928
 20
3.0695925553
 30
0.0
 40
2.38125
 41
0.0
 71
     2
 72
     1
  1
75.0 mm f=90.3 mm FUSED SILICA
  7
SLDTEXTSTYLE0
 73
     1
 44
1.0
  0
MTEXT
  5
16A
330
165
100
AcDbEntity
  8
0
  6
Continuous
 62
     0
370
     0
100
AcDbMText
 10
26.8934627324
 20
-0.1054074063
 30
0.0
 40
2.38125
 41
0.0
 71
     2
 72
     1
  1
PLANO CONVEX LENS, -B COAT
  7
SLDTEXTSTYLE0
 73
     1
 44
1.0
  0
ENDBLK
  5
167
330
165
100
AcDbEntity
  8
0
100
AcDbBlockEnd
  0
BLOCK
  5
172
330
171
100
AcDbEntity
  8
0
100
AcDbBlockBegin
  2
_D
 70
     0
 10
0.0
 20
0.0
 30
0.0
  3
_D
  1

  0
SOLID
  5
174
330
171
100
AcDbEntity
  8
0
  6
Continuous
 62
     7
370
    18
100
AcDbTrace
 10
81.2462869079
 20
163.9241069771
 30
0.0
 11
83.8455643038
 21
165.8168420402
 31
0.0
 12
83.1252462238
 22
166.5333599141
 32
0.0
 13
83.1252462238
 23
166.5333599141
 33
0.0
  0
LINE
  5
175
330
171
100
AcDbEntity
  8
0
  6
Continuous
 62
     7
370
    18
100
AcDbLine
 10
104.5031210778
 20
180.609742308
 30
0.0
 11
103.8593016237
 21
180.609742308
 31
0.0
  0
LINE
  5
176
330
171
100
AcDbEntity
  8
0
  6
Continuous
 62
     7
370
    18
100
AcDbLine
 10
103.8593016237
 20
180.609742308
 30
0.0
 11
103.8593016237
 21
177.2465942315
 31
0.0
  0
LINE
  5
177
330
171
100
AcDbEntity
  8
0
  6
Continuous
 62
     7
370
    18
100
AcDbLine
 10
103.8593016237
 20
177.2465942315
 30
0.0
 11
104.5031210778
 21
177.2465942315
 31
0.0
  0
LINE
  5
178
330
171
100
AcDbEntity
  8
0
  6
Continuous
 62
     7
370
    18
100
AcDbLine
 10
112.260312624
 20
180.609742308
 30
0.0
 11
112.9041320782
 21
180.609742308
 31
0.0
  0
LINE
  5
179
330
171
100
AcDbEntity
  8
0
  6
Continuous
 62
     7
370
    18
100
AcDbLine
 10
112.9041320782
 20
180.609742308
 30
0.0
 11
112.9041320782
 21
177.2465942315
 31
0.0
  0
LINE
  5
17A
330
171
100
AcDbEntity
  8
0
  6
Continuous
 62
     7
370
    18
100
AcDbLine
 10
112.9041320782
 20
177.2465942315
 30
0.0
 11
112.260312624
 21
177.2465942315
 31
0.0
  0
LINE
  5
17B
330
171
100
AcDbEntity
  8
0
  6
Continuous
 62
     7
370
    18
100
AcDbLine
 10
81.2462869079
 20
163.9241069771
 30
0.0
 11
99.4054821695
 21
182.1796134229
 31
0.0
  0
LINE
  5
17C
330
171
100
AcDbEntity
  8
0
  6
Continuous
 62
     7
370
    18
100
AcDbLine
 10
99.4054821695
 20
182.1796134229
 30
0.0
 11
103.2154821695
 21
182.1796134229
 31
0.0
  0
MTEXT
  5
17D
330
171
100
AcDbEntity
  8
0
  6
Continuous
 62
     7
370
    18
100
AcDbMText
 10
103.2154821695
 20
183.7674819545
 30
0.0
 40
2.1166666667
 41
0.0
 71
     1
 72
     1
  1
%%c
  7
SLDTEXTSTYLE0
 73
     1
 44
1.0
  0
MTEXT
  5
17E
330
171
100
AcDbEntity
  8
0
  6
Continuous
 62
     7
370
    18
100
AcDbMText
 10
106.4104729702
 20
183.7674819545
 30
0.0
 40
2.1166666667
 41
0.0
 71
     1
 72
     1
  1
75.0mm
  7
SLDTEXTSTYLE0
 73
     1
 44
1.0
  0
MTEXT
  5
17F
330
171
100
AcDbEntity
  8
0
  6
Continuous
 62
     7
370
    18
100
AcDbMText
 10
104.5031210778
 20
179.975120831
 30
0.0
 40
2.1166666667
 41
0.0
 71
     1
 72
     1
  1
2.95in
  7
SLDTEXTSTYLE0
 73
     1
 44
1.0
  0
ENDBLK
  5
173
330
171
100
AcDbEntity
  8
0
100
AcDbBlockEnd
  0
BLOCK
  5
1FB
330
1FA
100
AcDbEntity
  8
0
100
AcDbBlockBegin
  2
SW_NOTE_5
 70
     0
 10
0.0
 20
0.0
 30
0.0
  3
SW_NOTE_5
  1

  0
MTEXT
  5
1FD
330
1FA
100
AcDbEntity
  8
0
  6
Continuous
 62
     0
370
     0
100
AcDbMText
 10
11.01328125
 20
2.7285267159
 30
0.0
 40
2.1166666667
 41
0.0
 71
     2
 72
     1
  1
ISOMETRIC VIEW
  7
SLDTEXTSTYLE0
 73
     1
 44
1.0
  0
MTEXT
  5
1FE
330
1FA
100
AcDbEntity
  8
0
  6
Continuous
 62
     0
370
     0
100
AcDbMText
 10
10.8150885594
 20
-1.0936954033
 30
0.0
 40
2.1166666667
 41
0.0
 71
     2
 72
     1
  1
SCALE: 1:1
  7
SLDTEXTSTYLE0
 73
     1
 44
1.0
  0
ENDBLK
  5
1FC
330
1FA
100
AcDbEntity
  8
0
100
AcDbBlockEnd
  0
BLOCK
  5
211
330
210
100
AcDbEntity
  8
0
100
AcDbBlockBegin
  2
_D_1
 70
     0
 10
0.0
 20
0.0
 30
0.0
  3
_D_1
  1

  0
SOLID
  5
213
330
210
100
AcDbEntity
  8
0
  6
Continuous
 62
     7
370
    18
100
AcDbTrace
 10
149.7767762604
 20
153.0573038991
 30
0.0
 11
147.032389175
 21
154.7327228096
 31
0.0
 12
146.6466428484
 22
153.79279953
 32
0.0
 13
146.6466428484
 23
153.79279953
 33
0.0
  0
LINE
  5
214
330
210
100
AcDbEntity
  8
0
  6
Continuous
 62
     7
370
    18
100
AcDbLine
 10
119.7333996853
 20
157.6617003246
 30
0.0
 11
119.0895802312
 21
157.6617003246
 31
0.0
  0
LINE
  5
215
330
210
100
AcDbEntity
  8
0
  6
Continuous
 62
     7
370
    18
100
AcDbLine
 10
119.0895802312
 20
157.6617003246
 30
0.0
 11
119.0895802312
 21
154.2985522481
 31
0.0
  0
LINE
  5
216
330
210
100
AcDbEntity
  8
0
  6
Continuous
 62
     7
370
    18
100
AcDbLine
 10
119.0895802312
 20
154.2985522481
 30
0.0
 11
119.7333996853
 21
154.2985522481
 31
0.0
  0
LINE
  5
217
330
210
100
AcDbEntity
  8
0
  6
Continuous
 62
     7
370
    18
100
AcDbLine
 10
127.4905912316
 20
157.6617003246
 30
0.0
 11
128.1344106857
 21
157.6617003246
 31
0.0
  0
LINE
  5
218
330
210
100
AcDbEntity
  8
0
  6
Continuous
 62
     7
370
    18
100
AcDbLine
 10
128.1344106857
 20
157.6617003246
 30
0.0
 11
128.1344106857
 21
154.2985522481
 31
0.0
  0
LINE
  5
219
330
210
100
AcDbEntity
  8
0
  6
Continuous
 62
     7
370
    18
100
AcDbLine
 10
128.1344106857
 20
154.2985522481
 30
0.0
 11
127.4905912316
 21
154.2985522481
 31
0.0
  0
LINE
  5
21A
330
210
100
AcDbEntity
  8
0
  6
Continuous
 62
     7
370
    18
100
AcDbLine
 10
149.7767762604
 20
153.0573038991
 30
0.0
 11
134.7323354066
 21
159.2315714395
 31
0.0
  0
LINE
  5
21B
330
210
100
AcDbEntity
  8
0
  6
Continuous
 62
     7
370
    18
100
AcDbLine
 10
134.7323354066
 20
159.2315714395
 30
0.0
 11
130.9223354066
 21
159.2315714395
 31
0.0
  0
MTEXT
  5
21C
330
210
100
AcDbEntity
  8
0
  6
Continuous
 62
     7
370
    18
100
AcDbMText
 10
118.4457607771
 20
160.8194399711
 30
0.0
 40
2.1166666667
 41
0.0
 71
     1
 72
     1
  1
R41.4mm
  7
SLDTEXTSTYLE0
 73
     1
 44
1.0
  0
MTEXT
  5
21D
330
210
100
AcDbEntity
  8
0
  6
Continuous
 62
     7
370
    18
100
AcDbMText
 10
119.7333996853
 20
157.0270788476
 30
0.0
 40
2.1166666667
 41
0.0
 71
     1
 72
     1
  1
1.63in
  7
SLDTEXTSTYLE0
 73
     1
 44
1.0
  0
ENDBLK
  5
212
330
210
100
AcDbEntity
  8
0
100
AcDbBlockEnd
  0
BLOCK
  5
221
330
220
100
AcDbEntity
  8
0
100
AcDbBlockBegin
  2
_D_2
 70
     0
 10
0.0
 20
0.0
 30
0.0
  3
_D_2
  1

  0
SOLID
  5
223
330
220
100
AcDbEntity
  8
0
  6
Continuous
 62
     7
370
    18
100
AcDbTrace
 10
146.6760509468
 20
89.8375636696
 30
0.0
 11
149.8510509468
 21
89.3295636696
 31
0.0
 12
149.8510509468
 22
90.3455636696
 32
0.0
 13
149.8510509468
 23
90.3455636696
 33
0.0
  0
SOLID
  5
224
330
220
100
AcDbEntity
  8
0
  6
Continuous
 62
     7
370
    18
100
AcDbTrace
 10
173.5260509468
 20
89.8375636696
 30
0.0
 11
170.3510509468
 21
90.3455636696
 31
0.0
 12
170.3510509468
 22
89.3295636696
 32
0.0
 13
170.3510509468
 23
89.3295636696
 33
0.0
  0
LINE
  5
225
330
220
100
AcDbEntity
  8
0
  6
Continuous
 62
     7
370
    18
100
AcDbLine
 10
156.2224554065
 20
89.8375634368
 30
0.0
 11
155.5786359524
 21
89.8375634368
 31
0.0
  0
LINE
  5
226
330
220
100
AcDbEntity
  8
0
  6
Continuous
 62
     7
370
    18
100
AcDbLine
 10
155.5786359524
 20
89.8375634368
 30
0.0
 11
155.5786359524
 21
86.4744153603
 31
0.0
  0
LINE
  5
227
330
220
100
AcDbEntity
  8
0
  6
Continuous
 62
     7
370
    18
100
AcDbLine
 10
155.5786359524
 20
86.4744153603
 30
0.0
 11
156.2224554065
 21
86.4744153603
 31
0.0
  0
LINE
  5
228
330
220
100
AcDbEntity
  8
0
  6
Continuous
 62
     7
370
    18
100
AcDbLine
 10
163.9796469528
 20
89.8375634368
 30
0.0
 11
164.6234664069
 21
89.8375634368
 31
0.0
  0
LINE
  5
229
330
220
100
AcDbEntity
  8
0
  6
Continuous
 62
     7
370
    18
100
AcDbLine
 10
164.6234664069
 20
89.8375634368
 30
0.0
 11
164.6234664069
 21
86.4744153603
 31
0.0
  0
LINE
  5
22A
330
220
100
AcDbEntity
  8
0
  6
Continuous
 62
     7
370
    18
100
AcDbLine
 10
164.6234664069
 20
86.4744153603
 30
0.0
 11
163.9796469528
 21
86.4744153603
 31
0.0
  0
LINE
  5
22B
330
220
100
AcDbEntity
  8
0
  6
Continuous
 62
     7
370
    18
100
AcDbLine
 10
146.6760509468
 20
136.0675636696
 30
0.0
 11
146.6760509468
 21
88.0595636696
 31
0.0
  0
LINE
  5
22C
330
220
100
AcDbEntity
  8
0
  6
Continuous
 62
     7
370
    18
100
AcDbLine
 10
173.5260509468
 20
98.8175636696
 30
0.0
 11
173.5260509468
 21
88.0595636696
 31
0.0
  0
LINE
  5
22D
330
220
100
AcDbEntity
  8
0
  6
Continuous
 62
     7
370
    18
100
AcDbLine
 10
146.6760509468
 20
89.8375636696
 30
0.0
 11
152.7293903018
 21
89.8375636696
 31
0.0
  0
LINE
  5
22E
330
220
100
AcDbEntity
  8
0
  6
Continuous
 62
     7
370
    18
100
AcDbLine
 10
173.5260509468
 20
89.8375636696
 30
0.0
 11
167.4727115919
 21
89.8375636696
 31
0.0
  0
MTEXT
  5
22F
330
220
100
AcDbEntity
  8
0
  6
Continuous
 62
     7
370
    18
100
AcDbMText
 10
154.7466680534
 20
92.9953030833
 30
0.0
 40
2.1166666667
 41
0.0
 71
     1
 72
     1
  1

  7
SLDTEXTSTYLE0
 73
     1
 44
1.0
  0
MTEXT
  5
230
330
220
100
AcDbEntity
  8
0
  6
Continuous
 62
     7
370
    18
100
AcDbMText
 10
154.7192297578
 20
92.9953030833
 30
0.0
 40
2.1166666667
 41
0.0
 71
     1
 72
     1
  1
26.9mm
  7
SLDTEXTSTYLE0
 73
     1
 44
1.0
  0
MTEXT
  5
231
330
220
100
AcDbEntity
  8
0
  6
Continuous
 62
     7
370
    18
100
AcDbMText
 10
156.2224554065
 20
89.2029419598
 30
0.0
 40
2.1166666667
 41
0.0
 71
     1
 72
     1
  1
1.06in
  7
SLDTEXTSTYLE0
 73
     1
 44
1.0
  0
MTEXT
  5
232
330
220
100
AcDbEntity
  8
0
  6
Continuous
 62
     7
370
    18
100
AcDbMText
 10
167.0703716703
 20
92.9953030833
 30
0.0
 40
2.1166666667
 41
0.0
 71
     1
 72
     1
  1

  7
SLDTEXTSTYLE0
 73
     1
 44
1.0
  0
ENDBLK
  5
222
330
220
100
AcDbEntity
  8
0
100
AcDbBlockEnd
  0
BLOCK
  5
236
330
235
100
AcDbEntity
  8
0
100
AcDbBlockBegin
  2
_D_3
 70
     0
 10
0.0
 20
0.0
 30
0.0
  3
_D_3
  1

  0
SOLID
  5
238
330
235
100
AcDbEntity
  8
0
  6
Continuous
 62
     7
370
    18
100
AcDbTrace
 10
170.30294383
 20
181.3784333007
 30
0.0
 11
167.12794383
 21
181.8864333007
 31
0.0
 12
167.12794383
 22
180.8704333007
 32
0.0
 13
167.12794383
 23
180.8704333007
 33
0.0
  0
SOLID
  5
239
330
235
100
AcDbEntity
  8
0
  6
Continuous
 62
     7
370
    18
100
AcDbTrace
 10
173.2760509468
 20
181.3784333007
 30
0.0
 11
176.4510509468
 21
180.8704333007
 31
0.0
 12
176.4510509468
 22
181.8864333007
 32
0.0
 13
176.4510509468
 23
181.8864333007
 33
0.0
  0
LINE
  5
23A
330
235
100
AcDbEntity
  8
0
  6
Continuous
 62
     7
370
    18
100
AcDbLine
 10
188.0281519544
 20
183.3304700503
 30
0.0
 11
187.3843325002
 21
183.3304700503
 31
0.0
  0
LINE
  5
23B
330
235
100
AcDbEntity
  8
0
  6
Continuous
 62
     7
370
    18
100
AcDbLine
 10
187.3843325002
 20
183.3304700503
 30
0.0
 11
187.3843325002
 21
179.9673219738
 31
0.0
  0
LINE
  5
23C
330
235
100
AcDbEntity
  8
0
  6
Continuous
 62
     7
370
    18
100
AcDbLine
 10
187.3843325002
 20
179.9673219738
 30
0.0
 11
188.0281519544
 21
179.9673219738
 31
0.0
  0
LINE
  5
23D
330
235
100
AcDbEntity
  8
0
  6
Continuous
 62
     7
370
    18
100
AcDbLine
 10
195.7853435006
 20
183.3304700503
 30
0.0
 11
196.4291629548
 21
183.3304700503
 31
0.0
  0
LINE
  5
23E
330
235
100
AcDbEntity
  8
0
  6
Continuous
 62
     7
370
    18
100
AcDbLine
 10
196.4291629548
 20
183.3304700503
 30
0.0
 11
196.4291629548
 21
179.9673219738
 31
0.0
  0
LINE
  5
23F
330
235
100
AcDbEntity
  8
0
  6
Continuous
 62
     7
370
    18
100
AcDbLine
 10
196.4291629548
 20
179.9673219738
 30
0.0
 11
195.7853435006
 21
179.9673219738
 31
0.0
  0
LINE
  5
240
330
235
100
AcDbEntity
  8
0
  6
Continuous
 62
     7
370
    18
100
AcDbLine
 10
170.30294383
 20
176.0022854798
 30
0.0
 11
170.30294383
 21
183.1564333007
 31
0.0
  0
LINE
  5
241
330
235
100
AcDbEntity
  8
0
  6
Continuous
 62
     7
370
    18
100
AcDbLine
 10
173.2760509468
 20
176.1075636696
 30
0.0
 11
173.2760509468
 21
183.1564333007
 31
0.0
  0
LINE
  5
242
330
235
100
AcDbEntity
  8
0
  6
Continuous
 62
     7
370
    18
100
AcDbLine
 10
170.30294383
 20
181.3784333007
 30
0.0
 11
163.95294383
 21
181.3784333007
 31
0.0
  0
LINE
  5
243
330
235
100
AcDbEntity
  8
0
  6
Continuous
 62
     7
370
    18
100
AcDbLine
 10
173.2760509468
 20
181.3784333007
 30
0.0
 11
186.3107352945
 21
181.3784333007
 31
0.0
  0
MTEXT
  5
244
330
235
100
AcDbEntity
  8
0
  6
Continuous
 62
     7
370
    18
100
AcDbMText
 10
187.306917359
 20
186.4882096968
 30
0.0
 40
2.1166666667
 41
0.0
 71
     1
 72
     1
  1
3.0mm
  7
SLDTEXTSTYLE0
 73
     1
 44
1.0
  0
MTEXT
  5
245
330
235
100
AcDbEntity
  8
0
  6
Continuous
 62
     7
370
    18
100
AcDbMText
 10
188.0281519544
 20
182.6958485733
 30
0.0
 40
2.1166666667
 41
0.0
 71
     1
 72
     1
  1
0.12in
  7
SLDTEXTSTYLE0
 73
     1
 44
1.0
  0
MTEXT
  5
246
330
235
100
AcDbEntity
  8
0
  6
Continuous
 62
     7
370
    18
100
AcDbMText
 10
189.6097721465
 20
178.9034876826
 30
0.0
 40
2.1166666667
 41
0.0
 71
     1
 72
     1
  1
REF
  7
SLDTEXTSTYLE0
 73
     1
 44
1.0
  0
ENDBLK
  5
237
330
235
100
AcDbEntity
  8
0
100
AcDbBlockEnd
  0
ENDSEC
  0
SECTION
  2
ENTITIES
  0
LINE
  5
115
330
1F
100
AcDbEntity
  8
0
  6
Continuous
 62
     7
370
    18
100
AcDbLine
 10
1.5793501011
 20
214.6453799966
 30
0.0
 11
277.9892068491
 21
214.6453799966
 31
0.0
  0
LINE
  5
116
330
1F
100
AcDbEntity
  8
0
  6
Continuous
 62
     7
370
    18
100
AcDbLine
 10
1.5793501011
 20
214.6453799966
 30
0.0
 11
1.5793501011
 21
0.9031642596
 31
0.0
  0
LINE
  5
117
330
1F
100
AcDbEntity
  8
0
  6
Continuous
 62
     7
370
    18
100
AcDbLine
 10
277.9892068491
 20
0.9031642596
 30
0.0
 11
1.5793501011
 21
0.9031642596
 31
0.0
  0
LINE
  5
118
330
1F
100
AcDbEntity
  8
0
  6
Continuous
 62
     7
370
    18
100
AcDbLine
 10
277.9892068491
 20
0.9031642596
 30
0.0
 11
277.9892068491
 21
214.6453799966
 31
0.0
  0
LINE
  5
119
330
1F
100
AcDbEntity
  8
0
  6
Continuous
 62
     7
370
    18
100
AcDbLine
 10
215.7427640041
 20
12.2958890132
 30
0.0
 11
171.6327596684
 21
12.2958890132
 31
0.0
  0
LINE
  5
11A
330
1F
100
AcDbEntity
  8
0
  6
Continuous
 62
     7
370
    18
100
AcDbLine
 10
171.6327596684
 20
12.2958890132
 30
0.0
 11
171.6327596684
 21
26.1661402506
 31
0.0
  0
LINE
  5
11B
330
1F
100
AcDbEntity
  8
0
  6
Continuous
 62
     7
370
    18
100
AcDbLine
 10
171.6327596684
 20
0.9031642596
 30
0.0
 11
171.6327596684
 21
26.1661402506
 31
0.0
  0
LINE
  5
11C
330
1F
100
AcDbEntity
  8
0
  6
Continuous
 62
     7
370
    18
100
AcDbLine
 10
215.7427640041
 20
17.1604579552
 30
0.0
 11
277.9892068491
 21
17.1604579552
 31
0.0
  0
LINE
  5
11D
330
1F
100
AcDbEntity
  8
0
  6
Continuous
 62
     7
370
    18
100
AcDbLine
 10
215.7427640041
 20
35.2394508358
 30
0.0
 11
215.7427640041
 21
0.9031642596
 31
0.0
  0
LINE
  5
11E
330
1F
100
AcDbEntity
  8
0
  6
Continuous
 62
     7
370
    18
100
AcDbLine
 10
215.7427640041
 20
26.1661402506
 30
0.0
 11
171.6327596684
 21
26.1661402506
 31
0.0
  0
LINE
  5
11F
330
1F
100
AcDbEntity
  8
0
  6
Continuous
 62
     7
370
    18
100
AcDbLine
 10
215.7427640041
 20
9.1409200612
 30
0.0
 11
277.9892068491
 21
9.1409200612
 31
0.0
  0
LINE
  5
120
330
1F
100
AcDbEntity
  8
0
  6
Continuous
 62
     7
370
    18
100
AcDbLine
 10
215.7427640041
 20
16.9216824031
 30
0.0
 11
171.6327596684
 21
16.9216824031
 31
0.0
  0
LINE
  5
121
330
1F
100
AcDbEntity
  8
0
  6
Continuous
 62
     7
370
    18
100
AcDbLine
 10
215.7427640041
 20
21.4874005542
 30
0.0
 11
171.6327596684
 21
21.4874005542
 31
0.0
  0
LINE
  5
122
330
1F
100
AcDbEntity
  8
0
  6
Continuous
 62
     7
370
    18
100
AcDbLine
 10
186.1338100705
 20
26.1661402506
 30
0.0
 11
186.1338100705
 21
12.2958890132
 31
0.0
  0
LINE
  5
123
330
1F
100
AcDbEntity
  8
0
  6
Continuous
 62
     7
370
    18
100
AcDbLine
 10
198.2145906188
 20
26.1661402506
 30
0.0
 11
198.2145906188
 21
12.2958890132
 31
0.0
  0
LINE
  5
124
330
1F
100
AcDbEntity
  8
0
  6
Continuous
 62
     7
370
    18
100
AcDbLine
 10
253.7490408369
 20
9.1409200612
 30
0.0
 11
253.7490408369
 21
0.9031642596
 31
0.0
  0
LINE
  5
125
330
1F
100
AcDbEntity
  8
0
  6
Continuous
 62
     7
370
    18
100
AcDbLine
 10
171.6327596684
 20
12.2958890132
 30
0.0
 11
171.6327596684
 21
7.5627342528
 31
0.0
  0
LINE
  5
126
330
1F
100
AcDbEntity
  8
0
  6
Continuous
 62
     7
370
    18
100
AcDbLine
 10
171.6327596684
 20
7.5627342528
 30
0.0
 11
215.7427640041
 21
7.5627342528
 31
0.0
  0
LINE
  5
127
330
1F
100
AcDbEntity
  8
0
  6
Continuous
 62
     7
370
    18
100
AcDbLine
 10
171.6327596684
 20
7.5627342528
 30
0.0
 11
171.6327596684
 21
35.2394508358
 31
0.0
  0
LINE
  5
128
330
1F
100
AcDbEntity
  8
0
  6
Continuous
 62
     7
370
    18
100
AcDbLine
 10
171.6327596684
 20
35.2394508358
 30
0.0
 11
215.7427640041
 21
35.2394508358
 31
0.0
  0
LINE
  5
129
330
1F
100
AcDbEntity
  8
0
  6
Continuous
 62
     7
370
    18
100
AcDbLine
 10
270.1683598194
 20
17.1604579552
 30
0.0
 11
270.1683598194
 21
9.1409200612
 31
0.0
  0
LINE
  5
12A
330
1F
100
AcDbEntity
  8
0
  6
Continuous
 62
     7
370
    18
100
AcDbLine
 10
215.7427640041
 20
35.2394508358
 30
0.0
 11
277.9892068491
 21
35.2394508358
 31
0.0
  0
LINE
  5
12B
330
1F
100
AcDbEntity
  8
0
  6
Continuous
 62
     7
370
    18
100
AcDbLine
 10
277.9892068491
 20
35.2394508358
 30
0.0
 11
277.9892068491
 21
50.0331356147
 31
0.0
  0
LINE
  5
12C
330
1F
100
AcDbEntity
  8
0
  6
Continuous
 62
     7
370
    18
100
AcDbLine
 10
215.7427640041
 20
24.8927335446
 30
0.0
 11
277.9892068491
 21
24.8927335446
 31
0.0
  0
INSERT
  5
12D
330
1F
100
AcDbEntity
  8
0
  6
Continuous
 62
     7
100
AcDbBlockReference
  2
Third Angle Projection Block
 10
117.7262204235
 20
15.5162339489
 30
0.0
 41
0.8
 42
0.8
 43
0.8
  0
INSERT
  5
12E
330
1F
100
AcDbEntity
  8
0
  6
Continuous
 62
     7
100
AcDbBlockReference
  2
THORLABS LOGO1
 10
221.4689095479
 20
21.3590046332
 30
0.0
 41
0.25
 42
0.25
 43
0.25
  0
INSERT
  5
140
330
1F
100
AcDbEntity
  8
0
  6
Continuous
 62
     7
370
     0
100
AcDbBlockReference
  2
SW_NOTE_0
 10
15.3672660057
 20
64.9510241138
 30
0.0
  0
MTEXT
  5
141
330
1F
100
AcDbEntity
  8
0
  6
Continuous
 62
     7
370
     0
100
AcDbMText
 10
274.1458225539
 20
13.2559386876
 30
0.0
 40
3.175
 41
0.0
 71
     2
 72
     1
  1
A
  7
SLDTEXTSTYLE0
 73
     1
 44
1.0
  0
MTEXT
  5
142
330
1F
100
AcDbEntity
  8
0
  6
Continuous
 62
     7
370
     0
100
AcDbMText
 10
234.4925714201
 20
5.1306563898
 30
0.0
 40
3.175
 41
0.0
 71
     2
 72
     1
  1
LA4384-B
  7
SLDTEXTSTYLE0
 73
     1
 44
1.0
  0
MTEXT
  5
143
330
1F
100
AcDbEntity
  8
0
  6
Continuous
 62
     7
370
     0
100
AcDbMText
 10
216.4199766059
 20
16.8243178599
 30
0.0
 40
2.1166666667
 41
0.0
 71
     1
 72
     1
  1
MATERIAL
  7
SLDTEXTSTYLE0
 73
     1
 44
1.0
  0
MTEXT
  5
144
330
1F
100
AcDbEntity
  8
0
  6
Continuous
 62
     7
370
     0
100
AcDbMText
 10
174.230946566
 20
20.054553926
 30
0.0
 40
1.8520833333
 41
0.0
 71
     1
 72
     1
  1
DRAWN
  7
SLDTEXTSTYLE0
 73
     1
 44
1.0
  0
MTEXT
  5
145
330
1F
100
AcDbEntity
  8
0
  6
Continuous
 62
     7
370
     0
100
AcDbMText
 10
172.3960124543
 20
15.5787169747
 30
0.0
 40
1.8520833333
 41
0.0
 71
     1
 72
     1
  1
APPROVAL
  7
SLDTEXTSTYLE0
 73
     1
 44
1.0
  0
MTEXT
  5
146
330
1F
100
AcDbEntity
  8
0
  6
Continuous
 62
     7
370
     0
100
AcDbMText
 10
271.7160653675
 20
16.1671746307
 30
0.0
 40
2.1166666667
 41
0.0
 71
     1
 72
     1
  1
REV
  7
SLDTEXTSTYLE0
 73
     1
 44
1.0
  0
MTEXT
  5
147
330
1F
100
AcDbEntity
  8
0
  6
Continuous
 62
     7
370
     0
100
AcDbMText
 10
190.2958696448
 20
20.3177146903
 30
0.0
 40
2.1166666667
 41
0.0
 71
     1
 72
     1
  1
YB
  7
SLDTEXTSTYLE0
 73
     1
 44
1.0
  0
MTEXT
  5
148
330
1F
100
AcDbEntity
  8
0
  6
Continuous
 62
     7
370
     0
100
AcDbMText
 10
190.2958696448
 20
15.841877739
 30
0.0
 40
2.1166666667
 41
0.0
 71
     1
 72
     1
  1
DS
  7
SLDTEXTSTYLE0
 73
     1
 44
1.0
  0
MTEXT
  5
149
330
1F
100
AcDbEntity
  8
0
  6
Continuous
 62
     7
370
     0
100
AcDbMText
 10
199.8662436873
 20
20.3177146903
 30
0.0
 40
2.1166666667
 41
0.0
 71
     1
 72
     1
  1
25/JUN/21
  7
SLDTEXTSTYLE0
 73
     1
 44
1.0
  0
MTEXT
  5
14A
330
1F
100
AcDbEntity
  8
0
  6
Continuous
 62
     7
370
     0
100
AcDbMText
 10
203.6145073853
 20
24.8221395769
 30
0.0
 40
2.1166666667
 41
0.0
 71
     1
 72
     1
  1
DATE
  7
SLDTEXTSTYLE0
 73
     1
 44
1.0
  0
MTEXT
  5
14B
330
1F
100
AcDbEntity
  8
0
  6
Continuous
 62
     7
370
     0
100
AcDbMText
 10
199.8662436873
 20
15.841877739
 30
0.0
 40
2.1166666667
 41
0.0
 71
     1
 72
     1
  1
27/AUG/21
  7
SLDTEXTSTYLE0
 73
     1
 44
1.0
  0
MTEXT
  5
14D
330
1F
100
AcDbEntity
  8
0
  6
Continuous
 62
     7
370
     0
100
AcDbMText
 10
229.402906477
 20
27.7957480569
 30
0.0
 40
2.1166666667
 41
0.0
 71
     1
 72
     1
  1
w w w . t h o r  l a b s . c o m
  7
SLDTEXTSTYLE1
 73
     1
 44
1.0
  0
MTEXT
  5
14E
330
1F
100
AcDbEntity
  8
0
  6
Continuous
 62
     7
370
     0
100
AcDbMText
 10
216.7004035316
 20
8.3494791871
 30
0.0
 40
2.1166666667
 41
0.0
 71
     1
 72
     1
  1
ITEM #
  7
SLDTEXTSTYLE0
 73
     1
 44
1.0
  0
MTEXT
  5
14F
330
1F
100
AcDbEntity
  8
0
  6
Continuous
 62
     7
370
     0
100
AcDbMText
 10
254.5318000914
 20
8.3494791871
 30
0.0
 40
2.1166666667
 41
0.0
 71
     1
 72
     1
  1
APPROX WEIGHT
  7
SLDTEXTSTYLE0
 73
     1
 44
1.0
  0
MTEXT
  5
150
330
1F
100
AcDbEntity
  8
0
  6
Continuous
 62
     7
370
     0
100
AcDbMText
 10
243.4409424799
 20
13.8247651814
 30
0.0
 40
3.175
 41
0.0
 71
     2
 72
     1
  1
UV FUSED SILICA
  7
SLDTEXTSTYLE0
 73
     1
 44
1.0
  0
MTEXT
  5
151
330
1F
100
AcDbEntity
  8
0
  6
Continuous
 62
     7
370
     0
100
AcDbMText
 10
266.1233839847
 20
5.1306563898
 30
0.0
 40
3.175
 41
0.0
 71
     2
 72
     1
  1
160.88 g
  7
SLDTEXTSTYLE0
 73
     1
 44
1.0
  0
INSERT
  5
157
330
1F
100
AcDbEntity
  8
0
  6
Continuous
 62
     7
370
     0
100
AcDbBlockReference
  2
SW_NOTE_1
 10
174.8430140051
 20
4.4558554801
 30
0.0
  0
INSERT
  5
15D
330
1F
100
AcDbEntity
  8
0
  6
Continuous
 62
     7
370
     0
100
AcDbBlockReference
  2
SW_NOTE_2
 10
174.5483650337
 20
30.4835322715
 30
0.0
  0
MTEXT
  5
15E
330
1F
100
AcDbEntity
  8
0
  6
Continuous
 62
     7
370
     0
100
AcDbMText
 10
187.9273588276
 20
24.8221395769
 30
0.0
 40
2.1166666667
 41
0.0
 71
     1
 72
     1
  1
NAME
  7
SLDTEXTSTYLE0
 73
     1
 44
1.0
  0
INSERT
  5
164
330
1F
100
AcDbEntity
  8
0
  6
Continuous
 62
     7
370
     0
100
AcDbBlockReference
  2
SW_NOTE_3
 10
58.6204667508
 20
8.1776609732
 30
0.0
  0
INSERT
  5
16B
330
1F
100
AcDbEntity
  8
0
  6
Continuous
 62
     7
370
     0
100
AcDbBlockReference
  2
SW_NOTE_4
 10
219.8580850209
 20
20.6862828027
 30
0.0
  0
MTEXT
  5
16C
330
1F
100
AcDbEntity
  8
0
  6
Continuous
 62
     7
370
     0
100
AcDbMText
 10
177.6925831922
 20
10.7142101515
 30
0.0
 40
1.5875
 41
0.0
 71
     1
 72
     1
  1
COPYRIGHT © 2021 BY THORLABS
  7
SLDTEXTSTYLE0
 73
     1
 44
1.0
  0
CIRCLE
  5
16D
330
1F
100
AcDbEntity
  8
0
  6
Continuous
 62
     7
370
    18
100
AcDbCircle
 10
54.8000071135
 20
137.3375636696
 30
0.0
 40
37.39472181018341
  0
CIRCLE
  5
16E
330
1F
100
AcDbEntity
  8
0
  6
Continuous
 62
     7
370
    18
100
AcDbCircle
 10
54.8000071135
 20
137.3375636696
 30
0.0
 40
37.5
  0
DIMENSION
  5
16F
330
1F
100
AcDbEntity
  8
0
  6
Continuous
 62
     7
370
    18
100
AcDbDimension
  2
_D
 10
28.3537273192
 20
110.7510203622
 30
0.0
 11
110.1947986425
 21
182.1796134229
 31
0.0
 70
   163
  1
<>
 71
     1
 42
-1.0
  3
SLDDIMSTYLE0
100
AcDbDiametricDimension
 15
81.2462869079
 25
163.9241069771
 35
0.0
 40
0.0
  0
LINE
  5
180
330
1F
100
AcDbEntity
  8
0
  6
PHANTOM
 62
     7
370
    35
100
AcDbLine
 10
54.8000071135
 20
183.8375636696
 30
0.0
 11
54.8000071135
 21
90.8375636696
 31
0.0
  0
LINE
  5
181
330
1F
100
AcDbEntity
  8
0
  6
Continuous
 62
     7
370
    35
100
AcDbLine
 10
54.8000071135
 20
183.8375636696
 30
0.0
 11
45.9100071135
 21
183.8375636696
 31
0.0
  0
SOLID
  5
182
330
1F
100
AcDbEntity
  8
0
  6
Continuous
 62
     7
370
    35
100
AcDbTrace
 10
45.9100071135
 20
183.8375636696
 30
0.0
 11
49.7200071135
 21
183.2025636696
 31
0.0
 12
49.7200071135
 22
184.4725636696
 32
0.0
 13
49.7200071135
 23
184.4725636696
 33
0.0
  0
LINE
  5
183
330
1F
100
AcDbEntity
  8
0
  6
Continuous
 62
     7
370
    35
100
AcDbLine
 10
54.8000071135
 20
90.8375636696
 30
0.0
 11
45.9100071135
 21
90.8375636696
 31
0.0
  0
SOLID
  5
184
330
1F
100
AcDbEntity
  8
0
  6
Continuous
 62
     7
370
    35
100
AcDbTrace
 10
45.9100071135
 20
90.8375636696
 30
0.0
 11
49.7200071135
 21
90.2025636696
 31
0.0
 12
49.7200071135
 22
91.4725636696
 32
0.0
 13
49.7200071135
 23
91.4725636696
 33
0.0
  0
MTEXT
  5
185
330
1F
100
AcDbEntity
  8
0
  6
Continuous
 62
     7
100
AcDbMText
 10
42.5039681459
 20
185.9388483398
 30
0.0
 40
2.6458333333
 41
0.0
 71
     1
 72
     1
  1
A
  7
SLDTEXTSTYLE0
 73
     1
 44
1.0
  0
MTEXT
  5
186
330
1F
100
AcDbEntity
  8
0
  6
Continuous
 62
     7
100
AcDbMText
 10
42.5039681459
 20
92.9388483398
 30
0.0
 40
2.6458333333
 41
0.0
 71
     1
 72
     1
  1
A
  7
SLDTEXTSTYLE0
 73
     1
 44
1.0
  0
SPLINE
  5
187
330
1F
100
AcDbEntity
  8
0
  6
Continuous
 62
     7
370
    18
100
AcDbSpline
210
0.0
220
0.0
230
1.0
 70
     8
 71
     3
 72
    79
 73
    75
 74
     0
 42
0.000000001
 43
0.00000001
 40
0.0
 40
0.0
 40
0.0
 40
0.0
 40
0.0017116982883401
 40
0.0156706363955131
 40
0.0296157608739269
 40
0.0435473322370805
 40
0.0574656465763152
 40
0.0713710405625008
 40
0.0852638969866028
 40
0.0991446508781408
 40
0.1130137962377936
 40
0.1268718934143068
 40
0.1407195771473878
 40
0.1545575652843769
 40
0.1683866681601387
 40
0.1822077986036827
 40
0.1960219825011403
 40
0.2098303698003864
 40
0.2236342457869718
 40
0.2374350423912432
 40
0.2512343492024068
 40
0.2650339237653091
 40
0.2788357006203816
 40
0.2926417984190165
 40
0.306454524309362
 40
0.3202763746495013
 40
0.334110030978415
 40
0.3479583500763763
 40
0.3618243468986411
 40
0.3757111691966523
 40
0.3896220627803327
 40
0.4035603266550067
 40
0.4175292577130206
 40
0.4315320852877867
 40
0.4455718966792602
 40
0.45965155569893
 40
0.4737736172853688
 40
0.48794024219815
 40
0.5021531165679237
 40
0.5164133815109846
 40
0.5307215771683451
 40
0.5450776084955549
 40
0.5594807331388797
 40
0.5739295736537271
 40
0.5884221547767733
 40
0.6029559630900133
 40
0.6175280250782195
 40
0.6321349982854794
 40
0.646773269602056
 40
0.6614390547003902
 40
0.6761284932219271
 40
0.6908377353422693
 40
0.7055630166167739
 40
0.7203007193361142
 40
0.7350474198414121
 40
0.749799922250521
 40
0.7645552797809894
 40
0.7793108053143695
 40
0.7940640730644825
 40
0.8088129132360099
 40
0.82355540144665
 40
0.8382898444873182
 40
0.8530147637538452
 40
0.867728877433073
 40
0.8824310822875963
 40
0.8971204356704906
 40
0.9117961382194745
 40
0.9264575175312495
 40
0.9411040129988527
 40
0.9557351619047744
 40
0.9703505867959429
 40
0.9849499841193196
 40
0.9995331140646723
 40
1.0
 40
1.0
 40
1.0
 40
1.0
 10
221.8550019385505
 20
202.743075321043
 30
0.0
 10
221.8317382417572
 20
202.7010388891362
 30
0.0
 10
221.6187585734672
 20
202.3161944079186
 30
0.0
 10
221.2441497627053
 20
201.573789015953
 30
0.0
 10
220.7338742775547
 20
200.5161953117706
 30
0.0
 10
220.2572022856709
 20
199.444073262338
 30
0.0
 10
219.810708917804
 20
198.3603268671359
 30
0.0
 10
219.3956471022206
 20
197.2652910266487
 30
0.0
 10
219.011986717796
 20
196.1599883309112
 30
0.0
 10
218.6600100132432
 20
195.0452561169325
 30
0.0
 10
218.3398853333774
 20
193.9219784765863
 30
0.0
 10
218.0517819285835
 20
192.7910225806351
 30
0.0
 10
217.7958401135578
 20
191.6532541057835
 30
0.0
 10
217.572180281678
 20
190.5095314850324
 30
0.0
 10
217.3809016790342
 20
189.3607058291912
 30
0.0
 10
217.2220840872663
 20
188.2076193513966
 30
0.0
 10
217.095788905042
 20
187.0511042348104
 30
0.0
 10
217.0020605745212
 20
185.8919814518593
 30
0.0
 10
216.9409281030078
 20
184.731059701257
 30
0.0
 10
216.9124067453539
 20
183.5691344610092
 30
0.0
 10
216.9164998215535
 20
182.406987209691
 30
0.0
 10
216.9532006594137
 20
181.2453848637444
 30
0.0
 10
217.0224946364455
 20
180.0850794901997
 30
0.0
 10
217.1243612847579
 20
178.9268083614402
 30
0.0
 10
217.2587764077304
 20
177.7712944260293
 30
0.0
 10
217.4257141403045
 20
176.6192472746974
 30
0.0
 10
217.6251488654888
 20
175.471364682308
 30
0.0
 10
217.8570568791072
 20
174.3283348031492
 30
0.0
 10
218.1214176742002
 20
173.1908390862205
 30
0.0
 10
218.4182146978678
 20
172.0595559571476
 30
0.0
 10
218.7474354194576
 20
170.9351652819474
 30
0.0
 10
219.1090705433224
 20
169.8183535836188
 30
0.0
 10
219.5031122058556
 20
168.7098199250986
 30
0.0
 10
219.9295510191457
 20
167.6102823028741
 30
0.0
 10
220.3883718657989
 20
166.5204843182077
 30
0.0
 10
220.8795484130659
 20
165.4412018140366
 30
0.0
 10
221.4030363986811
 20
164.3732490944615
 30
0.0
 10
221.9587658415201
 20
163.3174842918153
 30
0.0
 10
222.5466324390762
 20
162.274813425824
 30
0.0
 10
223.1664885071348
 20
161.2461927403746
 30
0.0
 10
223.8181339408984
 20
160.2326289055927
 30
0.0
 10
224.5013076934083
 20
159.2351768697166
 30
0.0
 10
225.2156802909189
 20
158.2549352721352
 30
0.0
 10
225.9608478272677
 20
157.2930395530549
 30
0.0
 10
226.7363278243625
 20
156.3506530203677
 30
0.0
 10
227.5415572042569
 20
155.4289563130057
 30
0.0
 10
228.3758924408222
 20
154.529135839567
 30
0.0
 10
229.2386118015087
 20
153.6523718188507
 30
0.0
 10
230.128919443919
 20
152.7998265415907
 30
0.0
 10
231.0459510212982
 20
151.9726334055709
 30
0.0
 10
231.9887803854715
 20
151.1718871637281
 30
0.0
 10
232.9564269571249
 20
150.3986356861359
 30
0.0
 10
233.9478633563601
 20
149.6538733921878
 30
0.0
 10
234.9620229409217
 20
148.9385363762741
 30
0.0
 10
235.9978069729524
 20
148.2534991410925
 30
0.0
 10
237.0540912155059
 20
147.599572773715
 30
0.0
 10
238.1297318373702
 20
146.9775043514969
 30
0.0
 10
239.2235705722236
 20
146.3879773448621
 30
0.0
 10
240.3344391319891
 20
145.8316127853193
 30
0.0
 10
241.4611629135875
 20
145.3089709872127
 30
0.0
 10
242.6025640636688
 20
144.8205536297156
 30
0.0
 10
243.7574639806201
 20
144.3668060715481
 30
0.0
 10
244.9246853353098
 20
143.94811967468
 30
0.0
 10
246.1030537006502
 20
143.5648344214274
 30
0.0
 10
247.2913988360659
 20
143.2172403525787
 30
0.0
 10
248.4885558068553
 20
142.9055830227309
 30
0.0
 10
249.6933655791295
 20
142.6300534124877
 30
0.0
 10
250.9046766968905
 20
142.3908350838932
 30
0.0
 10
252.1213422775775
 20
142.1879372758528
 30
0.0
 10
253.3422339863835
 20
142.0218249235857
 30
0.0
 10
254.5661924235056
 20
141.8910784567696
 30
0.0
 10
255.7922142328826
 20
141.8011201052335
 30
0.0
 10
256.6234585042878
 20
141.7540776656712
 30
0.0
 10
257.045826555376
 20
141.7472117407113
 30
0.0
 10
257.058929378931
 20
141.746998744006
 30
0.0
  0
LINE
  5
188
330
1F
100
AcDbEntity
  8
0
  6
Continuous
 62
     7
370
    18
100
AcDbLine
 10
224.6181349981
 20
206.4376368991
 30
0.0
 11
224.3438608427
 21
206.1592548415
 31
0.0
  0
LINE
  5
189
330
1F
100
AcDbEntity
  8
0
  6
Continuous
 62
     7
370
    18
100
AcDbLine
 10
261.2696816157
 20
142.1949264833
 30
0.0
 11
261.6479138534
 21
142.2932283485
 31
0.0
  0
LINE
  5
18A
330
1F
100
AcDbEntity
  8
0
  6
Continuous
 62
     7
370
    18
100
AcDbLine
 10
264.8322735298
 20
143.5920452018
 30
0.0
 11
266.6000404828
 21
144.6125553416
 31
0.0
  0
LINE
  5
18B
330
1F
100
AcDbEntity
  8
0
  6
Continuous
 62
     7
370
    18
100
AcDbLine
 10
229.1030880089
 20
209.5662200202
 30
0.0
 11
227.3353210559
 21
208.5457098804
 31
0.0
  0
LINE
  5
18C
330
1F
100
AcDbEntity
  8
0
  6
Continuous
 62
     7
370
    18
100
AcDbLine
 10
274.3680685403
 20
161.7817355842
 30
0.0
 11
274.3680685403
 21
161.9858376122
 31
0.0
  0
LINE
  5
18D
330
1F
100
AcDbEntity
  8
0
  6
Continuous
 62
     7
370
    18
100
AcDbLine
 10
248.0326218876
 20
207.6051121981
 30
0.0
 11
247.8558739235
 21
207.7071797982
 31
0.0
  0
LWPOLYLINE
  5
18E
330
1F
100
AcDbEntity
  8
0
  6
Continuous
 62
     7
370
    18
100
AcDbPolyline
 90
      121
 70
   128
 43
0.0
 10
257.064549351
 20
141.7462638962
 10
257.4681580908
 20
141.7387936256
 10
258.2257005111
 20
141.7516446127
 10
258.9702907286
 20
141.7999209585
 10
259.7011557596
 20
141.8835725456
 10
260.4175368692
 20
142.0025125326
 10
261.1186903585
 20
142.156617444
 10
261.8038883372
 20
142.3457272985
 10
262.4724194786
 20
142.5696457749
 10
263.1235897586
 20
142.828140416
 10
263.756723176
 20
143.12094287
 10
264.3711624542
 20
143.4477491692
 10
264.9662697235
 20
143.8082200452
 10
265.5414271835
 20
144.2019812812
 10
266.0960377443
 20
144.6286241009
 10
266.6295256466
 20
145.0877055922
 10
267.141337059
 20
145.5787491677
 10
267.6309406532
 20
146.1012450587
 10
268.0978281557
 20
146.6546508453
 10
268.5415148752
 20
147.2383920186
 10
268.961540206
 20
147.8518625777
 10
269.3574681059
 20
148.4944256588
 10
269.7288875491
 20
149.1654141959
 10
270.075412953
 20
149.8641316138
 10
270.3966845782
 20
150.5898525509
 10
270.6923689019
 20
151.3418236126
 10
270.9621589647
 20
152.119264153
 10
271.2057746885
 20
152.9213670854
 10
271.4229631679
 20
153.7472997205
 10
271.6134989323
 20
154.5962046305
 10
271.7771841804
 20
155.4672005393
 10
271.9138489851
 20
156.3593832373
 10
272.0233514702
 20
157.2718265205
 10
272.1055779575
 20
158.2035831514
 10
272.1604430851
 20
159.1536858429
 10
272.1878898956
 20
160.1211482622
 10
272.1878898956
 20
161.1049660547
 10
272.1604430851
 20
162.1041178868
 10
272.1055779575
 20
163.1175665063
 10
272.0233514702
 20
164.1442598187
 10
271.9138489851
 20
165.18313198
 10
271.7771841804
 20
166.2331045029
 10
271.6134989323
 20
167.2930873764
 10
271.4229631679
 20
168.3619801975
 10
271.2057746885
 20
169.4386733133
 10
270.9621589647
 20
170.5220489734
 10
270.6923689019
 20
171.6109824899
 10
270.3966845782
 20
172.7043434051
 10
270.075412953
 20
173.8009966651
 10
269.7288875491
 20
174.8998037982
 10
269.3574681059
 20
175.9996240966
 10
268.961540206
 20
177.0993158006
 10
268.5415148752
 20
178.1977372841
 10
268.0978281557
 20
179.2937482398
 10
267.6309406532
 20
180.3862108625
 10
267.141337059
 20
181.4739910311
 10
266.6295256466
 20
182.5559594851
 10
266.0960377443
 20
183.6309929975
 10
265.5414271835
 20
184.6979755408
 10
264.9662697235
 20
185.7557994452
 10
264.3711624542
 20
186.803366549
 10
263.756723176
 20
187.8395893383
 10
263.1235897586
 20
188.8633920764
 10
262.4724194786
 20
189.8737119197
 10
261.8038883372
 20
190.8695000223
 10
261.1186903585
 20
191.8497226236
 10
260.4175368692
 20
192.8133621224
 10
259.7011557596
 20
193.7594181329
 10
258.9702907286
 20
194.6869085232
 10
258.2257005111
 20
195.5948704351
 10
257.4681580908
 20
196.4823612834
 10
256.6984498974
 20
197.3484597348
 10
255.9173749901
 20
198.192266664
 10
255.1257442285
 20
199.0129060873
 10
254.3243794305
 20
199.809526072
 10
253.5141125194
 20
200.5812996206
 10
252.6957846596
 20
201.3274255296
 10
251.8702453844
 20
202.0471292213
 10
251.0383517132
 20
202.7396635476
 10
250.2009672621
 20
203.4043095658
 10
249.3589613474
 20
204.0403772851
 10
248.5132080832
 20
204.6472063827
 10
247.6645854737
 20
205.2241668893
 10
246.8139745019
 20
205.7706598433
 10
245.962258215
 20
206.2861179124
 10
245.1103208078
 20
206.7700059826
 10
244.2590467043
 20
207.2218217138
 10
243.4093196403
 20
207.6410960613
 10
242.5620217453
 20
208.0273937626
 10
241.7180326272
 20
208.3803137893
 10
240.8782284587
 20
208.6994897636
 10
240.0434810681
 20
208.9845903383
 10
239.2146570343
 20
209.2353195413
 10
238.3926167865
 20
209.4514170823
 10
237.5782137119
 20
209.6326586233
 10
236.772293269
 20
209.7788560115
 10
235.9756921103
 20
209.8898574747
 10
235.1892372136
 20
209.9655477785
 10
234.4137450237
 20
210.0058483464
 10
233.6500206045
 20
210.010717341
 10
232.8988568033
 20
209.9801497077
 10
232.161033428
 20
209.9141771797
 10
231.4373164373
 20
209.8128682452
 10
230.7284571456
 20
209.6763280765
 10
230.0351914431
 20
209.5046984203
 10
229.3582390315
 20
209.298157451
 10
228.6983026775
 20
209.0569195856
 10
228.0560674827
 20
208.7812352611
 10
227.4322001725
 20
208.4713906744
 10
226.8273484042
 20
208.1277074853
 10
226.2421400941
 20
207.7505424827
 10
225.6771827663
 20
207.340287214
 10
225.1330629215
 20
206.8973675786
 10
224.6103454285
 20
206.4222433859
 10
224.1095729375
 20
205.9154078781
 10
223.6312653167
 20
205.3773872176
 10
223.1759191131
 20
204.8087399415
 10
222.7440070366
 20
204.2100563811
 10
222.3359774693
 20
203.5819580495
 10
221.952254
 20
202.9250969963
 10
221.8539372918
 20
202.7448894596
  0
LWPOLYLINE
  5
18F
330
1F
100
AcDbEntity
  8
0
  6
Continuous
 62
     7
370
    18
100
AcDbPolyline
 90
      109
 70
   128
 43
0.0
 10
224.6181349981
 20
206.4376368991
 10
224.8853698239
 20
206.7013658411
 10
225.409558935
 20
207.1778276614
 10
225.9552106525
 20
207.6219942583
 10
226.5217585172
 20
208.0334045278
 10
227.1086143772
 20
208.4116313714
 10
227.7151689981
 20
208.7562821393
 10
228.3407926958
 20
209.0669990384
 10
228.9848359896
 20
209.3434595031
 10
229.646630277
 20
209.5853765308
 10
230.3254885277
 20
209.7924989794
 10
231.0207059966
 20
209.9646118284
 10
231.7315609556
 20
210.1015364017
 10
232.4573154428
 20
210.2031305535
 10
233.1972160286
 20
210.2692888154
 10
233.9504945979
 20
210.2999425065
 10
234.7163691474
 20
210.2950598041
 10
235.4940445977
 20
210.2546457771
 10
236.2827136182
 20
210.1787423807
 10
237.0815574658
 20
210.0674284126
 10
237.8897468345
 20
209.9208194317
 10
238.7064427161
 20
209.7390676373
 10
239.530797272
 20
209.5223617121
 10
240.3619547126
 20
209.2709266257
 10
241.199052186
 20
208.9850234009
 10
242.0412206738
 20
208.6649488435
 10
242.8875858932
 20
208.3110352332
 10
243.7372692048
 20
207.9236499794
 10
244.5893885242
 20
207.5031952396
 10
245.4430592385
 20
207.0501075015
 10
246.2973951241
 20
206.5648571305
 10
247.1515092667
 20
206.0479478809
 10
248.0045149824
 20
205.4999163731
 10
248.855526738
 20
204.9213315368
 10
249.7036610702
 20
204.3127940198
 10
250.5480375028
 20
203.6749355649
 10
251.3877794609
 20
203.008418354
 10
252.2220151808
 20
202.3139343205
 10
253.0498786151
 20
201.592204431
 10
253.8705103314
 20
200.8439779371
 10
254.683058405
 20
200.0700315974
 10
255.486679303
 20
199.2711688708
 10
256.2805387602
 20
198.4482190831
 10
257.063812645
 20
197.6020365656
 10
257.835687815
 20
196.733499768
 10
258.5953629613
 20
195.843510347
 10
259.3420494401
 20
194.9329922298
 10
260.0749720917
 20
194.0028906552
 10
260.7933700449
 20
193.0541711922
 10
261.4964975072
 20
192.0878187378
 10
262.1836245389
 20
191.104836494
 10
262.8540378109
 20
190.1062449272
 10
263.5070413451
 20
189.0930807079
 10
264.141957237
 20
188.0663956353
 10
264.7581263597
 20
187.0272555449
 10
265.3549090477
 20
185.9767392022
 10
265.9316857612
 20
184.9159371827
 10
266.4878577295
 20
183.8459507399
 10
267.0228475721
 20
182.7678906618
 10
267.5360998985
 20
181.682876118
 10
268.0270818846
 20
180.5920334978
 10
268.4952838259
 20
179.4964952407
 10
268.9402196664
 20
178.3973986611
 10
269.3614275038
 20
177.2958847672
 10
269.7584700683
 20
176.1930970768
 10
270.1309351769
 20
175.0901804299
 10
270.4784361615
 20
173.9882798008
 10
270.8006122698
 20
172.8885391085
 10
271.0971290402
 20
171.79210003
 10
271.3676786489
 20
170.7001008148
 10
271.6119802294
 20
169.6136751032
 10
271.8297801644
 20
168.5339507494
 10
272.0208523484
 20
167.4620486507
 10
272.1849984232
 20
166.3990815839
 10
272.3220479833
 20
165.34615305
 10
272.4318587532
 20
164.3043561289
 10
272.5143167346
 20
163.274772344
 10
272.5693363252
 20
162.2584705402
 10
272.5968604073
 20
161.2565057737
 10
272.5968604073
 20
160.2699182172
 10
272.5693363252
 20
159.2997320795
 10
272.5143167346
 20
158.3469545428
 10
272.4318587532
 20
157.4125747167
 10
272.3220479833
 20
156.4975626117
 10
272.1849984232
 20
155.602868132
 10
272.0208523484
 20
154.7294200891
 10
271.8297801644
 20
153.8781252383
 10
271.6119802294
 20
153.0498673367
 10
271.3676786489
 20
152.2455062261
 10
271.0971290402
 20
151.4658769402
 10
270.8006122698
 20
150.7117888376
 10
270.4784361615
 20
149.9840247622
 10
270.1309351769
 20
149.2833402297
 10
269.7584700683
 20
148.6104626437
 10
269.3614275038
 20
147.9660905406
 10
268.9402196664
 20
147.3508928641
 10
268.4952838259
 20
146.7655082714
 10
268.0270818846
 20
146.2105444692
 10
267.5360998985
 20
145.6865775839
 10
267.0228475721
 20
145.1941515626
 10
266.4878577295
 20
144.7337776089
 10
265.9316857612
 20
144.3059336522
 10
265.3549090477
 20
143.9110638515
 10
264.7581263597
 20
143.5495781339
 10
264.141957237
 20
143.2218517697
 10
263.5070413451
 20
142.9282249823
 10
262.8540378109
 20
142.6690025955
 10
262.1836245389
 20
142.4444537165
 10
261.6479138534
 20
142.2932283485
  0
SPLINE
  5
190
330
1F
100
AcDbEntity
  8
0
  6
Continuous
 62
     7
370
    18
100
AcDbSpline
210
0.0
220
0.0
230
1.0
 70
     8
 71
     3
 72
    13
 73
     9
 74
     0
 42
0.000000001
 43
0.00000001
 40
0.0
 40
0.0
 40
0.0
 40
0.0
 40
0.1325813085255763
 40
0.2505095323068396
 40
0.4998732167513652
 40
0.7493706334475047
 40
0.8659858270276346
 40
1.0
 40
1.0
 40
1.0
 40
1.0
 10
247.0435493732495
 20
207.1197261452059
 30
0.0
 10
247.0323862749682
 20
207.1313657267321
 30
0.0
 10
247.0112938407429
 20
207.1533584658052
 30
0.0
 10
246.9835156534207
 20
207.2009287428203
 30
0.0
 10
246.9783892556226
 20
207.2639378889592
 30
0.0
 10
247.014238208394
 20
207.3232045793724
 30
0.0
 10
247.0627604055703
 20
207.3646445673642
 30
0.0
 10
247.0920579826553
 20
207.3830907106993
 30
0.0
 10
247.1077237069762
 20
207.3929540586285
 30
0.0
  0
SPLINE
  5
191
330
1F
100
AcDbEntity
  8
0
  6
Continuous
 62
     7
370
    18
100
AcDbSpline
210
0.0
220
0.0
230
1.0
 70
     8
 71
     3
 72
    13
 73
     9
 74
     0
 42
0.000000001
 43
0.00000001
 40
0.0
 40
0.0
 40
0.0
 40
0.0
 40
0.1252284275312494
 40
0.2503533326694417
 40
0.4999678111755176
 40
0.7495731019179585
 40
0.8747481801113172
 40
1.0
 40
1.0
 40
1.0
 40
1.0
 10
246.6788066190973
 20
207.08099889949
 30
0.0
 10
246.6908946639534
 20
207.0874201050558
 30
0.0
 10
246.7150607608601
 20
207.1002572079792
 30
0.0
 10
246.7708190925998
 20
207.1204219408846
 30
0.0
 10
246.8495257649463
 20
207.1359648244135
 30
0.0
 10
246.9325525355823
 20
207.1364603944003
 30
0.0
 10
246.9969710450837
 20
207.129067219724
 30
0.0
 10
247.028020092268
 20
207.1228404727606
 30
0.0
 10
247.0435493732495
 20
207.1197261452059
 30
0.0
  0
SPLINE
  5
192
330
1F
100
AcDbEntity
  8
0
  6
Continuous
 62
     7
370
    18
100
AcDbSpline
210
0.0
220
0.0
230
1.0
 70
     8
 71
     3
 72
    14
 73
    10
 74
     0
 42
0.000000001
 43
0.00000001
 40
0.0
 40
0.0
 40
0.0
 40
0.0
 40
0.1252306566829154
 40
0.2504211279568881
 40
0.4996659294679452
 40
0.6235188857076931
 40
0.749797933197665
 40
0.8748874427628089
 40
1.0
 40
1.0
 40
1.0
 40
1.0
 10
246.7117620618057
 20
206.7406360995418
 30
0.0
 10
246.6932625649875
 20
206.7524813349543
 30
0.0
 10
246.6562695076758
 20
206.776168004748
 30
0.0
 10
246.5997812956708
 20
206.8308465167003
 30
0.0
 10
246.5671904166077
 20
206.8926394193301
 30
0.0
 10
246.5688505718596
 20
206.9560724989196
 30
0.0
 10
246.5894912810254
 20
207.0020340306847
 30
0.0
 10
246.6241732375756
 20
207.0455487180785
 30
0.0
 10
246.6605943735974
 20
207.0691814467002
 30
0.0
 10
246.6788066190973
 20
207.08099889949
 30
0.0
  0
SPLINE
  5
193
330
1F
100
AcDbEntity
  8
0
  6
Continuous
 62
     7
370
    18
100
AcDbSpline
210
0.0
220
0.0
230
1.0
 70
     8
 71
     3
 72
    13
 73
     9
 74
     0
 42
0.000000001
 43
0.00000001
 40
0.0
 40
0.0
 40
0.0
 40
0.0
 40
0.1254112745978175
 40
0.2507470776892136
 40
0.5001119818398773
 40
0.749346796329247
 40
0.8746477145652641
 40
1.0
 40
1.0
 40
1.0
 40
1.0
 10
247.3098013257071
 20
206.7120482219646
 30
0.0
 10
247.2867784890881
 20
206.7035192063287
 30
0.0
 10
247.2407466708098
 20
206.6864663077507
 30
0.0
 10
247.1399756755596
 20
206.6621034783423
 30
0.0
 10
247.0017736364929
 20
206.6510377538338
 30
0.0
 10
246.8661809870673
 20
206.6735442281645
 30
0.0
 10
246.7722366122258
 20
206.7076471844118
 30
0.0
 10
246.7319229991469
 20
206.7296382922614
 30
0.0
 10
246.7117620618057
 20
206.7406360995418
 30
0.0
  0
SPLINE
  5
194
330
1F
100
AcDbEntity
  8
0
  6
Continuous
 62
     7
370
    18
100
AcDbSpline
210
0.0
220
0.0
230
1.0
 70
     8
 71
     3
 72
     8
 73
     4
 74
     0
 42
0.000000001
 43
0.00000001
 40
0.0
 40
0.0
 40
0.0
 40
0.0
 40
1.0
 40
1.0
 40
1.0
 40
1.0
 10
247.1840997192225
 20
206.8038877705997
 30
0.0
 10
247.2260025379338
 20
206.7734148917104
 30
0.0
 10
247.267903288798
 20
206.7428015796535
 30
0.0
 10
247.3098013257071
 20
206.7120482219646
 30
0.0
  0
SPLINE
  5
195
330
1F
100
AcDbEntity
  8
0
  6
Continuous
 62
     7
370
    18
100
AcDbSpline
210
0.0
220
0.0
230
1.0
 70
     8
 71
     3
 72
    13
 73
     9
 74
     0
 42
0.000000001
 43
0.00000001
 40
0.0
 40
0.0
 40
0.0
 40
0.0
 40
0.1254306763412469
 40
0.2507183877164918
 40
0.4999029034864069
 40
0.7491743320976216
 40
0.8745657100779429
 40
1.0
 40
1.0
 40
1.0
 40
1.0
 10
246.8331250228766
 20
206.81578811161
 30
0.0
 10
246.8450113064056
 20
206.8093046574437
 30
0.0
 10
246.8687703255647
 20
206.7963451389045
 30
0.0
 10
246.9242870554737
 20
206.7765215450929
 30
0.0
 10
247.0046494671311
 20
206.7636070526545
 30
0.0
 10
247.0855154048983
 20
206.7727470569126
 30
0.0
 10
247.1440453936368
 20
206.7881840356447
 30
0.0
 10
247.1707467546466
 20
206.7986525952848
 30
0.0
 10
247.1840997192225
 20
206.8038877705997
 30
0.0
  0
SPLINE
  5
196
330
1F
100
AcDbEntity
  8
0
  6
Continuous
 62
     7
370
    18
100
AcDbSpline
210
0.0
220
0.0
230
1.0
 70
     8
 71
     3
 72
    13
 73
     9
 74
     0
 42
0.000000001
 43
0.00000001
 40
0.0
 40
0.0
 40
0.0
 40
0.0
 40
0.1633966058394722
 40
0.2860624819992014
 40
0.4998190942869948
 40
0.6996005506064236
 40
0.8711137322816427
 40
1.0
 40
1.0
 40
1.0
 40
1.0
 10
246.8230883444224
 20
207.0028292508308
 30
0.0
 10
246.8100142651428
 20
206.9943085872487
 30
0.0
 10
246.7871251509574
 20
206.9793912506243
 30
0.0
 10
246.7621284165077
 20
206.9474644961295
 30
0.0
 10
246.7533074644945
 20
206.9096769640785
 30
0.0
 10
246.7685669612098
 20
206.8691108646013
 30
0.0
 10
246.7982365456927
 20
206.838108872488
 30
0.0
 10
246.8226503077128
 20
206.8224895681168
 30
0.0
 10
246.8331250228766
 20
206.81578811161
 30
0.0
  0
SPLINE
  5
197
330
1F
100
AcDbEntity
  8
0
  6
Continuous
 62
     7
370
    18
100
AcDbSpline
210
0.0
220
0.0
230
1.0
 70
     8
 71
     3
 72
    14
 73
    10
 74
     0
 42
0.000000001
 43
0.00000001
 40
0.0
 40
0.0
 40
0.0
 40
0.0
 40
0.1252587863982169
 40
0.250420804592587
 40
0.5001233546723398
 40
0.6289338681241577
 40
0.7498535037771731
 40
0.874845886477876
 40
1.0
 40
1.0
 40
1.0
 40
1.0
 10
247.1943734401844
 20
206.979506339474
 30
0.0
 10
247.1815223357541
 20
206.9865242965302
 30
0.0
 10
247.1558300549659
 20
207.0005547889463
 30
0.0
 10
247.0972728578827
 20
207.0232321152223
 30
0.0
 10
247.0306532677471
 20
207.0386438269991
 30
0.0
 10
246.9606131724553
 20
207.0429366214436
 30
0.0
 10
246.9086142219429
 20
207.0370558504251
 30
0.0
 10
246.8619137982357
 20
207.0232419029343
 30
0.0
 10
246.836035739465
 20
207.0096364003859
 30
0.0
 10
246.8230883444224
 20
207.0028292508308
 30
0.0
  0
SPLINE
  5
198
330
1F
100
AcDbEntity
  8
0
  6
Continuous
 62
     7
370
    18
100
AcDbSpline
210
0.0
220
0.0
230
1.0
 70
     8
 71
     3
 72
     8
 73
     4
 74
     0
 42
0.000000001
 43
0.00000001
 40
0.0
 40
0.0
 40
0.0
 40
0.0
 40
1.0
 40
1.0
 40
1.0
 40
1.0
 10
247.2129257049394
 20
206.9667592456465
 30
0.0
 10
247.2067416468443
 20
206.9710111863026
 30
0.0
 10
247.2005575579528
 20
206.9752602179565
 30
0.0
 10
247.1943734401844
 20
206.979506339474
 30
0.0
  0
LINE
  5
199
330
1F
100
AcDbEntity
  8
0
  6
Continuous
 62
     7
370
    18
100
AcDbLine
 10
247.3530592698
 20
207.0308180324
 30
0.0
 11
247.2129257049
 21
206.9667592456
 31
0.0
  0
SPLINE
  5
19A
330
1F
100
AcDbEntity
  8
0
  6
Continuous
 62
     7
370
    18
100
AcDbSpline
210
0.0
220
0.0
230
1.0
 70
     8
 71
     3
 72
     9
 73
     5
 74
     0
 42
0.000000001
 43
0.00000001
 40
0.0
 40
0.0
 40
0.0
 40
0.0
 40
0.4997693350081521
 40
1.0
 40
1.0
 40
1.0
 40
1.0
 10
247.247854623689
 20
207.0755608596911
 30
0.0
 10
247.2641780598012
 20
207.067159051853
 30
0.0
 10
247.2968399999579
 20
207.0503476805871
 30
0.0
 10
247.3343137506103
 20
207.0373299169738
 30
0.0
 10
247.3530592698189
 20
207.0308180324248
 30
0.0
  0
SPLINE
  5
19B
330
1F
100
AcDbEntity
  8
0
  6
Continuous
 62
     7
370
    18
100
AcDbSpline
210
0.0
220
0.0
230
1.0
 70
     8
 71
     3
 72
    13
 73
     9
 74
     0
 42
0.000000001
 43
0.00000001
 40
0.0
 40
0.0
 40
0.0
 40
0.0
 40
0.1329917873338626
 40
0.2506793676063695
 40
0.4999600784319899
 40
0.749189712750926
 40
0.874557023142602
 40
1.0
 40
1.0
 40
1.0
 40
1.0
 10
247.2463301961815
 20
207.3118481175457
 30
0.0
 10
247.2328411340201
 20
207.303178911644
 30
0.0
 10
247.2074152814918
 20
207.2868381202563
 30
0.0
 10
247.1695557894321
 20
207.2486038565954
 30
0.0
 10
247.1506428304212
 20
207.1939848796108
 30
0.0
 10
247.1712363533939
 20
207.1388634830509
 30
0.0
 10
247.209045863565
 20
207.1001660157334
 30
0.0
 10
247.2349157687673
 20
207.0837642277797
 30
0.0
 10
247.247854623689
 20
207.0755608596911
 30
0.0
  0
SPLINE
  5
19C
330
1F
100
AcDbEntity
  8
0
  6
Continuous
 62
     7
370
    18
100
AcDbSpline
210
0.0
220
0.0
230
1.0
 70
     8
 71
     3
 72
    13
 73
     9
 74
     0
 42
0.000000001
 43
0.00000001
 40
0.0
 40
0.0
 40
0.0
 40
0.0
 40
0.1432512521384275
 40
0.2507317801781703
 40
0.4998328875992187
 40
0.7492622002526134
 40
0.8496083428591162
 40
0.9999999999999999
 40
0.9999999999999999
 40
0.9999999999999999
 40
0.9999999999999999
 10
247.6782989843779
 20
207.3118400105349
 30
0.0
 10
247.6611735888099
 20
207.3209784670246
 30
0.0
 10
247.6311991149194
 20
207.3369734508697
 30
0.0
 10
247.560985812393
 20
207.3607131386641
 30
0.0
 10
247.4619238824145
 20
207.372087291517
 30
0.0
 10
247.3651925970296
 20
207.3595689789913
 30
0.0
 10
247.2945210081166
 20
207.3368474406277
 30
0.0
 10
247.2643979195596
 20
207.3212208762926
 30
0.0
 10
247.2463301961815
 20
207.3118481175457
 30
0.0
  0
SPLINE
  5
19D
330
1F
100
AcDbEntity
  8
0
  6
Continuous
 62
     7
370
    18
100
AcDbSpline
210
0.0
220
0.0
230
1.0
 70
     8
 71
     3
 72
    12
 73
     8
 74
     0
 42
0.000000001
 43
0.00000001
 40
0.0
 40
0.0
 40
0.0
 40
0.0
 40
0.2507503959896499
 40
0.5005445656012885
 40
0.749257425626315
 40
0.8647764912505647
 40
1.0
 40
1.0
 40
1.0
 40
1.0
 10
247.6870109029057
 20
207.0778091824261
 30
0.0
 10
247.7060020873695
 20
207.0961395742004
 30
0.0
 10
247.7439120341918
 20
207.1327304555497
 30
0.0
 10
247.773945449753
 20
207.1961626103179
 30
0.0
 10
247.7550501547451
 20
207.2502391361163
 30
0.0
 10
247.7164960288974
 20
207.2871780133626
 30
0.0
 10
247.6916813477762
 20
207.303199661198
 30
0.0
 10
247.6782989843779
 20
207.3118400105349
 30
0.0
  0
SPLINE
  5
19E
330
1F
100
AcDbEntity
  8
0
  6
Continuous
 62
     7
370
    18
100
AcDbSpline
210
0.0
220
0.0
230
1.0
 70
     8
 71
     3
 72
     8
 73
     4
 74
     0
 42
0.000000001
 43
0.00000001
 40
0.0
 40
0.0
 40
0.0
 40
0.0
 40
1.0
 40
1.0
 40
1.0
 40
1.0
 10
247.840650679441
 20
207.0020147033818
 30
0.0
 10
247.789439983791
 20
207.0274196657026
 30
0.0
 10
247.7382265095788
 20
207.052684621359
 30
0.0
 10
247.6870109029057
 20
207.0778091824261
 30
0.0
  0
SPLINE
  5
19F
330
1F
100
AcDbEntity
  8
0
  6
Continuous
 62
     7
370
    18
100
AcDbSpline
210
0.0
220
0.0
230
1.0
 70
     8
 71
     3
 72
    13
 73
     9
 74
     0
 42
0.000000001
 43
0.00000001
 40
0.0
 40
0.0
 40
0.0
 40
0.0
 40
0.1253803339124483
 40
0.2506967198211533
 40
0.4999395213892044
 40
0.7493146990940027
 40
0.8746206178393492
 40
1.0
 40
1.0
 40
1.0
 40
1.0
 10
247.8090474535766
 20
207.3814666704135
 30
0.0
 10
247.829356960472
 20
207.3685721279776
 30
0.0
 10
247.869965615761
 20
207.3427896197374
 30
0.0
 10
247.9313890046439
 20
207.2822349099355
 30
0.0
 10
247.9684227328456
 20
207.1951390508822
 30
0.0
 10
247.9457293851678
 20
207.1066821165497
 30
0.0
 10
247.8946816579008
 20
207.0434793861639
 30
0.0
 10
247.8586645238722
 20
207.0158389643209
 30
0.0
 10
247.840650679441
 20
207.0020147033818
 30
0.0
  0
SPLINE
  5
1A0
330
1F
100
AcDbEntity
  8
0
  6
Continuous
 62
     7
370
    18
100
AcDbSpline
210
0.0
220
0.0
230
1.0
 70
     8
 71
     3
 72
    13
 73
     9
 74
     0
 42
0.000000001
 43
0.00000001
 40
0.0
 40
0.0
 40
0.0
 40
0.0
 40
0.1253413331831428
 40
0.2506508332227664
 40
0.4999380643312027
 40
0.7492345717816575
 40
0.8745820704472856
 40
1.0
 40
1.0
 40
1.0
 40
1.0
 10
247.1077237069762
 20
207.3929540586285
 30
0.0
 10
247.1319650966159
 20
207.4056412691063
 30
0.0
 10
247.18044171927
 20
207.43101246787
 30
0.0
 10
247.2970178003314
 20
207.4660902335324
 30
0.0
 10
247.4617450037031
 20
207.4817715316426
 30
0.0
 10
247.6239745063298
 20
207.4594982134623
 30
0.0
 10
247.7370833570509
 20
207.4206632008283
 30
0.0
 10
247.7850549302447
 20
207.3945346267405
 30
0.0
 10
247.8090474535766
 20
207.3814666704135
 30
0.0
  0
SPLINE
  5
1A1
330
1F
100
AcDbEntity
  8
0
  6
Continuous
 62
     7
370
    18
100
AcDbSpline
210
0.0
220
0.0
230
1.0
 70
     8
 71
     3
 72
    14
 73
    10
 74
     0
 42
0.000000001
 43
0.00000001
 40
0.0
 40
0.0
 40
0.0
 40
0.0
 40
0.1251941805695644
 40
0.2503126458967175
 40
0.4992380940644158
 40
0.625186195487305
 40
0.7495127333608734
 40
0.8747271131370997
 40
1.0
 40
1.0
 40
1.0
 40
1.0
 10
246.2804247537026
 20
207.8640271368519
 30
0.0
 10
246.3040532039624
 20
207.8763945440913
 30
0.0
 10
246.3512958144102
 20
207.9011218789794
 30
0.0
 10
246.4636258520462
 20
207.9373479387325
 30
0.0
 10
246.5927720957793
 20
207.9519122984562
 30
0.0
 10
246.7190603740137
 20
207.9449934257797
 30
0.0
 10
246.8089039208633
 20
207.9276409897052
 30
0.0
 10
246.8907889472548
 20
207.9010105129348
 30
0.0
 10
246.9373605428815
 20
207.8771592673399
 30
0.0
 10
246.9606517796307
 20
207.8652308590378
 30
0.0
  0
SPLINE
  5
1A2
330
1F
100
AcDbEntity
  8
0
  6
Continuous
 62
     7
370
    18
100
AcDbSpline
210
0.0
220
0.0
230
1.0
 70
     8
 71
     3
 72
    14
 73
    10
 74
     0
 42
0.000000001
 43
0.00000001
 40
0.0
 40
0.0
 40
0.0
 40
0.0
 40
0.1183667231773085
 40
0.2287044243378022
 40
0.3999672347321939
 40
0.5494762987063071
 40
0.6999249584944155
 40
0.8499137998565032
 40
1.0
 40
1.0
 40
1.0
 40
1.0
 10
246.2032713336865
 20
207.592112515161
 30
0.0
 10
246.1945995391149
 20
207.6025848981905
 30
0.0
 10
246.1778441729763
 20
207.6228193041782
 30
0.0
 10
246.157652449356
 20
207.6602832629818
 30
0.0
 10
246.1494697251772
 20
207.7026116380857
 30
0.0
 10
246.159378842126
 20
207.7490607386408
 30
0.0
 10
246.18646340717
 20
207.7912993414801
 30
0.0
 10
246.2266273317765
 20
207.8304991243124
 30
0.0
 10
246.2624884013752
 20
207.8528487155779
 30
0.0
 10
246.2804247537026
 20
207.8640271368519
 30
0.0
  0
SPLINE
  5
1A3
330
1F
100
AcDbEntity
  8
0
  6
Continuous
 62
     7
370
    18
100
AcDbSpline
210
0.0
220
0.0
230
1.0
 70
     8
 71
     3
 72
    12
 73
     8
 74
     0
 42
0.000000001
 43
0.00000001
 40
0.0
 40
0.0
 40
0.0
 40
0.0
 40
0.1253272576401238
 40
0.2505498704746528
 40
0.4999635724408958
 40
0.7496754706140766
 40
1.0
 40
1.0
 40
1.0
 40
1.0
 10
245.8281271362941
 20
207.5562321700995
 30
0.0
 10
245.8405379168551
 20
207.5629403851574
 30
0.0
 10
245.8653491153175
 20
207.5763512140985
 30
0.0
 10
245.9231881948344
 20
207.5974009106733
 30
0.0
 10
246.0053402045835
 20
207.6134622767704
 30
0.0
 10
246.1088929268582
 20
207.6120789498347
 30
0.0
 10
246.1717861797018
 20
207.598773427242
 30
0.0
 10
246.2032713336865
 20
207.592112515161
 30
0.0
  0
SPLINE
  5
1A4
330
1F
100
AcDbEntity
  8
0
  6
Continuous
 62
     7
370
    18
100
AcDbSpline
210
0.0
220
0.0
230
1.0
 70
     8
 71
     3
 72
    13
 73
     9
 74
     0
 42
0.000000001
 43
0.00000001
 40
0.0
 40
0.0
 40
0.0
 40
0.0
 40
0.1254518617768833
 40
0.2508289143031868
 40
0.5001134983873807
 40
0.7493877118113563
 40
0.8746741695437342
 40
1.0
 40
1.0
 40
1.0
 40
1.0
 10
245.8587824329455
 20
207.2271641154379
 30
0.0
 10
245.840050028186
 20
207.2382487033063
 30
0.0
 10
245.8025963891444
 20
207.2604112690996
 30
0.0
 10
245.7436681836482
 20
207.3117376411803
 30
0.0
 10
245.7048978812244
 20
207.3866081249164
 30
0.0
 10
245.7236449053932
 20
207.4648331472553
 30
0.0
 10
245.772900273352
 20
207.5209684940425
 30
0.0
 10
245.8097162539747
 20
207.5444763803362
 30
0.0
 10
245.8281271362941
 20
207.5562321700995
 30
0.0
  0
SPLINE
  5
1A5
330
1F
100
AcDbEntity
  8
0
  6
Continuous
 62
     7
370
    18
100
AcDbSpline
210
0.0
220
0.0
230
1.0
 70
     8
 71
     3
 72
    13
 73
     9
 74
     0
 42
0.000000001
 43
0.00000001
 40
0.0
 40
0.0
 40
0.0
 40
0.0
 40
0.1253630175794265
 40
0.2506479518678301
 40
0.4998127415996587
 40
0.7491135601120027
 40
0.8745189224966449
 40
1.0
 40
1.0
 40
1.0
 40
1.0
 10
246.439142184564
 20
207.2151725446121
 30
0.0
 10
246.4189357900727
 20
207.2046369361361
 30
0.0
 10
246.3785355867936
 20
207.1835722813663
 30
0.0
 10
246.280941533685
 20
207.1549108443232
 30
0.0
 10
246.1429765011469
 20
207.1430839562428
 30
0.0
 10
246.0097976842278
 20
207.1641313193514
 30
0.0
 10
245.9184631516842
 20
207.1965511749618
 30
0.0
 10
245.8786800079153
 20
207.2169577491098
 30
0.0
 10
245.8587824329455
 20
207.2271641154379
 30
0.0
  0
SPLINE
  5
1A6
330
1F
100
AcDbEntity
  8
0
  6
Continuous
 62
     7
370
    18
100
AcDbSpline
210
0.0
220
0.0
230
1.0
 70
     8
 71
     3
 72
    13
 73
     9
 74
     0
 42
0.000000001
 43
0.00000001
 40
0.0
 40
0.0
 40
0.0
 40
0.0
 40
0.1357090126038188
 40
0.2505358075579227
 40
0.500088105893533
 40
0.7495119385566494
 40
0.8746917105028859
 40
1.0
 40
1.0
 40
1.0
 40
1.0
 10
246.4913263367412
 20
207.4332052578553
 30
0.0
 10
246.4988141106442
 20
207.4235169312167
 30
0.0
 10
246.5126374776085
 20
207.4056310687254
 30
0.0
 10
246.5321968345183
 20
207.3680801049124
 30
0.0
 10
246.5383550313946
 20
207.3189824643271
 30
0.0
 10
246.5118839504472
 20
207.2707258093961
 30
0.0
 10
246.4743362480443
 20
207.2372086654549
 30
0.0
 10
246.4508775510309
 20
207.2225204302503
 30
0.0
 10
246.439142184564
 20
207.2151725446121
 30
0.0
  0
SPLINE
  5
1A7
330
1F
100
AcDbEntity
  8
0
  6
Continuous
 62
     7
370
    18
100
AcDbSpline
210
0.0
220
0.0
230
1.0
 70
     8
 71
     3
 72
    14
 73
    10
 74
     0
 42
0.000000001
 43
0.00000001
 40
0.0
 40
0.0
 40
0.0
 40
0.0
 40
0.1430032966960373
 40
0.2859654066674918
 40
0.4284415798708974
 40
0.5717236080669068
 40
0.7855186322167875
 40
0.8853557536558176
 40
1.0
 40
1.0
 40
1.0
 40
1.0
 10
246.9750134463614
 20
207.4766108137999
 30
0.0
 10
246.9565298491993
 20
207.466620745198
 30
0.0
 10
246.9195679783802
 20
207.4466434852582
 30
0.0
 10
246.8545962563912
 20
207.4235393787205
 30
0.0
 10
246.7836621730967
 20
207.4071653756321
 30
0.0
 10
246.6956992222125
 20
207.3992333690553
 30
0.0
 10
246.6139899741107
 20
207.4039662102055
 30
0.0
 10
246.5427351002864
 20
207.4182109829227
 30
0.0
 10
246.5092335390346
 20
207.4279823056591
 30
0.0
 10
246.4913263367411
 20
207.4332052578553
 30
0.0
  0
SPLINE
  5
1A8
330
1F
100
AcDbEntity
  8
0
  6
Continuous
 62
     7
370
    18
100
AcDbSpline
210
0.0
220
0.0
230
1.0
 70
     8
 71
     3
 72
    14
 73
    10
 74
     0
 42
0.000000001
 43
0.00000001
 40
0.0
 40
0.0
 40
0.0
 40
0.0
 40
0.1252814848645615
 40
0.2504814429020545
 40
0.3760875633152365
 40
0.500709824799169
 40
0.7496370738507346
 40
0.8747878092838406
 40
1.0
 40
1.0
 40
1.0
 40
1.0
 10
246.9606517796307
 20
207.8652308590378
 30
0.0
 10
246.9824916699715
 20
207.8522638861418
 30
0.0
 10
247.0261572383619
 20
207.8263383785971
 30
0.0
 10
247.0757368971779
 20
207.779829159653
 30
0.0
 10
247.109143247886
 20
207.7286968119495
 30
0.0
 10
247.1247897261604
 20
207.6563967445725
 30
0.0
 10
247.1019373961547
 20
207.5822821523618
 30
0.0
 10
247.0395190306448
 20
207.5176800936346
 30
0.0
 10
246.9965188261346
 20
207.4903028137975
 30
0.0
 10
246.9750134463614
 20
207.4766108137999
 30
0.0
  0
SPLINE
  5
1A9
330
1F
100
AcDbEntity
  8
0
  6
Continuous
 62
     7
370
    18
100
AcDbSpline
210
0.0
220
0.0
230
1.0
 70
     8
 71
     3
 72
    16
 73
    12
 74
     0
 42
0.000000001
 43
0.00000001
 40
0.0
 40
0.0
 40
0.0
 40
0.0
 40
0.062589777557243
 40
0.1251543624077391
 40
0.2500672604056594
 40
0.3805025191951392
 40
0.499653627542368
 40
0.6170750161062075
 40
0.7496726083932601
 40
0.8748217421401914
 40
0.9999999999999999
 40
0.9999999999999999
 40
0.9999999999999999
 40
0.9999999999999999
 10
243.9467026726949
 20
209.0017526443117
 30
0.0
 10
243.9590951847408
 20
209.008566044198
 30
0.0
 10
243.983875220783
 20
209.0221901015422
 30
0.0
 10
244.0395091482888
 20
209.0461849185503
 30
0.0
 10
244.1179595390373
 20
209.0709618609439
 30
0.0
 10
244.2179383763711
 20
209.0901631324727
 30
0.0
 10
244.3188158486786
 20
209.0950432691647
 30
0.0
 10
244.4142256173042
 20
209.0848527627057
 30
0.0
 10
244.5022639165228
 20
209.0645616242695
 30
0.0
 10
244.5842130789578
 20
209.0372894876266
 30
0.0
 10
244.6329524498676
 20
209.0161887296179
 30
0.0
 10
244.6573249705913
 20
209.0056371231394
 30
0.0
  0
SPLINE
  5
1AA
330
1F
100
AcDbEntity
  8
0
  6
Continuous
 62
     7
370
    18
100
AcDbSpline
210
0.0
220
0.0
230
1.0
 70
     8
 71
     3
 72
    13
 73
     9
 74
     0
 42
0.000000001
 43
0.00000001
 40
0.0
 40
0.0
 40
0.0
 40
0.0
 40
0.1432297911180526
 40
0.2863834077652708
 40
0.5711021961305361
 40
0.7852459521892069
 40
0.8838756167393029
 40
1.0
 40
1.0
 40
1.0
 40
1.0
 10
243.8900022896136
 20
208.7619531550801
 30
0.0
 10
243.879244731026
 20
208.7721757341922
 30
0.0
 10
243.8577353350861
 20
208.7926154557013
 30
0.0
 10
243.8309216196727
 20
208.8377530841306
 30
0.0
 10
243.8318912654515
 20
208.8940488058317
 30
0.0
 10
243.8683686228043
 20
208.9449578022692
 30
0.0
 10
243.9090298599291
 20
208.9782243969398
 30
0.0
 10
243.9334811032685
 20
208.9934952211656
 30
0.0
 10
243.9467026726949
 20
209.0017526443117
 30
0.0
  0
SPLINE
  5
1AB
330
1F
100
AcDbEntity
  8
0
  6
Continuous
 62
     7
370
    18
100
AcDbSpline
210
0.0
220
0.0
230
1.0
 70
     8
 71
     3
 72
    13
 73
     9
 74
     0
 42
0.000000001
 43
0.00000001
 40
0.0
 40
0.0
 40
0.0
 40
0.0
 40
0.1252091953834796
 40
0.2503416260902103
 40
0.499967113171109
 40
0.7495578398135634
 40
0.8747445288951798
 40
1.0
 40
1.0
 40
1.0
 40
1.0
 10
243.4932401859325
 20
208.6978907907052
 30
0.0
 10
243.5064334307532
 20
208.7049256934443
 30
0.0
 10
243.53281183173
 20
208.7189911858844
 30
0.0
 10
243.5942996765208
 20
208.7418323289914
 30
0.0
 10
243.6797445453707
 20
208.7624005471456
 30
0.0
 10
243.7696854008289
 20
208.7689918127369
 30
0.0
 10
243.8393927097881
 20
208.7669430611585
 30
0.0
 10
243.8731293411692
 20
208.7636167616205
 30
0.0
 10
243.8900022896136
 20
208.7619531550801
 30
0.0
  0
SPLINE
  5
1AC
330
1F
100
AcDbEntity
  8
0
  6
Continuous
 62
     7
370
    18
100
AcDbSpline
210
0.0
220
0.0
230
1.0
 70
     8
 71
     3
 72
    15
 73
    11
 74
     0
 42
0.000000001
 43
0.00000001
 40
0.0
 40
0.0
 40
0.0
 40
0.0
 40
0.1357501914746935
 40
0.2507889589320461
 40
0.3343828741388348
 40
0.5009717966281145
 40
0.7494122908016102
 40
0.8746189433820691
 40
0.9372890818677945
 40
0.9999999999999999
 40
0.9999999999999999
 40
0.9999999999999999
 40
0.9999999999999999
 10
243.5687645909894
 20
208.37610859841
 30
0.0
 10
243.5460747303158
 20
208.3868407046157
 30
0.0
 10
243.5041568039039
 20
208.4066675182153
 30
0.0
 10
243.4555424772145
 20
208.4366374054987
 30
0.0
 10
243.4101799863697
 20
208.4723117872822
 30
0.0
 10
243.3695558099753
 20
208.5285090083111
 30
0.0
 10
243.3837557264195
 20
208.5984984080125
 30
0.0
 10
243.4275862663727
 20
208.6507458429411
 30
0.0
 10
243.4620886219078
 20
208.6787230685321
 30
0.0
 10
243.4828540799658
 20
208.691500164749
 30
0.0
 10
243.4932401859325
 20
208.6978907907052
 30
0.0
  0
ARC
  5
1AD
330
1F
100
AcDbEntity
  8
0
  6
Continuous
 62
     7
370
    18
100
AcDbCircle
 10
231.1565621795
 20
180.8778696553
 30
0.0
 40
30.16978478002866
100
AcDbArc
 50
64.8578849299
 51
65.7064535854
  0
LINE
  5
1AE
330
1F
100
AcDbEntity
  8
0
  6
Continuous
 62
     7
370
    18
100
AcDbLine
 10
245.0642914172
 20
208.8183097769
 30
0.0
 11
243.9746460822
 21
208.1892709145
 31
0.0
  0
ARC
  5
1AF
330
1F
100
AcDbEntity
  8
0
  6
Continuous
 62
     7
370
    18
100
AcDbCircle
 10
232.2466341234
 20
181.5078293063
 30
0.0
 40
30.16876997882019
100
AcDbArc
 50
64.8578753957
 51
65.7087332496
  0
LINE
  5
1B0
330
1F
100
AcDbEntity
  8
0
  6
Continuous
 62
     7
370
    18
100
AcDbLine
 10
244.7981324705
 20
208.4746378526
 30
0.0
 11
244.9238607784
 21
208.5472192598
 31
0.0
  0
ARC
  5
1B1
330
1F
100
AcDbEntity
  8
0
  6
Continuous
 62
     7
370
    18
100
AcDbCircle
 10
231.3268442768
 20
180.250834434
 30
0.0
 40
31.27392979795534
100
AcDbArc
 50
63.6620327019
 51
64.4847463997
  0
LINE
  5
1B2
330
1F
100
AcDbEntity
  8
0
  6
Continuous
 62
     7
370
    18
100
AcDbLine
 10
245.3277254692
 20
208.3508812535
 30
0.0
 11
245.2019971613
 21
208.2782998463
 31
0.0
  0
ARC
  5
1B3
330
1F
100
AcDbEntity
  8
0
  6
Continuous
 62
     7
370
    18
100
AcDbCircle
 10
231.4525725846
 20
180.3234158409
 30
0.0
 40
31.27392979829969
100
AcDbArc
 50
63.6620327019
 51
64.4847463997
  0
LINE
  5
1B4
330
1F
100
AcDbEntity
  8
0
  6
Continuous
 62
     7
370
    18
100
AcDbLine
 10
245.6345065797
 20
208.257558154
 30
0.0
 11
245.8999330074
 21
208.4107855693
 31
0.0
  0
ARC
  5
1B5
330
1F
100
AcDbEntity
  8
0
  6
Continuous
 62
     7
370
    18
100
AcDbCircle
 10
231.1831872579
 20
179.6989087199
 30
0.0
 40
32.00682876573536
100
AcDbArc
 50
63.1595630656
 51
63.4389098433
  0
LINE
  5
1B6
330
1F
100
AcDbEntity
  8
0
  6
Continuous
 62
     7
370
    18
100
AcDbLine
 10
245.355398957
 20
208.2470301492
 30
0.0
 11
245.4950970768
 21
208.3276761572
 31
0.0
  0
ARC
  5
1B7
330
1F
100
AcDbEntity
  8
0
  6
Continuous
 62
     7
370
    18
100
AcDbCircle
 10
231.0434891387
 20
179.6182627132
 30
0.0
 40
32.00682876430626
100
AcDbArc
 50
63.1595630656
 51
63.4389098433
  0
LINE
  5
1B8
330
1F
100
AcDbEntity
  8
0
  6
Continuous
 62
     7
370
    18
100
AcDbLine
 10
244.8242574844
 20
207.7898113076
 30
0.0
 11
245.4948084598
 21
208.176912146
 31
0.0
  0
ARC
  5
1B9
330
1F
100
AcDbEntity
  8
0
  6
Continuous
 62
     7
370
    18
100
AcDbCircle
 10
230.2699412737
 20
179.0274953006
 30
0.0
 40
32.23505766159813
100
AcDbArc
 50
62.9650442852
 51
63.1596629493
  0
SPLINE
  5
1BA
330
1F
100
AcDbEntity
  8
0
  6
Continuous
 62
     7
370
    18
100
AcDbSpline
210
0.0
220
0.0
230
1.0
 70
     8
 71
     3
 72
     8
 73
     4
 74
     0
 42
0.000000001
 43
0.00000001
 40
0.0
 40
0.0
 40
0.0
 40
0.0
 40
1.0
 40
1.0
 40
1.0
 40
1.0
 10
246.1086967479237
 20
207.8580313514777
 30
0.0
 10
245.7130128119174
 20
207.8207377307699
 30
0.0
 10
245.3173934448536
 20
207.7814690642954
 30
0.0
 10
244.9218713419435
 20
207.7402082989258
 30
0.0
  0
LINE
  5
1BB
330
1F
100
AcDbEntity
  8
0
  6
Continuous
 62
     7
370
    18
100
AcDbLine
 10
246.2483948678
 20
207.9386773595
 30
0.0
 11
246.1086967479
 21
207.8580313515
 31
0.0
  0
ARC
  5
1BC
330
1F
100
AcDbEntity
  8
0
  6
Continuous
 62
     7
370
    18
100
AcDbCircle
 10
230.7899696797
 20
178.9307551866
 30
0.0
 40
32.86978031692834
100
AcDbArc
 50
61.9466872754
 51
62.8797697345
  0
LINE
  5
1BD
330
1F
100
AcDbEntity
  8
0
  6
Continuous
 62
     7
370
    18
100
AcDbLine
 10
246.0393878469
 20
208.3397931296
 30
0.0
 11
245.7739614191
 21
208.1865657144
 31
0.0
  0
ARC
  5
1BE
330
1F
100
AcDbEntity
  8
0
  6
Continuous
 62
     7
370
    18
100
AcDbCircle
 10
231.3273516898
 20
179.6124968082
 30
0.0
 40
32.27540180732245
100
AcDbArc
 50
62.8817695509
 51
63.1595644857
  0
LINE
  5
1BF
330
1F
100
AcDbEntity
  8
0
  6
Continuous
 62
     7
370
    18
100
AcDbLine
 10
248.1478763425
 20
206.8479079879
 30
0.0
 11
248.4133027702
 21
207.0011354031
 31
0.0
  0
ARC
  5
1C0
330
1F
100
AcDbEntity
  8
0
  6
Continuous
 62
     7
370
    18
100
AcDbCircle
 10
228.7599836087
 20
175.3552903457
 30
0.0
 40
36.98209500027717
100
AcDbArc
 50
58.3821791229
 51
58.6358736214
  0
LINE
  5
1C1
330
1F
100
AcDbEntity
  8
0
  6
Continuous
 62
     7
370
    18
100
AcDbLine
 10
247.8685454768
 20
206.852798781
 30
0.0
 11
248.0082435967
 21
206.933444789
 31
0.0
  0
ARC
  5
1C2
330
1F
100
AcDbEntity
  8
0
  6
Continuous
 62
     7
370
    18
100
AcDbCircle
 10
228.620285489
 20
175.274644338
 30
0.0
 40
36.9820949999857
100
AcDbArc
 50
58.3821791229
 51
58.6358736214
  0
LINE
  5
1C3
330
1F
100
AcDbEntity
  8
0
  6
Continuous
 62
     7
370
    18
100
AcDbLine
 10
247.3376272472
 20
206.3801611414
 30
0.0
 11
248.0081782226
 21
206.7672619799
 31
0.0
  0
ARC
  5
1C4
330
1F
100
AcDbEntity
  8
0
  6
Continuous
 62
     7
370
    18
100
AcDbCircle
 10
227.8235333124
 20
174.6824464562
 30
0.0
 40
37.22290932165591
100
AcDbArc
 50
58.2054426961
 51
58.3822620877
  0
SPLINE
  5
1C5
330
1F
100
AcDbEntity
  8
0
  6
Continuous
 62
     7
370
    18
100
AcDbSpline
210
0.0
220
0.0
230
1.0
 70
     8
 71
     3
 72
     8
 73
     4
 74
     0
 42
0.000000001
 43
0.00000001
 40
0.0
 40
0.0
 40
0.0
 40
0.0
 40
1.0
 40
1.0
 40
1.0
 40
1.0
 10
248.6222199941257
 20
206.3810090221696
 30
0.0
 10
248.2266823339227
 20
206.3624904750127
 30
0.0
 10
247.8310500593861
 20
206.3420904229543
 30
0.0
 10
247.4353558681794
 20
206.3197882282942
 30
0.0
  0
LINE
  5
1C6
330
1F
100
AcDbEntity
  8
0
  6
Continuous
 62
     7
370
    18
100
AcDbLine
 10
248.761918114
 20
206.4616550302
 30
0.0
 11
248.6222199941
 21
206.3810090222
 31
0.0
  0
ARC
  5
1C7
330
1F
100
AcDbEntity
  8
0
  6
Continuous
 62
     7
370
    18
100
AcDbCircle
 10
228.2806976302
 20
174.5840996413
 30
0.0
 40
37.89009013026915
100
AcDbArc
 50
57.2793936416
 51
58.1281186675
  0
LINE
  5
1C8
330
1F
100
AcDbEntity
  8
0
  6
Continuous
 62
     7
370
    18
100
AcDbLine
 10
248.5529110931
 20
206.9147632908
 30
0.0
 11
248.2874846653
 21
206.7615358755
 31
0.0
  0
ARC
  5
1C9
330
1F
100
AcDbEntity
  8
0
  6
Continuous
 62
     7
370
    18
100
AcDbCircle
 10
228.8768754016
 20
175.267244704
 30
0.0
 40
37.2654238300185
100
AcDbArc
 50
58.1297734699
 51
58.3821804402
  0
SPLINE
  5
1CA
330
1F
100
AcDbEntity
  8
0
  6
Continuous
 62
     7
370
    18
100
AcDbSpline
210
0.0
220
0.0
230
1.0
 70
     8
 71
     3
 72
     8
 73
     4
 74
     0
 42
0.000000001
 43
0.00000001
 40
0.0
 40
0.0
 40
0.0
 40
0.0
 40
1.0
 40
1.0
 40
1.0
 40
1.0
 10
249.4462744461002
 20
205.9243234260072
 30
0.0
 10
249.5992114961602
 20
205.9610221707458
 30
0.0
 10
249.7521403546591
 20
205.9976144769749
 30
0.0
 10
249.9050605715701
 20
206.0341006499331
 30
0.0
  0
ARC
  5
1CB
330
1F
100
AcDbEntity
  8
0
  6
Continuous
 62
     7
370
    18
100
AcDbCircle
 10
227.3637564558
 20
173.2379769888
 30
0.0
 40
39.44660751197784
100
AcDbArc
 50
55.9574941391
 51
56.7655169468
  0
SPLINE
  5
1CC
330
1F
100
AcDbEntity
  8
0
  6
Continuous
 62
     7
370
    18
100
AcDbSpline
210
0.0
220
0.0
230
1.0
 70
     8
 71
     3
 72
     8
 73
     4
 74
     0
 42
0.000000001
 43
0.00000001
 40
0.0
 40
0.0
 40
0.0
 40
0.0
 40
1.0
 40
1.0
 40
1.0
 40
1.0
 10
249.1946850325253
 20
206.506761285102
 30
0.0
 10
249.1241727060832
 20
206.4154435987948
 30
0.0
 10
249.0536543264016
 20
206.3240180570143
 30
0.0
 10
248.9831294426909
 20
206.2324849538958
 30
0.0
  0
ARC
  5
1CD
330
1F
100
AcDbEntity
  8
0
  6
Continuous
 62
     7
370
    18
100
AcDbCircle
 10
228.1898514583
 20
174.1808797343
 30
0.0
 40
38.55081907714001
100
AcDbArc
 50
56.984842178
 51
57.2728628046
  0
SPLINE
  5
1CE
330
1F
100
AcDbEntity
  8
0
  6
Continuous
 62
     7
370
    18
100
AcDbSpline
210
0.0
220
0.0
230
1.0
 70
     8
 71
     3
 72
     8
 73
     4
 74
     0
 42
0.000000001
 43
0.00000001
 40
0.0
 40
0.0
 40
0.0
 40
0.0
 40
1.0
 40
1.0
 40
1.0
 40
1.0
 10
248.3739933287389
 20
205.7013766498127
 30
0.0
 10
248.5933818347151
 20
206.0062079919627
 30
0.0
 10
248.8126847015955
 20
206.3097338647345
 30
0.0
 10
249.0319210828006
 20
206.6119417780393
 30
0.0
  0
ARC
  5
1CF
330
1F
100
AcDbEntity
  8
0
  6
Continuous
 62
     7
370
    18
100
AcDbCircle
 10
226.6087740585
 20
172.8024374645
 30
0.0
 40
39.44698935787542
100
AcDbArc
 50
56.2107615619
 51
56.512249524
  0
SPLINE
  5
1D0
330
1F
100
AcDbEntity
  8
0
  6
Continuous
 62
     7
370
    18
100
AcDbSpline
210
0.0
220
0.0
230
1.0
 70
     8
 71
     3
 72
     8
 73
     4
 74
     0
 42
0.000000001
 43
0.00000001
 40
0.0
 40
0.0
 40
0.0
 40
0.0
 40
1.0
 40
1.0
 40
1.0
 40
1.0
 10
250.0674150906662
 20
205.9229579538927
 30
0.0
 10
249.5606507914406
 20
205.8120617072918
 30
0.0
 10
249.0537740657246
 20
205.6998780687387
 30
0.0
 10
248.546804033582
 20
205.5863940623985
 30
0.0
  0
ARC
  5
1D1
330
1F
100
AcDbEntity
  8
0
  6
Continuous
 62
     7
370
    18
100
AcDbCircle
 10
227.1957827347
 20
172.6867925618
 30
0.0
 40
40.34543662669349
100
AcDbArc
 50
55.4660023163
 51
55.7454173065
  0
LINE
  5
1D2
330
1F
100
AcDbEntity
  8
0
  6
Continuous
 62
     7
370
    18
100
AcDbLine
 10
249.960154901
 20
205.837660181
 30
0.0
 11
250.0858832089
 21
205.9102415882
 31
0.0
  0
ARC
  5
1D3
330
1F
100
AcDbEntity
  8
0
  6
Continuous
 62
     7
370
    18
100
AcDbCircle
 10
226.6514690316
 20
172.0086290095
 30
0.0
 40
41.08160399691356
100
AcDbArc
 50
54.5574682185
 51
55.4326030818
  0
LINE
  5
1D4
330
1F
100
AcDbEntity
  8
0
  6
Continuous
 62
     7
370
    18
100
AcDbLine
 10
249.5102030475
 20
204.921254067
 30
0.0
 11
250.4741200747
 21
205.4777115222
 31
0.0
  0
ARC
  5
1D5
330
1F
100
AcDbEntity
  8
0
  6
Continuous
 62
     7
370
    18
100
AcDbCircle
 10
225.288681252
 20
170.8896327306
 30
0.0
 40
41.7712026266398
100
AcDbArc
 50
54.3018778833
 51
54.5591819878
  0
LINE
  5
1D6
330
1F
100
AcDbEntity
  8
0
  6
Continuous
 62
     7
370
    18
100
AcDbLine
 10
250.7524329622
 20
205.4411760301
 30
0.0
 11
249.6627876272
 21
204.8121371677
 31
0.0
  0
ARC
  5
1D7
330
1F
100
AcDbEntity
  8
0
  6
Continuous
 62
     7
370
    18
100
AcDbCircle
 10
226.6870762358
 20
171.9520362226
 30
0.0
 40
41.23910619078154
100
AcDbArc
 50
54.2989071945
 51
55.4313237304
  0
LWPOLYLINE
  5
1D8
330
1F
100
AcDbEntity
  8
0
  6
Continuous
 62
     7
370
    18
100
AcDbPolyline
 90
       75
 70
   128
 43
0.0
 10
274.3680685403
 20
161.7817355842
 10
274.3543047131
 20
162.7761407947
 10
274.31302752
 20
163.7854050571
 10
274.2442798123
 20
164.8084806211
 10
274.1481329592
 20
165.8443053983
 10
274.024686774
 20
166.891804065
 10
273.8740694101
 20
167.9498891784
 10
273.6964372285
 20
169.0174623055
 10
273.4919746348
 20
170.0934151635
 10
273.2608938886
 20
171.1766307706
 10
273.0034348822
 20
172.2659846049
 10
272.7198648924
 20
173.3603457725
 10
272.4104783024
 20
174.458578181
 10
272.0755962966
 20
175.5595417193
 10
271.7155665271
 20
176.662093441
 10
271.3307627527
 20
177.7650887509
 10
270.9215844506
 20
178.8673825933
 10
270.4884564024
 20
179.9678306407
 10
270.0318282526
 20
181.0652904819
 10
269.5521740418
 20
182.1586228078
 10
269.0499917148
 20
183.2466925941
 10
268.5258026037
 20
184.3283702798
 10
267.9801508862
 20
185.4025329397
 10
267.4136030216
 20
186.4680654504
 10
266.8267471615
 20
187.5238616475
 10
266.2201925406
 20
188.5688254743
 10
265.5945688429
 20
189.6018721194
 10
264.9505255491
 20
190.6219291433
 10
264.2887312617
 20
191.6279375911
 10
263.609873011
 20
192.6188530925
 10
262.9146555421
 20
193.5936469455
 10
262.2038005831
 20
194.5513071846
 10
261.4780460959
 20
195.4908396312
 10
260.7381455101
 20
196.4112689258
 10
259.9848669409
 20
197.3116395406
 10
259.2189923913
 20
198.1910167711
 10
258.441316941
 20
199.048487707
 10
257.6526479205
 20
199.8831621795
 10
256.8538040729
 20
200.6941736856
 10
256.0456147043
 20
201.4806802877
 10
255.2289188226
 20
202.2418654874
 10
254.4045642667
 20
202.9769390733
 10
253.5734068261
 20
203.6851379413
 10
252.7363093527
 20
204.365726887
 10
251.8941408649
 20
205.0179993685
 10
251.0477756455
 20
205.6412782405
 10
250.1980923339
 20
206.2349164566
 10
249.3459730145
 20
206.7982977414
 10
248.4923023002
 20
207.3308372304
 10
247.6379664146
 20
207.8319820768
 10
246.783852272
 20
208.3012120257
 10
245.9308465563
 20
208.738039954
 10
245.0798348007
 20
209.1420123764
 10
244.2317004686
 20
209.5127099157
 10
243.387324036
 20
209.8497477386
 10
242.5475820778
 20
210.1527759552
 10
241.7133463579
 20
210.4214799819
 10
240.8854829236
 20
210.6555808682
 10
240.0648512074
 20
210.8548355862
 10
239.2523031338
 20
211.0190372832
 10
238.4486822357
 20
211.1480154958
 10
237.6548227785
 20
211.2416363277
 10
236.8715488937
 20
211.2998025879
 10
236.0996737237
 20
211.3224538922
 10
235.3399985774
 20
211.3095667254
 10
234.5933120986
 20
211.2611544662
 10
233.860389447
 20
211.1772673729
 10
233.1419914939
 20
211.0579925315
 10
232.4388640315
 20
210.9034537651
 10
231.7517369998
 20
210.7138115055
 10
231.0813237278
 20
210.4892626265
 10
230.4283201937
 20
210.2300402397
 10
229.7934043017
 20
209.9364134524
 10
229.177235179
 20
209.6086870881
 10
229.1030880089
 20
209.5662200202
  0
LWPOLYLINE
  5
1D9
330
1F
100
AcDbEntity
  8
0
  6
Continuous
 62
     7
370
    18
100
AcDbPolyline
 90
       26
 70
   128
 43
0.0
 10
266.6000404828
 20
144.6125553416
 10
266.8267471615
 20
144.7466338506
 10
267.4136030216
 20
145.1248606942
 10
267.9801508862
 20
145.5362709637
 10
268.5258026037
 20
145.9804375606
 10
269.0499917148
 20
146.4568993809
 10
269.5521740418
 20
146.9651617941
 10
270.0318282526
 20
147.504697156
 10
270.4884564024
 20
148.0749453574
 10
270.9215844506
 20
148.675314405
 10
271.3307627527
 20
149.3051810357
 10
271.7155665271
 20
149.9638913644
 10
272.0755962966
 20
150.6507615623
 10
272.4104783024
 20
151.3650785668
 10
272.7198648924
 20
152.1061008219
 10
273.0034348822
 20
152.8730590482
 10
273.2608938886
 20
153.665157041
 10
273.4919746348
 20
154.4815724974
 10
273.6964372285
 20
155.3214578698
 10
273.8740694101
 20
156.1839412454
 10
274.024686774
 20
157.068127252
 10
274.1481329592
 20
157.973097987
 10
274.2442798123
 20
158.8979139705
 10
274.31302752
 20
159.8416151207
 10
274.3543047131
 20
160.8032217504
 10
274.3680685403
 20
161.7817355842
  0
LWPOLYLINE
  5
1DA
330
1F
100
AcDbEntity
  8
0
  6
Continuous
 62
     7
370
    18
100
AcDbPolyline
 90
       50
 70
   128
 43
0.0
 10
248.0326218876
 20
207.6051121981
 10
248.6648074084
 20
207.2312785807
 10
249.5127869846
 20
206.702289355
 10
250.3592255086
 20
206.1426639454
 10
251.2032442648
 20
205.5529833174
 10
252.0439670494
 20
204.9338596379
 10
252.8805210806
 20
204.2859356396
 10
253.7120379042
 20
203.6098839535
 10
254.5376542952
 20
202.9064064113
 10
255.356513154
 20
202.176233316
 10
256.1677643965
 20
201.4201226843
 10
256.970565836
 20
200.6388594596
 10
257.7640840579
 20
199.8332546968
 10
258.547495285
 20
199.0041447208
 10
259.3199862323
 20
198.1523902578
 10
260.0807549515
 20
197.2788755421
 10
260.8290116637
 20
196.3845073982
 10
261.5639795789
 20
195.4702142989
 10
262.2848957028
 20
194.5369454019
 10
262.9910116287
 20
193.5856695644
 10
263.6815943145
 20
192.6173743371
 10
264.3559268435
 20
191.633064939
 10
265.0133091691
 20
190.6337632142
 10
265.6530588409
 20
189.6205065705
 10
266.2745117139
 20
188.594346903
 10
266.8770226374
 20
187.5563495017
 10
267.459966125
 20
186.5075919459
 10
268.0227370039
 20
185.4491629853
 10
268.5647510432
 20
184.3821614098
 10
269.0854455603
 20
183.3076949086
 10
269.5842800051
 20
182.2268789209
 10
270.0607365212
 20
181.1408354772
 10
270.5143204834
 20
180.050692035
 10
270.9445610112
 20
178.9575803078
 10
271.3510114579
 20
177.8626350911
 10
271.7332498739
 20
176.7669930833
 10
272.0908794449
 20
175.6717917064
 10
272.423528904
 20
174.578167925
 10
272.7308529167
 20
173.4872570659
 10
273.0125324399
 20
172.4001916394
 10
273.2682750529
 20
171.318100164
 10
273.4978152609
 20
170.2421059943
 10
273.7009147705
 20
169.1733261553
 10
273.8773627376
 20
168.1128701824
 10
274.0269759857
 20
167.0618389698
 10
274.1495991964
 20
166.0213236275
 10
274.2451050705
 20
164.9924043488
 10
274.3133944601
 20
163.9761492886
 10
274.3543964719
 20
162.9736134546
 10
274.3680685403
 20
161.9858376122
  0
ARC
  5
1DB
330
1F
100
AcDbEntity
  8
0
  6
Continuous
 62
     7
370
    18
100
AcDbCircle
 10
227.2377728221
 20
173.1653742903
 30
0.0
 40
39.44676667341377
100
AcDbArc
 50
56.037993435
 51
56.6850176508
  0
SPLINE
  5
1DC
330
1F
100
AcDbEntity
  8
0
  6
Continuous
 62
     7
370
    18
100
AcDbSpline
210
0.0
220
0.0
230
1.0
 70
     8
 71
     3
 72
     8
 73
     4
 74
     0
 42
0.000000001
 43
0.00000001
 40
0.0
 40
0.0
 40
0.0
 40
0.0
 40
1.0
 40
1.0
 40
1.0
 40
1.0
 10
248.9035684237403
 20
206.1296079676833
 30
0.0
 10
248.843312120578
 20
206.05136284529
 30
0.0
 10
248.7830509526868
 20
205.9730393804993
 30
0.0
 10
248.7227846395398
 20
205.8946377583303
 30
0.0
  0
SPLINE
  5
1DD
330
1F
100
AcDbEntity
  8
0
  6
Continuous
 62
     7
370
    18
100
AcDbSpline
210
0.0
220
0.0
230
1.0
 70
     8
 71
     3
 72
     8
 73
     4
 74
     0
 42
0.000000001
 43
0.00000001
 40
0.0
 40
0.0
 40
0.0
 40
0.0
 40
1.0
 40
1.0
 40
1.0
 40
1.0
 10
248.7227846395398
 20
205.8946377583303
 30
0.0
 10
248.6772386657234
 20
205.8353444260943
 30
0.0
 10
248.6316897457534
 20
205.7760063412465
 30
0.0
 10
248.5861377581131
 20
205.7166235844268
 30
0.0
  0
SPLINE
  5
1DE
330
1F
100
AcDbEntity
  8
0
  6
Continuous
 62
     7
370
    18
100
AcDbSpline
210
0.0
220
0.0
230
1.0
 70
     8
 71
     3
 72
    11
 73
     7
 74
     0
 42
0.000000001
 43
0.00000001
 40
0.0
 40
0.0
 40
0.0
 40
0.0
 40
0.2500118684894735
 40
0.4999936455204218
 40
0.7499819542659762
 40
1.0
 40
1.0
 40
1.0
 40
1.0
 10
248.5861377581131
 20
205.7166235844268
 30
0.0
 10
248.6077869576295
 20
205.7238839601141
 30
0.0
 10
248.651082750962
 20
205.7384038376287
 30
0.0
 10
248.7194376695908
 20
205.7561968432192
 30
0.0
 10
248.789441126942
 20
205.7716221594961
 30
0.0
 10
248.8375458509014
 20
205.7794117829751
 30
0.0
 10
248.8615996433526
 20
205.7833068263516
 30
0.0
  0
SPLINE
  5
1DF
330
1F
100
AcDbEntity
  8
0
  6
Continuous
 62
     7
370
    18
100
AcDbSpline
210
0.0
220
0.0
230
1.0
 70
     8
 71
     3
 72
     8
 73
     4
 74
     0
 42
0.000000001
 43
0.00000001
 40
0.0
 40
0.0
 40
0.0
 40
0.0
 40
1.0
 40
1.0
 40
1.0
 40
1.0
 10
248.8615996433526
 20
205.7833068263516
 30
0.0
 10
248.999217490022
 20
205.81657290801
 30
0.0
 10
249.1368291705616
 20
205.8497525302115
 30
0.0
 10
249.2744343571156
 20
205.8828459129715
 30
0.0
  0
LINE
  5
1E0
330
1F
100
AcDbEntity
  8
0
  6
Continuous
 62
     7
370
    18
100
AcDbLine
 10
248.1477865454
 20
206.6808898675
 30
0.0
 11
247.7553221399
 21
206.4543249888
 31
0.0
  0
SPLINE
  5
1E1
330
1F
100
AcDbEntity
  8
0
  6
Continuous
 62
     7
370
    18
100
AcDbSpline
210
0.0
220
0.0
230
1.0
 70
     8
 71
     3
 72
     8
 73
     4
 74
     0
 42
0.000000001
 43
0.00000001
 40
0.0
 40
0.0
 40
0.0
 40
0.0
 40
1.0
 40
1.0
 40
1.0
 40
1.0
 10
247.755322139911
 20
206.4543249888049
 30
0.0
 10
247.986913618837
 20
206.4671958268186
 30
0.0
 10
248.2184829782547
 20
206.4794156047879
 30
0.0
 10
248.4500236610521
 20
206.4909884426731
 30
0.0
  0
ARC
  5
1E2
330
1F
100
AcDbEntity
  8
0
  6
Continuous
 62
     7
370
    18
100
AcDbCircle
 10
228.2341753412
 20
174.6519710275
 30
0.0
 40
37.71476571924002
100
AcDbArc
 50
57.5869249392
 51
58.1291933415
  0
SPLINE
  5
1E3
330
1F
100
AcDbEntity
  8
0
  6
Continuous
 62
     7
370
    18
100
AcDbSpline
210
0.0
220
0.0
230
1.0
 70
     8
 71
     3
 72
    13
 73
     9
 74
     0
 42
0.000000001
 43
0.00000001
 40
0.0
 40
0.0
 40
0.0
 40
0.0
 40
0.1254800655898867
 40
0.2508898889570905
 40
0.4999408487460525
 40
0.7490140322528134
 40
0.8637817965993186
 40
1.0
 40
1.0
 40
1.0
 40
1.0
 10
246.3001111778315
 20
207.2940648559363
 30
0.0
 10
246.3106149518022
 20
207.3005909560197
 30
0.0
 10
246.3316166198581
 20
207.3136395029546
 30
0.0
 10
246.3617681732081
 20
207.3445633957835
 30
0.0
 10
246.3774480805922
 20
207.3888391716645
 30
0.0
 10
246.3553818132682
 20
207.4310527410573
 30
0.0
 10
246.3210920352797
 20
207.459551603088
 30
0.0
 10
246.3001547808996
 20
207.4720623861521
 30
0.0
 10
246.288791455685
 20
207.4788523928104
 30
0.0
  0
SPLINE
  5
1E4
330
1F
100
AcDbEntity
  8
0
  6
Continuous
 62
     7
370
    18
100
AcDbSpline
210
0.0
220
0.0
230
1.0
 70
     8
 71
     3
 72
    13
 73
     9
 74
     0
 42
0.000000001
 43
0.00000001
 40
0.0
 40
0.0
 40
0.0
 40
0.0
 40
0.1346964697815077
 40
0.2508689714643969
 40
0.4999791254947544
 40
0.7492657459175294
 40
0.8745398488166454
 40
1.0
 40
1.0
 40
1.0
 40
1.0
 10
246.288791455685
 20
207.4788523928104
 30
0.0
 10
246.2770127228903
 20
207.4848249278744
 30
0.0
 10
246.2550751131953
 20
207.4959486323854
 30
0.0
 10
246.2056458483337
 20
207.5140145837482
 30
0.0
 10
246.1332398417509
 20
207.5252069545425
 30
0.0
 10
246.0577571847064
 20
207.5166982356545
 30
0.0
 10
246.0045771141681
 20
207.5003055030103
 30
0.0
 10
245.9825100597488
 20
207.4886252905932
 30
0.0
 10
245.9714683455092
 20
207.482780850945
 30
0.0
  0
SPLINE
  5
1E5
330
1F
100
AcDbEntity
  8
0
  6
Continuous
 62
     7
370
    18
100
AcDbSpline
210
0.0
220
0.0
230
1.0
 70
     8
 71
     3
 72
    13
 73
     9
 74
     0
 42
0.000000001
 43
0.00000001
 40
0.0
 40
0.0
 40
0.0
 40
0.0
 40
0.1253933633010896
 40
0.2505936367647015
 40
0.4997801400185011
 40
0.699410430638916
 40
0.8710603652224626
 40
1.0
 40
1.0
 40
1.0
 40
1.0
 10
245.9714683455092
 20
207.482780850945
 30
0.0
 10
245.9612597224841
 20
207.4762750749252
 30
0.0
 10
245.9408581964153
 20
207.4632735409536
 30
0.0
 10
245.9117995315383
 20
207.4327013757283
 30
0.0
 10
245.8989817242243
 20
207.392774691392
 30
0.0
 10
245.9160290992801
 20
207.3510318078483
 30
0.0
 10
245.9473061955642
 20
207.3217514153049
 30
0.0
 10
245.9721206407179
 20
207.3070255486902
 30
0.0
 10
245.9827649405256
 20
207.3007088030123
 30
0.0
  0
SPLINE
  5
1E6
330
1F
100
AcDbEntity
  8
0
  6
Continuous
 62
     7
370
    18
100
AcDbSpline
210
0.0
220
0.0
230
1.0
 70
     8
 71
     3
 72
    13
 73
     9
 74
     0
 42
0.000000001
 43
0.00000001
 40
0.0
 40
0.0
 40
0.0
 40
0.0
 40
0.1373117361346701
 40
0.2508574952759745
 40
0.5000340978157385
 40
0.7492923530919178
 40
0.8745605940953476
 40
1.0
 40
1.0
 40
1.0
 40
1.0
 10
245.9827649405256
 20
207.3007088030123
 30
0.0
 10
245.9946943755941
 20
207.2946004877228
 30
0.0
 10
246.0164884937488
 20
207.2834410870991
 30
0.0
 10
246.0662320826472
 20
207.2656330734641
 30
0.0
 10
246.1378254911687
 20
207.2541858834179
 30
0.0
 10
246.2132344760812
 20
207.2612118882881
 30
0.0
 10
246.2667900067608
 20
207.2768191828751
 30
0.0
 10
246.2889990665657
 20
207.2883136823805
 30
0.0
 10
246.3001111778315
 20
207.2940648559363
 30
0.0
  0
SPLINE
  5
1E7
330
1F
100
AcDbEntity
  8
0
  6
Continuous
 62
     7
370
    18
100
AcDbSpline
210
0.0
220
0.0
230
1.0
 70
     8
 71
     3
 72
    13
 73
     9
 74
     0
 42
0.000000001
 43
0.00000001
 40
0.0
 40
0.0
 40
0.0
 40
0.0
 40
0.125478911198755
 40
0.250951379270942
 40
0.4996123102511169
 40
0.7490787472446555
 40
0.8745262221271893
 40
1.0
 40
1.0
 40
1.0
 40
1.0
 10
246.83270553146
 20
207.5538695065376
 30
0.0
 10
246.8461513390507
 20
207.5623223301423
 30
0.0
 10
246.8730422638131
 20
207.5792275433136
 30
0.0
 10
246.9133523855996
 20
207.6182874477582
 30
0.0
 10
246.9426890290183
 20
207.674738074823
 30
0.0
 10
246.9120339843892
 20
207.7298940627059
 30
0.0
 10
246.8739691805437
 20
207.7687840881577
 30
0.0
 10
246.8472122270176
 20
207.7850950820509
 30
0.0
 10
246.8338323478468
 20
207.793251433903
 30
0.0
  0
SPLINE
  5
1E8
330
1F
100
AcDbEntity
  8
0
  6
Continuous
 62
     7
370
    18
100
AcDbSpline
210
0.0
220
0.0
230
1.0
 70
     8
 71
     3
 72
    13
 73
     9
 74
     0
 42
0.000000001
 43
0.00000001
 40
0.0
 40
0.0
 40
0.0
 40
0.0
 40
0.1433599435043421
 40
0.2509202915003922
 40
0.4998865664009499
 40
0.7490975509879324
 40
0.8745202221346811
 40
0.9999999999999999
 40
0.9999999999999999
 40
0.9999999999999999
 40
0.9999999999999999
 10
246.8338323478468
 20
207.793251433903
 30
0.0
 10
246.8173396020433
 20
207.8015410074669
 30
0.0
 10
246.7884726502054
 20
207.8160500967159
 30
0.0
 10
246.721562053028
 20
207.8377935710683
 30
0.0
 10
246.6262124913068
 20
207.8484171087647
 30
0.0
 10
246.5288541800059
 20
207.8338566035599
 30
0.0
 10
246.4612670882517
 20
207.8105524114915
 30
0.0
 10
246.4324803404497
 20
207.7952242799689
 30
0.0
 10
246.4180836905411
 20
207.7875584698258
 30
0.0
  0
SPLINE
  5
1E9
330
1F
100
AcDbEntity
  8
0
  6
Continuous
 62
     7
370
    18
100
AcDbSpline
210
0.0
220
0.0
230
1.0
 70
     8
 71
     3
 72
    13
 73
     9
 74
     0
 42
0.000000001
 43
0.00000001
 40
0.0
 40
0.0
 40
0.0
 40
0.0
 40
0.125474720362822
 40
0.2508785332937954
 40
0.5001518764069643
 40
0.7490977919656499
 40
0.8745231586716846
 40
1.0
 40
1.0
 40
1.0
 40
1.0
 10
246.4180836905411
 20
207.7875584698258
 30
0.0
 10
246.404516485366
 20
207.779131068738
 30
0.0
 10
246.3773897420238
 20
207.7622810289987
 30
0.0
 10
246.3377543398084
 20
207.722795839036
 30
0.0
 10
246.3138283040487
 20
207.6668028518109
 30
0.0
 10
246.3371344142471
 20
207.611130857377
 30
0.0
 10
246.3781373900835
 20
207.5731932128619
 30
0.0
 10
246.405300115362
 20
207.5570825720889
 30
0.0
 10
246.4188842643278
 20
207.5490255990881
 30
0.0
  0
SPLINE
  5
1EA
330
1F
100
AcDbEntity
  8
0
  6
Continuous
 62
     7
370
    18
100
AcDbSpline
210
0.0
220
0.0
230
1.0
 70
     8
 71
     3
 72
    13
 73
     9
 74
     0
 42
0.000000001
 43
0.00000001
 40
0.0
 40
0.0
 40
0.0
 40
0.0
 40
0.1433386747222725
 40
0.2508552528076359
 40
0.4997383857573893
 40
0.7491579624111165
 40
0.8495450960878037
 40
1.0
 40
1.0
 40
1.0
 40
1.0
 10
246.4188842643278
 20
207.5490255990881
 30
0.0
 10
246.4352609972386
 20
207.5407457894852
 30
0.0
 10
246.4639217162138
 20
207.5262553964691
 30
0.0
 10
246.5309618065349
 20
207.5047926790164
 30
0.0
 10
246.625836538684
 20
207.4941322593741
 30
0.0
 10
246.7187374136103
 20
207.5075240577514
 30
0.0
 10
246.7864303492542
 20
207.5297782805918
 30
0.0
 10
246.8153559646623
 20
207.5448371848079
 30
0.0
 10
246.83270553146
 20
207.5538695065376
 30
0.0
  0
LINE
  5
1EB
330
1F
100
AcDbEntity
  8
0
  6
Continuous
 62
     7
370
    18
100
AcDbLine
 10
245.6342632992
 20
208.1059197064
 30
0.0
 11
245.2417988937
 21
207.8793548276
 31
0.0
  0
SPLINE
  5
1EC
330
1F
100
AcDbEntity
  8
0
  6
Continuous
 62
     7
370
    18
100
AcDbSpline
210
0.0
220
0.0
230
1.0
 70
     8
 71
     3
 72
     8
 73
     4
 74
     0
 42
0.000000001
 43
0.00000001
 40
0.0
 40
0.0
 40
0.0
 40
0.0
 40
1.0
 40
1.0
 40
1.0
 40
1.0
 10
245.241798893709
 20
207.8793548276444
 30
0.0
 10
245.4733047568143
 20
207.9033136422451
 30
0.0
 10
245.7048430324158
 20
207.9265904801423
 30
0.0
 10
245.9364071654248
 20
207.9491887416545
 30
0.0
  0
ARC
  5
1ED
330
1F
100
AcDbEntity
  8
0
  6
Continuous
 62
     7
370
    18
100
AcDbCircle
 10
230.7271334081
 20
178.9985533169
 30
0.0
 40
32.70261915694704
100
AcDbArc
 50
62.284719824
 51
62.8810686998
  0
ARC
  5
1EE
330
1F
100
AcDbEntity
  8
0
  6
Continuous
 62
     7
370
    18
100
AcDbCircle
 10
231.6652235313
 20
181.2486211341
 30
0.0
 40
30.05482280240155
100
AcDbArc
 50
65.1770856397
 51
65.645465427
  0
SPLINE
  5
1EF
330
1F
100
AcDbEntity
  8
0
  6
Continuous
 62
     7
370
    18
100
AcDbSpline
210
0.0
220
0.0
230
1.0
 70
     8
 71
     3
 72
     9
 73
     5
 74
     0
 42
0.000000001
 43
0.00000001
 40
0.0
 40
0.0
 40
0.0
 40
0.0
 40
0.5881299034697155
 40
0.9999999999999999
 40
0.9999999999999999
 40
0.9999999999999999
 40
0.9999999999999999
 10
244.0592810351879
 20
208.6289007578214
 30
0.0
 10
244.033356935523
 20
208.6404706718994
 30
0.0
 10
243.9892780687423
 20
208.6601430504161
 30
0.0
 10
243.937537491564
 20
208.6742178198506
 30
0.0
 10
243.9162270950471
 20
208.6800147964962
 30
0.0
  0
SPLINE
  5
1F0
330
1F
100
AcDbEntity
  8
0
  6
Continuous
 62
     7
370
    18
100
AcDbSpline
210
0.0
220
0.0
230
1.0
 70
     8
 71
     3
 72
    12
 73
     8
 74
     0
 42
0.000000001
 43
0.00000001
 40
0.0
 40
0.0
 40
0.0
 40
0.0
 40
0.1253854064967682
 40
0.2506606864909386
 40
0.4999850358476451
 40
0.7496247291253498
 40
0.9999999999999999
 40
0.9999999999999999
 40
0.9999999999999999
 40
0.9999999999999999
 10
243.9162270950471
 20
208.6800147964962
 30
0.0
 10
243.9056320004735
 20
208.6819242383203
 30
0.0
 10
243.8844511170402
 20
208.6857414448982
 30
0.0
 10
243.8389550914637
 20
208.6888646566742
 30
0.0
 10
243.7790568359154
 20
208.684917517763
 30
0.0
 10
243.7120733465721
 20
208.66649607102
 30
0.0
 10
243.6769406132601
 20
208.6480065853702
 30
0.0
 10
243.6593484045261
 20
208.6387482425009
 30
0.0
  0
SPLINE
  5
1F1
330
1F
100
AcDbEntity
  8
0
  6
Continuous
 62
     7
370
    18
100
AcDbSpline
210
0.0
220
0.0
230
1.0
 70
     8
 71
     3
 72
    14
 73
    10
 74
     0
 42
0.000000001
 43
0.00000001
 40
0.0
 40
0.0
 40
0.0
 40
0.0
 40
0.1250984431999979
 40
0.2500970162358937
 40
0.3769503368599147
 40
0.4995158073591869
 40
0.6421535955057829
 40
0.7495169339710762
 40
1.0
 40
1.0
 40
1.0
 40
1.0
 10
243.6593484045261
 20
208.6387482425009
 30
0.0
 10
243.6452832294907
 20
208.6299027602562
 30
0.0
 10
243.6171641081077
 20
208.6122188574036
 30
0.0
 10
243.5893901406263
 20
208.58121299215
 30
0.0
 10
243.5763505970275
 20
208.548785309867
 30
0.0
 10
243.5872046250132
 20
208.5159029377071
 30
0.0
 10
243.6191288392795
 20
208.4904475558998
 30
0.0
 10
243.6706156166044
 20
208.4605040216062
 30
0.0
 10
243.7119797360359
 20
208.4411963570944
 30
0.0
 10
243.7409335310962
 20
208.4276815000382
 30
0.0
  0
ARC
  5
1F2
330
1F
100
AcDbEntity
  8
0
  6
Continuous
 62
     7
370
    18
100
AcDbCircle
 10
231.3233557512
 20
181.0407199922
 30
0.0
 40
30.07061520073339
100
AcDbArc
 50
65.1771645638
 51
65.6098887546
  0
LINE
  5
1F3
330
1F
100
AcDbEntity
  8
0
  6
Continuous
 62
     7
370
    18
100
AcDbLine
 10
243.947416402
 20
208.3331180407
 30
0.0
 11
244.2826918897
 21
208.5266684599
 31
0.0
  0
ARC
  5
1F4
330
1F
100
AcDbEntity
  8
0
  6
Continuous
 62
     7
370
    18
100
AcDbCircle
 10
232.1809694866
 20
181.5669046532
 30
0.0
 40
30.02406058024177
100
AcDbArc
 50
65.176913813
 51
65.7148480727
  0
SPLINE
  5
1F5
330
1F
100
AcDbEntity
  8
0
  6
Continuous
 62
     7
370
    18
100
AcDbSpline
210
0.0
220
0.0
230
1.0
 70
     8
 71
     3
 72
     9
 73
     5
 74
     0
 42
0.000000001
 43
0.00000001
 40
0.0
 40
0.0
 40
0.0
 40
0.0
 40
0.5764895540565153
 40
1.0
 40
1.0
 40
1.0
 40
1.0
 10
244.5292097779773
 20
208.9341327815822
 30
0.0
 10
244.5113358092096
 20
208.9421778904476
 30
0.0
 10
244.4803309650768
 20
208.9561332324114
 30
0.0
 10
244.4459118557191
 20
208.9677815872472
 30
0.0
 10
244.4313350033661
 20
208.9727147871982
 30
0.0
  0
SPLINE
  5
1F6
330
1F
100
AcDbEntity
  8
0
  6
Continuous
 62
     7
370
    18
100
AcDbSpline
210
0.0
220
0.0
230
1.0
 70
     8
 71
     3
 72
    12
 73
     8
 74
     0
 42
0.000000001
 43
0.00000001
 40
0.0
 40
0.0
 40
0.0
 40
0.0
 40
0.2503915420731977
 40
0.4993484341384819
 40
0.7490914416252411
 40
0.8745217508063059
 40
1.0
 40
1.0
 40
1.0
 40
1.0
 10
244.4313350033661
 20
208.9727147871982
 30
0.0
 10
244.4049865682362
 20
208.979254596767
 30
0.0
 10
244.3524406646678
 20
208.9922967452387
 30
0.0
 10
244.2575093775832
 20
208.9903558703918
 30
0.0
 10
244.1831807544264
 20
208.9726839961704
 30
0.0
 10
244.1310127111147
 20
208.9522255528757
 30
0.0
 10
244.1083828446291
 20
208.9399644054496
 30
0.0
 10
244.097065749491
 20
208.9338326603944
 30
0.0
  0
SPLINE
  5
1F7
330
1F
100
AcDbEntity
  8
0
  6
Continuous
 62
     7
370
    18
100
AcDbSpline
210
0.0
220
0.0
230
1.0
 70
     8
 71
     3
 72
    12
 73
     8
 74
     0
 42
0.000000001
 43
0.00000001
 40
0.0
 40
0.0
 40
0.0
 40
0.0
 40
0.1432452385386447
 40
0.2863538063593086
 40
0.4993388583993721
 40
0.7489254374213068
 40
1.0
 40
1.0
 40
1.0
 40
1.0
 10
244.097065749491
 20
208.9338326603944
 30
0.0
 10
244.0803629028767
 20
208.9231607456238
 30
0.0
 10
244.0469731458851
 20
208.901827098189
 30
0.0
 10
244.0124021720946
 20
208.858027994932
 30
0.0
 10
244.0118170901534
 20
208.801751791623
 30
0.0
 10
244.0799154516035
 20
208.7509784279613
 30
0.0
 10
244.1396470138555
 20
208.7226550513523
 30
0.0
 10
244.1696015571951
 20
208.7084512739828
 30
0.0
  0
ARC
  5
1F8
330
1F
100
AcDbEntity
  8
0
  6
Continuous
 62
     7
370
    18
100
AcDbCircle
 10
231.7969483398
 20
181.3342630702
 30
0.0
 40
30.04045151876674
100
AcDbArc
 50
65.1770083463
 51
65.6778655802
  0
LINE
  5
1F9
330
1F
100
AcDbEntity
  8
0
  6
Continuous
 62
     7
370
    18
100
AcDbLine
 10
244.4084201976
 20
208.5992498671
 30
0.0
 11
244.7856051212
 21
208.8169940887
 31
0.0
  0
INSERT
  5
1FF
330
1F
100
AcDbEntity
  8
0
  6
Continuous
 62
     7
370
     0
100
AcDbBlockReference
  2
SW_NOTE_5
 10
236.6358743144
 20
125.8631367623
 30
0.0
  0
LINE
  5
200
330
1F
100
AcDbEntity
  8
0
  6
Continuous
 62
     7
370
    18
100
AcDbLine
 10
170.7760509468
 20
99.8375636696
 30
0.0
 11
173.2760509468
 21
99.8375636696
 31
0.0
  0
LINE
  5
201
330
1F
100
AcDbEntity
  8
0
  6
Continuous
 62
     7
370
    18
100
AcDbLine
 10
170.7760509468
 20
99.8375636696
 30
0.0
 11
170.30294383
 21
99.9428418594
 31
0.0
  0
ARC
  5
202
330
1F
100
AcDbEntity
  8
0
  6
Continuous
 62
     7
370
    18
100
AcDbCircle
 10
188.0860508738
 20
137.3400236232
 30
0.0
 40
41.41
100
AcDbArc
 50
180.0034036454
 51
244.5679787546
  0
ARC
  5
203
330
1F
100
AcDbEntity
  8
0
  6
Continuous
 62
     7
370
    18
100
AcDbCircle
 10
188.0860508738
 20
137.3351037161
 30
0.0
 40
41.41
100
AcDbArc
 50
115.4320212454
 51
179.9965963546
  0
LINE
  5
204
330
1F
100
AcDbEntity
  8
0
  6
Continuous
 62
     7
370
    18
100
AcDbLine
 10
170.30294383
 20
174.7322854798
 30
0.0
 11
170.7760509468
 21
174.8375636696
 31
0.0
  0
LINE
  5
205
330
1F
100
AcDbEntity
  8
0
  6
Continuous
 62
     7
370
    18
100
AcDbLine
 10
171.4748342619
 20
174.8375636696
 30
0.0
 11
170.7760509468
 21
174.8375636696
 31
0.0
  0
LINE
  5
206
330
1F
100
AcDbEntity
  8
0
  6
Continuous
 62
     7
370
    18
100
AcDbLine
 10
171.8638858502
 20
174.8375636696
 30
0.0
 11
171.4748342619
 21
174.8375636696
 31
0.0
  0
LINE
  5
207
330
1F
100
AcDbEntity
  8
0
  6
Continuous
 62
     7
370
    18
100
AcDbLine
 10
172.0517496768
 20
174.8375636696
 30
0.0
 11
171.8638858502
 21
174.8375636696
 31
0.0
  0
LINE
  5
208
330
1F
100
AcDbEntity
  8
0
  6
Continuous
 62
     7
370
    18
100
AcDbLine
 10
172.699580105
 20
174.8375636696
 30
0.0
 11
172.0517496768
 21
174.8375636696
 31
0.0
  0
LINE
  5
209
330
1F
100
AcDbEntity
  8
0
  6
Continuous
 62
     7
370
    18
100
AcDbLine
 10
173.2760509468
 20
174.8375636696
 30
0.0
 11
172.699580105
 21
174.8375636696
 31
0.0
  0
LINE
  5
20A
330
1F
100
AcDbEntity
  8
0
  6
Continuous
 62
     7
370
    18
100
AcDbLine
 10
173.2760509468
 20
174.8375636696
 30
0.0
 11
173.5260509468
 21
174.5875636696
 31
0.0
  0
LINE
  5
20B
330
1F
100
AcDbEntity
  8
0
  6
Continuous
 62
     7
370
    18
100
AcDbLine
 10
173.5260509468
 20
100.0875636696
 30
0.0
 11
173.5260509468
 21
174.5875636696
 31
0.0
  0
LINE
  5
20C
330
1F
100
AcDbEntity
  8
0
  6
Continuous
 62
     7
370
    18
100
AcDbLine
 10
173.5260509468
 20
100.0875636696
 30
0.0
 11
173.2760509468
 21
99.8375636696
 31
0.0
  0
HATCH
  5
20D
330
1F
100
AcDbEntity
  8
0
  6
Continuous
 62
     7
370
    18
100
AcDbHatch
 10
0.0
 20
0.0
 30
0.0
210
0.0
220
0.0
230
1.0
  2
ANSI31
 70
     0
 71
     0
 91
        1
 92
        0
 93
       13
 72
     1
 10
173.27605094684
 20
99.83756366962143
 11
173.52605094684
 21
100.0875636696215
 72
     1
 10
173.52605094684
 20
100.0875636696215
 11
173.52605094684
 21
174.5875636696214
 72
     1
 10
173.52605094684
 20
174.5875636696214
 11
173.27605094684
 21
174.8375636696214
 72
     1
 10
173.27605094684
 20
174.8375636696214
 11
172.6995801050377
 21
174.8375636696214
 72
     1
 10
172.6995801050377
 20
174.8375636696214
 11
172.0517496768079
 21
174.8375636696214
 72
     1
 10
172.0517496768079
 20
174.8375636696214
 11
171.8638858502052
 21
174.8375636696214
 72
     1
 10
171.8638858502052
 20
174.8375636696214
 11
171.4748342619307
 21
174.8375636696214
 72
     1
 10
171.4748342619307
 20
174.8375636696214
 11
170.77605094684
 21
174.8375636696214
 72
     1
 10
170.77605094684
 20
174.8375636696214
 11
170.3029438299578
 21
174.7322854798049
 72
     2
 10
188.0860508737734
 20
137.3351037160918
 40
41.41
 50
115.4320212454375
 51
179.9965963546213
 73
     1
 72
     2
 10
188.0860508737734
 20
137.3400236231511
 40
41.41
 50
180.0034036453795
 51
244.5679787545633
 73
     1
 72
     1
 10
170.3029438299578
 20
99.94284185943802
 11
170.77605094684
 21
99.83756366962143
 72
     1
 10
170.77605094684
 20
99.83756366962143
 11
173.27605094684
 21
99.83756366962143
 97
        0
 75
     0
 76
     1
 52
0.0
 41
1.0
 77
     0
 78
     1
 53
45.0
 43
0.0
 44
0.0
 45
-2.245064030267288
 46
2.245064030267288
 79
     0
 98
        1
 10
0.0
 20
0.0
  0
DIMENSION
  5
20E
330
1F
100
AcDbEntity
  8
0
  6
Continuous
 62
     7
370
    18
100
AcDbDimension
  2
_D_1
 10
188.0860508738
 20
137.3351037161
 30
0.0
 11
124.6840480918
 21
159.2315714395
 31
0.0
 70
   164
  1
<>
 71
     1
 42
-1.0
  3
SLDDIMSTYLE1
100
AcDbRadialDimension
 15
149.7767762604
 25
153.0573038991
 35
0.0
 40
0.0
  0
DIMENSION
  5
21E
330
1F
100
AcDbEntity
  8
0
  6
Continuous
 62
     7
370
    18
100
AcDbDimension
  2
_D_2
 10
173.5260509468
 20
89.8375636696
 30
0.0
 11
160.1010509468
 21
89.8375636696
 31
0.0
 70
   160
  1
<>
 71
     2
 42
-1.0
  3
SLDDIMSTYLE2
100
AcDbAlignedDimension
 13
146.6760509468
 23
137.3375636696
 33
0.0
 14
173.5260509468
 24
100.0875636696
 34
0.0
100
AcDbRotatedDimension
  0
DIMENSION
  5
233
330
1F
100
AcDbEntity
  8
0
  6
Continuous
 62
     7
370
    18
100
AcDbDimension
  2
_D_3
 10
173.2760509468
 20
181.3784333007
 30
0.0
 11
191.9067474947
 21
181.3784333007
 31
0.0
 70
   160
  1
<>\PREF
 71
     2
 42
-1.0
  3
SLDDIMSTYLE3
100
AcDbAlignedDimension
 13
170.30294383
 23
174.7322854798
 33
0.0
 14
173.2760509468
 24
174.8375636696
 34
0.0
100
AcDbRotatedDimension
  0
MTEXT
  5
247
330
1F
100
AcDbEntity
  8
0
  6
Continuous
 62
     7
370
     0
100
AcDbMText
 10
159.4188434899
 20
82.2016094791
 30
0.0
 40
2.1166666667
 41
0.0
 71
     2
 72
     1
  1
SECTION A-A
  7
SLDTEXTSTYLE0
 73
     1
 44
1.0
  0
ENDSEC
  0
SECTION
  2
OBJECTS
  0
DICTIONARY
  5
C
330
0
100
AcDbDictionary
281
     1
  3
ACAD_GROUP
350
D
  3
ACAD_LAYOUT
350
1A
  3
ACAD_MLINESTYLE
350
17
  3
ACAD_PLOTSETTINGS
350
19
  3
ACAD_PLOTSTYLENAME
350
E
  3
ACAD_SCALELIST
350
47
  0
DICTIONARY
  5
D
102
{ACAD_REACTORS
330
C
102
}
330
C
100
AcDbDictionary
281
     1
  0
DICTIONARY
  5
1A
102
{ACAD_REACTORS
330
C
102
}
330
C
100
AcDbDictionary
281
     1
  3
Layout1
350
1E
  3
Layout2
350
26
  3
Model
350
22
  0
DICTIONARY
  5
17
102
{ACAD_REACTORS
330
C
102
}
330
C
100
AcDbDictionary
281
     1
  3
Standard
350
18
  0
DICTIONARY
  5
19
102
{ACAD_REACTORS
330
C
102
}
330
C
100
AcDbDictionary
281
     1
  0
ACDBDICTIONARYWDFLT
  5
E
102
{ACAD_REACTORS
330
C
102
}
330
C
100
AcDbDictionary
281
     1
  3
Normal
350
F
100
AcDbDictionaryWithDefault
340
F
  0
DICTIONARY
  5
47
102
{ACAD_REACTORS
330
C
102
}
330
C
100
AcDbDictionary
281
     1
  3
A0
350
48
  3
A1
350
49
  3
A2
350
4A
  3
A3
350
4B
  3
A4
350
4C
  3
A5
350
4D
  3
A6
350
4E
  3
A7
350
4F
  3
A8
350
50
  3
A9
350
51
  3
B0
350
52
  3
B1
350
53
  3
B2
350
54
  3
B3
350
55
  3
B4
350
56
  3
B5
350
57
  3
B6
350
58
  3
B7
350
59
  3
B8
350
5A
  3
B9
350
5B
  3
C0
350
5C
  3
C1
350
5D
  3
C2
350
5E
  3
C3
350
5F
  3
C4
350
60
  3
C5
350
61
  3
C6
350
62
  3
C7
350
63
  3
C8
350
64
  3
C9
350
65
  3
D0
350
66
  3
D1
350
67
  3
D2
350
68
  0
LAYOUT
  5
1E
102
{ACAD_REACTORS
330
1A
102
}
330
1A
100
AcDbPlotSettings
  1

  2
none_device
  4

  6

 40
0.0
 41
0.0
 42
0.0
 43
0.0
 44
0.0
 45
0.0
 46
0.0
 47
0.0
 48
0.0
 49
0.0
140
0.0
141
0.0
142
1.0
143
1.0
 70
   688
 72
     1
 73
     0
 74
     5
  7

 75
    16
147
1.0
148
0.0
149
0.0
100
AcDbLayout
  1
Layout1
 70
     1
 71
     1
 10
0.0
 20
0.0
 11
420.0
 21
297.0
 12
0.0
 22
0.0
 32
0.0
 14
1.0000000000E+20
 24
1.0000000000E+20
 34
1.0000000000E+20
 15
-1.0000000000E+20
 25
-1.0000000000E+20
 35
-1.0000000000E+20
146
0.0
 13
0.0
 23
0.0
 33
0.0
 16
1.0
 26
0.0
 36
0.0
 17
0.0
 27
1.0
 37
0.0
 76
     0
330
1B
  0
LAYOUT
  5
26
102
{ACAD_REACTORS
330
1A
102
}
330
1A
100
AcDbPlotSettings
  1

  2
none_device
  4

  6

 40
0.0
 41
0.0
 42
0.0
 43
0.0
 44
0.0
 45
0.0
 46
0.0
 47
0.0
 48
0.0
 49
0.0
140
0.0
141
0.0
142
1.0
143
1.0
 70
   688
 72
     1
 73
     0
 74
     5
  7

 75
    16
147
1.0
148
0.0
149
0.0
100
AcDbLayout
  1
Layout2
 70
     1
 71
     2
 10
0.0
 20
0.0
 11
0.0
 21
0.0
 12
0.0
 22
0.0
 32
0.0
 14
0.0
 24
0.0
 34
0.0
 15
0.0
 25
0.0
 35
0.0
146
0.0
 13
0.0
 23
0.0
 33
0.0
 16
1.0
 26
0.0
 36
0.0
 17
0.0
 27
1.0
 37
0.0
 76
     0
330
23
  0
LAYOUT
  5
22
102
{ACAD_REACTORS
330
1A
102
}
330
1A
100
AcDbPlotSettings
  1

  2
none_device
  4
Letter_(8.50_x_11.00_Inches)
  6

 40
6.35
 41
6.35
 42
6.35000508
 43
6.35000508
 44
215.9
 45
279.4
 46
0.0
 47
0.0
 48
0.0
 49
0.0
140
0.0
141
0.0
142
1.0
143
1.0
 70
  1712
 72
     1
 73
     0
 74
     0
  7

 75
     0
147
1.0
148
0.0
149
0.0
100
AcDbLayout
  1
Model
 70
     1
 71
     0
 10
0.0
 20
0.0
 11
279.4
 21
215.9
 12
0.0
 22
0.0
 32
0.0
 14
0.0
 24
0.0
 34
0.0
 15
279.4
 25
215.9
 35
0.0
146
0.0
 13
0.0
 23
0.0
 33
0.0
 16
1.0
 26
0.0
 36
0.0
 17
0.0
 27
1.0
 37
0.0
 76
     0
330
1F
331
29
  0
MLINESTYLE
  5
18
102
{ACAD_REACTORS
330
17
102
}
330
17
100
AcDbMlineStyle
  2
Standard
 70
     0
  3

 62
   256
 51
90.0
 52
90.0
 71
     2
 49
0.5
 62
   256
  6
BYLAYER
 49
-0.5
 62
   256
  6
BYLAYER
  0
ACDBPLACEHOLDER
  5
F
102
{ACAD_REACTORS
330
E
102
}
330
E
  0
SCALE
  5
48
102
{ACAD_REACTORS
330
47
102
}
330
47
100
AcDbScale
 70
     0
300
1:1
140
1.0
141
1.0
290
     1
  0
SCALE
  5
49
102
{ACAD_REACTORS
330
47
102
}
330
47
100
AcDbScale
 70
     0
300
1:2
140
1.0
141
2.0
290
     0
  0
SCALE
  5
4A
102
{ACAD_REACTORS
330
47
102
}
330
47
100
AcDbScale
 70
     0
300
1:4
140
1.0
141
4.0
290
     0
  0
SCALE
  5
4B
102
{ACAD_REACTORS
330
47
102
}
330
47
100
AcDbScale
 70
     0
300
1:5
140
1.0
141
5.0
290
     0
  0
SCALE
  5
4C
102
{ACAD_REACTORS
330
47
102
}
330
47
100
AcDbScale
 70
     0
300
1:8
140
1.0
141
8.0
290
     0
  0
SCALE
  5
4D
102
{ACAD_REACTORS
330
47
102
}
330
47
100
AcDbScale
 70
     0
300
1:10
140
1.0
141
10.0
290
     0
  0
SCALE
  5
4E
102
{ACAD_REACTORS
330
47
102
}
330
47
100
AcDbScale
 70
     0
300
1:16
140
1.0
141
16.0
290
     0
  0
SCALE
  5
4F
102
{ACAD_REACTORS
330
47
102
}
330
47
100
AcDbScale
 70
     0
300
1:20
140
1.0
141
20.0
290
     0
  0
SCALE
  5
50
102
{ACAD_REACTORS
330
47
102
}
330
47
100
AcDbScale
 70
     0
300
1:30
140
1.0
141
30.0
290
     0
  0
SCALE
  5
51
102
{ACAD_REACTORS
330
47
102
}
330
47
100
AcDbScale
 70
     0
300
1:40
140
1.0
141
40.0
290
     0
  0
SCALE
  5
52
102
{ACAD_REACTORS
330
47
102
}
330
47
100
AcDbScale
 70
     0
300
1:50
140
1.0
141
50.0
290
     0
  0
SCALE
  5
53
102
{ACAD_REACTORS
330
47
102
}
330
47
100
AcDbScale
 70
     0
300
1:100
140
1.0
141
100.0
290
     0
  0
SCALE
  5
54
102
{ACAD_REACTORS
330
47
102
}
330
47
100
AcDbScale
 70
     0
300
2:1
140
2.0
141
1.0
290
     0
  0
SCALE
  5
55
102
{ACAD_REACTORS
330
47
102
}
330
47
100
AcDbScale
 70
     0
300
4:1
140
4.0
141
1.0
290
     0
  0
SCALE
  5
56
102
{ACAD_REACTORS
330
47
102
}
330
47
100
AcDbScale
 70
     0
300
8:1
140
8.0
141
1.0
290
     0
  0
SCALE
  5
57
102
{ACAD_REACTORS
330
47
102
}
330
47
100
AcDbScale
 70
     0
300
10:1
140
10.0
141
1.0
290
     0
  0
SCALE
  5
58
102
{ACAD_REACTORS
330
47
102
}
330
47
100
AcDbScale
 70
     0
300
100:1
140
100.0
141
1.0
290
     0
  0
SCALE
  5
59
102
{ACAD_REACTORS
330
47
102
}
330
47
100
AcDbScale
 70
     0
300
1/128" = 1'-0"
140
0.0078125
141
12.0
290
     0
  0
SCALE
  5
5A
102
{ACAD_REACTORS
330
47
102
}
330
47
100
AcDbScale
 70
     0
300
1/64" = 1'-0"
140
0.015625
141
12.0
290
     0
  0
SCALE
  5
5B
102
{ACAD_REACTORS
330
47
102
}
330
47
100
AcDbScale
 70
     0
300
1/32" = 1'-0"
140
0.03125
141
12.0
290
     0
  0
SCALE
  5
5C
102
{ACAD_REACTORS
330
47
102
}
330
47
100
AcDbScale
 70
     0
300
1/16" = 1'-0"
140
0.0625
141
12.0
290
     0
  0
SCALE
  5
5D
102
{ACAD_REACTORS
330
47
102
}
330
47
100
AcDbScale
 70
     0
300
3/32" = 1'-0"
140
0.09375
141
12.0
290
     0
  0
SCALE
  5
5E
102
{ACAD_REACTORS
330
47
102
}
330
47
100
AcDbScale
 70
     0
300
1/8" = 1'-0"
140
0.125
141
12.0
290
     0
  0
SCALE
  5
5F
102
{ACAD_REACTORS
330
47
102
}
330
47
100
AcDbScale
 70
     0
300
3/16" = 1'-0"
140
0.1875
141
12.0
290
     0
  0
SCALE
  5
60
102
{ACAD_REACTORS
330
47
102
}
330
47
100
AcDbScale
 70
     0
300
1/4" = 1'-0"
140
0.25
141
12.0
290
     0
  0
SCALE
  5
61
102
{ACAD_REACTORS
330
47
102
}
330
47
100
AcDbScale
 70
     0
300
3/8" = 1'-0"
140
0.375
141
12.0
290
     0
  0
SCALE
  5
62
102
{ACAD_REACTORS
330
47
102
}
330
47
100
AcDbScale
 70
     0
300
1/2" = 1'-0"
140
0.5
141
12.0
290
     0
  0
SCALE
  5
63
102
{ACAD_REACTORS
330
47
102
}
330
47
100
AcDbScale
 70
     0
300
3/4" = 1'-0"
140
0.75
141
12.0
290
     0
  0
SCALE
  5
64
102
{ACAD_REACTORS
330
47
102
}
330
47
100
AcDbScale
 70
     0
300
1" = 1'-0"
140
1.0
141
12.0
290
     0
  0
SCALE
  5
65
102
{ACAD_REACTORS
330
47
102
}
330
47
100
AcDbScale
 70
     0
300
1-1/2" = 1'-0"
140
1.5
141
12.0
290
     0
  0
SCALE
  5
66
102
{ACAD_REACTORS
330
47
102
}
330
47
100
AcDbScale
 70
     0
300
3" = 1'-0"
140
3.0
141
12.0
290
     0
  0
SCALE
  5
67
102
{ACAD_REACTORS
330
47
102
}
330
47
100
AcDbScale
 70
     0
300
6" = 1'-0"
140
6.0
141
12.0
290
     0
  0
SCALE
  5
68
102
{ACAD_REACTORS
330
47
102
}
330
47
100
AcDbScale
 70
     0
300
1'-0" = 1'-0"
140
12.0
141
12.0
290
     0
  0
ENDSEC
  0
EOF
