  0
SECTION
  2
HEADER
  9
$ACADVER
  1
AC1015
  9
$ACADMAINTVER
 70
     6
  9
$DWGCODEPAGE
  3
ANSI_1252
  9
$INSBASE
 10
0.0
 20
0.0
 30
0.0
  9
$EXTMIN
 10
0.0
 20
0.0
 30
0.0
  9
$EXTMAX
 10
11.0
 20
8.5
 30
0.0
  9
$LIMMIN
 10
0.0
 20
0.0
  9
$LIMMAX
 10
11.0
 20
8.5
  9
$ORTHOMODE
 70
     0
  9
$REGENMODE
 70
     1
  9
$FILLMODE
 70
     1
  9
$QTEXTMODE
 70
     0
  9
$MIRRTEXT
 70
     1
  9
$LTSCALE
 40
1.0
  9
$ATTMODE
 70
     1
  9
$TEXTSIZE
 40
0.1111111111
  9
$TRACEWID
 40
0.05
  9
$TEXTSTYLE
  7
Standard
  9
$CLAYER
  8
0
  9
$CELTYPE
  6
ByLayer
  9
$CECOLOR
 62
   256
  9
$CELTSCALE
 40
1.0
  9
$DISPSILH
 70
     0
  9
$DIMSCALE
 40
1.0
  9
$DIMASZ
 40
0.125
  9
$DIMEXO
 40
0.05
  9
$DIMDLI
 40
0.38
  9
$DIMRND
 40
0.0
  9
$DIMDLE
 40
0.0
  9
$DIMEXE
 40
0.07
  9
$DIMTP
 40
0.0
  9
$DIMTM
 40
0.0
  9
$DIMTXT
 40
0.1111111111
  9
$DIMCEN
 40
0.09
  9
$DIMTSZ
 40
0.0
  9
$DIMTOL
 70
     0
  9
$DIMLIM
 70
     0
  9
$DIMTIH
 70
     1
  9
$DIMTOH
 70
     1
  9
$DIMSE1
 70
     0
  9
$DIMSE2
 70
     0
  9
$DIMTAD
 70
     0
  9
$DIMZIN
 70
     1
  9
$DIMBLK
  1

  9
$DIMASO
 70
     1
  9
$DIMSHO
 70
     1
  9
$DIMPOST
  1

  9
$DIMAPOST
  1

  9
$DIMALT
 70
     0
  9
$DIMALTD
 70
     2
  9
$DIMALTF
 40
25.4
  9
$DIMLFAC
 40
1.0
  9
$DIMTOFL
 70
     0
  9
$DIMTVP
 40
0.0
  9
$DIMTIX
 70
     0
  9
$DIMSOXD
 70
     0
  9
$DIMSAH
 70
     0
  9
$DIMBLK1
  1

  9
$DIMBLK2
  1

  9
$DIMSTYLE
  2
Standard
  9
$DIMCLRD
 70
     0
  9
$DIMCLRE
 70
     0
  9
$DIMCLRT
 70
     0
  9
$DIMTFAC
 40
1.0
  9
$DIMGAP
 40
0.1
  9
$DIMJUST
 70
     0
  9
$DIMSD1
 70
     0
  9
$DIMSD2
 70
     0
  9
$DIMTOLJ
 70
     1
  9
$DIMTZIN
 70
     1
  9
$DIMALTZ
 70
     0
  9
$DIMALTTZ
 70
     0
  9
$DIMUPT
 70
     0
  9
$DIMDEC
 70
     2
  9
$DIMTDEC
 70
     2
  9
$DIMALTU
 70
     2
  9
$DIMALTTD
 70
     2
  9
$DIMTXSTY
  7
Standard
  9
$DIMAUNIT
 70
     0
  9
$DIMADEC
 70
     0
  9
$DIMALTRND
 40
0.0
  9
$DIMAZIN
 70
     0
  9
$DIMDSEP
 70
    46
  9
$DIMATFIT
 70
     3
  9
$DIMFRAC
 70
     0
  9
$DIMLDRBLK
  1

  9
$DIMLUNIT
 70
     2
  9
$DIMLWD
 70
    -2
  9
$DIMLWE
 70
    -2
  9
$DIMTMOVE
 70
     0
  9
$LUNITS
 70
     2
  9
$LUPREC
 70
     2
  9
$SKETCHINC
 40
0.1
  9
$FILLETRAD
 40
0.5
  9
$AUNITS
 70
     0
  9
$AUPREC
 70
     0
  9
$MENU
  1
.
  9
$ELEVATION
 40
0.0
  9
$PELEVATION
 40
0.0
  9
$THICKNESS
 40
0.0
  9
$LIMCHECK
 70
     0
  9
$CHAMFERA
 40
0.0
  9
$CHAMFERB
 40
0.0
  9
$CHAMFERC
 40
0.0
  9
$CHAMFERD
 40
0.0
  9
$SKPOLY
 70
     0
  9
$TDCREATE
 40
2457374.444978577
  9
$TDUCREATE
 40
2457374.65331191
  9
$TDUPDATE
 40
2457374.444981458
  9
$TDUUPDATE
 40
2457374.653314792
  9
$TDINDWG
 40
0.0000000116
  9
$TDUSRTIMER
 40
0.0000000116
  9
$USRTIMER
 70
     1
  9
$ANGBASE
 50
0.0
  9
$ANGDIR
 70
     0
  9
$PDMODE
 70
     0
  9
$PDSIZE
 40
-1.0
  9
$PLINEWID
 40
0.0
  9
$SPLFRAME
 70
     0
  9
$SPLINETYPE
 70
     6
  9
$SPLINESEGS
 70
     8
  9
$HANDSEED
  5
215
  9
$SURFTAB1
 70
     6
  9
$SURFTAB2
 70
     6
  9
$SURFTYPE
 70
     6
  9
$SURFU
 70
     6
  9
$SURFV
 70
     6
  9
$UCSBASE
  2

  9
$UCSNAME
  2

  9
$UCSORG
 10
0.0
 20
0.0
 30
0.0
  9
$UCSXDIR
 10
1.0
 20
0.0
 30
0.0
  9
$UCSYDIR
 10
0.0
 20
1.0
 30
0.0
  9
$UCSORTHOREF
  2

  9
$UCSORTHOVIEW
 70
     0
  9
$UCSORGTOP
 10
0.0
 20
0.0
 30
0.0
  9
$UCSORGBOTTOM
 10
0.0
 20
0.0
 30
0.0
  9
$UCSORGLEFT
 10
0.0
 20
0.0
 30
0.0
  9
$UCSORGRIGHT
 10
0.0
 20
0.0
 30
0.0
  9
$UCSORGFRONT
 10
0.0
 20
0.0
 30
0.0
  9
$UCSORGBACK
 10
0.0
 20
0.0
 30
0.0
  9
$PUCSBASE
  2

  9
$PUCSNAME
  2

  9
$PUCSORG
 10
0.0
 20
0.0
 30
0.0
  9
$PUCSXDIR
 10
1.0
 20
0.0
 30
0.0
  9
$PUCSYDIR
 10
0.0
 20
1.0
 30
0.0
  9
$PUCSORTHOREF
  2

  9
$PUCSORTHOVIEW
 70
     0
  9
$PUCSORGTOP
 10
0.0
 20
0.0
 30
0.0
  9
$PUCSORGBOTTOM
 10
0.0
 20
0.0
 30
0.0
  9
$PUCSORGLEFT
 10
0.0
 20
0.0
 30
0.0
  9
$PUCSORGRIGHT
 10
0.0
 20
0.0
 30
0.0
  9
$PUCSORGFRONT
 10
0.0
 20
0.0
 30
0.0
  9
$PUCSORGBACK
 10
0.0
 20
0.0
 30
0.0
  9
$USERI1
 70
     0
  9
$USERI2
 70
     0
  9
$USERI3
 70
     0
  9
$USERI4
 70
     0
  9
$USERI5
 70
     0
  9
$USERR1
 40
0.0
  9
$USERR2
 40
0.0
  9
$USERR3
 40
0.0
  9
$USERR4
 40
0.0
  9
$USERR5
 40
0.0
  9
$WORLDVIEW
 70
     1
  9
$SHADEDGE
 70
     3
  9
$SHADEDIF
 70
    70
  9
$TILEMODE
 70
     1
  9
$MAXACTVP
 70
    64
  9
$PINSBASE
 10
0.0
 20
0.0
 30
0.0
  9
$PLIMCHECK
 70
     0
  9
$PEXTMIN
 10
1.0000000000E+20
 20
1.0000000000E+20
 30
1.0000000000E+20
  9
$PEXTMAX
 10
-1.0000000000E+20
 20
-1.0000000000E+20
 30
-1.0000000000E+20
  9
$PLIMMIN
 10
0.0
 20
0.0
  9
$PLIMMAX
 10
12.0
 20
9.0
  9
$UNITMODE
 70
     0
  9
$VISRETAIN
 70
     1
  9
$PLINEGEN
 70
     0
  9
$PSLTSCALE
 70
     1
  9
$TREEDEPTH
 70
  3020
  9
$CMLSTYLE
  2
Standard
  9
$CMLJUST
 70
     0
  9
$CMLSCALE
 40
1.0
  9
$PROXYGRAPHICS
 70
     1
  9
$MEASUREMENT
 70
     0
  9
$CELWEIGHT
370
    -1
  9
$ENDCAPS
280
     0
  9
$JOINSTYLE
280
     0
  9
$LWDISPLAY
290
     1
  9
$INSUNITS
 70
     1
  9
$HYPERLINKBASE
  1

  9
$STYLESHEET
  1

  9
$XEDIT
290
     1
  9
$CEPSNTYPE
380
     0
  9
$PSTYLEMODE
290
     1
  9
$FINGERPRINTGUID
  2
{3F256C3D-BEE2-453E-A975-31D4B6440F30}
  9
$VERSIONGUID
  2
{FAEB1C32-E019-11D5-929B-00C0DF256EC4}
  9
$EXTNAMES
290
     1
  9
$PSVPSCALE
 40
0.0
  9
$OLESTARTUP
290
     0
  0
ENDSEC
  0
SECTION
  2
CLASSES
  0
CLASS
  1
ACDBDICTIONARYWDFLT
  2
AcDbDictionaryWithDefault
  3
ObjectDBX Classes
 90
        0
280
     0
281
     0
  0
CLASS
  1
VISUALSTYLE
  2
AcDbVisualStyle
  3
ObjectDBX Classes
 90
     4095
280
     0
281
     0
  0
CLASS
  1
MATERIAL
  2
AcDbMaterial
  3
ObjectDBX Classes
 90
     1153
280
     0
281
     0
  0
CLASS
  1
SCALE
  2
AcDbScale
  3
ObjectDBX Classes
 90
     1153
280
     0
281
     0
  0
CLASS
  1
SUN
  2
AcDbSun
  3
SCENEOE
 90
     1153
280
     0
281
     0
  0
CLASS
  1
ACDBPLACEHOLDER
  2
AcDbPlaceHolder
  3
ObjectDBX Classes
 90
        0
280
     0
281
     0
  0
CLASS
  1
LAYOUT
  2
AcDbLayout
  3
ObjectDBX Classes
 90
        0
280
     0
281
     0
  0
ENDSEC
  0
SECTION
  2
TABLES
  0
TABLE
  2
VPORT
  5
8
330
0
100
AcDbSymbolTable
 70
     1
  0
VPORT
  5
29
330
8
100
AcDbSymbolTableRecord
100
AcDbViewportTableRecord
  2
*Active
 70
     0
 10
0.0
 20
0.0
 11
1.0
 21
1.0
 12
5.5
 22
4.25
 13
0.0
 23
0.0
 14
0.5
 24
0.5
 15
0.5
 25
0.5
 16
0.0
 26
0.0
 36
1.0
 17
0.0
 27
0.0
 37
0.0
 40
8.5
 41
1.2941176471
 42
50.0
 43
0.0
 44
0.0
 50
0.0
 51
0.0
 71
     0
 72
  2000
 73
     1
 74
     3
 75
     0
 76
     0
 77
     0
 78
     0
281
     0
 65
     1
110
0.0
120
0.0
130
0.0
111
1.0
121
0.0
131
0.0
112
0.0
122
1.0
132
0.0
 79
     0
146
0.0
  0
ENDTAB
  0
TABLE
  2
LTYPE
  5
5
330
0
100
AcDbSymbolTable
 70
     6
  0
LTYPE
  5
14
330
5
100
AcDbSymbolTableRecord
100
AcDbLinetypeTableRecord
  2
ByBlock
 70
     0
  3

 72
    65
 73
     0
 40
0.0
  0
LTYPE
  5
15
330
5
100
AcDbSymbolTableRecord
100
AcDbLinetypeTableRecord
  2
ByLayer
 70
     0
  3

 72
    65
 73
     0
 40
0.0
  0
LTYPE
  5
16
330
5
100
AcDbSymbolTableRecord
100
AcDbLinetypeTableRecord
  2
Continuous
 70
     0
  3
Solid line
 72
    65
 73
     0
 40
0.0
  0
LTYPE
  5
6A
330
5
100
AcDbSymbolTableRecord
100
AcDbLinetypeTableRecord
  2
HIDDEN
 70
     0
  3
Hidden __ __ __ __ __ __ __ __ __ __ __ __ __ __
 72
    65
 73
     2
 40
0.075
 49
0.05
 74
     0
 49
-0.025
 74
     0
  0
LTYPE
  5
6B
330
5
100
AcDbSymbolTableRecord
100
AcDbLinetypeTableRecord
  2
PHANTOM
 70
     0
  3
Phantom ______  __  __  ______  __  __  ______
 72
    65
 73
     6
 40
0.5
 49
0.25
 74
     0
 49
-0.05
 74
     0
 49
0.05
 74
     0
 49
-0.05
 74
     0
 49
0.05
 74
     0
 49
-0.05
 74
     0
  0
LTYPE
  5
6C
330
5
100
AcDbSymbolTableRecord
100
AcDbLinetypeTableRecord
  2
CENTER
 70
     0
  3
Center ____ _ ____ _ ____ _ ____ _ ____ _ ____
 72
    65
 73
     4
 40
0.4
 49
0.25
 74
     0
 49
-0.05
 74
     0
 49
0.05
 74
     0
 49
-0.05
 74
     0
  0
LTYPE
  5
6D
330
5
100
AcDbSymbolTableRecord
100
AcDbLinetypeTableRecord
  2
CENTERX2
 70
     0
  3
Center (2x) ________  __  ________  __  _____
 72
    65
 73
     4
 40
0.8
 49
0.5
 74
     0
 49
-0.1
 74
     0
 49
0.1
 74
     0
 49
-0.1
 74
     0
  0
LTYPE
  5
6E
330
5
100
AcDbSymbolTableRecord
100
AcDbLinetypeTableRecord
  2
DOT2
 70
     0
  3
Dot (.5x) ........................................
 72
    65
 73
     2
 40
0.025
 49
0.0
 74
     0
 49
-0.025
 74
     0
  0
ENDTAB
  0
TABLE
  2
LAYER
  5
2
330
0
100
AcDbSymbolTable
 70
     2
  0
LAYER
  5
10
330
2
100
AcDbSymbolTableRecord
100
AcDbLayerTableRecord
  2
0
 70
     0
 62
     7
  6
Continuous
370
    -3
390
F
  0
LAYER
  5
6F
330
2
100
AcDbSymbolTableRecord
100
AcDbLayerTableRecord
  2
FORMAT
 70
     0
 62
     7
  6
Continuous
370
    -3
390
F
  0
ENDTAB
  0
TABLE
  2
STYLE
  5
3
330
0
100
AcDbSymbolTable
 70
     5
  0
STYLE
  5
11
330
3
100
AcDbSymbolTableRecord
100
AcDbTextStyleTableRecord
  2
Standard
 70
     0
 40
0.0
 41
1.0
 50
0.0
 71
     0
 42
0.1111111111
  3
txt
  4

  0
STYLE
  5
96
330
3
100
AcDbSymbolTableRecord
100
AcDbTextStyleTableRecord
  2
SLDTEXTSTYLE0
 70
     0
 40
0.0
 41
0.75
 50
0.0
 71
     0
 42
0.1111111111
  3
TXT
  4

  0
STYLE
  5
A2
330
3
100
AcDbSymbolTableRecord
100
AcDbTextStyleTableRecord
  2
SLDTEXTSTYLE1
 70
     0
 40
0.0
 41
0.6
 50
0.0
 71
     0
 42
0.1111111111
  3
TXT
  4

  0
STYLE
  5
A7
330
3
100
AcDbSymbolTableRecord
100
AcDbTextStyleTableRecord
  2
SLDTEXTSTYLE2
 70
     0
 40
0.0
 41
0.6875
 50
0.0
 71
     0
 42
0.1111111111
  3
TXT
  4

  0
STYLE
  5
1FF
330
3
100
AcDbSymbolTableRecord
100
AcDbTextStyleTableRecord
  2
SLDTEXTSTYLE3
 70
     0
 40
0.0
 41
0.7
 50
0.0
 71
     0
 42
0.1111111111
  3
TXT
  4

  0
ENDTAB
  0
TABLE
  2
VIEW
  5
6
330
0
100
AcDbSymbolTable
 70
     0
  0
ENDTAB
  0
TABLE
  2
UCS
  5
7
330
0
100
AcDbSymbolTable
 70
     0
  0
ENDTAB
  0
TABLE
  2
APPID
  5
9
330
0
100
AcDbSymbolTable
 70
     1
  0
APPID
  5
12
330
9
100
AcDbSymbolTableRecord
100
AcDbRegAppTableRecord
  2
ACAD
 70
     0
  0
ENDTAB
  0
TABLE
  2
DIMSTYLE
  5
A
330
0
100
AcDbSymbolTable
 70
     5
100
AcDbDimStyleTable
  0
DIMSTYLE
105
27
330
A
100
AcDbSymbolTableRecord
100
AcDbDimStyleTableRecord
  2
Standard
 70
     0
178
     0
340
11
  0
DIMSTYLE
105
11A
102
{ACAD_REACTORS
330
119
102
}
330
A
100
AcDbSymbolTableRecord
100
AcDbDimStyleTableRecord
  2
SLDDIMSTYLE0
 70
     0
 41
0.125
 44
0.0
 45
0.000000001
 78
     4
 79
     1
140
0.0833333333
141
0.0
147
0.0208333333
148
0.000000001
170
     1
171
     1
173
     1
178
     0
271
     2
272
     2
274
     1
276
     2
284
    12
340
96
  0
DIMSTYLE
105
1B1
102
{ACAD_REACTORS
330
1B0
102
}
330
A
100
AcDbSymbolTableRecord
100
AcDbDimStyleTableRecord
  2
SLDDIMSTYLE1
 70
     0
 41
0.125
 44
0.0
 45
0.000000001
 78
     4
 79
     1
140
0.0833333333
147
0.0208333333
148
0.000000001
170
     1
171
     1
173
     1
178
     0
271
     2
272
     2
274
     1
276
     2
284
    12
340
96
  0
DIMSTYLE
105
1C5
102
{ACAD_REACTORS
330
1C4
330
1D9
102
}
330
A
100
AcDbSymbolTableRecord
100
AcDbDimStyleTableRecord
  2
SLDDIMSTYLE2
 70
     0
 41
0.125
 44
0.0
 45
0.000000001
 78
     8
 79
     2
140
0.0833333333
147
0.0208333333
148
0.000000001
170
     1
171
     1
172
     1
173
     1
178
     0
271
     2
272
     2
274
     1
276
     2
284
    12
289
     0
340
96
  0
DIMSTYLE
105
1F3
330
A
100
AcDbSymbolTableRecord
100
AcDbDimStyleTableRecord
  2
SLDDIMSTYLE3
 70
     0
 41
0.125
 44
0.0
 45
0.000000001
146
0.125
147
0.0
173
     1
178
     0
271
     0
272
     0
276
     2
340
11
  0
ENDTAB
  0
TABLE
  2
BLOCK_RECORD
  5
1
330
0
100
AcDbSymbolTable
 70
    20
  0
BLOCK_RECORD
  5
1F
330
1
100
AcDbSymbolTableRecord
100
AcDbBlockTableRecord
  2
*Model_Space
340
22
  0
BLOCK_RECORD
  5
1B
330
1
100
AcDbSymbolTableRecord
100
AcDbBlockTableRecord
  2
*Paper_Space
340
1E
  0
BLOCK_RECORD
  5
23
330
1
100
AcDbSymbolTableRecord
100
AcDbBlockTableRecord
  2
*Paper_Space0
340
26
  0
BLOCK_RECORD
  5
70
330
1
100
AcDbSymbolTableRecord
100
AcDbBlockTableRecord
  2
Third Angle Projection Block
340
0
102
{BLKREFS
331
95
102
}
  0
BLOCK_RECORD
  5
A9
330
1
100
AcDbSymbolTableRecord
100
AcDbBlockTableRecord
  2
SW_NOTE_0
340
0
102
{BLKREFS
331
AE
102
}
  0
BLOCK_RECORD
  5
AF
330
1
100
AcDbSymbolTableRecord
100
AcDbBlockTableRecord
  2
SW_NOTE_1
340
0
102
{BLKREFS
331
B4
102
}
  0
BLOCK_RECORD
  5
B6
330
1
100
AcDbSymbolTableRecord
100
AcDbBlockTableRecord
  2
SW_NOTE_2
340
0
102
{BLKREFS
331
BC
102
}
  0
BLOCK_RECORD
  5
BE
330
1
100
AcDbSymbolTableRecord
100
AcDbBlockTableRecord
  2
SW_NOTE_3
340
0
102
{BLKREFS
331
C3
102
}
  0
BLOCK_RECORD
  5
C4
330
1
100
AcDbSymbolTableRecord
100
AcDbBlockTableRecord
  2
SW_NOTE_4
340
0
102
{BLKREFS
331
D6
102
}
  0
BLOCK_RECORD
  5
D7
330
1
100
AcDbSymbolTableRecord
100
AcDbBlockTableRecord
  2
SW_TABLEANNOTATION_0
340
0
102
{BLKREFS
331
100
102
}
  0
BLOCK_RECORD
  5
E5
330
1
100
AcDbSymbolTableRecord
100
AcDbBlockTableRecord
  2
SW_SYMBOL_C#_1
340
0
102
{BLKREFS
331
EA
102
}
  0
BLOCK_RECORD
  5
EE
330
1
100
AcDbSymbolTableRecord
100
AcDbBlockTableRecord
  2
SW_SYMBOL_C#_2
340
0
102
{BLKREFS
331
F3
102
}
  0
BLOCK_RECORD
  5
F6
330
1
100
AcDbSymbolTableRecord
100
AcDbBlockTableRecord
  2
SW_SYMBOL_C#_3
340
0
102
{BLKREFS
331
FB
102
}
  0
BLOCK_RECORD
  5
11B
330
1
100
AcDbSymbolTableRecord
100
AcDbBlockTableRecord
  2
_D
340
0
  0
BLOCK_RECORD
  5
1B2
330
1
100
AcDbSymbolTableRecord
100
AcDbBlockTableRecord
  2
_D_1
340
0
  0
BLOCK_RECORD
  5
1C6
330
1
100
AcDbSymbolTableRecord
100
AcDbBlockTableRecord
  2
_D_2
340
0
  0
BLOCK_RECORD
  5
1DA
330
1
100
AcDbSymbolTableRecord
100
AcDbBlockTableRecord
  2
_D_3
340
0
  0
BLOCK_RECORD
  5
1ED
330
1
100
AcDbSymbolTableRecord
100
AcDbBlockTableRecord
  2
SW_NOTE_5
340
0
102
{BLKREFS
331
1F2
102
}
  0
BLOCK_RECORD
  5
1F5
330
1
100
AcDbSymbolTableRecord
100
AcDbBlockTableRecord
  2
SW_NOTE_6
340
0
102
{BLKREFS
331
1FA
102
}
  0
BLOCK_RECORD
  5
1FC
330
1
100
AcDbSymbolTableRecord
100
AcDbBlockTableRecord
  2
SW_NOTE_7
340
0
102
{BLKREFS
331
203
102
}
  0
BLOCK_RECORD
  5
205
330
1
100
AcDbSymbolTableRecord
100
AcDbBlockTableRecord
  2
SW_NOTE_8
340
0
102
{BLKREFS
331
20A
102
}
  0
BLOCK_RECORD
  5
20C
330
1
100
AcDbSymbolTableRecord
100
AcDbBlockTableRecord
  2
SW_NOTE_9
340
0
102
{BLKREFS
331
212
102
}
  0
ENDTAB
  0
ENDSEC
  0
SECTION
  2
BLOCKS
  0
BLOCK
  5
20
330
1F
100
AcDbEntity
  8
0
100
AcDbBlockBegin
  2
*Model_Space
 70
     0
 10
0.0
 20
0.0
 30
0.0
  3
*Model_Space
  1
*Model_Space
  0
ENDBLK
  5
21
330
1F
100
AcDbEntity
  8
0
100
AcDbBlockEnd
  0
BLOCK
  5
1C
330
1B
100
AcDbEntity
 67
     1
  8
0
100
AcDbBlockBegin
  2
*Paper_Space
 70
     0
 10
0.0
 20
0.0
 30
0.0
  3
*Paper_Space
  1
*Paper_Space
  0
ENDBLK
  5
1D
330
1B
100
AcDbEntity
 67
     1
  8
0
100
AcDbBlockEnd
  0
BLOCK
  5
24
330
23
100
AcDbEntity
  8
0
100
AcDbBlockBegin
  2
*Paper_Space0
 70
     0
 10
0.0
 20
0.0
 30
0.0
  3
*Paper_Space0
  1
*Paper_Space0
  0
ENDBLK
  5
25
330
23
100
AcDbEntity
  8
0
100
AcDbBlockEnd
  0
BLOCK
  5
71
330
70
100
AcDbEntity
  8
0
100
AcDbBlockBegin
  2
Third Angle Projection Block
 70
     0
 10
0.0
 20
0.0
 30
0.0
  3
Third Angle Projection Block
  1
Third Angle Projection Block
  0
CIRCLE
  5
73
330
70
100
AcDbEntity
  8
0
  6
Continuous
 62
     7
370
    30
100
AcDbCircle
 10
3.9951432636
 20
0.7456853688
 30
0.0
 40
0.0696152422706639
  0
CIRCLE
  5
74
330
70
100
AcDbEntity
  8
0
  6
Continuous
 62
     7
370
    30
100
AcDbCircle
 10
3.9951432636
 20
0.7456853688
 30
0.0
 40
0.1535916633280245
  0
LINE
  5
75
330
70
100
AcDbEntity
  8
0
  6
CENTERX2
 62
     7
370
     0
100
AcDbLine
 10
4.3360937897
 20
0.7456853688
 30
0.0
 11
4.7028635231
 21
0.7456853688
 31
0.0
  0
LINE
  5
76
330
70
100
AcDbEntity
  8
0
  6
Continuous
 62
     7
370
    30
100
AcDbLine
 10
4.3701432636
 20
0.815300611
 30
0.0
 11
4.3701432636
 21
0.6760701265
 31
0.0
  0
LINE
  5
77
330
70
100
AcDbEntity
  8
0
  6
Continuous
 62
     7
370
    30
100
AcDbLine
 10
4.3701432636
 20
0.6760701265
 30
0.0
 11
4.6701432636
 21
0.5956853688
 31
0.0
  0
LINE
  5
78
330
70
100
AcDbEntity
  8
0
  6
Continuous
 62
     7
370
    30
100
AcDbLine
 10
4.6701432636
 20
0.5956853688
 30
0.0
 11
4.6701432636
 21
0.8956853688
 31
0.0
  0
LINE
  5
79
330
70
100
AcDbEntity
  8
0
  6
Continuous
 62
     7
370
    30
100
AcDbLine
 10
4.6701432636
 20
0.8956853688
 30
0.0
 11
4.3701432636
 21
0.815300611
 31
0.0
  0
LINE
  5
7A
330
70
100
AcDbEntity
  8
0
  6
CENTERX2
 62
     7
370
     0
100
AcDbLine
 10
3.8032513961
 20
0.7456853688
 30
0.0
 11
4.187035131
 21
0.7456853688
 31
0.0
  0
LINE
  5
7B
330
70
100
AcDbEntity
  8
0
  6
CENTERX2
 62
     7
370
     0
100
AcDbLine
 10
3.9951432636
 20
0.9375772362
 30
0.0
 11
3.9951432636
 21
0.5537935013
 31
0.0
  0
POINT
  5
7C
330
70
100
AcDbEntity
  8
0
  6
Continuous
 62
     7
370
     0
100
AcDbPoint
 10
3.9951432636
 20
0.7456853688
 30
0.0
  0
ENDBLK
  5
72
330
70
100
AcDbEntity
  8
0
100
AcDbBlockEnd
  0
BLOCK
  5
AA
330
A9
100
AcDbEntity
  8
0
100
AcDbBlockBegin
  2
SW_NOTE_0
 70
     0
 10
0.0
 20
0.0
 30
0.0
  3
SW_NOTE_0
  1
SW_NOTE_0
  0
MTEXT
  5
AC
330
A9
100
AcDbEntity
  8
0
  6
Continuous
 62
     0
370
     0
100
AcDbMText
 10
0.78375
 20
0.0773440644
 30
0.0
 40
0.06
 41
0.0
 71
     2
 72
     1
  1
VALUES IN PARENTHESIS ARE CALCULATED
  7
SLDTEXTSTYLE0
 73
     1
 44
1.0
  0
MTEXT
  5
AD
330
A9
100
AcDbEntity
  8
0
  6
Continuous
 62
     0
370
     0
100
AcDbMText
 10
0.7825936818
 20
-0.0220260102
 30
0.0
 40
0.06
 41
0.0
 71
     2
 72
     1
  1
AND MAY CONTAIN ROUNDOFF ERRORS
  7
SLDTEXTSTYLE0
 73
     1
 44
1.0
  0
ENDBLK
  5
AB
330
A9
100
AcDbEntity
  8
0
100
AcDbBlockEnd
  0
BLOCK
  5
B0
330
AF
100
AcDbEntity
  8
0
100
AcDbBlockBegin
  2
SW_NOTE_1
 70
     0
 10
0.0
 20
0.0
 30
0.0
  3
SW_NOTE_1
  1
SW_NOTE_1
  0
MTEXT
  5
B2
330
AF
100
AcDbEntity
  8
0
  6
Continuous
 62
     0
370
     0
100
AcDbMText
 10
0.0
 20
0.1074223116
 30
0.0
 40
0.0833333333
 41
0.0
 71
     1
 72
     1
  1
DRAWING
  7
SLDTEXTSTYLE0
 73
     1
 44
1.0
  0
MTEXT
  5
B3
330
AF
100
AcDbEntity
  8
0
  6
Continuous
 62
     0
370
     0
100
AcDbMText
 10
0.0
 20
-0.0036887981
 30
0.0
 40
0.0833333333
 41
0.0
 71
     1
 72
     1
  1
PROJECTION
  7
SLDTEXTSTYLE0
 73
     1
 44
1.0
  0
ENDBLK
  5
B1
330
AF
100
AcDbEntity
  8
0
100
AcDbBlockEnd
  0
BLOCK
  5
B7
330
B6
100
AcDbEntity
  8
0
100
AcDbBlockBegin
  2
SW_NOTE_2
 70
     0
 10
0.0
 20
0.0
 30
0.0
  3
SW_NOTE_2
  1
SW_NOTE_2
  0
MTEXT
  5
B9
330
B6
100
AcDbEntity
  8
0
  6
Continuous
 62
     0
370
     0
100
AcDbMText
 10
0.0823567708
 20
0.1477056785
 30
0.0
 40
0.1145833333
 41
0.0
 71
     2
 72
     1
  1
%%c
  7
SLDTEXTSTYLE0
 73
     1
 44
1.0
  0
MTEXT
  5
BA
330
B6
100
AcDbEntity
  8
0
  6
Continuous
 62
     0
370
     0
100
AcDbMText
 10
1.2471759303
 20
0.1477056785
 30
0.0
 40
0.1145833333
 41
0.0
 71
     2
 72
     1
  1
2" MOUNTED PLANO-CONVEX
  7
SLDTEXTSTYLE0
 73
     1
 44
1.0
  0
MTEXT
  5
BB
330
B6
100
AcDbEntity
  8
0
  6
Continuous
 62
     0
370
     0
100
AcDbMText
 10
1.1879905698
 20
-0.0050720974
 30
0.0
 40
0.1145833333
 41
0.0
 71
     2
 72
     1
  1
LENS, f=250mm
  7
SLDTEXTSTYLE0
 73
     1
 44
1.0
  0
ENDBLK
  5
B8
330
B6
100
AcDbEntity
  8
0
100
AcDbBlockEnd
  0
BLOCK
  5
BF
330
BE
100
AcDbEntity
  8
0
100
AcDbBlockBegin
  2
SW_NOTE_3
 70
     0
 10
0.0
 20
0.0
 30
0.0
  3
SW_NOTE_3
  1
SW_NOTE_3
  0
MTEXT
  5
C1
330
BE
100
AcDbEntity
  8
0
  6
Continuous
 62
     0
370
     0
100
AcDbMText
 10
0.986328125
 20
0.1611334675
 30
0.0
 40
0.125
 41
0.0
 71
     2
 72
     1
  1
FOR INFORMATION ONLY
  7
SLDTEXTSTYLE0
 73
     1
 44
1.0
  0
MTEXT
  5
C2
330
BE
100
AcDbEntity
  8
0
  6
Continuous
 62
     0
370
     0
100
AcDbMText
 10
0.999088459
 20
-0.0055331972
 30
0.0
 40
0.125
 41
0.0
 71
     2
 72
     1
  1
NOT FOR MANUFACTURING PURPOSES
  7
SLDTEXTSTYLE0
 73
     1
 44
1.0
  0
ENDBLK
  5
C0
330
BE
100
AcDbEntity
  8
0
100
AcDbBlockEnd
  0
BLOCK
  5
C5
330
C4
100
AcDbEntity
  8
0
100
AcDbBlockBegin
  2
SW_NOTE_4
 70
     0
 10
0.0
 20
0.0
 30
0.0
  3
SW_NOTE_4
  1
SW_NOTE_4
  0
MTEXT
  5
C7
330
C4
100
AcDbEntity
  8
0
  6
Continuous
 62
     0
370
     0
100
AcDbMText
 10
0.0
 20
0.1074223116
 30
0.0
 40
0.0833333333
 41
0.0
 71
     1
 72
     1
  1
NOTES/SPECIFICATIONS:
  7
SLDTEXTSTYLE0
 73
     1
 44
1.0
  0
MTEXT
  5
C8
330
C4
100
AcDbEntity
  8
0
  6
Continuous
 62
     0
370
     0
100
AcDbMText
 10
0.4183921567
 20
-0.1147999079
 30
0.0
 40
0.0833333333
 41
0.0
 71
     1
 72
     1
  1
DESIGN WAVELENGTH: 546nm
  7
SLDTEXTSTYLE0
 73
     1
 44
1.0
  0
MTEXT
  5
C9
330
C4
100
AcDbEntity
  8
0
  6
Continuous
 62
     0
370
     0
100
AcDbMText
 10
0.0
 20
-0.1147999079
 30
0.0
 40
0.0833333333
 41
0.0
 71
     1
 72
     1
  1
1.
  7
SLDTEXTSTYLE0
 73
     1
 44
1.0
  0
MTEXT
  5
CA
330
C4
100
AcDbEntity
  8
0
  6
Continuous
 62
     0
370
     0
100
AcDbMText
 10
0.4183921567
 20
-0.2259110177
 30
0.0
 40
0.0833333333
 41
0.0
 71
     1
 72
     1
  1
FOCAL LENGTH: f=250.0mm
  7
SLDTEXTSTYLE0
 73
     1
 44
1.0
  0
MTEXT
  5
CB
330
C4
100
AcDbEntity
  8
0
  6
Continuous
 62
     0
370
     0
100
AcDbMText
 10
1.8858304981
 20
-0.2259110177
 30
0.0
 40
0.0833333333
 41
0.0
 71
     1
 72
     1
  1
%%p
  7
SLDTEXTSTYLE0
 73
     1
 44
1.0
  0
MTEXT
  5
CC
330
C4
100
AcDbEntity
  8
0
  6
Continuous
 62
     0
370
     0
100
AcDbMText
 10
1.9652749536
 20
-0.2259110177
 30
0.0
 40
0.0833333333
 41
0.0
 71
     1
 72
     1
  1
1%
  7
SLDTEXTSTYLE0
 73
     1
 44
1.0
  0
MTEXT
  5
CD
330
C4
100
AcDbEntity
  8
0
  6
Continuous
 62
     0
370
     0
100
AcDbMText
 10
0.0
 20
-0.2259110177
 30
0.0
 40
0.0833333333
 41
0.0
 71
     1
 72
     1
  1
2.
  7
SLDTEXTSTYLE0
 73
     1
 44
1.0
  0
MTEXT
  5
CE
330
C4
100
AcDbEntity
  8
0
  6
Continuous
 62
     0
370
     0
100
AcDbMText
 10
0.4183921567
 20
-0.3370221274
 30
0.0
 40
0.0833333333
 41
0.0
 71
     1
 72
     1
  1
WORKING DISTANCE (REF): 242.2mm
  7
SLDTEXTSTYLE0
 73
     1
 44
1.0
  0
MTEXT
  5
CF
330
C4
100
AcDbEntity
  8
0
  6
Continuous
 62
     0
370
     0
100
AcDbMText
 10
0.0
 20
-0.3370221274
 30
0.0
 40
0.0833333333
 41
0.0
 71
     1
 72
     1
  1
3.
  7
SLDTEXTSTYLE0
 73
     1
 44
1.0
  0
MTEXT
  5
D0
330
C4
100
AcDbEntity
  8
0
  6
Continuous
 62
     0
370
     0
100
AcDbMText
 10
0.4183921567
 20
-0.4481332372
 30
0.0
 40
0.0833333333
 41
0.0
 71
     1
 72
     1
  1
CLEAR APERTURE: >
  7
SLDTEXTSTYLE0
 73
     1
 44
1.0
  0
MTEXT
  5
D1
330
C4
100
AcDbEntity
  8
0
  6
Continuous
 62
     0
370
     0
100
AcDbMText
 10
1.4507996036
 20
-0.4481332372
 30
0.0
 40
0.0833333333
 41
0.0
 71
     1
 72
     1
  1
%%c
  7
SLDTEXTSTYLE0
 73
     1
 44
1.0
  0
MTEXT
  5
D2
330
C4
100
AcDbEntity
  8
0
  6
Continuous
 62
     0
370
     0
100
AcDbMText
 10
1.5765865971
 20
-0.4481332372
 30
0.0
 40
0.0833333333
 41
0.0
 71
     1
 72
     1
  1
45.72mm
  7
SLDTEXTSTYLE0
 73
     1
 44
1.0
  0
MTEXT
  5
D3
330
C4
100
AcDbEntity
  8
0
  6
Continuous
 62
     0
370
     0
100
AcDbMText
 10
0.0
 20
-0.4481332372
 30
0.0
 40
0.0833333333
 41
0.0
 71
     1
 72
     1
  1
4.
  7
SLDTEXTSTYLE0
 73
     1
 44
1.0
  0
MTEXT
  5
D4
330
C4
100
AcDbEntity
  8
0
  6
Continuous
 62
     0
370
     0
100
AcDbMText
 10
0.4183921567
 20
-0.559244347
 30
0.0
 40
0.0833333333
 41
0.0
 71
     1
 72
     1
  1
SURFACE QUALITY: 40-20 SCRATCH-DIG
  7
SLDTEXTSTYLE0
 73
     1
 44
1.0
  0
MTEXT
  5
D5
330
C4
100
AcDbEntity
  8
0
  6
Continuous
 62
     0
370
     0
100
AcDbMText
 10
0.0
 20
-0.559244347
 30
0.0
 40
0.0833333333
 41
0.0
 71
     1
 72
     1
  1
5.
  7
SLDTEXTSTYLE0
 73
     1
 44
1.0
  0
ENDBLK
  5
C6
330
C4
100
AcDbEntity
  8
0
100
AcDbBlockEnd
  0
BLOCK
  5
D8
330
D7
100
AcDbEntity
  8
0
100
AcDbBlockBegin
  2
SW_TABLEANNOTATION_0
 70
     0
 10
0.0
 20
0.0
 30
0.0
  3
SW_TABLEANNOTATION_0
  1
SW_TABLEANNOTATION_0
  0
LINE
  5
DA
330
D7
100
AcDbEntity
  8
0
  6
Continuous
 62
     0
370
     0
100
AcDbLine
 10
0.0
 20
0.0
 30
0.0
 11
0.0
 21
-1.2444444391
 31
0.0
  0
LINE
  5
DB
330
D7
100
AcDbEntity
  8
0
  6
Continuous
 62
     0
370
     0
100
AcDbLine
 10
0.0
 20
-1.2444444391
 30
0.0
 11
3.3
 21
-1.2444444391
 31
0.0
  0
LINE
  5
DC
330
D7
100
AcDbEntity
  8
0
  6
Continuous
 62
     0
370
     0
100
AcDbLine
 10
3.3
 20
-1.2444444391
 30
0.0
 11
3.3
 21
0.0
 31
0.0
  0
LINE
  5
DD
330
D7
100
AcDbEntity
  8
0
  6
Continuous
 62
     0
370
     0
100
AcDbLine
 10
3.3
 20
0.0
 30
0.0
 11
0.0
 21
0.0
 31
0.0
  0
LINE
  5
DE
330
D7
100
AcDbEntity
  8
0
  6
Continuous
 62
     0
370
     0
100
AcDbLine
 10
1.1
 20
0.0
 30
0.0
 11
1.1
 21
-1.2444444391
 31
0.0
  0
LINE
  5
DF
330
D7
100
AcDbEntity
  8
0
  6
Continuous
 62
     0
370
     0
100
AcDbLine
 10
2.2
 20
0.0
 30
0.0
 11
2.2
 21
-1.2444444391
 31
0.0
  0
LINE
  5
E0
330
D7
100
AcDbEntity
  8
0
  6
Continuous
 62
     0
370
     0
100
AcDbLine
 10
0.0
 20
-0.3111111098
 30
0.0
 11
3.3
 21
-0.3111111098
 31
0.0
  0
LINE
  5
E1
330
D7
100
AcDbEntity
  8
0
  6
Continuous
 62
     0
370
     0
100
AcDbLine
 10
0.0
 20
-0.6222222195
 30
0.0
 11
3.3
 21
-0.6222222195
 31
0.0
  0
LINE
  5
E2
330
D7
100
AcDbEntity
  8
0
  6
Continuous
 62
     0
370
     0
100
AcDbLine
 10
0.0
 20
-0.9333333293
 30
0.0
 11
3.3
 21
-0.9333333293
 31
0.0
  0
MTEXT
  5
E3
330
D7
100
AcDbEntity
  8
0
  6
Continuous
 62
     0
370
     0
100
AcDbMText
 10
1.1543981952
 20
-0.1141785187
 30
0.0
 40
0.0833333333
 41
0.0
 71
     1
 72
     1
  1
PART DESCRIPTION
  7
SLDTEXTSTYLE0
 73
     1
 44
1.0
  0
MTEXT
  5
E4
330
D7
100
AcDbEntity
  8
0
  6
Continuous
 62
     0
370
     0
100
AcDbMText
 10
2.491203698
 20
-0.1141785187
 30
0.0
 40
0.0833333333
 41
0.0
 71
     1
 72
     1
  1
MATERIAL
  7
SLDTEXTSTYLE0
 73
     1
 44
1.0
  0
INSERT
  5
EA
330
D7
100
AcDbEntity
  8
0
  6
Continuous
 62
     0
370
     0
100
AcDbBlockReference
  2
SW_SYMBOL_C#_1
 10
0.4374537001
 20
-0.5211559505
 30
0.0
 41
0.0027037109
 42
0.0027037109
 43
0.0027037109
  0
MTEXT
  5
EB
330
D7
100
AcDbEntity
  8
0
  6
Continuous
 62
     0
370
     0
100
AcDbMText
 10
1.4729938215
 20
-0.4252896284
 30
0.0
 40
0.0833333333
 41
0.0
 71
     1
 72
     1
  1
SM2RR
  7
SLDTEXTSTYLE0
 73
     1
 44
1.0
  0
MTEXT
  5
EC
330
D7
100
AcDbEntity
  8
0
  6
Continuous
 62
     0
370
     0
100
AcDbMText
 10
2.4676697448
 20
-0.3697340736
 30
0.0
 40
0.0833333333
 41
0.0
 71
     1
 72
     1
  1
ANODIZED
  7
SLDTEXTSTYLE0
 73
     1
 44
1.0
  0
MTEXT
  5
ED
330
D7
100
AcDbEntity
  8
0
  6
Continuous
 62
     0
370
     0
100
AcDbMText
 10
2.4546296155
 20
-0.4808451833
 30
0.0
 40
0.0833333333
 41
0.0
 71
     1
 72
     1
  1
ALUMINUM
  7
SLDTEXTSTYLE0
 73
     1
 44
1.0
  0
INSERT
  5
F3
330
D7
100
AcDbEntity
  8
0
  6
Continuous
 62
     0
370
     0
100
AcDbBlockReference
  2
SW_SYMBOL_C#_2
 10
0.4374537001
 20
-0.8322670603
 30
0.0
 41
0.0027037109
 42
0.0027037109
 43
0.0027037109
  0
MTEXT
  5
F4
330
D7
100
AcDbEntity
  8
0
  6
Continuous
 62
     0
370
     0
100
AcDbMText
 10
1.4600308562
 20
-0.7364007382
 30
0.0
 40
0.0833333333
 41
0.0
 71
     1
 72
     1
  1
LA4538
  7
SLDTEXTSTYLE0
 73
     1
 44
1.0
  0
MTEXT
  5
F5
330
D7
100
AcDbEntity
  8
0
  6
Continuous
 62
     0
370
     0
100
AcDbMText
 10
2.3169753357
 20
-0.7364007382
 30
0.0
 40
0.0833333333
 41
0.0
 71
     1
 72
     1
  1
UV FUSED SILICA
  7
SLDTEXTSTYLE0
 73
     1
 44
1.0
  0
INSERT
  5
FB
330
D7
100
AcDbEntity
  8
0
  6
Continuous
 62
     0
370
     0
100
AcDbBlockReference
  2
SW_SYMBOL_C#_3
 10
0.4374537001
 20
-1.14337817
 30
0.0
 41
0.0027037109
 42
0.0027037109
 43
0.0027037109
  0
MTEXT
  5
FC
330
D7
100
AcDbEntity
  8
0
  6
Continuous
 62
     0
370
     0
100
AcDbMText
 10
1.3456018548
 20
-0.9919562931
 30
0.0
 40
0.0833333333
 41
0.0
 71
     1
 72
     1
  1
ENGRAVED
  7
SLDTEXTSTYLE0
 73
     1
 44
1.0
  0
MTEXT
  5
FD
330
D7
100
AcDbEntity
  8
0
  6
Continuous
 62
     0
370
     0
100
AcDbMText
 10
1.3975308615
 20
-1.1030674029
 30
0.0
 40
0.0833333333
 41
0.0
 71
     1
 72
     1
  1
HOUSING
  7
SLDTEXTSTYLE0
 73
     1
 44
1.0
  0
MTEXT
  5
FE
330
D7
100
AcDbEntity
  8
0
  6
Continuous
 62
     0
370
     0
100
AcDbMText
 10
2.4676697448
 20
-0.9919562931
 30
0.0
 40
0.0833333333
 41
0.0
 71
     1
 72
     1
  1
ANODIZED
  7
SLDTEXTSTYLE0
 73
     1
 44
1.0
  0
MTEXT
  5
FF
330
D7
100
AcDbEntity
  8
0
  6
Continuous
 62
     0
370
     0
100
AcDbMText
 10
2.4546296155
 20
-1.1030674029
 30
0.0
 40
0.0833333333
 41
0.0
 71
     1
 72
     1
  1
ALUMINUM
  7
SLDTEXTSTYLE0
 73
     1
 44
1.0
  0
ENDBLK
  5
D9
330
D7
100
AcDbEntity
  8
0
100
AcDbBlockEnd
  0
BLOCK
  5
E6
330
E5
100
AcDbEntity
  8
0
100
AcDbBlockBegin
  2
SW_SYMBOL_C#_1
 70
     0
 10
0.0
 20
0.0
 30
0.0
  3
SW_SYMBOL_C#_1
  1
SW_SYMBOL_C#_1
  0
CIRCLE
  5
E8
330
E5
100
AcDbEntity
  8
0
  6
Continuous
 62
     0
370
     0
100
AcDbCircle
 10
31.4960629921
 20
19.6850393701
 30
0.0
 40
31.49606299212599
  0
MTEXT
  5
E9
330
E5
100
AcDbEntity
  8
0
  6
Continuous
 62
     0
370
     0
100
AcDbMText
 10
31.4960629921
 20
19.6850393701
 30
0.0
 40
30.821835344
 41
0.0
 71
     5
 72
     1
  1
1
  7
SLDTEXTSTYLE0
 73
     1
 44
1.0
  0
ENDBLK
  5
E7
330
E5
100
AcDbEntity
  8
0
100
AcDbBlockEnd
  0
BLOCK
  5
EF
330
EE
100
AcDbEntity
  8
0
100
AcDbBlockBegin
  2
SW_SYMBOL_C#_2
 70
     0
 10
0.0
 20
0.0
 30
0.0
  3
SW_SYMBOL_C#_2
  1
SW_SYMBOL_C#_2
  0
CIRCLE
  5
F1
330
EE
100
AcDbEntity
  8
0
  6
Continuous
 62
     0
370
     0
100
AcDbCircle
 10
31.4960629921
 20
19.6850393701
 30
0.0
 40
31.49606299212599
  0
MTEXT
  5
F2
330
EE
100
AcDbEntity
  8
0
  6
Continuous
 62
     0
370
     0
100
AcDbMText
 10
31.4960629921
 20
19.6850393701
 30
0.0
 40
30.821835344
 41
0.0
 71
     5
 72
     1
  1
2
  7
SLDTEXTSTYLE0
 73
     1
 44
1.0
  0
ENDBLK
  5
F0
330
EE
100
AcDbEntity
  8
0
100
AcDbBlockEnd
  0
BLOCK
  5
F7
330
F6
100
AcDbEntity
  8
0
100
AcDbBlockBegin
  2
SW_SYMBOL_C#_3
 70
     0
 10
0.0
 20
0.0
 30
0.0
  3
SW_SYMBOL_C#_3
  1
SW_SYMBOL_C#_3
  0
CIRCLE
  5
F9
330
F6
100
AcDbEntity
  8
0
  6
Continuous
 62
     0
370
     0
100
AcDbCircle
 10
31.4960629921
 20
19.6850393701
 30
0.0
 40
31.49606299212599
  0
MTEXT
  5
FA
330
F6
100
AcDbEntity
  8
0
  6
Continuous
 62
     0
370
     0
100
AcDbMText
 10
31.4960629921
 20
19.6850393701
 30
0.0
 40
30.821835344
 41
0.0
 71
     5
 72
     1
  1
3
  7
SLDTEXTSTYLE0
 73
     1
 44
1.0
  0
ENDBLK
  5
F8
330
F6
100
AcDbEntity
  8
0
100
AcDbBlockEnd
  0
BLOCK
  5
11C
330
11B
100
AcDbEntity
  8
0
100
AcDbBlockBegin
  2
_D
 70
     0
 10
0.0
 20
0.0
 30
0.0
  3
_D
  1
_D
  0
SOLID
  5
11E
330
11B
100
AcDbEntity
  8
0
  6
Continuous
 62
     7
370
     0
100
AcDbTrace
 10
3.1387119317
 20
4.8485129287
 30
0.0
 11
3.2185324397
 21
4.9467661042
 31
0.0
 12
3.1838914236
 22
4.9667661042
 32
0.0
 13
3.1838914236
 23
4.9667661042
 33
0.0
  0
LINE
  5
11F
330
11B
100
AcDbEntity
  8
0
  6
Continuous
 62
     7
370
     0
100
AcDbLine
 10
3.6007212529
 20
5.2697527233
 30
0.0
 11
3.5838231048
 21
5.2697527233
 31
0.0
  0
LINE
  5
120
330
11B
100
AcDbEntity
  8
0
  6
Continuous
 62
     7
370
     0
100
AcDbLine
 10
3.5838231048
 20
5.2697527233
 30
0.0
 11
3.5838231048
 21
5.1373453187
 31
0.0
  0
LINE
  5
121
330
11B
100
AcDbEntity
  8
0
  6
Continuous
 62
     7
370
     0
100
AcDbLine
 10
3.5838231048
 20
5.1373453187
 30
0.0
 11
3.6007212529
 21
5.1373453187
 31
0.0
  0
LINE
  5
122
330
11B
100
AcDbEntity
  8
0
  6
Continuous
 62
     7
370
     0
100
AcDbLine
 10
4.0667320726
 20
5.2697527233
 30
0.0
 11
4.0836302206
 21
5.2697527233
 31
0.0
  0
LINE
  5
123
330
11B
100
AcDbEntity
  8
0
  6
Continuous
 62
     7
370
     0
100
AcDbLine
 10
4.0836302206
 20
5.2697527233
 30
0.0
 11
4.0836302206
 21
5.1373453187
 31
0.0
  0
LINE
  5
124
330
11B
100
AcDbEntity
  8
0
  6
Continuous
 62
     7
370
     0
100
AcDbLine
 10
4.0836302206
 20
5.1373453187
 30
0.0
 11
4.0667320726
 21
5.1373453187
 31
0.0
  0
LINE
  5
125
330
11B
100
AcDbEntity
  8
0
  6
Continuous
 62
     7
370
     0
100
AcDbLine
 10
3.1387119317
 20
4.8485129287
 30
0.0
 11
3.4211494935
 21
5.3377091359
 31
0.0
  0
LINE
  5
126
330
11B
100
AcDbEntity
  8
0
  6
Continuous
 62
     7
370
     0
100
AcDbLine
 10
3.4211494935
 20
5.3377091359
 30
0.0
 11
3.5711494935
 21
5.3377091359
 31
0.0
  0
MTEXT
  5
127
330
11B
100
AcDbEntity
  8
0
  6
Continuous
 62
     7
370
     0
100
AcDbMText
 10
3.5711494935
 20
5.3940731818
 30
0.0
 40
0.0833333333
 41
0.0
 71
     1
 72
     1
  1
%%c
  7
SLDTEXTSTYLE0
 73
     1
 44
1.0
  0
MTEXT
  5
128
330
11B
100
AcDbEntity
  8
0
  6
Continuous
 62
     7
370
     0
100
AcDbMText
 10
3.6969365329
 20
5.3940731818
 30
0.0
 40
0.0833333333
 41
0.0
 71
     1
 72
     1
  1
2.20in
  7
SLDTEXTSTYLE0
 73
     1
 44
1.0
  0
MTEXT
  5
129
330
11B
100
AcDbEntity
  8
0
  6
Continuous
 62
     7
370
     0
100
AcDbMText
 10
3.6218439387
 20
5.2447676257
 30
0.0
 40
0.0833333333
 41
0.0
 71
     1
 72
     1
  1
55.9mm
  7
SLDTEXTSTYLE0
 73
     1
 44
1.0
  0
ENDBLK
  5
11D
330
11B
100
AcDbEntity
  8
0
100
AcDbBlockEnd
  0
BLOCK
  5
1B3
330
1B2
100
AcDbEntity
  8
0
100
AcDbBlockBegin
  2
_D_1
 70
     0
 10
0.0
 20
0.0
 30
0.0
  3
_D_1
  1
_D_1
  0
SOLID
  5
1B5
330
1B2
100
AcDbEntity
  8
0
  6
Continuous
 62
     7
370
     0
100
AcDbTrace
 10
8.1763403219
 20
4.8458849846
 30
0.0
 11
8.1563403219
 21
4.7208849846
 31
0.0
 12
8.1963403219
 22
4.7208849846
 32
0.0
 13
8.1963403219
 23
4.7208849846
 33
0.0
  0
SOLID
  5
1B6
330
1B2
100
AcDbEntity
  8
0
  6
Continuous
 62
     7
370
     0
100
AcDbTrace
 10
8.1763403219
 20
2.9458849846
 30
0.0
 11
8.1963403219
 21
3.0708849846
 31
0.0
 12
8.1563403219
 22
3.0708849846
 32
0.0
 13
8.1563403219
 23
3.0708849846
 33
0.0
  0
LINE
  5
1B7
330
1B2
100
AcDbEntity
  8
0
  6
Continuous
 62
     7
370
     0
100
AcDbLine
 10
7.9433349212
 20
3.9065331274
 30
0.0
 11
7.9264367732
 21
3.9065331274
 31
0.0
  0
LINE
  5
1B8
330
1B2
100
AcDbEntity
  8
0
  6
Continuous
 62
     7
370
     0
100
AcDbLine
 10
7.9264367732
 20
3.9065331274
 30
0.0
 11
7.9264367732
 21
3.7741257228
 31
0.0
  0
LINE
  5
1B9
330
1B2
100
AcDbEntity
  8
0
  6
Continuous
 62
     7
370
     0
100
AcDbLine
 10
7.9264367732
 20
3.7741257228
 30
0.0
 11
7.9433349212
 21
3.7741257228
 31
0.0
  0
LINE
  5
1BA
330
1B2
100
AcDbEntity
  8
0
  6
Continuous
 62
     7
370
     0
100
AcDbLine
 10
8.4093457409
 20
3.9065331274
 30
0.0
 11
8.4262438889
 21
3.9065331274
 31
0.0
  0
LINE
  5
1BB
330
1B2
100
AcDbEntity
  8
0
  6
Continuous
 62
     7
370
     0
100
AcDbLine
 10
8.4262438889
 20
3.9065331274
 30
0.0
 11
8.4262438889
 21
3.7741257228
 31
0.0
  0
LINE
  5
1BC
330
1B2
100
AcDbEntity
  8
0
  6
Continuous
 62
     7
370
     0
100
AcDbLine
 10
8.4262438889
 20
3.7741257228
 30
0.0
 11
8.4093457409
 21
3.7741257228
 31
0.0
  0
LINE
  5
1BD
330
1B2
100
AcDbEntity
  8
0
  6
Continuous
 62
     7
370
     0
100
AcDbLine
 10
7.5651160685
 20
4.8458849846
 30
0.0
 11
8.2463403219
 21
4.8458849846
 31
0.0
  0
LINE
  5
1BE
330
1B2
100
AcDbEntity
  8
0
  6
Continuous
 62
     7
370
     0
100
AcDbLine
 10
7.5651160685
 20
2.9458849846
 30
0.0
 11
8.2463403219
 21
2.9458849846
 31
0.0
  0
LINE
  5
1BF
330
1B2
100
AcDbEntity
  8
0
  6
Continuous
 62
     7
370
     0
100
AcDbLine
 10
8.1763403219
 20
4.8458849846
 30
0.0
 11
8.1763403219
 21
4.0345423886
 31
0.0
  0
LINE
  5
1C0
330
1B2
100
AcDbEntity
  8
0
  6
Continuous
 62
     7
370
     0
100
AcDbLine
 10
8.1763403219
 20
2.9458849846
 30
0.0
 11
8.1763403219
 21
3.7572275805
 31
0.0
  0
MTEXT
  5
1C1
330
1B2
100
AcDbEntity
  8
0
  6
Continuous
 62
     7
370
     0
100
AcDbMText
 10
7.9607461858
 20
4.0308535859
 30
0.0
 40
0.0833333333
 41
0.0
 71
     1
 72
     1
  1
%%c
  7
SLDTEXTSTYLE0
 73
     1
 44
1.0
  0
MTEXT
  5
1C2
330
1B2
100
AcDbEntity
  8
0
  6
Continuous
 62
     7
370
     0
100
AcDbMText
 10
8.0865332252
 20
4.0308535859
 30
0.0
 40
0.0833333333
 41
0.0
 71
     1
 72
     1
  1
1.90in
  7
SLDTEXTSTYLE0
 73
     1
 44
1.0
  0
MTEXT
  5
1C3
330
1B2
100
AcDbEntity
  8
0
  6
Continuous
 62
     7
370
     0
100
AcDbMText
 10
7.9644576071
 20
3.8815480299
 30
0.0
 40
0.0833333333
 41
0.0
 71
     1
 72
     1
  1
48.3mm
  7
SLDTEXTSTYLE0
 73
     1
 44
1.0
  0
ENDBLK
  5
1B4
330
1B2
100
AcDbEntity
  8
0
100
AcDbBlockEnd
  0
BLOCK
  5
1C7
330
1C6
100
AcDbEntity
  8
0
100
AcDbBlockBegin
  2
_D_2
 70
     0
 10
0.0
 20
0.0
 30
0.0
  3
_D_2
  1
_D_2
  0
SOLID
  5
1C9
330
1C6
100
AcDbEntity
  8
0
  6
Continuous
 62
     7
370
     0
100
AcDbTrace
 10
7.3951160685
 20
5.1650766072
 30
0.0
 11
7.2701160685
 21
5.1850766072
 31
0.0
 12
7.2701160685
 22
5.1450766072
 32
0.0
 13
7.2701160685
 23
5.1450766072
 33
0.0
  0
SOLID
  5
1CA
330
1C6
100
AcDbEntity
  8
0
  6
Continuous
 62
     7
370
     0
100
AcDbTrace
 10
7.5151160685
 20
5.1650766072
 30
0.0
 11
7.6401160685
 21
5.1450766072
 31
0.0
 12
7.6401160685
 22
5.1850766072
 32
0.0
 13
7.6401160685
 23
5.1850766072
 33
0.0
  0
LINE
  5
1CB
330
1C6
100
AcDbEntity
  8
0
  6
Continuous
 62
     7
370
     0
100
AcDbLine
 10
7.9741219705
 20
5.1650765981
 30
0.0
 11
7.9572238225
 21
5.1650765981
 31
0.0
  0
LINE
  5
1CC
330
1C6
100
AcDbEntity
  8
0
  6
Continuous
 62
     7
370
     0
100
AcDbLine
 10
7.9572238225
 20
5.1650765981
 30
0.0
 11
7.9572238225
 21
5.0326691935
 31
0.0
  0
LINE
  5
1CD
330
1C6
100
AcDbEntity
  8
0
  6
Continuous
 62
     7
370
     0
100
AcDbLine
 10
7.9572238225
 20
5.0326691935
 30
0.0
 11
7.9741219705
 21
5.0326691935
 31
0.0
  0
LINE
  5
1CE
330
1C6
100
AcDbEntity
  8
0
  6
Continuous
 62
     7
370
     0
100
AcDbLine
 10
8.3785586916
 20
5.1650765981
 30
0.0
 11
8.3954568396
 21
5.1650765981
 31
0.0
  0
LINE
  5
1CF
330
1C6
100
AcDbEntity
  8
0
  6
Continuous
 62
     7
370
     0
100
AcDbLine
 10
8.3954568396
 20
5.1650765981
 30
0.0
 11
8.3954568396
 21
5.0326691935
 31
0.0
  0
LINE
  5
1D0
330
1C6
100
AcDbEntity
  8
0
  6
Continuous
 62
     7
370
     0
100
AcDbLine
 10
8.3954568396
 20
5.0326691935
 30
0.0
 11
8.3785586916
 21
5.0326691935
 31
0.0
  0
LINE
  5
1D1
330
1C6
100
AcDbEntity
  8
0
  6
Continuous
 62
     7
370
     0
100
AcDbLine
 10
7.3951160685
 20
5.0358849846
 30
0.0
 11
7.3951160685
 21
5.2350766072
 31
0.0
  0
LINE
  5
1D2
330
1C6
100
AcDbEntity
  8
0
  6
Continuous
 62
     7
370
     0
100
AcDbLine
 10
7.5151160685
 20
4.9460644765
 30
0.0
 11
7.5151160685
 21
5.2350766072
 31
0.0
  0
LINE
  5
1D3
330
1C6
100
AcDbEntity
  8
0
  6
Continuous
 62
     7
370
     0
100
AcDbLine
 10
7.3951160685
 20
5.1650766072
 30
0.0
 11
7.1451160685
 21
5.1650766072
 31
0.0
  0
LINE
  5
1D4
330
1C6
100
AcDbEntity
  8
0
  6
Continuous
 62
     7
370
     0
100
AcDbLine
 10
7.5151160685
 20
5.1650766072
 30
0.0
 11
7.8662215095
 21
5.1650766072
 31
0.0
  0
MTEXT
  5
1D5
330
1C6
100
AcDbEntity
  8
0
  6
Continuous
 62
     7
370
     0
100
AcDbMText
 10
7.9456304591
 20
5.2893970566
 30
0.0
 40
0.0833333333
 41
0.0
 71
     1
 72
     1
  1

  7
SLDTEXTSTYLE0
 73
     1
 44
1.0
  0
MTEXT
  5
1D6
330
1C6
100
AcDbEntity
  8
0
  6
Continuous
 62
     7
370
     0
100
AcDbMText
 10
8.0236397009
 20
5.2893970566
 30
0.0
 40
0.0833333333
 41
0.0
 71
     1
 72
     1
  1
0.12in
  7
SLDTEXTSTYLE0
 73
     1
 44
1.0
  0
MTEXT
  5
1D7
330
1C6
100
AcDbEntity
  8
0
  6
Continuous
 62
     7
370
     0
100
AcDbMText
 10
7.9952446564
 20
5.1400915005
 30
0.0
 40
0.0833333333
 41
0.0
 71
     1
 72
     1
  1
3.0mm
  7
SLDTEXTSTYLE0
 73
     1
 44
1.0
  0
MTEXT
  5
1D8
330
1C6
100
AcDbEntity
  8
0
  6
Continuous
 62
     7
370
     0
100
AcDbMText
 10
8.4706304142
 20
5.2893970566
 30
0.0
 40
0.0833333333
 41
0.0
 71
     1
 72
     1
  1

  7
SLDTEXTSTYLE0
 73
     1
 44
1.0
  0
ENDBLK
  5
1C8
330
1C6
100
AcDbEntity
  8
0
100
AcDbBlockEnd
  0
BLOCK
  5
1DB
330
1DA
100
AcDbEntity
  8
0
100
AcDbBlockBegin
  2
_D_3
 70
     0
 10
0.0
 20
0.0
 30
0.0
  3
_D_3
  1
_D_3
  0
SOLID
  5
1DD
330
1DA
100
AcDbEntity
  8
0
  6
Continuous
 62
     7
370
     0
100
AcDbTrace
 10
7.0051160685
 20
5.5865864249
 30
0.0
 11
6.8801160685
 21
5.6065864249
 31
0.0
 12
6.8801160685
 22
5.5665864249
 32
0.0
 13
6.8801160685
 23
5.5665864249
 33
0.0
  0
SOLID
  5
1DE
330
1DA
100
AcDbEntity
  8
0
  6
Continuous
 62
     7
370
     0
100
AcDbTrace
 10
7.5151160685
 20
5.5865864249
 30
0.0
 11
7.6401160685
 21
5.5665864249
 31
0.0
 12
7.6401160685
 22
5.6065864249
 32
0.0
 13
7.6401160685
 23
5.6065864249
 33
0.0
  0
LINE
  5
1DF
330
1DA
100
AcDbEntity
  8
0
  6
Continuous
 62
     7
370
     0
100
AcDbLine
 10
7.9433349029
 20
5.5865864157
 30
0.0
 11
7.9264367548
 21
5.5865864157
 31
0.0
  0
LINE
  5
1E0
330
1DA
100
AcDbEntity
  8
0
  6
Continuous
 62
     7
370
     0
100
AcDbLine
 10
7.9264367548
 20
5.5865864157
 30
0.0
 11
7.9264367548
 21
5.4541790111
 31
0.0
  0
LINE
  5
1E1
330
1DA
100
AcDbEntity
  8
0
  6
Continuous
 62
     7
370
     0
100
AcDbLine
 10
7.9264367548
 20
5.4541790111
 30
0.0
 11
7.9433349029
 21
5.4541790111
 31
0.0
  0
LINE
  5
1E2
330
1DA
100
AcDbEntity
  8
0
  6
Continuous
 62
     7
370
     0
100
AcDbLine
 10
8.4093457226
 20
5.5865864157
 30
0.0
 11
8.4262438706
 21
5.5865864157
 31
0.0
  0
LINE
  5
1E3
330
1DA
100
AcDbEntity
  8
0
  6
Continuous
 62
     7
370
     0
100
AcDbLine
 10
8.4262438706
 20
5.5865864157
 30
0.0
 11
8.4262438706
 21
5.4541790111
 31
0.0
  0
LINE
  5
1E4
330
1DA
100
AcDbEntity
  8
0
  6
Continuous
 62
     7
370
     0
100
AcDbLine
 10
8.4262438706
 20
5.4541790111
 30
0.0
 11
8.4093457226
 21
5.4541790111
 31
0.0
  0
LINE
  5
1E5
330
1DA
100
AcDbEntity
  8
0
  6
Continuous
 62
     7
370
     0
100
AcDbLine
 10
7.0051160685
 20
5.0358849846
 30
0.0
 11
7.0051160685
 21
5.6565864249
 31
0.0
  0
LINE
  5
1E6
330
1DA
100
AcDbEntity
  8
0
  6
Continuous
 62
     7
370
     0
100
AcDbLine
 10
7.5151160685
 20
4.9460644765
 30
0.0
 11
7.5151160685
 21
5.6565864249
 31
0.0
  0
LINE
  5
1E7
330
1DA
100
AcDbEntity
  8
0
  6
Continuous
 62
     7
370
     0
100
AcDbLine
 10
7.0051160685
 20
5.5865864249
 30
0.0
 11
6.7551160685
 21
5.5865864249
 31
0.0
  0
LINE
  5
1E8
330
1DA
100
AcDbEntity
  8
0
  6
Continuous
 62
     7
370
     0
100
AcDbLine
 10
7.5151160685
 20
5.5865864249
 30
0.0
 11
7.8354344418
 21
5.5865864249
 31
0.0
  0
MTEXT
  5
1E9
330
1DA
100
AcDbEntity
  8
0
  6
Continuous
 62
     7
370
     0
100
AcDbMText
 10
7.9148433914
 20
5.7109068742
 30
0.0
 40
0.0833333333
 41
0.0
 71
     1
 72
     1
  1

  7
SLDTEXTSTYLE0
 73
     1
 44
1.0
  0
MTEXT
  5
1EA
330
1DA
100
AcDbEntity
  8
0
  6
Continuous
 62
     7
370
     0
100
AcDbMText
 10
8.0236396826
 20
5.7109068742
 30
0.0
 40
0.0833333333
 41
0.0
 71
     1
 72
     1
  1
0.51in
  7
SLDTEXTSTYLE0
 73
     1
 44
1.0
  0
MTEXT
  5
1EB
330
1DA
100
AcDbEntity
  8
0
  6
Continuous
 62
     7
370
     0
100
AcDbMText
 10
7.9644575887
 20
5.5616013182
 30
0.0
 40
0.0833333333
 41
0.0
 71
     1
 72
     1
  1
13.0mm
  7
SLDTEXTSTYLE0
 73
     1
 44
1.0
  0
MTEXT
  5
1EC
330
1DA
100
AcDbEntity
  8
0
  6
Continuous
 62
     7
370
     0
100
AcDbMText
 10
8.5014174819
 20
5.7109068742
 30
0.0
 40
0.0833333333
 41
0.0
 71
     1
 72
     1
  1

  7
SLDTEXTSTYLE0
 73
     1
 44
1.0
  0
ENDBLK
  5
1DC
330
1DA
100
AcDbEntity
  8
0
100
AcDbBlockEnd
  0
BLOCK
  5
1EE
330
1ED
100
AcDbEntity
  8
0
100
AcDbBlockBegin
  2
SW_NOTE_5
 70
     0
 10
0.0
 20
0.0
 30
0.0
  3
SW_NOTE_5
  1
SW_NOTE_5
  0
CIRCLE
  5
1F0
330
1ED
100
AcDbEntity
  8
0
  6
Continuous
 62
     0
370
     0
100
AcDbCircle
 10
-0.1767581325
 20
0.0
 30
0.0
 40
0.1767581325192449
  0
MTEXT
  5
1F1
330
1ED
100
AcDbEntity
  8
0
  6
Continuous
 62
     0
370
     0
100
AcDbMText
 10
-0.1780168132
 20
0.0630130583
 30
0.0
 40
0.125
 41
0.0
 71
     2
 72
     1
  1
1
  7
SLDTEXTSTYLE0
 73
     1
 44
1.0
  0
ENDBLK
  5
1EF
330
1ED
100
AcDbEntity
  8
0
100
AcDbBlockEnd
  0
BLOCK
  5
1F6
330
1F5
100
AcDbEntity
  8
0
100
AcDbBlockBegin
  2
SW_NOTE_6
 70
     0
 10
0.0
 20
0.0
 30
0.0
  3
SW_NOTE_6
  1
SW_NOTE_6
  0
CIRCLE
  5
1F8
330
1F5
100
AcDbEntity
  8
0
  6
Continuous
 62
     0
370
     0
100
AcDbCircle
 10
-0.1767581325
 20
0.0
 30
0.0
 40
0.1767581325192437
  0
MTEXT
  5
1F9
330
1F5
100
AcDbEntity
  8
0
  6
Continuous
 62
     0
370
     0
100
AcDbMText
 10
-0.1780168132
 20
0.0630130583
 30
0.0
 40
0.125
 41
0.0
 71
     2
 72
     1
  1
3
  7
SLDTEXTSTYLE0
 73
     1
 44
1.0
  0
ENDBLK
  5
1F7
330
1F5
100
AcDbEntity
  8
0
100
AcDbBlockEnd
  0
BLOCK
  5
1FD
330
1FC
100
AcDbEntity
  8
0
100
AcDbBlockBegin
  2
SW_NOTE_7
 70
     0
 10
0.0
 20
0.0
 30
0.0
  3
SW_NOTE_7
  1
SW_NOTE_7
  0
MTEXT
  5
200
330
1FC
100
AcDbEntity
  8
0
  6
Continuous
 62
     0
370
     0
100
AcDbMText
 10
0.0227176671
 20
0.0394814836
 30
0.0
 40
0.0833333333
 41
0.0
 71
     1
 72
     1
  1
SM2 (
  7
SLDTEXTSTYLE3
 73
     1
 44
1.0
  0
MTEXT
  5
201
330
1FC
100
AcDbEntity
  8
0
  6
Continuous
 62
     0
370
     0
100
AcDbMText
 10
0.3443226019
 20
0.0394814836
 30
0.0
 40
0.0833333333
 41
0.0
 71
     1
 72
     1
  1
%%c
  7
SLDTEXTSTYLE0
 73
     1
 44
1.0
  0
MTEXT
  5
202
330
1FC
100
AcDbEntity
  8
0
  6
Continuous
 62
     0
370
     0
100
AcDbMText
 10
0.4701096321
 20
0.0394814836
 30
0.0
 40
0.0833333333
 41
0.0
 71
     1
 72
     1
  1
2.035-40) SERIES EXTERNAL THREAD
  7
SLDTEXTSTYLE0
 73
     1
 44
1.0
  0
ENDBLK
  5
1FE
330
1FC
100
AcDbEntity
  8
0
100
AcDbBlockEnd
  0
BLOCK
  5
206
330
205
100
AcDbEntity
  8
0
100
AcDbBlockBegin
  2
SW_NOTE_8
 70
     0
 10
0.0
 20
0.0
 30
0.0
  3
SW_NOTE_8
  1
SW_NOTE_8
  0
CIRCLE
  5
208
330
205
100
AcDbEntity
  8
0
  6
Continuous
 62
     0
370
     0
100
AcDbCircle
 10
0.1767581325
 20
0.0
 30
0.0
 40
0.1767581325192437
  0
MTEXT
  5
209
330
205
100
AcDbEntity
  8
0
  6
Continuous
 62
     0
370
     0
100
AcDbMText
 10
0.1754994518
 20
0.0630130583
 30
0.0
 40
0.125
 41
0.0
 71
     2
 72
     1
  1
2
  7
SLDTEXTSTYLE0
 73
     1
 44
1.0
  0
ENDBLK
  5
207
330
205
100
AcDbEntity
  8
0
100
AcDbBlockEnd
  0
BLOCK
  5
20D
330
20C
100
AcDbEntity
  8
0
100
AcDbBlockBegin
  2
SW_NOTE_9
 70
     0
 10
0.0
 20
0.0
 30
0.0
  3
SW_NOTE_9
  1
SW_NOTE_9
  0
MTEXT
  5
20F
330
20C
100
AcDbEntity
  8
0
  6
Continuous
 62
     0
370
     0
100
AcDbMText
 10
-2.2715961205
 20
0.0371179126
 30
0.0
 40
0.0833333333
 41
0.0
 71
     1
 72
     1
  1
SM2 (
  7
SLDTEXTSTYLE3
 73
     1
 44
1.0
  0
MTEXT
  5
210
330
20C
100
AcDbEntity
  8
0
  6
Continuous
 62
     0
370
     0
100
AcDbMText
 10
-1.9499911857
 20
0.0371179126
 30
0.0
 40
0.0833333333
 41
0.0
 71
     1
 72
     1
  1
%%c
  7
SLDTEXTSTYLE0
 73
     1
 44
1.0
  0
MTEXT
  5
211
330
20C
100
AcDbEntity
  8
0
  6
Continuous
 62
     0
370
     0
100
AcDbMText
 10
-1.8242041555
 20
0.0371179126
 30
0.0
 40
0.0833333333
 41
0.0
 71
     1
 72
     1
  1
2.035-40) SERIES INTERNAL THREAD
  7
SLDTEXTSTYLE0
 73
     1
 44
1.0
  0
ENDBLK
  5
20E
330
20C
100
AcDbEntity
  8
0
100
AcDbBlockEnd
  0
ENDSEC
  0
SECTION
  2
ENTITIES
  0
LINE
  5
7D
330
1F
100
AcDbEntity
  8
0
  6
Continuous
 62
     7
370
     0
100
AcDbLine
 10
0.0621791378
 20
8.4506055117
 30
0.0
 11
10.9444569626
 21
8.4506055117
 31
0.0
  0
LINE
  5
7E
330
1F
100
AcDbEntity
  8
0
  6
Continuous
 62
     7
370
     0
100
AcDbLine
 10
0.0621791378
 20
8.4506055117
 30
0.0
 11
0.0621791378
 21
0.035557648
 31
0.0
  0
LINE
  5
7F
330
1F
100
AcDbEntity
  8
0
  6
Continuous
 62
     7
370
     0
100
AcDbLine
 10
10.9444569626
 20
0.035557648
 30
0.0
 11
0.0621791378
 21
0.035557648
 31
0.0
  0
LINE
  5
80
330
1F
100
AcDbEntity
  8
0
  6
Continuous
 62
     7
370
     0
100
AcDbLine
 10
10.9444569626
 20
0.035557648
 30
0.0
 11
10.9444569626
 21
8.4506055117
 31
0.0
  0
LINE
  5
81
330
1F
100
AcDbEntity
  8
0
  6
Continuous
 62
     7
370
     0
100
AcDbLine
 10
8.4938096065
 20
0.4840901186
 30
0.0
 11
6.7571952625
 21
0.4840901186
 31
0.0
  0
LINE
  5
82
330
1F
100
AcDbEntity
  8
0
  6
Continuous
 62
     7
370
     0
100
AcDbLine
 10
6.7571952625
 20
0.4840901186
 30
0.0
 11
6.7571952625
 21
1.030163002
 31
0.0
  0
LINE
  5
83
330
1F
100
AcDbEntity
  8
0
  6
Continuous
 62
     7
370
     0
100
AcDbLine
 10
6.7571952625
 20
0.035557648
 30
0.0
 11
6.7571952625
 21
1.030163002
 31
0.0
  0
LINE
  5
84
330
1F
100
AcDbEntity
  8
0
  6
Continuous
 62
     7
370
     0
100
AcDbLine
 10
8.4938096065
 20
0.6756085809
 30
0.0
 11
10.9444569626
 21
0.6756085809
 31
0.0
  0
LINE
  5
85
330
1F
100
AcDbEntity
  8
0
  6
Continuous
 62
     7
370
     0
100
AcDbLine
 10
8.4938096065
 20
1.3873799542
 30
0.0
 11
8.4938096065
 21
0.035557648
 31
0.0
  0
LINE
  5
86
330
1F
100
AcDbEntity
  8
0
  6
Continuous
 62
     7
370
     0
100
AcDbLine
 10
8.4938096065
 20
1.030163002
 30
0.0
 11
6.7571952625
 21
1.030163002
 31
0.0
  0
LINE
  5
87
330
1F
100
AcDbEntity
  8
0
  6
Continuous
 62
     7
370
     0
100
AcDbLine
 10
8.4938096065
 20
0.3598787426
 30
0.0
 11
10.9444569626
 21
0.3598787426
 31
0.0
  0
LINE
  5
88
330
1F
100
AcDbEntity
  8
0
  6
Continuous
 62
     7
370
     0
100
AcDbLine
 10
8.4938096065
 20
0.6662079686
 30
0.0
 11
6.7571952625
 21
0.6662079686
 31
0.0
  0
LINE
  5
89
330
1F
100
AcDbEntity
  8
0
  6
Continuous
 62
     7
370
     0
100
AcDbLine
 10
8.4938096065
 20
0.8459606517
 30
0.0
 11
6.7571952625
 21
0.8459606517
 31
0.0
  0
LINE
  5
8A
330
1F
100
AcDbEntity
  8
0
  6
Continuous
 62
     7
370
     0
100
AcDbLine
 10
7.3281027587
 20
1.030163002
 30
0.0
 11
7.3281027587
 21
0.4840901186
 31
0.0
  0
LINE
  5
8B
330
1F
100
AcDbEntity
  8
0
  6
Continuous
 62
     7
370
     0
100
AcDbLine
 10
7.8037240401
 20
1.030163002
 30
0.0
 11
7.8037240401
 21
0.4840901186
 31
0.0
  0
LINE
  5
8C
330
1F
100
AcDbEntity
  8
0
  6
Continuous
 62
     7
370
     0
100
AcDbLine
 10
9.990119718
 20
0.3598787426
 30
0.0
 11
9.990119718
 21
0.035557648
 31
0.0
  0
LINE
  5
8D
330
1F
100
AcDbEntity
  8
0
  6
Continuous
 62
     7
370
     0
100
AcDbLine
 10
6.7571952625
 20
0.4840901186
 30
0.0
 11
6.7571952625
 21
0.297745443
 31
0.0
  0
LINE
  5
8E
330
1F
100
AcDbEntity
  8
0
  6
Continuous
 62
     7
370
     0
100
AcDbLine
 10
6.7571952625
 20
0.297745443
 30
0.0
 11
8.4938096065
 21
0.297745443
 31
0.0
  0
LINE
  5
8F
330
1F
100
AcDbEntity
  8
0
  6
Continuous
 62
     7
370
     0
100
AcDbLine
 10
6.7571952625
 20
0.297745443
 30
0.0
 11
6.7571952625
 21
1.3873799542
 31
0.0
  0
LINE
  5
90
330
1F
100
AcDbEntity
  8
0
  6
Continuous
 62
     7
370
     0
100
AcDbLine
 10
6.7571952625
 20
1.3873799542
 30
0.0
 11
8.4938096065
 21
1.3873799542
 31
0.0
  0
LINE
  5
91
330
1F
100
AcDbEntity
  8
0
  6
Continuous
 62
     7
370
     0
100
AcDbLine
 10
10.6365495992
 20
0.6756085809
 30
0.0
 11
10.6365495992
 21
0.3598787426
 31
0.0
  0
LINE
  5
92
330
1F
100
AcDbEntity
  8
0
  6
Continuous
 62
     7
370
     0
100
AcDbLine
 10
8.4938096065
 20
1.3873799542
 30
0.0
 11
10.9444569626
 21
1.3873799542
 31
0.0
  0
LINE
  5
93
330
1F
100
AcDbEntity
  8
0
  6
Continuous
 62
     7
370
     0
100
AcDbLine
 10
10.9444569626
 20
1.3873799542
 30
0.0
 11
10.9444569626
 21
1.9698084888
 31
0.0
  0
LINE
  5
94
330
1F
100
AcDbEntity
  8
0
  6
Continuous
 62
     7
370
     0
100
AcDbLine
 10
8.4938096065
 20
0.9800288797
 30
0.0
 11
10.9444569626
 21
0.9800288797
 31
0.0
  0
INSERT
  5
95
330
1F
100
AcDbEntity
  8
0
  6
Continuous
 62
     7
100
AcDbBlockReference
  2
Third Angle Projection Block
 10
4.6348905679
 20
0.6108753523
 30
0.0
 41
0.8
 42
0.8
 43
0.8
  0
MTEXT
  5
97
330
1F
100
AcDbEntity
  8
0
  6
Continuous
 62
     7
370
     0
100
AcDbMText
 10
10.7892734632
 20
0.5227176726
 30
0.0
 40
0.125
 41
0.0
 71
     2
 72
     1
  1
A
  7
SLDTEXTSTYLE0
 73
     1
 44
1.0
  0
MTEXT
  5
98
330
1F
100
AcDbEntity
  8
0
  6
Continuous
 62
     7
370
     0
100
AcDbMText
 10
9.2283306884
 20
0.2019943461
 30
0.0
 40
0.125
 41
0.0
 71
     2
 72
     1
  1
LA4538-ML
  7
SLDTEXTSTYLE0
 73
     1
 44
1.0
  0
MTEXT
  5
99
330
1F
100
AcDbEntity
  8
0
  6
Continuous
 62
     7
370
     0
100
AcDbMText
 10
8.5204715199
 20
0.6623747189
 30
0.0
 40
0.0833333333
 41
0.0
 71
     1
 72
     1
  1
MATERIAL
  7
SLDTEXTSTYLE0
 73
     1
 44
1.0
  0
MTEXT
  5
9A
330
1F
100
AcDbEntity
  8
0
  6
Continuous
 62
     7
370
     0
100
AcDbMText
 10
6.8594860853
 20
0.7895493672
 30
0.0
 40
0.0729166667
 41
0.0
 71
     1
 72
     1
  1
DRAWN
  7
SLDTEXTSTYLE0
 73
     1
 44
1.0
  0
MTEXT
  5
9B
330
1F
100
AcDbEntity
  8
0
  6
Continuous
 62
     7
370
     0
100
AcDbMText
 10
6.7872445848
 20
0.613335314
 30
0.0
 40
0.0729166667
 41
0.0
 71
     1
 72
     1
  1
APPROVAL
  7
SLDTEXTSTYLE0
 73
     1
 44
1.0
  0
MTEXT
  5
9C
330
1F
100
AcDbEntity
  8
0
  6
Continuous
 62
     7
370
     0
100
AcDbMText
 10
10.6936137314
 20
0.6373332609
 30
0.0
 40
0.0833333333
 41
0.0
 71
     1
 72
     1
  1
REV
  7
SLDTEXTSTYLE0
 73
     1
 44
1.0
  0
MTEXT
  5
9D
330
1F
100
AcDbEntity
  8
0
  6
Continuous
 62
     7
370
     0
100
AcDbMText
 10
7.4919633718
 20
0.7999100272
 30
0.0
 40
0.0833333333
 41
0.0
 71
     1
 72
     1
  1
GG
  7
SLDTEXTSTYLE0
 73
     1
 44
1.0
  0
MTEXT
  5
9E
330
1F
100
AcDbEntity
  8
0
  6
Continuous
 62
     7
370
     0
100
AcDbMText
 10
7.4919633718
 20
0.623695974
 30
0.0
 40
0.0833333333
 41
0.0
 71
     1
 72
     1
  1
DD
  7
SLDTEXTSTYLE0
 73
     1
 44
1.0
  0
MTEXT
  5
9F
330
1F
100
AcDbEntity
  8
0
  6
Continuous
 62
     7
370
     0
100
AcDbMText
 10
7.8687497515
 20
0.7999100272
 30
0.0
 40
0.0833333333
 41
0.0
 71
     1
 72
     1
  1
13/OCT/15
  7
SLDTEXTSTYLE0
 73
     1
 44
1.0
  0
MTEXT
  5
A0
330
1F
100
AcDbEntity
  8
0
  6
Continuous
 62
     7
370
     0
100
AcDbMText
 10
8.0163191884
 20
0.9772495896
 30
0.0
 40
0.0833333333
 41
0.0
 71
     1
 72
     1
  1
DATE
  7
SLDTEXTSTYLE0
 73
     1
 44
1.0
  0
MTEXT
  5
A1
330
1F
100
AcDbEntity
  8
0
  6
Continuous
 62
     7
370
     0
100
AcDbMText
 10
7.8687497515
 20
0.623695974
 30
0.0
 40
0.0833333333
 41
0.0
 71
     1
 72
     1
  1
13/OCT/15
  7
SLDTEXTSTYLE0
 73
     1
 44
1.0
  0
MTEXT
  5
A3
330
1F
100
AcDbEntity
  8
0
  6
Continuous
 62
     7
370
     0
100
AcDbMText
 10
9.0316104912
 20
1.0943207896
 30
0.0
 40
0.0833333333
 41
0.0
 71
     1
 72
     1
  1
w w w . t h o r  l a b s . c o m
  7
SLDTEXTSTYLE1
 73
     1
 44
1.0
  0
MTEXT
  5
A4
330
1F
100
AcDbEntity
  8
0
  6
Continuous
 62
     7
370
     0
100
AcDbMText
 10
8.5315119501
 20
0.328719653
 30
0.0
 40
0.0833333333
 41
0.0
 71
     1
 72
     1
  1
ITEM #
  7
SLDTEXTSTYLE0
 73
     1
 44
1.0
  0
MTEXT
  5
A5
330
1F
100
AcDbEntity
  8
0
  6
Continuous
 62
     7
370
     0
100
AcDbMText
 10
10.0209370115
 20
0.328719653
 30
0.0
 40
0.0833333333
 41
0.0
 71
     1
 72
     1
  1
APPROX WEIGHT
  7
SLDTEXTSTYLE0
 73
     1
 44
1.0
  0
MTEXT
  5
A6
330
1F
100
AcDbEntity
  8
0
  6
Continuous
 62
     7
370
     0
100
AcDbMText
 10
9.5949135982
 20
0.5414715262
 30
0.0
 40
0.125
 41
0.0
 71
     2
 72
     1
  1
SEE TABLE
  7
SLDTEXTSTYLE0
 73
     1
 44
1.0
  0
MTEXT
  5
A8
330
1F
100
AcDbEntity
  8
0
  6
Continuous
 62
     7
370
     0
100
AcDbMText
 10
10.4826226539
 20
0.2019943461
 30
0.0
 40
0.125
 41
0.0
 71
     2
 72
     1
  1
33 g
  7
SLDTEXTSTYLE2
 73
     1
 44
1.0
  0
INSERT
  5
AE
330
1F
100
AcDbEntity
  8
0
  6
Continuous
 62
     7
370
     0
100
AcDbBlockReference
  2
SW_NOTE_0
 10
6.8835832285
 20
0.1754273811
 30
0.0
  0
INSERT
  5
B4
330
1F
100
AcDbEntity
  8
0
  6
Continuous
 62
     7
370
     0
100
AcDbBlockReference
  2
SW_NOTE_1
 10
6.8719828753
 20
1.2001390658
 30
0.0
  0
MTEXT
  5
B5
330
1F
100
AcDbEntity
  8
0
  6
Continuous
 62
     7
370
     0
100
AcDbMText
 10
7.3987149145
 20
0.9772495896
 30
0.0
 40
0.0833333333
 41
0.0
 71
     1
 72
     1
  1
NAME
  7
SLDTEXTSTYLE0
 73
     1
 44
1.0
  0
INSERT
  5
BC
330
1F
100
AcDbEntity
  8
0
  6
Continuous
 62
     7
370
     0
100
AcDbBlockReference
  2
SW_NOTE_2
 10
8.5544172856
 20
0.8160048101
 30
0.0
  0
MTEXT
  5
BD
330
1F
100
AcDbEntity
  8
0
  6
Continuous
 62
     7
370
     0
100
AcDbMText
 10
7.0281258754
 20
0.4200025137
 30
0.0
 40
0.0625
 41
0.0
 71
     1
 72
     1
  1
COPYRIGHT © 2015 BY THORLABS
  7
SLDTEXTSTYLE0
 73
     1
 44
1.0
  0
INSERT
  5
C3
330
1F
100
AcDbEntity
  8
0
  6
Continuous
 62
     7
370
     0
100
AcDbBlockReference
  2
SW_NOTE_3
 10
2.1096529316
 20
0.3219551564
 30
0.0
  0
INSERT
  5
D6
330
1F
100
AcDbEntity
  8
0
  6
Continuous
 62
     7
370
     0
100
AcDbBlockReference
  2
SW_NOTE_4
 10
0.2229009106
 20
1.7636814979
 30
0.0
  0
INSERT
  5
100
330
1F
100
AcDbEntity
  8
0
  6
Continuous
 62
     7
370
     0
100
AcDbBlockReference
  2
SW_TABLEANNOTATION_0
 10
0.0612779343
 20
8.4504327236
 30
0.0
  0
ARC
  5
101
330
1F
100
AcDbEntity
  8
0
  6
Continuous
 62
     7
370
     0
100
AcDbCircle
 10
2.5887119317
 20
3.8958849846
 30
0.0
 40
1.000179491924312
100
AcDbArc
 50
180.8593146732
 51
359.1406853268
  0
LINE
  5
102
330
1F
100
AcDbEntity
  8
0
  6
Continuous
 62
     7
370
     0
100
AcDbLine
 10
3.5887789455
 20
3.8808849849
 30
0.0
 11
3.6061013254
 21
3.8808849849
 31
0.0
  0
LINE
  5
103
330
1F
100
AcDbEntity
  8
0
  6
Continuous
 62
     7
370
     0
100
AcDbLine
 10
1.571322538
 20
3.8808849849
 30
0.0
 11
1.5886449179
 21
3.8808849849
 31
0.0
  0
LINE
  5
104
330
1F
100
AcDbEntity
  8
0
  6
Continuous
 62
     7
370
     0
100
AcDbLine
 10
1.5886449179
 20
3.8808849849
 30
0.0
 11
1.6288291403
 21
3.8808849849
 31
0.0
  0
ARC
  5
105
330
1F
100
AcDbEntity
  8
0
  6
Continuous
 62
     7
370
     0
100
AcDbCircle
 10
2.5887119317
 20
3.8958849846
 30
0.0
 40
0.9600000000000013
100
AcDbArc
 50
180.8952829866
 51
359.1047170134
  0
LINE
  5
106
330
1F
100
AcDbEntity
  8
0
  6
Continuous
 62
     7
370
     0
100
AcDbLine
 10
3.548594723
 20
3.8808849849
 30
0.0
 11
3.5887789455
 21
3.8808849849
 31
0.0
  0
ARC
  5
107
330
1F
100
AcDbEntity
  8
0
  6
Continuous
 62
     7
370
     0
100
AcDbCircle
 10
2.5887119317
 20
3.8958849846
 30
0.0
 40
1.000179491924312
100
AcDbArc
 50
0.8593146732
 51
179.1406853268
  0
LINE
  5
108
330
1F
100
AcDbEntity
  8
0
  6
Continuous
 62
     7
370
     0
100
AcDbLine
 10
3.6061013254
 20
3.9108849842
 30
0.0
 11
3.5887789455
 21
3.9108849842
 31
0.0
  0
LINE
  5
109
330
1F
100
AcDbEntity
  8
0
  6
Continuous
 62
     7
370
     0
100
AcDbLine
 10
1.5886449179
 20
3.9108849842
 30
0.0
 11
1.571322538
 21
3.9108849842
 31
0.0
  0
LINE
  5
10A
330
1F
100
AcDbEntity
  8
0
  6
Continuous
 62
     7
370
     0
100
AcDbLine
 10
3.5887789455
 20
3.9108849842
 30
0.0
 11
3.548594723
 21
3.9108849842
 31
0.0
  0
ARC
  5
10B
330
1F
100
AcDbEntity
  8
0
  6
Continuous
 62
     7
370
     0
100
AcDbCircle
 10
2.5887119317
 20
3.8958849846
 30
0.0
 40
0.9600000000000013
100
AcDbArc
 50
0.8952829866
 51
179.1047170134
  0
LINE
  5
10C
330
1F
100
AcDbEntity
  8
0
  6
Continuous
 62
     7
370
     0
100
AcDbLine
 10
1.6288291403
 20
3.9108849842
 30
0.0
 11
1.5886449179
 21
3.9108849842
 31
0.0
  0
ARC
  5
10D
330
1F
100
AcDbEntity
  8
0
  6
Continuous
 62
     7
370
     0
100
AcDbCircle
 10
2.5887119317
 20
3.8958849846
 30
0.0
 40
0.9500000000000001
100
AcDbArc
 50
180.9047077972
 51
359.0952922028
  0
LINE
  5
10E
330
1F
100
AcDbEntity
  8
0
  6
Continuous
 62
     7
370
     0
100
AcDbLine
 10
3.5385934919
 20
3.8808849849
 30
0.0
 11
3.548594723
 21
3.8808849849
 31
0.0
  0
LINE
  5
10F
330
1F
100
AcDbEntity
  8
0
  6
Continuous
 62
     7
370
     0
100
AcDbLine
 10
1.6288291403
 20
3.8808849849
 30
0.0
 11
1.6388303714
 21
3.8808849849
 31
0.0
  0
ARC
  5
110
330
1F
100
AcDbEntity
  8
0
  6
Continuous
 62
     7
370
     0
100
AcDbCircle
 10
2.5887119317
 20
3.8958849846
 30
0.0
 40
0.9500000000000001
100
AcDbArc
 50
0.9047077972
 51
179.0952922028
  0
LINE
  5
111
330
1F
100
AcDbEntity
  8
0
  6
Continuous
 62
     7
370
     0
100
AcDbLine
 10
3.548594723
 20
3.9108849842
 30
0.0
 11
3.5385934919
 21
3.9108849842
 31
0.0
  0
LINE
  5
112
330
1F
100
AcDbEntity
  8
0
  6
Continuous
 62
     7
370
     0
100
AcDbLine
 10
1.6388303714
 20
3.9108849842
 30
0.0
 11
1.6288291403
 21
3.9108849842
 31
0.0
  0
ARC
  5
113
330
1F
100
AcDbEntity
  8
0
  6
Continuous
 62
     7
370
     0
100
AcDbCircle
 10
2.5887119317
 20
3.8958849846
 30
0.0
 40
0.9499999999999995
100
AcDbArc
 50
179.0952922028
 51
180.9047077972
  0
ARC
  5
114
330
1F
100
AcDbEntity
  8
0
  6
Continuous
 62
     7
370
     0
100
AcDbCircle
 10
2.5887119317
 20
3.8958849846
 30
0.0
 40
0.9500000000000006
100
AcDbArc
 50
359.0952922028
 51
0.9047077972
  0
CIRCLE
  5
115
330
1F
100
AcDbEntity
  8
0
  6
Continuous
 62
     7
370
     0
100
AcDbCircle
 10
2.5887119317
 20
3.8958849846
 30
0.0
 40
1.1
  0
CIRCLE
  5
116
330
1F
100
AcDbEntity
  8
0
  6
Continuous
 62
     7
370
     0
100
AcDbCircle
 10
2.5887119317
 20
3.8958849846
 30
0.0
 40
1.090000000000001
  0
CIRCLE
  5
117
330
1F
100
AcDbEntity
  8
0
  6
Continuous
 62
     7
370
     0
100
AcDbCircle
 10
2.5887119317
 20
3.8958849846
 30
0.0
 40
1.034820508075689
  0
CIRCLE
  5
118
330
1F
100
AcDbEntity
  8
0
  6
Continuous
 62
     7
370
     0
100
AcDbCircle
 10
2.5887119317
 20
3.8958849846
 30
0.0
 40
1.0175
  0
DIMENSION
  5
119
330
1F
100
AcDbEntity
  8
0
  6
Continuous
 62
     7
370
     0
100
AcDbDimension
  2
_D
 10
2.0387119317
 20
2.9432570404
 30
0.0
 11
3.8337266536
 21
5.331574878
 31
0.0
 70
   163
  1
<>
 71
     1
 42
-1.0
  3
SLDDIMSTYLE0
100
AcDbDiametricDimension
 15
3.1387119317
 25
4.8485129287
 35
0.0
 40
0.0
  0
LINE
  5
12A
330
1F
100
AcDbEntity
  8
0
  6
PHANTOM
 62
     7
370
    30
100
AcDbLine
 10
2.5887119317
 20
5.2598849846
 30
0.0
 11
2.5887119317
 21
2.5318849846
 31
0.0
  0
LINE
  5
12B
330
1F
100
AcDbEntity
  8
0
  6
Continuous
 62
     7
370
    30
100
AcDbLine
 10
2.5887119317
 20
5.2598849846
 30
0.0
 11
2.2387119317
 21
5.2598849846
 31
0.0
  0
SOLID
  5
12C
330
1F
100
AcDbEntity
  8
0
  6
Continuous
 62
     7
370
    30
100
AcDbTrace
 10
2.2387119317
 20
5.2598849846
 30
0.0
 11
2.3887119317
 21
5.2348849846
 31
0.0
 12
2.3887119317
 22
5.2848849846
 32
0.0
 13
2.3887119317
 23
5.2848849846
 33
0.0
  0
LINE
  5
12D
330
1F
100
AcDbEntity
  8
0
  6
Continuous
 62
     7
370
    30
100
AcDbLine
 10
2.5887119317
 20
2.5318849846
 30
0.0
 11
2.2387119317
 21
2.5318849846
 31
0.0
  0
SOLID
  5
12E
330
1F
100
AcDbEntity
  8
0
  6
Continuous
 62
     7
370
    30
100
AcDbTrace
 10
2.2387119317
 20
2.5318849846
 30
0.0
 11
2.3887119317
 21
2.5068849846
 31
0.0
 12
2.3887119317
 22
2.5568849846
 32
0.0
 13
2.3887119317
 23
2.5568849846
 33
0.0
  0
MTEXT
  5
12F
330
1F
100
AcDbEntity
  8
0
  6
Continuous
 62
     7
100
AcDbMText
 10
2.1046626688
 20
5.3425962319
 30
0.0
 40
0.1041666667
 41
0.0
 71
     1
 72
     1
  1
A
  7
SLDTEXTSTYLE0
 73
     1
 44
1.0
  0
MTEXT
  5
130
330
1F
100
AcDbEntity
  8
0
  6
Continuous
 62
     7
100
AcDbMText
 10
2.1046626688
 20
2.6145962319
 30
0.0
 40
0.1041666667
 41
0.0
 71
     1
 72
     1
  1
A
  7
SLDTEXTSTYLE0
 73
     1
 44
1.0
  0
LINE
  5
131
330
1F
100
AcDbEntity
  8
0
  6
Continuous
 62
     7
370
     0
100
AcDbLine
 10
8.4844914398
 20
7.4520673654
 30
0.0
 11
8.4844914398
 21
7.4439032843
 31
0.0
  0
LINE
  5
132
330
1F
100
AcDbEntity
  8
0
  6
Continuous
 62
     7
370
     0
100
AcDbLine
 10
9.2551125634
 20
6.1090037058
 30
0.0
 11
9.2621824819
 21
6.1049210018
 31
0.0
  0
LINE
  5
133
330
1F
100
AcDbEntity
  8
0
  6
Continuous
 62
     7
370
     0
100
AcDbLine
 10
8.9739831052
 20
8.1067321532
 30
0.0
 11
8.7123535962
 21
7.9556966525
 31
0.0
  0
LINE
  5
134
330
1F
100
AcDbEntity
  8
0
  6
Continuous
 62
     7
370
     0
100
AcDbLine
 10
9.8122642021
 20
6.0503891553
 30
0.0
 11
10.0738937111
 21
6.201424656
 31
0.0
  0
LINE
  5
135
330
1F
100
AcDbEntity
  8
0
  6
Continuous
 62
     7
370
     0
100
AcDbLine
 10
10.3017558675
 20
6.7050539431
 30
0.0
 11
10.3017558675
 21
6.7132180242
 31
0.0
  0
LINE
  5
136
330
1F
100
AcDbEntity
  8
0
  6
Continuous
 62
     7
370
     0
100
AcDbLine
 10
9.531134744
 20
8.0481176027
 30
0.0
 11
9.5240648254
 21
8.0522003067
 31
0.0
  0
LWPOLYLINE
  5
137
330
1F
100
AcDbEntity
  8
0
  6
Continuous
 62
     7
370
     0
100
AcDbPolyline
 90
       20
 70
   128
 43
0.0
 10
8.8559290822
 20
7.9232519105
 10
8.8487978368
 20
7.9191985077
 10
8.8280112024
 20
7.9059903106
 10
8.8081736467
 20
7.8912342823
 10
8.7893212062
 20
7.8749572283
 10
8.7714881281
 20
7.8571887171
 10
8.7547068075
 20
7.8379610269
 10
8.7390077291
 20
7.8173090862
 10
8.7244194116
 20
7.795270411
 10
8.7109683559
 20
7.7718850365
 10
8.6986789968
 20
7.747195444
 10
8.6875736592
 20
7.7212464842
 10
8.6776725167
 20
7.6940852957
 10
8.6689935556
 20
7.6657612189
 10
8.6615525418
 20
7.6363257068
 10
8.6553629928
 20
7.6058322316
 10
8.6504361522
 20
7.5743361871
 10
8.6467809701
 20
7.5418947885
 10
8.6444040864
 20
7.5085669682
 10
8.6433098189
 20
7.4744132692
  0
LINE
  5
138
330
1F
100
AcDbEntity
  8
0
  6
Continuous
 62
     7
370
     0
100
AcDbLine
 10
8.6433098189
 20
7.4744132692
 30
0.0
 11
8.6381320839
 21
7.4855663931
 31
0.0
  0
LWPOLYLINE
  5
139
330
1F
100
AcDbEntity
  8
0
  6
Continuous
 62
     7
370
     0
100
AcDbPolyline
 90
       18
 70
   128
 43
0.0
 10
8.6381320839
 20
7.4855663931
 10
8.6392141163
 20
7.5198578133
 10
8.6415664312
 20
7.5533325098
 10
8.6451848685
 20
7.5859312857
 10
8.6500630295
 20
7.6175964932
 10
8.6561922875
 20
7.6482721354
 10
8.6635618037
 20
7.6779039652
 10
8.6721585456
 20
7.7064395817
 10
8.6819673108
 20
7.7338285222
 10
8.6929707534
 20
7.7600223521
 10
8.7051494149
 20
7.7849747501
 10
8.7184817584
 20
7.8086415901
 10
8.7329442069
 20
7.8309810198
 10
8.7485111851
 20
7.8519535338
 10
8.7651551641
 20
7.8715220442
 10
8.7828467107
 20
7.8896519462
 10
8.8015545391
 20
7.9063111785
 10
8.8034456881
 20
7.9078670675
  0
LWPOLYLINE
  5
13A
330
1F
100
AcDbEntity
  8
0
  6
Continuous
 62
     7
370
     0
100
AcDbPolyline
 90
        3
 70
   128
 43
0.0
 10
8.6486952199
 20
7.4713043433
 10
8.6487044798
 20
7.4702748586
 10
8.6487386856
 20
7.4671932296
  0
LINE
  5
13B
330
1F
100
AcDbEntity
  8
0
  6
Continuous
 62
     7
370
     0
100
AcDbLine
 10
8.6381320839
 20
7.4610701687
 30
0.0
 11
8.6487386856
 21
7.4671932296
 31
0.0
  0
LWPOLYLINE
  5
13C
330
1F
100
AcDbEntity
  8
0
  6
Continuous
 62
     7
370
     0
100
AcDbPolyline
 90
       55
 70
   128
 43
0.0
 10
9.8163982592
 20
6.153191626
 10
9.8059496352
 20
6.1494215807
 10
9.7818974972
 20
6.1421106238
 10
9.7570949146
 20
6.1364193582
 10
9.7315857482
 20
6.1323578483
 10
9.7054151087
 20
6.1299332766
 10
9.6786292764
 20
6.1291499308
 10
9.6512756193
 20
6.130009196
 10
9.62340251
 20
6.1325095527
 10
9.5950592393
 20
6.1366465794
 10
9.5662959297
 20
6.14241296
 10
9.5371634462
 20
6.1497984973
 10
9.507713307
 20
6.1587901306
 10
9.4779975918
 20
6.1693719591
 10
9.44806885
 20
6.1815252698
 10
9.4179800078
 20
6.1952285708
 10
9.3877842744
 20
6.2104576291
 10
9.3575350482
 20
6.2271855135
 10
9.3272858219
 20
6.2453826423
 10
9.2970900885
 20
6.2650168358
 10
9.2670012463
 20
6.2860533725
 10
9.2370725045
 20
6.3084550515
 10
9.2073567893
 20
6.3321822575
 10
9.1779066501
 20
6.3571930312
 10
9.1487741666
 20
6.3834431433
 10
9.120010857
 20
6.4108861732
 10
9.0916675863
 20
6.4394735903
 10
9.063794477
 20
6.4691548406
 10
9.03644082
 20
6.4998774355
 10
9.0096549876
 20
6.5315870451
 10
8.9834843481
 20
6.564227594
 10
8.9579751817
 20
6.5977413604
 10
8.9331725991
 20
6.6320690784
 10
8.9091204611
 20
6.6671500428
 10
8.8858613017
 20
6.7029222161
 10
8.8634362526
 20
6.7393223387
 10
8.8418849703
 20
6.7762860403
 10
8.8212455662
 20
6.8137479543
 10
8.8015545391
 20
6.8516418328
 10
8.7828467107
 20
6.889900664
 10
8.7651551641
 20
6.9284567908
 10
8.7485111851
 20
6.9672420305
 10
8.7329442069
 20
7.0061877949
 10
8.7184817584
 20
7.0452252122
 10
8.7051494149
 20
7.0842852484
 10
8.6929707534
 20
7.1232988295
 10
8.6819673108
 20
7.1621969638
 10
8.6721585456
 20
7.2009108636
 10
8.6635618037
 20
7.2393720671
 10
8.6561922875
 20
7.2775125591
 10
8.6500630295
 20
7.315264892
 10
8.6451848685
 20
7.3525623043
 10
8.6415664312
 20
7.389338839
 10
8.6392141163
 20
7.4255294604
 10
8.6381320839
 20
7.4610701687
  0
LWPOLYLINE
  5
13D
330
1F
100
AcDbEntity
  8
0
  6
Continuous
 62
     7
370
     0
100
AcDbPolyline
 90
       25
 70
   128
 43
0.0
 10
8.6717243395
 20
7.4580099155
 10
8.6728156168
 20
7.4912167862
 10
8.6751713042
 20
7.5236077395
 10
8.6787870063
 20
7.5551223377
 10
8.6836559767
 20
7.5857017784
 10
8.6897691305
 20
7.6152890041
 10
8.6971150612
 20
7.6438288085
 10
8.7056800622
 20
7.6712679399
 10
8.7154481524
 20
7.6975552
 10
8.7264011055
 20
7.7226415401
 10
8.7385184847
 20
7.7464801521
 10
8.7517776804
 20
7.769026556
 10
8.7661539526
 20
7.7902386829
 10
8.7816204769
 20
7.8100769535
 10
8.7981483946
 20
7.8285043521
 10
8.8157068666
 20
7.8454864953
 10
8.8342631309
 20
7.8609916965
 10
8.8537825638
 20
7.8749910248
 10
8.8742287444
 20
7.8874583592
 10
8.8955635224
 20
7.8983704372
 10
8.9177470899
 20
7.9077068981
 10
8.940738055
 20
7.9154503212
 10
8.9644935193
 20
7.9215862582
 10
8.9889691579
 20
7.9261032603
 10
9.0022012611
 20
7.9278360173
  0
LINE
  5
13E
330
1F
100
AcDbEntity
  8
0
  6
Continuous
 62
     7
370
     0
100
AcDbLine
 10
8.6717243395
 20
7.4580099155
 30
0.0
 11
8.6433098189
 21
7.4744132692
 31
0.0
  0
LWPOLYLINE
  5
13F
330
1F
100
AcDbEntity
  8
0
  6
Continuous
 62
     7
370
     0
100
AcDbPolyline
 90
       25
 70
   128
 43
0.0
 10
9.0170875847
 20
7.9256901906
 10
9.0050159521
 20
7.924093502
 10
8.980796844
 20
7.9196263189
 10
8.9572901918
 20
7.913557389
 10
8.9345398467
 20
7.9058980337
 10
8.9125882492
 20
7.8966625415
 10
8.8914763497
 20
7.8858681411
 10
8.8712435321
 20
7.8735349693
 10
8.8519275404
 20
7.8596860333
 10
8.8335644083
 20
7.8443471682
 10
8.8161883919
 20
7.8275469885
 10
8.7998319059
 20
7.8093168345
 10
8.7845254632
 20
7.7896907143
 10
8.7702976176
 20
7.7687052403
 10
8.757174911
 20
7.7463995604
 10
8.7451818235
 20
7.7228152856
 10
8.7343407282
 20
7.697996412
 10
8.7246718489
 20
7.6719892388
 10
8.7161932227
 20
7.644842282
 10
8.7089206665
 20
7.6166061838
 10
8.702867747
 20
7.5873336183
 10
8.6980457559
 20
7.5570791929
 10
8.6944636885
 20
7.525899347
 10
8.6921282271
 20
7.4938522459
 10
8.6910437285
 20
7.460997673
  0
LINE
  5
140
330
1F
100
AcDbEntity
  8
0
  6
Continuous
 62
     7
370
     0
100
AcDbLine
 10
8.6910437285
 20
7.460997673
 30
0.0
 11
8.6717243395
 21
7.4580099155
 31
0.0
  0
LWPOLYLINE
  5
141
330
1F
100
AcDbEntity
  8
0
  6
Continuous
 62
     7
370
     0
100
AcDbPolyline
 90
       61
 70
   128
 43
0.0
 10
8.6910437285
 20
7.4365014486
 10
8.6921282271
 20
7.4023947404
 10
8.6944636885
 20
7.3676511729
 10
8.6980457559
 20
7.33233556
 10
8.702867747
 20
7.2965137822
 10
8.7089206665
 20
7.2602526646
 10
8.7161932227
 20
7.2236198517
 10
8.7246718489
 20
7.1866836815
 10
8.7343407282
 20
7.1495130578
 10
8.7451818235
 20
7.112177322
 10
8.757174911
 20
7.0747461232
 10
8.7702976176
 20
7.0372892887
 10
8.7845254632
 20
6.9998766938
 10
8.7998319059
 20
6.9625781311
 10
8.8161883919
 20
6.9254631804
 10
8.8335644083
 20
6.8886010791
 10
8.8519275404
 20
6.852060593
 10
8.8712435321
 20
6.8159098877
 10
8.8914763497
 20
6.7802164019
 10
8.9125882492
 20
6.7450467211
 10
8.9345398467
 20
6.710466454
 10
8.9572901918
 20
6.6765401094
 10
8.980796844
 20
6.6433309765
 10
9.0050159521
 20
6.6109010064
 10
9.0299023357
 20
6.5793106966
 10
9.0554095696
 20
6.5486189785
 10
9.0814900704
 20
6.518883107
 10
9.1080951854
 20
6.4901585539
 10
9.1351752832
 20
6.4624989044
 10
9.1626798462
 20
6.4359557571
 10
9.1905575651
 20
6.410578628
 10
9.2187564344
 20
6.3864148576
 10
9.2472238495
 20
6.3635095232
 10
9.275906705
 20
6.3419053541
 10
9.3047514934
 20
6.3216426528
 10
9.3337044051
 20
6.302759219
 10
9.3627114291
 20
6.2852902794
 10
9.391718453
 20
6.269268422
 10
9.4206713647
 20
6.2547235355
 10
9.4495161531
 20
6.241682753
 10
9.4781990086
 20
6.230170402
 10
9.5066664238
 20
6.2202079586
 10
9.5348652931
 20
6.2118140075
 10
9.5627430119
 20
6.2050042075
 10
9.5902475749
 20
6.1997912623
 10
9.6173276727
 20
6.1961848964
 10
9.6439327877
 20
6.1941918376
 10
9.6700132886
 20
6.1938158037
 10
9.6955205225
 20
6.1950574964
 10
9.720406906
 20
6.1979145993
 10
9.7446260141
 20
6.2023817824
 10
9.7681326664
 20
6.2084507124
 10
9.7908830114
 20
6.2161100677
 10
9.8128346089
 20
6.2253455598
 10
9.8339465084
 20
6.2361399602
 10
9.854179326
 20
6.2484731321
 10
9.8734953177
 20
6.262322068
 10
9.8918584499
 20
6.2776609331
 10
9.9092344662
 20
6.2944611129
 10
9.9255909522
 20
6.3126912669
 10
9.9386710099
 20
6.3292879011
  0
LINE
  5
142
330
1F
100
AcDbEntity
  8
0
  6
Continuous
 62
     7
370
     0
100
AcDbLine
 10
8.6964739493
 20
7.4396362484
 30
0.0
 11
8.6910437285
 21
7.4365014486
 31
0.0
  0
ARC
  5
143
330
1F
100
AcDbEntity
  8
0
  6
Continuous
 62
     7
370
     0
100
AcDbCircle
 10
9.5921279212
 20
7.4518843606
 30
0.0
 40
0.8957377147082615
100
AcDbArc
 50
179.2165262291
 51
180.7834737709
  0
LINE
  5
144
330
1F
100
AcDbEntity
  8
0
  6
Continuous
 62
     7
370
     0
100
AcDbLine
 10
8.6910437285
 20
7.460997673
 30
0.0
 11
8.6964739493
 21
7.4641324728
 31
0.0
  0
LWPOLYLINE
  5
145
330
1F
100
AcDbEntity
  8
0
  6
Continuous
 62
     7
370
     0
100
AcDbPolyline
 90
       55
 70
   128
 43
0.0
 10
9.4141035907
 20
6.3149583428
 10
9.3850041559
 20
6.3324852497
 10
9.3559593522
 20
6.3514355732
 10
9.3270237084
 20
6.3717737361
 10
9.2982515478
 20
6.3934615555
 10
9.2696968874
 20
6.416458315
 10
9.2414133355
 20
6.4407208404
 10
9.2134539915
 20
6.4662035814
 10
9.1858713462
 20
6.4928586968
 10
9.158717183
 20
6.5206361445
 10
9.1320424811
 20
6.5494837751
 10
9.1058973195
 20
6.5793474303
 10
9.080330783
 20
6.6101710441
 10
9.0553908701
 20
6.6418967486
 10
9.0311244028
 20
6.6744649818
 10
9.0075769389
 20
6.7078146005
 10
8.9847926863
 20
6.7418829941
 10
8.9628144201
 20
6.7766062029
 10
8.9416834021
 20
6.8119190376
 10
8.9214393037
 20
6.8477552021
 10
8.902120131
 20
6.8840474177
 10
8.8837621537
 20
6.9207275495
 10
8.8663998371
 20
6.9577267346
 10
8.8500657771
 20
6.9949755107
 10
8.8347906391
 20
7.0324039471
 10
8.8206031007
 20
7.069941776
 10
8.8075297974
 20
7.1075185239
 10
8.795595273
 20
7.1450636445
 10
8.7848219334
 20
7.1825066506
 10
8.7752300043
 20
7.2197772469
 10
8.7668374936
 20
7.2568054619
 10
8.7596601574
 20
7.2935217789
 10
8.7537114704
 20
7.3298572668
 10
8.7490026005
 20
7.3657437096
 10
8.7455423883
 20
7.4011137342
 10
8.7433373299
 20
7.4359009371
 10
8.742391565
 20
7.470040009
 10
8.7427068693
 20
7.5034668573
 10
8.7442826508
 20
7.5361187266
 10
8.7471159511
 20
7.5679343164
 10
8.751201451
 20
7.5988538963
 10
8.7565314804
 20
7.628819418
 10
8.7630960328
 20
7.6577746243
 10
8.7708827838
 20
7.685665155
 10
8.7798771146
 20
7.7124386484
 10
8.7900621394
 20
7.7380448401
 10
8.8014187368
 20
7.7624356571
 10
8.813925586
 20
7.7855653083
 10
8.8275592068
 20
7.8073903701
 10
8.8422940033
 20
7.8278698683
 10
8.8581023125
 20
7.8469653547
 10
8.8749544561
 20
7.8646409796
 10
8.8928187958
 20
7.8808635588
 10
8.9116617932
 20
7.8956026362
 10
8.9141414921
 20
7.8973799372
  0
LWPOLYLINE
  5
146
330
1F
100
AcDbEntity
  8
0
  6
Continuous
 62
     7
370
     0
100
AcDbPolyline
 90
       18
 70
   128
 43
0.0
 10
9.8626735276
 20
6.2542962275
 10
9.843414495
 20
6.2462111746
 10
9.8206302424
 20
6.238448919
 10
9.7970827786
 20
6.2322866235
 10
9.7728163112
 20
6.227735857
 10
9.7478763983
 20
6.2248051632
 10
9.7223098618
 20
6.2235000441
 10
9.6961647002
 20
6.22382295
 10
9.6694899983
 20
6.2257732745
 10
9.6423358351
 20
6.2293473563
 10
9.6147531898
 20
6.2345384854
 10
9.5867938458
 20
6.2413369158
 10
9.5585102939
 20
6.2497298844
 10
9.5299556335
 20
6.2597016341
 10
9.501183473
 20
6.271233444
 10
9.4722478291
 20
6.2843036645
 10
9.4432030254
 20
6.2988877574
 10
9.4141035907
 20
6.3149583428
  0
LWPOLYLINE
  5
147
330
1F
100
AcDbEntity
  8
0
  6
Continuous
 62
     7
370
     0
100
AcDbPolyline
 90
       57
 70
   128
 43
0.0
 10
8.6433098189
 20
7.4499170448
 10
8.6444040864
 20
7.4144999314
 10
8.6467809701
 20
7.3784278197
 10
8.6504361522
 20
7.3417662376
 10
8.6553629928
 20
7.3045817841
 10
8.6615525418
 20
7.2669420076
 10
8.6689935556
 20
7.228915284
 10
8.6776725167
 20
7.1905706919
 10
8.6875736592
 20
7.1519778875
 10
8.6986789968
 20
7.1132069779
 10
8.7109683559
 20
7.0743283935
 10
8.7244194116
 20
7.0354127606
 10
8.7390077291
 20
6.9965307725
 10
8.7547068075
 20
6.9577530617
 10
8.7714881281
 20
6.9191500711
 10
8.7893212062
 20
6.8807919262
 10
8.8081736467
 20
6.8427483078
 10
8.8280112024
 20
6.8050883252
 10
8.8487978368
 20
6.7678803909
 10
8.8704957893
 20
6.7311920962
 10
8.8930656437
 20
6.6950900884
 10
8.9164664001
 20
6.6596399498
 10
8.940655549
 20
6.6249060786
 10
8.9655891488
 20
6.5909515716
 10
8.9912219056
 20
6.55783811
 10
9.0175072553
 20
6.5256258473
 10
9.0443974485
 20
6.4943732995
 10
9.0718436369
 20
6.4641372397
 10
9.0997959622
 20
6.434972594
 10
9.1282036467
 20
6.4069323424
 10
9.1570150855
 20
6.3800674225
 10
9.1861779403
 20
6.3544266365
 10
9.2156392342
 20
6.3300565631
 10
9.2453454484
 20
6.3070014725
 10
9.2752426191
 20
6.2853032462
 10
9.3052764357
 20
6.2650013008
 10
9.3353923392
 20
6.2461325165
 10
9.3655356215
 20
6.22873117
 10
9.395651525
 20
6.2128288723
 10
9.4256853416
 20
6.1984545112
 10
9.4555825123
 20
6.1856341989
 10
9.4852887265
 20
6.1743912246
 10
9.5147500204
 20
6.1647460121
 10
9.5439128752
 20
6.1567160827
 10
9.5727243139
 20
6.1503160235
 10
9.6011319985
 20
6.1455574606
 10
9.6290843238
 20
6.1424490385
 10
9.6565305121
 20
6.1409964037
 10
9.6834207054
 20
6.1412021953
 10
9.7097060551
 20
6.1430660392
 10
9.7353388119
 20
6.1465845497
 10
9.7602724117
 20
6.1517513351
 10
9.7844615606
 20
6.1585570095
 10
9.807862317
 20
6.1669892099
 10
9.8304321714
 20
6.1770326184
 10
9.8521301239
 20
6.1886689904
 10
9.8559671642
 20
6.1909474442
  0
LINE
  5
148
330
1F
100
AcDbEntity
  8
0
  6
Continuous
 62
     7
370
     0
100
AcDbLine
 10
8.6381320839
 20
7.4610701687
 30
0.0
 11
8.6433098189
 21
7.4499170448
 31
0.0
  0
LINE
  5
149
330
1F
100
AcDbEntity
  8
0
  6
Continuous
 62
     7
370
     0
100
AcDbLine
 10
8.6433098189
 20
7.4499170448
 30
0.0
 11
8.6717243395
 21
7.4335136912
 31
0.0
  0
LWPOLYLINE
  5
14A
330
1F
100
AcDbEntity
  8
0
  6
Continuous
 62
     7
370
     0
100
AcDbPolyline
 90
       61
 70
   128
 43
0.0
 10
9.9330848782
 20
6.3153235775
 10
9.9193074838
 20
6.2977905445
 10
9.9027795661
 20
6.279363146
 10
9.8852210941
 20
6.2623810028
 10
9.8666648298
 20
6.2468758016
 10
9.8471453969
 20
6.2328764733
 10
9.8266992163
 20
6.2204091388
 10
9.8053644383
 20
6.2094970609
 10
9.7831808708
 20
6.2001606
 10
9.7601899057
 20
6.1924171769
 10
9.7364344414
 20
6.1862812398
 10
9.7119588028
 20
6.1817642378
 10
9.6868086585
 20
6.1788745989
 10
9.6610309355
 20
6.177617715
 10
9.634673732
 20
6.1779959311
 10
9.6077862273
 20
6.1800085416
 10
9.5804185904
 20
6.1836517912
 10
9.5526218859
 20
6.188918882
 10
9.5244479791
 20
6.1957999864
 10
9.4959494391
 20
6.2042822648
 10
9.4671794408
 20
6.2143498905
 10
9.4381916655
 20
6.2259840785
 10
9.4090402009
 20
6.2391631208
 10
9.3797794402
 20
6.2538624269
 10
9.3504639803
 20
6.2700545696
 10
9.3211485205
 20
6.2877093364
 10
9.2918877598
 20
6.3067937856
 10
9.2627362952
 20
6.3272723078
 10
9.2337485199
 20
6.3491066928
 10
9.2049785216
 20
6.3722562001
 10
9.1764799816
 20
6.3966776355
 10
9.1483060748
 20
6.4223254316
 10
9.1205093703
 20
6.4491517326
 10
9.0931417334
 20
6.4771064841
 10
9.0662542287
 20
6.5061375256
 10
9.0398970252
 20
6.5361906889
 10
9.0141193022
 20
6.5672098983
 10
8.9889691579
 20
6.5991372758
 10
8.9644935193
 20
6.6319132487
 10
8.940738055
 20
6.6654766609
 10
8.9177470899
 20
6.6997648873
 10
8.8955635224
 20
6.73471395
 10
8.8742287444
 20
6.7702586384
 10
8.8537825638
 20
6.8063326304
 10
8.8342631309
 20
6.8428686163
 10
8.8157068666
 20
6.8797984242
 10
8.7981483946
 20
6.9170531476
 10
8.7816204769
 20
6.9545632738
 10
8.7661539526
 20
6.9922588133
 10
8.7517776804
 20
7.0300694307
 10
8.7385184847
 20
7.0679245762
 10
8.7264011055
 20
7.1057536164
 10
8.7154481524
 20
7.143485967
 10
8.7056800622
 20
7.1810512239
 10
8.6971150612
 20
7.218379295
 10
8.6897691305
 20
7.2554005305
 10
8.6836559767
 20
7.2920458533
 10
8.6787870063
 20
7.3282468875
 10
8.6751713042
 20
7.3639360866
 10
8.6728156168
 20
7.3990468586
 10
8.6717243395
 20
7.4335136912
  0
LINE
  5
14B
330
1F
100
AcDbEntity
  8
0
  6
Continuous
 62
     7
370
     0
100
AcDbLine
 10
8.6717243395
 20
7.4335136912
 30
0.0
 11
8.6910437285
 21
7.4365014486
 31
0.0
  0
LINE
  5
14C
330
1F
100
AcDbEntity
  8
0
  6
Continuous
 62
     7
370
     0
100
AcDbLine
 10
8.6487386856
 20
7.4671932296
 30
0.0
 11
8.6964739493
 21
7.4396362484
 31
0.0
  0
LWPOLYLINE
  5
14D
330
1F
100
AcDbEntity
  8
0
  6
Continuous
 62
     7
370
     0
100
AcDbPolyline
 90
      119
 70
   128
 43
0.0
 10
8.4844914398
 20
7.4520673654
 10
8.4851222512
 20
7.4878698675
 10
8.4870136622
 20
7.5228859785
 10
8.4901626049
 20
7.5570589021
 10
8.4945639716
 20
7.5903332098
 10
8.5002106235
 20
7.6226549304
 10
8.5070934016
 20
7.6539716381
 10
8.5152011419
 20
7.684232537
 10
8.5245206938
 20
7.7133885438
 10
8.5350369408
 20
7.7413923674
 10
8.5467328257
 20
7.7681985854
 10
8.5595893775
 20
7.7937637181
 10
8.5735857429
 20
7.8180462988
 10
8.5886992199
 20
7.841006941
 10
8.6049052942
 20
7.8626084025
 10
8.6221776795
 20
7.8828156455
 10
8.64048836
 20
7.901595894
 10
8.6598076358
 20
7.9189186863
 10
8.6801041707
 20
7.9347559246
 10
8.7013450439
 20
7.9490819211
 10
8.7234958025
 20
7.9618734388
 10
8.7465205179
 20
7.9731097298
 10
8.7703818439
 20
7.982772569
 10
8.7950410775
 20
7.990846283
 10
8.8204582211
 20
7.9973177763
 10
8.8465920482
 20
8.0021765522
 10
8.8734001695
 20
8.0054147296
 10
8.9008391022
 20
8.0070270562
 10
8.9288643402
 20
8.0070109169
 10
8.9574304265
 20
8.0053663378
 10
8.9864910268
 20
8.0020959865
 10
9.0159990048
 20
7.9972051673
 10
9.0459064982
 20
7.9907018134
 10
9.0761649972
 20
7.9825964731
 10
9.1067254222
 20
7.9729022933
 10
9.1375382042
 20
7.961634998
 10
9.1685533648
 20
7.9488128629
 10
9.1997205971
 20
7.9344566854
 10
9.2309893479
 20
7.9185897513
 10
9.2623088991
 20
7.901237797
 10
9.2936284504
 20
7.8824289672
 10
9.3248972012
 20
7.86219377
 10
9.3560644335
 20
7.840565027
 10
9.3870795941
 20
7.81757782
 10
9.4178923761
 20
7.7932694344
 10
9.4484528011
 20
7.7676792985
 10
9.4787113001
 20
7.7408489195
 10
9.5086187935
 20
7.7128218166
 10
9.5381267714
 20
7.6836434496
 10
9.5671873718
 20
7.653361146
 10
9.5957534581
 20
7.6220240239
 10
9.6237786961
 20
7.5896829121
 10
9.6512176288
 20
7.5563902681
 10
9.6780257501
 20
7.5222000926
 10
9.7041595772
 20
7.4871678423
 10
9.7295767208
 20
7.4513503396
 10
9.7542359543
 20
7.4148056805
 10
9.7780972804
 20
7.3775931408
 10
9.8011219958
 20
7.3397730792
 10
9.8232727544
 20
7.30140684
 10
9.8445136275
 20
7.2625566534
 10
9.8648101625
 20
7.2232855345
 10
9.8841294382
 20
7.1836571813
 10
9.9024401188
 20
7.1437358711
 10
9.9197125041
 20
7.1035863564
 10
9.9359185784
 20
7.0632737598
 10
9.9510320553
 20
7.0228634686
 10
9.9650284208
 20
6.9824210283
 10
9.9778849726
 20
6.9420120368
 10
9.9895808574
 20
6.9017020376
 10
10.0000971045
 20
6.8615564137
 10
10.0094166563
 20
6.8216402813
 10
10.0175243967
 20
6.7820183847
 10
10.0244071748
 20
6.7427549906
 10
10.0300538266
 20
6.7039137845
 10
10.0344551934
 20
6.6655577669
 10
10.0376041361
 20
6.6277491514
 10
10.0394955471
 20
6.5905492638
 10
10.0401263584
 20
6.5540184424
 10
10.0394955471
 20
6.5182159403
 10
10.0376041361
 20
6.4831998293
 10
10.0344551934
 20
6.4490269056
 10
10.0300538266
 20
6.415752598
 10
10.0244071748
 20
6.3834308773
 10
10.0175243967
 20
6.3521141697
 10
10.0094166563
 20
6.3218532708
 10
10.0000971045
 20
6.292697264
 10
9.9895808574
 20
6.2646934404
 10
9.9778849726
 20
6.2378872224
 10
9.9650284208
 20
6.2123220896
 10
9.9510320553
 20
6.188039509
 10
9.9359185784
 20
6.1650788668
 10
9.9197125041
 20
6.1434774053
 10
9.9024401188
 20
6.1232701622
 10
9.8841294382
 20
6.1044899138
 10
9.8648101625
 20
6.0871671215
 10
9.8445136275
 20
6.0713298832
 10
9.8232727544
 20
6.0570038867
 10
9.8011219958
 20
6.044212369
 10
9.7780972804
 20
6.0329760779
 10
9.7542359543
 20
6.0233132388
 10
9.7295767208
 20
6.0152395248
 10
9.7041595772
 20
6.0087680315
 10
9.6780257501
 20
6.0039092556
 10
9.6512176288
 20
6.0006710782
 10
9.6237786961
 20
5.9990587515
 10
9.5957534581
 20
5.9990748908
 10
9.5671873718
 20
6.0007194699
 10
9.5381267714
 20
6.0039898213
 10
9.5086187935
 20
6.0088806404
 10
9.4787113001
 20
6.0153839944
 10
9.4484528011
 20
6.0234893347
 10
9.4178923761
 20
6.0331835145
 10
9.3870795941
 20
6.0444508098
 10
9.3560644335
 20
6.0572729449
 10
9.3248972012
 20
6.0716291224
 10
9.2936284504
 20
6.0874960564
 10
9.2623088991
 20
6.1048480108
 10
9.2621824819
 20
6.1049210018
  0
LWPOLYLINE
  5
14E
330
1F
100
AcDbEntity
  8
0
  6
Continuous
 62
     7
370
     0
100
AcDbPolyline
 90
      156
 70
   128
 43
0.0
 10
8.4844914398
 20
7.4439032843
 10
8.485124607
 20
7.4074688049
 10
8.4870230681
 20
7.370363148
 10
8.4901837041
 20
7.3326472782
 10
8.494601322
 20
7.2943831624
 10
8.5002686637
 20
7.2556336686
 10
8.5071764178
 20
7.2164624621
 10
8.5153132348
 20
7.176933901
 10
8.524665746
 20
7.1371129306
 10
8.5352185852
 20
7.0970649768
 10
8.5469544141
 20
7.0568558382
 10
8.5598539508
 20
7.0165515782
 10
8.5738960014
 20
6.9762184168
 10
8.5890574948
 20
6.9359226212
 10
8.6053135208
 20
6.8957303972
 10
8.6226373707
 20
6.8557077806
 10
8.6410005816
 20
6.8159205285
 10
8.6603729826
 20
6.7764340111
 10
8.680722745
 20
6.7373131048
 10
8.7020164341
 20
6.6986220851
 10
8.7242190646
 20
6.6604245211
 10
8.7472941575
 20
6.6227831715
 10
8.7712038005
 20
6.5857598809
 10
8.7959087102
 20
6.5494154784
 10
8.8213682964
 20
6.5138096778
 10
8.8475407291
 20
6.4790009793
 10
8.8743830071
 20
6.4450465735
 10
8.9018510286
 20
6.4120022474
 10
8.9298996636
 20
6.3799222929
 10
8.9584828285
 20
6.348859417
 10
8.987553561
 20
6.3188646561
 10
9.017064098
 20
6.2899872916
 10
9.0469659539
 20
6.2622747687
 10
9.0772099999
 20
6.2357726191
 10
9.1077465452
 20
6.2105243859
 10
9.1385254182
 20
6.1865715517
 10
9.1694960495
 20
6.163953471
 10
9.2006075543
 20
6.1427073052
 10
9.2318088165
 20
6.1228679618
 10
9.2630485725
 20
6.1044680367
 10
9.2942754954
 20
6.087537761
 10
9.3254382796
 20
6.0721049511
 10
9.3564857247
 20
6.058194963
 10
9.3873668197
 20
6.0458306508
 10
9.4180308271
 20
6.035032329
 10
9.4484273661
 20
6.0258177393
 10
9.4785064952
 20
6.0182020212
 10
9.5082187944
 20
6.0121976873
 10
9.5375154466
 20
6.0078146027
 10
9.5663483174
 20
6.0050599688
 10
9.5946700345
 20
6.0039383114
 10
9.6224340653
 20
6.0044514735
 10
9.6495947938
 20
6.0065986119
 10
9.6761075947
 20
6.0103761989
 10
9.7019289078
 20
6.0157780279
 10
9.7270163086
 20
6.0227952237
 10
9.7513285786
 20
6.0314162571
 10
9.7748257728
 20
6.0416269638
 10
9.7974692853
 20
6.0534105675
 10
9.8192219131
 20
6.0667477079
 10
9.8400479164
 20
6.081616472
 10
9.8599130783
 20
6.0979924306
 10
9.8787847604
 20
6.1158486779
 10
9.8966319565
 20
6.1351558762
 10
9.9134253437
 20
6.1558823039
 10
9.9291373306
 20
6.1779939074
 10
9.9437421024
 20
6.2014543575
 10
9.9572156635
 20
6.2262251087
 10
9.9695358768
 20
6.2522654627
 10
9.9806825003
 20
6.2795326353
 10
9.9906372202
 20
6.3079818265
 10
9.9993836808
 20
6.3375662945
 10
10.0069075116
 20
6.3682374321
 10
10.0131963512
 20
6.3999448466
 10
10.018239867
 20
6.4326364428
 10
10.0220297723
 20
6.4662585085
 10
10.0245598406
 20
6.5007558029
 10
10.0258259148
 20
6.5360716468
 10
10.0258259148
 20
6.5721480165
 10
10.0245598406
 20
6.6089256386
 10
10.0220297723
 20
6.6463440876
 10
10.018239867
 20
6.684341885
 10
10.0131963512
 20
6.7228566005
 10
10.0069075116
 20
6.7618249546
 10
9.9993836808
 20
6.8011829224
 10
9.9906372202
 20
6.8408658388
 10
9.9806825003
 20
6.880808505
 10
9.9695358768
 20
6.9209452951
 10
9.9572156635
 20
6.9612102646
 10
9.9437421024
 20
7.0015372583
 10
9.9291373306
 20
7.041860019
 10
9.9134253437
 20
7.0821122964
 10
9.8966319565
 20
7.1222279563
 10
9.8787847604
 20
7.1621410886
 10
9.8599130783
 20
7.2017861163
 10
9.8400479164
 20
7.2410979026
 10
9.8192219131
 20
7.2800118584
 10
9.7974692853
 20
7.3184640482
 10
9.7748257728
 20
7.356391295
 10
9.7513285786
 20
7.3937312846
 10
9.7270163086
 20
7.4304226674
 10
9.7019289078
 20
7.4664051597
 10
9.6761075947
 20
7.5016196421
 10
9.6495947938
 20
7.5360082575
 10
9.6224340653
 20
7.5695145055
 10
9.5946700345
 20
7.6020833353
 10
9.5663483174
 20
7.6336612365
 10
9.5375154466
 20
7.6641963266
 10
9.5082187944
 20
7.6936384366
 10
9.4785064952
 20
7.7219391932
 10
9.4484273661
 20
7.7490520983
 10
9.4180308271
 20
7.7749326055
 10
9.3873668197
 20
7.7995381931
 10
9.3564857247
 20
7.8228284343
 10
9.3254382796
 20
7.8447650632
 10
9.2942754954
 20
7.865312038
 10
9.2630485725
 20
7.8844356002
 10
9.2318088165
 20
7.9021043296
 10
9.2006075543
 20
7.9182891967
 10
9.1694960495
 20
7.9329636098
 10
9.1385254182
 20
7.9461034588
 10
9.1077465452
 20
7.9576871551
 10
9.0772099999
 20
7.9676956665
 10
9.0469659539
 20
7.9761125492
 10
9.017064098
 20
7.9829239743
 10
8.987553561
 20
7.9881187505
 10
8.9584828285
 20
7.991688343
 10
8.9298996636
 20
7.9936268868
 10
8.9018510286
 20
7.9939311969
 10
8.8743830071
 20
7.9926007734
 10
8.8475407291
 20
7.9896378021
 10
8.8213682964
 20
7.9850471512
 10
8.7959087102
 20
7.9788363631
 10
8.7712038005
 20
7.9710156422
 10
8.7472941575
 20
7.9615978378
 10
8.7242190646
 20
7.9505984234
 10
8.7020164341
 20
7.9380354709
 10
8.680722745
 20
7.9239296214
 10
8.6603729826
 20
7.9083040506
 10
8.6410005816
 20
7.8911844314
 10
8.6226373707
 20
7.8725988911
 10
8.6053135208
 20
7.8525779659
 10
8.5890574948
 20
7.83115455
 10
8.5738960014
 20
7.8083638421
 10
8.5598539508
 20
7.7842432872
 10
8.5469544141
 20
7.7588325154
 10
8.5352185852
 20
7.7321732764
 10
8.524665746
 20
7.7043093714
 10
8.5153132348
 20
7.6752865806
 10
8.5071764178
 20
7.6451525884
 10
8.5002686637
 20
7.6139569049
 10
8.494601322
 20
7.5817507846
 10
8.4901837041
 20
7.5485871419
 10
8.4870230681
 20
7.5145204647
 10
8.485124607
 20
7.4796067244
 10
8.4844914398
 20
7.4439032843
  0
LWPOLYLINE
  5
14F
330
1F
100
AcDbEntity
  8
0
  6
Continuous
 62
     7
370
     0
100
AcDbPolyline
 90
       60
 70
   128
 43
0.0
 10
10.3017558675
 20
6.7050539431
 10
10.3011250561
 20
6.7415847645
 10
10.2992336451
 20
6.7787846521
 10
10.2960847025
 20
6.8165932676
 10
10.2916833357
 20
6.8549492852
 10
10.2860366838
 20
6.8937904913
 10
10.2791539057
 20
6.9330538854
 10
10.2710461654
 20
6.972675782
 10
10.2617266135
 20
7.0125919143
 10
10.2512103665
 20
7.0527375383
 10
10.2395144817
 20
7.0930475375
 10
10.2266579298
 20
7.133456529
 10
10.2126615644
 20
7.1738989693
 10
10.1975480874
 20
7.2143092605
 10
10.1813420131
 20
7.2546218571
 10
10.1640696278
 20
7.2947713718
 10
10.1457589473
 20
7.334692682
 10
10.1264396716
 20
7.3743210352
 10
10.1061431366
 20
7.4135921541
 10
10.0849022634
 20
7.4524423407
 10
10.0627515048
 20
7.4908085799
 10
10.0397267894
 20
7.5286286415
 10
10.0158654634
 20
7.5658411812
 10
9.9912062298
 20
7.6023858403
 10
9.9657890862
 20
7.638203343
 10
9.9396552591
 20
7.6732355933
 10
9.9128471378
 20
7.7074257688
 10
9.8854082051
 20
7.7407184128
 10
9.8573829671
 20
7.7730595246
 10
9.8288168808
 20
7.8043966467
 10
9.7997562805
 20
7.8346789502
 10
9.7702483026
 20
7.8638573172
 10
9.7403408091
 20
7.8918844202
 10
9.7100823101
 20
7.9187147992
 10
9.6795218851
 20
7.9443049351
 10
9.6487091031
 20
7.9686133207
 10
9.6176939426
 20
7.9916005277
 10
9.5865267102
 20
8.0132292707
 10
9.5552579594
 20
8.0334644679
 10
9.5239384082
 20
8.0522732977
 10
9.4926188569
 20
8.069625252
 10
9.4613501061
 20
8.0854921861
 10
9.4301828738
 20
8.0998483635
 10
9.3991677133
 20
8.1126704987
 10
9.3683549313
 20
8.123937794
 10
9.3377945062
 20
8.1336319737
 10
9.3075360073
 20
8.1417373141
 10
9.2776285138
 20
8.148240668
 10
9.2481205359
 20
8.1531314871
 10
9.2190599356
 20
8.1564018385
 10
9.1904938492
 20
8.1580464176
 10
9.1624686112
 20
8.1580625569
 10
9.1350296785
 20
8.1564502303
 10
9.1082215572
 20
8.1532120529
 10
9.0820877302
 20
8.148353277
 10
9.0566705865
 20
8.1418817837
 10
9.032011353
 20
8.1338080696
 10
9.0081500269
 20
8.1241452305
 10
8.9851253115
 20
8.1129089395
 10
8.9739831052
 20
8.1067321532
  0
LWPOLYLINE
  5
150
330
1F
100
AcDbEntity
  8
0
  6
Continuous
 62
     7
370
     0
100
AcDbPolyline
 90
       21
 70
   128
 43
0.0
 10
10.0738937111
 20
6.201424656
 10
10.0849022634
 20
6.2080393874
 10
10.1061431366
 20
6.2223653838
 10
10.1264396716
 20
6.2382026222
 10
10.1457589473
 20
6.2555254144
 10
10.1640696278
 20
6.2743056629
 10
10.1813420131
 20
6.294512906
 10
10.1975480874
 20
6.3161143675
 10
10.2126615644
 20
6.3390750097
 10
10.2266579298
 20
6.3633575903
 10
10.2395144817
 20
6.3889227231
 10
10.2512103665
 20
6.4157289411
 10
10.2617266135
 20
6.4437327647
 10
10.2710461654
 20
6.4728887715
 10
10.2791539057
 20
6.5031496704
 10
10.2860366838
 20
6.534466378
 10
10.2916833357
 20
6.5667880987
 10
10.2960847025
 20
6.6000624063
 10
10.2992336451
 20
6.63423533
 10
10.3011250561
 20
6.669251441
 10
10.3017558675
 20
6.7050539431
  0
LWPOLYLINE
  5
151
330
1F
100
AcDbEntity
  8
0
  6
Continuous
 62
     7
370
     0
100
AcDbPolyline
 90
      152
 70
   128
 43
0.0
 10
8.5235092328
 20
7.4213787919
 10
8.5241426111
 20
7.4561627604
 10
8.5260416496
 20
7.4901552284
 10
8.5292030608
 20
7.5232973488
 10
8.5336213716
 20
7.5555317462
 10
8.5392889331
 20
7.5868026172
 10
8.5461959338
 20
7.6170558261
 10
8.5543304162
 20
7.646238999
 10
8.5636782983
 20
7.6743016144
 10
8.574223397
 20
7.7011950909
 10
8.5859474569
 20
7.7268728709
 10
8.5988301814
 20
7.7512905014
 10
8.6128492682
 20
7.774405711
 10
8.6279804476
 20
7.7961784831
 10
8.6441975249
 20
7.816571125
 10
8.6614724253
 20
7.8355483332
 10
8.6797752427
 20
7.8530772547
 10
8.6990742916
 20
7.8691275438
 10
8.7193361619
 20
7.8836714144
 10
8.7405257764
 20
7.8966836885
 10
8.7626064521
 20
7.9081418393
 10
8.7855399632
 20
7.9180260308
 10
8.8092866077
 20
7.9263191515
 10
8.8338052758
 20
7.9330068446
 10
8.859053521
 20
7.9380775324
 10
8.8849876341
 20
7.9415224367
 10
8.9115627183
 20
7.9433355937
 10
8.9387327673
 20
7.9435138644
 10
8.9664507448
 20
7.9420569403
 10
8.9946686658
 20
7.9389673435
 10
9.0233376799
 20
7.9342504227
 10
9.0524081558
 20
7.9279143438
 10
9.0818297671
 20
7.9199700757
 10
9.1115515797
 20
7.9104313714
 10
9.1415221395
 20
7.8993147441
 10
9.1716895622
 20
7.8866394387
 10
9.2020016222
 20
7.8724273986
 10
9.2324058439
 20
7.8567032273
 10
9.262849592
 20
7.8394941464
 10
9.2932801627
 20
7.8208299479
 10
9.3236448752
 20
7.800742943
 10
9.3538911625
 20
7.7792679058
 10
9.3839666627
 20
7.7564420138
 10
9.4138193097
 20
7.7323047827
 10
9.443397423
 20
7.7068979985
 10
9.4726497974
 20
7.680265645
 10
9.5015257918
 20
7.6524538277
 10
9.5299754165
 20
7.6235106939
 10
9.5579494199
 20
7.5934863496
 10
9.5853993739
 20
7.5624327725
 10
9.6122777575
 20
7.5304037218
 10
9.6385380395
 20
7.497454646
 10
9.6641347583
 20
7.4636425857
 10
9.6890236014
 20
7.429026076
 10
9.7131614816
 20
7.3936650444
 10
9.7365066119
 20
7.3576207072
 10
9.7590185773
 20
7.320955464
 10
9.7806584058
 20
7.2837327889
 10
9.8013886346
 20
7.2460171213
 10
9.821173376
 20
7.2078737539
 10
9.839978379
 20
7.1693687199
 10
9.8577710886
 20
7.1305686786
 10
9.8745207024
 20
7.0915407999
 10
9.8901982238
 20
7.0523526484
 10
9.904776512
 20
7.0130720659
 10
9.9182303293
 20
6.9737670542
 10
9.9305363848
 20
6.9345056577
 10
9.9416733743
 20
6.895355845
 10
9.9516220178
 20
6.8563853917
 10
9.9603650923
 20
6.8176617627
 10
9.9678874618
 20
6.7792519957
 10
9.9741761039
 20
6.7412225852
 10
9.9792201317
 20
6.703639367
 10
9.9830108131
 20
6.6665674046
 10
9.9855415856
 20
6.6300708764
 10
9.9868080682
 20
6.5942129645
 10
9.9868080682
 20
6.5590557456
 10
9.9855415856
 20
6.5246600834
 10
9.9830108131
 20
6.491085523
 10
9.9792201317
 20
6.4583901881
 10
9.9741761039
 20
6.4266306804
 10
9.9678874618
 20
6.3958619815
 10
9.9603650923
 20
6.3661373576
 10
9.9516220178
 20
6.3375082675
 10
9.9416733743
 20
6.3100242734
 10
9.9305363848
 20
6.2837329551
 10
9.9182303293
 20
6.2586798279
 10
9.904776512
 20
6.2349082631
 10
9.8901982238
 20
6.2124594139
 10
9.8745207024
 20
6.1913721432
 10
9.8577710886
 20
6.171682957
 10
9.839978379
 20
6.1534259409
 10
9.821173376
 20
6.1366327012
 10
9.8013886346
 20
6.12133231
 10
9.7806584058
 20
6.1075512551
 10
9.7590185773
 20
6.0953133941
 10
9.7365066119
 20
6.084639913
 10
9.7131614816
 20
6.0755492895
 10
9.6890236014
 20
6.0680572611
 10
9.6641347583
 20
6.062176798
 10
9.6385380395
 20
6.0579180803
 10
9.6122777575
 20
6.0552884806
 10
9.5853993739
 20
6.0542925512
 10
9.5579494199
 20
6.0549320163
 10
9.5299754165
 20
6.0572057688
 10
9.5015257918
 20
6.0611098725
 10
9.4726497974
 20
6.0666375687
 10
9.443397423
 20
6.0737792878
 10
9.4138193097
 20
6.0825226663
 10
9.3839666627
 20
6.0928525677
 10
9.3538911625
 20
6.1047511092
 10
9.3236448752
 20
6.118197692
 10
9.2932801627
 20
6.1331690378
 10
9.262849592
 20
6.1496392284
 10
9.2324058439
 20
6.1675797508
 10
9.2020016222
 20
6.1869595468
 10
9.1716895622
 20
6.2077450662
 10
9.1415221395
 20
6.2299003257
 10
9.1115515797
 20
6.2533869702
 10
9.0818297671
 20
6.2781643403
 10
9.0524081558
 20
6.3041895415
 10
9.0233376799
 20
6.3314175197
 10
8.9946686658
 20
6.359801138
 10
8.9664507448
 20
6.3892912593
 10
8.9387327673
 20
6.4198368308
 10
8.9115627183
 20
6.4513849724
 10
8.8849876341
 20
6.4838810685
 10
8.859053521
 20
6.5172688624
 10
8.8338052758
 20
6.5514905537
 10
8.8092866077
 20
6.5864868983
 10
8.7855399632
 20
6.6221973112
 10
8.7626064521
 20
6.658559971
 10
8.7405257764
 20
6.6955119274
 10
8.7193361619
 20
6.7329892096
 10
8.6990742916
 20
6.7709269376
 10
8.6797752427
 20
6.8092594343
 10
8.6614724253
 20
6.847920339
 10
8.6441975249
 20
6.8868427227
 10
8.6279804476
 20
6.9259592034
 10
8.6128492682
 20
6.9652020634
 10
8.5988301814
 20
7.0045033661
 10
8.5859474569
 20
7.0437950738
 10
8.574223397
 20
7.0830091651
 10
8.5636782983
 20
7.1220777534
 10
8.5543304162
 20
7.1609332038
 10
8.5461959338
 20
7.1995082502
 10
8.5392889331
 20
7.2377361123
 10
8.5336213716
 20
7.2755506105
 10
8.5292030608
 20
7.312886281
 10
8.5260416496
 20
7.349678489
 10
8.5241426111
 20
7.3858635402
 10
8.5235092328
 20
7.4213787919
  0
LWPOLYLINE
  5
152
330
1F
100
AcDbEntity
  8
0
  6
Continuous
 62
     7
370
     0
100
AcDbPolyline
 90
      151
 70
   128
 43
0.0
 10
8.5428277493
 20
7.4183905308
 10
8.5434588565
 20
7.3832346394
 10
8.5453510709
 20
7.3474117625
 10
8.548501073
 20
7.3109847456
 10
8.5529033366
 20
7.2740174941
 10
8.5585501386
 20
7.2365748611
 10
8.5654315726
 20
7.1987225337
 10
8.5735355663
 20
7.1605269177
 10
8.5828479024
 20
7.1220550213
 10
8.593352244
 20
7.0833743371
 10
8.6050301628
 20
7.0445527243
 10
8.6178611719
 20
7.0056582892
 10
8.6318227614
 20
6.9667592658
 10
8.6468904377
 20
6.9279238963
 10
8.6630377671
 20
6.889220311
 10
8.6802364218
 20
6.8507164092
 10
8.6984562293
 20
6.8124797398
 10
8.7176652261
 20
6.774577383
 10
8.7378297129
 20
6.7370758323
 10
8.7589143144
 20
6.7000408783
 10
8.7808820411
 20
6.6635374928
 10
8.803694354
 20
6.6276297151
 10
8.8273112328
 20
6.5923805398
 10
8.8516912452
 20
6.5578518057
 10
8.8767916206
 20
6.5241040882
 10
8.9025683242
 20
6.491196592
 10
8.9289761351
 20
6.4591870482
 10
8.9559687249
 20
6.4281316124
 10
8.9834987394
 20
6.3980847664
 10
9.0115178817
 20
6.3690992224
 10
9.0399769967
 20
6.3412258312
 10
9.0688261574
 20
6.3145134919
 10
9.0980147525
 20
6.2890090672
 10
9.1274915755
 20
6.2647573005
 10
9.1572049138
 20
6.2418007376
 10
9.1871026402
 20
6.2201796521
 10
9.2171323039
 20
6.1999319748
 10
9.2472412228
 20
6.181093227
 10
9.2773765755
 20
6.1636964582
 10
9.3074854943
 20
6.1477721883
 10
9.3375151581
 20
6.1333483538
 10
9.3674128845
 20
6.1204502591
 10
9.3971262228
 20
6.1091005318
 10
9.4266030457
 20
6.0993190832
 10
9.4557916409
 20
6.0911230733
 10
9.4846408016
 20
6.0845268806
 10
9.5130999166
 20
6.0795420771
 10
9.5411190589
 20
6.0761774079
 10
9.5686490734
 20
6.0744387757
 10
9.5956416632
 20
6.0743292307
 10
9.6220494741
 20
6.0758489651
 10
9.6478261777
 20
6.0789953127
 10
9.6729265531
 20
6.0837627538
 10
9.6973065655
 20
6.0901429246
 10
9.7209234442
 20
6.0981246322
 10
9.7437357572
 20
6.1076938739
 10
9.7657034839
 20
6.1188338621
 10
9.7867880854
 20
6.1315250534
 10
9.8069525722
 20
6.1457451831
 10
9.826161569
 20
6.1614693044
 10
9.8443813765
 20
6.1786698317
 10
9.8615800311
 20
6.1973165895
 10
9.8777273606
 20
6.2173768651
 10
9.8927950369
 20
6.2388154658
 10
9.9067566263
 20
6.2615947812
 10
9.9195876355
 20
6.2856748485
 10
9.9312655543
 20
6.3110134232
 10
9.9417698959
 20
6.3375660527
 10
9.951082232
 20
6.3652861548
 10
9.9591862256
 20
6.3941250989
 10
9.9660676596
 20
6.4240322917
 10
9.9717144616
 20
6.4549552659
 10
9.9761167252
 20
6.4868397721
 10
9.9792667273
 20
6.5196298739
 10
9.9811589418
 20
6.5532680465
 10
9.981790049
 20
6.587695277
 10
9.9811589418
 20
6.6228511684
 10
9.9792667273
 20
6.6586740453
 10
9.9761167252
 20
6.6951010621
 10
9.9717144616
 20
6.7320683136
 10
9.9660676596
 20
6.7695109467
 10
9.9591862256
 20
6.8073632741
 10
9.951082232
 20
6.8455588901
 10
9.9417698959
 20
6.8840307865
 10
9.9312655543
 20
6.9227114707
 10
9.9195876355
 20
6.9615330835
 10
9.9067566263
 20
7.0004275186
 10
9.8927950369
 20
7.039326542
 10
9.8777273606
 20
7.0781619115
 10
9.8615800311
 20
7.1168654968
 10
9.8443813765
 20
7.1553693986
 10
9.826161569
 20
7.193606068
 10
9.8069525722
 20
7.2315084248
 10
9.7867880854
 20
7.2690099754
 10
9.7657034839
 20
7.3060449295
 10
9.7437357572
 20
7.342548315
 10
9.7209234442
 20
7.3784560927
 10
9.6973065655
 20
7.413705268
 10
9.6729265531
 20
7.4482340021
 10
9.6478261777
 20
7.4819817196
 10
9.6220494741
 20
7.5148892158
 10
9.5956416632
 20
7.5468987596
 10
9.5686490734
 20
7.5779541954
 10
9.5411190589
 20
7.6080010414
 10
9.5130999166
 20
7.6369865853
 10
9.4846408016
 20
7.6648599766
 10
9.4557916409
 20
7.6915723159
 10
9.4266030457
 20
7.7170767406
 10
9.3971262228
 20
7.7413285073
 10
9.3674128845
 20
7.7642850702
 10
9.3375151581
 20
7.7859061556
 10
9.3074854943
 20
7.8061538329
 10
9.2773765755
 20
7.8249925808
 10
9.2472412228
 20
7.8423893496
 10
9.2171323039
 20
7.8583136195
 10
9.1871026402
 20
7.872737454
 10
9.1572049138
 20
7.8856355487
 10
9.1274915755
 20
7.896985276
 10
9.0980147525
 20
7.9067667246
 10
9.0688261574
 20
7.9149627345
 10
9.0399769967
 20
7.9215589272
 10
9.0115178817
 20
7.9265437307
 10
8.9834987394
 20
7.9299083999
 10
8.9559687249
 20
7.931647032
 10
8.9289761351
 20
7.931756577
 10
8.9025683242
 20
7.9302368427
 10
8.8767916206
 20
7.9270904951
 10
8.8516912452
 20
7.922323054
 10
8.8273112328
 20
7.9159428832
 10
8.803694354
 20
7.9079611756
 10
8.7808820411
 20
7.8983919338
 10
8.7589143144
 20
7.8872519457
 10
8.7378297129
 20
7.8745607544
 10
8.7176652261
 20
7.8603406246
 10
8.6984562293
 20
7.8446165034
 10
8.6802364218
 20
7.8274159761
 10
8.6630377671
 20
7.8087692183
 10
8.6468904377
 20
7.7887089427
 10
8.6318227614
 20
7.7672703419
 10
8.6178611719
 20
7.7444910266
 10
8.6050301628
 20
7.7204109592
 10
8.593352244
 20
7.6950723846
 10
8.5828479024
 20
7.6685197551
 10
8.5735355663
 20
7.640799653
 10
8.5654315726
 20
7.6119607089
 10
8.5585501386
 20
7.5820535161
 10
8.5529033366
 20
7.5511305419
 10
8.548501073
 20
7.5192460357
 10
8.5453510709
 20
7.4864559339
 10
8.5434588565
 20
7.4528177613
 10
8.5428277493
 20
7.4183905308
  0
ARC
  5
153
330
1F
100
AcDbEntity
  8
0
  6
Continuous
 62
     7
370
     0
100
AcDbCircle
 10
8.6301824253
 20
6.638124058
 30
0.0
 40
1.673259357196367
100
AcDbArc
 50
2.5722330061
 51
57.4223904612
  0
LWPOLYLINE
  5
154
330
1F
100
AcDbEntity
  8
0
  6
Continuous
 62
     7
370
     0
100
AcDbPolyline
 90
       47
 70
   128
 43
0.0
 10
10.3282723718
 20
6.7877152644
 10
10.3276412646
 20
6.8228711558
 10
10.3257490501
 20
6.8586940327
 10
10.322599048
 20
6.8951210495
 10
10.3181967844
 20
6.932088301
 10
10.3125499824
 20
6.9695309341
 10
10.3056685484
 20
7.0073832615
 10
10.2975645548
 20
7.0455788775
 10
10.2882522187
 20
7.0840507739
 10
10.2777478771
 20
7.1227314581
 10
10.2660699582
 20
7.1615530709
 10
10.2532389491
 20
7.200447506
 10
10.2392773597
 20
7.2393465294
 10
10.2242096834
 20
7.2781818989
 10
10.2080623539
 20
7.3168854842
 10
10.1908636993
 20
7.355389386
 10
10.1726438917
 20
7.3936260554
 10
10.153434895
 20
7.4315284122
 10
10.1332704082
 20
7.4690299628
 10
10.1121858067
 20
7.5060649169
 10
10.09021808
 20
7.5425683024
 10
10.067405767
 20
7.5784760801
 10
10.0437888883
 20
7.6137252554
 10
10.0194088758
 20
7.6482539895
 10
9.9943085005
 20
7.682001707
 10
9.9685317969
 20
7.7149092032
 10
9.942123986
 20
7.746918747
 10
9.9151313962
 20
7.7779741828
 10
9.8876013816
 20
7.8080210288
 10
9.8595822393
 20
7.8370065727
 10
9.8311231244
 20
7.864879964
 10
9.8022739637
 20
7.8915923033
 10
9.7730853685
 20
7.917096728
 10
9.7436085456
 20
7.9413484947
 10
9.7138952073
 20
7.9643050576
 10
9.6839974809
 20
7.985926143
 10
9.6539678171
 20
8.0061738203
 10
9.6238588983
 20
8.0250125682
 10
9.5937235456
 20
8.042409337
 10
9.5636146267
 20
8.0583336069
 10
9.533584963
 20
8.0727574414
 10
9.5036872366
 20
8.0856555361
 10
9.4739738982
 20
8.0970052633
 10
9.4444970753
 20
8.106786712
 10
9.4153084802
 20
8.1149827219
 10
9.3864593195
 20
8.1215789146
 10
9.3626798382
 20
8.1258506152
  0
ARC
  5
155
330
1F
100
AcDbEntity
  8
0
  6
Continuous
 62
     7
370
     0
100
AcDbCircle
 10
9.6077736063
 20
6.7751859667
 30
0.0
 40
0.7206076979278456
100
AcDbArc
 50
339.9782748456
 51
0.9962592106
  0
LINE
  5
156
330
1F
100
AcDbEntity
  8
0
  6
Continuous
 62
     7
370
     0
100
AcDbLine
 10
7.1367642381
 20
3.9028605909
 30
0.0
 11
7.1367642381
 21
3.8889093783
 31
0.0
  0
LINE
  5
157
330
1F
100
AcDbEntity
  8
0
  6
Continuous
 62
     7
370
     0
100
AcDbLine
 10
7.157106688
 20
4.8458849846
 30
0.0
 11
7.2297861799
 21
4.8458849846
 31
0.0
  0
LINE
  5
158
330
1F
100
AcDbEntity
  8
0
  6
Continuous
 62
     7
370
     0
100
AcDbLine
 10
7.157106688
 20
4.8458849846
 30
0.0
 11
7.1397861799
 21
4.8558849846
 31
0.0
  0
LINE
  5
159
330
1F
100
AcDbEntity
  8
0
  6
Continuous
 62
     7
370
     0
100
AcDbLine
 10
7.1397861799
 20
4.8960644765
 30
0.0
 11
7.1397861799
 21
4.8558849846
 31
0.0
  0
LINE
  5
15A
330
1F
100
AcDbEntity
  8
0
  6
Continuous
 62
     7
370
     0
100
AcDbLine
 10
7.1397861799
 20
4.8960644765
 30
0.0
 11
7.1497861799
 21
4.9133849846
 31
0.0
  0
LINE
  5
15B
330
1F
100
AcDbEntity
  8
0
  6
Continuous
 62
     7
370
     0
100
AcDbLine
 10
7.2224656718
 20
4.9133849846
 30
0.0
 11
7.1497861799
 21
4.9133849846
 31
0.0
  0
LINE
  5
15C
330
1F
100
AcDbEntity
  8
0
  6
Continuous
 62
     7
370
     0
100
AcDbLine
 10
7.2224656718
 20
4.9133849846
 30
0.0
 11
7.2397861799
 21
4.9033849846
 31
0.0
  0
LINE
  5
15D
330
1F
100
AcDbEntity
  8
0
  6
Continuous
 62
     7
370
     0
100
AcDbLine
 10
7.2397861799
 20
4.8632054926
 30
0.0
 11
7.2397861799
 21
4.9033849846
 31
0.0
  0
LINE
  5
15E
330
1F
100
AcDbEntity
  8
0
  6
Continuous
 62
     7
370
     0
100
AcDbLine
 10
7.2397861799
 20
4.8632054926
 30
0.0
 11
7.2297861799
 21
4.8458849846
 31
0.0
  0
LINE
  5
15F
330
1F
100
AcDbEntity
  8
0
  6
Continuous
 62
     7
370
     0
100
AcDbLine
 10
7.2397861799
 20
2.8883849846
 30
0.0
 11
7.2397861799
 21
2.9285644765
 31
0.0
  0
LINE
  5
160
330
1F
100
AcDbEntity
  8
0
  6
Continuous
 62
     7
370
     0
100
AcDbLine
 10
7.2397861799
 20
2.8883849846
 30
0.0
 11
7.2224656718
 21
2.8783849846
 31
0.0
  0
LINE
  5
161
330
1F
100
AcDbEntity
  8
0
  6
Continuous
 62
     7
370
     0
100
AcDbLine
 10
7.1497861799
 20
2.8783849846
 30
0.0
 11
7.2224656718
 21
2.8783849846
 31
0.0
  0
LINE
  5
162
330
1F
100
AcDbEntity
  8
0
  6
Continuous
 62
     7
370
     0
100
AcDbLine
 10
7.1497861799
 20
2.8783849846
 30
0.0
 11
7.1397861799
 21
2.8957054926
 31
0.0
  0
LINE
  5
163
330
1F
100
AcDbEntity
  8
0
  6
Continuous
 62
     7
370
     0
100
AcDbLine
 10
7.1397861799
 20
2.9358849846
 30
0.0
 11
7.1397861799
 21
2.8957054926
 31
0.0
  0
LINE
  5
164
330
1F
100
AcDbEntity
  8
0
  6
Continuous
 62
     7
370
     0
100
AcDbLine
 10
7.1397861799
 20
2.9358849846
 30
0.0
 11
7.157106688
 21
2.9458849846
 31
0.0
  0
LINE
  5
165
330
1F
100
AcDbEntity
  8
0
  6
Continuous
 62
     7
370
     0
100
AcDbLine
 10
7.2297861799
 20
2.9458849846
 30
0.0
 11
7.157106688
 21
2.9458849846
 31
0.0
  0
LINE
  5
166
330
1F
100
AcDbEntity
  8
0
  6
Continuous
 62
     7
370
     0
100
AcDbLine
 10
7.2297861799
 20
2.9458849846
 30
0.0
 11
7.2397861799
 21
2.9285644765
 31
0.0
  0
LINE
  5
167
330
1F
100
AcDbEntity
  8
0
  6
Continuous
 62
     7
370
     0
100
AcDbLine
 10
7.157106688
 20
3.460202636
 30
0.0
 11
7.157106688
 21
2.9458849846
 31
0.0
  0
LINE
  5
168
330
1F
100
AcDbEntity
  8
0
  6
Continuous
 62
     7
370
     0
100
AcDbLine
 10
7.1397861799
 20
2.9358849846
 30
0.0
 11
7.1397861799
 21
3.7235161872
 31
0.0
  0
LINE
  5
169
330
1F
100
AcDbEntity
  8
0
  6
Continuous
 62
     7
370
     0
100
AcDbLine
 10
7.1397861799
 20
4.068253782
 30
0.0
 11
7.1397861799
 21
4.8558849846
 31
0.0
  0
LINE
  5
16A
330
1F
100
AcDbEntity
  8
0
  6
Continuous
 62
     7
370
     0
100
AcDbLine
 10
7.157106688
 20
4.8458849846
 30
0.0
 11
7.157106688
 21
4.3315673332
 31
0.0
  0
LINE
  5
16B
330
1F
100
AcDbEntity
  8
0
  6
Continuous
 62
     7
370
     0
100
AcDbLine
 10
7.2297861799
 20
2.9458849846
 30
0.0
 11
7.2297861799
 21
2.9758531981
 31
0.0
  0
LINE
  5
16C
330
1F
100
AcDbEntity
  8
0
  6
Continuous
 62
     7
370
     0
100
AcDbLine
 10
7.2297861799
 20
4.815916771
 30
0.0
 11
7.2297861799
 21
4.8458849846
 31
0.0
  0
LINE
  5
16D
330
1F
100
AcDbEntity
  8
0
  6
Continuous
 62
     7
370
     0
100
AcDbLine
 10
7.3651160685
 20
2.9014527545
 30
0.0
 11
7.3595482985
 21
2.8958849846
 31
0.0
  0
LINE
  5
16E
330
1F
100
AcDbEntity
  8
0
  6
Continuous
 62
     7
370
     0
100
AcDbLine
 10
7.3595482985
 20
4.8958849846
 30
0.0
 11
7.3651160685
 21
4.8903172146
 31
0.0
  0
LINE
  5
16F
330
1F
100
AcDbEntity
  8
0
  6
Continuous
 62
     7
370
     0
100
AcDbLine
 10
7.2513256383
 20
4.8958849846
 30
0.0
 11
7.3595482985
 21
4.8958849846
 31
0.0
  0
LINE
  5
170
330
1F
100
AcDbEntity
  8
0
  6
Continuous
 62
     7
370
     0
100
AcDbLine
 10
7.3595482985
 20
2.8958849846
 30
0.0
 11
7.2513256383
 21
2.8958849846
 31
0.0
  0
ARC
  5
171
330
1F
100
AcDbEntity
  8
0
  6
Continuous
 62
     7
370
     0
100
AcDbCircle
 10
11.6643232932
 20
3.9028605909
 30
0.0
 40
4.52755905511811
100
AcDbArc
 50
167.4025906251
 51
180.0882755929
  0
LINE
  5
172
330
1F
100
AcDbEntity
  8
0
  6
Continuous
 62
     7
370
     0
100
AcDbLine
 10
7.2457578684
 20
4.8903172146
 30
0.0
 11
7.2513256383
 21
4.8958849846
 31
0.0
  0
LINE
  5
173
330
1F
100
AcDbEntity
  8
0
  6
Continuous
 62
     7
370
     0
100
AcDbLine
 10
7.3651160685
 20
4.8903172146
 30
0.0
 11
7.3651160685
 21
2.9014527545
 31
0.0
  0
LINE
  5
174
330
1F
100
AcDbEntity
  8
0
  6
Continuous
 62
     7
370
     0
100
AcDbLine
 10
7.2513256383
 20
2.8958849846
 30
0.0
 11
7.2457578684
 21
2.9014527545
 31
0.0
  0
ARC
  5
175
330
1F
100
AcDbEntity
  8
0
  6
Continuous
 62
     7
370
     0
100
AcDbCircle
 10
11.6643232932
 20
3.8889093783
 30
0.0
 40
4.52755905511811
100
AcDbArc
 50
179.9117244071
 51
192.5974093749
  0
LINE
  5
176
330
1F
100
AcDbEntity
  8
0
  6
Continuous
 62
     7
370
     0
100
AcDbLine
 10
7.1515302693
 20
4.9958849846
 30
0.0
 11
7.1430435893
 21
4.9958849846
 31
0.0
  0
LINE
  5
177
330
1F
100
AcDbEntity
  8
0
  6
Continuous
 62
     7
370
     0
100
AcDbLine
 10
7.1195588054
 20
4.9958849846
 30
0.0
 11
7.1102185899
 21
4.9958849846
 31
0.0
  0
LINE
  5
178
330
1F
100
AcDbEntity
  8
0
  6
Continuous
 62
     7
370
     0
100
AcDbLine
 10
7.1910183344
 20
4.9958849846
 30
0.0
 11
7.1816507985
 21
4.9958849846
 31
0.0
  0
LINE
  5
179
330
1F
100
AcDbEntity
  8
0
  6
Continuous
 62
     7
370
     0
100
AcDbLine
 10
7.1430435893
 20
4.9958849846
 30
0.0
 11
7.1195588054
 21
4.9958849846
 31
0.0
  0
LINE
  5
17A
330
1F
100
AcDbEntity
  8
0
  6
Continuous
 62
     7
370
     0
100
AcDbLine
 10
7.2401160685
 20
2.7958849846
 30
0.0
 11
7.3851160685
 21
2.7958849846
 31
0.0
  0
LINE
  5
17B
330
1F
100
AcDbEntity
  8
0
  6
Continuous
 62
     7
370
     0
100
AcDbLine
 10
7.3851160685
 20
4.9958849846
 30
0.0
 11
7.2901160685
 21
4.9958849846
 31
0.0
  0
LINE
  5
17C
330
1F
100
AcDbEntity
  8
0
  6
Continuous
 62
     7
370
     0
100
AcDbLine
 10
7.2808852992
 20
4.9958849846
 30
0.0
 11
7.2531929915
 21
4.9958849846
 31
0.0
  0
LINE
  5
17D
330
1F
100
AcDbEntity
  8
0
  6
Continuous
 62
     7
370
     0
100
AcDbLine
 10
7.2439622223
 20
4.9958849846
 30
0.0
 11
7.2193468377
 21
4.9958849846
 31
0.0
  0
LINE
  5
17E
330
1F
100
AcDbEntity
  8
0
  6
Continuous
 62
     7
370
     0
100
AcDbLine
 10
7.2101160685
 20
4.9958849846
 30
0.0
 11
7.1910183344
 21
4.9958849846
 31
0.0
  0
LINE
  5
17F
330
1F
100
AcDbEntity
  8
0
  6
Continuous
 62
     7
370
     0
100
AcDbLine
 10
7.1102185899
 20
4.9958849846
 30
0.0
 11
7.0151160685
 21
4.9958849846
 31
0.0
  0
LINE
  5
180
330
1F
100
AcDbEntity
  8
0
  6
Continuous
 62
     7
370
     0
100
AcDbLine
 10
7.0151160685
 20
2.7958849846
 30
0.0
 11
7.1663182157
 21
2.7958849846
 31
0.0
  0
LINE
  5
181
330
1F
100
AcDbEntity
  8
0
  6
Continuous
 62
     7
370
     0
100
AcDbLine
 10
7.3651160685
 20
4.8458849846
 30
0.0
 11
7.5151160685
 21
4.8458849846
 31
0.0
  0
LINE
  5
182
330
1F
100
AcDbEntity
  8
0
  6
Continuous
 62
     7
370
     0
100
AcDbLine
 10
7.5151160685
 20
2.9458849846
 30
0.0
 11
7.5151160685
 21
4.8458849846
 31
0.0
  0
LINE
  5
183
330
1F
100
AcDbEntity
  8
0
  6
Continuous
 62
     7
370
     0
100
AcDbLine
 10
7.5151160685
 20
2.9458849846
 30
0.0
 11
7.3651160685
 21
2.9458849846
 31
0.0
  0
LINE
  5
184
330
1F
100
AcDbEntity
  8
0
  6
Continuous
 62
     7
370
     0
100
AcDbLine
 10
7.1816507985
 20
4.9958849846
 30
0.0
 11
7.1515302693
 21
4.9958849846
 31
0.0
  0
LINE
  5
185
330
1F
100
AcDbEntity
  8
0
  6
Continuous
 62
     7
370
     0
100
AcDbLine
 10
7.2193468377
 20
4.9958849846
 30
0.0
 11
7.2101160685
 21
4.9958849846
 31
0.0
  0
LINE
  5
186
330
1F
100
AcDbEntity
  8
0
  6
Continuous
 62
     7
370
     0
100
AcDbLine
 10
7.2531929915
 20
4.9958849846
 30
0.0
 11
7.2439622223
 21
4.9958849846
 31
0.0
  0
LINE
  5
187
330
1F
100
AcDbEntity
  8
0
  6
Continuous
 62
     7
370
     0
100
AcDbLine
 10
7.2901160685
 20
4.9958849846
 30
0.0
 11
7.2808852992
 21
4.9958849846
 31
0.0
  0
LINE
  5
188
330
1F
100
AcDbEntity
  8
0
  6
Continuous
 62
     7
370
     0
100
AcDbLine
 10
7.3851160685
 20
4.9958849846
 30
0.0
 11
7.3951160685
 21
4.9858849846
 31
0.0
  0
LINE
  5
189
330
1F
100
AcDbEntity
  8
0
  6
Continuous
 62
     7
370
     0
100
AcDbLine
 10
7.3951160685
 20
4.9033849846
 30
0.0
 11
7.3951160685
 21
4.9858849846
 31
0.0
  0
LINE
  5
18A
330
1F
100
AcDbEntity
  8
0
  6
Continuous
 62
     7
370
     0
100
AcDbLine
 10
7.4051160685
 20
4.9033849846
 30
0.0
 11
7.3951160685
 21
4.9033849846
 31
0.0
  0
LINE
  5
18B
330
1F
100
AcDbEntity
  8
0
  6
Continuous
 62
     7
370
     0
100
AcDbLine
 10
7.4051160685
 20
4.9133849846
 30
0.0
 11
7.4051160685
 21
4.9033849846
 31
0.0
  0
LINE
  5
18C
330
1F
100
AcDbEntity
  8
0
  6
Continuous
 62
     7
370
     0
100
AcDbLine
 10
7.5051160685
 20
4.9133849846
 30
0.0
 11
7.4051160685
 21
4.9133849846
 31
0.0
  0
LINE
  5
18D
330
1F
100
AcDbEntity
  8
0
  6
Continuous
 62
     7
370
     0
100
AcDbLine
 10
7.5051160685
 20
4.9133849846
 30
0.0
 11
7.5151160685
 21
4.8960644765
 31
0.0
  0
LINE
  5
18E
330
1F
100
AcDbEntity
  8
0
  6
Continuous
 62
     7
370
     0
100
AcDbLine
 10
7.5151160685
 20
4.8458849846
 30
0.0
 11
7.5151160685
 21
4.8960644765
 31
0.0
  0
LINE
  5
18F
330
1F
100
AcDbEntity
  8
0
  6
Continuous
 62
     7
370
     0
100
AcDbLine
 10
7.3651160685
 20
4.9233849846
 30
0.0
 11
7.3651160685
 21
4.8458849846
 31
0.0
  0
LINE
  5
190
330
1F
100
AcDbEntity
  8
0
  6
Continuous
 62
     7
370
     0
100
AcDbLine
 10
7.3551160685
 20
4.9233849846
 30
0.0
 11
7.3651160685
 21
4.9233849846
 31
0.0
  0
LINE
  5
191
330
1F
100
AcDbEntity
  8
0
  6
Continuous
 62
     7
370
     0
100
AcDbLine
 10
7.3551160685
 20
4.9133849846
 30
0.0
 11
7.3551160685
 21
4.9233849846
 31
0.0
  0
LINE
  5
192
330
1F
100
AcDbEntity
  8
0
  6
Continuous
 62
     7
370
     0
100
AcDbLine
 10
7.0151160685
 20
4.9133849846
 30
0.0
 11
7.3551160685
 21
4.9133849846
 31
0.0
  0
LINE
  5
193
330
1F
100
AcDbEntity
  8
0
  6
Continuous
 62
     7
370
     0
100
AcDbLine
 10
7.0151160685
 20
4.9133849846
 30
0.0
 11
7.0051160685
 21
4.9307054926
 31
0.0
  0
LINE
  5
194
330
1F
100
AcDbEntity
  8
0
  6
Continuous
 62
     7
370
     0
100
AcDbLine
 10
7.0051160685
 20
4.9858849846
 30
0.0
 11
7.0051160685
 21
4.9307054926
 31
0.0
  0
LINE
  5
195
330
1F
100
AcDbEntity
  8
0
  6
Continuous
 62
     7
370
     0
100
AcDbLine
 10
7.0051160685
 20
4.9858849846
 30
0.0
 11
7.0151160685
 21
4.9958849846
 31
0.0
  0
LINE
  5
196
330
1F
100
AcDbEntity
  8
0
  6
Continuous
 62
     7
370
     0
100
AcDbLine
 10
7.3551160685
 20
2.8783849846
 30
0.0
 11
7.0151160685
 21
2.8783849846
 31
0.0
  0
LINE
  5
197
330
1F
100
AcDbEntity
  8
0
  6
Continuous
 62
     7
370
     0
100
AcDbLine
 10
7.3551160685
 20
2.8683849846
 30
0.0
 11
7.3551160685
 21
2.8783849846
 31
0.0
  0
LINE
  5
198
330
1F
100
AcDbEntity
  8
0
  6
Continuous
 62
     7
370
     0
100
AcDbLine
 10
7.3651160685
 20
2.8683849846
 30
0.0
 11
7.3551160685
 21
2.8683849846
 31
0.0
  0
LINE
  5
199
330
1F
100
AcDbEntity
  8
0
  6
Continuous
 62
     7
370
     0
100
AcDbLine
 10
7.3651160685
 20
2.9458849846
 30
0.0
 11
7.3651160685
 21
2.8683849846
 31
0.0
  0
LINE
  5
19A
330
1F
100
AcDbEntity
  8
0
  6
Continuous
 62
     7
370
     0
100
AcDbLine
 10
7.5151160685
 20
2.8957054926
 30
0.0
 11
7.5151160685
 21
2.9458849846
 31
0.0
  0
LINE
  5
19B
330
1F
100
AcDbEntity
  8
0
  6
Continuous
 62
     7
370
     0
100
AcDbLine
 10
7.5151160685
 20
2.8957054926
 30
0.0
 11
7.5051160685
 21
2.8783849846
 31
0.0
  0
LINE
  5
19C
330
1F
100
AcDbEntity
  8
0
  6
Continuous
 62
     7
370
     0
100
AcDbLine
 10
7.4051160685
 20
2.8783849846
 30
0.0
 11
7.5051160685
 21
2.8783849846
 31
0.0
  0
LINE
  5
19D
330
1F
100
AcDbEntity
  8
0
  6
Continuous
 62
     7
370
     0
100
AcDbLine
 10
7.4051160685
 20
2.8883849846
 30
0.0
 11
7.4051160685
 21
2.8783849846
 31
0.0
  0
LINE
  5
19E
330
1F
100
AcDbEntity
  8
0
  6
Continuous
 62
     7
370
     0
100
AcDbLine
 10
7.3951160685
 20
2.8883849846
 30
0.0
 11
7.4051160685
 21
2.8883849846
 31
0.0
  0
LINE
  5
19F
330
1F
100
AcDbEntity
  8
0
  6
Continuous
 62
     7
370
     0
100
AcDbLine
 10
7.3951160685
 20
2.8058849846
 30
0.0
 11
7.3951160685
 21
2.8883849846
 31
0.0
  0
LINE
  5
1A0
330
1F
100
AcDbEntity
  8
0
  6
Continuous
 62
     7
370
     0
100
AcDbLine
 10
7.3951160685
 20
2.8058849846
 30
0.0
 11
7.3851160685
 21
2.7958849846
 31
0.0
  0
LINE
  5
1A1
330
1F
100
AcDbEntity
  8
0
  6
Continuous
 62
     7
370
     0
100
AcDbLine
 10
7.2195966342
 20
2.7958849846
 30
0.0
 11
7.2401160685
 21
2.7958849846
 31
0.0
  0
LINE
  5
1A2
330
1F
100
AcDbEntity
  8
0
  6
Continuous
 62
     7
370
     0
100
AcDbLine
 10
7.1963299477
 20
2.7958849846
 30
0.0
 11
7.2195966342
 21
2.7958849846
 31
0.0
  0
LINE
  5
1A3
330
1F
100
AcDbEntity
  8
0
  6
Continuous
 62
     7
370
     0
100
AcDbLine
 10
7.1663182157
 20
2.7958849846
 30
0.0
 11
7.1963299477
 21
2.7958849846
 31
0.0
  0
LINE
  5
1A4
330
1F
100
AcDbEntity
  8
0
  6
Continuous
 62
     7
370
     0
100
AcDbLine
 10
7.0151160685
 20
2.7958849846
 30
0.0
 11
7.0051160685
 21
2.8058849846
 31
0.0
  0
LINE
  5
1A5
330
1F
100
AcDbEntity
  8
0
  6
Continuous
 62
     7
370
     0
100
AcDbLine
 10
7.0051160685
 20
2.8610644765
 30
0.0
 11
7.0051160685
 21
2.8058849846
 31
0.0
  0
LINE
  5
1A6
330
1F
100
AcDbEntity
  8
0
  6
Continuous
 62
     7
370
     0
100
AcDbLine
 10
7.0051160685
 20
2.8610644765
 30
0.0
 11
7.0151160685
 21
2.8783849846
 31
0.0
  0
LINE
  5
1A7
330
1F
100
AcDbEntity
  8
0
  6
Continuous
 62
     7
370
     0
100
AcDbLine
 10
7.0151160685
 20
4.9133849846
 30
0.0
 11
7.0151160685
 21
2.8783849846
 31
0.0
  0
LINE
  5
1A8
330
1F
100
AcDbEntity
  8
0
  6
Continuous
 62
     7
370
     0
100
AcDbLine
 10
7.3551160685
 20
2.8783849846
 30
0.0
 11
7.3551160685
 21
2.8958849846
 31
0.0
  0
LINE
  5
1A9
330
1F
100
AcDbEntity
  8
0
  6
Continuous
 62
     7
370
     0
100
AcDbLine
 10
7.3551160685
 20
4.8958849846
 30
0.0
 11
7.3551160685
 21
4.9133849846
 31
0.0
  0
LINE
  5
1AA
330
1F
100
AcDbEntity
  8
0
  6
Continuous
 62
     7
370
     0
100
AcDbLine
 10
7.0051160685
 20
2.8610644765
 30
0.0
 11
7.0051160685
 21
4.9307054926
 31
0.0
  0
HATCH
  5
1AB
330
1F
100
AcDbEntity
  8
0
  6
Continuous
 62
     7
370
     0
100
AcDbHatch
 10
0.0
 20
0.0
 30
0.0
210
0.0
220
0.0
230
1.0
  2
ANSI31
 70
     0
 71
     0
 91
        1
 92
        0
 93
       20
 72
     1
 10
7.015116068451809
 20
2.878384984573195
 11
7.005116068451809
 21
2.861064476497505
 72
     1
 10
7.005116068451809
 20
2.861064476497505
 11
7.00511606845181
 21
2.805884984573193
 72
     1
 10
7.00511606845181
 20
2.805884984573193
 11
7.015116068451808
 21
2.795884984573195
 72
     1
 10
7.015116068451808
 20
2.795884984573195
 11
7.166318215676347
 21
2.795884984573195
 72
     1
 10
7.166318215676347
 20
2.795884984573195
 11
7.196329947743788
 21
2.795884984573195
 72
     1
 10
7.196329947743788
 20
2.795884984573195
 11
7.2195966341824
 21
2.795884984573195
 72
     1
 10
7.2195966341824
 20
2.795884984573195
 11
7.240116068451809
 21
2.795884984573195
 72
     1
 10
7.240116068451809
 20
2.795884984573195
 11
7.38511606845181
 21
2.795884984573195
 72
     1
 10
7.38511606845181
 20
2.795884984573195
 11
7.395116068451808
 21
2.805884984573194
 72
     1
 10
7.395116068451808
 20
2.805884984573194
 11
7.395116068451808
 21
2.888384984573195
 72
     1
 10
7.395116068451808
 20
2.888384984573195
 11
7.405116068451809
 21
2.888384984573195
 72
     1
 10
7.405116068451809
 20
2.888384984573195
 11
7.405116068451809
 21
2.878384984573195
 72
     1
 10
7.405116068451809
 20
2.878384984573195
 11
7.50511606845181
 21
2.878384984573195
 72
     1
 10
7.50511606845181
 20
2.878384984573195
 11
7.515116068451809
 21
2.895705492648884
 72
     1
 10
7.515116068451809
 20
2.895705492648884
 11
7.515116068451809
 21
2.945884984573195
 72
     1
 10
7.515116068451809
 20
2.945884984573195
 11
7.365116068451809
 21
2.945884984573195
 72
     1
 10
7.365116068451809
 20
2.945884984573195
 11
7.365116068451809
 21
2.868384984573195
 72
     1
 10
7.365116068451809
 20
2.868384984573195
 11
7.355116068451809
 21
2.868384984573195
 72
     1
 10
7.355116068451809
 20
2.868384984573195
 11
7.355116068451809
 21
2.878384984573195
 72
     1
 10
7.355116068451809
 20
2.878384984573195
 11
7.015116068451809
 21
2.878384984573195
 97
        0
 75
     0
 76
     1
 52
0.0
 41
1.0
 77
     0
 78
     1
 53
45.0
 43
0.0
 44
0.0
 45
-0.0883883476483184
 46
0.0883883476483184
 79
     0
 98
        1
 10
0.0
 20
0.0
  0
HATCH
  5
1AC
330
1F
100
AcDbEntity
  8
0
  6
Continuous
 62
     7
370
     0
100
AcDbHatch
 10
0.0
 20
0.0
 30
0.0
210
0.0
220
0.0
230
1.0
  2
ANSI31
 70
     0
 71
     0
 91
        1
 92
        0
 93
       28
 72
     1
 10
7.151530269261722
 20
4.995884984573195
 11
7.143043589336665
 21
4.995884984573195
 72
     1
 10
7.143043589336665
 20
4.995884984573195
 11
7.119558805360278
 21
4.995884984573195
 72
     1
 10
7.119558805360278
 20
4.995884984573195
 11
7.110218589899765
 21
4.995884984573195
 72
     1
 10
7.110218589899765
 20
4.995884984573195
 11
7.015116068451808
 21
4.995884984573195
 72
     1
 10
7.015116068451808
 20
4.995884984573195
 11
7.005116068451809
 21
4.985884984573196
 72
     1
 10
7.005116068451809
 20
4.985884984573196
 11
7.005116068451809
 21
4.930705492648884
 72
     1
 10
7.005116068451809
 20
4.930705492648884
 11
7.015116068451809
 21
4.913384984573194
 72
     1
 10
7.015116068451809
 20
4.913384984573194
 11
7.355116068451809
 21
4.913384984573194
 72
     1
 10
7.355116068451809
 20
4.913384984573194
 11
7.355116068451809
 21
4.923384984573195
 72
     1
 10
7.355116068451809
 20
4.923384984573195
 11
7.365116068451809
 21
4.923384984573195
 72
     1
 10
7.365116068451809
 20
4.923384984573195
 11
7.365116068451809
 21
4.845884984573195
 72
     1
 10
7.365116068451809
 20
4.845884984573195
 11
7.515116068451809
 21
4.845884984573195
 72
     1
 10
7.515116068451809
 20
4.845884984573195
 11
7.515116068451809
 21
4.896064476497506
 72
     1
 10
7.515116068451809
 20
4.896064476497506
 11
7.50511606845181
 21
4.913384984573194
 72
     1
 10
7.50511606845181
 20
4.913384984573194
 11
7.405116068451809
 21
4.913384984573194
 72
     1
 10
7.405116068451809
 20
4.913384984573194
 11
7.405116068451809
 21
4.903384984573195
 72
     1
 10
7.405116068451809
 20
4.903384984573195
 11
7.395116068451808
 21
4.903384984573195
 72
     1
 10
7.395116068451808
 20
4.903384984573195
 11
7.395116068451808
 21
4.985884984573196
 72
     1
 10
7.395116068451808
 20
4.985884984573196
 11
7.38511606845181
 21
4.995884984573195
 72
     1
 10
7.38511606845181
 20
4.995884984573195
 11
7.290116068451809
 21
4.995884984573195
 72
     1
 10
7.290116068451809
 20
4.995884984573195
 11
7.280885299221039
 21
4.995884984573195
 72
     1
 10
7.280885299221039
 20
4.995884984573195
 11
7.253192991528731
 21
4.995884984573195
 72
     1
 10
7.253192991528731
 20
4.995884984573195
 11
7.243962222297962
 21
4.995884984573195
 72
     1
 10
7.243962222297962
 20
4.995884984573195
 11
7.219346837682577
 21
4.995884984573195
 72
     1
 10
7.219346837682577
 20
4.995884984573195
 11
7.210116068451808
 21
4.995884984573195
 72
     1
 10
7.210116068451808
 20
4.995884984573195
 11
7.19101833442801
 21
4.995884984573195
 72
     1
 10
7.19101833442801
 20
4.995884984573195
 11
7.181650798453334
 21
4.995884984573195
 72
     1
 10
7.181650798453334
 20
4.995884984573195
 11
7.151530269261722
 21
4.995884984573195
 97
        0
 75
     0
 76
     1
 52
0.0
 41
1.0
 77
     0
 78
     1
 53
45.0
 43
0.0
 44
0.0
 45
-0.0883883476483184
 46
0.0883883476483184
 79
     0
 98
        1
 10
0.0
 20
0.0
  0
HATCH
  5
1AD
330
1F
100
AcDbEntity
  8
0
  6
Continuous
 62
     7
370
     0
100
AcDbHatch
 10
0.0
 20
0.0
 30
0.0
210
0.0
220
0.0
230
1.0
  2
ANSI31
 70
     0
 71
     0
 91
        1
 92
        0
 93
        9
 72
     2
 10
11.6643232932185
 20
3.888909378251364
 40
4.52755905511811
 50
179.9117244071163
 51
192.59740937491
 73
     1
 72
     1
 10
7.245757868355015
 20
2.901452754503797
 11
7.251325638285618
 21
2.895884984573193
 72
     1
 10
7.251325638285618
 20
2.895884984573193
 11
7.359548298521206
 21
2.895884984573193
 72
     1
 10
7.359548298521206
 20
2.895884984573193
 11
7.365116068451809
 21
2.901452754503797
 72
     1
 10
7.365116068451809
 20
2.901452754503797
 11
7.365116068451809
 21
4.890317214642594
 72
     1
 10
7.365116068451809
 20
4.890317214642594
 11
7.359548298521206
 21
4.895884984573196
 72
     1
 10
7.359548298521206
 20
4.895884984573196
 11
7.251325638285618
 21
4.895884984573197
 72
     1
 10
7.251325638285618
 20
4.895884984573197
 11
7.245757868355016
 21
4.890317214642594
 72
     2
 10
11.6643232932185
 20
3.902860590895026
 40
4.52755905511811
 50
167.4025906250908
 51
180.0882755928845
 73
     1
 97
        0
 75
     0
 76
     1
 52
0.0
 41
1.0
 77
     0
 78
     1
 53
45.0
 43
0.0
 44
0.0
 45
-0.0883883476483184
 46
0.0883883476483184
 79
     0
 98
        1
 10
0.0
 20
0.0
  0
HATCH
  5
1AE
330
1F
100
AcDbEntity
  8
0
  6
Continuous
 62
     7
370
     0
100
AcDbHatch
 10
0.0
 20
0.0
 30
0.0
210
0.0
220
0.0
230
1.0
  2
ANSI31
 70
     0
 71
     0
 91
        1
 92
        0
 93
        8
 72
     1
 10
7.239786179885923
 20
2.928564476497507
 11
7.229786179885923
 21
2.945884984573195
 72
     1
 10
7.229786179885923
 20
2.945884984573195
 11
7.157106687961613
 21
2.945884984573195
 72
     1
 10
7.157106687961613
 20
2.945884984573195
 11
7.139786179885922
 21
2.935884984573194
 72
     1
 10
7.139786179885922
 20
2.935884984573194
 11
7.139786179885922
 21
2.895705492648883
 72
     1
 10
7.139786179885922
 20
2.895705492648883
 11
7.149786179885922
 21
2.878384984573195
 72
     1
 10
7.149786179885922
 20
2.878384984573195
 11
7.222465671810233
 21
2.878384984573195
 72
     1
 10
7.222465671810233
 20
2.878384984573195
 11
7.239786179885923
 21
2.888384984573196
 72
     1
 10
7.239786179885923
 20
2.888384984573196
 11
7.239786179885923
 21
2.928564476497507
 97
        0
 75
     0
 76
     1
 52
90.0
 41
0.25
 77
     0
 78
     1
 53
135.0000000000002
 43
0.0
 44
0.0
 45
-0.0220970869120795
 46
-0.0220970869120797
 79
     0
 98
        1
 10
0.0
 20
0.0
  0
HATCH
  5
1AF
330
1F
100
AcDbEntity
  8
0
  6
Continuous
 62
     7
370
     0
100
AcDbHatch
 10
0.0
 20
0.0
 30
0.0
210
0.0
220
0.0
230
1.0
  2
ANSI31
 70
     0
 71
     0
 91
        1
 92
        0
 93
        8
 72
     1
 10
7.229786179885929
 20
4.845884984573195
 11
7.23978617988593
 21
4.863205492648883
 72
     1
 10
7.23978617988593
 20
4.863205492648883
 11
7.23978617988593
 21
4.903384984573194
 72
     1
 10
7.23978617988593
 20
4.903384984573194
 11
7.222465671810241
 21
4.913384984573195
 72
     1
 10
7.222465671810241
 20
4.913384984573195
 11
7.149786179885929
 21
4.913384984573195
 72
     1
 10
7.149786179885929
 20
4.913384984573195
 11
7.13978617988593
 21
4.896064476497508
 72
     1
 10
7.13978617988593
 20
4.896064476497508
 11
7.13978617988593
 21
4.855884984573196
 72
     1
 10
7.13978617988593
 20
4.855884984573196
 11
7.157106687961621
 21
4.845884984573195
 72
     1
 10
7.157106687961621
 20
4.845884984573195
 11
7.229786179885929
 21
4.845884984573195
 97
        0
 75
     0
 76
     1
 52
90.0
 41
0.25
 77
     0
 78
     1
 53
135.0000000000002
 43
0.0
 44
0.0
 45
-0.0220970869120795
 46
-0.0220970869120797
 79
     0
 98
        1
 10
0.0
 20
0.0
  0
DIMENSION
  5
1B0
330
1F
100
AcDbEntity
  8
0
  6
Continuous
 62
     7
370
     0
100
AcDbDimension
  2
_D_1
 10
8.1763403219
 20
2.9458849846
 30
0.0
 11
8.1763403219
 21
3.8958849846
 31
0.0
 70
   160
  1
%%c<>
 71
     2
 42
-1.0
  3
SLDDIMSTYLE1
100
AcDbAlignedDimension
 13
7.5151160685
 23
4.8458849846
 33
0.0
 14
7.5151160685
 24
2.9458849846
 34
0.0
 50
90.0
100
AcDbRotatedDimension
  0
DIMENSION
  5
1C4
330
1F
100
AcDbEntity
  8
0
  6
Continuous
 62
     7
370
     0
100
AcDbDimension
  2
_D_2
 10
7.5151160685
 20
5.1650766072
 30
0.0
 11
8.1763403219
 21
5.1650766072
 31
0.0
 70
   160
  1
<>
 71
     2
 42
-1.0
  3
SLDDIMSTYLE2
100
AcDbAlignedDimension
 13
7.3951160685
 23
4.9858849846
 33
0.0
 14
7.5151160685
 24
4.8960644765
 34
0.0
100
AcDbRotatedDimension
  0
DIMENSION
  5
1D9
330
1F
100
AcDbEntity
  8
0
  6
Continuous
 62
     7
370
     0
100
AcDbDimension
  2
_D_3
 10
7.5151160685
 20
5.5865864249
 30
0.0
 11
8.1763403219
 21
5.5865864249
 31
0.0
 70
   160
  1
<>
 71
     2
 42
-1.0
  3
SLDDIMSTYLE2
100
AcDbAlignedDimension
 13
7.0051160685
 23
4.9858849846
 33
0.0
 14
7.5151160685
 24
4.8960644765
 34
0.0
100
AcDbRotatedDimension
  0
INSERT
  5
1F2
102
{ACAD_REACTORS
330
1F4
102
}
330
1F
100
AcDbEntity
  8
0
  6
Continuous
 62
     7
370
     0
100
AcDbBlockReference
  2
SW_NOTE_5
 10
6.5064333776
 20
3.5457336871
 30
0.0
  0
LEADER
  5
1F4
330
1F
100
AcDbEntity
  8
0
  6
Continuous
 62
     7
370
     0
100
AcDbLeader
  3
SLDDIMSTYLE3
 73
     2
 76
     3
 10
7.1354335106
 20
3.0283883886
 30
0.0
 10
6.7524963697
 20
3.5457336871
 30
0.0
 10
6.5064333776
 20
3.5457336871
 30
0.0
340
1F2
  0
INSERT
  5
1FA
102
{ACAD_REACTORS
330
1FB
102
}
330
1F
100
AcDbEntity
  8
0
  6
Continuous
 62
     7
370
     0
100
AcDbBlockReference
  2
SW_NOTE_6
 10
6.3174878479
 20
2.3735001967
 30
0.0
  0
LEADER
  5
1FB
330
1F
100
AcDbEntity
  8
0
  6
Continuous
 62
     7
370
     0
100
AcDbLeader
  3
SLDDIMSTYLE3
 73
     2
 76
     3
 10
7.1173225497
 20
2.7958849846
 30
0.0
 10
6.56355084
 20
2.3735001967
 30
0.0
 10
6.3174878479
 20
2.3735001967
 30
0.0
340
1FA
  0
INSERT
  5
203
102
{ACAD_REACTORS
330
204
102
}
330
1F
100
AcDbEntity
  8
0
  6
Continuous
 62
     7
370
     0
100
AcDbBlockReference
  2
SW_NOTE_7
 10
8.0914766286
 20
2.3513083475
 30
0.0
  0
LEADER
  5
204
330
1F
100
AcDbEntity
  8
0
  6
Continuous
 62
     7
370
     0
100
AcDbLeader
  3
SLDDIMSTYLE3
 73
     2
 76
     3
 10
7.4472038406
 20
2.8783849846
 30
0.0
 10
7.8414766286
 20
2.3513083475
 30
0.0
 10
8.0914766286
 20
2.3513083475
 30
0.0
340
203
  0
INSERT
  5
20A
102
{ACAD_REACTORS
330
20B
102
}
330
1F
100
AcDbEntity
  8
0
  6
Continuous
 62
     7
370
     0
100
AcDbBlockReference
  2
SW_NOTE_8
 10
8.0655085969
 20
2.697406819
 30
0.0
  0
LEADER
  5
20B
330
1F
100
AcDbEntity
  8
0
  6
Continuous
 62
     7
370
     0
100
AcDbLeader
  3
SLDDIMSTYLE3
 73
     2
 76
     3
 10
7.3651160685
 20
3.2186897588
 30
0.0
 10
7.8194456047
 20
2.697406819
 30
0.0
 10
8.0655085969
 20
2.697406819
 30
0.0
340
20A
  0
INSERT
  5
212
102
{ACAD_REACTORS
330
213
102
}
330
1F
100
AcDbEntity
  8
0
  6
Continuous
 62
     7
370
     0
100
AcDbBlockReference
  2
SW_NOTE_9
 10
6.5780459601
 20
3.1687869658
 30
0.0
  0
LEADER
  5
213
330
1F
100
AcDbEntity
  8
0
  6
Continuous
 62
     7
370
     0
100
AcDbLeader
  3
SLDDIMSTYLE3
 73
     2
 76
     3
 10
7.0797602374
 20
2.8836378782
 30
0.0
 10
6.8280459601
 20
3.1687869658
 30
0.0
 10
6.5780459601
 20
3.1687869658
 30
0.0
340
212
  0
OLE2FRAME
  5
214
330
1F
100
AcDbEntity
  8
0
100
AcDbOle2Frame
 70
     2
  3
Paintbrush Picture
 10
9.0178120406
 20
1.3267570784
 30
0.0
 11
10.4397105087
 21
1.1242314806
 31
0.0
 71
     2
 72
     0
 73
     1
 90
     7296
310
8055C64EE7A81E092240C05F59A1653AF53F0000000000000000FD155DBC21E1
310
2440C05F59A1653AF53F0000000000000000FD155DBC21E12440A1732426DAFC
310
F13F0000000000000000C64EE7A81E092240A1732426DAFCF13F000000000000
310
00000000000001000000000100000100000001000000000001000000001C0000
310
D0CF11E0A1B11AE1000000000000000000000000000000003E000300FEFF0900
310
0600000000000000000000000100000001000000000000000010000002000000
310
01000000FEFFFFFF0000000000000000FFFFFFFFFFFFFFFFFFFFFFFFFFFFFFFF
310
FFFFFFFFFFFFFFFFFFFFFFFFFFFFFFFFFFFFFFFFFFFFFFFFFFFFFFFFFFFFFFFF
310
FFFFFFFFFFFFFFFFFFFFFFFFFFFFFFFFFFFFFFFFFFFFFFFFFFFFFFFFFFFFFFFF
310
FFFFFFFFFFFFFFFFFFFFFFFFFFFFFFFFFFFFFFFFFFFFFFFFFFFFFFFFFFFFFFFF
310
FFFFFFFFFFFFFFFFFFFFFFFFFFFFFFFFFFFFFFFFFFFFFFFFFFFFFFFFFFFFFFFF
310
FFFFFFFFFFFFFFFFFFFFFFFFFFFFFFFFFFFFFFFFFFFFFFFFFFFFFFFFFFFFFFFF
310
FFFFFFFFFFFFFFFFFFFFFFFFFFFFFFFFFFFFFFFFFFFFFFFFFFFFFFFFFFFFFFFF
310
FFFFFFFFFFFFFFFFFFFFFFFFFFFFFFFFFFFFFFFFFFFFFFFFFFFFFFFFFFFFFFFF
310
FFFFFFFFFFFFFFFFFFFFFFFFFFFFFFFFFFFFFFFFFFFFFFFFFFFFFFFFFFFFFFFF
310
FFFFFFFFFFFFFFFFFFFFFFFFFFFFFFFFFFFFFFFFFFFFFFFFFFFFFFFFFFFFFFFF
310
FFFFFFFFFFFFFFFFFFFFFFFFFFFFFFFFFFFFFFFFFFFFFFFFFFFFFFFFFFFFFFFF
310
FFFFFFFFFFFFFFFFFFFFFFFFFFFFFFFFFFFFFFFFFFFFFFFFFFFFFFFFFFFFFFFF
310
FFFFFFFFFFFFFFFFFFFFFFFFFFFFFFFFFFFFFFFFFFFFFFFFFFFFFFFFFFFFFFFF
310
FFFFFFFFFFFFFFFFFFFFFFFFFFFFFFFFFFFFFFFFFFFFFFFFFFFFFFFFFFFFFFFF
310
FDFFFFFFFEFFFFFFFEFFFFFFFEFFFFFF05000000060000000700000008000000
310
090000000A0000000B0000000C000000FEFFFFFFFFFFFFFFFFFFFFFFFFFFFFFF
310
FFFFFFFFFFFFFFFFFFFFFFFFFFFFFFFFFFFFFFFFFFFFFFFFFFFFFFFFFFFFFFFF
310
FFFFFFFFFFFFFFFFFFFFFFFFFFFFFFFFFFFFFFFFFFFFFFFFFFFFFFFFFFFFFFFF
310
FFFFFFFFFFFFFFFFFFFFFFFFFFFFFFFFFFFFFFFFFFFFFFFFFFFFFFFFFFFFFFFF
310
FFFFFFFFFFFFFFFFFFFFFFFFFFFFFFFFFFFFFFFFFFFFFFFFFFFFFFFFFFFFFFFF
310
FFFFFFFFFFFFFFFFFFFFFFFFFFFFFFFFFFFFFFFFFFFFFFFFFFFFFFFFFFFFFFFF
310
FFFFFFFFFFFFFFFFFFFFFFFFFFFFFFFFFFFFFFFFFFFFFFFFFFFFFFFFFFFFFFFF
310
FFFFFFFFFFFFFFFFFFFFFFFFFFFFFFFFFFFFFFFFFFFFFFFFFFFFFFFFFFFFFFFF
310
FFFFFFFFFFFFFFFFFFFFFFFFFFFFFFFFFFFFFFFFFFFFFFFFFFFFFFFFFFFFFFFF
310
FFFFFFFFFFFFFFFFFFFFFFFFFFFFFFFFFFFFFFFFFFFFFFFFFFFFFFFFFFFFFFFF
310
FFFFFFFFFFFFFFFFFFFFFFFFFFFFFFFFFFFFFFFFFFFFFFFFFFFFFFFFFFFFFFFF
310
FFFFFFFFFFFFFFFFFFFFFFFFFFFFFFFFFFFFFFFFFFFFFFFFFFFFFFFFFFFFFFFF
310
FFFFFFFFFFFFFFFFFFFFFFFFFFFFFFFFFFFFFFFFFFFFFFFFFFFFFFFFFFFFFFFF
310
FFFFFFFFFFFFFFFFFFFFFFFFFFFFFFFFFFFFFFFFFFFFFFFFFFFFFFFFFFFFFFFF
310
FFFFFFFFFFFFFFFFFFFFFFFFFFFFFFFFFFFFFFFFFFFFFFFFFFFFFFFFFFFFFFFF
310
52006F006F007400200045006E00740072007900000000000000000000000000
310
0000000000000000000000000000000000000000000000000000000000000000
310
16000500FFFFFFFFFFFFFFFF020000000A00030000000000C000000000000046
310
000000000000000000000000E0CDFA4BE138D10103000000C000000000000000
310
01004F006C006500000000000000000000000000000000000000000000000000
310
0000000000000000000000000000000000000000000000000000000000000000
310
0A000200FFFFFFFFFFFFFFFFFFFFFFFF00000000000000000000000000000000
310
0000000000000000000000000000000000000000000000001400000000000000
310
010043006F006D0070004F0062006A0000000000000000000000000000000000
310
0000000000000000000000000000000000000000000000000000000000000000
310
120002010100000003000000FFFFFFFF00000000000000000000000000000000
310
0000000000000000000000000000000000000000010000004D00000000000000
310
01004F006C006500310030004E00610074006900760065000000000000000000
310
0000000000000000000000000000000000000000000000000000000000000000
310
1A000200FFFFFFFFFFFFFFFFFFFFFFFF00000000000000000000000000000000
310
000000000000000000000000000000000000000004000000E411000000000000
310
FEFFFFFF02000000FEFFFFFFFFFFFFFFFFFFFFFFFFFFFFFFFFFFFFFFFFFFFFFF
310
FFFFFFFFFFFFFFFFFFFFFFFFFFFFFFFFFFFFFFFFFFFFFFFFFFFFFFFFFFFFFFFF
310
FFFFFFFFFFFFFFFFFFFFFFFFFFFFFFFFFFFFFFFFFFFFFFFFFFFFFFFFFFFFFFFF
310
FFFFFFFFFFFFFFFFFFFFFFFFFFFFFFFFFFFFFFFFFFFFFFFFFFFFFFFFFFFFFFFF
310
FFFFFFFFFFFFFFFFFFFFFFFFFFFFFFFFFFFFFFFFFFFFFFFFFFFFFFFFFFFFFFFF
310
FFFFFFFFFFFFFFFFFFFFFFFFFFFFFFFFFFFFFFFFFFFFFFFFFFFFFFFFFFFFFFFF
310
FFFFFFFFFFFFFFFFFFFFFFFFFFFFFFFFFFFFFFFFFFFFFFFFFFFFFFFFFFFFFFFF
310
FFFFFFFFFFFFFFFFFFFFFFFFFFFFFFFFFFFFFFFFFFFFFFFFFFFFFFFFFFFFFFFF
310
FFFFFFFFFFFFFFFFFFFFFFFFFFFFFFFFFFFFFFFFFFFFFFFFFFFFFFFFFFFFFFFF
310
FFFFFFFFFFFFFFFFFFFFFFFFFFFFFFFFFFFFFFFFFFFFFFFFFFFFFFFFFFFFFFFF
310
FFFFFFFFFFFFFFFFFFFFFFFFFFFFFFFFFFFFFFFFFFFFFFFFFFFFFFFFFFFFFFFF
310
FFFFFFFFFFFFFFFFFFFFFFFFFFFFFFFFFFFFFFFFFFFFFFFFFFFFFFFFFFFFFFFF
310
FFFFFFFFFFFFFFFFFFFFFFFFFFFFFFFFFFFFFFFFFFFFFFFFFFFFFFFFFFFFFFFF
310
FFFFFFFFFFFFFFFFFFFFFFFFFFFFFFFFFFFFFFFFFFFFFFFFFFFFFFFFFFFFFFFF
310
FFFFFFFFFFFFFFFFFFFFFFFFFFFFFFFFFFFFFFFFFFFFFFFFFFFFFFFFFFFFFFFF
310
FFFFFFFFFFFFFFFFFFFFFFFFFFFFFFFFFFFFFFFFFFFFFFFFFFFFFFFFFFFFFFFF
310
0100000200000000000000000000000000000000000000000000000000000000
310
0000000000000000000000000000000000000000000000000000000000000000
310
0100FEFF030A0000FFFFFFFF0A00030000000000C00000000000004607000000
310
5042727573680007000000504272757368000700000050427275736800F439B2
310
7100000000000000000000000000000000000000000000000000000000000000
310
0000000000000000000000000000000000000000000000000000000000000000
310
0000000000000000000000000000000000000000000000000000000000000000
310
0000000000000000000000000000000000000000000000000000000000000000
310
0000000000000000000000000000000000000000000000000000000000000000
310
0000000000000000000000000000000000000000000000000000000000000000
310
0000000000000000000000000000000000000000000000000000000000000000
310
0000000000000000000000000000000000000000000000000000000000000000
310
0000000000000000000000000000000000000000000000000000000000000000
310
0000000000000000000000000000000000000000000000000000000000000000
310
0000000000000000000000000000000000000000000000000000000000000000
310
0000000000000000000000000000000000000000000000000000000000000000
310
E0110000424DDE11000000000000360400002800000096000000170000000100
310
08000000000000000000E7240000E72400000001000000010000000000FF0101
310
01FF020202FF030303FF040404FF050505FF060606FF070707FF080808FF0909
310
09FF0A0A0AFF0B0B0BFF0C0C0CFF0D0D0DFF0E0E0EFF0F0F0FFF101010FF1111
310
11FF121212FF131313FF141414FF151515FF161616FF171717FF181818FF1919
310
19FF1A1A1AFF1B1B1BFF1C1C1CFF1D1D1DFF1E1E1EFF1F1F1FFF202020FF2121
310
21FF222222FF232323FF242424FF252525FF262626FF272727FF282828FF2929
310
29FF2A2A2AFF2B2B2BFF2C2C2CFF2D2D2DFF2E2E2EFF2F2F2FFF303030FF3131
310
31FF323232FF333333FF343434FF353535FF363636FF373737FF383838FF3939
310
39FF3A3A3AFF3B3B3BFF3C3C3CFF3D3D3DFF3E3E3EFF3F3F3FFF404040FF4141
310
41FF424242FF434343FF444444FF454545FF464646FF474747FF484848FF4949
310
49FF4A4A4AFF4B4B4BFF4C4C4CFF4D4D4DFF4E4E4EFF4F4F4FFF505050FF5151
310
51FF525252FF535353FF545454FF555555FF565656FF575757FF585858FF5959
310
59FF5A5A5AFF5B5B5BFF5C5C5CFF5D5D5DFF5E5E5EFF5F5F5FFF606060FF6161
310
61FF626262FF636363FF646464FF656565FF666666FF676767FF686868FF6969
310
69FF6A6A6AFF6B6B6BFF6C6C6CFF6D6D6DFF6E6E6EFF6F6F6FFF707070FF7171
310
71FF727272FF737373FF747474FF757575FF767676FF777777FF787878FF7979
310
79FF7A7A7AFF7B7B7BFF7C7C7CFF7D7D7DFF7E7E7EFF7F7F7FFF808080FF8181
310
81FF828282FF838383FF848484FF858585FF868686FF878787FF888888FF8989
310
89FF8A8A8AFF8B8B8BFF8C8C8CFF8D8D8DFF8E8E8EFF8F8F8FFF909090FF9191
310
91FF929292FF939393FF949494FF959595FF969696FF979797FF989898FF9999
310
99FF9A9A9AFF9B9B9BFF9C9C9CFF9D9D9DFF9E9E9EFF9F9F9FFFA0A0A0FFA1A1
310
A1FFA2A2A2FFA3A3A3FFA4A4A4FFA5A5A5FFA6A6A6FFA7A7A7FFA8A8A8FFA9A9
310
A9FFAAAAAAFFABABABFFACACACFFADADADFFAEAEAEFFAFAFAFFFB0B0B0FFB1B1
310
B1FFB2B2B2FFB3B3B3FFB4B4B4FFB5B5B5FFB6B6B6FFB7B7B7FFB8B8B8FFB9B9
310
B9FFBABABAFFBBBBBBFFBCBCBCFFBDBDBDFFBEBEBEFFBFBFBFFFC0C0C0FFC1C1
310
C1FFC2C2C2FFC3C3C3FFC4C4C4FFC5C5C5FFC6C6C6FFC7C7C7FFC8C8C8FFC9C9
310
C9FFCACACAFFCBCBCBFFCCCCCCFFCDCDCDFFCECECEFFCFCFCFFFD0D0D0FFD1D1
310
D1FFD2D2D2FFD3D3D3FFD4D4D4FFD5D5D5FFD6D6D6FFD7D7D7FFD8D8D8FFD9D9
310
D9FFDADADAFFDBDBDBFFDCDCDCFFDDDDDDFFDEDEDEFFDFDFDFFFE0E0E0FFE1E1
310
E1FFE2E2E2FFE3E3E3FFE4E4E4FFE5E5E5FFE6E6E6FFE7E7E7FFE8E8E8FFE9E9
310
E9FFEAEAEAFFEBEBEBFFECECECFFEDEDEDFFEEEEEEFFEFEFEFFFF0F0F0FFF1F1
310
F1FFF2F2F2FFF3F3F3FFF4F4F4FFF5F5F5FFF6F6F6FFF7F7F7FFF8F8F8FFF9F9
310
F9FFFAFAFAFFFBFBFBFFFCFCFCFFFDFDFDFFFEFEFEFFFFFFFFFFFFFFFFFFFFFF
310
C94E4E4E4F4E4EFFFFFFFFFFC94E4E4E4E4E72FFFFFFFFFFFFFF734E4D4E4E4E
310
C9FFFFFFFFFFAA683516171616265B9BE9FFFFFFFFFF4E4E4E4D4E4EFFFFFFFF
310
FFFFFFFF4E4E4F4E4D4E4E4E4F4E4E4F4D4E4E4E4E4E4D4E4F4E4D4E4E4EAAFF
310
FFFFFFFFFFEA4E4F4F4E4E4E4E4E4D4D4F4F4E4E4E4E4E5B7FAAFFFFFFFFFFFF
310
C9744E1716171616164D8DEAFFFFFFFF0000FFFFFFFFFFFFBA161617161716FF
310
FFFFFFFFB917171616174FFFFFFFFFFFFFFF4E1716161616B9FFFFFFB9341717
310
1716171617171616268CFFFFFFFF161617161617FFFFFFFFFFFFFFB917161717
310
1617167F807F7F7F7F7F7F807F7F807F7F807F7F7F414EFFFFFFFFFFFF8C167F
310
7F807F7F7F7E7F7F807F807F7F807F4E3417258EFFFFEA4E162674AABAEAEBBA
310
AA74341680FFFFFF0000FFFFFFFFFFFFB9171717171617FFFFFFFFFFBB161616
310
16164EFFFFFFFFFFFFFF4E1717171717B9FFFF9C171617171716161616171616
310
171766FFFFFF161717161617FFFFFFFFFFFFFF8E16171717161616FFFFFFFFFF
310
FFFFFFFFFFFFFFFFFFFFFFFFFFAA16D9FFFFFFFFFF3467FFFFFFFFEAFFFFFFFF
310
FFFFFFFFFFFFFFFFFFCA671667EB26278DFFFFFFFFFFFFFFFFFFFF8C2541EAFF
310
0000FFFFFFFFFFFFB9171717171716FFFFFFFFFFBA16171617174EFFFFFFFFFF
310
FFFF4E1717161616BAFF9B1617161616171716171617161616161667FFFF1616
310
16161716FFFFFFFFFFFFFF7F16161617174017FFFFFFFFFFFFFFFFFFFFFFFFFF
310
FFFFFFFFFFFF344E7F7F7F7E7417DAFFFFFFFF80FFFFFFFFFFFFFFFFFFFFFFFF
310
FFFFFF9B163425CAFFFFFFFFFFFFFFFFFFFFFFFFCA2667FF0000FFFFFFFFFFFF
310
BA171717171617FFFFFFFFFFB916171716164EFFFFFFFFFFFFFF4F1716161717
310
B9C91716171616161716161617171616161617168DFF161716161717FFFFFFFF
310
FFFFFF7F17171716164F16FFFFFFFFFFFFFFFFFFFFFFFFFFFFFFFFFFFFFF9B16
310
17161617174EFFFFFFFFFF34FFFFFFFFD9BABABABABADAFFFFFFFFFF7F16AAFF
310
FFFFFFFFFFFFFFFFFFFFFFFFFF9C16BA0000FFFFFFFFFFFFB9161717161717FF
310
FFFFFFFFB917161716174DFFFFFFFFFFFFFF4E1616161616BA4E161617171716
310
419BEAEAAA4E16161617161726E9171717161616FFFFFFFFFFFFFF4F16161717
310
164E16FFFFFFFFFFBAB9B9B9B9B9BABABACAFFFFFFFFFFFFFFFFFFFFFFFFFFFF
310
FFFFBA16FFFFFFFF7F1617161617174DEAFFFFFFEA41FFFFFFFFFFAA4D16174E
310
9BFFFFFFFFFF34730000FFFFFFFFFFFFB9161617171617FFFFFFFFFFBA161616
310
16164EFFFFFFFFFFFFFF4F16161717169B1617161716175BFFFFFFFFFFFF7417
310
16171616168D171717161617FFFFFFFFFFFFEA2616171717167416FFFFFFFFFF
310
16171616171717171717EAFFFFFFFFFFFFFFFFFFFFFFFFFFFFFF6716FFFFFFFF
310
7F4EFFFFFFFFBA2573FFFFFFFFBAFFFFFFFFAA167FB9BB9B269BFFFFFFFF664F
310
0000FFFFFFFFFFFFB9171616161616FFFFFFFFFFBA16161717164EFFFFFFFFFF
310
FFFF4E16161616174E161617171626EAFFFFFFFFFFFFFF4E16161616164E1716
310
16161617FFFFFFFFFFFF671616161716347F16FFFFFFFFFF16B9FFFFFFFFFFFF
310
D9168DFFFFFFFFFFFFFFFFFFFFFFFFFFFFEA1716FFFFFFFF7F4EFFFFFFFFFF7F
310
4EFFFFFFFFFFFFFFFFFF5B66FFFFFFEA347FFFFFFFFF7F4D0000FFFFFFFFFFFF
310
B9171616171617FFFFFFFFFFBA17161716174EFFFFFFFFFFFFFF4D1716161617
310
17161716161673FFFFFFFFFFFFFFFF9B1617161717161616171616174F4E4E4E
310
4E341616171616167E7F16FFFFFFFFFF16BAFFFFFFFFFFFFFF5B41FFFFFFFF34
310
1616171616BAFFFFFF9B1716FFFFFFFF7F4EFFFFFFFFFF4E4EFFFFFFFF734E4E
310
4E4E267EDA9B67164EEAFFFFFFFF744D0000FFFFFFFFFFFFBA171717161617FF
310
FFFFFFFFBA1616171616347F7F7F7F80807F331616161717161717161716B9FF
310
FFFFFFFFFFFFFFE9161616161616171716161716171616161616171616171734
310
EA7F16FFFFFFFFFF16BAFFFFFFFFFFFFFFAA17C9FFFFFF7326BABA5B25FFFFFF
310
FF401716FFFFFFFF7F264F4E4E4E4217AAFFFFFFEA16677F73261616164173CA
310
FFFFFFFFFFFF417F0000FFFFFFFFFFFFBA171616171617FFFFFFFFFFBA161616
310
17171616161616161616161717161616161616161617EAFFFFFFFFFFFFFFFFFF
310
261717161716161617161616161617161617161616174EEAFF8016FFFFFFFFFF
310
17BAFFFFFFFFFFFFFFFF3467FFFFFFC916C9FF3467FFFFFFDA166716FFFFFFFF
310
9C4D4E4E4E4E67AAFFFFFFFF6834FF7F262567AAEAFFFFFFFFFFFFFFFF9B17D9
310
0000FFFFFFFFFFFFB9161616161616FFFFFFFFFFBA1617161717171616161616
310
1716171716161716161617171716FFFFFFFFFFFFFFFFFFFF4E17161716171616
310
1617171616161716171717161616169BFF7F17FFFFFFFFFF17B9FFFFFFFFFFFF
310
FFFF7326FFFFFFFF3473DA16AAFFFFFF7317AA16FFFFFFFFFFFFFFFFFFFFFFFF
310
FFFFEA6725BA4E167FEAFFFFFFFFFFFFFFFFFFFF9C167FFF0000FFFFFFFFFFFF
310
B9161717171716FFFFFFFFFFBA16161716171616171717161617161716161616
310
171617171617EAFFFFFFFFFFFFFFFFFF26161717161616161616161617171616
310
1616161616171616AA8016FFFFFFFFFF16BAFFFFFFFFFFFFFFFFDA179BFFFFFF
310
74348D26FFFFFFFF2566B917FFFFFFFFD8BAB9BAB9BADAFFFFEA41169B7425C9
310
FFFFFFFFFFFFFFFFFFFFAB4F1680FFFF0000FFFFFFFFFFFFBA161717171617FF
310
FFFFFFFFBA17161717161617171617161616161617171616171716171617BBFF
310
FFFFFFFFFFFFFFE9171616161617161617161716FFFFFFFFFFD9671616161617
310
348017FFFFFFFFFF16BAFFFFFFFFFFFFFFFFFF4E5AFFFFFFC916265AFFFFFFAA
310
16AABA16FFFFFFFF7F1617161616179BFFFFEB4127168DFFFFFFFFFFFFFFD99B
310
6734175AC9FFFFFF0000FFFFFFFFFFFFB9161617171617FFFFFFFFFFBB161616
310
1616347F807F7F7F7F8033171716171617171616161672FFFFFFFFFFFFFFFF9C
310
171617171617161716161617FFFFFFFFFFFFFF4117161616174E17FFFFFFFFFF
310
16BAFFFFFFFFFFFFFFFFFF9B16DAFFFFFF34169BFFFFFF5A26FFB917FFFFFFFF
310
7F4EFFFFFFEA5B26FFFFFFEA2616EAFFFFFFFFDA743416331617414E4E4E4ECA
310
0000FFFFFFFFFFFFBA161716161616FFFFFFFFFFBA17171616164EFFFFFFFFFF
310
FFFF4E16161717174E161717171626EBFFFFFFFFFFFFFF4E16161617165B1616
310
16171617FFFFFFFFFFFFFF6716161616161617FFFFFFFFFF16BAFFFFFFFFFFFF
310
FFFFFFEA268CFFFFFF7316EAFFFFEB1774FFB916FFFFFFFF7F4EFFFFFFFF7316
310
FFFFFFFF6826FFFFFFFFEB264D9CEABA257F807F7F6616BA0000FFFFFFFFFFFF
310
BA161716161616FFFFFFFFFFBA16171616164DFFFFFFFFFFFFFF4E1617161617
310
9B1617171717165BEBFFFFFFFFFF671616161617179B171616161616FFFFFFFF
310
FFFFFF3417161617171617FFFFFFFFFF17BAFFFFFFFFFFFFFFFFFFFF6734FFFF
310
FFEBCAFFFFFF8D17C9FFBA17FFFFFFFF7F357F808066174FFFFFFFFF7F16FFFF
310
FFFFD91673B99B415BFFFFFFFFBA16DA00009B7F7F7F807F671617161616167F
310
80807F7E6617161616164EFFFFFFFFFFFFFF4E1616161617B94E171716161616
310
349BC9D9AA4E16171616161634FF161617161717B9B9BAB9BA9B411716171716
310
163416FFFFFFFFFF16B9FFFFFFFFFFFFFFFFFFFFC917CAFFFFFFFFFFFFFF3342
310
FFFFBA17FFFFFFFF9B4E4E4F4E4E66EAFFFFFFFF5B16C9FFFFFFFFAA4E164E73
310
EAFFFFFFFF8D26FF00004E161716161616171617171616171717171617161616
310
17174EFFFFFFFFFFFFFF4E1717171616B9D92616171716171716171717171716
310
16171716AAFF161717171617161617171616161617161716166717FFFFFFFFFF
310
17B9FFFFFFFFFFFFFFFFFFFFFF3467FFFFFFFFFFFFCA168CFFFFBB17FFFFFFFF
310
FFFFFFFFFFFFFFFFFFFFFFEA26265BFFFFFFFFFFFFFFFFFFFFFFFFFFEA3467FF
310
00004D16161616161617161717161617161616171617171616164EFFFFFFFFFF
310
FFFF4D1617161616BAFF9B1616161616161716161616171717161766FFFF1616
310
16171617161617161716171616171717667F16FFFFFFFFFF17BAFFFFFFFFFFFF
310
FFFFFFFFFF8C26EAFFFFFFFFFF6617EAFFFFBA17FFFFFFFFFFFFFFFFFFFFFFFF
310
FFFFEA5A25BA269BFFFFFFFFFFFFFFFFFFFFFFFF6616DAFF00004E1616171616
310
1616161616161716161617171616171616174EFFFFFFFFFFFFFF4D1717171716
310
B9FFFF9C161616161616161716161717171667FFFFFF17161717171716161617
310
1716161616161641E97E16FFFFFFFFFF16B9FFFFFFFFFFFFFFFFFFFFFFEA169B
310
FFFFFFFFEA265BFFFFFFB916FFFFFFFFFFFFFFFFFFFFFFFFFF9B3416AAFF9B17
310
67EAFFFFFFFFFFFFFFFFEA5B169BFFFF00004D17161716161616161717171616
310
161717161716171716174EFFFFFFFFFFFFFF4D1616161616BAFFFFFFBB411616
310
161716161616171634ABFFFFFFFF161716161617171716171617171617267FFF
310
FF7F164E4E4E4E4F17BAFFFFFFFFFFFFFFFFFFFFFFFF66344D4E4E4F4117AAFF
310
FFFFBA174E4E4E4D4E4D4D4E4E4E4E4116174EBBFFFFFFCA342666ABEAFFFFEA
310
AA6725269CFFFFFF0000724F4E4D4D4D4E4D4D4E4E4E4D4E4E4E4E4E4E4E4E4D
310
4E4E74FFFFFFFFFFFFFF734E4E4E4D4ECAFFFFFFFFFFAA663416171717265B9B
310
FFFFFFFFFFFF7F8080807F80807F7F7F7F7F807FBAFFFFFFFF9B4E4E4F4D4D4E
310
4DC9FFFFFFFFFFFFFFFFFFFFFFFFBA4E4E4E4E4D4E4EFFFFFFFFC94E4E4E4F4E
310
4E4E4D4E4E5A807F9CD9FFFFFFFFFFFFFF9B5B2617171716174E8DEAFFFFFFFF
310
0000000000000000000000000000000000000000000000000000000000000000
  1
OLE
  0
ENDSEC
  0
SECTION
  2
OBJECTS
  0
DICTIONARY
  5
C
330
0
100
AcDbDictionary
281
     1
  3
ACAD_GROUP
350
D
  3
ACAD_LAYOUT
350
1A
  3
ACAD_MLINESTYLE
350
17
  3
ACAD_PLOTSETTINGS
350
19
  3
ACAD_PLOTSTYLENAME
350
E
  3
ACAD_SCALELIST
350
47
  0
DICTIONARY
  5
D
102
{ACAD_REACTORS
330
C
102
}
330
C
100
AcDbDictionary
281
     1
  0
DICTIONARY
  5
1A
102
{ACAD_REACTORS
330
C
102
}
330
C
100
AcDbDictionary
281
     1
  3
Layout1
350
1E
  3
Layout2
350
26
  3
Model
350
22
  0
DICTIONARY
  5
17
102
{ACAD_REACTORS
330
C
102
}
330
C
100
AcDbDictionary
281
     1
  3
Standard
350
18
  0
DICTIONARY
  5
19
102
{ACAD_REACTORS
330
C
102
}
330
C
100
AcDbDictionary
281
     1
  0
ACDBDICTIONARYWDFLT
  5
E
102
{ACAD_REACTORS
330
C
102
}
330
C
100
AcDbDictionary
281
     1
  3
Normal
350
F
100
AcDbDictionaryWithDefault
340
F
  0
DICTIONARY
  5
47
102
{ACAD_REACTORS
330
C
102
}
330
C
100
AcDbDictionary
281
     1
  3
A0
350
48
  3
A1
350
49
  3
A2
350
4A
  3
A3
350
4B
  3
A4
350
4C
  3
A5
350
4D
  3
A6
350
4E
  3
A7
350
4F
  3
A8
350
50
  3
A9
350
51
  3
B0
350
52
  3
B1
350
53
  3
B2
350
54
  3
B3
350
55
  3
B4
350
56
  3
B5
350
57
  3
B6
350
58
  3
B7
350
59
  3
B8
350
5A
  3
B9
350
5B
  3
C0
350
5C
  3
C1
350
5D
  3
C2
350
5E
  3
C3
350
5F
  3
C4
350
60
  3
C5
350
61
  3
C6
350
62
  3
C7
350
63
  3
C8
350
64
  3
C9
350
65
  3
D0
350
66
  3
D1
350
67
  3
D2
350
68
  0
LAYOUT
  5
1E
102
{ACAD_REACTORS
330
1A
102
}
330
1A
100
AcDbPlotSettings
  1

  2
none_device
  4

  6

 40
0.0
 41
0.0
 42
0.0
 43
0.0
 44
0.0
 45
0.0
 46
0.0
 47
0.0
 48
0.0
 49
0.0
140
0.0
141
0.0
142
1.0
143
1.0
 70
   688
 72
     0
 73
     0
 74
     5
  7

 75
    16
147
1.0
148
0.0
149
0.0
100
AcDbLayout
  1
Layout1
 70
     1
 71
     1
 10
0.0
 20
0.0
 11
12.0
 21
9.0
 12
0.0
 22
0.0
 32
0.0
 14
1.0000000000E+20
 24
1.0000000000E+20
 34
1.0000000000E+20
 15
-1.0000000000E+20
 25
-1.0000000000E+20
 35
-1.0000000000E+20
146
0.0
 13
0.0
 23
0.0
 33
0.0
 16
1.0
 26
0.0
 36
0.0
 17
0.0
 27
1.0
 37
0.0
 76
     0
330
1B
  0
LAYOUT
  5
26
102
{ACAD_REACTORS
330
1A
102
}
330
1A
100
AcDbPlotSettings
  1

  2
none_device
  4

  6

 40
0.0
 41
0.0
 42
0.0
 43
0.0
 44
0.0
 45
0.0
 46
0.0
 47
0.0
 48
0.0
 49
0.0
140
0.0
141
0.0
142
1.0
143
1.0
 70
   688
 72
     0
 73
     0
 74
     5
  7

 75
    16
147
1.0
148
0.0
149
0.0
100
AcDbLayout
  1
Layout2
 70
     1
 71
     2
 10
0.0
 20
0.0
 11
0.0
 21
0.0
 12
0.0
 22
0.0
 32
0.0
 14
0.0
 24
0.0
 34
0.0
 15
0.0
 25
0.0
 35
0.0
146
0.0
 13
0.0
 23
0.0
 33
0.0
 16
1.0
 26
0.0
 36
0.0
 17
0.0
 27
1.0
 37
0.0
 76
     0
330
23
  0
LAYOUT
  5
22
102
{ACAD_REACTORS
330
1A
102
}
330
1A
100
AcDbPlotSettings
  1

  2
none_device
  4
Letter_(8.50_x_11.00_Inches)
  6

 40
6.35
 41
6.35
 42
6.35000508
 43
6.35000508
 44
215.9
 45
279.4
 46
0.0
 47
0.0
 48
0.0
 49
0.0
140
0.0
141
0.0
142
1.0
143
1.0
 70
  1712
 72
     0
 73
     0
 74
     0
  7

 75
     0
147
1.0
148
0.0
149
0.0
100
AcDbLayout
  1
Model
 70
     1
 71
     0
 10
0.0
 20
0.0
 11
11.0
 21
8.5
 12
0.0
 22
0.0
 32
0.0
 14
0.0
 24
0.0
 34
0.0
 15
11.0
 25
8.5
 35
0.0
146
0.0
 13
0.0
 23
0.0
 33
0.0
 16
1.0
 26
0.0
 36
0.0
 17
0.0
 27
1.0
 37
0.0
 76
     0
330
1F
331
29
  0
MLINESTYLE
  5
18
102
{ACAD_REACTORS
330
17
102
}
330
17
100
AcDbMlineStyle
  2
Standard
 70
     0
  3

 62
   256
 51
90.0
 52
90.0
 71
     2
 49
0.5
 62
   256
  6
BYLAYER
 49
-0.5
 62
   256
  6
BYLAYER
  0
ACDBPLACEHOLDER
  5
F
102
{ACAD_REACTORS
330
E
102
}
330
E
  0
SCALE
  5
48
102
{ACAD_REACTORS
330
47
102
}
330
47
100
AcDbScale
 70
     0
300
1:1
140
1.0
141
1.0
290
     1
  0
SCALE
  5
49
102
{ACAD_REACTORS
330
47
102
}
330
47
100
AcDbScale
 70
     0
300
1:2
140
1.0
141
2.0
290
     0
  0
SCALE
  5
4A
102
{ACAD_REACTORS
330
47
102
}
330
47
100
AcDbScale
 70
     0
300
1:4
140
1.0
141
4.0
290
     0
  0
SCALE
  5
4B
102
{ACAD_REACTORS
330
47
102
}
330
47
100
AcDbScale
 70
     0
300
1:5
140
1.0
141
5.0
290
     0
  0
SCALE
  5
4C
102
{ACAD_REACTORS
330
47
102
}
330
47
100
AcDbScale
 70
     0
300
1:8
140
1.0
141
8.0
290
     0
  0
SCALE
  5
4D
102
{ACAD_REACTORS
330
47
102
}
330
47
100
AcDbScale
 70
     0
300
1:10
140
1.0
141
10.0
290
     0
  0
SCALE
  5
4E
102
{ACAD_REACTORS
330
47
102
}
330
47
100
AcDbScale
 70
     0
300
1:16
140
1.0
141
16.0
290
     0
  0
SCALE
  5
4F
102
{ACAD_REACTORS
330
47
102
}
330
47
100
AcDbScale
 70
     0
300
1:20
140
1.0
141
20.0
290
     0
  0
SCALE
  5
50
102
{ACAD_REACTORS
330
47
102
}
330
47
100
AcDbScale
 70
     0
300
1:30
140
1.0
141
30.0
290
     0
  0
SCALE
  5
51
102
{ACAD_REACTORS
330
47
102
}
330
47
100
AcDbScale
 70
     0
300
1:40
140
1.0
141
40.0
290
     0
  0
SCALE
  5
52
102
{ACAD_REACTORS
330
47
102
}
330
47
100
AcDbScale
 70
     0
300
1:50
140
1.0
141
50.0
290
     0
  0
SCALE
  5
53
102
{ACAD_REACTORS
330
47
102
}
330
47
100
AcDbScale
 70
     0
300
1:100
140
1.0
141
100.0
290
     0
  0
SCALE
  5
54
102
{ACAD_REACTORS
330
47
102
}
330
47
100
AcDbScale
 70
     0
300
2:1
140
2.0
141
1.0
290
     0
  0
SCALE
  5
55
102
{ACAD_REACTORS
330
47
102
}
330
47
100
AcDbScale
 70
     0
300
4:1
140
4.0
141
1.0
290
     0
  0
SCALE
  5
56
102
{ACAD_REACTORS
330
47
102
}
330
47
100
AcDbScale
 70
     0
300
8:1
140
8.0
141
1.0
290
     0
  0
SCALE
  5
57
102
{ACAD_REACTORS
330
47
102
}
330
47
100
AcDbScale
 70
     0
300
10:1
140
10.0
141
1.0
290
     0
  0
SCALE
  5
58
102
{ACAD_REACTORS
330
47
102
}
330
47
100
AcDbScale
 70
     0
300
100:1
140
100.0
141
1.0
290
     0
  0
SCALE
  5
59
102
{ACAD_REACTORS
330
47
102
}
330
47
100
AcDbScale
 70
     0
300
1/128" = 1'-0"
140
0.0078125
141
12.0
290
     0
  0
SCALE
  5
5A
102
{ACAD_REACTORS
330
47
102
}
330
47
100
AcDbScale
 70
     0
300
1/64" = 1'-0"
140
0.015625
141
12.0
290
     0
  0
SCALE
  5
5B
102
{ACAD_REACTORS
330
47
102
}
330
47
100
AcDbScale
 70
     0
300
1/32" = 1'-0"
140
0.03125
141
12.0
290
     0
  0
SCALE
  5
5C
102
{ACAD_REACTORS
330
47
102
}
330
47
100
AcDbScale
 70
     0
300
1/16" = 1'-0"
140
0.0625
141
12.0
290
     0
  0
SCALE
  5
5D
102
{ACAD_REACTORS
330
47
102
}
330
47
100
AcDbScale
 70
     0
300
3/32" = 1'-0"
140
0.09375
141
12.0
290
     0
  0
SCALE
  5
5E
102
{ACAD_REACTORS
330
47
102
}
330
47
100
AcDbScale
 70
     0
300
1/8" = 1'-0"
140
0.125
141
12.0
290
     0
  0
SCALE
  5
5F
102
{ACAD_REACTORS
330
47
102
}
330
47
100
AcDbScale
 70
     0
300
3/16" = 1'-0"
140
0.1875
141
12.0
290
     0
  0
SCALE
  5
60
102
{ACAD_REACTORS
330
47
102
}
330
47
100
AcDbScale
 70
     0
300
1/4" = 1'-0"
140
0.25
141
12.0
290
     0
  0
SCALE
  5
61
102
{ACAD_REACTORS
330
47
102
}
330
47
100
AcDbScale
 70
     0
300
3/8" = 1'-0"
140
0.375
141
12.0
290
     0
  0
SCALE
  5
62
102
{ACAD_REACTORS
330
47
102
}
330
47
100
AcDbScale
 70
     0
300
1/2" = 1'-0"
140
0.5
141
12.0
290
     0
  0
SCALE
  5
63
102
{ACAD_REACTORS
330
47
102
}
330
47
100
AcDbScale
 70
     0
300
3/4" = 1'-0"
140
0.75
141
12.0
290
     0
  0
SCALE
  5
64
102
{ACAD_REACTORS
330
47
102
}
330
47
100
AcDbScale
 70
     0
300
1" = 1'-0"
140
1.0
141
12.0
290
     0
  0
SCALE
  5
65
102
{ACAD_REACTORS
330
47
102
}
330
47
100
AcDbScale
 70
     0
300
1-1/2" = 1'-0"
140
1.5
141
12.0
290
     0
  0
SCALE
  5
66
102
{ACAD_REACTORS
330
47
102
}
330
47
100
AcDbScale
 70
     0
300
3" = 1'-0"
140
3.0
141
12.0
290
     0
  0
SCALE
  5
67
102
{ACAD_REACTORS
330
47
102
}
330
47
100
AcDbScale
 70
     0
300
6" = 1'-0"
140
6.0
141
12.0
290
     0
  0
SCALE
  5
68
102
{ACAD_REACTORS
330
47
102
}
330
47
100
AcDbScale
 70
     0
300
1'-0" = 1'-0"
140
12.0
141
12.0
290
     0
  0
ENDSEC
  0
EOF
