  0
SECTION
  2
HEADER
  9
$ACADVER
  1
AC1015
  9
$ACADMAINTVER
 70
     6
  9
$DWGCODEPAGE
  3
ANSI_1252
  9
$INSBASE
 10
0.0
 20
0.0
 30
0.0
  9
$EXTMIN
 10
0.0
 20
0.0
 30
0.0
  9
$EXTMAX
 10
279.4
 20
215.9
 30
0.0
  9
$LIMMIN
 10
0.0
 20
0.0
  9
$LIMMAX
 10
0.0
 20
0.0
  9
$ORTHOMODE
 70
     0
  9
$REGENMODE
 70
     1
  9
$FILLMODE
 70
     1
  9
$QTEXTMODE
 70
     0
  9
$MIRRTEXT
 70
     1
  9
$LTSCALE
 40
1.0
  9
$ATTMODE
 70
     1
  9
$TEXTSIZE
 40
3.175
  9
$TRACEWID
 40
1.0
  9
$TEXTSTYLE
  7
Standard
  9
$CLAYER
  8
0
  9
$CELTYPE
  6
ByLayer
  9
$CECOLOR
 62
   256
  9
$CELTSCALE
 40
1.0
  9
$DISPSILH
 70
     0
  9
$DIMSCALE
 40
1.0
  9
$DIMASZ
 40
3.9624
  9
$DIMEXO
 40
1.27
  9
$DIMDLI
 40
3.75
  9
$DIMRND
 40
0.0
  9
$DIMDLE
 40
0.0
  9
$DIMEXE
 40
3.175
  9
$DIMTP
 40
0.0
  9
$DIMTM
 40
0.0
  9
$DIMTXT
 40
4.2333333333
  9
$DIMCEN
 40
2.5
  9
$DIMTSZ
 40
0.0
  9
$DIMTOL
 70
     0
  9
$DIMLIM
 70
     0
  9
$DIMTIH
 70
     1
  9
$DIMTOH
 70
     1
  9
$DIMSE1
 70
     0
  9
$DIMSE2
 70
     0
  9
$DIMTAD
 70
     0
  9
$DIMZIN
 70
     0
  9
$DIMBLK
  1

  9
$DIMASO
 70
     1
  9
$DIMSHO
 70
     1
  9
$DIMPOST
  1

  9
$DIMAPOST
  1

  9
$DIMALT
 70
     0
  9
$DIMALTD
 70
     3
  9
$DIMALTF
 40
0.0393700787
  9
$DIMLFAC
 40
1.0
  9
$DIMTOFL
 70
     1
  9
$DIMTVP
 40
0.0
  9
$DIMTIX
 70
     0
  9
$DIMSOXD
 70
     0
  9
$DIMSAH
 70
     0
  9
$DIMBLK1
  1

  9
$DIMBLK2
  1

  9
$DIMSTYLE
  2
ISO-25
  9
$DIMCLRD
 70
     0
  9
$DIMCLRE
 70
     0
  9
$DIMCLRT
 70
     0
  9
$DIMTFAC
 40
1.0
  9
$DIMGAP
 40
1.524
  9
$DIMJUST
 70
     0
  9
$DIMSD1
 70
     0
  9
$DIMSD2
 70
     0
  9
$DIMTOLJ
 70
     0
  9
$DIMTZIN
 70
     0
  9
$DIMALTZ
 70
     0
  9
$DIMALTTZ
 70
     0
  9
$DIMUPT
 70
     0
  9
$DIMDEC
 70
     2
  9
$DIMTDEC
 70
     2
  9
$DIMALTU
 70
     2
  9
$DIMALTTD
 70
     3
  9
$DIMTXSTY
  7
Standard
  9
$DIMAUNIT
 70
     0
  9
$DIMADEC
 70
     0
  9
$DIMALTRND
 40
0.0
  9
$DIMAZIN
 70
     0
  9
$DIMDSEP
 70
    44
  9
$DIMATFIT
 70
     3
  9
$DIMFRAC
 70
     0
  9
$DIMLDRBLK
  1

  9
$DIMLUNIT
 70
     2
  9
$DIMLWD
 70
    -2
  9
$DIMLWE
 70
    -2
  9
$DIMTMOVE
 70
     0
  9
$LUNITS
 70
     2
  9
$LUPREC
 70
     1
  9
$SKETCHINC
 40
1.0
  9
$FILLETRAD
 40
10.0
  9
$AUNITS
 70
     0
  9
$AUPREC
 70
     0
  9
$MENU
  1
.
  9
$ELEVATION
 40
0.0
  9
$PELEVATION
 40
0.0
  9
$THICKNESS
 40
0.0
  9
$LIMCHECK
 70
     0
  9
$CHAMFERA
 40
10.0
  9
$CHAMFERB
 40
10.0
  9
$CHAMFERC
 40
20.0
  9
$CHAMFERD
 40
0.0
  9
$SKPOLY
 70
     0
  9
$TDCREATE
 40
2453895.554285891
  9
$TDUCREATE
 40
2453895.720952558
  9
$TDUPDATE
 40
2453895.554285903
  9
$TDUUPDATE
 40
2453895.72095257
  9
$TDINDWG
 40
0.0000000116
  9
$TDUSRTIMER
 40
0.0000000116
  9
$USRTIMER
 70
     1
  9
$ANGBASE
 50
0.0
  9
$ANGDIR
 70
     0
  9
$PDMODE
 70
     0
  9
$PDSIZE
 40
-1.0
  9
$PLINEWID
 40
0.0
  9
$SPLFRAME
 70
     0
  9
$SPLINETYPE
 70
     6
  9
$SPLINESEGS
 70
     8
  9
$HANDSEED
  5
192
  9
$SURFTAB1
 70
     6
  9
$SURFTAB2
 70
     6
  9
$SURFTYPE
 70
     6
  9
$SURFU
 70
     6
  9
$SURFV
 70
     6
  9
$UCSBASE
  2

  9
$UCSNAME
  2

  9
$UCSORG
 10
0.0
 20
0.0
 30
0.0
  9
$UCSXDIR
 10
1.0
 20
0.0
 30
0.0
  9
$UCSYDIR
 10
0.0
 20
1.0
 30
0.0
  9
$UCSORTHOREF
  2

  9
$UCSORTHOVIEW
 70
     0
  9
$UCSORGTOP
 10
0.0
 20
0.0
 30
0.0
  9
$UCSORGBOTTOM
 10
0.0
 20
0.0
 30
0.0
  9
$UCSORGLEFT
 10
0.0
 20
0.0
 30
0.0
  9
$UCSORGRIGHT
 10
0.0
 20
0.0
 30
0.0
  9
$UCSORGFRONT
 10
0.0
 20
0.0
 30
0.0
  9
$UCSORGBACK
 10
0.0
 20
0.0
 30
0.0
  9
$PUCSBASE
  2

  9
$PUCSNAME
  2

  9
$PUCSORG
 10
0.0
 20
0.0
 30
0.0
  9
$PUCSXDIR
 10
1.0
 20
0.0
 30
0.0
  9
$PUCSYDIR
 10
0.0
 20
1.0
 30
0.0
  9
$PUCSORTHOREF
  2

  9
$PUCSORTHOVIEW
 70
     0
  9
$PUCSORGTOP
 10
0.0
 20
0.0
 30
0.0
  9
$PUCSORGBOTTOM
 10
0.0
 20
0.0
 30
0.0
  9
$PUCSORGLEFT
 10
0.0
 20
0.0
 30
0.0
  9
$PUCSORGRIGHT
 10
0.0
 20
0.0
 30
0.0
  9
$PUCSORGFRONT
 10
0.0
 20
0.0
 30
0.0
  9
$PUCSORGBACK
 10
0.0
 20
0.0
 30
0.0
  9
$USERI1
 70
     0
  9
$USERI2
 70
     0
  9
$USERI3
 70
     0
  9
$USERI4
 70
     0
  9
$USERI5
 70
     0
  9
$USERR1
 40
0.0
  9
$USERR2
 40
0.0
  9
$USERR3
 40
0.0
  9
$USERR4
 40
0.0
  9
$USERR5
 40
0.0
  9
$WORLDVIEW
 70
     1
  9
$SHADEDGE
 70
     3
  9
$SHADEDIF
 70
    70
  9
$TILEMODE
 70
     1
  9
$MAXACTVP
 70
    64
  9
$PINSBASE
 10
0.0
 20
0.0
 30
0.0
  9
$PLIMCHECK
 70
     0
  9
$PEXTMIN
 10
1.0000000000E+20
 20
1.0000000000E+20
 30
1.0000000000E+20
  9
$PEXTMAX
 10
-1.0000000000E+20
 20
-1.0000000000E+20
 30
-1.0000000000E+20
  9
$PLIMMIN
 10
0.0
 20
0.0
  9
$PLIMMAX
 10
420.0
 20
297.0
  9
$UNITMODE
 70
     0
  9
$VISRETAIN
 70
     1
  9
$PLINEGEN
 70
     0
  9
$PSLTSCALE
 70
     1
  9
$TREEDEPTH
 70
  3020
  9
$CMLSTYLE
  2
Standard
  9
$CMLJUST
 70
     0
  9
$CMLSCALE
 40
20.0
  9
$PROXYGRAPHICS
 70
     1
  9
$MEASUREMENT
 70
     1
  9
$CELWEIGHT
370
    -1
  9
$ENDCAPS
280
     0
  9
$JOINSTYLE
280
     0
  9
$LWDISPLAY
290
     1
  9
$INSUNITS
 70
     4
  9
$HYPERLINKBASE
  1

  9
$STYLESHEET
  1

  9
$XEDIT
290
     1
  9
$CEPSNTYPE
380
     0
  9
$PSTYLEMODE
290
     1
  9
$FINGERPRINTGUID
  2
{A164FF2E-B13C-44C3-928A-B697F1C6ADFA}
  9
$VERSIONGUID
  2
{FAEB1C32-E019-11D5-929B-00C0DF256EC4}
  9
$EXTNAMES
290
     1
  9
$PSVPSCALE
 40
0.0
  9
$OLESTARTUP
290
     0
  0
ENDSEC
  0
SECTION
  2
CLASSES
  0
CLASS
  1
ACDBDICTIONARYWDFLT
  2
AcDbDictionaryWithDefault
  3
ObjectDBX Classes
 90
        0
280
     0
281
     0
  0
CLASS
  1
ACDBPLACEHOLDER
  2
AcDbPlaceHolder
  3
ObjectDBX Classes
 90
        0
280
     0
281
     0
  0
CLASS
  1
LAYOUT
  2
AcDbLayout
  3
ObjectDBX Classes
 90
        0
280
     0
281
     0
  0
ENDSEC
  0
SECTION
  2
TABLES
  0
TABLE
  2
VPORT
  5
8
330
0
100
AcDbSymbolTable
 70
     1
  0
VPORT
  5
29
330
8
100
AcDbSymbolTableRecord
100
AcDbViewportTableRecord
  2
*Active
 70
     0
 10
0.0
 20
0.0
 11
1.0
 21
1.0
 12
139.7
 22
107.95
 13
0.0
 23
0.0
 14
10.0
 24
10.0
 15
10.0
 25
10.0
 16
0.0
 26
0.0
 36
1.0
 17
0.0
 27
0.0
 37
0.0
 40
215.9
 41
2.7140943628
 42
50.0
 43
0.0
 44
0.0
 50
0.0
 51
0.0
 71
     0
 72
  2000
 73
     1
 74
     3
 75
     0
 76
     0
 77
     0
 78
     0
281
     0
 65
     1
110
0.0
120
0.0
130
0.0
111
1.0
121
0.0
131
0.0
112
0.0
122
1.0
132
0.0
 79
     0
146
0.0
  0
ENDTAB
  0
TABLE
  2
LTYPE
  5
5
330
0
100
AcDbSymbolTable
 70
     6
  0
LTYPE
  5
14
330
5
100
AcDbSymbolTableRecord
100
AcDbLinetypeTableRecord
  2
ByBlock
 70
     0
  3

 72
    65
 73
     0
 40
0.0
  0
LTYPE
  5
15
330
5
100
AcDbSymbolTableRecord
100
AcDbLinetypeTableRecord
  2
ByLayer
 70
     0
  3

 72
    65
 73
     0
 40
0.0
  0
LTYPE
  5
16
330
5
100
AcDbSymbolTableRecord
100
AcDbLinetypeTableRecord
  2
Continuous
 70
     0
  3
Solid line
 72
    65
 73
     0
 40
0.0
  0
LTYPE
  5
2A
330
5
100
AcDbSymbolTableRecord
100
AcDbLinetypeTableRecord
  2
HIDDEN
 70
     0
  3
Hidden __ __ __ __ __ __ __ __ __ __ __ __ __ __
 72
    65
 73
     2
 40
1.905
 49
1.27
 74
     0
 49
-0.635
 74
     0
  0
LTYPE
  5
2B
330
5
100
AcDbSymbolTableRecord
100
AcDbLinetypeTableRecord
  2
PHANTOM
 70
     0
  3
Phantom ______  __  __  ______  __  __  ______
 72
    65
 73
     6
 40
12.7
 49
6.35
 74
     0
 49
-1.27
 74
     0
 49
1.27
 74
     0
 49
-1.27
 74
     0
 49
1.27
 74
     0
 49
-1.27
 74
     0
  0
LTYPE
  5
2C
330
5
100
AcDbSymbolTableRecord
100
AcDbLinetypeTableRecord
  2
CENTER
 70
     0
  3
Center ____ _ ____ _ ____ _ ____ _ ____ _ ____
 72
    65
 73
     4
 40
10.16
 49
6.35
 74
     0
 49
-1.27
 74
     0
 49
1.27
 74
     0
 49
-1.27
 74
     0
  0
LTYPE
  5
2D
330
5
100
AcDbSymbolTableRecord
100
AcDbLinetypeTableRecord
  2
CENTERX2
 70
     0
  3
Center (2x) ________  __  ________  __  _____
 72
    65
 73
     4
 40
20.32
 49
12.7
 74
     0
 49
-2.54
 74
     0
 49
2.54
 74
     0
 49
-2.54
 74
     0
  0
LTYPE
  5
2E
330
5
100
AcDbSymbolTableRecord
100
AcDbLinetypeTableRecord
  2
DOT2
 70
     0
  3
Dot (.5x) ........................................
 72
    65
 73
     2
 40
0.635
 49
0.0
 74
     0
 49
-0.635
 74
     0
  0
ENDTAB
  0
TABLE
  2
LAYER
  5
2
330
0
100
AcDbSymbolTable
 70
     5
  0
LAYER
  5
10
330
2
100
AcDbSymbolTableRecord
100
AcDbLayerTableRecord
  2
0
 70
     0
 62
     7
  6
Continuous
370
    -3
390
F
  0
LAYER
  5
2F
330
2
100
AcDbSymbolTableRecord
100
AcDbLayerTableRecord
  2
FORMAT
 70
     0
 62
     7
  6
Continuous
370
     0
390
F
  0
LAYER
  5
30
330
2
100
AcDbSymbolTableRecord
100
AcDbLayerTableRecord
  2
SLD-0
 70
     0
 62
   179
  6
Continuous
370
     0
390
F
  0
LAYER
  5
31
330
2
100
AcDbSymbolTableRecord
100
AcDbLayerTableRecord
  2
D1
 70
     0
 62
     7
  6
Continuous
370
     0
390
F
  0
LAYER
  5
CE
330
2
100
AcDbSymbolTableRecord
100
AcDbLayerTableRecord
  2
Defpoints
 70
     0
 62
     7
  6
Continuous
290
     0
370
    -3
390
F
  0
ENDTAB
  0
TABLE
  2
STYLE
  5
3
330
0
100
AcDbSymbolTable
 70
    29
  0
STYLE
  5
11
330
3
100
AcDbSymbolTableRecord
100
AcDbTextStyleTableRecord
  2
Standard
 70
     0
 40
0.0
 41
1.0
 50
0.0
 71
     0
 42
2.5
  3
txt
  4

  0
STYLE
  5
5A
330
3
100
AcDbSymbolTableRecord
100
AcDbTextStyleTableRecord
  2
SLDTEXTSTYLE0
 70
     0
 40
0.0
 41
0.75
 50
0.0
 71
     0
 42
0.2
  3
TXT
  4

  0
STYLE
  5
61
330
3
100
AcDbSymbolTableRecord
100
AcDbTextStyleTableRecord
  2
SLDTEXTSTYLE1
 70
     0
 40
0.0
 41
0.6666666667
 50
0.0
 71
     0
 42
0.2
  3
TXT
  4

  0
STYLE
  5
64
330
3
100
AcDbSymbolTableRecord
100
AcDbTextStyleTableRecord
  2
SLDTEXTSTYLE2
 70
     0
 40
0.0
 41
0.7232142857
 50
0.0
 71
     0
 42
0.2
  3
TXT
  4

  0
STYLE
  5
69
330
3
100
AcDbSymbolTableRecord
100
AcDbTextStyleTableRecord
  2
SLDTEXTSTYLE3
 70
     0
 40
0.0
 41
0.703125
 50
0.0
 71
     0
 42
0.2
  3
TXT
  4

  0
STYLE
  5
6B
330
3
100
AcDbSymbolTableRecord
100
AcDbTextStyleTableRecord
  2
SLDTEXTSTYLE4
 70
     0
 40
0.0
 41
0.7105263158
 50
0.0
 71
     0
 42
0.2
  3
TXT
  4

  0
STYLE
  5
6D
330
3
100
AcDbSymbolTableRecord
100
AcDbTextStyleTableRecord
  2
SLDTEXTSTYLE5
 70
     0
 40
0.0
 41
0.6358695652
 50
0.0
 71
     0
 42
0.2
  3
TXT
  4

  0
STYLE
  5
71
330
3
100
AcDbSymbolTableRecord
100
AcDbTextStyleTableRecord
  2
SLDTEXTSTYLE6
 70
     0
 40
0.0
 41
0.645
 50
0.0
 71
     0
 42
0.2
  3
TXT
  4

  0
STYLE
  5
77
330
3
100
AcDbSymbolTableRecord
100
AcDbTextStyleTableRecord
  2
SLDTEXTSTYLE7
 70
     0
 40
0.0
 41
0.515625
 50
0.0
 71
     0
 42
0.2
  3
TXT
  4

  0
STYLE
  5
79
330
3
100
AcDbSymbolTableRecord
100
AcDbTextStyleTableRecord
  2
SLDTEXTSTYLE8
 70
     0
 40
0.0
 41
0.7125
 50
0.0
 71
     0
 42
0.2
  3
TXT
  4

  0
STYLE
  5
80
330
3
100
AcDbSymbolTableRecord
100
AcDbTextStyleTableRecord
  2
SLDTEXTSTYLE9
 70
     0
 40
0.0
 41
0.6907894737
 50
0.0
 71
     0
 42
0.2
  3
TXT
  4

  0
STYLE
  5
8C
330
3
100
AcDbSymbolTableRecord
100
AcDbTextStyleTableRecord
  2
SLDTEXTSTYLE10
 70
     0
 40
0.0
 41
0.65625
 50
0.0
 71
     0
 42
0.2
  3
TXT
  4

  0
STYLE
  5
91
330
3
100
AcDbSymbolTableRecord
100
AcDbTextStyleTableRecord
  2
SLDTEXTSTYLE11
 70
     0
 40
0.0
 41
0.7045454545
 50
0.0
 71
     0
 42
0.2
  3
TXT
  4

  0
STYLE
  5
93
330
3
100
AcDbSymbolTableRecord
100
AcDbTextStyleTableRecord
  2
SLDTEXTSTYLE12
 70
     0
 40
0.0
 41
0.689516129
 50
0.0
 71
     0
 42
0.2
  3
TXT
  4

  0
STYLE
  5
95
330
3
100
AcDbSymbolTableRecord
100
AcDbTextStyleTableRecord
  2
SLDTEXTSTYLE13
 70
     0
 40
0.0
 41
0.6931818182
 50
0.0
 71
     0
 42
0.2
  3
TXT
  4

  0
STYLE
  5
97
330
3
100
AcDbSymbolTableRecord
100
AcDbTextStyleTableRecord
  2
SLDTEXTSTYLE14
 70
     0
 40
0.0
 41
0.6724137931
 50
0.0
 71
     0
 42
0.2
  3
TXT
  4

  0
STYLE
  5
99
330
3
100
AcDbSymbolTableRecord
100
AcDbTextStyleTableRecord
  2
SLDTEXTSTYLE15
 70
     0
 40
0.0
 41
0.705
 50
0.0
 71
     0
 42
0.2
  3
TXT
  4

  0
STYLE
  5
9B
330
3
100
AcDbSymbolTableRecord
100
AcDbTextStyleTableRecord
  2
SLDTEXTSTYLE16
 70
     0
 40
0.0
 41
0.7112068966
 50
0.0
 71
     0
 42
0.2
  3
TXT
  4

  0
STYLE
  5
9E
330
3
100
AcDbSymbolTableRecord
100
AcDbTextStyleTableRecord
  2
SLDTEXTSTYLE17
 70
     0
 40
0.0
 41
0.7222222222
 50
0.0
 71
     0
 42
0.2
  3
TXT
  4

  0
STYLE
  5
A9
330
3
100
AcDbSymbolTableRecord
100
AcDbTextStyleTableRecord
  2
SLDTEXTSTYLE18
 70
     0
 40
0.0
 41
0.675
 50
0.0
 71
     0
 42
0.2
  3
TXT
  4

  0
STYLE
  5
B2
330
3
100
AcDbSymbolTableRecord
100
AcDbTextStyleTableRecord
  2
SLDTEXTSTYLE19
 70
     0
 40
0.0
 41
0.7142857143
 50
0.0
 71
     0
 42
0.2
  3
TXT
  4

  0
STYLE
  5
B4
330
3
100
AcDbSymbolTableRecord
100
AcDbTextStyleTableRecord
  2
SLDTEXTSTYLE20
 70
     0
 40
0.0
 41
0.7
 50
0.0
 71
     0
 42
0.2
  3
TXT
  4

  0
STYLE
  5
BF
330
3
100
AcDbSymbolTableRecord
100
AcDbTextStyleTableRecord
  2
SLDTEXTSTYLE21
 70
     0
 40
0.0
 41
0.7285714286
 50
0.0
 71
     0
 42
0.2
  3
TXT
  4

  0
STYLE
  5
C2
330
3
100
AcDbSymbolTableRecord
100
AcDbTextStyleTableRecord
  2
SLDTEXTSTYLE22
 70
     0
 40
0.0
 41
0.6964285714
 50
0.0
 71
     0
 42
0.2
  3
TXT
  4

  0
STYLE
  5
C4
330
3
100
AcDbSymbolTableRecord
100
AcDbTextStyleTableRecord
  2
SLDTEXTSTYLE23
 70
     0
 40
0.0
 41
0.7169117647
 50
0.0
 71
     0
 42
0.2
  3
TXT
  4

  0
STYLE
  5
C6
330
3
100
AcDbSymbolTableRecord
100
AcDbTextStyleTableRecord
  2
SLDTEXTSTYLE24
 70
     0
 40
0.0
 41
0.6891891892
 50
0.0
 71
     0
 42
0.2
  3
TXT
  4

  0
STYLE
  5
C8
330
3
100
AcDbSymbolTableRecord
100
AcDbTextStyleTableRecord
  2
SLDTEXTSTYLE25
 70
     0
 40
0.0
 41
0.7058823529
 50
0.0
 71
     0
 42
0.2
  3
TXT
  4

  0
STYLE
  5
E9
330
3
100
AcDbSymbolTableRecord
100
AcDbTextStyleTableRecord
  2
SLDTEXTSTYLE26
 70
     0
 40
0.0
 41
0.6923076923
 50
0.0
 71
     0
 42
0.2
  3
TXT
  4

  0
STYLE
  5
F3
330
3
100
AcDbSymbolTableRecord
100
AcDbTextStyleTableRecord
  2
SLDTEXTSTYLE27
 70
     0
 40
0.0
 41
0.6875
 50
0.0
 71
     0
 42
0.2
  3
TXT
  4

  0
ENDTAB
  0
TABLE
  2
VIEW
  5
6
330
0
100
AcDbSymbolTable
 70
     0
  0
ENDTAB
  0
TABLE
  2
UCS
  5
7
330
0
100
AcDbSymbolTable
 70
     0
  0
ENDTAB
  0
TABLE
  2
APPID
  5
9
330
0
100
AcDbSymbolTable
 70
     1
  0
APPID
  5
12
330
9
100
AcDbSymbolTableRecord
100
AcDbRegAppTableRecord
  2
ACAD
 70
     0
  0
ENDTAB
  0
TABLE
  2
DIMSTYLE
  5
A
330
0
100
AcDbSymbolTable
 70
     6
100
AcDbDimStyleTable
  0
DIMSTYLE
105
27
330
A
100
AcDbSymbolTableRecord
100
AcDbDimStyleTableRecord
  2
ISO-25
 70
     0
 41
2.5
 42
0.625
 43
3.75
 44
1.25
 73
     0
 74
     0
 77
     1
 78
     8
140
2.5
141
2.5
143
0.0393700787
147
0.625
171
     3
172
     1
271
     2
272
     2
274
     3
278
    44
283
     0
284
     8
340
11
  0
DIMSTYLE
105
DB
102
{ACAD_REACTORS
330
CD
102
}
330
A
100
AcDbSymbolTableRecord
100
AcDbDimStyleTableRecord
  2
SLDDIMSTYLE0
 70
     0
 41
3.9624
 44
0.0
 78
    12
140
4.2333333333
143
0.0393700787
147
1.0583333333
170
     1
171
     3
172
     1
173
     1
272
     3
284
    12
340
5A
  0
DIMSTYLE
105
113
102
{ACAD_REACTORS
330
105
330
159
102
}
330
A
100
AcDbSymbolTableRecord
100
AcDbDimStyleTableRecord
  2
SLDDIMSTYLE1
 70
     0
 41
3.9624
 44
0.0
 78
    12
140
4.2333333333
143
0.0393700787
147
1.0583333333
170
     1
171
     3
173
     1
271
     1
272
     3
284
    12
340
5A
  0
DIMSTYLE
105
131
102
{ACAD_REACTORS
330
122
102
}
330
A
100
AcDbSymbolTableRecord
100
AcDbDimStyleTableRecord
  2
SLDDIMSTYLE2
 70
     0
 41
3.9624
 44
0.0
 78
    12
140
4.2333333333
143
0.0393700787
147
1.0583333333
170
     1
173
     1
271
     1
272
     3
284
    12
340
5A
  0
DIMSTYLE
105
14B
102
{ACAD_REACTORS
330
140
102
}
330
A
100
AcDbSymbolTableRecord
100
AcDbDimStyleTableRecord
  2
SLDDIMSTYLE3
 70
     0
 41
3.9624
 44
0.0
 78
    12
140
4.2333333333
143
0.0393700787
147
1.0583333333
170
     1
171
     3
173
     1
271
     1
272
     3
284
    12
340
5A
  0
DIMSTYLE
105
181
102
{ACAD_REACTORS
330
176
102
}
330
A
100
AcDbSymbolTableRecord
100
AcDbDimStyleTableRecord
  2
SLDDIMSTYLE4
 70
     0
 41
3.9624
 44
0.0
 78
    12
140
4.2333333333
143
0.0393700787
147
1.0583333333
170
     1
171
     3
173
     1
271
     1
272
     3
284
    12
340
5A
  0
ENDTAB
  0
TABLE
  2
BLOCK_RECORD
  5
1
330
0
100
AcDbSymbolTable
 70
    12
  0
BLOCK_RECORD
  5
1F
330
1
100
AcDbSymbolTableRecord
100
AcDbBlockTableRecord
  2
*Model_Space
340
22
  0
BLOCK_RECORD
  5
1B
330
1
100
AcDbSymbolTableRecord
100
AcDbBlockTableRecord
  2
*Paper_Space
340
1E
  0
BLOCK_RECORD
  5
23
330
1
100
AcDbSymbolTableRecord
100
AcDbBlockTableRecord
  2
*Paper_Space0
340
26
  0
BLOCK_RECORD
  5
66
330
1
100
AcDbSymbolTableRecord
100
AcDbBlockTableRecord
  2
SW_NOTE_0
340
0
102
{BLKREFS
331
82
102
}
  0
BLOCK_RECORD
  5
8E
330
1
100
AcDbSymbolTableRecord
100
AcDbBlockTableRecord
  2
SW_NOTE_1
340
0
102
{BLKREFS
331
9D
102
}
  0
BLOCK_RECORD
  5
A6
330
1
100
AcDbSymbolTableRecord
100
AcDbBlockTableRecord
  2
SW_NOTE_2
340
0
102
{BLKREFS
331
AC
102
}
  0
BLOCK_RECORD
  5
AE
330
1
100
AcDbSymbolTableRecord
100
AcDbBlockTableRecord
  2
SW_NOTE_3
340
0
102
{BLKREFS
331
B6
102
}
  0
BLOCK_RECORD
  5
B7
330
1
100
AcDbSymbolTableRecord
100
AcDbBlockTableRecord
  2
SW_NOTE_4
340
0
102
{BLKREFS
331
CB
102
}
  0
BLOCK_RECORD
  5
CF
330
1
100
AcDbSymbolTableRecord
100
AcDbBlockTableRecord
  2
*D6
340
0
  0
BLOCK_RECORD
  5
106
330
1
100
AcDbSymbolTableRecord
100
AcDbBlockTableRecord
  2
*D7
340
0
  0
BLOCK_RECORD
  5
123
330
1
100
AcDbSymbolTableRecord
100
AcDbBlockTableRecord
  2
*D8
340
0
  0
BLOCK_RECORD
  5
141
330
1
100
AcDbSymbolTableRecord
100
AcDbBlockTableRecord
  2
*D9
340
0
  0
BLOCK_RECORD
  5
15A
330
1
100
AcDbSymbolTableRecord
100
AcDbBlockTableRecord
  2
*D10
340
0
  0
BLOCK_RECORD
  5
177
330
1
100
AcDbSymbolTableRecord
100
AcDbBlockTableRecord
  2
*D11
340
0
  0
ENDTAB
  0
ENDSEC
  0
SECTION
  2
BLOCKS
  0
BLOCK
  5
20
330
1F
100
AcDbEntity
  8
0
100
AcDbBlockBegin
  2
*Model_Space
 70
     0
 71
     0
 10
0.0
 20
0.0
 30
0.0
  3
*Model_Space
  1

  0
ENDBLK
  5
21
330
1F
100
AcDbEntity
  8
0
100
AcDbBlockEnd
  0
BLOCK
  5
1C
330
1B
100
AcDbEntity
 67
     1
  8
0
100
AcDbBlockBegin
  2
*Paper_Space
 70
     0
 71
     0
 10
0.0
 20
0.0
 30
0.0
  3
*Paper_Space
  1

  0
ENDBLK
  5
1D
330
1B
100
AcDbEntity
 67
     1
  8
0
100
AcDbBlockEnd
  0
BLOCK
  5
24
330
23
100
AcDbEntity
  8
0
100
AcDbBlockBegin
  2
*Paper_Space0
 70
     0
 71
     0
 10
0.0
 20
0.0
 30
0.0
  3
*Paper_Space0
  1

  0
ENDBLK
  5
25
330
23
100
AcDbEntity
  8
0
100
AcDbBlockEnd
  0
BLOCK
  5
67
330
66
100
AcDbEntity
  8
0
100
AcDbBlockBegin
  2
SW_NOTE_0
 70
     0
 71
     0
 10
0.0
 20
0.0
 30
0.0
  3
SW_NOTE_0
  1

  0
MTEXT
  5
6A
330
66
100
AcDbEntity
  8
0
  6
Continuous
 62
     7
370
     0
100
AcDbMText
 10
0.0
 20
2.0277832031
 30
0.0
 40
1.5875
 41
0.0
 71
     1
 72
     1
  1
{DIMENSIONS ARE IN INCHES}
  7
SLDTEXTSTYLE3
 73
     1
 44
1.0
  0
MTEXT
  5
6C
330
66
100
AcDbEntity
  8
0
  6
Continuous
 62
     7
370
     0
100
AcDbMText
 10
0.0
 20
-0.088883438
 30
0.0
 40
1.5875
 41
0.0
 71
     1
 72
     1
  1
{LINEAR TOLERANCES: }
  7
SLDTEXTSTYLE4
 73
     1
 44
1.0
  0
MTEXT
  5
6E
330
66
100
AcDbEntity
  8
0
  6
Continuous
 62
     7
370
     0
100
AcDbMText
 10
0.0
 20
-2.205550079
 30
0.0
 40
1.5875
 41
0.0
 71
     1
 72
     1
  1
{    TWO PLACE DECIMAL: }
  7
SLDTEXTSTYLE5
 73
     1
 44
1.0
  0
MTEXT
  5
6F
330
66
100
AcDbEntity
  8
0
  6
Continuous
 62
     7
370
     0
100
AcDbMText
 10
25.0468552113
 20
-2.205550079
 30
0.0
 40
1.5875
 41
0.0
 71
     1
 72
     1
  1
{%%p}
  7
SLDTEXTSTYLE0
 73
     1
 44
1.0
  0
MTEXT
  5
70
330
66
100
AcDbEntity
  8
0
  6
Continuous
 62
     7
370
     0
100
AcDbMText
 10
26.5602711588
 20
-2.205550079
 30
0.0
 40
1.5875
 41
0.0
 71
     1
 72
     1
  1
{0.010}
  7
SLDTEXTSTYLE0
 73
     1
 44
1.0
  0
MTEXT
  5
72
330
66
100
AcDbEntity
  8
0
  6
Continuous
 62
     7
370
     0
100
AcDbMText
 10
0.0
 20
-4.3222167201
 30
0.0
 40
1.5875
 41
0.0
 71
     1
 72
     1
  1
{    THREE PLACE DECIMAL: }
  7
SLDTEXTSTYLE6
 73
     1
 44
1.0
  0
MTEXT
  5
73
330
66
100
AcDbEntity
  8
0
  6
Continuous
 62
     7
370
     0
100
AcDbMText
 10
26.0805673897
 20
-4.3222167201
 30
0.0
 40
1.5875
 41
0.0
 71
     1
 72
     1
  1
{%%p}
  7
SLDTEXTSTYLE0
 73
     1
 44
1.0
  0
MTEXT
  5
74
330
66
100
AcDbEntity
  8
0
  6
Continuous
 62
     7
370
     0
100
AcDbMText
 10
27.5939833373
 20
-4.3222167201
 30
0.0
 40
1.5875
 41
0.0
 71
     1
 72
     1
  1
{0.005}
  7
SLDTEXTSTYLE0
 73
     1
 44
1.0
  0
MTEXT
  5
75
330
66
100
AcDbEntity
  8
0
  6
Continuous
 62
     7
370
     0
100
AcDbMText
 10
0.0
 20
-6.4388833612
 30
0.0
 40
1.5875
 41
0.0
 71
     1
 72
     1
  1
{ANGULAR: }
  7
SLDTEXTSTYLE0
 73
     1
 44
1.0
  0
MTEXT
  5
76
330
66
100
AcDbEntity
  8
0
  6
Continuous
 62
     7
370
     0
100
AcDbMText
 10
11.1077222973
 20
-6.4388833612
 30
0.0
 40
1.5875
 41
0.0
 71
     1
 72
     1
  1
{%%p}
  7
SLDTEXTSTYLE0
 73
     1
 44
1.0
  0
MTEXT
  5
78
330
66
100
AcDbEntity
  8
0
  6
Continuous
 62
     7
370
     0
100
AcDbMText
 10
12.6211391762
 20
-6.4388833612
 30
0.0
 40
1.5875
 41
0.0
 71
     1
 72
     1
  1
{30'     }
  7
SLDTEXTSTYLE7
 73
     1
 44
1.0
  0
MTEXT
  5
7A
330
66
100
AcDbEntity
  8
0
  6
Continuous
 62
     7
370
     0
100
AcDbMText
 10
0.0
 20
-8.5555500023
 30
0.0
 40
1.5875
 41
0.0
 71
     1
 72
     1
  1
{SURFACE FINISH: 32 MICROINCHES}
  7
SLDTEXTSTYLE8
 73
     1
 44
1.0
  0
MTEXT
  5
7B
330
66
100
AcDbEntity
  8
0
  6
Continuous
 62
     7
370
     0
100
AcDbMText
 10
0.0
 20
-10.6722166434
 30
0.0
 40
1.5875
 41
0.0
 71
     1
 72
     1
  1
{PARALLELISM: 0.002}
  7
SLDTEXTSTYLE0
 73
     1
 44
1.0
  0
MTEXT
  5
7C
330
66
100
AcDbEntity
  8
0
  6
Continuous
 62
     7
370
     0
100
AcDbMText
 10
0.0
 20
-12.7888832845
 30
0.0
 40
1.5875
 41
0.0
 71
     1
 72
     1
  1
{FLATNESS: 0.002}
  7
SLDTEXTSTYLE0
 73
     1
 44
1.0
  0
MTEXT
  5
7D
330
66
100
AcDbEntity
  8
0
  6
Continuous
 62
     7
370
     0
100
AcDbMText
 10
0.0
 20
-14.9055499256
 30
0.0
 40
1.5875
 41
0.0
 71
     1
 72
     1
  1
{STRAIGHTNESS: 0.002}
  7
SLDTEXTSTYLE0
 73
     1
 44
1.0
  0
MTEXT
  5
7E
330
66
100
AcDbEntity
  8
0
  6
Continuous
 62
     7
370
     0
100
AcDbMText
 10
0.0
 20
-17.0222165667
 30
0.0
 40
1.5875
 41
0.0
 71
     1
 72
     1
  1
{CONCENTRICITY: 0.002}
  7
SLDTEXTSTYLE0
 73
     1
 44
1.0
  0
MTEXT
  5
7F
330
66
100
AcDbEntity
  8
0
  6
Continuous
 62
     7
370
     0
100
AcDbMText
 10
0.0
 20
-19.1388832077
 30
0.0
 40
1.5875
 41
0.0
 71
     1
 72
     1
  1
{PERPENDICULARITY: 0.002}
  7
SLDTEXTSTYLE0
 73
     1
 44
1.0
  0
MTEXT
  5
81
330
66
100
AcDbEntity
  8
0
  6
Continuous
 62
     7
370
     0
100
AcDbMText
 10
0.0
 20
-21.2555498488
 30
0.0
 40
1.5875
 41
0.0
 71
     1
 72
     1
  1
{THREAD: CLASS 2 FIT}
  7
SLDTEXTSTYLE9
 73
     1
 44
1.0
  0
ENDBLK
  5
68
330
66
100
AcDbEntity
  8
0
100
AcDbBlockEnd
  0
BLOCK
  5
8F
330
8E
100
AcDbEntity
  8
0
100
AcDbBlockBegin
  2
SW_NOTE_1
 70
     0
 71
     0
 10
0.0
 20
0.0
 30
0.0
  3
SW_NOTE_1
  1

  0
MTEXT
  5
92
330
8E
100
AcDbEntity
  8
0
  6
Continuous
 62
     7
370
     0
100
AcDbMText
 10
0.0
 20
1.946671875
 30
0.0
 40
1.524
 41
0.0
 71
     1
 72
     1
  1
{THE INFORMATION CONTAINED IN THIS}
  7
SLDTEXTSTYLE11
 73
     1
 44
1.0
  0
MTEXT
  5
94
330
8E
100
AcDbEntity
  8
0
  6
Continuous
 62
     7
370
     0
100
AcDbMText
 10
0.0
 20
-0.577328019
 30
0.0
 40
1.524
 41
0.0
 71
     1
 72
     1
  1
{DRAWING IS THE SOLE PROPERTY OF}
  7
SLDTEXTSTYLE12
 73
     1
 44
1.0
  0
MTEXT
  5
96
330
8E
100
AcDbEntity
  8
0
  6
Continuous
 62
     7
370
     0
100
AcDbMText
 10
0.0
 20
-3.1013279131
 30
0.0
 40
1.524
 41
0.0
 71
     1
 72
     1
  1
{THORLABS, INC.  ANY REPRODUCTION }
  7
SLDTEXTSTYLE13
 73
     1
 44
1.0
  0
MTEXT
  5
98
330
8E
100
AcDbEntity
  8
0
  6
Continuous
 62
     7
370
     0
100
AcDbMText
 10
0.0
 20
-5.6253278071
 30
0.0
 40
1.524
 41
0.0
 71
     1
 72
     1
  1
{IN PART OR AS A WHOLE WITHOUT}
  7
SLDTEXTSTYLE14
 73
     1
 44
1.0
  0
MTEXT
  5
9A
330
8E
100
AcDbEntity
  8
0
  6
Continuous
 62
     7
370
     0
100
AcDbMText
 10
0.0
 20
-8.1493277012
 30
0.0
 40
1.524
 41
0.0
 71
     1
 72
     1
  1
{THE WRITTEN PERMISSION OF}
  7
SLDTEXTSTYLE15
 73
     1
 44
1.0
  0
MTEXT
  5
9C
330
8E
100
AcDbEntity
  8
0
  6
Continuous
 62
     7
370
     0
100
AcDbMText
 10
0.0
 20
-10.6733275952
 30
0.0
 40
1.524
 41
0.0
 71
     1
 72
     1
  1
{THORLABS, INC. IS PROHIBITED.}
  7
SLDTEXTSTYLE16
 73
     1
 44
1.0
  0
ENDBLK
  5
90
330
8E
100
AcDbEntity
  8
0
100
AcDbBlockEnd
  0
BLOCK
  5
A7
330
A6
100
AcDbEntity
  8
0
100
AcDbBlockBegin
  2
SW_NOTE_2
 70
     0
 71
     0
 10
0.0
 20
0.0
 30
0.0
  3
SW_NOTE_2
  1

  0
MTEXT
  5
AA
330
A6
100
AcDbEntity
  8
0
  6
Continuous
 62
     7
370
     0
100
AcDbMText
 10
0.0
 20
3.3796386719
 30
0.0
 40
2.6458333333
 41
0.0
 71
     1
 72
     1
  1
{PO BOX 366}
  7
SLDTEXTSTYLE18
 73
     1
 44
1.0
  0
MTEXT
  5
AB
330
A6
100
AcDbEntity
  8
0
  6
Continuous
 62
     7
370
     0
100
AcDbMText
 10
0.0
 20
-0.1481390633
 30
0.0
 40
2.6458333333
 41
0.0
 71
     1
 72
     1
  1
{NEWTON NJ}
  7
SLDTEXTSTYLE0
 73
     1
 44
1.0
  0
ENDBLK
  5
A8
330
A6
100
AcDbEntity
  8
0
100
AcDbBlockEnd
  0
BLOCK
  5
AF
330
AE
100
AcDbEntity
  8
0
100
AcDbBlockBegin
  2
SW_NOTE_3
 70
     0
 71
     0
 10
0.0
 20
0.0
 30
0.0
  3
SW_NOTE_3
  1

  0
MTEXT
  5
B1
330
AE
100
AcDbEntity
  8
0
  6
Continuous
 62
     7
370
     0
100
AcDbMText
 10
0.0
 20
4.0555664063
 30
0.0
 40
3.175
 41
0.0
 71
     1
 72
     1
  1
{FOR INFORMATION ONLY}
  7
SLDTEXTSTYLE8
 73
     1
 44
1.0
  0
MTEXT
  5
B3
330
AE
100
AcDbEntity
  8
0
  6
Continuous
 62
     7
370
     0
100
AcDbMText
 10
0.0
 20
-0.1777668759
 30
0.0
 40
3.175
 41
0.0
 71
     1
 72
     1
  1
{NOT FOR MANUFACTURING}
  7
SLDTEXTSTYLE19
 73
     1
 44
1.0
  0
MTEXT
  5
B5
330
AE
100
AcDbEntity
  8
0
  6
Continuous
 62
     7
370
     0
100
AcDbMText
 10
0.0
 20
-8.6444334403
 30
0.0
 40
3.175
 41
0.0
 71
     1
 72
     1
  1
{ALL UNITS GIVEN IN MILLIMETERS}
  7
SLDTEXTSTYLE20
 73
     1
 44
1.0
  0
ENDBLK
  5
B0
330
AE
100
AcDbEntity
  8
0
100
AcDbBlockEnd
  0
BLOCK
  5
B8
330
B7
100
AcDbEntity
  8
0
100
AcDbBlockBegin
  2
SW_NOTE_4
 70
     0
 71
     0
 10
0.0
 20
0.0
 30
0.0
  3
SW_NOTE_4
  1

  0
MTEXT
  5
BA
330
B7
100
AcDbEntity
  8
D1
100
AcDbMText
 10
0.0
 20
3.0416748047
 30
0.0
 40
2.38125
 41
0.0
 71
     1
 72
     1
  1
{FOCAL LENGTH:}
  7
SLDTEXTSTYLE0
 73
     1
 44
1.0
  0
MTEXT
  5
BB
330
B7
100
AcDbEntity
  8
D1
100
AcDbMText
 10
0.0
 20
-0.1333251569
 30
0.0
 40
2.38125
 41
0.0
 71
     1
 72
     1
  1
{BACK FOCAL:}
  7
SLDTEXTSTYLE0
 73
     1
 44
1.0
  0
MTEXT
  5
BC
330
B7
100
AcDbEntity
  8
D1
100
AcDbMText
 10
0.0
 20
-3.3083251186
 30
0.0
 40
2.38125
 41
0.0
 71
     1
 72
     1
  1
{INDEX:}
  7
SLDTEXTSTYLE0
 73
     1
 44
1.0
  0
MTEXT
  5
BD
330
B7
100
AcDbEntity
  8
D1
100
AcDbMText
 10
0.0
 20
-6.4833250802
 30
0.0
 40
2.38125
 41
0.0
 71
     1
 72
     1
  1
{DESIGN WAVELENGTH:}
  7
SLDTEXTSTYLE0
 73
     1
 44
1.0
  0
MTEXT
  5
BE
330
B7
100
AcDbEntity
  8
D1
100
AcDbMText
 10
0.0
 20
-9.6583250418
 30
0.0
 40
2.38125
 41
0.0
 71
     1
 72
     1
  1
{SCRATCH/DIG: 40/20}
  7
SLDTEXTSTYLE0
 73
     1
 44
1.0
  0
MTEXT
  5
C0
330
B7
100
AcDbEntity
  8
D1
100
AcDbMText
 10
0.0
 20
-12.8333250035
 30
0.0
 40
2.38125
 41
0.0
 71
     1
 72
     1
  1
{DIAMETER TOLERANCE: +0.00mm/-0.10mm}
  7
SLDTEXTSTYLE21
 73
     1
 44
1.0
  0
MTEXT
  5
C1
330
B7
100
AcDbEntity
  8
D1
100
AcDbMText
 10
0.0
 20
-16.0083249651
 30
0.0
 40
2.38125
 41
0.0
 71
     1
 72
     1
  1
{CLEAR APERTURE: <90%}
  7
SLDTEXTSTYLE8
 73
     1
 44
1.0
  0
MTEXT
  5
C3
330
B7
100
AcDbEntity
  8
D1
100
AcDbMText
 10
0.0
 20
-19.1833249267
 30
0.0
 40
2.38125
 41
0.0
 71
     1
 72
     1
  1
{CENTRATION: 3 ARC MIN}
  7
SLDTEXTSTYLE22
 73
     1
 44
1.0
  0
MTEXT
  5
C5
330
B7
100
AcDbEntity
  8
D1
100
AcDbMText
 10
0.0
 20
-22.3583248883
 30
0.0
 40
2.38125
 41
0.0
 71
     1
 72
     1
  1
{CENTER THICKNESS TOLERANCE: ±0.1mm}
  7
SLDTEXTSTYLE23
 73
     1
 44
1.0
  0
MTEXT
  5
C7
330
B7
100
AcDbEntity
  8
D1
100
AcDbMText
 10
0.0
 20
-25.53332485
 30
0.0
 40
2.38125
 41
0.0
 71
     1
 72
     1
  1
{CHAMFER 0.20mm AT 45° ALL SHARP EDGES}
  7
SLDTEXTSTYLE24
 73
     1
 44
1.0
  0
MTEXT
  5
C9
330
B7
100
AcDbEntity
  8
D1
100
AcDbMText
 10
0.0
 20
-28.7083248116
 30
0.0
 40
2.38125
 41
0.0
 71
     1
 72
     1
  1
{EDGE THICKNESS ASSUMING SHARP EDGE}
  7
SLDTEXTSTYLE25
 73
     1
 44
1.0
  0
MTEXT
  5
CA
330
B7
100
AcDbEntity
  8
D1
100
AcDbMText
 10
0.0
 20
-31.8833247732
 30
0.0
 40
2.38125
 41
0.0
 71
     1
 72
     1
  1
{AND GIVEN BEFORE CHAMFER}
  7
SLDTEXTSTYLE3
 73
     1
 44
1.0
  0
ENDBLK
  5
B9
330
B7
100
AcDbEntity
  8
0
100
AcDbBlockEnd
  0
BLOCK
  5
D9
330
CF
100
AcDbEntity
  8
0
100
AcDbBlockBegin
  2
*D6
 70
     1
 71
     0
 10
0.0
 20
0.0
 30
0.0
  3
*D6
  1

  0
SOLID
  5
DC
330
CF
100
AcDbEntity
  8
D1
100
AcDbTrace
 10
76.1554689284
 20
138.2703869742
 30
0.0
 11
79.3130105971
 21
140.7536655591
 31
0.0
 12
78.3369450199
 22
141.6435018525
 32
0.0
 13
78.3369450199
 23
141.6435018525
 33
0.0
  0
LINE
  5
DD
330
CF
100
AcDbEntity
  8
D1
100
AcDbLine
 10
94.1412865067
 20
153.3530608891
 30
0.0
 11
94.1412865067
 21
148.3084504737
 31
0.0
  0
LINE
  5
DE
330
CF
100
AcDbEntity
  8
D1
100
AcDbLine
 10
94.1412865067
 20
148.3084504737
 30
0.0
 11
96.072591331
 21
148.3084504737
 31
0.0
  0
LINE
  5
DF
330
CF
100
AcDbEntity
  8
D1
100
AcDbLine
 10
94.1412865067
 20
153.3530608891
 30
0.0
 11
96.072591331
 21
153.3530608891
 31
0.0
  0
LINE
  5
E0
330
CF
100
AcDbEntity
  8
D1
100
AcDbLine
 10
108.55747443
 20
153.3530608891
 30
0.0
 11
108.55747443
 21
148.3084504737
 31
0.0
  0
LINE
  5
E1
330
CF
100
AcDbEntity
  8
D1
100
AcDbLine
 10
108.55747443
 20
148.3084504737
 30
0.0
 11
106.6261696058
 21
148.3084504737
 31
0.0
  0
LINE
  5
E2
330
CF
100
AcDbEntity
  8
D1
100
AcDbLine
 10
108.55747443
 20
153.3530608891
 30
0.0
 11
106.6261696058
 21
153.3530608891
 31
0.0
  0
LINE
  5
E3
330
CF
100
AcDbEntity
  8
D1
100
AcDbLine
 10
76.1554689284
 20
138.2703869742
 30
0.0
 11
85.3067323534
 21
148.3084504737
 31
0.0
  0
LINE
  5
E4
330
CF
100
AcDbEntity
  8
D1
100
AcDbLine
 10
85.3067323534
 20
148.3084504737
 30
0.0
 11
91.6567323534
 21
148.3084504737
 31
0.0
  0
MTEXT
  5
E5
330
CF
100
AcDbEntity
  8
D1
100
AcDbMText
 10
94.9757227623
 20
147.3194064647
 30
0.0
 40
3.175
 41
0.0
 71
     1
 72
     1
  1
{%%c}
  7
SLDTEXTSTYLE0
 73
     1
 44
1.0
  0
MTEXT
  5
E6
330
CF
100
AcDbEntity
  8
D1
100
AcDbMText
 10
99.5158721361
 20
147.319405999
 30
0.0
 40
3.175
 41
0.0
 71
     1
 72
     1
  1
{50.8}
  7
SLDTEXTSTYLE0
 73
     1
 44
1.0
  0
MTEXT
  5
E7
330
CF
100
AcDbEntity
  8
D1
100
AcDbMText
 10
96.072591331
 20
152.3640164143
 30
0.0
 40
3.175
 41
0.0
 71
     1
 72
     1
  1
{2.000}
  7
SLDTEXTSTYLE0
 73
     1
 44
1.0
  0
ENDBLK
  5
DA
330
CF
100
AcDbEntity
  8
0
100
AcDbBlockEnd
  0
BLOCK
  5
111
330
106
100
AcDbEntity
  8
0
100
AcDbBlockBegin
  2
*D7
 70
     1
 71
     0
 10
0.0
 20
0.0
 30
0.0
  3
*D7
  1

  0
SOLID
  5
114
330
106
100
AcDbEntity
  8
D1
100
AcDbTrace
 10
184.3487374589
 20
157.4394765713
 30
0.0
 11
180.3863374589
 21
158.0998765713
 31
0.0
 12
180.3863374589
 22
156.7790765713
 32
0.0
 13
180.3863374589
 23
156.7790765713
 33
0.0
  0
SOLID
  5
115
330
106
100
AcDbEntity
  8
D1
100
AcDbTrace
 10
195.5271536082
 20
157.4394765713
 30
0.0
 11
199.4895536082
 21
156.7790765713
 31
0.0
 12
199.4895536082
 22
158.0998765713
 32
0.0
 13
199.4895536082
 23
158.0998765713
 33
0.0
  0
LINE
  5
116
330
106
100
AcDbEntity
  8
D1
100
AcDbLine
 10
216.2539751305
 20
162.4840869867
 30
0.0
 11
216.2539751305
 21
157.4394765713
 31
0.0
  0
LINE
  5
117
330
106
100
AcDbEntity
  8
D1
100
AcDbLine
 10
216.2539751305
 20
157.4394765713
 30
0.0
 11
218.1852799548
 21
157.4394765713
 31
0.0
  0
LINE
  5
118
330
106
100
AcDbEntity
  8
D1
100
AcDbLine
 10
216.2539751305
 20
162.4840869867
 30
0.0
 11
218.1852799548
 21
162.4840869867
 31
0.0
  0
LINE
  5
119
330
106
100
AcDbEntity
  8
D1
100
AcDbLine
 10
228.3237508174
 20
162.4840869867
 30
0.0
 11
228.3237508174
 21
157.4394765713
 31
0.0
  0
LINE
  5
11A
330
106
100
AcDbEntity
  8
D1
100
AcDbLine
 10
228.3237508174
 20
157.4394765713
 30
0.0
 11
226.3924459932
 21
157.4394765713
 31
0.0
  0
LINE
  5
11B
330
106
100
AcDbEntity
  8
D1
100
AcDbLine
 10
228.3237508174
 20
162.4840869867
 30
0.0
 11
226.3924459932
 21
162.4840869867
 31
0.0
  0
LINE
  5
11C
330
106
100
AcDbEntity
  8
D1
100
AcDbLine
 10
184.3487374589
 20
146.1698951049
 30
0.0
 11
184.3487374589
 21
160.6144765713
 31
0.0
  0
LINE
  5
11D
330
106
100
AcDbEntity
  8
D1
100
AcDbLine
 10
195.5271536082
 20
120.7698951049
 30
0.0
 11
195.5271536082
 21
160.6144765713
 31
0.0
  0
LINE
  5
11E
330
106
100
AcDbEntity
  8
D1
100
AcDbLine
 10
184.3487374589
 20
157.4394765713
 30
0.0
 11
171.6487374589
 21
157.4394765713
 31
0.0
  0
LINE
  5
11F
330
106
100
AcDbEntity
  8
D1
100
AcDbLine
 10
195.5271536082
 20
157.4394765713
 30
0.0
 11
213.378938581
 21
157.4394765713
 31
0.0
  0
MTEXT
  5
120
330
106
100
AcDbEntity
  8
D1
100
AcDbMText
 10
218.1852799548
 20
156.4504320966
 30
0.0
 40
3.175
 41
0.0
 71
     1
 72
     1
  1
{11.2}
  7
SLDTEXTSTYLE0
 73
     1
 44
1.0
  0
MTEXT
  5
121
330
106
100
AcDbEntity
  8
D1
100
AcDbMText
 10
218.1852799548
 20
161.4950425119
 30
0.0
 40
3.175
 41
0.0
 71
     1
 72
     1
  1
{.440}
  7
SLDTEXTSTYLE0
 73
     1
 44
1.0
  0
ENDBLK
  5
112
330
106
100
AcDbEntity
  8
0
100
AcDbBlockEnd
  0
BLOCK
  5
12F
330
123
100
AcDbEntity
  8
0
100
AcDbBlockBegin
  2
*D8
 70
     1
 71
     0
 10
0.0
 20
0.0
 30
0.0
  3
*D8
  1

  0
SOLID
  5
132
330
123
100
AcDbEntity
  8
D1
100
AcDbTrace
 10
193.907697009
 20
149.7601592061
 30
0.0
 11
197.870097009
 21
149.0997592061
 31
0.0
 12
197.870097009
 22
150.4205592061
 32
0.0
 13
197.870097009
 23
150.4205592061
 33
0.0
  0
SOLID
  5
133
330
123
100
AcDbEntity
  8
D1
100
AcDbTrace
 10
184.3487374589
 20
149.7601592061
 30
0.0
 11
180.3863374589
 21
150.4205592061
 31
0.0
 12
180.3863374589
 22
149.0997592061
 32
0.0
 13
180.3863374589
 23
149.0997592061
 33
0.0
  0
LINE
  5
134
330
123
100
AcDbEntity
  8
D1
100
AcDbLine
 10
156.7275066089
 20
154.8047696214
 30
0.0
 11
156.7275066089
 21
149.7601592061
 31
0.0
  0
LINE
  5
135
330
123
100
AcDbEntity
  8
D1
100
AcDbLine
 10
156.7275066089
 20
149.7601592061
 30
0.0
 11
158.6588114332
 21
149.7601592061
 31
0.0
  0
LINE
  5
136
330
123
100
AcDbEntity
  8
D1
100
AcDbLine
 10
156.7275066089
 20
154.8047696214
 30
0.0
 11
158.6588114332
 21
154.8047696214
 31
0.0
  0
LINE
  5
137
330
123
100
AcDbEntity
  8
D1
100
AcDbLine
 10
168.7972822958
 20
154.8047696214
 30
0.0
 11
168.7972822958
 21
149.7601592061
 31
0.0
  0
LINE
  5
138
330
123
100
AcDbEntity
  8
D1
100
AcDbLine
 10
168.7972822958
 20
149.7601592061
 30
0.0
 11
166.8659774715
 21
149.7601592061
 31
0.0
  0
LINE
  5
139
330
123
100
AcDbEntity
  8
D1
100
AcDbLine
 10
168.7972822958
 20
154.8047696214
 30
0.0
 11
166.8659774715
 21
154.8047696214
 31
0.0
  0
LINE
  5
13A
330
123
100
AcDbEntity
  8
D1
100
AcDbLine
 10
193.907697009
 20
146.1698951049
 30
0.0
 11
193.907697009
 21
152.9351592061
 31
0.0
  0
LINE
  5
13B
330
123
100
AcDbEntity
  8
D1
100
AcDbLine
 10
184.3487374589
 20
146.1698951049
 30
0.0
 11
184.3487374589
 21
152.9351592061
 31
0.0
  0
LINE
  5
13C
330
123
100
AcDbEntity
  8
D1
100
AcDbLine
 10
193.907697009
 20
149.7601592061
 30
0.0
 11
206.607697009
 21
149.7601592061
 31
0.0
  0
LINE
  5
13D
330
123
100
AcDbEntity
  8
D1
100
AcDbLine
 10
184.3487374589
 20
149.7601592061
 30
0.0
 11
171.6723188453
 21
149.7601592061
 31
0.0
  0
MTEXT
  5
13E
330
123
100
AcDbEntity
  8
D1
100
AcDbMText
 10
159.8320175514
 20
148.7711147313
 30
0.0
 40
3.175
 41
0.0
 71
     1
 72
     1
  1
{9.6}
  7
SLDTEXTSTYLE0
 73
     1
 44
1.0
  0
MTEXT
  5
13F
330
123
100
AcDbEntity
  8
D1
100
AcDbMText
 10
158.6588114332
 20
153.8157251467
 30
0.0
 40
3.175
 41
0.0
 71
     1
 72
     1
  1
{.376}
  7
SLDTEXTSTYLE0
 73
     1
 44
1.0
  0
ENDBLK
  5
130
330
123
100
AcDbEntity
  8
0
100
AcDbBlockEnd
  0
BLOCK
  5
149
330
141
100
AcDbEntity
  8
0
100
AcDbBlockBegin
  2
*D9
 70
     1
 71
     0
 10
0.0
 20
0.0
 30
0.0
  3
*D9
  1

  0
SOLID
  5
14D
330
141
100
AcDbEntity
  8
D1
100
AcDbTrace
 10
195.0369227082
 20
133.4946095955
 30
0.0
 11
199.0358208008
 21
133.1130916214
 31
0.0
 12
198.9433997063
 22
134.4306541366
 32
0.0
 13
198.9433997063
 23
134.4306541366
 33
0.0
  0
LINE
  5
14E
330
141
100
AcDbEntity
  8
D1
100
AcDbLine
 10
215.0807690123
 20
139.3432683919
 30
0.0
 11
215.0807690123
 21
134.2986579765
 31
0.0
  0
LINE
  5
14F
330
141
100
AcDbEntity
  8
D1
100
AcDbLine
 10
215.0807690123
 20
134.2986579765
 30
0.0
 11
217.0120738366
 21
134.2986579765
 31
0.0
  0
LINE
  5
150
330
141
100
AcDbEntity
  8
D1
100
AcDbLine
 10
215.0807690123
 20
139.3432683919
 30
0.0
 11
217.0120738366
 21
139.3432683919
 31
0.0
  0
LINE
  5
151
330
141
100
AcDbEntity
  8
D1
100
AcDbLine
 10
229.4969569356
 20
139.3432683919
 30
0.0
 11
229.4969569356
 21
134.2986579765
 31
0.0
  0
LINE
  5
152
330
141
100
AcDbEntity
  8
D1
100
AcDbLine
 10
229.4969569356
 20
134.2986579765
 30
0.0
 11
227.5656521114
 21
134.2986579765
 31
0.0
  0
LINE
  5
153
330
141
100
AcDbEntity
  8
D1
100
AcDbLine
 10
229.4969569356
 20
139.3432683919
 30
0.0
 11
227.5656521114
 21
139.3432683919
 31
0.0
  0
LINE
  5
154
330
141
100
AcDbEntity
  8
D1
100
AcDbLine
 10
195.0369227082
 20
133.4946095955
 30
0.0
 11
206.4995007376
 21
134.2986579765
 31
0.0
  0
LINE
  5
155
330
141
100
AcDbEntity
  8
D1
100
AcDbLine
 10
206.4995007376
 20
134.2986579765
 30
0.0
 11
212.8495007376
 21
134.2986579765
 31
0.0
  0
MTEXT
  5
156
330
141
100
AcDbEntity
  8
D1
100
AcDbMText
 10
217.486984859
 20
133.3096135018
 30
0.0
 40
3.175
 41
0.0
 71
     1
 72
     1
  1
{R}
  7
SLDTEXTSTYLE0
 73
     1
 44
1.0
  0
MTEXT
  5
157
330
141
100
AcDbEntity
  8
D1
100
AcDbMText
 10
220.0550222392
 20
133.3096135018
 30
0.0
 40
3.175
 41
0.0
 71
     1
 72
     1
  1
{200}
  7
SLDTEXTSTYLE0
 73
     1
 44
1.0
  0
MTEXT
  5
158
330
141
100
AcDbEntity
  8
D1
100
AcDbMText
 10
217.0120738366
 20
138.3542239171
 30
0.0
 40
3.175
 41
0.0
 71
     1
 72
     1
  1
{7.874}
  7
SLDTEXTSTYLE0
 73
     1
 44
1.0
  0
ENDBLK
  5
14A
330
141
100
AcDbEntity
  8
0
100
AcDbBlockEnd
  0
BLOCK
  5
166
330
15A
100
AcDbEntity
  8
0
100
AcDbBlockBegin
  2
*D10
 70
     1
 71
     0
 10
0.0
 20
0.0
 30
0.0
  3
*D10
  1

  0
SOLID
  5
168
330
15A
100
AcDbEntity
  8
D1
100
AcDbTrace
 10
195.5271536082
 20
83.5776464972
 30
0.0
 11
199.4895536082
 21
82.9172464972
 31
0.0
 12
199.4895536082
 22
84.2380464972
 32
0.0
 13
199.4895536082
 23
84.2380464972
 33
0.0
  0
SOLID
  5
169
330
15A
100
AcDbEntity
  8
D1
100
AcDbTrace
 10
190.5271536082
 20
83.5776464972
 30
0.0
 11
186.5647536082
 21
84.2380464972
 31
0.0
 12
186.5647536082
 22
82.9172464972
 32
0.0
 13
186.5647536082
 23
82.9172464972
 33
0.0
  0
LINE
  5
16A
330
15A
100
AcDbEntity
  8
D1
100
AcDbLine
 10
216.078225929
 20
88.6222569126
 30
0.0
 11
216.078225929
 21
83.5776464972
 31
0.0
  0
LINE
  5
16B
330
15A
100
AcDbEntity
  8
D1
100
AcDbLine
 10
216.078225929
 20
83.5776464972
 30
0.0
 11
218.0095307533
 21
83.5776464972
 31
0.0
  0
LINE
  5
16C
330
15A
100
AcDbEntity
  8
D1
100
AcDbLine
 10
216.078225929
 20
88.6222569126
 30
0.0
 11
218.0095307533
 21
88.6222569126
 31
0.0
  0
LINE
  5
16D
330
15A
100
AcDbEntity
  8
D1
100
AcDbLine
 10
228.1480016159
 20
88.6222569126
 30
0.0
 11
228.1480016159
 21
83.5776464972
 31
0.0
  0
LINE
  5
16E
330
15A
100
AcDbEntity
  8
D1
100
AcDbLine
 10
228.1480016159
 20
83.5776464972
 30
0.0
 11
226.2166967916
 21
83.5776464972
 31
0.0
  0
LINE
  5
16F
330
15A
100
AcDbEntity
  8
D1
100
AcDbLine
 10
228.1480016159
 20
88.6222569126
 30
0.0
 11
226.2166967916
 21
88.6222569126
 31
0.0
  0
LINE
  5
170
330
15A
100
AcDbEntity
  8
D1
100
AcDbLine
 10
195.5271536082
 20
118.2298951049
 30
0.0
 11
195.5271536082
 21
80.4026464972
 31
0.0
  0
LINE
  5
171
330
15A
100
AcDbEntity
  8
D1
100
AcDbLine
 10
190.5271536082
 20
118.2298951049
 30
0.0
 11
190.5271536082
 21
80.4026464972
 31
0.0
  0
LINE
  5
172
330
15A
100
AcDbEntity
  8
D1
100
AcDbLine
 10
195.5271536082
 20
83.5776464972
 30
0.0
 11
213.2031893795
 21
83.5776464972
 31
0.0
  0
LINE
  5
173
330
15A
100
AcDbEntity
  8
D1
100
AcDbLine
 10
190.5271536082
 20
83.5776464972
 30
0.0
 11
177.8271536082
 21
83.5776464972
 31
0.0
  0
MTEXT
  5
174
330
15A
100
AcDbEntity
  8
D1
100
AcDbMText
 10
220.941666584
 20
82.5886020225
 30
0.0
 40
3.175
 41
0.0
 71
     1
 72
     1
  1
{5}
  7
SLDTEXTSTYLE0
 73
     1
 44
1.0
  0
MTEXT
  5
175
330
15A
100
AcDbEntity
  8
D1
100
AcDbMText
 10
218.0095307533
 20
87.6332124378
 30
0.0
 40
3.175
 41
0.0
 71
     1
 72
     1
  1
{.197}
  7
SLDTEXTSTYLE0
 73
     1
 44
1.0
  0
ENDBLK
  5
167
330
15A
100
AcDbEntity
  8
0
100
AcDbBlockEnd
  0
BLOCK
  5
17F
330
177
100
AcDbEntity
  8
0
100
AcDbBlockBegin
  2
*D11
 70
     1
 71
     0
 10
0.0
 20
0.0
 30
0.0
  3
*D11
  1

  0
SOLID
  5
183
330
177
100
AcDbEntity
  8
D1
100
AcDbTrace
 10
189.1847271903
 20
107.3891456183
 30
0.0
 11
192.9063103838
 21
105.8770079083
 31
0.0
 12
193.1955667658
 22
107.1657450365
 32
0.0
 13
193.1955667658
 23
107.1657450365
 33
0.0
  0
LINE
  5
184
330
177
100
AcDbEntity
  8
D1
100
AcDbLine
 10
214.8901410383
 20
108.5902504153
 30
0.0
 11
214.8901410383
 21
103.54564
 31
0.0
  0
LINE
  5
185
330
177
100
AcDbEntity
  8
D1
100
AcDbLine
 10
214.8901410383
 20
103.54564
 30
0.0
 11
216.8214458626
 21
103.54564
 31
0.0
  0
LINE
  5
186
330
177
100
AcDbEntity
  8
D1
100
AcDbLine
 10
214.8901410383
 20
108.5902504153
 30
0.0
 11
216.8214458626
 21
108.5902504153
 31
0.0
  0
LINE
  5
187
330
177
100
AcDbEntity
  8
D1
100
AcDbLine
 10
229.3063289617
 20
108.5902504153
 30
0.0
 11
229.3063289617
 21
103.54564
 31
0.0
  0
LINE
  5
188
330
177
100
AcDbEntity
  8
D1
100
AcDbLine
 10
229.3063289617
 20
103.54564
 30
0.0
 11
227.3750241374
 21
103.54564
 31
0.0
  0
LINE
  5
189
330
177
100
AcDbEntity
  8
D1
100
AcDbLine
 10
229.3063289617
 20
108.5902504153
 30
0.0
 11
227.3750241374
 21
108.5902504153
 31
0.0
  0
LINE
  5
18A
330
177
100
AcDbEntity
  8
D1
100
AcDbLine
 10
189.1847271903
 20
107.3891456183
 30
0.0
 11
206.3088727636
 21
103.54564
 31
0.0
  0
LINE
  5
18B
330
177
100
AcDbEntity
  8
D1
100
AcDbLine
 10
206.3088727636
 20
103.54564
 30
0.0
 11
212.6588727636
 21
103.54564
 31
0.0
  0
MTEXT
  5
18C
330
177
100
AcDbEntity
  8
D1
100
AcDbMText
 10
216.7106332907
 20
102.5565955253
 30
0.0
 40
3.175
 41
0.0
 71
     1
 72
     1
  1
{R}
  7
SLDTEXTSTYLE0
 73
     1
 44
1.0
  0
MTEXT
  5
18D
330
177
100
AcDbEntity
  8
D1
100
AcDbMText
 10
219.2786706709
 20
102.5565955253
 30
0.0
 40
3.175
 41
0.0
 71
     1
 72
     1
  1
{55.3}
  7
SLDTEXTSTYLE0
 73
     1
 44
1.0
  0
MTEXT
  5
18E
330
177
100
AcDbEntity
  8
D1
100
AcDbMText
 10
216.8214458626
 20
107.6012059406
 30
0.0
 40
3.175
 41
0.0
 71
     1
 72
     1
  1
{2.177}
  7
SLDTEXTSTYLE0
 73
     1
 44
1.0
  0
ENDBLK
  5
180
330
177
100
AcDbEntity
  8
0
100
AcDbBlockEnd
  0
ENDSEC
  0
SECTION
  2
ENTITIES
  0
LINE
  5
32
330
1F
100
AcDbEntity
  8
0
  6
Continuous
 62
     7
370
     0
100
AcDbLine
 10
8.3801458
 20
208.0786585366
 30
0.0
 11
270.0001458
 21
208.0786585366
 31
0.0
  0
LINE
  5
33
330
1F
100
AcDbEntity
  8
0
  6
Continuous
 62
     7
370
     0
100
AcDbLine
 10
8.3801458
 20
208.0786585366
 30
0.0
 11
8.3801458
 21
9.9586585366
 31
0.0
  0
LINE
  5
34
330
1F
100
AcDbEntity
  8
0
  6
Continuous
 62
     7
370
     0
100
AcDbLine
 10
270.0001458
 20
9.9586585366
 30
0.0
 11
8.3801458
 21
9.9586585366
 31
0.0
  0
LINE
  5
35
330
1F
100
AcDbEntity
  8
0
  6
Continuous
 62
     7
370
     0
100
AcDbLine
 10
270.0001458
 20
9.9586585366
 30
0.0
 11
270.0001458
 21
208.0786585366
 31
0.0
  0
LINE
  5
36
330
1F
100
AcDbEntity
  8
0
  6
Continuous
 62
     7
370
     0
100
AcDbLine
 10
200.2334576007
 20
30.5058740206
 30
0.0
 11
161.2692165563
 21
30.5058740206
 31
0.0
  0
LINE
  5
37
330
1F
100
AcDbEntity
  8
0
  6
Continuous
 62
     7
370
     0
100
AcDbLine
 10
161.2692165563
 20
9.9586585366
 30
0.0
 11
161.2692165563
 21
43.1508823427
 31
0.0
  0
LINE
  5
38
330
1F
100
AcDbEntity
  8
0
  6
Continuous
 62
     7
370
     0
100
AcDbLine
 10
200.2334576007
 20
32.2622398452
 30
0.0
 11
270.0001458
 21
32.2622398452
 31
0.0
  0
LINE
  5
39
330
1F
100
AcDbEntity
  8
0
  6
Continuous
 62
     7
370
     0
100
AcDbLine
 10
200.2334576007
 20
49.3719356552
 30
0.0
 11
200.2334576007
 21
9.9586585366
 31
0.0
  0
LINE
  5
3A
330
1F
100
AcDbEntity
  8
0
  6
Continuous
 62
     7
370
     0
100
AcDbLine
 10
200.2334576007
 20
33.6128247466
 30
0.0
 11
161.2692165563
 21
33.6128247466
 31
0.0
  0
LINE
  5
3B
330
1F
100
AcDbEntity
  8
0
  6
Continuous
 62
     7
370
     0
100
AcDbLine
 10
200.2334576007
 20
43.1508823427
 30
0.0
 11
125.1808533271
 21
43.1508823427
 31
0.0
  0
LINE
  5
3C
330
1F
100
AcDbEntity
  8
0
  6
Continuous
 62
     7
370
     0
100
AcDbLine
 10
200.2334576007
 20
20.0415123109
 30
0.0
 11
270.0001458
 21
20.0415123109
 31
0.0
  0
LINE
  5
3D
330
1F
100
AcDbEntity
  8
0
  6
Continuous
 62
     7
370
     0
100
AcDbLine
 10
200.2334576007
 20
36.7197754725
 30
0.0
 11
161.2692165563
 21
36.7197754725
 31
0.0
  0
LINE
  5
3E
330
1F
100
AcDbEntity
  8
0
  6
Continuous
 62
     7
370
     0
100
AcDbLine
 10
200.2334576007
 20
39.8267261984
 30
0.0
 11
161.2692165563
 21
39.8267261984
 31
0.0
  0
LINE
  5
3F
330
1F
100
AcDbEntity
  8
0
  6
Continuous
 62
     7
370
     0
100
AcDbLine
 10
176.0072388015
 20
43.1508823427
 30
0.0
 11
176.0072388015
 21
30.5058740206
 31
0.0
  0
LINE
  5
40
330
1F
100
AcDbEntity
  8
0
  6
Continuous
 62
     7
370
     0
100
AcDbLine
 10
185.3931667464
 20
43.1508823427
 30
0.0
 11
185.3931667464
 21
30.5058740206
 31
0.0
  0
LINE
  5
41
330
1F
100
AcDbEntity
  8
0
  6
Continuous
 62
     7
370
     0
100
AcDbLine
 10
226.0614310815
 20
20.0415123109
 30
0.0
 11
226.0614310815
 21
9.9586585366
 31
0.0
  0
LINE
  5
42
330
1F
100
AcDbEntity
  8
0
  6
Continuous
 62
     7
370
     0
100
AcDbLine
 10
236.509415189
 20
24.4195386643
 30
0.0
 11
236.509415189
 21
20.0415123109
 31
0.0
  0
LINE
  5
43
330
1F
100
AcDbEntity
  8
0
  6
Continuous
 62
     7
370
     0
100
AcDbLine
 10
254.824490219
 20
32.2622398452
 30
0.0
 11
254.824490219
 21
24.4195386643
 31
0.0
  0
LINE
  5
44
330
1F
100
AcDbEntity
  8
0
  6
Continuous
 62
     7
370
     0
100
AcDbLine
 10
125.1808533271
 20
43.1508823427
 30
0.0
 11
125.1808533271
 21
9.9586585366
 31
0.0
  0
LINE
  5
45
330
1F
100
AcDbEntity
  8
0
  6
Continuous
 62
     7
370
     0
100
AcDbLine
 10
125.1808533271
 20
39.1170198353
 30
0.0
 11
161.2692165563
 21
39.1170198353
 31
0.0
  0
LINE
  5
46
330
1F
100
AcDbEntity
  8
0
  6
Continuous
 62
     7
370
     0
100
AcDbLine
 10
125.1808533271
 20
36.4666474189
 30
0.0
 11
161.2692165563
 21
36.4666474189
 31
0.0
  0
LINE
  5
47
330
1F
100
AcDbEntity
  8
0
  6
Continuous
 62
     7
370
     0
100
AcDbLine
 10
197.2618485971
 20
208.0786585366
 30
0.0
 11
197.2618485971
 21
191.5870052847
 31
0.0
  0
LINE
  5
48
330
1F
100
AcDbEntity
  8
0
  6
Continuous
 62
     7
370
     0
100
AcDbLine
 10
205.7064827977
 20
208.0786585366
 30
0.0
 11
205.7064827977
 21
191.5870052847
 31
0.0
  0
LINE
  5
49
330
1F
100
AcDbEntity
  8
0
  6
Continuous
 62
     7
370
     0
100
AcDbLine
 10
253.5819016952
 20
208.0786585366
 30
0.0
 11
253.5819016952
 21
191.5870052847
 31
0.0
  0
LINE
  5
4A
330
1F
100
AcDbEntity
  8
0
  6
Continuous
 62
     7
370
     0
100
AcDbLine
 10
197.2618485971
 20
204.6733101377
 30
0.0
 11
270.0001458
 21
204.6733101377
 31
0.0
  0
LINE
  5
4B
330
1F
100
AcDbEntity
  8
0
  6
Continuous
 62
     7
370
     0
100
AcDbLine
 10
161.2692165563
 20
26.369540887
 30
0.0
 11
200.2334576007
 21
26.369540887
 31
0.0
  0
LINE
  5
4C
330
1F
100
AcDbEntity
  8
0
  6
Continuous
 62
     7
370
     0
100
AcDbLine
 10
200.2334576007
 20
49.3719356552
 30
0.0
 11
270.0001458
 21
49.3719356552
 31
0.0
  0
LINE
  5
4D
330
1F
100
AcDbEntity
  8
0
  6
Continuous
 62
     7
370
     0
100
AcDbLine
 10
197.2618485971
 20
201.4735177848
 30
0.0
 11
270.0001458
 21
201.4735177848
 31
0.0
  0
LINE
  5
4E
330
1F
100
AcDbEntity
  8
0
  6
Continuous
 62
     7
370
     0
100
AcDbLine
 10
197.2618485971
 20
198.1566204629
 30
0.0
 11
270.0001458
 21
198.1566204629
 31
0.0
  0
LINE
  5
4F
330
1F
100
AcDbEntity
  8
0
  6
Continuous
 62
     7
370
     0
100
AcDbLine
 10
197.2618485971
 20
194.8718128738
 30
0.0
 11
270.0001458
 21
194.8718128738
 31
0.0
  0
LINE
  5
50
330
1F
100
AcDbEntity
  8
0
  6
Continuous
 62
     7
370
     0
100
AcDbLine
 10
197.2618485971
 20
191.5870052847
 30
0.0
 11
270.0001458
 21
191.5870052847
 31
0.0
  0
LINE
  5
51
330
1F
100
AcDbEntity
  8
0
  6
Continuous
 62
     7
370
     0
100
AcDbLine
 10
262.007143296
 20
32.2427104882
 30
0.0
 11
262.007143296
 21
24.4195386643
 31
0.0
  0
LINE
  5
52
330
1F
100
AcDbEntity
  8
0
  6
Continuous
 62
     7
370
     0
100
AcDbLine
 10
200.2334576007
 20
24.4195386643
 30
0.0
 11
270.0001458
 21
24.4195386643
 31
0.0
  0
LINE
  5
53
330
1F
100
AcDbEntity
  8
0
  6
Continuous
 62
     7
370
     0
100
AcDbLine
 10
270.0001458
 20
49.3719356552
 30
0.0
 11
270.0001458
 21
50.0331356147
 31
0.0
  0
LINE
  5
54
330
1F
100
AcDbEntity
  8
0
  6
Continuous
 62
     7
370
     0
100
AcDbLine
 10
200.2334576007
 20
41.3209618421
 30
0.0
 11
270.0001458
 21
41.3209618421
 31
0.0
  0
LINE
  5
55
330
1F
100
AcDbEntity
  8
0
  6
Continuous
 62
     7
370
     0
100
AcDbLine
 10
169.9812958
 20
9.9586585366
 30
0.0
 11
169.9812958
 21
7.8047587093
 31
0.0
  0
LINE
  5
56
330
1F
100
AcDbEntity
  8
0
  6
Continuous
 62
     7
370
     0
100
AcDbLine
 10
69.9687958
 20
9.9586585366
 30
0.0
 11
69.9687958
 21
7.8047587093
 31
0.0
  0
LINE
  5
57
330
1F
100
AcDbEntity
  8
0
  6
Continuous
 62
     7
370
     0
100
AcDbLine
 10
69.9687958
 20
9.9586585366
 30
0.0
 11
70.2876921355
 21
9.0805
 31
0.0
  0
LINE
  5
58
330
1F
100
AcDbEntity
  8
0
  6
Continuous
 62
     7
370
     0
100
AcDbLine
 10
70.2876921355
 20
9.0805
 30
0.0
 11
69.6322174163
 21
9.0805
 31
0.0
  0
LINE
  5
59
330
1F
100
AcDbEntity
  8
0
  6
Continuous
 62
     7
370
     0
100
AcDbLine
 10
69.6322174163
 20
9.0805
 30
0.0
 11
69.9687958
 21
9.9586585366
 31
0.0
  0
MTEXT
  5
5B
330
1F
100
AcDbEntity
  8
0
  6
Continuous
 62
     7
370
     0
100
AcDbMText
 10
44.1652901531
 20
7.8609774378
 30
0.0
 40
2.38125
 41
0.0
 71
     1
 72
     1
  1
{5}
  7
SLDTEXTSTYLE0
 73
     1
 44
1.0
  0
MTEXT
  5
5C
330
1F
100
AcDbEntity
  8
0
  6
Continuous
 62
     7
370
     0
100
AcDbMText
 10
94.5845283056
 20
7.9406655459
 30
0.0
 40
2.38125
 41
0.0
 71
     1
 72
     1
  1
{4}
  7
SLDTEXTSTYLE0
 73
     1
 44
1.0
  0
MTEXT
  5
5D
330
1F
100
AcDbEntity
  8
0
  6
Continuous
 62
     7
370
     0
100
AcDbMText
 10
143.0641214846
 20
7.8872095283
 30
0.0
 40
2.38125
 41
0.0
 71
     1
 72
     1
  1
{3}
  7
SLDTEXTSTYLE0
 73
     1
 44
1.0
  0
MTEXT
  5
5E
330
1F
100
AcDbEntity
  8
0
  6
Continuous
 62
     7
370
     0
100
AcDbMText
 10
193.1916931782
 20
7.9080362808
 30
0.0
 40
2.38125
 41
0.0
 71
     1
 72
     1
  1
{2}
  7
SLDTEXTSTYLE0
 73
     1
 44
1.0
  0
MTEXT
  5
5F
330
1F
100
AcDbEntity
  8
0
  6
Continuous
 62
     7
370
     0
100
AcDbMText
 10
245.4146001727
 20
7.6269313547
 30
0.0
 40
2.38125
 41
0.0
 71
     1
 72
     1
  1
{1}
  7
SLDTEXTSTYLE0
 73
     1
 44
1.0
  0
MTEXT
  5
60
330
1F
100
AcDbEntity
  8
0
  6
Continuous
 62
     7
370
     0
100
AcDbMText
 10
201.4264288672
 20
31.7493154522
 30
0.0
 40
2.1166666667
 41
0.0
 71
     1
 72
     1
  1
{MATERIAL:}
  7
SLDTEXTSTYLE0
 73
     1
 44
1.0
  0
MTEXT
  5
62
330
1F
100
AcDbEntity
  8
0
  6
Continuous
 62
     7
370
     0
100
AcDbMText
 10
227.1732877783
 20
18.9416466292
 30
0.0
 40
2.1166666667
 41
0.0
 71
     1
 72
     1
  1
{PART  NO.}
  7
SLDTEXTSTYLE1
 73
     1
 44
1.0
  0
MTEXT
  5
63
330
1F
100
AcDbEntity
  8
0
  6
Continuous
 62
     7
370
     0
100
AcDbMText
 10
126.6755729332
 20
42.3456529578
 30
0.0
 40
2.54
 41
0.0
 71
     1
 72
     1
  1
{TOLERANCES}
  7
SLDTEXTSTYLE0
 73
     1
 44
1.0
  0
MTEXT
  5
65
330
1F
100
AcDbEntity
  8
0
  6
Continuous
 62
     7
370
     0
100
AcDbMText
 10
162.3747668481
 20
29.0583406418
 30
0.0
 40
1.524
 41
0.0
 71
     1
 72
     1
  1
{PROPRIETARY AND CONFIDENTIAL}
  7
SLDTEXTSTYLE2
 73
     1
 44
1.0
  0
INSERT
  5
82
330
1F
100
AcDbEntity
  8
0
  6
Continuous
 62
     7
370
     0
100
AcDbBlockReference
  2
SW_NOTE_0
 10
126.3148677893
 20
33.933485762
 30
0.0
  0
MTEXT
  5
83
330
1F
100
AcDbEntity
  8
0
  6
Continuous
 62
     7
370
     0
100
AcDbMText
 10
165.0635781822
 20
39.1325143367
 30
0.0
 40
1.651
 41
0.0
 71
     1
 72
     1
  1
{DRAWN}
  7
SLDTEXTSTYLE0
 73
     1
 44
1.0
  0
MTEXT
  5
84
330
1F
100
AcDbEntity
  8
0
  6
Continuous
 62
     7
370
     0
100
AcDbMText
 10
163.4989205914
 20
36.027211819
 30
0.0
 40
1.651
 41
0.0
 71
     1
 72
     1
  1
{ENG APPR.}
  7
SLDTEXTSTYLE0
 73
     1
 44
1.0
  0
MTEXT
  5
85
330
1F
100
AcDbEntity
  8
0
  6
Continuous
 62
     7
370
     0
100
AcDbMText
 10
163.2535607636
 20
32.976725333
 30
0.0
 40
1.651
 41
0.0
 71
     1
 72
     1
  1
{MFG APPR.}
  7
SLDTEXTSTYLE0
 73
     1
 44
1.0
  0
MTEXT
  5
86
330
1F
100
AcDbEntity
  8
0
  6
Continuous
 62
     7
370
     0
100
AcDbMText
 10
177.1717662961
 20
42.1845189986
 30
0.0
 40
1.651
 41
0.0
 71
     1
 72
     1
  1
{NAME}
  7
SLDTEXTSTYLE0
 73
     1
 44
1.0
  0
MTEXT
  5
87
330
1F
100
AcDbEntity
  8
0
  6
Continuous
 62
     7
370
     0
100
AcDbMText
 10
201.640568165
 20
39.7809832592
 30
0.0
 40
2.54
 41
0.0
 71
     1
 72
     1
  1
{TITLE:}
  7
SLDTEXTSTYLE0
 73
     1
 44
1.0
  0
MTEXT
  5
88
330
1F
100
AcDbEntity
  8
0
  6
Continuous
 62
     7
370
     0
100
AcDbMText
 10
255.6705425448
 20
31.1480064652
 30
0.0
 40
2.1166666667
 41
0.0
 71
     1
 72
     1
  1
{SIZE}
  7
SLDTEXTSTYLE0
 73
     1
 44
1.0
  0
MTEXT
  5
89
330
1F
100
AcDbEntity
  8
0
  6
Continuous
 62
     7
370
     0
100
AcDbMText
 10
256.9521432223
 20
28.3577319254
 30
0.0
 40
2.6458333333
 41
0.0
 71
     1
 72
     1
  1
{A}
  7
SLDTEXTSTYLE0
 73
     1
 44
1.0
  0
MTEXT
  5
8A
330
1F
100
AcDbEntity
  8
0
  6
Continuous
 62
     7
370
     0
100
AcDbMText
 10
262.5115647388
 20
31.188643502
 30
0.0
 40
2.1166666667
 41
0.0
 71
     1
 72
     1
  1
{REV.}
  7
SLDTEXTSTYLE0
 73
     1
 44
1.0
  0
MTEXT
  5
8B
330
1F
100
AcDbEntity
  8
0
  6
Continuous
 62
     7
370
     0
100
AcDbMText
 10
211.3984283698
 20
23.6468578975
 30
0.0
 40
2.1166666667
 41
0.0
 71
     1
 72
     1
  1
{SCALE: 1:1}
  7
SLDTEXTSTYLE0
 73
     1
 44
1.0
  0
MTEXT
  5
8D
330
1F
100
AcDbEntity
  8
0
  6
Continuous
 62
     7
370
     0
100
AcDbMText
 10
244.8008308774
 20
23.5351081999
 30
0.0
 40
2.1166666667
 41
0.0
 71
     1
 72
     1
  1
{SHEET 1 OF 1}
  7
SLDTEXTSTYLE10
 73
     1
 44
1.0
  0
INSERT
  5
9D
330
1F
100
AcDbEntity
  8
0
  6
Continuous
 62
     7
370
     0
100
AcDbBlockReference
  2
SW_NOTE_1
 10
162.2847826607
 20
23.6526893282
 30
0.0
  0
MTEXT
  5
9F
330
1F
100
AcDbEntity
  8
0
  6
Continuous
 62
     7
370
     0
100
AcDbMText
 10
126.6683390745
 20
38.6343227777
 30
0.0
 40
1.5875
 41
0.0
 71
     1
 72
     1
  1
{UNLESS OTHERWISE SPECIFIED:}
  7
SLDTEXTSTYLE17
 73
     1
 44
1.0
  0
MTEXT
  5
A0
330
1F
100
AcDbEntity
  8
0
  6
Continuous
 62
     7
370
     0
100
AcDbMText
 10
200.8540544727
 20
18.9694968197
 30
0.0
 40
2.1166666667
 41
0.0
 71
     1
 72
     1
  1
{DWG.  NO.}
  7
SLDTEXTSTYLE1
 73
     1
 44
1.0
  0
MTEXT
  5
A1
330
1F
100
AcDbEntity
  8
0
  6
Continuous
 62
     7
370
     0
100
AcDbMText
 10
197.7433251528
 20
207.4682341711
 30
0.0
 40
1.8520833333
 41
0.0
 71
     1
 72
     1
  1
{REV. #}
  7
SLDTEXTSTYLE0
 73
     1
 44
1.0
  0
MTEXT
  5
A2
330
1F
100
AcDbEntity
  8
0
  6
Continuous
 62
     7
370
     0
100
AcDbMText
 10
219.9216403045
 20
207.5215316316
 30
0.0
 40
1.8520833333
 41
0.0
 71
     1
 72
     1
  1
{DESCRIPTION:}
  7
SLDTEXTSTYLE0
 73
     1
 44
1.0
  0
MTEXT
  5
A3
330
1F
100
AcDbEntity
  8
0
  6
Continuous
 62
     7
370
     0
100
AcDbMText
 10
254.2580089581
 20
207.4941499138
 30
0.0
 40
1.8520833333
 41
0.0
 71
     1
 72
     1
  1
{NAME/DATE:}
  7
SLDTEXTSTYLE0
 73
     1
 44
1.0
  0
MTEXT
  5
A4
330
1F
100
AcDbEntity
  8
0
  6
Continuous
 62
     7
370
     0
100
AcDbMText
 10
189.8181243794
 20
42.1200191196
 30
0.0
 40
1.651
 41
0.0
 71
     1
 72
     1
  1
{DATE}
  7
SLDTEXTSTYLE0
 73
     1
 44
1.0
  0
MTEXT
  5
A5
330
1F
100
AcDbEntity
  8
0
  6
Continuous
 62
     7
370
     0
100
AcDbMText
 10
201.1235751288
 20
48.1209305966
 30
0.0
 40
4.7625
 41
0.0
 71
     1
 72
     1
  1
{THORLABS INC.}
  7
SLDTEXTSTYLE0
 73
     1
 44
1.0
  0
INSERT
  5
AC
330
1F
100
AcDbEntity
  8
0
  6
Continuous
 62
     7
370
     0
100
AcDbBlockReference
  2
SW_NOTE_2
 10
248.665276374
 20
45.1788645118
 30
0.0
  0
MTEXT
  5
AD
330
1F
100
AcDbEntity
  8
0
  6
Continuous
 62
     7
370
     0
100
AcDbMText
 10
14.944857397
 20
57.3046414734
 30
0.0
 40
3.4395833333
 41
0.0
 71
     1
 72
     1
  1
{NOTE:}
  7
SLDTEXTSTYLE0
 73
     1
 44
1.0
  0
INSERT
  5
B6
330
1F
100
AcDbEntity
  8
0
  6
Continuous
 62
     7
370
     0
100
AcDbBlockReference
  2
SW_NOTE_3
 10
14.3015174545
 20
47.4674090391
 30
0.0
  0
INSERT
  5
CB
330
1F
100
AcDbEntity
  8
D1
100
AcDbBlockReference
  2
SW_NOTE_4
 10
105.5195918539
 20
83.9930326138
 30
0.0
  0
CIRCLE
  5
CC
330
1F
100
AcDbEntity
  8
0
  6
Continuous
 62
     7
370
    15
100
AcDbCircle
 10
59.0432325175
 20
119.4998951049
 30
0.0
 40
25.40000000000003
  0
DIMENSION
  5
CD
330
1F
100
AcDbEntity
  8
D1
100
AcDbDimension
  2
*D6
 10
41.9309961065
 20
100.7294032356
 30
0.0
 11
101.0960945898
 21
148.3084504737
 31
0.0
 70
   163
  1
<>
 71
     1
 42
50.8
  3
SLDDIMSTYLE0
100
AcDbDiametricDimension
 15
76.1554689284
 25
138.2703869742
 35
0.0
 40
0.0
1001
ACAD
1000
DSTYLE
1002
{
1070
   143
1040
0.0393700787
1070
    41
1040
3.9624
1070
    44
1040
3.175
1070
    42
1040
1.27
1070
   147
1040
1.524
1070
    77
1070
     0
1070
    73
1070
     1
1070
    74
1070
     1
1070
   140
1040
4.2333333333
1070
   284
1070
    12
1070
    78
1070
    12
1002
}
  0
MTEXT
  5
E8
330
1F
100
AcDbEntity
  8
D1
100
AcDbMText
 10
141.7540665434
 20
77.897963198
 30
2.4256672887
 40
2.38125
 41
0.0
 71
     1
 72
     1
  1
{ 633nm}
  7
SLDTEXTSTYLE0
 73
     1
 44
1.0
  0
MTEXT
  5
EA
330
1F
100
AcDbEntity
  8
D1
100
AcDbMText
 10
117.1083197782
 20
80.747364307
 30
3.5315633928
 40
2.38125
 41
0.0
 71
     1
 72
     1
  1
{1.515 @ 633nm}
  7
SLDTEXTSTYLE26
 73
     1
 44
1.0
  0
MTEXT
  5
EB
330
1F
100
AcDbEntity
  8
D1
100
AcDbMText
 10
128.0988669131
 20
83.5967654161
 30
3.5315633928
 40
2.38125
 41
0.0
 71
     1
 72
     1
  1
{-148.7mm}
  7
SLDTEXTSTYLE0
 73
     1
 44
1.0
  0
MTEXT
  5
EC
330
1F
100
AcDbEntity
  8
D1
100
AcDbMText
 10
178.7378662469
 20
39.395995965
 30
2.4256672887
 40
2.1166666667
 41
0.0
 71
     1
 72
     1
  1
{AP}
  7
SLDTEXTSTYLE0
 73
     1
 44
1.0
  0
MTEXT
  5
ED
330
1F
100
AcDbEntity
  8
D1
100
AcDbMText
 10
186.2093642737
 20
39.3122214322
 30
2.4256672887
 40
2.1166666667
 41
0.0
 71
     1
 72
     1
  1
{5/25/2006}
  7
SLDTEXTSTYLE0
 73
     1
 44
1.0
  0
MTEXT
  5
EE
330
1F
100
AcDbEntity
  8
D1
100
AcDbMText
 10
178.7409813825
 20
36.319759761
 30
2.4256672887
 40
2.1166666667
 41
0.0
 71
     1
 72
     1
  1
{TO}
  7
SLDTEXTSTYLE0
 73
     1
 44
1.0
  0
MTEXT
  5
EF
330
1F
100
AcDbEntity
  8
D1
100
AcDbMText
 10
186.3080609982
 20
36.3929323723
 30
3.5315633928
 40
2.1166666667
 41
0.0
 71
     1
 72
     1
  1
{5/25/2006}
  7
SLDTEXTSTYLE0
 73
     1
 44
1.0
  0
MTEXT
  5
F0
330
1F
100
AcDbEntity
  8
D1
100
AcDbMText
 10
178.7650296136
 20
33.1508783488
 30
2.4256672887
 40
2.1166666667
 41
0.0
 71
     1
 72
     1
  1
{TO}
  7
SLDTEXTSTYLE0
 73
     1
 44
1.0
  0
MTEXT
  5
F1
330
1F
100
AcDbEntity
  8
D1
100
AcDbMText
 10
186.3080609982
 20
33.136473962
 30
2.4256672887
 40
2.1166666667
 41
0.0
 71
     1
 72
     1
  1
{5/25/2006}
  7
SLDTEXTSTYLE0
 73
     1
 44
1.0
  0
MTEXT
  5
F2
330
1F
100
AcDbEntity
  8
D1
100
AcDbMText
 10
207.0679833641
 20
36.5417395381
 30
2.4256672887
 40
2.38125
 41
0.0
 71
     1
 72
     1
  1
{Ø50.8mm BK7 NEGATIVE MENISCUS LENS}
  7
SLDTEXTSTYLE25
 73
     1
 44
1.0
  0
MTEXT
  5
F4
330
1F
100
AcDbEntity
  8
D1
100
AcDbMText
 10
207.8820979667
 20
28.6440297414
 30
3.5315633928
 40
2.38125
 41
0.0
 71
     1
 72
     1
  1
{BK7, Grade A}
  7
SLDTEXTSTYLE27
 73
     1
 44
1.0
  0
MTEXT
  5
F5
330
1F
100
AcDbEntity
  8
D1
100
AcDbMText
 10
264.6179295126
 20
28.5119248194
 30
2.4256672887
 40
2.6458333333
 41
0.0
 71
     1
 72
     1
  1
{A}
  7
SLDTEXTSTYLE0
 73
     1
 44
1.0
  0
MTEXT
  5
F6
330
1F
100
AcDbEntity
  8
D1
100
AcDbMText
 10
203.8115249538
 20
14.8040814974
 30
3.5315633928
 40
2.38125
 41
0.0
 71
     1
 72
     1
  1
{4898-E01}
  7
SLDTEXTSTYLE0
 73
     1
 44
1.0
  0
MTEXT
  5
F7
330
1F
100
AcDbEntity
  8
D1
100
AcDbMText
 10
236.7859833641
 20
14.4648670797
 30
2.4256672887
 40
2.38125
 41
0.0
 71
     1
 72
     1
  1
{LF1829-B}
  7
SLDTEXTSTYLE0
 73
     1
 44
1.0
  0
MTEXT
  5
F8
330
1F
100
AcDbEntity
  8
D1
100
AcDbMText
 10
130.3706024956
 20
86.9222592939
 30
2.4256672887
 40
2.38125
 41
0.0
 71
     1
 72
     1
  1
{-150.0mm}
  7
SLDTEXTSTYLE0
 73
     1
 44
1.0
  0
LINE
  5
F9
330
1F
100
AcDbEntity
  8
0
  6
PHANTOM
 62
     7
370
    30
100
AcDbLine
 10
59.0432325175
 20
151.8396013986
 30
0.0
 11
59.0432325175
 21
87.9301818182
 31
0.0
  0
LINE
  5
FA
330
1F
100
AcDbEntity
  8
0
  6
Continuous
 62
     7
370
    30
100
AcDbLine
 10
59.0432325175
 20
151.8396013986
 30
0.0
 11
70.9812325175
 21
151.8396013986
 31
0.0
  0
SOLID
  5
FB
330
1F
100
AcDbEntity
  8
0
  6
Continuous
 62
     7
370
    30
100
AcDbTrace
 10
70.9812325175
 20
151.8396013986
 30
0.0
 11
64.8852325175
 21
153.3636013986
 31
0.0
 12
64.8852325175
 22
150.3156013986
 32
0.0
 13
64.8852325175
 23
150.3156013986
 33
0.0
  0
LINE
  5
FC
330
1F
100
AcDbEntity
  8
0
  6
Continuous
 62
     7
370
    30
100
AcDbLine
 10
59.0432325175
 20
87.9301818182
 30
0.0
 11
70.9812325175
 21
87.9301818182
 31
0.0
  0
SOLID
  5
FD
330
1F
100
AcDbEntity
  8
0
  6
Continuous
 62
     7
370
    30
100
AcDbTrace
 10
70.9812325175
 20
87.9301818182
 30
0.0
 11
64.8852325175
 21
89.4541818182
 31
0.0
 12
64.8852325175
 22
86.4061818182
 32
0.0
 13
64.8852325175
 23
86.4061818182
 33
0.0
  0
MTEXT
  5
FE
330
1F
100
AcDbEntity
  8
0
  6
Continuous
 62
     7
100
AcDbMText
 10
72.0963939552
 20
154.7805318778
 30
0.0
 40
4.9388888889
 41
0.0
 71
     1
 72
     1
  1
{A}
  7
SLDTEXTSTYLE0
 73
     1
 44
1.0
  0
MTEXT
  5
FF
330
1F
100
AcDbEntity
  8
0
  6
Continuous
 62
     7
100
AcDbMText
 10
72.0963939552
 20
90.8711122974
 30
0.0
 40
4.9388888889
 41
0.0
 71
     1
 72
     1
  1
{A}
  7
SLDTEXTSTYLE0
 73
     1
 44
1.0
  0
LINE
  5
100
330
1F
100
AcDbEntity
  8
0
  6
Continuous
 62
     7
370
    15
100
AcDbLine
 10
184.3487359783
 20
144.8998937469
 30
0.0
 11
184.3487359783
 21
94.0998952921
 31
0.0
  0
ARC
  5
101
330
1F
100
AcDbEntity
  8
0
  6
Continuous
 62
     7
370
    15
100
AcDbCircle
 10
135.2271536082
 20
119.4998951049
 30
0.0
 40
55.29999999999996
100
AcDbArc
 50
332.6572248519
 51
27.3427751481
  0
LINE
  5
102
330
1F
100
AcDbEntity
  8
0
  6
Continuous
 62
     7
370
    15
100
AcDbLine
 10
193.9076967737
 20
144.8998937469
 30
0.0
 11
184.3487359783
 21
144.8998937469
 31
0.0
  0
LINE
  5
103
330
1F
100
AcDbEntity
  8
0
  6
Continuous
 62
     7
370
    15
100
AcDbLine
 10
184.3487359783
 20
94.0998952921
 30
0.0
 11
193.9076967737
 21
94.0998952921
 31
0.0
  0
ARC
  5
104
330
1F
100
AcDbEntity
  8
0
  6
Continuous
 62
     7
370
    15
100
AcDbCircle
 10
-4.4728463918
 20
119.4998951049
 30
0.0
 40
200.0
100
AcDbArc
 50
352.703732035
 51
7.296267965
  0
DIMENSION
  5
105
330
1F
100
AcDbEntity
  8
D1
100
AcDbDimension
  2
*D7
 10
195.5271536082
 20
157.4394765713
 30
0.0
 11
222.288862974
 21
157.4394765713
 31
0.0
 70
   160
 71
     1
 42
11.1784161493
  3
SLDDIMSTYLE1
100
AcDbAlignedDimension
 13
184.3487374589
 23
144.8998951049
 33
0.0
 14
195.5271536082
 24
119.4998951049
 34
0.0
100
AcDbRotatedDimension
1001
ACAD
1000
DSTYLE
1002
{
1070
   143
1040
0.0393700787
1070
    41
1040
3.9624
1070
    44
1040
3.175
1070
    42
1040
1.27
1070
   147
1040
1.524
1070
    77
1070
     0
1070
    73
1070
     1
1070
    74
1070
     1
1070
   140
1040
4.2333333333
1070
   284
1070
    12
1070
    78
1070
    12
1002
}
  0
DIMENSION
  5
122
330
1F
100
AcDbEntity
  8
D1
100
AcDbDimension
  2
*D8
 10
184.3487374589
 20
149.7601592061
 30
0.0
 11
162.7623944523
 21
149.7601592061
 31
0.0
 70
   160
 71
     1
 42
9.5589595501
  3
SLDDIMSTYLE2
100
AcDbAlignedDimension
 13
193.907697009
 23
144.8998951049
 33
0.0
 14
184.3487374589
 24
144.8998951049
 34
0.0
 50
0.0
100
AcDbRotatedDimension
1001
ACAD
1000
DSTYLE
1002
{
1070
   143
1040
0.0393700787
1070
    41
1040
3.9624
1070
    44
1040
3.175
1070
    42
1040
1.27
1070
   147
1040
1.524
1070
    77
1070
     0
1070
    73
1070
     1
1070
    74
1070
     1
1070
   140
1040
4.2333333333
1070
   284
1070
    12
1070
    78
1070
    12
1002
}
  0
DIMENSION
  5
140
330
1F
100
AcDbEntity
  8
D1
100
AcDbDimension
  2
*D9
 10
-4.4728463918
 20
119.4998951049
 30
0.0
 11
222.288862974
 21
134.2986579765
 31
0.0
 70
   164
  1
<>
 71
     1
 42
200.0
  3
SLDDIMSTYLE3
100
AcDbRadialDimension
 15
195.0369227082
 25
133.4946095955
 35
0.0
 40
0.0
1001
ACAD
1000
DSTYLE
1002
{
1070
   143
1040
0.0393700787
1070
    41
1040
3.9624
1070
    44
1040
3.175
1070
    42
1040
1.27
1070
   147
1040
1.524
1070
    77
1070
     0
1070
    73
1070
     1
1070
    74
1070
     1
1070
   140
1040
4.2333333333
1070
   284
1070
    12
1070
    78
1070
    12
1002
}
  0
DIMENSION
  5
159
330
1F
100
AcDbEntity
  8
D1
100
AcDbDimension
  2
*D10
 10
190.5271536082
 20
83.5776464972
 30
0.0
 11
222.1131137725
 21
83.5776464972
 31
0.0
 70
   160
 71
     1
 42
5.0
  3
SLDDIMSTYLE1
100
AcDbAlignedDimension
 13
195.5271536082
 23
119.4998951049
 33
0.0
 14
190.5271536082
 24
119.4998951049
 34
0.0
100
AcDbRotatedDimension
1001
ACAD
1000
DSTYLE
1002
{
1070
   143
1040
0.0393700787
1070
    41
1040
3.9624
1070
    44
1040
3.175
1070
    42
1040
1.27
1070
   147
1040
1.524
1070
    77
1070
     0
1070
    73
1070
     1
1070
    74
1070
     1
1070
   140
1040
4.2333333333
1070
   284
1070
    12
1070
    78
1070
    12
1002
}
  0
DIMENSION
  5
176
330
1F
100
AcDbEntity
  8
D1
100
AcDbDimension
  2
*D11
 10
135.2271536082
 20
119.4998951049
 30
0.0
 11
222.098235
 21
103.54564
 31
0.0
 70
   164
  1
<>
 71
     1
 42
55.3
  3
SLDDIMSTYLE4
100
AcDbRadialDimension
 15
189.1847271903
 25
107.3891456183
 35
0.0
 40
0.0
1001
ACAD
1000
DSTYLE
1002
{
1070
   143
1040
0.0393700787
1070
    41
1040
3.9624
1070
    44
1040
3.175
1070
    42
1040
1.27
1070
   147
1040
1.524
1070
    77
1070
     0
1070
    73
1070
     1
1070
    74
1070
     1
1070
   140
1040
4.2333333333
1070
   284
1070
    12
1070
    78
1070
    12
1002
}
  0
MTEXT
  5
18F
330
1F
100
AcDbEntity
  8
D1
100
AcDbMText
 10
180.0976498835
 20
92.2165698315
 30
0.0
 40
2.38125
 41
0.0
 71
     1
 72
     1
  1
{SECTION A-A}
  7
SLDTEXTSTYLE0
 73
     1
 44
1.0
  0
MTEXT
  5
190
330
1F
100
AcDbEntity
  8
D1
100
AcDbMText
 10
213.2179703041
 20
119.7090240746
 30
0.0
 40
2.38125
 41
0.0
 71
     1
 72
     1
  1
{BBAR FROM 650-1050nm}
  7
SLDTEXTSTYLE8
 73
     1
 44
1.0
  0
HATCH
  5
191
330
1F
100
AcDbEntity
  8
0
  6
Continuous
 62
     7
370
     0
100
AcDbHatch
 10
0.0
 20
0.0
 30
0.0
210
0.0
220
0.0
230
1.0
  2
ANSI31
 70
     0
 71
     0
 91
        1
 92
        0
 93
        4
 72
     1
 10
193.9076970089871
 20
144.8998951048951
 11
184.348737458865
 21
144.8998951048951
 72
     2
 10
135.2271536081788
 20
119.4998951048951
 40
55.29999999999996
 50
332.6572248519449
 51
387.3427751480567
 73
     0
 72
     1
 10
184.348737458865
 20
94.09989510489508
 11
193.9076970089871
 21
94.09989510489505
 72
     2
 10
-4.472846391821217
 20
119.4998951048951
 40
200.0
 50
352.7037320349605
 51
367.2962679650411
 73
     1
 97
        0
 75
     0
 76
     1
 52
0.0
 41
1.0
 77
     0
 78
     1
 53
45.00000209717174
 43
0.0
 44
0.0
 45
-2.245064112442359
 46
2.245063948092215
 79
     0
 98
        1
 10
0.0
 20
0.0
  0
ENDSEC
  0
SECTION
  2
OBJECTS
  0
DICTIONARY
  5
C
330
0
100
AcDbDictionary
281
     1
  3
ACAD_GROUP
350
D
  3
ACAD_LAYOUT
350
1A
  3
ACAD_MLINESTYLE
350
17
  3
ACAD_PLOTSETTINGS
350
19
  3
ACAD_PLOTSTYLENAME
350
E
  0
DICTIONARY
  5
D
102
{ACAD_REACTORS
330
C
102
}
330
C
100
AcDbDictionary
281
     1
  0
DICTIONARY
  5
1A
102
{ACAD_REACTORS
330
C
102
}
330
C
100
AcDbDictionary
281
     1
  3
Layout1
350
1E
  3
Layout2
350
26
  3
Model
350
22
  0
DICTIONARY
  5
17
102
{ACAD_REACTORS
330
C
102
}
330
C
100
AcDbDictionary
281
     1
  3
Standard
350
18
  0
DICTIONARY
  5
19
102
{ACAD_REACTORS
330
C
102
}
330
C
100
AcDbDictionary
281
     1
  0
ACDBDICTIONARYWDFLT
  5
E
102
{ACAD_REACTORS
330
C
102
}
330
C
100
AcDbDictionary
281
     1
  3
Normal
350
F
100
AcDbDictionaryWithDefault
340
F
  0
LAYOUT
  5
1E
102
{ACAD_REACTORS
330
1A
102
}
330
1A
100
AcDbPlotSettings
  1

  2

  4

  6

 40
0.0
 41
0.0
 42
0.0
 43
0.0
 44
0.0
 45
0.0
 46
0.0
 47
0.0
 48
0.0
 49
0.0
140
0.0
141
0.0
142
1.0
143
1.0
 70
   688
 72
     0
 73
     0
 74
     5
  7

 75
    16
147
1.0
148
0.0
149
0.0
100
AcDbLayout
  1
Layout1
 70
     1
 71
     1
 10
0.0
 20
0.0
 11
0.0
 21
0.0
 12
0.0
 22
0.0
 32
0.0
 14
0.0
 24
0.0
 34
0.0
 15
0.0
 25
0.0
 35
0.0
146
0.0
 13
0.0
 23
0.0
 33
0.0
 16
1.0
 26
0.0
 36
0.0
 17
0.0
 27
1.0
 37
0.0
 76
     0
330
1B
  0
LAYOUT
  5
26
102
{ACAD_REACTORS
330
1A
102
}
330
1A
100
AcDbPlotSettings
  1

  2

  4

  6

 40
0.0
 41
0.0
 42
0.0
 43
0.0
 44
0.0
 45
0.0
 46
0.0
 47
0.0
 48
0.0
 49
0.0
140
0.0
141
0.0
142
1.0
143
1.0
 70
   688
 72
     0
 73
     0
 74
     5
  7

 75
    16
147
1.0
148
0.0
149
0.0
100
AcDbLayout
  1
Layout2
 70
     1
 71
     2
 10
0.0
 20
0.0
 11
0.0
 21
0.0
 12
0.0
 22
0.0
 32
0.0
 14
0.0
 24
0.0
 34
0.0
 15
0.0
 25
0.0
 35
0.0
146
0.0
 13
0.0
 23
0.0
 33
0.0
 16
1.0
 26
0.0
 36
0.0
 17
0.0
 27
1.0
 37
0.0
 76
     0
330
23
  0
LAYOUT
  5
22
102
{ACAD_REACTORS
330
1A
102
}
330
1A
100
AcDbPlotSettings
  1

  2

  4

  6

 40
0.0
 41
0.0
 42
0.0
 43
0.0
 44
0.0
 45
0.0
 46
0.0
 47
0.0
 48
0.0
 49
0.0
140
0.0
141
0.0
142
1.0
143
1.0
 70
  1712
 72
     0
 73
     0
 74
     0
  7

 75
     0
147
1.0
148
0.0
149
0.0
100
AcDbLayout
  1
Model
 70
     1
 71
     0
 10
0.0
 20
0.0
 11
0.0
 21
0.0
 12
0.0
 22
0.0
 32
0.0
 14
0.0
 24
0.0
 34
0.0
 15
279.4
 25
215.9
 35
0.0
146
0.0
 13
0.0
 23
0.0
 33
0.0
 16
1.0
 26
0.0
 36
0.0
 17
0.0
 27
1.0
 37
0.0
 76
     0
330
1F
  0
MLINESTYLE
  5
18
102
{ACAD_REACTORS
330
17
102
}
330
17
100
AcDbMlineStyle
  2
Standard
 70
     0
  3

 62
   256
 51
90.0
 52
90.0
 71
     2
 49
0.5
 62
   256
  6
BYLAYER
 49
-0.5
 62
   256
  6
BYLAYER
  0
ACDBPLACEHOLDER
  5
F
102
{ACAD_REACTORS
330
E
102
}
330
E
  0
ENDSEC
  0
EOF
