  0
SECTION
  2
HEADER
  9
$ACADVER
  1
AC1015
  9
$ACADMAINTVER
 70
     6
  9
$DWGCODEPAGE
  3
ANSI_1252
  9
$INSBASE
 10
0.0
 20
0.0
 30
0.0
  9
$EXTMIN
 10
0.0
 20
0.0
 30
0.0
  9
$EXTMAX
 10
279.4
 20
215.9
 30
0.0
  9
$LIMMIN
 10
0.0
 20
0.0
  9
$LIMMAX
 10
279.4
 20
215.9
  9
$ORTHOMODE
 70
     0
  9
$REGENMODE
 70
     1
  9
$FILLMODE
 70
     1
  9
$QTEXTMODE
 70
     0
  9
$MIRRTEXT
 70
     1
  9
$LTSCALE
 40
1.0
  9
$ATTMODE
 70
     1
  9
$TEXTSIZE
 40
2.8222222222
  9
$TRACEWID
 40
1.0
  9
$TEXTSTYLE
  7
Standard
  9
$CLAYER
  8
0
  9
$CELTYPE
  6
ByLayer
  9
$CECOLOR
 62
   256
  9
$CELTSCALE
 40
1.0
  9
$DISPSILH
 70
     0
  9
$DIMSCALE
 40
1.0
  9
$DIMASZ
 40
3.175
  9
$DIMEXO
 40
1.27
  9
$DIMDLI
 40
3.75
  9
$DIMRND
 40
0.0
  9
$DIMDLE
 40
0.0
  9
$DIMEXE
 40
1.778
  9
$DIMTP
 40
0.0
  9
$DIMTM
 40
0.0
  9
$DIMTXT
 40
2.8222222222
  9
$DIMCEN
 40
2.5
  9
$DIMTSZ
 40
0.0
  9
$DIMTOL
 70
     0
  9
$DIMLIM
 70
     0
  9
$DIMTIH
 70
     1
  9
$DIMTOH
 70
     1
  9
$DIMSE1
 70
     0
  9
$DIMSE2
 70
     0
  9
$DIMTAD
 70
     0
  9
$DIMZIN
 70
     1
  9
$DIMBLK
  1

  9
$DIMASO
 70
     1
  9
$DIMSHO
 70
     1
  9
$DIMPOST
  1

  9
$DIMAPOST
  1

  9
$DIMALT
 70
     0
  9
$DIMALTD
 70
     3
  9
$DIMALTF
 40
0.0393700787
  9
$DIMLFAC
 40
1.0
  9
$DIMTOFL
 70
     1
  9
$DIMTVP
 40
0.0
  9
$DIMTIX
 70
     0
  9
$DIMSOXD
 70
     0
  9
$DIMSAH
 70
     0
  9
$DIMBLK1
  1

  9
$DIMBLK2
  1

  9
$DIMSTYLE
  2
ISO-25
  9
$DIMCLRD
 70
     0
  9
$DIMCLRE
 70
     0
  9
$DIMCLRT
 70
     0
  9
$DIMTFAC
 40
1.0
  9
$DIMGAP
 40
2.54
  9
$DIMJUST
 70
     0
  9
$DIMSD1
 70
     0
  9
$DIMSD2
 70
     0
  9
$DIMTOLJ
 70
     0
  9
$DIMTZIN
 70
     1
  9
$DIMALTZ
 70
     0
  9
$DIMALTTZ
 70
     0
  9
$DIMUPT
 70
     0
  9
$DIMDEC
 70
     1
  9
$DIMTDEC
 70
     1
  9
$DIMALTU
 70
     2
  9
$DIMALTTD
 70
     3
  9
$DIMTXSTY
  7
Standard
  9
$DIMAUNIT
 70
     0
  9
$DIMADEC
 70
     0
  9
$DIMALTRND
 40
0.0
  9
$DIMAZIN
 70
     0
  9
$DIMDSEP
 70
    44
  9
$DIMATFIT
 70
     3
  9
$DIMFRAC
 70
     0
  9
$DIMLDRBLK
  1

  9
$DIMLUNIT
 70
     2
  9
$DIMLWD
 70
    -2
  9
$DIMLWE
 70
    -2
  9
$DIMTMOVE
 70
     0
  9
$LUNITS
 70
     2
  9
$LUPREC
 70
     1
  9
$SKETCHINC
 40
1.0
  9
$FILLETRAD
 40
10.0
  9
$AUNITS
 70
     0
  9
$AUPREC
 70
     0
  9
$MENU
  1
.
  9
$ELEVATION
 40
0.0
  9
$PELEVATION
 40
0.0
  9
$THICKNESS
 40
0.0
  9
$LIMCHECK
 70
     0
  9
$CHAMFERA
 40
0.0
  9
$CHAMFERB
 40
0.0
  9
$CHAMFERC
 40
0.0
  9
$CHAMFERD
 40
0.0
  9
$SKPOLY
 70
     0
  9
$TDCREATE
 40
2458470.645456134
  9
$TDUCREATE
 40
2458470.853789467
  9
$TDUPDATE
 40
2458470.645465648
  9
$TDUUPDATE
 40
2458470.853798981
  9
$TDINDWG
 40
0.0000000116
  9
$TDUSRTIMER
 40
0.0000000116
  9
$USRTIMER
 70
     1
  9
$ANGBASE
 50
0.0
  9
$ANGDIR
 70
     0
  9
$PDMODE
 70
     0
  9
$PDSIZE
 40
-1.0
  9
$PLINEWID
 40
0.0
  9
$SPLFRAME
 70
     0
  9
$SPLINETYPE
 70
     6
  9
$SPLINESEGS
 70
     8
  9
$HANDSEED
  5
268
  9
$SURFTAB1
 70
     6
  9
$SURFTAB2
 70
     6
  9
$SURFTYPE
 70
     6
  9
$SURFU
 70
     6
  9
$SURFV
 70
     6
  9
$UCSBASE
  2

  9
$UCSNAME
  2

  9
$UCSORG
 10
0.0
 20
0.0
 30
0.0
  9
$UCSXDIR
 10
1.0
 20
0.0
 30
0.0
  9
$UCSYDIR
 10
0.0
 20
1.0
 30
0.0
  9
$UCSORTHOREF
  2

  9
$UCSORTHOVIEW
 70
     0
  9
$UCSORGTOP
 10
0.0
 20
0.0
 30
0.0
  9
$UCSORGBOTTOM
 10
0.0
 20
0.0
 30
0.0
  9
$UCSORGLEFT
 10
0.0
 20
0.0
 30
0.0
  9
$UCSORGRIGHT
 10
0.0
 20
0.0
 30
0.0
  9
$UCSORGFRONT
 10
0.0
 20
0.0
 30
0.0
  9
$UCSORGBACK
 10
0.0
 20
0.0
 30
0.0
  9
$PUCSBASE
  2

  9
$PUCSNAME
  2

  9
$PUCSORG
 10
0.0
 20
0.0
 30
0.0
  9
$PUCSXDIR
 10
1.0
 20
0.0
 30
0.0
  9
$PUCSYDIR
 10
0.0
 20
1.0
 30
0.0
  9
$PUCSORTHOREF
  2

  9
$PUCSORTHOVIEW
 70
     0
  9
$PUCSORGTOP
 10
0.0
 20
0.0
 30
0.0
  9
$PUCSORGBOTTOM
 10
0.0
 20
0.0
 30
0.0
  9
$PUCSORGLEFT
 10
0.0
 20
0.0
 30
0.0
  9
$PUCSORGRIGHT
 10
0.0
 20
0.0
 30
0.0
  9
$PUCSORGFRONT
 10
0.0
 20
0.0
 30
0.0
  9
$PUCSORGBACK
 10
0.0
 20
0.0
 30
0.0
  9
$USERI1
 70
     0
  9
$USERI2
 70
     0
  9
$USERI3
 70
     0
  9
$USERI4
 70
     0
  9
$USERI5
 70
     0
  9
$USERR1
 40
0.0
  9
$USERR2
 40
0.0
  9
$USERR3
 40
0.0
  9
$USERR4
 40
0.0
  9
$USERR5
 40
0.0
  9
$WORLDVIEW
 70
     1
  9
$SHADEDGE
 70
     3
  9
$SHADEDIF
 70
    70
  9
$TILEMODE
 70
     1
  9
$MAXACTVP
 70
    64
  9
$PINSBASE
 10
0.0
 20
0.0
 30
0.0
  9
$PLIMCHECK
 70
     0
  9
$PEXTMIN
 10
1.0000000000E+20
 20
1.0000000000E+20
 30
1.0000000000E+20
  9
$PEXTMAX
 10
-1.0000000000E+20
 20
-1.0000000000E+20
 30
-1.0000000000E+20
  9
$PLIMMIN
 10
0.0
 20
0.0
  9
$PLIMMAX
 10
420.0
 20
297.0
  9
$UNITMODE
 70
     0
  9
$VISRETAIN
 70
     1
  9
$PLINEGEN
 70
     0
  9
$PSLTSCALE
 70
     1
  9
$TREEDEPTH
 70
  3020
  9
$CMLSTYLE
  2
Standard
  9
$CMLJUST
 70
     0
  9
$CMLSCALE
 40
20.0
  9
$PROXYGRAPHICS
 70
     1
  9
$MEASUREMENT
 70
     1
  9
$CELWEIGHT
370
    -1
  9
$ENDCAPS
280
     0
  9
$JOINSTYLE
280
     0
  9
$LWDISPLAY
290
     1
  9
$INSUNITS
 70
     4
  9
$HYPERLINKBASE
  1

  9
$STYLESHEET
  1

  9
$XEDIT
290
     1
  9
$CEPSNTYPE
380
     0
  9
$PSTYLEMODE
290
     1
  9
$FINGERPRINTGUID
  2
{11FF4C87-8C46-43F1-851A-C4AAC312D9D6}
  9
$VERSIONGUID
  2
{FAEB1C32-E019-11D5-929B-00C0DF256EC4}
  9
$EXTNAMES
290
     1
  9
$PSVPSCALE
 40
0.0
  9
$OLESTARTUP
290
     0
  0
ENDSEC
  0
SECTION
  2
CLASSES
  0
CLASS
  1
ACDBDICTIONARYWDFLT
  2
AcDbDictionaryWithDefault
  3
ObjectDBX Classes
 90
        0
280
     0
281
     0
  0
CLASS
  1
VISUALSTYLE
  2
AcDbVisualStyle
  3
ObjectDBX Classes
 90
     4095
280
     0
281
     0
  0
CLASS
  1
MATERIAL
  2
AcDbMaterial
  3
ObjectDBX Classes
 90
     1153
280
     0
281
     0
  0
CLASS
  1
SCALE
  2
AcDbScale
  3
ObjectDBX Classes
 90
     1153
280
     0
281
     0
  0
CLASS
  1
TABLESTYLE
  2
AcDbTableStyle
  3
ObjectDBX Classes
 90
     4095
280
     0
281
     0
  0
CLASS
  1
MLEADERSTYLE
  2
AcDbMLeaderStyle
  3
ACDB_MLEADERSTYLE_CLASS
 90
     4095
280
     0
281
     0
  0
CLASS
  1
SUN
  2
AcDbSun
  3
SCENEOE
 90
     1153
280
     0
281
     0
  0
CLASS
  1
ACDBPLACEHOLDER
  2
AcDbPlaceHolder
  3
ObjectDBX Classes
 90
        0
280
     0
281
     0
  0
CLASS
  1
LAYOUT
  2
AcDbLayout
  3
ObjectDBX Classes
 90
        0
280
     0
281
     0
  0
ENDSEC
  0
SECTION
  2
TABLES
  0
TABLE
  2
VPORT
  5
8
330
0
100
AcDbSymbolTable
 70
     1
  0
VPORT
  5
29
330
8
100
AcDbSymbolTableRecord
100
AcDbViewportTableRecord
  2
*Active
 70
     0
 10
0.0
 20
0.0
 11
1.0
 21
1.0
 12
139.7
 22
107.95
 13
0.0
 23
0.0
 14
10.0
 24
10.0
 15
10.0
 25
10.0
 16
0.0
 26
0.0
 36
1.0
 17
0.0
 27
0.0
 37
0.0
 40
215.9
 41
1.2941176471
 42
50.0
 43
0.0
 44
0.0
 50
0.0
 51
0.0
 71
     0
 72
  2000
 73
     1
 74
     3
 75
     0
 76
     0
 77
     0
 78
     0
281
     0
 65
     1
110
0.0
120
0.0
130
0.0
111
1.0
121
0.0
131
0.0
112
0.0
122
1.0
132
0.0
 79
     0
146
0.0
  0
ENDTAB
  0
TABLE
  2
LTYPE
  5
5
330
0
100
AcDbSymbolTable
 70
     6
  0
LTYPE
  5
14
330
5
100
AcDbSymbolTableRecord
100
AcDbLinetypeTableRecord
  2
ByBlock
 70
     0
  3

 72
    65
 73
     0
 40
0.0
  0
LTYPE
  5
15
330
5
100
AcDbSymbolTableRecord
100
AcDbLinetypeTableRecord
  2
ByLayer
 70
     0
  3

 72
    65
 73
     0
 40
0.0
  0
LTYPE
  5
16
330
5
100
AcDbSymbolTableRecord
100
AcDbLinetypeTableRecord
  2
Continuous
 70
     0
  3
Solid line
 72
    65
 73
     0
 40
0.0
  0
LTYPE
  5
6E
330
5
100
AcDbSymbolTableRecord
100
AcDbLinetypeTableRecord
  2
HIDDEN
 70
     0
  3
Hidden __ __ __ __ __ __ __ __ __ __ __ __ __ __
 72
    65
 73
     2
 40
1.905
 49
1.27
 74
     0
 49
-0.635
 74
     0
  0
LTYPE
  5
6F
330
5
100
AcDbSymbolTableRecord
100
AcDbLinetypeTableRecord
  2
PHANTOM
 70
     0
  3
Phantom ______  __  __  ______  __  __  ______
 72
    65
 73
     6
 40
12.7
 49
6.35
 74
     0
 49
-1.27
 74
     0
 49
1.27
 74
     0
 49
-1.27
 74
     0
 49
1.27
 74
     0
 49
-1.27
 74
     0
  0
LTYPE
  5
70
330
5
100
AcDbSymbolTableRecord
100
AcDbLinetypeTableRecord
  2
CENTER
 70
     0
  3
Center ____ _ ____ _ ____ _ ____ _ ____ _ ____
 72
    65
 73
     4
 40
10.16
 49
6.35
 74
     0
 49
-1.27
 74
     0
 49
1.27
 74
     0
 49
-1.27
 74
     0
  0
LTYPE
  5
71
330
5
100
AcDbSymbolTableRecord
100
AcDbLinetypeTableRecord
  2
CENTERX2
 70
     0
  3
Center (2x) ________  __  ________  __  _____
 72
    65
 73
     4
 40
20.32
 49
12.7
 74
     0
 49
-2.54
 74
     0
 49
2.54
 74
     0
 49
-2.54
 74
     0
  0
LTYPE
  5
72
330
5
100
AcDbSymbolTableRecord
100
AcDbLinetypeTableRecord
  2
DOT2
 70
     0
  3
Dot (.5x) ........................................
 72
    65
 73
     2
 40
0.635
 49
0.0
 74
     0
 49
-0.635
 74
     0
  0
ENDTAB
  0
TABLE
  2
LAYER
  5
2
330
0
100
AcDbSymbolTable
 70
     2
  0
LAYER
  5
10
330
2
100
AcDbSymbolTableRecord
100
AcDbLayerTableRecord
  2
0
 70
     0
 62
     7
  6
Continuous
370
    -3
390
F
  0
LAYER
  5
73
330
2
100
AcDbSymbolTableRecord
100
AcDbLayerTableRecord
  2
FORMAT
 70
     0
 62
     7
  6
Continuous
370
    -3
390
F
  0
ENDTAB
  0
TABLE
  2
STYLE
  5
3
330
0
100
AcDbSymbolTable
 70
     5
  0
STYLE
  5
11
330
3
100
AcDbSymbolTableRecord
100
AcDbTextStyleTableRecord
  2
Standard
 70
     0
 40
0.0
 41
1.0
 50
0.0
 71
     0
 42
2.8222222222
  3
txt
  4

  0
STYLE
  5
9D
330
3
100
AcDbSymbolTableRecord
100
AcDbTextStyleTableRecord
  2
SLDTEXTSTYLE0
 70
     0
 40
0.0
 41
0.75
 50
0.0
 71
     0
 42
2.8222222222
  3
TXT
  4

  0
STYLE
  5
A3
330
3
100
AcDbSymbolTableRecord
100
AcDbTextStyleTableRecord
  2
SLDTEXTSTYLE1
 70
     0
 40
0.0
 41
0.75
 50
0.0
 71
     0
 42
2.8222222222
  3
TXT
  4
bigfont
  0
STYLE
  5
B6
330
3
100
AcDbSymbolTableRecord
100
AcDbTextStyleTableRecord
  2
SLDTEXTSTYLE2
 70
     0
 40
0.0
 41
0.7
 50
0.0
 71
     0
 42
2.8222222222
  3
TXT
  4

  0
STYLE
  5
C5
330
3
100
AcDbSymbolTableRecord
100
AcDbTextStyleTableRecord
  2
SLDTEXTSTYLE3
 70
     0
 40
0.0
 41
0.6
 50
0.0
 71
     0
 42
2.8222222222
  3
TXT
  4

  0
ENDTAB
  0
TABLE
  2
VIEW
  5
6
330
0
100
AcDbSymbolTable
 70
     0
  0
ENDTAB
  0
TABLE
  2
UCS
  5
7
330
0
100
AcDbSymbolTable
 70
     0
  0
ENDTAB
  0
TABLE
  2
APPID
  5
9
330
0
100
AcDbSymbolTable
 70
     1
  0
APPID
  5
12
330
9
100
AcDbSymbolTableRecord
100
AcDbRegAppTableRecord
  2
ACAD
 70
     0
  0
ENDTAB
  0
TABLE
  2
DIMSTYLE
  5
A
330
0
100
AcDbSymbolTable
 70
     6
100
AcDbDimStyleTable
  0
DIMSTYLE
105
27
330
A
100
AcDbSymbolTableRecord
100
AcDbDimStyleTableRecord
  2
ISO-25
 70
     0
 41
2.5
 42
0.625
 43
3.75
 44
1.25
 73
     0
 74
     0
 77
     1
 78
     8
140
2.5
141
2.5
143
0.0393700787
147
0.625
171
     3
172
     1
178
     0
271
     2
272
     2
274
     3
278
    44
283
     0
284
     8
340
11
  0
DIMSTYLE
105
F4
102
{ACAD_REACTORS
330
F3
102
}
330
A
100
AcDbSymbolTableRecord
100
AcDbDimStyleTableRecord
  2
SLDDIMSTYLE0
 70
     0
 41
3.175
 44
0.0
 45
0.000000001
 78
    12
 79
     3
140
2.1166666667
141
0.0
143
0.0393700787
147
0.5291666667
148
0.000000001
170
     1
173
     1
178
     0
271
     1
272
     1
276
     2
284
    12
340
9D
  0
DIMSTYLE
105
119
102
{ACAD_REACTORS
330
118
102
}
330
A
100
AcDbSymbolTableRecord
100
AcDbDimStyleTableRecord
  2
SLDDIMSTYLE1
 70
     0
 41
3.175
 44
0.0
 45
0.000000001
 78
    12
 79
     3
140
2.1166666667
143
0.0393700787
147
0.5291666667
148
0.000000001
170
     1
172
     1
173
     1
178
     0
271
     1
272
     1
276
     2
284
    12
289
     0
340
9D
  0
DIMSTYLE
105
12D
102
{ACAD_REACTORS
330
12C
102
}
330
A
100
AcDbSymbolTableRecord
100
AcDbDimStyleTableRecord
  2
SLDDIMSTYLE2
 70
     0
 41
3.175
 44
0.0
 45
0.000000001
 78
     4
 79
     1
140
2.1166666667
141
0.0
143
0.0393700787
147
0.5291666667
148
0.000000001
170
     1
173
     1
178
     0
271
     1
272
     1
276
     2
284
    12
340
9D
  0
DIMSTYLE
105
13E
102
{ACAD_REACTORS
330
13D
102
}
330
A
100
AcDbSymbolTableRecord
100
AcDbDimStyleTableRecord
  2
SLDDIMSTYLE3
 70
     0
 41
3.175
 44
0.0
 45
0.000000001
 78
     4
 79
     1
140
2.1166666667
143
0.0393700787
147
0.5291666667
148
0.000000001
170
     1
172
     1
173
     1
178
     0
271
     1
272
     1
276
     2
284
    12
289
     0
340
9D
  0
DIMSTYLE
105
154
330
A
100
AcDbSymbolTableRecord
100
AcDbDimStyleTableRecord
  2
SLDDIMSTYLE4
 70
     0
 41
3.175
 44
0.0
 45
0.000000001
146
3.175
147
0.0
173
     1
178
     0
271
     0
272
     0
276
     2
340
11
  0
ENDTAB
  0
TABLE
  2
BLOCK_RECORD
  5
1
330
0
100
AcDbSymbolTable
 70
    11
  0
BLOCK_RECORD
  5
1F
330
1
100
AcDbSymbolTableRecord
100
AcDbBlockTableRecord
  2
*Model_Space
340
22
  0
BLOCK_RECORD
  5
1B
330
1
100
AcDbSymbolTableRecord
100
AcDbBlockTableRecord
  2
*Paper_Space
340
1E
  0
BLOCK_RECORD
  5
23
330
1
100
AcDbSymbolTableRecord
100
AcDbBlockTableRecord
  2
*Paper_Space0
340
26
  0
BLOCK_RECORD
  5
74
330
1
100
AcDbSymbolTableRecord
100
AcDbBlockTableRecord
  2
Third Angle Projection Block
340
0
102
{BLKREFS
331
99
102
}
  0
BLOCK_RECORD
  5
9A
330
1
100
AcDbSymbolTableRecord
100
AcDbBlockTableRecord
  2
SW_NOTE_0
340
0
102
{BLKREFS
331
B9
102
}
  0
BLOCK_RECORD
  5
CB
330
1
100
AcDbSymbolTableRecord
100
AcDbBlockTableRecord
  2
SW_NOTE_1
340
0
102
{BLKREFS
331
D0
102
}
  0
BLOCK_RECORD
  5
D1
330
1
100
AcDbSymbolTableRecord
100
AcDbBlockTableRecord
  2
SW_NOTE_2
340
0
102
{BLKREFS
331
D6
102
}
  0
BLOCK_RECORD
  5
D8
330
1
100
AcDbSymbolTableRecord
100
AcDbBlockTableRecord
  2
SW_NOTE_3
340
0
102
{BLKREFS
331
DD
102
}
  0
BLOCK_RECORD
  5
DE
330
1
100
AcDbSymbolTableRecord
100
AcDbBlockTableRecord
  2
SW_NOTE_4
340
0
102
{BLKREFS
331
E4
102
}
  0
BLOCK_RECORD
  5
F5
330
1
100
AcDbSymbolTableRecord
100
AcDbBlockTableRecord
  2
_D
340
0
  0
BLOCK_RECORD
  5
11A
330
1
100
AcDbSymbolTableRecord
100
AcDbBlockTableRecord
  2
_D_1
340
0
  0
BLOCK_RECORD
  5
12E
330
1
100
AcDbSymbolTableRecord
100
AcDbBlockTableRecord
  2
_D_2
340
0
  0
BLOCK_RECORD
  5
13F
330
1
100
AcDbSymbolTableRecord
100
AcDbBlockTableRecord
  2
_D_3
340
0
  0
ENDTAB
  0
ENDSEC
  0
SECTION
  2
BLOCKS
  0
BLOCK
  5
20
330
1F
100
AcDbEntity
  8
0
100
AcDbBlockBegin
  2
*Model_Space
 70
     0
 10
0.0
 20
0.0
 30
0.0
  3
*Model_Space
  1

  0
ENDBLK
  5
21
330
1F
100
AcDbEntity
  8
0
100
AcDbBlockEnd
  0
BLOCK
  5
1C
330
1B
100
AcDbEntity
 67
     1
  8
0
100
AcDbBlockBegin
  2
*Paper_Space
 70
     0
 10
0.0
 20
0.0
 30
0.0
  3
*Paper_Space
  1

  0
ENDBLK
  5
1D
330
1B
100
AcDbEntity
 67
     1
  8
0
100
AcDbBlockEnd
  0
BLOCK
  5
24
330
23
100
AcDbEntity
  8
0
100
AcDbBlockBegin
  2
*Paper_Space0
 70
     0
 10
0.0
 20
0.0
 30
0.0
  3
*Paper_Space0
  1

  0
ENDBLK
  5
25
330
23
100
AcDbEntity
  8
0
100
AcDbBlockEnd
  0
BLOCK
  5
75
330
74
100
AcDbEntity
  8
0
100
AcDbBlockBegin
  2
Third Angle Projection Block
 70
     0
 10
0.0
 20
0.0
 30
0.0
  3
Third Angle Projection Block
  1

  0
CIRCLE
  5
77
330
74
100
AcDbEntity
  8
0
  6
Continuous
 62
     7
370
    35
100
AcDbCircle
 10
101.4766388944
 20
18.9404083667
 30
0.0
 40
1.768227153674871
  0
CIRCLE
  5
78
330
74
100
AcDbEntity
  8
0
  6
Continuous
 62
     7
370
    35
100
AcDbCircle
 10
101.4766388944
 20
18.9404083667
 30
0.0
 40
3.901228248531818
  0
LINE
  5
79
330
74
100
AcDbEntity
  8
0
  6
CENTERX2
 62
     7
370
    18
100
AcDbLine
 10
110.1367822585
 20
18.9404083667
 30
0.0
 11
119.4527334874
 21
18.9404083667
 31
0.0
  0
LINE
  5
7A
330
74
100
AcDbEntity
  8
0
  6
Continuous
 62
     7
370
    35
100
AcDbLine
 10
111.0016388944
 20
20.7086355204
 30
0.0
 11
111.0016388944
 21
17.172181213
 31
0.0
  0
LINE
  5
7B
330
74
100
AcDbEntity
  8
0
  6
Continuous
 62
     7
370
    35
100
AcDbLine
 10
111.0016388944
 20
17.172181213
 30
0.0
 11
118.6216388944
 21
15.1304083667
 31
0.0
  0
LINE
  5
7C
330
74
100
AcDbEntity
  8
0
  6
Continuous
 62
     7
370
    35
100
AcDbLine
 10
118.6216388944
 20
15.1304083667
 30
0.0
 11
118.6216388944
 21
22.7504083667
 31
0.0
  0
LINE
  5
7D
330
74
100
AcDbEntity
  8
0
  6
Continuous
 62
     7
370
    35
100
AcDbLine
 10
118.6216388944
 20
22.7504083667
 30
0.0
 11
111.0016388944
 21
20.7086355204
 31
0.0
  0
LINE
  5
7E
330
74
100
AcDbEntity
  8
0
  6
CENTERX2
 62
     7
370
    18
100
AcDbLine
 10
96.6025854619
 20
18.9404083667
 30
0.0
 11
106.3506923269
 21
18.9404083667
 31
0.0
  0
LINE
  5
7F
330
74
100
AcDbEntity
  8
0
  6
CENTERX2
 62
     7
370
    18
100
AcDbLine
 10
101.4766388944
 20
23.8144617992
 30
0.0
 11
101.4766388944
 21
14.0663549342
 31
0.0
  0
POINT
  5
80
330
74
100
AcDbEntity
  8
0
  6
Continuous
 62
     7
370
     0
100
AcDbPoint
 10
101.4766388944
 20
18.9404083667
 30
0.0
  0
ENDBLK
  5
76
330
74
100
AcDbEntity
  8
0
100
AcDbBlockEnd
  0
BLOCK
  5
9B
330
9A
100
AcDbEntity
  8
0
100
AcDbBlockBegin
  2
SW_NOTE_0
 70
     0
 10
0.0
 20
0.0
 30
0.0
  3
SW_NOTE_0
  1

  0
MTEXT
  5
9E
330
9A
100
AcDbEntity
  8
0
  6
Continuous
 62
     0
370
     0
100
AcDbMText
 10
0.0
 20
3.4106583948
 30
0.0
 40
2.6458333333
 41
0.0
 71
     1
 72
     1
  1
NOTES/SPECIFICATIONS:
  7
SLDTEXTSTYLE0
 73
     1
 44
1.0
  0
MTEXT
  5
9F
330
9A
100
AcDbEntity
  8
0
  6
Continuous
 62
     0
370
     0
100
AcDbMText
 10
9.9999997765
 20
-5.6448974033
 30
0.0
 40
2.6458333333
 41
0.0
 71
     1
 72
     1
  1
CLEAR APERTURE: >
  7
SLDTEXTSTYLE0
 73
     1
 44
1.0
  0
MTEXT
  5
A0
330
9A
100
AcDbEntity
  8
0
  6
Continuous
 62
     0
370
     0
100
AcDbMText
 10
42.7789334208
 20
-5.6448974033
 30
0.0
 40
2.6458333333
 41
0.0
 71
     1
 72
     1
  1
%%c
  7
SLDTEXTSTYLE0
 73
     1
 44
1.0
  0
MTEXT
  5
A1
330
9A
100
AcDbEntity
  8
0
  6
Continuous
 62
     0
370
     0
100
AcDbMText
 10
46.7726718634
 20
-5.6448974033
 30
0.0
 40
2.6458333333
 41
0.0
 71
     1
 72
     1
  1
45.72mm
  7
SLDTEXTSTYLE0
 73
     1
 44
1.0
  0
MTEXT
  5
A2
330
9A
100
AcDbEntity
  8
0
  6
Continuous
 62
     0
370
     0
100
AcDbMText
 10
0.0
 20
-5.6448974033
 30
0.0
 40
2.6458333333
 41
0.0
 71
     1
 72
     1
  1
1.
  7
SLDTEXTSTYLE0
 73
     1
 44
1.0
  0
MTEXT
  5
A4
330
9A
100
AcDbEntity
  8
0
  6
Continuous
 62
     0
370
     0
100
AcDbMText
 10
9.9999997765
 20
-10.1726753024
 30
0.0
 40
2.6458333333
 41
0.0
 71
     1
 72
     1
  1
SURFACE IRREGULARITY (S1): \U+2264\M+183C9/4 AT 633nm OVER CLEAR APERTURE
  7
SLDTEXTSTYLE1
 73
     1
 44
1.0
  0
MTEXT
  5
A5
330
9A
100
AcDbEntity
  8
0
  6
Continuous
 62
     0
370
     0
100
AcDbMText
 10
0.0
 20
-10.1726753024
 30
0.0
 40
2.6458333333
 41
0.0
 71
     1
 72
     1
  1
2.
  7
SLDTEXTSTYLE0
 73
     1
 44
1.0
  0
MTEXT
  5
A6
330
9A
100
AcDbEntity
  8
0
  6
Continuous
 62
     0
370
     0
100
AcDbMText
 10
9.9999997765
 20
-14.7004532014
 30
0.0
 40
2.6458333333
 41
0.0
 71
     1
 72
     1
  1
BACK SURFACE (S2): UNIFORM FINE GRIND #12-#20 GRIT
  7
SLDTEXTSTYLE0
 73
     1
 44
1.0
  0
MTEXT
  5
A7
330
9A
100
AcDbEntity
  8
0
  6
Continuous
 62
     0
370
     0
100
AcDbMText
 10
0.0
 20
-14.7004532014
 30
0.0
 40
2.6458333333
 41
0.0
 71
     1
 72
     1
  1
3.
  7
SLDTEXTSTYLE0
 73
     1
 44
1.0
  0
MTEXT
  5
A8
330
9A
100
AcDbEntity
  8
0
  6
Continuous
 62
     0
370
     0
100
AcDbMText
 10
9.9999997765
 20
-19.2282311005
 30
0.0
 40
2.6458333333
 41
0.0
 71
     1
 72
     1
  1
SURFACE QUALITY(S1): 40-20 SCRATCH-DIG
  7
SLDTEXTSTYLE0
 73
     1
 44
1.0
  0
MTEXT
  5
A9
330
9A
100
AcDbEntity
  8
0
  6
Continuous
 62
     0
370
     0
100
AcDbMText
 10
0.0
 20
-19.2282311005
 30
0.0
 40
2.6458333333
 41
0.0
 71
     1
 72
     1
  1
4.
  7
SLDTEXTSTYLE0
 73
     1
 44
1.0
  0
MTEXT
  5
AA
330
9A
100
AcDbEntity
  8
0
  6
Continuous
 62
     0
370
     0
100
AcDbMText
 10
9.9999997765
 20
-23.7560089995
 30
0.0
 40
2.6458333333
 41
0.0
 71
     1
 72
     1
  1
THICKNESS TOLERANCE:
  7
SLDTEXTSTYLE0
 73
     1
 44
1.0
  0
MTEXT
  5
AB
330
9A
100
AcDbEntity
  8
0
  6
Continuous
 62
     0
370
     0
100
AcDbMText
 10
50.8242268115
 20
-23.7560089995
 30
0.0
 40
2.6458333333
 41
0.0
 71
     1
 72
     1
  1
%%p
  7
SLDTEXTSTYLE0
 73
     1
 44
1.0
  0
MTEXT
  5
AC
330
9A
100
AcDbEntity
  8
0
  6
Continuous
 62
     0
370
     0
100
AcDbMText
 10
53.3465910703
 20
-23.7560089995
 30
0.0
 40
2.6458333333
 41
0.0
 71
     1
 72
     1
  1
0.1 mm
  7
SLDTEXTSTYLE0
 73
     1
 44
1.0
  0
MTEXT
  5
AD
330
9A
100
AcDbEntity
  8
0
  6
Continuous
 62
     0
370
     0
100
AcDbMText
 10
0.0
 20
-23.7560089995
 30
0.0
 40
2.6458333333
 41
0.0
 71
     1
 72
     1
  1
5.
  7
SLDTEXTSTYLE0
 73
     1
 44
1.0
  0
MTEXT
  5
AE
330
9A
100
AcDbEntity
  8
0
  6
Continuous
 62
     0
370
     0
100
AcDbMText
 10
9.9999997765
 20
-28.2837868986
 30
0.0
 40
2.6458333333
 41
0.0
 71
     1
 72
     1
  1
DIAMETER TOLERANCE: +0.0/-0.2 mm
  7
SLDTEXTSTYLE0
 73
     1
 44
1.0
  0
MTEXT
  5
AF
330
9A
100
AcDbEntity
  8
0
  6
Continuous
 62
     0
370
     0
100
AcDbMText
 10
0.0
 20
-28.2837868986
 30
0.0
 40
2.6458333333
 41
0.0
 71
     1
 72
     1
  1
6.
  7
SLDTEXTSTYLE0
 73
     1
 44
1.0
  0
MTEXT
  5
B0
330
9A
100
AcDbEntity
  8
0
  6
Continuous
 62
     0
370
     0
100
AcDbMText
 10
9.9999997765
 20
-32.8115647976
 30
0.0
 40
2.6458333333
 41
0.0
 71
     1
 72
     1
  1
COATING(S1): PROTECTED SILVER
  7
SLDTEXTSTYLE0
 73
     1
 44
1.0
  0
MTEXT
  5
B1
330
9A
100
AcDbEntity
  8
0
  6
Continuous
 62
     0
370
     0
100
AcDbMText
 10
0.0
 20
-32.8115647976
 30
0.0
 40
2.6458333333
 41
0.0
 71
     1
 72
     1
  1
7.
  7
SLDTEXTSTYLE0
 73
     1
 44
1.0
  0
MTEXT
  5
B2
330
9A
100
AcDbEntity
  8
0
  6
Continuous
 62
     0
370
     0
100
AcDbMText
 10
34.9609375
 20
-37.3393426967
 30
0.0
 40
2.6458333333
 41
0.0
 71
     1
 72
     1
  1
Ravg: >97.5% FROM 450nm-2\M+183CAm
  7
SLDTEXTSTYLE1
 73
     1
 44
1.0
  0
MTEXT
  5
B3
330
9A
100
AcDbEntity
  8
0
  6
Continuous
 62
     0
370
     0
100
AcDbMText
 10
34.9609375
 20
-41.8671205958
 30
0.0
 40
2.6458333333
 41
0.0
 71
     1
 72
     1
  1
Ravg: >96% FROM 2\M+183CAm-20\M+183CAm
  7
SLDTEXTSTYLE1
 73
     1
 44
1.0
  0
MTEXT
  5
B4
330
9A
100
AcDbEntity
  8
0
  6
Continuous
 62
     0
370
     0
100
AcDbMText
 10
34.9609375
 20
-46.3948984948
 30
0.0
 40
2.6458333333
 41
0.0
 71
     1
 72
     1
  1
AOI: 0
  7
SLDTEXTSTYLE0
 73
     1
 44
1.0
  0
MTEXT
  5
B5
330
9A
100
AcDbEntity
  8
0
  6
Continuous
 62
     0
370
     0
100
AcDbMText
 10
45.2576388791
 20
-46.3948984948
 30
0.0
 40
2.6458333333
 41
0.0
 71
     1
 72
     1
  1
%%d
  7
SLDTEXTSTYLE0
 73
     1
 44
1.0
  0
MTEXT
  5
B7
330
9A
100
AcDbEntity
  8
0
  6
Continuous
 62
     0
370
     0
100
AcDbMText
 10
47.9314009994
 20
-46.3948984948
 30
0.0
 40
2.6458333333
 41
0.0
 71
     1
 72
     1
  1
TO 45
  7
SLDTEXTSTYLE2
 73
     1
 44
1.0
  0
MTEXT
  5
B8
330
9A
100
AcDbEntity
  8
0
  6
Continuous
 62
     0
370
     0
100
AcDbMText
 10
57.3706559092
 20
-46.3948984948
 30
0.0
 40
2.6458333333
 41
0.0
 71
     1
 72
     1
  1
%%d
  7
SLDTEXTSTYLE0
 73
     1
 44
1.0
  0
ENDBLK
  5
9C
330
9A
100
AcDbEntity
  8
0
100
AcDbBlockEnd
  0
BLOCK
  5
CC
330
CB
100
AcDbEntity
  8
0
100
AcDbBlockBegin
  2
SW_NOTE_1
 70
     0
 10
0.0
 20
0.0
 30
0.0
  3
SW_NOTE_1
  1

  0
MTEXT
  5
CE
330
CB
100
AcDbEntity
  8
0
  6
Continuous
 62
     0
370
     0
100
AcDbMText
 10
19.90725
 20
1.9645392354
 30
0.0
 40
1.524
 41
0.0
 71
     2
 72
     1
  1
VALUES IN PARENTHESIS ARE CALCULATED
  7
SLDTEXTSTYLE0
 73
     1
 44
1.0
  0
MTEXT
  5
CF
330
CB
100
AcDbEntity
  8
0
  6
Continuous
 62
     0
370
     0
100
AcDbMText
 10
19.8778795174
 20
-0.5594606586
 30
0.0
 40
1.524
 41
0.0
 71
     2
 72
     1
  1
AND MAY CONTAIN ROUNDOFF ERRORS
  7
SLDTEXTSTYLE0
 73
     1
 44
1.0
  0
ENDBLK
  5
CD
330
CB
100
AcDbEntity
  8
0
100
AcDbBlockEnd
  0
BLOCK
  5
D2
330
D1
100
AcDbEntity
  8
0
100
AcDbBlockBegin
  2
SW_NOTE_2
 70
     0
 10
0.0
 20
0.0
 30
0.0
  3
SW_NOTE_2
  1

  0
MTEXT
  5
D4
330
D1
100
AcDbEntity
  8
0
  6
Continuous
 62
     0
370
     0
100
AcDbMText
 10
0.0
 20
2.7285267159
 30
0.0
 40
2.1166666667
 41
0.0
 71
     1
 72
     1
  1
DRAWING
  7
SLDTEXTSTYLE0
 73
     1
 44
1.0
  0
MTEXT
  5
D5
330
D1
100
AcDbEntity
  8
0
  6
Continuous
 62
     0
370
     0
100
AcDbMText
 10
0.0
 20
-0.0936954723
 30
0.0
 40
2.1166666667
 41
0.0
 71
     1
 72
     1
  1
PROJECTION
  7
SLDTEXTSTYLE0
 73
     1
 44
1.0
  0
ENDBLK
  5
D3
330
D1
100
AcDbEntity
  8
0
100
AcDbBlockEnd
  0
BLOCK
  5
D9
330
D8
100
AcDbEntity
  8
0
100
AcDbBlockBegin
  2
SW_NOTE_3
 70
     0
 10
0.0
 20
0.0
 30
0.0
  3
SW_NOTE_3
  1

  0
MTEXT
  5
DB
330
D8
100
AcDbEntity
  8
0
  6
Continuous
 62
     0
370
     0
100
AcDbMText
 10
25.052734375
 20
4.0927900738
 30
0.0
 40
3.175
 41
0.0
 71
     2
 72
     1
  1
FOR INFORMATION ONLY
  7
SLDTEXTSTYLE0
 73
     1
 44
1.0
  0
MTEXT
  5
DC
330
D8
100
AcDbEntity
  8
0
  6
Continuous
 62
     0
370
     0
100
AcDbMText
 10
25.3768468589
 20
-0.1405432084
 30
0.0
 40
3.175
 41
0.0
 71
     2
 72
     1
  1
NOT FOR MANUFACTURING PURPOSES
  7
SLDTEXTSTYLE0
 73
     1
 44
1.0
  0
ENDBLK
  5
DA
330
D8
100
AcDbEntity
  8
0
100
AcDbBlockEnd
  0
BLOCK
  5
DF
330
DE
100
AcDbEntity
  8
0
100
AcDbBlockBegin
  2
SW_NOTE_4
 70
     0
 10
0.0
 20
0.0
 30
0.0
  3
SW_NOTE_4
  1

  0
MTEXT
  5
E1
330
DE
100
AcDbEntity
  8
0
  6
Continuous
 62
     0
370
     0
100
AcDbMText
 10
1.9016927083
 20
3.4106583948
 30
0.0
 40
2.6458333333
 41
0.0
 71
     2
 72
     1
  1
%%c
  7
SLDTEXTSTYLE0
 73
     1
 44
1.0
  0
MTEXT
  5
E2
330
DE
100
AcDbEntity
  8
0
  6
Continuous
 62
     0
370
     0
100
AcDbMText
 10
28.5917202135
 20
3.4106583948
 30
0.0
 40
2.6458333333
 41
0.0
 71
     2
 72
     1
  1
50.8mm, f=750mm CONCAVE
  7
SLDTEXTSTYLE0
 73
     1
 44
1.0
  0
MTEXT
  5
E3
330
DE
100
AcDbEntity
  8
0
  6
Continuous
 62
     0
370
     0
100
AcDbMText
 10
26.9356851131
 20
-0.1171193403
 30
0.0
 40
2.6458333333
 41
0.0
 71
     2
 72
     1
  1
PROTECTED SILVER MIRROR
  7
SLDTEXTSTYLE0
 73
     1
 44
1.0
  0
ENDBLK
  5
E0
330
DE
100
AcDbEntity
  8
0
100
AcDbBlockEnd
  0
BLOCK
  5
F6
330
F5
100
AcDbEntity
  8
0
100
AcDbBlockBegin
  2
_D
 70
     0
 10
0.0
 20
0.0
 30
0.0
  3
_D
  1

  0
SOLID
  5
F8
330
F5
100
AcDbEntity
  8
0
  6
Continuous
 62
     7
370
    18
100
AcDbTrace
 10
73.2088747676
 20
143.0978459242
 30
0.0
 11
75.8131490427
 21
144.9836997096
 31
0.0
 12
75.094728553
 22
145.7021201993
 32
0.0
 13
75.094728553
 23
145.7021201993
 33
0.0
  0
LINE
  5
F9
330
F5
100
AcDbEntity
  8
0
  6
Continuous
 62
     7
370
    18
100
AcDbLine
 10
94.2214626855
 20
157.4416860938
 30
0.0
 11
93.5776432313
 21
157.4416860938
 31
0.0
  0
LINE
  5
FA
330
F5
100
AcDbEntity
  8
0
  6
Continuous
 62
     7
370
    18
100
AcDbLine
 10
93.5776432313
 20
157.4416860938
 30
0.0
 11
93.5776432313
 21
154.0785380173
 31
0.0
  0
LINE
  5
FB
330
F5
100
AcDbEntity
  8
0
  6
Continuous
 62
     7
370
    18
100
AcDbLine
 10
93.5776432313
 20
154.0785380173
 30
0.0
 11
94.2214626855
 21
154.0785380173
 31
0.0
  0
LINE
  5
FC
330
F5
100
AcDbEntity
  8
0
  6
Continuous
 62
     7
370
    18
100
AcDbLine
 10
101.9786542317
 20
157.4416860938
 30
0.0
 11
102.6224736859
 21
157.4416860938
 31
0.0
  0
LINE
  5
FD
330
F5
100
AcDbEntity
  8
0
  6
Continuous
 62
     7
370
    18
100
AcDbLine
 10
102.6224736859
 20
157.4416860938
 30
0.0
 11
102.6224736859
 21
154.0785380173
 31
0.0
  0
LINE
  5
FE
330
F5
100
AcDbEntity
  8
0
  6
Continuous
 62
     7
370
    18
100
AcDbLine
 10
102.6224736859
 20
154.0785380173
 30
0.0
 11
101.9786542317
 21
154.0785380173
 31
0.0
  0
LINE
  5
FF
330
F5
100
AcDbEntity
  8
0
  6
Continuous
 62
     7
370
    18
100
AcDbLine
 10
73.2088747676
 20
143.0978459242
 30
0.0
 11
89.1238237772
 21
159.0127949338
 31
0.0
  0
LINE
  5
100
330
F5
100
AcDbEntity
  8
0
  6
Continuous
 62
     7
370
    18
100
AcDbLine
 10
89.1238237772
 20
159.0127949338
 30
0.0
 11
92.9338237772
 21
159.0127949338
 31
0.0
  0
MTEXT
  5
101
330
F5
100
AcDbEntity
  8
0
  6
Continuous
 62
     7
370
    18
100
AcDbMText
 10
92.9338237772
 20
160.5994257402
 30
0.0
 40
2.1166666667
 41
0.0
 71
     1
 72
     1
  1
%%c
  7
SLDTEXTSTYLE0
 73
     1
 44
1.0
  0
MTEXT
  5
102
330
F5
100
AcDbEntity
  8
0
  6
Continuous
 62
     7
370
    18
100
AcDbMText
 10
96.1288145779
 20
160.5994257402
 30
0.0
 40
2.1166666667
 41
0.0
 71
     1
 72
     1
  1
50.8mm
  7
SLDTEXTSTYLE0
 73
     1
 44
1.0
  0
MTEXT
  5
103
330
F5
100
AcDbEntity
  8
0
  6
Continuous
 62
     7
370
    18
100
AcDbMText
 10
94.2214626855
 20
156.8070646167
 30
0.0
 40
2.1166666667
 41
0.0
 71
     1
 72
     1
  1
2.00in
  7
SLDTEXTSTYLE0
 73
     1
 44
1.0
  0
ENDBLK
  5
F7
330
F5
100
AcDbEntity
  8
0
100
AcDbBlockEnd
  0
BLOCK
  5
11B
330
11A
100
AcDbEntity
  8
0
100
AcDbBlockBegin
  2
_D_1
 70
     0
 10
0.0
 20
0.0
 30
0.0
  3
_D_1
  1

  0
SOLID
  5
11D
330
11A
100
AcDbEntity
  8
0
  6
Continuous
 62
     7
370
    18
100
AcDbTrace
 10
135.1743489211
 20
164.4472977193
 30
0.0
 11
131.9995321078
 21
164.9564413163
 31
0.0
 12
131.9991661463
 22
163.9404413822
 32
0.0
 13
131.9991661463
 23
163.9404413822
 33
0.0
  0
SOLID
  5
11E
330
11A
100
AcDbEntity
  8
0
  6
Continuous
 62
     7
370
    18
100
AcDbTrace
 10
144.3860996045
 20
164.4439796611
 30
0.0
 11
147.5609164178
 21
163.9348360641
 31
0.0
 12
147.5612823794
 22
164.9508359981
 32
0.0
 13
147.5612823794
 23
164.9508359981
 33
0.0
  0
LINE
  5
11F
330
11A
100
AcDbEntity
  8
0
  6
Continuous
 62
     7
370
    18
100
AcDbLine
 10
156.1741957168
 20
164.4373684603
 30
0.0
 11
155.5303762626
 21
164.4373684603
 31
0.0
  0
LINE
  5
120
330
11A
100
AcDbEntity
  8
0
  6
Continuous
 62
     7
370
    18
100
AcDbLine
 10
155.5303762626
 20
164.4373684603
 30
0.0
 11
155.5303762626
 21
161.0742203838
 31
0.0
  0
LINE
  5
121
330
11A
100
AcDbEntity
  8
0
  6
Continuous
 62
     7
370
    18
100
AcDbLine
 10
155.5303762626
 20
161.0742203838
 30
0.0
 11
156.1741957168
 21
161.0742203838
 31
0.0
  0
LINE
  5
122
330
11A
100
AcDbEntity
  8
0
  6
Continuous
 62
     7
370
    18
100
AcDbLine
 10
163.931387263
 20
164.4373684603
 30
0.0
 11
164.5752067172
 21
164.4373684603
 31
0.0
  0
LINE
  5
123
330
11A
100
AcDbEntity
  8
0
  6
Continuous
 62
     7
370
    18
100
AcDbLine
 10
164.5752067172
 20
164.4373684603
 30
0.0
 11
164.5752067172
 21
161.0742203838
 31
0.0
  0
LINE
  5
124
330
11A
100
AcDbEntity
  8
0
  6
Continuous
 62
     7
370
    18
100
AcDbLine
 10
164.5752067172
 20
161.0742203838
 30
0.0
 11
163.931387263
 21
161.0742203838
 31
0.0
  0
LINE
  5
125
330
11A
100
AcDbEntity
  8
0
  6
Continuous
 62
     7
370
    18
100
AcDbLine
 10
135.1697251812
 20
151.6106516578
 30
0.0
 11
135.1749893539
 21
166.2252976039
 31
0.0
  0
LINE
  5
126
330
11A
100
AcDbEntity
  8
0
  6
Continuous
 62
     7
370
    18
100
AcDbLine
 10
144.3814758647
 20
151.6073335996
 30
0.0
 11
144.3867400373
 21
166.2219795457
 31
0.0
  0
LINE
  5
127
330
11A
100
AcDbEntity
  8
0
  6
Continuous
 62
     7
370
    18
100
AcDbLine
 10
135.1743489211
 20
164.4472977193
 30
0.0
 11
128.824349333
 21
164.4495849792
 31
0.0
  0
LINE
  5
128
330
11A
100
AcDbEntity
  8
0
  6
Continuous
 62
     7
370
    18
100
AcDbLine
 10
144.3860996045
 20
164.4439796611
 30
0.0
 11
154.4570433258
 21
164.4403521229
 31
0.0
  0
MTEXT
  5
129
330
11A
100
AcDbEntity
  8
0
  6
Continuous
 62
     7
370
    18
100
AcDbMText
 10
155.4529611214
 20
167.5951081068
 30
0.0
 40
2.1166666667
 41
0.0
 71
     1
 72
     1
  1
9.2mm
  7
SLDTEXTSTYLE0
 73
     1
 44
1.0
  0
MTEXT
  5
12A
330
11A
100
AcDbEntity
  8
0
  6
Continuous
 62
     7
370
    18
100
AcDbMText
 10
156.1741957168
 20
163.8027469833
 30
0.0
 40
2.1166666667
 41
0.0
 71
     1
 72
     1
  1
0.36in
  7
SLDTEXTSTYLE0
 73
     1
 44
1.0
  0
MTEXT
  5
12B
330
11A
100
AcDbEntity
  8
0
  6
Continuous
 62
     7
370
    18
100
AcDbMText
 10
166.0127757056
 20
167.5951081068
 30
0.0
 40
2.1166666667
 41
0.0
 71
     1
 72
     1
  1
REF
  7
SLDTEXTSTYLE0
 73
     1
 44
1.0
  0
ENDBLK
  5
11C
330
11A
100
AcDbEntity
  8
0
100
AcDbBlockEnd
  0
BLOCK
  5
12F
330
12E
100
AcDbEntity
  8
0
100
AcDbBlockBegin
  2
_D_2
 70
     0
 10
0.0
 20
0.0
 30
0.0
  3
_D_2
  1

  0
ARC
  5
131
330
12E
100
AcDbEntity
  8
0
  6
Continuous
 62
     7
370
    18
100
AcDbCircle
 10
-1364.619050411
 20
125.137333682
 30
0.0
 40
1500.000068823651
100
AcDbArc
 50
358.5614986719
 51
358.9887484921
  0
SOLID
  5
132
330
12E
100
AcDbEntity
  8
0
  6
Continuous
 62
     7
370
    18
100
AcDbTrace
 10
134.951869144
 20
89.2588764106
 30
0.0
 11
138.1138099411
 21
88.6750790181
 31
0.0
 12
138.138111615
 22
89.690788341
 32
0.0
 13
138.138111615
 23
89.690788341
 33
0.0
  0
LINE
  5
133
330
12E
100
AcDbEntity
  8
0
  6
Continuous
 62
     7
370
    18
100
AcDbLine
 10
154.1894172778
 20
87.3494587101
 30
0.0
 11
153.5455978237
 21
87.3494587101
 31
0.0
  0
LINE
  5
134
330
12E
100
AcDbEntity
  8
0
  6
Continuous
 62
     7
370
    18
100
AcDbLine
 10
153.5455978237
 20
87.3494587101
 30
0.0
 11
153.5455978237
 21
83.9863106337
 31
0.0
  0
LINE
  5
135
330
12E
100
AcDbEntity
  8
0
  6
Continuous
 62
     7
370
    18
100
AcDbLine
 10
153.5455978237
 20
83.9863106337
 30
0.0
 11
154.1894172778
 21
83.9863106337
 31
0.0
  0
LINE
  5
136
330
12E
100
AcDbEntity
  8
0
  6
Continuous
 62
     7
370
    18
100
AcDbLine
 10
163.5105909308
 20
87.3494587101
 30
0.0
 11
164.1544103849
 21
87.3494587101
 31
0.0
  0
LINE
  5
137
330
12E
100
AcDbEntity
  8
0
  6
Continuous
 62
     7
370
    18
100
AcDbLine
 10
164.1544103849
 20
87.3494587101
 30
0.0
 11
164.1544103849
 21
83.9863106337
 31
0.0
  0
LINE
  5
138
330
12E
100
AcDbEntity
  8
0
  6
Continuous
 62
     7
370
    18
100
AcDbLine
 10
164.1544103849
 20
83.9863106337
 30
0.0
 11
163.5105909308
 21
83.9863106337
 31
0.0
  0
LINE
  5
139
330
12E
100
AcDbEntity
  8
0
  6
Continuous
 62
     7
370
    18
100
AcDbLine
 10
134.951869144
 20
89.2588764106
 30
0.0
 11
149.0917783695
 21
88.9205675501
 31
0.0
  0
LINE
  5
13A
330
12E
100
AcDbEntity
  8
0
  6
Continuous
 62
     7
370
    18
100
AcDbLine
 10
149.0917783695
 20
88.9205675501
 30
0.0
 11
152.9017783695
 21
88.9205675501
 31
0.0
  0
MTEXT
  5
13B
330
12E
100
AcDbEntity
  8
0
  6
Continuous
 62
     7
370
    18
100
AcDbMText
 10
152.9017783695
 20
90.5071983566
 30
0.0
 40
2.1166666667
 41
0.0
 71
     1
 72
     1
  1
R1500.0mm
  7
SLDTEXTSTYLE0
 73
     1
 44
1.0
  0
MTEXT
  5
13C
330
12E
100
AcDbEntity
  8
0
  6
Continuous
 62
     7
370
    18
100
AcDbMText
 10
154.1894172778
 20
86.7148372331
 30
0.0
 40
2.1166666667
 41
0.0
 71
     1
 72
     1
  1
59.06in
  7
SLDTEXTSTYLE0
 73
     1
 44
1.0
  0
ENDBLK
  5
130
330
12E
100
AcDbEntity
  8
0
100
AcDbBlockEnd
  0
BLOCK
  5
140
330
13F
100
AcDbEntity
  8
0
100
AcDbBlockBegin
  2
_D_3
 70
     0
 10
0.0
 20
0.0
 30
0.0
  3
_D_3
  1

  0
SOLID
  5
142
330
13F
100
AcDbEntity
  8
0
  6
Continuous
 62
     7
370
    18
100
AcDbTrace
 10
144.3810184127
 20
156.8093562806
 30
0.0
 11
147.5560184127
 21
156.3013562806
 31
0.0
 12
147.5560184127
 22
157.3173562806
 32
0.0
 13
147.5560184127
 23
157.3173562806
 33
0.0
  0
SOLID
  5
143
330
13F
100
AcDbEntity
  8
0
  6
Continuous
 62
     7
370
    18
100
AcDbTrace
 10
135.3810184127
 20
156.8093562806
 30
0.0
 11
132.2060184127
 21
157.3173562806
 31
0.0
 12
132.2060184127
 22
156.3013562806
 32
0.0
 13
132.2060184127
 23
156.3013562806
 33
0.0
  0
LINE
  5
144
330
13F
100
AcDbEntity
  8
0
  6
Continuous
 62
     7
370
    18
100
AcDbLine
 10
156.5024224067
 20
156.8093560477
 30
0.0
 11
155.8586029526
 21
156.8093560477
 31
0.0
  0
LINE
  5
145
330
13F
100
AcDbEntity
  8
0
  6
Continuous
 62
     7
370
    18
100
AcDbLine
 10
155.8586029526
 20
156.8093560477
 30
0.0
 11
155.8586029526
 21
153.4462079713
 31
0.0
  0
LINE
  5
146
330
13F
100
AcDbEntity
  8
0
  6
Continuous
 62
     7
370
    18
100
AcDbLine
 10
155.8586029526
 20
153.4462079713
 30
0.0
 11
156.5024224067
 21
153.4462079713
 31
0.0
  0
LINE
  5
147
330
13F
100
AcDbEntity
  8
0
  6
Continuous
 62
     7
370
    18
100
AcDbLine
 10
164.259613953
 20
156.8093560477
 30
0.0
 11
164.9034334071
 21
156.8093560477
 31
0.0
  0
LINE
  5
148
330
13F
100
AcDbEntity
  8
0
  6
Continuous
 62
     7
370
    18
100
AcDbLine
 10
164.9034334071
 20
156.8093560477
 30
0.0
 11
164.9034334071
 21
153.4462079713
 31
0.0
  0
LINE
  5
149
330
13F
100
AcDbEntity
  8
0
  6
Continuous
 62
     7
370
    18
100
AcDbLine
 10
164.9034334071
 20
153.4462079713
 30
0.0
 11
164.259613953
 21
153.4462079713
 31
0.0
  0
LINE
  5
14A
330
13F
100
AcDbEntity
  8
0
  6
Continuous
 62
     7
370
    18
100
AcDbLine
 10
144.3810184127
 20
151.607333682
 30
0.0
 11
144.3810184127
 21
158.5873562806
 31
0.0
  0
LINE
  5
14B
330
13F
100
AcDbEntity
  8
0
  6
Continuous
 62
     7
370
    18
100
AcDbLine
 10
135.3810184127
 20
126.407333682
 30
0.0
 11
135.3810184127
 21
158.5873562806
 31
0.0
  0
LINE
  5
14C
330
13F
100
AcDbEntity
  8
0
  6
Continuous
 62
     7
370
    18
100
AcDbLine
 10
144.3810184127
 20
156.8093562806
 30
0.0
 11
153.2252083114
 21
156.8093562806
 31
0.0
  0
LINE
  5
14D
330
13F
100
AcDbEntity
  8
0
  6
Continuous
 62
     7
370
    18
100
AcDbLine
 10
135.3810184127
 20
156.8093562806
 30
0.0
 11
129.0310184127
 21
156.8093562806
 31
0.0
  0
MTEXT
  5
14E
330
13F
100
AcDbEntity
  8
0
  6
Continuous
 62
     7
370
    18
100
AcDbMText
 10
155.2422217941
 20
159.9670956942
 30
0.0
 40
2.1166666667
 41
0.0
 71
     1
 72
     1
  1

  7
SLDTEXTSTYLE0
 73
     1
 44
1.0
  0
MTEXT
  5
14F
330
13F
100
AcDbEntity
  8
0
  6
Continuous
 62
     7
370
    18
100
AcDbMText
 10
155.7811878113
 20
159.9670956942
 30
0.0
 40
2.1166666667
 41
0.0
 71
     1
 72
     1
  1
9.0mm
  7
SLDTEXTSTYLE0
 73
     1
 44
1.0
  0
MTEXT
  5
150
330
13F
100
AcDbEntity
  8
0
  6
Continuous
 62
     7
370
    18
100
AcDbMText
 10
156.5024224067
 20
156.1747345707
 30
0.0
 40
2.1166666667
 41
0.0
 71
     1
 72
     1
  1
0.35in
  7
SLDTEXTSTYLE0
 73
     1
 44
1.0
  0
MTEXT
  5
151
330
13F
100
AcDbEntity
  8
0
  6
Continuous
 62
     7
370
    18
100
AcDbMText
 10
167.1347528612
 20
159.9670956942
 30
0.0
 40
2.1166666667
 41
0.0
 71
     1
 72
     1
  1

  7
SLDTEXTSTYLE0
 73
     1
 44
1.0
  0
ENDBLK
  5
141
330
13F
100
AcDbEntity
  8
0
100
AcDbBlockEnd
  0
ENDSEC
  0
SECTION
  2
ENTITIES
  0
LINE
  5
81
330
1F
100
AcDbEntity
  8
0
  6
Continuous
 62
     7
370
    18
100
AcDbLine
 10
1.5793501011
 20
214.6453799966
 30
0.0
 11
277.9892068491
 21
214.6453799966
 31
0.0
  0
LINE
  5
82
330
1F
100
AcDbEntity
  8
0
  6
Continuous
 62
     7
370
    18
100
AcDbLine
 10
1.5793501011
 20
214.6453799966
 30
0.0
 11
1.5793501011
 21
0.9031642596
 31
0.0
  0
LINE
  5
83
330
1F
100
AcDbEntity
  8
0
  6
Continuous
 62
     7
370
    18
100
AcDbLine
 10
277.9892068491
 20
0.9031642596
 30
0.0
 11
1.5793501011
 21
0.9031642596
 31
0.0
  0
LINE
  5
84
330
1F
100
AcDbEntity
  8
0
  6
Continuous
 62
     7
370
    18
100
AcDbLine
 10
277.9892068491
 20
0.9031642596
 30
0.0
 11
277.9892068491
 21
214.6453799966
 31
0.0
  0
LINE
  5
85
330
1F
100
AcDbEntity
  8
0
  6
Continuous
 62
     7
370
    18
100
AcDbLine
 10
215.7427640041
 20
12.2958890132
 30
0.0
 11
171.6327596684
 21
12.2958890132
 31
0.0
  0
LINE
  5
86
330
1F
100
AcDbEntity
  8
0
  6
Continuous
 62
     7
370
    18
100
AcDbLine
 10
171.6327596684
 20
12.2958890132
 30
0.0
 11
171.6327596684
 21
26.1661402506
 31
0.0
  0
LINE
  5
87
330
1F
100
AcDbEntity
  8
0
  6
Continuous
 62
     7
370
    18
100
AcDbLine
 10
171.6327596684
 20
0.9031642596
 30
0.0
 11
171.6327596684
 21
26.1661402506
 31
0.0
  0
LINE
  5
88
330
1F
100
AcDbEntity
  8
0
  6
Continuous
 62
     7
370
    18
100
AcDbLine
 10
215.7427640041
 20
17.1604579552
 30
0.0
 11
277.9892068491
 21
17.1604579552
 31
0.0
  0
LINE
  5
89
330
1F
100
AcDbEntity
  8
0
  6
Continuous
 62
     7
370
    18
100
AcDbLine
 10
215.7427640041
 20
35.2394508358
 30
0.0
 11
215.7427640041
 21
0.9031642596
 31
0.0
  0
LINE
  5
8A
330
1F
100
AcDbEntity
  8
0
  6
Continuous
 62
     7
370
    18
100
AcDbLine
 10
215.7427640041
 20
26.1661402506
 30
0.0
 11
171.6327596684
 21
26.1661402506
 31
0.0
  0
LINE
  5
8B
330
1F
100
AcDbEntity
  8
0
  6
Continuous
 62
     7
370
    18
100
AcDbLine
 10
215.7427640041
 20
9.1409200612
 30
0.0
 11
277.9892068491
 21
9.1409200612
 31
0.0
  0
LINE
  5
8C
330
1F
100
AcDbEntity
  8
0
  6
Continuous
 62
     7
370
    18
100
AcDbLine
 10
215.7427640041
 20
16.9216824031
 30
0.0
 11
171.6327596684
 21
16.9216824031
 31
0.0
  0
LINE
  5
8D
330
1F
100
AcDbEntity
  8
0
  6
Continuous
 62
     7
370
    18
100
AcDbLine
 10
215.7427640041
 20
21.4874005542
 30
0.0
 11
171.6327596684
 21
21.4874005542
 31
0.0
  0
LINE
  5
8E
330
1F
100
AcDbEntity
  8
0
  6
Continuous
 62
     7
370
    18
100
AcDbLine
 10
186.1338100705
 20
26.1661402506
 30
0.0
 11
186.1338100705
 21
12.2958890132
 31
0.0
  0
LINE
  5
8F
330
1F
100
AcDbEntity
  8
0
  6
Continuous
 62
     7
370
    18
100
AcDbLine
 10
198.2145906188
 20
26.1661402506
 30
0.0
 11
198.2145906188
 21
12.2958890132
 31
0.0
  0
LINE
  5
90
330
1F
100
AcDbEntity
  8
0
  6
Continuous
 62
     7
370
    18
100
AcDbLine
 10
253.7490408369
 20
9.1409200612
 30
0.0
 11
253.7490408369
 21
0.9031642596
 31
0.0
  0
LINE
  5
91
330
1F
100
AcDbEntity
  8
0
  6
Continuous
 62
     7
370
    18
100
AcDbLine
 10
171.6327596684
 20
12.2958890132
 30
0.0
 11
171.6327596684
 21
7.5627342528
 31
0.0
  0
LINE
  5
92
330
1F
100
AcDbEntity
  8
0
  6
Continuous
 62
     7
370
    18
100
AcDbLine
 10
171.6327596684
 20
7.5627342528
 30
0.0
 11
215.7427640041
 21
7.5627342528
 31
0.0
  0
LINE
  5
93
330
1F
100
AcDbEntity
  8
0
  6
Continuous
 62
     7
370
    18
100
AcDbLine
 10
171.6327596684
 20
7.5627342528
 30
0.0
 11
171.6327596684
 21
35.2394508358
 31
0.0
  0
LINE
  5
94
330
1F
100
AcDbEntity
  8
0
  6
Continuous
 62
     7
370
    18
100
AcDbLine
 10
171.6327596684
 20
35.2394508358
 30
0.0
 11
215.7427640041
 21
35.2394508358
 31
0.0
  0
LINE
  5
95
330
1F
100
AcDbEntity
  8
0
  6
Continuous
 62
     7
370
    18
100
AcDbLine
 10
270.1683598194
 20
17.1604579552
 30
0.0
 11
270.1683598194
 21
9.1409200612
 31
0.0
  0
LINE
  5
96
330
1F
100
AcDbEntity
  8
0
  6
Continuous
 62
     7
370
    18
100
AcDbLine
 10
215.7427640041
 20
35.2394508358
 30
0.0
 11
277.9892068491
 21
35.2394508358
 31
0.0
  0
LINE
  5
97
330
1F
100
AcDbEntity
  8
0
  6
Continuous
 62
     7
370
    18
100
AcDbLine
 10
277.9892068491
 20
35.2394508358
 30
0.0
 11
277.9892068491
 21
50.0331356147
 31
0.0
  0
LINE
  5
98
330
1F
100
AcDbEntity
  8
0
  6
Continuous
 62
     7
370
    18
100
AcDbLine
 10
215.7427640041
 20
24.8927335446
 30
0.0
 11
277.9892068491
 21
24.8927335446
 31
0.0
  0
INSERT
  5
99
330
1F
100
AcDbEntity
  8
0
  6
Continuous
 62
     7
100
AcDbBlockReference
  2
Third Angle Projection Block
 10
117.7262204235
 20
15.5162339489
 30
0.0
 41
0.8
 42
0.8
 43
0.8
  0
INSERT
  5
B9
330
1F
100
AcDbEntity
  8
0
  6
Continuous
 62
     7
370
     0
100
AcDbBlockReference
  2
SW_NOTE_0
 10
19.0990865132
 20
70.6381180836
 30
0.0
  0
MTEXT
  5
BA
330
1F
100
AcDbEntity
  8
0
  6
Continuous
 62
     7
370
     0
100
AcDbMText
 10
274.1458225539
 20
13.2559386876
 30
0.0
 40
3.175
 41
0.0
 71
     2
 72
     1
  1
A
  7
SLDTEXTSTYLE0
 73
     1
 44
1.0
  0
MTEXT
  5
BB
330
1F
100
AcDbEntity
  8
0
  6
Continuous
 62
     7
370
     0
100
AcDbMText
 10
234.593628212
 20
5.1306563898
 30
0.0
 40
3.175
 41
0.0
 71
     2
 72
     1
  1
CM508-750-P01
  7
SLDTEXTSTYLE0
 73
     1
 44
1.0
  0
MTEXT
  5
BC
330
1F
100
AcDbEntity
  8
0
  6
Continuous
 62
     7
370
     0
100
AcDbMText
 10
216.4199766059
 20
16.8243178599
 30
0.0
 40
2.1166666667
 41
0.0
 71
     1
 72
     1
  1
MATERIAL
  7
SLDTEXTSTYLE0
 73
     1
 44
1.0
  0
MTEXT
  5
BD
330
1F
100
AcDbEntity
  8
0
  6
Continuous
 62
     7
370
     0
100
AcDbMText
 10
174.230946566
 20
20.054553926
 30
0.0
 40
1.8520833333
 41
0.0
 71
     1
 72
     1
  1
DRAWN
  7
SLDTEXTSTYLE0
 73
     1
 44
1.0
  0
MTEXT
  5
BE
330
1F
100
AcDbEntity
  8
0
  6
Continuous
 62
     7
370
     0
100
AcDbMText
 10
172.3960124543
 20
15.5787169747
 30
0.0
 40
1.8520833333
 41
0.0
 71
     1
 72
     1
  1
APPROVAL
  7
SLDTEXTSTYLE0
 73
     1
 44
1.0
  0
MTEXT
  5
BF
330
1F
100
AcDbEntity
  8
0
  6
Continuous
 62
     7
370
     0
100
AcDbMText
 10
271.7160653675
 20
16.1671746307
 30
0.0
 40
2.1166666667
 41
0.0
 71
     1
 72
     1
  1
REV
  7
SLDTEXTSTYLE0
 73
     1
 44
1.0
  0
MTEXT
  5
C0
330
1F
100
AcDbEntity
  8
0
  6
Continuous
 62
     7
370
     0
100
AcDbMText
 10
190.2958696448
 20
20.3177146903
 30
0.0
 40
2.1166666667
 41
0.0
 71
     1
 72
     1
  1
YB
  7
SLDTEXTSTYLE0
 73
     1
 44
1.0
  0
MTEXT
  5
C1
330
1F
100
AcDbEntity
  8
0
  6
Continuous
 62
     7
370
     0
100
AcDbMText
 10
190.2958696448
 20
15.841877739
 30
0.0
 40
2.1166666667
 41
0.0
 71
     1
 72
     1
  1
DD
  7
SLDTEXTSTYLE0
 73
     1
 44
1.0
  0
MTEXT
  5
C2
330
1F
100
AcDbEntity
  8
0
  6
Continuous
 62
     7
370
     0
100
AcDbMText
 10
199.8662436873
 20
20.3177146903
 30
0.0
 40
2.1166666667
 41
0.0
 71
     1
 72
     1
  1
16/APR/18
  7
SLDTEXTSTYLE0
 73
     1
 44
1.0
  0
MTEXT
  5
C3
330
1F
100
AcDbEntity
  8
0
  6
Continuous
 62
     7
370
     0
100
AcDbMText
 10
203.6145073853
 20
24.8221395769
 30
0.0
 40
2.1166666667
 41
0.0
 71
     1
 72
     1
  1
DATE
  7
SLDTEXTSTYLE0
 73
     1
 44
1.0
  0
MTEXT
  5
C4
330
1F
100
AcDbEntity
  8
0
  6
Continuous
 62
     7
370
     0
100
AcDbMText
 10
199.8662436873
 20
15.841877739
 30
0.0
 40
2.1166666667
 41
0.0
 71
     1
 72
     1
  1
16/APR/18
  7
SLDTEXTSTYLE0
 73
     1
 44
1.0
  0
MTEXT
  5
C6
330
1F
100
AcDbEntity
  8
0
  6
Continuous
 62
     7
370
     0
100
AcDbMText
 10
229.402906477
 20
27.7957480569
 30
0.0
 40
2.1166666667
 41
0.0
 71
     1
 72
     1
  1
w w w . t h o r  l a b s . c o m
  7
SLDTEXTSTYLE3
 73
     1
 44
1.0
  0
MTEXT
  5
C7
330
1F
100
AcDbEntity
  8
0
  6
Continuous
 62
     7
370
     0
100
AcDbMText
 10
216.7004035316
 20
8.3494791871
 30
0.0
 40
2.1166666667
 41
0.0
 71
     1
 72
     1
  1
ITEM #
  7
SLDTEXTSTYLE0
 73
     1
 44
1.0
  0
MTEXT
  5
C8
330
1F
100
AcDbEntity
  8
0
  6
Continuous
 62
     7
370
     0
100
AcDbMText
 10
254.5318000914
 20
8.3494791871
 30
0.0
 40
2.1166666667
 41
0.0
 71
     1
 72
     1
  1
APPROX WEIGHT
  7
SLDTEXTSTYLE0
 73
     1
 44
1.0
  0
MTEXT
  5
C9
330
1F
100
AcDbEntity
  8
0
  6
Continuous
 62
     7
370
     0
100
AcDbMText
 10
243.5159064132
 20
13.8247651814
 30
0.0
 40
3.175
 41
0.0
 71
     2
 72
     1
  1
N-BK7
  7
SLDTEXTSTYLE0
 73
     1
 44
1.0
  0
MTEXT
  5
CA
330
1F
100
AcDbEntity
  8
0
  6
Continuous
 62
     7
370
     0
100
AcDbMText
 10
266.1553537756
 20
5.1306563898
 30
0.0
 40
3.175
 41
0.0
 71
     2
 72
     1
  1
46.33 g
  7
SLDTEXTSTYLE0
 73
     1
 44
1.0
  0
INSERT
  5
D0
330
1F
100
AcDbEntity
  8
0
  6
Continuous
 62
     7
370
     0
100
AcDbBlockReference
  2
SW_NOTE_1
 10
174.8430140051
 20
4.4558554801
 30
0.0
  0
INSERT
  5
D6
330
1F
100
AcDbEntity
  8
0
  6
Continuous
 62
     7
370
     0
100
AcDbBlockReference
  2
SW_NOTE_2
 10
174.5483650337
 20
30.4835322715
 30
0.0
  0
MTEXT
  5
D7
330
1F
100
AcDbEntity
  8
0
  6
Continuous
 62
     7
370
     0
100
AcDbMText
 10
187.9273588276
 20
24.8221395769
 30
0.0
 40
2.1166666667
 41
0.0
 71
     1
 72
     1
  1
NAME
  7
SLDTEXTSTYLE0
 73
     1
 44
1.0
  0
INSERT
  5
DD
330
1F
100
AcDbEntity
  8
0
  6
Continuous
 62
     7
370
     0
100
AcDbBlockReference
  2
SW_NOTE_3
 10
58.6204667508
 20
8.1776609732
 30
0.0
  0
INSERT
  5
E4
330
1F
100
AcDbEntity
  8
0
  6
Continuous
 62
     7
370
     0
100
AcDbBlockReference
  2
SW_NOTE_4
 10
220.0050186217
 20
20.7222222066
 30
0.0
  0
MTEXT
  5
E5
330
1F
100
AcDbEntity
  8
0
  6
Continuous
 62
     7
370
     0
100
AcDbMText
 10
177.6925831922
 20
10.7142101515
 30
0.0
 40
1.5875
 41
0.0
 71
     1
 72
     1
  1
COPYRIGHT © 2018 BY THORLABS
  7
SLDTEXTSTYLE0
 73
     1
 44
1.0
  0
LINE
  5
E6
330
1F
100
AcDbEntity
  8
0
  6
Continuous
 62
     7
370
    18
100
AcDbLine
 10
231.2938938971
 20
192.8510556256
 30
0.0
 11
231.2938938971
 21
192.6904828929
 31
0.0
  0
LINE
  5
E7
330
1F
100
AcDbEntity
  8
0
  6
Continuous
 62
     7
370
    18
100
AcDbLine
 10
249.1124345197
 20
161.8245208266
 30
0.0
 11
249.2514870508
 21
161.7442214114
 31
0.0
  0
LINE
  5
E8
330
1F
100
AcDbEntity
  8
0
  6
Continuous
 62
     7
370
    18
100
AcDbLine
 10
261.9533740437
 20
160.4850315011
 30
0.0
 11
268.1865689275
 21
164.0833783145
 31
0.0
  0
LINE
  5
E9
330
1F
100
AcDbEntity
  8
0
  6
Continuous
 62
     7
370
    18
100
AcDbLine
 10
242.7886331186
 20
208.0786605235
 30
0.0
 11
236.5554382347
 21
204.48031371
 31
0.0
  0
LINE
  5
EA
330
1F
100
AcDbEntity
  8
0
  6
Continuous
 62
     7
370
    18
100
AcDbLine
 10
273.4481132652
 20
175.7126363989
 30
0.0
 11
273.4481132652
 21
175.8759180212
 31
0.0
  0
LINE
  5
EB
330
1F
100
AcDbEntity
  8
0
  6
Continuous
 62
     7
370
    18
100
AcDbLine
 10
255.6319184827
 20
206.737816533
 30
0.0
 11
255.4905201114
 21
206.8194706131
 31
0.0
  0
LWPOLYLINE
  5
EC
330
1F
100
AcDbEntity
  8
0
  6
Continuous
 62
     7
370
    18
100
AcDbPolyline
 90
      168
 70
   128
 43
0.0
 10
266.9367681118
 20
172.1142895854
 10
266.9241559861
 20
172.8956694837
 10
266.8863374601
 20
173.6905050766
 10
266.8233660617
 20
174.497671363
 10
266.7353309199
 20
175.3160258894
 10
266.6223566385
 20
176.1444103665
 10
266.4846031201
 20
176.9816523086
 10
266.3222653393
 20
177.8265666934
 10
266.1355730671
 20
178.6779576391
 10
265.9247905455
 20
179.534620097
 10
265.6902161136
 20
180.3953415572
 10
265.4321817854
 20
181.2589037647
 10
265.1510527795
 20
182.1240844437
 10
264.8472270026
 20
182.9896590279
 10
264.5211344861
 20
183.8544023931
 10
264.1732367775
 20
184.7170905917
 10
263.8040262872
 20
185.5765025852
 10
263.4140255912
 20
186.431421972
 10
263.003786692
 20
187.2806387092
 10
262.5738902368
 20
188.1229508256
 10
262.124944696
 20
188.9571661225
 10
261.6575855018
 20
189.7821038615
 10
261.1724741489
 20
190.5965964353
 10
260.6702972582
 20
191.399491021
 10
260.1517656049
 20
192.189651211
 10
259.6176131125
 20
192.9659586218
 10
259.0685958142
 20
193.7273144772
 10
258.5054907826
 20
194.472641163
 10
257.9290950299
 20
195.2008837528
 10
257.3402243798
 20
195.9110115005
 10
256.7397123129
 20
196.6020192998
 10
256.1284087868
 20
197.2729291063
 10
255.5071790333
 20
197.9227913222
 10
254.8769023337
 20
198.5506861404
 10
254.2384707742
 20
199.1557248458
 10
253.5927879832
 20
199.7370510738
 10
252.9407678526
 20
200.2938420222
 10
252.2833332439
 20
200.8253096156
 10
251.6214146823
 20
201.3307016211
 10
250.9559490394
 20
201.8093027129
 10
250.2878782076
 20
202.2604354845
 10
249.6181477663
 20
202.6834614081
 10
248.9477056441
 20
203.0777817376
 10
248.2775007769
 20
203.4428383568
 10
247.6084817647
 20
203.7781145689
 10
246.941595529
 20
204.0831358279
 10
246.2777859729
 20
204.3574704103
 10
245.6179926444
 20
204.6007300261
 10
244.9631494073
 20
204.8125703686
 10
244.314183119
 20
204.9926916015
 10
243.6720123186
 20
205.1408387832
 10
243.037545927
 20
205.2568022281
 10
242.4116819607
 20
205.3404178029
 10
241.7953062599
 20
205.391567159
 10
241.1892912356
 20
205.4101779003
 10
240.5944946342
 20
205.3962236852
 10
240.0117583239
 20
205.3497242646
 10
239.4419071028
 20
205.270745453
 10
238.8857475314
 20
205.1593990363
 10
238.3440667915
 20
205.0158426126
 10
237.8176315717
 20
204.8402793703
 10
237.307186982
 20
204.6329577993
 10
236.8134554997
 20
204.3941713401
 10
236.3371359466
 20
204.1242579684
 10
235.8789024997
 20
203.8235997163
 10
235.4394037372
 20
203.4926221319
 10
235.0192617204
 20
203.131793677
 10
234.6190711134
 20
202.7416250639
 10
234.2393983412
 20
202.3226685327
 10
233.8807807883
 20
201.8755170694
 10
233.5437260376
 20
201.4008035671
 10
233.2287111524
 20
200.8991999295
 10
232.9361820011
 20
200.3714161205
 10
232.666552626
 20
199.8181991591
 10
232.4202046574
 20
199.240332062
 10
232.1974867732
 20
198.6386327355
 10
231.9987142056
 20
198.0139528176
 10
231.8241682951
 20
197.3671764731
 10
231.6740960918
 20
196.6992191413
 10
231.5487100062
 20
196.0110262414
 10
231.4481875082
 20
195.3035718333
 10
231.3726708763
 20
194.5778572396
 10
231.3222669957
 20
193.8349096283
 10
231.2970472075
 20
193.0757805585
 10
231.2970472075
 20
192.3015444927
 10
231.3222669957
 20
191.5132972753
 10
231.3726708763
 20
190.7121545821
 10
231.4481875082
 20
189.8992503411
 10
231.5487100062
 20
189.0757351272
 10
231.6740960918
 20
188.2427745343
 10
231.8241682951
 20
187.4015475248
 10
231.9987142056
 20
186.5532447616
 10
232.1974867732
 20
185.6990669223
 10
232.4202046574
 20
184.8402230001
 10
232.666552626
 20
183.9779285926
 10
232.9361820011
 20
183.1134041811
 10
233.2287111524
 20
182.2478734032
 10
233.5437260376
 20
181.3825613209
 10
233.8807807883
 20
180.5186926868
 10
234.2393983412
 20
179.6574902102
 10
234.6190711134
 20
178.800172827
 10
235.0192617204
 20
177.9479539741
 10
235.4394037372
 20
177.102039872
 10
235.8789024997
 20
176.2636278174
 10
236.3371359466
 20
175.4339044889
 10
236.8134554997
 20
174.6140442671
 10
237.307186982
 20
173.8052075725
 10
237.8176315717
 20
173.0085392228
 10
238.3440667915
 20
172.2251668132
 10
238.8857475314
 20
171.4561991195
 10
239.4419071028
 20
170.7027245297
 10
240.0117583239
 20
169.9658095028
 10
240.5944946342
 20
169.2464970595
 10
241.1892912356
 20
168.5458053062
 10
241.7953062599
 20
167.8647259937
 10
242.4116819607
 20
167.2042231136
 10
243.037545927
 20
166.5652315339
 10
243.6720123186
 20
165.9486556757
 10
244.314183119
 20
165.3553682332
 10
244.9631494073
 20
164.7862089384
 10
245.6179926444
 20
164.2419833727
 10
246.2777859729
 20
163.7234618265
 10
246.941595529
 20
163.231378209
 10
247.6084817647
 20
162.7664290095
 10
248.2775007769
 20
162.3292723118
 10
248.9477056441
 20
161.9205268622
 10
249.6181477663
 20
161.5407711941
 10
250.2878782076
 20
161.1905428094
 10
250.9559490394
 20
160.8703374169
 10
251.6214146823
 20
160.5806082318
 10
252.2833332439
 20
160.3217653333
 10
252.9407678526
 20
160.0941750845
 10
253.5927879832
 20
159.898159614
 10
254.2384707742
 20
159.7339963598
 10
254.8769023337
 20
159.6019176765
 10
255.5071790333
 20
159.5021105069
 10
256.1284087868
 20
159.4347161168
 10
256.7397123129
 20
159.3998298954
 10
257.3402243798
 20
159.3975012202
 10
257.9290950299
 20
159.4277333873
 10
258.5054907826
 20
159.4904836064
 10
259.0685958142
 20
159.5856630615
 10
259.6176131125
 20
159.7131370368
 10
260.1517656049
 20
159.8727251072
 10
260.6702972582
 20
160.0642013936
 10
261.1724741489
 20
160.2872948826
 10
261.6575855018
 20
160.5416898105
 10
262.124944696
 20
160.8270261096
 10
262.5738902368
 20
161.1428999183
 10
263.003786692
 20
161.4888641526
 10
263.4140255912
 20
161.8644291387
 10
263.8040262872
 20
162.2690633065
 10
264.1732367775
 20
162.7021939415
 10
264.5211344861
 20
163.1632079958
 10
264.8472270026
 20
163.6514529554
 10
265.1510527795
 20
164.1662377643
 10
265.4321817854
 20
164.7068338021
 10
265.6902161136
 20
165.2724759156
 10
265.9247905455
 20
165.8623635016
 10
266.1355730671
 20
166.4756616403
 10
266.3222653393
 20
167.1115022766
 10
266.4846031201
 20
167.7689854493
 10
266.6223566385
 20
168.4471805644
 10
266.7353309199
 20
169.1451277126
 10
266.8233660617
 20
169.8618390278
 10
266.8863374601
 20
170.5963000852
 10
266.9241559861
 20
171.3474713374
 10
266.9367681118
 20
172.1142895854
  0
LWPOLYLINE
  5
ED
330
1F
100
AcDbEntity
  8
0
  6
Continuous
 62
     7
370
    18
100
AcDbPolyline
 90
      127
 70
   128
 43
0.0
 10
231.2938938971
 20
192.8510556257
 10
231.3066044454
 20
193.6238579787
 10
231.3447181
 20
194.3808912297
 10
231.4081809153
 20
195.1210838827
 10
231.4969030668
 20
195.8433882779
 10
231.6107589782
 20
196.546782074
 10
231.7495874991
 20
197.2302696959
 10
231.9131921333
 20
197.8928837433
 10
232.1013413168
 20
198.5336863601
 10
232.3137687455
 20
199.1517705617
 10
232.550173752
 20
199.7462615192
 10
232.8102217314
 20
200.3163177971
 10
233.0935446151
 20
200.8611325445
 10
233.3997413911
 20
201.379934637
 10
233.7283786721
 20
201.8719897682
 10
234.0789913088
 20
202.3366014892
 10
234.4510830482
 20
202.773112194
 10
234.844127236
 20
203.1809040506
 10
235.2575675623
 20
203.5593998751
 10
235.6908188483
 20
203.908063949
 10
236.1432678755
 20
204.2264027773
 10
236.6142742527
 20
204.5139657871
 10
237.1031713231
 20
204.770345965
 10
237.6092671076
 20
204.9951804336
 10
238.1318452841
 20
205.1881509648
 10
238.6701662018
 20
205.3489844304
 10
239.2234679276
 20
205.4774531886
 10
239.7909673247
 20
205.5733754062
 10
240.3718611612
 20
205.6366153162
 10
240.9653272468
 20
205.6670834094
 10
241.5705255967
 20
205.6647365617
 10
242.1865996202
 20
205.6295780948
 10
242.8126773335
 20
205.5616577715
 10
243.4478725936
 20
205.4610717256
 10
244.0912863527
 20
205.3279623252
 10
244.7420079304
 20
205.1625179719
 10
245.3991163032
 20
204.9649728336
 10
246.0616814076
 20
204.7356065134
 10
246.7287654569
 20
204.4747436537
 10
247.3994242681
 20
204.1827534767
 10
248.0727085988
 20
203.8600492618
 10
248.7476654901
 20
203.5070877607
 10
249.4233396162
 20
203.124368551
 10
250.0987746358
 20
202.712433329
 10
250.7730145463
 20
202.2718651428
 10
251.4451050364
 20
201.8032875675
 10
252.1140948371
 20
201.3073638223
 10
252.7790370683
 20
200.7847958316
 10
253.4389905785
 20
200.2363232322
 10
254.0930212774
 20
199.6627223256
 10
254.7402034577
 20
199.0648049798
 10
255.3796211053
 20
198.4434174799
 10
256.010369196
 20
197.7994393304
 10
256.6315549766
 20
197.1337820103
 10
257.2422992279
 20
196.4473876833
 10
257.8417375097
 20
195.7412278637
 10
258.4290213843
 20
195.0163020417
 10
259.003319617
 20
194.2736362689
 10
259.5638193528
 20
193.5142817054
 10
260.109727267
 20
192.7393131329
 10
260.640270688
 20
191.9498274327
 10
261.154698691
 20
191.1469420335
 10
261.6522831607
 20
190.3317933298
 10
262.1323198218
 20
189.5055350734
 10
262.5941292361
 20
188.6693367405
 10
263.0370577641
 20
187.8243818763
 10
263.46047849
 20
186.97186642
 10
263.863792109
 20
186.1129970119
 10
264.2464277759
 20
185.2489892855
 10
264.6078439126
 20
184.3810661472
 10
264.947528975
 20
183.5104560452
 10
265.265002177
 20
182.6383912306
 10
265.5598141706
 20
181.7661060137
 10
265.8315476825
 20
180.8948350167
 10
266.0798181042
 20
180.0258114262
 10
266.3042740368
 20
179.160265248
 10
266.504597788
 20
178.2994215659
 10
266.6805058219
 20
177.4444988078
 10
266.8317491604
 20
176.5967070214
 10
266.9581137353
 20
175.7572461611
 10
267.0594206919
 20
174.9273043898
 10
267.1355266414
 20
174.1080563974
 10
267.1863238644
 20
173.3006617377
 10
267.2117404631
 20
172.5062631876
 10
267.2117404631
 20
171.7259851295
 10
267.1863238644
 20
170.9609319596
 10
267.1355266414
 20
170.2121865252
 10
267.0594206919
 20
169.4808085917
 10
266.9581137353
 20
168.7678333428
 10
266.8317491604
 20
168.0742699152
 10
266.6805058219
 20
167.4010999704
 10
266.504597788
 20
166.7492763052
 10
266.3042740368
 20
166.1197215031
 10
266.0798181042
 20
165.5133266285
 10
265.8315476825
 20
164.9309499655
 10
265.5598141706
 20
164.3734158033
 10
265.265002177
 20
163.841513269
 10
264.947528975
 20
163.3359952112
 10
264.6078439126
 20
162.8575771341
 10
264.2464277759
 20
162.4069361852
 10
263.863792109
 20
161.9847101962
 10
263.46047849
 20
161.5914967808
 10
263.0370577641
 20
161.2278524887
 10
262.5941292361
 20
160.8942920176
 10
262.1323198218
 20
160.5912874852
 10
261.6522831607
 20
160.3192677604
 10
261.154698691
 20
160.0786178568
 10
260.640270688
 20
159.8696783873
 10
260.109727267
 20
159.6927450825
 10
259.5638193528
 20
159.5480683716
 10
259.003319617
 20
159.4358530284
 10
258.4290213843
 20
159.3562578811
 10
257.8417375097
 20
159.3093955877
 10
257.2422992279
 20
159.2953324767
 10
256.6315549766
 20
159.3140884526
 10
256.010369196
 20
159.3656369687
 10
255.3796211053
 20
159.4499050636
 10
254.7402034577
 20
159.5667734654
 10
254.0930212774
 20
159.7160767598
 10
253.4389905785
 20
159.8976036248
 10
252.7790370683
 20
160.1110971294
 10
252.1140948371
 20
160.3562550974
 10
251.4451050364
 20
160.6327305351
 10
250.7730145463
 20
160.9401321225
 10
250.0987746358
 20
161.2780247669
 10
249.4233396162
 20
161.6459302192
 10
249.2514870508
 20
161.7442214114
  0
LWPOLYLINE
  5
EE
330
1F
100
AcDbEntity
  8
0
  6
Continuous
 62
     7
370
    18
100
AcDbPolyline
 90
       64
 70
   128
 43
0.0
 10
273.4481132652
 20
175.7126363989
 10
273.4354027169
 20
176.5001140386
 10
273.3972890622
 20
177.3011523786
 10
273.3338262469
 20
178.1146176385
 10
273.2451040954
 20
178.9393584493
 10
273.1312481841
 20
179.7742074826
 10
272.9924196632
 20
180.617983103
 10
272.8288150289
 20
181.4694910403
 10
272.6406658454
 20
182.3275260804
 10
272.4282384168
 20
183.1908737706
 10
272.1918334103
 20
184.0583121388
 10
271.9317854308
 20
184.9286134229
 10
271.6484625471
 20
185.8005458088
 10
271.3422657712
 20
186.6728751738
 10
271.0136284902
 20
187.5443668332
 10
270.6630158535
 20
188.4137872879
 10
270.2909241141
 20
189.2799059705
 10
269.8978799262
 20
190.141496987
 10
269.4844396
 20
190.9973408515
 10
269.0511883139
 20
191.8462262128
 10
268.5987392868
 20
192.6869515686
 10
268.1277329096
 20
193.5183269661
 10
267.6388358392
 20
194.3391756865
 10
267.1327400547
 20
195.1483359101
 10
266.6101618781
 20
195.9446623612
 10
266.0718409604
 20
196.7270279286
 10
265.5185392347
 20
197.4943252616
 10
264.9510398376
 20
198.2454683363
 10
264.3701460011
 20
198.979393994
 10
263.7766799154
 20
199.6950634447
 10
263.1714815656
 20
200.3914637385
 10
262.555407542
 20
201.0676091987
 10
261.9293298287
 20
201.7225428168
 10
261.2941345686
 20
202.3553376077
 10
260.6507208096
 20
202.9650979211
 10
259.9999992319
 20
203.5509607094
 10
259.3428908591
 20
204.1120967494
 10
258.6803257546
 20
204.6477118157
 10
258.0132417054
 20
205.1570478051
 10
257.3425828941
 20
205.6393838095
 10
256.6692985635
 20
206.0940371363
 10
255.9943416721
 20
206.5203642743
 10
255.3186675461
 20
206.9177618054
 10
254.6432325264
 20
207.2856672576
 10
253.968992616
 20
207.6235599021
 10
253.2969021259
 20
207.9309614894
 10
252.6279123251
 20
208.2074369271
 10
251.962970094
 20
208.4525948951
 10
251.3030165837
 20
208.6660883997
 10
250.6489858848
 20
208.8476152647
 10
250.0018037046
 20
208.9969185592
 10
249.362386057
 20
209.1137869609
 10
248.7316379662
 20
209.1980550559
 10
248.1104521857
 20
209.2496035719
 10
247.4997079344
 20
209.2683595479
 10
246.9002696525
 20
209.2542964368
 10
246.3129857779
 20
209.2074341434
 10
245.7386875453
 20
209.1278389961
 10
245.1781878095
 20
209.0156236529
 10
244.6322798953
 20
208.870946942
 10
244.1017364742
 20
208.6940136372
 10
243.5873084712
 20
208.4850741678
 10
243.0897240016
 20
208.2444242641
 10
242.7886331186
 20
208.0786605235
  0
LWPOLYLINE
  5
EF
330
1F
100
AcDbEntity
  8
0
  6
Continuous
 62
     7
370
    18
100
AcDbPolyline
 90
       22
 70
   128
 43
0.0
 10
268.1865689275
 20
164.0833783145
 10
268.5987392868
 20
164.3372892472
 10
269.0511883139
 20
164.6556280756
 10
269.4844396
 20
165.0042921495
 10
269.8978799262
 20
165.382787974
 10
270.2909241141
 20
165.7905798305
 10
270.6630158535
 20
166.2270905353
 10
271.0136284902
 20
166.6917022563
 10
271.3422657712
 20
167.1837573876
 10
271.6484625471
 20
167.70255948
 10
271.9317854308
 20
168.2473742274
 10
272.1918334103
 20
168.8174305053
 10
272.4282384168
 20
169.4119214628
 10
272.6406658454
 20
170.0300056645
 10
272.8288150289
 20
170.6708082812
 10
272.9924196632
 20
171.3334223286
 10
273.1312481841
 20
172.0169099505
 10
273.2451040954
 20
172.7203037467
 10
273.3338262469
 20
173.4426081418
 10
273.3972890622
 20
174.1828007949
 10
273.4354027169
 20
174.9398340458
 10
273.4481132652
 20
175.7126363989
  0
ARC
  5
F0
330
1F
100
AcDbEntity
  8
0
  6
Continuous
 62
     7
370
    18
100
AcDbCircle
 10
234.8297546084
 20
174.1554985257
 30
0.0
 40
38.6566613740163
100
AcDbArc
 50
2.5507982903
 51
57.443825177
  0
CIRCLE
  5
F1
330
1F
100
AcDbEntity
  8
0
  6
Continuous
 62
     7
370
    18
100
AcDbCircle
 10
55.2483625255
 20
125.137333682
 30
0.0
 40
25.20331805820371
  0
CIRCLE
  5
F2
330
1F
100
AcDbEntity
  8
0
  6
Continuous
 62
     7
370
    18
100
AcDbCircle
 10
55.2483625255
 20
125.137333682
 30
0.0
 40
25.4
  0
DIMENSION
  5
F3
330
1F
100
AcDbEntity
  8
0
  6
Continuous
 62
     7
370
    18
100
AcDbDimension
  2
_D
 10
37.2878502833
 20
107.1768214399
 30
0.0
 11
99.9131402502
 21
159.0127949338
 31
0.0
 70
   163
  1
<>
 71
     1
 42
-1.0
  3
SLDDIMSTYLE0
100
AcDbDiametricDimension
 15
73.2088747676
 25
143.0978459242
 35
0.0
 40
0.0
  0
LINE
  5
104
330
1F
100
AcDbEntity
  8
0
  6
PHANTOM
 62
     7
370
    35
100
AcDbLine
 10
55.2483625255
 20
156.633333682
 30
0.0
 11
55.2483625255
 21
93.641333682
 31
0.0
  0
LINE
  5
105
330
1F
100
AcDbEntity
  8
0
  6
Continuous
 62
     7
370
    35
100
AcDbLine
 10
55.2483625255
 20
156.633333682
 30
0.0
 11
46.3583625255
 21
156.633333682
 31
0.0
  0
SOLID
  5
106
330
1F
100
AcDbEntity
  8
0
  6
Continuous
 62
     7
370
    35
100
AcDbTrace
 10
46.3583625255
 20
156.633333682
 30
0.0
 11
50.1683625255
 21
155.998333682
 31
0.0
 12
50.1683625255
 22
157.268333682
 32
0.0
 13
50.1683625255
 23
157.268333682
 33
0.0
  0
LINE
  5
107
330
1F
100
AcDbEntity
  8
0
  6
Continuous
 62
     7
370
    35
100
AcDbLine
 10
55.2483625255
 20
93.641333682
 30
0.0
 11
46.3583625255
 21
93.641333682
 31
0.0
  0
SOLID
  5
108
330
1F
100
AcDbEntity
  8
0
  6
Continuous
 62
     7
370
    35
100
AcDbTrace
 10
46.3583625255
 20
93.641333682
 30
0.0
 11
50.1683625255
 21
93.006333682
 31
0.0
 12
50.1683625255
 22
94.276333682
 32
0.0
 13
50.1683625255
 23
94.276333682
 33
0.0
  0
MTEXT
  5
109
330
1F
100
AcDbEntity
  8
0
  6
Continuous
 62
     7
100
AcDbMText
 10
42.9527269043
 20
158.7344672055
 30
0.0
 40
2.6458333333
 41
0.0
 71
     1
 72
     1
  1
A
  7
SLDTEXTSTYLE0
 73
     1
 44
1.0
  0
MTEXT
  5
10A
330
1F
100
AcDbEntity
  8
0
  6
Continuous
 62
     7
100
AcDbMText
 10
42.9527269043
 20
95.7424672055
 30
0.0
 40
2.6458333333
 41
0.0
 71
     1
 72
     1
  1
A
  7
SLDTEXTSTYLE0
 73
     1
 44
1.0
  0
LINE
  5
10B
330
1F
100
AcDbEntity
  8
0
  6
Continuous
 62
     7
370
    18
100
AcDbLine
 10
144.3810184127
 20
99.937333682
 30
0.0
 11
144.1810184127
 21
99.737333682
 31
0.0
  0
LINE
  5
10C
330
1F
100
AcDbEntity
  8
0
  6
Continuous
 62
     7
370
    18
100
AcDbLine
 10
135.365949671
 20
99.737333682
 30
0.0
 11
144.1810184127
 21
99.737333682
 31
0.0
  0
LINE
  5
10D
330
1F
100
AcDbEntity
  8
0
  6
Continuous
 62
     7
370
    18
100
AcDbLine
 10
135.365949671
 20
99.737333682
 30
0.0
 11
135.1692677292
 21
99.9340156238
 31
0.0
  0
ARC
  5
10E
330
1F
100
AcDbEntity
  8
0
  6
Continuous
 62
     7
370
    18
100
AcDbCircle
 10
-1364.619050411
 20
125.137333682
 30
0.0
 40
1500.000068823651
100
AcDbArc
 50
359.037258905
 51
0.962741095
  0
LINE
  5
10F
330
1F
100
AcDbEntity
  8
0
  6
Continuous
 62
     7
370
    18
100
AcDbLine
 10
135.1692677292
 20
150.3406517402
 30
0.0
 11
135.365949671
 21
150.537333682
 31
0.0
  0
LINE
  5
110
330
1F
100
AcDbEntity
  8
0
  6
Continuous
 62
     7
370
    18
100
AcDbLine
 10
144.1810184127
 20
150.537333682
 30
0.0
 11
135.365949671
 21
150.537333682
 31
0.0
  0
LINE
  5
111
330
1F
100
AcDbEntity
  8
0
  6
Continuous
 62
     7
370
    18
100
AcDbLine
 10
144.1810184127
 20
150.537333682
 30
0.0
 11
144.3810184127
 21
150.337333682
 31
0.0
  0
LINE
  5
112
330
1F
100
AcDbEntity
  8
0
  6
Continuous
 62
     7
370
    18
100
AcDbLine
 10
144.3810184127
 20
123.5363038525
 30
0.0
 11
144.3810184127
 21
123.7764583269
 31
0.0
  0
LINE
  5
113
330
1F
100
AcDbEntity
  8
0
  6
Continuous
 62
     7
370
    18
100
AcDbLine
 10
144.3810184127
 20
123.7764583269
 30
0.0
 11
144.3810184127
 21
126.137333682
 31
0.0
  0
LINE
  5
114
330
1F
100
AcDbEntity
  8
0
  6
Continuous
 62
     7
370
    18
100
AcDbLine
 10
144.3810184127
 20
126.2398069598
 30
0.0
 11
144.3810184127
 21
150.337333682
 31
0.0
  0
LINE
  5
115
330
1F
100
AcDbEntity
  8
0
  6
Continuous
 62
     7
370
    18
100
AcDbLine
 10
144.3810184127
 20
99.937333682
 30
0.0
 11
144.3810184127
 21
123.5363038525
 31
0.0
  0
LINE
  5
116
330
1F
100
AcDbEntity
  8
0
  6
Continuous
 62
     7
370
    18
100
AcDbLine
 10
144.3810184127
 20
126.137333682
 30
0.0
 11
144.3810184127
 21
126.2398069598
 31
0.0
  0
HATCH
  5
117
330
1F
100
AcDbEntity
  8
0
  6
Continuous
 62
     7
370
    18
100
AcDbHatch
 10
0.0
 20
0.0
 30
0.0
210
0.0
220
0.0
230
1.0
  2
ANSI31
 70
     0
 71
     0
 91
        1
 92
        0
 93
       12
 72
     1
 10
144.3810184126959
 20
99.9373336820326
 11
144.3810184126959
 21
123.5363038524872
 72
     1
 10
144.3810184126959
 20
123.5363038524872
 11
144.3810184126959
 21
123.776458326919
 72
     1
 10
144.3810184126959
 20
123.776458326919
 11
144.3810184126959
 21
126.1373336820326
 72
     1
 10
144.3810184126959
 20
126.1373336820326
 11
144.3810184126959
 21
126.239806959846
 72
     1
 10
144.3810184126959
 20
126.239806959846
 11
144.3810184126959
 21
150.3373336820326
 72
     1
 10
144.3810184126959
 20
150.3373336820326
 11
144.1810184126959
 21
150.5373336820326
 72
     1
 10
144.1810184126959
 20
150.5373336820326
 11
135.3659496710426
 21
150.5373336820326
 72
     1
 10
135.3659496710426
 20
150.5373336820326
 11
135.1692677292463
 21
150.340651740236
 72
     2
 10
-1364.619050410955
 20
125.1373336820326
 40
1500.000068823651
 50
359.0372589049768
 51
360.9627410950252
 73
     0
 72
     1
 10
135.1692677292463
 20
99.93401562382131
 11
135.3659496710426
 21
99.73733368203261
 72
     1
 10
135.3659496710426
 20
99.73733368203261
 11
144.1810184126959
 21
99.73733368203261
 72
     1
 10
144.1810184126959
 20
99.73733368203261
 11
144.3810184126959
 21
99.9373336820326
 97
        0
 75
     0
 76
     1
 52
0.0
 41
1.0
 77
     0
 78
     1
 53
45.0
 43
0.0
 44
0.0
 45
-2.245064030267288
 46
2.245064030267288
 79
     0
 98
        1
 10
0.0
 20
0.0
  0
DIMENSION
  5
118
330
1F
100
AcDbEntity
  8
0
  6
Continuous
 62
     7
370
    18
100
AcDbDimension
  2
_D_1
 10
144.3860996045
 20
164.4439796611
 30
0.0
 11
162.7397826134
 21
164.4373686931
 31
0.0
 70
   160
  1
<> REF
 71
     2
 42
-1.0
  3
SLDDIMSTYLE1
100
AcDbAlignedDimension
 13
135.1692677292
 23
150.3406517402
 33
0.0
 14
144.3810184127
 24
150.337333682
 34
0.0
 50
-0.0206378494
100
AcDbRotatedDimension
  0
DIMENSION
  5
12C
330
1F
100
AcDbEntity
  8
0
  6
Continuous
 62
     7
370
    18
100
AcDbDimension
  2
_D_2
 10
-1364.619050411
 20
125.137333682
 30
0.0
 11
160.7040468597
 21
88.9205675501
 31
0.0
 70
   164
  1
<>
 71
     1
 42
-1.0
  3
SLDDIMSTYLE2
100
AcDbRadialDimension
 15
134.951869144
 25
89.2588764106
 35
0.0
 40
0.0
  0
DIMENSION
  5
13D
330
1F
100
AcDbEntity
  8
0
  6
Continuous
 62
     7
370
    18
100
AcDbDimension
  2
_D_3
 10
135.3810184127
 20
156.8093562806
 30
0.0
 11
160.3810184127
 21
156.8093562806
 31
0.0
 70
   160
  1
<>
 71
     2
 42
-1.0
  3
SLDDIMSTYLE3
100
AcDbAlignedDimension
 13
144.3810184127
 23
150.337333682
 33
0.0
 14
135.3810184127
 24
125.137333682
 34
0.0
100
AcDbRotatedDimension
  0
MTEXT
  5
152
330
1F
100
AcDbEntity
  8
0
  6
Continuous
 62
     7
370
     0
100
AcDbMText
 10
139.5940990209
 20
82.1525271676
 30
0.0
 40
2.1166666667
 41
0.0
 71
     2
 72
     1
  1
SECTION A-A
  7
SLDTEXTSTYLE0
 73
     1
 44
1.0
  0
MTEXT
  5
153
330
1F
100
AcDbEntity
  8
0
  6
Continuous
 62
     7
370
     0
100
AcDbMText
 10
118.2239300459
 20
102.6354511997
 30
0.0
 40
2.1166666667
 41
0.0
 71
     1
 72
     1
  1
S1
  7
SLDTEXTSTYLE0
 73
     1
 44
1.0
  0
LEADER
  5
155
330
1F
100
AcDbEntity
  8
0
  6
Continuous
 62
     7
370
     0
100
AcDbLeader
  3
SLDDIMSTYLE4
 76
     3
 10
135.3647451555
 20
118.1502377961
 30
0.0
 10
127.9917537626
 20
102.1087910705
 30
0.0
 10
121.6417537626
 20
102.1087910705
 30
0.0
  0
MTEXT
  5
156
330
1F
100
AcDbEntity
  8
0
  6
Continuous
 62
     7
370
     0
100
AcDbMText
 10
157.7328740613
 20
135.2034286237
 30
0.0
 40
2.1166666667
 41
0.0
 71
     1
 72
     1
  1
S2
  7
SLDTEXTSTYLE0
 73
     1
 44
1.0
  0
LEADER
  5
157
330
1F
100
AcDbEntity
  8
0
  6
Continuous
 62
     7
370
     0
100
AcDbLeader
  3
SLDDIMSTYLE4
 76
     3
 10
144.3810184127
 20
122.6274180184
 30
0.0
 10
150.8755871446
 20
134.618061775
 30
0.0
 10
157.2255871446
 20
134.618061775
 30
0.0
  0
SPLINE
  5
158
330
1F
100
AcDbEntity
  8
0
  6
Continuous
 62
     7
370
    18
100
AcDbSpline
210
0.0
220
0.0
230
1.0
 70
     8
 71
     3
 72
    13
 73
     9
 74
     0
 42
0.000000001
 43
0.00000001
 40
0.0
 40
0.0
 40
0.0
 40
0.0
 40
0.194338994180444
 40
0.3816850483972328
 40
0.5594858099432993
 40
0.6963399801806512
 40
0.8391066529687221
 40
1.0
 40
1.0
 40
1.0
 40
1.0
 10
223.3389159985552
 20
127.2566911183153
 30
0.0
 10
223.3360909061634
 20
127.3183235406268
 30
0.0
 10
223.3305423772598
 20
127.4393706531325
 30
0.0
 10
223.2815466691258
 20
127.6113892076718
 30
0.0
 10
223.2015352836449
 20
127.7515112302096
 30
0.0
 10
223.0933017631259
 20
127.8504709577592
 30
0.0
 10
222.9642625047497
 20
127.9112414782342
 30
0.0
 10
222.8676106019219
 20
127.9178406841775
 30
0.0
 10
222.8163998822752
 20
127.9213372535731
 30
0.0
  0
SPLINE
  5
159
330
1F
100
AcDbEntity
  8
0
  6
Continuous
 62
     7
370
    18
100
AcDbSpline
210
0.0
220
0.0
230
1.0
 70
     8
 71
     3
 72
    12
 73
     8
 74
     0
 42
0.000000001
 43
0.00000001
 40
0.0
 40
0.0
 40
0.0
 40
0.0
 40
0.2008908381631385
 40
0.3780365369998052
 40
0.5535498386387561
 40
0.7713747335183457
 40
0.9999999999999999
 40
0.9999999999999999
 40
0.9999999999999999
 40
0.9999999999999999
 10
222.8163998822752
 20
126.5920269210396
 30
0.0
 10
222.8805380537844
 20
126.5975491243475
 30
0.0
 10
223.0012333152933
 20
126.6079408108683
 30
0.0
 10
223.1539278033207
 20
126.7062011935212
 30
0.0
 10
223.2619097245208
 20
126.8537191718672
 30
0.0
 10
223.3275184770469
 20
127.0428430225954
 30
0.0
 10
223.3350560426383
 20
127.18426798476
 30
0.0
 10
223.3389159985552
 20
127.2566911183153
 30
0.0
  0
SPLINE
  5
15A
330
1F
100
AcDbEntity
  8
0
  6
Continuous
 62
     7
370
    18
100
AcDbSpline
210
0.0
220
0.0
230
1.0
 70
     8
 71
     3
 72
    13
 73
     9
 74
     0
 42
0.000000001
 43
0.00000001
 40
0.0
 40
0.0
 40
0.0
 40
0.0
 40
0.1943256494037762
 40
0.3816748644005
 40
0.5594881704966052
 40
0.6963511211546939
 40
0.8391184169589763
 40
1.0
 40
1.0
 40
1.0
 40
1.0
 10
222.2938657039772
 20
127.2566911183153
 30
0.0
 10
222.2966921582195
 20
127.1950624493299
 30
0.0
 10
222.3022435949082
 20
127.0740176261152
 30
0.0
 10
222.3512521238877
 20
126.9020002182378
 30
0.0
 10
222.4312720374522
 20
126.7618737460388
 30
0.0
 10
222.5395078525064
 20
126.6629057724872
 30
0.0
 10
222.668543288146
 20
126.6021256795246
 30
0.0
 10
222.7651924698916
 20
126.5955244403308
 30
0.0
 10
222.8163998822752
 20
126.5920269210396
 30
0.0
  0
SPLINE
  5
15B
330
1F
100
AcDbEntity
  8
0
  6
Continuous
 62
     7
370
    18
100
AcDbSpline
210
0.0
220
0.0
230
1.0
 70
     8
 71
     3
 72
    12
 73
     8
 74
     0
 42
0.000000001
 43
0.00000001
 40
0.0
 40
0.0
 40
0.0
 40
0.0
 40
0.2008792258750622
 40
0.3780217100331179
 40
0.5535332757399348
 40
0.7713595773327309
 40
0.9999999999999999
 40
0.9999999999999999
 40
0.9999999999999999
 40
0.9999999999999999
 10
222.8163998822752
 20
127.9213372535731
 30
0.0
 10
222.752266089722
 20
127.9158155900762
 30
0.0
 10
222.6315768256815
 20
127.9054247262711
 30
0.0
 10
222.4788832919636
 20
127.8071776486462
 30
0.0
 10
222.3708897219021
 20
127.659671378507
 30
0.0
 10
222.3052662459051
 20
127.4705480106062
 30
0.0
 10
222.2977267573476
 20
127.3291186292167
 30
0.0
 10
222.2938657039772
 20
127.2566911183153
 30
0.0
  0
SPLINE
  5
15C
330
1F
100
AcDbEntity
  8
0
  6
Continuous
 62
     7
370
    18
100
AcDbSpline
210
0.0
220
0.0
230
1.0
 70
     8
 71
     3
 72
    19
 73
    15
 74
     0
 42
0.000000001
 43
0.00000001
 40
0.0
 40
0.0
 40
0.0
 40
0.0
 40
0.091587339706645
 40
0.1741182870805897
 40
0.2526289966153884
 40
0.3313197891920877
 40
0.4131632671988417
 40
0.4999972215981982
 40
0.586835000190323
 40
0.6686802724867937
 40
0.7473714879383921
 40
0.8258819896397938
 40
0.9084127008286221
 40
1.0
 40
1.0
 40
1.0
 40
1.0
 10
222.8200050464215
 20
126.0561539651567
 30
0.0
 10
222.9306426211133
 20
126.0635986777081
 30
0.0
 10
223.1409776418026
 20
126.0777519504357
 30
0.0
 10
223.4253052167717
 20
126.2010713472287
 30
0.0
 10
223.6494765033612
 20
126.3883370265984
 30
0.0
 10
223.8101557921619
 20
126.6314804520583
 30
0.0
 10
223.9062578722799
 20
126.9162378162491
 30
0.0
 10
223.936245500152
 20
127.2244904298838
 30
0.0
 10
223.9051078593121
 20
127.5326311275909
 30
0.0
 10
223.8079442456676
 20
127.8170357014898
 30
0.0
 10
223.6463580546795
 20
128.0595806018399
 30
0.0
 10
223.4214884952527
 20
128.246007510226
 30
0.0
 10
223.1367021319518
 20
128.3682619925838
 30
0.0
 10
222.9263161096312
 20
128.3816294548066
 30
0.0
 10
222.8156515808562
 20
128.3886608340374
 30
0.0
  0
SPLINE
  5
15D
330
1F
100
AcDbEntity
  8
0
  6
Continuous
 62
     7
370
    18
100
AcDbSpline
210
0.0
220
0.0
230
1.0
 70
     8
 71
     3
 72
    14
 73
    10
 74
     0
 42
0.000000001
 43
0.00000001
 40
0.0
 40
0.0
 40
0.0
 40
0.0
 40
0.146686810909716
 40
0.2859932799578325
 40
0.4198155341096283
 40
0.5510853201411051
 40
0.6904104027401201
 40
0.8377115977293305
 40
0.9999999999999999
 40
0.9999999999999999
 40
0.9999999999999999
 40
0.9999999999999999
 10
221.7141529509028
 20
127.2285444008964
 30
0.0
 10
221.718035267782
 20
127.1398699066661
 30
0.0
 10
221.7256045681931
 20
126.9669824514393
 30
0.0
 10
221.7954237717475
 20
126.7210434519284
 30
0.0
 10
221.9077221508202
 20
126.5025401418621
 30
0.0
 10
222.0679647012332
 20
126.3150998535828
 30
0.0
 10
222.2769583585692
 20
126.169633823038
 30
0.0
 10
222.534438815785
 20
126.0732664651202
 30
0.0
 10
222.7217930353539
 20
126.0620393005203
 30
0.0
 10
222.8200050464215
 20
126.0561539651567
 30
0.0
  0
SPLINE
  5
15E
330
1F
100
AcDbEntity
  8
0
  6
Continuous
 62
     7
370
    18
100
AcDbSpline
210
0.0
220
0.0
230
1.0
 70
     8
 71
     3
 72
    14
 73
    10
 74
     0
 42
0.000000001
 43
0.00000001
 40
0.0
 40
0.0
 40
0.0
 40
0.0
 40
0.1553989656922826
 40
0.2968771122070962
 40
0.4305153137104974
 40
0.5617675040118875
 40
0.7014063449726649
 40
0.8467289956139453
 40
1.0
 40
1.0
 40
1.0
 40
1.0
 10
222.8156515808562
 20
128.3886608340374
 30
0.0
 10
222.7224104402215
 20
128.3833058818142
 30
0.0
 10
222.5442808082308
 20
128.3730756801848
 30
0.0
 10
222.2981014055567
 20
128.2860732517419
 30
0.0
 10
222.0923330275268
 20
128.1524690130643
 30
0.0
 10
221.9263893401962
 20
127.9726547982508
 30
0.0
 10
221.8050183025678
 20
127.7529359314717
 30
0.0
 10
221.7279458611361
 20
127.4994547448396
 30
0.0
 10
221.718831460631
 20
127.3204362973962
 30
0.0
 10
221.7141529509028
 20
127.2285444008964
 30
0.0
  0
LINE
  5
15F
330
1F
100
AcDbEntity
  8
0
  6
Continuous
 62
     7
370
    18
100
AcDbLine
 10
218.5765539855
 20
127.8720460067
 30
0.0
 11
218.5765539855
 21
126.137333682
 31
0.0
  0
LINE
  5
160
330
1F
100
AcDbEntity
  8
0
  6
Continuous
 62
     7
370
    18
100
AcDbLine
 10
217.9060596917
 20
127.8720460067
 30
0.0
 11
218.5765539855
 21
127.8720460067
 31
0.0
  0
LINE
  5
161
330
1F
100
AcDbEntity
  8
0
  6
Continuous
 62
     7
370
    18
100
AcDbLine
 10
217.9060596917
 20
128.3736824303
 30
0.0
 11
217.9060596917
 21
127.8720460067
 31
0.0
  0
LINE
  5
162
330
1F
100
AcDbEntity
  8
0
  6
Continuous
 62
     7
370
    18
100
AcDbLine
 10
220.3548719567
 20
128.3736824303
 30
0.0
 11
217.9060596917
 21
128.3736824303
 31
0.0
  0
LINE
  5
163
330
1F
100
AcDbEntity
  8
0
  6
Continuous
 62
     7
370
    18
100
AcDbLine
 10
220.3548719567
 20
127.5585074377
 30
0.0
 11
220.3548719567
 21
128.3736824303
 31
0.0
  0
LINE
  5
164
330
1F
100
AcDbEntity
  8
0
  6
Continuous
 62
     7
370
    18
100
AcDbLine
 10
221.1261381837
 20
127.5585074377
 30
0.0
 11
220.3548719567
 21
127.5585074377
 31
0.0
  0
LINE
  5
165
330
1F
100
AcDbEntity
  8
0
  6
Continuous
 62
     7
370
    18
100
AcDbLine
 10
221.1261381837
 20
128.3736824303
 30
0.0
 11
221.1261381837
 21
127.5585074377
 31
0.0
  0
LINE
  5
166
330
1F
100
AcDbEntity
  8
0
  6
Continuous
 62
     7
370
    18
100
AcDbLine
 10
221.7116506832
 20
128.3736824303
 30
0.0
 11
221.1261381837
 21
128.3736824303
 31
0.0
  0
LINE
  5
167
330
1F
100
AcDbEntity
  8
0
  6
Continuous
 62
     7
370
    18
100
AcDbLine
 10
221.7116506832
 20
126.137333682
 30
0.0
 11
221.7116506832
 21
128.3736824303
 31
0.0
  0
LINE
  5
168
330
1F
100
AcDbEntity
  8
0
  6
Continuous
 62
     7
370
    18
100
AcDbLine
 10
221.1261342484
 20
126.137333682
 30
0.0
 11
221.7116506832
 21
126.137333682
 31
0.0
  0
LINE
  5
169
330
1F
100
AcDbEntity
  8
0
  6
Continuous
 62
     7
370
    18
100
AcDbLine
 10
221.1261342484
 20
127.0591468284
 30
0.0
 11
221.1261342484
 21
126.137333682
 31
0.0
  0
LINE
  5
16A
330
1F
100
AcDbEntity
  8
0
  6
Continuous
 62
     7
370
    18
100
AcDbLine
 10
220.3548680214
 20
127.0591468284
 30
0.0
 11
221.1261342484
 21
127.0591468284
 31
0.0
  0
LINE
  5
16B
330
1F
100
AcDbEntity
  8
0
  6
Continuous
 62
     7
370
    18
100
AcDbLine
 10
220.3548680214
 20
126.137333682
 30
0.0
 11
220.3548680214
 21
127.0591468284
 31
0.0
  0
LINE
  5
16C
330
1F
100
AcDbEntity
  8
0
  6
Continuous
 62
     7
370
    18
100
AcDbLine
 10
219.7694238347
 20
126.137333682
 30
0.0
 11
220.3548680214
 21
126.137333682
 31
0.0
  0
LINE
  5
16D
330
1F
100
AcDbEntity
  8
0
  6
Continuous
 62
     7
370
    18
100
AcDbLine
 10
219.7694238347
 20
127.8742495729
 30
0.0
 11
219.7694238347
 21
126.137333682
 31
0.0
  0
LINE
  5
16E
330
1F
100
AcDbEntity
  8
0
  6
Continuous
 62
     7
370
    18
100
AcDbLine
 10
219.1620523583
 20
127.8742495729
 30
0.0
 11
219.7694238347
 21
127.8742495729
 31
0.0
  0
LINE
  5
16F
330
1F
100
AcDbEntity
  8
0
  6
Continuous
 62
     7
370
    18
100
AcDbLine
 10
219.1620523583
 20
126.137333682
 30
0.0
 11
219.1620523583
 21
127.8742495729
 31
0.0
  0
LINE
  5
170
330
1F
100
AcDbEntity
  8
0
  6
Continuous
 62
     7
370
    18
100
AcDbLine
 10
218.5765539855
 20
126.137333682
 30
0.0
 11
219.1620523583
 21
126.137333682
 31
0.0
  0
SPLINE
  5
171
330
1F
100
AcDbEntity
  8
0
  6
Continuous
 62
     7
370
    18
100
AcDbSpline
210
0.0
220
0.0
230
1.0
 70
     8
 71
     3
 72
    12
 73
     8
 74
     0
 42
0.000000001
 43
0.00000001
 40
0.0
 40
0.0
 40
0.0
 40
0.0
 40
0.1970292569794095
 40
0.3714318737747127
 40
0.5434083414909576
 40
0.7603083066182463
 40
1.0
 40
1.0
 40
1.0
 40
1.0
 10
225.2743154042641
 20
127.6673852816799
 30
0.0
 10
225.2721056915463
 20
127.6958234438428
 30
0.0
 10
225.2679400272797
 20
127.7494339584477
 30
0.0
 10
225.2279025336268
 20
127.8191664925012
 30
0.0
 10
225.1644410160458
 20
127.8709582658373
 30
0.0
 10
225.0784434482381
 20
127.9034205579766
 30
0.0
 10
225.012878454578
 20
127.9069614523789
 30
0.0
 10
224.9784595508068
 20
127.9088202751576
 30
0.0
  0
SPLINE
  5
172
330
1F
100
AcDbEntity
  8
0
  6
Continuous
 62
     7
370
    18
100
AcDbSpline
210
0.0
220
0.0
230
1.0
 70
     8
 71
     3
 72
    12
 73
     8
 74
     0
 42
0.000000001
 43
0.00000001
 40
0.0
 40
0.0
 40
0.0
 40
0.0
 40
0.2111291888127932
 40
0.3927062339152207
 40
0.5599129747574163
 40
0.7634359056262741
 40
1.0
 40
1.0
 40
1.0
 40
1.0
 10
225.0036380037811
 20
127.4040952465244
 30
0.0
 10
225.033935958648
 20
127.4056338679403
 30
0.0
 10
225.0902910075071
 20
127.408495747082
 30
0.0
 10
225.166615977317
 20
127.4376747707033
 30
0.0
 10
225.2279400755884
 20
127.4898351794962
 30
0.0
 10
225.2683876003786
 20
127.5700349784727
 30
0.0
 10
225.2722429839027
 20
127.6333506283001
 30
0.0
 10
225.2743154042641
 20
127.6673852816799
 30
0.0
  0
LINE
  5
173
330
1F
100
AcDbEntity
  8
0
  6
Continuous
 62
     7
370
    18
100
AcDbLine
 10
224.5125678607
 20
127.4040952465
 30
0.0
 11
225.0036380038
 21
127.4040952465
 31
0.0
  0
LINE
  5
174
330
1F
100
AcDbEntity
  8
0
  6
Continuous
 62
     7
370
    18
100
AcDbLine
 10
224.5125678607
 20
127.9088202752
 30
0.0
 11
224.5125678607
 21
127.4040952465
 31
0.0
  0
LINE
  5
175
330
1F
100
AcDbEntity
  8
0
  6
Continuous
 62
     7
370
    18
100
AcDbLine
 10
224.9784595508
 20
127.9088202752
 30
0.0
 11
224.5125678607
 21
127.9088202752
 31
0.0
  0
SPLINE
  5
176
330
1F
100
AcDbEntity
  8
0
  6
Continuous
 62
     7
370
    18
100
AcDbSpline
210
0.0
220
0.0
230
1.0
 70
     8
 71
     3
 72
    14
 73
    10
 74
     0
 42
0.000000001
 43
0.00000001
 40
0.0
 40
0.0
 40
0.0
 40
0.0
 40
0.2575826845002083
 40
0.4580339644254264
 40
0.6128287983994981
 40
0.709388313176198
 40
0.7998028883084816
 40
0.894133880561337
 40
1.0
 40
1.0
 40
1.0
 40
1.0
 10
231.894424272703
 20
126.7313573272404
 30
0.0
 10
231.9225015478862
 20
126.7242432636256
 30
0.0
 10
231.9724286060165
 20
126.7115930236958
 30
0.0
 10
232.0411152954227
 20
126.7039967070017
 30
0.0
 10
232.0923194167311
 20
126.7086895879164
 30
0.0
 10
232.1282470669768
 20
126.7237986134189
 30
0.0
 10
232.1523391970231
 20
126.7450395486335
 30
0.0
 10
232.1696482165838
 20
126.773283294103
 30
0.0
 10
232.1759840793564
 20
126.7949365198264
 30
0.0
 10
232.1793345433035
 20
126.8063869496618
 30
0.0
  0
SPLINE
  5
177
330
1F
100
AcDbEntity
  8
0
  6
Continuous
 62
     7
370
    18
100
AcDbSpline
210
0.0
220
0.0
230
1.0
 70
     8
 71
     3
 72
    12
 73
     8
 74
     0
 42
0.000000001
 43
0.00000001
 40
0.0
 40
0.0
 40
0.0
 40
0.0
 40
0.2545415383352845
 40
0.4933538848768417
 40
0.6299818928893302
 40
0.793357868069166
 40
0.9999999999999999
 40
0.9999999999999999
 40
0.9999999999999999
 40
0.9999999999999999
 10
231.6948028507
 20
127.0150032565868
 30
0.0
 10
231.6946481558972
 20
126.9823408074375
 30
0.0
 10
231.6943483255338
 20
126.9190342591909
 30
0.0
 10
231.7193421488516
 20
126.8388284144403
 30
0.0
 10
231.767399585688
 20
126.7876028426552
 30
0.0
 10
231.8235953606366
 20
126.7534786609043
 30
0.0
 10
231.8690432313188
 20
126.7392843512313
 30
0.0
 10
231.894424272703
 20
126.7313573272404
 30
0.0
  0
SPLINE
  5
178
330
1F
100
AcDbEntity
  8
0
  6
Continuous
 62
     7
370
    18
100
AcDbSpline
210
0.0
220
0.0
230
1.0
 70
     8
 71
     3
 72
    14
 73
    10
 74
     0
 42
0.000000001
 43
0.00000001
 40
0.0
 40
0.0
 40
0.0
 40
0.0
 40
0.0123761948722825
 40
0.0260544786030448
 40
0.0423069896659089
 40
0.110769187709473
 40
0.3353734156282144
 40
0.6465637489690613
 40
1.0
 40
1.0
 40
1.0
 40
1.0
 10
232.1793345433035
 20
126.8063869496618
 30
0.0
 10
232.1796007827728
 20
126.8086235696451
 30
0.0
 10
232.1801612725378
 20
126.8133321224839
 30
0.0
 10
232.177319884836
 20
126.8206379656356
 30
0.0
 10
232.1671965140246
 20
126.8351728062127
 30
0.0
 10
232.120825486069
 20
126.8679499622331
 30
0.0
 10
232.0211124842117
 20
126.9104623331991
 30
0.0
 10
231.8701717891973
 20
126.9632845214282
 30
0.0
 10
231.7556848886395
 20
126.9970482981826
 30
0.0
 10
231.6948028507
 20
127.0150032565868
 30
0.0
  0
LINE
  5
179
330
1F
100
AcDbEntity
  8
0
  6
Continuous
 62
     7
370
    18
100
AcDbLine
 10
231.1712933234
 20
127.0190130246
 30
0.0
 11
231.681003469
 21
127.0190130246
 31
0.0
  0
SPLINE
  5
17A
330
1F
100
AcDbEntity
  8
0
  6
Continuous
 62
     7
370
    18
100
AcDbSpline
210
0.0
220
0.0
230
1.0
 70
     8
 71
     3
 72
    11
 73
     7
 74
     0
 42
0.000000001
 43
0.00000001
 40
0.0
 40
0.0
 40
0.0
 40
0.0
 40
0.2403133392799464
 40
0.5276554281052314
 40
0.7630136347472206
 40
1.0
 40
1.0
 40
1.0
 40
1.0
 10
230.9555605814508
 20
127.3600058607925
 30
0.0
 10
230.9822564291981
 20
127.3396980258327
 30
0.0
 10
231.0408724386711
 20
127.2951081608601
 30
0.0
 10
231.1085537586513
 20
127.2123487991947
 30
0.0
 10
231.160305405779
 20
127.1180459784639
 30
0.0
 10
231.1676222771986
 20
127.0520997807675
 30
0.0
 10
231.1712933234346
 20
127.0190130245641
 30
0.0
  0
SPLINE
  5
17B
330
1F
100
AcDbEntity
  8
0
  6
Continuous
 62
     7
370
    18
100
AcDbSpline
210
0.0
220
0.0
230
1.0
 70
     8
 71
     3
 72
    10
 73
     6
 74
     0
 42
0.000000001
 43
0.00000001
 40
0.0
 40
0.0
 40
0.0
 40
0.0
 40
0.3052209345869971
 40
0.5892711010915044
 40
1.0
 40
1.0
 40
1.0
 40
1.0
 10
231.0808748617492
 20
127.5409511562708
 30
0.0
 10
231.0733738720676
 20
127.5194054447957
 30
0.0
 10
231.0588921771769
 20
127.477808477858
 30
0.0
 10
231.011966900689
 20
127.4192891511243
 30
0.0
 10
230.9765171969976
 20
127.3820313561733
 30
0.0
 10
230.9555605814508
 20
127.3600058607925
 30
0.0
  0
SPLINE
  5
17C
330
1F
100
AcDbEntity
  8
0
  6
Continuous
 62
     7
370
    18
100
AcDbSpline
210
0.0
220
0.0
230
1.0
 70
     8
 71
     3
 72
    11
 73
     7
 74
     0
 42
0.000000001
 43
0.00000001
 40
0.0
 40
0.0
 40
0.0
 40
0.0
 40
0.3113820865694044
 40
0.595215242902464
 40
0.7995709864930255
 40
1.0
 40
1.0
 40
1.0
 40
1.0
 10
231.5819152387275
 20
127.0468646561899
 30
0.0
 10
231.5076113639992
 20
127.0721722083058
 30
0.0
 10
231.3655775067137
 20
127.1205482756186
 30
0.0
 10
231.203550653134
 20
127.2436218266644
 30
0.0
 10
231.0996633563069
 20
127.3881738751727
 30
0.0
 10
231.0870970589502
 20
127.4903558109168
 30
0.0
 10
231.0808748617492
 20
127.5409511562708
 30
0.0
  0
SPLINE
  5
17D
330
1F
100
AcDbEntity
  8
0
  6
Continuous
 62
     7
370
    18
100
AcDbSpline
210
0.0
220
0.0
230
1.0
 70
     8
 71
     3
 72
     9
 73
     5
 74
     0
 42
0.000000001
 43
0.00000001
 40
0.0
 40
0.0
 40
0.0
 40
0.0
 40
0.5632377239369474
 40
1.0
 40
1.0
 40
1.0
 40
1.0
 10
231.6810034690125
 20
127.0190130245641
 30
0.0
 10
231.6624172533282
 20
127.0243032942212
 30
0.0
 10
231.629418370451
 20
127.0336958995674
 30
0.0
 10
231.5963557458854
 20
127.0428614775074
 30
0.0
 10
231.5819152387275
 20
127.0468646561899
 30
0.0
  0
SPLINE
  5
17E
330
1F
100
AcDbEntity
  8
0
  6
Continuous
 62
     7
370
    18
100
AcDbSpline
210
0.0
220
0.0
230
1.0
 70
     8
 71
     3
 72
    13
 73
     9
 74
     0
 42
0.000000001
 43
0.00000001
 40
0.0
 40
0.0
 40
0.0
 40
0.0
 40
0.2070940199890562
 40
0.3978649646626718
 40
0.5739369280037254
 40
0.7077750174858427
 40
0.846250404661648
 40
1.0
 40
1.0
 40
1.0
 40
1.0
 10
230.3175378606006
 20
126.239745323614
 30
0.0
 10
230.3889768528898
 20
126.2422118791521
 30
0.0
 10
230.5262240420853
 20
126.2469505772182
 30
0.0
 10
230.7199800880369
 20
126.2933800103939
 30
0.0
 10
230.8762639520686
 20
126.3718560266545
 30
0.0
 10
230.9894920257018
 20
126.4793873165844
 30
0.0
 10
231.06579629625
 20
126.6079596599856
 30
0.0
 10
231.0859731053838
 20
126.7072078323999
 30
0.0
 10
231.0965888173358
 20
126.7594257030813
 30
0.0
  0
LINE
  5
17F
330
1F
100
AcDbEntity
  8
0
  6
Continuous
 62
     7
370
    18
100
AcDbLine
 10
228.8390171981
 20
126.2397453236
 30
0.0
 11
230.3175378606
 21
126.2397453236
 31
0.0
  0
LINE
  5
180
330
1F
100
AcDbEntity
  8
0
  6
Continuous
 62
     7
370
    18
100
AcDbLine
 10
228.6884160927
 20
126.5831765323
 30
0.0
 11
228.8390171981
 21
126.2397453236
 31
0.0
  0
LINE
  5
181
330
1F
100
AcDbEntity
  8
0
  6
Continuous
 62
     7
370
    18
100
AcDbLine
 10
228.0350045326
 20
126.5831765323
 30
0.0
 11
228.6884160927
 21
126.5831765323
 31
0.0
  0
LINE
  5
182
330
1F
100
AcDbEntity
  8
0
  6
Continuous
 62
     7
370
    18
100
AcDbLine
 10
227.8814412563
 20
126.2425268744
 30
0.0
 11
228.0350045326
 21
126.5831765323
 31
0.0
  0
LINE
  5
183
330
1F
100
AcDbEntity
  8
0
  6
Continuous
 62
     7
370
    18
100
AcDbLine
 10
226.012022402
 20
126.2425268744
 30
0.0
 11
227.8814412563
 21
126.2425268744
 31
0.0
  0
LINE
  5
184
330
1F
100
AcDbEntity
  8
0
  6
Continuous
 62
     7
370
    18
100
AcDbLine
 10
226.012022402
 20
128.2627635782
 30
0.0
 11
226.012022402
 21
126.2425268744
 31
0.0
  0
LINE
  5
185
330
1F
100
AcDbEntity
  8
0
  6
Continuous
 62
     7
370
    18
100
AcDbLine
 10
226.5390720848
 20
128.2627635782
 30
0.0
 11
226.012022402
 21
128.2627635782
 31
0.0
  0
LINE
  5
186
330
1F
100
AcDbEntity
  8
0
  6
Continuous
 62
     7
370
    18
100
AcDbLine
 10
226.5390720848
 20
126.6994959276
 30
0.0
 11
226.5390720848
 21
128.2627635782
 31
0.0
  0
LINE
  5
187
330
1F
100
AcDbEntity
  8
0
  6
Continuous
 62
     7
370
    18
100
AcDbLine
 10
227.5085328344
 20
126.6994959276
 30
0.0
 11
226.5390720848
 21
126.6994959276
 31
0.0
  0
LINE
  5
188
330
1F
100
AcDbEntity
  8
0
  6
Continuous
 62
     7
370
    18
100
AcDbLine
 10
228.0967766338
 20
128.2627635782
 30
0.0
 11
227.5085328344
 21
126.6994959276
 31
0.0
  0
LINE
  5
189
330
1F
100
AcDbEntity
  8
0
  6
Continuous
 62
     7
370
    18
100
AcDbLine
 10
228.632243217
 20
128.2627635782
 30
0.0
 11
228.0967766338
 21
128.2627635782
 31
0.0
  0
LINE
  5
18A
330
1F
100
AcDbEntity
  8
0
  6
Continuous
 62
     7
370
    18
100
AcDbLine
 10
229.3457651727
 20
126.3793647221
 30
0.0
 11
228.632243217
 21
128.2627635782
 31
0.0
  0
LINE
  5
18B
330
1F
100
AcDbEntity
  8
0
  6
Continuous
 62
     7
370
    18
100
AcDbLine
 10
229.3457651727
 20
128.2627635782
 30
0.0
 11
229.3457651727
 21
126.3793647221
 31
0.0
  0
LINE
  5
18C
330
1F
100
AcDbEntity
  8
0
  6
Continuous
 62
     7
370
    18
100
AcDbLine
 10
230.2919981673
 20
128.2627635782
 30
0.0
 11
229.3457651727
 21
128.2627635782
 31
0.0
  0
SPLINE
  5
18D
330
1F
100
AcDbEntity
  8
0
  6
Continuous
 62
     7
370
    18
100
AcDbSpline
210
0.0
220
0.0
230
1.0
 70
     8
 71
     3
 72
    14
 73
    10
 74
     0
 42
0.000000001
 43
0.00000001
 40
0.0
 40
0.0
 40
0.0
 40
0.0
 40
0.1423816612635871
 40
0.2654010250778275
 40
0.3802085707899261
 40
0.4953201289099344
 40
0.6562432766114727
 40
0.826351586870184
 40
1.0
 40
1.0
 40
1.0
 40
1.0
 10
231.0229680323118
 20
127.7576592472221
 30
0.0
 10
231.0201441710682
 20
127.8057621579521
 30
0.0
 10
231.014880461809
 20
127.8954265269704
 30
0.0
 10
230.9642999933085
 20
128.015669747682
 30
0.0
 10
230.8870776997901
 20
128.1078710478727
 30
0.0
 10
230.7770728484664
 20
128.1823939713234
 30
0.0
 10
230.6345179618242
 20
128.233511683611
 30
0.0
 10
230.466212185811
 20
128.2609943366805
 30
0.0
 10
230.3504668327871
 20
128.2621697959783
 30
0.0
 10
230.291998167268
 20
128.2627635782314
 30
0.0
  0
SPLINE
  5
18E
330
1F
100
AcDbEntity
  8
0
  6
Continuous
 62
     7
370
    18
100
AcDbSpline
210
0.0
220
0.0
230
1.0
 70
     8
 71
     3
 72
    11
 73
     7
 74
     0
 42
0.000000001
 43
0.00000001
 40
0.0
 40
0.0
 40
0.0
 40
0.0
 40
0.2840562052455241
 40
0.5588619016419685
 40
0.7750993838285689
 40
1.0
 40
1.0
 40
1.0
 40
1.0
 10
230.7566255161286
 20
127.3513541542109
 30
0.0
 10
230.7985316881117
 20
127.3762087249763
 30
0.0
 10
230.8809793253489
 20
127.4251084582893
 30
0.0
 10
230.96491816566
 20
127.5304233889016
 30
0.0
 10
231.0145484323131
 20
127.6437654675833
 30
0.0
 10
231.0201249945329
 20
127.719200850345
 30
0.0
 10
231.0229680323118
 20
127.7576592472221
 30
0.0
  0
SPLINE
  5
18F
330
1F
100
AcDbEntity
  8
0
  6
Continuous
 62
     7
370
    18
100
AcDbSpline
210
0.0
220
0.0
230
1.0
 70
     8
 71
     3
 72
    11
 73
     7
 74
     0
 42
0.000000001
 43
0.00000001
 40
0.0
 40
0.0
 40
0.0
 40
0.0
 40
0.2849839497112118
 40
0.5578557580525029
 40
0.7738896021956493
 40
1.0
 40
1.0
 40
1.0
 40
1.0
 10
231.1026215313195
 20
126.9252350275463
 30
0.0
 10
231.0929238964303
 20
126.9802854589533
 30
0.0
 10
231.0739407871431
 20
127.0880466159406
 30
0.0
 10
230.9875835956237
 20
127.2159335744738
 30
0.0
 10
230.8792738973722
 20
127.3061661667564
 30
0.0
 10
230.7981247779719
 20
127.336064363147
 30
0.0
 10
230.7566255161286
 20
127.3513541542109
 30
0.0
  0
LINE
  5
190
330
1F
100
AcDbEntity
  8
0
  6
Continuous
 62
     7
370
    18
100
AcDbLine
 10
231.606371211
 20
126.9252350275
 30
0.0
 11
231.1026215313
 21
126.9252350275
 31
0.0
  0
SPLINE
  5
191
330
1F
100
AcDbEntity
  8
0
  6
Continuous
 62
     7
370
    18
100
AcDbSpline
210
0.0
220
0.0
230
1.0
 70
     8
 71
     3
 72
    12
 73
     8
 74
     0
 42
0.000000001
 43
0.00000001
 40
0.0
 40
0.0
 40
0.0
 40
0.0
 40
0.302984817518163
 40
0.5555954840373261
 40
0.6861253068640348
 40
0.8302562633026851
 40
1.0
 40
1.0
 40
1.0
 40
1.0
 10
231.9887802542941
 20
126.6120035128542
 30
0.0
 10
231.9319160557054
 20
126.6142722908848
 30
0.0
 10
231.8276418805237
 20
126.6184326406951
 30
0.0
 10
231.7067510829968
 20
126.6774350561324
 30
0.0
 10
231.6453863875071
 20
126.756385363082
 30
0.0
 10
231.6147379973167
 20
126.8349062539407
 30
0.0
 10
231.6093078434385
 20
126.8935308107149
 30
0.0
 10
231.6063712109852
 20
126.9252350275463
 30
0.0
  0
SPLINE
  5
192
330
1F
100
AcDbEntity
  8
0
  6
Continuous
 62
     7
370
    18
100
AcDbSpline
210
0.0
220
0.0
230
1.0
 70
     8
 71
     3
 72
    12
 73
     8
 74
     0
 42
0.000000001
 43
0.00000001
 40
0.0
 40
0.0
 40
0.0
 40
0.0
 40
0.122897780811347
 40
0.2361517003655397
 40
0.4654549568724357
 40
0.7229435422785273
 40
1.0
 40
1.0
 40
1.0
 40
1.0
 10
232.3118013826964
 20
126.8180550132353
 30
0.0
 10
232.3104801306299
 20
126.8005289044389
 30
0.0
 10
232.3079413059247
 20
126.7668519709278
 30
0.0
 10
232.2781309105318
 20
126.7061972859258
 30
0.0
 10
232.2088846126844
 20
126.6511860607561
 30
0.0
 10
232.1041154911084
 20
126.6177659256687
 30
0.0
 10
232.0281522516706
 20
126.6139706280957
 30
0.0
 10
231.9887802542941
 20
126.6120035128542
 30
0.0
  0
SPLINE
  5
193
330
1F
100
AcDbEntity
  8
0
  6
Continuous
 62
     7
370
    18
100
AcDbSpline
210
0.0
220
0.0
230
1.0
 70
     8
 71
     3
 72
    12
 73
     8
 74
     0
 42
0.000000001
 43
0.00000001
 40
0.0
 40
0.0
 40
0.0
 40
0.0
 40
0.3210306919457601
 40
0.6029592976098702
 40
0.8214028303124045
 40
0.910411712195422
 40
1.0
 40
1.0
 40
1.0
 40
1.0
 10
231.730963010567
 20
127.1114544322561
 30
0.0
 10
231.8023381062095
 20
127.0930616590518
 30
0.0
 10
231.9363946890073
 20
127.0585163838162
 30
0.0
 10
232.1179788631095
 20
127.0105416637142
 30
0.0
 10
232.2439607300835
 20
126.9534370242337
 30
0.0
 10
232.3044462007622
 20
126.8803718637411
 30
0.0
 10
232.3093443585082
 20
126.8388721745773
 30
0.0
 10
232.3118013826964
 20
126.8180550132353
 30
0.0
  0
SPLINE
  5
194
330
1F
100
AcDbEntity
  8
0
  6
Continuous
 62
     7
370
    18
100
AcDbSpline
210
0.0
220
0.0
230
1.0
 70
     8
 71
     3
 72
    12
 73
     8
 74
     0
 42
0.000000001
 43
0.00000001
 40
0.0
 40
0.0
 40
0.0
 40
0.0
 40
0.2059303301559959
 40
0.3857152088822396
 40
0.5622731912300376
 40
0.7785006333333759
 40
1.0
 40
1.0
 40
1.0
 40
1.0
 10
231.1388539392582
 20
127.6927804788693
 30
0.0
 10
231.1438227809826
 20
127.6303806329144
 30
0.0
 10
231.1531296073358
 20
127.513503388079
 30
0.0
 10
231.2419556370561
 20
127.3635689369528
 30
0.0
 10
231.3742232782403
 20
127.2508350426642
 30
0.0
 10
231.5413153252042
 20
127.1687751480928
 30
0.0
 10
231.6672415690302
 20
127.1307141381473
 30
0.0
 10
231.730963010567
 20
127.1114544322561
 30
0.0
  0
SPLINE
  5
195
330
1F
100
AcDbEntity
  8
0
  6
Continuous
 62
     7
370
    18
100
AcDbSpline
210
0.0
220
0.0
230
1.0
 70
     8
 71
     3
 72
    14
 73
    10
 74
     0
 42
0.000000001
 43
0.00000001
 40
0.0
 40
0.0
 40
0.0
 40
0.0
 40
0.1687571149027793
 40
0.3389805425085128
 40
0.5046286467510827
 40
0.6247827513896885
 40
0.7433698504427207
 40
0.8656643973442368
 40
1.0
 40
1.0
 40
1.0
 40
1.0
 10
231.9632766849973
 20
128.3050467621718
 30
0.0
 10
231.8987410986694
 20
128.3022185405207
 30
0.0
 10
231.7691091831372
 20
128.2965375231001
 30
0.0
 10
231.5806258467274
 20
128.2502337264203
 30
0.0
 10
231.4204944385887
 20
128.1783284956847
 30
0.0
 10
231.2962388533412
 20
128.0843345224415
 30
0.0
 10
231.2084159008503
 20
127.9763553594933
 30
0.0
 10
231.1491325409542
 20
127.842798228287
 30
0.0
 10
231.1423856607593
 20
127.7443264893907
 30
0.0
 10
231.1388539392582
 20
127.6927804788693
 30
0.0
  0
SPLINE
  5
196
330
1F
100
AcDbEntity
  8
0
  6
Continuous
 62
     7
370
    18
100
AcDbSpline
210
0.0
220
0.0
230
1.0
 70
     8
 71
     3
 72
    12
 73
     8
 74
     0
 42
0.000000001
 43
0.00000001
 40
0.0
 40
0.0
 40
0.0
 40
0.0
 40
0.199397448057449
 40
0.3779257523812738
 40
0.5550669356786573
 40
0.7731143074051413
 40
1.0
 40
1.0
 40
1.0
 40
1.0
 10
232.773647180798
 20
127.6561145825006
 30
0.0
 10
232.7662602868901
 20
127.7338664166073
 30
0.0
 10
232.7522596190526
 20
127.8812324972168
 30
0.0
 10
232.6321319216918
 20
128.0682489830313
 30
0.0
 10
232.4533150008878
 20
128.204011157401
 30
0.0
 10
232.2236023273661
 20
128.2895273975663
 30
0.0
 10
232.0511934974724
 20
128.2998055840253
 30
0.0
 10
231.9632766849973
 20
128.3050467621718
 30
0.0
  0
LINE
  5
197
330
1F
100
AcDbEntity
  8
0
  6
Continuous
 62
     7
370
    18
100
AcDbLine
 10
232.2466697461
 20
127.6561145825
 30
0.0
 11
232.7736471808
 21
127.6561145825
 31
0.0
  0
SPLINE
  5
198
330
1F
100
AcDbEntity
  8
0
  6
Continuous
 62
     7
370
    18
100
AcDbSpline
210
0.0
220
0.0
230
1.0
 70
     8
 71
     3
 72
    13
 73
     9
 74
     0
 42
0.000000001
 43
0.00000001
 40
0.0
 40
0.0
 40
0.0
 40
0.0
 40
0.2626041787201686
 40
0.5099839566452469
 40
0.62633863314315
 40
0.7414049134888261
 40
0.8625801387792146
 40
0.9999999999999999
 40
0.9999999999999999
 40
0.9999999999999999
 40
0.9999999999999999
 10
231.920758694824
 20
127.8987416691607
 30
0.0
 10
231.9611012524298
 20
127.8967216359587
 30
0.0
 10
232.0394475196115
 20
127.8927986803914
 30
0.0
 10
232.1321823331724
 20
127.8598781169986
 30
0.0
 10
232.1914319212261
 20
127.8153378687884
 30
0.0
 10
232.2248172919853
 20
127.7719175583827
 30
0.0
 10
232.2456720656364
 20
127.7172690511253
 30
0.0
 10
232.2463235442369
 20
127.6773355961001
 30
0.0
 10
232.2466697460928
 20
127.6561145825006
 30
0.0
  0
SPLINE
  5
199
330
1F
100
AcDbEntity
  8
0
  6
Continuous
 62
     7
370
    18
100
AcDbSpline
210
0.0
220
0.0
230
1.0
 70
     8
 71
     3
 72
    12
 73
     8
 74
     0
 42
0.000000001
 43
0.00000001
 40
0.0
 40
0.0
 40
0.0
 40
0.0
 40
0.1338350776842964
 40
0.2542572338768592
 40
0.4899325118164004
 40
0.74349166337979
 40
1.0
 40
1.0
 40
1.0
 40
1.0
 10
231.6659036220351
 20
127.726646762461
 30
0.0
 10
231.667011607534
 20
127.742023290677
 30
0.0
 10
231.6691165364735
 20
127.7712353148971
 30
0.0
 10
231.6939204921403
 20
127.8228919521846
 30
0.0
 10
231.7505150758714
 20
127.8682231861462
 30
0.0
 10
231.8330209902952
 20
127.8942669506152
 30
0.0
 10
231.8914002779272
 20
127.8972443579048
 30
0.0
 10
231.920758694824
 20
127.8987416691607
 30
0.0
  0
SPLINE
  5
19A
330
1F
100
AcDbEntity
  8
0
  6
Continuous
 62
     7
370
    18
100
AcDbSpline
210
0.0
220
0.0
230
1.0
 70
     8
 71
     3
 72
    12
 73
     8
 74
     0
 42
0.000000001
 43
0.00000001
 40
0.0
 40
0.0
 40
0.0
 40
0.0
 40
0.329592073708478
 40
0.617598018382155
 40
0.8358975487564541
 40
0.9197397490046709
 40
1.0
 40
1.0
 40
1.0
 40
1.0
 10
232.2523050956825
 20
127.4613518433168
 30
0.0
 10
232.1803081143989
 20
127.4795168822705
 30
0.0
 10
232.0453983379899
 20
127.5135549947026
 30
0.0
 10
231.8629164894134
 20
127.5579464098477
 30
0.0
 10
231.7372506038975
 20
127.6066659836373
 30
0.0
 10
231.6739145145446
 20
127.6708421472394
 30
0.0
 10
231.6685347774349
 20
127.7083178915517
 30
0.0
 10
231.6659036220351
 20
127.726646762461
 30
0.0
  0
SPLINE
  5
19B
330
1F
100
AcDbEntity
  8
0
  6
Continuous
 62
     7
370
    18
100
AcDbSpline
210
0.0
220
0.0
230
1.0
 70
     8
 71
     3
 72
    12
 73
     8
 74
     0
 42
0.000000001
 43
0.00000001
 40
0.0
 40
0.0
 40
0.0
 40
0.0
 40
0.2045378821184091
 40
0.3838943514216827
 40
0.5601975822227003
 40
0.7766167962242722
 40
1.0
 40
1.0
 40
1.0
 40
1.0
 10
232.8387788174016
 20
126.8801161067932
 30
0.0
 10
232.8339148585735
 20
126.9417426274007
 30
0.0
 10
232.8247857608225
 20
127.0574086004418
 30
0.0
 10
232.7381142013418
 20
127.2066264665502
 30
0.0
 10
232.6080389865681
 20
127.320258527811
 30
0.0
 10
232.4420909187606
 20
127.4038784370807
 30
0.0
 10
232.3162313386718
 20
127.4419928686954
 30
0.0
 10
232.2523050956825
 20
127.4613518433168
 30
0.0
  0
SPLINE
  5
19C
330
1F
100
AcDbEntity
  8
0
  6
Continuous
 62
     7
370
    18
100
AcDbSpline
210
0.0
220
0.0
230
1.0
 70
     8
 71
     3
 72
    13
 73
     9
 74
     0
 42
0.000000001
 43
0.00000001
 40
0.0
 40
0.0
 40
0.0
 40
0.0
 40
0.194398482939095
 40
0.3808229110812388
 40
0.557459869255474
 40
0.6939226743571312
 40
0.8373010797229363
 40
1.0
 40
1.0
 40
1.0
 40
1.0
 10
231.9575690873359
 20
126.1796710520268
 30
0.0
 10
232.039810614744
 20
126.1833482869107
 30
0.0
 10
232.2009201944372
 20
126.1905519197377
 30
0.0
 10
232.429683361812
 20
126.2553323297121
 30
0.0
 10
232.6154205836623
 20
126.3622333836647
 30
0.0
 10
232.7459758107449
 20
126.5074979861157
 30
0.0
 10
232.8256672755857
 20
126.6811182252396
 30
0.0
 10
232.8342281736453
 20
126.8110495942555
 30
0.0
 10
232.8387788174016
 20
126.8801161067932
 30
0.0
  0
SPLINE
  5
19D
330
1F
100
AcDbEntity
  8
0
  6
Continuous
 62
     7
370
    18
100
AcDbSpline
210
0.0
220
0.0
230
1.0
 70
     8
 71
     3
 72
    12
 73
     8
 74
     0
 42
0.000000001
 43
0.00000001
 40
0.0
 40
0.0
 40
0.0
 40
0.0
 40
0.1886637132768443
 40
0.366182560880491
 40
0.5448728808045992
 40
0.7656579321773181
 40
0.9999999999999999
 40
0.9999999999999999
 40
0.9999999999999999
 40
0.9999999999999999
 10
231.0965888173358
 20
126.7594257030813
 30
0.0
 10
231.116824405763
 20
126.6909094961106
 30
0.0
 10
231.1561002127665
 20
126.557924516145
 30
0.0
 10
231.2894062326743
 20
126.3961193345441
 30
0.0
 10
231.4699860862214
 20
126.2734900658554
 30
0.0
 10
231.6982775892453
 20
126.1939176497527
 30
0.0
 10
231.869439107091
 20
126.1845132947744
 30
0.0
 10
231.9575690873359
 20
126.1796710520268
 30
0.0
  0
LINE
  5
19E
330
1F
100
AcDbEntity
  8
0
  6
Continuous
 62
     7
370
    18
100
AcDbLine
 10
228.6651160896
 20
126.9219477403
 30
0.0
 11
228.4096830322
 21
127.7304939723
 31
0.0
  0
LINE
  5
19F
330
1F
100
AcDbEntity
  8
0
  6
Continuous
 62
     7
370
    18
100
AcDbLine
 10
228.4096830322
 20
127.7304939723
 30
0.0
 11
228.3273924786
 21
127.7304939723
 31
0.0
  0
LINE
  5
1A0
330
1F
100
AcDbEntity
  8
0
  6
Continuous
 62
     7
370
    18
100
AcDbLine
 10
228.3273924786
 20
127.7304939723
 30
0.0
 11
228.0631812805
 21
126.9219477403
 31
0.0
  0
LINE
  5
1A1
330
1F
100
AcDbEntity
  8
0
  6
Continuous
 62
     7
370
    18
100
AcDbLine
 10
228.0631812805
 20
126.9219477403
 30
0.0
 11
228.6651160896
 21
126.9219477403
 31
0.0
  0
LINE
  5
1A2
330
1F
100
AcDbEntity
  8
0
  6
Continuous
 62
     7
370
    18
100
AcDbLine
 10
229.8260342291
 20
127.392445245
 30
0.0
 11
230.2950687103
 21
127.392445245
 31
0.0
  0
SPLINE
  5
1A3
330
1F
100
AcDbEntity
  8
0
  6
Continuous
 62
     7
370
    18
100
AcDbSpline
210
0.0
220
0.0
230
1.0
 70
     8
 71
     3
 72
    12
 73
     8
 74
     0
 42
0.000000001
 43
0.00000001
 40
0.0
 40
0.0
 40
0.0
 40
0.0
 40
0.242466320512141
 40
0.5040777209641408
 40
0.6506173645415592
 40
0.8119564965868009
 40
1.0
 40
1.0
 40
1.0
 40
1.0
 10
230.2950687103136
 20
127.3924452449689
 30
0.0
 10
230.3265369088253
 20
127.3954382674363
 30
0.0
 10
230.3919580269219
 20
127.4016606406755
 30
0.0
 10
230.4675349420603
 20
127.4467405815273
 30
0.0
 10
230.5136685132541
 20
127.5049831932794
 30
0.0
 10
230.5385208245754
 20
127.5654789226594
 30
0.0
 10
230.5412370555665
 20
127.6108627503842
 30
0.0
 10
230.5426989759364
 20
127.6352890758439
 30
0.0
  0
SPLINE
  5
1A4
330
1F
100
AcDbEntity
  8
0
  6
Continuous
 62
     7
370
    18
100
AcDbSpline
210
0.0
220
0.0
230
1.0
 70
     8
 71
     3
 72
    12
 73
     8
 74
     0
 42
0.000000001
 43
0.00000001
 40
0.0
 40
0.0
 40
0.0
 40
0.0
 40
0.23250610395507
 40
0.4222580038951598
 40
0.5928278045028524
 40
0.7922143842709269
 40
1.0
 40
1.0
 40
1.0
 40
1.0
 10
230.5426989759364
 20
127.6352890758439
 30
0.0
 10
230.5408772793214
 20
127.6661589978758
 30
0.0
 10
230.537568867356
 20
127.7222223503463
 30
0.0
 10
230.5033565844897
 20
127.7950233456628
 30
0.0
 10
230.4486835981471
 20
127.8468029149422
 30
0.0
 10
230.3765079006345
 20
127.8770368812824
 30
0.0
 10
230.3225858700218
 20
127.8801543982019
 30
0.0
 10
230.2950687103136
 20
127.8817453103021
 30
0.0
  0
LINE
  5
1A5
330
1F
100
AcDbEntity
  8
0
  6
Continuous
 62
     7
370
    18
100
AcDbLine
 10
230.2950687103
 20
127.8817453103
 30
0.0
 11
229.8260342291
 21
127.8817453103
 31
0.0
  0
LINE
  5
1A6
330
1F
100
AcDbEntity
  8
0
  6
Continuous
 62
     7
370
    18
100
AcDbLine
 10
229.8260342291
 20
127.8817453103
 30
0.0
 11
229.8260342291
 21
127.392445245
 31
0.0
  0
LINE
  5
1A7
330
1F
100
AcDbEntity
  8
0
  6
Continuous
 62
     7
370
    18
100
AcDbLine
 10
229.8260342291
 20
126.5945556035
 30
0.0
 11
230.3470150738
 21
126.5945556035
 31
0.0
  0
SPLINE
  5
1A8
330
1F
100
AcDbEntity
  8
0
  6
Continuous
 62
     7
370
    18
100
AcDbSpline
210
0.0
220
0.0
230
1.0
 70
     8
 71
     3
 72
    12
 73
     8
 74
     0
 42
0.000000001
 43
0.00000001
 40
0.0
 40
0.0
 40
0.0
 40
0.0
 40
0.2382584506409018
 40
0.4976556531040064
 40
0.6448887038896378
 40
0.8084522641844554
 40
1.0
 40
1.0
 40
1.0
 40
1.0
 10
230.3470150738389
 20
126.5945556035478
 30
0.0
 10
230.3820076163389
 20
126.5980245594813
 30
0.0
 10
230.4550973075745
 20
126.6052702438465
 30
0.0
 10
230.538959023538
 20
126.6575896833555
 30
0.0
 10
230.5898745447944
 20
126.7245431826276
 30
0.0
 10
230.6173428009656
 20
126.7941827894321
 30
0.0
 10
230.6203389706781
 20
126.8463445826982
 30
0.0
 10
230.6219551105499
 20
126.8744807572036
 30
0.0
  0
SPLINE
  5
1A9
330
1F
100
AcDbEntity
  8
0
  6
Continuous
 62
     7
370
    18
100
AcDbSpline
210
0.0
220
0.0
230
1.0
 70
     8
 71
     3
 72
    12
 73
     8
 74
     0
 42
0.000000001
 43
0.00000001
 40
0.0
 40
0.0
 40
0.0
 40
0.0
 40
0.2366945835519308
 40
0.4286648826954234
 40
0.5991110185125298
 40
0.7959723284782185
 40
1.0
 40
1.0
 40
1.0
 40
1.0
 10
230.6219551105499
 20
126.8744807572036
 30
0.0
 10
230.6199416832544
 20
126.9100146393666
 30
0.0
 10
230.6162952729204
 20
126.9743681501251
 30
0.0
 10
230.5785702495255
 20
127.0580926263909
 30
0.0
 10
230.5180106146467
 20
127.1179136176071
 30
0.0
 10
230.4376681086588
 20
127.1530041026066
 30
0.0
 10
230.3775907366491
 20
127.1566143900737
 30
0.0
 10
230.3470150738389
 20
127.1584518028724
 30
0.0
  0
LINE
  5
1AA
330
1F
100
AcDbEntity
  8
0
  6
Continuous
 62
     7
370
    18
100
AcDbLine
 10
230.3470150738
 20
127.1584518029
 30
0.0
 11
229.8260342291
 21
127.1584518029
 31
0.0
  0
LINE
  5
1AB
330
1F
100
AcDbEntity
  8
0
  6
Continuous
 62
     7
370
    18
100
AcDbLine
 10
229.8260342291
 20
127.1584518029
 30
0.0
 11
229.8260342291
 21
126.5945556035
 31
0.0
  0
SPLINE
  5
1AC
330
1F
100
AcDbEntity
  8
0
  6
Continuous
 62
     7
370
    18
100
AcDbSpline
210
0.0
220
0.0
230
1.0
 70
     8
 71
     3
 72
    13
 73
     9
 74
     0
 42
0.000000001
 43
0.00000001
 40
0.0
 40
0.0
 40
0.0
 40
0.0
 40
0.5894795511906045
 40
0.8525979839264145
 40
0.9412877217975718
 40
0.9634735681078218
 40
0.9825903643577694
 40
0.9999999999999999
 40
0.9999999999999999
 40
0.9999999999999999
 40
0.9999999999999999
 10
231.9606757544174
 20
127.7648118063166
 30
0.0
 10
231.9229577110871
 20
127.7628838339585
 30
0.0
 10
231.8684039481345
 20
127.760095297287
 30
0.0
 10
231.8098754804338
 20
127.7456951707922
 30
0.0
 10
231.7880348267733
 20
127.7348757080738
 30
0.0
 10
231.7821916705366
 20
127.7289519681268
 30
0.0
 10
231.7801409040393
 20
127.7256971830615
 30
0.0
 10
231.7798629435634
 20
127.7233556687666
 30
0.0
 10
231.7797304589391
 20
127.7222396300895
 30
0.0
  0
SPLINE
  5
1AD
330
1F
100
AcDbEntity
  8
0
  6
Continuous
 62
     7
370
    18
100
AcDbSpline
210
0.0
220
0.0
230
1.0
 70
     8
 71
     3
 72
    12
 73
     8
 74
     0
 42
0.000000001
 43
0.00000001
 40
0.0
 40
0.0
 40
0.0
 40
0.0
 40
0.1687932262470748
 40
0.3139712558223809
 40
0.4643534436981299
 40
0.6895611553267806
 40
1.0
 40
1.0
 40
1.0
 40
1.0
 10
232.1309644593256
 20
127.6637186920431
 30
0.0
 10
232.1285046520722
 20
127.6759492572103
 30
0.0
 10
232.1239291795274
 20
127.6986992572568
 30
0.0
 10
232.105369612577
 20
127.7285676315497
 30
0.0
 10
232.0725749056557
 20
127.7501013826519
 30
0.0
 10
232.0228270414431
 20
127.7618593165205
 30
0.0
 10
231.9834798043596
 20
127.763728502527
 30
0.0
 10
231.9606757544174
 20
127.7648118063166
 30
0.0
  0
SPLINE
  5
1AE
330
1F
100
AcDbEntity
  8
0
  6
Continuous
 62
     7
370
    18
100
AcDbSpline
210
0.0
220
0.0
230
1.0
 70
     8
 71
     3
 72
     9
 73
     5
 74
     0
 42
0.000000001
 43
0.00000001
 40
0.0
 40
0.0
 40
0.0
 40
0.0
 40
0.5915228225857656
 40
1.0
 40
1.0
 40
1.0
 40
1.0
 10
232.1362746925927
 20
127.5795858125922
 30
0.0
 10
232.1363458789604
 20
127.5962550782537
 30
0.0
 10
232.1364662232056
 20
127.6244353360984
 30
0.0
 10
232.1325600442712
 20
127.6523259945873
 30
0.0
 10
232.1309644593256
 20
127.6637186920431
 30
0.0
  0
SPLINE
  5
1AF
330
1F
100
AcDbEntity
  8
0
  6
Continuous
 62
     7
370
    18
100
AcDbSpline
210
0.0
220
0.0
230
1.0
 70
     8
 71
     3
 72
    13
 73
     9
 74
     0
 42
0.000000001
 43
0.00000001
 40
0.0
 40
0.0
 40
0.0
 40
0.0
 40
0.051895800271398
 40
0.1049388400652588
 40
0.1730026251899426
 40
0.2659228894279214
 40
0.5508780002890648
 40
1.0
 40
1.0
 40
1.0
 40
1.0
 10
231.7797304589391
 20
127.7222396300895
 30
0.0
 10
231.7803626933672
 20
127.7152201815397
 30
0.0
 10
231.7816411387749
 20
127.7010261083224
 30
0.0
 10
231.7966217818457
 20
127.6821124191904
 30
0.0
 10
231.8210799360674
 20
127.6671191075572
 30
0.0
 10
231.8764705576224
 20
127.6451611734032
 30
0.0
 10
231.9833527313865
 20
127.6177059528614
 30
0.0
 10
232.0782281504514
 20
127.5940555611562
 30
0.0
 10
232.1362746925927
 20
127.5795858125922
 30
0.0
  0
LINE
  5
1B0
330
1F
100
AcDbEntity
  8
0
  6
Continuous
 62
     7
370
    18
100
AcDbLine
 10
226.6548496196
 20
128.3736824303
 30
0.0
 11
225.8942219211
 21
128.3736824303
 31
0.0
  0
LINE
  5
1B1
330
1F
100
AcDbEntity
  8
0
  6
Continuous
 62
     7
370
    18
100
AcDbLine
 10
226.6548496196
 20
126.7787015425
 30
0.0
 11
226.6548496196
 21
128.3736824303
 31
0.0
  0
LINE
  5
1B2
330
1F
100
AcDbEntity
  8
0
  6
Continuous
 62
     7
370
    18
100
AcDbLine
 10
227.4211463974
 20
126.7787015425
 30
0.0
 11
226.6548496196
 21
126.7787015425
 31
0.0
  0
LINE
  5
1B3
330
1F
100
AcDbEntity
  8
0
  6
Continuous
 62
     7
370
    18
100
AcDbLine
 10
228.0331355323
 20
128.3736824303
 30
0.0
 11
227.4211463974
 21
126.7787015425
 31
0.0
  0
LINE
  5
1B4
330
1F
100
AcDbEntity
  8
0
  6
Continuous
 62
     7
370
    18
100
AcDbLine
 10
228.7244278271
 20
128.3736824303
 30
0.0
 11
228.0331355323
 21
128.3736824303
 31
0.0
  0
LINE
  5
1B5
330
1F
100
AcDbEntity
  8
0
  6
Continuous
 62
     7
370
    18
100
AcDbLine
 10
229.2411460357
 20
126.9794210813
 30
0.0
 11
228.7244278271
 21
128.3736824303
 31
0.0
  0
LINE
  5
1B6
330
1F
100
AcDbEntity
  8
0
  6
Continuous
 62
     7
370
    18
100
AcDbLine
 10
229.2411460357
 20
128.3736824303
 30
0.0
 11
229.2411460357
 21
126.9794210813
 31
0.0
  0
LINE
  5
1B7
330
1F
100
AcDbEntity
  8
0
  6
Continuous
 62
     7
370
    18
100
AcDbLine
 10
230.2292361491
 20
128.3736824303
 30
0.0
 11
229.2411460357
 21
128.3736824303
 31
0.0
  0
SPLINE
  5
1B8
330
1F
100
AcDbEntity
  8
0
  6
Continuous
 62
     7
370
    18
100
AcDbSpline
210
0.0
220
0.0
230
1.0
 70
     8
 71
     3
 72
    13
 73
     9
 74
     0
 42
0.000000001
 43
0.00000001
 40
0.0
 40
0.0
 40
0.0
 40
0.0
 40
0.1129894123230108
 40
0.2349035042068357
 40
0.3805358024040082
 40
0.531042942179747
 40
0.7319137862307443
 40
1.0
 40
1.0
 40
1.0
 40
1.0
 10
231.0983804512123
 20
127.9692196630673
 30
0.0
 10
231.0813581137831
 20
128.0040612008375
 30
0.0
 10
231.0459688978408
 20
128.0764963002498
 30
0.0
 10
230.9729159741647
 20
128.186525371498
 30
0.0
 10
230.8546586471545
 20
128.2734688839978
 30
0.0
 10
230.6932180146833
 20
128.3322496943185
 30
0.0
 10
230.482537850149
 20
128.3683056274504
 30
0.0
 10
230.3213700801726
 20
128.371726715084
 30
0.0
 10
230.2292361491142
 20
128.3736824302511
 30
0.0
  0
SPLINE
  5
1B9
330
1F
100
AcDbEntity
  8
0
  6
Continuous
 62
     7
370
    18
100
AcDbSpline
210
0.0
220
0.0
230
1.0
 70
     8
 71
     3
 72
    12
 73
     8
 74
     0
 42
0.000000001
 43
0.00000001
 40
0.0
 40
0.0
 40
0.0
 40
0.0
 40
0.2577824677168419
 40
0.4746472252827228
 40
0.6603530347935904
 40
0.8468286435267813
 40
1.0
 40
1.0
 40
1.0
 40
1.0
 10
231.9551342090202
 20
128.3949594873556
 30
0.0
 10
231.8688728098494
 20
128.3908873911882
 30
0.0
 10
231.7100422496175
 20
128.3833895610833
 30
0.0
 10
231.4967036551549
 20
128.3187351403031
 30
0.0
 10
231.3235372868562
 20
128.2236302236261
 30
0.0
 10
231.1887250714827
 20
128.1074532934381
 30
0.0
 10
231.1264601865389
 20
128.012183635271
 30
0.0
 10
231.0983804512123
 20
127.9692196630673
 30
0.0
  0
SPLINE
  5
1BA
330
1F
100
AcDbEntity
  8
0
  6
Continuous
 62
     7
370
    18
100
AcDbSpline
210
0.0
220
0.0
230
1.0
 70
     8
 71
     3
 72
    15
 73
    11
 74
     0
 42
0.000000001
 43
0.00000001
 40
0.0
 40
0.0
 40
0.0
 40
0.0
 40
0.1009667219583008
 40
0.2110426783902179
 40
0.3263227887254702
 40
0.4481367482187074
 40
0.5538549368465843
 40
0.6756292865222507
 40
0.8215985201030975
 40
1.0
 40
1.0
 40
1.0
 40
1.0
 10
232.8864841008196
 20
127.5474534827204
 30
0.0
 10
232.885615054238
 20
127.5962814939835
 30
0.0
 10
232.8837985555476
 20
127.6983427878192
 30
0.0
 10
232.8595074601889
 20
127.8548920047157
 30
0.0
 10
232.8034628171647
 20
128.0145302779868
 30
0.0
 10
232.7074526034261
 20
128.1527238181891
 30
0.0
 10
232.5749502852527
 20
128.2601999072457
 30
0.0
 10
232.4099345946927
 20
128.336982405235
 30
0.0
 10
232.1985044897304
 20
128.3868887914217
 30
0.0
 10
232.0414906519854
 20
128.3920957170092
 30
0.0
 10
231.9551342090202
 20
128.3949594873556
 30
0.0
  0
LINE
  5
1BB
330
1F
100
AcDbEntity
  8
0
  6
Continuous
 62
     7
370
    18
100
AcDbLine
 10
232.2699528234
 20
127.5474534827
 30
0.0
 11
232.8864841008
 21
127.5474534827
 31
0.0
  0
SPLINE
  5
1BC
330
1F
100
AcDbEntity
  8
0
  6
Continuous
 62
     7
370
    18
100
AcDbSpline
210
0.0
220
0.0
230
1.0
 70
     8
 71
     3
 72
     9
 73
     5
 74
     0
 42
0.000000001
 43
0.00000001
 40
0.0
 40
0.0
 40
0.0
 40
0.0
 40
0.5581053349214891
 40
1.0
 40
1.0
 40
1.0
 40
1.0
 10
232.285305538634
 20
127.5434437147432
 30
0.0
 10
232.2824527442977
 20
127.5442025170535
 30
0.0
 10
232.2773411745673
 20
127.5455621211692
 30
0.0
 10
232.2722171170751
 20
127.5468738408093
 30
0.0
 10
232.2699528234057
 20
127.5474534827204
 30
0.0
  0
SPLINE
  5
1BD
330
1F
100
AcDbEntity
  8
0
  6
Continuous
 62
     7
370
    18
100
AcDbSpline
210
0.0
220
0.0
230
1.0
 70
     8
 71
     3
 72
    12
 73
     8
 74
     0
 42
0.000000001
 43
0.00000001
 40
0.0
 40
0.0
 40
0.0
 40
0.0
 40
0.2081936773952728
 40
0.3823854809342384
 40
0.5475549960392787
 40
0.7576294387459006
 40
1.0
 40
1.0
 40
1.0
 40
1.0
 10
232.9290384186137
 20
126.8249556976986
 30
0.0
 10
232.9267189370282
 20
126.8989262214211
 30
0.0
 10
232.9224587880521
 20
127.0347865157511
 30
0.0
 10
232.8470374761434
 20
127.2180725371395
 30
0.0
 10
232.7130564339329
 20
127.3629569068055
 30
0.0
 10
232.5199643592856
 20
127.4707812033276
 30
0.0
 10
232.3671609156749
 20
127.5180970550602
 30
0.0
 10
232.285305538634
 20
127.5434437147432
 30
0.0
  0
SPLINE
  5
1BE
330
1F
100
AcDbEntity
  8
0
  6
Continuous
 62
     7
370
    18
100
AcDbSpline
210
0.0
220
0.0
230
1.0
 70
     8
 71
     3
 72
    13
 73
     9
 74
     0
 42
0.000000001
 43
0.00000001
 40
0.0
 40
0.0
 40
0.0
 40
0.0
 40
0.2144903110109677
 40
0.4108455396423898
 40
0.5926499974110345
 40
0.7287207904635501
 40
0.8627130606487936
 40
1.0
 40
1.0
 40
1.0
 40
1.0
 10
231.9883480870034
 20
126.0546436554773
 30
0.0
 10
232.0851032027323
 20
126.0613175974069
 30
0.0
 10
232.2704328222731
 20
126.0741012017602
 30
0.0
 10
232.5228082998765
 20
126.1716407099337
 30
0.0
 10
232.7131365073171
 20
126.3086766359157
 30
0.0
 10
232.8398690642938
 20
126.4698577249249
 30
0.0
 10
232.9159894173955
 20
126.6403449344849
 30
0.0
 10
232.9246536759136
 20
126.7629225441397
 30
0.0
 10
232.9290384186137
 20
126.8249556976986
 30
0.0
  0
SPLINE
  5
1BF
330
1F
100
AcDbEntity
  8
0
  6
Continuous
 62
     7
370
    18
100
AcDbSpline
210
0.0
220
0.0
230
1.0
 70
     8
 71
     3
 72
    12
 73
     8
 74
     0
 42
0.000000001
 43
0.00000001
 40
0.0
 40
0.0
 40
0.0
 40
0.0
 40
0.1266166298736466
 40
0.2732454724470848
 40
0.4461934828620915
 40
0.6934352669522346
 40
1.0
 40
1.0
 40
1.0
 40
1.0
 10
231.0946934416743
 20
126.4920355898589
 30
0.0
 10
231.1138176376388
 20
126.4517085268454
 30
0.0
 10
231.1550886773648
 20
126.3646805638004
 30
0.0
 10
231.2702511303661
 20
126.2545202206312
 30
0.0
 10
231.4413605558842
 20
126.1523177015095
 30
0.0
 10
231.6869401522582
 20
126.0741994380856
 30
0.0
 10
231.8809513753702
 20
126.0616117094117
 30
0.0
 10
231.9883480870034
 20
126.0546436554773
 30
0.0
  0
SPLINE
  5
1C0
330
1F
100
AcDbEntity
  8
0
  6
Continuous
 62
     7
370
    18
100
AcDbSpline
210
0.0
220
0.0
230
1.0
 70
     8
 71
     3
 72
    11
 73
     7
 74
     0
 42
0.000000001
 43
0.00000001
 40
0.0
 40
0.0
 40
0.0
 40
0.0
 40
0.3104248435957513
 40
0.6000686931456358
 40
0.8080123835287415
 40
1.0
 40
1.0
 40
1.0
 40
1.0
 10
230.4336235859638
 20
126.1373336820326
 30
0.0
 10
230.5153161488217
 20
126.1445250510522
 30
0.0
 10
230.6732324704215
 20
126.1584263720918
 30
0.0
 10
230.8702940647548
 20
126.2441405195456
 30
0.0
 10
231.0184446963309
 20
126.3547961695964
 30
0.0
 10
231.0699623268197
 20
126.4475222821342
 30
0.0
 10
231.0946934416743
 20
126.4920355898589
 30
0.0
  0
LINE
  5
1C1
330
1F
100
AcDbEntity
  8
0
  6
Continuous
 62
     7
370
    18
100
AcDbLine
 10
228.7620071644
 20
126.137333682
 30
0.0
 11
230.433623586
 21
126.137333682
 31
0.0
  0
LINE
  5
1C2
330
1F
100
AcDbEntity
  8
0
  6
Continuous
 62
     7
370
    18
100
AcDbLine
 10
228.6342725737
 20
126.4672906253
 30
0.0
 11
228.7620071644
 21
126.137333682
 31
0.0
  0
LINE
  5
1C3
330
1F
100
AcDbEntity
  8
0
  6
Continuous
 62
     7
370
    18
100
AcDbLine
 10
228.0915089354
 20
126.4672906253
 30
0.0
 11
228.6342725737
 21
126.4672906253
 31
0.0
  0
LINE
  5
1C4
330
1F
100
AcDbEntity
  8
0
  6
Continuous
 62
     7
370
    18
100
AcDbLine
 10
227.9583918633
 20
126.137333682
 30
0.0
 11
228.0915089354
 21
126.4672906253
 31
0.0
  0
LINE
  5
1C5
330
1F
100
AcDbEntity
  8
0
  6
Continuous
 62
     7
370
    18
100
AcDbLine
 10
225.349864889
 20
126.137333682
 30
0.0
 11
227.9583918633
 21
126.137333682
 31
0.0
  0
SPLINE
  5
1C6
330
1F
100
AcDbEntity
  8
0
  6
Continuous
 62
     7
370
    18
100
AcDbSpline
210
0.0
220
0.0
230
1.0
 70
     8
 71
     3
 72
    11
 73
     7
 74
     0
 42
0.000000001
 43
0.00000001
 40
0.0
 40
0.0
 40
0.0
 40
0.0
 40
0.2274736611129818
 40
0.5494925387673861
 40
0.8007169048877155
 40
1.0
 40
1.0
 40
1.0
 40
1.0
 10
225.2837940274764
 20
126.4947448925463
 30
0.0
 10
225.2859599597738
 20
126.4670862119897
 30
0.0
 10
225.2911920540352
 20
126.4002730322851
 30
0.0
 10
225.3020364836679
 20
126.303484457077
 30
0.0
 10
225.316738542938
 20
126.2096464703743
 30
0.0
 10
225.3397054296122
 20
126.1595111608159
 30
0.0
 10
225.3498648890117
 20
126.1373336820326
 30
0.0
  0
SPLINE
  5
1C7
330
1F
100
AcDbEntity
  8
0
  6
Continuous
 62
     7
370
    18
100
AcDbSpline
210
0.0
220
0.0
230
1.0
 70
     8
 71
     3
 72
    13
 73
     9
 74
     0
 42
0.000000001
 43
0.00000001
 40
0.0
 40
0.0
 40
0.0
 40
0.0
 40
0.1455849753971025
 40
0.2684075940997144
 40
0.3810001390981613
 40
0.4935379506791351
 40
0.7360826269615445
 40
1.0
 40
1.0
 40
1.0
 40
1.0
 10
224.9564922008281
 20
126.9525447986347
 30
0.0
 10
224.9874928461192
 20
126.9508926790703
 30
0.0
 10
225.0446471547657
 20
126.9478467504896
 30
0.0
 10
225.1211106057303
 20
126.9172133181025
 30
0.0
 10
225.1788600468172
 20
126.8695668144327
 30
0.0
 10
225.2346071415431
 20
126.7862149165321
 30
0.0
 10
225.270487679295
 20
126.6574719039832
 30
0.0
 10
225.2792355250621
 20
126.550492079107
 30
0.0
 10
225.2837940274764
 20
126.4947448925463
 30
0.0
  0
LINE
  5
1C8
330
1F
100
AcDbEntity
  8
0
  6
Continuous
 62
     7
370
    18
100
AcDbLine
 10
224.5125639245
 20
126.9525447986
 30
0.0
 11
224.9564922008
 21
126.9525447986
 31
0.0
  0
LINE
  5
1C9
330
1F
100
AcDbEntity
  8
0
  6
Continuous
 62
     7
370
    18
100
AcDbLine
 10
224.5125639245
 20
126.137333682
 30
0.0
 11
224.5125639245
 21
126.9525447986
 31
0.0
  0
LINE
  5
1CA
330
1F
100
AcDbEntity
  8
0
  6
Continuous
 62
     7
370
    18
100
AcDbLine
 10
223.927051425
 20
126.137333682
 30
0.0
 11
224.5125639245
 21
126.137333682
 31
0.0
  0
LINE
  5
1CB
330
1F
100
AcDbEntity
  8
0
  6
Continuous
 62
     7
370
    18
100
AcDbLine
 10
223.927051425
 20
128.3736824303
 30
0.0
 11
223.927051425
 21
126.137333682
 31
0.0
  0
LINE
  5
1CC
330
1F
100
AcDbEntity
  8
0
  6
Continuous
 62
     7
370
    18
100
AcDbLine
 10
225.0729058416
 20
128.3736824303
 30
0.0
 11
223.927051425
 21
128.3736824303
 31
0.0
  0
SPLINE
  5
1CD
330
1F
100
AcDbEntity
  8
0
  6
Continuous
 62
     7
370
    18
100
AcDbSpline
210
0.0
220
0.0
230
1.0
 70
     8
 71
     3
 72
    12
 73
     8
 74
     0
 42
0.000000001
 43
0.00000001
 40
0.0
 40
0.0
 40
0.0
 40
0.0
 40
0.2016496499628992
 40
0.3794039236986314
 40
0.5547793395586205
 40
0.7718110801448022
 40
1.0
 40
1.0
 40
1.0
 40
1.0
 10
225.8598679621738
 20
127.74355281123
 30
0.0
 10
225.853372724855
 20
127.820291590616
 30
0.0
 10
225.8411519323839
 20
127.9646756448618
 30
0.0
 10
225.7258404462375
 20
128.148249591071
 30
0.0
 10
225.551754800449
 20
128.279322759858
 30
0.0
 10
225.3273323748842
 20
128.3596724267385
 30
0.0
 10
225.1591198152463
 20
128.3689350556038
 30
0.0
 10
225.0729058415916
 20
128.3736824302511
 30
0.0
  0
SPLINE
  5
1CE
330
1F
100
AcDbEntity
  8
0
  6
Continuous
 62
     7
370
    18
100
AcDbSpline
210
0.0
220
0.0
230
1.0
 70
     8
 71
     3
 72
    11
 73
     7
 74
     0
 42
0.000000001
 43
0.00000001
 40
0.0
 40
0.0
 40
0.0
 40
0.0
 40
0.285264835019694
 40
0.558603774702954
 40
0.7765581993729914
 40
1.0
 40
1.0
 40
1.0
 40
1.0
 10
225.5072612484257
 20
127.1823659145926
 30
0.0
 10
225.5675531451664
 20
127.2133482437207
 30
0.0
 10
225.6856163515935
 20
127.2740176423827
 30
0.0
 10
225.7931063349121
 20
127.4282055849295
 30
0.0
 10
225.8504725096565
 20
127.5872186022439
 30
0.0
 10
225.8567102955748
 20
127.6910112961641
 30
0.0
 10
225.8598679621738
 20
127.74355281123
 30
0.0
  0
LINE
  5
1CF
330
1F
100
AcDbEntity
  8
0
  6
Continuous
 62
     7
370
    18
100
AcDbLine
 10
225.5072612484
 20
127.1760803324
 30
0.0
 11
225.5072612484
 21
127.1823659146
 31
0.0
  0
SPLINE
  5
1D0
330
1F
100
AcDbEntity
  8
0
  6
Continuous
 62
     7
370
    18
100
AcDbSpline
210
0.0
220
0.0
230
1.0
 70
     8
 71
     3
 72
    11
 73
     7
 74
     0
 42
0.000000001
 43
0.00000001
 40
0.0
 40
0.0
 40
0.0
 40
0.0
 40
0.2808304286447826
 40
0.5635450978390039
 40
0.7771991270060421
 40
1.0
 40
1.0
 40
1.0
 40
1.0
 10
225.8347256332352
 20
126.6399273925614
 30
0.0
 10
225.8270057383055
 20
126.7023908745853
 30
0.0
 10
225.8115141515694
 20
126.8277369393206
 30
0.0
 10
225.7502281463541
 20
126.9919259500306
 30
0.0
 10
225.6479119427066
 20
127.1236258059741
 30
0.0
 10
225.554795299175
 20
127.1583528968056
 30
0.0
 10
225.5072612484257
 20
127.1760803323677
 30
0.0
  0
SPLINE
  5
1D1
330
1F
100
AcDbEntity
  8
0
  6
Continuous
 62
     7
370
    18
100
AcDbSpline
210
0.0
220
0.0
230
1.0
 70
     8
 71
     3
 72
    11
 73
     7
 74
     0
 42
0.000000001
 43
0.00000001
 40
0.0
 40
0.0
 40
0.0
 40
0.0
 40
0.3074360073852221
 40
0.6261968550908508
 40
0.8442166228013986
 40
0.9999999999999999
 40
0.9999999999999999
 40
0.9999999999999999
 40
0.9999999999999999
 10
225.8929083503055
 20
126.2398069602649
 30
0.0
 10
225.8830675877487
 20
126.2801534827553
 30
0.0
 10
225.8630235642225
 20
126.3623327489778
 30
0.0
 10
225.8495951033592
 20
126.4756764015197
 30
0.0
 10
225.8408005451985
 20
126.5687062400375
 30
0.0
 10
225.8365126316997
 20
126.6189769506506
 30
0.0
 10
225.8347256332352
 20
126.6399273925614
 30
0.0
  0
LINE
  5
1D2
330
1F
100
AcDbEntity
  8
0
  6
Continuous
 62
     7
370
    18
100
AcDbLine
 10
225.8942219211
 20
128.3736824303
 30
0.0
 11
225.8929083503
 21
126.2398069603
 31
0.0
  0
SPLINE
  5
1D3
330
1F
100
AcDbEntity
  8
0
  6
Continuous
 62
     7
370
    18
100
AcDbSpline
210
0.0
220
0.0
230
1.0
 70
     8
 71
     3
 72
    12
 73
     8
 74
     0
 42
0.000000001
 43
0.00000001
 40
0.0
 40
0.0
 40
0.0
 40
0.0
 40
0.2554031448979543
 40
0.5239992272002586
 40
0.6685053607654261
 40
0.822947353711822
 40
1.0
 40
1.0
 40
1.0
 40
1.0
 10
230.3171766202423
 20
126.6906094148229
 30
0.0
 10
230.3433070220806
 20
126.6927942656626
 30
0.0
 10
230.3969176006629
 20
126.6972768265644
 30
0.0
 10
230.4599223505641
 20
126.7299577713484
 30
0.0
 10
230.4990436668528
 20
126.7734391345971
 30
0.0
 10
230.5200725256968
 20
126.8184931722111
 30
0.0
 10
230.5223885088939
 20
126.8525160010366
 30
0.0
 10
230.5236254850174
 20
126.8706877334413
 30
0.0
  0
LINE
  5
1D4
330
1F
100
AcDbEntity
  8
0
  6
Continuous
 62
     7
370
    18
100
AcDbLine
 10
229.9259894362
 20
126.6906094148
 30
0.0
 11
230.3171766202
 21
126.6906094148
 31
0.0
  0
LINE
  5
1D5
330
1F
100
AcDbEntity
  8
0
  6
Continuous
 62
     7
370
    18
100
AcDbLine
 10
229.9259894362
 20
127.0534392307
 30
0.0
 11
229.9259894362
 21
126.6906094148
 31
0.0
  0
LINE
  5
1D6
330
1F
100
AcDbEntity
  8
0
  6
Continuous
 62
     7
370
    18
100
AcDbLine
 10
230.3171766202
 20
127.0534392307
 30
0.0
 11
229.9259894362
 21
127.0534392307
 31
0.0
  0
SPLINE
  5
1D7
330
1F
100
AcDbEntity
  8
0
  6
Continuous
 62
     7
370
    18
100
AcDbSpline
210
0.0
220
0.0
230
1.0
 70
     8
 71
     3
 72
    12
 73
     8
 74
     0
 42
0.000000001
 43
0.00000001
 40
0.0
 40
0.0
 40
0.0
 40
0.0
 40
0.2191709004622778
 40
0.4020322727962852
 40
0.5732124609680136
 40
0.7805893411712348
 40
1.0
 40
1.0
 40
1.0
 40
1.0
 10
230.5236254850174
 20
126.8706877334413
 30
0.0
 10
230.5220777983706
 20
126.8936690887035
 30
0.0
 10
230.5192388266874
 20
126.9358245320972
 30
0.0
 10
230.4900624408932
 20
126.9900814519193
 30
0.0
 10
230.4442530358359
 20
127.0280528650058
 30
0.0
 10
230.3845857932138
 20
127.0499864708231
 30
0.0
 10
230.3400647853622
 20
127.0522668778258
 30
0.0
 10
230.3171766202423
 20
127.0534392307112
 30
0.0
  0
SPLINE
  5
1D8
330
1F
100
AcDbEntity
  8
0
  6
Continuous
 62
     7
370
    18
100
AcDbSpline
210
0.0
220
0.0
230
1.0
 70
     8
 71
     3
 72
    12
 73
     8
 74
     0
 42
0.000000001
 43
0.00000001
 40
0.0
 40
0.0
 40
0.0
 40
0.0
 40
0.2631780919768604
 40
0.5362228315034394
 40
0.6796343489711612
 40
0.8298665817545476
 40
1.0
 40
1.0
 40
1.0
 40
1.0
 10
230.2561269996876
 20
127.4919850257017
 30
0.0
 10
230.2779498275238
 20
127.4936776049513
 30
0.0
 10
230.3224136293768
 20
127.4971262188954
 30
0.0
 10
230.3750672061996
 20
127.5222251944551
 30
0.0
 10
230.4081111450961
 20
127.5561638766397
 30
0.0
 10
230.4258882718412
 20
127.5913054656609
 30
0.0
 10
230.4278607556157
 20
127.6179921259599
 30
0.0
 10
230.4289082630681
 20
127.6321643467445
 30
0.0
  0
LINE
  5
1D9
330
1F
100
AcDbEntity
  8
0
  6
Continuous
 62
     7
370
    18
100
AcDbLine
 10
229.9286987389
 20
127.4919850257
 30
0.0
 11
230.2561269997
 21
127.4919850257
 31
0.0
  0
LINE
  5
1DA
330
1F
100
AcDbEntity
  8
0
  6
Continuous
 62
     7
370
    18
100
AcDbLine
 10
229.9286987389
 20
127.7744027378
 30
0.0
 11
229.9286987389
 21
127.4919850257
 31
0.0
  0
LINE
  5
1DB
330
1F
100
AcDbEntity
  8
0
  6
Continuous
 62
     7
370
    18
100
AcDbLine
 10
230.2561269997
 20
127.7744027378
 30
0.0
 11
229.9286987389
 21
127.7744027378
 31
0.0
  0
SPLINE
  5
1DC
330
1F
100
AcDbEntity
  8
0
  6
Continuous
 62
     7
370
    18
100
AcDbSpline
210
0.0
220
0.0
230
1.0
 70
     8
 71
     3
 72
    12
 73
     8
 74
     0
 42
0.000000001
 43
0.00000001
 40
0.0
 40
0.0
 40
0.0
 40
0.0
 40
0.2108655154368313
 40
0.3895958229608272
 40
0.5613353297982684
 40
0.7736399301224668
 40
1.0
 40
1.0
 40
1.0
 40
1.0
 10
230.4289082630681
 20
127.6321643467445
 30
0.0
 10
230.4275919328582
 20
127.6501052675102
 30
0.0
 10
230.4251598768135
 20
127.6832529719886
 30
0.0
 10
230.4003846862336
 20
127.7255695012765
 30
0.0
 10
230.3619974913849
 20
127.7548655531047
 30
0.0
 10
230.312323040795
 20
127.7717296598416
 30
0.0
 10
230.2752549193352
 20
127.7734928797693
 30
0.0
 10
230.2561269996876
 20
127.7744027378298
 30
0.0
  0
LINE
  5
1DD
330
1F
100
AcDbEntity
  8
0
  6
Continuous
 62
     7
370
    18
100
AcDbLine
 10
228.2050403692
 20
127.0297418632
 30
0.0
 11
228.5158154495
 21
127.0297418632
 31
0.0
  0
LINE
  5
1DE
330
1F
100
AcDbEntity
  8
0
  6
Continuous
 62
     7
370
    18
100
AcDbLine
 10
228.363046902
 20
127.517524719
 30
0.0
 11
228.2050403692
 21
127.0297418632
 31
0.0
  0
LINE
  5
1DF
330
1F
100
AcDbEntity
  8
0
  6
Continuous
 62
     7
370
    18
100
AcDbLine
 10
228.5158154495
 20
127.0297418632
 30
0.0
 11
228.363046902
 21
127.517524719
 31
0.0
  0
SPLINE
  5
1E0
330
1F
100
AcDbEntity
  8
0
  6
Continuous
 62
     7
370
    18
100
AcDbSpline
210
0.0
220
0.0
230
1.0
 70
     8
 71
     3
 72
    11
 73
     7
 74
     0
 42
0.000000001
 43
0.00000001
 40
0.0
 40
0.0
 40
0.0
 40
0.0
 40
0.2800359244938579
 40
0.5600382743760569
 40
0.7801217300908261
 40
1.0
 40
1.0
 40
1.0
 40
1.0
 10
233.4577742949078
 20
123.2961493780553
 30
0.0
 10
233.5166211951144
 20
123.3334066205413
 30
0.0
 10
233.6343079401406
 20
123.4079166385953
 30
0.0
 10
233.773517222059
 20
123.5436390909501
 30
0.0
 10
233.8879817748423
 20
123.6820794274853
 30
0.0
 10
233.9358439361682
 20
123.7805924490008
 30
0.0
 10
233.9597638560465
 20
123.8298259879038
 30
0.0
  0
LINE
  5
1E1
330
1F
100
AcDbEntity
  8
0
  6
Continuous
 62
     7
370
    18
100
AcDbLine
 10
233.4577742949
 20
123.0559949036
 30
0.0
 11
233.4577742949
 21
123.2961493781
 31
0.0
  0
SPLINE
  5
1E2
330
1F
100
AcDbEntity
  8
0
  6
Continuous
 62
     7
370
    18
100
AcDbSpline
210
0.0
220
0.0
230
1.0
 70
     8
 71
     3
 72
     9
 73
     5
 74
     0
 42
0.000000001
 43
0.00000001
 40
0.0
 40
0.0
 40
0.0
 40
0.0
 40
0.5597552341668168
 40
1.0
 40
1.0
 40
1.0
 40
1.0
 10
233.8847155827866
 20
123.3762008695326
 30
0.0
 10
233.8132011594988
 20
123.3053291815406
 30
0.0
 10
233.6854409905488
 20
123.1787172560667
 30
0.0
 10
233.5273659875757
 20
123.0935078837749
 30
0.0
 10
233.4577742949078
 20
123.0559949036235
 30
0.0
  0
LINE
  5
1E3
330
1F
100
AcDbEntity
  8
0
  6
Continuous
 62
     7
370
    18
100
AcDbLine
 10
233.8847155828
 20
121.7484872095
 30
0.0
 11
233.8847155828
 21
123.3762008695
 31
0.0
  0
LINE
  5
1E4
330
1F
100
AcDbEntity
  8
0
  6
Continuous
 62
     7
370
    18
100
AcDbLine
 10
234.0981862267
 20
121.7484872095
 30
0.0
 11
233.8847155828
 21
121.7484872095
 31
0.0
  0
LINE
  5
1E5
330
1F
100
AcDbEntity
  8
0
  6
Continuous
 62
     7
370
    18
100
AcDbLine
 10
234.0981862267
 20
123.8298259879
 30
0.0
 11
234.0981862267
 21
121.7484872095
 31
0.0
  0
LINE
  5
1E6
330
1F
100
AcDbEntity
  8
0
  6
Continuous
 62
     7
370
    18
100
AcDbLine
 10
233.959763856
 20
123.8298259879
 30
0.0
 11
234.0981862267
 21
123.8298259879
 31
0.0
  0
SPLINE
  5
1E7
330
1F
100
AcDbEntity
  8
0
  6
Continuous
 62
     7
370
    18
100
AcDbSpline
210
0.0
220
0.0
230
1.0
 70
     8
 71
     3
 72
    10
 73
     6
 74
     0
 42
0.000000001
 43
0.00000001
 40
0.0
 40
0.0
 40
0.0
 40
0.0
 40
0.2795751783825433
 40
0.5597049368157176
 40
1.0
 40
1.0
 40
1.0
 40
1.0
 10
232.9432766882257
 20
123.6130198651529
 30
0.0
 10
232.9791552291312
 20
123.5405167176859
 30
0.0
 10
233.0509834815058
 20
123.3953666016893
 30
0.0
 10
233.1005816048097
 20
123.1088449417035
 30
0.0
 10
233.1069763090365
 20
122.9016252602156
 30
0.0
 10
233.1108844985063
 20
122.7749808137502
 30
0.0
  0
SPLINE
  5
1E8
330
1F
100
AcDbEntity
  8
0
  6
Continuous
 62
     7
370
    18
100
AcDbSpline
210
0.0
220
0.0
230
1.0
 70
     8
 71
     3
 72
    11
 73
     7
 74
     0
 42
0.000000001
 43
0.00000001
 40
0.0
 40
0.0
 40
0.0
 40
0.0
 40
0.2798903849624041
 40
0.5594964420644593
 40
0.7796718965173906
 40
1.0
 40
1.0
 40
1.0
 40
1.0
 10
232.5651167779659
 20
123.8298259879038
 30
0.0
 10
232.6078737196864
 20
123.8269734696319
 30
0.0
 10
232.6933441683029
 20
123.8212713308312
 30
0.0
 10
232.8021144234058
 20
123.7676462489018
 30
0.0
 10
232.8856347489185
 20
123.6956068808169
 30
0.0
 10
232.924058270117
 20
123.6405552294459
 30
0.0
 10
232.9432766882257
 20
123.6130198651529
 30
0.0
  0
SPLINE
  5
1E9
330
1F
100
AcDbEntity
  8
0
  6
Continuous
 62
     7
370
    18
100
AcDbSpline
210
0.0
220
0.0
230
1.0
 70
     8
 71
     3
 72
    13
 73
     9
 74
     0
 42
0.000000001
 43
0.00000001
 40
0.0
 40
0.0
 40
0.0
 40
0.0
 40
0.2504890583456494
 40
0.5006738274425614
 40
0.6258446378555209
 40
0.7507584155659031
 40
0.8753007099299315
 40
1.0
 40
1.0
 40
1.0
 40
1.0
 10
232.0168474483169
 20
122.7749808137502
 30
0.0
 10
232.019566062932
 20
122.8852210111079
 30
0.0
 10
232.0249999896419
 20
123.1055674881703
 30
0.0
 10
232.0750533616835
 20
123.3789949237176
 30
0.0
 10
232.1599888870607
 20
123.5834524580027
 30
0.0
 10
232.2569769627497
 20
123.7189650790818
 30
0.0
 10
232.3989326258333
 20
123.8150643611703
 30
0.0
 10
232.5096988036155
 20
123.824903379814
 30
0.0
 10
232.5651167779659
 20
123.8298259879038
 30
0.0
  0
SPLINE
  5
1EA
330
1F
100
AcDbEntity
  8
0
  6
Continuous
 62
     7
370
    18
100
AcDbSpline
210
0.0
220
0.0
230
1.0
 70
     8
 71
     3
 72
    13
 73
     9
 74
     0
 42
0.000000001
 43
0.00000001
 40
0.0
 40
0.0
 40
0.0
 40
0.0
 40
0.1245870753534838
 40
0.24922271483854
 40
0.3742192396120919
 40
0.4992998133209627
 40
0.7494812006579983
 40
1.0
 40
1.0
 40
1.0
 40
1.0
 10
232.5626151688572
 20
121.7218033790023
 30
0.0
 10
232.5073515255684
 20
121.7274400752794
 30
0.0
 10
232.3968026971829
 20
121.7387156650218
 30
0.0
 10
232.2580137409602
 20
121.8373486778581
 30
0.0
 10
232.1549746322771
 20
121.9673530144181
 30
0.0
 10
232.0689507471087
 20
122.1716989654717
 30
0.0
 10
232.0237798604895
 20
122.4452011446575
 30
0.0
 10
232.0191592902782
 20
122.6650048835809
 30
0.0
 10
232.0168474483169
 20
122.7749808137502
 30
0.0
  0
SPLINE
  5
1EB
330
1F
100
AcDbEntity
  8
0
  6
Continuous
 62
     7
370
    18
100
AcDbSpline
210
0.0
220
0.0
230
1.0
 70
     8
 71
     3
 72
    13
 73
     9
 74
     0
 42
0.000000001
 43
0.00000001
 40
0.0
 40
0.0
 40
0.0
 40
0.0
 40
0.2504702058475058
 40
0.5006494994159222
 40
0.6258027062132785
 40
0.7507410958263504
 40
0.8752785399750074
 40
1.0
 40
1.0
 40
1.0
 40
1.0
 10
233.1108844985063
 20
122.7749808137502
 30
0.0
 10
233.1081710032512
 20
122.6648483581986
 30
0.0
 10
233.1027471643696
 20
122.4447113620447
 30
0.0
 10
233.0519773066456
 20
122.1717807618087
 30
0.0
 10
232.96762555921
 20
121.9673566493574
 30
0.0
 10
232.8707427992535
 20
121.8319018206251
 30
0.0
 10
232.7286661823846
 20
121.7362235558232
 30
0.0
 10
232.6179927416615
 20
121.7266124697437
 30
0.0
 10
232.5626151688572
 20
121.7218033790023
 30
0.0
  0
LINE
  5
1EC
330
1F
100
AcDbEntity
  8
0
  6
Continuous
 62
     7
370
    18
100
AcDbLine
 10
231.1696358302
 20
122.5756859548
 30
0.0
 11
230.7360235847
 21
122.5756859548
 31
0.0
  0
SPLINE
  5
1ED
330
1F
100
AcDbEntity
  8
0
  6
Continuous
 62
     7
370
    18
100
AcDbSpline
210
0.0
220
0.0
230
1.0
 70
     8
 71
     3
 72
    13
 73
     9
 74
     0
 42
0.000000001
 43
0.00000001
 40
0.0
 40
0.0
 40
0.0
 40
0.0
 40
0.1868926354272031
 40
0.3734936198722609
 40
0.5595111555659776
 40
0.7060865218748862
 40
0.8529613385976946
 40
1.0
 40
1.0
 40
1.0
 40
1.0
 10
231.8033768043775
 20
123.2077591895492
 30
0.0
 10
231.8002269448151
 20
123.1437600111291
 30
0.0
 10
231.7939321411308
 20
123.0158615267275
 30
0.0
 10
231.7275456477558
 20
122.834042739848
 30
0.0
 10
231.6169544782077
 20
122.6887064657075
 30
0.0
 10
231.4678454731059
 20
122.6134907985551
 30
0.0
 10
231.3203013147206
 20
122.5800817274801
 30
0.0
 10
231.2198763192971
 20
122.5771517567794
 30
0.0
 10
231.1696358301824
 20
122.5756859547599
 30
0.0
  0
SPLINE
  5
1EE
330
1F
100
AcDbEntity
  8
0
  6
Continuous
 62
     7
370
    18
100
AcDbSpline
210
0.0
220
0.0
230
1.0
 70
     8
 71
     3
 72
    11
 73
     7
 74
     0
 42
0.000000001
 43
0.00000001
 40
0.0
 40
0.0
 40
0.0
 40
0.0
 40
0.2789374603390856
 40
0.5587365194061735
 40
0.7792635983173135
 40
0.9999999999999999
 40
0.9999999999999999
 40
0.9999999999999999
 40
0.9999999999999999
 10
231.4848385778742
 20
123.7635333465242
 30
0.0
 10
231.5417932322611
 20
123.7335608739852
 30
0.0
 10
231.6558784659816
 20
123.6735233481396
 30
0.0
 10
231.7506891031595
 20
123.5160227683093
 30
0.0
 10
231.7974537963397
 20
123.3584311171499
 30
0.0
 10
231.8014018440846
 20
123.2579990461165
 30
0.0
 10
231.8033768043775
 20
123.2077591895492
 30
0.0
  0
SPLINE
  5
1EF
330
1F
100
AcDbEntity
  8
0
  6
Continuous
 62
     7
370
    18
100
AcDbSpline
210
0.0
220
0.0
230
1.0
 70
     8
 71
     3
 72
     9
 73
     5
 74
     0
 42
0.000000001
 43
0.00000001
 40
0.0
 40
0.0
 40
0.0
 40
0.0
 40
0.5604294502713282
 40
0.9999999999999999
 40
0.9999999999999999
 40
0.9999999999999999
 40
0.9999999999999999
 10
231.1554600452333
 20
123.8031421574114
 30
0.0
 10
231.2179260478393
 20
123.8029221959167
 30
0.0
 10
231.3293870043892
 20
123.8025297085222
 30
0.0
 10
231.4373716901792
 20
123.7754408228783
 30
0.0
 10
231.4848385778742
 20
123.7635333465242
 30
0.0
  0
LINE
  5
1F0
330
1F
100
AcDbEntity
  8
0
  6
Continuous
 62
     7
370
    18
100
AcDbLine
 10
230.5225529407
 20
123.8031421574
 30
0.0
 11
231.1554600452
 21
123.8031421574
 31
0.0
  0
LINE
  5
1F1
330
1F
100
AcDbEntity
  8
0
  6
Continuous
 62
     7
370
    18
100
AcDbLine
 10
230.5225529407
 20
121.7484872095
 30
0.0
 11
230.5225529407
 21
123.8031421574
 31
0.0
  0
LINE
  5
1F2
330
1F
100
AcDbEntity
  8
0
  6
Continuous
 62
     7
370
    18
100
AcDbLine
 10
230.7360235847
 20
121.7484872095
 30
0.0
 11
230.5225529407
 21
121.7484872095
 31
0.0
  0
LINE
  5
1F3
330
1F
100
AcDbEntity
  8
0
  6
Continuous
 62
     7
370
    18
100
AcDbLine
 10
230.7360235847
 20
122.5756859548
 30
0.0
 11
230.7360235847
 21
121.7484872095
 31
0.0
  0
LINE
  5
1F4
330
1F
100
AcDbEntity
  8
0
  6
Continuous
 62
     7
370
    18
100
AcDbLine
 10
229.6419865345
 20
122.6023697853
 30
0.0
 11
230.2823984663
 21
122.6023697853
 31
0.0
  0
LINE
  5
1F5
330
1F
100
AcDbEntity
  8
0
  6
Continuous
 62
     7
370
    18
100
AcDbLine
 10
229.6419865345
 20
122.3622153108
 30
0.0
 11
229.6419865345
 21
122.6023697853
 31
0.0
  0
LINE
  5
1F6
330
1F
100
AcDbEntity
  8
0
  6
Continuous
 62
     7
370
    18
100
AcDbLine
 10
230.2823984663
 20
122.3622153108
 30
0.0
 11
229.6419865345
 21
122.3622153108
 31
0.0
  0
LINE
  5
1F7
330
1F
100
AcDbEntity
  8
0
  6
Continuous
 62
     7
370
    18
100
AcDbLine
 10
230.2823984663
 20
122.6023697853
 30
0.0
 11
230.2823984663
 21
122.3622153108
 31
0.0
  0
SPLINE
  5
1F8
330
1F
100
AcDbEntity
  8
0
  6
Continuous
 62
     7
370
    18
100
AcDbSpline
210
0.0
220
0.0
230
1.0
 70
     8
 71
     3
 72
    10
 73
     6
 74
     0
 42
0.000000001
 43
0.00000001
 40
0.0
 40
0.0
 40
0.0
 40
0.0
 40
0.2795751783825443
 40
0.559704936815718
 40
1.0
 40
1.0
 40
1.0
 40
1.0
 10
229.2875919107636
 20
123.6130198651529
 30
0.0
 10
229.3234704516691
 20
123.5405167176858
 30
0.0
 10
229.3952987040437
 20
123.3953666016893
 30
0.0
 10
229.4448968273475
 20
123.1088449417035
 30
0.0
 10
229.4512915315744
 20
122.9016252602156
 30
0.0
 10
229.4551997210442
 20
122.7749808137502
 30
0.0
  0
SPLINE
  5
1F9
330
1F
100
AcDbEntity
  8
0
  6
Continuous
 62
     7
370
    18
100
AcDbSpline
210
0.0
220
0.0
230
1.0
 70
     8
 71
     3
 72
    11
 73
     7
 74
     0
 42
0.000000001
 43
0.00000001
 40
0.0
 40
0.0
 40
0.0
 40
0.0
 40
0.2798903849624051
 40
0.5594964420644629
 40
0.7796718965173829
 40
1.0
 40
1.0
 40
1.0
 40
1.0
 10
228.9094320005038
 20
123.8298259879038
 30
0.0
 10
228.9521889422243
 20
123.8269734696319
 30
0.0
 10
229.0376593908408
 20
123.8212713308312
 30
0.0
 10
229.1464296459437
 20
123.7676462489018
 30
0.0
 10
229.2299499714564
 20
123.6956068808169
 30
0.0
 10
229.2683734926549
 20
123.6405552294459
 30
0.0
 10
229.2875919107636
 20
123.6130198651529
 30
0.0
  0
SPLINE
  5
1FA
330
1F
100
AcDbEntity
  8
0
  6
Continuous
 62
     7
370
    18
100
AcDbSpline
210
0.0
220
0.0
230
1.0
 70
     8
 71
     3
 72
    13
 73
     9
 74
     0
 42
0.000000001
 43
0.00000001
 40
0.0
 40
0.0
 40
0.0
 40
0.0
 40
0.2504890583456496
 40
0.5006738274425618
 40
0.6258446378555217
 40
0.7507584155659035
 40
0.8753007099299326
 40
1.0
 40
1.0
 40
1.0
 40
1.0
 10
228.3611626708548
 20
122.7749808137502
 30
0.0
 10
228.3638812854698
 20
122.8852210111079
 30
0.0
 10
228.3693152121798
 20
123.1055674881703
 30
0.0
 10
228.4193685842213
 20
123.3789949237176
 30
0.0
 10
228.5043041095986
 20
123.5834524580027
 30
0.0
 10
228.6012921852876
 20
123.7189650790819
 30
0.0
 10
228.7432478483712
 20
123.8150643611703
 30
0.0
 10
228.8540140261534
 20
123.824903379814
 30
0.0
 10
228.9094320005038
 20
123.8298259879038
 30
0.0
  0
SPLINE
  5
1FB
330
1F
100
AcDbEntity
  8
0
  6
Continuous
 62
     7
370
    18
100
AcDbSpline
210
0.0
220
0.0
230
1.0
 70
     8
 71
     3
 72
    13
 73
     9
 74
     0
 42
0.000000001
 43
0.00000001
 40
0.0
 40
0.0
 40
0.0
 40
0.0
 40
0.124587075353485
 40
0.2492227148385401
 40
0.3742192396120919
 40
0.4992998133209632
 40
0.749481200657996
 40
1.0
 40
1.0
 40
1.0
 40
1.0
 10
228.9069303913951
 20
121.7218033790023
 30
0.0
 10
228.8516667481063
 20
121.7274400752794
 30
0.0
 10
228.7411179197208
 20
121.7387156650218
 30
0.0
 10
228.602328963498
 20
121.8373486778581
 30
0.0
 10
228.499289854815
 20
121.9673530144181
 30
0.0
 10
228.4132659696466
 20
122.1716989654717
 30
0.0
 10
228.3680950830273
 20
122.4452011446575
 30
0.0
 10
228.3634745128161
 20
122.6650048835809
 30
0.0
 10
228.3611626708548
 20
122.7749808137502
 30
0.0
  0
SPLINE
  5
1FC
330
1F
100
AcDbEntity
  8
0
  6
Continuous
 62
     7
370
    18
100
AcDbSpline
210
0.0
220
0.0
230
1.0
 70
     8
 71
     3
 72
    13
 73
     9
 74
     0
 42
0.000000001
 43
0.00000001
 40
0.0
 40
0.0
 40
0.0
 40
0.0
 40
0.2504702058475086
 40
0.5006494994159222
 40
0.6258027062132785
 40
0.750741095826351
 40
0.8752785399750086
 40
0.9999999999999999
 40
0.9999999999999999
 40
0.9999999999999999
 40
0.9999999999999999
 10
229.4551997210442
 20
122.7749808137502
 30
0.0
 10
229.452486225789
 20
122.6648483581986
 30
0.0
 10
229.4470623869075
 20
122.4447113620447
 30
0.0
 10
229.3962925291834
 20
122.1717807618087
 30
0.0
 10
229.3119407817478
 20
121.9673566493574
 30
0.0
 10
229.2150580217914
 20
121.8319018206251
 30
0.0
 10
229.0729814049225
 20
121.7362235558232
 30
0.0
 10
228.9623079641993
 20
121.7266124697437
 30
0.0
 10
228.9069303913951
 20
121.7218033790023
 30
0.0
  0
SPLINE
  5
1FD
330
1F
100
AcDbEntity
  8
0
  6
Continuous
 62
     7
370
    18
100
AcDbSpline
210
0.0
220
0.0
230
1.0
 70
     8
 71
     3
 72
    12
 73
     8
 74
     0
 42
0.000000001
 43
0.00000001
 40
0.0
 40
0.0
 40
0.0
 40
0.0
 40
0.1861323399318221
 40
0.3726108819815549
 40
0.5594136204052347
 40
0.7795030968206011
 40
1.0
 40
1.0
 40
1.0
 40
1.0
 10
227.6465363354795
 20
123.1093625646084
 30
0.0
 10
227.7041786504146
 20
123.1026766642255
 30
0.0
 10
227.8195704937411
 20
123.0892924278299
 30
0.0
 10
227.9617162185698
 20
122.9821807836665
 30
0.0
 10
228.072886237374
 20
122.8366194658537
 30
0.0
 10
228.1386831371549
 20
122.6512948553557
 30
0.0
 10
228.1446872129304
 20
122.5158759542443
 30
0.0
 10
228.1476920269153
 20
122.448103890218
 30
0.0
  0
SPLINE
  5
1FE
330
1F
100
AcDbEntity
  8
0
  6
Continuous
 62
     7
370
    18
100
AcDbSpline
210
0.0
220
0.0
230
1.0
 70
     8
 71
     3
 72
     9
 73
     5
 74
     0
 42
0.000000001
 43
0.00000001
 40
0.0
 40
0.0
 40
0.0
 40
0.0
 40
0.5597945537684257
 40
1.0
 40
1.0
 40
1.0
 40
1.0
 10
227.3421738939253
 20
123.0288941382797
 30
0.0
 10
227.3962946999657
 20
123.0547021434252
 30
0.0
 10
227.4929744652048
 20
123.1008047804941
 30
0.0
 10
227.5995994406043
 20
123.1067468383697
 30
0.0
 10
227.6465363354795
 20
123.1093625646084
 30
0.0
  0
LINE
  5
1FF
330
1F
100
AcDbEntity
  8
0
  6
Continuous
 62
     7
370
    18
100
AcDbLine
 10
227.4193068414
 20
123.5363038525
 30
0.0
 11
227.3421738939
 21
123.0288941383
 31
0.0
  0
LINE
  5
200
330
1F
100
AcDbEntity
  8
0
  6
Continuous
 62
     7
370
    18
100
AcDbLine
 10
228.0676405354
 20
123.5363038525
 30
0.0
 11
227.4193068414
 21
123.5363038525
 31
0.0
  0
LINE
  5
201
330
1F
100
AcDbEntity
  8
0
  6
Continuous
 62
     7
370
    18
100
AcDbLine
 10
228.0676405354
 20
123.7764583269
 30
0.0
 11
228.0676405354
 21
123.5363038525
 31
0.0
  0
LINE
  5
202
330
1F
100
AcDbEntity
  8
0
  6
Continuous
 62
     7
370
    18
100
AcDbLine
 10
227.2404417902
 20
123.7764583269
 30
0.0
 11
228.0676405354
 21
123.7764583269
 31
0.0
  0
LINE
  5
203
330
1F
100
AcDbEntity
  8
0
  6
Continuous
 62
     7
370
    18
100
AcDbLine
 10
227.0803388072
 20
122.723697827
 30
0.0
 11
227.2404417902
 21
123.7764583269
 31
0.0
  0
LINE
  5
204
330
1F
100
AcDbEntity
  8
0
  6
Continuous
 62
     7
370
    18
100
AcDbLine
 10
227.2938094512
 20
122.6932615829
 30
0.0
 11
227.0803388072
 21
122.723697827
 31
0.0
  0
SPLINE
  5
205
330
1F
100
AcDbEntity
  8
0
  6
Continuous
 62
     7
370
    18
100
AcDbSpline
210
0.0
220
0.0
230
1.0
 70
     8
 71
     3
 72
    10
 73
     6
 74
     0
 42
0.000000001
 43
0.00000001
 40
0.0
 40
0.0
 40
0.0
 40
0.0
 40
0.2801682771676908
 40
0.5607715634932561
 40
1.0
 40
1.0
 40
1.0
 40
1.0
 10
227.586914651723
 20
122.895891920669
 30
0.0
 10
227.5519266384853
 20
122.892024952819
 30
0.0
 10
227.4818962871367
 20
122.8842850129901
 30
0.0
 10
227.3710517745796
 20
122.8176304706368
 30
0.0
 10
227.3230806021635
 20
122.7403914507044
 30
0.0
 10
227.2938094511578
 20
122.6932615828671
 30
0.0
  0
SPLINE
  5
206
330
1F
100
AcDbEntity
  8
0
  6
Continuous
 62
     7
370
    18
100
AcDbSpline
210
0.0
220
0.0
230
1.0
 70
     8
 71
     3
 72
    11
 73
     7
 74
     0
 42
0.000000001
 43
0.00000001
 40
0.0
 40
0.0
 40
0.0
 40
0.0
 40
0.281031819621698
 40
0.5605860755662322
 40
0.7803889752948973
 40
1.0
 40
1.0
 40
1.0
 40
1.0
 10
227.9342213829759
 20
122.4364297143775
 30
0.0
 10
227.9313648898105
 20
122.4969814625067
 30
0.0
 10
227.9256669218876
 20
122.6177665995707
 30
0.0
 10
227.8516250746464
 20
122.7728678930223
 30
0.0
 10
227.7299330183653
 20
122.8789768695028
 30
0.0
 10
227.6345735606778
 20
122.8902552118852
 30
0.0
 10
227.586914651723
 20
122.895891920669
 30
0.0
  0
SPLINE
  5
207
330
1F
100
AcDbEntity
  8
0
  6
Continuous
 62
     7
370
    18
100
AcDbSpline
210
0.0
220
0.0
230
1.0
 70
     8
 71
     3
 72
    12
 73
     8
 74
     0
 42
0.000000001
 43
0.00000001
 40
0.0
 40
0.0
 40
0.0
 40
0.0
 40
0.1858835197478837
 40
0.3723018513499671
 40
0.5590684864252748
 40
0.7793243380015261
 40
0.9999999999999999
 40
0.9999999999999999
 40
0.9999999999999999
 40
0.9999999999999999
 10
227.5814944986542
 20
121.9352740229417
 30
0.0
 10
227.6239958018374
 20
121.9407960134283
 30
0.0
 10
227.7091206901617
 20
121.9518558819097
 30
0.0
 10
227.809908522479
 20
122.0367444087931
 30
0.0
 10
227.8857991519252
 20
122.1483159630124
 30
0.0
 10
227.9281454018958
 20
122.2866292348856
 30
0.0
 10
227.932194770816
 20
122.3864645368522
 30
0.0
 10
227.9342213829759
 20
122.4364297143775
 30
0.0
  0
SPLINE
  5
208
330
1F
100
AcDbEntity
  8
0
  6
Continuous
 62
     7
370
    18
100
AcDbSpline
210
0.0
220
0.0
230
1.0
 70
     8
 71
     3
 72
    11
 73
     7
 74
     0
 42
0.000000001
 43
0.00000001
 40
0.0
 40
0.0
 40
0.0
 40
0.0
 40
0.2811074381184349
 40
0.5611160017532801
 40
0.7809929910720532
 40
1.0
 40
1.0
 40
1.0
 40
1.0
 10
227.2671256206653
 20
122.3355314803281
 30
0.0
 10
227.2753413496182
 20
122.2838852306093
 30
0.0
 10
227.2917406914938
 20
122.1807946210482
 30
0.0
 10
227.3559954767948
 20
122.0485063729142
 30
0.0
 10
227.4583730348112
 20
121.9535550339358
 30
0.0
 10
227.5405082817323
 20
121.9413596351394
 30
0.0
 10
227.5814944986542
 20
121.9352740229417
 30
0.0
  0
LINE
  5
209
330
1F
100
AcDbEntity
  8
0
  6
Continuous
 62
     7
370
    18
100
AcDbLine
 10
227.0536549767
 20
122.3088476498
 30
0.0
 11
227.2671256207
 21
122.3355314803
 31
0.0
  0
SPLINE
  5
20A
330
1F
100
AcDbEntity
  8
0
  6
Continuous
 62
     7
370
    18
100
AcDbSpline
210
0.0
220
0.0
230
1.0
 70
     8
 71
     3
 72
    12
 73
     8
 74
     0
 42
0.000000001
 43
0.00000001
 40
0.0
 40
0.0
 40
0.0
 40
0.0
 40
0.186588588665428
 40
0.373045704186193
 40
0.5597053661028951
 40
0.7796179230979425
 40
0.9999999999999999
 40
0.9999999999999999
 40
0.9999999999999999
 40
0.9999999999999999
 10
227.5835791729114
 20
121.7218033790023
 30
0.0
 10
227.5287621996451
 20
121.7261652270471
 30
0.0
 10
227.4191668779818
 20
121.7348858497126
 30
0.0
 10
227.2734734030575
 20
121.8187022129915
 30
0.0
 10
227.1544262046875
 20
121.9467407600392
 30
0.0
 10
227.0774858064811
 20
122.1170422290563
 30
0.0
 10
227.061604231891
 20
122.2448670731005
 30
0.0
 10
227.053654976726
 20
122.3088476498356
 30
0.0
  0
SPLINE
  5
20B
330
1F
100
AcDbEntity
  8
0
  6
Continuous
 62
     7
370
    18
100
AcDbSpline
210
0.0
220
0.0
230
1.0
 70
     8
 71
     3
 72
    13
 73
     9
 74
     0
 42
0.000000001
 43
0.00000001
 40
0.0
 40
0.0
 40
0.0
 40
0.0
 40
0.1868890796518116
 40
0.3736670037034776
 40
0.5603596573753089
 40
0.706943301333559
 40
0.8533827747571276
 40
1.0
 40
1.0
 40
1.0
 40
1.0
 10
228.1476920269153
 20
122.448103890218
 30
0.0
 10
228.1445984468732
 20
122.384185071401
 30
0.0
 10
228.1384131267505
 20
122.25638545062
 30
0.0
 10
228.0812498111091
 20
122.071613574912
 30
0.0
 10
227.9904657985933
 20
121.9168485127786
 30
0.0
 10
227.8725967039992
 20
121.8005888299155
 30
0.0
 10
227.7344126328005
 20
121.7323526735813
 30
0.0
 10
227.6338773192425
 20
121.7253212321552
 30
0.0
 10
227.5835791729114
 20
121.7218033790023
 30
0.0
  0
LINE
  5
20C
330
1F
100
AcDbEntity
  8
0
  6
Continuous
 62
     7
370
    18
100
AcDbLine
 10
226.199772401
 20
121.7484872095
 30
0.0
 11
225.986301757
 21
121.7484872095
 31
0.0
  0
SPLINE
  5
20D
330
1F
100
AcDbEntity
  8
0
  6
Continuous
 62
     7
370
    18
100
AcDbSpline
210
0.0
220
0.0
230
1.0
 70
     8
 71
     3
 72
    12
 73
     8
 74
     0
 42
0.000000001
 43
0.00000001
 40
0.0
 40
0.0
 40
0.0
 40
0.0
 40
0.1865994905629262
 40
0.3732882655511084
 40
0.5600123352708868
 40
0.7800196168841579
 40
1.0
 40
1.0
 40
1.0
 40
1.0
 10
226.8401843327866
 20
123.5800820118888
 30
0.0
 10
226.7708585149031
 20
123.4792104637168
 30
0.0
 10
226.6321737080069
 20
123.2774191021917
 30
0.0
 10
226.4796037496984
 20
122.9424162750112
 30
0.0
 10
226.3451997662511
 20
122.5779121186711
 30
0.0
 10
226.2409712439324
 20
122.1792143878942
 30
0.0
 10
226.2135047889056
 20
121.8920570838729
 30
0.0
 10
226.1997724009684
 20
121.7484872094947
 30
0.0
  0
LINE
  5
20E
330
1F
100
AcDbEntity
  8
0
  6
Continuous
 62
     7
370
    18
100
AcDbLine
 10
226.8401843328
 20
123.7764583269
 30
0.0
 11
226.8401843328
 21
123.5800820119
 31
0.0
  0
LINE
  5
20F
330
1F
100
AcDbEntity
  8
0
  6
Continuous
 62
     7
370
    18
100
AcDbLine
 10
225.7461472826
 20
123.7764583269
 30
0.0
 11
226.8401843328
 21
123.7764583269
 31
0.0
  0
LINE
  5
210
330
1F
100
AcDbEntity
  8
0
  6
Continuous
 62
     7
370
    18
100
AcDbLine
 10
225.7461472826
 20
123.5363038525
 30
0.0
 11
225.7461472826
 21
123.7764583269
 31
0.0
  0
LINE
  5
211
330
1F
100
AcDbEntity
  8
0
  6
Continuous
 62
     7
370
    18
100
AcDbLine
 10
226.6267136888
 20
123.5363038525
 30
0.0
 11
225.7461472826
 21
123.5363038525
 31
0.0
  0
SPLINE
  5
212
330
1F
100
AcDbEntity
  8
0
  6
Continuous
 62
     7
370
    18
100
AcDbSpline
210
0.0
220
0.0
230
1.0
 70
     8
 71
     3
 72
    12
 73
     8
 74
     0
 42
0.000000001
 43
0.00000001
 40
0.0
 40
0.0
 40
0.0
 40
0.0
 40
0.1866068624921612
 40
0.3733314982619458
 40
0.5600576112292273
 40
0.7800800874790765
 40
1.0
 40
1.0
 40
1.0
 40
1.0
 10
225.986301757029
 20
121.7484872094947
 30
0.0
 10
225.9956203156212
 20
121.8680351832158
 30
0.0
 10
226.0142633140319
 20
122.1072065810274
 30
0.0
 10
226.0984924251932
 20
122.4578753142058
 30
0.0
 10
226.2182461465834
 20
122.81946327317
 30
0.0
 10
226.3858970632178
 20
123.1872042914621
 30
0.0
 10
226.5464539571754
 20
123.4199554192285
 30
0.0
 10
226.6267136888472
 20
123.5363038524872
 30
0.0
  0
LINE
  5
213
330
1F
100
AcDbEntity
  8
0
  6
Continuous
 62
     7
370
    18
100
AcDbLine
 10
224.9456323678
 20
122.6023697853
 30
0.0
 11
225.5860442996
 21
122.6023697853
 31
0.0
  0
LINE
  5
214
330
1F
100
AcDbEntity
  8
0
  6
Continuous
 62
     7
370
    18
100
AcDbLine
 10
224.9456323678
 20
122.3622153108
 30
0.0
 11
224.9456323678
 21
122.6023697853
 31
0.0
  0
LINE
  5
215
330
1F
100
AcDbEntity
  8
0
  6
Continuous
 62
     7
370
    18
100
AcDbLine
 10
225.5860442996
 20
122.3622153108
 30
0.0
 11
224.9456323678
 21
122.3622153108
 31
0.0
  0
LINE
  5
216
330
1F
100
AcDbEntity
  8
0
  6
Continuous
 62
     7
370
    18
100
AcDbLine
 10
225.5860442996
 20
122.6023697853
 30
0.0
 11
225.5860442996
 21
122.3622153108
 31
0.0
  0
SPLINE
  5
217
330
1F
100
AcDbEntity
  8
0
  6
Continuous
 62
     7
370
    18
100
AcDbSpline
210
0.0
220
0.0
230
1.0
 70
     8
 71
     3
 72
    12
 73
     8
 74
     0
 42
0.000000001
 43
0.00000001
 40
0.0
 40
0.0
 40
0.0
 40
0.0
 40
0.187105759524008
 40
0.3740211604078919
 40
0.5608338669252976
 40
0.780358512659648
 40
0.9999999999999999
 40
0.9999999999999999
 40
0.9999999999999999
 40
0.9999999999999999
 10
224.7588455543775
 20
122.3451209819113
 30
0.0
 10
224.7558964460538
 20
122.2874274319026
 30
0.0
 10
224.7500012297858
 20
122.172099028452
 30
0.0
 10
224.6905009046419
 20
122.0066766674614
 30
0.0
 10
224.5805866818174
 20
121.8591810181622
 30
0.0
 10
224.4178936055625
 20
121.7419692210241
 30
0.0
 10
224.2813618659862
 20
121.7285265185014
 30
0.0
 10
224.2130778338371
 20
121.7218033790023
 30
0.0
  0
SPLINE
  5
218
330
1F
100
AcDbEntity
  8
0
  6
Continuous
 62
     7
370
    18
100
AcDbSpline
210
0.0
220
0.0
230
1.0
 70
     8
 71
     3
 72
    11
 73
     7
 74
     0
 42
0.000000001
 43
0.00000001
 40
0.0
 40
0.0
 40
0.0
 40
0.0
 40
0.2796220600248627
 40
0.5590245428560697
 40
0.779384731726162
 40
1.0
 40
1.0
 40
1.0
 40
1.0
 10
224.4315516959938
 20
122.8758790477997
 30
0.0
 10
224.4878182246083
 20
122.8480437618515
 30
0.0
 10
224.6003070977467
 20
122.7923950480089
 30
0.0
 10
224.7040767871441
 20
122.6459731464455
 30
0.0
 10
224.7520108336755
 20
122.4920966756154
 30
0.0
 10
224.7565664357573
 20
122.3941317688684
 30
0.0
 10
224.7588455543775
 20
122.3451209819113
 30
0.0
  0
SPLINE
  5
219
330
1F
100
AcDbEntity
  8
0
  6
Continuous
 62
     7
370
    18
100
AcDbSpline
210
0.0
220
0.0
230
1.0
 70
     8
 71
     3
 72
    11
 73
     7
 74
     0
 42
0.000000001
 43
0.00000001
 40
0.0
 40
0.0
 40
0.0
 40
0.0
 40
0.2801901752489531
 40
0.5597317672418775
 40
0.7798035967389116
 40
1.0
 40
1.0
 40
1.0
 40
1.0
 10
224.6787940629002
 20
123.2903122901351
 30
0.0
 10
224.6761500396491
 20
123.2423142960072
 30
0.0
 10
224.6708681135229
 20
123.1464294133434
 30
0.0
 10
224.6157360488795
 20
123.021732055782
 30
0.0
 10
224.5313599009633
 20
122.9294999739218
 30
0.0
 10
224.4648273727699
 20
122.8937560610835
 30
0.0
 10
224.4315516959938
 20
122.8758790477997
 30
0.0
  0
SPLINE
  5
21A
330
1F
100
AcDbEntity
  8
0
  6
Continuous
 62
     7
370
    18
100
AcDbSpline
210
0.0
220
0.0
230
1.0
 70
     8
 71
     3
 72
    12
 73
     8
 74
     0
 42
0.000000001
 43
0.00000001
 40
0.0
 40
0.0
 40
0.0
 40
0.0
 40
0.186681894936982
 40
0.373093920797581
 40
0.5598445729636977
 40
0.7796788980924658
 40
1.0
 40
1.0
 40
1.0
 40
1.0
 10
224.2097423550256
 20
123.8298259879038
 30
0.0
 10
224.2596926763968
 20
123.8257905223636
 30
0.0
 10
224.359521110492
 20
123.8177254249894
 30
0.0
 10
224.4921519197493
 20
123.7406043742872
 30
0.0
 10
224.5982754515528
 20
123.6222010322138
 30
0.0
 10
224.668764383131
 20
123.4665833552382
 30
0.0
 10
224.6754483723243
 20
123.3491126162573
 30
0.0
 10
224.6787940629002
 20
123.2903122901351
 30
0.0
  0
SPLINE
  5
21B
330
1F
100
AcDbEntity
  8
0
  6
Continuous
 62
     7
370
    18
100
AcDbSpline
210
0.0
220
0.0
230
1.0
 70
     8
 71
     3
 72
    12
 73
     8
 74
     0
 42
0.000000001
 43
0.00000001
 40
0.0
 40
0.0
 40
0.0
 40
0.0
 40
0.1871377587295348
 40
0.3740411921344247
 40
0.5608494686677246
 40
0.7803659435040499
 40
1.0
 40
1.0
 40
1.0
 40
1.0
 10
223.7448599956653
 20
123.298650987164
 30
0.0
 10
223.7474090929007
 20
123.3478507409562
 30
0.0
 10
223.7525040955088
 20
123.4461886428639
 30
0.0
 10
223.8026378191912
 20
123.5873683767331
 30
0.0
 10
223.89569495518
 20
123.7138061769341
 30
0.0
 10
224.0351810401083
 20
123.8128032293446
 30
0.0
 10
224.1515448646609
 20
123.8241507222947
 30
0.0
 10
224.2097423550256
 20
123.8298259879038
 30
0.0
  0
SPLINE
  5
21C
330
1F
100
AcDbEntity
  8
0
  6
Continuous
 62
     7
370
    18
100
AcDbSpline
210
0.0
220
0.0
230
1.0
 70
     8
 71
     3
 72
    11
 73
     7
 74
     0
 42
0.000000001
 43
0.00000001
 40
0.0
 40
0.0
 40
0.0
 40
0.0
 40
0.2798399979573804
 40
0.5592260384591592
 40
0.7795665615265372
 40
1.0
 40
1.0
 40
1.0
 40
1.0
 10
223.9946039716804
 20
122.8758790477997
 30
0.0
 10
223.951661508936
 20
122.8997365976763
 30
0.0
 10
223.8658462448653
 20
122.9474129956259
 30
0.0
 10
223.7862696646853
 20
123.0626946121944
 30
0.0
 10
223.7495775320286
 20
123.1835476086713
 30
0.0
 10
223.7464327287619
 20
123.2602778027433
 30
0.0
 10
223.7448599956653
 20
123.298650987164
 30
0.0
  0
SPLINE
  5
21D
330
1F
100
AcDbEntity
  8
0
  6
Continuous
 62
     7
370
    18
100
AcDbSpline
210
0.0
220
0.0
230
1.0
 70
     8
 71
     3
 72
    11
 73
     7
 74
     0
 42
0.000000001
 43
0.00000001
 40
0.0
 40
0.0
 40
0.0
 40
0.0
 40
0.2804755498465856
 40
0.5600957930369872
 40
0.7800256682201218
 40
0.9999999999999999
 40
0.9999999999999999
 40
0.9999999999999999
 40
0.9999999999999999
 10
223.6648085041881
 20
122.3522088743858
 30
0.0
 10
223.668134897135
 20
122.4145953068071
 30
0.0
 10
223.6747775392356
 20
122.5391779250099
 30
0.0
 10
223.7460171641164
 20
122.7010116336038
 30
0.0
 10
223.8578088450499
 20
122.8204354848284
 30
0.0
 10
223.9490025241343
 20
122.8573966150487
 30
0.0
 10
223.9946039716804
 20
122.8758790477997
 30
0.0
  0
SPLINE
  5
21E
330
1F
100
AcDbEntity
  8
0
  6
Continuous
 62
     7
370
    18
100
AcDbSpline
210
0.0
220
0.0
230
1.0
 70
     8
 71
     3
 72
    12
 73
     8
 74
     0
 42
0.000000001
 43
0.00000001
 40
0.0
 40
0.0
 40
0.0
 40
0.0
 40
0.1866482491791782
 40
0.3730988090506981
 40
0.5597919176482344
 40
0.7796545203293586
 40
1.0
 40
1.0
 40
1.0
 40
1.0
 10
224.2130778338371
 20
121.7218033790023
 30
0.0
 10
224.1546661463042
 20
121.7265637816976
 30
0.0
 10
224.0379046382322
 20
121.7360795450869
 30
0.0
 10
223.8825289654981
 20
121.8255013672405
 30
0.0
 10
223.7569913434587
 20
121.963071068743
 30
0.0
 10
223.6764591400986
 20
122.1461226513434
 30
0.0
 10
223.6686948884357
 20
122.2834632490792
 30
0.0
 10
223.6648085041881
 20
122.3522088743858
 30
0.0
  0
SPLINE
  5
21F
330
1F
100
AcDbEntity
  8
0
  6
Continuous
 62
     7
370
    18
100
AcDbSpline
210
0.0
220
0.0
230
1.0
 70
     8
 71
     3
 72
    10
 73
     6
 74
     0
 42
0.000000001
 43
0.00000001
 40
0.0
 40
0.0
 40
0.0
 40
0.0
 40
0.2795751783825469
 40
0.5597049368157196
 40
1.0
 40
1.0
 40
1.0
 40
1.0
 10
223.2837300499681
 20
123.6130198651529
 30
0.0
 10
223.3196085908736
 20
123.5405167176858
 30
0.0
 10
223.3914368432482
 20
123.3953666016893
 30
0.0
 10
223.4410349665521
 20
123.1088449417035
 30
0.0
 10
223.4474296707789
 20
122.9016252602156
 30
0.0
 10
223.4513378602487
 20
122.7749808137502
 30
0.0
  0
SPLINE
  5
220
330
1F
100
AcDbEntity
  8
0
  6
Continuous
 62
     7
370
    18
100
AcDbSpline
210
0.0
220
0.0
230
1.0
 70
     8
 71
     3
 72
    11
 73
     7
 74
     0
 42
0.000000001
 43
0.00000001
 40
0.0
 40
0.0
 40
0.0
 40
0.0
 40
0.2798903849624104
 40
0.5594964420644629
 40
0.7796718965173899
 40
1.0
 40
1.0
 40
1.0
 40
1.0
 10
222.9055701397083
 20
123.8298259879038
 30
0.0
 10
222.9483270814288
 20
123.8269734696319
 30
0.0
 10
223.0337975300453
 20
123.8212713308312
 30
0.0
 10
223.1425677851482
 20
123.7676462489018
 30
0.0
 10
223.226088110661
 20
123.6956068808169
 30
0.0
 10
223.2645116318594
 20
123.6405552294459
 30
0.0
 10
223.2837300499681
 20
123.6130198651529
 30
0.0
  0
SPLINE
  5
221
330
1F
100
AcDbEntity
  8
0
  6
Continuous
 62
     7
370
    18
100
AcDbSpline
210
0.0
220
0.0
230
1.0
 70
     8
 71
     3
 72
    13
 73
     9
 74
     0
 42
0.000000001
 43
0.00000001
 40
0.0
 40
0.0
 40
0.0
 40
0.0
 40
0.2504890583456495
 40
0.5006738274425616
 40
0.6258446378555225
 40
0.7507584155659042
 40
0.87530070992993
 40
1.0
 40
1.0
 40
1.0
 40
1.0
 10
222.3573008100593
 20
122.7749808137502
 30
0.0
 10
222.3600194246744
 20
122.8852210111079
 30
0.0
 10
222.3654533513843
 20
123.1055674881703
 30
0.0
 10
222.4155067234259
 20
123.3789949237176
 30
0.0
 10
222.5004422488031
 20
123.5834524580027
 30
0.0
 10
222.5974303244922
 20
123.7189650790818
 30
0.0
 10
222.7393859875758
 20
123.8150643611703
 30
0.0
 10
222.8501521653579
 20
123.824903379814
 30
0.0
 10
222.9055701397083
 20
123.8298259879038
 30
0.0
  0
SPLINE
  5
222
330
1F
100
AcDbEntity
  8
0
  6
Continuous
 62
     7
370
    18
100
AcDbSpline
210
0.0
220
0.0
230
1.0
 70
     8
 71
     3
 72
    13
 73
     9
 74
     0
 42
0.000000001
 43
0.00000001
 40
0.0
 40
0.0
 40
0.0
 40
0.0
 40
0.1245870753534858
 40
0.2492227148385385
 40
0.3742192396120906
 40
0.4992998133209621
 40
0.7494812006579978
 40
1.0
 40
1.0
 40
1.0
 40
1.0
 10
222.9030685305997
 20
121.7218033790023
 30
0.0
 10
222.8478048873108
 20
121.7274400752794
 30
0.0
 10
222.7372560589253
 20
121.7387156650218
 30
0.0
 10
222.5984671027026
 20
121.8373486778581
 30
0.0
 10
222.4954279940195
 20
121.9673530144181
 30
0.0
 10
222.4094041088511
 20
122.1716989654717
 30
0.0
 10
222.3642332222319
 20
122.4452011446575
 30
0.0
 10
222.3596126520206
 20
122.6650048835809
 30
0.0
 10
222.3573008100593
 20
122.7749808137502
 30
0.0
  0
SPLINE
  5
223
330
1F
100
AcDbEntity
  8
0
  6
Continuous
 62
     7
370
    18
100
AcDbSpline
210
0.0
220
0.0
230
1.0
 70
     8
 71
     3
 72
    13
 73
     9
 74
     0
 42
0.000000001
 43
0.00000001
 40
0.0
 40
0.0
 40
0.0
 40
0.0
 40
0.2504702058475057
 40
0.5006494994159213
 40
0.625802706213278
 40
0.7507410958263503
 40
0.8752785399750089
 40
1.0
 40
1.0
 40
1.0
 40
1.0
 10
223.4513378602487
 20
122.7749808137502
 30
0.0
 10
223.4486243649936
 20
122.6648483581986
 30
0.0
 10
223.4432005261121
 20
122.4447113620447
 30
0.0
 10
223.392430668388
 20
122.1717807618087
 30
0.0
 10
223.3080789209524
 20
121.9673566493574
 30
0.0
 10
223.2111961609959
 20
121.8319018206251
 30
0.0
 10
223.069119544127
 20
121.7362235558232
 30
0.0
 10
222.9584461034039
 20
121.7266124697437
 30
0.0
 10
222.9030685305997
 20
121.7218033790023
 30
0.0
  0
SPLINE
  5
224
330
1F
100
AcDbEntity
  8
0
  6
Continuous
 62
     7
370
    18
100
AcDbSpline
210
0.0
220
0.0
230
1.0
 70
     8
 71
     3
 72
    12
 73
     8
 74
     0
 42
0.000000001
 43
0.00000001
 40
0.0
 40
0.0
 40
0.0
 40
0.0
 40
0.1861323399318238
 40
0.372610881981555
 40
0.5594136204052347
 40
0.779503096820601
 40
0.9999999999999999
 40
0.9999999999999999
 40
0.9999999999999999
 40
0.9999999999999999
 10
221.642674474684
 20
123.1093625646084
 30
0.0
 10
221.7003167896191
 20
123.1026766642255
 30
0.0
 10
221.8157086329457
 20
123.0892924278299
 30
0.0
 10
221.9578543577743
 20
122.9821807836665
 30
0.0
 10
222.0690243765785
 20
122.8366194658537
 30
0.0
 10
222.1348212763594
 20
122.6512948553557
 30
0.0
 10
222.140825352135
 20
122.5158759542443
 30
0.0
 10
222.1438301661199
 20
122.448103890218
 30
0.0
  0
SPLINE
  5
225
330
1F
100
AcDbEntity
  8
0
  6
Continuous
 62
     7
370
    18
100
AcDbSpline
210
0.0
220
0.0
230
1.0
 70
     8
 71
     3
 72
     9
 73
     5
 74
     0
 42
0.000000001
 43
0.00000001
 40
0.0
 40
0.0
 40
0.0
 40
0.0
 40
0.5597945537684227
 40
1.0
 40
1.0
 40
1.0
 40
1.0
 10
221.3383120331299
 20
123.0288941382797
 30
0.0
 10
221.3924328391703
 20
123.0547021434252
 30
0.0
 10
221.4891126044093
 20
123.1008047804941
 30
0.0
 10
221.5957375798089
 20
123.1067468383697
 30
0.0
 10
221.642674474684
 20
123.1093625646084
 30
0.0
  0
LINE
  5
226
330
1F
100
AcDbEntity
  8
0
  6
Continuous
 62
     7
370
    18
100
AcDbLine
 10
221.4154449806
 20
123.5363038525
 30
0.0
 11
221.3383120331
 21
123.0288941383
 31
0.0
  0
LINE
  5
227
330
1F
100
AcDbEntity
  8
0
  6
Continuous
 62
     7
370
    18
100
AcDbLine
 10
222.0637786746
 20
123.5363038525
 30
0.0
 11
221.4154449806
 21
123.5363038525
 31
0.0
  0
LINE
  5
228
330
1F
100
AcDbEntity
  8
0
  6
Continuous
 62
     7
370
    18
100
AcDbLine
 10
222.0637786746
 20
123.7764583269
 30
0.0
 11
222.0637786746
 21
123.5363038525
 31
0.0
  0
LINE
  5
229
330
1F
100
AcDbEntity
  8
0
  6
Continuous
 62
     7
370
    18
100
AcDbLine
 10
221.2365799294
 20
123.7764583269
 30
0.0
 11
222.0637786746
 21
123.7764583269
 31
0.0
  0
LINE
  5
22A
330
1F
100
AcDbEntity
  8
0
  6
Continuous
 62
     7
370
    18
100
AcDbLine
 10
221.0764769464
 20
122.723697827
 30
0.0
 11
221.2365799294
 21
123.7764583269
 31
0.0
  0
LINE
  5
22B
330
1F
100
AcDbEntity
  8
0
  6
Continuous
 62
     7
370
    18
100
AcDbLine
 10
221.2899475904
 20
122.6932615829
 30
0.0
 11
221.0764769464
 21
122.723697827
 31
0.0
  0
SPLINE
  5
22C
330
1F
100
AcDbEntity
  8
0
  6
Continuous
 62
     7
370
    18
100
AcDbSpline
210
0.0
220
0.0
230
1.0
 70
     8
 71
     3
 72
    10
 73
     6
 74
     0
 42
0.000000001
 43
0.00000001
 40
0.0
 40
0.0
 40
0.0
 40
0.0
 40
0.2801682771676897
 40
0.5607715634932476
 40
1.0
 40
1.0
 40
1.0
 40
1.0
 10
221.5830527909276
 20
122.895891920669
 30
0.0
 10
221.5480647776899
 20
122.892024952819
 30
0.0
 10
221.4780344263412
 20
122.8842850129901
 30
0.0
 10
221.3671899137842
 20
122.8176304706368
 30
0.0
 10
221.319218741368
 20
122.7403914507044
 30
0.0
 10
221.2899475903623
 20
122.6932615828671
 30
0.0
  0
SPLINE
  5
22D
330
1F
100
AcDbEntity
  8
0
  6
Continuous
 62
     7
370
    18
100
AcDbSpline
210
0.0
220
0.0
230
1.0
 70
     8
 71
     3
 72
    11
 73
     7
 74
     0
 42
0.000000001
 43
0.00000001
 40
0.0
 40
0.0
 40
0.0
 40
0.0
 40
0.2810318196216979
 40
0.5605860755662309
 40
0.7803889752949
 40
1.0
 40
1.0
 40
1.0
 40
1.0
 10
221.9303595221805
 20
122.4364297143775
 30
0.0
 10
221.927503029015
 20
122.4969814625067
 30
0.0
 10
221.9218050610921
 20
122.6177665995707
 30
0.0
 10
221.847763213851
 20
122.7728678930223
 30
0.0
 10
221.7260711575699
 20
122.8789768695028
 30
0.0
 10
221.6307116998824
 20
122.8902552118852
 30
0.0
 10
221.5830527909276
 20
122.895891920669
 30
0.0
  0
SPLINE
  5
22E
330
1F
100
AcDbEntity
  8
0
  6
Continuous
 62
     7
370
    18
100
AcDbSpline
210
0.0
220
0.0
230
1.0
 70
     8
 71
     3
 72
    12
 73
     8
 74
     0
 42
0.000000001
 43
0.00000001
 40
0.0
 40
0.0
 40
0.0
 40
0.0
 40
0.185883519747884
 40
0.3723018513499677
 40
0.5590684864252757
 40
0.7793243380015258
 40
1.0
 40
1.0
 40
1.0
 40
1.0
 10
221.5776326378588
 20
121.9352740229417
 30
0.0
 10
221.6201339410419
 20
121.9407960134283
 30
0.0
 10
221.7052588293663
 20
121.9518558819097
 30
0.0
 10
221.8060466616836
 20
122.0367444087931
 30
0.0
 10
221.8819372911298
 20
122.1483159630124
 30
0.0
 10
221.9242835411003
 20
122.2866292348856
 30
0.0
 10
221.9283329100205
 20
122.3864645368522
 30
0.0
 10
221.9303595221805
 20
122.4364297143775
 30
0.0
  0
SPLINE
  5
22F
330
1F
100
AcDbEntity
  8
0
  6
Continuous
 62
     7
370
    18
100
AcDbSpline
210
0.0
220
0.0
230
1.0
 70
     8
 71
     3
 72
    11
 73
     7
 74
     0
 42
0.000000001
 43
0.00000001
 40
0.0
 40
0.0
 40
0.0
 40
0.0
 40
0.28110743811844
 40
0.5611160017532828
 40
0.7809929910720561
 40
1.0
 40
1.0
 40
1.0
 40
1.0
 10
221.2632637598699
 20
122.3355314803281
 30
0.0
 10
221.2714794888227
 20
122.2838852306093
 30
0.0
 10
221.2878788306984
 20
122.1807946210482
 30
0.0
 10
221.3521336159993
 20
122.0485063729142
 30
0.0
 10
221.4545111740158
 20
121.9535550339358
 30
0.0
 10
221.5366464209368
 20
121.9413596351394
 30
0.0
 10
221.5776326378588
 20
121.9352740229417
 30
0.0
  0
LINE
  5
230
330
1F
100
AcDbEntity
  8
0
  6
Continuous
 62
     7
370
    18
100
AcDbLine
 10
221.0497931159
 20
122.3088476498
 30
0.0
 11
221.2632637599
 21
122.3355314803
 31
0.0
  0
SPLINE
  5
231
330
1F
100
AcDbEntity
  8
0
  6
Continuous
 62
     7
370
    18
100
AcDbSpline
210
0.0
220
0.0
230
1.0
 70
     8
 71
     3
 72
    12
 73
     8
 74
     0
 42
0.000000001
 43
0.00000001
 40
0.0
 40
0.0
 40
0.0
 40
0.0
 40
0.1865885886654281
 40
0.3730457041861916
 40
0.5597053661028952
 40
0.7796179230979429
 40
1.0
 40
1.0
 40
1.0
 40
1.0
 10
221.579717312116
 20
121.7218033790023
 30
0.0
 10
221.5249003388497
 20
121.7261652270471
 30
0.0
 10
221.4153050171864
 20
121.7348858497126
 30
0.0
 10
221.2696115422621
 20
121.8187022129915
 30
0.0
 10
221.150564343892
 20
121.9467407600392
 30
0.0
 10
221.0736239456856
 20
122.1170422290563
 30
0.0
 10
221.0577423710955
 20
122.2448670731005
 30
0.0
 10
221.0497931159305
 20
122.3088476498356
 30
0.0
  0
SPLINE
  5
232
330
1F
100
AcDbEntity
  8
0
  6
Continuous
 62
     7
370
    18
100
AcDbSpline
210
0.0
220
0.0
230
1.0
 70
     8
 71
     3
 72
    13
 73
     9
 74
     0
 42
0.000000001
 43
0.00000001
 40
0.0
 40
0.0
 40
0.0
 40
0.0
 40
0.1868890796518113
 40
0.3736670037034764
 40
0.5603596573753046
 40
0.7069433013335578
 40
0.8533827747571263
 40
1.0
 40
1.0
 40
1.0
 40
1.0
 10
222.1438301661199
 20
122.448103890218
 30
0.0
 10
222.1407365860777
 20
122.384185071401
 30
0.0
 10
222.1345512659551
 20
122.25638545062
 30
0.0
 10
222.0773879503137
 20
122.071613574912
 30
0.0
 10
221.9866039377979
 20
121.9168485127786
 30
0.0
 10
221.8687348432038
 20
121.8005888299155
 30
0.0
 10
221.730550772005
 20
121.7323526735813
 30
0.0
 10
221.630015458447
 20
121.7253212321551
 30
0.0
 10
221.579717312116
 20
121.7218033790023
 30
0.0
  0
LINE
  5
233
330
1F
100
AcDbEntity
  8
0
  6
Continuous
 62
     7
370
    18
100
AcDbLine
 10
219.8577763757
 20
121.7484872095
 30
0.0
 11
219.3687117949
 21
123.5417240056
 31
0.0
  0
LINE
  5
234
330
1F
100
AcDbEntity
  8
0
  6
Continuous
 62
     7
370
    18
100
AcDbLine
 10
220.0762502378
 20
121.7484872095
 30
0.0
 11
219.8577763757
 21
121.7484872095
 31
0.0
  0
LINE
  5
235
330
1F
100
AcDbEntity
  8
0
  6
Continuous
 62
     7
370
    18
100
AcDbLine
 10
220.5694841671
 20
123.4445781852
 30
0.0
 11
220.0762502378
 21
121.7484872095
 31
0.0
  0
LINE
  5
236
330
1F
100
AcDbEntity
  8
0
  6
Continuous
 62
     7
370
    18
100
AcDbLine
 10
220.5694841671
 20
121.7484872095
 30
0.0
 11
220.5694841671
 21
123.4445781852
 31
0.0
  0
LINE
  5
237
330
1F
100
AcDbEntity
  8
0
  6
Continuous
 62
     7
370
    18
100
AcDbLine
 10
220.782954811
 20
121.7484872095
 30
0.0
 11
220.5694841671
 21
121.7484872095
 31
0.0
  0
LINE
  5
238
330
1F
100
AcDbEntity
  8
0
  6
Continuous
 62
     7
370
    18
100
AcDbLine
 10
220.782954811
 20
123.8031421574
 30
0.0
 11
220.782954811
 21
121.7484872095
 31
0.0
  0
LINE
  5
239
330
1F
100
AcDbEntity
  8
0
  6
Continuous
 62
     7
370
    18
100
AcDbLine
 10
220.4806770437
 20
123.8031421574
 30
0.0
 11
220.782954811
 21
123.8031421574
 31
0.0
  0
LINE
  5
23A
330
1F
100
AcDbEntity
  8
0
  6
Continuous
 62
     7
370
    18
100
AcDbLine
 10
220.0620744529
 20
122.3734725518
 30
0.0
 11
220.4806770437
 21
123.8031421574
 31
0.0
  0
SPLINE
  5
23B
330
1F
100
AcDbEntity
  8
0
  6
Continuous
 62
     7
370
    18
100
AcDbSpline
210
0.0
220
0.0
230
1.0
 70
     8
 71
     3
 72
     9
 73
     5
 74
     0
 42
0.000000001
 43
0.00000001
 40
0.0
 40
0.0
 40
0.0
 40
0.0
 40
0.5599947003108225
 40
1.0
 40
1.0
 40
1.0
 40
1.0
 10
219.9690979809873
 20
122.0440940191686
 30
0.0
 10
219.9860278873053
 20
122.1056978151975
 30
0.0
 10
220.016260148983
 20
122.2157056349049
 30
0.0
 10
220.0480755206947
 20
122.3252655906485
 30
0.0
 10
220.0620744528593
 20
122.3734725518095
 30
0.0
  0
LINE
  5
23C
330
1F
100
AcDbEntity
  8
0
  6
Continuous
 62
     7
370
    18
100
AcDbLine
 10
219.8890464895
 20
122.3484564607
 30
0.0
 11
219.969097981
 21
122.0440940192
 31
0.0
  0
LINE
  5
23D
330
1F
100
AcDbEntity
  8
0
  6
Continuous
 62
     7
370
    18
100
AcDbLine
 10
219.489205967
 20
123.8031421574
 30
0.0
 11
219.8890464895
 21
122.3484564607
 31
0.0
  0
LINE
  5
23E
330
1F
100
AcDbEntity
  8
0
  6
Continuous
 62
     7
370
    18
100
AcDbLine
 10
219.155241151
 20
123.8031421574
 30
0.0
 11
219.489205967
 21
123.8031421574
 31
0.0
  0
LINE
  5
23F
330
1F
100
AcDbEntity
  8
0
  6
Continuous
 62
     7
370
    18
100
AcDbLine
 10
219.155241151
 20
121.7484872095
 30
0.0
 11
219.155241151
 21
123.8031421574
 31
0.0
  0
LINE
  5
240
330
1F
100
AcDbEntity
  8
0
  6
Continuous
 62
     7
370
    18
100
AcDbLine
 10
219.3687117949
 20
121.7484872095
 30
0.0
 11
219.155241151
 21
121.7484872095
 31
0.0
  0
LINE
  5
241
330
1F
100
AcDbEntity
  8
0
  6
Continuous
 62
     7
370
    18
100
AcDbLine
 10
219.3687117949
 20
123.5417240056
 30
0.0
 11
219.3687117949
 21
121.7484872095
 31
0.0
  0
SPLINE
  5
242
330
1F
100
AcDbEntity
  8
0
  6
Continuous
 62
     7
370
    18
100
AcDbSpline
210
0.0
220
0.0
230
1.0
 70
     8
 71
     3
 72
    14
 73
    10
 74
     0
 42
0.000000001
 43
0.00000001
 40
0.0
 40
0.0
 40
0.0
 40
0.0
 40
0.1250267645254266
 40
0.2499561862380696
 40
0.3747506313882859
 40
0.4996959194189195
 40
0.6663177050472614
 40
0.833099850767625
 40
1.0
 40
1.0
 40
1.0
 40
1.0
 10
218.1708579667088
 20
123.589671513472
 30
0.0
 10
218.1248303784953
 20
123.5868551831622
 30
0.0
 10
218.0328110380344
 20
123.5812247152693
 30
0.0
 10
217.9027233283394
 20
123.5287664162127
 30
0.0
 10
217.7948691866165
 20
123.4402364039164
 30
0.0
 10
217.7080653831663
 20
123.3126790435892
 30
0.0
 10
217.6453506470383
 20
123.1551282668213
 30
0.0
 10
217.6123597299626
 20
122.97340944271
 30
0.0
 10
217.6091729405851
 20
122.8508666152985
 30
0.0
 10
217.6075789824078
 20
122.7895735335507
 30
0.0
  0
SPLINE
  5
243
330
1F
100
AcDbEntity
  8
0
  6
Continuous
 62
     7
370
    18
100
AcDbSpline
210
0.0
220
0.0
230
1.0
 70
     8
 71
     3
 72
    11
 73
     7
 74
     0
 42
0.000000001
 43
0.00000001
 40
0.0
 40
0.0
 40
0.0
 40
0.0
 40
0.2807713074051781
 40
0.5604369820882217
 40
0.7800147849953764
 40
1.0
 40
1.0
 40
1.0
 40
1.0
 10
218.6215645411199
 20
123.1627302255932
 30
0.0
 10
218.6029711162737
 20
123.2231192079095
 30
0.0
 10
218.5658574845292
 20
123.3436593703411
 30
0.0
 10
218.4621861567822
 20
123.4899262728021
 30
0.0
 10
218.3200354812731
 20
123.5777007896214
 30
0.0
 10
218.2206145212373
 20
123.5856788073611
 30
0.0
 10
218.1708579667088
 20
123.589671513472
 30
0.0
  0
LINE
  5
244
330
1F
100
AcDbEntity
  8
0
  6
Continuous
 62
     7
370
    18
100
AcDbLine
 10
218.8350351851
 20
123.2160978866
 30
0.0
 11
218.6215645411
 21
123.1627302256
 31
0.0
  0
SPLINE
  5
245
330
1F
100
AcDbEntity
  8
0
  6
Continuous
 62
     7
370
    18
100
AcDbSpline
210
0.0
220
0.0
230
1.0
 70
     8
 71
     3
 72
    12
 73
     8
 74
     0
 42
0.000000001
 43
0.00000001
 40
0.0
 40
0.0
 40
0.0
 40
0.0
 40
0.1866161660947007
 40
0.3730652985771178
 40
0.5597027812570801
 40
0.7796715026895155
 40
1.0
 40
1.0
 40
1.0
 40
1.0
 10
218.1796135985891
 20
123.8298259879038
 30
0.0
 10
218.2405738236102
 20
123.8253681746654
 30
0.0
 10
218.3624397102841
 20
123.8164565382215
 30
0.0
 10
218.5301121207496
 20
123.7350715469026
 30
0.0
 10
218.6730806087669
 20
123.602547119486
 30
0.0
 10
218.7778699625868
 20
123.4236864875691
 30
0.0
 10
218.815969733534
 20
123.2853317710662
 30
0.0
 10
218.8350351850593
 20
123.2160978865781
 30
0.0
  0
SPLINE
  5
246
330
1F
100
AcDbEntity
  8
0
  6
Continuous
 62
     7
370
    18
100
AcDbSpline
210
0.0
220
0.0
230
1.0
 70
     8
 71
     3
 72
    13
 73
     9
 74
     0
 42
0.000000001
 43
0.00000001
 40
0.0
 40
0.0
 40
0.0
 40
0.0
 40
0.1869886270143179
 40
0.3737840604657692
 40
0.5603785113196418
 40
0.7069405280508677
 40
0.8534458164057749
 40
1.0
 40
1.0
 40
1.0
 40
1.0
 10
217.3941083384684
 20
122.7895735335507
 30
0.0
 10
217.3973355958119
 20
122.8806303402281
 30
0.0
 10
217.40378677615
 20
123.0626498751932
 30
0.0
 10
217.4729357305901
 20
123.3287915275941
 30
0.0
 10
217.5970298782273
 20
123.5537631705379
 30
0.0
 10
217.7690247675007
 20
123.7152690507702
 30
0.0
 10
217.9648741775527
 20
123.813030354524
 30
0.0
 10
218.1080258302415
 20
123.8242268207558
 30
0.0
 10
218.1796135985891
 20
123.8298259879038
 30
0.0
  0
SPLINE
  5
247
330
1F
100
AcDbEntity
  8
0
  6
Continuous
 62
     7
370
    18
100
AcDbSpline
210
0.0
220
0.0
230
1.0
 70
     8
 71
     3
 72
    14
 73
    10
 74
     0
 42
0.000000001
 43
0.00000001
 40
0.0
 40
0.0
 40
0.0
 40
0.0
 40
0.1249789553015499
 40
0.2498098163504278
 40
0.3745823232578647
 40
0.499571519515909
 40
0.6662781166416193
 40
0.8331039635850062
 40
0.9999999999999999
 40
0.9999999999999999
 40
0.9999999999999999
 40
0.9999999999999999
 10
218.1604345954227
 20
121.7218033790023
 30
0.0
 10
218.0987903616054
 20
121.7252915150391
 30
0.0
 10
217.9755749395225
 20
121.7322636538337
 30
0.0
 10
217.8008804285489
 20
121.8014646840626
 30
0.0
 10
217.65665358361
 20
121.9205571191444
 30
0.0
 10
217.5409921071081
 20
122.0917281360488
 30
0.0
 10
217.4532058904751
 20
122.3008943347498
 30
0.0
 10
217.4018101119466
 20
122.5431920793659
 30
0.0
 10
217.3966759562386
 20
122.7074348674634
 30
0.0
 10
217.3941083384684
 20
122.7895735335507
 30
0.0
  0
SPLINE
  5
248
330
1F
100
AcDbEntity
  8
0
  6
Continuous
 62
     7
370
    18
100
AcDbSpline
210
0.0
220
0.0
230
1.0
 70
     8
 71
     3
 72
    13
 73
     9
 74
     0
 42
0.000000001
 43
0.00000001
 40
0.0
 40
0.0
 40
0.0
 40
0.0
 40
0.1869090516643019
 40
0.3736796016941295
 40
0.5601136847103872
 40
0.7067311959183759
 40
0.8533138294591247
 40
1.0
 40
1.0
 40
1.0
 40
1.0
 10
218.8617190155517
 20
122.4155829718053
 30
0.0
 10
218.8458651397666
 20
122.3502548188326
 30
0.0
 10
218.8141691360903
 20
122.219646921757
 30
0.0
 10
218.7291061386715
 20
122.035651735417
 30
0.0
 10
218.6114279741548
 20
121.8873324399431
 30
0.0
 10
218.4690183863597
 20
121.7874808348562
 30
0.0
 10
218.3188679494261
 20
121.7309761167046
 30
0.0
 10
218.2132581417518
 20
121.7248616777932
 30
0.0
 10
218.1604345954227
 20
121.7218033790023
 30
0.0
  0
LINE
  5
249
330
1F
100
AcDbEntity
  8
0
  6
Continuous
 62
     7
370
    18
100
AcDbLine
 10
218.6482483716
 20
122.4689506328
 30
0.0
 11
218.8617190156
 21
122.4155829718
 31
0.0
  0
SPLINE
  5
24A
330
1F
100
AcDbEntity
  8
0
  6
Continuous
 62
     7
370
    18
100
AcDbSpline
210
0.0
220
0.0
230
1.0
 70
     8
 71
     3
 72
    12
 73
     8
 74
     0
 42
0.000000001
 43
0.00000001
 40
0.0
 40
0.0
 40
0.0
 40
0.0
 40
0.1865921528409283
 40
0.3730589116156781
 40
0.5596226295490472
 40
0.7796100104163921
 40
1.0
 40
1.0
 40
1.0
 40
1.0
 10
218.1537636377996
 20
121.9619578534341
 30
0.0
 10
218.2022577931003
 20
121.9657475046838
 30
0.0
 10
218.2992135145536
 20
121.9733242604534
 30
0.0
 10
218.4298446918296
 20
122.043905507262
 30
0.0
 10
218.5385828509809
 20
122.1543231197692
 30
0.0
 10
218.6119039794565
 20
122.3019230097638
 30
0.0
 10
218.636126192623
 20
122.4132408348712
 30
0.0
 10
218.6482483716123
 20
122.4689506327902
 30
0.0
  0
SPLINE
  5
24B
330
1F
100
AcDbEntity
  8
0
  6
Continuous
 62
     7
370
    18
100
AcDbSpline
210
0.0
220
0.0
230
1.0
 70
     8
 71
     3
 72
    14
 73
    10
 74
     0
 42
0.000000001
 43
0.00000001
 40
0.0
 40
0.0
 40
0.0
 40
0.0
 40
0.1669299867484153
 40
0.3337709048041682
 40
0.5004211293286641
 40
0.6254239239505631
 40
0.7503194582828497
 40
0.875093128947506
 40
1.0
 40
1.0
 40
1.0
 40
1.0
 10
217.6075789824078
 20
122.7895735335507
 30
0.0
 10
217.6089087183383
 20
122.72762659529
 30
0.0
 10
217.6115674806933
 20
122.6037657717444
 30
0.0
 10
217.6417136689456
 20
122.4200707961957
 30
0.0
 10
217.6962939440935
 20
122.2574207314541
 30
0.0
 10
217.7820640913912
 20
122.1271261383901
 30
0.0
 10
217.8856473649646
 20
122.0323622833678
 30
0.0
 10
218.0142305367354
 20
121.9715609510304
 30
0.0
 10
218.1072360651475
 20
121.9651600242286
 30
0.0
 10
218.1537636377996
 20
121.9619578534341
 30
0.0
  0
CIRCLE
  5
24C
330
1F
100
AcDbEntity
  8
0
  6
Continuous
 62
     7
370
    18
100
AcDbCircle
 10
225.8929083503
 20
125.137333682
 30
0.0
 40
25.19999999999999
  0
SPLINE
  5
24D
330
1F
100
AcDbEntity
  8
0
  6
Continuous
 62
     7
370
    18
100
AcDbSpline
210
0.0
220
0.0
230
1.0
 70
     8
 71
     3
 72
    13
 73
     9
 74
     0
 42
0.000000001
 43
0.00000001
 40
0.0
 40
0.0
 40
0.0
 40
0.0
 40
0.1237345749994066
 40
0.2484232101745689
 40
0.3734713343328615
 40
0.4987444967637459
 40
0.7493102257733214
 40
1.0
 40
1.0
 40
1.0
 40
1.0
 10
232.5688691916289
 20
121.9352740229417
 30
0.0
 10
232.6099535878185
 20
121.9426372646945
 30
0.0
 10
232.6924391630069
 20
121.9574205227575
 30
0.0
 10
232.7766337327093
 20
122.0551333168283
 30
0.0
 10
232.8337034552651
 20
122.1638753994444
 30
0.0
 10
232.8728736526809
 20
122.3246685065404
 30
0.0
 10
232.8941409756046
 20
122.5292254904001
 30
0.0
 10
232.8963227149418
 20
122.6936047261783
 30
0.0
 10
232.8974138545669
 20
122.7758146834531
 30
0.0
  0
SPLINE
  5
24E
330
1F
100
AcDbEntity
  8
0
  6
Continuous
 62
     7
370
    18
100
AcDbSpline
210
0.0
220
0.0
230
1.0
 70
     8
 71
     3
 72
    13
 73
     9
 74
     0
 42
0.000000001
 43
0.00000001
 40
0.0
 40
0.0
 40
0.0
 40
0.0
 40
0.2506668541570156
 40
0.5012048357437088
 40
0.6264537829510465
 40
0.7514291871594861
 40
0.8760522367173379
 40
1.0
 40
1.0
 40
1.0
 40
1.0
 10
232.2303180922563
 20
122.7758146834531
 30
0.0
 10
232.2313663990728
 20
122.6928694476581
 30
0.0
 10
232.2334624737517
 20
122.5270216197824
 30
0.0
 10
232.2552815727905
 20
122.3206476174046
 30
0.0
 10
232.295384053061
 20
122.1585932339688
 30
0.0
 10
232.3547553946779
 20
122.0494877308495
 30
0.0
 10
232.4438567540256
 20
121.9547974053907
 30
0.0
 10
232.5272739182208
 20
121.9417700200312
 30
0.0
 10
232.5688691916289
 20
121.9352740229417
 30
0.0
  0
SPLINE
  5
24F
330
1F
100
AcDbEntity
  8
0
  6
Continuous
 62
     7
370
    18
100
AcDbSpline
210
0.0
220
0.0
230
1.0
 70
     8
 71
     3
 72
    13
 73
     9
 74
     0
 42
0.000000001
 43
0.00000001
 40
0.0
 40
0.0
 40
0.0
 40
0.0
 40
0.1236770548154448
 40
0.2483884878623323
 40
0.3734455614730974
 40
0.4987169325064012
 40
0.7492948497723044
 40
1.0
 40
1.0
 40
1.0
 40
1.0
 10
232.5563611460856
 20
123.6163553439644
 30
0.0
 10
232.5153725814313
 20
123.6088621447047
 30
0.0
 10
232.4330526425443
 20
123.5938130764991
 30
0.0
 10
232.3499389231227
 20
123.4954557361689
 30
0.0
 10
232.2932058740495
 20
123.3868219148329
 30
0.0
 10
232.2551900800569
 20
123.2260398856687
 30
0.0
 10
232.2334453313146
 20
123.0219909757323
 30
0.0
 10
232.2313606816472
 20
122.8578873315131
 30
0.0
 10
232.2303180922563
 20
122.7758146834531
 30
0.0
  0
SPLINE
  5
250
330
1F
100
AcDbEntity
  8
0
  6
Continuous
 62
     7
370
    18
100
AcDbSpline
210
0.0
220
0.0
230
1.0
 70
     8
 71
     3
 72
    13
 73
     9
 74
     0
 42
0.000000001
 43
0.00000001
 40
0.0
 40
0.0
 40
0.0
 40
0.0
 40
0.2506736071386397
 40
0.5012152607337999
 40
0.6264526015104157
 40
0.7514497498805411
 40
0.8760271183236275
 40
1.0
 40
1.0
 40
1.0
 40
1.0
 10
232.8974138545669
 20
122.7758146834531
 30
0.0
 10
232.8963753516548
 20
122.8589608372069
 30
0.0
 10
232.8942988924942
 20
123.0252093769252
 30
0.0
 10
232.8723846480831
 20
123.232100504729
 30
0.0
 10
232.8319921928465
 20
123.3944760804593
 30
0.0
 10
232.7722245620963
 20
123.5038168277188
 30
0.0
 10
232.6817044767435
 20
123.5975550794202
 30
0.0
 10
232.5980744588285
 20
123.6100987580698
 30
0.0
 10
232.5563611460856
 20
123.6163553439644
 30
0.0
  0
SPLINE
  5
251
330
1F
100
AcDbEntity
  8
0
  6
Continuous
 62
     7
370
    18
100
AcDbSpline
210
0.0
220
0.0
230
1.0
 70
     8
 71
     3
 72
    13
 73
     9
 74
     0
 42
0.000000001
 43
0.00000001
 40
0.0
 40
0.0
 40
0.0
 40
0.0
 40
0.18697235231713
 40
0.3735952220890922
 40
0.559616687517951
 40
0.7057758564991345
 40
0.8528542218839413
 40
0.9999999999999999
 40
0.9999999999999999
 40
0.9999999999999999
 40
0.9999999999999999
 10
231.5899061604381
 20
123.1965019485602
 30
0.0
 10
231.5878811113795
 20
123.2365637332363
 30
0.0
 10
231.5838347984171
 20
123.3166124204239
 30
0.0
 10
231.5372667455601
 20
123.4279549559522
 30
0.0
 10
231.4654921365128
 20
123.5177862339037
 30
0.0
 10
231.3661706070337
 20
123.5525445337999
 30
0.0
 10
231.2728376025476
 20
123.561440345834
 30
0.0
 10
231.210156252649
 20
123.5624718251534
 30
0.0
 10
231.1788083969142
 20
123.5629876829796
 30
0.0
  0
SPLINE
  5
252
330
1F
100
AcDbEntity
  8
0
  6
Continuous
 62
     7
370
    18
100
AcDbSpline
210
0.0
220
0.0
230
1.0
 70
     8
 71
     3
 72
    12
 73
     8
 74
     0
 42
0.000000001
 43
0.00000001
 40
0.0
 40
0.0
 40
0.0
 40
0.0
 40
0.1873195695557093
 40
0.3742734414807207
 40
0.5603335325703934
 40
0.7795763615061819
 40
1.0
 40
1.0
 40
1.0
 40
1.0
 10
231.1829777454286
 20
122.8158404291917
 30
0.0
 10
231.2228969125484
 20
122.8172542086177
 30
0.0
 10
231.3026573139543
 20
122.8200790073962
 30
0.0
 10
231.4194467496282
 20
122.8522765394877
 30
0.0
 10
231.524019419885
 20
122.9296128012951
 30
0.0
 10
231.5827553909208
 20
123.0555534316004
 30
0.0
 10
231.5875183066877
 20
123.1494350637974
 30
0.0
 10
231.5899061604381
 20
123.1965019485602
 30
0.0
  0
LINE
  5
253
330
1F
100
AcDbEntity
  8
0
  6
Continuous
 62
     7
370
    18
100
AcDbLine
 10
230.7360235847
 20
122.8158404292
 30
0.0
 11
231.1829777454
 21
122.8158404292
 31
0.0
  0
LINE
  5
254
330
1F
100
AcDbEntity
  8
0
  6
Continuous
 62
     7
370
    18
100
AcDbLine
 10
230.7360235847
 20
123.562987683
 30
0.0
 11
230.7360235847
 21
122.8158404292
 31
0.0
  0
LINE
  5
255
330
1F
100
AcDbEntity
  8
0
  6
Continuous
 62
     7
370
    18
100
AcDbLine
 10
231.1788083969
 20
123.562987683
 30
0.0
 11
230.7360235847
 21
123.562987683
 31
0.0
  0
SPLINE
  5
256
330
1F
100
AcDbEntity
  8
0
  6
Continuous
 62
     7
370
    18
100
AcDbSpline
210
0.0
220
0.0
230
1.0
 70
     8
 71
     3
 72
    13
 73
     9
 74
     0
 42
0.000000001
 43
0.00000001
 40
0.0
 40
0.0
 40
0.0
 40
0.0
 40
0.1237345749994058
 40
0.2484232101745687
 40
0.3734713343328614
 40
0.4987444967637455
 40
0.7493102257733212
 40
1.0
 40
1.0
 40
1.0
 40
1.0
 10
228.9131844141668
 20
121.9352740229417
 30
0.0
 10
228.9542688103564
 20
121.9426372646945
 30
0.0
 10
229.0367543855448
 20
121.9574205227575
 30
0.0
 10
229.1209489552472
 20
122.0551333168283
 30
0.0
 10
229.178018677803
 20
122.1638753994444
 30
0.0
 10
229.2171888752187
 20
122.3246685065403
 30
0.0
 10
229.2384561981424
 20
122.5292254904001
 30
0.0
 10
229.2406379374797
 20
122.6936047261783
 30
0.0
 10
229.2417290771047
 20
122.7758146834531
 30
0.0
  0
SPLINE
  5
257
330
1F
100
AcDbEntity
  8
0
  6
Continuous
 62
     7
370
    18
100
AcDbSpline
210
0.0
220
0.0
230
1.0
 70
     8
 71
     3
 72
    13
 73
     9
 74
     0
 42
0.000000001
 43
0.00000001
 40
0.0
 40
0.0
 40
0.0
 40
0.0
 40
0.2506668541570156
 40
0.5012048357437084
 40
0.6264537829510461
 40
0.7514291871594861
 40
0.8760522367173379
 40
1.0
 40
1.0
 40
1.0
 40
1.0
 10
228.5746333147941
 20
122.7758146834531
 30
0.0
 10
228.5756816216107
 20
122.692869447658
 30
0.0
 10
228.5777776962896
 20
122.5270216197824
 30
0.0
 10
228.5995967953284
 20
122.3206476174046
 30
0.0
 10
228.6396992755988
 20
122.1585932339687
 30
0.0
 10
228.6990706172158
 20
122.0494877308495
 30
0.0
 10
228.7881719765635
 20
121.9547974053907
 30
0.0
 10
228.8715891407587
 20
121.9417700200312
 30
0.0
 10
228.9131844141668
 20
121.9352740229417
 30
0.0
  0
SPLINE
  5
258
330
1F
100
AcDbEntity
  8
0
  6
Continuous
 62
     7
370
    18
100
AcDbSpline
210
0.0
220
0.0
230
1.0
 70
     8
 71
     3
 72
    13
 73
     9
 74
     0
 42
0.000000001
 43
0.00000001
 40
0.0
 40
0.0
 40
0.0
 40
0.0
 40
0.1236770548154464
 40
0.2483884878623325
 40
0.3734455614730951
 40
0.4987169325064013
 40
0.7492948497723046
 40
1.0
 40
1.0
 40
1.0
 40
1.0
 10
228.9006763686234
 20
123.6163553439644
 30
0.0
 10
228.8596878039691
 20
123.6088621447047
 30
0.0
 10
228.7773678650821
 20
123.5938130764991
 30
0.0
 10
228.6942541456606
 20
123.4954557361689
 30
0.0
 10
228.6375210965874
 20
123.3868219148329
 30
0.0
 10
228.5995053025948
 20
123.2260398856686
 30
0.0
 10
228.5777605538524
 20
123.0219909757323
 30
0.0
 10
228.5756759041851
 20
122.8578873315131
 30
0.0
 10
228.5746333147941
 20
122.7758146834531
 30
0.0
  0
SPLINE
  5
259
330
1F
100
AcDbEntity
  8
0
  6
Continuous
 62
     7
370
    18
100
AcDbSpline
210
0.0
220
0.0
230
1.0
 70
     8
 71
     3
 72
    13
 73
     9
 74
     0
 42
0.000000001
 43
0.00000001
 40
0.0
 40
0.0
 40
0.0
 40
0.0
 40
0.2506736071386392
 40
0.5012152607337993
 40
0.6264526015104145
 40
0.7514497498805432
 40
0.8760271183236301
 40
1.0
 40
1.0
 40
1.0
 40
1.0
 10
229.2417290771047
 20
122.7758146834531
 30
0.0
 10
229.2406905741927
 20
122.8589608372069
 30
0.0
 10
229.2386141150321
 20
123.0252093769252
 30
0.0
 10
229.2166998706209
 20
123.232100504729
 30
0.0
 10
229.1763074153843
 20
123.3944760804593
 30
0.0
 10
229.1165397846342
 20
123.5038168277188
 30
0.0
 10
229.0260196992814
 20
123.5975550794202
 30
0.0
 10
228.9423896813664
 20
123.6100987580698
 30
0.0
 10
228.9006763686234
 20
123.6163553439644
 30
0.0
  0
SPLINE
  5
25A
330
1F
100
AcDbEntity
  8
0
  6
Continuous
 62
     7
370
    18
100
AcDbSpline
210
0.0
220
0.0
230
1.0
 70
     8
 71
     3
 72
    12
 73
     8
 74
     0
 42
0.000000001
 43
0.00000001
 40
0.0
 40
0.0
 40
0.0
 40
0.0
 40
0.1864266110451019
 40
0.3728066183672681
 40
0.559638408919643
 40
0.7795953861027521
 40
1.0
 40
1.0
 40
1.0
 40
1.0
 10
224.2130778338371
 20
121.9352740229417
 30
0.0
 10
224.2498720772362
 20
121.9388296905303
 30
0.0
 10
224.3234513660518
 20
121.9459401368465
 30
0.0
 10
224.4182458640793
 20
122.0078369882797
 30
0.0
 10
224.4934129570664
 20
122.0977981702403
 30
0.0
 10
224.5386876092493
 20
122.2150591383816
 30
0.0
 10
224.5431442999356
 20
122.3014598014769
 30
0.0
 10
224.5453749104381
 20
122.3447040470598
 30
0.0
  0
SPLINE
  5
25B
330
1F
100
AcDbEntity
  8
0
  6
Continuous
 62
     7
370
    18
100
AcDbSpline
210
0.0
220
0.0
230
1.0
 70
     8
 71
     3
 72
    11
 73
     7
 74
     0
 42
0.000000001
 43
0.00000001
 40
0.0
 40
0.0
 40
0.0
 40
0.0
 40
0.2807261943832934
 40
0.5603972916125645
 40
0.7804346209650609
 40
1.0
 40
1.0
 40
1.0
 40
1.0
 10
223.8782791481275
 20
122.3530427440887
 30
0.0
 10
223.8818538880449
 20
122.2970101318684
 30
0.0
 10
223.8889899323758
 20
122.1851555035561
 30
0.0
 10
223.9675007363304
 20
122.0467800778374
 30
0.0
 10
224.0812360374774
 20
121.9519780401327
 30
0.0
 10
224.1691620336904
 20
121.9408380420985
 30
0.0
 10
224.2130778338371
 20
121.9352740229417
 30
0.0
  0
SPLINE
  5
25C
330
1F
100
AcDbEntity
  8
0
  6
Continuous
 62
     7
370
    18
100
AcDbSpline
210
0.0
220
0.0
230
1.0
 70
     8
 71
     3
 72
    11
 73
     7
 74
     0
 42
0.000000001
 43
0.00000001
 40
0.0
 40
0.0
 40
0.0
 40
0.0
 40
0.2782055765816071
 40
0.5579799253701359
 40
0.7788219222535245
 40
1.0
 40
1.0
 40
1.0
 40
1.0
 10
224.2076576807683
 20
122.7624727682069
 30
0.0
 10
224.152973405367
 20
122.7532830157435
 30
0.0
 10
224.0432964956434
 20
122.734851690762
 30
0.0
 10
223.9380519791694
 20
122.6133800427635
 30
0.0
 10
223.8849746891257
 20
122.4823793563039
 30
0.0
 10
223.8805121261328
 20
122.3961767956079
 30
0.0
 10
223.8782791481275
 20
122.3530427440887
 30
0.0
  0
SPLINE
  5
25D
330
1F
100
AcDbEntity
  8
0
  6
Continuous
 62
     7
370
    18
100
AcDbSpline
210
0.0
220
0.0
230
1.0
 70
     8
 71
     3
 72
    11
 73
     7
 74
     0
 42
0.000000001
 43
0.00000001
 40
0.0
 40
0.0
 40
0.0
 40
0.0
 40
0.2807535301687759
 40
0.5603207228591561
 40
0.7803822345379202
 40
1.0
 40
1.0
 40
1.0
 40
1.0
 10
224.5453749104381
 20
122.3447040470598
 30
0.0
 10
224.5416907067406
 20
122.4009429978111
 30
0.0
 10
224.5343378671247
 20
122.5131832589358
 30
0.0
 10
224.4542127431304
 20
122.6512225409354
 30
0.0
 10
224.3399784113791
 20
122.7459693553106
 30
0.0
 10
224.2517349043917
 20
122.7569753331684
 30
0.0
 10
224.2076576807683
 20
122.7624727682069
 30
0.0
  0
SPLINE
  5
25E
330
1F
100
AcDbEntity
  8
0
  6
Continuous
 62
     7
370
    18
100
AcDbSpline
210
0.0
220
0.0
230
1.0
 70
     8
 71
     3
 72
    11
 73
     7
 74
     0
 42
0.000000001
 43
0.00000001
 40
0.0
 40
0.0
 40
0.0
 40
0.0
 40
0.2783889696083879
 40
0.5580817055296868
 40
0.7789018539988232
 40
1.0
 40
1.0
 40
1.0
 40
1.0
 10
224.2130778338371
 20
122.9759434121463
 30
0.0
 10
224.2550648802525
 20
122.983108872585
 30
0.0
 10
224.3392356090951
 20
122.9974733511354
 30
0.0
 10
224.419339004845
 20
123.0911671963367
 30
0.0
 10
224.46035446662
 20
123.1914865272281
 30
0.0
 10
224.4636664070331
 20
123.2576344551752
 30
0.0
 10
224.4653234189608
 20
123.2907292249866
 30
0.0
  0
SPLINE
  5
25F
330
1F
100
AcDbEntity
  8
0
  6
Continuous
 62
     7
370
    18
100
AcDbSpline
210
0.0
220
0.0
230
1.0
 70
     8
 71
     3
 72
    11
 73
     7
 74
     0
 42
0.000000001
 43
0.00000001
 40
0.0
 40
0.0
 40
0.0
 40
0.0
 40
0.2806987831964729
 40
0.5604086902325236
 40
0.7804393617933023
 40
1.0
 40
1.0
 40
1.0
 40
1.0
 10
223.9583306396048
 20
123.3044880750842
 30
0.0
 10
223.9607583230359
 20
123.2609309278418
 30
0.0
 10
223.9656051373913
 20
123.1739700812059
 30
0.0
 10
224.0228751371886
 20
123.0644711853171
 30
0.0
 10
224.1102955705347
 20
122.9886740190141
 30
0.0
 10
224.1788415103364
 20
122.9801839217545
 30
0.0
 10
224.2130778338371
 20
122.9759434121463
 30
0.0
  0
SPLINE
  5
260
330
1F
100
AcDbEntity
  8
0
  6
Continuous
 62
     7
370
    18
100
AcDbSpline
210
0.0
220
0.0
230
1.0
 70
     8
 71
     3
 72
    11
 73
     7
 74
     0
 42
0.000000001
 43
0.00000001
 40
0.0
 40
0.0
 40
0.0
 40
0.0
 40
0.2781848052830314
 40
0.5582334878196246
 40
0.7790790531104524
 40
1.0
 40
1.0
 40
1.0
 40
1.0
 10
224.2105762247284
 20
123.6163553439644
 30
0.0
 10
224.1690192903039
 20
123.6090499622416
 30
0.0
 10
224.0856269841594
 20
123.5943902517127
 30
0.0
 10
224.0061956698789
 20
123.5017613939391
 30
0.0
 10
223.9640576149669
 20
123.4028548874442
 30
0.0
 10
223.9602398485425
 20
123.3372807423238
 30
0.0
 10
223.9583306396048
 20
123.3044880750842
 30
0.0
  0
SPLINE
  5
261
330
1F
100
AcDbEntity
  8
0
  6
Continuous
 62
     7
370
    18
100
AcDbSpline
210
0.0
220
0.0
230
1.0
 70
     8
 71
     3
 72
    11
 73
     7
 74
     0
 42
0.000000001
 43
0.00000001
 40
0.0
 40
0.0
 40
0.0
 40
0.0
 40
0.2805990159984029
 40
0.5604527759419506
 40
0.7805133266133522
 40
1.0
 40
1.0
 40
1.0
 40
1.0
 10
224.4653234189608
 20
123.2907292249866
 30
0.0
 10
224.4626394964628
 20
123.3338685115529
 30
0.0
 10
224.4572787798221
 20
123.420032509036
 30
0.0
 10
224.3967662611471
 20
123.5259211689871
 30
0.0
 10
224.3120289998525
 20
123.6020749667476
 30
0.0
 10
224.2443643685616
 20
123.6115993632748
 30
0.0
 10
224.2105762247284
 20
123.6163553439644
 30
0.0
  0
SPLINE
  5
262
330
1F
100
AcDbEntity
  8
0
  6
Continuous
 62
     7
370
    18
100
AcDbSpline
210
0.0
220
0.0
230
1.0
 70
     8
 71
     3
 72
    13
 73
     9
 74
     0
 42
0.000000001
 43
0.00000001
 40
0.0
 40
0.0
 40
0.0
 40
0.0
 40
0.1237345749994041
 40
0.2484232101745683
 40
0.3734713343328609
 40
0.4987444967637457
 40
0.7493102257733247
 40
1.0
 40
1.0
 40
1.0
 40
1.0
 10
222.9093225533713
 20
121.9352740229417
 30
0.0
 10
222.9504069495609
 20
121.9426372646945
 30
0.0
 10
223.0328925247493
 20
121.9574205227575
 30
0.0
 10
223.1170870944517
 20
122.0551333168283
 30
0.0
 10
223.1741568170075
 20
122.1638753994444
 30
0.0
 10
223.2133270144233
 20
122.3246685065404
 30
0.0
 10
223.234594337347
 20
122.5292254904001
 30
0.0
 10
223.2367760766842
 20
122.6936047261783
 30
0.0
 10
223.2378672163093
 20
122.7758146834531
 30
0.0
  0
SPLINE
  5
263
330
1F
100
AcDbEntity
  8
0
  6
Continuous
 62
     7
370
    18
100
AcDbSpline
210
0.0
220
0.0
230
1.0
 70
     8
 71
     3
 72
    13
 73
     9
 74
     0
 42
0.000000001
 43
0.00000001
 40
0.0
 40
0.0
 40
0.0
 40
0.0
 40
0.2506668541570158
 40
0.5012048357437083
 40
0.626453782951046
 40
0.7514291871594861
 40
0.8760522367173379
 40
1.0
 40
1.0
 40
1.0
 40
1.0
 10
222.5707714539987
 20
122.7758146834531
 30
0.0
 10
222.5718197608153
 20
122.6928694476581
 30
0.0
 10
222.5739158354941
 20
122.5270216197824
 30
0.0
 10
222.5957349345329
 20
122.3206476174046
 30
0.0
 10
222.6358374148034
 20
122.1585932339688
 30
0.0
 10
222.6952087564203
 20
122.0494877308495
 30
0.0
 10
222.784310115768
 20
121.9547974053907
 30
0.0
 10
222.8677272799632
 20
121.9417700200312
 30
0.0
 10
222.9093225533713
 20
121.9352740229417
 30
0.0
  0
SPLINE
  5
264
330
1F
100
AcDbEntity
  8
0
  6
Continuous
 62
     7
370
    18
100
AcDbSpline
210
0.0
220
0.0
230
1.0
 70
     8
 71
     3
 72
    13
 73
     9
 74
     0
 42
0.000000001
 43
0.00000001
 40
0.0
 40
0.0
 40
0.0
 40
0.0
 40
0.1236770548154473
 40
0.2483884878623322
 40
0.3734455614730948
 40
0.4987169325064014
 40
0.7492948497723048
 40
1.0
 40
1.0
 40
1.0
 40
1.0
 10
222.896814507828
 20
123.6163553439644
 30
0.0
 10
222.8558259431737
 20
123.6088621447047
 30
0.0
 10
222.7735060042867
 20
123.5938130764991
 30
0.0
 10
222.6903922848651
 20
123.4954557361689
 30
0.0
 10
222.6336592357919
 20
123.3868219148329
 30
0.0
 10
222.5956434417993
 20
123.2260398856686
 30
0.0
 10
222.573898693057
 20
123.0219909757323
 30
0.0
 10
222.5718140433896
 20
122.8578873315131
 30
0.0
 10
222.5707714539987
 20
122.7758146834531
 30
0.0
  0
SPLINE
  5
265
330
1F
100
AcDbEntity
  8
0
  6
Continuous
 62
     7
370
    18
100
AcDbSpline
210
0.0
220
0.0
230
1.0
 70
     8
 71
     3
 72
    13
 73
     9
 74
     0
 42
0.000000001
 43
0.00000001
 40
0.0
 40
0.0
 40
0.0
 40
0.0
 40
0.2506736071386387
 40
0.5012152607337981
 40
0.6264526015104135
 40
0.751449749880542
 40
0.876027118323626
 40
1.0
 40
1.0
 40
1.0
 40
1.0
 10
223.2378672163093
 20
122.7758146834531
 30
0.0
 10
223.2368287133972
 20
122.8589608372069
 30
0.0
 10
223.2347522542367
 20
123.0252093769252
 30
0.0
 10
223.2128380098255
 20
123.232100504729
 30
0.0
 10
223.1724455545889
 20
123.3944760804593
 30
0.0
 10
223.1126779238387
 20
123.5038168277188
 30
0.0
 10
223.022157838486
 20
123.5975550794202
 30
0.0
 10
222.938527820571
 20
123.6100987580698
 30
0.0
 10
222.896814507828
 20
123.6163553439644
 30
0.0
  0
CIRCLE
  5
266
330
1F
100
AcDbEntity
  8
0
  6
Continuous
 62
     7
370
    18
100
AcDbCircle
 10
225.8929083503
 20
125.137333682
 30
0.0
 40
25.40000000000001
  0
OLE2FRAME
  5
267
330
1F
100
AcDbEntity
  8
0
100
AcDbOle2Frame
 70
     2
  3
Paintbrush Picture
 10
229.0524258301
 20
33.6996297921
 30
0.0
 11
265.1686469208
 21
28.555479607
 31
0.0
 71
     2
 72
     0
 73
     1
 90
     7296
310
80557333EF78ADA16C40002412788DD94040000000000000000041161DC7B292
310
7040002412788DD94040000000000000000041161DC7B2927040F6DD59E9338E
310
3C4000000000000000007333EF78ADA16C40F6DD59E9338E3C40000000000000
310
00000000000001000000000100000100000001000000000001000000001C0000
310
D0CF11E0A1B11AE1000000000000000000000000000000003E000300FEFF0900
310
0600000000000000000000000100000001000000000000000010000002000000
310
01000000FEFFFFFF0000000000000000FFFFFFFFFFFFFFFFFFFFFFFFFFFFFFFF
310
FFFFFFFFFFFFFFFFFFFFFFFFFFFFFFFFFFFFFFFFFFFFFFFFFFFFFFFFFFFFFFFF
310
FFFFFFFFFFFFFFFFFFFFFFFFFFFFFFFFFFFFFFFFFFFFFFFFFFFFFFFFFFFFFFFF
310
FFFFFFFFFFFFFFFFFFFFFFFFFFFFFFFFFFFFFFFFFFFFFFFFFFFFFFFFFFFFFFFF
310
FFFFFFFFFFFFFFFFFFFFFFFFFFFFFFFFFFFFFFFFFFFFFFFFFFFFFFFFFFFFFFFF
310
FFFFFFFFFFFFFFFFFFFFFFFFFFFFFFFFFFFFFFFFFFFFFFFFFFFFFFFFFFFFFFFF
310
FFFFFFFFFFFFFFFFFFFFFFFFFFFFFFFFFFFFFFFFFFFFFFFFFFFFFFFFFFFFFFFF
310
FFFFFFFFFFFFFFFFFFFFFFFFFFFFFFFFFFFFFFFFFFFFFFFFFFFFFFFFFFFFFFFF
310
FFFFFFFFFFFFFFFFFFFFFFFFFFFFFFFFFFFFFFFFFFFFFFFFFFFFFFFFFFFFFFFF
310
FFFFFFFFFFFFFFFFFFFFFFFFFFFFFFFFFFFFFFFFFFFFFFFFFFFFFFFFFFFFFFFF
310
FFFFFFFFFFFFFFFFFFFFFFFFFFFFFFFFFFFFFFFFFFFFFFFFFFFFFFFFFFFFFFFF
310
FFFFFFFFFFFFFFFFFFFFFFFFFFFFFFFFFFFFFFFFFFFFFFFFFFFFFFFFFFFFFFFF
310
FFFFFFFFFFFFFFFFFFFFFFFFFFFFFFFFFFFFFFFFFFFFFFFFFFFFFFFFFFFFFFFF
310
FFFFFFFFFFFFFFFFFFFFFFFFFFFFFFFFFFFFFFFFFFFFFFFFFFFFFFFFFFFFFFFF
310
FDFFFFFFFEFFFFFFFEFFFFFFFEFFFFFF05000000060000000700000008000000
310
090000000A0000000B0000000C000000FEFFFFFFFFFFFFFFFFFFFFFFFFFFFFFF
310
FFFFFFFFFFFFFFFFFFFFFFFFFFFFFFFFFFFFFFFFFFFFFFFFFFFFFFFFFFFFFFFF
310
FFFFFFFFFFFFFFFFFFFFFFFFFFFFFFFFFFFFFFFFFFFFFFFFFFFFFFFFFFFFFFFF
310
FFFFFFFFFFFFFFFFFFFFFFFFFFFFFFFFFFFFFFFFFFFFFFFFFFFFFFFFFFFFFFFF
310
FFFFFFFFFFFFFFFFFFFFFFFFFFFFFFFFFFFFFFFFFFFFFFFFFFFFFFFFFFFFFFFF
310
FFFFFFFFFFFFFFFFFFFFFFFFFFFFFFFFFFFFFFFFFFFFFFFFFFFFFFFFFFFFFFFF
310
FFFFFFFFFFFFFFFFFFFFFFFFFFFFFFFFFFFFFFFFFFFFFFFFFFFFFFFFFFFFFFFF
310
FFFFFFFFFFFFFFFFFFFFFFFFFFFFFFFFFFFFFFFFFFFFFFFFFFFFFFFFFFFFFFFF
310
FFFFFFFFFFFFFFFFFFFFFFFFFFFFFFFFFFFFFFFFFFFFFFFFFFFFFFFFFFFFFFFF
310
FFFFFFFFFFFFFFFFFFFFFFFFFFFFFFFFFFFFFFFFFFFFFFFFFFFFFFFFFFFFFFFF
310
FFFFFFFFFFFFFFFFFFFFFFFFFFFFFFFFFFFFFFFFFFFFFFFFFFFFFFFFFFFFFFFF
310
FFFFFFFFFFFFFFFFFFFFFFFFFFFFFFFFFFFFFFFFFFFFFFFFFFFFFFFFFFFFFFFF
310
FFFFFFFFFFFFFFFFFFFFFFFFFFFFFFFFFFFFFFFFFFFFFFFFFFFFFFFFFFFFFFFF
310
FFFFFFFFFFFFFFFFFFFFFFFFFFFFFFFFFFFFFFFFFFFFFFFFFFFFFFFFFFFFFFFF
310
FFFFFFFFFFFFFFFFFFFFFFFFFFFFFFFFFFFFFFFFFFFFFFFFFFFFFFFFFFFFFFFF
310
52006F006F007400200045006E00740072007900000000000000000000000000
310
0000000000000000000000000000000000000000000000000000000000000000
310
16000500FFFFFFFFFFFFFFFF020000000A00030000000000C000000000000046
310
000000000000000000000000D07F35354796D40103000000C000000000000000
310
01004F006C006500000000000000000000000000000000000000000000000000
310
0000000000000000000000000000000000000000000000000000000000000000
310
0A000200FFFFFFFFFFFFFFFFFFFFFFFF00000000000000000000000000000000
310
0000000000000000000000000000000000000000000000001400000000000000
310
010043006F006D0070004F0062006A0000000000000000000000000000000000
310
0000000000000000000000000000000000000000000000000000000000000000
310
120002010100000003000000FFFFFFFF00000000000000000000000000000000
310
0000000000000000000000000000000000000000010000004D00000000000000
310
01004F006C006500310030004E00610074006900760065000000000000000000
310
0000000000000000000000000000000000000000000000000000000000000000
310
1A000200FFFFFFFFFFFFFFFFFFFFFFFF00000000000000000000000000000000
310
000000000000000000000000000000000000000004000000E411000000000000
310
FEFFFFFF02000000FEFFFFFFFFFFFFFFFFFFFFFFFFFFFFFFFFFFFFFFFFFFFFFF
310
FFFFFFFFFFFFFFFFFFFFFFFFFFFFFFFFFFFFFFFFFFFFFFFFFFFFFFFFFFFFFFFF
310
FFFFFFFFFFFFFFFFFFFFFFFFFFFFFFFFFFFFFFFFFFFFFFFFFFFFFFFFFFFFFFFF
310
FFFFFFFFFFFFFFFFFFFFFFFFFFFFFFFFFFFFFFFFFFFFFFFFFFFFFFFFFFFFFFFF
310
FFFFFFFFFFFFFFFFFFFFFFFFFFFFFFFFFFFFFFFFFFFFFFFFFFFFFFFFFFFFFFFF
310
FFFFFFFFFFFFFFFFFFFFFFFFFFFFFFFFFFFFFFFFFFFFFFFFFFFFFFFFFFFFFFFF
310
FFFFFFFFFFFFFFFFFFFFFFFFFFFFFFFFFFFFFFFFFFFFFFFFFFFFFFFFFFFFFFFF
310
FFFFFFFFFFFFFFFFFFFFFFFFFFFFFFFFFFFFFFFFFFFFFFFFFFFFFFFFFFFFFFFF
310
FFFFFFFFFFFFFFFFFFFFFFFFFFFFFFFFFFFFFFFFFFFFFFFFFFFFFFFFFFFFFFFF
310
FFFFFFFFFFFFFFFFFFFFFFFFFFFFFFFFFFFFFFFFFFFFFFFFFFFFFFFFFFFFFFFF
310
FFFFFFFFFFFFFFFFFFFFFFFFFFFFFFFFFFFFFFFFFFFFFFFFFFFFFFFFFFFFFFFF
310
FFFFFFFFFFFFFFFFFFFFFFFFFFFFFFFFFFFFFFFFFFFFFFFFFFFFFFFFFFFFFFFF
310
FFFFFFFFFFFFFFFFFFFFFFFFFFFFFFFFFFFFFFFFFFFFFFFFFFFFFFFFFFFFFFFF
310
FFFFFFFFFFFFFFFFFFFFFFFFFFFFFFFFFFFFFFFFFFFFFFFFFFFFFFFFFFFFFFFF
310
FFFFFFFFFFFFFFFFFFFFFFFFFFFFFFFFFFFFFFFFFFFFFFFFFFFFFFFFFFFFFFFF
310
FFFFFFFFFFFFFFFFFFFFFFFFFFFFFFFFFFFFFFFFFFFFFFFFFFFFFFFFFFFFFFFF
310
0100000200000000000000000000000000000000000000000000000000000000
310
0000000000000000000000000000000000000000000000000000000000000000
310
0100FEFF030A0000FFFFFFFF0A00030000000000C00000000000004607000000
310
5042727573680007000000504272757368000700000050427275736800F439B2
310
7100000000000000000000000000000000000000000000000000000000000000
310
0000000000000000000000000000000000000000000000000000000000000000
310
0000000000000000000000000000000000000000000000000000000000000000
310
0000000000000000000000000000000000000000000000000000000000000000
310
0000000000000000000000000000000000000000000000000000000000000000
310
0000000000000000000000000000000000000000000000000000000000000000
310
0000000000000000000000000000000000000000000000000000000000000000
310
0000000000000000000000000000000000000000000000000000000000000000
310
0000000000000000000000000000000000000000000000000000000000000000
310
0000000000000000000000000000000000000000000000000000000000000000
310
0000000000000000000000000000000000000000000000000000000000000000
310
0000000000000000000000000000000000000000000000000000000000000000
310
E0110000424DDE11000000000000360400002800000096000000170000000100
310
08000000000000000000E7240000E72400000001000000010000000000FF0101
310
01FF020202FF030303FF040404FF050505FF060606FF070707FF080808FF0909
310
09FF0A0A0AFF0B0B0BFF0C0C0CFF0D0D0DFF0E0E0EFF0F0F0FFF101010FF1111
310
11FF121212FF131313FF141414FF151515FF161616FF171717FF181818FF1919
310
19FF1A1A1AFF1B1B1BFF1C1C1CFF1D1D1DFF1E1E1EFF1F1F1FFF202020FF2121
310
21FF222222FF232323FF242424FF252525FF262626FF272727FF282828FF2929
310
29FF2A2A2AFF2B2B2BFF2C2C2CFF2D2D2DFF2E2E2EFF2F2F2FFF303030FF3131
310
31FF323232FF333333FF343434FF353535FF363636FF373737FF383838FF3939
310
39FF3A3A3AFF3B3B3BFF3C3C3CFF3D3D3DFF3E3E3EFF3F3F3FFF404040FF4141
310
41FF424242FF434343FF444444FF454545FF464646FF474747FF484848FF4949
310
49FF4A4A4AFF4B4B4BFF4C4C4CFF4D4D4DFF4E4E4EFF4F4F4FFF505050FF5151
310
51FF525252FF535353FF545454FF555555FF565656FF575757FF585858FF5959
310
59FF5A5A5AFF5B5B5BFF5C5C5CFF5D5D5DFF5E5E5EFF5F5F5FFF606060FF6161
310
61FF626262FF636363FF646464FF656565FF666666FF676767FF686868FF6969
310
69FF6A6A6AFF6B6B6BFF6C6C6CFF6D6D6DFF6E6E6EFF6F6F6FFF707070FF7171
310
71FF727272FF737373FF747474FF757575FF767676FF777777FF787878FF7979
310
79FF7A7A7AFF7B7B7BFF7C7C7CFF7D7D7DFF7E7E7EFF7F7F7FFF808080FF8181
310
81FF828282FF838383FF848484FF858585FF868686FF878787FF888888FF8989
310
89FF8A8A8AFF8B8B8BFF8C8C8CFF8D8D8DFF8E8E8EFF8F8F8FFF909090FF9191
310
91FF929292FF939393FF949494FF959595FF969696FF979797FF989898FF9999
310
99FF9A9A9AFF9B9B9BFF9C9C9CFF9D9D9DFF9E9E9EFF9F9F9FFFA0A0A0FFA1A1
310
A1FFA2A2A2FFA3A3A3FFA4A4A4FFA5A5A5FFA6A6A6FFA7A7A7FFA8A8A8FFA9A9
310
A9FFAAAAAAFFABABABFFACACACFFADADADFFAEAEAEFFAFAFAFFFB0B0B0FFB1B1
310
B1FFB2B2B2FFB3B3B3FFB4B4B4FFB5B5B5FFB6B6B6FFB7B7B7FFB8B8B8FFB9B9
310
B9FFBABABAFFBBBBBBFFBCBCBCFFBDBDBDFFBEBEBEFFBFBFBFFFC0C0C0FFC1C1
310
C1FFC2C2C2FFC3C3C3FFC4C4C4FFC5C5C5FFC6C6C6FFC7C7C7FFC8C8C8FFC9C9
310
C9FFCACACAFFCBCBCBFFCCCCCCFFCDCDCDFFCECECEFFCFCFCFFFD0D0D0FFD1D1
310
D1FFD2D2D2FFD3D3D3FFD4D4D4FFD5D5D5FFD6D6D6FFD7D7D7FFD8D8D8FFD9D9
310
D9FFDADADAFFDBDBDBFFDCDCDCFFDDDDDDFFDEDEDEFFDFDFDFFFE0E0E0FFE1E1
310
E1FFE2E2E2FFE3E3E3FFE4E4E4FFE5E5E5FFE6E6E6FFE7E7E7FFE8E8E8FFE9E9
310
E9FFEAEAEAFFEBEBEBFFECECECFFEDEDEDFFEEEEEEFFEFEFEFFFF0F0F0FFF1F1
310
F1FFF2F2F2FFF3F3F3FFF4F4F4FFF5F5F5FFF6F6F6FFF7F7F7FFF8F8F8FFF9F9
310
F9FFFAFAFAFFFBFBFBFFFCFCFCFFFDFDFDFFFEFEFEFFFFFFFFFFFFFFFFFFFFFF
310
C94E4E4E4F4E4EFFFFFFFFFFC94E4E4E4E4E72FFFFFFFFFFFFFF734E4D4E4E4E
310
C9FFFFFFFFFFAA683516171616265B9BE9FFFFFFFFFF4E4E4E4D4E4EFFFFFFFF
310
FFFFFFFF4E4E4F4E4D4E4E4E4F4E4E4F4D4E4E4E4E4E4D4E4F4E4D4E4E4EAAFF
310
FFFFFFFFFFEA4E4F4F4E4E4E4E4E4D4D4F4F4E4E4E4E4E5B7FAAFFFFFFFFFFFF
310
C9744E1716171616164D8DEAFFFFFFFF0000FFFFFFFFFFFFBA161617161716FF
310
FFFFFFFFB917171616174FFFFFFFFFFFFFFF4E1716161616B9FFFFFFB9341717
310
1716171617171616268CFFFFFFFF161617161617FFFFFFFFFFFFFFB917161717
310
1617167F807F7F7F7F7F7F807F7F807F7F807F7F7F414EFFFFFFFFFFFF8C167F
310
7F807F7F7F7E7F7F807F807F7F807F4E3417258EFFFFEA4E162674AABAEAEBBA
310
AA74341680FFFFFF0000FFFFFFFFFFFFB9171717171617FFFFFFFFFFBB161616
310
16164EFFFFFFFFFFFFFF4E1717171717B9FFFF9C171617171716161616171616
310
171766FFFFFF161717161617FFFFFFFFFFFFFF8E16171717161616FFFFFFFFFF
310
FFFFFFFFFFFFFFFFFFFFFFFFFFAA16D9FFFFFFFFFF3467FFFFFFFFEAFFFFFFFF
310
FFFFFFFFFFFFFFFFFFCA671667EB26278DFFFFFFFFFFFFFFFFFFFF8C2541EAFF
310
0000FFFFFFFFFFFFB9171717171716FFFFFFFFFFBA16171617174EFFFFFFFFFF
310
FFFF4E1717161616BAFF9B1617161616171716171617161616161667FFFF1616
310
16161716FFFFFFFFFFFFFF7F16161617174017FFFFFFFFFFFFFFFFFFFFFFFFFF
310
FFFFFFFFFFFF344E7F7F7F7E7417DAFFFFFFFF80FFFFFFFFFFFFFFFFFFFFFFFF
310
FFFFFF9B163425CAFFFFFFFFFFFFFFFFFFFFFFFFCA2667FF0000FFFFFFFFFFFF
310
BA171717171617FFFFFFFFFFB916171716164EFFFFFFFFFFFFFF4F1716161717
310
B9C91716171616161716161617171616161617168DFF161716161717FFFFFFFF
310
FFFFFF7F17171716164F16FFFFFFFFFFFFFFFFFFFFFFFFFFFFFFFFFFFFFF9B16
310
17161617174EFFFFFFFFFF34FFFFFFFFD9BABABABABADAFFFFFFFFFF7F16AAFF
310
FFFFFFFFFFFFFFFFFFFFFFFFFF9C16BA0000FFFFFFFFFFFFB9161717161717FF
310
FFFFFFFFB917161716174DFFFFFFFFFFFFFF4E1616161616BA4E161617171716
310
419BEAEAAA4E16161617161726E9171717161616FFFFFFFFFFFFFF4F16161717
310
164E16FFFFFFFFFFBAB9B9B9B9B9BABABACAFFFFFFFFFFFFFFFFFFFFFFFFFFFF
310
FFFFBA16FFFFFFFF7F1617161617174DEAFFFFFFEA41FFFFFFFFFFAA4D16174E
310
9BFFFFFFFFFF34730000FFFFFFFFFFFFB9161617171617FFFFFFFFFFBA161616
310
16164EFFFFFFFFFFFFFF4F16161717169B1617161716175BFFFFFFFFFFFF7417
310
16171616168D171717161617FFFFFFFFFFFFEA2616171717167416FFFFFFFFFF
310
16171616171717171717EAFFFFFFFFFFFFFFFFFFFFFFFFFFFFFF6716FFFFFFFF
310
7F4EFFFFFFFFBA2573FFFFFFFFBAFFFFFFFFAA167FB9BB9B269BFFFFFFFF664F
310
0000FFFFFFFFFFFFB9171616161616FFFFFFFFFFBA16161717164EFFFFFFFFFF
310
FFFF4E16161616174E161617171626EAFFFFFFFFFFFFFF4E16161616164E1716
310
16161617FFFFFFFFFFFF671616161716347F16FFFFFFFFFF16B9FFFFFFFFFFFF
310
D9168DFFFFFFFFFFFFFFFFFFFFFFFFFFFFEA1716FFFFFFFF7F4EFFFFFFFFFF7F
310
4EFFFFFFFFFFFFFFFFFF5B66FFFFFFEA347FFFFFFFFF7F4D0000FFFFFFFFFFFF
310
B9171616171617FFFFFFFFFFBA17161716174EFFFFFFFFFFFFFF4D1716161617
310
17161716161673FFFFFFFFFFFFFFFF9B1617161717161616171616174F4E4E4E
310
4E341616171616167E7F16FFFFFFFFFF16BAFFFFFFFFFFFFFF5B41FFFFFFFF34
310
1616171616BAFFFFFF9B1716FFFFFFFF7F4EFFFFFFFFFF4E4EFFFFFFFF734E4E
310
4E4E267EDA9B67164EEAFFFFFFFF744D0000FFFFFFFFFFFFBA171717161617FF
310
FFFFFFFFBA1616171616347F7F7F7F80807F331616161717161717161716B9FF
310
FFFFFFFFFFFFFFE9161616161616171716161716171616161616171616171734
310
EA7F16FFFFFFFFFF16BAFFFFFFFFFFFFFFAA17C9FFFFFF7326BABA5B25FFFFFF
310
FF401716FFFFFFFF7F264F4E4E4E4217AAFFFFFFEA16677F73261616164173CA
310
FFFFFFFFFFFF417F0000FFFFFFFFFFFFBA171616171617FFFFFFFFFFBA161616
310
17171616161616161616161717161616161616161617EAFFFFFFFFFFFFFFFFFF
310
261717161716161617161616161617161617161616174EEAFF8016FFFFFFFFFF
310
17BAFFFFFFFFFFFFFFFF3467FFFFFFC916C9FF3467FFFFFFDA166716FFFFFFFF
310
9C4D4E4E4E4E67AAFFFFFFFF6834FF7F262567AAEAFFFFFFFFFFFFFFFF9B17D9
310
0000FFFFFFFFFFFFB9161616161616FFFFFFFFFFBA1617161717171616161616
310
1716171716161716161617171716FFFFFFFFFFFFFFFFFFFF4E17161716171616
310
1617171616161716171717161616169BFF7F17FFFFFFFFFF17B9FFFFFFFFFFFF
310
FFFF7326FFFFFFFF3473DA16AAFFFFFF7317AA16FFFFFFFFFFFFFFFFFFFFFFFF
310
FFFFEA6725BA4E167FEAFFFFFFFFFFFFFFFFFFFF9C167FFF0000FFFFFFFFFFFF
310
B9161717171716FFFFFFFFFFBA16161716171616171717161617161716161616
310
171617171617EAFFFFFFFFFFFFFFFFFF26161717161616161616161617171616
310
1616161616171616AA8016FFFFFFFFFF16BAFFFFFFFFFFFFFFFFDA179BFFFFFF
310
74348D26FFFFFFFF2566B917FFFFFFFFD8BAB9BAB9BADAFFFFEA41169B7425C9
310
FFFFFFFFFFFFFFFFFFFFAB4F1680FFFF0000FFFFFFFFFFFFBA161717171617FF
310
FFFFFFFFBA17161717161617171617161616161617171616171716171617BBFF
310
FFFFFFFFFFFFFFE9171616161617161617161716FFFFFFFFFFD9671616161617
310
348017FFFFFFFFFF16BAFFFFFFFFFFFFFFFFFF4E5AFFFFFFC916265AFFFFFFAA
310
16AABA16FFFFFFFF7F1617161616179BFFFFEB4127168DFFFFFFFFFFFFFFD99B
310
6734175AC9FFFFFF0000FFFFFFFFFFFFB9161617171617FFFFFFFFFFBB161616
310
1616347F807F7F7F7F8033171716171617171616161672FFFFFFFFFFFFFFFF9C
310
171617171617161716161617FFFFFFFFFFFFFF4117161616174E17FFFFFFFFFF
310
16BAFFFFFFFFFFFFFFFFFF9B16DAFFFFFF34169BFFFFFF5A26FFB917FFFFFFFF
310
7F4EFFFFFFEA5B26FFFFFFEA2616EAFFFFFFFFDA743416331617414E4E4E4ECA
310
0000FFFFFFFFFFFFBA161716161616FFFFFFFFFFBA17171616164EFFFFFFFFFF
310
FFFF4E16161717174E161717171626EBFFFFFFFFFFFFFF4E16161617165B1616
310
16171617FFFFFFFFFFFFFF6716161616161617FFFFFFFFFF16BAFFFFFFFFFFFF
310
FFFFFFEA268CFFFFFF7316EAFFFFEB1774FFB916FFFFFFFF7F4EFFFFFFFF7316
310
FFFFFFFF6826FFFFFFFFEB264D9CEABA257F807F7F6616BA0000FFFFFFFFFFFF
310
BA161716161616FFFFFFFFFFBA16171616164DFFFFFFFFFFFFFF4E1617161617
310
9B1617171717165BEBFFFFFFFFFF671616161617179B171616161616FFFFFFFF
310
FFFFFF3417161617171617FFFFFFFFFF17BAFFFFFFFFFFFFFFFFFFFF6734FFFF
310
FFEBCAFFFFFF8D17C9FFBA17FFFFFFFF7F357F808066174FFFFFFFFF7F16FFFF
310
FFFFD91673B99B415BFFFFFFFFBA16DA00009B7F7F7F807F671617161616167F
310
80807F7E6617161616164EFFFFFFFFFFFFFF4E1616161617B94E171716161616
310
349BC9D9AA4E16171616161634FF161617161717B9B9BAB9BA9B411716171716
310
163416FFFFFFFFFF16B9FFFFFFFFFFFFFFFFFFFFC917CAFFFFFFFFFFFFFF3342
310
FFFFBA17FFFFFFFF9B4E4E4F4E4E66EAFFFFFFFF5B16C9FFFFFFFFAA4E164E73
310
EAFFFFFFFF8D26FF00004E161716161616171617171616171717171617161616
310
17174EFFFFFFFFFFFFFF4E1717171616B9D92616171716171716171717171716
310
16171716AAFF161717171617161617171616161617161716166717FFFFFFFFFF
310
17B9FFFFFFFFFFFFFFFFFFFFFF3467FFFFFFFFFFFFCA168CFFFFBB17FFFFFFFF
310
FFFFFFFFFFFFFFFFFFFFFFEA26265BFFFFFFFFFFFFFFFFFFFFFFFFFFEA3467FF
310
00004D16161616161617161717161617161616171617171616164EFFFFFFFFFF
310
FFFF4D1617161616BAFF9B1616161616161716161616171717161766FFFF1616
310
16171617161617161716171616171717667F16FFFFFFFFFF17BAFFFFFFFFFFFF
310
FFFFFFFFFF8C26EAFFFFFFFFFF6617EAFFFFBA17FFFFFFFFFFFFFFFFFFFFFFFF
310
FFFFEA5A25BA269BFFFFFFFFFFFFFFFFFFFFFFFF6616DAFF00004E1616171616
310
1616161616161716161617171616171616174EFFFFFFFFFFFFFF4D1717171716
310
B9FFFF9C161616161616161716161717171667FFFFFF17161717171716161617
310
1716161616161641E97E16FFFFFFFFFF16B9FFFFFFFFFFFFFFFFFFFFFFEA169B
310
FFFFFFFFEA265BFFFFFFB916FFFFFFFFFFFFFFFFFFFFFFFFFF9B3416AAFF9B17
310
67EAFFFFFFFFFFFFFFFFEA5B169BFFFF00004D17161716161616161717171616
310
161717161716171716174EFFFFFFFFFFFFFF4D1616161616BAFFFFFFBB411616
310
161716161616171634ABFFFFFFFF161716161617171716171617171617267FFF
310
FF7F164E4E4E4E4F17BAFFFFFFFFFFFFFFFFFFFFFFFF66344D4E4E4F4117AAFF
310
FFFFBA174E4E4E4D4E4D4D4E4E4E4E4116174EBBFFFFFFCA342666ABEAFFFFEA
310
AA6725269CFFFFFF0000724F4E4D4D4D4E4D4D4E4E4E4D4E4E4E4E4E4E4E4E4D
310
4E4E74FFFFFFFFFFFFFF734E4E4E4D4ECAFFFFFFFFFFAA663416171717265B9B
310
FFFFFFFFFFFF7F8080807F80807F7F7F7F7F807FBAFFFFFFFF9B4E4E4F4D4D4E
310
4DC9FFFFFFFFFFFFFFFFFFFFFFFFBA4E4E4E4E4D4E4EFFFFFFFFC94E4E4E4F4E
310
4E4E4D4E4E5A807F9CD9FFFFFFFFFFFFFF9B5B2617171716174E8DEAFFFFFFFF
310
0000000000000000000000000000000000000000000000000000000000000000
  1
OLE
  0
ENDSEC
  0
SECTION
  2
OBJECTS
  0
DICTIONARY
  5
C
330
0
100
AcDbDictionary
281
     1
  3
ACAD_GROUP
350
D
  3
ACAD_LAYOUT
350
1A
  3
ACAD_MLINESTYLE
350
17
  3
ACAD_PLOTSETTINGS
350
19
  3
ACAD_PLOTSTYLENAME
350
E
  3
ACAD_SCALELIST
350
47
  0
DICTIONARY
  5
D
102
{ACAD_REACTORS
330
C
102
}
330
C
100
AcDbDictionary
281
     1
  0
DICTIONARY
  5
1A
102
{ACAD_REACTORS
330
C
102
}
330
C
100
AcDbDictionary
281
     1
  3
Layout1
350
1E
  3
Layout2
350
26
  3
Model
350
22
  0
DICTIONARY
  5
17
102
{ACAD_REACTORS
330
C
102
}
330
C
100
AcDbDictionary
281
     1
  3
Standard
350
18
  0
DICTIONARY
  5
19
102
{ACAD_REACTORS
330
C
102
}
330
C
100
AcDbDictionary
281
     1
  0
ACDBDICTIONARYWDFLT
  5
E
102
{ACAD_REACTORS
330
C
102
}
330
C
100
AcDbDictionary
281
     1
  3
Normal
350
F
100
AcDbDictionaryWithDefault
340
F
  0
DICTIONARY
  5
47
102
{ACAD_REACTORS
330
C
102
}
330
C
100
AcDbDictionary
281
     1
  3
A0
350
48
  3
A1
350
49
  3
A2
350
4A
  3
A3
350
4B
  3
A4
350
4C
  3
A5
350
4D
  3
A6
350
4E
  3
A7
350
4F
  3
A8
350
50
  3
A9
350
51
  3
B0
350
52
  3
B1
350
53
  3
B2
350
54
  3
B3
350
55
  3
B4
350
56
  3
B5
350
57
  3
B6
350
58
  3
B7
350
59
  3
B8
350
5A
  3
B9
350
5B
  3
C0
350
5C
  3
C1
350
5D
  3
C2
350
5E
  3
C3
350
5F
  3
C4
350
60
  3
C5
350
61
  3
C6
350
62
  3
C7
350
63
  3
C8
350
64
  3
C9
350
65
  3
D0
350
66
  3
D1
350
67
  3
D2
350
68
  0
LAYOUT
  5
1E
102
{ACAD_REACTORS
330
1A
102
}
330
1A
100
AcDbPlotSettings
  1

  2
none_device
  4

  6

 40
0.0
 41
0.0
 42
0.0
 43
0.0
 44
0.0
 45
0.0
 46
0.0
 47
0.0
 48
0.0
 49
0.0
140
0.0
141
0.0
142
1.0
143
1.0
 70
   688
 72
     1
 73
     0
 74
     5
  7

 75
    16
147
1.0
148
0.0
149
0.0
100
AcDbLayout
  1
Layout1
 70
     1
 71
     1
 10
0.0
 20
0.0
 11
420.0
 21
297.0
 12
0.0
 22
0.0
 32
0.0
 14
1.0000000000E+20
 24
1.0000000000E+20
 34
1.0000000000E+20
 15
-1.0000000000E+20
 25
-1.0000000000E+20
 35
-1.0000000000E+20
146
0.0
 13
0.0
 23
0.0
 33
0.0
 16
1.0
 26
0.0
 36
0.0
 17
0.0
 27
1.0
 37
0.0
 76
     0
330
1B
  0
LAYOUT
  5
26
102
{ACAD_REACTORS
330
1A
102
}
330
1A
100
AcDbPlotSettings
  1

  2
none_device
  4

  6

 40
0.0
 41
0.0
 42
0.0
 43
0.0
 44
0.0
 45
0.0
 46
0.0
 47
0.0
 48
0.0
 49
0.0
140
0.0
141
0.0
142
1.0
143
1.0
 70
   688
 72
     1
 73
     0
 74
     5
  7

 75
    16
147
1.0
148
0.0
149
0.0
100
AcDbLayout
  1
Layout2
 70
     1
 71
     2
 10
0.0
 20
0.0
 11
0.0
 21
0.0
 12
0.0
 22
0.0
 32
0.0
 14
0.0
 24
0.0
 34
0.0
 15
0.0
 25
0.0
 35
0.0
146
0.0
 13
0.0
 23
0.0
 33
0.0
 16
1.0
 26
0.0
 36
0.0
 17
0.0
 27
1.0
 37
0.0
 76
     0
330
23
  0
LAYOUT
  5
22
102
{ACAD_REACTORS
330
1A
102
}
330
1A
100
AcDbPlotSettings
  1

  2
none_device
  4
Letter_(8.50_x_11.00_Inches)
  6

 40
6.35
 41
6.35
 42
6.35000508
 43
6.35000508
 44
215.9
 45
279.4
 46
0.0
 47
0.0
 48
0.0
 49
0.0
140
0.0
141
0.0
142
1.0
143
1.0
 70
  1712
 72
     1
 73
     0
 74
     0
  7

 75
     0
147
1.0
148
0.0
149
0.0
100
AcDbLayout
  1
Model
 70
     1
 71
     0
 10
0.0
 20
0.0
 11
279.4
 21
215.9
 12
0.0
 22
0.0
 32
0.0
 14
0.0
 24
0.0
 34
0.0
 15
279.4
 25
215.9
 35
0.0
146
0.0
 13
0.0
 23
0.0
 33
0.0
 16
1.0
 26
0.0
 36
0.0
 17
0.0
 27
1.0
 37
0.0
 76
     0
330
1F
331
29
  0
MLINESTYLE
  5
18
102
{ACAD_REACTORS
330
17
102
}
330
17
100
AcDbMlineStyle
  2
Standard
 70
     0
  3

 62
   256
 51
90.0
 52
90.0
 71
     2
 49
0.5
 62
   256
  6
BYLAYER
 49
-0.5
 62
   256
  6
BYLAYER
  0
ACDBPLACEHOLDER
  5
F
102
{ACAD_REACTORS
330
E
102
}
330
E
  0
SCALE
  5
48
102
{ACAD_REACTORS
330
47
102
}
330
47
100
AcDbScale
 70
     0
300
1:1
140
1.0
141
1.0
290
     1
  0
SCALE
  5
49
102
{ACAD_REACTORS
330
47
102
}
330
47
100
AcDbScale
 70
     0
300
1:2
140
1.0
141
2.0
290
     0
  0
SCALE
  5
4A
102
{ACAD_REACTORS
330
47
102
}
330
47
100
AcDbScale
 70
     0
300
1:4
140
1.0
141
4.0
290
     0
  0
SCALE
  5
4B
102
{ACAD_REACTORS
330
47
102
}
330
47
100
AcDbScale
 70
     0
300
1:5
140
1.0
141
5.0
290
     0
  0
SCALE
  5
4C
102
{ACAD_REACTORS
330
47
102
}
330
47
100
AcDbScale
 70
     0
300
1:8
140
1.0
141
8.0
290
     0
  0
SCALE
  5
4D
102
{ACAD_REACTORS
330
47
102
}
330
47
100
AcDbScale
 70
     0
300
1:10
140
1.0
141
10.0
290
     0
  0
SCALE
  5
4E
102
{ACAD_REACTORS
330
47
102
}
330
47
100
AcDbScale
 70
     0
300
1:16
140
1.0
141
16.0
290
     0
  0
SCALE
  5
4F
102
{ACAD_REACTORS
330
47
102
}
330
47
100
AcDbScale
 70
     0
300
1:20
140
1.0
141
20.0
290
     0
  0
SCALE
  5
50
102
{ACAD_REACTORS
330
47
102
}
330
47
100
AcDbScale
 70
     0
300
1:30
140
1.0
141
30.0
290
     0
  0
SCALE
  5
51
102
{ACAD_REACTORS
330
47
102
}
330
47
100
AcDbScale
 70
     0
300
1:40
140
1.0
141
40.0
290
     0
  0
SCALE
  5
52
102
{ACAD_REACTORS
330
47
102
}
330
47
100
AcDbScale
 70
     0
300
1:50
140
1.0
141
50.0
290
     0
  0
SCALE
  5
53
102
{ACAD_REACTORS
330
47
102
}
330
47
100
AcDbScale
 70
     0
300
1:100
140
1.0
141
100.0
290
     0
  0
SCALE
  5
54
102
{ACAD_REACTORS
330
47
102
}
330
47
100
AcDbScale
 70
     0
300
2:1
140
2.0
141
1.0
290
     0
  0
SCALE
  5
55
102
{ACAD_REACTORS
330
47
102
}
330
47
100
AcDbScale
 70
     0
300
4:1
140
4.0
141
1.0
290
     0
  0
SCALE
  5
56
102
{ACAD_REACTORS
330
47
102
}
330
47
100
AcDbScale
 70
     0
300
8:1
140
8.0
141
1.0
290
     0
  0
SCALE
  5
57
102
{ACAD_REACTORS
330
47
102
}
330
47
100
AcDbScale
 70
     0
300
10:1
140
10.0
141
1.0
290
     0
  0
SCALE
  5
58
102
{ACAD_REACTORS
330
47
102
}
330
47
100
AcDbScale
 70
     0
300
100:1
140
100.0
141
1.0
290
     0
  0
SCALE
  5
59
102
{ACAD_REACTORS
330
47
102
}
330
47
100
AcDbScale
 70
     0
300
1/128" = 1'-0"
140
0.0078125
141
12.0
290
     0
  0
SCALE
  5
5A
102
{ACAD_REACTORS
330
47
102
}
330
47
100
AcDbScale
 70
     0
300
1/64" = 1'-0"
140
0.015625
141
12.0
290
     0
  0
SCALE
  5
5B
102
{ACAD_REACTORS
330
47
102
}
330
47
100
AcDbScale
 70
     0
300
1/32" = 1'-0"
140
0.03125
141
12.0
290
     0
  0
SCALE
  5
5C
102
{ACAD_REACTORS
330
47
102
}
330
47
100
AcDbScale
 70
     0
300
1/16" = 1'-0"
140
0.0625
141
12.0
290
     0
  0
SCALE
  5
5D
102
{ACAD_REACTORS
330
47
102
}
330
47
100
AcDbScale
 70
     0
300
3/32" = 1'-0"
140
0.09375
141
12.0
290
     0
  0
SCALE
  5
5E
102
{ACAD_REACTORS
330
47
102
}
330
47
100
AcDbScale
 70
     0
300
1/8" = 1'-0"
140
0.125
141
12.0
290
     0
  0
SCALE
  5
5F
102
{ACAD_REACTORS
330
47
102
}
330
47
100
AcDbScale
 70
     0
300
3/16" = 1'-0"
140
0.1875
141
12.0
290
     0
  0
SCALE
  5
60
102
{ACAD_REACTORS
330
47
102
}
330
47
100
AcDbScale
 70
     0
300
1/4" = 1'-0"
140
0.25
141
12.0
290
     0
  0
SCALE
  5
61
102
{ACAD_REACTORS
330
47
102
}
330
47
100
AcDbScale
 70
     0
300
3/8" = 1'-0"
140
0.375
141
12.0
290
     0
  0
SCALE
  5
62
102
{ACAD_REACTORS
330
47
102
}
330
47
100
AcDbScale
 70
     0
300
1/2" = 1'-0"
140
0.5
141
12.0
290
     0
  0
SCALE
  5
63
102
{ACAD_REACTORS
330
47
102
}
330
47
100
AcDbScale
 70
     0
300
3/4" = 1'-0"
140
0.75
141
12.0
290
     0
  0
SCALE
  5
64
102
{ACAD_REACTORS
330
47
102
}
330
47
100
AcDbScale
 70
     0
300
1" = 1'-0"
140
1.0
141
12.0
290
     0
  0
SCALE
  5
65
102
{ACAD_REACTORS
330
47
102
}
330
47
100
AcDbScale
 70
     0
300
1-1/2" = 1'-0"
140
1.5
141
12.0
290
     0
  0
SCALE
  5
66
102
{ACAD_REACTORS
330
47
102
}
330
47
100
AcDbScale
 70
     0
300
3" = 1'-0"
140
3.0
141
12.0
290
     0
  0
SCALE
  5
67
102
{ACAD_REACTORS
330
47
102
}
330
47
100
AcDbScale
 70
     0
300
6" = 1'-0"
140
6.0
141
12.0
290
     0
  0
SCALE
  5
68
102
{ACAD_REACTORS
330
47
102
}
330
47
100
AcDbScale
 70
     0
300
1'-0" = 1'-0"
140
12.0
141
12.0
290
     0
  0
ENDSEC
  0
EOF
