  0
SECTION
  2
HEADER
  9
$ACADVER
  1
AC1015
  9
$ACADMAINTVER
 70
     6
  9
$DWGCODEPAGE
  3
ANSI_1252
  9
$INSBASE
 10
0.0
 20
0.0
 30
0.0
  9
$EXTMIN
 10
0.0
 20
0.0
 30
0.0
  9
$EXTMAX
 10
279.4
 20
215.9
 30
0.0
  9
$LIMMIN
 10
0.0
 20
0.0
  9
$LIMMAX
 10
279.4
 20
215.9
  9
$ORTHOMODE
 70
     0
  9
$REGENMODE
 70
     1
  9
$FILLMODE
 70
     1
  9
$QTEXTMODE
 70
     0
  9
$MIRRTEXT
 70
     1
  9
$LTSCALE
 40
1.0
  9
$ATTMODE
 70
     1
  9
$TEXTSIZE
 40
2.8222222222
  9
$TRACEWID
 40
1.0
  9
$TEXTSTYLE
  7
Standard
  9
$CLAYER
  8
0
  9
$CELTYPE
  6
ByLayer
  9
$CECOLOR
 62
   256
  9
$CELTSCALE
 40
1.0
  9
$DISPSILH
 70
     0
  9
$DIMSCALE
 40
1.0
  9
$DIMASZ
 40
3.175
  9
$DIMEXO
 40
1.27
  9
$DIMDLI
 40
3.75
  9
$DIMRND
 40
0.0
  9
$DIMDLE
 40
0.0
  9
$DIMEXE
 40
1.778
  9
$DIMTP
 40
0.0
  9
$DIMTM
 40
0.0
  9
$DIMTXT
 40
2.8222222222
  9
$DIMCEN
 40
2.5
  9
$DIMTSZ
 40
0.0
  9
$DIMTOL
 70
     0
  9
$DIMLIM
 70
     0
  9
$DIMTIH
 70
     1
  9
$DIMTOH
 70
     1
  9
$DIMSE1
 70
     0
  9
$DIMSE2
 70
     0
  9
$DIMTAD
 70
     0
  9
$DIMZIN
 70
     1
  9
$DIMBLK
  1

  9
$DIMASO
 70
     1
  9
$DIMSHO
 70
     1
  9
$DIMPOST
  1

  9
$DIMAPOST
  1

  9
$DIMALT
 70
     0
  9
$DIMALTD
 70
     3
  9
$DIMALTF
 40
0.0393700787
  9
$DIMLFAC
 40
1.0
  9
$DIMTOFL
 70
     1
  9
$DIMTVP
 40
0.0
  9
$DIMTIX
 70
     0
  9
$DIMSOXD
 70
     0
  9
$DIMSAH
 70
     0
  9
$DIMBLK1
  1

  9
$DIMBLK2
  1

  9
$DIMSTYLE
  2
ISO-25
  9
$DIMCLRD
 70
     0
  9
$DIMCLRE
 70
     0
  9
$DIMCLRT
 70
     0
  9
$DIMTFAC
 40
1.0
  9
$DIMGAP
 40
2.54
  9
$DIMJUST
 70
     0
  9
$DIMSD1
 70
     0
  9
$DIMSD2
 70
     0
  9
$DIMTOLJ
 70
     0
  9
$DIMTZIN
 70
     1
  9
$DIMALTZ
 70
     0
  9
$DIMALTTZ
 70
     0
  9
$DIMUPT
 70
     0
  9
$DIMDEC
 70
     1
  9
$DIMTDEC
 70
     1
  9
$DIMALTU
 70
     2
  9
$DIMALTTD
 70
     3
  9
$DIMTXSTY
  7
Standard
  9
$DIMAUNIT
 70
     0
  9
$DIMADEC
 70
     0
  9
$DIMALTRND
 40
0.0
  9
$DIMAZIN
 70
     0
  9
$DIMDSEP
 70
    44
  9
$DIMATFIT
 70
     3
  9
$DIMFRAC
 70
     0
  9
$DIMLDRBLK
  1

  9
$DIMLUNIT
 70
     2
  9
$DIMLWD
 70
    -2
  9
$DIMLWE
 70
    -2
  9
$DIMTMOVE
 70
     0
  9
$LUNITS
 70
     2
  9
$LUPREC
 70
     1
  9
$SKETCHINC
 40
1.0
  9
$FILLETRAD
 40
10.0
  9
$AUNITS
 70
     0
  9
$AUPREC
 70
     0
  9
$MENU
  1
.
  9
$ELEVATION
 40
0.0
  9
$PELEVATION
 40
0.0
  9
$THICKNESS
 40
0.0
  9
$LIMCHECK
 70
     0
  9
$CHAMFERA
 40
0.0
  9
$CHAMFERB
 40
0.0
  9
$CHAMFERC
 40
0.0
  9
$CHAMFERD
 40
0.0
  9
$SKPOLY
 70
     0
  9
$TDCREATE
 40
2458470.635758576
  9
$TDUCREATE
 40
2458470.84409191
  9
$TDUPDATE
 40
2458470.635766424
  9
$TDUUPDATE
 40
2458470.844099757
  9
$TDINDWG
 40
0.0000000116
  9
$TDUSRTIMER
 40
0.0000000116
  9
$USRTIMER
 70
     1
  9
$ANGBASE
 50
0.0
  9
$ANGDIR
 70
     0
  9
$PDMODE
 70
     0
  9
$PDSIZE
 40
-1.0
  9
$PLINEWID
 40
0.0
  9
$SPLFRAME
 70
     0
  9
$SPLINETYPE
 70
     6
  9
$SPLINESEGS
 70
     8
  9
$HANDSEED
  5
268
  9
$SURFTAB1
 70
     6
  9
$SURFTAB2
 70
     6
  9
$SURFTYPE
 70
     6
  9
$SURFU
 70
     6
  9
$SURFV
 70
     6
  9
$UCSBASE
  2

  9
$UCSNAME
  2

  9
$UCSORG
 10
0.0
 20
0.0
 30
0.0
  9
$UCSXDIR
 10
1.0
 20
0.0
 30
0.0
  9
$UCSYDIR
 10
0.0
 20
1.0
 30
0.0
  9
$UCSORTHOREF
  2

  9
$UCSORTHOVIEW
 70
     0
  9
$UCSORGTOP
 10
0.0
 20
0.0
 30
0.0
  9
$UCSORGBOTTOM
 10
0.0
 20
0.0
 30
0.0
  9
$UCSORGLEFT
 10
0.0
 20
0.0
 30
0.0
  9
$UCSORGRIGHT
 10
0.0
 20
0.0
 30
0.0
  9
$UCSORGFRONT
 10
0.0
 20
0.0
 30
0.0
  9
$UCSORGBACK
 10
0.0
 20
0.0
 30
0.0
  9
$PUCSBASE
  2

  9
$PUCSNAME
  2

  9
$PUCSORG
 10
0.0
 20
0.0
 30
0.0
  9
$PUCSXDIR
 10
1.0
 20
0.0
 30
0.0
  9
$PUCSYDIR
 10
0.0
 20
1.0
 30
0.0
  9
$PUCSORTHOREF
  2

  9
$PUCSORTHOVIEW
 70
     0
  9
$PUCSORGTOP
 10
0.0
 20
0.0
 30
0.0
  9
$PUCSORGBOTTOM
 10
0.0
 20
0.0
 30
0.0
  9
$PUCSORGLEFT
 10
0.0
 20
0.0
 30
0.0
  9
$PUCSORGRIGHT
 10
0.0
 20
0.0
 30
0.0
  9
$PUCSORGFRONT
 10
0.0
 20
0.0
 30
0.0
  9
$PUCSORGBACK
 10
0.0
 20
0.0
 30
0.0
  9
$USERI1
 70
     0
  9
$USERI2
 70
     0
  9
$USERI3
 70
     0
  9
$USERI4
 70
     0
  9
$USERI5
 70
     0
  9
$USERR1
 40
0.0
  9
$USERR2
 40
0.0
  9
$USERR3
 40
0.0
  9
$USERR4
 40
0.0
  9
$USERR5
 40
0.0
  9
$WORLDVIEW
 70
     1
  9
$SHADEDGE
 70
     3
  9
$SHADEDIF
 70
    70
  9
$TILEMODE
 70
     1
  9
$MAXACTVP
 70
    64
  9
$PINSBASE
 10
0.0
 20
0.0
 30
0.0
  9
$PLIMCHECK
 70
     0
  9
$PEXTMIN
 10
1.0000000000E+20
 20
1.0000000000E+20
 30
1.0000000000E+20
  9
$PEXTMAX
 10
-1.0000000000E+20
 20
-1.0000000000E+20
 30
-1.0000000000E+20
  9
$PLIMMIN
 10
0.0
 20
0.0
  9
$PLIMMAX
 10
420.0
 20
297.0
  9
$UNITMODE
 70
     0
  9
$VISRETAIN
 70
     1
  9
$PLINEGEN
 70
     0
  9
$PSLTSCALE
 70
     1
  9
$TREEDEPTH
 70
  3020
  9
$CMLSTYLE
  2
Standard
  9
$CMLJUST
 70
     0
  9
$CMLSCALE
 40
20.0
  9
$PROXYGRAPHICS
 70
     1
  9
$MEASUREMENT
 70
     1
  9
$CELWEIGHT
370
    -1
  9
$ENDCAPS
280
     0
  9
$JOINSTYLE
280
     0
  9
$LWDISPLAY
290
     1
  9
$INSUNITS
 70
     4
  9
$HYPERLINKBASE
  1

  9
$STYLESHEET
  1

  9
$XEDIT
290
     1
  9
$CEPSNTYPE
380
     0
  9
$PSTYLEMODE
290
     1
  9
$FINGERPRINTGUID
  2
{9859C7FE-757C-44A1-A03D-07ED70FD4362}
  9
$VERSIONGUID
  2
{FAEB1C32-E019-11D5-929B-00C0DF256EC4}
  9
$EXTNAMES
290
     1
  9
$PSVPSCALE
 40
0.0
  9
$OLESTARTUP
290
     0
  0
ENDSEC
  0
SECTION
  2
CLASSES
  0
CLASS
  1
ACDBDICTIONARYWDFLT
  2
AcDbDictionaryWithDefault
  3
ObjectDBX Classes
 90
        0
280
     0
281
     0
  0
CLASS
  1
VISUALSTYLE
  2
AcDbVisualStyle
  3
ObjectDBX Classes
 90
     4095
280
     0
281
     0
  0
CLASS
  1
MATERIAL
  2
AcDbMaterial
  3
ObjectDBX Classes
 90
     1153
280
     0
281
     0
  0
CLASS
  1
SCALE
  2
AcDbScale
  3
ObjectDBX Classes
 90
     1153
280
     0
281
     0
  0
CLASS
  1
TABLESTYLE
  2
AcDbTableStyle
  3
ObjectDBX Classes
 90
     4095
280
     0
281
     0
  0
CLASS
  1
MLEADERSTYLE
  2
AcDbMLeaderStyle
  3
ACDB_MLEADERSTYLE_CLASS
 90
     4095
280
     0
281
     0
  0
CLASS
  1
SUN
  2
AcDbSun
  3
SCENEOE
 90
     1153
280
     0
281
     0
  0
CLASS
  1
ACDBPLACEHOLDER
  2
AcDbPlaceHolder
  3
ObjectDBX Classes
 90
        0
280
     0
281
     0
  0
CLASS
  1
LAYOUT
  2
AcDbLayout
  3
ObjectDBX Classes
 90
        0
280
     0
281
     0
  0
ENDSEC
  0
SECTION
  2
TABLES
  0
TABLE
  2
VPORT
  5
8
330
0
100
AcDbSymbolTable
 70
     1
  0
VPORT
  5
29
330
8
100
AcDbSymbolTableRecord
100
AcDbViewportTableRecord
  2
*Active
 70
     0
 10
0.0
 20
0.0
 11
1.0
 21
1.0
 12
139.7
 22
107.95
 13
0.0
 23
0.0
 14
10.0
 24
10.0
 15
10.0
 25
10.0
 16
0.0
 26
0.0
 36
1.0
 17
0.0
 27
0.0
 37
0.0
 40
215.9
 41
1.2941176471
 42
50.0
 43
0.0
 44
0.0
 50
0.0
 51
0.0
 71
     0
 72
  2000
 73
     1
 74
     3
 75
     0
 76
     0
 77
     0
 78
     0
281
     0
 65
     1
110
0.0
120
0.0
130
0.0
111
1.0
121
0.0
131
0.0
112
0.0
122
1.0
132
0.0
 79
     0
146
0.0
  0
ENDTAB
  0
TABLE
  2
LTYPE
  5
5
330
0
100
AcDbSymbolTable
 70
     6
  0
LTYPE
  5
14
330
5
100
AcDbSymbolTableRecord
100
AcDbLinetypeTableRecord
  2
ByBlock
 70
     0
  3

 72
    65
 73
     0
 40
0.0
  0
LTYPE
  5
15
330
5
100
AcDbSymbolTableRecord
100
AcDbLinetypeTableRecord
  2
ByLayer
 70
     0
  3

 72
    65
 73
     0
 40
0.0
  0
LTYPE
  5
16
330
5
100
AcDbSymbolTableRecord
100
AcDbLinetypeTableRecord
  2
Continuous
 70
     0
  3
Solid line
 72
    65
 73
     0
 40
0.0
  0
LTYPE
  5
6E
330
5
100
AcDbSymbolTableRecord
100
AcDbLinetypeTableRecord
  2
HIDDEN
 70
     0
  3
Hidden __ __ __ __ __ __ __ __ __ __ __ __ __ __
 72
    65
 73
     2
 40
1.905
 49
1.27
 74
     0
 49
-0.635
 74
     0
  0
LTYPE
  5
6F
330
5
100
AcDbSymbolTableRecord
100
AcDbLinetypeTableRecord
  2
PHANTOM
 70
     0
  3
Phantom ______  __  __  ______  __  __  ______
 72
    65
 73
     6
 40
12.7
 49
6.35
 74
     0
 49
-1.27
 74
     0
 49
1.27
 74
     0
 49
-1.27
 74
     0
 49
1.27
 74
     0
 49
-1.27
 74
     0
  0
LTYPE
  5
70
330
5
100
AcDbSymbolTableRecord
100
AcDbLinetypeTableRecord
  2
CENTER
 70
     0
  3
Center ____ _ ____ _ ____ _ ____ _ ____ _ ____
 72
    65
 73
     4
 40
10.16
 49
6.35
 74
     0
 49
-1.27
 74
     0
 49
1.27
 74
     0
 49
-1.27
 74
     0
  0
LTYPE
  5
71
330
5
100
AcDbSymbolTableRecord
100
AcDbLinetypeTableRecord
  2
CENTERX2
 70
     0
  3
Center (2x) ________  __  ________  __  _____
 72
    65
 73
     4
 40
20.32
 49
12.7
 74
     0
 49
-2.54
 74
     0
 49
2.54
 74
     0
 49
-2.54
 74
     0
  0
LTYPE
  5
72
330
5
100
AcDbSymbolTableRecord
100
AcDbLinetypeTableRecord
  2
DOT2
 70
     0
  3
Dot (.5x) ........................................
 72
    65
 73
     2
 40
0.635
 49
0.0
 74
     0
 49
-0.635
 74
     0
  0
ENDTAB
  0
TABLE
  2
LAYER
  5
2
330
0
100
AcDbSymbolTable
 70
     2
  0
LAYER
  5
10
330
2
100
AcDbSymbolTableRecord
100
AcDbLayerTableRecord
  2
0
 70
     0
 62
     7
  6
Continuous
370
    -3
390
F
  0
LAYER
  5
73
330
2
100
AcDbSymbolTableRecord
100
AcDbLayerTableRecord
  2
FORMAT
 70
     0
 62
     7
  6
Continuous
370
    -3
390
F
  0
ENDTAB
  0
TABLE
  2
STYLE
  5
3
330
0
100
AcDbSymbolTable
 70
     5
  0
STYLE
  5
11
330
3
100
AcDbSymbolTableRecord
100
AcDbTextStyleTableRecord
  2
Standard
 70
     0
 40
0.0
 41
1.0
 50
0.0
 71
     0
 42
2.8222222222
  3
txt
  4

  0
STYLE
  5
9D
330
3
100
AcDbSymbolTableRecord
100
AcDbTextStyleTableRecord
  2
SLDTEXTSTYLE0
 70
     0
 40
0.0
 41
0.75
 50
0.0
 71
     0
 42
2.8222222222
  3
TXT
  4

  0
STYLE
  5
A3
330
3
100
AcDbSymbolTableRecord
100
AcDbTextStyleTableRecord
  2
SLDTEXTSTYLE1
 70
     0
 40
0.0
 41
0.75
 50
0.0
 71
     0
 42
2.8222222222
  3
TXT
  4
bigfont
  0
STYLE
  5
B5
330
3
100
AcDbSymbolTableRecord
100
AcDbTextStyleTableRecord
  2
SLDTEXTSTYLE2
 70
     0
 40
0.0
 41
0.7
 50
0.0
 71
     0
 42
2.8222222222
  3
TXT
  4

  0
STYLE
  5
C4
330
3
100
AcDbSymbolTableRecord
100
AcDbTextStyleTableRecord
  2
SLDTEXTSTYLE3
 70
     0
 40
0.0
 41
0.6
 50
0.0
 71
     0
 42
2.8222222222
  3
TXT
  4

  0
ENDTAB
  0
TABLE
  2
VIEW
  5
6
330
0
100
AcDbSymbolTable
 70
     0
  0
ENDTAB
  0
TABLE
  2
UCS
  5
7
330
0
100
AcDbSymbolTable
 70
     0
  0
ENDTAB
  0
TABLE
  2
APPID
  5
9
330
0
100
AcDbSymbolTable
 70
     1
  0
APPID
  5
12
330
9
100
AcDbSymbolTableRecord
100
AcDbRegAppTableRecord
  2
ACAD
 70
     0
  0
ENDTAB
  0
TABLE
  2
DIMSTYLE
  5
A
330
0
100
AcDbSymbolTable
 70
     6
100
AcDbDimStyleTable
  0
DIMSTYLE
105
27
330
A
100
AcDbSymbolTableRecord
100
AcDbDimStyleTableRecord
  2
ISO-25
 70
     0
 41
2.5
 42
0.625
 43
3.75
 44
1.25
 73
     0
 74
     0
 77
     1
 78
     8
140
2.5
141
2.5
143
0.0393700787
147
0.625
171
     3
172
     1
178
     0
271
     2
272
     2
274
     3
278
    44
283
     0
284
     8
340
11
  0
DIMSTYLE
105
F3
102
{ACAD_REACTORS
330
F2
102
}
330
A
100
AcDbSymbolTableRecord
100
AcDbDimStyleTableRecord
  2
SLDDIMSTYLE0
 70
     0
 41
3.175
 44
0.0
 45
0.000000001
 78
    12
 79
     3
140
2.1166666667
141
0.0
143
0.0393700787
147
0.5291666667
148
0.000000001
170
     1
173
     1
178
     0
271
     1
272
     1
276
     2
284
    12
340
9D
  0
DIMSTYLE
105
11A
102
{ACAD_REACTORS
330
119
102
}
330
A
100
AcDbSymbolTableRecord
100
AcDbDimStyleTableRecord
  2
SLDDIMSTYLE1
 70
     0
 41
3.175
 44
0.0
 45
0.000000001
 78
    12
 79
     3
140
2.1166666667
143
0.0393700787
147
0.5291666667
148
0.000000001
170
     1
172
     1
173
     1
178
     0
271
     1
272
     1
276
     2
284
    12
289
     0
340
9D
  0
DIMSTYLE
105
12E
102
{ACAD_REACTORS
330
12D
102
}
330
A
100
AcDbSymbolTableRecord
100
AcDbDimStyleTableRecord
  2
SLDDIMSTYLE2
 70
     0
 41
3.175
 44
0.0
 45
0.000000001
 78
     4
 79
     1
140
2.1166666667
141
0.0
143
0.0393700787
147
0.5291666667
148
0.000000001
170
     1
173
     1
178
     0
271
     1
272
     1
276
     2
284
    12
340
9D
  0
DIMSTYLE
105
13F
102
{ACAD_REACTORS
330
13E
102
}
330
A
100
AcDbSymbolTableRecord
100
AcDbDimStyleTableRecord
  2
SLDDIMSTYLE3
 70
     0
 41
3.175
 44
0.0
 45
0.000000001
 78
     4
 79
     1
140
2.1166666667
143
0.0393700787
147
0.5291666667
148
0.000000001
170
     1
172
     1
173
     1
178
     0
271
     1
272
     1
276
     2
284
    12
289
     0
340
9D
  0
DIMSTYLE
105
155
330
A
100
AcDbSymbolTableRecord
100
AcDbDimStyleTableRecord
  2
SLDDIMSTYLE4
 70
     0
 41
3.175
 44
0.0
 45
0.000000001
146
3.175
147
0.0
173
     1
178
     0
271
     0
272
     0
276
     2
340
11
  0
ENDTAB
  0
TABLE
  2
BLOCK_RECORD
  5
1
330
0
100
AcDbSymbolTable
 70
    11
  0
BLOCK_RECORD
  5
1F
330
1
100
AcDbSymbolTableRecord
100
AcDbBlockTableRecord
  2
*Model_Space
340
22
  0
BLOCK_RECORD
  5
1B
330
1
100
AcDbSymbolTableRecord
100
AcDbBlockTableRecord
  2
*Paper_Space
340
1E
  0
BLOCK_RECORD
  5
23
330
1
100
AcDbSymbolTableRecord
100
AcDbBlockTableRecord
  2
*Paper_Space0
340
26
  0
BLOCK_RECORD
  5
74
330
1
100
AcDbSymbolTableRecord
100
AcDbBlockTableRecord
  2
Third Angle Projection Block
340
0
102
{BLKREFS
331
99
102
}
  0
BLOCK_RECORD
  5
9A
330
1
100
AcDbSymbolTableRecord
100
AcDbBlockTableRecord
  2
SW_NOTE_0
340
0
102
{BLKREFS
331
B8
102
}
  0
BLOCK_RECORD
  5
CA
330
1
100
AcDbSymbolTableRecord
100
AcDbBlockTableRecord
  2
SW_NOTE_1
340
0
102
{BLKREFS
331
CF
102
}
  0
BLOCK_RECORD
  5
D0
330
1
100
AcDbSymbolTableRecord
100
AcDbBlockTableRecord
  2
SW_NOTE_2
340
0
102
{BLKREFS
331
D5
102
}
  0
BLOCK_RECORD
  5
D7
330
1
100
AcDbSymbolTableRecord
100
AcDbBlockTableRecord
  2
SW_NOTE_3
340
0
102
{BLKREFS
331
DC
102
}
  0
BLOCK_RECORD
  5
DD
330
1
100
AcDbSymbolTableRecord
100
AcDbBlockTableRecord
  2
SW_NOTE_4
340
0
102
{BLKREFS
331
E3
102
}
  0
BLOCK_RECORD
  5
F4
330
1
100
AcDbSymbolTableRecord
100
AcDbBlockTableRecord
  2
_D
340
0
  0
BLOCK_RECORD
  5
11B
330
1
100
AcDbSymbolTableRecord
100
AcDbBlockTableRecord
  2
_D_1
340
0
  0
BLOCK_RECORD
  5
12F
330
1
100
AcDbSymbolTableRecord
100
AcDbBlockTableRecord
  2
_D_2
340
0
  0
BLOCK_RECORD
  5
140
330
1
100
AcDbSymbolTableRecord
100
AcDbBlockTableRecord
  2
_D_3
340
0
  0
ENDTAB
  0
ENDSEC
  0
SECTION
  2
BLOCKS
  0
BLOCK
  5
20
330
1F
100
AcDbEntity
  8
0
100
AcDbBlockBegin
  2
*Model_Space
 70
     0
 10
0.0
 20
0.0
 30
0.0
  3
*Model_Space
  1

  0
ENDBLK
  5
21
330
1F
100
AcDbEntity
  8
0
100
AcDbBlockEnd
  0
BLOCK
  5
1C
330
1B
100
AcDbEntity
 67
     1
  8
0
100
AcDbBlockBegin
  2
*Paper_Space
 70
     0
 10
0.0
 20
0.0
 30
0.0
  3
*Paper_Space
  1

  0
ENDBLK
  5
1D
330
1B
100
AcDbEntity
 67
     1
  8
0
100
AcDbBlockEnd
  0
BLOCK
  5
24
330
23
100
AcDbEntity
  8
0
100
AcDbBlockBegin
  2
*Paper_Space0
 70
     0
 10
0.0
 20
0.0
 30
0.0
  3
*Paper_Space0
  1

  0
ENDBLK
  5
25
330
23
100
AcDbEntity
  8
0
100
AcDbBlockEnd
  0
BLOCK
  5
75
330
74
100
AcDbEntity
  8
0
100
AcDbBlockBegin
  2
Third Angle Projection Block
 70
     0
 10
0.0
 20
0.0
 30
0.0
  3
Third Angle Projection Block
  1

  0
CIRCLE
  5
77
330
74
100
AcDbEntity
  8
0
  6
Continuous
 62
     7
370
    35
100
AcDbCircle
 10
101.4766388944
 20
18.9404083667
 30
0.0
 40
1.768227153674871
  0
CIRCLE
  5
78
330
74
100
AcDbEntity
  8
0
  6
Continuous
 62
     7
370
    35
100
AcDbCircle
 10
101.4766388944
 20
18.9404083667
 30
0.0
 40
3.901228248531818
  0
LINE
  5
79
330
74
100
AcDbEntity
  8
0
  6
CENTERX2
 62
     7
370
    18
100
AcDbLine
 10
110.1367822585
 20
18.9404083667
 30
0.0
 11
119.4527334874
 21
18.9404083667
 31
0.0
  0
LINE
  5
7A
330
74
100
AcDbEntity
  8
0
  6
Continuous
 62
     7
370
    35
100
AcDbLine
 10
111.0016388944
 20
20.7086355204
 30
0.0
 11
111.0016388944
 21
17.172181213
 31
0.0
  0
LINE
  5
7B
330
74
100
AcDbEntity
  8
0
  6
Continuous
 62
     7
370
    35
100
AcDbLine
 10
111.0016388944
 20
17.172181213
 30
0.0
 11
118.6216388944
 21
15.1304083667
 31
0.0
  0
LINE
  5
7C
330
74
100
AcDbEntity
  8
0
  6
Continuous
 62
     7
370
    35
100
AcDbLine
 10
118.6216388944
 20
15.1304083667
 30
0.0
 11
118.6216388944
 21
22.7504083667
 31
0.0
  0
LINE
  5
7D
330
74
100
AcDbEntity
  8
0
  6
Continuous
 62
     7
370
    35
100
AcDbLine
 10
118.6216388944
 20
22.7504083667
 30
0.0
 11
111.0016388944
 21
20.7086355204
 31
0.0
  0
LINE
  5
7E
330
74
100
AcDbEntity
  8
0
  6
CENTERX2
 62
     7
370
    18
100
AcDbLine
 10
96.6025854619
 20
18.9404083667
 30
0.0
 11
106.3506923269
 21
18.9404083667
 31
0.0
  0
LINE
  5
7F
330
74
100
AcDbEntity
  8
0
  6
CENTERX2
 62
     7
370
    18
100
AcDbLine
 10
101.4766388944
 20
23.8144617992
 30
0.0
 11
101.4766388944
 21
14.0663549342
 31
0.0
  0
POINT
  5
80
330
74
100
AcDbEntity
  8
0
  6
Continuous
 62
     7
370
     0
100
AcDbPoint
 10
101.4766388944
 20
18.9404083667
 30
0.0
  0
ENDBLK
  5
76
330
74
100
AcDbEntity
  8
0
100
AcDbBlockEnd
  0
BLOCK
  5
9B
330
9A
100
AcDbEntity
  8
0
100
AcDbBlockBegin
  2
SW_NOTE_0
 70
     0
 10
0.0
 20
0.0
 30
0.0
  3
SW_NOTE_0
  1

  0
MTEXT
  5
9E
330
9A
100
AcDbEntity
  8
0
  6
Continuous
 62
     0
370
     0
100
AcDbMText
 10
0.0
 20
3.4106583948
 30
0.0
 40
2.6458333333
 41
0.0
 71
     1
 72
     1
  1
NOTES/SPECIFICATIONS:
  7
SLDTEXTSTYLE0
 73
     1
 44
1.0
  0
MTEXT
  5
9F
330
9A
100
AcDbEntity
  8
0
  6
Continuous
 62
     0
370
     0
100
AcDbMText
 10
9.9999997765
 20
-5.6448974033
 30
0.0
 40
2.6458333333
 41
0.0
 71
     1
 72
     1
  1
CLEAR APERTURE: >
  7
SLDTEXTSTYLE0
 73
     1
 44
1.0
  0
MTEXT
  5
A0
330
9A
100
AcDbEntity
  8
0
  6
Continuous
 62
     0
370
     0
100
AcDbMText
 10
42.7789334208
 20
-5.6448974033
 30
0.0
 40
2.6458333333
 41
0.0
 71
     1
 72
     1
  1
%%c
  7
SLDTEXTSTYLE0
 73
     1
 44
1.0
  0
MTEXT
  5
A1
330
9A
100
AcDbEntity
  8
0
  6
Continuous
 62
     0
370
     0
100
AcDbMText
 10
46.7726718634
 20
-5.6448974033
 30
0.0
 40
2.6458333333
 41
0.0
 71
     1
 72
     1
  1
45.72mm
  7
SLDTEXTSTYLE0
 73
     1
 44
1.0
  0
MTEXT
  5
A2
330
9A
100
AcDbEntity
  8
0
  6
Continuous
 62
     0
370
     0
100
AcDbMText
 10
0.0
 20
-5.6448974033
 30
0.0
 40
2.6458333333
 41
0.0
 71
     1
 72
     1
  1
1.
  7
SLDTEXTSTYLE0
 73
     1
 44
1.0
  0
MTEXT
  5
A4
330
9A
100
AcDbEntity
  8
0
  6
Continuous
 62
     0
370
     0
100
AcDbMText
 10
9.9999997765
 20
-10.1726753024
 30
0.0
 40
2.6458333333
 41
0.0
 71
     1
 72
     1
  1
SURFACE IRREGULARITY (S1): \U+2264\M+183C9/4 AT 633nm OVER CLEAR APERTURE
  7
SLDTEXTSTYLE1
 73
     1
 44
1.0
  0
MTEXT
  5
A5
330
9A
100
AcDbEntity
  8
0
  6
Continuous
 62
     0
370
     0
100
AcDbMText
 10
0.0
 20
-10.1726753024
 30
0.0
 40
2.6458333333
 41
0.0
 71
     1
 72
     1
  1
2.
  7
SLDTEXTSTYLE0
 73
     1
 44
1.0
  0
MTEXT
  5
A6
330
9A
100
AcDbEntity
  8
0
  6
Continuous
 62
     0
370
     0
100
AcDbMText
 10
9.9999997765
 20
-14.7004532014
 30
0.0
 40
2.6458333333
 41
0.0
 71
     1
 72
     1
  1
BACK SURFACE (S2): UNIFORM FINE GRIND #12-#20 GRIT
  7
SLDTEXTSTYLE0
 73
     1
 44
1.0
  0
MTEXT
  5
A7
330
9A
100
AcDbEntity
  8
0
  6
Continuous
 62
     0
370
     0
100
AcDbMText
 10
0.0
 20
-14.7004532014
 30
0.0
 40
2.6458333333
 41
0.0
 71
     1
 72
     1
  1
3.
  7
SLDTEXTSTYLE0
 73
     1
 44
1.0
  0
MTEXT
  5
A8
330
9A
100
AcDbEntity
  8
0
  6
Continuous
 62
     0
370
     0
100
AcDbMText
 10
9.9999997765
 20
-19.2282311005
 30
0.0
 40
2.6458333333
 41
0.0
 71
     1
 72
     1
  1
SURFACE QUALITY(S1): 40-20 SCRATCH-DIG
  7
SLDTEXTSTYLE0
 73
     1
 44
1.0
  0
MTEXT
  5
A9
330
9A
100
AcDbEntity
  8
0
  6
Continuous
 62
     0
370
     0
100
AcDbMText
 10
0.0
 20
-19.2282311005
 30
0.0
 40
2.6458333333
 41
0.0
 71
     1
 72
     1
  1
4.
  7
SLDTEXTSTYLE0
 73
     1
 44
1.0
  0
MTEXT
  5
AA
330
9A
100
AcDbEntity
  8
0
  6
Continuous
 62
     0
370
     0
100
AcDbMText
 10
9.9999997765
 20
-23.7560089995
 30
0.0
 40
2.6458333333
 41
0.0
 71
     1
 72
     1
  1
THICKNESS TOLERANCE:
  7
SLDTEXTSTYLE0
 73
     1
 44
1.0
  0
MTEXT
  5
AB
330
9A
100
AcDbEntity
  8
0
  6
Continuous
 62
     0
370
     0
100
AcDbMText
 10
50.8242268115
 20
-23.7560089995
 30
0.0
 40
2.6458333333
 41
0.0
 71
     1
 72
     1
  1
%%p
  7
SLDTEXTSTYLE0
 73
     1
 44
1.0
  0
MTEXT
  5
AC
330
9A
100
AcDbEntity
  8
0
  6
Continuous
 62
     0
370
     0
100
AcDbMText
 10
53.3465910703
 20
-23.7560089995
 30
0.0
 40
2.6458333333
 41
0.0
 71
     1
 72
     1
  1
0.1 mm
  7
SLDTEXTSTYLE0
 73
     1
 44
1.0
  0
MTEXT
  5
AD
330
9A
100
AcDbEntity
  8
0
  6
Continuous
 62
     0
370
     0
100
AcDbMText
 10
0.0
 20
-23.7560089995
 30
0.0
 40
2.6458333333
 41
0.0
 71
     1
 72
     1
  1
5.
  7
SLDTEXTSTYLE0
 73
     1
 44
1.0
  0
MTEXT
  5
AE
330
9A
100
AcDbEntity
  8
0
  6
Continuous
 62
     0
370
     0
100
AcDbMText
 10
9.9999997765
 20
-28.2837868986
 30
0.0
 40
2.6458333333
 41
0.0
 71
     1
 72
     1
  1
DIAMETER TOLERANCE: +0.0/-0.2 mm
  7
SLDTEXTSTYLE0
 73
     1
 44
1.0
  0
MTEXT
  5
AF
330
9A
100
AcDbEntity
  8
0
  6
Continuous
 62
     0
370
     0
100
AcDbMText
 10
0.0
 20
-28.2837868986
 30
0.0
 40
2.6458333333
 41
0.0
 71
     1
 72
     1
  1
6.
  7
SLDTEXTSTYLE0
 73
     1
 44
1.0
  0
MTEXT
  5
B0
330
9A
100
AcDbEntity
  8
0
  6
Continuous
 62
     0
370
     0
100
AcDbMText
 10
9.9999997765
 20
-32.8115647976
 30
0.0
 40
2.6458333333
 41
0.0
 71
     1
 72
     1
  1
COATING(S1): UV ENHANCED ALUMINUM
  7
SLDTEXTSTYLE0
 73
     1
 44
1.0
  0
MTEXT
  5
B1
330
9A
100
AcDbEntity
  8
0
  6
Continuous
 62
     0
370
     0
100
AcDbMText
 10
0.0
 20
-32.8115647976
 30
0.0
 40
2.6458333333
 41
0.0
 71
     1
 72
     1
  1
7.
  7
SLDTEXTSTYLE0
 73
     1
 44
1.0
  0
MTEXT
  5
B2
330
9A
100
AcDbEntity
  8
0
  6
Continuous
 62
     0
370
     0
100
AcDbMText
 10
34.8828125
 20
-37.3393426967
 30
0.0
 40
2.6458333333
 41
0.0
 71
     1
 72
     1
  1
Ravg: >90% FROM 250-450nm
  7
SLDTEXTSTYLE0
 73
     1
 44
1.0
  0
MTEXT
  5
B3
330
9A
100
AcDbEntity
  8
0
  6
Continuous
 62
     0
370
     0
100
AcDbMText
 10
34.8828125
 20
-41.8671205958
 30
0.0
 40
2.6458333333
 41
0.0
 71
     1
 72
     1
  1
AOI: 0
  7
SLDTEXTSTYLE0
 73
     1
 44
1.0
  0
MTEXT
  5
B4
330
9A
100
AcDbEntity
  8
0
  6
Continuous
 62
     0
370
     0
100
AcDbMText
 10
45.0080246478
 20
-41.8671205958
 30
0.0
 40
2.6458333333
 41
0.0
 71
     1
 72
     1
  1
%%d
  7
SLDTEXTSTYLE0
 73
     1
 44
1.0
  0
MTEXT
  5
B6
330
9A
100
AcDbEntity
  8
0
  6
Continuous
 62
     0
370
     0
100
AcDbMText
 10
47.6817858368
 20
-41.8671205958
 30
0.0
 40
2.6458333333
 41
0.0
 71
     1
 72
     1
  1
TO 45
  7
SLDTEXTSTYLE2
 73
     1
 44
1.0
  0
MTEXT
  5
B7
330
9A
100
AcDbEntity
  8
0
  6
Continuous
 62
     0
370
     0
100
AcDbMText
 10
57.1210426092
 20
-41.8671205958
 30
0.0
 40
2.6458333333
 41
0.0
 71
     1
 72
     1
  1
%%d
  7
SLDTEXTSTYLE0
 73
     1
 44
1.0
  0
ENDBLK
  5
9C
330
9A
100
AcDbEntity
  8
0
100
AcDbBlockEnd
  0
BLOCK
  5
CB
330
CA
100
AcDbEntity
  8
0
100
AcDbBlockBegin
  2
SW_NOTE_1
 70
     0
 10
0.0
 20
0.0
 30
0.0
  3
SW_NOTE_1
  1

  0
MTEXT
  5
CD
330
CA
100
AcDbEntity
  8
0
  6
Continuous
 62
     0
370
     0
100
AcDbMText
 10
19.90725
 20
1.9645392354
 30
0.0
 40
1.524
 41
0.0
 71
     2
 72
     1
  1
VALUES IN PARENTHESIS ARE CALCULATED
  7
SLDTEXTSTYLE0
 73
     1
 44
1.0
  0
MTEXT
  5
CE
330
CA
100
AcDbEntity
  8
0
  6
Continuous
 62
     0
370
     0
100
AcDbMText
 10
19.8778795174
 20
-0.5594606586
 30
0.0
 40
1.524
 41
0.0
 71
     2
 72
     1
  1
AND MAY CONTAIN ROUNDOFF ERRORS
  7
SLDTEXTSTYLE0
 73
     1
 44
1.0
  0
ENDBLK
  5
CC
330
CA
100
AcDbEntity
  8
0
100
AcDbBlockEnd
  0
BLOCK
  5
D1
330
D0
100
AcDbEntity
  8
0
100
AcDbBlockBegin
  2
SW_NOTE_2
 70
     0
 10
0.0
 20
0.0
 30
0.0
  3
SW_NOTE_2
  1

  0
MTEXT
  5
D3
330
D0
100
AcDbEntity
  8
0
  6
Continuous
 62
     0
370
     0
100
AcDbMText
 10
0.0
 20
2.7285267159
 30
0.0
 40
2.1166666667
 41
0.0
 71
     1
 72
     1
  1
DRAWING
  7
SLDTEXTSTYLE0
 73
     1
 44
1.0
  0
MTEXT
  5
D4
330
D0
100
AcDbEntity
  8
0
  6
Continuous
 62
     0
370
     0
100
AcDbMText
 10
0.0
 20
-0.0936954723
 30
0.0
 40
2.1166666667
 41
0.0
 71
     1
 72
     1
  1
PROJECTION
  7
SLDTEXTSTYLE0
 73
     1
 44
1.0
  0
ENDBLK
  5
D2
330
D0
100
AcDbEntity
  8
0
100
AcDbBlockEnd
  0
BLOCK
  5
D8
330
D7
100
AcDbEntity
  8
0
100
AcDbBlockBegin
  2
SW_NOTE_3
 70
     0
 10
0.0
 20
0.0
 30
0.0
  3
SW_NOTE_3
  1

  0
MTEXT
  5
DA
330
D7
100
AcDbEntity
  8
0
  6
Continuous
 62
     0
370
     0
100
AcDbMText
 10
25.052734375
 20
4.0927900738
 30
0.0
 40
3.175
 41
0.0
 71
     2
 72
     1
  1
FOR INFORMATION ONLY
  7
SLDTEXTSTYLE0
 73
     1
 44
1.0
  0
MTEXT
  5
DB
330
D7
100
AcDbEntity
  8
0
  6
Continuous
 62
     0
370
     0
100
AcDbMText
 10
25.3768468589
 20
-0.1405432084
 30
0.0
 40
3.175
 41
0.0
 71
     2
 72
     1
  1
NOT FOR MANUFACTURING PURPOSES
  7
SLDTEXTSTYLE0
 73
     1
 44
1.0
  0
ENDBLK
  5
D9
330
D7
100
AcDbEntity
  8
0
100
AcDbBlockEnd
  0
BLOCK
  5
DE
330
DD
100
AcDbEntity
  8
0
100
AcDbBlockBegin
  2
SW_NOTE_4
 70
     0
 10
0.0
 20
0.0
 30
0.0
  3
SW_NOTE_4
  1

  0
MTEXT
  5
E0
330
DD
100
AcDbEntity
  8
0
  6
Continuous
 62
     0
370
     0
100
AcDbMText
 10
1.9016927083
 20
3.4106583948
 30
0.0
 40
2.6458333333
 41
0.0
 71
     2
 72
     1
  1
%%c
  7
SLDTEXTSTYLE0
 73
     1
 44
1.0
  0
MTEXT
  5
E1
330
DD
100
AcDbEntity
  8
0
  6
Continuous
 62
     0
370
     0
100
AcDbMText
 10
28.5917202135
 20
3.4106583948
 30
0.0
 40
2.6458333333
 41
0.0
 71
     2
 72
     1
  1
50.8mm, f=500mm CONCAVE
  7
SLDTEXTSTYLE0
 73
     1
 44
1.0
  0
MTEXT
  5
E2
330
DD
100
AcDbEntity
  8
0
  6
Continuous
 62
     0
370
     0
100
AcDbMText
 10
26.5884203861
 20
-0.1171193403
 30
0.0
 40
2.6458333333
 41
0.0
 71
     2
 72
     1
  1
UV ENHANCED ALUMINUM MIRROR
  7
SLDTEXTSTYLE0
 73
     1
 44
1.0
  0
ENDBLK
  5
DF
330
DD
100
AcDbEntity
  8
0
100
AcDbBlockEnd
  0
BLOCK
  5
F5
330
F4
100
AcDbEntity
  8
0
100
AcDbBlockBegin
  2
_D
 70
     0
 10
0.0
 20
0.0
 30
0.0
  3
_D
  1

  0
SOLID
  5
F7
330
F4
100
AcDbEntity
  8
0
  6
Continuous
 62
     7
370
    18
100
AcDbTrace
 10
69.1078955452
 20
144.2443418544
 30
0.0
 11
71.3049467199
 21
146.5920333025
 31
0.0
 12
70.4627565058
 22
147.1603392442
 32
0.0
 13
70.4627565058
 23
147.1603392442
 33
0.0
  0
LINE
  5
F8
330
F4
100
AcDbEntity
  8
0
  6
Continuous
 62
     7
370
    18
100
AcDbLine
 10
86.605876295
 20
161.0496844727
 30
0.0
 11
85.9620568409
 21
161.0496844727
 31
0.0
  0
LINE
  5
F9
330
F4
100
AcDbEntity
  8
0
  6
Continuous
 62
     7
370
    18
100
AcDbLine
 10
85.9620568409
 20
161.0496844727
 30
0.0
 11
85.9620568409
 21
157.6865363962
 31
0.0
  0
LINE
  5
FA
330
F4
100
AcDbEntity
  8
0
  6
Continuous
 62
     7
370
    18
100
AcDbLine
 10
85.9620568409
 20
157.6865363962
 30
0.0
 11
86.605876295
 21
157.6865363962
 31
0.0
  0
LINE
  5
FB
330
F4
100
AcDbEntity
  8
0
  6
Continuous
 62
     7
370
    18
100
AcDbLine
 10
94.3630678413
 20
161.0496844727
 30
0.0
 11
95.0068872954
 21
161.0496844727
 31
0.0
  0
LINE
  5
FC
330
F4
100
AcDbEntity
  8
0
  6
Continuous
 62
     7
370
    18
100
AcDbLine
 10
95.0068872954
 20
161.0496844727
 30
0.0
 11
95.0068872954
 21
157.6865363962
 31
0.0
  0
LINE
  5
FD
330
F4
100
AcDbEntity
  8
0
  6
Continuous
 62
     7
370
    18
100
AcDbLine
 10
95.0068872954
 20
157.6865363962
 30
0.0
 11
94.3630678413
 21
157.6865363962
 31
0.0
  0
LINE
  5
FE
330
F4
100
AcDbEntity
  8
0
  6
Continuous
 62
     7
370
    18
100
AcDbLine
 10
69.1078955452
 20
144.2443418544
 30
0.0
 11
81.5082373868
 21
162.6207933127
 31
0.0
  0
LINE
  5
FF
330
F4
100
AcDbEntity
  8
0
  6
Continuous
 62
     7
370
    18
100
AcDbLine
 10
81.5082373868
 20
162.6207933127
 30
0.0
 11
85.3182373868
 21
162.6207933127
 31
0.0
  0
MTEXT
  5
100
330
F4
100
AcDbEntity
  8
0
  6
Continuous
 62
     7
370
    18
100
AcDbMText
 10
85.3182373868
 20
164.2074241191
 30
0.0
 40
2.1166666667
 41
0.0
 71
     1
 72
     1
  1
%%c
  7
SLDTEXTSTYLE0
 73
     1
 44
1.0
  0
MTEXT
  5
101
330
F4
100
AcDbEntity
  8
0
  6
Continuous
 62
     7
370
    18
100
AcDbMText
 10
88.5132281875
 20
164.2074241191
 30
0.0
 40
2.1166666667
 41
0.0
 71
     1
 72
     1
  1
50.8mm
  7
SLDTEXTSTYLE0
 73
     1
 44
1.0
  0
MTEXT
  5
102
330
F4
100
AcDbEntity
  8
0
  6
Continuous
 62
     7
370
    18
100
AcDbMText
 10
86.605876295
 20
160.4150629956
 30
0.0
 40
2.1166666667
 41
0.0
 71
     1
 72
     1
  1
2.00in
  7
SLDTEXTSTYLE0
 73
     1
 44
1.0
  0
ENDBLK
  5
F6
330
F4
100
AcDbEntity
  8
0
100
AcDbBlockEnd
  0
BLOCK
  5
11C
330
11B
100
AcDbEntity
  8
0
100
AcDbBlockBegin
  2
_D_1
 70
     0
 10
0.0
 20
0.0
 30
0.0
  3
_D_1
  1

  0
SOLID
  5
11E
330
11B
100
AcDbEntity
  8
0
  6
Continuous
 62
     7
370
    18
100
AcDbTrace
 10
135.0161178872
 20
162.332987467
 30
0.0
 11
131.841387506
 21
162.8426697276
 31
0.0
 12
131.8408491598
 22
161.8266698702
 32
0.0
 13
131.8408491598
 23
161.8266698702
 33
0.0
  0
SOLID
  5
11F
330
11B
100
AcDbEntity
  8
0
  6
Continuous
 62
     7
370
    18
100
AcDbTrace
 10
144.3338127705
 20
162.3280503149
 30
0.0
 11
147.5085431516
 21
161.8183680542
 31
0.0
 12
147.5090814979
 22
162.8343679116
 32
0.0
 13
147.5090814979
 23
162.8343679116
 33
0.0
  0
LINE
  5
120
330
11B
100
AcDbEntity
  8
0
  6
Continuous
 62
     7
370
    18
100
AcDbLine
 10
156.3859545259
 20
162.3181851359
 30
0.0
 11
155.7421350718
 21
162.3181851359
 31
0.0
  0
LINE
  5
121
330
11B
100
AcDbEntity
  8
0
  6
Continuous
 62
     7
370
    18
100
AcDbLine
 10
155.7421350718
 20
162.3181851359
 30
0.0
 11
155.7421350718
 21
158.9550370594
 31
0.0
  0
LINE
  5
122
330
11B
100
AcDbEntity
  8
0
  6
Continuous
 62
     7
370
    18
100
AcDbLine
 10
155.7421350718
 20
158.9550370594
 30
0.0
 11
156.3859545259
 21
158.9550370594
 31
0.0
  0
LINE
  5
123
330
11B
100
AcDbEntity
  8
0
  6
Continuous
 62
     7
370
    18
100
AcDbLine
 10
164.1431460722
 20
162.3181851359
 30
0.0
 11
164.7869655263
 21
162.3181851359
 31
0.0
  0
LINE
  5
124
330
11B
100
AcDbEntity
  8
0
  6
Continuous
 62
     7
370
    18
100
AcDbLine
 10
164.7869655263
 20
162.3181851359
 30
0.0
 11
164.7869655263
 21
158.9550370594
 31
0.0
  0
LINE
  5
125
330
11B
100
AcDbEntity
  8
0
  6
Continuous
 62
     7
370
    18
100
AcDbLine
 10
164.7869655263
 20
158.9550370594
 30
0.0
 11
164.1431460722
 21
158.9550370594
 31
0.0
  0
LINE
  5
126
330
11B
100
AcDbEntity
  8
0
  6
Continuous
 62
     7
370
    18
100
AcDbLine
 10
135.0094052684
 20
149.6645234763
 30
0.0
 11
135.0170599931
 21
164.1109872174
 31
0.0
  0
LINE
  5
127
330
11B
100
AcDbEntity
  8
0
  6
Continuous
 62
     7
370
    18
100
AcDbLine
 10
144.3271001517
 20
149.6595863242
 30
0.0
 11
144.3347548763
 21
164.1060500653
 31
0.0
  0
LINE
  5
128
330
11B
100
AcDbEntity
  8
0
  6
Continuous
 62
     7
370
    18
100
AcDbLine
 10
135.0161178872
 20
162.332987467
 30
0.0
 11
128.6661187786
 21
162.3363521309
 31
0.0
  0
LINE
  5
129
330
11B
100
AcDbEntity
  8
0
  6
Continuous
 62
     7
370
    18
100
AcDbLine
 10
144.3338127705
 20
162.3280503149
 30
0.0
 11
154.668802135
 21
162.3225741305
 31
0.0
  0
MTEXT
  5
12A
330
11B
100
AcDbEntity
  8
0
  6
Continuous
 62
     7
370
    18
100
AcDbMText
 10
155.6647199305
 20
165.4759247823
 30
0.0
 40
2.1166666667
 41
0.0
 71
     1
 72
     1
  1
9.3mm
  7
SLDTEXTSTYLE0
 73
     1
 44
1.0
  0
MTEXT
  5
12B
330
11B
100
AcDbEntity
  8
0
  6
Continuous
 62
     7
370
    18
100
AcDbMText
 10
156.3859545259
 20
161.6835636588
 30
0.0
 40
2.1166666667
 41
0.0
 71
     1
 72
     1
  1
0.37in
  7
SLDTEXTSTYLE0
 73
     1
 44
1.0
  0
MTEXT
  5
12C
330
11B
100
AcDbEntity
  8
0
  6
Continuous
 62
     7
370
    18
100
AcDbMText
 10
166.2245345148
 20
165.4759247823
 30
0.0
 40
2.1166666667
 41
0.0
 71
     1
 72
     1
  1
REF
  7
SLDTEXTSTYLE0
 73
     1
 44
1.0
  0
ENDBLK
  5
11D
330
11B
100
AcDbEntity
  8
0
100
AcDbBlockEnd
  0
BLOCK
  5
130
330
12F
100
AcDbEntity
  8
0
100
AcDbBlockBegin
  2
_D_2
 70
     0
 10
0.0
 20
0.0
 30
0.0
  3
_D_2
  1

  0
ARC
  5
132
330
12F
100
AcDbEntity
  8
0
  6
Continuous
 62
     7
370
    18
100
AcDbCircle
 10
-864.6736048164
 20
123.1895865025
 30
0.0
 40
1000.000032035271
100
AcDbArc
 50
357.912543057
 51
358.482944975
  0
SOLID
  5
133
330
12F
100
AcDbEntity
  8
0
  6
Continuous
 62
     7
370
    18
100
AcDbTrace
 10
134.7260028309
 20
88.5415229923
 30
0.0
 11
137.8814952678
 21
87.9238204097
 31
0.0
 12
137.9166976992
 22
88.9392103786
 32
0.0
 13
137.9166976992
 23
88.9392103786
 33
0.0
  0
LINE
  5
134
330
12F
100
AcDbEntity
  8
0
  6
Continuous
 62
     7
370
    18
100
AcDbLine
 10
152.573668238
 20
86.5283850334
 30
0.0
 11
151.9298487839
 21
86.5283850334
 31
0.0
  0
LINE
  5
135
330
12F
100
AcDbEntity
  8
0
  6
Continuous
 62
     7
370
    18
100
AcDbLine
 10
151.9298487839
 20
86.5283850334
 30
0.0
 11
151.9298487839
 21
83.165236957
 31
0.0
  0
LINE
  5
136
330
12F
100
AcDbEntity
  8
0
  6
Continuous
 62
     7
370
    18
100
AcDbLine
 10
151.9298487839
 20
83.165236957
 30
0.0
 11
152.573668238
 21
83.165236957
 31
0.0
  0
LINE
  5
137
330
12F
100
AcDbEntity
  8
0
  6
Continuous
 62
     7
370
    18
100
AcDbLine
 10
161.894841891
 20
86.5283850334
 30
0.0
 11
162.5386613451
 21
86.5283850334
 31
0.0
  0
LINE
  5
138
330
12F
100
AcDbEntity
  8
0
  6
Continuous
 62
     7
370
    18
100
AcDbLine
 10
162.5386613451
 20
86.5283850334
 30
0.0
 11
162.5386613451
 21
83.165236957
 31
0.0
  0
LINE
  5
139
330
12F
100
AcDbEntity
  8
0
  6
Continuous
 62
     7
370
    18
100
AcDbLine
 10
162.5386613451
 20
83.165236957
 30
0.0
 11
161.894841891
 21
83.165236957
 31
0.0
  0
LINE
  5
13A
330
12F
100
AcDbEntity
  8
0
  6
Continuous
 62
     7
370
    18
100
AcDbLine
 10
134.7260028309
 20
88.5415229923
 30
0.0
 11
147.4760293298
 21
88.0994938735
 31
0.0
  0
LINE
  5
13B
330
12F
100
AcDbEntity
  8
0
  6
Continuous
 62
     7
370
    18
100
AcDbLine
 10
147.4760293298
 20
88.0994938735
 30
0.0
 11
151.2860293298
 21
88.0994938735
 31
0.0
  0
MTEXT
  5
13C
330
12F
100
AcDbEntity
  8
0
  6
Continuous
 62
     7
370
    18
100
AcDbMText
 10
151.2860293298
 20
89.6861246799
 30
0.0
 40
2.1166666667
 41
0.0
 71
     1
 72
     1
  1
R1000.0mm
  7
SLDTEXTSTYLE0
 73
     1
 44
1.0
  0
MTEXT
  5
13D
330
12F
100
AcDbEntity
  8
0
  6
Continuous
 62
     7
370
    18
100
AcDbMText
 10
152.573668238
 20
85.8937635564
 30
0.0
 40
2.1166666667
 41
0.0
 71
     1
 72
     1
  1
39.37in
  7
SLDTEXTSTYLE0
 73
     1
 44
1.0
  0
ENDBLK
  5
131
330
12F
100
AcDbEntity
  8
0
100
AcDbBlockEnd
  0
BLOCK
  5
141
330
140
100
AcDbEntity
  8
0
100
AcDbBlockBegin
  2
_D_3
 70
     0
 10
0.0
 20
0.0
 30
0.0
  3
_D_3
  1

  0
SOLID
  5
143
330
140
100
AcDbEntity
  8
0
  6
Continuous
 62
     7
370
    18
100
AcDbTrace
 10
144.3264272189
 20
153.4791656285
 30
0.0
 11
147.5014272189
 21
152.9711656285
 31
0.0
 12
147.5014272189
 22
153.9871656285
 32
0.0
 13
147.5014272189
 23
153.9871656285
 33
0.0
  0
SOLID
  5
144
330
140
100
AcDbEntity
  8
0
  6
Continuous
 62
     7
370
    18
100
AcDbTrace
 10
135.3264272189
 20
153.4791656285
 30
0.0
 11
132.1514272189
 21
153.9871656285
 31
0.0
 12
132.1514272189
 22
152.9711656285
 32
0.0
 13
132.1514272189
 23
152.9711656285
 33
0.0
  0
LINE
  5
145
330
140
100
AcDbEntity
  8
0
  6
Continuous
 62
     7
370
    18
100
AcDbLine
 10
156.4478312129
 20
153.4791653957
 30
0.0
 11
155.8040117588
 21
153.4791653957
 31
0.0
  0
LINE
  5
146
330
140
100
AcDbEntity
  8
0
  6
Continuous
 62
     7
370
    18
100
AcDbLine
 10
155.8040117588
 20
153.4791653957
 30
0.0
 11
155.8040117588
 21
150.1160173192
 31
0.0
  0
LINE
  5
147
330
140
100
AcDbEntity
  8
0
  6
Continuous
 62
     7
370
    18
100
AcDbLine
 10
155.8040117588
 20
150.1160173192
 30
0.0
 11
156.4478312129
 21
150.1160173192
 31
0.0
  0
LINE
  5
148
330
140
100
AcDbEntity
  8
0
  6
Continuous
 62
     7
370
    18
100
AcDbLine
 10
164.2050227592
 20
153.4791653957
 30
0.0
 11
164.8488422133
 21
153.4791653957
 31
0.0
  0
LINE
  5
149
330
140
100
AcDbEntity
  8
0
  6
Continuous
 62
     7
370
    18
100
AcDbLine
 10
164.8488422133
 20
153.4791653957
 30
0.0
 11
164.8488422133
 21
150.1160173192
 31
0.0
  0
LINE
  5
14A
330
140
100
AcDbEntity
  8
0
  6
Continuous
 62
     7
370
    18
100
AcDbLine
 10
164.8488422133
 20
150.1160173192
 30
0.0
 11
164.2050227592
 21
150.1160173192
 31
0.0
  0
LINE
  5
14B
330
140
100
AcDbEntity
  8
0
  6
Continuous
 62
     7
370
    18
100
AcDbLine
 10
144.3264272189
 20
149.6595865025
 30
0.0
 11
144.3264272189
 21
155.2571656285
 31
0.0
  0
LINE
  5
14C
330
140
100
AcDbEntity
  8
0
  6
Continuous
 62
     7
370
    18
100
AcDbLine
 10
135.3264272189
 20
124.4595865025
 30
0.0
 11
135.3264272189
 21
155.2571656285
 31
0.0
  0
LINE
  5
14D
330
140
100
AcDbEntity
  8
0
  6
Continuous
 62
     7
370
    18
100
AcDbLine
 10
144.3264272189
 20
153.4791656285
 30
0.0
 11
153.1706171176
 21
153.4791656285
 31
0.0
  0
LINE
  5
14E
330
140
100
AcDbEntity
  8
0
  6
Continuous
 62
     7
370
    18
100
AcDbLine
 10
135.3264272189
 20
153.4791656285
 30
0.0
 11
128.9764272189
 21
153.4791656285
 31
0.0
  0
MTEXT
  5
14F
330
140
100
AcDbEntity
  8
0
  6
Continuous
 62
     7
370
    18
100
AcDbMText
 10
155.1876306003
 20
156.6369050422
 30
0.0
 40
2.1166666667
 41
0.0
 71
     1
 72
     1
  1

  7
SLDTEXTSTYLE0
 73
     1
 44
1.0
  0
MTEXT
  5
150
330
140
100
AcDbEntity
  8
0
  6
Continuous
 62
     7
370
    18
100
AcDbMText
 10
155.7265966175
 20
156.6369050422
 30
0.0
 40
2.1166666667
 41
0.0
 71
     1
 72
     1
  1
9.0mm
  7
SLDTEXTSTYLE0
 73
     1
 44
1.0
  0
MTEXT
  5
151
330
140
100
AcDbEntity
  8
0
  6
Continuous
 62
     7
370
    18
100
AcDbMText
 10
156.4478312129
 20
152.8445439187
 30
0.0
 40
2.1166666667
 41
0.0
 71
     1
 72
     1
  1
0.35in
  7
SLDTEXTSTYLE0
 73
     1
 44
1.0
  0
MTEXT
  5
152
330
140
100
AcDbEntity
  8
0
  6
Continuous
 62
     7
370
    18
100
AcDbMText
 10
167.0801616674
 20
156.6369050422
 30
0.0
 40
2.1166666667
 41
0.0
 71
     1
 72
     1
  1

  7
SLDTEXTSTYLE0
 73
     1
 44
1.0
  0
ENDBLK
  5
142
330
140
100
AcDbEntity
  8
0
100
AcDbBlockEnd
  0
ENDSEC
  0
SECTION
  2
ENTITIES
  0
LINE
  5
81
330
1F
100
AcDbEntity
  8
0
  6
Continuous
 62
     7
370
    18
100
AcDbLine
 10
1.5793501011
 20
214.6453799966
 30
0.0
 11
277.9892068491
 21
214.6453799966
 31
0.0
  0
LINE
  5
82
330
1F
100
AcDbEntity
  8
0
  6
Continuous
 62
     7
370
    18
100
AcDbLine
 10
1.5793501011
 20
214.6453799966
 30
0.0
 11
1.5793501011
 21
0.9031642596
 31
0.0
  0
LINE
  5
83
330
1F
100
AcDbEntity
  8
0
  6
Continuous
 62
     7
370
    18
100
AcDbLine
 10
277.9892068491
 20
0.9031642596
 30
0.0
 11
1.5793501011
 21
0.9031642596
 31
0.0
  0
LINE
  5
84
330
1F
100
AcDbEntity
  8
0
  6
Continuous
 62
     7
370
    18
100
AcDbLine
 10
277.9892068491
 20
0.9031642596
 30
0.0
 11
277.9892068491
 21
214.6453799966
 31
0.0
  0
LINE
  5
85
330
1F
100
AcDbEntity
  8
0
  6
Continuous
 62
     7
370
    18
100
AcDbLine
 10
215.7427640041
 20
12.2958890132
 30
0.0
 11
171.6327596684
 21
12.2958890132
 31
0.0
  0
LINE
  5
86
330
1F
100
AcDbEntity
  8
0
  6
Continuous
 62
     7
370
    18
100
AcDbLine
 10
171.6327596684
 20
12.2958890132
 30
0.0
 11
171.6327596684
 21
26.1661402506
 31
0.0
  0
LINE
  5
87
330
1F
100
AcDbEntity
  8
0
  6
Continuous
 62
     7
370
    18
100
AcDbLine
 10
171.6327596684
 20
0.9031642596
 30
0.0
 11
171.6327596684
 21
26.1661402506
 31
0.0
  0
LINE
  5
88
330
1F
100
AcDbEntity
  8
0
  6
Continuous
 62
     7
370
    18
100
AcDbLine
 10
215.7427640041
 20
17.1604579552
 30
0.0
 11
277.9892068491
 21
17.1604579552
 31
0.0
  0
LINE
  5
89
330
1F
100
AcDbEntity
  8
0
  6
Continuous
 62
     7
370
    18
100
AcDbLine
 10
215.7427640041
 20
35.2394508358
 30
0.0
 11
215.7427640041
 21
0.9031642596
 31
0.0
  0
LINE
  5
8A
330
1F
100
AcDbEntity
  8
0
  6
Continuous
 62
     7
370
    18
100
AcDbLine
 10
215.7427640041
 20
26.1661402506
 30
0.0
 11
171.6327596684
 21
26.1661402506
 31
0.0
  0
LINE
  5
8B
330
1F
100
AcDbEntity
  8
0
  6
Continuous
 62
     7
370
    18
100
AcDbLine
 10
215.7427640041
 20
9.1409200612
 30
0.0
 11
277.9892068491
 21
9.1409200612
 31
0.0
  0
LINE
  5
8C
330
1F
100
AcDbEntity
  8
0
  6
Continuous
 62
     7
370
    18
100
AcDbLine
 10
215.7427640041
 20
16.9216824031
 30
0.0
 11
171.6327596684
 21
16.9216824031
 31
0.0
  0
LINE
  5
8D
330
1F
100
AcDbEntity
  8
0
  6
Continuous
 62
     7
370
    18
100
AcDbLine
 10
215.7427640041
 20
21.4874005542
 30
0.0
 11
171.6327596684
 21
21.4874005542
 31
0.0
  0
LINE
  5
8E
330
1F
100
AcDbEntity
  8
0
  6
Continuous
 62
     7
370
    18
100
AcDbLine
 10
186.1338100705
 20
26.1661402506
 30
0.0
 11
186.1338100705
 21
12.2958890132
 31
0.0
  0
LINE
  5
8F
330
1F
100
AcDbEntity
  8
0
  6
Continuous
 62
     7
370
    18
100
AcDbLine
 10
198.2145906188
 20
26.1661402506
 30
0.0
 11
198.2145906188
 21
12.2958890132
 31
0.0
  0
LINE
  5
90
330
1F
100
AcDbEntity
  8
0
  6
Continuous
 62
     7
370
    18
100
AcDbLine
 10
253.7490408369
 20
9.1409200612
 30
0.0
 11
253.7490408369
 21
0.9031642596
 31
0.0
  0
LINE
  5
91
330
1F
100
AcDbEntity
  8
0
  6
Continuous
 62
     7
370
    18
100
AcDbLine
 10
171.6327596684
 20
12.2958890132
 30
0.0
 11
171.6327596684
 21
7.5627342528
 31
0.0
  0
LINE
  5
92
330
1F
100
AcDbEntity
  8
0
  6
Continuous
 62
     7
370
    18
100
AcDbLine
 10
171.6327596684
 20
7.5627342528
 30
0.0
 11
215.7427640041
 21
7.5627342528
 31
0.0
  0
LINE
  5
93
330
1F
100
AcDbEntity
  8
0
  6
Continuous
 62
     7
370
    18
100
AcDbLine
 10
171.6327596684
 20
7.5627342528
 30
0.0
 11
171.6327596684
 21
35.2394508358
 31
0.0
  0
LINE
  5
94
330
1F
100
AcDbEntity
  8
0
  6
Continuous
 62
     7
370
    18
100
AcDbLine
 10
171.6327596684
 20
35.2394508358
 30
0.0
 11
215.7427640041
 21
35.2394508358
 31
0.0
  0
LINE
  5
95
330
1F
100
AcDbEntity
  8
0
  6
Continuous
 62
     7
370
    18
100
AcDbLine
 10
270.1683598194
 20
17.1604579552
 30
0.0
 11
270.1683598194
 21
9.1409200612
 31
0.0
  0
LINE
  5
96
330
1F
100
AcDbEntity
  8
0
  6
Continuous
 62
     7
370
    18
100
AcDbLine
 10
215.7427640041
 20
35.2394508358
 30
0.0
 11
277.9892068491
 21
35.2394508358
 31
0.0
  0
LINE
  5
97
330
1F
100
AcDbEntity
  8
0
  6
Continuous
 62
     7
370
    18
100
AcDbLine
 10
277.9892068491
 20
35.2394508358
 30
0.0
 11
277.9892068491
 21
50.0331356147
 31
0.0
  0
LINE
  5
98
330
1F
100
AcDbEntity
  8
0
  6
Continuous
 62
     7
370
    18
100
AcDbLine
 10
215.7427640041
 20
24.8927335446
 30
0.0
 11
277.9892068491
 21
24.8927335446
 31
0.0
  0
INSERT
  5
99
330
1F
100
AcDbEntity
  8
0
  6
Continuous
 62
     7
100
AcDbBlockReference
  2
Third Angle Projection Block
 10
117.7262204235
 20
15.5162339489
 30
0.0
 41
0.8
 42
0.8
 43
0.8
  0
INSERT
  5
B8
330
1F
100
AcDbEntity
  8
0
  6
Continuous
 62
     7
370
     0
100
AcDbBlockReference
  2
SW_NOTE_0
 10
22.645953648
 20
68.6866207362
 30
0.0
  0
MTEXT
  5
B9
330
1F
100
AcDbEntity
  8
0
  6
Continuous
 62
     7
370
     0
100
AcDbMText
 10
274.1458225539
 20
13.2559386876
 30
0.0
 40
3.175
 41
0.0
 71
     2
 72
     1
  1
A
  7
SLDTEXTSTYLE0
 73
     1
 44
1.0
  0
MTEXT
  5
BA
330
1F
100
AcDbEntity
  8
0
  6
Continuous
 62
     7
370
     0
100
AcDbMText
 10
234.55798342
 20
5.1306563898
 30
0.0
 40
3.175
 41
0.0
 71
     2
 72
     1
  1
CM508-500-F01
  7
SLDTEXTSTYLE0
 73
     1
 44
1.0
  0
MTEXT
  5
BB
330
1F
100
AcDbEntity
  8
0
  6
Continuous
 62
     7
370
     0
100
AcDbMText
 10
216.4199766059
 20
16.8243178599
 30
0.0
 40
2.1166666667
 41
0.0
 71
     1
 72
     1
  1
MATERIAL
  7
SLDTEXTSTYLE0
 73
     1
 44
1.0
  0
MTEXT
  5
BC
330
1F
100
AcDbEntity
  8
0
  6
Continuous
 62
     7
370
     0
100
AcDbMText
 10
174.230946566
 20
20.054553926
 30
0.0
 40
1.8520833333
 41
0.0
 71
     1
 72
     1
  1
DRAWN
  7
SLDTEXTSTYLE0
 73
     1
 44
1.0
  0
MTEXT
  5
BD
330
1F
100
AcDbEntity
  8
0
  6
Continuous
 62
     7
370
     0
100
AcDbMText
 10
172.3960124543
 20
15.5787169747
 30
0.0
 40
1.8520833333
 41
0.0
 71
     1
 72
     1
  1
APPROVAL
  7
SLDTEXTSTYLE0
 73
     1
 44
1.0
  0
MTEXT
  5
BE
330
1F
100
AcDbEntity
  8
0
  6
Continuous
 62
     7
370
     0
100
AcDbMText
 10
271.7160653675
 20
16.1671746307
 30
0.0
 40
2.1166666667
 41
0.0
 71
     1
 72
     1
  1
REV
  7
SLDTEXTSTYLE0
 73
     1
 44
1.0
  0
MTEXT
  5
BF
330
1F
100
AcDbEntity
  8
0
  6
Continuous
 62
     7
370
     0
100
AcDbMText
 10
190.2958696448
 20
20.3177146903
 30
0.0
 40
2.1166666667
 41
0.0
 71
     1
 72
     1
  1
YB
  7
SLDTEXTSTYLE0
 73
     1
 44
1.0
  0
MTEXT
  5
C0
330
1F
100
AcDbEntity
  8
0
  6
Continuous
 62
     7
370
     0
100
AcDbMText
 10
190.2958696448
 20
15.841877739
 30
0.0
 40
2.1166666667
 41
0.0
 71
     1
 72
     1
  1
DD
  7
SLDTEXTSTYLE0
 73
     1
 44
1.0
  0
MTEXT
  5
C1
330
1F
100
AcDbEntity
  8
0
  6
Continuous
 62
     7
370
     0
100
AcDbMText
 10
199.8662436873
 20
20.3177146903
 30
0.0
 40
2.1166666667
 41
0.0
 71
     1
 72
     1
  1
16/APR/18
  7
SLDTEXTSTYLE0
 73
     1
 44
1.0
  0
MTEXT
  5
C2
330
1F
100
AcDbEntity
  8
0
  6
Continuous
 62
     7
370
     0
100
AcDbMText
 10
203.6145073853
 20
24.8221395769
 30
0.0
 40
2.1166666667
 41
0.0
 71
     1
 72
     1
  1
DATE
  7
SLDTEXTSTYLE0
 73
     1
 44
1.0
  0
MTEXT
  5
C3
330
1F
100
AcDbEntity
  8
0
  6
Continuous
 62
     7
370
     0
100
AcDbMText
 10
199.8662436873
 20
15.841877739
 30
0.0
 40
2.1166666667
 41
0.0
 71
     1
 72
     1
  1
16/APR/18
  7
SLDTEXTSTYLE0
 73
     1
 44
1.0
  0
MTEXT
  5
C5
330
1F
100
AcDbEntity
  8
0
  6
Continuous
 62
     7
370
     0
100
AcDbMText
 10
229.402906477
 20
27.7957480569
 30
0.0
 40
2.1166666667
 41
0.0
 71
     1
 72
     1
  1
w w w . t h o r  l a b s . c o m
  7
SLDTEXTSTYLE3
 73
     1
 44
1.0
  0
MTEXT
  5
C6
330
1F
100
AcDbEntity
  8
0
  6
Continuous
 62
     7
370
     0
100
AcDbMText
 10
216.7004035316
 20
8.3494791871
 30
0.0
 40
2.1166666667
 41
0.0
 71
     1
 72
     1
  1
ITEM #
  7
SLDTEXTSTYLE0
 73
     1
 44
1.0
  0
MTEXT
  5
C7
330
1F
100
AcDbEntity
  8
0
  6
Continuous
 62
     7
370
     0
100
AcDbMText
 10
254.5318000914
 20
8.3494791871
 30
0.0
 40
2.1166666667
 41
0.0
 71
     1
 72
     1
  1
APPROX WEIGHT
  7
SLDTEXTSTYLE0
 73
     1
 44
1.0
  0
MTEXT
  5
C8
330
1F
100
AcDbEntity
  8
0
  6
Continuous
 62
     7
370
     0
100
AcDbMText
 10
243.5159064132
 20
13.8247651814
 30
0.0
 40
3.175
 41
0.0
 71
     2
 72
     1
  1
N-BK7
  7
SLDTEXTSTYLE0
 73
     1
 44
1.0
  0
MTEXT
  5
C9
330
1F
100
AcDbEntity
  8
0
  6
Continuous
 62
     7
370
     0
100
AcDbMText
 10
266.1553537756
 20
5.1306563898
 30
0.0
 40
3.175
 41
0.0
 71
     2
 72
     1
  1
46.61 g
  7
SLDTEXTSTYLE0
 73
     1
 44
1.0
  0
INSERT
  5
CF
330
1F
100
AcDbEntity
  8
0
  6
Continuous
 62
     7
370
     0
100
AcDbBlockReference
  2
SW_NOTE_1
 10
174.8430140051
 20
4.4558554801
 30
0.0
  0
INSERT
  5
D5
330
1F
100
AcDbEntity
  8
0
  6
Continuous
 62
     7
370
     0
100
AcDbBlockReference
  2
SW_NOTE_2
 10
174.5483650337
 20
30.4835322715
 30
0.0
  0
MTEXT
  5
D6
330
1F
100
AcDbEntity
  8
0
  6
Continuous
 62
     7
370
     0
100
AcDbMText
 10
187.9273588276
 20
24.8221395769
 30
0.0
 40
2.1166666667
 41
0.0
 71
     1
 72
     1
  1
NAME
  7
SLDTEXTSTYLE0
 73
     1
 44
1.0
  0
INSERT
  5
DC
330
1F
100
AcDbEntity
  8
0
  6
Continuous
 62
     7
370
     0
100
AcDbBlockReference
  2
SW_NOTE_3
 10
58.6204667508
 20
8.1776609732
 30
0.0
  0
INSERT
  5
E3
330
1F
100
AcDbEntity
  8
0
  6
Continuous
 62
     7
370
     0
100
AcDbBlockReference
  2
SW_NOTE_4
 10
220.0050186217
 20
20.7222222066
 30
0.0
  0
MTEXT
  5
E4
330
1F
100
AcDbEntity
  8
0
  6
Continuous
 62
     7
370
     0
100
AcDbMText
 10
177.6925831922
 20
10.7142101515
 30
0.0
 40
1.5875
 41
0.0
 71
     1
 72
     1
  1
COPYRIGHT © 2018 BY THORLABS
  7
SLDTEXTSTYLE0
 73
     1
 44
1.0
  0
LINE
  5
E5
330
1F
100
AcDbEntity
  8
0
  6
Continuous
 62
     7
370
    18
100
AcDbLine
 10
228.4631443092
 20
194.1733856831
 30
0.0
 11
228.4631443092
 21
194.0141347917
 31
0.0
  0
LINE
  5
E6
330
1F
100
AcDbEntity
  8
0
  6
Continuous
 62
     7
370
    18
100
AcDbLine
 10
246.282829618
 20
163.1461898558
 30
0.0
 11
246.420737463
 21
163.0665514688
 31
0.0
  0
LINE
  5
E7
330
1F
100
AcDbEntity
  8
0
  6
Continuous
 62
     7
370
    18
100
AcDbLine
 10
259.1226244558
 20
161.8073615584
 30
0.0
 11
265.4318780741
 21
165.4496161447
 31
0.0
  0
LINE
  5
E8
330
1F
100
AcDbEntity
  8
0
  6
Continuous
 62
     7
370
    18
100
AcDbLine
 10
240.0339422651
 20
209.4448983536
 30
0.0
 11
233.7246886469
 21
205.8026437674
 31
0.0
  0
LINE
  5
E9
330
1F
100
AcDbEntity
  8
0
  6
Continuous
 62
     7
370
    18
100
AcDbLine
 10
270.6934224117
 20
177.078874229
 30
0.0
 11
270.6934224117
 21
177.2421558514
 31
0.0
  0
LINE
  5
EA
330
1F
100
AcDbEntity
  8
0
  6
Continuous
 62
     7
370
    18
100
AcDbLine
 10
252.8772276292
 20
208.1040543632
 30
0.0
 11
252.7358292579
 21
208.1857084433
 31
0.0
  0
LWPOLYLINE
  5
EB
330
1F
100
AcDbEntity
  8
0
  6
Continuous
 62
     7
370
    18
100
AcDbPolyline
 90
      167
 70
   128
 43
0.0
 10
264.1083082685
 20
173.4366196428
 10
264.09554293
 20
174.2227990445
 10
264.0572652007
 20
175.0225907979
 10
263.9935299131
 20
175.8348492091
 10
263.9044283674
 20
176.6584107256
 10
263.7900882007
 20
177.4920956035
 10
263.6506732041
 20
178.3347095974
 10
263.4863830884
 20
179.1850456706
 10
263.2974531975
 20
180.0418857251
 10
263.0841541716
 20
180.9040023456
 10
262.8467915597
 20
181.7701605585
 10
262.5857053812
 20
182.6391196004
 10
262.3012696398
 20
183.5096346958
 10
261.9938917867
 20
184.3804588404
 10
261.6640121379
 20
185.2503445868
 10
261.3121032427
 20
186.1180458322
 10
260.9386692073
 20
186.9823196028
 10
260.5442449723
 20
187.8419278348
 10
260.1293955467
 20
188.6956391477
 10
259.6947151982
 20
189.5422306083
 10
259.2408266022
 20
190.3804894825
 10
258.7683799498
 20
191.2092149724
 10
258.2780520163
 20
192.0272199368
 10
257.7705451917
 20
192.8333325915
 10
257.2465864747
 20
193.6263981879
 10
256.706926431
 20
194.405280667
 10
256.1523381185
 20
195.1688642874
 10
255.5836159796
 20
195.9160552228
 10
255.0015747033
 20
196.6457831294
 10
254.4070480581
 20
197.3570026789
 10
253.8008876977
 20
198.0486950563
 10
253.183961941
 20
198.7198694189
 10
252.5571545281
 20
199.3695643158
 10
251.9213633547
 20
199.9968490654
 10
251.2774991855
 20
200.6008250883
 10
250.6264843497
 20
201.1806271946
 10
249.9692514198
 20
201.7354248236
 10
249.3067418756
 20
202.2644232328
 10
248.6399047557
 20
202.7668646372
 10
247.9696952978
 20
203.2420292943
 10
247.2970735705
 20
203.6892365352
 10
246.623003098
 20
204.10784574
 10
245.9484494797
 20
204.497257255
 10
245.2743790072
 20
204.8569132519
 10
244.6017572799
 20
205.186298527
 10
243.931547822
 20
205.4849412391
 10
243.2647107021
 20
205.7524135853
 10
242.6022011579
 20
205.9883324141
 10
241.944968228
 20
206.192359774
 10
241.2939533922
 20
206.3642033978
 10
240.650089223
 20
206.5036171211
 10
240.0142980496
 20
206.6104012353
 10
239.3874906367
 20
206.6844027729
 10
238.77056488
 20
206.7255157277
 10
238.1644045195
 20
206.7336812055
 10
237.5698778743
 20
206.7088875095
 10
236.987836598
 20
206.6511701565
 10
236.4191144591
 20
206.5606118258
 10
235.8645261466
 20
206.4373422416
 10
235.324866103
 20
206.2815379862
 10
234.8009073859
 20
206.0934222478
 10
234.2934005614
 20
205.8732645004
 10
233.8030726278
 20
205.6213801178
 10
233.3306259755
 20
205.3381299219
 10
232.8767373795
 20
205.023919666
 10
232.442057031
 20
204.6791994532
 10
232.0272076053
 20
204.3044630919
 10
231.6327833703
 20
203.9002473883
 10
231.2593493349
 20
203.4671313775
 10
230.9074404398
 20
203.005735494
 10
230.577560791
 20
202.516720683
 10
230.2701829379
 20
202.0007874535
 10
229.9857471964
 20
201.4586748749
 10
229.724661018
 20
200.8911595183
 10
229.487298406
 20
200.2990543438
 10
229.2739993802
 20
199.6832075365
 10
229.0850694893
 20
199.044501291
 10
228.9207793735
 20
198.3838505478
 10
228.781364377
 20
197.7022016827
 10
228.6670242103
 20
197.0005311513
 10
228.5779226646
 20
196.2798440897
 10
228.514187377
 20
195.5411728753
 10
228.4759096477
 20
194.7855756474
 10
228.4631443092
 20
194.0141347917
 10
228.4759096477
 20
193.22795539
 10
228.514187377
 20
192.4281636366
 10
228.5779226646
 20
191.6159052254
 10
228.6670242103
 20
190.7923437089
 10
228.781364377
 20
189.9586588309
 10
228.9207793735
 20
189.1160448371
 10
229.0850694893
 20
188.2657087639
 10
229.2739993802
 20
187.4088687094
 10
229.487298406
 20
186.5467520889
 10
229.724661018
 20
185.680593876
 10
229.9857471964
 20
184.8116348341
 10
230.2701829379
 20
183.9411197387
 10
230.577560791
 20
183.0702955941
 10
230.9074404398
 20
182.2004098477
 10
231.2593493349
 20
181.3327086023
 10
231.6327833703
 20
180.4684348317
 10
232.0272076053
 20
179.6088265997
 10
232.442057031
 20
178.7551152867
 10
232.8767373795
 20
177.9085238262
 10
233.3306259755
 20
177.070264952
 10
233.8030726278
 20
176.2415394621
 10
234.2934005614
 20
175.4235344977
 10
234.8009073859
 20
174.617421843
 10
235.324866103
 20
173.8243562466
 10
235.8645261466
 20
173.0454737674
 10
236.4191144591
 20
172.2818901471
 10
236.987836598
 20
171.5346992117
 10
237.5698778743
 20
170.8049713051
 10
238.1644045195
 20
170.0937517556
 10
238.77056488
 20
169.4020593782
 10
239.3874906367
 20
168.7308850156
 10
240.0142980496
 20
168.0811901187
 10
240.650089223
 20
167.4539053691
 10
241.2939533922
 20
166.8499293462
 10
241.944968228
 20
166.2701272398
 10
242.6022011579
 20
165.7153296109
 10
243.2647107021
 20
165.1863312017
 10
243.931547822
 20
164.6838897973
 10
244.6017572799
 20
164.2087251402
 10
245.2743790072
 20
163.7615178993
 10
245.9484494797
 20
163.3429086945
 10
246.623003098
 20
162.9534971795
 10
247.2970735705
 20
162.5938411826
 10
247.9696952978
 20
162.2644559075
 10
248.6399047557
 20
161.9658131954
 10
249.3067418756
 20
161.6983408492
 10
249.9692514198
 20
161.4624220204
 10
250.6264843497
 20
161.2583946605
 10
251.2774991855
 20
161.0865510367
 10
251.9213633547
 20
160.9471373133
 10
252.5571545281
 20
160.8403531992
 10
253.183961941
 20
160.7663516615
 10
253.8008876977
 20
160.7252387068
 10
254.4070480581
 20
160.717073229
 10
255.0015747033
 20
160.741866925
 10
255.5836159796
 20
160.799584278
 10
256.1523381185
 20
160.8901426087
 10
256.706926431
 20
161.0134121929
 10
257.2465864747
 20
161.1692164483
 10
257.7705451917
 20
161.3573321867
 10
258.2780520163
 20
161.5774899341
 10
258.7683799498
 20
161.8293743167
 10
259.2408266022
 20
162.1126245126
 10
259.6947151982
 20
162.4268347685
 10
260.1293955467
 20
162.7715549813
 10
260.5442449723
 20
163.1462913426
 10
260.9386692073
 20
163.5505070462
 10
261.3121032427
 20
163.983623057
 10
261.6640121379
 20
164.4450189405
 10
261.9938917867
 20
164.9340337515
 10
262.3012696398
 20
165.4499669809
 10
262.5857053812
 20
165.9920795595
 10
262.8467915597
 20
166.5595949162
 10
263.0841541716
 20
167.1517000907
 10
263.2974531975
 20
167.767546898
 10
263.4863830884
 20
168.4062531435
 10
263.6506732041
 20
169.0669038867
 10
263.7900882007
 20
169.7485527517
 10
263.9044283674
 20
170.4502232832
 10
263.9935299131
 20
171.1709103448
 10
264.0572652007
 20
171.9095815592
 10
264.09554293
 20
172.6651787871
 10
264.1083082685
 20
173.4366196428
  0
LWPOLYLINE
  5
EC
330
1F
100
AcDbEntity
  8
0
  6
Continuous
 62
     7
370
    18
100
AcDbPolyline
 90
      127
 70
   128
 43
0.0
 10
228.4631443092
 20
194.1733856831
 10
228.4758548575
 20
194.9461880361
 10
228.5139685122
 20
195.7032212871
 10
228.5774313275
 20
196.4434139401
 10
228.6661534789
 20
197.1657183352
 10
228.7800093903
 20
197.8691121314
 10
228.9188379112
 20
198.5525997533
 10
229.0824425455
 20
199.2152138007
 10
229.270591729
 20
199.8560164174
 10
229.4830191576
 20
200.4741006191
 10
229.7194241641
 20
201.0685915766
 10
229.9794721436
 20
201.6386478545
 10
230.2627950272
 20
202.1834626019
 10
230.5689918032
 20
202.7022646944
 10
230.8976290842
 20
203.1943198256
 10
231.2482417209
 20
203.6589315466
 10
231.6203334603
 20
204.0954422514
 10
232.0133776482
 20
204.5032341079
 10
232.4268179744
 20
204.8817299324
 10
232.8600692605
 20
205.2303940064
 10
233.3125182876
 20
205.5487328347
 10
233.7835246648
 20
205.8362958445
 10
234.2724217352
 20
206.0926760224
 10
234.7785175197
 20
206.317510491
 10
235.3010956963
 20
206.5104810221
 10
235.839416614
 20
206.6713144877
 10
236.3927183397
 20
206.7997832459
 10
236.9602177368
 20
206.8957054636
 10
237.5411115733
 20
206.9589453736
 10
238.1345776589
 20
206.9894134668
 10
238.7397760088
 20
206.9870666191
 10
239.3558500324
 20
206.9519081522
 10
239.9819277457
 20
206.8839878289
 10
240.6171230058
 20
206.783401783
 10
241.2605367648
 20
206.6502923826
 10
241.9112583425
 20
206.4848480293
 10
242.5683667153
 20
206.287302891
 10
243.2309318197
 20
206.0579365708
 10
243.898015869
 20
205.7970737111
 10
244.5686746802
 20
205.5050835341
 10
245.2419590109
 20
205.1823793192
 10
245.9169159022
 20
204.8294178181
 10
246.5925900283
 20
204.4466986084
 10
247.268025048
 20
204.0347633864
 10
247.9422649584
 20
203.5941952002
 10
248.6143554485
 20
203.1256176249
 10
249.2833452492
 20
202.6296938796
 10
249.9482874804
 20
202.107125889
 10
250.6082409907
 20
201.5586532896
 10
251.2622716896
 20
200.985052383
 10
251.9094538698
 20
200.3871350372
 10
252.5488715174
 20
199.7657475372
 10
253.1796196082
 20
199.1217693877
 10
253.8008053887
 20
198.4561120677
 10
254.41154964
 20
197.7697177407
 10
255.0109879219
 20
197.0635579211
 10
255.5982717965
 20
196.3386320991
 10
256.1725700291
 20
195.5959663262
 10
256.7330697649
 20
194.8366117628
 10
257.2789776791
 20
194.0616431903
 10
257.8095211002
 20
193.2721574901
 10
258.3239491032
 20
192.4692720909
 10
258.8215335728
 20
191.6541233871
 10
259.3015702339
 20
190.8278651307
 10
259.7633796482
 20
189.9916667979
 10
260.2063081762
 20
189.1467119337
 10
260.6297289021
 20
188.2941964774
 10
261.0330425211
 20
187.4353270693
 10
261.415678188
 20
186.5713193429
 10
261.7770943247
 20
185.7033962046
 10
262.1167793872
 20
184.8327861025
 10
262.4342525891
 20
183.960721288
 10
262.7290645827
 20
183.0884360711
 10
263.0007980946
 20
182.217165074
 10
263.2490685163
 20
181.3481414836
 10
263.473524449
 20
180.4825953054
 10
263.6738482001
 20
179.6217516233
 10
263.849756234
 20
178.7668288652
 10
264.0009995725
 20
177.9190370788
 10
264.1273641475
 20
177.0795762184
 10
264.2286711041
 20
176.2496344472
 10
264.3047770536
 20
175.4303864547
 10
264.3555742766
 20
174.622991795
 10
264.3809908752
 20
173.828593245
 10
264.3809908752
 20
173.0483151868
 10
264.3555742766
 20
172.283262017
 10
264.3047770536
 20
171.5345165826
 10
264.2286711041
 20
170.8031386491
 10
264.1273641475
 20
170.0901634001
 10
264.0009995725
 20
169.3965999726
 10
263.849756234
 20
168.7234300278
 10
263.6738482001
 20
168.0716063626
 10
263.473524449
 20
167.4420515605
 10
263.2490685163
 20
166.8356566859
 10
263.0007980946
 20
166.2532800229
 10
262.7290645827
 20
165.6957458606
 10
262.4342525891
 20
165.1638433263
 10
262.1167793872
 20
164.6583252685
 10
261.7770943247
 20
164.1799071915
 10
261.415678188
 20
163.7292662426
 10
261.0330425211
 20
163.3070402536
 10
260.6297289021
 20
162.9138268382
 10
260.2063081762
 20
162.5501825461
 10
259.7633796482
 20
162.216622075
 10
259.3015702339
 20
161.9136175426
 10
258.8215335728
 20
161.6415978178
 10
258.3239491032
 20
161.4009479142
 10
257.8095211002
 20
161.1920084447
 10
257.2789776791
 20
161.0150751399
 10
256.7330697649
 20
160.870398429
 10
256.1725700291
 20
160.7581830858
 10
255.5982717965
 20
160.6785879385
 10
255.0109879219
 20
160.6317256451
 10
254.41154964
 20
160.617662534
 10
253.8008053887
 20
160.63641851
 10
253.1796196082
 20
160.687967026
 10
252.5488715174
 20
160.772235121
 10
251.9094538698
 20
160.8891035227
 10
251.2622716896
 20
161.0384068172
 10
250.6082409907
 20
161.2199336822
 10
249.9482874804
 20
161.4334271868
 10
249.2833452492
 20
161.6785851548
 10
248.6143554485
 20
161.9550605925
 10
247.9422649584
 20
162.2624621799
 10
247.268025048
 20
162.6003548243
 10
246.5925900283
 20
162.9682602765
 10
246.420737463
 20
163.0665514688
  0
LWPOLYLINE
  5
ED
330
1F
100
AcDbEntity
  8
0
  6
Continuous
 62
     7
370
    18
100
AcDbPolyline
 90
       64
 70
   128
 43
0.0
 10
270.6934224117
 20
177.078874229
 10
270.6807118634
 20
177.8663518688
 10
270.6425982088
 20
178.6673902087
 10
270.5791353935
 20
179.4808554686
 10
270.490413242
 20
180.3055962794
 10
270.3765573306
 20
181.1404453128
 10
270.2377288097
 20
181.9842209331
 10
270.0741241755
 20
182.8357288705
 10
269.8859749919
 20
183.6937639106
 10
269.6735475633
 20
184.5571116007
 10
269.4371425568
 20
185.4245499689
 10
269.1770945773
 20
186.294851253
 10
268.8937716937
 20
187.166783639
 10
268.5875749177
 20
188.039113004
 10
268.2589376367
 20
188.9106046633
 10
267.908325
 20
189.780025118
 10
267.5362332606
 20
190.6461438007
 10
267.1431890727
 20
191.5077348171
 10
266.7297487465
 20
192.3635786817
 10
266.2964974604
 20
193.212464043
 10
265.8440484333
 20
194.0531893987
 10
265.3730420561
 20
194.8845647962
 10
264.8841449857
 20
195.7054135166
 10
264.3780492012
 20
196.5145737402
 10
263.8554710246
 20
197.3109001913
 10
263.3171501069
 20
198.0932657588
 10
262.7638483812
 20
198.8605630917
 10
262.1963489841
 20
199.6117061665
 10
261.6154551476
 20
200.3456318241
 10
261.021989062
 20
201.0613012748
 10
260.4167907121
 20
201.7577015687
 10
259.8007166886
 20
202.4338470288
 10
259.1746389752
 20
203.088780647
 10
258.5394437151
 20
203.7215754379
 10
257.8960299561
 20
204.3313357512
 10
257.2453083784
 20
204.9171985395
 10
256.5882000056
 20
205.4783345795
 10
255.9256349012
 20
206.0139496458
 10
255.2585508519
 20
206.5232856353
 10
254.5878920407
 20
207.0056216397
 10
253.91460771
 20
207.4602749664
 10
253.2396508187
 20
207.8866021045
 10
252.5639766926
 20
208.2839996355
 10
251.8885416729
 20
208.6519050878
 10
251.2143017625
 20
208.9897977322
 10
250.5422112724
 20
209.2971993196
 10
249.8732214717
 20
209.5736747573
 10
249.2082792405
 20
209.8188327253
 10
248.5483257302
 20
210.0323262299
 10
247.8942950313
 20
210.2138530949
 10
247.2471128511
 20
210.3631563893
 10
246.6076952035
 20
210.4800247911
 10
245.9769471127
 20
210.564292886
 10
245.3557613322
 20
210.615841402
 10
244.7450170809
 20
210.634597378
 10
244.145578799
 20
210.6205342669
 10
243.5582949245
 20
210.5736719736
 10
242.9839966918
 20
210.4940768263
 10
242.423496956
 20
210.3818614831
 10
241.8775890418
 20
210.2371847722
 10
241.3470456207
 20
210.0602514674
 10
240.8326176177
 20
209.8513119979
 10
240.3350331481
 20
209.6106620943
 10
240.0339422651
 20
209.4448983536
  0
LWPOLYLINE
  5
EE
330
1F
100
AcDbEntity
  8
0
  6
Continuous
 62
     7
370
    18
100
AcDbPolyline
 90
       22
 70
   128
 43
0.0
 10
265.4318780741
 20
165.4496161447
 10
265.8440484333
 20
165.7035270774
 10
266.2964974604
 20
166.0218659057
 10
266.7297487465
 20
166.3705299796
 10
267.1431890727
 20
166.7490258041
 10
267.5362332606
 20
167.1568176607
 10
267.908325
 20
167.5933283655
 10
268.2589376367
 20
168.0579400865
 10
268.5875749177
 20
168.5499952177
 10
268.8937716937
 20
169.0687973102
 10
269.1770945773
 20
169.6136120575
 10
269.4371425568
 20
170.1836683354
 10
269.6735475633
 20
170.778159293
 10
269.8859749919
 20
171.3962434946
 10
270.0741241755
 20
172.0370461114
 10
270.2377288097
 20
172.6996601588
 10
270.3765573306
 20
173.3831477807
 10
270.490413242
 20
174.0865415768
 10
270.5791353935
 20
174.808845972
 10
270.6425982088
 20
175.549038625
 10
270.6807118634
 20
176.306071876
 10
270.6934224117
 20
177.078874229
  0
ARC
  5
EF
330
1F
100
AcDbEntity
  8
0
  6
Continuous
 62
     7
370
    18
100
AcDbCircle
 10
232.0839139749
 20
175.5268454791
 30
0.0
 40
38.64759282808874
100
AcDbArc
 50
2.5438153591
 51
57.4508081082
  0
CIRCLE
  5
F0
330
1F
100
AcDbEntity
  8
0
  6
Continuous
 62
     7
370
    18
100
AcDbCircle
 10
54.9002470039
 20
123.1895865025
 30
0.0
 40
25.20493715211659
  0
CIRCLE
  5
F1
330
1F
100
AcDbEntity
  8
0
  6
Continuous
 62
     7
370
    18
100
AcDbCircle
 10
54.9002470039
 20
123.1895865025
 30
0.0
 40
25.40000000000002
  0
DIMENSION
  5
F2
330
1F
100
AcDbEntity
  8
0
  6
Continuous
 62
     7
370
    18
100
AcDbDimension
  2
_D
 10
40.6925984626
 20
102.1348311506
 30
0.0
 11
92.2975538598
 21
162.6207933127
 31
0.0
 70
   163
  1
<>
 71
     1
 42
-1.0
  3
SLDDIMSTYLE0
100
AcDbDiametricDimension
 15
69.1078955452
 25
144.2443418544
 35
0.0
 40
0.0
  0
LINE
  5
103
330
1F
100
AcDbEntity
  8
0
  6
PHANTOM
 62
     7
370
    35
100
AcDbLine
 10
54.9002470039
 20
154.6855865025
 30
0.0
 11
54.9002470039
 21
91.6935865025
 31
0.0
  0
LINE
  5
104
330
1F
100
AcDbEntity
  8
0
  6
Continuous
 62
     7
370
    35
100
AcDbLine
 10
54.9002470039
 20
154.6855865025
 30
0.0
 11
46.0102470039
 21
154.6855865025
 31
0.0
  0
SOLID
  5
105
330
1F
100
AcDbEntity
  8
0
  6
Continuous
 62
     7
370
    35
100
AcDbTrace
 10
46.0102470039
 20
154.6855865025
 30
0.0
 11
49.8202470039
 21
154.0505865025
 31
0.0
 12
49.8202470039
 22
155.3205865025
 32
0.0
 13
49.8202470039
 23
155.3205865025
 33
0.0
  0
LINE
  5
106
330
1F
100
AcDbEntity
  8
0
  6
Continuous
 62
     7
370
    35
100
AcDbLine
 10
54.9002470039
 20
91.6935865025
 30
0.0
 11
46.0102470039
 21
91.6935865025
 31
0.0
  0
SOLID
  5
107
330
1F
100
AcDbEntity
  8
0
  6
Continuous
 62
     7
370
    35
100
AcDbTrace
 10
46.0102470039
 20
91.6935865025
 30
0.0
 11
49.8202470039
 21
91.0585865025
 31
0.0
 12
49.8202470039
 22
92.3285865025
 32
0.0
 13
49.8202470039
 23
92.3285865025
 33
0.0
  0
MTEXT
  5
108
330
1F
100
AcDbEntity
  8
0
  6
Continuous
 62
     7
100
AcDbMText
 10
42.6046113827
 20
156.7867200259
 30
0.0
 40
2.6458333333
 41
0.0
 71
     1
 72
     1
  1
A
  7
SLDTEXTSTYLE0
 73
     1
 44
1.0
  0
MTEXT
  5
109
330
1F
100
AcDbEntity
  8
0
  6
Continuous
 62
     7
100
AcDbMText
 10
42.6046113827
 20
93.7947200259
 30
0.0
 40
2.6458333333
 41
0.0
 71
     1
 72
     1
  1
A
  7
SLDTEXTSTYLE0
 73
     1
 44
1.0
  0
LINE
  5
10A
330
1F
100
AcDbEntity
  8
0
  6
Continuous
 62
     7
370
    18
100
AcDbLine
 10
144.3264272189
 20
97.9895865025
 30
0.0
 11
144.1264272189
 21
97.7895865025
 31
0.0
  0
LINE
  5
10B
330
1F
100
AcDbEntity
  8
0
  6
Continuous
 62
     7
370
    18
100
AcDbLine
 10
135.2037951835
 20
97.7895865025
 30
0.0
 11
144.1264272189
 21
97.7895865025
 31
0.0
  0
LINE
  5
10C
330
1F
100
AcDbEntity
  8
0
  6
Continuous
 62
     7
370
    18
100
AcDbLine
 10
135.2037951835
 20
97.7895865025
 30
0.0
 11
135.0087323356
 21
97.9846493504
 31
0.0
  0
ARC
  5
10D
330
1F
100
AcDbEntity
  8
0
  6
Continuous
 62
     7
370
    18
100
AcDbCircle
 10
-864.6736048164
 20
123.1895865025
 30
0.0
 40
1000.000032035271
100
AcDbArc
 50
358.5557105735
 51
1.4442894265
  0
LINE
  5
10E
330
1F
100
AcDbEntity
  8
0
  6
Continuous
 62
     7
370
    18
100
AcDbLine
 10
135.0087323356
 20
148.3945236546
 30
0.0
 11
135.2037951835
 21
148.5895865025
 31
0.0
  0
LINE
  5
10F
330
1F
100
AcDbEntity
  8
0
  6
Continuous
 62
     7
370
    18
100
AcDbLine
 10
144.1264272189
 20
148.5895865025
 30
0.0
 11
135.2037951835
 21
148.5895865025
 31
0.0
  0
LINE
  5
110
330
1F
100
AcDbEntity
  8
0
  6
Continuous
 62
     7
370
    18
100
AcDbLine
 10
144.1264272189
 20
148.5895865025
 30
0.0
 11
144.3264272189
 21
148.3895865025
 31
0.0
  0
LINE
  5
111
330
1F
100
AcDbEntity
  8
0
  6
Continuous
 62
     7
370
    18
100
AcDbLine
 10
144.3264272189
 20
120.7683415865
 30
0.0
 11
144.3264272189
 21
121.1268708141
 31
0.0
  0
LINE
  5
112
330
1F
100
AcDbEntity
  8
0
  6
Continuous
 62
     7
370
    18
100
AcDbLine
 10
144.3264272189
 20
120.3711069067
 30
0.0
 11
144.3264272189
 21
120.7683415865
 31
0.0
  0
LINE
  5
113
330
1F
100
AcDbEntity
  8
0
  6
Continuous
 62
     7
370
    18
100
AcDbLine
 10
144.3264272189
 20
120.0536248917
 30
0.0
 11
144.3264272189
 21
120.3711069067
 31
0.0
  0
LINE
  5
114
330
1F
100
AcDbEntity
  8
0
  6
Continuous
 62
     7
370
    18
100
AcDbLine
 10
144.3264272189
 20
121.1268708141
 30
0.0
 11
144.3264272189
 21
124.1895865025
 31
0.0
  0
LINE
  5
115
330
1F
100
AcDbEntity
  8
0
  6
Continuous
 62
     7
370
    18
100
AcDbLine
 10
144.3264272189
 20
124.2920597803
 30
0.0
 11
144.3264272189
 21
148.3895865025
 31
0.0
  0
LINE
  5
116
330
1F
100
AcDbEntity
  8
0
  6
Continuous
 62
     7
370
    18
100
AcDbLine
 10
144.3264272189
 20
97.9895865025
 30
0.0
 11
144.3264272189
 21
120.0536248917
 31
0.0
  0
LINE
  5
117
330
1F
100
AcDbEntity
  8
0
  6
Continuous
 62
     7
370
    18
100
AcDbLine
 10
144.3264272189
 20
124.1895865025
 30
0.0
 11
144.3264272189
 21
124.2920597803
 31
0.0
  0
HATCH
  5
118
330
1F
100
AcDbEntity
  8
0
  6
Continuous
 62
     7
370
    18
100
AcDbHatch
 10
0.0
 20
0.0
 30
0.0
210
0.0
220
0.0
230
1.0
  2
ANSI31
 70
     0
 71
     0
 91
        1
 92
        0
 93
       14
 72
     1
 10
144.3264272188792
 20
120.0536248916999
 11
144.3264272188792
 21
120.3711069067425
 72
     1
 10
144.3264272188792
 20
120.3711069067425
 11
144.3264272188792
 21
120.7683415864559
 72
     1
 10
144.3264272188792
 20
120.7683415864559
 11
144.3264272188792
 21
121.1268708141269
 72
     1
 10
144.3264272188792
 20
121.1268708141269
 11
144.3264272188792
 21
124.1895865025048
 72
     1
 10
144.3264272188792
 20
124.1895865025048
 11
144.3264272188792
 21
124.2920597803182
 72
     1
 10
144.3264272188792
 20
124.2920597803182
 11
144.3264272188792
 21
148.3895865025048
 72
     1
 10
144.3264272188792
 20
148.3895865025048
 11
144.1264272188792
 21
148.5895865025048
 72
     1
 10
144.1264272188792
 20
148.5895865025048
 11
135.2037951834997
 21
148.5895865025048
 72
     1
 10
135.2037951834997
 20
148.5895865025048
 11
135.0087323356164
 21
148.3945236546215
 72
     2
 10
-864.6736048163912
 20
123.1895865025048
 40
1000.00003203527
 50
358.5557105735338
 51
361.4442894264678
 73
     0
 72
     1
 10
135.0087323356164
 20
97.98464935039134
 11
135.2037951834997
 21
97.78958650250478
 72
     1
 10
135.2037951834997
 20
97.78958650250478
 11
144.1264272188792
 21
97.78958650250478
 72
     1
 10
144.1264272188792
 20
97.78958650250478
 11
144.3264272188792
 21
97.9895865025048
 72
     1
 10
144.3264272188792
 20
97.9895865025048
 11
144.3264272188792
 21
120.0536248916999
 97
        0
 75
     0
 76
     1
 52
0.0
 41
1.0
 77
     0
 78
     1
 53
45.0
 43
0.0
 44
0.0
 45
-2.245064030267288
 46
2.245064030267288
 79
     0
 98
        1
 10
0.0
 20
0.0
  0
DIMENSION
  5
119
330
1F
100
AcDbEntity
  8
0
  6
Continuous
 62
     7
370
    18
100
AcDbDimension
  2
_D_1
 10
144.3338127705
 20
162.3280503149
 30
0.0
 11
162.9515414225
 21
162.3181853687
 31
0.0
 70
   160
  1
<> REF
 71
     2
 42
-1.0
  3
SLDDIMSTYLE1
100
AcDbAlignedDimension
 13
135.0087323356
 23
148.3945236546
 33
0.0
 14
144.3264272189
 24
148.3895865025
 34
0.0
 50
-0.0303592204
100
AcDbRotatedDimension
  0
DIMENSION
  5
12D
330
1F
100
AcDbEntity
  8
0
  6
Continuous
 62
     7
370
    18
100
AcDbDimension
  2
_D_2
 10
-864.6736048164
 20
123.1895865025
 30
0.0
 11
159.08829782
 21
88.0994938735
 31
0.0
 70
   164
  1
<>
 71
     1
 42
-1.0
  3
SLDDIMSTYLE2
100
AcDbRadialDimension
 15
134.7260028309
 25
88.5415229923
 35
0.0
 40
0.0
  0
DIMENSION
  5
13E
330
1F
100
AcDbEntity
  8
0
  6
Continuous
 62
     7
370
    18
100
AcDbDimension
  2
_D_3
 10
135.3264272189
 20
153.4791656285
 30
0.0
 11
160.3264272189
 21
153.4791656285
 31
0.0
 70
   160
  1
<>
 71
     2
 42
-1.0
  3
SLDDIMSTYLE3
100
AcDbAlignedDimension
 13
144.3264272189
 23
148.3895865025
 33
0.0
 14
135.3264272189
 24
123.1895865025
 34
0.0
100
AcDbRotatedDimension
  0
MTEXT
  5
153
330
1F
100
AcDbEntity
  8
0
  6
Continuous
 62
     7
370
     0
100
AcDbMText
 10
139.4865357272
 20
80.204779988
 30
0.0
 40
2.1166666667
 41
0.0
 71
     2
 72
     1
  1
SECTION A-A
  7
SLDTEXTSTYLE0
 73
     1
 44
1.0
  0
MTEXT
  5
154
330
1F
100
AcDbEntity
  8
0
  6
Continuous
 62
     7
370
     0
100
AcDbMText
 10
116.3126022973
 20
99.9901757629
 30
0.0
 40
2.1166666667
 41
0.0
 71
     1
 72
     1
  1
S1
  7
SLDTEXTSTYLE0
 73
     1
 44
1.0
  0
LEADER
  5
156
330
1F
100
AcDbEntity
  8
0
  6
Continuous
 62
     7
370
     0
100
AcDbLeader
  3
SLDDIMSTYLE4
 76
     3
 10
135.2737040832
 20
112.9210181961
 30
0.0
 10
126.0140034536
 20
99.3893843955
 30
0.0
 10
119.6640034536
 20
99.3893843955
 30
0.0
  0
MTEXT
  5
157
330
1F
100
AcDbEntity
  8
0
  6
Continuous
 62
     7
370
     0
100
AcDbMText
 10
157.5530952966
 20
125.9168635205
 30
0.0
 40
2.1166666667
 41
0.0
 71
     1
 72
     1
  1
S2
  7
SLDTEXTSTYLE0
 73
     1
 44
1.0
  0
LEADER
  5
158
330
1F
100
AcDbEntity
  8
0
  6
Continuous
 62
     7
370
     0
100
AcDbLeader
  3
SLDDIMSTYLE4
 76
     3
 10
144.3264272189
 20
113.5427091665
 30
0.0
 10
150.628368356
 20
125.3473572015
 30
0.0
 10
156.978368356
 20
125.3473572015
 30
0.0
  0
SPLINE
  5
159
330
1F
100
AcDbEntity
  8
0
  6
Continuous
 62
     7
370
    18
100
AcDbSpline
210
0.0
220
0.0
230
1.0
 70
     8
 71
     3
 72
    13
 73
     9
 74
     0
 42
0.000000001
 43
0.00000001
 40
0.0
 40
0.0
 40
0.0
 40
0.0
 40
0.1943389941804438
 40
0.3816850483972324
 40
0.5594858099432996
 40
0.6963399801806515
 40
0.8391066529687221
 40
0.9999999999999999
 40
0.9999999999999999
 40
0.9999999999999999
 40
0.9999999999999999
 10
223.3389159985552
 20
125.3089439387875
 30
0.0
 10
223.3360909061634
 20
125.370576361099
 30
0.0
 10
223.3305423772598
 20
125.4916234736046
 30
0.0
 10
223.2815466691258
 20
125.663642028144
 30
0.0
 10
223.201535283645
 20
125.8037640506817
 30
0.0
 10
223.0933017631259
 20
125.9027237782314
 30
0.0
 10
222.9642625047497
 20
125.9634942987064
 30
0.0
 10
222.8676106019219
 20
125.9700935046497
 30
0.0
 10
222.8163998822752
 20
125.9735900740453
 30
0.0
  0
SPLINE
  5
15A
330
1F
100
AcDbEntity
  8
0
  6
Continuous
 62
     7
370
    18
100
AcDbSpline
210
0.0
220
0.0
230
1.0
 70
     8
 71
     3
 72
    12
 73
     8
 74
     0
 42
0.000000001
 43
0.00000001
 40
0.0
 40
0.0
 40
0.0
 40
0.0
 40
0.2008908381631387
 40
0.3780365369998095
 40
0.5535498386387546
 40
0.7713747335183458
 40
1.0
 40
1.0
 40
1.0
 40
1.0
 10
222.8163998822752
 20
124.6442797415118
 30
0.0
 10
222.8805380537844
 20
124.6498019448196
 30
0.0
 10
223.0012333152933
 20
124.6601936313405
 30
0.0
 10
223.1539278033207
 20
124.7584540139934
 30
0.0
 10
223.2619097245208
 20
124.9059719923394
 30
0.0
 10
223.3275184770469
 20
125.0950958430676
 30
0.0
 10
223.3350560426383
 20
125.2365208052322
 30
0.0
 10
223.3389159985552
 20
125.3089439387875
 30
0.0
  0
SPLINE
  5
15B
330
1F
100
AcDbEntity
  8
0
  6
Continuous
 62
     7
370
    18
100
AcDbSpline
210
0.0
220
0.0
230
1.0
 70
     8
 71
     3
 72
    13
 73
     9
 74
     0
 42
0.000000001
 43
0.00000001
 40
0.0
 40
0.0
 40
0.0
 40
0.0
 40
0.1943256494037768
 40
0.3816748644005011
 40
0.5594881704966067
 40
0.6963511211546931
 40
0.8391184169589758
 40
1.0
 40
1.0
 40
1.0
 40
1.0
 10
222.2938657039772
 20
125.3089439387875
 30
0.0
 10
222.2966921582195
 20
125.2473152698021
 30
0.0
 10
222.3022435949082
 20
125.1262704465874
 30
0.0
 10
222.3512521238877
 20
124.95425303871
 30
0.0
 10
222.4312720374522
 20
124.814126566511
 30
0.0
 10
222.5395078525064
 20
124.7151585929594
 30
0.0
 10
222.668543288146
 20
124.6543784999968
 30
0.0
 10
222.7651924698916
 20
124.647777260803
 30
0.0
 10
222.8163998822752
 20
124.6442797415118
 30
0.0
  0
SPLINE
  5
15C
330
1F
100
AcDbEntity
  8
0
  6
Continuous
 62
     7
370
    18
100
AcDbSpline
210
0.0
220
0.0
230
1.0
 70
     8
 71
     3
 72
    12
 73
     8
 74
     0
 42
0.000000001
 43
0.00000001
 40
0.0
 40
0.0
 40
0.0
 40
0.0
 40
0.2008792258750572
 40
0.3780217100331197
 40
0.5535332757399344
 40
0.7713595773327314
 40
1.0
 40
1.0
 40
1.0
 40
1.0
 10
222.8163998822752
 20
125.9735900740453
 30
0.0
 10
222.752266089722
 20
125.9680684105484
 30
0.0
 10
222.6315768256815
 20
125.9576775467433
 30
0.0
 10
222.4788832919636
 20
125.8594304691184
 30
0.0
 10
222.3708897219021
 20
125.7119241989792
 30
0.0
 10
222.3052662459051
 20
125.5228008310783
 30
0.0
 10
222.2977267573476
 20
125.3813714496889
 30
0.0
 10
222.2938657039772
 20
125.3089439387875
 30
0.0
  0
SPLINE
  5
15D
330
1F
100
AcDbEntity
  8
0
  6
Continuous
 62
     7
370
    18
100
AcDbSpline
210
0.0
220
0.0
230
1.0
 70
     8
 71
     3
 72
    19
 73
    15
 74
     0
 42
0.000000001
 43
0.00000001
 40
0.0
 40
0.0
 40
0.0
 40
0.0
 40
0.0915873397066451
 40
0.1741182870805898
 40
0.2526289966153885
 40
0.3313197891920881
 40
0.4131632671988436
 40
0.4999972215981983
 40
0.5868350001903231
 40
0.6686802724867937
 40
0.7473714879383923
 40
0.825881989639794
 40
0.9084127008286222
 40
1.0
 40
1.0
 40
1.0
 40
1.0
 10
222.8200050464215
 20
124.1084067856289
 30
0.0
 10
222.9306426211133
 20
124.1158514981803
 30
0.0
 10
223.1409776418026
 20
124.1300047709078
 30
0.0
 10
223.4253052167717
 20
124.2533241677009
 30
0.0
 10
223.6494765033612
 20
124.4405898470706
 30
0.0
 10
223.8101557921619
 20
124.6837332725305
 30
0.0
 10
223.9062578722799
 20
124.9684906367212
 30
0.0
 10
223.936245500152
 20
125.276743250356
 30
0.0
 10
223.9051078593121
 20
125.5848839480631
 30
0.0
 10
223.8079442456676
 20
125.869288521962
 30
0.0
 10
223.6463580546795
 20
126.111833422312
 30
0.0
 10
223.4214884952527
 20
126.2982603306981
 30
0.0
 10
223.1367021319518
 20
126.420514813056
 30
0.0
 10
222.9263161096312
 20
126.4338822752788
 30
0.0
 10
222.8156515808562
 20
126.4409136545096
 30
0.0
  0
SPLINE
  5
15E
330
1F
100
AcDbEntity
  8
0
  6
Continuous
 62
     7
370
    18
100
AcDbSpline
210
0.0
220
0.0
230
1.0
 70
     8
 71
     3
 72
    14
 73
    10
 74
     0
 42
0.000000001
 43
0.00000001
 40
0.0
 40
0.0
 40
0.0
 40
0.0
 40
0.1466868109097156
 40
0.2859932799578317
 40
0.4198155341096272
 40
0.5510853201411037
 40
0.6904104027401206
 40
0.837711597729331
 40
1.0
 40
1.0
 40
1.0
 40
1.0
 10
221.7141529509028
 20
125.2807972213686
 30
0.0
 10
221.718035267782
 20
125.1921227271383
 30
0.0
 10
221.7256045681931
 20
125.0192352719115
 30
0.0
 10
221.7954237717475
 20
124.7732962724006
 30
0.0
 10
221.9077221508202
 20
124.5547929623343
 30
0.0
 10
222.0679647012332
 20
124.367352674055
 30
0.0
 10
222.2769583585691
 20
124.2218866435102
 30
0.0
 10
222.534438815785
 20
124.1255192855924
 30
0.0
 10
222.7217930353539
 20
124.1142921209925
 30
0.0
 10
222.8200050464215
 20
124.1084067856289
 30
0.0
  0
SPLINE
  5
15F
330
1F
100
AcDbEntity
  8
0
  6
Continuous
 62
     7
370
    18
100
AcDbSpline
210
0.0
220
0.0
230
1.0
 70
     8
 71
     3
 72
    14
 73
    10
 74
     0
 42
0.000000001
 43
0.00000001
 40
0.0
 40
0.0
 40
0.0
 40
0.0
 40
0.155398965692284
 40
0.2968771122070972
 40
0.4305153137104959
 40
0.5617675040118884
 40
0.701406344972662
 40
0.8467289956139458
 40
1.0
 40
1.0
 40
1.0
 40
1.0
 10
222.8156515808562
 20
126.4409136545096
 30
0.0
 10
222.7224104402215
 20
126.4355587022864
 30
0.0
 10
222.5442808082308
 20
126.425328500657
 30
0.0
 10
222.2981014055567
 20
126.3383260722141
 30
0.0
 10
222.0923330275267
 20
126.2047218335365
 30
0.0
 10
221.9263893401962
 20
126.024907618723
 30
0.0
 10
221.8050183025678
 20
125.8051887519439
 30
0.0
 10
221.7279458611361
 20
125.5517075653118
 30
0.0
 10
221.718831460631
 20
125.3726891178684
 30
0.0
 10
221.7141529509028
 20
125.2807972213686
 30
0.0
  0
LINE
  5
160
330
1F
100
AcDbEntity
  8
0
  6
Continuous
 62
     7
370
    18
100
AcDbLine
 10
218.5765539855
 20
125.9242988272
 30
0.0
 11
218.5765539855
 21
124.1895865025
 31
0.0
  0
LINE
  5
161
330
1F
100
AcDbEntity
  8
0
  6
Continuous
 62
     7
370
    18
100
AcDbLine
 10
217.9060596917
 20
125.9242988272
 30
0.0
 11
218.5765539855
 21
125.9242988272
 31
0.0
  0
LINE
  5
162
330
1F
100
AcDbEntity
  8
0
  6
Continuous
 62
     7
370
    18
100
AcDbLine
 10
217.9060596917
 20
126.4259352507
 30
0.0
 11
217.9060596917
 21
125.9242988272
 31
0.0
  0
LINE
  5
163
330
1F
100
AcDbEntity
  8
0
  6
Continuous
 62
     7
370
    18
100
AcDbLine
 10
220.3548719567
 20
126.4259352507
 30
0.0
 11
217.9060596917
 21
126.4259352507
 31
0.0
  0
LINE
  5
164
330
1F
100
AcDbEntity
  8
0
  6
Continuous
 62
     7
370
    18
100
AcDbLine
 10
220.3548719567
 20
125.6107602582
 30
0.0
 11
220.3548719567
 21
126.4259352507
 31
0.0
  0
LINE
  5
165
330
1F
100
AcDbEntity
  8
0
  6
Continuous
 62
     7
370
    18
100
AcDbLine
 10
221.1261381837
 20
125.6107602582
 30
0.0
 11
220.3548719567
 21
125.6107602582
 31
0.0
  0
LINE
  5
166
330
1F
100
AcDbEntity
  8
0
  6
Continuous
 62
     7
370
    18
100
AcDbLine
 10
221.1261381837
 20
126.4259352507
 30
0.0
 11
221.1261381837
 21
125.6107602582
 31
0.0
  0
LINE
  5
167
330
1F
100
AcDbEntity
  8
0
  6
Continuous
 62
     7
370
    18
100
AcDbLine
 10
221.7116506832
 20
126.4259352507
 30
0.0
 11
221.1261381837
 21
126.4259352507
 31
0.0
  0
LINE
  5
168
330
1F
100
AcDbEntity
  8
0
  6
Continuous
 62
     7
370
    18
100
AcDbLine
 10
221.7116506832
 20
124.1895865025
 30
0.0
 11
221.7116506832
 21
126.4259352507
 31
0.0
  0
LINE
  5
169
330
1F
100
AcDbEntity
  8
0
  6
Continuous
 62
     7
370
    18
100
AcDbLine
 10
221.1261342484
 20
124.1895865025
 30
0.0
 11
221.7116506832
 21
124.1895865025
 31
0.0
  0
LINE
  5
16A
330
1F
100
AcDbEntity
  8
0
  6
Continuous
 62
     7
370
    18
100
AcDbLine
 10
221.1261342484
 20
125.1113996488
 30
0.0
 11
221.1261342484
 21
124.1895865025
 31
0.0
  0
LINE
  5
16B
330
1F
100
AcDbEntity
  8
0
  6
Continuous
 62
     7
370
    18
100
AcDbLine
 10
220.3548680214
 20
125.1113996488
 30
0.0
 11
221.1261342484
 21
125.1113996488
 31
0.0
  0
LINE
  5
16C
330
1F
100
AcDbEntity
  8
0
  6
Continuous
 62
     7
370
    18
100
AcDbLine
 10
220.3548680214
 20
124.1895865025
 30
0.0
 11
220.3548680214
 21
125.1113996488
 31
0.0
  0
LINE
  5
16D
330
1F
100
AcDbEntity
  8
0
  6
Continuous
 62
     7
370
    18
100
AcDbLine
 10
219.7694238347
 20
124.1895865025
 30
0.0
 11
220.3548680214
 21
124.1895865025
 31
0.0
  0
LINE
  5
16E
330
1F
100
AcDbEntity
  8
0
  6
Continuous
 62
     7
370
    18
100
AcDbLine
 10
219.7694238347
 20
125.9265023933
 30
0.0
 11
219.7694238347
 21
124.1895865025
 31
0.0
  0
LINE
  5
16F
330
1F
100
AcDbEntity
  8
0
  6
Continuous
 62
     7
370
    18
100
AcDbLine
 10
219.1620523583
 20
125.9265023933
 30
0.0
 11
219.7694238347
 21
125.9265023933
 31
0.0
  0
LINE
  5
170
330
1F
100
AcDbEntity
  8
0
  6
Continuous
 62
     7
370
    18
100
AcDbLine
 10
219.1620523583
 20
124.1895865025
 30
0.0
 11
219.1620523583
 21
125.9265023933
 31
0.0
  0
LINE
  5
171
330
1F
100
AcDbEntity
  8
0
  6
Continuous
 62
     7
370
    18
100
AcDbLine
 10
218.5765539855
 20
124.1895865025
 30
0.0
 11
219.1620523583
 21
124.1895865025
 31
0.0
  0
SPLINE
  5
172
330
1F
100
AcDbEntity
  8
0
  6
Continuous
 62
     7
370
    18
100
AcDbSpline
210
0.0
220
0.0
230
1.0
 70
     8
 71
     3
 72
    12
 73
     8
 74
     0
 42
0.000000001
 43
0.00000001
 40
0.0
 40
0.0
 40
0.0
 40
0.0
 40
0.1970292569793941
 40
0.3714318737747092
 40
0.5434083414909542
 40
0.7603083066182464
 40
1.0
 40
1.0
 40
1.0
 40
1.0
 10
225.2743154042641
 20
125.7196381021521
 30
0.0
 10
225.2721056915463
 20
125.748076264315
 30
0.0
 10
225.2679400272797
 20
125.8016867789199
 30
0.0
 10
225.2279025336268
 20
125.8714193129734
 30
0.0
 10
225.1644410160458
 20
125.9232110863095
 30
0.0
 10
225.0784434482381
 20
125.9556733784487
 30
0.0
 10
225.012878454578
 20
125.9592142728511
 30
0.0
 10
224.9784595508068
 20
125.9610730956298
 30
0.0
  0
SPLINE
  5
173
330
1F
100
AcDbEntity
  8
0
  6
Continuous
 62
     7
370
    18
100
AcDbSpline
210
0.0
220
0.0
230
1.0
 70
     8
 71
     3
 72
    12
 73
     8
 74
     0
 42
0.000000001
 43
0.00000001
 40
0.0
 40
0.0
 40
0.0
 40
0.0
 40
0.2111291888127949
 40
0.3927062339152302
 40
0.559912974757421
 40
0.7634359056262766
 40
1.0
 40
1.0
 40
1.0
 40
1.0
 10
225.0036380037811
 20
125.4563480669966
 30
0.0
 10
225.033935958648
 20
125.4578866884125
 30
0.0
 10
225.0902910075071
 20
125.4607485675541
 30
0.0
 10
225.166615977317
 20
125.4899275911754
 30
0.0
 10
225.2279400755884
 20
125.5420879999684
 30
0.0
 10
225.2683876003786
 20
125.6222877989449
 30
0.0
 10
225.2722429839028
 20
125.6856034487723
 30
0.0
 10
225.2743154042641
 20
125.7196381021521
 30
0.0
  0
LINE
  5
174
330
1F
100
AcDbEntity
  8
0
  6
Continuous
 62
     7
370
    18
100
AcDbLine
 10
224.5125678607
 20
125.456348067
 30
0.0
 11
225.0036380038
 21
125.456348067
 31
0.0
  0
LINE
  5
175
330
1F
100
AcDbEntity
  8
0
  6
Continuous
 62
     7
370
    18
100
AcDbLine
 10
224.5125678607
 20
125.9610730956
 30
0.0
 11
224.5125678607
 21
125.456348067
 31
0.0
  0
LINE
  5
176
330
1F
100
AcDbEntity
  8
0
  6
Continuous
 62
     7
370
    18
100
AcDbLine
 10
224.9784595508
 20
125.9610730956
 30
0.0
 11
224.5125678607
 21
125.9610730956
 31
0.0
  0
SPLINE
  5
177
330
1F
100
AcDbEntity
  8
0
  6
Continuous
 62
     7
370
    18
100
AcDbSpline
210
0.0
220
0.0
230
1.0
 70
     8
 71
     3
 72
    14
 73
    10
 74
     0
 42
0.000000001
 43
0.00000001
 40
0.0
 40
0.0
 40
0.0
 40
0.0
 40
0.2575826845002074
 40
0.458033964425425
 40
0.6128287983994962
 40
0.7093883131761958
 40
0.7998028883084811
 40
0.8941338805613389
 40
1.0
 40
1.0
 40
1.0
 40
1.0
 10
231.894424272703
 20
124.7836101477126
 30
0.0
 10
231.9225015478862
 20
124.7764960840978
 30
0.0
 10
231.9724286060166
 20
124.763845844168
 30
0.0
 10
232.0411152954227
 20
124.7562495274739
 30
0.0
 10
232.0923194167311
 20
124.7609424083886
 30
0.0
 10
232.1282470669768
 20
124.7760514338911
 30
0.0
 10
232.1523391970231
 20
124.7972923691056
 30
0.0
 10
232.1696482165838
 20
124.8255361145751
 30
0.0
 10
232.1759840793564
 20
124.8471893402986
 30
0.0
 10
232.1793345433035
 20
124.858639770134
 30
0.0
  0
SPLINE
  5
178
330
1F
100
AcDbEntity
  8
0
  6
Continuous
 62
     7
370
    18
100
AcDbSpline
210
0.0
220
0.0
230
1.0
 70
     8
 71
     3
 72
    12
 73
     8
 74
     0
 42
0.000000001
 43
0.00000001
 40
0.0
 40
0.0
 40
0.0
 40
0.0
 40
0.2545415383352845
 40
0.4933538848768417
 40
0.6299818928893302
 40
0.793357868069166
 40
0.9999999999999999
 40
0.9999999999999999
 40
0.9999999999999999
 40
0.9999999999999999
 10
231.6948028507
 20
125.067256077059
 30
0.0
 10
231.6946481558972
 20
125.0345936279097
 30
0.0
 10
231.6943483255338
 20
124.9712870796631
 30
0.0
 10
231.7193421488516
 20
124.8910812349125
 30
0.0
 10
231.767399585688
 20
124.8398556631274
 30
0.0
 10
231.8235953606367
 20
124.8057314813765
 30
0.0
 10
231.8690432313188
 20
124.7915371717035
 30
0.0
 10
231.894424272703
 20
124.7836101477126
 30
0.0
  0
SPLINE
  5
179
330
1F
100
AcDbEntity
  8
0
  6
Continuous
 62
     7
370
    18
100
AcDbSpline
210
0.0
220
0.0
230
1.0
 70
     8
 71
     3
 72
    14
 73
    10
 74
     0
 42
0.000000001
 43
0.00000001
 40
0.0
 40
0.0
 40
0.0
 40
0.0
 40
0.0123761948722825
 40
0.0260544786030458
 40
0.0423069896659081
 40
0.1107691877094721
 40
0.3353734156282149
 40
0.6465637489690615
 40
1.0
 40
1.0
 40
1.0
 40
1.0
 10
232.1793345433035
 20
124.858639770134
 30
0.0
 10
232.1796007827728
 20
124.8608763901173
 30
0.0
 10
232.1801612725378
 20
124.8655849429561
 30
0.0
 10
232.177319884836
 20
124.8728907861077
 30
0.0
 10
232.1671965140246
 20
124.8874256266849
 30
0.0
 10
232.120825486069
 20
124.9202027827053
 30
0.0
 10
232.0211124842117
 20
124.9627151536713
 30
0.0
 10
231.8701717891973
 20
125.0155373419004
 30
0.0
 10
231.7556848886395
 20
125.0493011186548
 30
0.0
 10
231.6948028507
 20
125.067256077059
 30
0.0
  0
LINE
  5
17A
330
1F
100
AcDbEntity
  8
0
  6
Continuous
 62
     7
370
    18
100
AcDbLine
 10
231.1712933234
 20
125.071265845
 30
0.0
 11
231.681003469
 21
125.071265845
 31
0.0
  0
SPLINE
  5
17B
330
1F
100
AcDbEntity
  8
0
  6
Continuous
 62
     7
370
    18
100
AcDbSpline
210
0.0
220
0.0
230
1.0
 70
     8
 71
     3
 72
    11
 73
     7
 74
     0
 42
0.000000001
 43
0.00000001
 40
0.0
 40
0.0
 40
0.0
 40
0.0
 40
0.2403133392799464
 40
0.5276554281052327
 40
0.7630136347472203
 40
1.0
 40
1.0
 40
1.0
 40
1.0
 10
230.9555605814508
 20
125.4122586812647
 30
0.0
 10
230.9822564291981
 20
125.3919508463048
 30
0.0
 10
231.0408724386711
 20
125.3473609813322
 30
0.0
 10
231.1085537586513
 20
125.2646016196669
 30
0.0
 10
231.160305405779
 20
125.1702987989361
 30
0.0
 10
231.1676222771986
 20
125.1043526012397
 30
0.0
 10
231.1712933234346
 20
125.0712658450363
 30
0.0
  0
SPLINE
  5
17C
330
1F
100
AcDbEntity
  8
0
  6
Continuous
 62
     7
370
    18
100
AcDbSpline
210
0.0
220
0.0
230
1.0
 70
     8
 71
     3
 72
    10
 73
     6
 74
     0
 42
0.000000001
 43
0.00000001
 40
0.0
 40
0.0
 40
0.0
 40
0.0
 40
0.3052209345869988
 40
0.5892711010915042
 40
1.0
 40
1.0
 40
1.0
 40
1.0
 10
231.0808748617492
 20
125.593203976743
 30
0.0
 10
231.0733738720676
 20
125.5716582652679
 30
0.0
 10
231.0588921771769
 20
125.5300612983302
 30
0.0
 10
231.011966900689
 20
125.4715419715965
 30
0.0
 10
230.9765171969976
 20
125.4342841766455
 30
0.0
 10
230.9555605814508
 20
125.4122586812647
 30
0.0
  0
SPLINE
  5
17D
330
1F
100
AcDbEntity
  8
0
  6
Continuous
 62
     7
370
    18
100
AcDbSpline
210
0.0
220
0.0
230
1.0
 70
     8
 71
     3
 72
    11
 73
     7
 74
     0
 42
0.000000001
 43
0.00000001
 40
0.0
 40
0.0
 40
0.0
 40
0.0
 40
0.3113820865694026
 40
0.5952152429024634
 40
0.7995709864930253
 40
1.0
 40
1.0
 40
1.0
 40
1.0
 10
231.5819152387275
 20
125.0991174766621
 30
0.0
 10
231.5076113639992
 20
125.124425028778
 30
0.0
 10
231.3655775067137
 20
125.1728010960908
 30
0.0
 10
231.203550653134
 20
125.2958746471366
 30
0.0
 10
231.0996633563069
 20
125.4404266956449
 30
0.0
 10
231.0870970589503
 20
125.5426086313889
 30
0.0
 10
231.0808748617492
 20
125.593203976743
 30
0.0
  0
SPLINE
  5
17E
330
1F
100
AcDbEntity
  8
0
  6
Continuous
 62
     7
370
    18
100
AcDbSpline
210
0.0
220
0.0
230
1.0
 70
     8
 71
     3
 72
     9
 73
     5
 74
     0
 42
0.000000001
 43
0.00000001
 40
0.0
 40
0.0
 40
0.0
 40
0.0
 40
0.5632377239369544
 40
0.9999999999999999
 40
0.9999999999999999
 40
0.9999999999999999
 40
0.9999999999999999
 10
231.6810034690125
 20
125.0712658450363
 30
0.0
 10
231.6624172533282
 20
125.0765561146933
 30
0.0
 10
231.629418370451
 20
125.0859487200395
 30
0.0
 10
231.5963557458854
 20
125.0951142979796
 30
0.0
 10
231.5819152387275
 20
125.0991174766621
 30
0.0
  0
SPLINE
  5
17F
330
1F
100
AcDbEntity
  8
0
  6
Continuous
 62
     7
370
    18
100
AcDbSpline
210
0.0
220
0.0
230
1.0
 70
     8
 71
     3
 72
    13
 73
     9
 74
     0
 42
0.000000001
 43
0.00000001
 40
0.0
 40
0.0
 40
0.0
 40
0.0
 40
0.2070940199890563
 40
0.397864964662672
 40
0.5739369280037256
 40
0.707775017485843
 40
0.846250404661648
 40
1.0
 40
1.0
 40
1.0
 40
1.0
 10
230.3175378606006
 20
124.2919981440862
 30
0.0
 10
230.3889768528898
 20
124.2944646996243
 30
0.0
 10
230.5262240420853
 20
124.2992033976904
 30
0.0
 10
230.7199800880369
 20
124.3456328308661
 30
0.0
 10
230.8762639520686
 20
124.4241088471266
 30
0.0
 10
230.9894920257018
 20
124.5316401370566
 30
0.0
 10
231.06579629625
 20
124.6602124804577
 30
0.0
 10
231.0859731053838
 20
124.7594606528721
 30
0.0
 10
231.0965888173358
 20
124.8116785235535
 30
0.0
  0
LINE
  5
180
330
1F
100
AcDbEntity
  8
0
  6
Continuous
 62
     7
370
    18
100
AcDbLine
 10
228.8390171981
 20
124.2919981441
 30
0.0
 11
230.3175378606
 21
124.2919981441
 31
0.0
  0
LINE
  5
181
330
1F
100
AcDbEntity
  8
0
  6
Continuous
 62
     7
370
    18
100
AcDbLine
 10
228.6884160927
 20
124.6354293527
 30
0.0
 11
228.8390171981
 21
124.2919981441
 31
0.0
  0
LINE
  5
182
330
1F
100
AcDbEntity
  8
0
  6
Continuous
 62
     7
370
    18
100
AcDbLine
 10
228.0350045326
 20
124.6354293527
 30
0.0
 11
228.6884160927
 21
124.6354293527
 31
0.0
  0
LINE
  5
183
330
1F
100
AcDbEntity
  8
0
  6
Continuous
 62
     7
370
    18
100
AcDbLine
 10
227.8814412563
 20
124.2947796948
 30
0.0
 11
228.0350045326
 21
124.6354293527
 31
0.0
  0
LINE
  5
184
330
1F
100
AcDbEntity
  8
0
  6
Continuous
 62
     7
370
    18
100
AcDbLine
 10
226.012022402
 20
124.2947796948
 30
0.0
 11
227.8814412563
 21
124.2947796948
 31
0.0
  0
LINE
  5
185
330
1F
100
AcDbEntity
  8
0
  6
Continuous
 62
     7
370
    18
100
AcDbLine
 10
226.012022402
 20
126.3150163987
 30
0.0
 11
226.012022402
 21
124.2947796948
 31
0.0
  0
LINE
  5
186
330
1F
100
AcDbEntity
  8
0
  6
Continuous
 62
     7
370
    18
100
AcDbLine
 10
226.5390720848
 20
126.3150163987
 30
0.0
 11
226.012022402
 21
126.3150163987
 31
0.0
  0
LINE
  5
187
330
1F
100
AcDbEntity
  8
0
  6
Continuous
 62
     7
370
    18
100
AcDbLine
 10
226.5390720848
 20
124.7517487481
 30
0.0
 11
226.5390720848
 21
126.3150163987
 31
0.0
  0
LINE
  5
188
330
1F
100
AcDbEntity
  8
0
  6
Continuous
 62
     7
370
    18
100
AcDbLine
 10
227.5085328344
 20
124.7517487481
 30
0.0
 11
226.5390720848
 21
124.7517487481
 31
0.0
  0
LINE
  5
189
330
1F
100
AcDbEntity
  8
0
  6
Continuous
 62
     7
370
    18
100
AcDbLine
 10
228.0967766338
 20
126.3150163987
 30
0.0
 11
227.5085328344
 21
124.7517487481
 31
0.0
  0
LINE
  5
18A
330
1F
100
AcDbEntity
  8
0
  6
Continuous
 62
     7
370
    18
100
AcDbLine
 10
228.632243217
 20
126.3150163987
 30
0.0
 11
228.0967766338
 21
126.3150163987
 31
0.0
  0
LINE
  5
18B
330
1F
100
AcDbEntity
  8
0
  6
Continuous
 62
     7
370
    18
100
AcDbLine
 10
229.3457651727
 20
124.4316175426
 30
0.0
 11
228.632243217
 21
126.3150163987
 31
0.0
  0
LINE
  5
18C
330
1F
100
AcDbEntity
  8
0
  6
Continuous
 62
     7
370
    18
100
AcDbLine
 10
229.3457651727
 20
126.3150163987
 30
0.0
 11
229.3457651727
 21
124.4316175426
 31
0.0
  0
LINE
  5
18D
330
1F
100
AcDbEntity
  8
0
  6
Continuous
 62
     7
370
    18
100
AcDbLine
 10
230.2919981673
 20
126.3150163987
 30
0.0
 11
229.3457651727
 21
126.3150163987
 31
0.0
  0
SPLINE
  5
18E
330
1F
100
AcDbEntity
  8
0
  6
Continuous
 62
     7
370
    18
100
AcDbSpline
210
0.0
220
0.0
230
1.0
 70
     8
 71
     3
 72
    14
 73
    10
 74
     0
 42
0.000000001
 43
0.00000001
 40
0.0
 40
0.0
 40
0.0
 40
0.0
 40
0.1423816612635869
 40
0.2654010250778271
 40
0.3802085707899256
 40
0.4953201289099338
 40
0.6562432766114744
 40
0.8263515868701842
 40
1.0
 40
1.0
 40
1.0
 40
1.0
 10
231.0229680323118
 20
125.8099120676942
 30
0.0
 10
231.0201441710682
 20
125.8580149784243
 30
0.0
 10
231.014880461809
 20
125.9476793474426
 30
0.0
 10
230.9642999933085
 20
126.0679225681542
 30
0.0
 10
230.8870776997901
 20
126.1601238683448
 30
0.0
 10
230.7770728484664
 20
126.2346467917956
 30
0.0
 10
230.6345179618242
 20
126.2857645040832
 30
0.0
 10
230.466212185811
 20
126.3132471571527
 30
0.0
 10
230.3504668327871
 20
126.3144226164504
 30
0.0
 10
230.291998167268
 20
126.3150163987036
 30
0.0
  0
SPLINE
  5
18F
330
1F
100
AcDbEntity
  8
0
  6
Continuous
 62
     7
370
    18
100
AcDbSpline
210
0.0
220
0.0
230
1.0
 70
     8
 71
     3
 72
    11
 73
     7
 74
     0
 42
0.000000001
 43
0.00000001
 40
0.0
 40
0.0
 40
0.0
 40
0.0
 40
0.2840562052455298
 40
0.5588619016419724
 40
0.7750993838285839
 40
1.0
 40
1.0
 40
1.0
 40
1.0
 10
230.7566255161286
 20
125.4036069746831
 30
0.0
 10
230.7985316881117
 20
125.4284615454485
 30
0.0
 10
230.8809793253489
 20
125.4773612787615
 30
0.0
 10
230.96491816566
 20
125.5826762093737
 30
0.0
 10
231.0145484323131
 20
125.6960182880555
 30
0.0
 10
231.0201249945329
 20
125.7714536708172
 30
0.0
 10
231.0229680323118
 20
125.8099120676942
 30
0.0
  0
SPLINE
  5
190
330
1F
100
AcDbEntity
  8
0
  6
Continuous
 62
     7
370
    18
100
AcDbSpline
210
0.0
220
0.0
230
1.0
 70
     8
 71
     3
 72
    11
 73
     7
 74
     0
 42
0.000000001
 43
0.00000001
 40
0.0
 40
0.0
 40
0.0
 40
0.0
 40
0.2849839497112049
 40
0.5578557580525005
 40
0.7738896021956504
 40
1.0
 40
1.0
 40
1.0
 40
1.0
 10
231.1026215313195
 20
124.9774878480185
 30
0.0
 10
231.0929238964303
 20
125.0325382794255
 30
0.0
 10
231.0739407871431
 20
125.1402994364128
 30
0.0
 10
230.9875835956237
 20
125.268186394946
 30
0.0
 10
230.8792738973722
 20
125.3584189872286
 30
0.0
 10
230.7981247779719
 20
125.3883171836192
 30
0.0
 10
230.7566255161286
 20
125.4036069746831
 30
0.0
  0
LINE
  5
191
330
1F
100
AcDbEntity
  8
0
  6
Continuous
 62
     7
370
    18
100
AcDbLine
 10
231.606371211
 20
124.977487848
 30
0.0
 11
231.1026215313
 21
124.977487848
 31
0.0
  0
SPLINE
  5
192
330
1F
100
AcDbEntity
  8
0
  6
Continuous
 62
     7
370
    18
100
AcDbSpline
210
0.0
220
0.0
230
1.0
 70
     8
 71
     3
 72
    12
 73
     8
 74
     0
 42
0.000000001
 43
0.00000001
 40
0.0
 40
0.0
 40
0.0
 40
0.0
 40
0.3029848175181594
 40
0.5555954840373208
 40
0.6861253068640387
 40
0.8302562633026866
 40
1.0
 40
1.0
 40
1.0
 40
1.0
 10
231.9887802542941
 20
124.6642563333264
 30
0.0
 10
231.9319160557054
 20
124.666525111357
 30
0.0
 10
231.8276418805237
 20
124.6706854611673
 30
0.0
 10
231.7067510829968
 20
124.7296878766046
 30
0.0
 10
231.6453863875071
 20
124.8086381835542
 30
0.0
 10
231.6147379973167
 20
124.8871590744129
 30
0.0
 10
231.6093078434385
 20
124.9457836311871
 30
0.0
 10
231.6063712109852
 20
124.9774878480185
 30
0.0
  0
SPLINE
  5
193
330
1F
100
AcDbEntity
  8
0
  6
Continuous
 62
     7
370
    18
100
AcDbSpline
210
0.0
220
0.0
230
1.0
 70
     8
 71
     3
 72
    12
 73
     8
 74
     0
 42
0.000000001
 43
0.00000001
 40
0.0
 40
0.0
 40
0.0
 40
0.0
 40
0.1228977808113472
 40
0.2361517003655401
 40
0.4654549568724365
 40
0.7229435422785269
 40
1.0
 40
1.0
 40
1.0
 40
1.0
 10
232.3118013826964
 20
124.8703078337074
 30
0.0
 10
232.3104801306299
 20
124.8527817249111
 30
0.0
 10
232.3079413059247
 20
124.8191047914
 30
0.0
 10
232.2781309105318
 20
124.7584501063979
 30
0.0
 10
232.2088846126844
 20
124.7034388812283
 30
0.0
 10
232.1041154911084
 20
124.6700187461409
 30
0.0
 10
232.0281522516706
 20
124.6662234485679
 30
0.0
 10
231.9887802542941
 20
124.6642563333264
 30
0.0
  0
SPLINE
  5
194
330
1F
100
AcDbEntity
  8
0
  6
Continuous
 62
     7
370
    18
100
AcDbSpline
210
0.0
220
0.0
230
1.0
 70
     8
 71
     3
 72
    12
 73
     8
 74
     0
 42
0.000000001
 43
0.00000001
 40
0.0
 40
0.0
 40
0.0
 40
0.0
 40
0.3210306919457596
 40
0.6029592976098663
 40
0.8214028303124061
 40
0.910411712195422
 40
1.0
 40
1.0
 40
1.0
 40
1.0
 10
231.730963010567
 20
125.1637072527282
 30
0.0
 10
231.8023381062095
 20
125.145314479524
 30
0.0
 10
231.9363946890073
 20
125.1107692042883
 30
0.0
 10
232.1179788631095
 20
125.0627944841864
 30
0.0
 10
232.2439607300835
 20
125.0056898447059
 30
0.0
 10
232.3044462007622
 20
124.9326246842133
 30
0.0
 10
232.3093443585082
 20
124.8911249950495
 30
0.0
 10
232.3118013826964
 20
124.8703078337074
 30
0.0
  0
SPLINE
  5
195
330
1F
100
AcDbEntity
  8
0
  6
Continuous
 62
     7
370
    18
100
AcDbSpline
210
0.0
220
0.0
230
1.0
 70
     8
 71
     3
 72
    12
 73
     8
 74
     0
 42
0.000000001
 43
0.00000001
 40
0.0
 40
0.0
 40
0.0
 40
0.0
 40
0.205930330155997
 40
0.385715208882235
 40
0.5622731912300347
 40
0.7785006333333745
 40
0.9999999999999999
 40
0.9999999999999999
 40
0.9999999999999999
 40
0.9999999999999999
 10
231.1388539392582
 20
125.7450332993414
 30
0.0
 10
231.1438227809826
 20
125.6826334533866
 30
0.0
 10
231.1531296073358
 20
125.5657562085512
 30
0.0
 10
231.2419556370561
 20
125.415821757425
 30
0.0
 10
231.3742232782403
 20
125.3030878631364
 30
0.0
 10
231.5413153252042
 20
125.2210279685649
 30
0.0
 10
231.6672415690302
 20
125.1829669586195
 30
0.0
 10
231.730963010567
 20
125.1637072527282
 30
0.0
  0
SPLINE
  5
196
330
1F
100
AcDbEntity
  8
0
  6
Continuous
 62
     7
370
    18
100
AcDbSpline
210
0.0
220
0.0
230
1.0
 70
     8
 71
     3
 72
    14
 73
    10
 74
     0
 42
0.000000001
 43
0.00000001
 40
0.0
 40
0.0
 40
0.0
 40
0.0
 40
0.1687571149027791
 40
0.3389805425085109
 40
0.5046286467510797
 40
0.6247827513896854
 40
0.7433698504427163
 40
0.8656643973442317
 40
1.0
 40
1.0
 40
1.0
 40
1.0
 10
231.9632766849973
 20
126.357299582644
 30
0.0
 10
231.8987410986694
 20
126.3544713609929
 30
0.0
 10
231.7691091831372
 20
126.3487903435723
 30
0.0
 10
231.5806258467274
 20
126.3024865468925
 30
0.0
 10
231.4204944385887
 20
126.2305813161569
 30
0.0
 10
231.2962388533412
 20
126.1365873429137
 30
0.0
 10
231.2084159008503
 20
126.0286081799655
 30
0.0
 10
231.1491325409542
 20
125.8950510487592
 30
0.0
 10
231.1423856607593
 20
125.7965793098629
 30
0.0
 10
231.1388539392582
 20
125.7450332993414
 30
0.0
  0
SPLINE
  5
197
330
1F
100
AcDbEntity
  8
0
  6
Continuous
 62
     7
370
    18
100
AcDbSpline
210
0.0
220
0.0
230
1.0
 70
     8
 71
     3
 72
    12
 73
     8
 74
     0
 42
0.000000001
 43
0.00000001
 40
0.0
 40
0.0
 40
0.0
 40
0.0
 40
0.1993974480574496
 40
0.3779257523812699
 40
0.5550669356786532
 40
0.7731143074051413
 40
1.0
 40
1.0
 40
1.0
 40
1.0
 10
232.773647180798
 20
125.7083674029728
 30
0.0
 10
232.7662602868901
 20
125.7861192370794
 30
0.0
 10
232.7522596190526
 20
125.933485317689
 30
0.0
 10
232.6321319216918
 20
126.1205018035035
 30
0.0
 10
232.4533150008878
 20
126.2562639778732
 30
0.0
 10
232.2236023273661
 20
126.3417802180385
 30
0.0
 10
232.0511934974724
 20
126.3520584044975
 30
0.0
 10
231.9632766849973
 20
126.357299582644
 30
0.0
  0
LINE
  5
198
330
1F
100
AcDbEntity
  8
0
  6
Continuous
 62
     7
370
    18
100
AcDbLine
 10
232.2466697461
 20
125.708367403
 30
0.0
 11
232.7736471808
 21
125.708367403
 31
0.0
  0
SPLINE
  5
199
330
1F
100
AcDbEntity
  8
0
  6
Continuous
 62
     7
370
    18
100
AcDbSpline
210
0.0
220
0.0
230
1.0
 70
     8
 71
     3
 72
    13
 73
     9
 74
     0
 42
0.000000001
 43
0.00000001
 40
0.0
 40
0.0
 40
0.0
 40
0.0
 40
0.262604178720166
 40
0.5099839566452486
 40
0.6263386331431497
 40
0.7414049134888268
 40
0.8625801387792155
 40
1.0
 40
1.0
 40
1.0
 40
1.0
 10
231.920758694824
 20
125.9509944896329
 30
0.0
 10
231.9611012524298
 20
125.9489744564309
 30
0.0
 10
232.0394475196115
 20
125.9450515008636
 30
0.0
 10
232.1321823331724
 20
125.9121309374708
 30
0.0
 10
232.1914319212261
 20
125.8675906892606
 30
0.0
 10
232.2248172919853
 20
125.8241703788548
 30
0.0
 10
232.2456720656364
 20
125.7695218715975
 30
0.0
 10
232.2463235442369
 20
125.7295884165723
 30
0.0
 10
232.2466697460928
 20
125.7083674029728
 30
0.0
  0
SPLINE
  5
19A
330
1F
100
AcDbEntity
  8
0
  6
Continuous
 62
     7
370
    18
100
AcDbSpline
210
0.0
220
0.0
230
1.0
 70
     8
 71
     3
 72
    12
 73
     8
 74
     0
 42
0.000000001
 43
0.00000001
 40
0.0
 40
0.0
 40
0.0
 40
0.0
 40
0.1338350776842964
 40
0.2542572338768582
 40
0.4899325118164052
 40
0.7434916633797924
 40
1.0
 40
1.0
 40
1.0
 40
1.0
 10
231.6659036220351
 20
125.7788995829331
 30
0.0
 10
231.667011607534
 20
125.7942761111491
 30
0.0
 10
231.6691165364736
 20
125.8234881353693
 30
0.0
 10
231.6939204921403
 20
125.8751447726568
 30
0.0
 10
231.7505150758714
 20
125.9204760066183
 30
0.0
 10
231.8330209902952
 20
125.9465197710874
 30
0.0
 10
231.8914002779272
 20
125.949497178377
 30
0.0
 10
231.920758694824
 20
125.9509944896329
 30
0.0
  0
SPLINE
  5
19B
330
1F
100
AcDbEntity
  8
0
  6
Continuous
 62
     7
370
    18
100
AcDbSpline
210
0.0
220
0.0
230
1.0
 70
     8
 71
     3
 72
    12
 73
     8
 74
     0
 42
0.000000001
 43
0.00000001
 40
0.0
 40
0.0
 40
0.0
 40
0.0
 40
0.3295920737084774
 40
0.6175980183821549
 40
0.8358975487564545
 40
0.9197397490046706
 40
0.9999999999999999
 40
0.9999999999999999
 40
0.9999999999999999
 40
0.9999999999999999
 10
232.2523050956825
 20
125.513604663789
 30
0.0
 10
232.1803081143989
 20
125.5317697027427
 30
0.0
 10
232.0453983379899
 20
125.5658078151748
 30
0.0
 10
231.8629164894134
 20
125.6101992303199
 30
0.0
 10
231.7372506038975
 20
125.6589188041094
 30
0.0
 10
231.6739145145446
 20
125.7230949677116
 30
0.0
 10
231.6685347774349
 20
125.7605707120238
 30
0.0
 10
231.6659036220351
 20
125.7788995829331
 30
0.0
  0
SPLINE
  5
19C
330
1F
100
AcDbEntity
  8
0
  6
Continuous
 62
     7
370
    18
100
AcDbSpline
210
0.0
220
0.0
230
1.0
 70
     8
 71
     3
 72
    12
 73
     8
 74
     0
 42
0.000000001
 43
0.00000001
 40
0.0
 40
0.0
 40
0.0
 40
0.0
 40
0.2045378821184161
 40
0.3838943514216823
 40
0.5601975822227061
 40
0.7766167962242719
 40
1.0
 40
1.0
 40
1.0
 40
1.0
 10
232.8387788174016
 20
124.9323689272654
 30
0.0
 10
232.8339148585735
 20
124.9939954478729
 30
0.0
 10
232.8247857608225
 20
125.109661420914
 30
0.0
 10
232.7381142013418
 20
125.2588792870224
 30
0.0
 10
232.6080389865681
 20
125.3725113482832
 30
0.0
 10
232.4420909187606
 20
125.4561312575529
 30
0.0
 10
232.3162313386718
 20
125.4942456891676
 30
0.0
 10
232.2523050956825
 20
125.513604663789
 30
0.0
  0
SPLINE
  5
19D
330
1F
100
AcDbEntity
  8
0
  6
Continuous
 62
     7
370
    18
100
AcDbSpline
210
0.0
220
0.0
230
1.0
 70
     8
 71
     3
 72
    13
 73
     9
 74
     0
 42
0.000000001
 43
0.00000001
 40
0.0
 40
0.0
 40
0.0
 40
0.0
 40
0.1943984829390936
 40
0.3808229110812383
 40
0.5574598692554746
 40
0.6939226743571314
 40
0.8373010797229361
 40
1.0
 40
1.0
 40
1.0
 40
1.0
 10
231.9575690873359
 20
124.2319238724989
 30
0.0
 10
232.039810614744
 20
124.2356011073828
 30
0.0
 10
232.2009201944372
 20
124.2428047402098
 30
0.0
 10
232.429683361812
 20
124.3075851501843
 30
0.0
 10
232.6154205836623
 20
124.4144862041369
 30
0.0
 10
232.7459758107449
 20
124.5597508065879
 30
0.0
 10
232.8256672755857
 20
124.7333710457117
 30
0.0
 10
232.8342281736453
 20
124.8633024147277
 30
0.0
 10
232.8387788174016
 20
124.9323689272654
 30
0.0
  0
SPLINE
  5
19E
330
1F
100
AcDbEntity
  8
0
  6
Continuous
 62
     7
370
    18
100
AcDbSpline
210
0.0
220
0.0
230
1.0
 70
     8
 71
     3
 72
    12
 73
     8
 74
     0
 42
0.000000001
 43
0.00000001
 40
0.0
 40
0.0
 40
0.0
 40
0.0
 40
0.1886637132768488
 40
0.3661825608804958
 40
0.5448728808046022
 40
0.7656579321773189
 40
1.0
 40
1.0
 40
1.0
 40
1.0
 10
231.0965888173358
 20
124.8116785235535
 30
0.0
 10
231.116824405763
 20
124.7431623165827
 30
0.0
 10
231.1561002127665
 20
124.6101773366171
 30
0.0
 10
231.2894062326743
 20
124.4483721550163
 30
0.0
 10
231.4699860862215
 20
124.3257428863275
 30
0.0
 10
231.6982775892453
 20
124.2461704702249
 30
0.0
 10
231.869439107091
 20
124.2367661152465
 30
0.0
 10
231.9575690873359
 20
124.2319238724989
 30
0.0
  0
LINE
  5
19F
330
1F
100
AcDbEntity
  8
0
  6
Continuous
 62
     7
370
    18
100
AcDbLine
 10
228.6651160896
 20
124.9742005608
 30
0.0
 11
228.4096830322
 21
125.7827467927
 31
0.0
  0
LINE
  5
1A0
330
1F
100
AcDbEntity
  8
0
  6
Continuous
 62
     7
370
    18
100
AcDbLine
 10
228.4096830322
 20
125.7827467927
 30
0.0
 11
228.3273924786
 21
125.7827467927
 31
0.0
  0
LINE
  5
1A1
330
1F
100
AcDbEntity
  8
0
  6
Continuous
 62
     7
370
    18
100
AcDbLine
 10
228.3273924786
 20
125.7827467927
 30
0.0
 11
228.0631812805
 21
124.9742005608
 31
0.0
  0
LINE
  5
1A2
330
1F
100
AcDbEntity
  8
0
  6
Continuous
 62
     7
370
    18
100
AcDbLine
 10
228.0631812805
 20
124.9742005608
 30
0.0
 11
228.6651160896
 21
124.9742005608
 31
0.0
  0
LINE
  5
1A3
330
1F
100
AcDbEntity
  8
0
  6
Continuous
 62
     7
370
    18
100
AcDbLine
 10
229.8260342291
 20
125.4446980654
 30
0.0
 11
230.2950687103
 21
125.4446980654
 31
0.0
  0
SPLINE
  5
1A4
330
1F
100
AcDbEntity
  8
0
  6
Continuous
 62
     7
370
    18
100
AcDbSpline
210
0.0
220
0.0
230
1.0
 70
     8
 71
     3
 72
    12
 73
     8
 74
     0
 42
0.000000001
 43
0.00000001
 40
0.0
 40
0.0
 40
0.0
 40
0.0
 40
0.242466320512141
 40
0.5040777209641408
 40
0.6506173645415592
 40
0.8119564965868009
 40
1.0
 40
1.0
 40
1.0
 40
1.0
 10
230.2950687103136
 20
125.444698065441
 30
0.0
 10
230.3265369088254
 20
125.4476910879085
 30
0.0
 10
230.3919580269219
 20
125.4539134611477
 30
0.0
 10
230.4675349420603
 20
125.4989934019995
 30
0.0
 10
230.5136685132541
 20
125.5572360137516
 30
0.0
 10
230.5385208245755
 20
125.6177317431316
 30
0.0
 10
230.5412370555665
 20
125.6631155708564
 30
0.0
 10
230.5426989759364
 20
125.6875418963161
 30
0.0
  0
SPLINE
  5
1A5
330
1F
100
AcDbEntity
  8
0
  6
Continuous
 62
     7
370
    18
100
AcDbSpline
210
0.0
220
0.0
230
1.0
 70
     8
 71
     3
 72
    12
 73
     8
 74
     0
 42
0.000000001
 43
0.00000001
 40
0.0
 40
0.0
 40
0.0
 40
0.0
 40
0.2325061039550861
 40
0.422258003895175
 40
0.5928278045028547
 40
0.792214384270928
 40
1.0
 40
1.0
 40
1.0
 40
1.0
 10
230.5426989759364
 20
125.6875418963161
 30
0.0
 10
230.5408772793214
 20
125.718411818348
 30
0.0
 10
230.537568867356
 20
125.7744751708185
 30
0.0
 10
230.5033565844897
 20
125.847276166135
 30
0.0
 10
230.4486835981471
 20
125.8990557354144
 30
0.0
 10
230.3765079006345
 20
125.9292897017545
 30
0.0
 10
230.3225858700218
 20
125.9324072186741
 30
0.0
 10
230.2950687103136
 20
125.9339981307743
 30
0.0
  0
LINE
  5
1A6
330
1F
100
AcDbEntity
  8
0
  6
Continuous
 62
     7
370
    18
100
AcDbLine
 10
230.2950687103
 20
125.9339981308
 30
0.0
 11
229.8260342291
 21
125.9339981308
 31
0.0
  0
LINE
  5
1A7
330
1F
100
AcDbEntity
  8
0
  6
Continuous
 62
     7
370
    18
100
AcDbLine
 10
229.8260342291
 20
125.9339981308
 30
0.0
 11
229.8260342291
 21
125.4446980654
 31
0.0
  0
LINE
  5
1A8
330
1F
100
AcDbEntity
  8
0
  6
Continuous
 62
     7
370
    18
100
AcDbLine
 10
229.8260342291
 20
124.646808424
 30
0.0
 11
230.3470150738
 21
124.646808424
 31
0.0
  0
SPLINE
  5
1A9
330
1F
100
AcDbEntity
  8
0
  6
Continuous
 62
     7
370
    18
100
AcDbSpline
210
0.0
220
0.0
230
1.0
 70
     8
 71
     3
 72
    12
 73
     8
 74
     0
 42
0.000000001
 43
0.00000001
 40
0.0
 40
0.0
 40
0.0
 40
0.0
 40
0.2382584506409018
 40
0.4976556531040064
 40
0.6448887038896378
 40
0.8084522641844554
 40
1.0
 40
1.0
 40
1.0
 40
1.0
 10
230.3470150738389
 20
124.64680842402
 30
0.0
 10
230.3820076163389
 20
124.6502773799535
 30
0.0
 10
230.4550973075746
 20
124.6575230643187
 30
0.0
 10
230.538959023538
 20
124.7098425038277
 30
0.0
 10
230.5898745447944
 20
124.7767960030998
 30
0.0
 10
230.6173428009656
 20
124.8464356099043
 30
0.0
 10
230.6203389706781
 20
124.8985974031703
 30
0.0
 10
230.6219551105499
 20
124.9267335776757
 30
0.0
  0
SPLINE
  5
1AA
330
1F
100
AcDbEntity
  8
0
  6
Continuous
 62
     7
370
    18
100
AcDbSpline
210
0.0
220
0.0
230
1.0
 70
     8
 71
     3
 72
    12
 73
     8
 74
     0
 42
0.000000001
 43
0.00000001
 40
0.0
 40
0.0
 40
0.0
 40
0.0
 40
0.2366945835519308
 40
0.4286648826954234
 40
0.5991110185125298
 40
0.7959723284782185
 40
1.0
 40
1.0
 40
1.0
 40
1.0
 10
230.6219551105499
 20
124.9267335776757
 30
0.0
 10
230.6199416832544
 20
124.9622674598387
 30
0.0
 10
230.6162952729204
 20
125.0266209705973
 30
0.0
 10
230.5785702495255
 20
125.1103454468631
 30
0.0
 10
230.5180106146467
 20
125.1701664380793
 30
0.0
 10
230.4376681086588
 20
125.2052569230788
 30
0.0
 10
230.3775907366491
 20
125.2088672105459
 30
0.0
 10
230.3470150738389
 20
125.2107046233446
 30
0.0
  0
LINE
  5
1AB
330
1F
100
AcDbEntity
  8
0
  6
Continuous
 62
     7
370
    18
100
AcDbLine
 10
230.3470150738
 20
125.2107046233
 30
0.0
 11
229.8260342291
 21
125.2107046233
 31
0.0
  0
LINE
  5
1AC
330
1F
100
AcDbEntity
  8
0
  6
Continuous
 62
     7
370
    18
100
AcDbLine
 10
229.8260342291
 20
125.2107046233
 30
0.0
 11
229.8260342291
 21
124.646808424
 31
0.0
  0
SPLINE
  5
1AD
330
1F
100
AcDbEntity
  8
0
  6
Continuous
 62
     7
370
    18
100
AcDbSpline
210
0.0
220
0.0
230
1.0
 70
     8
 71
     3
 72
    13
 73
     9
 74
     0
 42
0.000000001
 43
0.00000001
 40
0.0
 40
0.0
 40
0.0
 40
0.0
 40
0.5894795511906147
 40
0.8525979839264165
 40
0.941287721797578
 40
0.9634735681078219
 40
0.9825903643577695
 40
1.0
 40
1.0
 40
1.0
 40
1.0
 10
231.9606757544175
 20
125.8170646267888
 30
0.0
 10
231.9229577110871
 20
125.8151366544306
 30
0.0
 10
231.8684039481345
 20
125.8123481177591
 30
0.0
 10
231.8098754804338
 20
125.7979479912644
 30
0.0
 10
231.7880348267733
 20
125.7871285285459
 30
0.0
 10
231.7821916705366
 20
125.781204788599
 30
0.0
 10
231.7801409040393
 20
125.7779500035336
 30
0.0
 10
231.7798629435634
 20
125.7756084892388
 30
0.0
 10
231.7797304589391
 20
125.7744924505617
 30
0.0
  0
SPLINE
  5
1AE
330
1F
100
AcDbEntity
  8
0
  6
Continuous
 62
     7
370
    18
100
AcDbSpline
210
0.0
220
0.0
230
1.0
 70
     8
 71
     3
 72
    12
 73
     8
 74
     0
 42
0.000000001
 43
0.00000001
 40
0.0
 40
0.0
 40
0.0
 40
0.0
 40
0.1687932262470729
 40
0.313971255822406
 40
0.4643534436981321
 40
0.6895611553267841
 40
1.0
 40
1.0
 40
1.0
 40
1.0
 10
232.1309644593256
 20
125.7159715125152
 30
0.0
 10
232.1285046520722
 20
125.7282020776825
 30
0.0
 10
232.1239291795274
 20
125.750952077729
 30
0.0
 10
232.105369612577
 20
125.7808204520218
 30
0.0
 10
232.0725749056557
 20
125.8023542031241
 30
0.0
 10
232.0228270414431
 20
125.8141121369927
 30
0.0
 10
231.9834798043596
 20
125.8159813229992
 30
0.0
 10
231.9606757544175
 20
125.8170646267888
 30
0.0
  0
SPLINE
  5
1AF
330
1F
100
AcDbEntity
  8
0
  6
Continuous
 62
     7
370
    18
100
AcDbSpline
210
0.0
220
0.0
230
1.0
 70
     8
 71
     3
 72
     9
 73
     5
 74
     0
 42
0.000000001
 43
0.00000001
 40
0.0
 40
0.0
 40
0.0
 40
0.0
 40
0.5915228225856829
 40
1.0
 40
1.0
 40
1.0
 40
1.0
 10
232.1362746925927
 20
125.6318386330644
 30
0.0
 10
232.1363458789604
 20
125.6485078987259
 30
0.0
 10
232.1364662232057
 20
125.6766881565705
 30
0.0
 10
232.1325600442712
 20
125.7045788150594
 30
0.0
 10
232.1309644593256
 20
125.7159715125152
 30
0.0
  0
SPLINE
  5
1B0
330
1F
100
AcDbEntity
  8
0
  6
Continuous
 62
     7
370
    18
100
AcDbSpline
210
0.0
220
0.0
230
1.0
 70
     8
 71
     3
 72
    13
 73
     9
 74
     0
 42
0.000000001
 43
0.00000001
 40
0.0
 40
0.0
 40
0.0
 40
0.0
 40
0.051895800271398
 40
0.1049388400652601
 40
0.1730026251899404
 40
0.2659228894279211
 40
0.5508780002890626
 40
1.0
 40
1.0
 40
1.0
 40
1.0
 10
231.7797304589391
 20
125.7744924505617
 30
0.0
 10
231.7803626933672
 20
125.7674730020119
 30
0.0
 10
231.7816411387749
 20
125.7532789287946
 30
0.0
 10
231.7966217818457
 20
125.7343652396626
 30
0.0
 10
231.8210799360674
 20
125.7193719280294
 30
0.0
 10
231.8764705576224
 20
125.6974139938754
 30
0.0
 10
231.9833527313865
 20
125.6699587733336
 30
0.0
 10
232.0782281504514
 20
125.6463083816284
 30
0.0
 10
232.1362746925927
 20
125.6318386330644
 30
0.0
  0
LINE
  5
1B1
330
1F
100
AcDbEntity
  8
0
  6
Continuous
 62
     7
370
    18
100
AcDbLine
 10
226.6548496196
 20
126.4259352507
 30
0.0
 11
225.8942219211
 21
126.4259352507
 31
0.0
  0
LINE
  5
1B2
330
1F
100
AcDbEntity
  8
0
  6
Continuous
 62
     7
370
    18
100
AcDbLine
 10
226.6548496196
 20
124.8309543629
 30
0.0
 11
226.6548496196
 21
126.4259352507
 31
0.0
  0
LINE
  5
1B3
330
1F
100
AcDbEntity
  8
0
  6
Continuous
 62
     7
370
    18
100
AcDbLine
 10
227.4211463974
 20
124.8309543629
 30
0.0
 11
226.6548496196
 21
124.8309543629
 31
0.0
  0
LINE
  5
1B4
330
1F
100
AcDbEntity
  8
0
  6
Continuous
 62
     7
370
    18
100
AcDbLine
 10
228.0331355323
 20
126.4259352507
 30
0.0
 11
227.4211463974
 21
124.8309543629
 31
0.0
  0
LINE
  5
1B5
330
1F
100
AcDbEntity
  8
0
  6
Continuous
 62
     7
370
    18
100
AcDbLine
 10
228.7244278271
 20
126.4259352507
 30
0.0
 11
228.0331355323
 21
126.4259352507
 31
0.0
  0
LINE
  5
1B6
330
1F
100
AcDbEntity
  8
0
  6
Continuous
 62
     7
370
    18
100
AcDbLine
 10
229.2411460357
 20
125.0316739018
 30
0.0
 11
228.7244278271
 21
126.4259352507
 31
0.0
  0
LINE
  5
1B7
330
1F
100
AcDbEntity
  8
0
  6
Continuous
 62
     7
370
    18
100
AcDbLine
 10
229.2411460357
 20
126.4259352507
 30
0.0
 11
229.2411460357
 21
125.0316739018
 31
0.0
  0
LINE
  5
1B8
330
1F
100
AcDbEntity
  8
0
  6
Continuous
 62
     7
370
    18
100
AcDbLine
 10
230.2292361491
 20
126.4259352507
 30
0.0
 11
229.2411460357
 21
126.4259352507
 31
0.0
  0
SPLINE
  5
1B9
330
1F
100
AcDbEntity
  8
0
  6
Continuous
 62
     7
370
    18
100
AcDbSpline
210
0.0
220
0.0
230
1.0
 70
     8
 71
     3
 72
    13
 73
     9
 74
     0
 42
0.000000001
 43
0.00000001
 40
0.0
 40
0.0
 40
0.0
 40
0.0
 40
0.1129894123230108
 40
0.234903504206837
 40
0.3805358024040086
 40
0.5310429421797453
 40
0.7319137862307433
 40
1.0
 40
1.0
 40
1.0
 40
1.0
 10
231.0983804512123
 20
126.0214724835395
 30
0.0
 10
231.0813581137831
 20
126.0563140213096
 30
0.0
 10
231.0459688978408
 20
126.128749120722
 30
0.0
 10
230.9729159741647
 20
126.2387781919702
 30
0.0
 10
230.8546586471545
 20
126.32572170447
 30
0.0
 10
230.6932180146833
 20
126.3845025147907
 30
0.0
 10
230.482537850149
 20
126.4205584479226
 30
0.0
 10
230.3213700801726
 20
126.4239795355562
 30
0.0
 10
230.2292361491142
 20
126.4259352507232
 30
0.0
  0
SPLINE
  5
1BA
330
1F
100
AcDbEntity
  8
0
  6
Continuous
 62
     7
370
    18
100
AcDbSpline
210
0.0
220
0.0
230
1.0
 70
     8
 71
     3
 72
    12
 73
     8
 74
     0
 42
0.000000001
 43
0.00000001
 40
0.0
 40
0.0
 40
0.0
 40
0.0
 40
0.2577824677168399
 40
0.474647225282723
 40
0.6603530347935896
 40
0.846828643526781
 40
1.0
 40
1.0
 40
1.0
 40
1.0
 10
231.9551342090202
 20
126.4472123078278
 30
0.0
 10
231.8688728098494
 20
126.4431402116603
 30
0.0
 10
231.7100422496175
 20
126.4356423815555
 30
0.0
 10
231.4967036551549
 20
126.3709879607753
 30
0.0
 10
231.3235372868562
 20
126.2758830440983
 30
0.0
 10
231.1887250714827
 20
126.1597061139103
 30
0.0
 10
231.1264601865389
 20
126.0644364557432
 30
0.0
 10
231.0983804512123
 20
126.0214724835395
 30
0.0
  0
SPLINE
  5
1BB
330
1F
100
AcDbEntity
  8
0
  6
Continuous
 62
     7
370
    18
100
AcDbSpline
210
0.0
220
0.0
230
1.0
 70
     8
 71
     3
 72
    15
 73
    11
 74
     0
 42
0.000000001
 43
0.00000001
 40
0.0
 40
0.0
 40
0.0
 40
0.0
 40
0.1009667219583008
 40
0.211042678390218
 40
0.3263227887254705
 40
0.4481367482187077
 40
0.553854936846584
 40
0.6756292865222512
 40
0.821598520103098
 40
0.9999999999999999
 40
0.9999999999999999
 40
0.9999999999999999
 40
0.9999999999999999
 10
232.8864841008196
 20
125.5997063031926
 30
0.0
 10
232.885615054238
 20
125.6485343144557
 30
0.0
 10
232.8837985555476
 20
125.7505956082914
 30
0.0
 10
232.8595074601889
 20
125.9071448251879
 30
0.0
 10
232.8034628171647
 20
126.066783098459
 30
0.0
 10
232.7074526034261
 20
126.2049766386613
 30
0.0
 10
232.5749502852527
 20
126.3124527277179
 30
0.0
 10
232.4099345946927
 20
126.3892352257072
 30
0.0
 10
232.1985044897304
 20
126.4391416118938
 30
0.0
 10
232.0414906519854
 20
126.4443485374813
 30
0.0
 10
231.9551342090202
 20
126.4472123078278
 30
0.0
  0
LINE
  5
1BC
330
1F
100
AcDbEntity
  8
0
  6
Continuous
 62
     7
370
    18
100
AcDbLine
 10
232.2699528234
 20
125.5997063032
 30
0.0
 11
232.8864841008
 21
125.5997063032
 31
0.0
  0
SPLINE
  5
1BD
330
1F
100
AcDbEntity
  8
0
  6
Continuous
 62
     7
370
    18
100
AcDbSpline
210
0.0
220
0.0
230
1.0
 70
     8
 71
     3
 72
     9
 73
     5
 74
     0
 42
0.000000001
 43
0.00000001
 40
0.0
 40
0.0
 40
0.0
 40
0.0
 40
0.5581053349215993
 40
1.0
 40
1.0
 40
1.0
 40
1.0
 10
232.285305538634
 20
125.5956965352154
 30
0.0
 10
232.2824527442977
 20
125.5964553375257
 30
0.0
 10
232.2773411745673
 20
125.5978149416413
 30
0.0
 10
232.2722171170751
 20
125.5991266612815
 30
0.0
 10
232.2699528234057
 20
125.5997063031926
 30
0.0
  0
SPLINE
  5
1BE
330
1F
100
AcDbEntity
  8
0
  6
Continuous
 62
     7
370
    18
100
AcDbSpline
210
0.0
220
0.0
230
1.0
 70
     8
 71
     3
 72
    12
 73
     8
 74
     0
 42
0.000000001
 43
0.00000001
 40
0.0
 40
0.0
 40
0.0
 40
0.0
 40
0.2081936773952725
 40
0.3823854809342376
 40
0.5475549960392819
 40
0.7576294387459002
 40
1.0
 40
1.0
 40
1.0
 40
1.0
 10
232.9290384186137
 20
124.8772085181708
 30
0.0
 10
232.9267189370282
 20
124.9511790418932
 30
0.0
 10
232.9224587880521
 20
125.0870393362233
 30
0.0
 10
232.8470374761434
 20
125.2703253576117
 30
0.0
 10
232.7130564339329
 20
125.4152097272777
 30
0.0
 10
232.5199643592856
 20
125.5230340237998
 30
0.0
 10
232.3671609156749
 20
125.5703498755324
 30
0.0
 10
232.285305538634
 20
125.5956965352154
 30
0.0
  0
SPLINE
  5
1BF
330
1F
100
AcDbEntity
  8
0
  6
Continuous
 62
     7
370
    18
100
AcDbSpline
210
0.0
220
0.0
230
1.0
 70
     8
 71
     3
 72
    13
 73
     9
 74
     0
 42
0.000000001
 43
0.00000001
 40
0.0
 40
0.0
 40
0.0
 40
0.0
 40
0.2144903110109677
 40
0.4108455396423898
 40
0.5926499974110345
 40
0.7287207904635505
 40
0.8627130606487935
 40
1.0
 40
1.0
 40
1.0
 40
1.0
 10
231.9883480870034
 20
124.1068964759495
 30
0.0
 10
232.0851032027323
 20
124.113570417879
 30
0.0
 10
232.2704328222731
 20
124.1263540222323
 30
0.0
 10
232.5228082998765
 20
124.2238935304059
 30
0.0
 10
232.7131365073172
 20
124.3609294563878
 30
0.0
 10
232.8398690642938
 20
124.5221105453971
 30
0.0
 10
232.9159894173955
 20
124.6925977549571
 30
0.0
 10
232.9246536759136
 20
124.8151753646119
 30
0.0
 10
232.9290384186137
 20
124.8772085181708
 30
0.0
  0
SPLINE
  5
1C0
330
1F
100
AcDbEntity
  8
0
  6
Continuous
 62
     7
370
    18
100
AcDbSpline
210
0.0
220
0.0
230
1.0
 70
     8
 71
     3
 72
    12
 73
     8
 74
     0
 42
0.000000001
 43
0.00000001
 40
0.0
 40
0.0
 40
0.0
 40
0.0
 40
0.1266166298736457
 40
0.2732454724470857
 40
0.4461934828620917
 40
0.6934352669522338
 40
1.0
 40
1.0
 40
1.0
 40
1.0
 10
231.0946934416743
 20
124.5442884103311
 30
0.0
 10
231.1138176376388
 20
124.5039613473176
 30
0.0
 10
231.1550886773648
 20
124.4169333842726
 30
0.0
 10
231.2702511303661
 20
124.3067730411034
 30
0.0
 10
231.4413605558842
 20
124.2045705219816
 30
0.0
 10
231.6869401522582
 20
124.1264522585578
 30
0.0
 10
231.8809513753702
 20
124.1138645298839
 30
0.0
 10
231.9883480870034
 20
124.1068964759495
 30
0.0
  0
SPLINE
  5
1C1
330
1F
100
AcDbEntity
  8
0
  6
Continuous
 62
     7
370
    18
100
AcDbSpline
210
0.0
220
0.0
230
1.0
 70
     8
 71
     3
 72
    11
 73
     7
 74
     0
 42
0.000000001
 43
0.00000001
 40
0.0
 40
0.0
 40
0.0
 40
0.0
 40
0.310424843595752
 40
0.6000686931456405
 40
0.8080123835287412
 40
1.0
 40
1.0
 40
1.0
 40
1.0
 10
230.4336235859638
 20
124.1895865025048
 30
0.0
 10
230.5153161488217
 20
124.1967778715244
 30
0.0
 10
230.6732324704215
 20
124.210679192564
 30
0.0
 10
230.8702940647548
 20
124.2963933400177
 30
0.0
 10
231.0184446963309
 20
124.4070489900686
 30
0.0
 10
231.0699623268197
 20
124.4997751026063
 30
0.0
 10
231.0946934416743
 20
124.5442884103311
 30
0.0
  0
LINE
  5
1C2
330
1F
100
AcDbEntity
  8
0
  6
Continuous
 62
     7
370
    18
100
AcDbLine
 10
228.7620071644
 20
124.1895865025
 30
0.0
 11
230.433623586
 21
124.1895865025
 31
0.0
  0
LINE
  5
1C3
330
1F
100
AcDbEntity
  8
0
  6
Continuous
 62
     7
370
    18
100
AcDbLine
 10
228.6342725737
 20
124.5195434458
 30
0.0
 11
228.7620071644
 21
124.1895865025
 31
0.0
  0
LINE
  5
1C4
330
1F
100
AcDbEntity
  8
0
  6
Continuous
 62
     7
370
    18
100
AcDbLine
 10
228.0915089354
 20
124.5195434458
 30
0.0
 11
228.6342725737
 21
124.5195434458
 31
0.0
  0
LINE
  5
1C5
330
1F
100
AcDbEntity
  8
0
  6
Continuous
 62
     7
370
    18
100
AcDbLine
 10
227.9583918633
 20
124.1895865025
 30
0.0
 11
228.0915089354
 21
124.5195434458
 31
0.0
  0
LINE
  5
1C6
330
1F
100
AcDbEntity
  8
0
  6
Continuous
 62
     7
370
    18
100
AcDbLine
 10
225.349864889
 20
124.1895865025
 30
0.0
 11
227.9583918633
 21
124.1895865025
 31
0.0
  0
SPLINE
  5
1C7
330
1F
100
AcDbEntity
  8
0
  6
Continuous
 62
     7
370
    18
100
AcDbSpline
210
0.0
220
0.0
230
1.0
 70
     8
 71
     3
 72
    11
 73
     7
 74
     0
 42
0.000000001
 43
0.00000001
 40
0.0
 40
0.0
 40
0.0
 40
0.0
 40
0.2274736611129817
 40
0.5494925387673852
 40
0.8007169048877156
 40
0.9999999999999999
 40
0.9999999999999999
 40
0.9999999999999999
 40
0.9999999999999999
 10
225.2837940274764
 20
124.5469977130184
 30
0.0
 10
225.2859599597738
 20
124.5193390324618
 30
0.0
 10
225.2911920540352
 20
124.4525258527573
 30
0.0
 10
225.3020364836679
 20
124.3557372775492
 30
0.0
 10
225.316738542938
 20
124.2618992908465
 30
0.0
 10
225.3397054296122
 20
124.2117639812881
 30
0.0
 10
225.3498648890117
 20
124.1895865025048
 30
0.0
  0
SPLINE
  5
1C8
330
1F
100
AcDbEntity
  8
0
  6
Continuous
 62
     7
370
    18
100
AcDbSpline
210
0.0
220
0.0
230
1.0
 70
     8
 71
     3
 72
    13
 73
     9
 74
     0
 42
0.000000001
 43
0.00000001
 40
0.0
 40
0.0
 40
0.0
 40
0.0
 40
0.1455849753971026
 40
0.2684075940997122
 40
0.3810001390981592
 40
0.4935379506791346
 40
0.7360826269615443
 40
1.0
 40
1.0
 40
1.0
 40
1.0
 10
224.9564922008281
 20
125.0047976191069
 30
0.0
 10
224.9874928461192
 20
125.0031454995424
 30
0.0
 10
225.0446471547657
 20
125.0000995709618
 30
0.0
 10
225.1211106057303
 20
124.9694661385747
 30
0.0
 10
225.1788600468172
 20
124.9218196349049
 30
0.0
 10
225.2346071415431
 20
124.8384677370043
 30
0.0
 10
225.270487679295
 20
124.7097247244554
 30
0.0
 10
225.2792355250621
 20
124.6027448995792
 30
0.0
 10
225.2837940274764
 20
124.5469977130184
 30
0.0
  0
LINE
  5
1C9
330
1F
100
AcDbEntity
  8
0
  6
Continuous
 62
     7
370
    18
100
AcDbLine
 10
224.5125639245
 20
125.0047976191
 30
0.0
 11
224.9564922008
 21
125.0047976191
 31
0.0
  0
LINE
  5
1CA
330
1F
100
AcDbEntity
  8
0
  6
Continuous
 62
     7
370
    18
100
AcDbLine
 10
224.5125639245
 20
124.1895865025
 30
0.0
 11
224.5125639245
 21
125.0047976191
 31
0.0
  0
LINE
  5
1CB
330
1F
100
AcDbEntity
  8
0
  6
Continuous
 62
     7
370
    18
100
AcDbLine
 10
223.927051425
 20
124.1895865025
 30
0.0
 11
224.5125639245
 21
124.1895865025
 31
0.0
  0
LINE
  5
1CC
330
1F
100
AcDbEntity
  8
0
  6
Continuous
 62
     7
370
    18
100
AcDbLine
 10
223.927051425
 20
126.4259352507
 30
0.0
 11
223.927051425
 21
124.1895865025
 31
0.0
  0
LINE
  5
1CD
330
1F
100
AcDbEntity
  8
0
  6
Continuous
 62
     7
370
    18
100
AcDbLine
 10
225.0729058416
 20
126.4259352507
 30
0.0
 11
223.927051425
 21
126.4259352507
 31
0.0
  0
SPLINE
  5
1CE
330
1F
100
AcDbEntity
  8
0
  6
Continuous
 62
     7
370
    18
100
AcDbSpline
210
0.0
220
0.0
230
1.0
 70
     8
 71
     3
 72
    12
 73
     8
 74
     0
 42
0.000000001
 43
0.00000001
 40
0.0
 40
0.0
 40
0.0
 40
0.0
 40
0.2016496499629003
 40
0.3794039236986333
 40
0.5547793395586197
 40
0.7718110801448012
 40
1.0
 40
1.0
 40
1.0
 40
1.0
 10
225.8598679621738
 20
125.7958056317021
 30
0.0
 10
225.853372724855
 20
125.8725444110881
 30
0.0
 10
225.8411519323839
 20
126.016928465334
 30
0.0
 10
225.7258404462375
 20
126.2005024115432
 30
0.0
 10
225.551754800449
 20
126.3315755803302
 30
0.0
 10
225.3273323748842
 20
126.4119252472106
 30
0.0
 10
225.1591198152463
 20
126.421187876076
 30
0.0
 10
225.0729058415916
 20
126.4259352507232
 30
0.0
  0
SPLINE
  5
1CF
330
1F
100
AcDbEntity
  8
0
  6
Continuous
 62
     7
370
    18
100
AcDbSpline
210
0.0
220
0.0
230
1.0
 70
     8
 71
     3
 72
    11
 73
     7
 74
     0
 42
0.000000001
 43
0.00000001
 40
0.0
 40
0.0
 40
0.0
 40
0.0
 40
0.2852648350196938
 40
0.5586037747029551
 40
0.7765581993729915
 40
1.0
 40
1.0
 40
1.0
 40
1.0
 10
225.5072612484257
 20
125.2346187350648
 30
0.0
 10
225.5675531451664
 20
125.2656010641929
 30
0.0
 10
225.6856163515935
 20
125.3262704628549
 30
0.0
 10
225.7931063349121
 20
125.4804584054017
 30
0.0
 10
225.8504725096564
 20
125.6394714227161
 30
0.0
 10
225.8567102955748
 20
125.7432641166363
 30
0.0
 10
225.8598679621738
 20
125.7958056317021
 30
0.0
  0
LINE
  5
1D0
330
1F
100
AcDbEntity
  8
0
  6
Continuous
 62
     7
370
    18
100
AcDbLine
 10
225.5072612484
 20
125.2283331528
 30
0.0
 11
225.5072612484
 21
125.2346187351
 31
0.0
  0
SPLINE
  5
1D1
330
1F
100
AcDbEntity
  8
0
  6
Continuous
 62
     7
370
    18
100
AcDbSpline
210
0.0
220
0.0
230
1.0
 70
     8
 71
     3
 72
    11
 73
     7
 74
     0
 42
0.000000001
 43
0.00000001
 40
0.0
 40
0.0
 40
0.0
 40
0.0
 40
0.2808304286447869
 40
0.5635450978389995
 40
0.7771991270060344
 40
0.9999999999999999
 40
0.9999999999999999
 40
0.9999999999999999
 40
0.9999999999999999
 10
225.8347256332352
 20
124.6921802130335
 30
0.0
 10
225.8270057383055
 20
124.7546436950575
 30
0.0
 10
225.8115141515694
 20
124.8799897597927
 30
0.0
 10
225.7502281463541
 20
125.0441787705028
 30
0.0
 10
225.6479119427066
 20
125.1758786264463
 30
0.0
 10
225.554795299175
 20
125.2106057172778
 30
0.0
 10
225.5072612484257
 20
125.2283331528398
 30
0.0
  0
SPLINE
  5
1D2
330
1F
100
AcDbEntity
  8
0
  6
Continuous
 62
     7
370
    18
100
AcDbSpline
210
0.0
220
0.0
230
1.0
 70
     8
 71
     3
 72
    11
 73
     7
 74
     0
 42
0.000000001
 43
0.00000001
 40
0.0
 40
0.0
 40
0.0
 40
0.0
 40
0.3074360073852277
 40
0.6261968550908458
 40
0.8442166228014035
 40
0.9999999999999999
 40
0.9999999999999999
 40
0.9999999999999999
 40
0.9999999999999999
 10
225.8929083503055
 20
124.2920597807371
 30
0.0
 10
225.8830675877487
 20
124.3324063032274
 30
0.0
 10
225.8630235642225
 20
124.41458556945
 30
0.0
 10
225.8495951033592
 20
124.5279292219919
 30
0.0
 10
225.8408005451986
 20
124.6209590605097
 30
0.0
 10
225.8365126316997
 20
124.6712297711228
 30
0.0
 10
225.8347256332352
 20
124.6921802130335
 30
0.0
  0
LINE
  5
1D3
330
1F
100
AcDbEntity
  8
0
  6
Continuous
 62
     7
370
    18
100
AcDbLine
 10
225.8942219211
 20
126.4259352507
 30
0.0
 11
225.8929083503
 21
124.2920597807
 31
0.0
  0
SPLINE
  5
1D4
330
1F
100
AcDbEntity
  8
0
  6
Continuous
 62
     7
370
    18
100
AcDbSpline
210
0.0
220
0.0
230
1.0
 70
     8
 71
     3
 72
    12
 73
     8
 74
     0
 42
0.000000001
 43
0.00000001
 40
0.0
 40
0.0
 40
0.0
 40
0.0
 40
0.2554031448979543
 40
0.5239992272002586
 40
0.6685053607654261
 40
0.822947353711822
 40
1.0
 40
1.0
 40
1.0
 40
1.0
 10
230.3171766202423
 20
124.7428622352951
 30
0.0
 10
230.3433070220806
 20
124.7450470861347
 30
0.0
 10
230.3969176006629
 20
124.7495296470366
 30
0.0
 10
230.4599223505641
 20
124.7822105918206
 30
0.0
 10
230.4990436668528
 20
124.8256919550693
 30
0.0
 10
230.5200725256968
 20
124.8707459926833
 30
0.0
 10
230.5223885088939
 20
124.9047688215088
 30
0.0
 10
230.5236254850174
 20
124.9229405539135
 30
0.0
  0
LINE
  5
1D5
330
1F
100
AcDbEntity
  8
0
  6
Continuous
 62
     7
370
    18
100
AcDbLine
 10
229.9259894362
 20
124.7428622353
 30
0.0
 11
230.3171766202
 21
124.7428622353
 31
0.0
  0
LINE
  5
1D6
330
1F
100
AcDbEntity
  8
0
  6
Continuous
 62
     7
370
    18
100
AcDbLine
 10
229.9259894362
 20
125.1056920512
 30
0.0
 11
229.9259894362
 21
124.7428622353
 31
0.0
  0
LINE
  5
1D7
330
1F
100
AcDbEntity
  8
0
  6
Continuous
 62
     7
370
    18
100
AcDbLine
 10
230.3171766202
 20
125.1056920512
 30
0.0
 11
229.9259894362
 21
125.1056920512
 31
0.0
  0
SPLINE
  5
1D8
330
1F
100
AcDbEntity
  8
0
  6
Continuous
 62
     7
370
    18
100
AcDbSpline
210
0.0
220
0.0
230
1.0
 70
     8
 71
     3
 72
    12
 73
     8
 74
     0
 42
0.000000001
 43
0.00000001
 40
0.0
 40
0.0
 40
0.0
 40
0.0
 40
0.2191709004622778
 40
0.4020322727962852
 40
0.5732124609680136
 40
0.7805893411712348
 40
1.0
 40
1.0
 40
1.0
 40
1.0
 10
230.5236254850174
 20
124.9229405539135
 30
0.0
 10
230.5220777983706
 20
124.9459219091756
 30
0.0
 10
230.5192388266874
 20
124.9880773525694
 30
0.0
 10
230.4900624408932
 20
125.0423342723914
 30
0.0
 10
230.4442530358359
 20
125.080305685478
 30
0.0
 10
230.3845857932138
 20
125.1022392912953
 30
0.0
 10
230.3400647853622
 20
125.1045196982979
 30
0.0
 10
230.3171766202423
 20
125.1056920511834
 30
0.0
  0
SPLINE
  5
1D9
330
1F
100
AcDbEntity
  8
0
  6
Continuous
 62
     7
370
    18
100
AcDbSpline
210
0.0
220
0.0
230
1.0
 70
     8
 71
     3
 72
    12
 73
     8
 74
     0
 42
0.000000001
 43
0.00000001
 40
0.0
 40
0.0
 40
0.0
 40
0.0
 40
0.2631780919768592
 40
0.5362228315034369
 40
0.6796343489711378
 40
0.8298665817545485
 40
1.0
 40
1.0
 40
1.0
 40
1.0
 10
230.2561269996876
 20
125.5442378461738
 30
0.0
 10
230.2779498275238
 20
125.5459304254234
 30
0.0
 10
230.3224136293768
 20
125.5493790393675
 30
0.0
 10
230.3750672061996
 20
125.5744780149273
 30
0.0
 10
230.4081111450961
 20
125.6084166971119
 30
0.0
 10
230.4258882718412
 20
125.6435582861331
 30
0.0
 10
230.4278607556157
 20
125.670244946432
 30
0.0
 10
230.4289082630682
 20
125.6844171672167
 30
0.0
  0
LINE
  5
1DA
330
1F
100
AcDbEntity
  8
0
  6
Continuous
 62
     7
370
    18
100
AcDbLine
 10
229.9286987389
 20
125.5442378462
 30
0.0
 11
230.2561269997
 21
125.5442378462
 31
0.0
  0
LINE
  5
1DB
330
1F
100
AcDbEntity
  8
0
  6
Continuous
 62
     7
370
    18
100
AcDbLine
 10
229.9286987389
 20
125.8266555583
 30
0.0
 11
229.9286987389
 21
125.5442378462
 31
0.0
  0
LINE
  5
1DC
330
1F
100
AcDbEntity
  8
0
  6
Continuous
 62
     7
370
    18
100
AcDbLine
 10
230.2561269997
 20
125.8266555583
 30
0.0
 11
229.9286987389
 21
125.8266555583
 31
0.0
  0
SPLINE
  5
1DD
330
1F
100
AcDbEntity
  8
0
  6
Continuous
 62
     7
370
    18
100
AcDbSpline
210
0.0
220
0.0
230
1.0
 70
     8
 71
     3
 72
    12
 73
     8
 74
     0
 42
0.000000001
 43
0.00000001
 40
0.0
 40
0.0
 40
0.0
 40
0.0
 40
0.2108655154368299
 40
0.3895958229608483
 40
0.5613353297982713
 40
0.7736399301224683
 40
1.0
 40
1.0
 40
1.0
 40
1.0
 10
230.4289082630682
 20
125.6844171672167
 30
0.0
 10
230.4275919328582
 20
125.7023580879824
 30
0.0
 10
230.4251598768135
 20
125.7355057924608
 30
0.0
 10
230.4003846862336
 20
125.7778223217487
 30
0.0
 10
230.3619974913849
 20
125.8071183735769
 30
0.0
 10
230.312323040795
 20
125.8239824803138
 30
0.0
 10
230.2752549193352
 20
125.8257457002415
 30
0.0
 10
230.2561269996876
 20
125.826655558302
 30
0.0
  0
LINE
  5
1DE
330
1F
100
AcDbEntity
  8
0
  6
Continuous
 62
     7
370
    18
100
AcDbLine
 10
228.2050403692
 20
125.0819946837
 30
0.0
 11
228.5158154495
 21
125.0819946837
 31
0.0
  0
LINE
  5
1DF
330
1F
100
AcDbEntity
  8
0
  6
Continuous
 62
     7
370
    18
100
AcDbLine
 10
228.363046902
 20
125.5697775395
 30
0.0
 11
228.2050403692
 21
125.0819946837
 31
0.0
  0
LINE
  5
1E0
330
1F
100
AcDbEntity
  8
0
  6
Continuous
 62
     7
370
    18
100
AcDbLine
 10
228.5158154495
 20
125.0819946837
 30
0.0
 11
228.363046902
 21
125.5697775395
 31
0.0
  0
SPLINE
  5
1E1
330
1F
100
AcDbEntity
  8
0
  6
Continuous
 62
     7
370
    18
100
AcDbSpline
210
0.0
220
0.0
230
1.0
 70
     8
 71
     3
 72
    11
 73
     7
 74
     0
 42
0.000000001
 43
0.00000001
 40
0.0
 40
0.0
 40
0.0
 40
0.0
 40
0.2800359244938569
 40
0.5600382743760561
 40
0.7801217300908218
 40
0.9999999999999999
 40
0.9999999999999999
 40
0.9999999999999999
 40
0.9999999999999999
 10
233.3910647186767
 20
121.3484021985275
 30
0.0
 10
233.4499116188833
 20
121.3856594410134
 30
0.0
 10
233.5675983639096
 20
121.4601694590675
 30
0.0
 10
233.706807645828
 20
121.5958919114223
 30
0.0
 10
233.8212721986112
 20
121.7343322479575
 30
0.0
 10
233.8691343599371
 20
121.832845269473
 30
0.0
 10
233.8930542798155
 20
121.882078808376
 30
0.0
  0
LINE
  5
1E2
330
1F
100
AcDbEntity
  8
0
  6
Continuous
 62
     7
370
    18
100
AcDbLine
 10
233.3910647187
 20
121.1082477241
 30
0.0
 11
233.3910647187
 21
121.3484021985
 31
0.0
  0
SPLINE
  5
1E3
330
1F
100
AcDbEntity
  8
0
  6
Continuous
 62
     7
370
    18
100
AcDbSpline
210
0.0
220
0.0
230
1.0
 70
     8
 71
     3
 72
     9
 73
     5
 74
     0
 42
0.000000001
 43
0.00000001
 40
0.0
 40
0.0
 40
0.0
 40
0.0
 40
0.5597552341668187
 40
1.0
 40
1.0
 40
1.0
 40
1.0
 10
233.8180060065555
 20
121.4284536900048
 30
0.0
 10
233.7464915832677
 20
121.3575820020128
 30
0.0
 10
233.6187314143178
 20
121.2309700765389
 30
0.0
 10
233.4606564113447
 20
121.1457607042471
 30
0.0
 10
233.3910647186767
 20
121.1082477240957
 30
0.0
  0
LINE
  5
1E4
330
1F
100
AcDbEntity
  8
0
  6
Continuous
 62
     7
370
    18
100
AcDbLine
 10
233.8180060066
 20
119.80074003
 30
0.0
 11
233.8180060066
 21
121.42845369
 31
0.0
  0
LINE
  5
1E5
330
1F
100
AcDbEntity
  8
0
  6
Continuous
 62
     7
370
    18
100
AcDbLine
 10
234.0314766505
 20
119.80074003
 30
0.0
 11
233.8180060066
 21
119.80074003
 31
0.0
  0
LINE
  5
1E6
330
1F
100
AcDbEntity
  8
0
  6
Continuous
 62
     7
370
    18
100
AcDbLine
 10
234.0314766505
 20
121.8820788084
 30
0.0
 11
234.0314766505
 21
119.80074003
 31
0.0
  0
LINE
  5
1E7
330
1F
100
AcDbEntity
  8
0
  6
Continuous
 62
     7
370
    18
100
AcDbLine
 10
233.8930542798
 20
121.8820788084
 30
0.0
 11
234.0314766505
 21
121.8820788084
 31
0.0
  0
SPLINE
  5
1E8
330
1F
100
AcDbEntity
  8
0
  6
Continuous
 62
     7
370
    18
100
AcDbSpline
210
0.0
220
0.0
230
1.0
 70
     8
 71
     3
 72
    10
 73
     6
 74
     0
 42
0.000000001
 43
0.00000001
 40
0.0
 40
0.0
 40
0.0
 40
0.0
 40
0.2795751783825398
 40
0.5597049368157179
 40
1.0
 40
1.0
 40
1.0
 40
1.0
 10
232.8765671119947
 20
121.665272685625
 30
0.0
 10
232.9124456529001
 20
121.592769538158
 30
0.0
 10
232.9842739052748
 20
121.4476194221615
 30
0.0
 10
233.0338720285786
 20
121.1610977621756
 30
0.0
 10
233.0402667328054
 20
120.9538780806878
 30
0.0
 10
233.0441749222752
 20
120.8272336342224
 30
0.0
  0
SPLINE
  5
1E9
330
1F
100
AcDbEntity
  8
0
  6
Continuous
 62
     7
370
    18
100
AcDbSpline
210
0.0
220
0.0
230
1.0
 70
     8
 71
     3
 72
    11
 73
     7
 74
     0
 42
0.000000001
 43
0.00000001
 40
0.0
 40
0.0
 40
0.0
 40
0.0
 40
0.2798903849624053
 40
0.5594964420644598
 40
0.7796718965173827
 40
1.0
 40
1.0
 40
1.0
 40
1.0
 10
232.4984072017348
 20
121.882078808376
 30
0.0
 10
232.5411641434553
 20
121.8792262901041
 30
0.0
 10
232.6266345920718
 20
121.8735241513033
 30
0.0
 10
232.7354048471747
 20
121.8198990693739
 30
0.0
 10
232.8189251726875
 20
121.747859701289
 30
0.0
 10
232.8573486938859
 20
121.6928080499181
 30
0.0
 10
232.8765671119947
 20
121.665272685625
 30
0.0
  0
SPLINE
  5
1EA
330
1F
100
AcDbEntity
  8
0
  6
Continuous
 62
     7
370
    18
100
AcDbSpline
210
0.0
220
0.0
230
1.0
 70
     8
 71
     3
 72
    13
 73
     9
 74
     0
 42
0.000000001
 43
0.00000001
 40
0.0
 40
0.0
 40
0.0
 40
0.0
 40
0.2504890583456496
 40
0.500673827442562
 40
0.6258446378555195
 40
0.7507584155659034
 40
0.8753007099299314
 40
1.0
 40
1.0
 40
1.0
 40
1.0
 10
231.9501378720858
 20
120.8272336342224
 30
0.0
 10
231.9528564867009
 20
120.9374738315801
 30
0.0
 10
231.9582904134108
 20
121.1578203086424
 30
0.0
 10
232.0083437854524
 20
121.4312477441898
 30
0.0
 10
232.0932793108296
 20
121.6357052784749
 30
0.0
 10
232.1902673865187
 20
121.771217899554
 30
0.0
 10
232.3322230496023
 20
121.8673171816424
 30
0.0
 10
232.4429892273845
 20
121.8771562002862
 30
0.0
 10
232.4984072017348
 20
121.882078808376
 30
0.0
  0
SPLINE
  5
1EB
330
1F
100
AcDbEntity
  8
0
  6
Continuous
 62
     7
370
    18
100
AcDbSpline
210
0.0
220
0.0
230
1.0
 70
     8
 71
     3
 72
    13
 73
     9
 74
     0
 42
0.000000001
 43
0.00000001
 40
0.0
 40
0.0
 40
0.0
 40
0.0
 40
0.1245870753534851
 40
0.2492227148385402
 40
0.3742192396120912
 40
0.4992998133209625
 40
0.7494812006579958
 40
1.0
 40
1.0
 40
1.0
 40
1.0
 10
232.4959055926262
 20
119.7740561994745
 30
0.0
 10
232.4406419493374
 20
119.7796928957516
 30
0.0
 10
232.3300931209519
 20
119.790968485494
 30
0.0
 10
232.1913041647291
 20
119.8896014983303
 30
0.0
 10
232.0882650560461
 20
120.0196058348903
 30
0.0
 10
232.0022411708777
 20
120.2239517859438
 30
0.0
 10
231.9570702842584
 20
120.4974539651297
 30
0.0
 10
231.9524497140471
 20
120.7172577040531
 30
0.0
 10
231.9501378720858
 20
120.8272336342224
 30
0.0
  0
SPLINE
  5
1EC
330
1F
100
AcDbEntity
  8
0
  6
Continuous
 62
     7
370
    18
100
AcDbSpline
210
0.0
220
0.0
230
1.0
 70
     8
 71
     3
 72
    13
 73
     9
 74
     0
 42
0.000000001
 43
0.00000001
 40
0.0
 40
0.0
 40
0.0
 40
0.0
 40
0.2504702058475087
 40
0.5006494994159224
 40
0.6258027062132817
 40
0.7507410958263522
 40
0.8752785399750087
 40
1.0
 40
1.0
 40
1.0
 40
1.0
 10
233.0441749222752
 20
120.8272336342224
 30
0.0
 10
233.0414614270201
 20
120.7171011786708
 30
0.0
 10
233.0360375881386
 20
120.4969641825168
 30
0.0
 10
232.9852677304145
 20
120.2240335822809
 30
0.0
 10
232.9009159829789
 20
120.0196094698296
 30
0.0
 10
232.8040332230225
 20
119.8841546410973
 30
0.0
 10
232.6619566061536
 20
119.7884763762954
 30
0.0
 10
232.5512831654304
 20
119.7788652902159
 30
0.0
 10
232.4959055926262
 20
119.7740561994745
 30
0.0
  0
LINE
  5
1ED
330
1F
100
AcDbEntity
  8
0
  6
Continuous
 62
     7
370
    18
100
AcDbLine
 10
231.6032480757
 20
120.7346740972
 30
0.0
 11
230.8027331609
 21
120.7346740972
 31
0.0
  0
LINE
  5
1EE
330
1F
100
AcDbEntity
  8
0
  6
Continuous
 62
     7
370
    18
100
AcDbLine
 10
231.6032480757
 20
120.9748285716
 30
0.0
 11
231.6032480757
 21
120.7346740972
 31
0.0
  0
LINE
  5
1EF
330
1F
100
AcDbEntity
  8
0
  6
Continuous
 62
     7
370
    18
100
AcDbLine
 10
230.8027331609
 20
120.9748285716
 30
0.0
 11
231.6032480757
 21
120.9748285716
 31
0.0
  0
LINE
  5
1F0
330
1F
100
AcDbEntity
  8
0
  6
Continuous
 62
     7
370
    18
100
AcDbLine
 10
230.8027331609
 20
121.6152405035
 30
0.0
 11
230.8027331609
 21
120.9748285716
 31
0.0
  0
LINE
  5
1F1
330
1F
100
AcDbEntity
  8
0
  6
Continuous
 62
     7
370
    18
100
AcDbLine
 10
231.7366672281
 20
121.6152405035
 30
0.0
 11
230.8027331609
 21
121.6152405035
 31
0.0
  0
LINE
  5
1F2
330
1F
100
AcDbEntity
  8
0
  6
Continuous
 62
     7
370
    18
100
AcDbLine
 10
231.7366672281
 20
121.8553949779
 30
0.0
 11
231.7366672281
 21
121.6152405035
 31
0.0
  0
LINE
  5
1F3
330
1F
100
AcDbEntity
  8
0
  6
Continuous
 62
     7
370
    18
100
AcDbLine
 10
230.589262517
 20
121.8553949779
 30
0.0
 11
231.7366672281
 21
121.8553949779
 31
0.0
  0
LINE
  5
1F4
330
1F
100
AcDbEntity
  8
0
  6
Continuous
 62
     7
370
    18
100
AcDbLine
 10
230.589262517
 20
119.80074003
 30
0.0
 11
230.589262517
 21
121.8553949779
 31
0.0
  0
LINE
  5
1F5
330
1F
100
AcDbEntity
  8
0
  6
Continuous
 62
     7
370
    18
100
AcDbLine
 10
230.8027331609
 20
119.80074003
 30
0.0
 11
230.589262517
 21
119.80074003
 31
0.0
  0
LINE
  5
1F6
330
1F
100
AcDbEntity
  8
0
  6
Continuous
 62
     7
370
    18
100
AcDbLine
 10
230.8027331609
 20
120.7346740972
 30
0.0
 11
230.8027331609
 21
119.80074003
 31
0.0
  0
LINE
  5
1F7
330
1F
100
AcDbEntity
  8
0
  6
Continuous
 62
     7
370
    18
100
AcDbLine
 10
229.7086961107
 20
120.6546226057
 30
0.0
 11
230.3491080425
 21
120.6546226057
 31
0.0
  0
LINE
  5
1F8
330
1F
100
AcDbEntity
  8
0
  6
Continuous
 62
     7
370
    18
100
AcDbLine
 10
229.7086961107
 20
120.4144681313
 30
0.0
 11
229.7086961107
 21
120.6546226057
 31
0.0
  0
LINE
  5
1F9
330
1F
100
AcDbEntity
  8
0
  6
Continuous
 62
     7
370
    18
100
AcDbLine
 10
230.3491080425
 20
120.4144681313
 30
0.0
 11
229.7086961107
 21
120.4144681313
 31
0.0
  0
LINE
  5
1FA
330
1F
100
AcDbEntity
  8
0
  6
Continuous
 62
     7
370
    18
100
AcDbLine
 10
230.3491080425
 20
120.6546226057
 30
0.0
 11
230.3491080425
 21
120.4144681313
 31
0.0
  0
SPLINE
  5
1FB
330
1F
100
AcDbEntity
  8
0
  6
Continuous
 62
     7
370
    18
100
AcDbSpline
210
0.0
220
0.0
230
1.0
 70
     8
 71
     3
 72
    10
 73
     6
 74
     0
 42
0.000000001
 43
0.00000001
 40
0.0
 40
0.0
 40
0.0
 40
0.0
 40
0.2795751783825467
 40
0.5597049368157176
 40
1.0
 40
1.0
 40
1.0
 40
1.0
 10
229.3543014869947
 20
121.665272685625
 30
0.0
 10
229.3901800279002
 20
121.592769538158
 30
0.0
 10
229.4620082802748
 20
121.4476194221615
 30
0.0
 10
229.5116064035786
 20
121.1610977621756
 30
0.0
 10
229.5180011078054
 20
120.9538780806878
 30
0.0
 10
229.5219092972752
 20
120.8272336342224
 30
0.0
  0
SPLINE
  5
1FC
330
1F
100
AcDbEntity
  8
0
  6
Continuous
 62
     7
370
    18
100
AcDbSpline
210
0.0
220
0.0
230
1.0
 70
     8
 71
     3
 72
    11
 73
     7
 74
     0
 42
0.000000001
 43
0.00000001
 40
0.0
 40
0.0
 40
0.0
 40
0.0
 40
0.2798903849624018
 40
0.5594964420644599
 40
0.7796718965173802
 40
1.0
 40
1.0
 40
1.0
 40
1.0
 10
228.9761415767348
 20
121.882078808376
 30
0.0
 10
229.0188985184553
 20
121.8792262901041
 30
0.0
 10
229.1043689670718
 20
121.8735241513033
 30
0.0
 10
229.2131392221748
 20
121.8198990693739
 30
0.0
 10
229.2966595476875
 20
121.747859701289
 30
0.0
 10
229.335083068886
 20
121.6928080499181
 30
0.0
 10
229.3543014869947
 20
121.665272685625
 30
0.0
  0
SPLINE
  5
1FD
330
1F
100
AcDbEntity
  8
0
  6
Continuous
 62
     7
370
    18
100
AcDbSpline
210
0.0
220
0.0
230
1.0
 70
     8
 71
     3
 72
    13
 73
     9
 74
     0
 42
0.000000001
 43
0.00000001
 40
0.0
 40
0.0
 40
0.0
 40
0.0
 40
0.2504890583456496
 40
0.5006738274425616
 40
0.625844637855519
 40
0.7507584155659044
 40
0.8753007099299301
 40
1.0
 40
1.0
 40
1.0
 40
1.0
 10
228.4278722470858
 20
120.8272336342224
 30
0.0
 10
228.4305908617009
 20
120.9374738315801
 30
0.0
 10
228.4360247884108
 20
121.1578203086424
 30
0.0
 10
228.4860781604524
 20
121.4312477441898
 30
0.0
 10
228.5710136858297
 20
121.6357052784749
 30
0.0
 10
228.6680017615187
 20
121.771217899554
 30
0.0
 10
228.8099574246023
 20
121.8673171816424
 30
0.0
 10
228.9207236023845
 20
121.8771562002862
 30
0.0
 10
228.9761415767348
 20
121.882078808376
 30
0.0
  0
SPLINE
  5
1FE
330
1F
100
AcDbEntity
  8
0
  6
Continuous
 62
     7
370
    18
100
AcDbSpline
210
0.0
220
0.0
230
1.0
 70
     8
 71
     3
 72
    13
 73
     9
 74
     0
 42
0.000000001
 43
0.00000001
 40
0.0
 40
0.0
 40
0.0
 40
0.0
 40
0.1245870753534851
 40
0.2492227148385413
 40
0.3742192396120915
 40
0.4992998133209628
 40
0.7494812006579956
 40
1.0
 40
1.0
 40
1.0
 40
1.0
 10
228.9736399676262
 20
119.7740561994745
 30
0.0
 10
228.9183763243374
 20
119.7796928957516
 30
0.0
 10
228.8078274959518
 20
119.790968485494
 30
0.0
 10
228.6690385397291
 20
119.8896014983303
 30
0.0
 10
228.5659994310461
 20
120.0196058348903
 30
0.0
 10
228.4799755458776
 20
120.2239517859438
 30
0.0
 10
228.4348046592584
 20
120.4974539651297
 30
0.0
 10
228.4301840890471
 20
120.717257704053
 30
0.0
 10
228.4278722470858
 20
120.8272336342224
 30
0.0
  0
SPLINE
  5
1FF
330
1F
100
AcDbEntity
  8
0
  6
Continuous
 62
     7
370
    18
100
AcDbSpline
210
0.0
220
0.0
230
1.0
 70
     8
 71
     3
 72
    13
 73
     9
 74
     0
 42
0.000000001
 43
0.00000001
 40
0.0
 40
0.0
 40
0.0
 40
0.0
 40
0.2504702058475086
 40
0.5006494994159222
 40
0.6258027062132797
 40
0.7507410958263522
 40
0.8752785399750087
 40
1.0
 40
1.0
 40
1.0
 40
1.0
 10
229.5219092972752
 20
120.8272336342224
 30
0.0
 10
229.5191958020201
 20
120.7171011786708
 30
0.0
 10
229.5137719631386
 20
120.4969641825168
 30
0.0
 10
229.4630021054145
 20
120.2240335822809
 30
0.0
 10
229.3786503579789
 20
120.0196094698296
 30
0.0
 10
229.2817675980224
 20
119.8841546410973
 30
0.0
 10
229.1396909811536
 20
119.7884763762954
 30
0.0
 10
229.0290175404304
 20
119.7788652902159
 30
0.0
 10
228.9736399676262
 20
119.7740561994745
 30
0.0
  0
SPLINE
  5
200
330
1F
100
AcDbEntity
  8
0
  6
Continuous
 62
     7
370
    18
100
AcDbSpline
210
0.0
220
0.0
230
1.0
 70
     8
 71
     3
 72
    10
 73
     6
 74
     0
 42
0.000000001
 43
0.00000001
 40
0.0
 40
0.0
 40
0.0
 40
0.0
 40
0.2795751783825467
 40
0.5597049368157176
 40
1.0
 40
1.0
 40
1.0
 40
1.0
 10
228.0467937928659
 20
121.665272685625
 30
0.0
 10
228.0826723337714
 20
121.592769538158
 30
0.0
 10
228.154500586146
 20
121.4476194221615
 30
0.0
 10
228.2040987094498
 20
121.1610977621756
 30
0.0
 10
228.2104934136766
 20
120.9538780806878
 30
0.0
 10
228.2144016031464
 20
120.8272336342224
 30
0.0
  0
SPLINE
  5
201
330
1F
100
AcDbEntity
  8
0
  6
Continuous
 62
     7
370
    18
100
AcDbSpline
210
0.0
220
0.0
230
1.0
 70
     8
 71
     3
 72
    11
 73
     7
 74
     0
 42
0.000000001
 43
0.00000001
 40
0.0
 40
0.0
 40
0.0
 40
0.0
 40
0.2798903849624018
 40
0.5594964420644599
 40
0.7796718965173802
 40
1.0
 40
1.0
 40
1.0
 40
1.0
 10
227.6686338826061
 20
121.882078808376
 30
0.0
 10
227.7113908243266
 20
121.8792262901041
 30
0.0
 10
227.796861272943
 20
121.8735241513033
 30
0.0
 10
227.905631528046
 20
121.8198990693739
 30
0.0
 10
227.9891518535587
 20
121.747859701289
 30
0.0
 10
228.0275753747572
 20
121.6928080499181
 30
0.0
 10
228.0467937928659
 20
121.665272685625
 30
0.0
  0
SPLINE
  5
202
330
1F
100
AcDbEntity
  8
0
  6
Continuous
 62
     7
370
    18
100
AcDbSpline
210
0.0
220
0.0
230
1.0
 70
     8
 71
     3
 72
    13
 73
     9
 74
     0
 42
0.000000001
 43
0.00000001
 40
0.0
 40
0.0
 40
0.0
 40
0.0
 40
0.2504890583456467
 40
0.5006738274425612
 40
0.6258446378555186
 40
0.7507584155659023
 40
0.8753007099299301
 40
0.9999999999999999
 40
0.9999999999999999
 40
0.9999999999999999
 40
0.9999999999999999
 10
227.120364552957
 20
120.8272336342224
 30
0.0
 10
227.1230831675721
 20
120.9374738315801
 30
0.0
 10
227.128517094282
 20
121.1578203086424
 30
0.0
 10
227.1785704663236
 20
121.4312477441898
 30
0.0
 10
227.2635059917009
 20
121.6357052784749
 30
0.0
 10
227.3604940673899
 20
121.771217899554
 30
0.0
 10
227.5024497304735
 20
121.8673171816424
 30
0.0
 10
227.6132159082557
 20
121.8771562002862
 30
0.0
 10
227.6686338826061
 20
121.882078808376
 30
0.0
  0
SPLINE
  5
203
330
1F
100
AcDbEntity
  8
0
  6
Continuous
 62
     7
370
    18
100
AcDbSpline
210
0.0
220
0.0
230
1.0
 70
     8
 71
     3
 72
    13
 73
     9
 74
     0
 42
0.000000001
 43
0.00000001
 40
0.0
 40
0.0
 40
0.0
 40
0.0
 40
0.1245870753534851
 40
0.2492227148385392
 40
0.3742192396120911
 40
0.4992998133209625
 40
0.7494812006579981
 40
1.0
 40
1.0
 40
1.0
 40
1.0
 10
227.6661322734974
 20
119.7740561994745
 30
0.0
 10
227.6108686302086
 20
119.7796928957516
 30
0.0
 10
227.5003198018231
 20
119.790968485494
 30
0.0
 10
227.3615308456003
 20
119.8896014983303
 30
0.0
 10
227.2584917369173
 20
120.0196058348903
 30
0.0
 10
227.1724678517488
 20
120.2239517859439
 30
0.0
 10
227.1272969651296
 20
120.4974539651297
 30
0.0
 10
227.1226763949184
 20
120.717257704053
 30
0.0
 10
227.120364552957
 20
120.8272336342224
 30
0.0
  0
SPLINE
  5
204
330
1F
100
AcDbEntity
  8
0
  6
Continuous
 62
     7
370
    18
100
AcDbSpline
210
0.0
220
0.0
230
1.0
 70
     8
 71
     3
 72
    13
 73
     9
 74
     0
 42
0.000000001
 43
0.00000001
 40
0.0
 40
0.0
 40
0.0
 40
0.0
 40
0.2504702058475083
 40
0.5006494994159222
 40
0.6258027062132809
 40
0.7507410958263516
 40
0.8752785399750088
 40
1.0
 40
1.0
 40
1.0
 40
1.0
 10
228.2144016031464
 20
120.8272336342224
 30
0.0
 10
228.2116881078913
 20
120.7171011786708
 30
0.0
 10
228.2062642690098
 20
120.4969641825168
 30
0.0
 10
228.1554944112857
 20
120.2240335822809
 30
0.0
 10
228.0711426638501
 20
120.0196094698296
 30
0.0
 10
227.9742599038937
 20
119.8841546410972
 30
0.0
 10
227.8321832870247
 20
119.7884763762954
 30
0.0
 10
227.7215098463016
 20
119.7788652902159
 30
0.0
 10
227.6661322734974
 20
119.7740561994745
 30
0.0
  0
SPLINE
  5
205
330
1F
100
AcDbEntity
  8
0
  6
Continuous
 62
     7
370
    18
100
AcDbSpline
210
0.0
220
0.0
230
1.0
 70
     8
 71
     3
 72
    12
 73
     8
 74
     0
 42
0.000000001
 43
0.00000001
 40
0.0
 40
0.0
 40
0.0
 40
0.0
 40
0.1861323399318207
 40
0.3726108819815576
 40
0.5594136204052326
 40
0.7795030968206007
 40
1.0
 40
1.0
 40
1.0
 40
1.0
 10
226.4057382175818
 20
121.1616153850806
 30
0.0
 10
226.4633805325169
 20
121.1549294846977
 30
0.0
 10
226.5787723758434
 20
121.1415452483021
 30
0.0
 10
226.720918100672
 20
121.0344336041387
 30
0.0
 10
226.8320881194763
 20
120.8888722863259
 30
0.0
 10
226.8978850192571
 20
120.7035476758278
 30
0.0
 10
226.9038890950327
 20
120.5681287747165
 30
0.0
 10
226.9068939090176
 20
120.5003567106902
 30
0.0
  0
SPLINE
  5
206
330
1F
100
AcDbEntity
  8
0
  6
Continuous
 62
     7
370
    18
100
AcDbSpline
210
0.0
220
0.0
230
1.0
 70
     8
 71
     3
 72
     9
 73
     5
 74
     0
 42
0.000000001
 43
0.00000001
 40
0.0
 40
0.0
 40
0.0
 40
0.0
 40
0.5597945537684227
 40
1.0
 40
1.0
 40
1.0
 40
1.0
 10
226.1013757760276
 20
121.0811469587518
 30
0.0
 10
226.155496582068
 20
121.1069549638974
 30
0.0
 10
226.2521763473071
 20
121.1530576009663
 30
0.0
 10
226.3588013227066
 20
121.1589996588419
 30
0.0
 10
226.4057382175818
 20
121.1616153850806
 30
0.0
  0
LINE
  5
207
330
1F
100
AcDbEntity
  8
0
  6
Continuous
 62
     7
370
    18
100
AcDbLine
 10
226.1785087235
 20
121.588556673
 30
0.0
 11
226.101375776
 21
121.0811469588
 31
0.0
  0
LINE
  5
208
330
1F
100
AcDbEntity
  8
0
  6
Continuous
 62
     7
370
    18
100
AcDbLine
 10
226.8268424175
 20
121.588556673
 30
0.0
 11
226.1785087235
 21
121.588556673
 31
0.0
  0
LINE
  5
209
330
1F
100
AcDbEntity
  8
0
  6
Continuous
 62
     7
370
    18
100
AcDbLine
 10
226.8268424175
 20
121.8287111474
 30
0.0
 11
226.8268424175
 21
121.588556673
 31
0.0
  0
LINE
  5
20A
330
1F
100
AcDbEntity
  8
0
  6
Continuous
 62
     7
370
    18
100
AcDbLine
 10
225.9996436723
 20
121.8287111474
 30
0.0
 11
226.8268424175
 21
121.8287111474
 31
0.0
  0
LINE
  5
20B
330
1F
100
AcDbEntity
  8
0
  6
Continuous
 62
     7
370
    18
100
AcDbLine
 10
225.8395406893
 20
120.7759506475
 30
0.0
 11
225.9996436723
 21
121.8287111474
 31
0.0
  0
LINE
  5
20C
330
1F
100
AcDbEntity
  8
0
  6
Continuous
 62
     7
370
    18
100
AcDbLine
 10
226.0530113333
 20
120.7455144033
 30
0.0
 11
225.8395406893
 21
120.7759506475
 31
0.0
  0
SPLINE
  5
20D
330
1F
100
AcDbEntity
  8
0
  6
Continuous
 62
     7
370
    18
100
AcDbSpline
210
0.0
220
0.0
230
1.0
 70
     8
 71
     3
 72
    10
 73
     6
 74
     0
 42
0.000000001
 43
0.00000001
 40
0.0
 40
0.0
 40
0.0
 40
0.0
 40
0.28016827716769
 40
0.5607715634932497
 40
0.9999999999999999
 40
0.9999999999999999
 40
0.9999999999999999
 40
0.9999999999999999
 10
226.3461165338253
 20
120.9481447411411
 30
0.0
 10
226.3111285205876
 20
120.9442777732911
 30
0.0
 10
226.241098169239
 20
120.9365378334623
 30
0.0
 10
226.1302536566819
 20
120.8698832911089
 30
0.0
 10
226.0822824842658
 20
120.7926442711766
 30
0.0
 10
226.0530113332601
 20
120.7455144033393
 30
0.0
  0
SPLINE
  5
20E
330
1F
100
AcDbEntity
  8
0
  6
Continuous
 62
     7
370
    18
100
AcDbSpline
210
0.0
220
0.0
230
1.0
 70
     8
 71
     3
 72
    11
 73
     7
 74
     0
 42
0.000000001
 43
0.00000001
 40
0.0
 40
0.0
 40
0.0
 40
0.0
 40
0.2810318196216979
 40
0.5605860755662309
 40
0.7803889752949
 40
1.0
 40
1.0
 40
1.0
 40
1.0
 10
226.6934232650783
 20
120.4886825348497
 30
0.0
 10
226.6905667719128
 20
120.5492342829788
 30
0.0
 10
226.6848688039899
 20
120.6700194200429
 30
0.0
 10
226.6108269567488
 20
120.8251207134945
 30
0.0
 10
226.4891349004676
 20
120.9312296899749
 30
0.0
 10
226.3937754427801
 20
120.9425080323574
 30
0.0
 10
226.3461165338253
 20
120.9481447411411
 30
0.0
  0
SPLINE
  5
20F
330
1F
100
AcDbEntity
  8
0
  6
Continuous
 62
     7
370
    18
100
AcDbSpline
210
0.0
220
0.0
230
1.0
 70
     8
 71
     3
 72
    12
 73
     8
 74
     0
 42
0.000000001
 43
0.00000001
 40
0.0
 40
0.0
 40
0.0
 40
0.0
 40
0.1858835197478842
 40
0.3723018513499641
 40
0.5590684864252723
 40
0.7793243380015258
 40
1.0
 40
1.0
 40
1.0
 40
1.0
 10
226.3406963807565
 20
119.9875268434139
 30
0.0
 10
226.3831976839397
 20
119.9930488339004
 30
0.0
 10
226.468322572264
 20
120.0041087023819
 30
0.0
 10
226.5691104045813
 20
120.0889972292653
 30
0.0
 10
226.6450010340275
 20
120.2005687834846
 30
0.0
 10
226.6873472839981
 20
120.3388820553577
 30
0.0
 10
226.6913966529182
 20
120.4387173573243
 30
0.0
 10
226.6934232650783
 20
120.4886825348497
 30
0.0
  0
SPLINE
  5
210
330
1F
100
AcDbEntity
  8
0
  6
Continuous
 62
     7
370
    18
100
AcDbSpline
210
0.0
220
0.0
230
1.0
 70
     8
 71
     3
 72
    11
 73
     7
 74
     0
 42
0.000000001
 43
0.00000001
 40
0.0
 40
0.0
 40
0.0
 40
0.0
 40
0.2811074381184339
 40
0.561116001753281
 40
0.7809929910720526
 40
1.0
 40
1.0
 40
1.0
 40
1.0
 10
226.0263275027676
 20
120.3877843008002
 30
0.0
 10
226.0345432317204
 20
120.3361380510814
 30
0.0
 10
226.0509425735961
 20
120.2330474415204
 30
0.0
 10
226.115197358897
 20
120.1007591933864
 30
0.0
 10
226.2175749169135
 20
120.005807854408
 30
0.0
 10
226.2997101638345
 20
119.9936124556116
 30
0.0
 10
226.3406963807565
 20
119.9875268434139
 30
0.0
  0
LINE
  5
211
330
1F
100
AcDbEntity
  8
0
  6
Continuous
 62
     7
370
    18
100
AcDbLine
 10
225.8128568588
 20
120.3611004703
 30
0.0
 11
226.0263275028
 21
120.3877843008
 31
0.0
  0
SPLINE
  5
212
330
1F
100
AcDbEntity
  8
0
  6
Continuous
 62
     7
370
    18
100
AcDbSpline
210
0.0
220
0.0
230
1.0
 70
     8
 71
     3
 72
    12
 73
     8
 74
     0
 42
0.000000001
 43
0.00000001
 40
0.0
 40
0.0
 40
0.0
 40
0.0
 40
0.186588588665428
 40
0.3730457041861948
 40
0.5597053661028956
 40
0.779617923097943
 40
1.0
 40
1.0
 40
1.0
 40
1.0
 10
226.3427810550137
 20
119.7740561994745
 30
0.0
 10
226.2879640817474
 20
119.7784180475193
 30
0.0
 10
226.1783687600841
 20
119.7871386701848
 30
0.0
 10
226.0326752851598
 20
119.8709550334636
 30
0.0
 10
225.9136280867897
 20
119.9989935805114
 30
0.0
 10
225.8366876885834
 20
120.1692950495284
 30
0.0
 10
225.8208061139933
 20
120.2971198935726
 30
0.0
 10
225.8128568588282
 20
120.3611004703078
 30
0.0
  0
SPLINE
  5
213
330
1F
100
AcDbEntity
  8
0
  6
Continuous
 62
     7
370
    18
100
AcDbSpline
210
0.0
220
0.0
230
1.0
 70
     8
 71
     3
 72
    13
 73
     9
 74
     0
 42
0.000000001
 43
0.00000001
 40
0.0
 40
0.0
 40
0.0
 40
0.0
 40
0.1868890796518117
 40
0.3736670037034783
 40
0.5603596573753068
 40
0.7069433013335557
 40
0.853382774757126
 40
1.0
 40
1.0
 40
1.0
 40
1.0
 10
226.9068939090176
 20
120.5003567106902
 30
0.0
 10
226.9038003289754
 20
120.4364378918732
 30
0.0
 10
226.8976150088528
 20
120.3086382710922
 30
0.0
 10
226.8404516932114
 20
120.1238663953842
 30
0.0
 10
226.7496676806956
 20
119.9691013332508
 30
0.0
 10
226.6317985861015
 20
119.8528416503877
 30
0.0
 10
226.4936145149028
 20
119.7846054940535
 30
0.0
 10
226.3930792013447
 20
119.7775740526273
 30
0.0
 10
226.3427810550137
 20
119.7740561994745
 30
0.0
  0
LINE
  5
214
330
1F
100
AcDbEntity
  8
0
  6
Continuous
 62
     7
370
    18
100
AcDbLine
 10
225.0123419441
 20
120.6546226057
 30
0.0
 11
225.6527538759
 21
120.6546226057
 31
0.0
  0
LINE
  5
215
330
1F
100
AcDbEntity
  8
0
  6
Continuous
 62
     7
370
    18
100
AcDbLine
 10
225.0123419441
 20
120.4144681313
 30
0.0
 11
225.0123419441
 21
120.6546226057
 31
0.0
  0
LINE
  5
216
330
1F
100
AcDbEntity
  8
0
  6
Continuous
 62
     7
370
    18
100
AcDbLine
 10
225.6527538759
 20
120.4144681313
 30
0.0
 11
225.0123419441
 21
120.4144681313
 31
0.0
  0
LINE
  5
217
330
1F
100
AcDbEntity
  8
0
  6
Continuous
 62
     7
370
    18
100
AcDbLine
 10
225.6527538759
 20
120.6546226057
 30
0.0
 11
225.6527538759
 21
120.4144681313
 31
0.0
  0
SPLINE
  5
218
330
1F
100
AcDbEntity
  8
0
  6
Continuous
 62
     7
370
    18
100
AcDbSpline
210
0.0
220
0.0
230
1.0
 70
     8
 71
     3
 72
    12
 73
     8
 74
     0
 42
0.000000001
 43
0.00000001
 40
0.0
 40
0.0
 40
0.0
 40
0.0
 40
0.1871057595240078
 40
0.3740211604078918
 40
0.5608338669252976
 40
0.780358512659648
 40
1.0
 40
1.0
 40
1.0
 40
1.0
 10
224.8255551306085
 20
120.3973738023835
 30
0.0
 10
224.8226060222849
 20
120.3396802523748
 30
0.0
 10
224.8167108060169
 20
120.2243518489242
 30
0.0
 10
224.7572104808729
 20
120.0589294879336
 30
0.0
 10
224.6472962580485
 20
119.9114338386344
 30
0.0
 10
224.4846031817935
 20
119.7942220414962
 30
0.0
 10
224.3480714422173
 20
119.7807793389736
 30
0.0
 10
224.2797874100682
 20
119.7740561994745
 30
0.0
  0
SPLINE
  5
219
330
1F
100
AcDbEntity
  8
0
  6
Continuous
 62
     7
370
    18
100
AcDbSpline
210
0.0
220
0.0
230
1.0
 70
     8
 71
     3
 72
    11
 73
     7
 74
     0
 42
0.000000001
 43
0.00000001
 40
0.0
 40
0.0
 40
0.0
 40
0.0
 40
0.2796220600248668
 40
0.5590245428560703
 40
0.7793847317261622
 40
1.0
 40
1.0
 40
1.0
 40
1.0
 10
224.4982612722249
 20
120.9281318682718
 30
0.0
 10
224.5545278008394
 20
120.9002965823237
 30
0.0
 10
224.6670166739778
 20
120.8446478684811
 30
0.0
 10
224.7707863633752
 20
120.6982259669177
 30
0.0
 10
224.8187204099065
 20
120.5443494960876
 30
0.0
 10
224.8232760119884
 20
120.4463845893406
 30
0.0
 10
224.8255551306085
 20
120.3973738023835
 30
0.0
  0
SPLINE
  5
21A
330
1F
100
AcDbEntity
  8
0
  6
Continuous
 62
     7
370
    18
100
AcDbSpline
210
0.0
220
0.0
230
1.0
 70
     8
 71
     3
 72
    11
 73
     7
 74
     0
 42
0.000000001
 43
0.00000001
 40
0.0
 40
0.0
 40
0.0
 40
0.0
 40
0.280190175248952
 40
0.5597317672418756
 40
0.7798035967389092
 40
1.0
 40
1.0
 40
1.0
 40
1.0
 10
224.7455036391313
 20
121.3425651106073
 30
0.0
 10
224.7428596158802
 20
121.2945671164794
 30
0.0
 10
224.7375776897539
 20
121.1986822338156
 30
0.0
 10
224.6824456251106
 20
121.0739848762542
 30
0.0
 10
224.5980694771944
 20
120.981752794394
 30
0.0
 10
224.531536949001
 20
120.9460088815557
 30
0.0
 10
224.4982612722249
 20
120.9281318682718
 30
0.0
  0
SPLINE
  5
21B
330
1F
100
AcDbEntity
  8
0
  6
Continuous
 62
     7
370
    18
100
AcDbSpline
210
0.0
220
0.0
230
1.0
 70
     8
 71
     3
 72
    12
 73
     8
 74
     0
 42
0.000000001
 43
0.00000001
 40
0.0
 40
0.0
 40
0.0
 40
0.0
 40
0.186681894936979
 40
0.3730939207975781
 40
0.5598445729636943
 40
0.7796788980924663
 40
0.9999999999999999
 40
0.9999999999999999
 40
0.9999999999999999
 40
0.9999999999999999
 10
224.2764519312566
 20
121.882078808376
 30
0.0
 10
224.3264022526278
 20
121.8780433428358
 30
0.0
 10
224.4262306867231
 20
121.8699782454616
 30
0.0
 10
224.5588614959804
 20
121.7928571947594
 30
0.0
 10
224.6649850277839
 20
121.674453852686
 30
0.0
 10
224.7354739593621
 20
121.5188361757104
 30
0.0
 10
224.7421579485553
 20
121.4013654367294
 30
0.0
 10
224.7455036391313
 20
121.3425651106073
 30
0.0
  0
SPLINE
  5
21C
330
1F
100
AcDbEntity
  8
0
  6
Continuous
 62
     7
370
    18
100
AcDbSpline
210
0.0
220
0.0
230
1.0
 70
     8
 71
     3
 72
    12
 73
     8
 74
     0
 42
0.000000001
 43
0.00000001
 40
0.0
 40
0.0
 40
0.0
 40
0.0
 40
0.1871377587295394
 40
0.3740411921344253
 40
0.5608494686677218
 40
0.7803659435040498
 40
1.0
 40
1.0
 40
1.0
 40
1.0
 10
223.8115695718964
 20
121.3509038076362
 30
0.0
 10
223.8141186691318
 20
121.4001035614284
 30
0.0
 10
223.8192136717398
 20
121.4984414633361
 30
0.0
 10
223.8693473954222
 20
121.6396211972053
 30
0.0
 10
223.9624045314111
 20
121.7660589974063
 30
0.0
 10
224.1018906163394
 20
121.8650560498168
 30
0.0
 10
224.2182544408919
 20
121.8764035427669
 30
0.0
 10
224.2764519312566
 20
121.882078808376
 30
0.0
  0
SPLINE
  5
21D
330
1F
100
AcDbEntity
  8
0
  6
Continuous
 62
     7
370
    18
100
AcDbSpline
210
0.0
220
0.0
230
1.0
 70
     8
 71
     3
 72
    11
 73
     7
 74
     0
 42
0.000000001
 43
0.00000001
 40
0.0
 40
0.0
 40
0.0
 40
0.0
 40
0.2798399979573827
 40
0.5592260384591591
 40
0.7795665615265378
 40
1.0
 40
1.0
 40
1.0
 40
1.0
 10
224.0613135479115
 20
120.9281318682718
 30
0.0
 10
224.018371085167
 20
120.9519894181484
 30
0.0
 10
223.9325558210964
 20
120.9996658160981
 30
0.0
 10
223.8529792409163
 20
121.1149474326666
 30
0.0
 10
223.8162871082596
 20
121.2358004291435
 30
0.0
 10
223.8131423049929
 20
121.3125306232155
 30
0.0
 10
223.8115695718964
 20
121.3509038076362
 30
0.0
  0
SPLINE
  5
21E
330
1F
100
AcDbEntity
  8
0
  6
Continuous
 62
     7
370
    18
100
AcDbSpline
210
0.0
220
0.0
230
1.0
 70
     8
 71
     3
 72
    11
 73
     7
 74
     0
 42
0.000000001
 43
0.00000001
 40
0.0
 40
0.0
 40
0.0
 40
0.0
 40
0.2804755498465807
 40
0.5600957930369871
 40
0.7800256682201216
 40
0.9999999999999999
 40
0.9999999999999999
 40
0.9999999999999999
 40
0.9999999999999999
 10
223.7315180804191
 20
120.404461694858
 30
0.0
 10
223.7348444733661
 20
120.4668481272793
 30
0.0
 10
223.7414871154667
 20
120.5914307454821
 30
0.0
 10
223.8127267403475
 20
120.753264454076
 30
0.0
 10
223.9245184212809
 20
120.8726883053006
 30
0.0
 10
224.0157121003653
 20
120.9096494355209
 30
0.0
 10
224.0613135479115
 20
120.9281318682718
 30
0.0
  0
SPLINE
  5
21F
330
1F
100
AcDbEntity
  8
0
  6
Continuous
 62
     7
370
    18
100
AcDbSpline
210
0.0
220
0.0
230
1.0
 70
     8
 71
     3
 72
    12
 73
     8
 74
     0
 42
0.000000001
 43
0.00000001
 40
0.0
 40
0.0
 40
0.0
 40
0.0
 40
0.1866482491791798
 40
0.373098809050698
 40
0.5597919176482341
 40
0.7796545203293587
 40
1.0
 40
1.0
 40
1.0
 40
1.0
 10
224.2797874100682
 20
119.7740561994745
 30
0.0
 10
224.2213757225353
 20
119.7788166021698
 30
0.0
 10
224.1046142144633
 20
119.7883323655591
 30
0.0
 10
223.9492385417291
 20
119.8777541877127
 30
0.0
 10
223.8237009196898
 20
120.0153238892152
 30
0.0
 10
223.7431687163296
 20
120.1983754718156
 30
0.0
 10
223.7354044646668
 20
120.3357160695513
 30
0.0
 10
223.7315180804191
 20
120.404461694858
 30
0.0
  0
SPLINE
  5
220
330
1F
100
AcDbEntity
  8
0
  6
Continuous
 62
     7
370
    18
100
AcDbSpline
210
0.0
220
0.0
230
1.0
 70
     8
 71
     3
 72
    10
 73
     6
 74
     0
 42
0.000000001
 43
0.00000001
 40
0.0
 40
0.0
 40
0.0
 40
0.0
 40
0.2795751783825466
 40
0.5597049368157174
 40
0.9999999999999999
 40
0.9999999999999999
 40
0.9999999999999999
 40
0.9999999999999999
 10
223.3504396261992
 20
121.665272685625
 30
0.0
 10
223.3863181671047
 20
121.592769538158
 30
0.0
 10
223.4581464194793
 20
121.4476194221615
 30
0.0
 10
223.5077445427831
 20
121.1610977621756
 30
0.0
 10
223.51413924701
 20
120.9538780806878
 30
0.0
 10
223.5180474364797
 20
120.8272336342224
 30
0.0
  0
SPLINE
  5
221
330
1F
100
AcDbEntity
  8
0
  6
Continuous
 62
     7
370
    18
100
AcDbSpline
210
0.0
220
0.0
230
1.0
 70
     8
 71
     3
 72
    11
 73
     7
 74
     0
 42
0.000000001
 43
0.00000001
 40
0.0
 40
0.0
 40
0.0
 40
0.0
 40
0.2798903849624088
 40
0.5594964420644596
 40
0.7796718965173852
 40
1.0
 40
1.0
 40
1.0
 40
1.0
 10
222.9722797159394
 20
121.882078808376
 30
0.0
 10
223.0150366576599
 20
121.8792262901041
 30
0.0
 10
223.1005071062764
 20
121.8735241513033
 30
0.0
 10
223.2092773613793
 20
121.8198990693739
 30
0.0
 10
223.292797686892
 20
121.747859701289
 30
0.0
 10
223.3312212080905
 20
121.6928080499181
 30
0.0
 10
223.3504396261992
 20
121.6652726856251
 30
0.0
  0
SPLINE
  5
222
330
1F
100
AcDbEntity
  8
0
  6
Continuous
 62
     7
370
    18
100
AcDbSpline
210
0.0
220
0.0
230
1.0
 70
     8
 71
     3
 72
    13
 73
     9
 74
     0
 42
0.000000001
 43
0.00000001
 40
0.0
 40
0.0
 40
0.0
 40
0.0
 40
0.2504890583456496
 40
0.5006738274425622
 40
0.6258446378555197
 40
0.750758415565902
 40
0.87530070992993
 40
1.0
 40
1.0
 40
1.0
 40
1.0
 10
222.4240103862904
 20
120.8272336342224
 30
0.0
 10
222.4267290009055
 20
120.9374738315801
 30
0.0
 10
222.4321629276154
 20
121.1578203086424
 30
0.0
 10
222.482216299657
 20
121.4312477441898
 30
0.0
 10
222.5671518250342
 20
121.6357052784749
 30
0.0
 10
222.6641399007232
 20
121.771217899554
 30
0.0
 10
222.8060955638068
 20
121.8673171816424
 30
0.0
 10
222.916861741589
 20
121.8771562002862
 30
0.0
 10
222.9722797159394
 20
121.882078808376
 30
0.0
  0
SPLINE
  5
223
330
1F
100
AcDbEntity
  8
0
  6
Continuous
 62
     7
370
    18
100
AcDbSpline
210
0.0
220
0.0
230
1.0
 70
     8
 71
     3
 72
    13
 73
     9
 74
     0
 42
0.000000001
 43
0.00000001
 40
0.0
 40
0.0
 40
0.0
 40
0.0
 40
0.1245870753534826
 40
0.2492227148385389
 40
0.3742192396120909
 40
0.4992998133209623
 40
0.749481200657998
 40
1.0
 40
1.0
 40
1.0
 40
1.0
 10
222.9697781068307
 20
119.7740561994745
 30
0.0
 10
222.9145144635419
 20
119.7796928957516
 30
0.0
 10
222.8039656351564
 20
119.790968485494
 30
0.0
 10
222.6651766789336
 20
119.8896014983303
 30
0.0
 10
222.5621375702506
 20
120.0196058348903
 30
0.0
 10
222.4761136850822
 20
120.2239517859438
 30
0.0
 10
222.430942798463
 20
120.4974539651297
 30
0.0
 10
222.4263222282517
 20
120.7172577040531
 30
0.0
 10
222.4240103862904
 20
120.8272336342224
 30
0.0
  0
SPLINE
  5
224
330
1F
100
AcDbEntity
  8
0
  6
Continuous
 62
     7
370
    18
100
AcDbSpline
210
0.0
220
0.0
230
1.0
 70
     8
 71
     3
 72
    13
 73
     9
 74
     0
 42
0.000000001
 43
0.00000001
 40
0.0
 40
0.0
 40
0.0
 40
0.0
 40
0.2504702058475084
 40
0.5006494994159216
 40
0.6258027062132813
 40
0.7507410958263498
 40
0.8752785399750063
 40
1.0
 40
1.0
 40
1.0
 40
1.0
 10
223.5180474364797
 20
120.8272336342224
 30
0.0
 10
223.5153339412246
 20
120.7171011786708
 30
0.0
 10
223.5099101023431
 20
120.4969641825168
 30
0.0
 10
223.4591402446191
 20
120.2240335822809
 30
0.0
 10
223.3747884971835
 20
120.0196094698296
 30
0.0
 10
223.277905737227
 20
119.8841546410973
 30
0.0
 10
223.1358291203581
 20
119.7884763762954
 30
0.0
 10
223.025155679635
 20
119.7788652902159
 30
0.0
 10
222.9697781068307
 20
119.7740561994745
 30
0.0
  0
SPLINE
  5
225
330
1F
100
AcDbEntity
  8
0
  6
Continuous
 62
     7
370
    18
100
AcDbSpline
210
0.0
220
0.0
230
1.0
 70
     8
 71
     3
 72
    12
 73
     8
 74
     0
 42
0.000000001
 43
0.00000001
 40
0.0
 40
0.0
 40
0.0
 40
0.0
 40
0.1861323399318203
 40
0.3726108819815547
 40
0.5594136204052346
 40
0.779503096820601
 40
1.0
 40
1.0
 40
1.0
 40
1.0
 10
221.7093840509151
 20
121.1616153850806
 30
0.0
 10
221.7670263658502
 20
121.1549294846977
 30
0.0
 10
221.8824182091767
 20
121.1415452483021
 30
0.0
 10
222.0245639340054
 20
121.0344336041387
 30
0.0
 10
222.1357339528096
 20
120.8888722863259
 30
0.0
 10
222.2015308525905
 20
120.7035476758278
 30
0.0
 10
222.207534928366
 20
120.5681287747165
 30
0.0
 10
222.210539742351
 20
120.5003567106902
 30
0.0
  0
SPLINE
  5
226
330
1F
100
AcDbEntity
  8
0
  6
Continuous
 62
     7
370
    18
100
AcDbSpline
210
0.0
220
0.0
230
1.0
 70
     8
 71
     3
 72
     9
 73
     5
 74
     0
 42
0.000000001
 43
0.00000001
 40
0.0
 40
0.0
 40
0.0
 40
0.0
 40
0.5597945537684227
 40
1.0
 40
1.0
 40
1.0
 40
1.0
 10
221.4050216093609
 20
121.0811469587518
 30
0.0
 10
221.4591424154013
 20
121.1069549638974
 30
0.0
 10
221.5558221806404
 20
121.1530576009663
 30
0.0
 10
221.6624471560399
 20
121.1589996588419
 30
0.0
 10
221.7093840509151
 20
121.1616153850806
 30
0.0
  0
LINE
  5
227
330
1F
100
AcDbEntity
  8
0
  6
Continuous
 62
     7
370
    18
100
AcDbLine
 10
221.4821545569
 20
121.588556673
 30
0.0
 11
221.4050216094
 21
121.0811469588
 31
0.0
  0
LINE
  5
228
330
1F
100
AcDbEntity
  8
0
  6
Continuous
 62
     7
370
    18
100
AcDbLine
 10
222.1304882509
 20
121.588556673
 30
0.0
 11
221.4821545569
 21
121.588556673
 31
0.0
  0
LINE
  5
229
330
1F
100
AcDbEntity
  8
0
  6
Continuous
 62
     7
370
    18
100
AcDbLine
 10
222.1304882509
 20
121.8287111474
 30
0.0
 11
222.1304882509
 21
121.588556673
 31
0.0
  0
LINE
  5
22A
330
1F
100
AcDbEntity
  8
0
  6
Continuous
 62
     7
370
    18
100
AcDbLine
 10
221.3032895056
 20
121.8287111474
 30
0.0
 11
222.1304882509
 21
121.8287111474
 31
0.0
  0
LINE
  5
22B
330
1F
100
AcDbEntity
  8
0
  6
Continuous
 62
     7
370
    18
100
AcDbLine
 10
221.1431865227
 20
120.7759506475
 30
0.0
 11
221.3032895056
 21
121.8287111474
 31
0.0
  0
LINE
  5
22C
330
1F
100
AcDbEntity
  8
0
  6
Continuous
 62
     7
370
    18
100
AcDbLine
 10
221.3566571666
 20
120.7455144033
 30
0.0
 11
221.1431865227
 21
120.7759506475
 31
0.0
  0
SPLINE
  5
22D
330
1F
100
AcDbEntity
  8
0
  6
Continuous
 62
     7
370
    18
100
AcDbSpline
210
0.0
220
0.0
230
1.0
 70
     8
 71
     3
 72
    10
 73
     6
 74
     0
 42
0.000000001
 43
0.00000001
 40
0.0
 40
0.0
 40
0.0
 40
0.0
 40
0.2801682771676852
 40
0.5607715634932546
 40
0.9999999999999999
 40
0.9999999999999999
 40
0.9999999999999999
 40
0.9999999999999999
 10
221.6497623671586
 20
120.9481447411411
 30
0.0
 10
221.614774353921
 20
120.9442777732911
 30
0.0
 10
221.5447440025723
 20
120.9365378334623
 30
0.0
 10
221.4338994900152
 20
120.8698832911089
 30
0.0
 10
221.3859283175991
 20
120.7926442711766
 30
0.0
 10
221.3566571665934
 20
120.7455144033393
 30
0.0
  0
SPLINE
  5
22E
330
1F
100
AcDbEntity
  8
0
  6
Continuous
 62
     7
370
    18
100
AcDbSpline
210
0.0
220
0.0
230
1.0
 70
     8
 71
     3
 72
    11
 73
     7
 74
     0
 42
0.000000001
 43
0.00000001
 40
0.0
 40
0.0
 40
0.0
 40
0.0
 40
0.281031819621698
 40
0.560586075566234
 40
0.7803889752948995
 40
1.0
 40
1.0
 40
1.0
 40
1.0
 10
221.9970690984116
 20
120.4886825348497
 30
0.0
 10
221.9942126052461
 20
120.5492342829788
 30
0.0
 10
221.9885146373232
 20
120.6700194200429
 30
0.0
 10
221.9144727900821
 20
120.8251207134945
 30
0.0
 10
221.792780733801
 20
120.9312296899749
 30
0.0
 10
221.6974212761134
 20
120.9425080323574
 30
0.0
 10
221.6497623671586
 20
120.9481447411411
 30
0.0
  0
SPLINE
  5
22F
330
1F
100
AcDbEntity
  8
0
  6
Continuous
 62
     7
370
    18
100
AcDbSpline
210
0.0
220
0.0
230
1.0
 70
     8
 71
     3
 72
    12
 73
     8
 74
     0
 42
0.000000001
 43
0.00000001
 40
0.0
 40
0.0
 40
0.0
 40
0.0
 40
0.185883519747879
 40
0.3723018513499667
 40
0.5590684864252746
 40
0.7793243380015261
 40
1.0
 40
1.0
 40
1.0
 40
1.0
 10
221.6443422140898
 20
119.9875268434139
 30
0.0
 10
221.686843517273
 20
119.9930488339004
 30
0.0
 10
221.7719684055973
 20
120.0041087023819
 30
0.0
 10
221.8727562379146
 20
120.0889972292653
 30
0.0
 10
221.9486468673608
 20
120.2005687834846
 30
0.0
 10
221.9909931173314
 20
120.3388820553577
 30
0.0
 10
221.9950424862516
 20
120.4387173573243
 30
0.0
 10
221.9970690984116
 20
120.4886825348497
 30
0.0
  0
SPLINE
  5
230
330
1F
100
AcDbEntity
  8
0
  6
Continuous
 62
     7
370
    18
100
AcDbSpline
210
0.0
220
0.0
230
1.0
 70
     8
 71
     3
 72
    11
 73
     7
 74
     0
 42
0.000000001
 43
0.00000001
 40
0.0
 40
0.0
 40
0.0
 40
0.0
 40
0.2811074381184405
 40
0.5611160017532826
 40
0.7809929910720504
 40
0.9999999999999999
 40
0.9999999999999999
 40
0.9999999999999999
 40
0.9999999999999999
 10
221.329973336101
 20
120.3877843008002
 30
0.0
 10
221.3381890650538
 20
120.3361380510814
 30
0.0
 10
221.3545884069295
 20
120.2330474415204
 30
0.0
 10
221.4188431922304
 20
120.1007591933864
 30
0.0
 10
221.5212207502469
 20
120.005807854408
 30
0.0
 10
221.6033559971679
 20
119.9936124556116
 30
0.0
 10
221.6443422140898
 20
119.9875268434139
 30
0.0
  0
LINE
  5
231
330
1F
100
AcDbEntity
  8
0
  6
Continuous
 62
     7
370
    18
100
AcDbLine
 10
221.1165026922
 20
120.3611004703
 30
0.0
 11
221.3299733361
 21
120.3877843008
 31
0.0
  0
SPLINE
  5
232
330
1F
100
AcDbEntity
  8
0
  6
Continuous
 62
     7
370
    18
100
AcDbSpline
210
0.0
220
0.0
230
1.0
 70
     8
 71
     3
 72
    12
 73
     8
 74
     0
 42
0.000000001
 43
0.00000001
 40
0.0
 40
0.0
 40
0.0
 40
0.0
 40
0.1865885886654317
 40
0.3730457041861948
 40
0.5597053661028953
 40
0.7796179230979425
 40
1.0
 40
1.0
 40
1.0
 40
1.0
 10
221.6464268883471
 20
119.7740561994745
 30
0.0
 10
221.5916099150807
 20
119.7784180475193
 30
0.0
 10
221.4820145934174
 20
119.7871386701848
 30
0.0
 10
221.3363211184932
 20
119.8709550334636
 30
0.0
 10
221.2172739201231
 20
119.9989935805114
 30
0.0
 10
221.1403335219167
 20
120.1692950495285
 30
0.0
 10
221.1244519473266
 20
120.2971198935726
 30
0.0
 10
221.1165026921616
 20
120.3611004703078
 30
0.0
  0
SPLINE
  5
233
330
1F
100
AcDbEntity
  8
0
  6
Continuous
 62
     7
370
    18
100
AcDbSpline
210
0.0
220
0.0
230
1.0
 70
     8
 71
     3
 72
    13
 73
     9
 74
     0
 42
0.000000001
 43
0.00000001
 40
0.0
 40
0.0
 40
0.0
 40
0.0
 40
0.1868890796518121
 40
0.373667003703479
 40
0.5603596573753061
 40
0.70694330133356
 40
0.8533827747571291
 40
1.0
 40
1.0
 40
1.0
 40
1.0
 10
222.210539742351
 20
120.5003567106902
 30
0.0
 10
222.2074461623088
 20
120.4364378918732
 30
0.0
 10
222.2012608421861
 20
120.3086382710922
 30
0.0
 10
222.1440975265447
 20
120.1238663953842
 30
0.0
 10
222.053313514029
 20
119.9691013332508
 30
0.0
 10
221.9354444194348
 20
119.8528416503877
 30
0.0
 10
221.7972603482361
 20
119.7846054940535
 30
0.0
 10
221.6967250346781
 20
119.7775740526273
 30
0.0
 10
221.6464268883471
 20
119.7740561994745
 30
0.0
  0
LINE
  5
234
330
1F
100
AcDbEntity
  8
0
  6
Continuous
 62
     7
370
    18
100
AcDbLine
 10
219.9244859519
 20
119.80074003
 30
0.0
 11
219.4354213711
 21
121.593976826
 31
0.0
  0
LINE
  5
235
330
1F
100
AcDbEntity
  8
0
  6
Continuous
 62
     7
370
    18
100
AcDbLine
 10
220.142959814
 20
119.80074003
 30
0.0
 11
219.9244859519
 21
119.80074003
 31
0.0
  0
LINE
  5
236
330
1F
100
AcDbEntity
  8
0
  6
Continuous
 62
     7
370
    18
100
AcDbLine
 10
220.6361937433
 20
121.4968310056
 30
0.0
 11
220.142959814
 21
119.80074003
 31
0.0
  0
LINE
  5
237
330
1F
100
AcDbEntity
  8
0
  6
Continuous
 62
     7
370
    18
100
AcDbLine
 10
220.6361937433
 20
119.80074003
 30
0.0
 11
220.6361937433
 21
121.4968310056
 31
0.0
  0
LINE
  5
238
330
1F
100
AcDbEntity
  8
0
  6
Continuous
 62
     7
370
    18
100
AcDbLine
 10
220.8496643872
 20
119.80074003
 30
0.0
 11
220.6361937433
 21
119.80074003
 31
0.0
  0
LINE
  5
239
330
1F
100
AcDbEntity
  8
0
  6
Continuous
 62
     7
370
    18
100
AcDbLine
 10
220.8496643872
 20
121.8553949779
 30
0.0
 11
220.8496643872
 21
119.80074003
 31
0.0
  0
LINE
  5
23A
330
1F
100
AcDbEntity
  8
0
  6
Continuous
 62
     7
370
    18
100
AcDbLine
 10
220.5473866199
 20
121.8553949779
 30
0.0
 11
220.8496643872
 21
121.8553949779
 31
0.0
  0
LINE
  5
23B
330
1F
100
AcDbEntity
  8
0
  6
Continuous
 62
     7
370
    18
100
AcDbLine
 10
220.1287840291
 20
120.4257253723
 30
0.0
 11
220.5473866199
 21
121.8553949779
 31
0.0
  0
SPLINE
  5
23C
330
1F
100
AcDbEntity
  8
0
  6
Continuous
 62
     7
370
    18
100
AcDbSpline
210
0.0
220
0.0
230
1.0
 70
     8
 71
     3
 72
     9
 73
     5
 74
     0
 42
0.000000001
 43
0.00000001
 40
0.0
 40
0.0
 40
0.0
 40
0.0
 40
0.5599947003108198
 40
1.0
 40
1.0
 40
1.0
 40
1.0
 10
220.0358075572184
 20
120.0963468396408
 30
0.0
 10
220.0527374635363
 20
120.1579506356697
 30
0.0
 10
220.0829697252141
 20
120.2679584553771
 30
0.0
 10
220.1147850969257
 20
120.3775184111207
 30
0.0
 10
220.1287840290904
 20
120.4257253722817
 30
0.0
  0
LINE
  5
23D
330
1F
100
AcDbEntity
  8
0
  6
Continuous
 62
     7
370
    18
100
AcDbLine
 10
219.9557560657
 20
120.4007092812
 30
0.0
 11
220.0358075572
 21
120.0963468396
 31
0.0
  0
LINE
  5
23E
330
1F
100
AcDbEntity
  8
0
  6
Continuous
 62
     7
370
    18
100
AcDbLine
 10
219.5559155432
 20
121.8553949779
 30
0.0
 11
219.9557560657
 21
120.4007092812
 31
0.0
  0
LINE
  5
23F
330
1F
100
AcDbEntity
  8
0
  6
Continuous
 62
     7
370
    18
100
AcDbLine
 10
219.2219507272
 20
121.8553949779
 30
0.0
 11
219.5559155432
 21
121.8553949779
 31
0.0
  0
LINE
  5
240
330
1F
100
AcDbEntity
  8
0
  6
Continuous
 62
     7
370
    18
100
AcDbLine
 10
219.2219507272
 20
119.80074003
 30
0.0
 11
219.2219507272
 21
121.8553949779
 31
0.0
  0
LINE
  5
241
330
1F
100
AcDbEntity
  8
0
  6
Continuous
 62
     7
370
    18
100
AcDbLine
 10
219.4354213711
 20
119.80074003
 30
0.0
 11
219.2219507272
 21
119.80074003
 31
0.0
  0
LINE
  5
242
330
1F
100
AcDbEntity
  8
0
  6
Continuous
 62
     7
370
    18
100
AcDbLine
 10
219.4354213711
 20
121.593976826
 30
0.0
 11
219.4354213711
 21
119.80074003
 31
0.0
  0
SPLINE
  5
243
330
1F
100
AcDbEntity
  8
0
  6
Continuous
 62
     7
370
    18
100
AcDbSpline
210
0.0
220
0.0
230
1.0
 70
     8
 71
     3
 72
    14
 73
    10
 74
     0
 42
0.000000001
 43
0.00000001
 40
0.0
 40
0.0
 40
0.0
 40
0.0
 40
0.1250267645254236
 40
0.2499561862380656
 40
0.3747506313882866
 40
0.4996959194189186
 40
0.6663177050472578
 40
0.8330998507676247
 40
1.0
 40
1.0
 40
1.0
 40
1.0
 10
218.2375675429398
 20
121.6419243339442
 30
0.0
 10
218.1915399547264
 20
121.6391080036344
 30
0.0
 10
218.0995206142655
 20
121.6334775357414
 30
0.0
 10
217.9694329045705
 20
121.5810192366849
 30
0.0
 10
217.8615787628475
 20
121.4924892243885
 30
0.0
 10
217.7747749593974
 20
121.3649318640614
 30
0.0
 10
217.7120602232694
 20
121.2073810872935
 30
0.0
 10
217.6790693061936
 20
121.0256622631822
 30
0.0
 10
217.6758825168162
 20
120.9031194357707
 30
0.0
 10
217.6742885586388
 20
120.8418263540229
 30
0.0
  0
SPLINE
  5
244
330
1F
100
AcDbEntity
  8
0
  6
Continuous
 62
     7
370
    18
100
AcDbSpline
210
0.0
220
0.0
230
1.0
 70
     8
 71
     3
 72
    11
 73
     7
 74
     0
 42
0.000000001
 43
0.00000001
 40
0.0
 40
0.0
 40
0.0
 40
0.0
 40
0.2807713074051796
 40
0.5604369820882236
 40
0.7800147849953726
 40
1.0
 40
1.0
 40
1.0
 40
1.0
 10
218.6882741173509
 20
121.2149830460654
 30
0.0
 10
218.6696806925048
 20
121.2753720283817
 30
0.0
 10
218.6325670607603
 20
121.3959121908133
 30
0.0
 10
218.5288957330133
 20
121.5421790932743
 30
0.0
 10
218.3867450575041
 20
121.6299536100936
 30
0.0
 10
218.2873240974683
 20
121.6379316278332
 30
0.0
 10
218.2375675429398
 20
121.6419243339442
 30
0.0
  0
LINE
  5
245
330
1F
100
AcDbEntity
  8
0
  6
Continuous
 62
     7
370
    18
100
AcDbLine
 10
218.9017447613
 20
121.2683507071
 30
0.0
 11
218.6882741174
 21
121.2149830461
 31
0.0
  0
SPLINE
  5
246
330
1F
100
AcDbEntity
  8
0
  6
Continuous
 62
     7
370
    18
100
AcDbSpline
210
0.0
220
0.0
230
1.0
 70
     8
 71
     3
 72
    12
 73
     8
 74
     0
 42
0.000000001
 43
0.00000001
 40
0.0
 40
0.0
 40
0.0
 40
0.0
 40
0.1866161660947038
 40
0.373065298577119
 40
0.5597027812570755
 40
0.7796715026895182
 40
1.0
 40
1.0
 40
1.0
 40
1.0
 10
218.2463231748202
 20
121.882078808376
 30
0.0
 10
218.3072833998412
 20
121.8776209951376
 30
0.0
 10
218.4291492865151
 20
121.8687093586936
 30
0.0
 10
218.5968216969807
 20
121.7873243673748
 30
0.0
 10
218.739790184998
 20
121.6547999399582
 30
0.0
 10
218.8445795388179
 20
121.4759393080412
 30
0.0
 10
218.8826793097651
 20
121.3375845915384
 30
0.0
 10
218.9017447612904
 20
121.2683507070502
 30
0.0
  0
SPLINE
  5
247
330
1F
100
AcDbEntity
  8
0
  6
Continuous
 62
     7
370
    18
100
AcDbSpline
210
0.0
220
0.0
230
1.0
 70
     8
 71
     3
 72
    13
 73
     9
 74
     0
 42
0.000000001
 43
0.00000001
 40
0.0
 40
0.0
 40
0.0
 40
0.0
 40
0.186988627014318
 40
0.3737840604657685
 40
0.5603785113196429
 40
0.7069405280508672
 40
0.8534458164057732
 40
1.0
 40
1.0
 40
1.0
 40
1.0
 10
217.4608179146994
 20
120.8418263540229
 30
0.0
 10
217.464045172043
 20
120.9328831607003
 30
0.0
 10
217.470496352381
 20
121.1149026956654
 30
0.0
 10
217.5396453068211
 20
121.3810443480662
 30
0.0
 10
217.6637394544583
 20
121.6060159910101
 30
0.0
 10
217.8357343437318
 20
121.7675218712424
 30
0.0
 10
218.0315837537837
 20
121.8652831749962
 30
0.0
 10
218.1747354064726
 20
121.876479641228
 30
0.0
 10
218.2463231748202
 20
121.882078808376
 30
0.0
  0
SPLINE
  5
248
330
1F
100
AcDbEntity
  8
0
  6
Continuous
 62
     7
370
    18
100
AcDbSpline
210
0.0
220
0.0
230
1.0
 70
     8
 71
     3
 72
    14
 73
    10
 74
     0
 42
0.000000001
 43
0.00000001
 40
0.0
 40
0.0
 40
0.0
 40
0.0
 40
0.1249789553015473
 40
0.2498098163504262
 40
0.3745823232578653
 40
0.4995715195159096
 40
0.6662781166416182
 40
0.8331039635850062
 40
1.0
 40
1.0
 40
1.0
 40
1.0
 10
218.2271441716537
 20
119.7740561994745
 30
0.0
 10
218.1654999378365
 20
119.7775443355113
 30
0.0
 10
218.0422845157535
 20
119.7845164743059
 30
0.0
 10
217.8675900047799
 20
119.8537175045347
 30
0.0
 10
217.723363159841
 20
119.9728099396166
 30
0.0
 10
217.6077016833392
 20
120.143980956521
 30
0.0
 10
217.5199154667061
 20
120.3531471552219
 30
0.0
 10
217.4685196881777
 20
120.5954448998381
 30
0.0
 10
217.4633855324696
 20
120.7596876879356
 30
0.0
 10
217.4608179146994
 20
120.8418263540229
 30
0.0
  0
SPLINE
  5
249
330
1F
100
AcDbEntity
  8
0
  6
Continuous
 62
     7
370
    18
100
AcDbSpline
210
0.0
220
0.0
230
1.0
 70
     8
 71
     3
 72
    13
 73
     9
 74
     0
 42
0.000000001
 43
0.00000001
 40
0.0
 40
0.0
 40
0.0
 40
0.0
 40
0.1869090516643014
 40
0.3736796016941322
 40
0.5601136847103859
 40
0.7067311959183747
 40
0.8533138294591281
 40
1.0
 40
1.0
 40
1.0
 40
1.0
 10
218.9284285917828
 20
120.4678357922775
 30
0.0
 10
218.9125747159977
 20
120.4025076393048
 30
0.0
 10
218.8808787123214
 20
120.2718997422292
 30
0.0
 10
218.7958157149025
 20
120.0879045558892
 30
0.0
 10
218.6781375503859
 20
119.9395852604153
 30
0.0
 10
218.5357279625908
 20
119.8397336553284
 30
0.0
 10
218.3855775256571
 20
119.7832289371768
 30
0.0
 10
218.2799677179829
 20
119.7771144982654
 30
0.0
 10
218.2271441716537
 20
119.7740561994745
 30
0.0
  0
LINE
  5
24A
330
1F
100
AcDbEntity
  8
0
  6
Continuous
 62
     7
370
    18
100
AcDbLine
 10
218.7149579478
 20
120.5212034533
 30
0.0
 11
218.9284285918
 21
120.4678357923
 31
0.0
  0
SPLINE
  5
24B
330
1F
100
AcDbEntity
  8
0
  6
Continuous
 62
     7
370
    18
100
AcDbSpline
210
0.0
220
0.0
230
1.0
 70
     8
 71
     3
 72
    12
 73
     8
 74
     0
 42
0.000000001
 43
0.00000001
 40
0.0
 40
0.0
 40
0.0
 40
0.0
 40
0.1865921528409294
 40
0.3730589116156837
 40
0.5596226295490501
 40
0.7796100104163914
 40
1.0
 40
1.0
 40
1.0
 40
1.0
 10
218.2204732140306
 20
120.0142106739063
 30
0.0
 10
218.2689673693314
 20
120.018000325156
 30
0.0
 10
218.3659230907847
 20
120.0255770809256
 30
0.0
 10
218.4965542680607
 20
120.0961583277341
 30
0.0
 10
218.605292427212
 20
120.2065759402414
 30
0.0
 10
218.6786135556875
 20
120.354175830236
 30
0.0
 10
218.702835768854
 20
120.4654936553434
 30
0.0
 10
218.7149579478434
 20
120.5212034532624
 30
0.0
  0
SPLINE
  5
24C
330
1F
100
AcDbEntity
  8
0
  6
Continuous
 62
     7
370
    18
100
AcDbSpline
210
0.0
220
0.0
230
1.0
 70
     8
 71
     3
 72
    14
 73
    10
 74
     0
 42
0.000000001
 43
0.00000001
 40
0.0
 40
0.0
 40
0.0
 40
0.0
 40
0.1669299867484122
 40
0.3337709048041663
 40
0.5004211293286641
 40
0.6254239239505631
 40
0.7503194582828523
 40
0.8750931289475058
 40
1.0
 40
1.0
 40
1.0
 40
1.0
 10
217.6742885586389
 20
120.8418263540229
 30
0.0
 10
217.6756182945693
 20
120.7798794157622
 30
0.0
 10
217.6782770569243
 20
120.6560185922166
 30
0.0
 10
217.7084232451767
 20
120.4723236166679
 30
0.0
 10
217.7630035203246
 20
120.3096735519263
 30
0.0
 10
217.8487736676222
 20
120.1793789588623
 30
0.0
 10
217.9523569411957
 20
120.08461510384
 30
0.0
 10
218.0809401129664
 20
120.0238137715025
 30
0.0
 10
218.1739456413786
 20
120.0174128447008
 30
0.0
 10
218.2204732140306
 20
120.0142106739063
 30
0.0
  0
CIRCLE
  5
24D
330
1F
100
AcDbEntity
  8
0
  6
Continuous
 62
     7
370
    18
100
AcDbCircle
 10
225.8929083503
 20
123.1895865025
 30
0.0
 40
25.19999999999999
  0
SPLINE
  5
24E
330
1F
100
AcDbEntity
  8
0
  6
Continuous
 62
     7
370
    18
100
AcDbSpline
210
0.0
220
0.0
230
1.0
 70
     8
 71
     3
 72
    13
 73
     9
 74
     0
 42
0.000000001
 43
0.00000001
 40
0.0
 40
0.0
 40
0.0
 40
0.0
 40
0.1237345749994072
 40
0.2484232101745711
 40
0.3734713343328635
 40
0.4987444967637427
 40
0.7493102257733254
 40
1.0
 40
1.0
 40
1.0
 40
1.0
 10
232.5021596153979
 20
119.9875268434139
 30
0.0
 10
232.5432440115875
 20
119.9948900851667
 30
0.0
 10
232.6257295867758
 20
120.0096733432297
 30
0.0
 10
232.7099241564783
 20
120.1073861373005
 30
0.0
 10
232.7669938790341
 20
120.2161282199166
 30
0.0
 10
232.8061640764498
 20
120.3769213270125
 30
0.0
 10
232.8274313993735
 20
120.5814783108723
 30
0.0
 10
232.8296131387108
 20
120.7458575466505
 30
0.0
 10
232.8307042783358
 20
120.8280675039252
 30
0.0
  0
SPLINE
  5
24F
330
1F
100
AcDbEntity
  8
0
  6
Continuous
 62
     7
370
    18
100
AcDbSpline
210
0.0
220
0.0
230
1.0
 70
     8
 71
     3
 72
    13
 73
     9
 74
     0
 42
0.000000001
 43
0.00000001
 40
0.0
 40
0.0
 40
0.0
 40
0.0
 40
0.2506668541570157
 40
0.5012048357437083
 40
0.6264537829510465
 40
0.7514291871594896
 40
0.8760522367173378
 40
1.0
 40
1.0
 40
1.0
 40
1.0
 10
232.1636085160252
 20
120.8280675039252
 30
0.0
 10
232.1646568228418
 20
120.7451222681302
 30
0.0
 10
232.1667528975206
 20
120.5792744402546
 30
0.0
 10
232.1885719965595
 20
120.3729004378768
 30
0.0
 10
232.2286744768299
 20
120.2108460544409
 30
0.0
 10
232.2880458184468
 20
120.1017405513217
 30
0.0
 10
232.3771471777945
 20
120.0070502258629
 30
0.0
 10
232.4605643419897
 20
119.9940228405034
 30
0.0
 10
232.5021596153979
 20
119.9875268434139
 30
0.0
  0
SPLINE
  5
250
330
1F
100
AcDbEntity
  8
0
  6
Continuous
 62
     7
370
    18
100
AcDbSpline
210
0.0
220
0.0
230
1.0
 70
     8
 71
     3
 72
    13
 73
     9
 74
     0
 42
0.000000001
 43
0.00000001
 40
0.0
 40
0.0
 40
0.0
 40
0.0
 40
0.1236770548154476
 40
0.2483884878623277
 40
0.3734455614730945
 40
0.4987169325064005
 40
0.7492948497723042
 40
1.0
 40
1.0
 40
1.0
 40
1.0
 10
232.4896515698545
 20
121.6686081644366
 30
0.0
 10
232.4486630052002
 20
121.6611149651768
 30
0.0
 10
232.3663430663132
 20
121.6460658969713
 30
0.0
 10
232.2832293468916
 20
121.547708556641
 30
0.0
 10
232.2264962978184
 20
121.4390747353051
 30
0.0
 10
232.1884805038258
 20
121.2782927061408
 30
0.0
 10
232.1667357550836
 20
121.0742437962045
 30
0.0
 10
232.1646511054161
 20
120.9101401519853
 30
0.0
 10
232.1636085160252
 20
120.8280675039252
 30
0.0
  0
SPLINE
  5
251
330
1F
100
AcDbEntity
  8
0
  6
Continuous
 62
     7
370
    18
100
AcDbSpline
210
0.0
220
0.0
230
1.0
 70
     8
 71
     3
 72
    13
 73
     9
 74
     0
 42
0.000000001
 43
0.00000001
 40
0.0
 40
0.0
 40
0.0
 40
0.0
 40
0.250673607138639
 40
0.5012152607337949
 40
0.6264526015104095
 40
0.7514497498805428
 40
0.8760271183236269
 40
1.0
 40
1.0
 40
1.0
 40
1.0
 10
232.8307042783358
 20
120.8280675039252
 30
0.0
 10
232.8296657754237
 20
120.9112136576791
 30
0.0
 10
232.8275893162632
 20
121.0774621973974
 30
0.0
 10
232.805675071852
 20
121.2843533252011
 30
0.0
 10
232.7652826166154
 20
121.4467289009314
 30
0.0
 10
232.7055149858652
 20
121.556069648191
 30
0.0
 10
232.6149949005125
 20
121.6498078998924
 30
0.0
 10
232.5313648825974
 20
121.662351578542
 30
0.0
 10
232.4896515698545
 20
121.6686081644366
 30
0.0
  0
SPLINE
  5
252
330
1F
100
AcDbEntity
  8
0
  6
Continuous
 62
     7
370
    18
100
AcDbSpline
210
0.0
220
0.0
230
1.0
 70
     8
 71
     3
 72
    13
 73
     9
 74
     0
 42
0.000000001
 43
0.00000001
 40
0.0
 40
0.0
 40
0.0
 40
0.0
 40
0.1237345749994043
 40
0.2484232101745662
 40
0.3734713343328607
 40
0.4987444967637447
 40
0.749310225773321
 40
1.0
 40
1.0
 40
1.0
 40
1.0
 10
228.9798939903978
 20
119.9875268434139
 30
0.0
 10
229.0209783865875
 20
119.9948900851667
 30
0.0
 10
229.1034639617758
 20
120.0096733432297
 30
0.0
 10
229.1876585314783
 20
120.1073861373005
 30
0.0
 10
229.2447282540341
 20
120.2161282199166
 30
0.0
 10
229.2838984514498
 20
120.3769213270126
 30
0.0
 10
229.3051657743735
 20
120.5814783108723
 30
0.0
 10
229.3073475137107
 20
120.7458575466505
 30
0.0
 10
229.3084386533358
 20
120.8280675039252
 30
0.0
  0
SPLINE
  5
253
330
1F
100
AcDbEntity
  8
0
  6
Continuous
 62
     7
370
    18
100
AcDbSpline
210
0.0
220
0.0
230
1.0
 70
     8
 71
     3
 72
    13
 73
     9
 74
     0
 42
0.000000001
 43
0.00000001
 40
0.0
 40
0.0
 40
0.0
 40
0.0
 40
0.2506668541570156
 40
0.5012048357437086
 40
0.6264537829510461
 40
0.7514291871594863
 40
0.8760522367173379
 40
1.0
 40
1.0
 40
1.0
 40
1.0
 10
228.6413428910252
 20
120.8280675039252
 30
0.0
 10
228.6423911978418
 20
120.7451222681302
 30
0.0
 10
228.6444872725206
 20
120.5792744402546
 30
0.0
 10
228.6663063715594
 20
120.3729004378768
 30
0.0
 10
228.7064088518299
 20
120.2108460544409
 30
0.0
 10
228.7657801934468
 20
120.1017405513217
 30
0.0
 10
228.8548815527946
 20
120.0070502258629
 30
0.0
 10
228.9382987169897
 20
119.9940228405033
 30
0.0
 10
228.9798939903978
 20
119.9875268434139
 30
0.0
  0
SPLINE
  5
254
330
1F
100
AcDbEntity
  8
0
  6
Continuous
 62
     7
370
    18
100
AcDbSpline
210
0.0
220
0.0
230
1.0
 70
     8
 71
     3
 72
    13
 73
     9
 74
     0
 42
0.000000001
 43
0.00000001
 40
0.0
 40
0.0
 40
0.0
 40
0.0
 40
0.1236770548154444
 40
0.2483884878623272
 40
0.3734455614730934
 40
0.4987169325063996
 40
0.7492948497723039
 40
1.0
 40
1.0
 40
1.0
 40
1.0
 10
228.9673859448545
 20
121.6686081644366
 30
0.0
 10
228.9263973802002
 20
121.6611149651768
 30
0.0
 10
228.8440774413132
 20
121.6460658969713
 30
0.0
 10
228.7609637218916
 20
121.547708556641
 30
0.0
 10
228.7042306728184
 20
121.4390747353051
 30
0.0
 10
228.6662148788259
 20
121.2782927061408
 30
0.0
 10
228.6444701300835
 20
121.0742437962045
 30
0.0
 10
228.6423854804162
 20
120.9101401519853
 30
0.0
 10
228.6413428910252
 20
120.8280675039252
 30
0.0
  0
SPLINE
  5
255
330
1F
100
AcDbEntity
  8
0
  6
Continuous
 62
     7
370
    18
100
AcDbSpline
210
0.0
220
0.0
230
1.0
 70
     8
 71
     3
 72
    13
 73
     9
 74
     0
 42
0.000000001
 43
0.00000001
 40
0.0
 40
0.0
 40
0.0
 40
0.0
 40
0.250673607138639
 40
0.5012152607337984
 40
0.6264526015104095
 40
0.7514497498805429
 40
0.8760271183236269
 40
1.0
 40
1.0
 40
1.0
 40
1.0
 10
229.3084386533358
 20
120.8280675039252
 30
0.0
 10
229.3074001504237
 20
120.9112136576791
 30
0.0
 10
229.3053236912632
 20
121.0774621973974
 30
0.0
 10
229.283409446852
 20
121.2843533252011
 30
0.0
 10
229.2430169916154
 20
121.4467289009314
 30
0.0
 10
229.1832493608652
 20
121.556069648191
 30
0.0
 10
229.0927292755125
 20
121.6498078998924
 30
0.0
 10
229.0090992575975
 20
121.662351578542
 30
0.0
 10
228.9673859448545
 20
121.6686081644366
 30
0.0
  0
SPLINE
  5
256
330
1F
100
AcDbEntity
  8
0
  6
Continuous
 62
     7
370
    18
100
AcDbSpline
210
0.0
220
0.0
230
1.0
 70
     8
 71
     3
 72
    13
 73
     9
 74
     0
 42
0.000000001
 43
0.00000001
 40
0.0
 40
0.0
 40
0.0
 40
0.0
 40
0.1237345749994072
 40
0.248423210174571
 40
0.3734713343328633
 40
0.4987444967637468
 40
0.7493102257733256
 40
1.0
 40
1.0
 40
1.0
 40
1.0
 10
227.6723862962691
 20
119.9875268434139
 30
0.0
 10
227.7134706924587
 20
119.9948900851667
 30
0.0
 10
227.795956267647
 20
120.0096733432297
 30
0.0
 10
227.8801508373495
 20
120.1073861373005
 30
0.0
 10
227.9372205599053
 20
120.2161282199166
 30
0.0
 10
227.976390757321
 20
120.3769213270125
 30
0.0
 10
227.9976580802447
 20
120.5814783108723
 30
0.0
 10
227.999839819582
 20
120.7458575466505
 30
0.0
 10
228.000930959207
 20
120.8280675039252
 30
0.0
  0
SPLINE
  5
257
330
1F
100
AcDbEntity
  8
0
  6
Continuous
 62
     7
370
    18
100
AcDbSpline
210
0.0
220
0.0
230
1.0
 70
     8
 71
     3
 72
    13
 73
     9
 74
     0
 42
0.000000001
 43
0.00000001
 40
0.0
 40
0.0
 40
0.0
 40
0.0
 40
0.2506668541570163
 40
0.5012048357437096
 40
0.6264537829510485
 40
0.7514291871594889
 40
0.8760522367173409
 40
1.0
 40
1.0
 40
1.0
 40
1.0
 10
227.3338351968964
 20
120.8280675039252
 30
0.0
 10
227.334883503713
 20
120.7451222681302
 30
0.0
 10
227.3369795783918
 20
120.5792744402546
 30
0.0
 10
227.3587986774306
 20
120.3729004378768
 30
0.0
 10
227.3989011577011
 20
120.2108460544409
 30
0.0
 10
227.458272499318
 20
120.1017405513217
 30
0.0
 10
227.5473738586657
 20
120.0070502258629
 30
0.0
 10
227.6307910228609
 20
119.9940228405034
 30
0.0
 10
227.6723862962691
 20
119.9875268434139
 30
0.0
  0
SPLINE
  5
258
330
1F
100
AcDbEntity
  8
0
  6
Continuous
 62
     7
370
    18
100
AcDbSpline
210
0.0
220
0.0
230
1.0
 70
     8
 71
     3
 72
    13
 73
     9
 74
     0
 42
0.000000001
 43
0.00000001
 40
0.0
 40
0.0
 40
0.0
 40
0.0
 40
0.1236770548154444
 40
0.2483884878623272
 40
0.3734455614730934
 40
0.4987169325063996
 40
0.7492948497723039
 40
1.0
 40
1.0
 40
1.0
 40
1.0
 10
227.6598782507257
 20
121.6686081644366
 30
0.0
 10
227.6188896860714
 20
121.6611149651768
 30
0.0
 10
227.5365697471844
 20
121.6460658969713
 30
0.0
 10
227.4534560277629
 20
121.547708556641
 30
0.0
 10
227.3967229786896
 20
121.4390747353051
 30
0.0
 10
227.3587071846971
 20
121.2782927061408
 30
0.0
 10
227.3369624359547
 20
121.0742437962045
 30
0.0
 10
227.3348777862874
 20
120.9101401519853
 30
0.0
 10
227.3338351968964
 20
120.8280675039252
 30
0.0
  0
SPLINE
  5
259
330
1F
100
AcDbEntity
  8
0
  6
Continuous
 62
     7
370
    18
100
AcDbSpline
210
0.0
220
0.0
230
1.0
 70
     8
 71
     3
 72
    13
 73
     9
 74
     0
 42
0.000000001
 43
0.00000001
 40
0.0
 40
0.0
 40
0.0
 40
0.0
 40
0.2506736071386386
 40
0.5012152607337979
 40
0.6264526015104098
 40
0.751449749880543
 40
0.876027118323627
 40
1.0
 40
1.0
 40
1.0
 40
1.0
 10
228.000930959207
 20
120.8280675039252
 30
0.0
 10
227.999892456295
 20
120.9112136576791
 30
0.0
 10
227.9978159971344
 20
121.0774621973974
 30
0.0
 10
227.9759017527232
 20
121.2843533252011
 30
0.0
 10
227.9355092974866
 20
121.4467289009314
 30
0.0
 10
227.8757416667364
 20
121.556069648191
 30
0.0
 10
227.7852215813837
 20
121.6498078998924
 30
0.0
 10
227.7015915634687
 20
121.6623515785419
 30
0.0
 10
227.6598782507257
 20
121.6686081644366
 30
0.0
  0
SPLINE
  5
25A
330
1F
100
AcDbEntity
  8
0
  6
Continuous
 62
     7
370
    18
100
AcDbSpline
210
0.0
220
0.0
230
1.0
 70
     8
 71
     3
 72
    12
 73
     8
 74
     0
 42
0.000000001
 43
0.00000001
 40
0.0
 40
0.0
 40
0.0
 40
0.0
 40
0.1864266110451021
 40
0.3728066183672661
 40
0.5596384089196413
 40
0.7795953861027519
 40
1.0
 40
1.0
 40
1.0
 40
1.0
 10
224.2797874100682
 20
119.9875268434139
 30
0.0
 10
224.3165816534672
 20
119.9910825110025
 30
0.0
 10
224.3901609422828
 20
119.9981929573187
 30
0.0
 10
224.4849554403104
 20
120.0600898087519
 30
0.0
 10
224.5601225332974
 20
120.1500509907124
 30
0.0
 10
224.6053971854803
 20
120.2673119588538
 30
0.0
 10
224.6098538761666
 20
120.3537126219491
 30
0.0
 10
224.6120844866691
 20
120.396956867532
 30
0.0
  0
SPLINE
  5
25B
330
1F
100
AcDbEntity
  8
0
  6
Continuous
 62
     7
370
    18
100
AcDbSpline
210
0.0
220
0.0
230
1.0
 70
     8
 71
     3
 72
    11
 73
     7
 74
     0
 42
0.000000001
 43
0.00000001
 40
0.0
 40
0.0
 40
0.0
 40
0.0
 40
0.2807261943832933
 40
0.560397291612564
 40
0.7804346209650581
 40
1.0
 40
1.0
 40
1.0
 40
1.0
 10
223.9449887243585
 20
120.4052955645609
 30
0.0
 10
223.948563464276
 20
120.3492629523405
 30
0.0
 10
223.9556995086068
 20
120.2374083240282
 30
0.0
 10
224.0342103125614
 20
120.0990328983096
 30
0.0
 10
224.1479456137085
 20
120.0042308606049
 30
0.0
 10
224.2358716099214
 20
119.9930908625707
 30
0.0
 10
224.2797874100682
 20
119.9875268434139
 30
0.0
  0
SPLINE
  5
25C
330
1F
100
AcDbEntity
  8
0
  6
Continuous
 62
     7
370
    18
100
AcDbSpline
210
0.0
220
0.0
230
1.0
 70
     8
 71
     3
 72
    11
 73
     7
 74
     0
 42
0.000000001
 43
0.00000001
 40
0.0
 40
0.0
 40
0.0
 40
0.0
 40
0.2782055765816049
 40
0.5579799253701343
 40
0.7788219222535238
 40
1.0
 40
1.0
 40
1.0
 40
1.0
 10
224.2743672569994
 20
120.814725588679
 30
0.0
 10
224.2196829815981
 20
120.8055358362157
 30
0.0
 10
224.1100060718745
 20
120.7871045112342
 30
0.0
 10
224.0047615554004
 20
120.6656328632357
 30
0.0
 10
223.9516842653568
 20
120.5346321767761
 30
0.0
 10
223.9472217023639
 20
120.44842961608
 30
0.0
 10
223.9449887243585
 20
120.4052955645609
 30
0.0
  0
SPLINE
  5
25D
330
1F
100
AcDbEntity
  8
0
  6
Continuous
 62
     7
370
    18
100
AcDbSpline
210
0.0
220
0.0
230
1.0
 70
     8
 71
     3
 72
    11
 73
     7
 74
     0
 42
0.000000001
 43
0.00000001
 40
0.0
 40
0.0
 40
0.0
 40
0.0
 40
0.2807535301687743
 40
0.5603207228591549
 40
0.7803822345379182
 40
1.0
 40
1.0
 40
1.0
 40
1.0
 10
224.6120844866691
 20
120.396956867532
 30
0.0
 10
224.6084002829717
 20
120.4531958182833
 30
0.0
 10
224.6010474433558
 20
120.5654360794079
 30
0.0
 10
224.5209223193615
 20
120.7034753614076
 30
0.0
 10
224.4066879876101
 20
120.7982221757828
 30
0.0
 10
224.3184444806228
 20
120.8092281536406
 30
0.0
 10
224.2743672569994
 20
120.814725588679
 30
0.0
  0
SPLINE
  5
25E
330
1F
100
AcDbEntity
  8
0
  6
Continuous
 62
     7
370
    18
100
AcDbSpline
210
0.0
220
0.0
230
1.0
 70
     8
 71
     3
 72
    11
 73
     7
 74
     0
 42
0.000000001
 43
0.00000001
 40
0.0
 40
0.0
 40
0.0
 40
0.0
 40
0.2783889696083879
 40
0.5580817055296868
 40
0.7789018539988232
 40
1.0
 40
1.0
 40
1.0
 40
1.0
 10
224.2797874100682
 20
121.0281962326184
 30
0.0
 10
224.3217744564836
 20
121.0353616930572
 30
0.0
 10
224.4059451853262
 20
121.0497261716076
 30
0.0
 10
224.4860485810761
 20
121.1434200168089
 30
0.0
 10
224.5270640428511
 20
121.2437393477003
 30
0.0
 10
224.5303759832642
 20
121.3098872756474
 30
0.0
 10
224.5320329951919
 20
121.3429820454587
 30
0.0
  0
SPLINE
  5
25F
330
1F
100
AcDbEntity
  8
0
  6
Continuous
 62
     7
370
    18
100
AcDbSpline
210
0.0
220
0.0
230
1.0
 70
     8
 71
     3
 72
    11
 73
     7
 74
     0
 42
0.000000001
 43
0.00000001
 40
0.0
 40
0.0
 40
0.0
 40
0.0
 40
0.2806987831964738
 40
0.5604086902325288
 40
0.7804393617933053
 40
1.0
 40
1.0
 40
1.0
 40
1.0
 10
224.0250402158358
 20
121.3567408955564
 30
0.0
 10
224.027467899267
 20
121.3131837483139
 30
0.0
 10
224.0323147136224
 20
121.2262229016781
 30
0.0
 10
224.0895847134197
 20
121.1167240057892
 30
0.0
 10
224.1770051467658
 20
121.0409268394863
 30
0.0
 10
224.2455510865674
 20
121.0324367422267
 30
0.0
 10
224.2797874100682
 20
121.0281962326184
 30
0.0
  0
SPLINE
  5
260
330
1F
100
AcDbEntity
  8
0
  6
Continuous
 62
     7
370
    18
100
AcDbSpline
210
0.0
220
0.0
230
1.0
 70
     8
 71
     3
 72
    11
 73
     7
 74
     0
 42
0.000000001
 43
0.00000001
 40
0.0
 40
0.0
 40
0.0
 40
0.0
 40
0.2781848052830279
 40
0.5582334878196241
 40
0.7790790531104522
 40
1.0
 40
1.0
 40
1.0
 40
1.0
 10
224.2772858009595
 20
121.6686081644366
 30
0.0
 10
224.2357288665349
 20
121.6613027827138
 30
0.0
 10
224.1523365603905
 20
121.6466430721848
 30
0.0
 10
224.0729052461099
 20
121.5540142144113
 30
0.0
 10
224.0307671911979
 20
121.4551077079164
 30
0.0
 10
224.0269494247736
 20
121.3895335627959
 30
0.0
 10
224.0250402158358
 20
121.3567408955564
 30
0.0
  0
SPLINE
  5
261
330
1F
100
AcDbEntity
  8
0
  6
Continuous
 62
     7
370
    18
100
AcDbSpline
210
0.0
220
0.0
230
1.0
 70
     8
 71
     3
 72
    11
 73
     7
 74
     0
 42
0.000000001
 43
0.00000001
 40
0.0
 40
0.0
 40
0.0
 40
0.0
 40
0.2805990159984111
 40
0.5604527759419529
 40
0.78051332661335
 40
1.0
 40
1.0
 40
1.0
 40
1.0
 10
224.5320329951919
 20
121.3429820454587
 30
0.0
 10
224.5293490726939
 20
121.3861213320251
 30
0.0
 10
224.5239883560532
 20
121.4722853295082
 30
0.0
 10
224.4634758373782
 20
121.5781739894593
 30
0.0
 10
224.3787385760835
 20
121.6543277872197
 30
0.0
 10
224.3110739447927
 20
121.663852183747
 30
0.0
 10
224.2772858009595
 20
121.6686081644366
 30
0.0
  0
SPLINE
  5
262
330
1F
100
AcDbEntity
  8
0
  6
Continuous
 62
     7
370
    18
100
AcDbSpline
210
0.0
220
0.0
230
1.0
 70
     8
 71
     3
 72
    13
 73
     9
 74
     0
 42
0.000000001
 43
0.00000001
 40
0.0
 40
0.0
 40
0.0
 40
0.0
 40
0.1237345749994054
 40
0.2484232101745674
 40
0.3734713343328603
 40
0.4987444967637444
 40
0.7493102257733243
 40
1.0
 40
1.0
 40
1.0
 40
1.0
 10
222.9760321296024
 20
119.9875268434139
 30
0.0
 10
223.017116525792
 20
119.9948900851667
 30
0.0
 10
223.0996021009803
 20
120.0096733432297
 30
0.0
 10
223.1837966706828
 20
120.1073861373005
 30
0.0
 10
223.2408663932386
 20
120.2161282199166
 30
0.0
 10
223.2800365906543
 20
120.3769213270125
 30
0.0
 10
223.3013039135781
 20
120.5814783108723
 30
0.0
 10
223.3034856529153
 20
120.7458575466505
 30
0.0
 10
223.3045767925403
 20
120.8280675039252
 30
0.0
  0
SPLINE
  5
263
330
1F
100
AcDbEntity
  8
0
  6
Continuous
 62
     7
370
    18
100
AcDbSpline
210
0.0
220
0.0
230
1.0
 70
     8
 71
     3
 72
    13
 73
     9
 74
     0
 42
0.000000001
 43
0.00000001
 40
0.0
 40
0.0
 40
0.0
 40
0.0
 40
0.2506668541570156
 40
0.5012048357437086
 40
0.6264537829510461
 40
0.7514291871594863
 40
0.8760522367173379
 40
1.0
 40
1.0
 40
1.0
 40
1.0
 10
222.6374810302298
 20
120.8280675039252
 30
0.0
 10
222.6385293370464
 20
120.7451222681302
 30
0.0
 10
222.6406254117252
 20
120.5792744402546
 30
0.0
 10
222.662444510764
 20
120.3729004378768
 30
0.0
 10
222.7025469910345
 20
120.2108460544409
 30
0.0
 10
222.7619183326514
 20
120.1017405513217
 30
0.0
 10
222.8510196919991
 20
120.0070502258629
 30
0.0
 10
222.9344368561943
 20
119.9940228405033
 30
0.0
 10
222.9760321296024
 20
119.9875268434139
 30
0.0
  0
SPLINE
  5
264
330
1F
100
AcDbEntity
  8
0
  6
Continuous
 62
     7
370
    18
100
AcDbSpline
210
0.0
220
0.0
230
1.0
 70
     8
 71
     3
 72
    13
 73
     9
 74
     0
 42
0.000000001
 43
0.00000001
 40
0.0
 40
0.0
 40
0.0
 40
0.0
 40
0.1236770548154451
 40
0.2483884878623322
 40
0.373445561473096
 40
0.4987169325064024
 40
0.7492948497723053
 40
1.0
 40
1.0
 40
1.0
 40
1.0
 10
222.9635240840591
 20
121.6686081644366
 30
0.0
 10
222.9225355194047
 20
121.6611149651768
 30
0.0
 10
222.8402155805178
 20
121.6460658969713
 30
0.0
 10
222.7571018610962
 20
121.547708556641
 30
0.0
 10
222.700368812023
 20
121.4390747353051
 30
0.0
 10
222.6623530180304
 20
121.2782927061408
 30
0.0
 10
222.6406082692881
 20
121.0742437962044
 30
0.0
 10
222.6385236196207
 20
120.9101401519853
 30
0.0
 10
222.6374810302298
 20
120.8280675039252
 30
0.0
  0
SPLINE
  5
265
330
1F
100
AcDbEntity
  8
0
  6
Continuous
 62
     7
370
    18
100
AcDbSpline
210
0.0
220
0.0
230
1.0
 70
     8
 71
     3
 72
    13
 73
     9
 74
     0
 42
0.000000001
 43
0.00000001
 40
0.0
 40
0.0
 40
0.0
 40
0.0
 40
0.2506736071386391
 40
0.5012152607337987
 40
0.6264526015104177
 40
0.7514497498805434
 40
0.8760271183236301
 40
1.0
 40
1.0
 40
1.0
 40
1.0
 10
223.3045767925403
 20
120.8280675039252
 30
0.0
 10
223.3035382896283
 20
120.9112136576791
 30
0.0
 10
223.3014618304677
 20
121.0774621973974
 30
0.0
 10
223.2795475860565
 20
121.2843533252011
 30
0.0
 10
223.23915513082
 20
121.4467289009314
 30
0.0
 10
223.1793875000698
 20
121.5560696481909
 30
0.0
 10
223.088867414717
 20
121.6498078998924
 30
0.0
 10
223.005237396802
 20
121.6623515785419
 30
0.0
 10
222.9635240840591
 20
121.6686081644366
 30
0.0
  0
CIRCLE
  5
266
330
1F
100
AcDbEntity
  8
0
  6
Continuous
 62
     7
370
    18
100
AcDbCircle
 10
225.8929083503
 20
123.1895865025
 30
0.0
 40
25.40000000000003
  0
OLE2FRAME
  5
267
330
1F
100
AcDbEntity
  8
0
100
AcDbOle2Frame
 70
     2
  3
Paintbrush Picture
 10
229.0524258301
 20
33.6996297921
 30
0.0
 11
265.1686469208
 21
28.555479607
 31
0.0
 71
     2
 72
     0
 73
     1
 90
     7296
310
80557333EF78ADA16C40002412788DD94040000000000000000041161DC7B292
310
7040002412788DD94040000000000000000041161DC7B2927040F6DD59E9338E
310
3C4000000000000000007333EF78ADA16C40F6DD59E9338E3C40000000000000
310
00000000000001000000000100000100000001000000000001000000001C0000
310
D0CF11E0A1B11AE1000000000000000000000000000000003E000300FEFF0900
310
0600000000000000000000000100000001000000000000000010000002000000
310
01000000FEFFFFFF0000000000000000FFFFFFFFFFFFFFFFFFFFFFFFFFFFFFFF
310
FFFFFFFFFFFFFFFFFFFFFFFFFFFFFFFFFFFFFFFFFFFFFFFFFFFFFFFFFFFFFFFF
310
FFFFFFFFFFFFFFFFFFFFFFFFFFFFFFFFFFFFFFFFFFFFFFFFFFFFFFFFFFFFFFFF
310
FFFFFFFFFFFFFFFFFFFFFFFFFFFFFFFFFFFFFFFFFFFFFFFFFFFFFFFFFFFFFFFF
310
FFFFFFFFFFFFFFFFFFFFFFFFFFFFFFFFFFFFFFFFFFFFFFFFFFFFFFFFFFFFFFFF
310
FFFFFFFFFFFFFFFFFFFFFFFFFFFFFFFFFFFFFFFFFFFFFFFFFFFFFFFFFFFFFFFF
310
FFFFFFFFFFFFFFFFFFFFFFFFFFFFFFFFFFFFFFFFFFFFFFFFFFFFFFFFFFFFFFFF
310
FFFFFFFFFFFFFFFFFFFFFFFFFFFFFFFFFFFFFFFFFFFFFFFFFFFFFFFFFFFFFFFF
310
FFFFFFFFFFFFFFFFFFFFFFFFFFFFFFFFFFFFFFFFFFFFFFFFFFFFFFFFFFFFFFFF
310
FFFFFFFFFFFFFFFFFFFFFFFFFFFFFFFFFFFFFFFFFFFFFFFFFFFFFFFFFFFFFFFF
310
FFFFFFFFFFFFFFFFFFFFFFFFFFFFFFFFFFFFFFFFFFFFFFFFFFFFFFFFFFFFFFFF
310
FFFFFFFFFFFFFFFFFFFFFFFFFFFFFFFFFFFFFFFFFFFFFFFFFFFFFFFFFFFFFFFF
310
FFFFFFFFFFFFFFFFFFFFFFFFFFFFFFFFFFFFFFFFFFFFFFFFFFFFFFFFFFFFFFFF
310
FFFFFFFFFFFFFFFFFFFFFFFFFFFFFFFFFFFFFFFFFFFFFFFFFFFFFFFFFFFFFFFF
310
FDFFFFFFFEFFFFFFFEFFFFFFFEFFFFFF05000000060000000700000008000000
310
090000000A0000000B0000000C000000FEFFFFFFFFFFFFFFFFFFFFFFFFFFFFFF
310
FFFFFFFFFFFFFFFFFFFFFFFFFFFFFFFFFFFFFFFFFFFFFFFFFFFFFFFFFFFFFFFF
310
FFFFFFFFFFFFFFFFFFFFFFFFFFFFFFFFFFFFFFFFFFFFFFFFFFFFFFFFFFFFFFFF
310
FFFFFFFFFFFFFFFFFFFFFFFFFFFFFFFFFFFFFFFFFFFFFFFFFFFFFFFFFFFFFFFF
310
FFFFFFFFFFFFFFFFFFFFFFFFFFFFFFFFFFFFFFFFFFFFFFFFFFFFFFFFFFFFFFFF
310
FFFFFFFFFFFFFFFFFFFFFFFFFFFFFFFFFFFFFFFFFFFFFFFFFFFFFFFFFFFFFFFF
310
FFFFFFFFFFFFFFFFFFFFFFFFFFFFFFFFFFFFFFFFFFFFFFFFFFFFFFFFFFFFFFFF
310
FFFFFFFFFFFFFFFFFFFFFFFFFFFFFFFFFFFFFFFFFFFFFFFFFFFFFFFFFFFFFFFF
310
FFFFFFFFFFFFFFFFFFFFFFFFFFFFFFFFFFFFFFFFFFFFFFFFFFFFFFFFFFFFFFFF
310
FFFFFFFFFFFFFFFFFFFFFFFFFFFFFFFFFFFFFFFFFFFFFFFFFFFFFFFFFFFFFFFF
310
FFFFFFFFFFFFFFFFFFFFFFFFFFFFFFFFFFFFFFFFFFFFFFFFFFFFFFFFFFFFFFFF
310
FFFFFFFFFFFFFFFFFFFFFFFFFFFFFFFFFFFFFFFFFFFFFFFFFFFFFFFFFFFFFFFF
310
FFFFFFFFFFFFFFFFFFFFFFFFFFFFFFFFFFFFFFFFFFFFFFFFFFFFFFFFFFFFFFFF
310
FFFFFFFFFFFFFFFFFFFFFFFFFFFFFFFFFFFFFFFFFFFFFFFFFFFFFFFFFFFFFFFF
310
FFFFFFFFFFFFFFFFFFFFFFFFFFFFFFFFFFFFFFFFFFFFFFFFFFFFFFFFFFFFFFFF
310
52006F006F007400200045006E00740072007900000000000000000000000000
310
0000000000000000000000000000000000000000000000000000000000000000
310
16000500FFFFFFFFFFFFFFFF020000000A00030000000000C000000000000046
310
0000000000000000000000006084D7414596D40103000000C000000000000000
310
01004F006C006500000000000000000000000000000000000000000000000000
310
0000000000000000000000000000000000000000000000000000000000000000
310
0A000200FFFFFFFFFFFFFFFFFFFFFFFF00000000000000000000000000000000
310
0000000000000000000000000000000000000000000000001400000000000000
310
010043006F006D0070004F0062006A0000000000000000000000000000000000
310
0000000000000000000000000000000000000000000000000000000000000000
310
120002010100000003000000FFFFFFFF00000000000000000000000000000000
310
0000000000000000000000000000000000000000010000004D00000000000000
310
01004F006C006500310030004E00610074006900760065000000000000000000
310
0000000000000000000000000000000000000000000000000000000000000000
310
1A000200FFFFFFFFFFFFFFFFFFFFFFFF00000000000000000000000000000000
310
000000000000000000000000000000000000000004000000E411000000000000
310
FEFFFFFF02000000FEFFFFFFFFFFFFFFFFFFFFFFFFFFFFFFFFFFFFFFFFFFFFFF
310
FFFFFFFFFFFFFFFFFFFFFFFFFFFFFFFFFFFFFFFFFFFFFFFFFFFFFFFFFFFFFFFF
310
FFFFFFFFFFFFFFFFFFFFFFFFFFFFFFFFFFFFFFFFFFFFFFFFFFFFFFFFFFFFFFFF
310
FFFFFFFFFFFFFFFFFFFFFFFFFFFFFFFFFFFFFFFFFFFFFFFFFFFFFFFFFFFFFFFF
310
FFFFFFFFFFFFFFFFFFFFFFFFFFFFFFFFFFFFFFFFFFFFFFFFFFFFFFFFFFFFFFFF
310
FFFFFFFFFFFFFFFFFFFFFFFFFFFFFFFFFFFFFFFFFFFFFFFFFFFFFFFFFFFFFFFF
310
FFFFFFFFFFFFFFFFFFFFFFFFFFFFFFFFFFFFFFFFFFFFFFFFFFFFFFFFFFFFFFFF
310
FFFFFFFFFFFFFFFFFFFFFFFFFFFFFFFFFFFFFFFFFFFFFFFFFFFFFFFFFFFFFFFF
310
FFFFFFFFFFFFFFFFFFFFFFFFFFFFFFFFFFFFFFFFFFFFFFFFFFFFFFFFFFFFFFFF
310
FFFFFFFFFFFFFFFFFFFFFFFFFFFFFFFFFFFFFFFFFFFFFFFFFFFFFFFFFFFFFFFF
310
FFFFFFFFFFFFFFFFFFFFFFFFFFFFFFFFFFFFFFFFFFFFFFFFFFFFFFFFFFFFFFFF
310
FFFFFFFFFFFFFFFFFFFFFFFFFFFFFFFFFFFFFFFFFFFFFFFFFFFFFFFFFFFFFFFF
310
FFFFFFFFFFFFFFFFFFFFFFFFFFFFFFFFFFFFFFFFFFFFFFFFFFFFFFFFFFFFFFFF
310
FFFFFFFFFFFFFFFFFFFFFFFFFFFFFFFFFFFFFFFFFFFFFFFFFFFFFFFFFFFFFFFF
310
FFFFFFFFFFFFFFFFFFFFFFFFFFFFFFFFFFFFFFFFFFFFFFFFFFFFFFFFFFFFFFFF
310
FFFFFFFFFFFFFFFFFFFFFFFFFFFFFFFFFFFFFFFFFFFFFFFFFFFFFFFFFFFFFFFF
310
0100000200000000000000000000000000000000000000000000000000000000
310
0000000000000000000000000000000000000000000000000000000000000000
310
0100FEFF030A0000FFFFFFFF0A00030000000000C00000000000004607000000
310
5042727573680007000000504272757368000700000050427275736800F439B2
310
7100000000000000000000000000000000000000000000000000000000000000
310
0000000000000000000000000000000000000000000000000000000000000000
310
0000000000000000000000000000000000000000000000000000000000000000
310
0000000000000000000000000000000000000000000000000000000000000000
310
0000000000000000000000000000000000000000000000000000000000000000
310
0000000000000000000000000000000000000000000000000000000000000000
310
0000000000000000000000000000000000000000000000000000000000000000
310
0000000000000000000000000000000000000000000000000000000000000000
310
0000000000000000000000000000000000000000000000000000000000000000
310
0000000000000000000000000000000000000000000000000000000000000000
310
0000000000000000000000000000000000000000000000000000000000000000
310
0000000000000000000000000000000000000000000000000000000000000000
310
E0110000424DDE11000000000000360400002800000096000000170000000100
310
08000000000000000000E7240000E72400000001000000010000000000FF0101
310
01FF020202FF030303FF040404FF050505FF060606FF070707FF080808FF0909
310
09FF0A0A0AFF0B0B0BFF0C0C0CFF0D0D0DFF0E0E0EFF0F0F0FFF101010FF1111
310
11FF121212FF131313FF141414FF151515FF161616FF171717FF181818FF1919
310
19FF1A1A1AFF1B1B1BFF1C1C1CFF1D1D1DFF1E1E1EFF1F1F1FFF202020FF2121
310
21FF222222FF232323FF242424FF252525FF262626FF272727FF282828FF2929
310
29FF2A2A2AFF2B2B2BFF2C2C2CFF2D2D2DFF2E2E2EFF2F2F2FFF303030FF3131
310
31FF323232FF333333FF343434FF353535FF363636FF373737FF383838FF3939
310
39FF3A3A3AFF3B3B3BFF3C3C3CFF3D3D3DFF3E3E3EFF3F3F3FFF404040FF4141
310
41FF424242FF434343FF444444FF454545FF464646FF474747FF484848FF4949
310
49FF4A4A4AFF4B4B4BFF4C4C4CFF4D4D4DFF4E4E4EFF4F4F4FFF505050FF5151
310
51FF525252FF535353FF545454FF555555FF565656FF575757FF585858FF5959
310
59FF5A5A5AFF5B5B5BFF5C5C5CFF5D5D5DFF5E5E5EFF5F5F5FFF606060FF6161
310
61FF626262FF636363FF646464FF656565FF666666FF676767FF686868FF6969
310
69FF6A6A6AFF6B6B6BFF6C6C6CFF6D6D6DFF6E6E6EFF6F6F6FFF707070FF7171
310
71FF727272FF737373FF747474FF757575FF767676FF777777FF787878FF7979
310
79FF7A7A7AFF7B7B7BFF7C7C7CFF7D7D7DFF7E7E7EFF7F7F7FFF808080FF8181
310
81FF828282FF838383FF848484FF858585FF868686FF878787FF888888FF8989
310
89FF8A8A8AFF8B8B8BFF8C8C8CFF8D8D8DFF8E8E8EFF8F8F8FFF909090FF9191
310
91FF929292FF939393FF949494FF959595FF969696FF979797FF989898FF9999
310
99FF9A9A9AFF9B9B9BFF9C9C9CFF9D9D9DFF9E9E9EFF9F9F9FFFA0A0A0FFA1A1
310
A1FFA2A2A2FFA3A3A3FFA4A4A4FFA5A5A5FFA6A6A6FFA7A7A7FFA8A8A8FFA9A9
310
A9FFAAAAAAFFABABABFFACACACFFADADADFFAEAEAEFFAFAFAFFFB0B0B0FFB1B1
310
B1FFB2B2B2FFB3B3B3FFB4B4B4FFB5B5B5FFB6B6B6FFB7B7B7FFB8B8B8FFB9B9
310
B9FFBABABAFFBBBBBBFFBCBCBCFFBDBDBDFFBEBEBEFFBFBFBFFFC0C0C0FFC1C1
310
C1FFC2C2C2FFC3C3C3FFC4C4C4FFC5C5C5FFC6C6C6FFC7C7C7FFC8C8C8FFC9C9
310
C9FFCACACAFFCBCBCBFFCCCCCCFFCDCDCDFFCECECEFFCFCFCFFFD0D0D0FFD1D1
310
D1FFD2D2D2FFD3D3D3FFD4D4D4FFD5D5D5FFD6D6D6FFD7D7D7FFD8D8D8FFD9D9
310
D9FFDADADAFFDBDBDBFFDCDCDCFFDDDDDDFFDEDEDEFFDFDFDFFFE0E0E0FFE1E1
310
E1FFE2E2E2FFE3E3E3FFE4E4E4FFE5E5E5FFE6E6E6FFE7E7E7FFE8E8E8FFE9E9
310
E9FFEAEAEAFFEBEBEBFFECECECFFEDEDEDFFEEEEEEFFEFEFEFFFF0F0F0FFF1F1
310
F1FFF2F2F2FFF3F3F3FFF4F4F4FFF5F5F5FFF6F6F6FFF7F7F7FFF8F8F8FFF9F9
310
F9FFFAFAFAFFFBFBFBFFFCFCFCFFFDFDFDFFFEFEFEFFFFFFFFFFFFFFFFFFFFFF
310
C94E4E4E4F4E4EFFFFFFFFFFC94E4E4E4E4E72FFFFFFFFFFFFFF734E4D4E4E4E
310
C9FFFFFFFFFFAA683516171616265B9BE9FFFFFFFFFF4E4E4E4D4E4EFFFFFFFF
310
FFFFFFFF4E4E4F4E4D4E4E4E4F4E4E4F4D4E4E4E4E4E4D4E4F4E4D4E4E4EAAFF
310
FFFFFFFFFFEA4E4F4F4E4E4E4E4E4D4D4F4F4E4E4E4E4E5B7FAAFFFFFFFFFFFF
310
C9744E1716171616164D8DEAFFFFFFFF0000FFFFFFFFFFFFBA161617161716FF
310
FFFFFFFFB917171616174FFFFFFFFFFFFFFF4E1716161616B9FFFFFFB9341717
310
1716171617171616268CFFFFFFFF161617161617FFFFFFFFFFFFFFB917161717
310
1617167F807F7F7F7F7F7F807F7F807F7F807F7F7F414EFFFFFFFFFFFF8C167F
310
7F807F7F7F7E7F7F807F807F7F807F4E3417258EFFFFEA4E162674AABAEAEBBA
310
AA74341680FFFFFF0000FFFFFFFFFFFFB9171717171617FFFFFFFFFFBB161616
310
16164EFFFFFFFFFFFFFF4E1717171717B9FFFF9C171617171716161616171616
310
171766FFFFFF161717161617FFFFFFFFFFFFFF8E16171717161616FFFFFFFFFF
310
FFFFFFFFFFFFFFFFFFFFFFFFFFAA16D9FFFFFFFFFF3467FFFFFFFFEAFFFFFFFF
310
FFFFFFFFFFFFFFFFFFCA671667EB26278DFFFFFFFFFFFFFFFFFFFF8C2541EAFF
310
0000FFFFFFFFFFFFB9171717171716FFFFFFFFFFBA16171617174EFFFFFFFFFF
310
FFFF4E1717161616BAFF9B1617161616171716171617161616161667FFFF1616
310
16161716FFFFFFFFFFFFFF7F16161617174017FFFFFFFFFFFFFFFFFFFFFFFFFF
310
FFFFFFFFFFFF344E7F7F7F7E7417DAFFFFFFFF80FFFFFFFFFFFFFFFFFFFFFFFF
310
FFFFFF9B163425CAFFFFFFFFFFFFFFFFFFFFFFFFCA2667FF0000FFFFFFFFFFFF
310
BA171717171617FFFFFFFFFFB916171716164EFFFFFFFFFFFFFF4F1716161717
310
B9C91716171616161716161617171616161617168DFF161716161717FFFFFFFF
310
FFFFFF7F17171716164F16FFFFFFFFFFFFFFFFFFFFFFFFFFFFFFFFFFFFFF9B16
310
17161617174EFFFFFFFFFF34FFFFFFFFD9BABABABABADAFFFFFFFFFF7F16AAFF
310
FFFFFFFFFFFFFFFFFFFFFFFFFF9C16BA0000FFFFFFFFFFFFB9161717161717FF
310
FFFFFFFFB917161716174DFFFFFFFFFFFFFF4E1616161616BA4E161617171716
310
419BEAEAAA4E16161617161726E9171717161616FFFFFFFFFFFFFF4F16161717
310
164E16FFFFFFFFFFBAB9B9B9B9B9BABABACAFFFFFFFFFFFFFFFFFFFFFFFFFFFF
310
FFFFBA16FFFFFFFF7F1617161617174DEAFFFFFFEA41FFFFFFFFFFAA4D16174E
310
9BFFFFFFFFFF34730000FFFFFFFFFFFFB9161617171617FFFFFFFFFFBA161616
310
16164EFFFFFFFFFFFFFF4F16161717169B1617161716175BFFFFFFFFFFFF7417
310
16171616168D171717161617FFFFFFFFFFFFEA2616171717167416FFFFFFFFFF
310
16171616171717171717EAFFFFFFFFFFFFFFFFFFFFFFFFFFFFFF6716FFFFFFFF
310
7F4EFFFFFFFFBA2573FFFFFFFFBAFFFFFFFFAA167FB9BB9B269BFFFFFFFF664F
310
0000FFFFFFFFFFFFB9171616161616FFFFFFFFFFBA16161717164EFFFFFFFFFF
310
FFFF4E16161616174E161617171626EAFFFFFFFFFFFFFF4E16161616164E1716
310
16161617FFFFFFFFFFFF671616161716347F16FFFFFFFFFF16B9FFFFFFFFFFFF
310
D9168DFFFFFFFFFFFFFFFFFFFFFFFFFFFFEA1716FFFFFFFF7F4EFFFFFFFFFF7F
310
4EFFFFFFFFFFFFFFFFFF5B66FFFFFFEA347FFFFFFFFF7F4D0000FFFFFFFFFFFF
310
B9171616171617FFFFFFFFFFBA17161716174EFFFFFFFFFFFFFF4D1716161617
310
17161716161673FFFFFFFFFFFFFFFF9B1617161717161616171616174F4E4E4E
310
4E341616171616167E7F16FFFFFFFFFF16BAFFFFFFFFFFFFFF5B41FFFFFFFF34
310
1616171616BAFFFFFF9B1716FFFFFFFF7F4EFFFFFFFFFF4E4EFFFFFFFF734E4E
310
4E4E267EDA9B67164EEAFFFFFFFF744D0000FFFFFFFFFFFFBA171717161617FF
310
FFFFFFFFBA1616171616347F7F7F7F80807F331616161717161717161716B9FF
310
FFFFFFFFFFFFFFE9161616161616171716161716171616161616171616171734
310
EA7F16FFFFFFFFFF16BAFFFFFFFFFFFFFFAA17C9FFFFFF7326BABA5B25FFFFFF
310
FF401716FFFFFFFF7F264F4E4E4E4217AAFFFFFFEA16677F73261616164173CA
310
FFFFFFFFFFFF417F0000FFFFFFFFFFFFBA171616171617FFFFFFFFFFBA161616
310
17171616161616161616161717161616161616161617EAFFFFFFFFFFFFFFFFFF
310
261717161716161617161616161617161617161616174EEAFF8016FFFFFFFFFF
310
17BAFFFFFFFFFFFFFFFF3467FFFFFFC916C9FF3467FFFFFFDA166716FFFFFFFF
310
9C4D4E4E4E4E67AAFFFFFFFF6834FF7F262567AAEAFFFFFFFFFFFFFFFF9B17D9
310
0000FFFFFFFFFFFFB9161616161616FFFFFFFFFFBA1617161717171616161616
310
1716171716161716161617171716FFFFFFFFFFFFFFFFFFFF4E17161716171616
310
1617171616161716171717161616169BFF7F17FFFFFFFFFF17B9FFFFFFFFFFFF
310
FFFF7326FFFFFFFF3473DA16AAFFFFFF7317AA16FFFFFFFFFFFFFFFFFFFFFFFF
310
FFFFEA6725BA4E167FEAFFFFFFFFFFFFFFFFFFFF9C167FFF0000FFFFFFFFFFFF
310
B9161717171716FFFFFFFFFFBA16161716171616171717161617161716161616
310
171617171617EAFFFFFFFFFFFFFFFFFF26161717161616161616161617171616
310
1616161616171616AA8016FFFFFFFFFF16BAFFFFFFFFFFFFFFFFDA179BFFFFFF
310
74348D26FFFFFFFF2566B917FFFFFFFFD8BAB9BAB9BADAFFFFEA41169B7425C9
310
FFFFFFFFFFFFFFFFFFFFAB4F1680FFFF0000FFFFFFFFFFFFBA161717171617FF
310
FFFFFFFFBA17161717161617171617161616161617171616171716171617BBFF
310
FFFFFFFFFFFFFFE9171616161617161617161716FFFFFFFFFFD9671616161617
310
348017FFFFFFFFFF16BAFFFFFFFFFFFFFFFFFF4E5AFFFFFFC916265AFFFFFFAA
310
16AABA16FFFFFFFF7F1617161616179BFFFFEB4127168DFFFFFFFFFFFFFFD99B
310
6734175AC9FFFFFF0000FFFFFFFFFFFFB9161617171617FFFFFFFFFFBB161616
310
1616347F807F7F7F7F8033171716171617171616161672FFFFFFFFFFFFFFFF9C
310
171617171617161716161617FFFFFFFFFFFFFF4117161616174E17FFFFFFFFFF
310
16BAFFFFFFFFFFFFFFFFFF9B16DAFFFFFF34169BFFFFFF5A26FFB917FFFFFFFF
310
7F4EFFFFFFEA5B26FFFFFFEA2616EAFFFFFFFFDA743416331617414E4E4E4ECA
310
0000FFFFFFFFFFFFBA161716161616FFFFFFFFFFBA17171616164EFFFFFFFFFF
310
FFFF4E16161717174E161717171626EBFFFFFFFFFFFFFF4E16161617165B1616
310
16171617FFFFFFFFFFFFFF6716161616161617FFFFFFFFFF16BAFFFFFFFFFFFF
310
FFFFFFEA268CFFFFFF7316EAFFFFEB1774FFB916FFFFFFFF7F4EFFFFFFFF7316
310
FFFFFFFF6826FFFFFFFFEB264D9CEABA257F807F7F6616BA0000FFFFFFFFFFFF
310
BA161716161616FFFFFFFFFFBA16171616164DFFFFFFFFFFFFFF4E1617161617
310
9B1617171717165BEBFFFFFFFFFF671616161617179B171616161616FFFFFFFF
310
FFFFFF3417161617171617FFFFFFFFFF17BAFFFFFFFFFFFFFFFFFFFF6734FFFF
310
FFEBCAFFFFFF8D17C9FFBA17FFFFFFFF7F357F808066174FFFFFFFFF7F16FFFF
310
FFFFD91673B99B415BFFFFFFFFBA16DA00009B7F7F7F807F671617161616167F
310
80807F7E6617161616164EFFFFFFFFFFFFFF4E1616161617B94E171716161616
310
349BC9D9AA4E16171616161634FF161617161717B9B9BAB9BA9B411716171716
310
163416FFFFFFFFFF16B9FFFFFFFFFFFFFFFFFFFFC917CAFFFFFFFFFFFFFF3342
310
FFFFBA17FFFFFFFF9B4E4E4F4E4E66EAFFFFFFFF5B16C9FFFFFFFFAA4E164E73
310
EAFFFFFFFF8D26FF00004E161716161616171617171616171717171617161616
310
17174EFFFFFFFFFFFFFF4E1717171616B9D92616171716171716171717171716
310
16171716AAFF161717171617161617171616161617161716166717FFFFFFFFFF
310
17B9FFFFFFFFFFFFFFFFFFFFFF3467FFFFFFFFFFFFCA168CFFFFBB17FFFFFFFF
310
FFFFFFFFFFFFFFFFFFFFFFEA26265BFFFFFFFFFFFFFFFFFFFFFFFFFFEA3467FF
310
00004D16161616161617161717161617161616171617171616164EFFFFFFFFFF
310
FFFF4D1617161616BAFF9B1616161616161716161616171717161766FFFF1616
310
16171617161617161716171616171717667F16FFFFFFFFFF17BAFFFFFFFFFFFF
310
FFFFFFFFFF8C26EAFFFFFFFFFF6617EAFFFFBA17FFFFFFFFFFFFFFFFFFFFFFFF
310
FFFFEA5A25BA269BFFFFFFFFFFFFFFFFFFFFFFFF6616DAFF00004E1616171616
310
1616161616161716161617171616171616174EFFFFFFFFFFFFFF4D1717171716
310
B9FFFF9C161616161616161716161717171667FFFFFF17161717171716161617
310
1716161616161641E97E16FFFFFFFFFF16B9FFFFFFFFFFFFFFFFFFFFFFEA169B
310
FFFFFFFFEA265BFFFFFFB916FFFFFFFFFFFFFFFFFFFFFFFFFF9B3416AAFF9B17
310
67EAFFFFFFFFFFFFFFFFEA5B169BFFFF00004D17161716161616161717171616
310
161717161716171716174EFFFFFFFFFFFFFF4D1616161616BAFFFFFFBB411616
310
161716161616171634ABFFFFFFFF161716161617171716171617171617267FFF
310
FF7F164E4E4E4E4F17BAFFFFFFFFFFFFFFFFFFFFFFFF66344D4E4E4F4117AAFF
310
FFFFBA174E4E4E4D4E4D4D4E4E4E4E4116174EBBFFFFFFCA342666ABEAFFFFEA
310
AA6725269CFFFFFF0000724F4E4D4D4D4E4D4D4E4E4E4D4E4E4E4E4E4E4E4E4D
310
4E4E74FFFFFFFFFFFFFF734E4E4E4D4ECAFFFFFFFFFFAA663416171717265B9B
310
FFFFFFFFFFFF7F8080807F80807F7F7F7F7F807FBAFFFFFFFF9B4E4E4F4D4D4E
310
4DC9FFFFFFFFFFFFFFFFFFFFFFFFBA4E4E4E4E4D4E4EFFFFFFFFC94E4E4E4F4E
310
4E4E4D4E4E5A807F9CD9FFFFFFFFFFFFFF9B5B2617171716174E8DEAFFFFFFFF
310
0000000000000000000000000000000000000000000000000000000000000000
  1
OLE
  0
ENDSEC
  0
SECTION
  2
OBJECTS
  0
DICTIONARY
  5
C
330
0
100
AcDbDictionary
281
     1
  3
ACAD_GROUP
350
D
  3
ACAD_LAYOUT
350
1A
  3
ACAD_MLINESTYLE
350
17
  3
ACAD_PLOTSETTINGS
350
19
  3
ACAD_PLOTSTYLENAME
350
E
  3
ACAD_SCALELIST
350
47
  0
DICTIONARY
  5
D
102
{ACAD_REACTORS
330
C
102
}
330
C
100
AcDbDictionary
281
     1
  0
DICTIONARY
  5
1A
102
{ACAD_REACTORS
330
C
102
}
330
C
100
AcDbDictionary
281
     1
  3
Layout1
350
1E
  3
Layout2
350
26
  3
Model
350
22
  0
DICTIONARY
  5
17
102
{ACAD_REACTORS
330
C
102
}
330
C
100
AcDbDictionary
281
     1
  3
Standard
350
18
  0
DICTIONARY
  5
19
102
{ACAD_REACTORS
330
C
102
}
330
C
100
AcDbDictionary
281
     1
  0
ACDBDICTIONARYWDFLT
  5
E
102
{ACAD_REACTORS
330
C
102
}
330
C
100
AcDbDictionary
281
     1
  3
Normal
350
F
100
AcDbDictionaryWithDefault
340
F
  0
DICTIONARY
  5
47
102
{ACAD_REACTORS
330
C
102
}
330
C
100
AcDbDictionary
281
     1
  3
A0
350
48
  3
A1
350
49
  3
A2
350
4A
  3
A3
350
4B
  3
A4
350
4C
  3
A5
350
4D
  3
A6
350
4E
  3
A7
350
4F
  3
A8
350
50
  3
A9
350
51
  3
B0
350
52
  3
B1
350
53
  3
B2
350
54
  3
B3
350
55
  3
B4
350
56
  3
B5
350
57
  3
B6
350
58
  3
B7
350
59
  3
B8
350
5A
  3
B9
350
5B
  3
C0
350
5C
  3
C1
350
5D
  3
C2
350
5E
  3
C3
350
5F
  3
C4
350
60
  3
C5
350
61
  3
C6
350
62
  3
C7
350
63
  3
C8
350
64
  3
C9
350
65
  3
D0
350
66
  3
D1
350
67
  3
D2
350
68
  0
LAYOUT
  5
1E
102
{ACAD_REACTORS
330
1A
102
}
330
1A
100
AcDbPlotSettings
  1

  2
none_device
  4

  6

 40
0.0
 41
0.0
 42
0.0
 43
0.0
 44
0.0
 45
0.0
 46
0.0
 47
0.0
 48
0.0
 49
0.0
140
0.0
141
0.0
142
1.0
143
1.0
 70
   688
 72
     1
 73
     0
 74
     5
  7

 75
    16
147
1.0
148
0.0
149
0.0
100
AcDbLayout
  1
Layout1
 70
     1
 71
     1
 10
0.0
 20
0.0
 11
420.0
 21
297.0
 12
0.0
 22
0.0
 32
0.0
 14
1.0000000000E+20
 24
1.0000000000E+20
 34
1.0000000000E+20
 15
-1.0000000000E+20
 25
-1.0000000000E+20
 35
-1.0000000000E+20
146
0.0
 13
0.0
 23
0.0
 33
0.0
 16
1.0
 26
0.0
 36
0.0
 17
0.0
 27
1.0
 37
0.0
 76
     0
330
1B
  0
LAYOUT
  5
26
102
{ACAD_REACTORS
330
1A
102
}
330
1A
100
AcDbPlotSettings
  1

  2
none_device
  4

  6

 40
0.0
 41
0.0
 42
0.0
 43
0.0
 44
0.0
 45
0.0
 46
0.0
 47
0.0
 48
0.0
 49
0.0
140
0.0
141
0.0
142
1.0
143
1.0
 70
   688
 72
     1
 73
     0
 74
     5
  7

 75
    16
147
1.0
148
0.0
149
0.0
100
AcDbLayout
  1
Layout2
 70
     1
 71
     2
 10
0.0
 20
0.0
 11
0.0
 21
0.0
 12
0.0
 22
0.0
 32
0.0
 14
0.0
 24
0.0
 34
0.0
 15
0.0
 25
0.0
 35
0.0
146
0.0
 13
0.0
 23
0.0
 33
0.0
 16
1.0
 26
0.0
 36
0.0
 17
0.0
 27
1.0
 37
0.0
 76
     0
330
23
  0
LAYOUT
  5
22
102
{ACAD_REACTORS
330
1A
102
}
330
1A
100
AcDbPlotSettings
  1

  2
none_device
  4
Letter_(8.50_x_11.00_Inches)
  6

 40
6.35
 41
6.35
 42
6.35000508
 43
6.35000508
 44
215.9
 45
279.4
 46
0.0
 47
0.0
 48
0.0
 49
0.0
140
0.0
141
0.0
142
1.0
143
1.0
 70
  1712
 72
     1
 73
     0
 74
     0
  7

 75
     0
147
1.0
148
0.0
149
0.0
100
AcDbLayout
  1
Model
 70
     1
 71
     0
 10
0.0
 20
0.0
 11
279.4
 21
215.9
 12
0.0
 22
0.0
 32
0.0
 14
0.0
 24
0.0
 34
0.0
 15
279.4
 25
215.9
 35
0.0
146
0.0
 13
0.0
 23
0.0
 33
0.0
 16
1.0
 26
0.0
 36
0.0
 17
0.0
 27
1.0
 37
0.0
 76
     0
330
1F
331
29
  0
MLINESTYLE
  5
18
102
{ACAD_REACTORS
330
17
102
}
330
17
100
AcDbMlineStyle
  2
Standard
 70
     0
  3

 62
   256
 51
90.0
 52
90.0
 71
     2
 49
0.5
 62
   256
  6
BYLAYER
 49
-0.5
 62
   256
  6
BYLAYER
  0
ACDBPLACEHOLDER
  5
F
102
{ACAD_REACTORS
330
E
102
}
330
E
  0
SCALE
  5
48
102
{ACAD_REACTORS
330
47
102
}
330
47
100
AcDbScale
 70
     0
300
1:1
140
1.0
141
1.0
290
     1
  0
SCALE
  5
49
102
{ACAD_REACTORS
330
47
102
}
330
47
100
AcDbScale
 70
     0
300
1:2
140
1.0
141
2.0
290
     0
  0
SCALE
  5
4A
102
{ACAD_REACTORS
330
47
102
}
330
47
100
AcDbScale
 70
     0
300
1:4
140
1.0
141
4.0
290
     0
  0
SCALE
  5
4B
102
{ACAD_REACTORS
330
47
102
}
330
47
100
AcDbScale
 70
     0
300
1:5
140
1.0
141
5.0
290
     0
  0
SCALE
  5
4C
102
{ACAD_REACTORS
330
47
102
}
330
47
100
AcDbScale
 70
     0
300
1:8
140
1.0
141
8.0
290
     0
  0
SCALE
  5
4D
102
{ACAD_REACTORS
330
47
102
}
330
47
100
AcDbScale
 70
     0
300
1:10
140
1.0
141
10.0
290
     0
  0
SCALE
  5
4E
102
{ACAD_REACTORS
330
47
102
}
330
47
100
AcDbScale
 70
     0
300
1:16
140
1.0
141
16.0
290
     0
  0
SCALE
  5
4F
102
{ACAD_REACTORS
330
47
102
}
330
47
100
AcDbScale
 70
     0
300
1:20
140
1.0
141
20.0
290
     0
  0
SCALE
  5
50
102
{ACAD_REACTORS
330
47
102
}
330
47
100
AcDbScale
 70
     0
300
1:30
140
1.0
141
30.0
290
     0
  0
SCALE
  5
51
102
{ACAD_REACTORS
330
47
102
}
330
47
100
AcDbScale
 70
     0
300
1:40
140
1.0
141
40.0
290
     0
  0
SCALE
  5
52
102
{ACAD_REACTORS
330
47
102
}
330
47
100
AcDbScale
 70
     0
300
1:50
140
1.0
141
50.0
290
     0
  0
SCALE
  5
53
102
{ACAD_REACTORS
330
47
102
}
330
47
100
AcDbScale
 70
     0
300
1:100
140
1.0
141
100.0
290
     0
  0
SCALE
  5
54
102
{ACAD_REACTORS
330
47
102
}
330
47
100
AcDbScale
 70
     0
300
2:1
140
2.0
141
1.0
290
     0
  0
SCALE
  5
55
102
{ACAD_REACTORS
330
47
102
}
330
47
100
AcDbScale
 70
     0
300
4:1
140
4.0
141
1.0
290
     0
  0
SCALE
  5
56
102
{ACAD_REACTORS
330
47
102
}
330
47
100
AcDbScale
 70
     0
300
8:1
140
8.0
141
1.0
290
     0
  0
SCALE
  5
57
102
{ACAD_REACTORS
330
47
102
}
330
47
100
AcDbScale
 70
     0
300
10:1
140
10.0
141
1.0
290
     0
  0
SCALE
  5
58
102
{ACAD_REACTORS
330
47
102
}
330
47
100
AcDbScale
 70
     0
300
100:1
140
100.0
141
1.0
290
     0
  0
SCALE
  5
59
102
{ACAD_REACTORS
330
47
102
}
330
47
100
AcDbScale
 70
     0
300
1/128" = 1'-0"
140
0.0078125
141
12.0
290
     0
  0
SCALE
  5
5A
102
{ACAD_REACTORS
330
47
102
}
330
47
100
AcDbScale
 70
     0
300
1/64" = 1'-0"
140
0.015625
141
12.0
290
     0
  0
SCALE
  5
5B
102
{ACAD_REACTORS
330
47
102
}
330
47
100
AcDbScale
 70
     0
300
1/32" = 1'-0"
140
0.03125
141
12.0
290
     0
  0
SCALE
  5
5C
102
{ACAD_REACTORS
330
47
102
}
330
47
100
AcDbScale
 70
     0
300
1/16" = 1'-0"
140
0.0625
141
12.0
290
     0
  0
SCALE
  5
5D
102
{ACAD_REACTORS
330
47
102
}
330
47
100
AcDbScale
 70
     0
300
3/32" = 1'-0"
140
0.09375
141
12.0
290
     0
  0
SCALE
  5
5E
102
{ACAD_REACTORS
330
47
102
}
330
47
100
AcDbScale
 70
     0
300
1/8" = 1'-0"
140
0.125
141
12.0
290
     0
  0
SCALE
  5
5F
102
{ACAD_REACTORS
330
47
102
}
330
47
100
AcDbScale
 70
     0
300
3/16" = 1'-0"
140
0.1875
141
12.0
290
     0
  0
SCALE
  5
60
102
{ACAD_REACTORS
330
47
102
}
330
47
100
AcDbScale
 70
     0
300
1/4" = 1'-0"
140
0.25
141
12.0
290
     0
  0
SCALE
  5
61
102
{ACAD_REACTORS
330
47
102
}
330
47
100
AcDbScale
 70
     0
300
3/8" = 1'-0"
140
0.375
141
12.0
290
     0
  0
SCALE
  5
62
102
{ACAD_REACTORS
330
47
102
}
330
47
100
AcDbScale
 70
     0
300
1/2" = 1'-0"
140
0.5
141
12.0
290
     0
  0
SCALE
  5
63
102
{ACAD_REACTORS
330
47
102
}
330
47
100
AcDbScale
 70
     0
300
3/4" = 1'-0"
140
0.75
141
12.0
290
     0
  0
SCALE
  5
64
102
{ACAD_REACTORS
330
47
102
}
330
47
100
AcDbScale
 70
     0
300
1" = 1'-0"
140
1.0
141
12.0
290
     0
  0
SCALE
  5
65
102
{ACAD_REACTORS
330
47
102
}
330
47
100
AcDbScale
 70
     0
300
1-1/2" = 1'-0"
140
1.5
141
12.0
290
     0
  0
SCALE
  5
66
102
{ACAD_REACTORS
330
47
102
}
330
47
100
AcDbScale
 70
     0
300
3" = 1'-0"
140
3.0
141
12.0
290
     0
  0
SCALE
  5
67
102
{ACAD_REACTORS
330
47
102
}
330
47
100
AcDbScale
 70
     0
300
6" = 1'-0"
140
6.0
141
12.0
290
     0
  0
SCALE
  5
68
102
{ACAD_REACTORS
330
47
102
}
330
47
100
AcDbScale
 70
     0
300
1'-0" = 1'-0"
140
12.0
141
12.0
290
     0
  0
ENDSEC
  0
EOF
