  0
SECTION
  2
HEADER
  9
$ACADVER
  1
AC1015
  9
$ACADMAINTVER
 70
     6
  9
$DWGCODEPAGE
  3
ANSI_1252
  9
$INSBASE
 10
0.0
 20
0.0
 30
0.0
  9
$EXTMIN
 10
0.0
 20
0.0
 30
0.0
  9
$EXTMAX
 10
279.4
 20
215.9
 30
0.0
  9
$LIMMIN
 10
0.0
 20
0.0
  9
$LIMMAX
 10
279.4
 20
215.9
  9
$ORTHOMODE
 70
     0
  9
$REGENMODE
 70
     1
  9
$FILLMODE
 70
     1
  9
$QTEXTMODE
 70
     0
  9
$MIRRTEXT
 70
     1
  9
$LTSCALE
 40
1.0
  9
$ATTMODE
 70
     1
  9
$TEXTSIZE
 40
1.4111111111
  9
$TRACEWID
 40
1.0
  9
$TEXTSTYLE
  7
Standard
  9
$CLAYER
  8
0
  9
$CELTYPE
  6
ByLayer
  9
$CECOLOR
 62
   256
  9
$CELTSCALE
 40
1.0
  9
$DISPSILH
 70
     0
  9
$DIMSCALE
 40
1.0
  9
$DIMASZ
 40
3.175
  9
$DIMEXO
 40
1.27
  9
$DIMDLI
 40
3.75
  9
$DIMRND
 40
0.0
  9
$DIMDLE
 40
0.0
  9
$DIMEXE
 40
1.778
  9
$DIMTP
 40
0.0
  9
$DIMTM
 40
0.0
  9
$DIMTXT
 40
1.4111111111
  9
$DIMCEN
 40
2.5
  9
$DIMTSZ
 40
0.0
  9
$DIMTOL
 70
     0
  9
$DIMLIM
 70
     0
  9
$DIMTIH
 70
     1
  9
$DIMTOH
 70
     1
  9
$DIMSE1
 70
     0
  9
$DIMSE2
 70
     0
  9
$DIMTAD
 70
     0
  9
$DIMZIN
 70
     1
  9
$DIMBLK
  1

  9
$DIMASO
 70
     1
  9
$DIMSHO
 70
     1
  9
$DIMPOST
  1

  9
$DIMAPOST
  1

  9
$DIMALT
 70
     0
  9
$DIMALTD
 70
     3
  9
$DIMALTF
 40
0.0393700787
  9
$DIMLFAC
 40
1.0
  9
$DIMTOFL
 70
     1
  9
$DIMTVP
 40
0.0
  9
$DIMTIX
 70
     0
  9
$DIMSOXD
 70
     0
  9
$DIMSAH
 70
     0
  9
$DIMBLK1
  1

  9
$DIMBLK2
  1

  9
$DIMSTYLE
  2
ISO-25
  9
$DIMCLRD
 70
     0
  9
$DIMCLRE
 70
     0
  9
$DIMCLRT
 70
     0
  9
$DIMTFAC
 40
1.0
  9
$DIMGAP
 40
2.54
  9
$DIMJUST
 70
     0
  9
$DIMSD1
 70
     0
  9
$DIMSD2
 70
     0
  9
$DIMTOLJ
 70
     0
  9
$DIMTZIN
 70
     1
  9
$DIMALTZ
 70
     0
  9
$DIMALTTZ
 70
     0
  9
$DIMUPT
 70
     0
  9
$DIMDEC
 70
     1
  9
$DIMTDEC
 70
     1
  9
$DIMALTU
 70
     2
  9
$DIMALTTD
 70
     3
  9
$DIMTXSTY
  7
Standard
  9
$DIMAUNIT
 70
     0
  9
$DIMADEC
 70
     0
  9
$DIMALTRND
 40
0.0
  9
$DIMAZIN
 70
     0
  9
$DIMDSEP
 70
    44
  9
$DIMATFIT
 70
     3
  9
$DIMFRAC
 70
     0
  9
$DIMLDRBLK
  1

  9
$DIMLUNIT
 70
     2
  9
$DIMLWD
 70
    -2
  9
$DIMLWE
 70
    -2
  9
$DIMTMOVE
 70
     0
  9
$LUNITS
 70
     2
  9
$LUPREC
 70
     1
  9
$SKETCHINC
 40
1.0
  9
$FILLETRAD
 40
10.0
  9
$AUNITS
 70
     0
  9
$AUPREC
 70
     0
  9
$MENU
  1
.
  9
$ELEVATION
 40
0.0
  9
$PELEVATION
 40
0.0
  9
$THICKNESS
 40
0.0
  9
$LIMCHECK
 70
     0
  9
$CHAMFERA
 40
0.0
  9
$CHAMFERB
 40
0.0
  9
$CHAMFERC
 40
0.0
  9
$CHAMFERD
 40
0.0
  9
$SKPOLY
 70
     0
  9
$TDCREATE
 40
2459055.670848519
  9
$TDUCREATE
 40
2459055.837515185
  9
$TDUPDATE
 40
2459055.670853588
  9
$TDUUPDATE
 40
2459055.837520255
  9
$TDINDWG
 40
0.0000000116
  9
$TDUSRTIMER
 40
0.0000000116
  9
$USRTIMER
 70
     1
  9
$ANGBASE
 50
0.0
  9
$ANGDIR
 70
     0
  9
$PDMODE
 70
     0
  9
$PDSIZE
 40
-1.0
  9
$PLINEWID
 40
0.0
  9
$SPLFRAME
 70
     0
  9
$SPLINETYPE
 70
     6
  9
$SPLINESEGS
 70
     8
  9
$HANDSEED
  5
211
  9
$SURFTAB1
 70
     6
  9
$SURFTAB2
 70
     6
  9
$SURFTYPE
 70
     6
  9
$SURFU
 70
     6
  9
$SURFV
 70
     6
  9
$UCSBASE
  2

  9
$UCSNAME
  2

  9
$UCSORG
 10
0.0
 20
0.0
 30
0.0
  9
$UCSXDIR
 10
1.0
 20
0.0
 30
0.0
  9
$UCSYDIR
 10
0.0
 20
1.0
 30
0.0
  9
$UCSORTHOREF
  2

  9
$UCSORTHOVIEW
 70
     0
  9
$UCSORGTOP
 10
0.0
 20
0.0
 30
0.0
  9
$UCSORGBOTTOM
 10
0.0
 20
0.0
 30
0.0
  9
$UCSORGLEFT
 10
0.0
 20
0.0
 30
0.0
  9
$UCSORGRIGHT
 10
0.0
 20
0.0
 30
0.0
  9
$UCSORGFRONT
 10
0.0
 20
0.0
 30
0.0
  9
$UCSORGBACK
 10
0.0
 20
0.0
 30
0.0
  9
$PUCSBASE
  2

  9
$PUCSNAME
  2

  9
$PUCSORG
 10
0.0
 20
0.0
 30
0.0
  9
$PUCSXDIR
 10
1.0
 20
0.0
 30
0.0
  9
$PUCSYDIR
 10
0.0
 20
1.0
 30
0.0
  9
$PUCSORTHOREF
  2

  9
$PUCSORTHOVIEW
 70
     0
  9
$PUCSORGTOP
 10
0.0
 20
0.0
 30
0.0
  9
$PUCSORGBOTTOM
 10
0.0
 20
0.0
 30
0.0
  9
$PUCSORGLEFT
 10
0.0
 20
0.0
 30
0.0
  9
$PUCSORGRIGHT
 10
0.0
 20
0.0
 30
0.0
  9
$PUCSORGFRONT
 10
0.0
 20
0.0
 30
0.0
  9
$PUCSORGBACK
 10
0.0
 20
0.0
 30
0.0
  9
$USERI1
 70
     0
  9
$USERI2
 70
     0
  9
$USERI3
 70
     0
  9
$USERI4
 70
     0
  9
$USERI5
 70
     0
  9
$USERR1
 40
0.0
  9
$USERR2
 40
0.0
  9
$USERR3
 40
0.0
  9
$USERR4
 40
0.0
  9
$USERR5
 40
0.0
  9
$WORLDVIEW
 70
     1
  9
$SHADEDGE
 70
     3
  9
$SHADEDIF
 70
    70
  9
$TILEMODE
 70
     1
  9
$MAXACTVP
 70
    64
  9
$PINSBASE
 10
0.0
 20
0.0
 30
0.0
  9
$PLIMCHECK
 70
     0
  9
$PEXTMIN
 10
1.0000000000E+20
 20
1.0000000000E+20
 30
1.0000000000E+20
  9
$PEXTMAX
 10
-1.0000000000E+20
 20
-1.0000000000E+20
 30
-1.0000000000E+20
  9
$PLIMMIN
 10
0.0
 20
0.0
  9
$PLIMMAX
 10
420.0
 20
297.0
  9
$UNITMODE
 70
     0
  9
$VISRETAIN
 70
     1
  9
$PLINEGEN
 70
     0
  9
$PSLTSCALE
 70
     1
  9
$TREEDEPTH
 70
  3020
  9
$CMLSTYLE
  2
Standard
  9
$CMLJUST
 70
     0
  9
$CMLSCALE
 40
20.0
  9
$PROXYGRAPHICS
 70
     1
  9
$MEASUREMENT
 70
     1
  9
$CELWEIGHT
370
    -1
  9
$ENDCAPS
280
     0
  9
$JOINSTYLE
280
     0
  9
$LWDISPLAY
290
     1
  9
$INSUNITS
 70
     4
  9
$HYPERLINKBASE
  1

  9
$STYLESHEET
  1

  9
$XEDIT
290
     1
  9
$CEPSNTYPE
380
     0
  9
$PSTYLEMODE
290
     1
  9
$FINGERPRINTGUID
  2
{E6754018-98D2-4958-A52F-9B05C6826050}
  9
$VERSIONGUID
  2
{FAEB1C32-E019-11D5-929B-00C0DF256EC4}
  9
$EXTNAMES
290
     1
  9
$PSVPSCALE
 40
0.0
  9
$OLESTARTUP
290
     0
  0
ENDSEC
  0
SECTION
  2
CLASSES
  0
CLASS
  1
ACDBDICTIONARYWDFLT
  2
AcDbDictionaryWithDefault
  3
ObjectDBX Classes
 90
        0
280
     0
281
     0
  0
CLASS
  1
VISUALSTYLE
  2
AcDbVisualStyle
  3
ObjectDBX Classes
 90
     4095
280
     0
281
     0
  0
CLASS
  1
MATERIAL
  2
AcDbMaterial
  3
ObjectDBX Classes
 90
     1153
280
     0
281
     0
  0
CLASS
  1
SCALE
  2
AcDbScale
  3
ObjectDBX Classes
 90
     1153
280
     0
281
     0
  0
CLASS
  1
TABLESTYLE
  2
AcDbTableStyle
  3
ObjectDBX Classes
 90
     4095
280
     0
281
     0
  0
CLASS
  1
MLEADERSTYLE
  2
AcDbMLeaderStyle
  3
ACDB_MLEADERSTYLE_CLASS
 90
     4095
280
     0
281
     0
  0
CLASS
  1
SUN
  2
AcDbSun
  3
SCENEOE
 90
     1153
280
     0
281
     0
  0
CLASS
  1
ACDBPLACEHOLDER
  2
AcDbPlaceHolder
  3
ObjectDBX Classes
 90
        0
280
     0
281
     0
  0
CLASS
  1
LAYOUT
  2
AcDbLayout
  3
ObjectDBX Classes
 90
        0
280
     0
281
     0
  0
ENDSEC
  0
SECTION
  2
TABLES
  0
TABLE
  2
VPORT
  5
8
330
0
100
AcDbSymbolTable
 70
     1
  0
VPORT
  5
29
330
8
100
AcDbSymbolTableRecord
100
AcDbViewportTableRecord
  2
*Active
 70
     0
 10
0.0
 20
0.0
 11
1.0
 21
1.0
 12
139.7
 22
107.95
 13
0.0
 23
0.0
 14
10.0
 24
10.0
 15
10.0
 25
10.0
 16
0.0
 26
0.0
 36
1.0
 17
0.0
 27
0.0
 37
0.0
 40
215.9
 41
1.2941176471
 42
50.0
 43
0.0
 44
0.0
 50
0.0
 51
0.0
 71
     0
 72
  2000
 73
     1
 74
     3
 75
     0
 76
     0
 77
     0
 78
     0
281
     0
 65
     1
110
0.0
120
0.0
130
0.0
111
1.0
121
0.0
131
0.0
112
0.0
122
1.0
132
0.0
 79
     0
146
0.0
  0
ENDTAB
  0
TABLE
  2
LTYPE
  5
5
330
0
100
AcDbSymbolTable
 70
     6
  0
LTYPE
  5
14
330
5
100
AcDbSymbolTableRecord
100
AcDbLinetypeTableRecord
  2
ByBlock
 70
     0
  3

 72
    65
 73
     0
 40
0.0
  0
LTYPE
  5
15
330
5
100
AcDbSymbolTableRecord
100
AcDbLinetypeTableRecord
  2
ByLayer
 70
     0
  3

 72
    65
 73
     0
 40
0.0
  0
LTYPE
  5
16
330
5
100
AcDbSymbolTableRecord
100
AcDbLinetypeTableRecord
  2
Continuous
 70
     0
  3
Solid line
 72
    65
 73
     0
 40
0.0
  0
LTYPE
  5
6E
330
5
100
AcDbSymbolTableRecord
100
AcDbLinetypeTableRecord
  2
HIDDEN
 70
     0
  3
Hidden __ __ __ __ __ __ __ __ __ __ __ __ __ __
 72
    65
 73
     2
 40
1.905
 49
1.27
 74
     0
 49
-0.635
 74
     0
  0
LTYPE
  5
6F
330
5
100
AcDbSymbolTableRecord
100
AcDbLinetypeTableRecord
  2
PHANTOM
 70
     0
  3
Phantom ______  __  __  ______  __  __  ______
 72
    65
 73
     6
 40
12.7
 49
6.35
 74
     0
 49
-1.27
 74
     0
 49
1.27
 74
     0
 49
-1.27
 74
     0
 49
1.27
 74
     0
 49
-1.27
 74
     0
  0
LTYPE
  5
70
330
5
100
AcDbSymbolTableRecord
100
AcDbLinetypeTableRecord
  2
CENTER
 70
     0
  3
Center ____ _ ____ _ ____ _ ____ _ ____ _ ____
 72
    65
 73
     4
 40
10.16
 49
6.35
 74
     0
 49
-1.27
 74
     0
 49
1.27
 74
     0
 49
-1.27
 74
     0
  0
LTYPE
  5
71
330
5
100
AcDbSymbolTableRecord
100
AcDbLinetypeTableRecord
  2
CENTERX2
 70
     0
  3
Center (2x) ________  __  ________  __  _____
 72
    65
 73
     4
 40
20.32
 49
12.7
 74
     0
 49
-2.54
 74
     0
 49
2.54
 74
     0
 49
-2.54
 74
     0
  0
LTYPE
  5
72
330
5
100
AcDbSymbolTableRecord
100
AcDbLinetypeTableRecord
  2
DOT2
 70
     0
  3
Dot (.5x) ........................................
 72
    65
 73
     2
 40
0.635
 49
0.0
 74
     0
 49
-0.635
 74
     0
  0
ENDTAB
  0
TABLE
  2
LAYER
  5
2
330
0
100
AcDbSymbolTable
 70
     2
  0
LAYER
  5
10
330
2
100
AcDbSymbolTableRecord
100
AcDbLayerTableRecord
  2
0
 70
     0
 62
     7
  6
Continuous
370
    -3
390
F
  0
LAYER
  5
73
330
2
100
AcDbSymbolTableRecord
100
AcDbLayerTableRecord
  2
FORMAT
 70
     0
 62
     7
  6
Continuous
370
    -3
390
F
  0
ENDTAB
  0
TABLE
  2
STYLE
  5
3
330
0
100
AcDbSymbolTable
 70
     5
  0
STYLE
  5
11
330
3
100
AcDbSymbolTableRecord
100
AcDbTextStyleTableRecord
  2
Standard
 70
     0
 40
0.0
 41
1.0
 50
0.0
 71
     0
 42
1.4111111111
  3
txt
  4

  0
STYLE
  5
9D
330
3
100
AcDbSymbolTableRecord
100
AcDbTextStyleTableRecord
  2
SLDTEXTSTYLE0
 70
     0
 40
0.0
 41
0.75
 50
0.0
 71
     0
 42
1.4111111111
  3
TXT
  4

  0
STYLE
  5
A5
330
3
100
AcDbSymbolTableRecord
100
AcDbTextStyleTableRecord
  2
SLDTEXTSTYLE1
 70
     0
 40
0.0
 41
0.75
 50
0.0
 71
     0
 42
1.4111111111
  3
TXT
  4
bigfont
  0
STYLE
  5
C2
330
3
100
AcDbSymbolTableRecord
100
AcDbTextStyleTableRecord
  2
SLDTEXTSTYLE2
 70
     0
 40
0.0
 41
0.6
 50
0.0
 71
     0
 42
1.4111111111
  3
TXT
  4

  0
STYLE
  5
C7
330
3
100
AcDbSymbolTableRecord
100
AcDbTextStyleTableRecord
  2
SLDTEXTSTYLE3
 70
     0
 40
0.0
 41
0.6875
 50
0.0
 71
     0
 42
1.4111111111
  3
TXT
  4

  0
ENDTAB
  0
TABLE
  2
VIEW
  5
6
330
0
100
AcDbSymbolTable
 70
     0
  0
ENDTAB
  0
TABLE
  2
UCS
  5
7
330
0
100
AcDbSymbolTable
 70
     0
  0
ENDTAB
  0
TABLE
  2
APPID
  5
9
330
0
100
AcDbSymbolTable
 70
     1
  0
APPID
  5
12
330
9
100
AcDbSymbolTableRecord
100
AcDbRegAppTableRecord
  2
ACAD
 70
     0
  0
ENDTAB
  0
TABLE
  2
DIMSTYLE
  5
A
330
0
100
AcDbSymbolTable
 70
     4
100
AcDbDimStyleTable
  0
DIMSTYLE
105
27
330
A
100
AcDbSymbolTableRecord
100
AcDbDimStyleTableRecord
  2
ISO-25
 70
     0
 41
2.5
 42
0.625
 43
3.75
 44
1.25
 73
     0
 74
     0
 77
     1
 78
     8
140
2.5
141
2.5
143
0.0393700787
147
0.625
171
     3
172
     1
178
     0
271
     2
272
     2
274
     3
278
    44
283
     0
284
     8
340
11
  0
DIMSTYLE
105
E7
102
{ACAD_REACTORS
330
E6
102
}
330
A
100
AcDbSymbolTableRecord
100
AcDbDimStyleTableRecord
  2
SLDDIMSTYLE0
 70
     0
 41
3.175
 44
0.0
 45
0.000000001
 78
    12
 79
     3
140
2.6458333333
141
0.0
143
0.0393700787
147
0.6614583333
148
0.000000001
170
     1
173
     1
178
     0
271
     1
272
     1
276
     2
284
    12
340
9D
  0
DIMSTYLE
105
176
102
{ACAD_REACTORS
330
175
102
}
330
A
100
AcDbSymbolTableRecord
100
AcDbDimStyleTableRecord
  2
SLDDIMSTYLE1
 70
     0
 41
3.175
 44
0.0
 45
0.000000001
 78
     4
 79
     1
140
2.6458333333
143
0.0393700787
147
0.6614583333
148
0.000000001
170
     1
172
     1
173
     1
178
     0
271
     1
272
     1
276
     2
284
    12
289
     0
340
9D
  0
DIMSTYLE
105
18B
330
A
100
AcDbSymbolTableRecord
100
AcDbDimStyleTableRecord
  2
SLDDIMSTYLE2
 70
     0
 41
3.175
 44
0.0
 45
0.000000001
146
3.175
147
0.0
173
     1
178
     0
271
     0
272
     0
276
     2
340
11
  0
ENDTAB
  0
TABLE
  2
BLOCK_RECORD
  5
1
330
0
100
AcDbSymbolTable
 70
    10
  0
BLOCK_RECORD
  5
1F
330
1
100
AcDbSymbolTableRecord
100
AcDbBlockTableRecord
  2
*Model_Space
340
22
  0
BLOCK_RECORD
  5
1B
330
1
100
AcDbSymbolTableRecord
100
AcDbBlockTableRecord
  2
*Paper_Space
340
1E
  0
BLOCK_RECORD
  5
23
330
1
100
AcDbSymbolTableRecord
100
AcDbBlockTableRecord
  2
*Paper_Space0
340
26
  0
BLOCK_RECORD
  5
74
330
1
100
AcDbSymbolTableRecord
100
AcDbBlockTableRecord
  2
Third Angle Projection Block
340
0
102
{BLKREFS
331
99
102
}
  0
BLOCK_RECORD
  5
9A
330
1
100
AcDbSymbolTableRecord
100
AcDbBlockTableRecord
  2
SW_NOTE_0
340
0
102
{BLKREFS
331
B6
102
}
  0
BLOCK_RECORD
  5
C9
330
1
100
AcDbSymbolTableRecord
100
AcDbBlockTableRecord
  2
SW_NOTE_1
340
0
102
{BLKREFS
331
CE
102
}
  0
BLOCK_RECORD
  5
CF
330
1
100
AcDbSymbolTableRecord
100
AcDbBlockTableRecord
  2
SW_NOTE_2
340
0
102
{BLKREFS
331
D4
102
}
  0
BLOCK_RECORD
  5
D6
330
1
100
AcDbSymbolTableRecord
100
AcDbBlockTableRecord
  2
SW_NOTE_3
340
0
102
{BLKREFS
331
DB
102
}
  0
BLOCK_RECORD
  5
DC
330
1
100
AcDbSymbolTableRecord
100
AcDbBlockTableRecord
  2
SW_NOTE_4
340
0
102
{BLKREFS
331
E2
102
}
  0
BLOCK_RECORD
  5
E8
330
1
100
AcDbSymbolTableRecord
100
AcDbBlockTableRecord
  2
_D
340
0
  0
BLOCK_RECORD
  5
177
330
1
100
AcDbSymbolTableRecord
100
AcDbBlockTableRecord
  2
_D_1
340
0
  0
BLOCK_RECORD
  5
18D
330
1
100
AcDbSymbolTableRecord
100
AcDbBlockTableRecord
  2
SW_NOTE_5
340
0
102
{BLKREFS
331
192
102
}
  0
ENDTAB
  0
ENDSEC
  0
SECTION
  2
BLOCKS
  0
BLOCK
  5
20
330
1F
100
AcDbEntity
  8
0
100
AcDbBlockBegin
  2
*Model_Space
 70
     0
 10
0.0
 20
0.0
 30
0.0
  3
*Model_Space
  1

  0
ENDBLK
  5
21
330
1F
100
AcDbEntity
  8
0
100
AcDbBlockEnd
  0
BLOCK
  5
1C
330
1B
100
AcDbEntity
 67
     1
  8
0
100
AcDbBlockBegin
  2
*Paper_Space
 70
     0
 10
0.0
 20
0.0
 30
0.0
  3
*Paper_Space
  1

  0
ENDBLK
  5
1D
330
1B
100
AcDbEntity
 67
     1
  8
0
100
AcDbBlockEnd
  0
BLOCK
  5
24
330
23
100
AcDbEntity
  8
0
100
AcDbBlockBegin
  2
*Paper_Space0
 70
     0
 10
0.0
 20
0.0
 30
0.0
  3
*Paper_Space0
  1

  0
ENDBLK
  5
25
330
23
100
AcDbEntity
  8
0
100
AcDbBlockEnd
  0
BLOCK
  5
75
330
74
100
AcDbEntity
  8
0
100
AcDbBlockBegin
  2
Third Angle Projection Block
 70
     0
 10
0.0
 20
0.0
 30
0.0
  3
Third Angle Projection Block
  1

  0
CIRCLE
  5
77
330
74
100
AcDbEntity
  8
0
  6
Continuous
 62
     7
370
    35
100
AcDbCircle
 10
101.4766388944
 20
18.9404083667
 30
0.0
 40
1.768227153674871
  0
CIRCLE
  5
78
330
74
100
AcDbEntity
  8
0
  6
Continuous
 62
     7
370
    35
100
AcDbCircle
 10
101.4766388944
 20
18.9404083667
 30
0.0
 40
3.901228248531818
  0
LINE
  5
79
330
74
100
AcDbEntity
  8
0
  6
CENTERX2
 62
     7
370
    18
100
AcDbLine
 10
110.1367822585
 20
18.9404083667
 30
0.0
 11
119.4527334874
 21
18.9404083667
 31
0.0
  0
LINE
  5
7A
330
74
100
AcDbEntity
  8
0
  6
Continuous
 62
     7
370
    35
100
AcDbLine
 10
111.0016388944
 20
20.7086355204
 30
0.0
 11
111.0016388944
 21
17.172181213
 31
0.0
  0
LINE
  5
7B
330
74
100
AcDbEntity
  8
0
  6
Continuous
 62
     7
370
    35
100
AcDbLine
 10
111.0016388944
 20
17.172181213
 30
0.0
 11
118.6216388944
 21
15.1304083667
 31
0.0
  0
LINE
  5
7C
330
74
100
AcDbEntity
  8
0
  6
Continuous
 62
     7
370
    35
100
AcDbLine
 10
118.6216388944
 20
15.1304083667
 30
0.0
 11
118.6216388944
 21
22.7504083667
 31
0.0
  0
LINE
  5
7D
330
74
100
AcDbEntity
  8
0
  6
Continuous
 62
     7
370
    35
100
AcDbLine
 10
118.6216388944
 20
22.7504083667
 30
0.0
 11
111.0016388944
 21
20.7086355204
 31
0.0
  0
LINE
  5
7E
330
74
100
AcDbEntity
  8
0
  6
CENTERX2
 62
     7
370
    18
100
AcDbLine
 10
96.6025854619
 20
18.9404083667
 30
0.0
 11
106.3506923269
 21
18.9404083667
 31
0.0
  0
LINE
  5
7F
330
74
100
AcDbEntity
  8
0
  6
CENTERX2
 62
     7
370
    18
100
AcDbLine
 10
101.4766388944
 20
23.8144617992
 30
0.0
 11
101.4766388944
 21
14.0663549342
 31
0.0
  0
POINT
  5
80
330
74
100
AcDbEntity
  8
0
  6
Continuous
 62
     7
370
     0
100
AcDbPoint
 10
101.4766388944
 20
18.9404083667
 30
0.0
  0
ENDBLK
  5
76
330
74
100
AcDbEntity
  8
0
100
AcDbBlockEnd
  0
BLOCK
  5
9B
330
9A
100
AcDbEntity
  8
0
100
AcDbBlockBegin
  2
SW_NOTE_0
 70
     0
 10
0.0
 20
0.0
 30
0.0
  3
SW_NOTE_0
  1

  0
MTEXT
  5
9E
330
9A
100
AcDbEntity
  8
0
  6
Continuous
 62
     0
370
     0
100
AcDbMText
 10
0.0
 20
2.7285267159
 30
0.0
 40
2.1166666667
 41
0.0
 71
     1
 72
     1
  1
NOTES/SPECIFICATIONS:
  7
SLDTEXTSTYLE0
 73
     1
 44
1.0
  0
MTEXT
  5
9F
330
9A
100
AcDbEntity
  8
0
  6
Continuous
 62
     0
370
     0
100
AcDbMText
 10
9.9999997765
 20
-2.9159176604
 30
0.0
 40
2.1166666667
 41
0.0
 71
     1
 72
     1
  1
CLEAR APERTURE: >
  7
SLDTEXTSTYLE0
 73
     1
 44
1.0
  0
MTEXT
  5
A0
330
9A
100
AcDbEntity
  8
0
  6
Continuous
 62
     0
370
     0
100
AcDbMText
 10
36.2231489271
 20
-2.9159176604
 30
0.0
 40
2.1166666667
 41
0.0
 71
     1
 72
     1
  1
%%c
  7
SLDTEXTSTYLE0
 73
     1
 44
1.0
  0
MTEXT
  5
A1
330
9A
100
AcDbEntity
  8
0
  6
Continuous
 62
     0
370
     0
100
AcDbMText
 10
39.4181385636
 20
-2.9159176604
 30
0.0
 40
2.1166666667
 41
0.0
 71
     1
 72
     1
  1
45.72mm
  7
SLDTEXTSTYLE0
 73
     1
 44
1.0
  0
MTEXT
  5
A2
330
9A
100
AcDbEntity
  8
0
  6
Continuous
 62
     0
370
     0
100
AcDbMText
 10
0.0
 20
-2.9159176604
 30
0.0
 40
2.1166666667
 41
0.0
 71
     1
 72
     1
  1
1.
  7
SLDTEXTSTYLE0
 73
     1
 44
1.0
  0
MTEXT
  5
A3
330
9A
100
AcDbEntity
  8
0
  6
Continuous
 62
     0
370
     0
100
AcDbMText
 10
9.9999997765
 20
-5.7381398485
 30
0.0
 40
2.1166666667
 41
0.0
 71
     1
 72
     1
  1
SURFACE QUALITY: 40-20 SCRATCH-DIG
  7
SLDTEXTSTYLE0
 73
     1
 44
1.0
  0
MTEXT
  5
A4
330
9A
100
AcDbEntity
  8
0
  6
Continuous
 62
     0
370
     0
100
AcDbMText
 10
0.0
 20
-5.7381398485
 30
0.0
 40
2.1166666667
 41
0.0
 71
     1
 72
     1
  1
2.
  7
SLDTEXTSTYLE0
 73
     1
 44
1.0
  0
MTEXT
  5
A6
330
9A
100
AcDbEntity
  8
0
  6
Continuous
 62
     0
370
     0
100
AcDbMText
 10
9.9999997765
 20
-8.5603620366
 30
0.0
 40
2.1166666667
 41
0.0
 71
     1
 72
     1
  1
TRANSMITTED WAVEFRONT ERROR: <\M+183C9/4  AT 633nm
  7
SLDTEXTSTYLE1
 73
     1
 44
1.0
  0
MTEXT
  5
A7
330
9A
100
AcDbEntity
  8
0
  6
Continuous
 62
     0
370
     0
100
AcDbMText
 10
0.0
 20
-8.5603620366
 30
0.0
 40
2.1166666667
 41
0.0
 71
     1
 72
     1
  1
3.
  7
SLDTEXTSTYLE0
 73
     1
 44
1.0
  0
MTEXT
  5
A8
330
9A
100
AcDbEntity
  8
0
  6
Continuous
 62
     0
370
     0
100
AcDbMText
 10
9.9999997765
 20
-11.3825842247
 30
0.0
 40
2.1166666667
 41
0.0
 71
     1
 72
     1
  1
PARALLELISM: <3 arcmin
  7
SLDTEXTSTYLE0
 73
     1
 44
1.0
  0
MTEXT
  5
A9
330
9A
100
AcDbEntity
  8
0
  6
Continuous
 62
     0
370
     0
100
AcDbMText
 10
0.0
 20
-11.3825842247
 30
0.0
 40
2.1166666667
 41
0.0
 71
     1
 72
     1
  1
4.
  7
SLDTEXTSTYLE0
 73
     1
 44
1.0
  0
MTEXT
  5
AA
330
9A
100
AcDbEntity
  8
0
  6
Continuous
 62
     0
370
     0
100
AcDbMText
 10
9.9999997765
 20
-14.2048064128
 30
0.0
 40
2.1166666667
 41
0.0
 71
     1
 72
     1
  1
FILTER COATING (S1):
  7
SLDTEXTSTYLE0
 73
     1
 44
1.0
  0
MTEXT
  5
AB
330
9A
100
AcDbEntity
  8
0
  6
Continuous
 62
     0
370
     0
100
AcDbMText
 10
0.0
 20
-14.2048064128
 30
0.0
 40
2.1166666667
 41
0.0
 71
     1
 72
     1
  1
5.
  7
SLDTEXTSTYLE0
 73
     1
 44
1.0
  0
MTEXT
  5
AC
330
9A
100
AcDbEntity
  8
0
  6
Continuous
 62
     0
370
     0
100
AcDbMText
 10
20.0
 20
-17.027028601
 30
0.0
 40
2.1166666667
 41
0.0
 71
     1
 72
     1
  1
REFLECTION BAND (R): >95% AVERAGE, >90% ABSOUTE 685-1600nm
  7
SLDTEXTSTYLE0
 73
     1
 44
1.0
  0
MTEXT
  5
AD
330
9A
100
AcDbEntity
  8
0
  6
Continuous
 62
     0
370
     0
100
AcDbMText
 10
20.0
 20
-19.8492507891
 30
0.0
 40
2.1166666667
 41
0.0
 71
     1
 72
     1
  1
TRANSMISSION BAND (T): >90% AVERAGE, >85% ABSOLUTE 410-633nm
  7
SLDTEXTSTYLE0
 73
     1
 44
1.0
  0
MTEXT
  5
AE
330
9A
100
AcDbEntity
  8
0
  6
Continuous
 62
     0
370
     0
100
AcDbMText
 10
20.0
 20
-22.6714729772
 30
0.0
 40
2.1166666667
 41
0.0
 71
     1
 72
     1
  1
45
  7
SLDTEXTSTYLE0
 73
     1
 44
1.0
  0
MTEXT
  5
AF
330
9A
100
AcDbEntity
  8
0
  6
Continuous
 62
     0
370
     0
100
AcDbMText
 10
23.1279630493
 20
-22.6714729772
 30
0.0
 40
2.1166666667
 41
0.0
 71
     1
 72
     1
  1
%%d
  7
SLDTEXTSTYLE0
 73
     1
 44
1.0
  0
MTEXT
  5
B0
330
9A
100
AcDbEntity
  8
0
  6
Continuous
 62
     0
370
     0
100
AcDbMText
 10
25.2669724196
 20
-22.6714729772
 30
0.0
 40
2.1166666667
 41
0.0
 71
     1
 72
     1
  1
AOI
  7
SLDTEXTSTYLE0
 73
     1
 44
1.0
  0
MTEXT
  5
B1
330
9A
100
AcDbEntity
  8
0
  6
Continuous
 62
     0
370
     0
100
AcDbMText
 10
9.9999997765
 20
-25.4936951653
 30
0.0
 40
2.1166666667
 41
0.0
 71
     1
 72
     1
  1
AR COATING (S2):
  7
SLDTEXTSTYLE0
 73
     1
 44
1.0
  0
MTEXT
  5
B2
330
9A
100
AcDbEntity
  8
0
  6
Continuous
 62
     0
370
     0
100
AcDbMText
 10
0.0
 20
-25.4936951653
 30
0.0
 40
2.1166666667
 41
0.0
 71
     1
 72
     1
  1
6.
  7
SLDTEXTSTYLE0
 73
     1
 44
1.0
  0
MTEXT
  5
B3
330
9A
100
AcDbEntity
  8
0
  6
Continuous
 62
     0
370
     0
100
AcDbMText
 10
20.0
 20
-28.3159173534
 30
0.0
 40
2.1166666667
 41
0.0
 71
     1
 72
     1
  1
R: <2% ABSOLUTE 400-633nm 45
  7
SLDTEXTSTYLE0
 73
     1
 44
1.0
  0
MTEXT
  5
B4
330
9A
100
AcDbEntity
  8
0
  6
Continuous
 62
     0
370
     0
100
AcDbMText
 10
62.3254929483
 20
-28.3159173534
 30
0.0
 40
2.1166666667
 41
0.0
 71
     1
 72
     1
  1
%%d
  7
SLDTEXTSTYLE0
 73
     1
 44
1.0
  0
MTEXT
  5
B5
330
9A
100
AcDbEntity
  8
0
  6
Continuous
 62
     0
370
     0
100
AcDbMText
 10
64.4645048797
 20
-28.3159173534
 30
0.0
 40
2.1166666667
 41
0.0
 71
     1
 72
     1
  1
AOI
  7
SLDTEXTSTYLE0
 73
     1
 44
1.0
  0
ENDBLK
  5
9C
330
9A
100
AcDbEntity
  8
0
100
AcDbBlockEnd
  0
BLOCK
  5
CA
330
C9
100
AcDbEntity
  8
0
100
AcDbBlockBegin
  2
SW_NOTE_1
 70
     0
 10
0.0
 20
0.0
 30
0.0
  3
SW_NOTE_1
  1

  0
MTEXT
  5
CC
330
C9
100
AcDbEntity
  8
0
  6
Continuous
 62
     0
370
     0
100
AcDbMText
 10
19.90725
 20
1.9645392354
 30
0.0
 40
1.524
 41
0.0
 71
     2
 72
     1
  1
VALUES IN PARENTHESIS ARE CALCULATED
  7
SLDTEXTSTYLE0
 73
     1
 44
1.0
  0
MTEXT
  5
CD
330
C9
100
AcDbEntity
  8
0
  6
Continuous
 62
     0
370
     0
100
AcDbMText
 10
19.8778795174
 20
-0.5594606586
 30
0.0
 40
1.524
 41
0.0
 71
     2
 72
     1
  1
AND MAY CONTAIN ROUNDOFF ERRORS
  7
SLDTEXTSTYLE0
 73
     1
 44
1.0
  0
ENDBLK
  5
CB
330
C9
100
AcDbEntity
  8
0
100
AcDbBlockEnd
  0
BLOCK
  5
D0
330
CF
100
AcDbEntity
  8
0
100
AcDbBlockBegin
  2
SW_NOTE_2
 70
     0
 10
0.0
 20
0.0
 30
0.0
  3
SW_NOTE_2
  1

  0
MTEXT
  5
D2
330
CF
100
AcDbEntity
  8
0
  6
Continuous
 62
     0
370
     0
100
AcDbMText
 10
0.0
 20
2.7285267159
 30
0.0
 40
2.1166666667
 41
0.0
 71
     1
 72
     1
  1
DRAWING
  7
SLDTEXTSTYLE0
 73
     1
 44
1.0
  0
MTEXT
  5
D3
330
CF
100
AcDbEntity
  8
0
  6
Continuous
 62
     0
370
     0
100
AcDbMText
 10
0.0
 20
-0.0936954723
 30
0.0
 40
2.1166666667
 41
0.0
 71
     1
 72
     1
  1
PROJECTION
  7
SLDTEXTSTYLE0
 73
     1
 44
1.0
  0
ENDBLK
  5
D1
330
CF
100
AcDbEntity
  8
0
100
AcDbBlockEnd
  0
BLOCK
  5
D7
330
D6
100
AcDbEntity
  8
0
100
AcDbBlockBegin
  2
SW_NOTE_3
 70
     0
 10
0.0
 20
0.0
 30
0.0
  3
SW_NOTE_3
  1

  0
MTEXT
  5
D9
330
D6
100
AcDbEntity
  8
0
  6
Continuous
 62
     0
370
     0
100
AcDbMText
 10
25.052734375
 20
4.0927900738
 30
0.0
 40
3.175
 41
0.0
 71
     2
 72
     1
  1
FOR INFORMATION ONLY
  7
SLDTEXTSTYLE0
 73
     1
 44
1.0
  0
MTEXT
  5
DA
330
D6
100
AcDbEntity
  8
0
  6
Continuous
 62
     0
370
     0
100
AcDbMText
 10
25.3768468589
 20
-0.1405432084
 30
0.0
 40
3.175
 41
0.0
 71
     2
 72
     1
  1
NOT FOR MANUFACTURING PURPOSES
  7
SLDTEXTSTYLE0
 73
     1
 44
1.0
  0
ENDBLK
  5
D8
330
D6
100
AcDbEntity
  8
0
100
AcDbBlockEnd
  0
BLOCK
  5
DD
330
DC
100
AcDbEntity
  8
0
100
AcDbBlockBegin
  2
SW_NOTE_4
 70
     0
 10
0.0
 20
0.0
 30
0.0
  3
SW_NOTE_4
  1

  0
MTEXT
  5
DF
330
DC
100
AcDbEntity
  8
0
  6
Continuous
 62
     0
370
     0
100
AcDbMText
 10
1.9016927083
 20
3.4106583948
 30
0.0
 40
2.6458333333
 41
0.0
 71
     2
 72
     1
  1
%%c
  7
SLDTEXTSTYLE0
 73
     1
 44
1.0
  0
MTEXT
  5
E0
330
DC
100
AcDbEntity
  8
0
  6
Continuous
 62
     0
370
     0
100
AcDbMText
 10
20.3648321927
 20
3.4106583948
 30
0.0
 40
2.6458333333
 41
0.0
 71
     2
 72
     1
  1
50.8mm SHORTPASS
  7
SLDTEXTSTYLE0
 73
     1
 44
1.0
  0
MTEXT
  5
E1
330
DC
100
AcDbEntity
  8
0
  6
Continuous
 62
     0
370
     0
100
AcDbMText
 10
18.4812696526
 20
-0.1171193403
 30
0.0
 40
2.6458333333
 41
0.0
 71
     2
 72
     1
  1
DICHROIC MIRROR 650nm
  7
SLDTEXTSTYLE0
 73
     1
 44
1.0
  0
ENDBLK
  5
DE
330
DC
100
AcDbEntity
  8
0
100
AcDbBlockEnd
  0
BLOCK
  5
E9
330
E8
100
AcDbEntity
  8
0
100
AcDbBlockBegin
  2
_D
 70
     0
 10
0.0
 20
0.0
 30
0.0
  3
_D
  1

  0
SOLID
  5
EB
330
E8
100
AcDbEntity
  8
0
  6
Continuous
 62
     7
370
    18
100
AcDbTrace
 10
67.6158953092
 20
120.7762536497
 30
0.0
 11
65.9939388739
 21
123.5525724934
 31
0.0
 12
65.2086640489
 22
122.9079024621
 32
0.0
 13
65.2086640489
 23
122.9079024621
 33
0.0
  0
LINE
  5
EC
330
E8
100
AcDbEntity
  8
0
  6
Continuous
 62
     7
370
    18
100
AcDbLine
 10
36.9529185433
 20
132.229043441
 30
0.0
 11
36.1481442547
 21
132.229043441
 31
0.0
  0
LINE
  5
ED
330
E8
100
AcDbEntity
  8
0
  6
Continuous
 62
     7
370
    18
100
AcDbLine
 10
36.1481442547
 20
132.229043441
 30
0.0
 11
36.1481442547
 21
128.0251082872
 31
0.0
  0
LINE
  5
EE
330
E8
100
AcDbEntity
  8
0
  6
Continuous
 62
     7
370
    18
100
AcDbLine
 10
36.1481442547
 20
128.0251082872
 30
0.0
 11
36.9529185433
 21
128.0251082872
 31
0.0
  0
LINE
  5
EF
330
E8
100
AcDbEntity
  8
0
  6
Continuous
 62
     7
370
    18
100
AcDbLine
 10
46.6494077433
 20
132.229043441
 30
0.0
 11
47.4541820318
 21
132.229043441
 31
0.0
  0
LINE
  5
F0
330
E8
100
AcDbEntity
  8
0
  6
Continuous
 62
     7
370
    18
100
AcDbLine
 10
47.4541820318
 20
132.229043441
 30
0.0
 11
47.4541820318
 21
128.0251082872
 31
0.0
  0
LINE
  5
F1
330
E8
100
AcDbEntity
  8
0
  6
Continuous
 62
     7
370
    18
100
AcDbLine
 10
47.4541820318
 20
128.0251082872
 30
0.0
 11
46.6494077433
 21
128.0251082872
 31
0.0
  0
LINE
  5
F2
330
E8
100
AcDbEntity
  8
0
  6
Continuous
 62
     7
370
    18
100
AcDbLine
 10
67.6158953092
 20
120.7762536497
 30
0.0
 11
56.6016630113
 21
134.1927286213
 31
0.0
  0
LINE
  5
F3
330
E8
100
AcDbEntity
  8
0
  6
Continuous
 62
     7
370
    18
100
AcDbLine
 10
56.6016630113
 20
134.1927286213
 30
0.0
 11
52.7916630113
 21
134.1927286213
 31
0.0
  0
MTEXT
  5
F4
330
E8
100
AcDbEntity
  8
0
  6
Continuous
 62
     7
370
    18
100
AcDbMText
 10
35.3433699662
 20
136.1762180864
 30
0.0
 40
2.6458333333
 41
0.0
 71
     1
 72
     1
  1
%%c
  7
SLDTEXTSTYLE0
 73
     1
 44
1.0
  0
MTEXT
  5
F5
330
E8
100
AcDbEntity
  8
0
  6
Continuous
 62
     7
370
    18
100
AcDbMText
 10
39.3371084088
 20
136.1762180864
 30
0.0
 40
2.6458333333
 41
0.0
 71
     1
 72
     1
  1
50.8mm
  7
SLDTEXTSTYLE0
 73
     1
 44
1.0
  0
MTEXT
  5
F6
330
E8
100
AcDbEntity
  8
0
  6
Continuous
 62
     7
370
    18
100
AcDbMText
 10
36.9529185433
 20
131.4357666238
 30
0.0
 40
2.6458333333
 41
0.0
 71
     1
 72
     1
  1
2.00in
  7
SLDTEXTSTYLE0
 73
     1
 44
1.0
  0
ENDBLK
  5
EA
330
E8
100
AcDbEntity
  8
0
100
AcDbBlockEnd
  0
BLOCK
  5
178
330
177
100
AcDbEntity
  8
0
100
AcDbBlockBegin
  2
_D_1
 70
     0
 10
0.0
 20
0.0
 30
0.0
  3
_D_1
  1

  0
SOLID
  5
17A
330
177
100
AcDbEntity
  8
0
  6
Continuous
 62
     7
370
    18
100
AcDbTrace
 10
171.883464194
 20
131.5443830254
 30
0.0
 11
168.708464194
 21
132.0523830254
 31
0.0
 12
168.708464194
 22
131.0363830254
 32
0.0
 13
168.708464194
 23
131.0363830254
 33
0.0
  0
SOLID
  5
17B
330
177
100
AcDbEntity
  8
0
  6
Continuous
 62
     7
370
    18
100
AcDbTrace
 10
176.883464194
 20
131.5443830254
 30
0.0
 11
180.058464194
 21
131.0363830254
 31
0.0
 12
180.058464194
 22
132.0523830254
 32
0.0
 13
180.058464194
 23
132.0523830254
 33
0.0
  0
LINE
  5
17C
330
177
100
AcDbEntity
  8
0
  6
Continuous
 62
     7
370
    18
100
AcDbLine
 10
182.1697489073
 20
131.5443830254
 30
0.0
 11
181.3649746187
 21
131.5443830254
 31
0.0
  0
LINE
  5
17D
330
177
100
AcDbEntity
  8
0
  6
Continuous
 62
     7
370
    18
100
AcDbLine
 10
181.3649746187
 20
131.5443830254
 30
0.0
 11
181.3649746187
 21
127.3404478716
 31
0.0
  0
LINE
  5
17E
330
177
100
AcDbEntity
  8
0
  6
Continuous
 62
     7
370
    18
100
AcDbLine
 10
181.3649746187
 20
127.3404478716
 30
0.0
 11
182.1697489073
 21
127.3404478716
 31
0.0
  0
LINE
  5
17F
330
177
100
AcDbEntity
  8
0
  6
Continuous
 62
     7
370
    18
100
AcDbLine
 10
191.8662381073
 20
131.5443830254
 30
0.0
 11
192.6710123958
 21
131.5443830254
 31
0.0
  0
LINE
  5
180
330
177
100
AcDbEntity
  8
0
  6
Continuous
 62
     7
370
    18
100
AcDbLine
 10
192.6710123958
 20
131.5443830254
 30
0.0
 11
192.6710123958
 21
127.3404478716
 31
0.0
  0
LINE
  5
181
330
177
100
AcDbEntity
  8
0
  6
Continuous
 62
     7
370
    18
100
AcDbLine
 10
192.6710123958
 20
127.3404478716
 30
0.0
 11
191.8662381073
 21
127.3404478716
 31
0.0
  0
LINE
  5
182
330
177
100
AcDbEntity
  8
0
  6
Continuous
 62
     7
370
    18
100
AcDbLine
 10
171.883464194
 20
127.6143830254
 30
0.0
 11
171.883464194
 21
133.3223830254
 31
0.0
  0
LINE
  5
183
330
177
100
AcDbEntity
  8
0
  6
Continuous
 62
     7
370
    18
100
AcDbLine
 10
176.883464194
 20
127.6143830254
 30
0.0
 11
176.883464194
 21
133.3223830254
 31
0.0
  0
LINE
  5
184
330
177
100
AcDbEntity
  8
0
  6
Continuous
 62
     7
370
    18
100
AcDbLine
 10
171.883464194
 20
131.5443830254
 30
0.0
 11
165.533464194
 21
131.5443830254
 31
0.0
  0
LINE
  5
185
330
177
100
AcDbEntity
  8
0
  6
Continuous
 62
     7
370
    18
100
AcDbLine
 10
176.883464194
 20
131.5443830254
 30
0.0
 11
179.0486011968
 21
131.5443830254
 31
0.0
  0
MTEXT
  5
186
330
177
100
AcDbEntity
  8
0
  6
Continuous
 62
     7
370
    18
100
AcDbMText
 10
180.577349265
 20
135.4915576708
 30
0.0
 40
2.6458333333
 41
0.0
 71
     1
 72
     1
  1

  7
SLDTEXTSTYLE0
 73
     1
 44
1.0
  0
MTEXT
  5
187
330
177
100
AcDbEntity
  8
0
  6
Continuous
 62
     7
370
    18
100
AcDbMText
 10
181.2682052556
 20
135.4915576708
 30
0.0
 40
2.6458333333
 41
0.0
 71
     1
 72
     1
  1
5.0mm
  7
SLDTEXTSTYLE0
 73
     1
 44
1.0
  0
MTEXT
  5
188
330
177
100
AcDbEntity
  8
0
  6
Continuous
 62
     7
370
    18
100
AcDbMText
 10
182.1697489073
 20
130.7511062082
 30
0.0
 40
2.6458333333
 41
0.0
 71
     1
 72
     1
  1
0.20in
  7
SLDTEXTSTYLE0
 73
     1
 44
1.0
  0
MTEXT
  5
189
330
177
100
AcDbEntity
  8
0
  6
Continuous
 62
     7
370
    18
100
AcDbMText
 10
194.4679742426
 20
135.4915576708
 30
0.0
 40
2.6458333333
 41
0.0
 71
     1
 72
     1
  1

  7
SLDTEXTSTYLE0
 73
     1
 44
1.0
  0
ENDBLK
  5
179
330
177
100
AcDbEntity
  8
0
100
AcDbBlockEnd
  0
BLOCK
  5
18E
330
18D
100
AcDbEntity
  8
0
100
AcDbBlockBegin
  2
SW_NOTE_5
 70
     0
 10
0.0
 20
0.0
 30
0.0
  3
SW_NOTE_5
  1

  0
MTEXT
  5
190
330
18D
100
AcDbEntity
  8
0
  6
Continuous
 62
     0
370
     0
100
AcDbMText
 10
0.5026079815
 20
1.3314144784
 30
0.0
 40
2.6458333333
 41
0.0
 71
     1
 72
     1
  1
S2
  7
SLDTEXTSTYLE0
 73
     1
 44
1.0
  0
MTEXT
  5
191
330
18D
100
AcDbEntity
  8
0
  6
Continuous
 62
     0
370
     0
100
AcDbMText
 10
0.5026079815
 20
-2.1963632568
 30
0.0
 40
2.6458333333
 41
0.0
 71
     1
 72
     1
  1
INDICATED BY ENGRAVED ARROW
  7
SLDTEXTSTYLE0
 73
     1
 44
1.0
  0
ENDBLK
  5
18F
330
18D
100
AcDbEntity
  8
0
100
AcDbBlockEnd
  0
ENDSEC
  0
SECTION
  2
ENTITIES
  0
LINE
  5
81
330
1F
100
AcDbEntity
  8
0
  6
Continuous
 62
     7
370
    18
100
AcDbLine
 10
1.5793501011
 20
214.6453799966
 30
0.0
 11
277.9892068491
 21
214.6453799966
 31
0.0
  0
LINE
  5
82
330
1F
100
AcDbEntity
  8
0
  6
Continuous
 62
     7
370
    18
100
AcDbLine
 10
1.5793501011
 20
214.6453799966
 30
0.0
 11
1.5793501011
 21
0.9031642596
 31
0.0
  0
LINE
  5
83
330
1F
100
AcDbEntity
  8
0
  6
Continuous
 62
     7
370
    18
100
AcDbLine
 10
277.9892068491
 20
0.9031642596
 30
0.0
 11
1.5793501011
 21
0.9031642596
 31
0.0
  0
LINE
  5
84
330
1F
100
AcDbEntity
  8
0
  6
Continuous
 62
     7
370
    18
100
AcDbLine
 10
277.9892068491
 20
0.9031642596
 30
0.0
 11
277.9892068491
 21
214.6453799966
 31
0.0
  0
LINE
  5
85
330
1F
100
AcDbEntity
  8
0
  6
Continuous
 62
     7
370
    18
100
AcDbLine
 10
215.7427640041
 20
12.2958890132
 30
0.0
 11
171.6327596684
 21
12.2958890132
 31
0.0
  0
LINE
  5
86
330
1F
100
AcDbEntity
  8
0
  6
Continuous
 62
     7
370
    18
100
AcDbLine
 10
171.6327596684
 20
12.2958890132
 30
0.0
 11
171.6327596684
 21
26.1661402506
 31
0.0
  0
LINE
  5
87
330
1F
100
AcDbEntity
  8
0
  6
Continuous
 62
     7
370
    18
100
AcDbLine
 10
171.6327596684
 20
0.9031642596
 30
0.0
 11
171.6327596684
 21
26.1661402506
 31
0.0
  0
LINE
  5
88
330
1F
100
AcDbEntity
  8
0
  6
Continuous
 62
     7
370
    18
100
AcDbLine
 10
215.7427640041
 20
17.1604579552
 30
0.0
 11
277.9892068491
 21
17.1604579552
 31
0.0
  0
LINE
  5
89
330
1F
100
AcDbEntity
  8
0
  6
Continuous
 62
     7
370
    18
100
AcDbLine
 10
215.7427640041
 20
35.2394508358
 30
0.0
 11
215.7427640041
 21
0.9031642596
 31
0.0
  0
LINE
  5
8A
330
1F
100
AcDbEntity
  8
0
  6
Continuous
 62
     7
370
    18
100
AcDbLine
 10
215.7427640041
 20
26.1661402506
 30
0.0
 11
171.6327596684
 21
26.1661402506
 31
0.0
  0
LINE
  5
8B
330
1F
100
AcDbEntity
  8
0
  6
Continuous
 62
     7
370
    18
100
AcDbLine
 10
215.7427640041
 20
9.1409200612
 30
0.0
 11
277.9892068491
 21
9.1409200612
 31
0.0
  0
LINE
  5
8C
330
1F
100
AcDbEntity
  8
0
  6
Continuous
 62
     7
370
    18
100
AcDbLine
 10
215.7427640041
 20
16.9216824031
 30
0.0
 11
171.6327596684
 21
16.9216824031
 31
0.0
  0
LINE
  5
8D
330
1F
100
AcDbEntity
  8
0
  6
Continuous
 62
     7
370
    18
100
AcDbLine
 10
215.7427640041
 20
21.4874005542
 30
0.0
 11
171.6327596684
 21
21.4874005542
 31
0.0
  0
LINE
  5
8E
330
1F
100
AcDbEntity
  8
0
  6
Continuous
 62
     7
370
    18
100
AcDbLine
 10
186.1338100705
 20
26.1661402506
 30
0.0
 11
186.1338100705
 21
12.2958890132
 31
0.0
  0
LINE
  5
8F
330
1F
100
AcDbEntity
  8
0
  6
Continuous
 62
     7
370
    18
100
AcDbLine
 10
198.2145906188
 20
26.1661402506
 30
0.0
 11
198.2145906188
 21
12.2958890132
 31
0.0
  0
LINE
  5
90
330
1F
100
AcDbEntity
  8
0
  6
Continuous
 62
     7
370
    18
100
AcDbLine
 10
253.7490408369
 20
9.1409200612
 30
0.0
 11
253.7490408369
 21
0.9031642596
 31
0.0
  0
LINE
  5
91
330
1F
100
AcDbEntity
  8
0
  6
Continuous
 62
     7
370
    18
100
AcDbLine
 10
171.6327596684
 20
12.2958890132
 30
0.0
 11
171.6327596684
 21
7.5627342528
 31
0.0
  0
LINE
  5
92
330
1F
100
AcDbEntity
  8
0
  6
Continuous
 62
     7
370
    18
100
AcDbLine
 10
171.6327596684
 20
7.5627342528
 30
0.0
 11
215.7427640041
 21
7.5627342528
 31
0.0
  0
LINE
  5
93
330
1F
100
AcDbEntity
  8
0
  6
Continuous
 62
     7
370
    18
100
AcDbLine
 10
171.6327596684
 20
7.5627342528
 30
0.0
 11
171.6327596684
 21
35.2394508358
 31
0.0
  0
LINE
  5
94
330
1F
100
AcDbEntity
  8
0
  6
Continuous
 62
     7
370
    18
100
AcDbLine
 10
171.6327596684
 20
35.2394508358
 30
0.0
 11
215.7427640041
 21
35.2394508358
 31
0.0
  0
LINE
  5
95
330
1F
100
AcDbEntity
  8
0
  6
Continuous
 62
     7
370
    18
100
AcDbLine
 10
270.1683598194
 20
17.1604579552
 30
0.0
 11
270.1683598194
 21
9.1409200612
 31
0.0
  0
LINE
  5
96
330
1F
100
AcDbEntity
  8
0
  6
Continuous
 62
     7
370
    18
100
AcDbLine
 10
215.7427640041
 20
35.2394508358
 30
0.0
 11
277.9892068491
 21
35.2394508358
 31
0.0
  0
LINE
  5
97
330
1F
100
AcDbEntity
  8
0
  6
Continuous
 62
     7
370
    18
100
AcDbLine
 10
277.9892068491
 20
35.2394508358
 30
0.0
 11
277.9892068491
 21
50.0331356147
 31
0.0
  0
LINE
  5
98
330
1F
100
AcDbEntity
  8
0
  6
Continuous
 62
     7
370
    18
100
AcDbLine
 10
215.7427640041
 20
24.8927335446
 30
0.0
 11
277.9892068491
 21
24.8927335446
 31
0.0
  0
INSERT
  5
99
330
1F
100
AcDbEntity
  8
0
  6
Continuous
 62
     7
100
AcDbBlockReference
  2
Third Angle Projection Block
 10
117.7262204235
 20
15.5162339489
 30
0.0
 41
0.8
 42
0.8
 43
0.8
  0
INSERT
  5
B6
330
1F
100
AcDbEntity
  8
0
  6
Continuous
 62
     7
370
     0
100
AcDbBlockReference
  2
SW_NOTE_0
 10
13.8229635922
 20
46.866219443
 30
0.0
  0
MTEXT
  5
B7
330
1F
100
AcDbEntity
  8
0
  6
Continuous
 62
     7
370
     0
100
AcDbMText
 10
274.2755418848
 20
13.2559386876
 30
0.0
 40
3.175
 41
0.0
 71
     2
 72
     1
  1
B
  7
SLDTEXTSTYLE0
 73
     1
 44
1.0
  0
MTEXT
  5
B8
330
1F
100
AcDbEntity
  8
0
  6
Continuous
 62
     7
370
     0
100
AcDbMText
 10
234.5708442948
 20
5.1306563898
 30
0.0
 40
3.175
 41
0.0
 71
     2
 72
     1
  1
DMSP650L
  7
SLDTEXTSTYLE0
 73
     1
 44
1.0
  0
MTEXT
  5
B9
330
1F
100
AcDbEntity
  8
0
  6
Continuous
 62
     7
370
     0
100
AcDbMText
 10
216.4199766059
 20
16.8243178599
 30
0.0
 40
2.1166666667
 41
0.0
 71
     1
 72
     1
  1
MATERIAL
  7
SLDTEXTSTYLE0
 73
     1
 44
1.0
  0
MTEXT
  5
BA
330
1F
100
AcDbEntity
  8
0
  6
Continuous
 62
     7
370
     0
100
AcDbMText
 10
174.230946566
 20
20.054553926
 30
0.0
 40
1.8520833333
 41
0.0
 71
     1
 72
     1
  1
DRAWN
  7
SLDTEXTSTYLE0
 73
     1
 44
1.0
  0
MTEXT
  5
BB
330
1F
100
AcDbEntity
  8
0
  6
Continuous
 62
     7
370
     0
100
AcDbMText
 10
172.3960124543
 20
15.5787169747
 30
0.0
 40
1.8520833333
 41
0.0
 71
     1
 72
     1
  1
APPROVAL
  7
SLDTEXTSTYLE0
 73
     1
 44
1.0
  0
MTEXT
  5
BC
330
1F
100
AcDbEntity
  8
0
  6
Continuous
 62
     7
370
     0
100
AcDbMText
 10
271.7160653675
 20
16.1671746307
 30
0.0
 40
2.1166666667
 41
0.0
 71
     1
 72
     1
  1
REV
  7
SLDTEXTSTYLE0
 73
     1
 44
1.0
  0
MTEXT
  5
BD
330
1F
100
AcDbEntity
  8
0
  6
Continuous
 62
     7
370
     0
100
AcDbMText
 10
190.2958696448
 20
20.3177146903
 30
0.0
 40
2.1166666667
 41
0.0
 71
     1
 72
     1
  1
MG
  7
SLDTEXTSTYLE0
 73
     1
 44
1.0
  0
MTEXT
  5
BE
330
1F
100
AcDbEntity
  8
0
  6
Continuous
 62
     7
370
     0
100
AcDbMText
 10
190.2958696448
 20
15.841877739
 30
0.0
 40
2.1166666667
 41
0.0
 71
     1
 72
     1
  1
BW
  7
SLDTEXTSTYLE0
 73
     1
 44
1.0
  0
MTEXT
  5
BF
330
1F
100
AcDbEntity
  8
0
  6
Continuous
 62
     7
370
     0
100
AcDbMText
 10
199.8662436873
 20
20.3177146903
 30
0.0
 40
2.1166666667
 41
0.0
 71
     1
 72
     1
  1
18/MAY/16
  7
SLDTEXTSTYLE0
 73
     1
 44
1.0
  0
MTEXT
  5
C0
330
1F
100
AcDbEntity
  8
0
  6
Continuous
 62
     7
370
     0
100
AcDbMText
 10
203.6145073853
 20
24.8221395769
 30
0.0
 40
2.1166666667
 41
0.0
 71
     1
 72
     1
  1
DATE
  7
SLDTEXTSTYLE0
 73
     1
 44
1.0
  0
MTEXT
  5
C1
330
1F
100
AcDbEntity
  8
0
  6
Continuous
 62
     7
370
     0
100
AcDbMText
 10
199.8662436873
 20
15.841877739
 30
0.0
 40
2.1166666667
 41
0.0
 71
     1
 72
     1
  1
24/JULY/20
  7
SLDTEXTSTYLE0
 73
     1
 44
1.0
  0
MTEXT
  5
C3
330
1F
100
AcDbEntity
  8
0
  6
Continuous
 62
     7
370
     0
100
AcDbMText
 10
229.402906477
 20
27.7957480569
 30
0.0
 40
2.1166666667
 41
0.0
 71
     1
 72
     1
  1
w w w . t h o r  l a b s . c o m
  7
SLDTEXTSTYLE2
 73
     1
 44
1.0
  0
MTEXT
  5
C4
330
1F
100
AcDbEntity
  8
0
  6
Continuous
 62
     7
370
     0
100
AcDbMText
 10
216.7004035316
 20
8.3494791871
 30
0.0
 40
2.1166666667
 41
0.0
 71
     1
 72
     1
  1
ITEM #
  7
SLDTEXTSTYLE0
 73
     1
 44
1.0
  0
MTEXT
  5
C5
330
1F
100
AcDbEntity
  8
0
  6
Continuous
 62
     7
370
     0
100
AcDbMText
 10
254.5318000914
 20
8.3494791871
 30
0.0
 40
2.1166666667
 41
0.0
 71
     1
 72
     1
  1
APPROX WEIGHT
  7
SLDTEXTSTYLE0
 73
     1
 44
1.0
  0
MTEXT
  5
C6
330
1F
100
AcDbEntity
  8
0
  6
Continuous
 62
     7
370
     0
100
AcDbMText
 10
243.4409424799
 20
13.8247651814
 30
0.0
 40
3.175
 41
0.0
 71
     2
 72
     1
  1
UV FUSED SILICA
  7
SLDTEXTSTYLE0
 73
     1
 44
1.0
  0
MTEXT
  5
C8
330
1F
100
AcDbEntity
  8
0
  6
Continuous
 62
     7
370
     0
100
AcDbMText
 10
266.2586154088
 20
5.1306563898
 30
0.0
 40
3.175
 41
0.0
 71
     2
 72
     1
  1
10 g
  7
SLDTEXTSTYLE3
 73
     1
 44
1.0
  0
INSERT
  5
CE
330
1F
100
AcDbEntity
  8
0
  6
Continuous
 62
     7
370
     0
100
AcDbBlockReference
  2
SW_NOTE_1
 10
174.8430140051
 20
4.4558554801
 30
0.0
  0
INSERT
  5
D4
330
1F
100
AcDbEntity
  8
0
  6
Continuous
 62
     7
370
     0
100
AcDbBlockReference
  2
SW_NOTE_2
 10
174.5483650337
 20
30.4835322715
 30
0.0
  0
MTEXT
  5
D5
330
1F
100
AcDbEntity
  8
0
  6
Continuous
 62
     7
370
     0
100
AcDbMText
 10
187.9273588276
 20
24.8221395769
 30
0.0
 40
2.1166666667
 41
0.0
 71
     1
 72
     1
  1
NAME
  7
SLDTEXTSTYLE0
 73
     1
 44
1.0
  0
INSERT
  5
DB
330
1F
100
AcDbEntity
  8
0
  6
Continuous
 62
     7
370
     0
100
AcDbBlockReference
  2
SW_NOTE_3
 10
58.6204667508
 20
8.1776609732
 30
0.0
  0
INSERT
  5
E2
330
1F
100
AcDbEntity
  8
0
  6
Continuous
 62
     7
370
     0
100
AcDbBlockReference
  2
SW_NOTE_4
 10
229.6872382429
 20
20.9611555011
 30
0.0
  0
MTEXT
  5
E3
330
1F
100
AcDbEntity
  8
0
  6
Continuous
 62
     7
370
     0
100
AcDbMText
 10
177.6925831922
 20
10.7142101515
 30
0.0
 40
1.5875
 41
0.0
 71
     1
 72
     1
  1
COPYRIGHT © 2020 BY THORLABS
  7
SLDTEXTSTYLE0
 73
     1
 44
1.0
  0
CIRCLE
  5
E4
330
1F
100
AcDbEntity
  8
0
  6
Continuous
 62
     7
370
    18
100
AcDbCircle
 10
83.7326460919
 20
101.1443830254
 30
0.0
 40
25.20000000000002
  0
CIRCLE
  5
E5
330
1F
100
AcDbEntity
  8
0
  6
Continuous
 62
     7
370
    18
100
AcDbCircle
 10
83.7326460919
 20
101.1443830254
 30
0.0
 40
25.39999999999999
  0
DIMENSION
  5
E6
330
1F
100
AcDbEntity
  8
0
  6
Continuous
 62
     7
370
    18
100
AcDbDimension
  2
_D
 10
99.8493968746
 20
81.5125124011
 30
0.0
 11
44.0675164887
 21
134.1927286213
 31
0.0
 70
   163
  1
<>
 71
     1
 42
-1.0
  3
SLDDIMSTYLE0
100
AcDbDiametricDimension
 15
67.6158953092
 25
120.7762536497
 35
0.0
 40
0.0
  0
LINE
  5
F7
330
1F
100
AcDbEntity
  8
0
  6
Continuous
 62
     7
370
    18
100
AcDbLine
 10
176.683464245
 20
75.7443833323
 30
0.0
 11
176.8834641381
 21
75.9443829926
 31
0.0
  0
LINE
  5
F8
330
1F
100
AcDbEntity
  8
0
  6
Continuous
 62
     7
370
    18
100
AcDbLine
 10
176.8834641381
 20
126.3443830582
 30
0.0
 11
176.683464245
 21
126.5443827184
 31
0.0
  0
LINE
  5
F9
330
1F
100
AcDbEntity
  8
0
  6
Continuous
 62
     7
370
    18
100
AcDbLine
 10
176.683464245
 20
126.5443827184
 30
0.0
 11
172.083464143
 21
126.5443827184
 31
0.0
  0
LINE
  5
FA
330
1F
100
AcDbEntity
  8
0
  6
Continuous
 62
     7
370
    18
100
AcDbLine
 10
172.083464143
 20
75.7443833323
 30
0.0
 11
176.683464245
 21
75.7443833323
 31
0.0
  0
LINE
  5
FB
330
1F
100
AcDbEntity
  8
0
  6
Continuous
 62
     7
370
    18
100
AcDbLine
 10
172.083464143
 20
126.5443827184
 30
0.0
 11
171.8834642499
 21
126.3443830582
 31
0.0
  0
LINE
  5
FC
330
1F
100
AcDbEntity
  8
0
  6
Continuous
 62
     7
370
    18
100
AcDbLine
 10
171.8834642499
 20
75.9443829926
 30
0.0
 11
172.083464143
 21
75.7443833323
 31
0.0
  0
LINE
  5
FD
330
1F
100
AcDbEntity
  8
0
  6
Continuous
 62
     7
370
    18
100
AcDbLine
 10
176.683464245
 20
101.1443830254
 30
0.0
 11
176.683464245
 21
126.5443827184
 31
0.0
  0
LINE
  5
FE
330
1F
100
AcDbEntity
  8
0
  6
Continuous
 62
     7
370
    18
100
AcDbLine
 10
176.683464245
 20
75.7443833323
 30
0.0
 11
176.683464245
 21
101.1443830254
 31
0.0
  0
LINE
  5
FF
330
1F
100
AcDbEntity
  8
0
  6
Continuous
 62
     7
370
    18
100
AcDbLine
 10
176.8834641381
 20
101.1443830254
 30
0.0
 11
176.8834641381
 21
75.9443829926
 31
0.0
  0
LINE
  5
100
330
1F
100
AcDbEntity
  8
0
  6
Continuous
 62
     7
370
    18
100
AcDbLine
 10
176.8834641381
 20
126.3443830582
 30
0.0
 11
176.8834641381
 21
101.1443830254
 31
0.0
  0
SPLINE
  5
101
330
1F
100
AcDbEntity
  8
0
  6
Continuous
 62
     7
370
    18
100
AcDbSpline
210
0.0
220
0.0
230
1.0
 70
     8
 71
     3
 72
    14
 73
    10
 74
     0
 42
0.000000001
 43
0.00000001
 40
0.0
 40
0.0
 40
0.0
 40
0.0
 40
0.062621765053178
 40
0.1251990132228131
 40
0.250181316323633
 40
0.499507439653553
 40
0.7494904487996545
 40
0.874732776247175
 40
0.9999999999999999
 40
0.9999999999999999
 40
0.9999999999999999
 40
0.9999999999999999
 10
173.2487340803595
 20
94.64834143389761
 30
0.0
 10
173.2586074781678
 20
94.67338980233207
 30
0.0
 10
173.2783472549325
 20
94.72346873268754
 30
0.0
 10
173.3348299349521
 20
94.81606564901325
 30
0.0
 10
173.4659599716672
 20
94.95604189654162
 30
0.0
 10
173.7115203191871
 20
95.090744789746
 30
0.0
 10
173.9810285962292
 20
95.15687394607986
 30
0.0
 10
174.2013157846175
 20
95.17959960571845
 30
0.0
 10
174.312077451044
 20
95.18139369952137
 30
0.0
 10
174.3674637881517
 20
95.18229083557371
 30
0.0
  0
SPLINE
  5
102
330
1F
100
AcDbEntity
  8
0
  6
Continuous
 62
     7
370
    18
100
AcDbSpline
210
0.0
220
0.0
230
1.0
 70
     8
 71
     3
 72
    12
 73
     8
 74
     0
 42
0.000000001
 43
0.00000001
 40
0.0
 40
0.0
 40
0.0
 40
0.0
 40
0.2621725736091116
 40
0.5000451414055183
 40
0.7500435138363565
 40
0.8623175480958339
 40
1.0
 40
1.0
 40
1.0
 40
1.0
 10
173.2053391939958
 20
94.28762808728878
 30
0.0
 10
173.2056733190705
 20
94.31943151497565
 30
0.0
 10
173.2063106001483
 20
94.38009060404788
 30
0.0
 10
173.2126164402999
 20
94.4710159748365
 30
0.0
 10
173.2219017485439
 20
94.54351269297545
 30
0.0
 10
173.2348835087461
 20
94.60307762474548
 30
0.0
 10
173.2438146038241
 20
94.63226453445698
 30
0.0
 10
173.2487340803595
 20
94.64834143389761
 30
0.0
  0
LINE
  5
103
330
1F
100
AcDbEntity
  8
0
  6
Continuous
 62
     7
370
    18
100
AcDbLine
 10
173.205339158
 20
94.2876281375
 30
0.0
 11
173.205339158
 21
93.6522547314
 31
0.0
  0
LINE
  5
104
330
1F
100
AcDbEntity
  8
0
  6
Continuous
 62
     7
370
    18
100
AcDbLine
 10
175.5553392406
 20
93.6522547314
 30
0.0
 11
173.205339158
 21
93.6522547314
 31
0.0
  0
LINE
  5
105
330
1F
100
AcDbEntity
  8
0
  6
Continuous
 62
     7
370
    18
100
AcDbLine
 10
175.5553392406
 20
94.317019281
 30
0.0
 11
175.5553392406
 21
93.6522547314
 31
0.0
  0
SPLINE
  5
106
330
1F
100
AcDbEntity
  8
0
  6
Continuous
 62
     7
370
    18
100
AcDbSpline
210
0.0
220
0.0
230
1.0
 70
     8
 71
     3
 72
    17
 73
    13
 74
     0
 42
0.000000001
 43
0.00000001
 40
0.0
 40
0.0
 40
0.0
 40
0.0
 40
0.0715329195103564
 40
0.1430591690150024
 40
0.2860138941746807
 40
0.4288985810183092
 40
0.5716632366539692
 40
0.6786548293666574
 40
0.7856023341411957
 40
0.892716275773306
 40
0.9463530387336601
 40
1.0
 40
1.0
 40
1.0
 40
1.0
 10
174.3674637881517
 20
95.18229083557371
 30
0.0
 10
174.4077773407741
 20
95.1817665169181
 30
0.0
 10
174.4884006870277
 20
95.18071792849639
 30
0.0
 10
174.6492119950487
 20
95.16934674897115
 30
0.0
 10
174.8486576733794
 20
95.13755812651237
 30
0.0
 10
175.078605459201
 20
95.06250584470851
 30
0.0
 10
175.2736341307016
 20
94.95718680906745
 30
0.0
 10
175.4207874682029
 20
94.82063229816647
 30
0.0
 10
175.5065277949104
 20
94.6633097270427
 30
0.0
 10
175.5412926394009
 20
94.52044968717365
 30
0.0
 10
175.553693497272
 20
94.40441356952802
 30
0.0
 10
175.5547905936581
 20
94.34615266671139
 30
0.0
 10
175.5553391939958
 20
94.31701944618538
 30
0.0
  0
SPLINE
  5
107
330
1F
100
AcDbEntity
  8
0
  6
Continuous
 62
     7
370
    18
100
AcDbSpline
210
0.0
220
0.0
230
1.0
 70
     8
 71
     3
 72
    13
 73
     9
 74
     0
 42
0.000000001
 43
0.00000001
 40
0.0
 40
0.0
 40
0.0
 40
0.0
 40
0.1252820023252114
 40
0.2504825747503392
 40
0.4999523174719883
 40
0.7495086848678868
 40
0.8747120073346454
 40
1.0
 40
1.0
 40
1.0
 40
1.0
 10
174.340282375814
 20
98.85643489677317
 30
0.0
 10
174.3531476970061
 20
98.88308194626666
 30
0.0
 10
174.3788699772807
 20
98.93635872539495
 30
0.0
 10
174.447013764367
 20
99.03315766056208
 30
0.0
 10
174.5570697021031
 20
99.13534116719991
 30
0.0
 10
174.695886655749
 20
99.19339155265294
 30
0.0
 10
174.8125819847797
 20
99.21478656216992
 30
0.0
 10
174.871890444009
 20
99.21666269831702
 30
0.0
 10
174.9015546972425
 20
99.21760108347307
 30
0.0
  0
SPLINE
  5
108
330
1F
100
AcDbEntity
  8
0
  6
Continuous
 62
     7
370
    18
100
AcDbSpline
210
0.0
220
0.0
230
1.0
 70
     8
 71
     3
 72
    10
 73
     6
 74
     0
 42
0.000000001
 43
0.00000001
 40
0.0
 40
0.0
 40
0.0
 40
0.0
 40
0.4216985172524047
 40
0.7547509293865436
 40
1.0
 40
1.0
 40
1.0
 40
1.0
 10
174.2191581875023
 20
98.45020918609546
 30
0.0
 10
174.2336466626398
 20
98.50800685627856
 30
0.0
 10
174.2595779610155
 20
98.61145243055114
 30
0.0
 10
174.2982440971288
 20
98.74766792859633
 30
0.0
 10
174.3277635951081
 20
98.82404465946479
 30
0.0
 10
174.340282375814
 20
98.85643489677317
 30
0.0
  0
SPLINE
  5
109
330
1F
100
AcDbEntity
  8
0
  6
Continuous
 62
     7
370
    18
100
AcDbSpline
210
0.0
220
0.0
230
1.0
 70
     8
 71
     3
 72
    11
 73
     7
 74
     0
 42
0.000000001
 43
0.00000001
 40
0.0
 40
0.0
 40
0.0
 40
0.0
 40
0.1248334270227815
 40
0.2498710137986004
 40
0.4998937768126787
 40
1.0
 40
1.0
 40
1.0
 40
1.0
 10
174.06274584984
 20
98.0792332791879
 30
0.0
 10
174.0743185300223
 20
98.09170369851927
 30
0.0
 10
174.0974828170124
 20
98.11666493202172
 30
0.0
 10
174.1309448532033
 20
98.1760899478943
 30
0.0
 10
174.1767292298322
 20
98.2857554567853
 30
0.0
 10
174.202186192461
 20
98.38442609757199
 30
0.0
 10
174.2191581875023
 20
98.45020918609546
 30
0.0
  0
SPLINE
  5
10A
330
1F
100
AcDbEntity
  8
0
  6
Continuous
 62
     7
370
    18
100
AcDbSpline
210
0.0
220
0.0
230
1.0
 70
     8
 71
     3
 72
    11
 73
     7
 74
     0
 42
0.000000001
 43
0.00000001
 40
0.0
 40
0.0
 40
0.0
 40
0.0
 40
0.2502319655759004
 40
0.5002060409341166
 40
0.7499796245999379
 40
1.0
 40
1.0
 40
1.0
 40
1.0
 10
173.8243124082815
 20
98.00303290166049
 30
0.0
 10
173.8456794524035
 20
98.00373360242486
 30
0.0
 10
173.8883915196732
 20
98.00513428180815
 30
0.0
 10
173.9515114580848
 20
98.0169853103313
 30
0.0
 10
174.0118936401832
 20
98.04021699970777
 30
0.0
 10
174.045789534171
 20
98.06622357212582
 30
0.0
 10
174.06274584984
 20
98.0792332791879
 30
0.0
  0
SPLINE
  5
10B
330
1F
100
AcDbEntity
  8
0
  6
Continuous
 62
     7
370
    18
100
AcDbSpline
210
0.0
220
0.0
230
1.0
 70
     8
 71
     3
 72
    14
 73
    10
 74
     0
 42
0.000000001
 43
0.00000001
 40
0.0
 40
0.0
 40
0.0
 40
0.0
 40
0.1431729271289769
 40
0.2505812091447888
 40
0.4995600717187613
 40
0.6246572079558843
 40
0.7496659877546565
 40
0.8747936702509946
 40
1.0
 40
1.0
 40
1.0
 40
1.0
 10
173.4494950381517
 20
98.44594163404419
 30
0.0
 10
173.4504897719802
 20
98.41474196878818
 30
0.0
 10
173.4522307547941
 20
98.36013632509884
 30
0.0
 10
173.4714355245508
 20
98.25308846284383
 30
0.0
 10
173.5146641673027
 20
98.153623064714
 30
0.0
 10
173.5924710814355
 20
98.07598400270061
 30
0.0
 10
173.6626991386512
 20
98.03237954906183
 30
0.0
 10
173.7419636006922
 20
98.00712165765171
 30
0.0
 10
173.7968570571394
 20
98.00439610575245
 30
0.0
 10
173.8243124082815
 20
98.00303290166049
 30
0.0
  0
SPLINE
  5
10C
330
1F
100
AcDbEntity
  8
0
  6
Continuous
 62
     7
370
    18
100
AcDbSpline
210
0.0
220
0.0
230
1.0
 70
     8
 71
     3
 72
    14
 73
    10
 74
     0
 42
0.000000001
 43
0.00000001
 40
0.0
 40
0.0
 40
0.0
 40
0.0
 40
0.1253712520012899
 40
0.2506988590916458
 40
0.3759279510424653
 40
0.5010201023946986
 40
0.7493967468751787
 40
0.8746462699755058
 40
0.9999999999999999
 40
0.9999999999999999
 40
0.9999999999999999
 40
0.9999999999999999
 10
173.9072872459439
 20
98.91343205560398
 30
0.0
 10
173.8766359045186
 20
98.91013386195036
 30
0.0
 10
173.8153438921769
 20
98.90353862282794
 30
0.0
 10
173.7254123469509
 20
98.88060448043954
 30
0.0
 10
173.6409873747412
 20
98.84218937204093
 30
0.0
 10
173.5413830596238
 20
98.7689420938464
 30
0.0
 10
173.4783441608743
 20
98.65762306393597
 30
0.0
 10
173.4527364452933
 20
98.53793332211983
 30
0.0
 10
173.4505758066809
 20
98.4766140294202
 30
0.0
 10
173.4494950381517
 20
98.44594163404419
 30
0.0
  0
SPLINE
  5
10D
330
1F
100
AcDbEntity
  8
0
  6
Continuous
 62
     7
370
    18
100
AcDbSpline
210
0.0
220
0.0
230
1.0
 70
     8
 71
     3
 72
     8
 73
     4
 74
     0
 42
0.000000001
 43
0.00000001
 40
0.0
 40
0.0
 40
0.0
 40
0.0
 40
1.0
 40
1.0
 40
1.0
 40
1.0
 10
173.8767677654244
 20
99.15674361825396
 30
0.0
 10
173.8869409255975
 20
99.07560790552017
 30
0.0
 10
173.8971140857707
 20
98.99450280231706
 30
0.0
 10
173.9072872459439
 20
98.91343205560398
 30
0.0
  0
SPLINE
  5
10E
330
1F
100
AcDbEntity
  8
0
  6
Continuous
 62
     7
370
    18
100
AcDbSpline
210
0.0
220
0.0
230
1.0
 70
     8
 71
     3
 72
    15
 73
    11
 74
     0
 42
0.000000001
 43
0.00000001
 40
0.0
 40
0.0
 40
0.0
 40
0.0
 40
0.1250893571828481
 40
0.2501222152893903
 40
0.376467204191271
 40
0.5000142967084714
 40
0.6228096261988542
 40
0.7498910690459097
 40
0.8749033738458989
 40
1.0
 40
1.0
 40
1.0
 40
1.0
 10
173.1748197134764
 20
98.43788091268996
 30
0.0
 10
173.1765569641437
 20
98.4848596759119
 30
0.0
 10
173.1800306808148
 20
98.57879598347046
 30
0.0
 10
173.2137283711635
 20
98.71709411170279
 30
0.0
 10
173.2723020807657
 20
98.84635150706256
 30
0.0
 10
173.3590690231158
 20
98.95815860057789
 30
0.0
 10
173.4691280349367
 20
99.04773010796397
 30
0.0
 10
173.5970776108645
 20
99.10999805862075
 30
0.0
 10
173.7352360067522
 20
99.14791424381134
 30
0.0
 10
173.8295799102124
 20
99.15379983202025
 30
0.0
 10
173.8767677654244
 20
99.15674361825396
 30
0.0
  0
SPLINE
  5
10F
330
1F
100
AcDbEntity
  8
0
  6
Continuous
 62
     7
370
    18
100
AcDbSpline
210
0.0
220
0.0
230
1.0
 70
     8
 71
     3
 72
    14
 73
    10
 74
     0
 42
0.000000001
 43
0.00000001
 40
0.0
 40
0.0
 40
0.0
 40
0.0
 40
0.062781644074672
 40
0.1255460740341119
 40
0.2508730022685506
 40
0.4999473615299825
 40
0.7490958698152651
 40
0.8745200795929017
 40
1.0
 40
1.0
 40
1.0
 40
1.0
 10
173.8185900056841
 20
97.76090036103588
 30
0.0
 10
173.7965746604968
 20
97.76139602545494
 30
0.0
 10
173.7525500065154
 20
97.76238721838673
 30
0.0
 10
173.6651348017089
 20
97.77323441668351
 30
0.0
 10
173.5164064292471
 20
97.8136552386678
 30
0.0
 10
173.3296366113318
 20
97.94103858666416
 30
0.0
 10
173.2176191230437
 20
98.13555080058558
 30
0.0
 10
173.179819460209
 20
98.30659506447121
 30
0.0
 10
173.1764865424003
 20
98.394112485842
 30
0.0
 10
173.1748197134764
 20
98.43788091268996
 30
0.0
  0
SPLINE
  5
110
330
1F
100
AcDbEntity
  8
0
  6
Continuous
 62
     7
370
    18
100
AcDbSpline
210
0.0
220
0.0
230
1.0
 70
     8
 71
     3
 72
    14
 73
    10
 74
     0
 42
0.000000001
 43
0.00000001
 40
0.0
 40
0.0
 40
0.0
 40
0.0
 40
0.2505522404908068
 40
0.3758131695832264
 40
0.5008996318138594
 40
0.7495789128995981
 40
0.8746978562836569
 40
0.9373356724521816
 40
1.0
 40
1.0
 40
1.0
 40
1.0
 10
174.4642677654244
 20
98.38999645724248
 30
0.0
 10
174.4408968982692
 20
98.31126309655023
 30
0.0
 10
174.4058420145279
 20
98.19316782916917
 30
0.0
 10
174.3382597574355
 20
98.04287359140666
 30
0.0
 10
174.2409103198619
 20
97.91019513116072
 30
0.0
 10
174.1018459598075
 20
97.81166580255062
 30
0.0
 10
173.9624238617165
 20
97.77338757778011
 30
0.0
 10
173.8805501202797
 20
97.76219113659718
 30
0.0
 10
173.8392462902321
 20
97.76133068024131
 30
0.0
 10
173.8185900056841
 20
97.76090036103588
 30
0.0
  0
SPLINE
  5
111
330
1F
100
AcDbEntity
  8
0
  6
Continuous
 62
     7
370
    18
100
AcDbSpline
210
0.0
220
0.0
230
1.0
 70
     8
 71
     3
 72
    16
 73
    12
 74
     0
 42
0.000000001
 43
0.00000001
 40
0.0
 40
0.0
 40
0.0
 40
0.0
 40
0.0625621838665396
 40
0.1250815268112618
 40
0.2497572749142475
 40
0.3743955107857907
 40
0.4364358096824901
 40
0.4994610535968395
 40
0.6159860627638779
 40
0.78271186990231
 40
1.0
 40
1.0
 40
1.0
 40
1.0
 10
174.9087077004893
 20
98.97424149890789
 30
0.0
 10
174.8919011574299
 20
98.97372537286225
 30
0.0
 10
174.8582995799852
 20
98.97269347420036
 30
0.0
 10
174.7921790955256
 20
98.96045184430746
 30
0.0
 10
174.7136608403932
 20
98.92737295847537
 30
0.0
 10
174.65097023413
 20
98.87012789054327
 30
0.0
 10
174.6115881321217
 20
98.81596103013905
 30
0.0
 10
174.5809357981369
 20
98.75884846426406
 30
0.0
 10
174.5487311927557
 20
98.67186050421257
 30
0.0
 10
174.5076568700977
 20
98.54459882508131
 30
0.0
 10
174.4799469688286
 20
98.44586398413347
 30
0.0
 10
174.4642677654244
 20
98.38999645724248
 30
0.0
  0
SPLINE
  5
112
330
1F
100
AcDbEntity
  8
0
  6
Continuous
 62
     7
370
    18
100
AcDbSpline
210
0.0
220
0.0
230
1.0
 70
     8
 71
     3
 72
    14
 73
    10
 74
     0
 42
0.000000001
 43
0.00000001
 40
0.0
 40
0.0
 40
0.0
 40
0.0
 40
0.1253140405832474
 40
0.2505678731081835
 40
0.499548690748547
 40
0.6246696500771337
 40
0.7496932908321294
 40
0.8748259802746114
 40
1.0
 40
1.0
 40
1.0
 40
1.0
 10
175.31118334984
 20
98.50142577559838
 30
0.0
 10
175.3102654353774
 20
98.53054709098485
 30
0.0
 10
175.3084300474711
 20
98.58877573020631
 30
0.0
 10
175.2883770300604
 20
98.7033560258397
 30
0.0
 10
175.2381929602572
 20
98.81233707427405
 30
0.0
 10
175.1556320229974
 20
98.89559264957401
 30
0.0
 10
175.0811066228509
 20
98.94295542808887
 30
0.0
 10
174.9965361888545
 20
98.97007484819021
 30
0.0
 10
174.9379870857922
 20
98.97285246245679
 30
0.0
 10
174.9087077004893
 20
98.97424149890789
 30
0.0
  0
SPLINE
  5
113
330
1F
100
AcDbEntity
  8
0
  6
Continuous
 62
     7
370
    18
100
AcDbSpline
210
0.0
220
0.0
230
1.0
 70
     8
 71
     3
 72
    14
 73
    10
 74
     0
 42
0.000000001
 43
0.00000001
 40
0.0
 40
0.0
 40
0.0
 40
0.0
 40
0.1253044954974278
 40
0.2505251983557171
 40
0.375590610853489
 40
0.5006485959324508
 40
0.7496144505283597
 40
0.8747677910779956
 40
0.9999999999999999
 40
0.9999999999999999
 40
0.9999999999999999
 40
0.9999999999999999
 10
174.7618327004893
 20
97.94247168068723
 30
0.0
 10
174.798250994757
 20
97.94669182257722
 30
0.0
 10
174.8710632299363
 20
97.955129284297
 30
0.0
 10
174.9777235998837
 20
97.9827594200256
 30
0.0
 10
175.0782543411442
 20
98.0288069128715
 30
0.0
 10
175.1913678253516
 20
98.12261384410574
 30
0.0
 10
175.2683237141412
 20
98.25104641038023
 30
0.0
 10
175.3064959087463
 20
98.39200573981266
 30
0.0
 10
175.3096205414018
 20
98.46494477203676
 30
0.0
 10
175.31118334984
 20
98.50142577559838
 30
0.0
  0
SPLINE
  5
114
330
1F
100
AcDbEntity
  8
0
  6
Continuous
 62
     7
370
    18
100
AcDbSpline
210
0.0
220
0.0
230
1.0
 70
     8
 71
     3
 72
     8
 73
     4
 74
     0
 42
0.000000001
 43
0.00000001
 40
0.0
 40
0.0
 40
0.0
 40
0.0
 40
1.0
 40
1.0
 40
1.0
 40
1.0
 10
174.7923521810088
 20
97.7004152006434
 30
0.0
 10
174.7821790208357
 20
97.78104889966339
 30
0.0
 10
174.7720058606625
 20
97.8617356355551
 30
0.0
 10
174.7618327004893
 20
97.94247168068723
 30
0.0
  0
SPLINE
  5
115
330
1F
100
AcDbEntity
  8
0
  6
Continuous
 62
     7
370
    18
100
AcDbSpline
210
0.0
220
0.0
230
1.0
 70
     8
 71
     3
 72
    16
 73
    12
 74
     0
 42
0.000000001
 43
0.00000001
 40
0.0
 40
0.0
 40
0.0
 40
0.0
 40
0.0625899892638288
 40
0.1251637493900623
 40
0.2501606474332692
 40
0.3753317655501385
 40
0.5000032047661385
 40
0.6236777460336608
 40
0.7498622692268102
 40
0.8748964809560585
 40
1.0
 40
1.0
 40
1.0
 40
1.0
 10
175.5858586745153
 20
98.48055843407252
 30
0.0
 10
175.585327506314
 20
98.45449540841497
 30
0.0
 10
175.5842653076396
 20
98.40237611505646
 30
0.0
 10
175.5727180818003
 20
98.29879140261343
 30
0.0
 10
175.5414663187408
 20
98.17162012300693
 30
0.0
 10
175.4721027456291
 20
98.03029934832233
 30
0.0
 10
175.3715502374984
 20
97.90971574532672
 30
0.0
 10
175.2466501375097
 20
97.81354644919838
 30
0.0
 10
175.1031833026004
 20
97.7478520825517
 30
0.0
 10
174.9494974355982
 20
97.70900036944046
 30
0.0
 10
174.8447436074838
 20
97.70327745213793
 30
0.0
 10
174.7923521810088
 20
97.7004152006434
 30
0.0
  0
SPLINE
  5
116
330
1F
100
AcDbEntity
  8
0
  6
Continuous
 62
     7
370
    18
100
AcDbSpline
210
0.0
220
0.0
230
1.0
 70
     8
 71
     3
 72
    15
 73
    11
 74
     0
 42
0.000000001
 43
0.00000001
 40
0.0
 40
0.0
 40
0.0
 40
0.0
 40
0.0715781019181689
 40
0.1431159026568192
 40
0.2859473730306049
 40
0.4995229978669795
 40
0.622962975854055
 40
0.7496511656582725
 40
0.8747847722484485
 40
1.0
 40
1.0
 40
1.0
 40
1.0
 10
174.9015546972425
 20
99.21760108347307
 30
0.0
 10
174.9285649446946
 20
99.21676519400599
 30
0.0
 10
174.9825702318073
 20
99.21509388570925
 30
0.0
 10
175.0894394538251
 20
99.198114685442
 30
0.0
 10
175.2426319892202
 20
99.14336589949635
 30
0.0
 10
175.3929417907528
 20
99.03455872255111
 30
0.0
 10
175.4958336327386
 20
98.89173787454946
 30
0.0
 10
175.5510846228907
 20
98.76087235924473
 30
0.0
 10
175.5813980343555
 20
98.62163230267879
 30
0.0
 10
175.5843714713191
 20
98.5275932767805
 30
0.0
 10
175.5858586745153
 20
98.48055843407252
 30
0.0
  0
SPLINE
  5
117
330
1F
100
AcDbEntity
  8
0
  6
Continuous
 62
     7
370
    18
100
AcDbSpline
210
0.0
220
0.0
230
1.0
 70
     8
 71
     3
 72
    17
 73
    13
 74
     0
 42
0.000000001
 43
0.00000001
 40
0.0
 40
0.0
 40
0.0
 40
0.0
 40
0.0625211915995988
 40
0.1250138885899266
 40
0.186970290555397
 40
0.2499888277907402
 40
0.3721030791160732
 40
0.4996449774850257
 40
0.6142204091456341
 40
0.7497638844747861
 40
0.8748724527733966
 40
1.0
 40
1.0
 40
1.0
 40
1.0
 10
175.5858586745153
 20
101.9189866237523
 30
0.0
 10
175.5845036467508
 20
101.8881988604559
 30
0.0
 10
175.5817942087881
 20
101.8266373656698
 30
0.0
 10
175.5582934924456
 20
101.7370508992209
 30
0.0
 10
175.5204698772825
 20
101.6524623738894
 30
0.0
 10
175.450447633772
 20
101.5524096435482
 30
0.0
 10
175.3359977538614
 20
101.4467320664975
 30
0.0
 10
175.1761541464689
 20
101.3619067963918
 30
0.0
 10
174.9972686205826
 20
101.3093047422197
 30
0.0
 10
174.8149016180713
 20
101.2788232297107
 30
0.0
 10
174.6256027937711
 20
101.2627250824314
 30
0.0
 10
174.5024715696163
 20
101.2612771770003
 30
0.0
 10
174.4409012881517
 20
101.2605531693772
 30
0.0
  0
SPLINE
  5
118
330
1F
100
AcDbEntity
  8
0
  6
Continuous
 62
     7
370
    18
100
AcDbSpline
210
0.0
220
0.0
230
1.0
 70
     8
 71
     3
 72
    16
 73
    12
 74
     0
 42
0.000000001
 43
0.00000001
 40
0.0
 40
0.0
 40
0.0
 40
0.0
 40
0.1252031222424715
 40
0.2503472856701205
 40
0.4999130242481815
 40
0.5625182424894685
 40
0.6251115449881387
 40
0.7499879517180291
 40
0.874832868852415
 40
0.9373930847324125
 40
1.0
 40
1.0
 40
1.0
 40
1.0
 10
174.7885372459439
 20
102.5111917783309
 30
0.0
 10
174.8346697549766
 20
102.5098687754329
 30
0.0
 10
174.9269130489987
 20
102.507223392646
 30
0.0
 10
175.1082808405561
 20
102.4731189762548
 30
0.0
 10
175.2599900966765
 20
102.411783167586
 30
0.0
 10
175.375191163786
 20
102.3356420613362
 30
0.0
 10
175.445318178443
 20
102.2757758253972
 30
0.0
 10
175.5184859168189
 20
102.1854261738307
 30
0.0
 10
175.5645966435409
 20
102.0785650530131
 30
0.0
 10
175.5831269725083
 20
101.9881111695321
 30
0.0
 10
175.5849478807216
 20
101.9420338694349
 30
0.0
 10
175.5858586745153
 20
101.9189866237523
 30
0.0
  0
SPLINE
  5
119
330
1F
100
AcDbEntity
  8
0
  6
Continuous
 62
     7
370
    18
100
AcDbSpline
210
0.0
220
0.0
230
1.0
 70
     8
 71
     3
 72
    15
 73
    11
 74
     0
 42
0.000000001
 43
0.00000001
 40
0.0
 40
0.0
 40
0.0
 40
0.0
 40
0.0715582022809979
 40
0.1430804104841937
 40
0.2857044125723678
 40
0.3929680133868235
 40
0.5002444008665369
 40
0.7495273451038501
 40
0.8747283648315698
 40
1.0
 40
1.0
 40
1.0
 40
1.0
 10
174.0293651680218
 20
101.9394821077252
 30
0.0
 10
174.0304344306802
 20
101.9646667568455
 30
0.0
 10
174.0325724181534
 20
102.0150233871014
 30
0.0
 10
174.0572279173917
 20
102.1129737122665
 30
0.0
 10
174.1107600169925
 20
102.2146463664177
 30
0.0
 10
174.1956111663272
 20
102.30793574625
 30
0.0
 10
174.3220413646154
 20
102.4118661541935
 30
0.0
 10
174.4827354900051
 20
102.4780242883238
 30
0.0
 10
174.6562811276274
 20
102.5076899972673
 30
0.0
 10
174.7444435879945
 20
102.5100242986075
 30
0.0
 10
174.7885372459439
 20
102.5111917783309
 30
0.0
  0
SPLINE
  5
11A
330
1F
100
AcDbEntity
  8
0
  6
Continuous
 62
     7
370
    18
100
AcDbSpline
210
0.0
220
0.0
230
1.0
 70
     8
 71
     3
 72
    13
 73
     9
 74
     0
 42
0.000000001
 43
0.00000001
 40
0.0
 40
0.0
 40
0.0
 40
0.0
 40
0.1252092510313404
 40
0.2503524483424828
 40
0.5000891915473351
 40
0.7497280724195845
 40
0.8748266177117975
 40
1.0
 40
1.0
 40
1.0
 40
1.0
 10
174.3312219050348
 20
101.4717965357766
 30
0.0
 10
174.3100969815932
 20
101.4840273587143
 30
0.0
 10
174.2678582790926
 20
101.5084825522599
 30
0.0
 10
174.1911022735565
 20
101.56876334238
 30
0.0
 10
174.1082711661388
 20
101.6598119445123
 30
0.0
 10
174.0555447927121
 20
101.7712953630269
 30
0.0
 10
174.0323901128431
 20
101.866302675522
 30
0.0
 10
174.0303736839483
 20
101.9150841014057
 30
0.0
 10
174.0293651680218
 20
101.9394821077252
 30
0.0
  0
SPLINE
  5
11B
330
1F
100
AcDbEntity
  8
0
  6
Continuous
 62
     7
370
    18
100
AcDbSpline
210
0.0
220
0.0
230
1.0
 70
     8
 71
     3
 72
    12
 73
     8
 74
     0
 42
0.000000001
 43
0.00000001
 40
0.0
 40
0.0
 40
0.0
 40
0.0
 40
0.1249974846920191
 40
0.2500017689027815
 40
0.4999495909004762
 40
0.7499495617573748
 40
1.0
 40
1.0
 40
1.0
 40
1.0
 10
173.6760068076322
 20
101.5805098202437
 30
0.0
 10
173.7015219168865
 20
101.5692106695118
 30
0.0
 10
173.7525535233469
 20
101.5466117534054
 30
0.0
 10
173.8598316238829
 20
101.5152932863466
 30
0.0
 10
173.9971992064627
 20
101.49032766901
 30
0.0
 10
174.1638996666889
 20
101.4743236767473
 30
0.0
 10
174.2754440730614
 20
101.4726389727762
 30
0.0
 10
174.3312219050348
 20
101.4717965357766
 30
0.0
  0
SPLINE
  5
11C
330
1F
100
AcDbEntity
  8
0
  6
Continuous
 62
     7
370
    18
100
AcDbSpline
210
0.0
220
0.0
230
1.0
 70
     8
 71
     3
 72
    12
 73
     8
 74
     0
 42
0.000000001
 43
0.00000001
 40
0.0
 40
0.0
 40
0.0
 40
0.0
 40
0.1251941385829548
 40
0.2503094412241398
 40
0.4995712201474488
 40
0.749583687503215
 40
0.9999999999999999
 40
0.9999999999999999
 40
0.9999999999999999
 40
0.9999999999999999
 10
173.4189755576322
 20
101.910883618009
 30
0.0
 10
173.4197625438144
 20
101.8923882426304
 30
0.0
 10
173.4213360206061
 20
101.8554091385874
 30
0.0
 10
173.4429084046853
 20
101.7842990703925
 30
0.0
 10
173.4931306453074
 20
101.7051691365828
 30
0.0
 10
173.5778643290126
 20
101.632145472779
 30
0.0
 10
173.6432750526462
 20
101.5977309619053
 30
0.0
 10
173.6760068076322
 20
101.5805098202437
 30
0.0
  0
SPLINE
  5
11D
330
1F
100
AcDbEntity
  8
0
  6
Continuous
 62
     7
370
    18
100
AcDbSpline
210
0.0
220
0.0
230
1.0
 70
     8
 71
     3
 72
    12
 73
     8
 74
     0
 42
0.000000001
 43
0.00000001
 40
0.0
 40
0.0
 40
0.0
 40
0.0
 40
0.2856435239837796
 40
0.499914117610529
 40
0.699892941741287
 40
0.8390544764912998
 40
1.0
 40
1.0
 40
1.0
 40
1.0
 10
173.5300855413984
 20
102.1377352489018
 30
0.0
 10
173.5119520231235
 20
102.1206282984079
 30
0.0
 10
173.4802159569206
 20
102.0906888622118
 30
0.0
 10
173.4468446171345
 20
102.0390936585319
 30
0.0
 10
173.4297479393534
 20
101.9937627014832
 30
0.0
 10
173.4212913056668
 20
101.9509565875502
 30
0.0
 10
173.4197839454267
 20
101.9248724021876
 30
0.0
 10
173.4189755576322
 20
101.910883618009
 30
0.0
  0
SPLINE
  5
11E
330
1F
100
AcDbEntity
  8
0
  6
Continuous
 62
     7
370
    18
100
AcDbSpline
210
0.0
220
0.0
230
1.0
 70
     8
 71
     3
 72
    11
 73
     7
 74
     0
 42
0.000000001
 43
0.00000001
 40
0.0
 40
0.0
 40
0.0
 40
0.0
 40
0.2501447109903178
 40
0.5002095184568331
 40
0.7501686600346137
 40
1.0
 40
1.0
 40
1.0
 40
1.0
 10
173.7852093238659
 20
102.2368398531975
 30
0.0
 10
173.7625901530416
 20
102.2323037719456
 30
0.0
 10
173.7173590366165
 20
102.2232330583984
 30
0.0
 10
173.6511754018094
 20
102.2033976101959
 30
0.0
 10
173.5860494925479
 20
102.1787308759187
 30
0.0
 10
173.5487370113854
 20
102.1513981281517
 30
0.0
 10
173.5300855413984
 20
102.1377352489018
 30
0.0
  0
SPLINE
  5
11F
330
1F
100
AcDbEntity
  8
0
  6
Continuous
 62
     7
370
    18
100
AcDbSpline
210
0.0
220
0.0
230
1.0
 70
     8
 71
     3
 72
     8
 73
     4
 74
     0
 42
0.000000001
 43
0.00000001
 40
0.0
 40
0.0
 40
0.0
 40
0.0
 40
1.0
 40
1.0
 40
1.0
 40
1.0
 10
173.7546898433465
 20
102.4807155375959
 30
0.0
 10
173.7648630035196
 20
102.3994429703374
 30
0.0
 10
173.7750361636928
 20
102.3181498236557
 30
0.0
 10
173.7852093238659
 20
102.2368398531975
 30
0.0
  0
SPLINE
  5
120
330
1F
100
AcDbEntity
  8
0
  6
Continuous
 62
     7
370
    18
100
AcDbSpline
210
0.0
220
0.0
230
1.0
 70
     8
 71
     3
 72
    15
 73
    11
 74
     0
 42
0.000000001
 43
0.00000001
 40
0.0
 40
0.0
 40
0.0
 40
0.0
 40
0.1250047008105173
 40
0.2499520844378325
 40
0.3748145713207937
 40
0.4997738762010722
 40
0.6247472271701761
 40
0.7497712925343676
 40
0.8748728558436909
 40
1.0
 40
1.0
 40
1.0
 40
1.0
 10
173.1748197134764
 20
101.9409120060288
 30
0.0
 10
173.1765545383134
 20
101.9775268231183
 30
0.0
 10
173.1800233925351
 20
102.050739668663
 30
0.0
 10
173.214432377205
 20
102.1561853464556
 30
0.0
 10
173.271376360409
 20
102.2505967189796
 30
0.0
 10
173.3472555776125
 20
102.3309067745309
 30
0.0
 10
173.439136303538
 20
102.3919853503133
 30
0.0
 10
173.5396389557489
 20
102.4368391437055
 30
0.0
 10
173.6458789850297
 20
102.4659008538555
 30
0.0
 10
173.7184170853875
 20
102.4757769731376
 30
0.0
 10
173.7546898433465
 20
102.4807155375959
 30
0.0
  0
SPLINE
  5
121
330
1F
100
AcDbEntity
  8
0
  6
Continuous
 62
     7
370
    18
100
AcDbSpline
210
0.0
220
0.0
230
1.0
 70
     8
 71
     3
 72
    17
 73
    13
 74
     0
 42
0.000000001
 43
0.00000001
 40
0.0
 40
0.0
 40
0.0
 40
0.0
 40
0.125154874890325
 40
0.2503005375714346
 40
0.5000913715744365
 40
0.6249549639934059
 40
0.6879899747282653
 40
0.7500362170903233
 40
0.8131477523789239
 40
0.8749945261802798
 40
0.9374699577083816
 40
1.0
 40
1.0
 40
1.0
 40
1.0
 10
174.4409012881517
 20
101.2605531693772
 30
0.0
 10
174.3741293024739
 20
101.2612527450576
 30
0.0
 10
174.2405902459688
 20
101.2626518449249
 30
0.0
 10
173.974790288634
 20
101.2831824936809
 30
0.0
 10
173.7096065444986
 20
101.3294102795823
 30
0.0
 10
173.494993970929
 20
101.4268293062719
 30
0.0
 10
173.387367743882
 20
101.5061526341398
 30
0.0
 10
173.314265491617
 20
101.5752838085315
 30
0.0
 10
173.2527308904855
 20
101.6544866287715
 30
0.0
 10
173.2076248691281
 20
101.7442473054447
 30
0.0
 10
173.1795461872227
 20
101.8407711360229
 30
0.0
 10
173.1763956635117
 20
101.9075219956114
 30
0.0
 10
173.1748197134764
 20
101.9409120060288
 30
0.0
  0
SPLINE
  5
122
330
1F
100
AcDbEntity
  8
0
  6
Continuous
 62
     7
370
    18
100
AcDbSpline
210
0.0
220
0.0
230
1.0
 70
     8
 71
     3
 72
    12
 73
     8
 74
     0
 42
0.000000001
 43
0.00000001
 40
0.0
 40
0.0
 40
0.0
 40
0.0
 40
0.1249944231638733
 40
0.2499890121454591
 40
0.4998659696244138
 40
0.7499135593620969
 40
1.0
 40
1.0
 40
1.0
 40
1.0
 10
173.4227904926971
 20
105.2923985124302
 30
0.0
 10
173.4586042077419
 20
105.3126444785775
 30
0.0
 10
173.530231685342
 20
105.3531364377303
 30
0.0
 10
173.6858792862445
 20
105.4083474842273
 30
0.0
 10
173.8876490542453
 20
105.4519377026941
 30
0.0
 10
174.1339205997256
 20
105.4779473635821
 30
0.0
 10
174.298831214944
 20
105.4802527435545
 30
0.0
 10
174.381292927762
 20
105.4814055230828
 30
0.0
  0
SPLINE
  5
123
330
1F
100
AcDbEntity
  8
0
  6
Continuous
 62
     7
370
    18
100
AcDbSpline
210
0.0
220
0.0
230
1.0
 70
     8
 71
     3
 72
    13
 73
     9
 74
     0
 42
0.000000001
 43
0.00000001
 40
0.0
 40
0.0
 40
0.0
 40
0.0
 40
0.1251997679052638
 40
0.250337287880838
 40
0.4998911747935178
 40
0.7496238029529989
 40
0.8747841606148096
 40
1.0
 40
1.0
 40
1.0
 40
1.0
 10
173.1748197134764
 20
104.8651059789545
 30
0.0
 10
173.1754563877323
 20
104.8866547609206
 30
0.0
 10
173.1767294196969
 20
104.9297416110385
 30
0.0
 10
173.1930715867557
 20
105.0143779403255
 30
0.0
 10
173.2335147409449
 20
105.1155928684472
 30
0.0
 10
173.3031614671767
 20
105.1996505850533
 30
0.0
 10
173.3686643372627
 20
105.2562696883465
 30
0.0
 10
173.4047457757489
 20
105.2803537921092
 30
0.0
 10
173.4227904926971
 20
105.2923985124302
 30
0.0
  0
SPLINE
  5
124
330
1F
100
AcDbEntity
  8
0
  6
Continuous
 62
     7
370
    18
100
AcDbSpline
210
0.0
220
0.0
230
1.0
 70
     8
 71
     3
 72
    16
 73
    12
 74
     0
 42
0.000000001
 43
0.00000001
 40
0.0
 40
0.0
 40
0.0
 40
0.0
 40
0.1251696058899078
 40
0.250330580386352
 40
0.5002344284266717
 40
0.6344692268563528
 40
0.7499992257118557
 40
0.8127385779163672
 40
0.8749722161782603
 40
0.9374591980871805
 40
1.0
 40
1.0
 40
1.0
 40
1.0
 10
174.381292927762
 20
104.2437195890743
 30
0.0
 10
174.3181685461652
 20
104.2444061000561
 30
0.0
 10
174.1919241358763
 20
104.2457790746797
 30
0.0
 10
173.9405965742128
 20
104.2658374333506
 30
0.0
 10
173.6856109429664
 20
104.3105425351014
 30
0.0
 10
173.4520547221709
 20
104.4081263026389
 30
0.0
 10
173.3233536415651
 20
104.5019856192962
 30
0.0
 10
173.2468511786222
 20
104.5962921268946
 30
0.0
 10
173.2043291566429
 20
104.6805450490165
 30
0.0
 10
173.1787667113428
 20
104.7713874264445
 30
0.0
 10
173.1761357569425
 20
104.8338574977382
 30
0.0
 10
173.1748197134764
 20
104.8651059789545
 30
0.0
  0
SPLINE
  5
125
330
1F
100
AcDbEntity
  8
0
  6
Continuous
 62
     7
370
    18
100
AcDbSpline
210
0.0
220
0.0
230
1.0
 70
     8
 71
     3
 72
    16
 73
    12
 74
     0
 42
0.000000001
 43
0.00000001
 40
0.0
 40
0.0
 40
0.0
 40
0.0
 40
0.0625504672670118
 40
0.1250450729890681
 40
0.2495402333508462
 40
0.3495277477999283
 40
0.4992738744144571
 40
0.6244010449097026
 40
0.7495800244049299
 40
0.8747855038494102
 40
1.0
 40
1.0
 40
1.0
 40
1.0
 10
175.5858586745153
 20
104.8622756182102
 30
0.0
 10
175.5843863158131
 20
104.831104492269
 30
0.0
 10
175.5814429133186
 20
104.7687900781842
 30
0.0
 10
175.5448772851477
 20
104.6487228154269
 30
0.0
 10
175.461949848636
 20
104.5276840220188
 30
0.0
 10
175.3159635546245
 20
104.4078702101509
 30
0.0
 10
175.1420466470505
 20
104.3293987022071
 30
0.0
 10
174.9457574079814
 20
104.2843471393335
 30
0.0
 10
174.7586484177223
 20
104.2583045363867
 30
0.0
 10
174.5701132214283
 20
104.2459808562262
 30
0.0
 10
174.4442345364609
 20
104.2444733628847
 30
0.0
 10
174.381292927762
 20
104.2437195890743
 30
0.0
  0
SPLINE
  5
126
330
1F
100
AcDbEntity
  8
0
  6
Continuous
 62
     7
370
    18
100
AcDbSpline
210
0.0
220
0.0
230
1.0
 70
     8
 71
     3
 72
    16
 73
    12
 74
     0
 42
0.000000001
 43
0.00000001
 40
0.0
 40
0.0
 40
0.0
 40
0.0
 40
0.1251714468123545
 40
0.2503345712921878
 40
0.5002432313912489
 40
0.6343687151946107
 40
0.7500270449019617
 40
0.8127090061673559
 40
0.8749750189615177
 40
0.9374562791878438
 40
0.9999999999999999
 40
0.9999999999999999
 40
0.9999999999999999
 40
0.9999999999999999
 10
174.381292927762
 20
105.4814055230828
 30
0.0
 10
174.4443333458772
 20
105.4807079045817
 30
0.0
 10
174.5704099907098
 20
105.4793127139625
 30
0.0
 10
174.8214286760533
 20
105.4592890255443
 30
0.0
 10
175.0757575244014
 20
105.4140647679052
 30
0.0
 10
175.309326202473
 20
105.3179166627863
 30
0.0
 10
175.4376702153752
 20
105.2242935981673
 30
0.0
 10
175.5138454847032
 20
105.1302473613908
 30
0.0
 10
175.5564575552974
 20
105.0464351012735
 30
0.0
 10
175.5820569150016
 20
104.9558515856276
 30
0.0
 10
175.5845909993473
 20
104.8934779943163
 30
0.0
 10
175.5858586745153
 20
104.8622756182102
 30
0.0
  0
SPLINE
  5
127
330
1F
100
AcDbEntity
  8
0
  6
Continuous
 62
     7
370
    18
100
AcDbSpline
210
0.0
220
0.0
230
1.0
 70
     8
 71
     3
 72
    11
 73
     7
 74
     0
 42
0.000000001
 43
0.00000001
 40
0.0
 40
0.0
 40
0.0
 40
0.0
 40
0.4999543933284851
 40
0.7499015403200963
 40
0.8749458342614805
 40
0.9999999999999999
 40
0.9999999999999999
 40
0.9999999999999999
 40
0.9999999999999999
 10
175.5796594050348
 20
108.4203419769549
 30
0.0
 10
175.6776867294384
 20
108.3179460633382
 30
0.0
 10
175.8247218241285
 20
108.164358347402
 30
0.0
 10
176.0257457715785
 20
108.0150391060817
 30
0.0
 10
176.1487544439516
 20
107.9414681809515
 30
0.0
 10
176.213478923556
 20
107.9102568580041
 30
0.0
 10
176.2458424407491
 20
107.8946505805493
 30
0.0
  0
LINE
  5
128
330
1F
100
AcDbEntity
  8
0
  6
Continuous
 62
     7
370
    18
100
AcDbLine
 10
175.4556739881
 20
108.4203420365
 30
0.0
 11
175.579659449
 21
108.4203420365
 31
0.0
  0
SPLINE
  5
129
330
1F
100
AcDbEntity
  8
0
  6
Continuous
 62
     7
370
    18
100
AcDbSpline
210
0.0
220
0.0
230
1.0
 70
     8
 71
     3
 72
    12
 73
     8
 74
     0
 42
0.000000001
 43
0.00000001
 40
0.0
 40
0.0
 40
0.0
 40
0.0
 40
0.1428486546064053
 40
0.2857137848888239
 40
0.4999809151670467
 40
0.7499794168908042
 40
1.0
 40
1.0
 40
1.0
 40
1.0
 10
175.7727904926971
 20
107.9424484140139
 30
0.0
 10
175.7537368730656
 20
107.9624967594834
 30
0.0
 10
175.7156274362231
 20
108.0025957627302
 30
0.0
 10
175.6562373573246
 20
108.0786204638424
 30
0.0
 10
175.5900952716612
 20
108.1747968543305
 30
0.0
 10
175.5199646804697
 20
108.2924525950567
 30
0.0
 10
175.4771048680181
 20
108.3777109279553
 30
0.0
 10
175.4556740154244
 20
108.4203419769549
 30
0.0
  0
LINE
  5
12A
330
1F
100
AcDbEntity
  8
0
  6
Continuous
 62
     7
370
    18
100
AcDbLine
 10
173.4003777794
 20
107.9424482929
 30
0.0
 11
175.7727904889
 21
107.9424482929
 31
0.0
  0
LINE
  5
12B
330
1F
100
AcDbEntity
  8
0
  6
Continuous
 62
     7
370
    18
100
AcDbLine
 10
173.4003777794
 20
107.9424482929
 30
0.0
 11
173.4003777794
 21
107.7856308008
 31
0.0
  0
LINE
  5
12C
330
1F
100
AcDbEntity
  8
0
  6
Continuous
 62
     7
370
    18
100
AcDbLine
 10
175.7727904889
 20
107.7856308008
 30
0.0
 11
173.4003777794
 21
107.7856308008
 31
0.0
  0
SPLINE
  5
12D
330
1F
100
AcDbEntity
  8
0
  6
Continuous
 62
     7
370
    18
100
AcDbSpline
210
0.0
220
0.0
230
1.0
 70
     8
 71
     3
 72
    11
 73
     7
 74
     0
 42
0.000000001
 43
0.00000001
 40
0.0
 40
0.0
 40
0.0
 40
0.0
 40
0.2500305180632381
 40
0.5000067443424849
 40
0.7035402666189107
 40
1.0
 40
1.0
 40
1.0
 40
1.0
 10
175.4585352167231
 20
107.3043184259313
 30
0.0
 10
175.4806928080339
 20
107.3468729092264
 30
0.0
 10
175.5250031793421
 20
107.4319726355093
 30
0.0
 10
175.5902786072315
 20
107.5503724712937
 30
0.0
 10
175.6764523001305
 20
107.6664096335005
 30
0.0
 10
175.7369310066059
 20
107.7412537098939
 30
0.0
 10
175.7727904926971
 20
107.7856308183482
 30
0.0
  0
LINE
  5
12E
330
1F
100
AcDbEntity
  8
0
  6
Continuous
 62
     7
370
    18
100
AcDbLine
 10
175.5810899605
 20
107.3043186376
 30
0.0
 11
175.4585352438
 21
107.3043186376
 31
0.0
  0
SPLINE
  5
12F
330
1F
100
AcDbEntity
  8
0
  6
Continuous
 62
     7
370
    18
100
AcDbSpline
210
0.0
220
0.0
230
1.0
 70
     8
 71
     3
 72
    11
 73
     7
 74
     0
 42
0.000000001
 43
0.00000001
 40
0.0
 40
0.0
 40
0.0
 40
0.0
 40
0.1428778200382648
 40
0.2857522926218026
 40
0.5000376817880637
 40
1.0
 40
1.0
 40
1.0
 40
1.0
 10
176.2458424407491
 20
107.8229056352823
 30
0.0
 10
176.2088351630357
 20
107.8059013476503
 30
0.0
 10
176.1348214746448
 20
107.7718931707763
 30
0.0
 10
176.0148604171256
 20
107.6957128646035
 30
0.0
 10
175.8197015244951
 20
107.5509420728012
 30
0.0
 10
175.6793405270787
 20
107.4058680158839
 30
0.0
 10
175.5810900056841
 20
107.3043184259313
 30
0.0
  0
LINE
  5
130
330
1F
100
AcDbEntity
  8
0
  6
Continuous
 62
     7
370
    18
100
AcDbLine
 10
176.2458424029
 20
107.89465049
 30
0.0
 11
176.2458424029
 21
107.8229055898
 31
0.0
  0
LINE
  5
131
330
1F
100
AcDbEntity
  8
0
  6
Continuous
 62
     7
370
    18
100
AcDbLine
 10
172.083464143
 20
101.1443830254
 30
0.0
 11
172.083464143
 21
75.7443833323
 31
0.0
  0
LINE
  5
132
330
1F
100
AcDbEntity
  8
0
  6
Continuous
 62
     7
370
    18
100
AcDbLine
 10
172.083464143
 20
126.5443827184
 30
0.0
 11
172.083464143
 21
101.1443830254
 31
0.0
  0
LINE
  5
133
330
1F
100
AcDbEntity
  8
0
  6
Continuous
 62
     7
370
    18
100
AcDbLine
 10
175.2806638662
 20
107.0059410455
 30
0.0
 11
175.2806638662
 21
106.0515803443
 31
0.0
  0
LINE
  5
134
330
1F
100
AcDbEntity
  8
0
  6
Continuous
 62
     7
370
    18
100
AcDbLine
 10
173.205339158
 20
106.0515803443
 30
0.0
 11
175.2806638662
 21
106.0515803443
 31
0.0
  0
LINE
  5
135
330
1F
100
AcDbEntity
  8
0
  6
Continuous
 62
     7
370
    18
100
AcDbLine
 10
173.205339158
 20
106.0515803443
 30
0.0
 11
173.205339158
 21
105.811801103
 31
0.0
  0
LINE
  5
136
330
1F
100
AcDbEntity
  8
0
  6
Continuous
 62
     7
370
    18
100
AcDbLine
 10
175.5553392406
 20
105.811801103
 30
0.0
 11
173.205339158
 21
105.811801103
 31
0.0
  0
LINE
  5
137
330
1F
100
AcDbEntity
  8
0
  6
Continuous
 62
     7
370
    18
100
AcDbLine
 10
175.5553392406
 20
107.0059410455
 30
0.0
 11
175.5553392406
 21
105.811801103
 31
0.0
  0
LINE
  5
138
330
1F
100
AcDbEntity
  8
0
  6
Continuous
 62
     7
370
    18
100
AcDbLine
 10
175.2806638662
 20
107.0059410455
 30
0.0
 11
175.5553392406
 21
107.0059410455
 31
0.0
  0
SPLINE
  5
139
330
1F
100
AcDbEntity
  8
0
  6
Continuous
 62
     7
370
    18
100
AcDbSpline
210
0.0
220
0.0
230
1.0
 70
     8
 71
     3
 72
    14
 73
    10
 74
     0
 42
0.000000001
 43
0.00000001
 40
0.0
 40
0.0
 40
0.0
 40
0.0
 40
0.0627133465055543
 40
0.1254006899987378
 40
0.2504473324746767
 40
0.4996124580573738
 40
0.7491976161720987
 40
0.8745628053037959
 40
1.0
 40
1.0
 40
1.0
 40
1.0
 10
173.9988456875023
 20
103.4310128571346
 30
0.0
 10
173.9997148464118
 20
103.4529404295249
 30
0.0
 10
174.0014528038491
 20
103.4967864824142
 30
0.0
 10
174.0193326638301
 20
103.5828707029935
 30
0.0
 10
174.0830416996981
 20
103.7236549400338
 30
0.0
 10
174.2434894587395
 20
103.8825951837778
 30
0.0
 10
174.4493606831187
 20
103.9685537045115
 30
0.0
 10
174.6230462085263
 20
103.9977023852163
 30
0.0
 10
174.7111113510683
 20
104.0000663981085
 30
0.0
 10
174.7551565641257
 20
104.0012487439097
 30
0.0
  0
SPLINE
  5
13A
330
1F
100
AcDbEntity
  8
0
  6
Continuous
 62
     7
370
    18
100
AcDbSpline
210
0.0
220
0.0
230
1.0
 70
     8
 71
     3
 72
    11
 73
     7
 74
     0
 42
0.000000001
 43
0.00000001
 40
0.0
 40
0.0
 40
0.0
 40
0.0
 40
0.2500769320832032
 40
0.5000174317493313
 40
0.749938312622468
 40
0.9999999999999999
 40
0.9999999999999999
 40
0.9999999999999999
 40
0.9999999999999999
 10
174.0908809959438
 20
103.0841096403812
 30
0.0
 10
174.0770483844721
 20
103.1110606326047
 30
0.0
 10
174.0493907080728
 20
103.1649479136204
 30
0.0
 10
174.0202170414281
 20
103.2511376381241
 30
0.0
 10
174.0021188175248
 20
103.3403344424737
 30
0.0
 10
173.9999369356657
 20
103.4007810445333
 30
0.0
 10
173.9988456875023
 20
103.4310128571346
 30
0.0
  0
SPLINE
  5
13B
330
1F
100
AcDbEntity
  8
0
  6
Continuous
 62
     7
370
    18
100
AcDbSpline
210
0.0
220
0.0
230
1.0
 70
     8
 71
     3
 72
     8
 73
     4
 74
     0
 42
0.000000001
 43
0.00000001
 40
0.0
 40
0.0
 40
0.0
 40
0.0
 40
1.0
 40
1.0
 40
1.0
 40
1.0
 10
173.5105339991906
 20
103.1720605125871
 30
0.0
 10
173.7039829981084
 20
103.142747573032
 30
0.0
 10
173.8974319970261
 20
103.1134305566862
 30
0.0
 10
174.0908809959438
 20
103.0841096403812
 30
0.0
  0
LINE
  5
13C
330
1F
100
AcDbEntity
  8
0
  6
Continuous
 62
     7
370
    18
100
AcDbLine
 10
173.5105339732
 20
103.91025298
 30
0.0
 11
173.5105339732
 21
103.1720603975
 31
0.0
  0
LINE
  5
13D
330
1F
100
AcDbEntity
  8
0
  6
Continuous
 62
     7
370
    18
100
AcDbLine
 10
173.2358587152
 20
103.91025298
 30
0.0
 11
173.5105339732
 21
103.91025298
 31
0.0
  0
LINE
  5
13E
330
1F
100
AcDbEntity
  8
0
  6
Continuous
 62
     7
370
    18
100
AcDbLine
 10
173.2358587152
 20
103.91025298
 30
0.0
 11
173.2358587152
 21
102.9680739781
 31
0.0
  0
SPLINE
  5
13F
330
1F
100
AcDbEntity
  8
0
  6
Continuous
 62
     7
370
    18
100
AcDbSpline
210
0.0
220
0.0
230
1.0
 70
     8
 71
     3
 72
     8
 73
     4
 74
     0
 42
0.000000001
 43
0.00000001
 40
0.0
 40
0.0
 40
0.0
 40
0.0
 40
1.0
 40
1.0
 40
1.0
 40
1.0
 10
174.4399475543854
 20
102.7853838671785
 30
0.0
 10
174.0385845944287
 20
102.8462953073653
 30
0.0
 10
173.637221634472
 20
102.9071925324867
 30
0.0
 10
173.2358586745153
 20
102.9680739600072
 30
0.0
  0
SPLINE
  5
140
330
1F
100
AcDbEntity
  8
0
  6
Continuous
 62
     7
370
    18
100
AcDbSpline
210
0.0
220
0.0
230
1.0
 70
     8
 71
     3
 72
     8
 73
     4
 74
     0
 42
0.000000001
 43
0.00000001
 40
0.0
 40
0.0
 40
0.0
 40
0.0
 40
1.0
 40
1.0
 40
1.0
 40
1.0
 10
174.4747588368529
 20
103.0289500630876
 30
0.0
 10
174.4631550760304
 20
102.9477891030241
 30
0.0
 10
174.4515513152079
 20
102.8665991207608
 30
0.0
 10
174.4399475543854
 20
102.7853838671785
 30
0.0
  0
SPLINE
  5
141
330
1F
100
AcDbEntity
  8
0
  6
Continuous
 62
     7
370
    18
100
AcDbSpline
210
0.0
220
0.0
230
1.0
 70
     8
 71
     3
 72
    13
 73
     9
 74
     0
 42
0.000000001
 43
0.00000001
 40
0.0
 40
0.0
 40
0.0
 40
0.0
 40
0.1251857732062535
 40
0.2502844631579713
 40
0.4998384123132087
 40
0.7496104912811603
 40
0.8747712753911137
 40
1.0
 40
1.0
 40
1.0
 40
1.0
 10
174.2430015316581
 20
103.3630896255412
 30
0.0
 10
174.2438028993353
 20
103.3452113400372
 30
0.0
 10
174.2454050772326
 20
103.3094672057401
 30
0.0
 10
174.263453117155
 20
103.240035790311
 30
0.0
 10
174.3052605713918
 20
103.1597412708262
 30
0.0
 10
174.3684418353657
 20
103.0951003075204
 30
0.0
 10
174.4270191152575
 20
103.0537402591954
 30
0.0
 10
174.4588427179904
 20
103.0372149564445
 30
0.0
 10
174.4747588368529
 20
103.0289500630876
 30
0.0
  0
SPLINE
  5
142
330
1F
100
AcDbEntity
  8
0
  6
Continuous
 62
     7
370
    18
100
AcDbSpline
210
0.0
220
0.0
230
1.0
 70
     8
 71
     3
 72
    14
 73
    10
 74
     0
 42
0.000000001
 43
0.00000001
 40
0.0
 40
0.0
 40
0.0
 40
0.0
 40
0.1253753764942687
 40
0.2507116442999267
 40
0.3759843889713719
 40
0.5011455318268875
 40
0.7498422054561119
 40
0.8748658854891902
 40
1.0
 40
1.0
 40
1.0
 40
1.0
 10
174.768508836853
 20
103.7585139295193
 30
0.0
 10
174.7377157575955
 20
103.7576752387152
 30
0.0
 10
174.676139204451
 20
103.7559981187222
 30
0.0
 10
174.5844594035209
 20
103.7426840613574
 30
0.0
 10
174.4958735132909
 20
103.7155080876511
 30
0.0
 10
174.3858712703465
 20
103.6605774358909
 30
0.0
 10
174.2963542662496
 20
103.5698226002975
 30
0.0
 10
174.2489103861895
 20
103.4552384308136
 30
0.0
 10
174.2449717294208
 20
103.393814932623
 30
0.0
 10
174.2430015316581
 20
103.3630896255412
 30
0.0
  0
SPLINE
  5
143
330
1F
100
AcDbEntity
  8
0
  6
Continuous
 62
     7
370
    18
100
AcDbSpline
210
0.0
220
0.0
230
1.0
 70
     8
 71
     3
 72
    16
 73
    12
 74
     0
 42
0.000000001
 43
0.00000001
 40
0.0
 40
0.0
 40
0.0
 40
0.0
 40
0.062561087492903
 40
0.1250928754982012
 40
0.249769864765178
 40
0.3746545436190577
 40
0.4996400329584873
 40
0.6246834970050175
 40
0.7497226164574264
 40
0.8748534373134421
 40
1.0
 40
1.0
 40
1.0
 40
1.0
 10
175.3417028303594
 20
103.356913985964
 30
0.0
 10
175.3410794774986
 20
103.3731067377369
 30
0.0
 10
175.3398330637143
 20
103.4054846576656
 30
0.0
 10
175.3251154879181
 20
103.4687034092309
 30
0.0
 10
175.2887983854693
 20
103.5422454580262
 30
0.0
 10
175.2228660994329
 20
103.6143893093264
 30
0.0
 10
175.1452675532184
 20
103.6738163036821
 30
0.0
 10
175.0564063091086
 20
103.7148648210862
 30
0.0
 10
174.9626840039907
 20
103.742148977021
 30
0.0
 10
174.865949675228
 20
103.7559887018062
 30
0.0
 10
174.8009904782358
 20
103.7576721516533
 30
0.0
 10
174.768508836853
 20
103.7585139295193
 30
0.0
  0
SPLINE
  5
144
330
1F
100
AcDbEntity
  8
0
  6
Continuous
 62
     7
370
    18
100
AcDbSpline
210
0.0
220
0.0
230
1.0
 70
     8
 71
     3
 72
    14
 73
    10
 74
     0
 42
0.000000001
 43
0.00000001
 40
0.0
 40
0.0
 40
0.0
 40
0.0
 40
0.1377979488019512
 40
0.2504541919851085
 40
0.5001429767152994
 40
0.6430016293616275
 40
0.7857787203852356
 40
0.892846763617507
 40
1.0
 40
1.0
 40
1.0
 40
1.0
 10
174.8839106225672
 20
102.9985133499817
 30
0.0
 10
174.912927802374
 20
103.0027196022866
 30
0.0
 10
174.9656678785899
 20
103.010364661821
 30
0.0
 10
175.0691036084626
 20
103.0349025509985
 30
0.0
 10
175.170258322687
 20
103.0765210915071
 30
0.0
 10
175.2584988281007
 20
103.1497266198248
 30
0.0
 10
175.3090942640902
 20
103.2171143737142
 30
0.0
 10
175.3370609232218
 20
103.2886713047241
 30
0.0
 10
175.3401551178059
 20
103.3341603954014
 30
0.0
 10
175.3417028303594
 20
103.356913985964
 30
0.0
  0
SPLINE
  5
145
330
1F
100
AcDbEntity
  8
0
  6
Continuous
 62
     7
370
    18
100
AcDbSpline
210
0.0
220
0.0
230
1.0
 70
     8
 71
     3
 72
     8
 73
     4
 74
     0
 42
0.000000001
 43
0.00000001
 40
0.0
 40
0.0
 40
0.0
 40
0.0
 40
1.0
 40
1.0
 40
1.0
 40
1.0
 10
174.9144301030867
 20
102.7549269698302
 30
0.0
 10
174.9042569429135
 20
102.8361484825627
 30
0.0
 10
174.8940837827404
 20
102.9173451930103
 30
0.0
 10
174.8839106225672
 20
102.9985133499817
 30
0.0
  0
SPLINE
  5
146
330
1F
100
AcDbEntity
  8
0
  6
Continuous
 62
     7
370
    18
100
AcDbSpline
210
0.0
220
0.0
230
1.0
 70
     8
 71
     3
 72
    15
 73
    11
 74
     0
 42
0.000000001
 43
0.00000001
 40
0.0
 40
0.0
 40
0.0
 40
0.0
 40
0.0626620904673467
 40
0.1252926296738055
 40
0.2503789947396953
 40
0.4991573193917727
 40
0.6218210237255738
 40
0.7494608068978341
 40
0.8747179529641241
 40
1.0
 40
1.0
 40
1.0
 40
1.0
 10
175.5858586745153
 20
103.3592892475725
 30
0.0
 10
175.5852546873052
 20
103.3384410931417
 30
0.0
 10
175.5840470170012
 20
103.2967552816248
 30
0.0
 10
175.5714623833683
 20
103.2142110681422
 30
0.0
 10
175.5252358671095
 20
103.0750675665127
 30
0.0
 10
175.4165051548562
 20
102.9421512988692
 30
0.0
 10
175.2783462175705
 20
102.8480591692128
 30
0.0
 10
175.1620829424503
 20
102.7993103835787
 30
0.0
 10
175.0393830602351
 20
102.7677152523
 30
0.0
 10
174.9560838484923
 20
102.7591900130933
 30
0.0
 10
174.9144301030867
 20
102.7549269698302
 30
0.0
  0
SPLINE
  5
147
330
1F
100
AcDbEntity
  8
0
  6
Continuous
 62
     7
370
    18
100
AcDbSpline
210
0.0
220
0.0
230
1.0
 70
     8
 71
     3
 72
    14
 73
    10
 74
     0
 42
0.000000001
 43
0.00000001
 40
0.0
 40
0.0
 40
0.0
 40
0.0
 40
0.1254508217661201
 40
0.250865208952288
 40
0.5007660647446104
 40
0.7494481876001292
 40
0.8745485641857055
 40
0.9372586901485913
 40
1.0
 40
1.0
 40
1.0
 40
1.0
 10
174.7551565641257
 20
104.0012487439097
 30
0.0
 10
174.8041087498297
 20
103.999724438528
 30
0.0
 10
174.9019989040944
 20
103.9966762704675
 30
0.0
 10
175.0944352544452
 20
103.9592564095655
 30
0.0
 10
175.3206914487343
 20
103.8625117694905
 30
0.0
 10
175.50465773093
 20
103.6889837021522
 30
0.0
 10
175.5666321745525
 20
103.5284843231398
 30
0.0
 10
175.58368742718
 20
103.4324354392379
 30
0.0
 10
175.5851348054769
 20
103.3836753516144
 30
0.0
 10
175.5858586745153
 20
103.3592892475725
 30
0.0
  0
LINE
  5
148
330
1F
100
AcDbEntity
  8
0
  6
Continuous
 62
     7
370
    18
100
AcDbLine
 10
174.6092352961
 20
100.2917203047
 30
0.0
 11
174.6092352961
 21
99.7962522712
 31
0.0
  0
SPLINE
  5
149
330
1F
100
AcDbEntity
  8
0
  6
Continuous
 62
     7
370
    18
100
AcDbSpline
210
0.0
220
0.0
230
1.0
 70
     8
 71
     3
 72
    15
 73
    11
 74
     0
 42
0.000000001
 43
0.00000001
 40
0.0
 40
0.0
 40
0.0
 40
0.0
 40
0.1251267795938257
 40
0.2502087440698713
 40
0.3752035874756802
 40
0.5001276200208998
 40
0.6181871583668774
 40
0.7497555672937484
 40
0.8748246125365746
 40
1.0
 40
1.0
 40
1.0
 40
1.0
 10
173.8863051030867
 20
101.0163982718124
 30
0.0
 10
173.9352566820911
 20
101.0148341630811
 30
0.0
 10
174.0331423077155
 20
101.011706505816
 30
0.0
 10
174.1774612409984
 20
100.980281500668
 30
0.0
 10
174.312993111458
 20
100.9228149954727
 30
0.0
 10
174.4335751691838
 20
100.8412672904888
 30
0.0
 10
174.5248702394485
 20
100.7237968315129
 30
0.0
 10
174.5787369986612
 20
100.585997824764
 30
0.0
 10
174.6054085425353
 20
100.4384892963629
 30
0.0
 10
174.6079593514481
 20
100.3406571528742
 30
0.0
 10
174.6092352978919
 20
100.2917202940791
 30
0.0
  0
SPLINE
  5
14A
330
1F
100
AcDbEntity
  8
0
  6
Continuous
 62
     7
370
    18
100
AcDbSpline
210
0.0
220
0.0
230
1.0
 70
     8
 71
     3
 72
    14
 73
    10
 74
     0
 42
0.000000001
 43
0.00000001
 40
0.0
 40
0.0
 40
0.0
 40
0.0
 40
0.0715632193436364
 40
0.1431246732572814
 40
0.2503740552462805
 40
0.4997860919222303
 40
0.7495413463656703
 40
0.8497349887435403
 40
0.9999999999999999
 40
0.9999999999999999
 40
0.9999999999999999
 40
0.9999999999999999
 10
173.2506415478919
 20
100.6521022558421
 30
0.0
 10
173.257507221048
 20
100.6694248509043
 30
0.0
 10
173.2712383979874
 20
100.7040696136886
 30
0.0
 10
173.3044978969052
 20
100.760291903434
 30
0.0
 10
173.3731044184287
 20
100.8485406335661
 30
0.0
 10
173.5037996796795
 20
100.9432427342661
 30
0.0
 10
173.6532769430806
 20
100.9933949541682
 30
0.0
 10
173.7820096730236
 20
101.0134357074435
 30
0.0
 10
173.8471959729167
 20
101.0152873572166
 30
0.0
 10
173.8863051030867
 20
101.0163982718124
 30
0.0
  0
SPLINE
  5
14B
330
1F
100
AcDbEntity
  8
0
  6
Continuous
 62
     7
370
    18
100
AcDbSpline
210
0.0
220
0.0
230
1.0
 70
     8
 71
     3
 72
    12
 73
     8
 74
     0
 42
0.000000001
 43
0.00000001
 40
0.0
 40
0.0
 40
0.0
 40
0.0
 40
0.2716297071032535
 40
0.5000612463476913
 40
0.7500575439835054
 40
0.867005844393978
 40
1.0
 40
1.0
 40
1.0
 40
1.0
 10
173.2053391939958
 20
100.2755161329604
 30
0.0
 10
173.2055872937926
 20
100.3100132613551
 30
0.0
 10
173.2060440372574
 20
100.373521326082
 30
0.0
 10
173.2126438491405
 20
100.4685719712104
 30
0.0
 10
173.2218468810439
 20
100.5437393616298
 30
0.0
 10
173.2357547025803
 20
100.6057743607037
 30
0.0
 10
173.2454713360036
 20
100.6360125451486
 30
0.0
 10
173.2506415478919
 20
100.6521022558421
 30
0.0
  0
LINE
  5
14C
330
1F
100
AcDbEntity
  8
0
  6
Continuous
 62
     7
370
    18
100
AcDbLine
 10
173.205339158
 20
100.2755161068
 30
0.0
 11
173.205339158
 21
99.5525066434
 31
0.0
  0
LINE
  5
14D
330
1F
100
AcDbEntity
  8
0
  6
Continuous
 62
     7
370
    18
100
AcDbLine
 10
175.5553392406
 20
99.5525066434
 30
0.0
 11
173.205339158
 21
99.5525066434
 31
0.0
  0
LINE
  5
14E
330
1F
100
AcDbEntity
  8
0
  6
Continuous
 62
     7
370
    18
100
AcDbLine
 10
175.5553392406
 20
99.7962522712
 30
0.0
 11
175.5553392406
 21
99.5525066434
 31
0.0
  0
LINE
  5
14F
330
1F
100
AcDbEntity
  8
0
  6
Continuous
 62
     7
370
    18
100
AcDbLine
 10
174.6092352961
 20
99.7962522712
 30
0.0
 11
175.5553392406
 21
99.7962522712
 31
0.0
  0
SPLINE
  5
150
330
1F
100
AcDbEntity
  8
0
  6
Continuous
 62
     7
370
    18
100
AcDbSpline
210
0.0
220
0.0
230
1.0
 70
     8
 71
     3
 72
     8
 73
     4
 74
     0
 42
0.000000001
 43
0.00000001
 40
0.0
 40
0.0
 40
0.0
 40
0.0
 40
1.0
 40
1.0
 40
1.0
 40
1.0
 10
175.5553391939958
 20
96.3252831402788
 30
0.0
 10
174.8716710392339
 20
96.14221484036382
 30
0.0
 10
174.188002884472
 20
95.95953608393417
 30
0.0
 10
173.5043347297101
 20
95.77729116544617
 30
0.0
  0
LINE
  5
151
330
1F
100
AcDbEntity
  8
0
  6
Continuous
 62
     7
370
    18
100
AcDbLine
 10
175.5553392406
 20
96.5708520422
 30
0.0
 11
175.5553392406
 21
96.325283234
 31
0.0
  0
SPLINE
  5
152
330
1F
100
AcDbEntity
  8
0
  6
Continuous
 62
     7
370
    18
100
AcDbSpline
210
0.0
220
0.0
230
1.0
 70
     8
 71
     3
 72
     8
 73
     4
 74
     0
 42
0.000000001
 43
0.00000001
 40
0.0
 40
0.0
 40
0.0
 40
0.0
 40
1.0
 40
1.0
 40
1.0
 40
1.0
 10
173.6154447134763
 20
97.12684743646504
 30
0.0
 10
174.2620762069828
 20
96.94117007368644
 30
0.0
 10
174.9087077004893
 20
96.75582302241665
 30
0.0
 10
175.5553391939958
 20
96.57085199357272
 30
0.0
  0
LINE
  5
153
330
1F
100
AcDbEntity
  8
0
  6
Continuous
 62
     7
370
    18
100
AcDbLine
 10
175.5553392406
 20
97.1268474283
 30
0.0
 11
173.6154447255
 21
97.1268474283
 31
0.0
  0
LINE
  5
154
330
1F
100
AcDbEntity
  8
0
  6
Continuous
 62
     7
370
    18
100
AcDbLine
 10
175.5553392406
 20
97.3681116635
 30
0.0
 11
175.5553392406
 21
97.1268474283
 31
0.0
  0
LINE
  5
155
330
1F
100
AcDbEntity
  8
0
  6
Continuous
 62
     7
370
    18
100
AcDbLine
 10
173.205339158
 20
97.3681116635
 30
0.0
 11
175.5553392406
 21
97.3681116635
 31
0.0
  0
LINE
  5
156
330
1F
100
AcDbEntity
  8
0
  6
Continuous
 62
     7
370
    18
100
AcDbLine
 10
173.205339158
 20
97.3681116635
 30
0.0
 11
173.205339158
 21
97.0265858965
 31
0.0
  0
SPLINE
  5
157
330
1F
100
AcDbEntity
  8
0
  6
Continuous
 62
     7
370
    18
100
AcDbSpline
210
0.0
220
0.0
230
1.0
 70
     8
 71
     3
 72
     8
 73
     4
 74
     0
 42
0.000000001
 43
0.00000001
 40
0.0
 40
0.0
 40
0.0
 40
0.0
 40
1.0
 40
1.0
 40
1.0
 40
1.0
 10
174.8405157362036
 20
96.55490445225153
 30
0.0
 10
174.295456888801
 20
96.71186909754341
 30
0.0
 10
173.7503980413984
 20
96.86910552361807
 30
0.0
 10
173.2053391939958
 20
97.02658579897023
 30
0.0
  0
SPLINE
  5
158
330
1F
100
AcDbEntity
  8
0
  6
Continuous
 62
     7
370
    18
100
AcDbSpline
210
0.0
220
0.0
230
1.0
 70
     8
 71
     3
 72
     9
 73
     5
 74
     0
 42
0.000000001
 43
0.00000001
 40
0.0
 40
0.0
 40
0.0
 40
0.0
 40
0.4999953013385152
 40
1.0
 40
1.0
 40
1.0
 40
1.0
 10
175.217240573866
 20
96.45035399655968
 30
0.0
 10
175.154317881536
 20
96.46730080836585
 30
0.0
 10
175.0284713142555
 20
96.5011947504905
 30
0.0
 10
174.9031679880595
 20
96.53700110616991
 30
0.0
 10
174.8405157362036
 20
96.55490445225153
 30
0.0
  0
SPLINE
  5
159
330
1F
100
AcDbEntity
  8
0
  6
Continuous
 62
     7
370
    18
100
AcDbSpline
210
0.0
220
0.0
230
1.0
 70
     8
 71
     3
 72
     8
 73
     4
 74
     0
 42
0.000000001
 43
0.00000001
 40
0.0
 40
0.0
 40
0.0
 40
0.0
 40
1.0
 40
1.0
 40
1.0
 40
1.0
 10
174.8691277491906
 20
96.3604033088025
 30
0.0
 10
174.9851653574157
 20
96.39037657612643
 30
0.0
 10
175.1012029656408
 20
96.42036020364455
 30
0.0
 10
175.217240573866
 20
96.45035399655968
 30
0.0
  0
SPLINE
  5
15A
330
1F
100
AcDbEntity
  8
0
  6
Continuous
 62
     7
370
    18
100
AcDbSpline
210
0.0
220
0.0
230
1.0
 70
     8
 71
     3
 72
     8
 73
     4
 74
     0
 42
0.000000001
 43
0.00000001
 40
0.0
 40
0.0
 40
0.0
 40
0.0
 40
1.0
 40
1.0
 40
1.0
 40
1.0
 10
173.2053391939958
 20
95.91207227099608
 30
0.0
 10
173.7599353790607
 20
96.06124132960686
 30
0.0
 10
174.3145315641257
 20
96.21069308295021
 30
0.0
 10
174.8691277491906
 20
96.3604033088025
 30
0.0
  0
LINE
  5
15B
330
1F
100
AcDbEntity
  8
0
  6
Continuous
 62
     7
370
    18
100
AcDbLine
 10
173.205339158
 20
95.9120721715
 30
0.0
 11
173.205339158
 21
95.5389000634
 31
0.0
  0
LINE
  5
15C
330
1F
100
AcDbEntity
  8
0
  6
Continuous
 62
     7
370
    18
100
AcDbLine
 10
175.5553392406
 20
95.5389000634
 30
0.0
 11
173.205339158
 21
95.5389000634
 31
0.0
  0
LINE
  5
15D
330
1F
100
AcDbEntity
  8
0
  6
Continuous
 62
     7
370
    18
100
AcDbLine
 10
175.5553392406
 20
95.7772911685
 30
0.0
 11
175.5553392406
 21
95.5389000634
 31
0.0
  0
LINE
  5
15E
330
1F
100
AcDbEntity
  8
0
  6
Continuous
 62
     7
370
    18
100
AcDbLine
 10
173.5043347409
 20
95.7772911685
 30
0.0
 11
175.5553392406
 21
95.7772911685
 31
0.0
  0
LINE
  5
15F
330
1F
100
AcDbEntity
  8
0
  6
Continuous
 62
     7
370
    18
100
AcDbLine
 10
171.8834642499
 20
101.1443830254
 30
0.0
 11
171.8834642499
 21
126.3443830582
 31
0.0
  0
LINE
  5
160
330
1F
100
AcDbEntity
  8
0
  6
Continuous
 62
     7
370
    18
100
AcDbLine
 10
171.8834642499
 20
75.9443829926
 30
0.0
 11
171.8834642499
 21
101.1443830254
 31
0.0
  0
SPLINE
  5
161
330
1F
100
AcDbEntity
  8
0
  6
Continuous
 62
     7
370
    18
100
AcDbSpline
210
0.0
220
0.0
230
1.0
 70
     8
 71
     3
 72
    16
 73
    12
 74
     0
 42
0.000000001
 43
0.00000001
 40
0.0
 40
0.0
 40
0.0
 40
0.0
 40
0.1251436186110435
 40
0.2502667765187813
 40
0.37731859320776
 40
0.5003649802579013
 40
0.6431622939843835
 40
0.7857880323439553
 40
0.8927538855128715
 40
0.9463653250876206
 40
1.0
 40
1.0
 40
1.0
 40
1.0
 10
174.7794767751647
 20
101.5046973330309
 30
0.0
 10
174.8114055876377
 20
101.5054999760449
 30
0.0
 10
174.8752579922939
 20
101.5071051308426
 30
0.0
 10
174.9704492026062
 20
101.5229120510018
 30
0.0
 10
175.0625509860445
 20
101.5501664859937
 30
0.0
 10
175.1521734758037
 20
101.5962372886841
 30
0.0
 10
175.2345489753987
 20
101.6610032259285
 30
0.0
 10
175.2987421691479
 20
101.7393810070687
 30
0.0
 10
175.3293378136342
 20
101.8113577194408
 30
0.0
 10
175.340213769525
 20
101.8650857191394
 30
0.0
 10
175.3412064050617
 20
101.8924380027269
 30
0.0
 10
175.3417028303594
 20
101.9061171075162
 30
0.0
  0
SPLINE
  5
162
330
1F
100
AcDbEntity
  8
0
  6
Continuous
 62
     7
370
    18
100
AcDbSpline
210
0.0
220
0.0
230
1.0
 70
     8
 71
     3
 72
    16
 73
    12
 74
     0
 42
0.000000001
 43
0.00000001
 40
0.0
 40
0.0
 40
0.0
 40
0.0
 40
0.0714570522975998
 40
0.1428621950353148
 40
0.2852490014631072
 40
0.3894793910061459
 40
0.4996442112028905
 40
0.6176232849317478
 40
0.7497360404989211
 40
0.8748363765134364
 40
1.0
 40
1.0
 40
1.0
 40
1.0
 10
175.3417028303594
 20
101.9061171075162
 30
0.0
 10
175.3407871623771
 20
101.9233405801451
 30
0.0
 10
175.3389564915941
 20
101.9577750135114
 30
0.0
 10
175.3175126771731
 20
102.0236213849818
 30
0.0
 10
175.2746953192829
 20
102.0886552952167
 30
0.0
 10
175.2115018282506
 20
102.1471499995694
 30
0.0
 10
175.1455432626846
 20
102.1928656513045
 30
0.0
 10
175.0663551545123
 20
102.2292655426943
 30
0.0
 10
174.9787168038666
 20
102.2521059309025
 30
0.0
 10
174.8874988191849
 20
102.2655580188654
 30
0.0
 10
174.8272519180916
 20
102.2667394374847
 30
0.0
 10
174.79712084984
 20
102.2673302961747
 30
0.0
  0
SPLINE
  5
163
330
1F
100
AcDbEntity
  8
0
  6
Continuous
 62
     7
370
    18
100
AcDbSpline
210
0.0
220
0.0
230
1.0
 70
     8
 71
     3
 72
    14
 73
    10
 74
     0
 42
0.000000001
 43
0.00000001
 40
0.0
 40
0.0
 40
0.0
 40
0.0
 40
0.1254744663734793
 40
0.2508913731699353
 40
0.5006345263635037
 40
0.749560006928595
 40
0.8745895747613982
 40
0.9372675200678544
 40
1.0
 40
1.0
 40
1.0
 40
1.0
 10
174.79712084984
 20
102.2673302961747
 30
0.0
 10
174.7670470781017
 20
102.2666192920427
 30
0.0
 10
174.7069133305282
 20
102.2651976099416
 30
0.0
 10
174.5879718660948
 20
102.2482864984807
 30
0.0
 10
174.44466207805
 20
102.1966533665939
 30
0.0
 10
174.3314706753962
 20
102.0903532416753
 30
0.0
 10
174.287348547638
 20
101.9940218840956
 30
0.0
 10
174.2754278260227
 20
101.9349719415566
 30
0.0
 10
174.2741568010274
 20
101.9049355156342
 30
0.0
 10
174.2735210121776
 20
101.8899107720149
 30
0.0
  0
SPLINE
  5
164
330
1F
100
AcDbEntity
  8
0
  6
Continuous
 62
     7
370
    18
100
AcDbSpline
210
0.0
220
0.0
230
1.0
 70
     8
 71
     3
 72
    15
 73
    11
 74
     0
 42
0.000000001
 43
0.00000001
 40
0.0
 40
0.0
 40
0.0
 40
0.0
 40
0.0626144262486935
 40
0.125223081628644
 40
0.2501396090587375
 40
0.3751487439832072
 40
0.5002604568970574
 40
0.7495411692940154
 40
0.8747411013275411
 40
1.0
 40
1.0
 40
1.0
 40
1.0
 10
174.2735210121776
 20
101.8899107720149
 30
0.0
 10
174.2739363920269
 20
101.8751472314852
 30
0.0
 10
174.2747671134418
 20
101.8456215111099
 30
0.0
 10
174.2876019801421
 20
101.7878706219747
 30
0.0
 10
174.3176194894228
 20
101.7196837645818
 30
0.0
 10
174.3734732978493
 20
101.6503623383817
 30
0.0
 10
174.4631055833117
 20
101.5731925082951
 30
0.0
 10
174.5747201189928
 20
101.5270549213244
 30
0.0
 10
174.6909171044153
 20
101.5071234464272
 30
0.0
 10
174.7499522519455
 20
101.5055061644176
 30
0.0
 10
174.7794767751647
 20
101.5046973330309
 30
0.0
  0
LINE
  5
165
330
1F
100
AcDbEntity
  8
0
  6
Continuous
 62
     7
370
    18
100
AcDbLine
 10
174.3345599727
 20
100.3069715849
 30
0.0
 11
174.3345599727
 21
99.7962522712
 31
0.0
  0
SPLINE
  5
166
330
1F
100
AcDbEntity
  8
0
  6
Continuous
 62
     7
370
    18
100
AcDbSpline
210
0.0
220
0.0
230
1.0
 70
     8
 71
     3
 72
    14
 73
    10
 74
     0
 42
0.000000001
 43
0.00000001
 40
0.0
 40
0.0
 40
0.0
 40
0.0
 40
0.1254334684851632
 40
0.2507837227450707
 40
0.4991924195970258
 40
0.6189973935869594
 40
0.7493281599185031
 40
0.87460697207986
 40
1.0
 40
1.0
 40
1.0
 40
1.0
 10
174.3345599732166
 20
100.3069715867396
 30
0.0
 10
174.3337878955181
 20
100.3375650162201
 30
0.0
 10
174.3322442523278
 20
100.3987315790945
 30
0.0
 10
174.3129395560514
 20
100.5187656759584
 30
0.0
 10
174.261736093131
 20
100.6339373892167
 30
0.0
 10
174.1669696358132
 20
100.7128893303238
 30
0.0
 10
174.0823536092842
 20
100.7501066221406
 30
0.0
 10
173.9909045637079
 20
100.7692610494047
 30
0.0
 10
173.9297644797834
 20
100.7712568465524
 30
0.0
 10
173.8991805089309
 20
100.7722551998073
 30
0.0
  0
SPLINE
  5
167
330
1F
100
AcDbEntity
  8
0
  6
Continuous
 62
     7
370
    18
100
AcDbSpline
210
0.0
220
0.0
230
1.0
 70
     8
 71
     3
 72
    15
 73
    11
 74
     0
 42
0.000000001
 43
0.00000001
 40
0.0
 40
0.0
 40
0.0
 40
0.0
 40
0.1251494126434013
 40
0.2502382939156054
 40
0.3752400413420996
 40
0.5001576466784802
 40
0.6246526713367438
 40
0.749580694268449
 40
0.8926595291875383
 40
1.0
 40
1.0
 40
1.0
 40
1.0
 10
173.8991805089309
 20
100.7722551998073
 30
0.0
 10
173.8686105152407
 20
100.7711874826766
 30
0.0
 10
173.807485313736
 20
100.7690525648408
 30
0.0
 10
173.7175296383383
 20
100.7479060927044
 30
0.0
 10
173.6346292726427
 20
100.7079004051053
 30
0.0
 10
173.5602897470317
 20
100.6533541888048
 30
0.0
 10
173.5067868122566
 20
100.5760056468325
 30
0.0
 10
173.4885662561174
 20
100.4806245599598
 30
0.0
 10
173.4808562997793
 20
100.3895349027674
 30
0.0
 10
173.4802670825042
 20
100.3284073988662
 30
0.0
 10
173.4800145186711
 20
100.3022055250563
 30
0.0
  0
LINE
  5
168
330
1F
100
AcDbEntity
  8
0
  6
Continuous
 62
     7
370
    18
100
AcDbLine
 10
173.4800145324
 20
100.3022055416
 30
0.0
 11
173.4800145324
 21
99.7962522712
 31
0.0
  0
LINE
  5
169
330
1F
100
AcDbEntity
  8
0
  6
Continuous
 62
     7
370
    18
100
AcDbLine
 10
173.4800145324
 20
99.7962522712
 30
0.0
 11
174.3345599727
 21
99.7962522712
 31
0.0
  0
SPLINE
  5
16A
330
1F
100
AcDbEntity
  8
0
  6
Continuous
 62
     7
370
    18
100
AcDbSpline
210
0.0
220
0.0
230
1.0
 70
     8
 71
     3
 72
    14
 73
    10
 74
     0
 42
0.000000001
 43
0.00000001
 40
0.0
 40
0.0
 40
0.0
 40
0.0
 40
0.2504593848594053
 40
0.5007737691173274
 40
0.6258703401257065
 40
0.7507069732232938
 40
0.8751134679239075
 40
0.9375438466361543
 40
1.0
 40
1.0
 40
1.0
 40
1.0
 10
174.3803391939958
 20
104.4859040611455
 30
0.0
 10
174.475223525463
 20
104.4870854431568
 30
0.0
 10
174.6649372561968
 20
104.4894475232318
 30
0.0
 10
174.9013129482037
 20
104.5141913605327
 30
0.0
 10
175.0861239224188
 20
104.5598065205516
 30
0.0
 10
175.2126144635823
 20
104.6267111002807
 30
0.0
 10
175.2979215425785
 20
104.7118073254921
 30
0.0
 10
175.3370381807806
 20
104.7988242251272
 30
0.0
 10
175.3401477332453
 20
104.8458391283499
 30
0.0
 10
175.3417028303594
 20
104.8693514315362
 30
0.0
  0
SPLINE
  5
16B
330
1F
100
AcDbEntity
  8
0
  6
Continuous
 62
     7
370
    18
100
AcDbSpline
210
0.0
220
0.0
230
1.0
 70
     8
 71
     3
 72
    15
 73
    11
 74
     0
 42
0.000000001
 43
0.00000001
 40
0.0
 40
0.0
 40
0.0
 40
0.0
 40
0.0312901635285386
 40
0.0625537335386498
 40
0.1249650643503512
 40
0.2494571375088204
 40
0.3743031125252762
 40
0.4993924584937494
 40
0.7496226152148638
 40
1.0
 40
1.0
 40
1.0
 40
1.0
 10
175.3417028303594
 20
104.8693514315362
 30
0.0
 10
175.3413218073933
 20
104.8809940147242
 30
0.0
 10
175.3405600852925
 20
104.9042692860654
 30
0.0
 10
175.3297097598816
 20
104.9496423065341
 30
0.0
 10
175.2951182113352
 20
105.0243019939392
 30
0.0
 10
175.2054454978743
 20
105.1039480534737
 30
0.0
 10
175.080109251855
 20
105.1687932258083
 30
0.0
 10
174.8964839208689
 20
105.2127160710501
 30
0.0
 10
174.6623857000336
 20
105.237008779039
 30
0.0
 10
174.4743731274307
 20
105.2394283891577
 30
0.0
 10
174.3803391939958
 20
105.2406385500192
 30
0.0
  0
SPLINE
  5
16C
330
1F
100
AcDbEntity
  8
0
  6
Continuous
 62
     7
370
    18
100
AcDbSpline
210
0.0
220
0.0
230
1.0
 70
     8
 71
     3
 72
    14
 73
    10
 74
     0
 42
0.000000001
 43
0.00000001
 40
0.0
 40
0.0
 40
0.0
 40
0.0
 40
0.2504545161899763
 40
0.5007633272324264
 40
0.6258556209242593
 40
0.7506768265904515
 40
0.8750919021456446
 40
0.9375290817243958
 40
1.0
 40
1.0
 40
1.0
 40
1.0
 10
174.3803391939958
 20
105.2406385500192
 30
0.0
 10
174.2852238413766
 20
105.2394544451452
 30
0.0
 10
174.0950484707223
 20
105.2370869242656
 30
0.0
 10
173.858068256728
 20
105.2124704716872
 30
0.0
 10
173.6728567269249
 20
105.1667918102463
 30
0.0
 10
173.5460984289805
 20
105.0996735178364
 30
0.0
 10
173.4616015620409
 20
105.01341066685
 30
0.0
 10
173.4234674666924
 20
104.9258876828042
 30
0.0
 10
173.4204731302505
 20
104.878766476896
 30
0.0
 10
173.4189755576322
 20
104.8551995100307
 30
0.0
  0
SPLINE
  5
16D
330
1F
100
AcDbEntity
  8
0
  6
Continuous
 62
     7
370
    18
100
AcDbSpline
210
0.0
220
0.0
230
1.0
 70
     8
 71
     3
 72
    16
 73
    12
 74
     0
 42
0.000000001
 43
0.00000001
 40
0.0
 40
0.0
 40
0.0
 40
0.0
 40
0.0312835484950869
 40
0.0625395266465657
 40
0.1249245184145124
 40
0.2493412095452049
 40
0.3118907638807577
 40
0.3744409013743355
 40
0.4994832982156778
 40
0.7496712702792627
 40
1.0
 40
1.0
 40
1.0
 40
1.0
 10
173.4189755576322
 20
104.8551995100307
 30
0.0
 10
173.4193447617583
 20
104.8435719665248
 30
0.0
 10
173.4200828446293
 20
104.8203271269236
 30
0.0
 10
173.4310556855808
 20
104.7750103287543
 30
0.0
 10
173.4663626260038
 20
104.7007673328236
 30
0.0
 10
173.5383576632698
 20
104.6372608806161
 30
0.0
 10
173.6179827320311
 20
104.5887079535509
 30
0.0
 10
173.704748138897
 20
104.5523928162409
 30
0.0
 10
173.8647822040828
 20
104.5136060812169
 30
0.0
 10
174.0987971638727
 20
104.4896163538375
 30
0.0
 10
174.286474257477
 20
104.4871417240185
 30
0.0
 10
174.3803391939958
 20
104.4859040611455
 30
0.0
  0
LINE
  5
16E
330
1F
100
AcDbEntity
  8
0
  6
Continuous
 62
     7
370
    18
100
AcDbLine
 10
175.2806638662
 20
94.2885464216
 30
0.0
 11
175.2806638662
 21
93.8858900378
 31
0.0
  0
SPLINE
  5
16F
330
1F
100
AcDbEntity
  8
0
  6
Continuous
 62
     7
370
    18
100
AcDbSpline
210
0.0
220
0.0
230
1.0
 70
     8
 71
     3
 72
    15
 73
    11
 74
     0
 42
0.000000001
 43
0.00000001
 40
0.0
 40
0.0
 40
0.0
 40
0.0
 40
0.1388489419426263
 40
0.2501977506343451
 40
0.3831761862905507
 40
0.5002075727704379
 40
0.6213379654160893
 40
0.7499414540044844
 40
0.8749212798673599
 40
1.0
 40
1.0
 40
1.0
 40
1.0
 10
175.2806638693205
 20
94.28854641763186
 30
0.0
 10
175.2798192968557
 20
94.3212104527991
 30
0.0
 10
175.2782974261956
 20
94.38006915212473
 30
0.0
 10
175.2685782967449
 20
94.46996491646392
 30
0.0
 10
175.2494980044053
 20
94.55340270791348
 30
0.0
 10
175.2169471363746
 20
94.6356671372054
 30
0.0
 10
175.1667357041497
 20
94.70837547478334
 30
0.0
 10
175.1001973526303
 20
94.76996687048592
 30
0.0
 10
175.0228562626266
 20
94.82009677736583
 30
0.0
 10
174.966475151655
 20
94.84312137289312
 30
0.0
 10
174.9382734472426
 20
94.85463822359166
 30
0.0
  0
SPLINE
  5
170
330
1F
100
AcDbEntity
  8
0
  6
Continuous
 62
     7
370
    18
100
AcDbSpline
210
0.0
220
0.0
230
1.0
 70
     8
 71
     3
 72
    12
 73
     8
 74
     0
 42
0.000000001
 43
0.00000001
 40
0.0
 40
0.0
 40
0.0
 40
0.0
 40
0.1384428690882687
 40
0.2499955774680688
 40
0.4999714742338632
 40
0.7499799309452773
 40
1.0
 40
1.0
 40
1.0
 40
1.0
 10
174.9382734472426
 20
94.85463822359166
 30
0.0
 10
174.9128692389356
 20
94.86349207861785
 30
0.0
 10
174.866995155513
 20
94.87948007868364
 30
0.0
 10
174.7732451805611
 20
94.90559910296729
 30
0.0
 10
174.6559269439232
 20
94.92729270225614
 30
0.0
 10
174.5104141238759
 20
94.94306054170633
 30
0.0
 10
174.4128892762235
 20
94.94451052908498
 30
0.0
 10
174.3641257199698
 20
94.94523553961109
 30
0.0
  0
SPLINE
  5
171
330
1F
100
AcDbEntity
  8
0
  6
Continuous
 62
     7
370
    18
100
AcDbSpline
210
0.0
220
0.0
230
1.0
 70
     8
 71
     3
 72
    15
 73
    11
 74
     0
 42
0.000000001
 43
0.00000001
 40
0.0
 40
0.0
 40
0.0
 40
0.0
 40
0.0834230312274557
 40
0.2502275879770233
 40
0.5000787347285517
 40
0.6250851562570164
 40
0.7500916741890149
 40
0.8749580725237398
 40
0.9374643383058804
 40
1.0
 40
1.0
 40
1.0
 40
1.0
 10
174.3641257199698
 20
94.94523553961109
 30
0.0
 10
174.3374890784383
 20
94.94503463091255
 30
0.0
 10
174.2575924064502
 20
94.94443200477556
 30
0.0
 10
174.0983471824363
 20
94.93331348314273
 30
0.0
 10
173.9268436795048
 20
94.90210060492313
 30
0.0
 10
173.7792922863987
 20
94.84189257992432
 30
0.0
 10
173.6761097627879
 20
94.78208808348856
 30
0.0
 10
173.602110629587
 20
94.71623734127948
 30
0.0
 10
173.5533358739383
 20
94.65470971417811
 30
0.0
 10
173.5356116623763
 20
94.62004789722448
 30
0.0
 10
173.5267474732166
 20
94.60271291445137
 30
0.0
  0
SPLINE
  5
172
330
1F
100
AcDbEntity
  8
0
  6
Continuous
 62
     7
370
    18
100
AcDbSpline
210
0.0
220
0.0
230
1.0
 70
     8
 71
     3
 72
    12
 73
     8
 74
     0
 42
0.000000001
 43
0.00000001
 40
0.0
 40
0.0
 40
0.0
 40
0.0
 40
0.1264898950829094
 40
0.2499216889095016
 40
0.4999002110562555
 40
0.7499192313532307
 40
1.0
 40
1.0
 40
1.0
 40
1.0
 10
173.5267474732166
 20
94.60271291445137
 30
0.0
 10
173.5216446818984
 20
94.58986385721738
 30
0.0
 10
173.5115624676349
 20
94.56447638984136
 30
0.0
 10
173.497123638165
 20
94.51185376901459
 30
0.0
 10
173.4875359392391
 20
94.44463284786428
 30
0.0
 10
173.480875002965
 20
94.3634546490272
 30
0.0
 10
173.4803013703783
 20
94.30923265350243
 30
0.0
 10
173.4800145186711
 20
94.2821183082894
 30
0.0
  0
LINE
  5
173
330
1F
100
AcDbEntity
  8
0
  6
Continuous
 62
     7
370
    18
100
AcDbLine
 10
173.4800145324
 20
94.2821184332
 30
0.0
 11
173.4800145324
 21
93.8858900378
 31
0.0
  0
LINE
  5
174
330
1F
100
AcDbEntity
  8
0
  6
Continuous
 62
     7
370
    18
100
AcDbLine
 10
173.4800145324
 20
93.8858900378
 30
0.0
 11
175.2806638662
 21
93.8858900378
 31
0.0
  0
DIMENSION
  5
175
330
1F
100
AcDbEntity
  8
0
  6
Continuous
 62
     7
370
    18
100
AcDbDimension
  2
_D_1
 10
176.883464194
 20
131.5443830254
 30
0.0
 11
187.0179936819
 21
131.5443830254
 31
0.0
 70
   160
  1
<>
 71
     2
 42
-1.0
  3
SLDDIMSTYLE1
100
AcDbAlignedDimension
 13
171.883464194
 23
126.3443830254
 33
0.0
 14
176.883464194
 24
126.3443830254
 34
0.0
100
AcDbRotatedDimension
  0
MTEXT
  5
18A
330
1F
100
AcDbEntity
  8
0
  6
Continuous
 62
     7
370
     0
100
AcDbMText
 10
147.8338298893
 20
121.1991003165
 30
0.0
 40
2.6458333333
 41
0.0
 71
     1
 72
     1
  1
S1
  7
SLDTEXTSTYLE0
 73
     1
 44
1.0
  0
LEADER
  5
18C
330
1F
100
AcDbEntity
  8
0
  6
Continuous
 62
     7
370
     0
100
AcDbLeader
  3
SLDDIMSTYLE2
 76
     3
 10
171.883464194
 20
111.7206138663
 30
0.0
 10
158.3580837615
 20
119.8823210584
 30
0.0
 10
152.0080837615
 20
119.8823210584
 30
0.0
  0
INSERT
  5
192
102
{ACAD_REACTORS
330
193
102
}
330
1F
100
AcDbEntity
  8
0
  6
Continuous
 62
     7
370
     0
100
AcDbBlockReference
  2
SW_NOTE_5
 10
191.4117647059
 20
106.9144066199
 30
0.0
  0
LEADER
  5
193
330
1F
100
AcDbEntity
  8
0
  6
Continuous
 62
     7
370
     0
100
AcDbLeader
  3
SLDDIMSTYLE2
 73
     2
 76
     3
 10
176.883464194
 20
110.9918736083
 30
0.0
 10
185.0617647059
 20
106.9144066199
 30
0.0
 10
191.4117647059
 20
106.9144066199
 30
0.0
340
192
  0
LINE
  5
194
330
1F
100
AcDbEntity
  8
0
  6
Continuous
 62
     7
370
    18
100
AcDbLine
 10
246.3935513096
 20
194.7404975598
 30
0.0
 11
246.3935513096
 21
194.6588567487
 31
0.0
  0
LINE
  5
195
330
1F
100
AcDbEntity
  8
0
  6
Continuous
 62
     7
370
    18
100
AcDbLine
 10
255.3016487009
 20
179.2279074928
 30
0.0
 11
255.3723478865
 21
179.1870804527
 31
0.0
  0
LINE
  5
196
330
1F
100
AcDbEntity
  8
0
  6
Continuous
 62
     7
370
    18
100
AcDbLine
 10
250.6506690752
 20
201.4939959306
 30
0.0
 11
249.0243234785
 21
200.555126602
 31
0.0
  0
LINE
  5
197
330
1F
100
AcDbEntity
  8
0
  6
Continuous
 62
     7
370
    18
100
AcDbLine
 10
261.7232913829
 20
178.5574854975
 30
0.0
 11
263.3496369797
 21
179.4963548261
 31
0.0
  0
LINE
  5
198
330
1F
100
AcDbEntity
  8
0
  6
Continuous
 62
     7
370
    18
100
AcDbLine
 10
265.9804091485
 20
185.3109838683
 30
0.0
 11
265.9804091485
 21
185.3926246795
 31
0.0
  0
LINE
  5
199
330
1F
100
AcDbEntity
  8
0
  6
Continuous
 62
     7
370
    18
100
AcDbLine
 10
257.0723117573
 20
200.8235739354
 30
0.0
 11
257.0016125716
 21
200.8644009754
 31
0.0
  0
LWPOLYLINE
  5
19A
330
1F
100
AcDbEntity
  8
0
  6
Continuous
 62
     7
370
    18
100
AcDbPolyline
 90
      171
 70
   128
 43
0.0
 10
264.2126421955
 20
184.3721145397
 10
264.2065575118
 20
184.7557994849
 10
264.1883117717
 20
185.145985589
 10
264.1579298966
 20
185.5421399045
 10
264.1154533846
 20
185.9437213323
 10
264.0609402534
 20
186.3501813606
 10
263.9944649615
 20
186.7609648138
 10
263.916118306
 20
187.1755106111
 10
263.8260072991
 20
187.5932525328
 10
263.7242550215
 20
188.0136199937
 10
263.6110004548
 20
188.4360388225
 10
263.4863982909
 20
188.8599320458
 10
263.3506187214
 20
189.2847206764
 10
263.2038472049
 20
189.7098245043
 10
263.0462842137
 20
190.1346628886
 10
262.8781449597
 20
190.5586555513
 10
262.6996591012
 20
190.9812233693
 10
262.5110704281
 20
191.401789166
 10
262.31263653
 20
191.8197784989
 10
262.1046284437
 20
192.234620445
 10
261.8873302833
 20
192.64574838
 10
261.6610388519
 20
193.0526007526
 10
261.4260632363
 20
193.4546218515
 10
261.182724385
 20
193.8512625641
 10
260.9313546696
 20
194.241981127
 10
260.6722974309
 20
194.6262438656
 10
260.4059065099
 20
195.0035259232
 10
260.1325457646
 20
195.3733119779
 10
259.8525885728
 20
195.7350969465
 10
259.5664173225
 20
196.0883866742
 10
259.274422889
 20
196.4326986096
 10
258.9770041018
 20
196.7675624643
 10
258.6745671991
 20
197.0925208543
 10
258.3675252732
 20
197.4071299256
 10
258.0562977066
 20
197.7109599601
 10
257.7413095987
 20
198.0035959624
 10
257.4229911853
 20
198.2846382271
 10
257.1017772511
 20
198.5537028842
 10
256.7781065357
 20
198.8104224236
 10
256.4524211344
 20
199.0544461975
 10
256.1251658942
 20
199.2854408987
 10
255.7967878064
 20
199.5030910162
 10
255.4677353961
 20
199.7070992661
 10
255.1384581091
 20
199.8971869977
 10
254.8094056988
 20
200.0730945741
 10
254.481027611
 20
200.2345817265
 10
254.1537723708
 20
200.3814278831
 10
253.8280869695
 20
200.5134324696
 10
253.5044162541
 20
200.6304151837
 10
253.1832023199
 20
200.732216241
 10
252.8648839065
 20
200.8186965934
 10
252.5498957986
 20
200.8897381194
 10
252.238668232
 20
200.9452437846
 10
251.9316263061
 20
200.9851377751
 10
251.6291894034
 20
201.0093656004
 10
251.3317706161
 20
201.0178941682
 10
251.0397761827
 20
201.0107118295
 10
250.7536049324
 20
200.9878283946
 10
250.4736477406
 20
200.9492751195
 10
250.2002869953
 20
200.8951046632
 10
249.9338960743
 20
200.8253910162
 10
249.6748388356
 20
200.7402293989
 10
249.4234691202
 20
200.6397361318
 10
249.1801302689
 20
200.5240484766
 10
248.9451546533
 20
200.3933244488
 10
248.7188632219
 20
200.2477426016
 10
248.5015650614
 20
200.0875017823
 10
248.2935569752
 20
199.9128208607
 10
248.0951230771
 20
199.7239384298
 10
247.906534404
 20
199.5211124803
 10
247.7280485454
 20
199.3046200482
 10
247.5599092915
 20
199.0747568359
 10
247.4023463003
 20
198.831836809
 10
247.2555747838
 20
198.5761917671
 10
247.1197952143
 20
198.3081708904
 10
246.9951930504
 20
198.0281402634
 10
246.8819384836
 20
197.7364823741
 10
246.7801862061
 20
197.4335955922
 10
246.6900751992
 20
197.1198936244
 10
246.6117285437
 20
196.7958049501
 10
246.5452532518
 20
196.4617722354
 10
246.4907401206
 20
196.1182517287
 10
246.4482636085
 20
195.7657126377
 10
246.4178817335
 20
195.4046364885
 10
246.3996359933
 20
195.0355164677
 10
246.3935513096
 20
194.6588567487
 10
246.3996359933
 20
194.2751718034
 10
246.4178817335
 20
193.8849856994
 10
246.4482636085
 20
193.4888313839
 10
246.4907401206
 20
193.087249956
 10
246.5452532518
 20
192.6807899278
 10
246.6117285437
 20
192.2700064746
 10
246.6900751992
 20
191.8554606773
 10
246.7801862061
 20
191.4377187555
 10
246.8819384836
 20
191.0173512946
 10
246.9951930504
 20
190.5949324658
 10
247.1197952143
 20
190.1710392426
 10
247.2555747838
 20
189.7462506119
 10
247.4023463003
 20
189.3211467841
 10
247.5599092915
 20
188.8963083998
 10
247.7280485454
 20
188.4723157371
 10
247.906534404
 20
188.049747919
 10
248.0951230771
 20
187.6291821223
 10
248.2935569752
 20
187.2111927894
 10
248.5015650614
 20
186.7963508433
 10
248.7188632219
 20
186.3852229083
 10
248.9451546533
 20
185.9783705357
 10
249.1801302689
 20
185.5763494368
 10
249.4234691202
 20
185.1797087242
 10
249.6748388356
 20
184.7889901613
 10
249.9338960743
 20
184.4047274227
 10
250.2002869953
 20
184.0274453651
 10
250.4736477406
 20
183.6576593104
 10
250.7536049324
 20
183.2958743418
 10
251.0397761827
 20
182.9425846142
 10
251.3317706161
 20
182.5982726787
 10
251.6291894034
 20
182.2634088241
 10
251.9316263061
 20
181.9384504341
 10
252.238668232
 20
181.6238413628
 10
252.5498957986
 20
181.3200113283
 10
252.8648839065
 20
181.0273753259
 10
253.1832023199
 20
180.7463330612
 10
253.5044162541
 20
180.4772684042
 10
253.8280869695
 20
180.2205488647
 10
254.1537723708
 20
179.9765250908
 10
254.481027611
 20
179.7455303896
 10
254.8094056988
 20
179.5278802722
 10
255.1384581091
 20
179.3238720222
 10
255.4677353961
 20
179.1337842906
 10
255.7967878064
 20
178.9578767143
 10
256.1251658942
 20
178.7963895618
 10
256.4524211344
 20
178.6495434052
 10
256.7781065357
 20
178.5175388187
 10
257.1017772511
 20
178.4005561047
 10
257.4229911853
 20
178.2987550474
 10
257.7413095987
 20
178.2122746949
 10
258.0562977066
 20
178.141233169
 10
258.3675252732
 20
178.0857275037
 10
258.6745671991
 20
178.0458335133
 10
258.9770041018
 20
178.021605688
 10
259.274422889
 20
178.0130771202
 10
259.5664173225
 20
178.0202594588
 10
259.8525885728
 20
178.0431428937
 10
260.1325457646
 20
178.0816961689
 10
260.4059065099
 20
178.1358666251
 10
260.6722974309
 20
178.2055802721
 10
260.9313546696
 20
178.2907418894
 10
261.182724385
 20
178.3912351565
 10
261.4260632363
 20
178.5069228117
 10
261.6610388519
 20
178.6376468396
 10
261.8873302833
 20
178.7832286868
 10
262.1046284437
 20
178.943469506
 10
262.31263653
 20
179.1181504277
 10
262.5110704281
 20
179.3070328585
 10
262.6996591012
 20
179.509858808
 10
262.8781449597
 20
179.7263512402
 10
263.0462842137
 20
179.9562144525
 10
263.2038472049
 20
180.1991344793
 10
263.3506187214
 20
180.4547795213
 10
263.4863982909
 20
180.7228003979
 10
263.6110004548
 20
181.0028310249
 10
263.7242550215
 20
181.2944889142
 10
263.8260072991
 20
181.5973756962
 10
263.916118306
 20
181.9110776639
 10
263.9944649615
 20
182.2351663382
 10
264.0609402534
 20
182.569199053
 10
264.1154533846
 20
182.9127195597
 10
264.1579298966
 20
183.2652586506
 10
264.1883117717
 20
183.6263347998
 10
264.2065575118
 20
183.9954548207
 10
264.2126421955
 20
184.3721145397
  0
LWPOLYLINE
  5
19B
330
1F
100
AcDbEntity
  8
0
  6
Continuous
 62
     7
370
    18
100
AcDbPolyline
 90
       44
 70
   128
 43
0.0
 10
264.3540635518
 20
184.3721145397
 10
264.3479305769
 20
183.9924654578
 10
264.3295400294
 20
183.620415913
 10
264.2989170283
 20
183.2564740801
 10
264.2561034011
 20
182.9011370598
 10
264.201157626
 20
182.5548901999
 10
264.1341547523
 20
182.2182064318
 10
264.055186298
 20
181.8915456252
 10
263.9643601244
 20
181.5753539593
 10
263.8618002891
 20
181.270063314
 10
263.7476468765
 20
180.9760906796
 10
263.6220558066
 20
180.6938375873
 10
263.4851986215
 20
180.4236895608
 10
263.3372622517
 20
180.16601559
 10
263.1784487605
 20
179.9211676264
 10
263.0089750681
 20
179.6894801029
 10
262.8290726551
 20
179.4712694768
 10
262.6389872465
 20
179.2668337976
 10
262.4389784762
 20
179.0764522998
 10
262.2293195321
 20
178.9003850216
 10
262.0102967831
 20
178.7388724498
 10
261.7822093879
 20
178.5921351912
 10
261.5453688865
 20
178.460373671
 10
261.3000987745
 20
178.3437678599
 10
261.0467340614
 20
178.2424770271
 10
260.7856208128
 20
178.156639524
 10
260.5171156782
 20
178.086372594
 10
260.2415854031
 20
178.0317722135
 10
259.9594063289
 20
177.99291296
 10
259.6709638781
 20
177.9698479106
 10
259.3766520286
 20
177.9626085692
 10
259.0768727748
 20
177.9712048241
 10
258.7720355791
 20
177.9956249337
 10
258.4625568126
 20
178.0358355431
 10
258.148859186
 20
178.0917817295
 10
257.8313711724
 20
178.1633870771
 10
257.5105264224
 20
178.2505537816
 10
257.1867631713
 20
178.3531627837
 10
256.8605236407
 20
178.471073932
 10
256.5322534346
 20
178.604126174
 10
256.2024009306
 20
178.7521377763
 10
255.8714166675
 20
178.9149065728
 10
255.5397527301
 20
179.092210241
 10
255.3723478865
 20
179.1870804527
  0
LWPOLYLINE
  5
19C
330
1F
100
AcDbEntity
  8
0
  6
Continuous
 62
     7
370
    18
100
AcDbPolyline
 90
       86
 70
   128
 43
0.0
 10
246.3935513096
 20
194.7404975598
 10
246.3996842845
 20
195.1201466417
 10
246.4180748321
 20
195.4921961865
 10
246.4486978331
 20
195.8561380195
 10
246.4915114603
 20
196.2114750397
 10
246.5464572354
 20
196.5577218996
 10
246.6134601091
 20
196.8944056677
 10
246.6924285634
 20
197.2210664743
 10
246.783254737
 20
197.5372581402
 10
246.8858145723
 20
197.8425487855
 10
246.9999679849
 20
198.1365214199
 10
247.1255590548
 20
198.4187745123
 10
247.2624162399
 20
198.6889225387
 10
247.4103526097
 20
198.9465965096
 10
247.5691661009
 20
199.1914444732
 10
247.7386397933
 20
199.4231319967
 10
247.9185422064
 20
199.6413426227
 10
248.1086276149
 20
199.8457783019
 10
248.3086363852
 20
200.0361597997
 10
248.5182953293
 20
200.2122270779
 10
248.7373180783
 20
200.3737396497
 10
248.9654054735
 20
200.5204769084
 10
249.2022459749
 20
200.6522384285
 10
249.4475160869
 20
200.7688442397
 10
249.7008808001
 20
200.8701350724
 10
249.9619940486
 20
200.9559725756
 10
250.2304991832
 20
201.0262395055
 10
250.5060294583
 20
201.080839886
 10
250.7882085325
 20
201.1196991395
 10
251.0766509833
 20
201.142764189
 10
251.3709628329
 20
201.1500035303
 10
251.6707420867
 20
201.1414072754
 10
251.9755792823
 20
201.1169871658
 10
252.2850580488
 20
201.0767765564
 10
252.5987556755
 20
201.02083037
 10
252.916243689
 20
200.9492250224
 10
253.237088439
 20
200.862058318
 10
253.5608516901
 20
200.7594493158
 10
253.8870912207
 20
200.6415381675
 10
254.2153614268
 20
200.5084859255
 10
254.5452139309
 20
200.3604743233
 10
254.8761981939
 20
200.1977055267
 10
255.2078621313
 20
200.0204018585
 10
255.5397527301
 20
199.8288054941
 10
255.8714166675
 20
199.6231781311
 10
256.2024009306
 20
199.4038006317
 10
256.5322534346
 20
199.1709726393
 10
256.8605236407
 20
198.9250121688
 10
257.1867631713
 20
198.6662551726
 10
257.5105264224
 20
198.3950550818
 10
257.8313711724
 20
198.1117823229
 10
258.148859186
 20
197.8168238126
 10
258.4625568126
 20
197.5105824286
 10
258.7720355791
 20
197.1934764599
 10
259.0768727748
 20
196.8659390351
 10
259.3766520286
 20
196.5284175308
 10
259.6709638781
 20
196.1813729609
 10
259.9594063289
 20
195.8252793466
 10
260.2415854031
 20
195.4606230687
 10
260.5171156782
 20
195.087902204
 10
260.7856208128
 20
194.7076258444
 10
261.0467340614
 20
194.3203134015
 10
261.3000987745
 20
193.9264938977
 10
261.5453688865
 20
193.5267052429
 10
261.7822093879
 20
193.1214935004
 10
262.0102967831
 20
192.7114121406
 10
262.2293195321
 20
192.2970212855
 10
262.4389784762
 20
191.8788869431
 10
262.6389872465
 20
191.4575802345
 10
262.8290726551
 20
191.033676614
 10
263.0089750681
 20
190.6077550831
 10
263.1784487605
 20
190.1803973993
 10
263.3372622517
 20
189.7521872818
 10
263.4851986215
 20
189.323709614
 10
263.6220558066
 20
188.895549645
 10
263.7476468765
 20
188.4682921898
 10
263.8618002891
 20
188.0425208307
 10
263.9643601244
 20
187.61881712
 10
264.055186298
 20
187.1977597862
 10
264.1341547523
 20
186.7799239429
 10
264.201157626
 20
186.3658803036
 10
264.2561034011
 20
185.9561944021
 10
264.2989170283
 20
185.5514258201
 10
264.3295400294
 20
185.1521274227
 10
264.3479305769
 20
184.7588446036
 10
264.3540635518
 20
184.3721145397
  0
SPLINE
  5
19D
330
1F
100
AcDbEntity
  8
0
  6
Continuous
 62
     7
370
    18
100
AcDbSpline
210
0.0
220
0.0
230
1.0
 70
     8
 71
     3
 72
    14
 73
    10
 74
     0
 42
0.000000001
 43
0.00000001
 40
0.0
 40
0.0
 40
0.0
 40
0.0
 40
0.062621765053178
 40
0.1251990132228131
 40
0.250181316323633
 40
0.499507439653553
 40
0.7494904487996545
 40
0.874732776247175
 40
0.9999999999999999
 40
0.9999999999999999
 40
0.9999999999999999
 40
0.9999999999999999
 10
264.4673926591408
 20
182.1302173948608
 30
0.0
 10
264.4732175853334
 20
182.1411116051259
 30
0.0
 10
264.4848632968651
 20
182.1628922811237
 30
0.0
 10
264.5133281397693
 20
182.2073209167787
 30
0.0
 10
264.5723184280031
 20
182.2839425204887
 30
0.0
 10
264.6709203695198
 20
182.3822547659821
 30
0.0
 10
264.7718826782515
 20
182.4609834150589
 30
0.0
 10
264.8517089503052
 20
182.5141010271521
 30
0.0
 10
264.8910221582265
 20
182.5373518321765
 30
0.0
 10
264.9106807157127
 20
182.548978390052
 30
0.0
  0
SPLINE
  5
19E
330
1F
100
AcDbEntity
  8
0
  6
Continuous
 62
     7
370
    18
100
AcDbSpline
210
0.0
220
0.0
230
1.0
 70
     8
 71
     3
 72
    12
 73
     8
 74
     0
 42
0.000000001
 43
0.00000001
 40
0.0
 40
0.0
 40
0.0
 40
0.0
 40
0.2621725736091116
 40
0.5000451414055183
 40
0.7500435138363565
 40
0.8623175480958339
 40
1.0
 40
1.0
 40
1.0
 40
1.0
 10
264.4173058678575
 20
181.994149330938
 30
0.0
 10
264.4205628311107
 20
182.0053899156159
 30
0.0
 10
264.4267748792593
 20
182.0268292281932
 30
0.0
 10
264.4378138850895
 20
182.0601527533419
 30
0.0
 10
264.4480273155544
 20
182.087645230466
 30
0.0
 10
264.4582525921575
 20
182.1113601099715
 30
0.0
 10
264.4641462700162
 20
182.1235196228754
 30
0.0
 10
264.4673926591408
 20
182.1302173948608
 30
0.0
  0
ARC
  5
19F
330
1F
100
AcDbEntity
  8
0
  6
Continuous
 62
     7
370
    18
100
AcDbCircle
 10
257.2430881331
 20
184.0189645656
 30
0.0
 40
7.45448031995149
100
AcDbArc
 50
342.4643264195
 51
344.2390770251
  0
LINE
  5
1A0
330
1F
100
AcDbEntity
  8
0
  6
Continuous
 62
     7
370
    18
100
AcDbLine
 10
265.1820057916
 20
182.2525727968
 30
0.0
 11
264.3511553237
 21
181.7729330311
 31
0.0
  0
ARC
  5
1A1
330
1F
100
AcDbEntity
  8
0
  6
Continuous
 62
     7
370
    18
100
AcDbCircle
 10
258.0665213226
 20
184.5008622863
 30
0.0
 40
7.462233235285265
100
AcDbArc
 50
342.464954456
 51
344.3201943983
  0
SPLINE
  5
1A2
330
1F
100
AcDbEntity
  8
0
  6
Continuous
 62
     7
370
    18
100
AcDbSpline
210
0.0
220
0.0
230
1.0
 70
     8
 71
     3
 72
    17
 73
    13
 74
     0
 42
0.000000001
 43
0.00000001
 40
0.0
 40
0.0
 40
0.0
 40
0.0
 40
0.0715329195103564
 40
0.1430591690150024
 40
0.2860138941746807
 40
0.4288985810183092
 40
0.5716632366539692
 40
0.6786548293666574
 40
0.7856023341411957
 40
0.892716275773306
 40
0.9463530387336601
 40
1.0
 40
1.0
 40
1.0
 40
1.0
 10
264.9106807157127
 20
182.548978390052
 30
0.0
 10
264.9248889652984
 20
182.5570182340543
 30
0.0
 10
264.9533041396378
 20
182.5730971723926
 30
0.0
 10
265.0091878730137
 20
182.601837491899
 30
0.0
 10
265.0769817616141
 20
182.6311370940885
 30
0.0
 10
265.1517930324114
 20
182.6511734599929
 30
0.0
 10
265.211496563006
 20
182.6533201947034
 30
0.0
 10
265.2512668110539
 20
182.6346787428088
 30
0.0
 10
265.2671144067325
 20
182.5962995196979
 30
0.0
 10
265.2658889804767
 20
182.5528725672713
 30
0.0
 10
265.2590692180465
 20
182.5144974999461
 30
0.0
 10
265.2537318658223
 20
182.4942403245512
 30
0.0
 10
265.2510629360279
 20
182.4841107740383
 30
0.0
  0
SPLINE
  5
1A3
330
1F
100
AcDbEntity
  8
0
  6
Continuous
 62
     7
370
    18
100
AcDbSpline
210
0.0
220
0.0
230
1.0
 70
     8
 71
     3
 72
    13
 73
     9
 74
     0
 42
0.000000001
 43
0.00000001
 40
0.0
 40
0.0
 40
0.0
 40
0.0
 40
0.1252820023252114
 40
0.2504825747503392
 40
0.4999523174719883
 40
0.7495086848678868
 40
0.8747120073346454
 40
1.0
 40
1.0
 40
1.0
 40
1.0
 10
265.115463017096
 20
183.9197088084077
 30
0.0
 10
265.1208546381062
 20
183.9327271698554
 30
0.0
 10
265.1316343757191
 20
183.9587554311694
 30
0.0
 10
265.1586541610601
 20
184.0104939519382
 30
0.0
 10
265.2005025763405
 20
184.0729791579232
 30
0.0
 10
265.2511655960865
 20
184.1240979171082
 30
0.0
 10
265.2930017540225
 20
184.1563168730479
 30
0.0
 10
265.314020798666
 20
184.169158761329
 30
0.0
 10
265.3245338733797
 20
184.1755818758547
 30
0.0
  0
SPLINE
  5
1A4
330
1F
100
AcDbEntity
  8
0
  6
Continuous
 62
     7
370
    18
100
AcDbSpline
210
0.0
220
0.0
230
1.0
 70
     8
 71
     3
 72
    10
 73
     6
 74
     0
 42
0.000000001
 43
0.00000001
 40
0.0
 40
0.0
 40
0.0
 40
0.0
 40
0.4216985172524047
 40
0.7547509293865436
 40
1.0
 40
1.0
 40
1.0
 40
1.0
 10
265.058484930189
 20
183.7373082370967
 30
0.0
 10
265.065745865391
 20
183.7626279210096
 30
0.0
 10
265.0787413998018
 20
183.8079447864555
 30
0.0
 10
265.0970765651436
 20
183.8687565510752
 30
0.0
 10
265.1099876273524
 20
183.9045354912319
 30
0.0
 10
265.115463017096
 20
183.9197088084077
 30
0.0
  0
SPLINE
  5
1A5
330
1F
100
AcDbEntity
  8
0
  6
Continuous
 62
     7
370
    18
100
AcDbSpline
210
0.0
220
0.0
230
1.0
 70
     8
 71
     3
 72
    11
 73
     7
 74
     0
 42
0.000000001
 43
0.00000001
 40
0.0
 40
0.0
 40
0.0
 40
0.0
 40
0.1248334270227815
 40
0.2498710137986004
 40
0.4998937768126787
 40
1.0
 40
1.0
 40
1.0
 40
1.0
 10
264.9882179984079
 20
183.5625658386433
 30
0.0
 10
264.9928438637322
 20
183.5697107015847
 30
0.0
 10
265.0021031597866
 20
183.5840121125865
 30
0.0
 10
265.0164362326611
 20
183.6136586199853
 30
0.0
 10
265.0371530392828
 20
183.6651616121591
 30
0.0
 10
265.0499519666999
 20
183.7084488865982
 30
0.0
 10
265.058484930189
 20
183.7373082370967
 30
0.0
  0
SPLINE
  5
1A6
330
1F
100
AcDbEntity
  8
0
  6
Continuous
 62
     7
370
    18
100
AcDbSpline
210
0.0
220
0.0
230
1.0
 70
     8
 71
     3
 72
    11
 73
     7
 74
     0
 42
0.000000001
 43
0.00000001
 40
0.0
 40
0.0
 40
0.0
 40
0.0
 40
0.2502319655759004
 40
0.5002060409341166
 40
0.7499796245999379
 40
1.0
 40
1.0
 40
1.0
 40
1.0
 10
264.900602688651
 20
183.4847052233814
 30
0.0
 10
264.9081880008604
 20
183.4893345053095
 30
0.0
 10
264.9233508078215
 20
183.4985882982064
 30
0.0
 10
264.9461880045039
 20
183.5160089042776
 30
0.0
 10
264.9685548376352
 20
183.5372298692425
 30
0.0
 10
264.9816614541916
 20
183.5541177358403
 30
0.0
 10
264.9882179984079
 20
183.5625658386433
 30
0.0
  0
SPLINE
  5
1A7
330
1F
100
AcDbEntity
  8
0
  6
Continuous
 62
     7
370
    18
100
AcDbSpline
210
0.0
220
0.0
230
1.0
 70
     8
 71
     3
 72
    14
 73
    10
 74
     0
 42
0.000000001
 43
0.00000001
 40
0.0
 40
0.0
 40
0.0
 40
0.0
 40
0.1431729271289769
 40
0.2505812091447888
 40
0.4995600717187613
 40
0.6246572079558843
 40
0.7496659877546565
 40
0.8747936702509946
 40
1.0
 40
1.0
 40
1.0
 40
1.0
 10
264.7862068382825
 20
183.5785690993656
 30
0.0
 10
264.7853680676535
 20
183.566721465727
 30
0.0
 10
264.7839000515792
 20
183.5459857412979
 30
0.0
 10
264.7864464229413
 20
183.5086507431296
 30
0.0
 10
264.7976231374487
 20
183.4792358920141
 30
0.0
 10
264.8218169237562
 20
183.4653324830317
 30
0.0
 10
264.8447536356651
 20
183.4629563708972
 30
0.0
 10
264.8716683526497
 20
183.4694628608232
 30
0.0
 10
264.8909558901334
 20
183.4796233718219
 30
0.0
 10
264.900602688651
 20
183.4847052233814
 30
0.0
  0
SPLINE
  5
1A8
330
1F
100
AcDbEntity
  8
0
  6
Continuous
 62
     7
370
    18
100
AcDbSpline
210
0.0
220
0.0
230
1.0
 70
     8
 71
     3
 72
    14
 73
    10
 74
     0
 42
0.000000001
 43
0.00000001
 40
0.0
 40
0.0
 40
0.0
 40
0.0
 40
0.1253712520012899
 40
0.2506988590916458
 40
0.3759279510424653
 40
0.5010201023946986
 40
0.7493967468751787
 40
0.8746462699755058
 40
0.9999999999999999
 40
0.9999999999999999
 40
0.9999999999999999
 40
0.9999999999999999
 10
264.964175830826
 20
183.853564927008
 30
0.0
 10
264.9532360634346
 20
183.8460217635453
 30
0.0
 10
264.9313603370624
 20
183.8309380625863
 30
0.0
 10
264.8988445885371
 20
183.8036352515207
 30
0.0
 10
264.8677724573221
 20
183.771426443083
 30
0.0
 10
264.8301805318127
 20
183.7225642183334
 30
0.0
 10
264.8041273422555
 20
183.6664234048449
 30
0.0
 10
264.7907925826784
 20
183.6148024448511
 30
0.0
 10
264.7877358434366
 20
183.5906502288869
 30
0.0
 10
264.7862068382825
 20
183.5785690993656
 30
0.0
  0
SPLINE
  5
1A9
330
1F
100
AcDbEntity
  8
0
  6
Continuous
 62
     7
370
    18
100
AcDbSpline
210
0.0
220
0.0
230
1.0
 70
     8
 71
     3
 72
     8
 73
     4
 74
     0
 42
0.000000001
 43
0.00000001
 40
0.0
 40
0.0
 40
0.0
 40
0.0
 40
1.0
 40
1.0
 40
1.0
 40
1.0
 10
264.9605540787161
 20
183.9425344547186
 30
0.0
 10
264.9618991639044
 20
183.9127853684375
 30
0.0
 10
264.9631063778097
 20
183.8831283705195
 30
0.0
 10
264.964175830826
 20
183.853564927008
 30
0.0
  0
SPLINE
  5
1AA
330
1F
100
AcDbEntity
  8
0
  6
Continuous
 62
     7
370
    18
100
AcDbSpline
210
0.0
220
0.0
230
1.0
 70
     8
 71
     3
 72
    15
 73
    11
 74
     0
 42
0.000000001
 43
0.00000001
 40
0.0
 40
0.0
 40
0.0
 40
0.0
 40
0.1250893571828481
 40
0.2501222152893903
 40
0.376467204191271
 40
0.5000142967084714
 40
0.6228096261988542
 40
0.7498910690459097
 40
0.8749033738458989
 40
1.0
 40
1.0
 40
1.0
 40
1.0
 10
264.6887894959991
 20
183.5193923984392
 30
0.0
 10
264.6911564306396
 20
183.5379151876557
 30
0.0
 10
264.695889230848
 20
183.5749523999056
 30
0.0
 10
264.7126132340358
 20
183.6355164051981
 30
0.0
 10
264.737587533298
 20
183.6977810442202
 30
0.0
 10
264.77175496771
 20
183.7591227494237
 30
0.0
 10
264.8133363618853
 20
183.8166142522113
 30
0.0
 10
264.8603616251254
 20
183.8671188429229
 30
0.0
 10
264.9102704819798
 20
183.9101839470158
 30
0.0
 10
264.9437891129969
 20
183.9317485287339
 30
0.0
 10
264.9605540787161
 20
183.9425344547186
 30
0.0
  0
SPLINE
  5
1AB
330
1F
100
AcDbEntity
  8
0
  6
Continuous
 62
     7
370
    18
100
AcDbSpline
210
0.0
220
0.0
230
1.0
 70
     8
 71
     3
 72
    14
 73
    10
 74
     0
 42
0.000000001
 43
0.00000001
 40
0.0
 40
0.0
 40
0.0
 40
0.0
 40
0.062781644074672
 40
0.1255460740341119
 40
0.2508730022685506
 40
0.4999473615299825
 40
0.7490958698152651
 40
0.8745200795929017
 40
1.0
 40
1.0
 40
1.0
 40
1.0
 10
264.8874920772265
 20
183.3910823596521
 30
0.0
 10
264.8797320393173
 20
183.3867777460982
 30
0.0
 10
264.8642140912258
 20
183.3781696992735
 30
0.0
 10
264.8338230541576
 20
183.3644594204322
 30
0.0
 10
264.783150599837
 20
183.3495031061847
 30
0.0
 10
264.723044274802
 20
183.359968403048
 30
0.0
 10
264.6919021419848
 20
183.4116339611379
 30
0.0
 10
264.6855115583522
 20
183.4697255019116
 30
0.0
 10
264.6876966883884
 20
183.5028343157751
 30
0.0
 10
264.6887894959991
 20
183.5193923984392
 30
0.0
  0
SPLINE
  5
1AC
330
1F
100
AcDbEntity
  8
0
  6
Continuous
 62
     7
370
    18
100
AcDbSpline
210
0.0
220
0.0
230
1.0
 70
     8
 71
     3
 72
    14
 73
    10
 74
     0
 42
0.000000001
 43
0.00000001
 40
0.0
 40
0.0
 40
0.0
 40
0.0
 40
0.2505522404908068
 40
0.3758131695832264
 40
0.5008996318138594
 40
0.7495789128995981
 40
0.8746978562836569
 40
0.9373356724521816
 40
1.0
 40
1.0
 40
1.0
 40
1.0
 10
265.1428477117894
 20
183.7640782885202
 30
0.0
 10
265.1314745234517
 20
183.7289593065008
 30
0.0
 10
265.1144154305094
 20
183.6762829627594
 30
0.0
 10
265.0840790210058
 20
183.6048477582796
 30
0.0
 10
265.0437904881123
 20
183.5341987091743
 30
0.0
 10
264.9900415996868
 20
183.4682340372048
 30
0.0
 10
264.9389377814789
 20
183.4251951112066
 30
0.0
 10
264.9094596725653
 20
183.4042200923439
 30
0.0
 10
264.8948156417989
 20
183.395462221545
 30
0.0
 10
264.8874920772265
 20
183.3910823596521
 30
0.0
  0
SPLINE
  5
1AD
330
1F
100
AcDbEntity
  8
0
  6
Continuous
 62
     7
370
    18
100
AcDbSpline
210
0.0
220
0.0
230
1.0
 70
     8
 71
     3
 72
    16
 73
    12
 74
     0
 42
0.000000001
 43
0.00000001
 40
0.0
 40
0.0
 40
0.0
 40
0.0
 40
0.0625621838665396
 40
0.1250815268112618
 40
0.2497572749142475
 40
0.3743955107857907
 40
0.4364358096824901
 40
0.4994610535968395
 40
0.6159860627638779
 40
0.78271186990231
 40
1.0
 40
1.0
 40
1.0
 40
1.0
 10
265.3201010728523
 20
184.081704245686
 30
0.0
 10
265.3141434324257
 20
184.0780723002645
 30
0.0
 10
265.3022322312063
 20
184.070810896481
 30
0.0
 10
265.2784831660555
 20
184.0525323948252
 30
0.0
 10
265.2497121185034
 20
184.0235849666859
 30
0.0
 10
265.2257528435489
 20
183.9884543348405
 30
0.0
 10
265.2100825023577
 20
183.9593099703984
 30
0.0
 10
265.1973698214073
 20
183.9308190673887
 30
0.0
 10
265.183043925283
 20
183.890428570888
 30
0.0
 10
265.1640462170246
 20
183.8326718319206
 30
0.0
 10
265.1505080605785
 20
183.7888654355998
 30
0.0
 10
265.1428477117894
 20
183.7640782885202
 30
0.0
  0
SPLINE
  5
1AE
330
1F
100
AcDbEntity
  8
0
  6
Continuous
 62
     7
370
    18
100
AcDbSpline
210
0.0
220
0.0
230
1.0
 70
     8
 71
     3
 72
    14
 73
    10
 74
     0
 42
0.000000001
 43
0.00000001
 40
0.0
 40
0.0
 40
0.0
 40
0.0
 40
0.1253140405832474
 40
0.2505678731081835
 40
0.499548690748547
 40
0.6246696500771337
 40
0.7496932908321294
 40
0.8748259802746114
 40
1.0
 40
1.0
 40
1.0
 40
1.0
 10
265.446487152123
 20
183.9799986403231
 30
0.0
 10
265.4472292646156
 20
183.991084902748
 30
0.0
 10
265.4487131330473
 20
184.013252101121
 30
0.0
 10
265.44564303368
 20
184.0536184525315
 30
0.0
 10
265.4315248045726
 20
184.0857771287603
 30
0.0
 10
265.4049808557048
 20
184.1013897023473
 30
0.0
 10
265.3801011979284
 20
184.1046676732651
 30
0.0
 10
265.351027026106
 20
184.0980018978834
 30
0.0
 10
265.3304108586408
 20
184.0871373943956
 30
0.0
 10
265.3201010728523
 20
184.081704245686
 30
0.0
  0
SPLINE
  5
1AF
330
1F
100
AcDbEntity
  8
0
  6
Continuous
 62
     7
370
    18
100
AcDbSpline
210
0.0
220
0.0
230
1.0
 70
     8
 71
     3
 72
    14
 73
    10
 74
     0
 42
0.000000001
 43
0.00000001
 40
0.0
 40
0.0
 40
0.0
 40
0.0
 40
0.1253044954974278
 40
0.2505251983557171
 40
0.375590610853489
 40
0.5006485959324508
 40
0.7496144505283597
 40
0.8747677910779956
 40
0.9999999999999999
 40
0.9999999999999999
 40
0.9999999999999999
 40
0.9999999999999999
 10
265.2293714615801
 20
183.6528852821592
 30
0.0
 10
265.2424367740762
 20
183.6619318922727
 30
0.0
 10
265.2685586621353
 20
183.6800190629213
 30
0.0
 10
265.3075017898973
 20
183.7123574361418
 30
0.0
 10
265.3450766828525
 20
183.750502797079
 30
0.0
 10
265.3891321428865
 20
183.8095420982781
 30
0.0
 10
265.4216849385999
 20
183.8745986912181
 30
0.0
 10
265.4407327156214
 20
183.9367342109107
 30
0.0
 10
265.4445686038699
 20
183.9655741357783
 30
0.0
 10
265.446487152123
 20
183.9799986403231
 30
0.0
  0
SPLINE
  5
1B0
330
1F
100
AcDbEntity
  8
0
  6
Continuous
 62
     7
370
    18
100
AcDbSpline
210
0.0
220
0.0
230
1.0
 70
     8
 71
     3
 72
     8
 73
     4
 74
     0
 42
0.000000001
 43
0.00000001
 40
0.0
 40
0.0
 40
0.0
 40
0.0
 40
1.0
 40
1.0
 40
1.0
 40
1.0
 10
265.2288686006258
 20
183.5668092559728
 30
0.0
 10
265.2291732971429
 20
183.595400986205
 30
0.0
 10
265.2293409754317
 20
183.6240934687619
 30
0.0
 10
265.2293714615801
 20
183.6528852821592
 30
0.0
  0
SPLINE
  5
1B1
330
1F
100
AcDbEntity
  8
0
  6
Continuous
 62
     7
370
    18
100
AcDbSpline
210
0.0
220
0.0
230
1.0
 70
     8
 71
     3
 72
    16
 73
    12
 74
     0
 42
0.000000001
 43
0.00000001
 40
0.0
 40
0.0
 40
0.0
 40
0.0
 40
0.0625899892638288
 40
0.1251637493900623
 40
0.2501606474332692
 40
0.3753317655501385
 40
0.5000032047661385
 40
0.6236777460336608
 40
0.7498622692268102
 40
0.8748964809560585
 40
1.0
 40
1.0
 40
1.0
 40
1.0
 10
265.5428245967756
 20
184.027988280907
 30
0.0
 10
265.5416566748895
 20
184.0178049207811
 30
0.0
 10
265.539321133951
 20
183.9974408410019
 30
0.0
 10
265.5311986458613
 20
183.955125656547
 30
0.0
 10
265.5149876601185
 20
183.8998066930326
 30
0.0
 10
265.4844218815534
 20
183.8314403594832
 30
0.0
 10
265.4434877979591
 20
183.7647944447516
 30
0.0
 10
265.3948849393041
 20
183.7026044728566
 30
0.0
 10
265.3410492347289
 20
183.6482983539417
 30
0.0
 10
265.2848437322027
 20
183.6021479009716
 30
0.0
 10
265.2475304240331
 20
183.5785909799963
 30
0.0
 10
265.2288686006258
 20
183.5668092559728
 30
0.0
  0
SPLINE
  5
1B2
330
1F
100
AcDbEntity
  8
0
  6
Continuous
 62
     7
370
    18
100
AcDbSpline
210
0.0
220
0.0
230
1.0
 70
     8
 71
     3
 72
    15
 73
    11
 74
     0
 42
0.000000001
 43
0.00000001
 40
0.0
 40
0.0
 40
0.0
 40
0.0
 40
0.0715781019181689
 40
0.1431159026568192
 40
0.2859473730306049
 40
0.4995229978669795
 40
0.622962975854055
 40
0.7496511656582725
 40
0.8747847722484485
 40
1.0
 40
1.0
 40
1.0
 40
1.0
 10
265.3245338733797
 20
184.1755818758547
 30
0.0
 10
265.3340609739694
 20
184.1807664213814
 30
0.0
 10
265.3531098110309
 20
184.1911325933396
 30
0.0
 10
265.3904357160612
 20
184.2062771519172
 30
0.0
 10
265.4431044194905
 20
184.2160536618368
 30
0.0
 10
265.4931561700736
 20
184.2040937215847
 30
0.0
 10
265.5251694082014
 20
184.1693042142175
 30
0.0
 10
265.5404666100684
 20
184.1295984887662
 30
0.0
 10
265.5464257358666
 20
184.0816848217589
 30
0.0
 10
265.5440252373506
 20
184.0458910178056
 30
0.0
 10
265.5428245967756
 20
184.027988280907
 30
0.0
  0
SPLINE
  5
1B3
330
1F
100
AcDbEntity
  8
0
  6
Continuous
 62
     7
370
    18
100
AcDbSpline
210
0.0
220
0.0
230
1.0
 70
     8
 71
     3
 72
    17
 73
    13
 74
     0
 42
0.000000001
 43
0.00000001
 40
0.0
 40
0.0
 40
0.0
 40
0.0
 40
0.0625211915995988
 40
0.1250138885899266
 40
0.186970290555397
 40
0.2499888277907402
 40
0.3721030791160732
 40
0.4996449774850257
 40
0.6142204091456341
 40
0.7497638844747861
 40
0.8748724527733966
 40
1.0
 40
1.0
 40
1.0
 40
1.0
 10
265.588170122034
 20
185.4056193391832
 30
0.0
 10
265.5880116103921
 20
185.3925879855579
 30
0.0
 10
265.5876946593514
 20
185.3665312174666
 30
0.0
 10
265.5801725764441
 20
185.3247050327465
 30
0.0
 10
265.5674471896424
 20
185.2820764974846
 30
0.0
 10
265.5433408227284
 20
185.2265608742499
 30
0.0
 10
265.5033981701673
 20
185.1597553443019
 30
0.0
 10
265.4471744506728
 20
185.0923321503845
 30
0.0
 10
265.3840633813398
 20
185.0342677359861
 30
0.0
 10
265.3196478239711
 20
184.9845663961469
 30
0.0
 10
265.252747928233
 20
184.9393419389131
 30
0.0
 10
265.2092167460852
 20
184.9136181534121
 30
0.0
 10
265.1874495042201
 20
184.9007552851632
 30
0.0
  0
SPLINE
  5
1B4
330
1F
100
AcDbEntity
  8
0
  6
Continuous
 62
     7
370
    18
100
AcDbSpline
210
0.0
220
0.0
230
1.0
 70
     8
 71
     3
 72
    16
 73
    12
 74
     0
 42
0.000000001
 43
0.00000001
 40
0.0
 40
0.0
 40
0.0
 40
0.0
 40
0.1252031222424715
 40
0.2503472856701205
 40
0.4999130242481815
 40
0.5625182424894685
 40
0.6251115449881387
 40
0.7499879517180291
 40
0.874832868852415
 40
0.9373930847324125
 40
1.0
 40
1.0
 40
1.0
 40
1.0
 10
265.2974399758995
 20
185.4897642779329
 30
0.0
 10
265.313775610275
 20
185.4986252513051
 30
0.0
 10
265.3464391864892
 20
185.51634302537
 30
0.0
 10
265.4112065184213
 20
185.539064884702
 30
0.0
 10
265.4659703762283
 20
185.5443371206872
 30
0.0
 10
265.5079868667058
 20
185.5360208995115
 30
0.0
 10
265.5337572023089
 20
185.5253285207944
 30
0.0
 10
265.5610149812283
 20
185.5025732186105
 30
0.0
 10
265.5787768863547
 20
185.467513841531
 30
0.0
 10
265.5864392309156
 20
185.4337249758841
 30
0.0
 10
265.5875930148371
 20
185.4149902147066
 30
0.0
 10
265.588170122034
 20
185.4056193391832
 30
0.0
  0
SPLINE
  5
1B5
330
1F
100
AcDbEntity
  8
0
  6
Continuous
 62
     7
370
    18
100
AcDbSpline
210
0.0
220
0.0
230
1.0
 70
     8
 71
     3
 72
    15
 73
    11
 74
     0
 42
0.000000001
 43
0.00000001
 40
0.0
 40
0.0
 40
0.0
 40
0.0
 40
0.0715582022809979
 40
0.1430804104841937
 40
0.2857044125723678
 40
0.3929680133868235
 40
0.5002444008665369
 40
0.7495273451038501
 40
0.8747283648315698
 40
1.0
 40
1.0
 40
1.0
 40
1.0
 10
265.0376425518021
 20
185.0964328778537
 30
0.0
 10
265.0377339649961
 20
185.107098730414
 30
0.0
 10
265.0379167454027
 20
185.1284250705657
 30
0.0
 10
265.0453892414939
 20
185.1741659842007
 30
0.0
 10
265.0628719948858
 20
185.2274353614562
 30
0.0
 10
265.091407014579
 20
185.2836863215047
 30
0.0
 10
265.1343618703593
 20
185.3529300406601
 30
0.0
 10
265.1899501762541
 20
185.4134459967544
 30
0.0
 10
265.2507474547972
 20
185.4613021391193
 30
0.0
 10
265.2818728771483
 20
185.4802751153192
 30
0.0
 10
265.2974399758995
 20
185.4897642779329
 30
0.0
  0
SPLINE
  5
1B6
330
1F
100
AcDbEntity
  8
0
  6
Continuous
 62
     7
370
    18
100
AcDbSpline
210
0.0
220
0.0
230
1.0
 70
     8
 71
     3
 72
    13
 73
     9
 74
     0
 42
0.000000001
 43
0.00000001
 40
0.0
 40
0.0
 40
0.0
 40
0.0
 40
0.1252092510313404
 40
0.2503524483424828
 40
0.5000891915473351
 40
0.7497280724195845
 40
0.8748266177117975
 40
1.0
 40
1.0
 40
1.0
 40
1.0
 10
265.1480198023186
 20
184.9649904134765
 30
0.0
 10
265.1404936755905
 20
184.9657053575724
 30
0.0
 10
265.1254453925171
 20
184.9671348685977
 30
0.0
 10
265.0979842977971
 20
184.9762665710175
 30
0.0
 10
265.068127350337
 20
184.9968630756562
 30
0.0
 10
265.0485888139297
 20
185.0321346936828
 30
0.0
 10
265.0395004472577
 20
185.0667181358895
 30
0.0
 10
265.0382619737312
 20
185.0865259895328
 30
0.0
 10
265.0376425518021
 20
185.0964328778537
 30
0.0
  0
SPLINE
  5
1B7
330
1F
100
AcDbEntity
  8
0
  6
Continuous
 62
     7
370
    18
100
AcDbSpline
210
0.0
220
0.0
230
1.0
 70
     8
 71
     3
 72
    12
 73
     8
 74
     0
 42
0.000000001
 43
0.00000001
 40
0.0
 40
0.0
 40
0.0
 40
0.0
 40
0.1249974846920191
 40
0.2500017689027815
 40
0.4999495909004762
 40
0.7499495617573748
 40
1.0
 40
1.0
 40
1.0
 40
1.0
 10
264.9157885118044
 20
184.8759776403788
 30
0.0
 10
264.9248763198602
 20
184.8765336226869
 30
0.0
 10
264.9430524303236
 20
184.877645617547
 30
0.0
 10
264.9811484673195
 20
184.8866581959998
 30
0.0
 10
265.0298393040816
 20
184.9044308558811
 30
0.0
 10
265.0888509964621
 20
184.9318779785693
 30
0.0
 10
265.1282955400582
 20
184.9539521925637
 30
0.0
 10
265.1480198023186
 20
184.9649904134765
 30
0.0
  0
SPLINE
  5
1B8
330
1F
100
AcDbEntity
  8
0
  6
Continuous
 62
     7
370
    18
100
AcDbSpline
210
0.0
220
0.0
230
1.0
 70
     8
 71
     3
 72
    12
 73
     8
 74
     0
 42
0.000000001
 43
0.00000001
 40
0.0
 40
0.0
 40
0.0
 40
0.0
 40
0.1251941385829548
 40
0.2503094412241398
 40
0.4995712201474488
 40
0.749583687503215
 40
0.9999999999999999
 40
0.9999999999999999
 40
0.9999999999999999
 40
0.9999999999999999
 10
264.8221481990001
 20
184.9599956880971
 30
0.0
 10
264.8226196632972
 20
184.9524936540894
 30
0.0
 10
264.8235622950058
 20
184.9374943101762
 30
0.0
 10
264.8318629717562
 20
184.9124762297544
 30
0.0
 10
264.8502834473013
 20
184.8900368276917
 30
0.0
 10
264.8807675037834
 20
184.8772139889662
 30
0.0
 10
264.9041085637327
 20
184.876389978233
 30
0.0
 10
264.9157885118044
 20
184.8759776403788
 30
0.0
  0
SPLINE
  5
1B9
330
1F
100
AcDbEntity
  8
0
  6
Continuous
 62
     7
370
    18
100
AcDbSpline
210
0.0
220
0.0
230
1.0
 70
     8
 71
     3
 72
    12
 73
     8
 74
     0
 42
0.000000001
 43
0.00000001
 40
0.0
 40
0.0
 40
0.0
 40
0.0
 40
0.2856435239837796
 40
0.499914117610529
 40
0.699892941741287
 40
0.8390544764912998
 40
1.0
 40
1.0
 40
1.0
 40
1.0
 10
264.8586513193951
 20
185.0768952386994
 30
0.0
 10
264.8524738065786
 20
185.0660750036092
 30
0.0
 10
264.8416623384045
 20
185.0471381546235
 30
0.0
 10
264.8305237722954
 20
185.0188812009656
 30
0.0
 10
264.8250283199708
 20
184.996567436616
 30
0.0
 10
264.8225324422334
 20
184.9770797744822
 30
0.0
 10
264.8222823317016
 20
184.9659594487085
 30
0.0
 10
264.8221481990001
 20
184.9599956880971
 30
0.0
  0
SPLINE
  5
1BA
330
1F
100
AcDbEntity
  8
0
  6
Continuous
 62
     7
370
    18
100
AcDbSpline
210
0.0
220
0.0
230
1.0
 70
     8
 71
     3
 72
    11
 73
     7
 74
     0
 42
0.000000001
 43
0.00000001
 40
0.0
 40
0.0
 40
0.0
 40
0.0
 40
0.2501447109903178
 40
0.5002095184568331
 40
0.7501686600346137
 40
1.0
 40
1.0
 40
1.0
 40
1.0
 10
264.9474113157428
 20
185.1702592232724
 30
0.0
 10
264.9394831256827
 20
185.1637508849672
 30
0.0
 10
264.9236292780576
 20
185.1507362873102
 30
0.0
 10
264.9005249548549
 20
185.1289594745382
 30
0.0
 10
264.8778623328948
 20
185.1053869697974
 30
0.0
 10
264.8650538988118
 20
185.0863908632315
 30
0.0
 10
264.8586513193951
 20
185.0768952386994
 30
0.0
  0
SPLINE
  5
1BB
330
1F
100
AcDbEntity
  8
0
  6
Continuous
 62
     7
370
    18
100
AcDbSpline
210
0.0
220
0.0
230
1.0
 70
     8
 71
     3
 72
     8
 73
     4
 74
     0
 42
0.000000001
 43
0.00000001
 40
0.0
 40
0.0
 40
0.0
 40
0.0
 40
1.0
 40
1.0
 40
1.0
 40
1.0
 10
264.9324938870303
 20
185.2659799205006
 30
0.0
 10
264.9376044882897
 20
185.2340011744097
 30
0.0
 10
264.9425769857131
 20
185.2020937519968
 30
0.0
 10
264.9474113157428
 20
185.1702592232724
 30
0.0
  0
SPLINE
  5
1BC
330
1F
100
AcDbEntity
  8
0
  6
Continuous
 62
     7
370
    18
100
AcDbSpline
210
0.0
220
0.0
230
1.0
 70
     8
 71
     3
 72
    15
 73
    11
 74
     0
 42
0.000000001
 43
0.00000001
 40
0.0
 40
0.0
 40
0.0
 40
0.0
 40
0.1250047008105173
 40
0.2499520844378325
 40
0.3748145713207937
 40
0.4997738762010722
 40
0.6247472271701761
 40
0.7497712925343676
 40
0.8748728558436909
 40
1.0
 40
1.0
 40
1.0
 40
1.0
 10
264.7354992617766
 20
184.9226113511293
 30
0.0
 10
264.7356901037071
 20
184.9381580891993
 30
0.0
 10
264.7360717000631
 20
184.9692444368455
 30
0.0
 10
264.7468149093895
 20
185.0201387508923
 30
0.0
 10
264.7655517243772
 20
185.0711123521259
 30
0.0
 10
264.7910892371286
 20
185.1201322830204
 30
0.0
 10
264.822532922823
 20
185.1644228895583
 30
0.0
 10
264.8572688199693
 20
185.2037083496661
 30
0.0
 10
264.8942988848883
 20
185.2375639952636
 30
0.0
 10
264.9197613519748
 20
185.2565072998977
 30
0.0
 10
264.9324938870303
 20
185.2659799205006
 30
0.0
  0
SPLINE
  5
1BD
330
1F
100
AcDbEntity
  8
0
  6
Continuous
 62
     7
370
    18
100
AcDbSpline
210
0.0
220
0.0
230
1.0
 70
     8
 71
     3
 72
    17
 73
    13
 74
     0
 42
0.000000001
 43
0.00000001
 40
0.0
 40
0.0
 40
0.0
 40
0.0
 40
0.125154874890325
 40
0.2503005375714346
 40
0.5000913715744365
 40
0.6249549639934059
 40
0.6879899747282653
 40
0.7500362170903233
 40
0.8131477523789239
 40
0.8749945261802798
 40
0.9374699577083816
 40
1.0
 40
1.0
 40
1.0
 40
1.0
 10
265.1874495042201
 20
184.9007552851632
 30
0.0
 10
265.1638410534443
 20
184.8874131743695
 30
0.0
 10
265.1166258896275
 20
184.8607299348479
 30
0.0
 10
265.0226143327646
 20
184.8148830870756
 30
0.0
 10
264.9287766578632
 20
184.7796787807248
 30
0.0
 10
264.8525758154983
 20
184.775836173265
 30
0.0
 10
264.814161846396
 20
184.7864639904666
 30
0.0
 10
264.7879376890575
 20
184.7999864510194
 30
0.0
 10
264.7656678010558
 20
184.8200600775226
 30
0.0
 10
264.7490282407978
 20
184.8479000582331
 30
0.0
 10
264.7382403715233
 20
184.8820737542597
 30
0.0
 10
264.736413231098
 20
184.9090948839597
 30
0.0
 10
264.7354992617766
 20
184.9226113511293
 30
0.0
  0
SPLINE
  5
1BE
330
1F
100
AcDbEntity
  8
0
  6
Continuous
 62
     7
370
    18
100
AcDbSpline
210
0.0
220
0.0
230
1.0
 70
     8
 71
     3
 72
    12
 73
     8
 74
     0
 42
0.000000001
 43
0.00000001
 40
0.0
 40
0.0
 40
0.0
 40
0.0
 40
0.1249944231638733
 40
0.2499890121454591
 40
0.4998659696244138
 40
0.7499135593620969
 40
1.0
 40
1.0
 40
1.0
 40
1.0
 10
264.7070286317107
 20
186.4085825303277
 30
0.0
 10
264.718499953261
 20
186.4248454099115
 30
0.0
 10
264.7414426115795
 20
186.4573711906534
 30
0.0
 10
264.7931667350027
 20
186.51358850813
 30
0.0
 10
264.8618631342142
 20
186.5740907548474
 30
0.0
 10
264.9473424382302
 20
186.6358926215312
 30
0.0
 10
265.0055058357512
 20
186.6705740072613
 30
0.0
 10
265.0345897936065
 20
186.6879160471684
 30
0.0
  0
SPLINE
  5
1BF
330
1F
100
AcDbEntity
  8
0
  6
Continuous
 62
     7
370
    18
100
AcDbSpline
210
0.0
220
0.0
230
1.0
 70
     8
 71
     3
 72
    13
 73
     9
 74
     0
 42
0.000000001
 43
0.00000001
 40
0.0
 40
0.0
 40
0.0
 40
0.0
 40
0.1251997679052638
 40
0.250337287880838
 40
0.4998911747935178
 40
0.7496238029529989
 40
0.8747841606148096
 40
1.0
 40
1.0
 40
1.0
 40
1.0
 10
264.6430447922024
 20
186.169846040724
 30
0.0
 10
264.6421358473426
 20
186.1794283863969
 30
0.0
 10
264.6403184095405
 20
186.1985883135073
 30
0.0
 10
264.6415432721973
 20
186.2391066627378
 30
0.0
 10
264.6502615653133
 20
186.2919058186172
 30
0.0
 10
264.6701095440709
 20
186.3431961785809
 30
0.0
 10
264.6900015347575
 20
186.3815672183171
 30
0.0
 10
264.7013520943231
 20
186.3995760961078
 30
0.0
 10
264.7070286317107
 20
186.4085825303277
 30
0.0
  0
SPLINE
  5
1C0
330
1F
100
AcDbEntity
  8
0
  6
Continuous
 62
     7
370
    18
100
AcDbSpline
210
0.0
220
0.0
230
1.0
 70
     8
 71
     3
 72
    16
 73
    12
 74
     0
 42
0.000000001
 43
0.00000001
 40
0.0
 40
0.0
 40
0.0
 40
0.0
 40
0.1251696058899078
 40
0.250330580386352
 40
0.5002344284266717
 40
0.6344692268563528
 40
0.7499992257118557
 40
0.8127385779163672
 40
0.8749722161782603
 40
0.9374591980871805
 40
1.0
 40
1.0
 40
1.0
 40
1.0
 10
265.0993637589806
 20
186.1452122941874
 30
0.0
 10
265.0770161903754
 20
186.1326259244607
 30
0.0
 10
265.0323225941992
 20
186.107454052933
 30
0.0
 10
264.9425898110006
 20
186.0648519902485
 30
0.0
 10
264.8504860986178
 20
186.0321879328102
 30
0.0
 10
264.7635101597201
 20
186.0269000413569
 30
0.0
 10
264.7136477435358
 20
186.0414686797247
 30
0.0
 10
264.6820822508847
 20
186.0669649912379
 30
0.0
 10
264.6629130264954
 20
186.0950714618071
 30
0.0
 10
264.6493101287732
 20
186.1295778079697
 30
0.0
 10
264.6451338369742
 20
186.1564194450166
 30
0.0
 10
264.6430447922024
 20
186.169846040724
 30
0.0
  0
SPLINE
  5
1C1
330
1F
100
AcDbEntity
  8
0
  6
Continuous
 62
     7
370
    18
100
AcDbSpline
210
0.0
220
0.0
230
1.0
 70
     8
 71
     3
 72
    16
 73
    12
 74
     0
 42
0.000000001
 43
0.00000001
 40
0.0
 40
0.0
 40
0.0
 40
0.0
 40
0.0625504672670118
 40
0.1250450729890681
 40
0.2495402333508462
 40
0.3495277477999283
 40
0.4992738744144571
 40
0.6244010449097026
 40
0.7495800244049299
 40
0.8747855038494102
 40
1.0
 40
1.0
 40
1.0
 40
1.0
 10
265.4956239179097
 20
186.6607029181989
 30
0.0
 10
265.4967217896216
 20
186.6467418593144
 30
0.0
 10
265.4989165525761
 20
186.618832209659
 30
0.0
 10
265.4920191065836
 20
186.5588678726425
 30
0.0
 10
265.4685528227265
 20
186.4891467967116
 30
0.0
 10
265.4225183436426
 20
186.4072133048871
 30
0.0
 10
265.3645625118656
 20
186.3376393129492
 30
0.0
 10
265.2971568154404
 20
186.2780325098376
 30
0.0
 10
265.2321444256305
 20
186.22855229081
 30
0.0
 10
265.1660235357078
 20
186.1847308423635
 30
0.0
 10
265.121584217922
 20
186.1583854597797
 30
0.0
 10
265.0993637589806
 20
186.1452122941874
 30
0.0
  0
SPLINE
  5
1C2
330
1F
100
AcDbEntity
  8
0
  6
Continuous
 62
     7
370
    18
100
AcDbSpline
210
0.0
220
0.0
230
1.0
 70
     8
 71
     3
 72
    16
 73
    12
 74
     0
 42
0.000000001
 43
0.00000001
 40
0.0
 40
0.0
 40
0.0
 40
0.0
 40
0.1251714468123545
 40
0.2503345712921878
 40
0.5002432313912489
 40
0.6343687151946107
 40
0.7500270449019617
 40
0.8127090061673559
 40
0.8749750189615177
 40
0.9374562791878438
 40
0.9999999999999999
 40
0.9999999999999999
 40
0.9999999999999999
 40
0.9999999999999999
 10
265.0345897936065
 20
186.6879160471684
 30
0.0
 10
265.0569207928565
 20
186.7004731730751
 30
0.0
 10
265.1015813066249
 20
186.7255865899971
 30
0.0
 10
265.1915535182741
 20
186.7679385038506
 30
0.0
 10
265.2842321945895
 20
186.7997905842475
 30
0.0
 10
265.3725419225031
 20
186.8048997192806
 30
0.0
 10
265.4233717050672
 20
186.7897233304193
 30
0.0
 10
265.4556429816843
 20
186.7637922776086
 30
0.0
 10
265.4753677463736
 20
186.7355817679159
 30
0.0
 10
265.4893477369731
 20
186.7009784848833
 30
0.0
 10
265.4935311609391
 20
186.6741325776965
 30
0.0
 10
265.4956239179097
 20
186.6607029181989
 30
0.0
  0
SPLINE
  5
1C3
330
1F
100
AcDbEntity
  8
0
  6
Continuous
 62
     7
370
    18
100
AcDbSpline
210
0.0
220
0.0
230
1.0
 70
     8
 71
     3
 72
    11
 73
     7
 74
     0
 42
0.000000001
 43
0.00000001
 40
0.0
 40
0.0
 40
0.0
 40
0.0
 40
0.4999543933284851
 40
0.7499015403200963
 40
0.8749458342614805
 40
0.9999999999999999
 40
0.9999999999999999
 40
0.9999999999999999
 40
0.9999999999999999
 10
265.213825685979
 20
188.2735042044907
 30
0.0
 10
265.2591602980054
 20
188.2455430202281
 30
0.0
 10
265.3271594912162
 20
188.2036029244365
 30
0.0
 10
265.4131069897996
 20
188.1750826530354
 30
0.0
 10
265.4638557277061
 20
188.1659618377445
 30
0.0
 10
265.4897869368052
 20
188.1646702049737
 30
0.0
 10
265.5027530531284
 20
188.1640243630968
 30
0.0
  0
LINE
  5
1C4
330
1F
100
AcDbEntity
  8
0
  6
Continuous
 62
     7
370
    18
100
AcDbLine
 10
265.1699902311
 20
188.248198535
 30
0.0
 11
265.213825686
 21
188.2735042045
 31
0.0
  0
SPLINE
  5
1C5
330
1F
100
AcDbEntity
  8
0
  6
Continuous
 62
     7
370
    18
100
AcDbSpline
210
0.0
220
0.0
230
1.0
 70
     8
 71
     3
 72
    12
 73
     8
 74
     0
 42
0.000000001
 43
0.00000001
 40
0.0
 40
0.0
 40
0.0
 40
0.0
 40
0.1428486546064053
 40
0.2857137848888239
 40
0.4999809151670467
 40
0.7499794168908042
 40
1.0
 40
1.0
 40
1.0
 40
1.0
 10
265.3308275744943
 20
188.0896875463269
 30
0.0
 10
265.3221169647053
 20
188.0951234556528
 30
0.0
 10
265.3046947404755
 20
188.1059959012637
 30
0.0
 10
265.2761198300713
 20
188.1292872104115
 30
0.0
 10
265.2430260841942
 20
188.1606583296057
 30
0.0
 10
265.2061634405422
 20
188.2013464460809
 30
0.0
 10
265.1820483225628
 20
188.2325807122702
 30
0.0
 10
265.1699902310982
 20
188.2481985350343
 30
0.0
  0
LINE
  5
1C6
330
1F
100
AcDbEntity
  8
0
  6
Continuous
 62
     7
370
    18
100
AcDbLine
 10
264.4920530051
 20
187.6054732942
 30
0.0
 11
265.3308275745
 21
188.0896875463
 31
0.0
  0
ARC
  5
1C7
330
1F
100
AcDbEntity
  8
0
  6
Continuous
 62
     7
370
    18
100
AcDbCircle
 10
248.0179789119
 20
184.1258462279
 30
0.0
 40
16.83754500369025
100
AcDbArc
 50
11.6735299351
 51
11.9266216524
  0
LINE
  5
1C8
330
1F
100
AcDbEntity
  8
0
  6
Continuous
 62
     7
370
    18
100
AcDbLine
 10
265.3460373006
 20
188.0168831749
 30
0.0
 11
264.5072627313
 21
187.5326689228
 31
0.0
  0
SPLINE
  5
1C9
330
1F
100
AcDbEntity
  8
0
  6
Continuous
 62
     7
370
    18
100
AcDbSpline
210
0.0
220
0.0
230
1.0
 70
     8
 71
     3
 72
    11
 73
     7
 74
     0
 42
0.000000001
 43
0.00000001
 40
0.0
 40
0.0
 40
0.0
 40
0.0
 40
0.2500305180632381
 40
0.5000067443424849
 40
0.7035402666189107
 40
1.0
 40
1.0
 40
1.0
 40
1.0
 10
265.2792448539973
 20
187.7306557495028
 30
0.0
 10
265.283294154102
 20
187.7547366931217
 30
0.0
 10
265.2913918750436
 20
187.8028933514083
 30
0.0
 10
265.3036402274386
 20
187.8708073715125
 30
0.0
 10
265.3233271781651
 20
187.9419933270425
 30
0.0
 10
265.3375840247381
 20
187.9890072994339
 30
0.0
 10
265.3460373006293
 20
188.0168831748835
 30
0.0
  0
LINE
  5
1CA
330
1F
100
AcDbEntity
  8
0
  6
Continuous
 62
     7
370
    18
100
AcDbLine
 10
265.3225745152
 20
187.7556694305
 30
0.0
 11
265.279244854
 21
187.7306557495
 31
0.0
  0
SPLINE
  5
1CB
330
1F
100
AcDbEntity
  8
0
  6
Continuous
 62
     7
370
    18
100
AcDbSpline
210
0.0
220
0.0
230
1.0
 70
     8
 71
     3
 72
    11
 73
     7
 74
     0
 42
0.000000001
 43
0.00000001
 40
0.0
 40
0.0
 40
0.0
 40
0.0
 40
0.1428778200382648
 40
0.2857522926218026
 40
0.5000376817880637
 40
1.0
 40
1.0
 40
1.0
 40
1.0
 10
265.5097057013115
 20
188.1307193468058
 30
0.0
 10
265.49825696431
 20
188.1152796937205
 30
0.0
 10
265.4753597585371
 20
188.0844007492824
 30
0.0
 10
265.4401864797971
 20
188.024635096136
 30
0.0
 10
265.3848009384697
 20
187.9178382071148
 30
0.0
 10
265.3481968261293
 20
187.8224439388342
 30
0.0
 10
265.322574515168
 20
187.7556694304654
 30
0.0
  0
ARC
  5
1CC
330
1F
100
AcDbEntity
  8
0
  6
Continuous
 62
     7
370
    18
100
AcDbCircle
 10
249.0276392846
 20
184.7073543373
 30
0.0
 40
16.83383323409468
100
AcDbArc
 50
11.7336393492
 51
11.8494402891
  0
LWPOLYLINE
  5
1CD
330
1F
100
AcDbEntity
  8
0
  6
Continuous
 62
     7
370
    18
100
AcDbPolyline
 90
       65
 70
   128
 43
0.0
 10
265.9804091485
 20
185.3109838683
 10
265.9742761737
 20
185.6977139322
 10
265.9558856261
 20
186.0909967513
 10
265.925262625
 20
186.4902951487
 10
265.8824489978
 20
186.8950637307
 10
265.8275032227
 20
187.3047496322
 10
265.7605003491
 20
187.7187932715
 10
265.6815318947
 20
188.1366291148
 10
265.5907057211
 20
188.5576864486
 10
265.4881458858
 20
188.9813901593
 10
265.3739924733
 20
189.4071615184
 10
265.2484014033
 20
189.8344189736
 10
265.1115442182
 20
190.2625789426
 10
264.9636078484
 20
190.6910566104
 10
264.8047943573
 20
191.1192667279
 10
264.6353206648
 20
191.5466244117
 10
264.4554182518
 20
191.9725459426
 10
264.2653328432
 20
192.3964495631
 10
264.0653240729
 20
192.8177562716
 10
263.8556651288
 20
193.2358906141
 10
263.6366423798
 20
193.6502814692
 10
263.4085549847
 20
194.060362829
 10
263.1717144832
 20
194.4655745715
 10
262.9264443712
 20
194.8653632263
 10
262.6730796581
 20
195.2591827301
 10
262.4119664096
 20
195.646495173
 10
262.1434612749
 20
196.0267715326
 10
261.8679309998
 20
196.3994923973
 10
261.5857519256
 20
196.7641486752
 10
261.2973094749
 20
197.1202422895
 10
261.0029976253
 20
197.4672868594
 10
260.7032183715
 20
197.8048083637
 10
260.3983811759
 20
198.1323457885
 10
260.0889024093
 20
198.4494517572
 10
259.7752047827
 20
198.7556931412
 10
259.4577167691
 20
199.0506516515
 10
259.1368720191
 20
199.3339244104
 10
258.813108768
 20
199.6051245012
 10
258.4868692374
 20
199.8638814974
 10
258.1585990313
 20
200.1098419679
 10
257.8287465273
 20
200.3426699603
 10
257.4977622642
 20
200.5620474597
 10
257.1660983268
 20
200.7676748227
 10
256.8342077281
 20
200.9592711871
 10
256.5025437906
 20
201.1365748553
 10
256.1715595276
 20
201.2993436519
 10
255.8417070236
 20
201.4473552541
 10
255.5134368175
 20
201.5804074961
 10
255.1871972869
 20
201.6983186444
 10
254.8634340357
 20
201.8009276465
 10
254.5425892857
 20
201.888094351
 10
254.2251012722
 20
201.9596996986
 10
253.9114036455
 20
202.015645885
 10
253.601924879
 20
202.0558564944
 10
253.2970876834
 20
202.080276604
 10
252.9973084296
 20
202.0888728589
 10
252.70299658
 20
202.0816335176
 10
252.4145541293
 20
202.0585684681
 10
252.132375055
 20
202.0197092146
 10
251.85684478
 20
201.9651088341
 10
251.5883396453
 20
201.8948419042
 10
251.3272263968
 20
201.809004401
 10
251.0738616836
 20
201.7077135683
 10
250.8285915716
 20
201.5911077571
 10
250.6506690752
 20
201.4939959306
  0
LWPOLYLINE
  5
1CE
330
1F
100
AcDbEntity
  8
0
  6
Continuous
 62
     7
370
    18
100
AcDbPolyline
 90
       23
 70
   128
 43
0.0
 10
263.3496369797
 20
179.4963548261
 10
263.4085549847
 20
179.5310045198
 10
263.6366423798
 20
179.6777417784
 10
263.8556651288
 20
179.8392543502
 10
264.0653240729
 20
180.0153216284
 10
264.2653328432
 20
180.2057031262
 10
264.4554182518
 20
180.4101388054
 10
264.6353206648
 20
180.6283494315
 10
264.8047943573
 20
180.860036955
 10
264.9636078484
 20
181.1048849186
 10
265.1115442182
 20
181.3625588894
 10
265.2484014033
 20
181.6327069158
 10
265.3739924733
 20
181.9149600082
 10
265.4881458858
 20
182.2089326426
 10
265.5907057211
 20
182.5142232879
 10
265.6815318947
 20
182.8304149538
 10
265.7605003491
 20
183.1570757604
 10
265.8275032227
 20
183.4937595285
 10
265.8824489978
 20
183.8400063884
 10
265.925262625
 20
184.1953434087
 10
265.9558856261
 20
184.5592852416
 10
265.9742761737
 20
184.9313347864
 10
265.9804091485
 20
185.3109838683
  0
ARC
  5
1CF
330
1F
100
AcDbEntity
  8
0
  6
Continuous
 62
     7
370
    18
100
AcDbCircle
 10
249.6218461908
 20
184.6880005664
 30
0.0
 40
15.8816249735975
100
AcDbArc
 50
8.8297123888
 51
10.4101318183
  0
LINE
  5
1D0
330
1F
100
AcDbEntity
  8
0
  6
Continuous
 62
     7
370
    18
100
AcDbLine
 10
264.5815185747
 20
186.7022248704
 30
0.0
 11
265.3152566503
 21
187.1258028453
 31
0.0
  0
ARC
  5
1D1
330
1F
100
AcDbEntity
  8
0
  6
Continuous
 62
     7
370
    18
100
AcDbCircle
 10
249.315885498
 20
184.3323493972
 30
0.0
 40
15.44849063800594
100
AcDbArc
 50
8.4218430766
 51
8.8243023137
  0
LINE
  5
1D2
330
1F
100
AcDbEntity
  8
0
  6
Continuous
 62
     7
370
    18
100
AcDbLine
 10
265.4286388759
 20
187.0745776013
 30
0.0
 11
264.597788408
 21
186.5949378356
 31
0.0
  0
ARC
  5
1D3
330
1F
100
AcDbEntity
  8
0
  6
Continuous
 62
     7
370
    18
100
AcDbCircle
 10
249.8046544902
 20
184.7588910109
 30
0.0
 40
15.79466025180019
100
AcDbArc
 50
8.4306371922
 51
10.4133969297
  0
LINE
  5
1D4
330
1F
100
AcDbEntity
  8
0
  6
Continuous
 62
     7
370
    18
100
AcDbLine
 10
265.2420522099
 20
187.5577001537
 30
0.0
 11
265.3391646023
 21
187.6137619445
 31
0.0
  0
SPLINE
  5
1D5
330
1F
100
AcDbEntity
  8
0
  6
Continuous
 62
     7
370
    18
100
AcDbSpline
210
0.0
220
0.0
230
1.0
 70
     8
 71
     3
 72
    14
 73
    10
 74
     0
 42
0.000000001
 43
0.00000001
 40
0.0
 40
0.0
 40
0.0
 40
0.0
 40
0.0627133465055543
 40
0.1254006899987378
 40
0.2504473324746767
 40
0.4996124580573738
 40
0.7491976161720987
 40
0.8745628053037959
 40
1.0
 40
1.0
 40
1.0
 40
1.0
 10
264.9947890610902
 20
185.717661360267
 30
0.0
 10
264.994389664762
 20
185.7271990999327
 30
0.0
 10
264.9935910377085
 20
185.7462706246043
 30
0.0
 10
264.9970374908231
 20
185.7867253006154
 30
0.0
 10
265.0146746012746
 20
185.8600279379214
 30
0.0
 10
265.0654613965534
 20
185.9610953689074
 30
0.0
 10
265.1348547377105
 20
186.0401672346981
 30
0.0
 10
265.1950998700398
 20
186.0881881397199
 30
0.0
 10
265.2261407836947
 20
186.1071823065683
 30
0.0
 10
265.2416656964577
 20
186.1166821166127
 30
0.0
  0
SPLINE
  5
1D6
330
1F
100
AcDbEntity
  8
0
  6
Continuous
 62
     7
370
    18
100
AcDbSpline
210
0.0
220
0.0
230
1.0
 70
     8
 71
     3
 72
    11
 73
     7
 74
     0
 42
0.000000001
 43
0.00000001
 40
0.0
 40
0.0
 40
0.0
 40
0.0
 40
0.2500769320832032
 40
0.5000174317493313
 40
0.749938312622468
 40
0.9999999999999999
 40
0.9999999999999999
 40
0.9999999999999999
 40
0.9999999999999999
 10
265.0375680858216
 20
185.5889044240206
 30
0.0
 10
265.0319392744875
 20
185.5975106320664
 30
0.0
 10
265.0206847226839
 20
185.6147183529399
 30
0.0
 10
265.0078814498734
 20
185.645389429769
 30
0.0
 10
264.9988108311628
 20
185.67965443361
 30
0.0
 10
264.9961299027846
 20
185.7049900063561
 30
0.0
 10
264.9947890610902
 20
185.717661360267
 30
0.0
  0
SPLINE
  5
1D7
330
1F
100
AcDbEntity
  8
0
  6
Continuous
 62
     7
370
    18
100
AcDbSpline
210
0.0
220
0.0
230
1.0
 70
     8
 71
     3
 72
     8
 73
     4
 74
     0
 42
0.000000001
 43
0.00000001
 40
0.0
 40
0.0
 40
0.0
 40
0.0
 40
1.0
 40
1.0
 40
1.0
 40
1.0
 10
264.8299484947433
 20
185.5077684031262
 30
0.0
 10
264.899173024559
 20
185.5348049929273
 30
0.0
 10
264.968379556551
 20
185.561850308218
 30
0.0
 10
265.0375680858216
 20
185.5889044240206
 30
0.0
  0
ARC
  5
1D8
330
1F
100
AcDbEntity
  8
0
  6
Continuous
 62
     7
370
    18
100
AcDbCircle
 10
251.1595489343
 20
184.5951439357
 30
0.0
 40
13.70082871802282
100
AcDbArc
 50
3.8193511474
 51
5.1435125459
  0
LINE
  5
1D9
330
1F
100
AcDbEntity
  8
0
  6
Continuous
 62
     7
370
    18
100
AcDbLine
 10
264.7080957021
 20
185.7673710545
 30
0.0
 11
264.8052080945
 21
185.8234328453
 31
0.0
  0
ARC
  5
1DA
330
1F
100
AcDbEntity
  8
0
  6
Continuous
 62
     7
370
    18
100
AcDbCircle
 10
251.1367480512
 20
184.5451146174
 30
0.0
 40
13.62627564156605
100
AcDbArc
 50
3.4506310388
 51
5.1462620553
  0
SPLINE
  5
1DB
330
1F
100
AcDbEntity
  8
0
  6
Continuous
 62
     7
370
    18
100
AcDbSpline
210
0.0
220
0.0
230
1.0
 70
     8
 71
     3
 72
     8
 73
     4
 74
     0
 42
0.000000001
 43
0.00000001
 40
0.0
 40
0.0
 40
0.0
 40
0.0
 40
1.0
 40
1.0
 40
1.0
 40
1.0
 10
265.1684449393883
 20
185.5338803169079
 30
0.0
 10
265.0251474650379
 20
185.477634538288
 30
0.0
 10
264.8817723623242
 20
185.4214277699778
 30
0.0
 10
264.7383196694963
 20
185.3652593437942
 30
0.0
  0
SPLINE
  5
1DC
330
1F
100
AcDbEntity
  8
0
  6
Continuous
 62
     7
370
    18
100
AcDbSpline
210
0.0
220
0.0
230
1.0
 70
     8
 71
     3
 72
     8
 73
     4
 74
     0
 42
0.000000001
 43
0.00000001
 40
0.0
 40
0.0
 40
0.0
 40
0.0
 40
1.0
 40
1.0
 40
1.0
 40
1.0
 10
265.1747617032653
 20
185.6438847031141
 30
0.0
 10
265.1727940602448
 20
185.6071482789082
 30
0.0
 10
265.1706885030386
 20
185.5704796219617
 30
0.0
 10
265.1684449393883
 20
185.5338803169079
 30
0.0
  0
SPLINE
  5
1DD
330
1F
100
AcDbEntity
  8
0
  6
Continuous
 62
     7
370
    18
100
AcDbSpline
210
0.0
220
0.0
230
1.0
 70
     8
 71
     3
 72
    13
 73
     9
 74
     0
 42
0.000000001
 43
0.00000001
 40
0.0
 40
0.0
 40
0.0
 40
0.0
 40
0.1251857732062535
 40
0.2502844631579713
 40
0.4998384123132087
 40
0.7496104912811603
 40
0.8747712753911137
 40
1.0
 40
1.0
 40
1.0
 40
1.0
 10
265.083249405632
 20
185.7385286508794
 30
0.0
 10
265.0840830321146
 20
185.7310753552104
 30
0.0
 10
265.0857497051821
 20
185.7161739486248
 30
0.0
 10
265.0942019038349
 20
185.6903150891376
 30
0.0
 10
265.1112929009474
 20
185.664732762839
 30
0.0
 10
265.1354078544181
 20
185.6502113524052
 30
0.0
 10
265.1572288804673
 20
185.6446397417185
 30
0.0
 10
265.1689163719076
 20
185.6441364281718
 30
0.0
 10
265.1747617032653
 20
185.6438847031141
 30
0.0
  0
SPLINE
  5
1DE
330
1F
100
AcDbEntity
  8
0
  6
Continuous
 62
     7
370
    18
100
AcDbSpline
210
0.0
220
0.0
230
1.0
 70
     8
 71
     3
 72
    14
 73
    10
 74
     0
 42
0.000000001
 43
0.00000001
 40
0.0
 40
0.0
 40
0.0
 40
0.0
 40
0.1253753764942687
 40
0.2507116442999267
 40
0.3759843889713719
 40
0.5011455318268875
 40
0.7498422054561119
 40
0.8748658854891902
 40
1.0
 40
1.0
 40
1.0
 40
1.0
 10
265.2556831247444
 20
186.014939038183
 30
0.0
 10
265.2448268118266
 20
186.008293981747
 30
0.0
 10
265.2231175724308
 20
185.995005941686
 30
0.0
 10
265.1911900633312
 20
185.9705774981767
 30
0.0
 10
265.1608545840322
 20
185.940833532111
 30
0.0
 10
265.1239279743992
 20
185.8948208888791
 30
0.0
 10
265.0954363271347
 20
185.8376750490275
 30
0.0
 10
265.0824463672627
 20
185.7790258835836
 30
0.0
 10
265.0829816474075
 20
185.7520317007249
 30
0.0
 10
265.083249405632
 20
185.7385286508794
 30
0.0
  0
SPLINE
  5
1DF
330
1F
100
AcDbEntity
  8
0
  6
Continuous
 62
     7
370
    18
100
AcDbSpline
210
0.0
220
0.0
230
1.0
 70
     8
 71
     3
 72
    16
 73
    12
 74
     0
 42
0.000000001
 43
0.00000001
 40
0.0
 40
0.0
 40
0.0
 40
0.0
 40
0.062561087492903
 40
0.1250928754982012
 40
0.249769864765178
 40
0.3746545436190577
 40
0.4996400329584873
 40
0.6246834970050175
 40
0.7497226164574264
 40
0.8748534373134421
 40
1.0
 40
1.0
 40
1.0
 40
1.0
 10
265.4718901613709
 20
185.9601441136635
 30
0.0
 10
265.4711659407624
 20
185.9669187634952
 30
0.0
 10
265.4697178387226
 20
185.9804648903594
 30
0.0
 10
265.4624929694547
 20
186.0044382898407
 30
0.0
 10
265.4472296229427
 20
186.0284498858244
 30
0.0
 10
265.4214581755091
 20
186.0458677986315
 30
0.0
 10
265.3919410791288
 20
186.0554938974803
 30
0.0
 10
265.3590560301093
 20
186.0549634067956
 30
0.0
 10
265.3249321309862
 20
186.0475442027886
 30
0.0
 10
265.2902260677078
 20
186.0337425913635
 30
0.0
 10
265.2671979218701
 20
186.0212071520592
 30
0.0
 10
265.2556831247444
 20
186.014939038183
 30
0.0
  0
SPLINE
  5
1E0
330
1F
100
AcDbEntity
  8
0
  6
Continuous
 62
     7
370
    18
100
AcDbSpline
210
0.0
220
0.0
230
1.0
 70
     8
 71
     3
 72
    14
 73
    10
 74
     0
 42
0.000000001
 43
0.00000001
 40
0.0
 40
0.0
 40
0.0
 40
0.0
 40
0.1377979488019512
 40
0.2504541919851085
 40
0.5001429767152994
 40
0.6430016293616275
 40
0.7857787203852356
 40
0.892846763617507
 40
1.0
 40
1.0
 40
1.0
 40
1.0
 10
265.3202128292381
 20
185.7145085645776
 30
0.0
 10
265.3303629837422
 20
185.7222112239309
 30
0.0
 10
265.3488113624517
 20
185.736211166174
 30
0.0
 10
265.3847392841043
 20
185.7677113969188
 30
0.0
 10
265.4194022659092
 20
185.8059842665077
 30
0.0
 10
265.4485868489206
 20
185.855044148322
 30
0.0
 10
265.4645565230034
 20
185.8939907395255
 30
0.0
 10
265.4723394228855
 20
185.9301284480185
 30
0.0
 10
265.4720399549073
 20
185.9501362394982
 30
0.0
 10
265.4718901613709
 20
185.9601441136635
 30
0.0
  0
SPLINE
  5
1E1
330
1F
100
AcDbEntity
  8
0
  6
Continuous
 62
     7
370
    18
100
AcDbSpline
210
0.0
220
0.0
230
1.0
 70
     8
 71
     3
 72
     8
 73
     4
 74
     0
 42
0.000000001
 43
0.00000001
 40
0.0
 40
0.0
 40
0.0
 40
0.0
 40
1.0
 40
1.0
 40
1.0
 40
1.0
 10
265.3368905035893
 20
185.6178898135342
 30
0.0
 10
265.3314692656641
 20
185.6500270423033
 30
0.0
 10
265.3259100106585
 20
185.6822338205978
 30
0.0
 10
265.3202128292381
 20
185.7145085645776
 30
0.0
  0
SPLINE
  5
1E2
330
1F
100
AcDbEntity
  8
0
  6
Continuous
 62
     7
370
    18
100
AcDbSpline
210
0.0
220
0.0
230
1.0
 70
     8
 71
     3
 72
    15
 73
    11
 74
     0
 42
0.000000001
 43
0.00000001
 40
0.0
 40
0.0
 40
0.0
 40
0.0
 40
0.0626620904673467
 40
0.1252926296738055
 40
0.2503789947396953
 40
0.4991573193917727
 40
0.6218210237255738
 40
0.7494608068978341
 40
0.8747179529641241
 40
1.0
 40
1.0
 40
1.0
 40
1.0
 10
265.558138817765
 20
186.0109889790234
 30
0.0
 10
265.5585651467566
 20
186.0019846300337
 30
0.0
 10
265.559417590077
 20
185.9839804658731
 30
0.0
 10
265.5574101941139
 20
185.9463018528581
 30
0.0
 10
265.5450075129642
 20
185.8777837429606
 30
0.0
 10
265.509982321551
 20
185.7993532592858
 30
0.0
 10
265.463409656966
 20
185.7314270157385
 30
0.0
 10
265.4234417861275
 20
185.6871381494941
 30
0.0
 10
265.3807806716403
 20
185.6487799400183
 30
0.0
 10
265.3515215289571
 20
185.6281872045963
 30
0.0
 10
265.3368905035893
 20
185.6178898135342
 30
0.0
  0
SPLINE
  5
1E3
330
1F
100
AcDbEntity
  8
0
  6
Continuous
 62
     7
370
    18
100
AcDbSpline
210
0.0
220
0.0
230
1.0
 70
     8
 71
     3
 72
    14
 73
    10
 74
     0
 42
0.000000001
 43
0.00000001
 40
0.0
 40
0.0
 40
0.0
 40
0.0
 40
0.1254508217661201
 40
0.250865208952288
 40
0.5007660647446104
 40
0.7494481876001292
 40
0.8745485641857055
 40
0.9372586901485913
 40
1.0
 40
1.0
 40
1.0
 40
1.0
 10
265.2416656964577
 20
186.1166821166127
 30
0.0
 10
265.2590340646923
 20
186.126015723025
 30
0.0
 10
265.2937657568805
 20
186.144680225098
 30
0.0
 10
265.3632926464396
 20
186.1678190830132
 30
0.0
 10
265.4470851153692
 20
186.1723074430426
 30
0.0
 10
265.5185547515986
 20
186.1352983083086
 30
0.0
 10
265.5459298984779
 20
186.0792660450252
 30
0.0
 10
265.5550854127036
 20
186.041728785641
 30
0.0
 10
265.5571208474262
 20
186.0212372791103
 30
0.0
 10
265.558138817765
 20
186.0109889790234
 30
0.0
  0
ARC
  5
1E4
330
1F
100
AcDbEntity
  8
0
  6
Continuous
 62
     7
370
    18
100
AcDbCircle
 10
254.0409227177
 20
184.8733005687
 30
0.0
 40
11.20596002555677
100
AcDbArc
 50
357.2954307606
 51
358.3080443358
  0
SPLINE
  5
1E5
330
1F
100
AcDbEntity
  8
0
  6
Continuous
 62
     7
370
    18
100
AcDbSpline
210
0.0
220
0.0
230
1.0
 70
     8
 71
     3
 72
    15
 73
    11
 74
     0
 42
0.000000001
 43
0.00000001
 40
0.0
 40
0.0
 40
0.0
 40
0.0
 40
0.1251267795938257
 40
0.2502087440698713
 40
0.3752035874756802
 40
0.5001276200208998
 40
0.6181871583668774
 40
0.7497555672937484
 40
0.8748246125365746
 40
1.0
 40
1.0
 40
1.0
 40
1.0
 10
264.9913500663977
 20
184.6878914496867
 30
0.0
 10
265.0086543672827
 20
184.6972455432057
 30
0.0
 10
265.0432567713843
 20
184.7159503800033
 30
0.0
 10
265.0942203830757
 20
184.7326113875127
 30
0.0
 10
265.1419900425252
 20
184.7368973359247
 30
0.0
 10
265.1843358076117
 20
184.7283802164977
 30
0.0
 10
265.2160395400613
 20
184.6993853473216
 30
0.0
 10
265.234151716066
 20
184.6546587838405
 30
0.0
 10
265.2423000618997
 20
184.6006189095334
 30
0.0
 10
265.2420981275048
 20
184.5618347653859
 30
0.0
 10
265.241997117401
 20
184.5424344525853
 30
0.0
  0
SPLINE
  5
1E6
330
1F
100
AcDbEntity
  8
0
  6
Continuous
 62
     7
370
    18
100
AcDbSpline
210
0.0
220
0.0
230
1.0
 70
     8
 71
     3
 72
    14
 73
    10
 74
     0
 42
0.000000001
 43
0.00000001
 40
0.0
 40
0.0
 40
0.0
 40
0.0
 40
0.0715632193436364
 40
0.1431246732572814
 40
0.2503740552462805
 40
0.4997860919222303
 40
0.7495413463656703
 40
0.8497349887435403
 40
0.9999999999999999
 40
0.9999999999999999
 40
0.9999999999999999
 40
0.9999999999999999
 10
264.7650362850716
 20
184.4103278909728
 30
0.0
 10
264.7675786411306
 20
184.418735118607
 30
0.0
 10
264.7726632905301
 20
184.4355493664733
 30
0.0
 10
264.7847447390407
 20
184.4651054541171
 30
0.0
 10
264.8094385765002
 20
184.5148848104104
 30
0.0
 10
264.855963460083
 20
184.5800409676392
 30
0.0
 10
264.9089187834515
 20
184.6309634025343
 30
0.0
 10
264.9544710071389
 20
184.6653979325078
 30
0.0
 10
264.977521004777
 20
184.6794567379184
 30
0.0
 10
264.9913500663977
 20
184.6878914496867
 30
0.0
  0
SPLINE
  5
1E7
330
1F
100
AcDbEntity
  8
0
  6
Continuous
 62
     7
370
    18
100
AcDbSpline
210
0.0
220
0.0
230
1.0
 70
     8
 71
     3
 72
    12
 73
     8
 74
     0
 42
0.000000001
 43
0.00000001
 40
0.0
 40
0.0
 40
0.0
 40
0.0
 40
0.2716297071032535
 40
0.5000612463476913
 40
0.7500575439835054
 40
0.867005844393978
 40
1.0
 40
1.0
 40
1.0
 40
1.0
 10
264.7454506304965
 20
184.249392874828
 30
0.0
 10
264.7459415671467
 20
184.2632948950893
 30
0.0
 10
264.7468453651732
 20
184.288888051496
 30
0.0
 10
264.7501275361776
 20
184.3284937299568
 30
0.0
 10
264.7540423187576
 20
184.3606791100277
 30
0.0
 10
264.7594466119094
 20
184.3885635614133
 30
0.0
 10
264.7630949876356
 20
184.4027691239491
 30
0.0
 10
264.7650362850716
 20
184.4103278909728
 30
0.0
  0
ARC
  5
1E8
330
1F
100
AcDbEntity
  8
0
  6
Continuous
 62
     7
370
    18
100
AcDbCircle
 10
253.6341725171
 20
184.5833994586
 30
0.0
 40
11.11629712234806
100
AcDbArc
 50
356.7922346081
 51
358.278199293
  0
LINE
  5
1E9
330
1F
100
AcDbEntity
  8
0
  6
Continuous
 62
     7
370
    18
100
AcDbLine
 10
265.5639029755
 20
184.4410065337
 30
0.0
 11
264.7330525076
 21
183.961366768
 31
0.0
  0
ARC
  5
1EA
330
1F
100
AcDbEntity
  8
0
  6
Continuous
 62
     7
370
    18
100
AcDbCircle
 10
254.6287089993
 20
185.0548096401
 30
0.0
 40
10.95240711210884
100
AcDbArc
 50
356.7873032342
 51
357.2934850267
  0
LINE
  5
1EB
330
1F
100
AcDbEntity
  8
0
  6
Continuous
 62
     7
370
    18
100
AcDbLine
 10
265.2344005939
 20
184.3445349029
 30
0.0
 11
265.5688988342
 21
184.5376366267
 31
0.0
  0
SPLINE
  5
1EC
330
1F
100
AcDbEntity
  8
0
  6
Continuous
 62
     7
370
    18
100
AcDbSpline
210
0.0
220
0.0
230
1.0
 70
     8
 71
     3
 72
     8
 73
     4
 74
     0
 42
0.000000001
 43
0.00000001
 40
0.0
 40
0.0
 40
0.0
 40
0.0
 40
1.0
 40
1.0
 40
1.0
 40
1.0
 10
265.418444961422
 20
183.2073978211821
 30
0.0
 10
265.164224537206
 20
183.0003386654504
 30
0.0
 10
264.9092913959557
 20
182.7938499915816
 30
0.0
 10
264.6536487431362
 20
182.5879480332159
 30
0.0
  0
ARC
  5
1ED
330
1F
100
AcDbEntity
  8
0
  6
Continuous
 62
     7
370
    18
100
AcDbCircle
 10
256.702174287
 20
184.8218193191
 30
0.0
 40
8.864520925760752
100
AcDbArc
 50
349.5066335227
 51
350.103125065
  0
SPLINE
  5
1EE
330
1F
100
AcDbEntity
  8
0
  6
Continuous
 62
     7
370
    18
100
AcDbSpline
210
0.0
220
0.0
230
1.0
 70
     8
 71
     3
 72
     8
 73
     4
 74
     0
 42
0.000000001
 43
0.00000001
 40
0.0
 40
0.0
 40
0.0
 40
0.0
 40
1.0
 40
1.0
 40
1.0
 40
1.0
 10
264.7826550588834
 20
183.1098137049909
 30
0.0
 10
265.0007580314258
 20
183.1720565650261
 30
0.0
 10
265.2181319662687
 20
183.2348551459808
 30
0.0
 10
265.4347796366479
 20
183.2982265093145
 30
0.0
  0
LINE
  5
1EF
330
1F
100
AcDbEntity
  8
0
  6
Continuous
 62
     7
370
    18
100
AcDbLine
 10
265.4685113299
 20
183.5057501025
 30
0.0
 11
264.7826550589
 21
183.109813705
 31
0.0
  0
ARC
  5
1F0
330
1F
100
AcDbEntity
  8
0
  6
Continuous
 62
     7
370
    18
100
AcDbCircle
 10
256.2150491218
 20
184.9009942106
 30
0.0
 40
9.358059037878064
100
AcDbArc
 50
351.4254892637
 51
351.9876440098
  0
LINE
  5
1F1
330
1F
100
AcDbEntity
  8
0
  6
Continuous
 62
     7
370
    18
100
AcDbLine
 10
264.6509046251
 20
183.116965929
 30
0.0
 11
265.481755093
 21
183.5966056947
 31
0.0
  0
ARC
  5
1F2
330
1F
100
AcDbEntity
  8
0
  6
Continuous
 62
     7
370
    18
100
AcDbCircle
 10
255.4153675155
 20
184.4168414274
 30
0.0
 40
9.32656539216801
100
AcDbArc
 50
351.1905971172
 51
351.9884084704
  0
SPLINE
  5
1F3
330
1F
100
AcDbEntity
  8
0
  6
Continuous
 62
     7
370
    18
100
AcDbSpline
210
0.0
220
0.0
230
1.0
 70
     8
 71
     3
 72
     8
 73
     4
 74
     0
 42
0.000000001
 43
0.00000001
 40
0.0
 40
0.0
 40
0.0
 40
0.0
 40
1.0
 40
1.0
 40
1.0
 40
1.0
 10
265.181017415201
 20
183.146415577647
 30
0.0
 10
264.9985051766018
 20
183.0933664375275
 30
0.0
 10
264.815469895611
 20
183.0407302034039
 30
0.0
 10
264.6319098540713
 20
182.9884964635407
 30
0.0
  0
SPLINE
  5
1F4
330
1F
100
AcDbEntity
  8
0
  6
Continuous
 62
     7
370
    18
100
AcDbSpline
210
0.0
220
0.0
230
1.0
 70
     8
 71
     3
 72
     9
 73
     5
 74
     0
 42
0.000000001
 43
0.00000001
 40
0.0
 40
0.0
 40
0.0
 40
0.0
 40
0.4999953013385152
 40
1.0
 40
1.0
 40
1.0
 40
1.0
 10
265.3073389787297
 20
183.1845874409599
 30
0.0
 10
265.2862161504066
 20
183.178014973713
 30
0.0
 10
265.2439700967606
 20
183.1648699156907
 30
0.0
 10
265.2020017738508
 20
183.1525670621996
 30
0.0
 10
265.181017415201
 20
183.146415577647
 30
0.0
  0
SPLINE
  5
1F5
330
1F
100
AcDbEntity
  8
0
  6
Continuous
 62
     7
370
    18
100
AcDbSpline
210
0.0
220
0.0
230
1.0
 70
     8
 71
     3
 72
     8
 73
     4
 74
     0
 42
0.000000001
 43
0.00000001
 40
0.0
 40
0.0
 40
0.0
 40
0.0
 40
1.0
 40
1.0
 40
1.0
 40
1.0
 10
265.1782229219823
 20
183.0802992832005
 30
0.0
 10
265.2212807115233
 20
183.1150467707224
 30
0.0
 10
265.2643194014656
 20
183.1498095139687
 30
0.0
 10
265.3073389787297
 20
183.1845874409599
 30
0.0
  0
SPLINE
  5
1F6
330
1F
100
AcDbEntity
  8
0
  6
Continuous
 62
     7
370
    18
100
AcDbSpline
210
0.0
220
0.0
230
1.0
 70
     8
 71
     3
 72
     8
 73
     4
 74
     0
 42
0.000000001
 43
0.00000001
 40
0.0
 40
0.0
 40
0.0
 40
0.0
 40
1.0
 40
1.0
 40
1.0
 40
1.0
 10
264.5581042942621
 20
182.5760806158073
 30
0.0
 10
264.7652858632708
 20
182.7437669660975
 30
0.0
 10
264.9719926466534
 20
182.9118428201889
 30
0.0
 10
265.1782229219823
 20
183.0802992832005
 30
0.0
  0
ARC
  5
1F7
330
1F
100
AcDbEntity
  8
0
  6
Continuous
 62
     7
370
    18
100
AcDbCircle
 10
256.2939912653
 20
184.2595029229
 30
0.0
 40
8.433829190835725
100
AcDbArc
 50
347.5436251368
 51
348.4862229008
  0
LINE
  5
1F8
330
1F
100
AcDbEntity
  8
0
  6
Continuous
 62
     7
370
    18
100
AcDbLine
 10
265.360142985
 20
182.9199978037
 30
0.0
 11
264.5292925171
 21
182.440358038
 31
0.0
  0
ARC
  5
1F9
330
1F
100
AcDbEntity
  8
0
  6
Continuous
 62
     7
370
    18
100
AcDbCircle
 10
257.1632761987
 20
184.730833384
 30
0.0
 40
8.39450716900014
100
AcDbArc
 50
347.5424207273
 51
348.1468095016
  0
LINE
  5
1FA
330
1F
100
AcDbEntity
  8
0
  6
Continuous
 62
     7
370
    18
100
AcDbLine
 10
264.6536487431
 20
182.5879480332
 30
0.0
 11
265.3787883256
 21
183.0065622037
 31
0.0
  0
ARC
  5
1FB
330
1F
100
AcDbEntity
  8
0
  6
Continuous
 62
     7
370
    18
100
AcDbCircle
 10
246.6591795751
 20
184.5254584733
 30
0.0
 40
19.34067965345266
100
AcDbArc
 50
2.5697972707
 51
57.4248261966
  0
SPLINE
  5
1FC
330
1F
100
AcDbEntity
  8
0
  6
Continuous
 62
     7
370
    18
100
AcDbSpline
210
0.0
220
0.0
230
1.0
 70
     8
 71
     3
 72
    14
 73
    10
 74
     0
 42
0.000000001
 43
0.00000001
 40
0.0
 40
0.0
 40
0.0
 40
0.0
 40
0.2504593848594053
 40
0.5007737691173274
 40
0.6258703401257065
 40
0.7507069732232938
 40
0.8751134679239075
 40
0.9375438466361543
 40
1.0
 40
1.0
 40
1.0
 40
1.0
 10
265.0880818229023
 20
186.2502126519879
 30
0.0
 10
265.1215730534922
 20
186.2700930683664
 30
0.0
 10
265.1885361253063
 20
186.3098423915834
 30
0.0
 10
265.2709445476772
 20
186.3688607146717
 30
0.0
 10
265.3341131307128
 20
186.426458177045
 30
0.0
 10
265.3756040471725
 20
186.4814550926725
 30
0.0
 10
265.4015512424617
 20
186.5360410617244
 30
0.0
 10
265.4109576493609
 20
186.5821048539123
 30
0.0
 10
265.4096068190996
 20
186.6033487971755
 30
0.0
 10
265.4089312645737
 20
186.613972961018
 30
0.0
  0
SPLINE
  5
1FD
330
1F
100
AcDbEntity
  8
0
  6
Continuous
 62
     7
370
    18
100
AcDbSpline
210
0.0
220
0.0
230
1.0
 70
     8
 71
     3
 72
    15
 73
    11
 74
     0
 42
0.000000001
 43
0.00000001
 40
0.0
 40
0.0
 40
0.0
 40
0.0
 40
0.0312901635285386
 40
0.0625537335386498
 40
0.1249650643503512
 40
0.2494571375088204
 40
0.3743031125252762
 40
0.4993924584937494
 40
0.7496226152148638
 40
1.0
 40
1.0
 40
1.0
 40
1.0
 10
265.4089312645737
 20
186.613972961018
 30
0.0
 10
265.4081845769144
 20
186.6190018016726
 30
0.0
 10
265.4066918362059
 20
186.6290552089689
 30
0.0
 10
265.4004421602235
 20
186.646758384763
 30
0.0
 10
265.3841867687179
 20
186.6725033530018
 30
0.0
 10
265.348078368814
 20
186.689260652288
 30
0.0
 10
265.3001078993174
 20
186.6922650157261
 30
0.0
 10
265.2326784137624
 20
186.6741670221497
 30
0.0
 10
265.1485112714615
 20
186.6371138296868
 30
0.0
 10
265.0818989496406
 20
186.5998086650541
 30
0.0
 10
265.048582993429
 20
186.5811505970362
 30
0.0
  0
SPLINE
  5
1FE
330
1F
100
AcDbEntity
  8
0
  6
Continuous
 62
     7
370
    18
100
AcDbSpline
210
0.0
220
0.0
230
1.0
 70
     8
 71
     3
 72
    14
 73
    10
 74
     0
 42
0.000000001
 43
0.00000001
 40
0.0
 40
0.0
 40
0.0
 40
0.0
 40
0.2504545161899763
 40
0.5007633272324264
 40
0.6258556209242593
 40
0.7506768265904515
 40
0.8750919021456446
 40
0.9375290817243958
 40
1.0
 40
1.0
 40
1.0
 40
1.0
 10
265.048582993429
 20
186.5811505970362
 30
0.0
 10
265.0150230243974
 20
186.5612144470799
 30
0.0
 10
264.9479226102794
 20
186.5213537452799
 30
0.0
 10
264.8655576843271
 20
186.4621155513288
 30
0.0
 10
264.8026823753911
 20
186.4041593512545
 30
0.0
 10
264.7616520823026
 20
186.3486999714481
 30
0.0
 10
264.736534634242
 20
186.2934894325858
 30
0.0
 10
264.7277609305673
 20
186.2472548472913
 30
0.0
 10
264.7291767608433
 20
186.2259770117255
 30
0.0
 10
264.729884867195
 20
186.2153352202841
 30
0.0
  0
SPLINE
  5
1FF
330
1F
100
AcDbEntity
  8
0
  6
Continuous
 62
     7
370
    18
100
AcDbSpline
210
0.0
220
0.0
230
1.0
 70
     8
 71
     3
 72
    16
 73
    12
 74
     0
 42
0.000000001
 43
0.00000001
 40
0.0
 40
0.0
 40
0.0
 40
0.0
 40
0.0312835484950869
 40
0.0625395266465657
 40
0.1249245184145124
 40
0.2493412095452049
 40
0.3118907638807577
 40
0.3744409013743355
 40
0.4994832982156778
 40
0.7496712702792627
 40
1.0
 40
1.0
 40
1.0
 40
1.0
 10
264.729884867195
 20
186.2153352202841
 30
0.0
 10
264.7306207950432
 20
186.2103139068948
 30
0.0
 10
264.7320920021627
 20
186.2002757054242
 30
0.0
 10
264.738302471666
 20
186.1826681282904
 30
0.0
 10
264.7545507836844
 20
186.1573893956155
 30
0.0
 10
264.783138957513
 20
186.144346655348
 30
0.0
 10
264.813651545619
 20
186.1394126659484
 30
0.0
 10
264.8460761360152
 20
186.1412859434873
 30
0.0
 10
264.9045032001954
 20
186.1570477957223
 30
0.0
 10
264.9883674089275
 20
186.1943655785319
 30
0.0
 10
265.0548374539047
 20
186.231593471035
 30
0.0
 10
265.0880818229023
 20
186.2502126519879
 30
0.0
  0
SPLINE
  5
200
330
1F
100
AcDbEntity
  8
0
  6
Continuous
 62
     7
370
    18
100
AcDbSpline
210
0.0
220
0.0
230
1.0
 70
     8
 71
     3
 72
    16
 73
    12
 74
     0
 42
0.000000001
 43
0.00000001
 40
0.0
 40
0.0
 40
0.0
 40
0.0
 40
0.1251436186110435
 40
0.2502667765187813
 40
0.37731859320776
 40
0.5003649802579013
 40
0.6431622939843835
 40
0.7857880323439553
 40
0.8927538855128715
 40
0.9463653250876206
 40
1.0
 40
1.0
 40
1.0
 40
1.0
 10
265.3063443410616
 20
185.0700034806585
 30
0.0
 10
265.3176288933091
 20
185.0768502134507
 30
0.0
 10
265.340196152805
 20
185.0905425596095
 30
0.0
 10
265.3737705660784
 20
185.1164713992329
 30
0.0
 10
265.4061865717613
 20
185.1464815382714
 30
0.0
 10
265.4376018522626
 20
185.1837394920034
 30
0.0
 10
265.4662959102539
 20
185.2272427934475
 30
0.0
 10
265.488388417363
 20
185.2726923111377
 30
0.0
 10
265.4985646618582
 20
185.3086929179865
 30
0.0
 10
265.5018876041877
 20
185.3331497857657
 30
0.0
 10
265.5019529735903
 20
185.3446843745886
 30
0.0
 10
265.501985665373
 20
185.3504529185096
 30
0.0
  0
SPLINE
  5
201
330
1F
100
AcDbEntity
  8
0
  6
Continuous
 62
     7
370
    18
100
AcDbSpline
210
0.0
220
0.0
230
1.0
 70
     8
 71
     3
 72
    16
 73
    12
 74
     0
 42
0.000000001
 43
0.00000001
 40
0.0
 40
0.0
 40
0.0
 40
0.0
 40
0.0714570522975998
 40
0.1428621950353148
 40
0.2852490014631072
 40
0.3894793910061459
 40
0.4996442112028905
 40
0.6176232849317478
 40
0.7497360404989211
 40
0.8748363765134364
 40
1.0
 40
1.0
 40
1.0
 40
1.0
 10
265.501985665373
 20
185.3504529185096
 30
0.0
 10
265.5014755784136
 20
185.357405440221
 30
0.0
 10
265.5004557750447
 20
185.3713054330248
 30
0.0
 10
265.4921021380308
 20
185.3942575578133
 30
0.0
 10
265.4761368051459
 20
185.4125473500846
 30
0.0
 10
265.452996229372
 20
185.4239919374745
 30
0.0
 10
265.429021822005
 20
185.4295718619576
 30
0.0
 10
265.4004817172334
 20
185.428583805242
 30
0.0
 10
265.3691466272072
 20
185.42022389205
 30
0.0
 10
265.3366867549948
 20
185.4072191155083
 30
0.0
 10
265.3153677152471
 20
185.3954156440651
 30
0.0
 10
265.304705499763
 20
185.3895124158956
 30
0.0
  0
SPLINE
  5
202
330
1F
100
AcDbEntity
  8
0
  6
Continuous
 62
     7
370
    18
100
AcDbSpline
210
0.0
220
0.0
230
1.0
 70
     8
 71
     3
 72
    14
 73
    10
 74
     0
 42
0.000000001
 43
0.00000001
 40
0.0
 40
0.0
 40
0.0
 40
0.0
 40
0.1254744663734793
 40
0.2508913731699353
 40
0.5006345263635037
 40
0.749560006928595
 40
0.8745895747613982
 40
0.9372675200678544
 40
1.0
 40
1.0
 40
1.0
 40
1.0
 10
265.304705499763
 20
185.3895124158956
 30
0.0
 10
265.2940839891507
 20
185.3830775659101
 30
0.0
 10
265.2728458403889
 20
185.3702108178326
 30
0.0
 10
265.2310564533475
 20
185.3388786229283
 30
0.0
 10
265.1811829111454
 20
185.2880900895526
 30
0.0
 10
265.1426577202299
 20
185.220725824064
 30
0.0
 10
265.1282385249847
 20
185.1717097743268
 30
0.0
 10
265.1246945453963
 20
185.144781239271
 30
0.0
 10
265.1245624962046
 20
185.1320756482841
 30
0.0
 10
265.124496442898
 20
185.1257200902825
 30
0.0
  0
SPLINE
  5
203
330
1F
100
AcDbEntity
  8
0
  6
Continuous
 62
     7
370
    18
100
AcDbSpline
210
0.0
220
0.0
230
1.0
 70
     8
 71
     3
 72
    15
 73
    11
 74
     0
 42
0.000000001
 43
0.00000001
 40
0.0
 40
0.0
 40
0.0
 40
0.0
 40
0.0626144262486935
 40
0.125223081628644
 40
0.2501396090587375
 40
0.3751487439832072
 40
0.5002604568970574
 40
0.7495411692940154
 40
0.8747411013275411
 40
1.0
 40
1.0
 40
1.0
 40
1.0
 10
265.124496442898
 20
185.1257200902825
 30
0.0
 10
265.1247939083855
 20
185.1196904101658
 30
0.0
 10
265.1253888119446
 20
185.1076316056588
 30
0.0
 10
265.1304709628705
 20
185.0863590080717
 30
0.0
 10
265.1416665234481
 20
185.0643105416092
 30
0.0
 10
265.1619314903391
 20
185.0471096895598
 30
0.0
 10
265.1941285062315
 20
185.0336048525297
 30
0.0
 10
265.2338377187786
 20
185.0374061068715
 30
0.0
 10
265.2750217655699
 20
185.0529257121118
 30
0.0
 10
265.2959018439343
 20
185.0643099977252
 30
0.0
 10
265.3063443410616
 20
185.0700034806585
 30
0.0
  0
ARC
  5
204
330
1F
100
AcDbEntity
  8
0
  6
Continuous
 62
     7
370
    18
100
AcDbCircle
 10
253.9385645476
 20
184.8174551661
 30
0.0
 40
11.21121017072487
100
AcDbArc
 50
357.2955911338
 51
358.3390361973
  0
SPLINE
  5
205
330
1F
100
AcDbEntity
  8
0
  6
Continuous
 62
     7
370
    18
100
AcDbSpline
210
0.0
220
0.0
230
1.0
 70
     8
 71
     3
 72
    14
 73
    10
 74
     0
 42
0.000000001
 43
0.00000001
 40
0.0
 40
0.0
 40
0.0
 40
0.0
 40
0.1254334684851632
 40
0.2507837227450707
 40
0.4991924195970258
 40
0.6189973935869594
 40
0.7493281599185031
 40
0.87460697207986
 40
1.0
 40
1.0
 40
1.0
 40
1.0
 10
265.1450642166844
 20
184.4924956949202
 30
0.0
 10
265.1451365200427
 20
184.504629181705
 30
0.0
 10
265.1452810787923
 20
184.5288881057589
 30
0.0
 10
265.139620018031
 20
184.5732822807093
 30
0.0
 10
265.1224106491981
 20
184.6093367787535
 30
0.0
 10
265.0894029953827
 20
184.6219413805102
 30
0.0
 10
265.0596974216554
 20
184.6197441568174
 30
0.0
 10
265.0274663098126
 20
184.6088410961123
 30
0.0
 10
265.0058603079237
 20
184.597171170185
 30
0.0
 10
264.9950523847154
 20
184.5913335485871
 30
0.0
  0
SPLINE
  5
206
330
1F
100
AcDbEntity
  8
0
  6
Continuous
 62
     7
370
    18
100
AcDbSpline
210
0.0
220
0.0
230
1.0
 70
     8
 71
     3
 72
    15
 73
    11
 74
     0
 42
0.000000001
 43
0.00000001
 40
0.0
 40
0.0
 40
0.0
 40
0.0
 40
0.1251494126434013
 40
0.2502382939156054
 40
0.3752400413420996
 40
0.5001576466784802
 40
0.6246526713367438
 40
0.749580694268449
 40
0.8926595291875383
 40
1.0
 40
1.0
 40
1.0
 40
1.0
 10
264.9950523847154
 20
184.5913335485871
 30
0.0
 10
264.9842387562396
 20
184.5846614107093
 30
0.0
 10
264.9626167295463
 20
184.5713203620857
 30
0.0
 10
264.9307010328652
 20
184.5443911512893
 30
0.0
 10
264.9011620964477
 20
184.5112702124817
 30
0.0
 10
264.8745318024401
 20
184.4740282522409
 30
0.0
 10
264.8550531724512
 20
184.4318537903733
 30
0.0
 10
264.8477966842957
 20
184.3896638918445
 30
0.0
 10
264.8441745576633
 20
184.3514184542738
 30
0.0
 10
264.8432691340997
 20
184.3267440724578
 30
0.0
 10
264.8428810306692
 20
184.3161675725613
 30
0.0
  0
ARC
  5
207
330
1F
100
AcDbEntity
  8
0
  6
Continuous
 62
     7
370
    18
100
AcDbCircle
 10
253.638076507
 20
184.6429731832
 30
0.0
 40
11.20956940837332
100
AcDbArc
 50
357.2955405062
 51
358.329352798
  0
LINE
  5
208
330
1F
100
AcDbEntity
  8
0
  6
Continuous
 62
     7
370
    18
100
AcDbLine
 10
264.8351607587
 20
184.1140586518
 30
0.0
 11
265.1372882016
 21
184.2884731121
 31
0.0
  0
ARC
  5
209
330
1F
100
AcDbEntity
  8
0
  6
Continuous
 62
     7
370
    18
100
AcDbCircle
 10
257.9168899917
 20
184.4600075897
 30
0.0
 40
7.516907102367887
100
AcDbArc
 50
343.1207219046
 51
344.2376034284
  0
SPLINE
  5
20A
330
1F
100
AcDbEntity
  8
0
  6
Continuous
 62
     7
370
    18
100
AcDbSpline
210
0.0
220
0.0
230
1.0
 70
     8
 71
     3
 72
    15
 73
    11
 74
     0
 42
0.000000001
 43
0.00000001
 40
0.0
 40
0.0
 40
0.0
 40
0.0
 40
0.1388489419426263
 40
0.2501977506343451
 40
0.3831761862905507
 40
0.5002075727704379
 40
0.6213379654160893
 40
0.7499414540044844
 40
0.8749212798673599
 40
1.0
 40
1.0
 40
1.0
 40
1.0
 10
265.1511349636439
 20
182.418049688072
 30
0.0
 10
265.1540594233005
 20
182.4293524344396
 30
0.0
 10
265.159329130204
 20
182.4497193286888
 30
0.0
 10
265.1646034301396
 20
182.4794089322837
 30
0.0
 10
265.165839403035
 20
182.5049719485839
 30
0.0
 10
265.1620890682407
 20
182.5274357063649
 30
0.0
 10
265.1511079392777
 20
182.5429631293911
 30
0.0
 10
265.1332537492329
 20
182.5512548530754
 30
0.0
 10
265.1104823330958
 20
182.5532961226018
 30
0.0
 10
265.0926319471853
 20
182.5499861938311
 30
0.0
 10
265.0837032244549
 20
182.5483305749331
 30
0.0
  0
SPLINE
  5
20B
330
1F
100
AcDbEntity
  8
0
  6
Continuous
 62
     7
370
    18
100
AcDbSpline
210
0.0
220
0.0
230
1.0
 70
     8
 71
     3
 72
    12
 73
     8
 74
     0
 42
0.000000001
 43
0.00000001
 40
0.0
 40
0.0
 40
0.0
 40
0.0
 40
0.1384428690882687
 40
0.2499955774680688
 40
0.4999714742338632
 40
0.7499799309452773
 40
1.0
 40
1.0
 40
1.0
 40
1.0
 10
265.0837032244549
 20
182.5483305749331
 30
0.0
 10
265.0755204449292
 20
182.5462990591216
 30
0.0
 10
265.06074425092
 20
182.5426306147173
 30
0.0
 10
265.0299436199766
 20
182.5328059451155
 30
0.0
 10
264.9904047367922
 20
182.5165983310875
 30
0.0
 10
264.940362677332
 20
182.4925256159841
 30
0.0
 10
264.9060113787074
 20
182.473138147146
 30
0.0
 10
264.8888353305188
 20
182.4634441876059
 30
0.0
  0
SPLINE
  5
20C
330
1F
100
AcDbEntity
  8
0
  6
Continuous
 62
     7
370
    18
100
AcDbSpline
210
0.0
220
0.0
230
1.0
 70
     8
 71
     3
 72
    15
 73
    11
 74
     0
 42
0.000000001
 43
0.00000001
 40
0.0
 40
0.0
 40
0.0
 40
0.0
 40
0.0834230312274557
 40
0.2502275879770233
 40
0.5000787347285517
 40
0.6250851562570164
 40
0.7500916741890149
 40
0.8749580725237398
 40
0.9374643383058804
 40
1.0
 40
1.0
 40
1.0
 40
1.0
 10
264.8888353305188
 20
182.4634441876059
 30
0.0
 10
264.8793999953702
 20
182.4579358804617
 30
0.0
 10
264.8510986843145
 20
182.4414136995931
 30
0.0
 10
264.7938067033173
 20
182.4049437465564
 30
0.0
 10
264.7303891757789
 20
182.3588021859741
 30
0.0
 10
264.6727953274171
 20
182.3072381749965
 30
0.0
 10
264.6308771929746
 20
182.2649010682497
 30
0.0
 10
264.598655702897
 20
182.2264104829766
 30
0.0
 10
264.5756891398831
 20
182.1946388352181
 30
0.0
 10
264.5661647774016
 20
182.1787506435183
 30
0.0
 10
264.561401476627
 20
182.1708046801033
 30
0.0
  0
SPLINE
  5
20D
330
1F
100
AcDbEntity
  8
0
  6
Continuous
 62
     7
370
    18
100
AcDbSpline
210
0.0
220
0.0
230
1.0
 70
     8
 71
     3
 72
    12
 73
     8
 74
     0
 42
0.000000001
 43
0.00000001
 40
0.0
 40
0.0
 40
0.0
 40
0.0
 40
0.1264898950829094
 40
0.2499216889095016
 40
0.4999002110562555
 40
0.7499192313532307
 40
1.0
 40
1.0
 40
1.0
 40
1.0
 10
264.561401476627
 20
182.1708046801033
 30
0.0
 10
264.558384351926
 20
182.1652175591936
 30
0.0
 10
264.552423046476
 20
182.1541783952114
 30
0.0
 10
264.5423110897589
 20
182.1326376560505
 30
0.0
 10
264.5324642575972
 20
182.1069640609061
 30
0.0
 10
264.5222154659826
 20
182.0770188849727
 30
0.0
 10
264.5166533060765
 20
182.0578584562667
 30
0.0
 10
264.5138718827378
 20
182.0482770590249
 30
0.0
  0
ARC
  5
20E
330
1F
100
AcDbEntity
  8
0
  6
Continuous
 62
     7
370
    18
100
AcDbCircle
 10
257.2819033816
 20
184.0920055701
 30
0.0
 40
7.515197577474132
100
AcDbArc
 50
343.1206379655
 51
344.2198972592
  0
LINE
  5
20F
330
1F
100
AcDbEntity
  8
0
  6
Continuous
 62
     7
370
    18
100
AcDbLine
 10
264.4733329684
 20
181.9099113636
 30
0.0
 11
265.1099586516
 21
182.2774275477
 31
0.0
  0
OLE2FRAME
  5
210
330
1F
100
AcDbEntity
  8
0
100
AcDbOle2Frame
 70
     2
  3
Paintbrush Picture
 10
229.0524258301
 20
33.6996297921
 30
0.0
 11
265.1686469208
 21
28.555479607
 31
0.0
 71
     2
 72
     0
 73
     1
 90
     7296
310
80557333EF78ADA16C40002412788DD94040000000000000000041161DC7B292
310
7040002412788DD94040000000000000000041161DC7B2927040F6DD59E9338E
310
3C4000000000000000007333EF78ADA16C40F6DD59E9338E3C40000000000000
310
00000000000001000000000100000100000001000000000001000000001C0000
310
D0CF11E0A1B11AE1000000000000000000000000000000003E000300FEFF0900
310
0600000000000000000000000100000001000000000000000010000002000000
310
01000000FEFFFFFF0000000000000000FFFFFFFFFFFFFFFFFFFFFFFFFFFFFFFF
310
FFFFFFFFFFFFFFFFFFFFFFFFFFFFFFFFFFFFFFFFFFFFFFFFFFFFFFFFFFFFFFFF
310
FFFFFFFFFFFFFFFFFFFFFFFFFFFFFFFFFFFFFFFFFFFFFFFFFFFFFFFFFFFFFFFF
310
FFFFFFFFFFFFFFFFFFFFFFFFFFFFFFFFFFFFFFFFFFFFFFFFFFFFFFFFFFFFFFFF
310
FFFFFFFFFFFFFFFFFFFFFFFFFFFFFFFFFFFFFFFFFFFFFFFFFFFFFFFFFFFFFFFF
310
FFFFFFFFFFFFFFFFFFFFFFFFFFFFFFFFFFFFFFFFFFFFFFFFFFFFFFFFFFFFFFFF
310
FFFFFFFFFFFFFFFFFFFFFFFFFFFFFFFFFFFFFFFFFFFFFFFFFFFFFFFFFFFFFFFF
310
FFFFFFFFFFFFFFFFFFFFFFFFFFFFFFFFFFFFFFFFFFFFFFFFFFFFFFFFFFFFFFFF
310
FFFFFFFFFFFFFFFFFFFFFFFFFFFFFFFFFFFFFFFFFFFFFFFFFFFFFFFFFFFFFFFF
310
FFFFFFFFFFFFFFFFFFFFFFFFFFFFFFFFFFFFFFFFFFFFFFFFFFFFFFFFFFFFFFFF
310
FFFFFFFFFFFFFFFFFFFFFFFFFFFFFFFFFFFFFFFFFFFFFFFFFFFFFFFFFFFFFFFF
310
FFFFFFFFFFFFFFFFFFFFFFFFFFFFFFFFFFFFFFFFFFFFFFFFFFFFFFFFFFFFFFFF
310
FFFFFFFFFFFFFFFFFFFFFFFFFFFFFFFFFFFFFFFFFFFFFFFFFFFFFFFFFFFFFFFF
310
FFFFFFFFFFFFFFFFFFFFFFFFFFFFFFFFFFFFFFFFFFFFFFFFFFFFFFFFFFFFFFFF
310
FDFFFFFFFEFFFFFFFEFFFFFFFEFFFFFF05000000060000000700000008000000
310
090000000A0000000B0000000C000000FEFFFFFFFFFFFFFFFFFFFFFFFFFFFFFF
310
FFFFFFFFFFFFFFFFFFFFFFFFFFFFFFFFFFFFFFFFFFFFFFFFFFFFFFFFFFFFFFFF
310
FFFFFFFFFFFFFFFFFFFFFFFFFFFFFFFFFFFFFFFFFFFFFFFFFFFFFFFFFFFFFFFF
310
FFFFFFFFFFFFFFFFFFFFFFFFFFFFFFFFFFFFFFFFFFFFFFFFFFFFFFFFFFFFFFFF
310
FFFFFFFFFFFFFFFFFFFFFFFFFFFFFFFFFFFFFFFFFFFFFFFFFFFFFFFFFFFFFFFF
310
FFFFFFFFFFFFFFFFFFFFFFFFFFFFFFFFFFFFFFFFFFFFFFFFFFFFFFFFFFFFFFFF
310
FFFFFFFFFFFFFFFFFFFFFFFFFFFFFFFFFFFFFFFFFFFFFFFFFFFFFFFFFFFFFFFF
310
FFFFFFFFFFFFFFFFFFFFFFFFFFFFFFFFFFFFFFFFFFFFFFFFFFFFFFFFFFFFFFFF
310
FFFFFFFFFFFFFFFFFFFFFFFFFFFFFFFFFFFFFFFFFFFFFFFFFFFFFFFFFFFFFFFF
310
FFFFFFFFFFFFFFFFFFFFFFFFFFFFFFFFFFFFFFFFFFFFFFFFFFFFFFFFFFFFFFFF
310
FFFFFFFFFFFFFFFFFFFFFFFFFFFFFFFFFFFFFFFFFFFFFFFFFFFFFFFFFFFFFFFF
310
FFFFFFFFFFFFFFFFFFFFFFFFFFFFFFFFFFFFFFFFFFFFFFFFFFFFFFFFFFFFFFFF
310
FFFFFFFFFFFFFFFFFFFFFFFFFFFFFFFFFFFFFFFFFFFFFFFFFFFFFFFFFFFFFFFF
310
FFFFFFFFFFFFFFFFFFFFFFFFFFFFFFFFFFFFFFFFFFFFFFFFFFFFFFFFFFFFFFFF
310
FFFFFFFFFFFFFFFFFFFFFFFFFFFFFFFFFFFFFFFFFFFFFFFFFFFFFFFFFFFFFFFF
310
52006F006F007400200045006E00740072007900000000000000000000000000
310
0000000000000000000000000000000000000000000000000000000000000000
310
16000500FFFFFFFFFFFFFFFF020000000A00030000000000C000000000000046
310
000000000000000000000000608BAADAF561D60103000000C000000000000000
310
01004F006C006500000000000000000000000000000000000000000000000000
310
0000000000000000000000000000000000000000000000000000000000000000
310
0A000200FFFFFFFFFFFFFFFFFFFFFFFF00000000000000000000000000000000
310
0000000000000000000000000000000000000000000000001400000000000000
310
010043006F006D0070004F0062006A0000000000000000000000000000000000
310
0000000000000000000000000000000000000000000000000000000000000000
310
120002010100000003000000FFFFFFFF00000000000000000000000000000000
310
0000000000000000000000000000000000000000010000004D00000000000000
310
01004F006C006500310030004E00610074006900760065000000000000000000
310
0000000000000000000000000000000000000000000000000000000000000000
310
1A000200FFFFFFFFFFFFFFFFFFFFFFFF00000000000000000000000000000000
310
000000000000000000000000000000000000000004000000E411000000000000
310
FEFFFFFF02000000FEFFFFFFFFFFFFFFFFFFFFFFFFFFFFFFFFFFFFFFFFFFFFFF
310
FFFFFFFFFFFFFFFFFFFFFFFFFFFFFFFFFFFFFFFFFFFFFFFFFFFFFFFFFFFFFFFF
310
FFFFFFFFFFFFFFFFFFFFFFFFFFFFFFFFFFFFFFFFFFFFFFFFFFFFFFFFFFFFFFFF
310
FFFFFFFFFFFFFFFFFFFFFFFFFFFFFFFFFFFFFFFFFFFFFFFFFFFFFFFFFFFFFFFF
310
FFFFFFFFFFFFFFFFFFFFFFFFFFFFFFFFFFFFFFFFFFFFFFFFFFFFFFFFFFFFFFFF
310
FFFFFFFFFFFFFFFFFFFFFFFFFFFFFFFFFFFFFFFFFFFFFFFFFFFFFFFFFFFFFFFF
310
FFFFFFFFFFFFFFFFFFFFFFFFFFFFFFFFFFFFFFFFFFFFFFFFFFFFFFFFFFFFFFFF
310
FFFFFFFFFFFFFFFFFFFFFFFFFFFFFFFFFFFFFFFFFFFFFFFFFFFFFFFFFFFFFFFF
310
FFFFFFFFFFFFFFFFFFFFFFFFFFFFFFFFFFFFFFFFFFFFFFFFFFFFFFFFFFFFFFFF
310
FFFFFFFFFFFFFFFFFFFFFFFFFFFFFFFFFFFFFFFFFFFFFFFFFFFFFFFFFFFFFFFF
310
FFFFFFFFFFFFFFFFFFFFFFFFFFFFFFFFFFFFFFFFFFFFFFFFFFFFFFFFFFFFFFFF
310
FFFFFFFFFFFFFFFFFFFFFFFFFFFFFFFFFFFFFFFFFFFFFFFFFFFFFFFFFFFFFFFF
310
FFFFFFFFFFFFFFFFFFFFFFFFFFFFFFFFFFFFFFFFFFFFFFFFFFFFFFFFFFFFFFFF
310
FFFFFFFFFFFFFFFFFFFFFFFFFFFFFFFFFFFFFFFFFFFFFFFFFFFFFFFFFFFFFFFF
310
FFFFFFFFFFFFFFFFFFFFFFFFFFFFFFFFFFFFFFFFFFFFFFFFFFFFFFFFFFFFFFFF
310
FFFFFFFFFFFFFFFFFFFFFFFFFFFFFFFFFFFFFFFFFFFFFFFFFFFFFFFFFFFFFFFF
310
0100000200000000000000000000000000000000000000000000000000000000
310
0000000000000000000000000000000000000000000000000000000000000000
310
0100FEFF030A0000FFFFFFFF0A00030000000000C00000000000004607000000
310
5042727573680007000000504272757368000700000050427275736800F439B2
310
7100000000000000000000000000000000000000000000000000000000000000
310
0000000000000000000000000000000000000000000000000000000000000000
310
0000000000000000000000000000000000000000000000000000000000000000
310
0000000000000000000000000000000000000000000000000000000000000000
310
0000000000000000000000000000000000000000000000000000000000000000
310
0000000000000000000000000000000000000000000000000000000000000000
310
0000000000000000000000000000000000000000000000000000000000000000
310
0000000000000000000000000000000000000000000000000000000000000000
310
0000000000000000000000000000000000000000000000000000000000000000
310
0000000000000000000000000000000000000000000000000000000000000000
310
0000000000000000000000000000000000000000000000000000000000000000
310
0000000000000000000000000000000000000000000000000000000000000000
310
E0110000424DDE11000000000000360400002800000096000000170000000100
310
08000000000000000000E7240000E72400000001000000010000000000FF0101
310
01FF020202FF030303FF040404FF050505FF060606FF070707FF080808FF0909
310
09FF0A0A0AFF0B0B0BFF0C0C0CFF0D0D0DFF0E0E0EFF0F0F0FFF101010FF1111
310
11FF121212FF131313FF141414FF151515FF161616FF171717FF181818FF1919
310
19FF1A1A1AFF1B1B1BFF1C1C1CFF1D1D1DFF1E1E1EFF1F1F1FFF202020FF2121
310
21FF222222FF232323FF242424FF252525FF262626FF272727FF282828FF2929
310
29FF2A2A2AFF2B2B2BFF2C2C2CFF2D2D2DFF2E2E2EFF2F2F2FFF303030FF3131
310
31FF323232FF333333FF343434FF353535FF363636FF373737FF383838FF3939
310
39FF3A3A3AFF3B3B3BFF3C3C3CFF3D3D3DFF3E3E3EFF3F3F3FFF404040FF4141
310
41FF424242FF434343FF444444FF454545FF464646FF474747FF484848FF4949
310
49FF4A4A4AFF4B4B4BFF4C4C4CFF4D4D4DFF4E4E4EFF4F4F4FFF505050FF5151
310
51FF525252FF535353FF545454FF555555FF565656FF575757FF585858FF5959
310
59FF5A5A5AFF5B5B5BFF5C5C5CFF5D5D5DFF5E5E5EFF5F5F5FFF606060FF6161
310
61FF626262FF636363FF646464FF656565FF666666FF676767FF686868FF6969
310
69FF6A6A6AFF6B6B6BFF6C6C6CFF6D6D6DFF6E6E6EFF6F6F6FFF707070FF7171
310
71FF727272FF737373FF747474FF757575FF767676FF777777FF787878FF7979
310
79FF7A7A7AFF7B7B7BFF7C7C7CFF7D7D7DFF7E7E7EFF7F7F7FFF808080FF8181
310
81FF828282FF838383FF848484FF858585FF868686FF878787FF888888FF8989
310
89FF8A8A8AFF8B8B8BFF8C8C8CFF8D8D8DFF8E8E8EFF8F8F8FFF909090FF9191
310
91FF929292FF939393FF949494FF959595FF969696FF979797FF989898FF9999
310
99FF9A9A9AFF9B9B9BFF9C9C9CFF9D9D9DFF9E9E9EFF9F9F9FFFA0A0A0FFA1A1
310
A1FFA2A2A2FFA3A3A3FFA4A4A4FFA5A5A5FFA6A6A6FFA7A7A7FFA8A8A8FFA9A9
310
A9FFAAAAAAFFABABABFFACACACFFADADADFFAEAEAEFFAFAFAFFFB0B0B0FFB1B1
310
B1FFB2B2B2FFB3B3B3FFB4B4B4FFB5B5B5FFB6B6B6FFB7B7B7FFB8B8B8FFB9B9
310
B9FFBABABAFFBBBBBBFFBCBCBCFFBDBDBDFFBEBEBEFFBFBFBFFFC0C0C0FFC1C1
310
C1FFC2C2C2FFC3C3C3FFC4C4C4FFC5C5C5FFC6C6C6FFC7C7C7FFC8C8C8FFC9C9
310
C9FFCACACAFFCBCBCBFFCCCCCCFFCDCDCDFFCECECEFFCFCFCFFFD0D0D0FFD1D1
310
D1FFD2D2D2FFD3D3D3FFD4D4D4FFD5D5D5FFD6D6D6FFD7D7D7FFD8D8D8FFD9D9
310
D9FFDADADAFFDBDBDBFFDCDCDCFFDDDDDDFFDEDEDEFFDFDFDFFFE0E0E0FFE1E1
310
E1FFE2E2E2FFE3E3E3FFE4E4E4FFE5E5E5FFE6E6E6FFE7E7E7FFE8E8E8FFE9E9
310
E9FFEAEAEAFFEBEBEBFFECECECFFEDEDEDFFEEEEEEFFEFEFEFFFF0F0F0FFF1F1
310
F1FFF2F2F2FFF3F3F3FFF4F4F4FFF5F5F5FFF6F6F6FFF7F7F7FFF8F8F8FFF9F9
310
F9FFFAFAFAFFFBFBFBFFFCFCFCFFFDFDFDFFFEFEFEFFFFFFFFFFFFFFFFFFFFFF
310
C94E4E4E4F4E4EFFFFFFFFFFC94E4E4E4E4E72FFFFFFFFFFFFFF734E4D4E4E4E
310
C9FFFFFFFFFFAA683516171616265B9BE9FFFFFFFFFF4E4E4E4D4E4EFFFFFFFF
310
FFFFFFFF4E4E4F4E4D4E4E4E4F4E4E4F4D4E4E4E4E4E4D4E4F4E4D4E4E4EAAFF
310
FFFFFFFFFFEA4E4F4F4E4E4E4E4E4D4D4F4F4E4E4E4E4E5B7FAAFFFFFFFFFFFF
310
C9744E1716171616164D8DEAFFFFFFFF0000FFFFFFFFFFFFBA161617161716FF
310
FFFFFFFFB917171616174FFFFFFFFFFFFFFF4E1716161616B9FFFFFFB9341717
310
1716171617171616268CFFFFFFFF161617161617FFFFFFFFFFFFFFB917161717
310
1617167F807F7F7F7F7F7F807F7F807F7F807F7F7F414EFFFFFFFFFFFF8C167F
310
7F807F7F7F7E7F7F807F807F7F807F4E3417258EFFFFEA4E162674AABAEAEBBA
310
AA74341680FFFFFF0000FFFFFFFFFFFFB9171717171617FFFFFFFFFFBB161616
310
16164EFFFFFFFFFFFFFF4E1717171717B9FFFF9C171617171716161616171616
310
171766FFFFFF161717161617FFFFFFFFFFFFFF8E16171717161616FFFFFFFFFF
310
FFFFFFFFFFFFFFFFFFFFFFFFFFAA16D9FFFFFFFFFF3467FFFFFFFFEAFFFFFFFF
310
FFFFFFFFFFFFFFFFFFCA671667EB26278DFFFFFFFFFFFFFFFFFFFF8C2541EAFF
310
0000FFFFFFFFFFFFB9171717171716FFFFFFFFFFBA16171617174EFFFFFFFFFF
310
FFFF4E1717161616BAFF9B1617161616171716171617161616161667FFFF1616
310
16161716FFFFFFFFFFFFFF7F16161617174017FFFFFFFFFFFFFFFFFFFFFFFFFF
310
FFFFFFFFFFFF344E7F7F7F7E7417DAFFFFFFFF80FFFFFFFFFFFFFFFFFFFFFFFF
310
FFFFFF9B163425CAFFFFFFFFFFFFFFFFFFFFFFFFCA2667FF0000FFFFFFFFFFFF
310
BA171717171617FFFFFFFFFFB916171716164EFFFFFFFFFFFFFF4F1716161717
310
B9C91716171616161716161617171616161617168DFF161716161717FFFFFFFF
310
FFFFFF7F17171716164F16FFFFFFFFFFFFFFFFFFFFFFFFFFFFFFFFFFFFFF9B16
310
17161617174EFFFFFFFFFF34FFFFFFFFD9BABABABABADAFFFFFFFFFF7F16AAFF
310
FFFFFFFFFFFFFFFFFFFFFFFFFF9C16BA0000FFFFFFFFFFFFB9161717161717FF
310
FFFFFFFFB917161716174DFFFFFFFFFFFFFF4E1616161616BA4E161617171716
310
419BEAEAAA4E16161617161726E9171717161616FFFFFFFFFFFFFF4F16161717
310
164E16FFFFFFFFFFBAB9B9B9B9B9BABABACAFFFFFFFFFFFFFFFFFFFFFFFFFFFF
310
FFFFBA16FFFFFFFF7F1617161617174DEAFFFFFFEA41FFFFFFFFFFAA4D16174E
310
9BFFFFFFFFFF34730000FFFFFFFFFFFFB9161617171617FFFFFFFFFFBA161616
310
16164EFFFFFFFFFFFFFF4F16161717169B1617161716175BFFFFFFFFFFFF7417
310
16171616168D171717161617FFFFFFFFFFFFEA2616171717167416FFFFFFFFFF
310
16171616171717171717EAFFFFFFFFFFFFFFFFFFFFFFFFFFFFFF6716FFFFFFFF
310
7F4EFFFFFFFFBA2573FFFFFFFFBAFFFFFFFFAA167FB9BB9B269BFFFFFFFF664F
310
0000FFFFFFFFFFFFB9171616161616FFFFFFFFFFBA16161717164EFFFFFFFFFF
310
FFFF4E16161616174E161617171626EAFFFFFFFFFFFFFF4E16161616164E1716
310
16161617FFFFFFFFFFFF671616161716347F16FFFFFFFFFF16B9FFFFFFFFFFFF
310
D9168DFFFFFFFFFFFFFFFFFFFFFFFFFFFFEA1716FFFFFFFF7F4EFFFFFFFFFF7F
310
4EFFFFFFFFFFFFFFFFFF5B66FFFFFFEA347FFFFFFFFF7F4D0000FFFFFFFFFFFF
310
B9171616171617FFFFFFFFFFBA17161716174EFFFFFFFFFFFFFF4D1716161617
310
17161716161673FFFFFFFFFFFFFFFF9B1617161717161616171616174F4E4E4E
310
4E341616171616167E7F16FFFFFFFFFF16BAFFFFFFFFFFFFFF5B41FFFFFFFF34
310
1616171616BAFFFFFF9B1716FFFFFFFF7F4EFFFFFFFFFF4E4EFFFFFFFF734E4E
310
4E4E267EDA9B67164EEAFFFFFFFF744D0000FFFFFFFFFFFFBA171717161617FF
310
FFFFFFFFBA1616171616347F7F7F7F80807F331616161717161717161716B9FF
310
FFFFFFFFFFFFFFE9161616161616171716161716171616161616171616171734
310
EA7F16FFFFFFFFFF16BAFFFFFFFFFFFFFFAA17C9FFFFFF7326BABA5B25FFFFFF
310
FF401716FFFFFFFF7F264F4E4E4E4217AAFFFFFFEA16677F73261616164173CA
310
FFFFFFFFFFFF417F0000FFFFFFFFFFFFBA171616171617FFFFFFFFFFBA161616
310
17171616161616161616161717161616161616161617EAFFFFFFFFFFFFFFFFFF
310
261717161716161617161616161617161617161616174EEAFF8016FFFFFFFFFF
310
17BAFFFFFFFFFFFFFFFF3467FFFFFFC916C9FF3467FFFFFFDA166716FFFFFFFF
310
9C4D4E4E4E4E67AAFFFFFFFF6834FF7F262567AAEAFFFFFFFFFFFFFFFF9B17D9
310
0000FFFFFFFFFFFFB9161616161616FFFFFFFFFFBA1617161717171616161616
310
1716171716161716161617171716FFFFFFFFFFFFFFFFFFFF4E17161716171616
310
1617171616161716171717161616169BFF7F17FFFFFFFFFF17B9FFFFFFFFFFFF
310
FFFF7326FFFFFFFF3473DA16AAFFFFFF7317AA16FFFFFFFFFFFFFFFFFFFFFFFF
310
FFFFEA6725BA4E167FEAFFFFFFFFFFFFFFFFFFFF9C167FFF0000FFFFFFFFFFFF
310
B9161717171716FFFFFFFFFFBA16161716171616171717161617161716161616
310
171617171617EAFFFFFFFFFFFFFFFFFF26161717161616161616161617171616
310
1616161616171616AA8016FFFFFFFFFF16BAFFFFFFFFFFFFFFFFDA179BFFFFFF
310
74348D26FFFFFFFF2566B917FFFFFFFFD8BAB9BAB9BADAFFFFEA41169B7425C9
310
FFFFFFFFFFFFFFFFFFFFAB4F1680FFFF0000FFFFFFFFFFFFBA161717171617FF
310
FFFFFFFFBA17161717161617171617161616161617171616171716171617BBFF
310
FFFFFFFFFFFFFFE9171616161617161617161716FFFFFFFFFFD9671616161617
310
348017FFFFFFFFFF16BAFFFFFFFFFFFFFFFFFF4E5AFFFFFFC916265AFFFFFFAA
310
16AABA16FFFFFFFF7F1617161616179BFFFFEB4127168DFFFFFFFFFFFFFFD99B
310
6734175AC9FFFFFF0000FFFFFFFFFFFFB9161617171617FFFFFFFFFFBB161616
310
1616347F807F7F7F7F8033171716171617171616161672FFFFFFFFFFFFFFFF9C
310
171617171617161716161617FFFFFFFFFFFFFF4117161616174E17FFFFFFFFFF
310
16BAFFFFFFFFFFFFFFFFFF9B16DAFFFFFF34169BFFFFFF5A26FFB917FFFFFFFF
310
7F4EFFFFFFEA5B26FFFFFFEA2616EAFFFFFFFFDA743416331617414E4E4E4ECA
310
0000FFFFFFFFFFFFBA161716161616FFFFFFFFFFBA17171616164EFFFFFFFFFF
310
FFFF4E16161717174E161717171626EBFFFFFFFFFFFFFF4E16161617165B1616
310
16171617FFFFFFFFFFFFFF6716161616161617FFFFFFFFFF16BAFFFFFFFFFFFF
310
FFFFFFEA268CFFFFFF7316EAFFFFEB1774FFB916FFFFFFFF7F4EFFFFFFFF7316
310
FFFFFFFF6826FFFFFFFFEB264D9CEABA257F807F7F6616BA0000FFFFFFFFFFFF
310
BA161716161616FFFFFFFFFFBA16171616164DFFFFFFFFFFFFFF4E1617161617
310
9B1617171717165BEBFFFFFFFFFF671616161617179B171616161616FFFFFFFF
310
FFFFFF3417161617171617FFFFFFFFFF17BAFFFFFFFFFFFFFFFFFFFF6734FFFF
310
FFEBCAFFFFFF8D17C9FFBA17FFFFFFFF7F357F808066174FFFFFFFFF7F16FFFF
310
FFFFD91673B99B415BFFFFFFFFBA16DA00009B7F7F7F807F671617161616167F
310
80807F7E6617161616164EFFFFFFFFFFFFFF4E1616161617B94E171716161616
310
349BC9D9AA4E16171616161634FF161617161717B9B9BAB9BA9B411716171716
310
163416FFFFFFFFFF16B9FFFFFFFFFFFFFFFFFFFFC917CAFFFFFFFFFFFFFF3342
310
FFFFBA17FFFFFFFF9B4E4E4F4E4E66EAFFFFFFFF5B16C9FFFFFFFFAA4E164E73
310
EAFFFFFFFF8D26FF00004E161716161616171617171616171717171617161616
310
17174EFFFFFFFFFFFFFF4E1717171616B9D92616171716171716171717171716
310
16171716AAFF161717171617161617171616161617161716166717FFFFFFFFFF
310
17B9FFFFFFFFFFFFFFFFFFFFFF3467FFFFFFFFFFFFCA168CFFFFBB17FFFFFFFF
310
FFFFFFFFFFFFFFFFFFFFFFEA26265BFFFFFFFFFFFFFFFFFFFFFFFFFFEA3467FF
310
00004D16161616161617161717161617161616171617171616164EFFFFFFFFFF
310
FFFF4D1617161616BAFF9B1616161616161716161616171717161766FFFF1616
310
16171617161617161716171616171717667F16FFFFFFFFFF17BAFFFFFFFFFFFF
310
FFFFFFFFFF8C26EAFFFFFFFFFF6617EAFFFFBA17FFFFFFFFFFFFFFFFFFFFFFFF
310
FFFFEA5A25BA269BFFFFFFFFFFFFFFFFFFFFFFFF6616DAFF00004E1616171616
310
1616161616161716161617171616171616174EFFFFFFFFFFFFFF4D1717171716
310
B9FFFF9C161616161616161716161717171667FFFFFF17161717171716161617
310
1716161616161641E97E16FFFFFFFFFF16B9FFFFFFFFFFFFFFFFFFFFFFEA169B
310
FFFFFFFFEA265BFFFFFFB916FFFFFFFFFFFFFFFFFFFFFFFFFF9B3416AAFF9B17
310
67EAFFFFFFFFFFFFFFFFEA5B169BFFFF00004D17161716161616161717171616
310
161717161716171716174EFFFFFFFFFFFFFF4D1616161616BAFFFFFFBB411616
310
161716161616171634ABFFFFFFFF161716161617171716171617171617267FFF
310
FF7F164E4E4E4E4F17BAFFFFFFFFFFFFFFFFFFFFFFFF66344D4E4E4F4117AAFF
310
FFFFBA174E4E4E4D4E4D4D4E4E4E4E4116174EBBFFFFFFCA342666ABEAFFFFEA
310
AA6725269CFFFFFF0000724F4E4D4D4D4E4D4D4E4E4E4D4E4E4E4E4E4E4E4E4D
310
4E4E74FFFFFFFFFFFFFF734E4E4E4D4ECAFFFFFFFFFFAA663416171717265B9B
310
FFFFFFFFFFFF7F8080807F80807F7F7F7F7F807FBAFFFFFFFF9B4E4E4F4D4D4E
310
4DC9FFFFFFFFFFFFFFFFFFFFFFFFBA4E4E4E4E4D4E4EFFFFFFFFC94E4E4E4F4E
310
4E4E4D4E4E5A807F9CD9FFFFFFFFFFFFFF9B5B2617171716174E8DEAFFFFFFFF
310
0000000000000000000000000000000000000000000000000000000000000000
  1
OLE
  0
ENDSEC
  0
SECTION
  2
OBJECTS
  0
DICTIONARY
  5
C
330
0
100
AcDbDictionary
281
     1
  3
ACAD_GROUP
350
D
  3
ACAD_LAYOUT
350
1A
  3
ACAD_MLINESTYLE
350
17
  3
ACAD_PLOTSETTINGS
350
19
  3
ACAD_PLOTSTYLENAME
350
E
  3
ACAD_SCALELIST
350
47
  0
DICTIONARY
  5
D
102
{ACAD_REACTORS
330
C
102
}
330
C
100
AcDbDictionary
281
     1
  0
DICTIONARY
  5
1A
102
{ACAD_REACTORS
330
C
102
}
330
C
100
AcDbDictionary
281
     1
  3
Layout1
350
1E
  3
Layout2
350
26
  3
Model
350
22
  0
DICTIONARY
  5
17
102
{ACAD_REACTORS
330
C
102
}
330
C
100
AcDbDictionary
281
     1
  3
Standard
350
18
  0
DICTIONARY
  5
19
102
{ACAD_REACTORS
330
C
102
}
330
C
100
AcDbDictionary
281
     1
  0
ACDBDICTIONARYWDFLT
  5
E
102
{ACAD_REACTORS
330
C
102
}
330
C
100
AcDbDictionary
281
     1
  3
Normal
350
F
100
AcDbDictionaryWithDefault
340
F
  0
DICTIONARY
  5
47
102
{ACAD_REACTORS
330
C
102
}
330
C
100
AcDbDictionary
281
     1
  3
A0
350
48
  3
A1
350
49
  3
A2
350
4A
  3
A3
350
4B
  3
A4
350
4C
  3
A5
350
4D
  3
A6
350
4E
  3
A7
350
4F
  3
A8
350
50
  3
A9
350
51
  3
B0
350
52
  3
B1
350
53
  3
B2
350
54
  3
B3
350
55
  3
B4
350
56
  3
B5
350
57
  3
B6
350
58
  3
B7
350
59
  3
B8
350
5A
  3
B9
350
5B
  3
C0
350
5C
  3
C1
350
5D
  3
C2
350
5E
  3
C3
350
5F
  3
C4
350
60
  3
C5
350
61
  3
C6
350
62
  3
C7
350
63
  3
C8
350
64
  3
C9
350
65
  3
D0
350
66
  3
D1
350
67
  3
D2
350
68
  0
LAYOUT
  5
1E
102
{ACAD_REACTORS
330
1A
102
}
330
1A
100
AcDbPlotSettings
  1

  2
none_device
  4

  6

 40
0.0
 41
0.0
 42
0.0
 43
0.0
 44
0.0
 45
0.0
 46
0.0
 47
0.0
 48
0.0
 49
0.0
140
0.0
141
0.0
142
1.0
143
1.0
 70
   688
 72
     1
 73
     0
 74
     5
  7

 75
    16
147
1.0
148
0.0
149
0.0
100
AcDbLayout
  1
Layout1
 70
     1
 71
     1
 10
0.0
 20
0.0
 11
420.0
 21
297.0
 12
0.0
 22
0.0
 32
0.0
 14
1.0000000000E+20
 24
1.0000000000E+20
 34
1.0000000000E+20
 15
-1.0000000000E+20
 25
-1.0000000000E+20
 35
-1.0000000000E+20
146
0.0
 13
0.0
 23
0.0
 33
0.0
 16
1.0
 26
0.0
 36
0.0
 17
0.0
 27
1.0
 37
0.0
 76
     0
330
1B
  0
LAYOUT
  5
26
102
{ACAD_REACTORS
330
1A
102
}
330
1A
100
AcDbPlotSettings
  1

  2
none_device
  4

  6

 40
0.0
 41
0.0
 42
0.0
 43
0.0
 44
0.0
 45
0.0
 46
0.0
 47
0.0
 48
0.0
 49
0.0
140
0.0
141
0.0
142
1.0
143
1.0
 70
   688
 72
     1
 73
     0
 74
     5
  7

 75
    16
147
1.0
148
0.0
149
0.0
100
AcDbLayout
  1
Layout2
 70
     1
 71
     2
 10
0.0
 20
0.0
 11
0.0
 21
0.0
 12
0.0
 22
0.0
 32
0.0
 14
0.0
 24
0.0
 34
0.0
 15
0.0
 25
0.0
 35
0.0
146
0.0
 13
0.0
 23
0.0
 33
0.0
 16
1.0
 26
0.0
 36
0.0
 17
0.0
 27
1.0
 37
0.0
 76
     0
330
23
  0
LAYOUT
  5
22
102
{ACAD_REACTORS
330
1A
102
}
330
1A
100
AcDbPlotSettings
  1

  2
none_device
  4
Letter_(8.50_x_11.00_Inches)
  6

 40
6.35
 41
6.35
 42
6.35000508
 43
6.35000508
 44
215.9
 45
279.4
 46
0.0
 47
0.0
 48
0.0
 49
0.0
140
0.0
141
0.0
142
1.0
143
1.0
 70
  1712
 72
     1
 73
     0
 74
     0
  7

 75
     0
147
1.0
148
0.0
149
0.0
100
AcDbLayout
  1
Model
 70
     1
 71
     0
 10
0.0
 20
0.0
 11
279.4
 21
215.9
 12
0.0
 22
0.0
 32
0.0
 14
0.0
 24
0.0
 34
0.0
 15
279.4
 25
215.9
 35
0.0
146
0.0
 13
0.0
 23
0.0
 33
0.0
 16
1.0
 26
0.0
 36
0.0
 17
0.0
 27
1.0
 37
0.0
 76
     0
330
1F
331
29
  0
MLINESTYLE
  5
18
102
{ACAD_REACTORS
330
17
102
}
330
17
100
AcDbMlineStyle
  2
Standard
 70
     0
  3

 62
   256
 51
90.0
 52
90.0
 71
     2
 49
0.5
 62
   256
  6
BYLAYER
 49
-0.5
 62
   256
  6
BYLAYER
  0
ACDBPLACEHOLDER
  5
F
102
{ACAD_REACTORS
330
E
102
}
330
E
  0
SCALE
  5
48
102
{ACAD_REACTORS
330
47
102
}
330
47
100
AcDbScale
 70
     0
300
1:1
140
1.0
141
1.0
290
     1
  0
SCALE
  5
49
102
{ACAD_REACTORS
330
47
102
}
330
47
100
AcDbScale
 70
     0
300
1:2
140
1.0
141
2.0
290
     0
  0
SCALE
  5
4A
102
{ACAD_REACTORS
330
47
102
}
330
47
100
AcDbScale
 70
     0
300
1:4
140
1.0
141
4.0
290
     0
  0
SCALE
  5
4B
102
{ACAD_REACTORS
330
47
102
}
330
47
100
AcDbScale
 70
     0
300
1:5
140
1.0
141
5.0
290
     0
  0
SCALE
  5
4C
102
{ACAD_REACTORS
330
47
102
}
330
47
100
AcDbScale
 70
     0
300
1:8
140
1.0
141
8.0
290
     0
  0
SCALE
  5
4D
102
{ACAD_REACTORS
330
47
102
}
330
47
100
AcDbScale
 70
     0
300
1:10
140
1.0
141
10.0
290
     0
  0
SCALE
  5
4E
102
{ACAD_REACTORS
330
47
102
}
330
47
100
AcDbScale
 70
     0
300
1:16
140
1.0
141
16.0
290
     0
  0
SCALE
  5
4F
102
{ACAD_REACTORS
330
47
102
}
330
47
100
AcDbScale
 70
     0
300
1:20
140
1.0
141
20.0
290
     0
  0
SCALE
  5
50
102
{ACAD_REACTORS
330
47
102
}
330
47
100
AcDbScale
 70
     0
300
1:30
140
1.0
141
30.0
290
     0
  0
SCALE
  5
51
102
{ACAD_REACTORS
330
47
102
}
330
47
100
AcDbScale
 70
     0
300
1:40
140
1.0
141
40.0
290
     0
  0
SCALE
  5
52
102
{ACAD_REACTORS
330
47
102
}
330
47
100
AcDbScale
 70
     0
300
1:50
140
1.0
141
50.0
290
     0
  0
SCALE
  5
53
102
{ACAD_REACTORS
330
47
102
}
330
47
100
AcDbScale
 70
     0
300
1:100
140
1.0
141
100.0
290
     0
  0
SCALE
  5
54
102
{ACAD_REACTORS
330
47
102
}
330
47
100
AcDbScale
 70
     0
300
2:1
140
2.0
141
1.0
290
     0
  0
SCALE
  5
55
102
{ACAD_REACTORS
330
47
102
}
330
47
100
AcDbScale
 70
     0
300
4:1
140
4.0
141
1.0
290
     0
  0
SCALE
  5
56
102
{ACAD_REACTORS
330
47
102
}
330
47
100
AcDbScale
 70
     0
300
8:1
140
8.0
141
1.0
290
     0
  0
SCALE
  5
57
102
{ACAD_REACTORS
330
47
102
}
330
47
100
AcDbScale
 70
     0
300
10:1
140
10.0
141
1.0
290
     0
  0
SCALE
  5
58
102
{ACAD_REACTORS
330
47
102
}
330
47
100
AcDbScale
 70
     0
300
100:1
140
100.0
141
1.0
290
     0
  0
SCALE
  5
59
102
{ACAD_REACTORS
330
47
102
}
330
47
100
AcDbScale
 70
     0
300
1/128" = 1'-0"
140
0.0078125
141
12.0
290
     0
  0
SCALE
  5
5A
102
{ACAD_REACTORS
330
47
102
}
330
47
100
AcDbScale
 70
     0
300
1/64" = 1'-0"
140
0.015625
141
12.0
290
     0
  0
SCALE
  5
5B
102
{ACAD_REACTORS
330
47
102
}
330
47
100
AcDbScale
 70
     0
300
1/32" = 1'-0"
140
0.03125
141
12.0
290
     0
  0
SCALE
  5
5C
102
{ACAD_REACTORS
330
47
102
}
330
47
100
AcDbScale
 70
     0
300
1/16" = 1'-0"
140
0.0625
141
12.0
290
     0
  0
SCALE
  5
5D
102
{ACAD_REACTORS
330
47
102
}
330
47
100
AcDbScale
 70
     0
300
3/32" = 1'-0"
140
0.09375
141
12.0
290
     0
  0
SCALE
  5
5E
102
{ACAD_REACTORS
330
47
102
}
330
47
100
AcDbScale
 70
     0
300
1/8" = 1'-0"
140
0.125
141
12.0
290
     0
  0
SCALE
  5
5F
102
{ACAD_REACTORS
330
47
102
}
330
47
100
AcDbScale
 70
     0
300
3/16" = 1'-0"
140
0.1875
141
12.0
290
     0
  0
SCALE
  5
60
102
{ACAD_REACTORS
330
47
102
}
330
47
100
AcDbScale
 70
     0
300
1/4" = 1'-0"
140
0.25
141
12.0
290
     0
  0
SCALE
  5
61
102
{ACAD_REACTORS
330
47
102
}
330
47
100
AcDbScale
 70
     0
300
3/8" = 1'-0"
140
0.375
141
12.0
290
     0
  0
SCALE
  5
62
102
{ACAD_REACTORS
330
47
102
}
330
47
100
AcDbScale
 70
     0
300
1/2" = 1'-0"
140
0.5
141
12.0
290
     0
  0
SCALE
  5
63
102
{ACAD_REACTORS
330
47
102
}
330
47
100
AcDbScale
 70
     0
300
3/4" = 1'-0"
140
0.75
141
12.0
290
     0
  0
SCALE
  5
64
102
{ACAD_REACTORS
330
47
102
}
330
47
100
AcDbScale
 70
     0
300
1" = 1'-0"
140
1.0
141
12.0
290
     0
  0
SCALE
  5
65
102
{ACAD_REACTORS
330
47
102
}
330
47
100
AcDbScale
 70
     0
300
1-1/2" = 1'-0"
140
1.5
141
12.0
290
     0
  0
SCALE
  5
66
102
{ACAD_REACTORS
330
47
102
}
330
47
100
AcDbScale
 70
     0
300
3" = 1'-0"
140
3.0
141
12.0
290
     0
  0
SCALE
  5
67
102
{ACAD_REACTORS
330
47
102
}
330
47
100
AcDbScale
 70
     0
300
6" = 1'-0"
140
6.0
141
12.0
290
     0
  0
SCALE
  5
68
102
{ACAD_REACTORS
330
47
102
}
330
47
100
AcDbScale
 70
     0
300
1'-0" = 1'-0"
140
12.0
141
12.0
290
     0
  0
ENDSEC
  0
EOF
