  0
SECTION
  2
HEADER
  9
$ACADVER
  1
AC1015
  9
$ACADMAINTVER
 70
     6
  9
$DWGCODEPAGE
  3
ANSI_1252
  9
$INSBASE
 10
0.0
 20
0.0
 30
0.0
  9
$EXTMIN
 10
0.0
 20
0.0
 30
0.0
  9
$EXTMAX
 10
279.4
 20
215.9
 30
0.0
  9
$LIMMIN
 10
0.0
 20
0.0
  9
$LIMMAX
 10
279.4
 20
215.9
  9
$ORTHOMODE
 70
     0
  9
$REGENMODE
 70
     1
  9
$FILLMODE
 70
     1
  9
$QTEXTMODE
 70
     0
  9
$MIRRTEXT
 70
     1
  9
$LTSCALE
 40
1.0
  9
$ATTMODE
 70
     1
  9
$TEXTSIZE
 40
2.8222222222
  9
$TRACEWID
 40
1.0
  9
$TEXTSTYLE
  7
Standard
  9
$CLAYER
  8
0
  9
$CELTYPE
  6
ByLayer
  9
$CECOLOR
 62
   256
  9
$CELTSCALE
 40
1.0
  9
$DISPSILH
 70
     0
  9
$DIMSCALE
 40
1.0
  9
$DIMASZ
 40
3.175
  9
$DIMEXO
 40
1.27
  9
$DIMDLI
 40
3.75
  9
$DIMRND
 40
0.0
  9
$DIMDLE
 40
0.0
  9
$DIMEXE
 40
1.778
  9
$DIMTP
 40
0.0
  9
$DIMTM
 40
0.0
  9
$DIMTXT
 40
2.8222222222
  9
$DIMCEN
 40
2.5
  9
$DIMTSZ
 40
0.0
  9
$DIMTOL
 70
     0
  9
$DIMLIM
 70
     0
  9
$DIMTIH
 70
     1
  9
$DIMTOH
 70
     1
  9
$DIMSE1
 70
     0
  9
$DIMSE2
 70
     0
  9
$DIMTAD
 70
     0
  9
$DIMZIN
 70
     1
  9
$DIMBLK
  1

  9
$DIMASO
 70
     1
  9
$DIMSHO
 70
     1
  9
$DIMPOST
  1

  9
$DIMAPOST
  1

  9
$DIMALT
 70
     0
  9
$DIMALTD
 70
     3
  9
$DIMALTF
 40
0.0393700787
  9
$DIMLFAC
 40
1.0
  9
$DIMTOFL
 70
     1
  9
$DIMTVP
 40
0.0
  9
$DIMTIX
 70
     0
  9
$DIMSOXD
 70
     0
  9
$DIMSAH
 70
     0
  9
$DIMBLK1
  1

  9
$DIMBLK2
  1

  9
$DIMSTYLE
  2
ISO-25
  9
$DIMCLRD
 70
     0
  9
$DIMCLRE
 70
     0
  9
$DIMCLRT
 70
     0
  9
$DIMTFAC
 40
1.0
  9
$DIMGAP
 40
2.54
  9
$DIMJUST
 70
     0
  9
$DIMSD1
 70
     0
  9
$DIMSD2
 70
     0
  9
$DIMTOLJ
 70
     0
  9
$DIMTZIN
 70
     1
  9
$DIMALTZ
 70
     0
  9
$DIMALTTZ
 70
     0
  9
$DIMUPT
 70
     0
  9
$DIMDEC
 70
     1
  9
$DIMTDEC
 70
     1
  9
$DIMALTU
 70
     2
  9
$DIMALTTD
 70
     3
  9
$DIMTXSTY
  7
Standard
  9
$DIMAUNIT
 70
     0
  9
$DIMADEC
 70
     0
  9
$DIMALTRND
 40
0.0
  9
$DIMAZIN
 70
     0
  9
$DIMDSEP
 70
    44
  9
$DIMATFIT
 70
     3
  9
$DIMFRAC
 70
     0
  9
$DIMLDRBLK
  1

  9
$DIMLUNIT
 70
     2
  9
$DIMLWD
 70
    -2
  9
$DIMLWE
 70
    -2
  9
$DIMTMOVE
 70
     0
  9
$LUNITS
 70
     2
  9
$LUPREC
 70
     1
  9
$SKETCHINC
 40
1.0
  9
$FILLETRAD
 40
10.0
  9
$AUNITS
 70
     0
  9
$AUPREC
 70
     0
  9
$MENU
  1
.
  9
$ELEVATION
 40
0.0
  9
$PELEVATION
 40
0.0
  9
$THICKNESS
 40
0.0
  9
$LIMCHECK
 70
     0
  9
$CHAMFERA
 40
10.0
  9
$CHAMFERB
 40
10.0
  9
$CHAMFERC
 40
20.0
  9
$CHAMFERD
 40
0.0
  9
$SKPOLY
 70
     0
  9
$TDCREATE
 40
2456371.63311757
  9
$TDUCREATE
 40
2456371.799784236
  9
$TDUPDATE
 40
2456371.633120452
  9
$TDUUPDATE
 40
2456371.799787118
  9
$TDINDWG
 40
0.0000000116
  9
$TDUSRTIMER
 40
0.0000000116
  9
$USRTIMER
 70
     1
  9
$ANGBASE
 50
0.0
  9
$ANGDIR
 70
     0
  9
$PDMODE
 70
     0
  9
$PDSIZE
 40
-1.0
  9
$PLINEWID
 40
0.0
  9
$SPLFRAME
 70
     0
  9
$SPLINETYPE
 70
     6
  9
$SPLINESEGS
 70
     8
  9
$HANDSEED
  5
267
  9
$SURFTAB1
 70
     6
  9
$SURFTAB2
 70
     6
  9
$SURFTYPE
 70
     6
  9
$SURFU
 70
     6
  9
$SURFV
 70
     6
  9
$UCSBASE
  2

  9
$UCSNAME
  2

  9
$UCSORG
 10
0.0
 20
0.0
 30
0.0
  9
$UCSXDIR
 10
1.0
 20
0.0
 30
0.0
  9
$UCSYDIR
 10
0.0
 20
1.0
 30
0.0
  9
$UCSORTHOREF
  2

  9
$UCSORTHOVIEW
 70
     0
  9
$UCSORGTOP
 10
0.0
 20
0.0
 30
0.0
  9
$UCSORGBOTTOM
 10
0.0
 20
0.0
 30
0.0
  9
$UCSORGLEFT
 10
0.0
 20
0.0
 30
0.0
  9
$UCSORGRIGHT
 10
0.0
 20
0.0
 30
0.0
  9
$UCSORGFRONT
 10
0.0
 20
0.0
 30
0.0
  9
$UCSORGBACK
 10
0.0
 20
0.0
 30
0.0
  9
$PUCSBASE
  2

  9
$PUCSNAME
  2

  9
$PUCSORG
 10
0.0
 20
0.0
 30
0.0
  9
$PUCSXDIR
 10
1.0
 20
0.0
 30
0.0
  9
$PUCSYDIR
 10
0.0
 20
1.0
 30
0.0
  9
$PUCSORTHOREF
  2

  9
$PUCSORTHOVIEW
 70
     0
  9
$PUCSORGTOP
 10
0.0
 20
0.0
 30
0.0
  9
$PUCSORGBOTTOM
 10
0.0
 20
0.0
 30
0.0
  9
$PUCSORGLEFT
 10
0.0
 20
0.0
 30
0.0
  9
$PUCSORGRIGHT
 10
0.0
 20
0.0
 30
0.0
  9
$PUCSORGFRONT
 10
0.0
 20
0.0
 30
0.0
  9
$PUCSORGBACK
 10
0.0
 20
0.0
 30
0.0
  9
$USERI1
 70
     0
  9
$USERI2
 70
     0
  9
$USERI3
 70
     0
  9
$USERI4
 70
     0
  9
$USERI5
 70
     0
  9
$USERR1
 40
0.0
  9
$USERR2
 40
0.0
  9
$USERR3
 40
0.0
  9
$USERR4
 40
0.0
  9
$USERR5
 40
0.0
  9
$WORLDVIEW
 70
     1
  9
$SHADEDGE
 70
     3
  9
$SHADEDIF
 70
    70
  9
$TILEMODE
 70
     1
  9
$MAXACTVP
 70
    64
  9
$PINSBASE
 10
0.0
 20
0.0
 30
0.0
  9
$PLIMCHECK
 70
     0
  9
$PEXTMIN
 10
1.0000000000E+20
 20
1.0000000000E+20
 30
1.0000000000E+20
  9
$PEXTMAX
 10
-1.0000000000E+20
 20
-1.0000000000E+20
 30
-1.0000000000E+20
  9
$PLIMMIN
 10
0.0
 20
0.0
  9
$PLIMMAX
 10
420.0
 20
297.0
  9
$UNITMODE
 70
     0
  9
$VISRETAIN
 70
     1
  9
$PLINEGEN
 70
     0
  9
$PSLTSCALE
 70
     1
  9
$TREEDEPTH
 70
  3020
  9
$CMLSTYLE
  2
Standard
  9
$CMLJUST
 70
     0
  9
$CMLSCALE
 40
20.0
  9
$PROXYGRAPHICS
 70
     1
  9
$MEASUREMENT
 70
     1
  9
$CELWEIGHT
370
    -1
  9
$ENDCAPS
280
     0
  9
$JOINSTYLE
280
     0
  9
$LWDISPLAY
290
     1
  9
$INSUNITS
 70
     4
  9
$HYPERLINKBASE
  1

  9
$STYLESHEET
  1

  9
$XEDIT
290
     1
  9
$CEPSNTYPE
380
     0
  9
$PSTYLEMODE
290
     1
  9
$FINGERPRINTGUID
  2
{B5E38332-9840-4CFC-927F-0695B6BF0D92}
  9
$VERSIONGUID
  2
{FAEB1C32-E019-11D5-929B-00C0DF256EC4}
  9
$EXTNAMES
290
     1
  9
$PSVPSCALE
 40
0.0
  9
$OLESTARTUP
290
     0
  0
ENDSEC
  0
SECTION
  2
CLASSES
  0
CLASS
  1
ACDBDICTIONARYWDFLT
  2
AcDbDictionaryWithDefault
  3
ObjectDBX Classes
 90
        0
280
     0
281
     0
  0
CLASS
  1
VISUALSTYLE
  2
AcDbVisualStyle
  3
ObjectDBX Classes
 90
     4095
280
     0
281
     0
  0
CLASS
  1
MATERIAL
  2
AcDbMaterial
  3
ObjectDBX Classes
 90
     1153
280
     0
281
     0
  0
CLASS
  1
ACDBPLACEHOLDER
  2
AcDbPlaceHolder
  3
ObjectDBX Classes
 90
        0
280
     0
281
     0
  0
CLASS
  1
LAYOUT
  2
AcDbLayout
  3
ObjectDBX Classes
 90
        0
280
     0
281
     0
  0
ENDSEC
  0
SECTION
  2
TABLES
  0
TABLE
  2
VPORT
  5
8
330
0
100
AcDbSymbolTable
 70
     1
  0
VPORT
  5
29
330
8
100
AcDbSymbolTableRecord
100
AcDbViewportTableRecord
  2
*Active
 70
     0
 10
0.0
 20
0.0
 11
1.0
 21
1.0
 12
139.7
 22
107.95
 13
0.0
 23
0.0
 14
10.0
 24
10.0
 15
10.0
 25
10.0
 16
0.0
 26
0.0
 36
1.0
 17
0.0
 27
0.0
 37
0.0
 40
215.9
 41
1.2941176471
 42
50.0
 43
0.0
 44
0.0
 50
0.0
 51
0.0
 71
     0
 72
  2000
 73
     1
 74
     3
 75
     0
 76
     0
 77
     0
 78
     0
281
     0
 65
     1
110
0.0
120
0.0
130
0.0
111
1.0
121
0.0
131
0.0
112
0.0
122
1.0
132
0.0
 79
     0
146
0.0
  0
ENDTAB
  0
TABLE
  2
LTYPE
  5
5
330
0
100
AcDbSymbolTable
 70
     6
  0
LTYPE
  5
14
330
5
100
AcDbSymbolTableRecord
100
AcDbLinetypeTableRecord
  2
ByBlock
 70
     0
  3

 72
    65
 73
     0
 40
0.0
  0
LTYPE
  5
15
330
5
100
AcDbSymbolTableRecord
100
AcDbLinetypeTableRecord
  2
ByLayer
 70
     0
  3

 72
    65
 73
     0
 40
0.0
  0
LTYPE
  5
16
330
5
100
AcDbSymbolTableRecord
100
AcDbLinetypeTableRecord
  2
Continuous
 70
     0
  3
Solid line
 72
    65
 73
     0
 40
0.0
  0
LTYPE
  5
3F
330
5
100
AcDbSymbolTableRecord
100
AcDbLinetypeTableRecord
  2
HIDDEN
 70
     0
  3
Hidden __ __ __ __ __ __ __ __ __ __ __ __ __ __
 72
    65
 73
     2
 40
1.905
 49
1.27
 74
     0
 49
-0.635
 74
     0
  0
LTYPE
  5
40
330
5
100
AcDbSymbolTableRecord
100
AcDbLinetypeTableRecord
  2
PHANTOM
 70
     0
  3
Phantom ______  __  __  ______  __  __  ______
 72
    65
 73
     6
 40
12.7
 49
6.35
 74
     0
 49
-1.27
 74
     0
 49
1.27
 74
     0
 49
-1.27
 74
     0
 49
1.27
 74
     0
 49
-1.27
 74
     0
  0
LTYPE
  5
41
330
5
100
AcDbSymbolTableRecord
100
AcDbLinetypeTableRecord
  2
CENTER
 70
     0
  3
Center ____ _ ____ _ ____ _ ____ _ ____ _ ____
 72
    65
 73
     4
 40
10.16
 49
6.35
 74
     0
 49
-1.27
 74
     0
 49
1.27
 74
     0
 49
-1.27
 74
     0
  0
LTYPE
  5
42
330
5
100
AcDbSymbolTableRecord
100
AcDbLinetypeTableRecord
  2
CENTERX2
 70
     0
  3
Center (2x) ________  __  ________  __  _____
 72
    65
 73
     4
 40
20.32
 49
12.7
 74
     0
 49
-2.54
 74
     0
 49
2.54
 74
     0
 49
-2.54
 74
     0
  0
LTYPE
  5
43
330
5
100
AcDbSymbolTableRecord
100
AcDbLinetypeTableRecord
  2
DOT2
 70
     0
  3
Dot (.5x) ........................................
 72
    65
 73
     2
 40
0.635
 49
0.0
 74
     0
 49
-0.635
 74
     0
  0
ENDTAB
  0
TABLE
  2
LAYER
  5
2
330
0
100
AcDbSymbolTable
 70
     2
  0
LAYER
  5
10
330
2
100
AcDbSymbolTableRecord
100
AcDbLayerTableRecord
  2
0
 70
     0
 62
     7
  6
Continuous
370
    -3
390
F
  0
LAYER
  5
44
330
2
100
AcDbSymbolTableRecord
100
AcDbLayerTableRecord
  2
FORMAT
 70
     0
 62
     7
  6
Continuous
370
    -3
390
F
  0
ENDTAB
  0
TABLE
  2
STYLE
  5
3
330
0
100
AcDbSymbolTable
 70
     5
  0
STYLE
  5
11
330
3
100
AcDbSymbolTableRecord
100
AcDbTextStyleTableRecord
  2
Standard
 70
     0
 40
0.0
 41
1.0
 50
0.0
 71
     0
 42
2.8222222222
  3
txt
  4

  0
STYLE
  5
6E
330
3
100
AcDbSymbolTableRecord
100
AcDbTextStyleTableRecord
  2
SLDTEXTSTYLE0
 70
     0
 40
0.0
 41
0.75
 50
0.0
 71
     0
 42
0.2
  3
TXT
  4

  0
STYLE
  5
76
330
3
100
AcDbSymbolTableRecord
100
AcDbTextStyleTableRecord
  2
SLDTEXTSTYLE1
 70
     0
 40
0.0
 41
0.75
 50
0.0
 71
     0
 42
0.2
  3
TXT
  4
bigfont
  0
STYLE
  5
8B
330
3
100
AcDbSymbolTableRecord
100
AcDbTextStyleTableRecord
  2
SLDTEXTSTYLE2
 70
     0
 40
0.0
 41
0.7
 50
0.0
 71
     0
 42
0.2
  3
TXT
  4

  0
STYLE
  5
9E
330
3
100
AcDbSymbolTableRecord
100
AcDbTextStyleTableRecord
  2
SLDTEXTSTYLE3
 70
     0
 40
0.0
 41
0.6
 50
0.0
 71
     0
 42
0.2
  3
TXT
  4

  0
ENDTAB
  0
TABLE
  2
VIEW
  5
6
330
0
100
AcDbSymbolTable
 70
     0
  0
ENDTAB
  0
TABLE
  2
UCS
  5
7
330
0
100
AcDbSymbolTable
 70
     0
  0
ENDTAB
  0
TABLE
  2
APPID
  5
9
330
0
100
AcDbSymbolTable
 70
     1
  0
APPID
  5
12
330
9
100
AcDbSymbolTableRecord
100
AcDbRegAppTableRecord
  2
ACAD
 70
     0
  0
ENDTAB
  0
TABLE
  2
DIMSTYLE
  5
A
330
0
100
AcDbSymbolTable
 70
     4
100
AcDbDimStyleTable
  0
DIMSTYLE
105
27
330
A
100
AcDbSymbolTableRecord
100
AcDbDimStyleTableRecord
  2
ISO-25
 70
     0
 41
2.5
 42
0.625
 43
3.75
 44
1.25
 73
     0
 74
     0
 77
     1
 78
     8
140
2.5
141
2.5
143
0.0393700787
147
0.625
171
     3
172
     1
178
     0
271
     2
272
     2
274
     3
278
    44
283
     0
284
     8
340
11
  0
DIMSTYLE
105
16D
102
{ACAD_REACTORS
330
16C
102
}
330
A
100
AcDbSymbolTableRecord
100
AcDbDimStyleTableRecord
  2
SLDDIMSTYLE0
 70
     0
 41
3.175
 44
0.0
 45
0.000000001
 78
    12
 79
     3
140
2.1166666667
141
0.0
143
0.0393700787
147
0.5291666667
148
0.000000001
170
     1
173
     1
178
     0
271
     1
272
     1
276
     2
284
    12
340
6E
  0
DIMSTYLE
105
17E
330
A
100
AcDbSymbolTableRecord
100
AcDbDimStyleTableRecord
  2
SLDDIMSTYLE1
 70
     0
 41
3.175
 44
0.0
 45
0.000000001
140
0.0
146
3.175
147
0.0
173
     1
178
     0
271
     0
272
     0
276
     2
340
11
  0
DIMSTYLE
105
197
102
{ACAD_REACTORS
330
196
102
}
330
A
100
AcDbSymbolTableRecord
100
AcDbDimStyleTableRecord
  2
SLDDIMSTYLE2
 70
     0
 41
3.175
 44
0.0
 45
0.000000001
 78
     4
 79
     1
140
2.1166666667
143
0.0393700787
147
0.5291666667
148
0.000000001
170
     1
172
     1
173
     1
178
     0
271
     1
272
     1
276
     2
284
    12
289
     0
340
6E
  0
ENDTAB
  0
TABLE
  2
BLOCK_RECORD
  5
1
330
0
100
AcDbSymbolTable
 70
    11
  0
BLOCK_RECORD
  5
1F
330
1
100
AcDbSymbolTableRecord
100
AcDbBlockTableRecord
  2
*Model_Space
340
22
  0
BLOCK_RECORD
  5
1B
330
1
100
AcDbSymbolTableRecord
100
AcDbBlockTableRecord
  2
*Paper_Space
340
1E
  0
BLOCK_RECORD
  5
23
330
1
100
AcDbSymbolTableRecord
100
AcDbBlockTableRecord
  2
*Paper_Space0
340
26
  0
BLOCK_RECORD
  5
45
330
1
100
AcDbSymbolTableRecord
100
AcDbBlockTableRecord
  2
Third Angle Projection Block
340
0
102
{BLKREFS
331
6A
102
}
  0
BLOCK_RECORD
  5
6B
330
1
100
AcDbSymbolTableRecord
100
AcDbBlockTableRecord
  2
SW_NOTE_0
340
0
102
{BLKREFS
331
71
102
}
  0
BLOCK_RECORD
  5
72
330
1
100
AcDbSymbolTableRecord
100
AcDbBlockTableRecord
  2
SW_NOTE_1
340
0
102
{BLKREFS
331
92
102
}
  0
BLOCK_RECORD
  5
A4
330
1
100
AcDbSymbolTableRecord
100
AcDbBlockTableRecord
  2
SW_NOTE_2
340
0
102
{BLKREFS
331
A9
102
}
  0
BLOCK_RECORD
  5
AA
330
1
100
AcDbSymbolTableRecord
100
AcDbBlockTableRecord
  2
SW_NOTE_3
340
0
102
{BLKREFS
331
AF
102
}
  0
BLOCK_RECORD
  5
B1
330
1
100
AcDbSymbolTableRecord
100
AcDbBlockTableRecord
  2
SW_NOTE_4
340
0
102
{BLKREFS
331
B6
102
}
  0
BLOCK_RECORD
  5
B7
330
1
100
AcDbSymbolTableRecord
100
AcDbBlockTableRecord
  2
SW_NOTE_5
340
0
102
{BLKREFS
331
BD
102
}
  0
BLOCK_RECORD
  5
16E
330
1
100
AcDbSymbolTableRecord
100
AcDbBlockTableRecord
  2
_D
340
0
  0
BLOCK_RECORD
  5
180
330
1
100
AcDbSymbolTableRecord
100
AcDbBlockTableRecord
  2
SW_CENTERMARKSYMBOL_0
340
0
102
{BLKREFS
331
187
102
}
  0
BLOCK_RECORD
  5
198
330
1
100
AcDbSymbolTableRecord
100
AcDbBlockTableRecord
  2
_D_1
340
0
  0
ENDTAB
  0
ENDSEC
  0
SECTION
  2
BLOCKS
  0
BLOCK
  5
20
330
1F
100
AcDbEntity
  8
0
100
AcDbBlockBegin
  2
*Model_Space
 70
     0
 10
0.0
 20
0.0
 30
0.0
  3
*Model_Space
  1

  0
ENDBLK
  5
21
330
1F
100
AcDbEntity
  8
0
100
AcDbBlockEnd
  0
BLOCK
  5
1C
330
1B
100
AcDbEntity
 67
     1
  8
0
100
AcDbBlockBegin
  2
*Paper_Space
 70
     0
 10
0.0
 20
0.0
 30
0.0
  3
*Paper_Space
  1

  0
ENDBLK
  5
1D
330
1B
100
AcDbEntity
 67
     1
  8
0
100
AcDbBlockEnd
  0
BLOCK
  5
24
330
23
100
AcDbEntity
  8
0
100
AcDbBlockBegin
  2
*Paper_Space0
 70
     0
 10
0.0
 20
0.0
 30
0.0
  3
*Paper_Space0
  1

  0
ENDBLK
  5
25
330
23
100
AcDbEntity
  8
0
100
AcDbBlockEnd
  0
BLOCK
  5
46
330
45
100
AcDbEntity
  8
0
100
AcDbBlockBegin
  2
Third Angle Projection Block
 70
     0
 10
0.0
 20
0.0
 30
0.0
  3
Third Angle Projection Block
  1

  0
CIRCLE
  5
48
330
45
100
AcDbEntity
  8
0
  6
Continuous
 62
     7
370
    30
100
AcDbCircle
 10
101.4766388944
 20
18.9404083667
 30
0.0
 40
1.768227153674871
  0
CIRCLE
  5
49
330
45
100
AcDbEntity
  8
0
  6
Continuous
 62
     7
370
    30
100
AcDbCircle
 10
101.4766388944
 20
18.9404083667
 30
0.0
 40
3.901228248531818
  0
LINE
  5
4A
330
45
100
AcDbEntity
  8
0
  6
CENTERX2
 62
     7
370
     0
100
AcDbLine
 10
110.1367822585
 20
18.9404083667
 30
0.0
 11
119.4527334874
 21
18.9404083667
 31
0.0
  0
LINE
  5
4B
330
45
100
AcDbEntity
  8
0
  6
Continuous
 62
     7
370
    30
100
AcDbLine
 10
111.0016388944
 20
20.7086355204
 30
0.0
 11
111.0016388944
 21
17.172181213
 31
0.0
  0
LINE
  5
4C
330
45
100
AcDbEntity
  8
0
  6
Continuous
 62
     7
370
    30
100
AcDbLine
 10
111.0016388944
 20
17.172181213
 30
0.0
 11
118.6216388944
 21
15.1304083667
 31
0.0
  0
LINE
  5
4D
330
45
100
AcDbEntity
  8
0
  6
Continuous
 62
     7
370
    30
100
AcDbLine
 10
118.6216388944
 20
15.1304083667
 30
0.0
 11
118.6216388944
 21
22.7504083667
 31
0.0
  0
LINE
  5
4E
330
45
100
AcDbEntity
  8
0
  6
Continuous
 62
     7
370
    30
100
AcDbLine
 10
118.6216388944
 20
22.7504083667
 30
0.0
 11
111.0016388944
 21
20.7086355204
 31
0.0
  0
LINE
  5
4F
330
45
100
AcDbEntity
  8
0
  6
CENTERX2
 62
     7
370
     0
100
AcDbLine
 10
96.6025854619
 20
18.9404083667
 30
0.0
 11
106.3506923269
 21
18.9404083667
 31
0.0
  0
LINE
  5
50
330
45
100
AcDbEntity
  8
0
  6
CENTERX2
 62
     7
370
     0
100
AcDbLine
 10
101.4766388944
 20
23.8144617992
 30
0.0
 11
101.4766388944
 21
14.0663549342
 31
0.0
  0
POINT
  5
51
330
45
100
AcDbEntity
  8
0
  6
Continuous
 62
     7
370
     0
100
AcDbPoint
 10
101.4766388944
 20
18.9404083667
 30
0.0
  0
ENDBLK
  5
47
330
45
100
AcDbEntity
  8
0
100
AcDbBlockEnd
  0
BLOCK
  5
6C
330
6B
100
AcDbEntity
  8
0
100
AcDbBlockBegin
  2
SW_NOTE_0
 70
     0
 10
0.0
 20
0.0
 30
0.0
  3
SW_NOTE_0
  1

  0
MTEXT
  5
6F
330
6B
100
AcDbEntity
  8
0
  6
Continuous
 62
     0
370
     0
100
AcDbMText
 10
33.43671875
 20
2.7285267159
 30
0.0
 40
2.1166666667
 41
0.0
 71
     2
 72
     1
  1
THE BARE GOLD SURFACE IS FRAGILE AND SHOULD
  7
SLDTEXTSTYLE0
 73
     1
 44
1.0
  0
MTEXT
  5
70
330
6B
100
AcDbEntity
  8
0
  6
Continuous
 62
     0
370
     0
100
AcDbMText
 10
33.5611682316
 20
-0.0936954723
 30
0.0
 40
2.1166666667
 41
0.0
 71
     2
 72
     1
  1
ONLY BE MAINTAINED WITH COMPRESSED AIR
  7
SLDTEXTSTYLE0
 73
     1
 44
1.0
  0
ENDBLK
  5
6D
330
6B
100
AcDbEntity
  8
0
100
AcDbBlockEnd
  0
BLOCK
  5
73
330
72
100
AcDbEntity
  8
0
100
AcDbBlockBegin
  2
SW_NOTE_1
 70
     0
 10
0.0
 20
0.0
 30
0.0
  3
SW_NOTE_1
  1

  0
MTEXT
  5
75
330
72
100
AcDbEntity
  8
0
  6
Continuous
 62
     0
370
     0
100
AcDbMText
 10
0.0
 20
3.0695925553
 30
0.0
 40
2.38125
 41
0.0
 71
     1
 72
     1
  1
NOTES/SPECIFICATIONS:
  7
SLDTEXTSTYLE0
 73
     1
 44
1.0
  0
MTEXT
  5
77
330
72
100
AcDbEntity
  8
0
  6
Continuous
 62
     0
370
     0
100
AcDbMText
 10
9.9999997765
 20
-0.1054074063
 30
0.0
 40
2.38125
 41
0.0
 71
     1
 72
     1
  1
DESIGN WAVELENGTH: 10.6\M+183CAm
  7
SLDTEXTSTYLE1
 73
     1
 44
1.0
  0
MTEXT
  5
78
330
72
100
AcDbEntity
  8
0
  6
Continuous
 62
     0
370
     0
100
AcDbMText
 10
0.0
 20
-0.1054074063
 30
0.0
 40
2.38125
 41
0.0
 71
     1
 72
     1
  1
1.
  7
SLDTEXTSTYLE0
 73
     1
 44
1.0
  0
MTEXT
  5
79
330
72
100
AcDbEntity
  8
0
  6
Continuous
 62
     0
370
     0
100
AcDbMText
 10
9.9999997765
 20
-3.2804073679
 30
0.0
 40
2.38125
 41
0.0
 71
     1
 72
     1
  1
CLEAR APERTURE: (S2) 90% DIAMETER
  7
SLDTEXTSTYLE0
 73
     1
 44
1.0
  0
MTEXT
  5
7A
330
72
100
AcDbEntity
  8
0
  6
Continuous
 62
     0
370
     0
100
AcDbMText
 10
0.0
 20
-3.2804073679
 30
0.0
 40
2.38125
 41
0.0
 71
     1
 72
     1
  1
2.
  7
SLDTEXTSTYLE0
 73
     1
 44
1.0
  0
MTEXT
  5
7B
330
72
100
AcDbEntity
  8
0
  6
Continuous
 62
     0
370
     0
100
AcDbMText
 10
9.9999997765
 20
-6.4554073296
 30
0.0
 40
2.38125
 41
0.0
 71
     1
 72
     1
  1
SURFACE QUALITY: (S2) 40-20 SCRATCH-DIG
  7
SLDTEXTSTYLE0
 73
     1
 44
1.0
  0
MTEXT
  5
7C
330
72
100
AcDbEntity
  8
0
  6
Continuous
 62
     0
370
     0
100
AcDbMText
 10
0.0
 20
-6.4554073296
 30
0.0
 40
2.38125
 41
0.0
 71
     1
 72
     1
  1
3.
  7
SLDTEXTSTYLE0
 73
     1
 44
1.0
  0
MTEXT
  5
7D
330
72
100
AcDbEntity
  8
0
  6
Continuous
 62
     0
370
     0
100
AcDbMText
 10
9.9999997765
 20
-9.6304072912
 30
0.0
 40
2.38125
 41
0.0
 71
     1
 72
     1
  1
SURFACE FLATNESS: (S2) \M+183C9/20 AT 10.6um
  7
SLDTEXTSTYLE1
 73
     1
 44
1.0
  0
MTEXT
  5
7E
330
72
100
AcDbEntity
  8
0
  6
Continuous
 62
     0
370
     0
100
AcDbMText
 10
0.0
 20
-9.6304072912
 30
0.0
 40
2.38125
 41
0.0
 71
     1
 72
     1
  1
4.
  7
SLDTEXTSTYLE0
 73
     1
 44
1.0
  0
MTEXT
  5
7F
330
72
100
AcDbEntity
  8
0
  6
Continuous
 62
     0
370
     0
100
AcDbMText
 10
9.9999997765
 20
-12.8054072528
 30
0.0
 40
2.38125
 41
0.0
 71
     1
 72
     1
  1
DIAMETER TOLERANCE TOLERANCE: +0.0/0.1mm
  7
SLDTEXTSTYLE0
 73
     1
 44
1.0
  0
MTEXT
  5
80
330
72
100
AcDbEntity
  8
0
  6
Continuous
 62
     0
370
     0
100
AcDbMText
 10
0.0
 20
-12.8054072528
 30
0.0
 40
2.38125
 41
0.0
 71
     1
 72
     1
  1
5.
  7
SLDTEXTSTYLE0
 73
     1
 44
1.0
  0
MTEXT
  5
81
330
72
100
AcDbEntity
  8
0
  6
Continuous
 62
     0
370
     0
100
AcDbMText
 10
9.9999997765
 20
-15.9804072144
 30
0.0
 40
2.38125
 41
0.0
 71
     1
 72
     1
  1
THICKNESS TOLERANCE:
  7
SLDTEXTSTYLE0
 73
     1
 44
1.0
  0
MTEXT
  5
82
330
72
100
AcDbEntity
  8
0
  6
Continuous
 62
     0
370
     0
100
AcDbMText
 10
46.741804108
 20
-15.9804072144
 30
0.0
 40
2.38125
 41
0.0
 71
     1
 72
     1
  1
%%p
  7
SLDTEXTSTYLE0
 73
     1
 44
1.0
  0
MTEXT
  5
83
330
72
100
AcDbEntity
  8
0
  6
Continuous
 62
     0
370
     0
100
AcDbMText
 10
49.0119289607
 20
-15.9804072144
 30
0.0
 40
2.38125
 41
0.0
 71
     1
 72
     1
  1
0.2mm
  7
SLDTEXTSTYLE0
 73
     1
 44
1.0
  0
MTEXT
  5
84
330
72
100
AcDbEntity
  8
0
  6
Continuous
 62
     0
370
     0
100
AcDbMText
 10
0.0
 20
-15.9804072144
 30
0.0
 40
2.38125
 41
0.0
 71
     1
 72
     1
  1
6.
  7
SLDTEXTSTYLE0
 73
     1
 44
1.0
  0
MTEXT
  5
85
330
72
100
AcDbEntity
  8
0
  6
Continuous
 62
     0
370
     0
100
AcDbMText
 10
9.9999997765
 20
-19.1554071761
 30
0.0
 40
2.38125
 41
0.0
 71
     1
 72
     1
  1
PARALLESLISM: <3arcmin
  7
SLDTEXTSTYLE0
 73
     1
 44
1.0
  0
MTEXT
  5
86
330
72
100
AcDbEntity
  8
0
  6
Continuous
 62
     0
370
     0
100
AcDbMText
 10
0.0
 20
-19.1554071761
 30
0.0
 40
2.38125
 41
0.0
 71
     1
 72
     1
  1
7.
  7
SLDTEXTSTYLE0
 73
     1
 44
1.0
  0
MTEXT
  5
87
330
72
100
AcDbEntity
  8
0
  6
Continuous
 62
     0
370
     0
100
AcDbMText
 10
9.9999997765
 20
-22.3304071377
 30
0.0
 40
2.38125
 41
0.0
 71
     1
 72
     1
  1
ELECTROLYTIC PLATING(S2): BARE GOLD
  7
SLDTEXTSTYLE0
 73
     1
 44
1.0
  0
MTEXT
  5
88
330
72
100
AcDbEntity
  8
0
  6
Continuous
 62
     0
370
     0
100
AcDbMText
 10
0.0
 20
-22.3304071377
 30
0.0
 40
2.38125
 41
0.0
 71
     1
 72
     1
  1
8.
  7
SLDTEXTSTYLE0
 73
     1
 44
1.0
  0
MTEXT
  5
89
330
72
100
AcDbEntity
  8
0
  6
Continuous
 62
     0
370
     0
100
AcDbMText
 10
9.9999997765
 20
-25.5054070993
 30
0.0
 40
2.38125
 41
0.0
 71
     1
 72
     1
  1
REFLECTIVITY: (S2) R>99% AT \M+183C9=10.6\M+183CAm, 0
  7
SLDTEXTSTYLE1
 73
     1
 44
1.0
  0
MTEXT
  5
8A
330
72
100
AcDbEntity
  8
0
  6
Continuous
 62
     0
370
     0
100
AcDbMText
 10
70.9908697754
 20
-25.5054070993
 30
0.0
 40
2.38125
 41
0.0
 71
     1
 72
     1
  1
%%d
  7
SLDTEXTSTYLE0
 73
     1
 44
1.0
  0
MTEXT
  5
8C
330
72
100
AcDbEntity
  8
0
  6
Continuous
 62
     0
370
     0
100
AcDbMText
 10
73.3972526103
 20
-25.5054070993
 30
0.0
 40
2.38125
 41
0.0
 71
     1
 72
     1
  1
TO 45
  7
SLDTEXTSTYLE2
 73
     1
 44
1.0
  0
MTEXT
  5
8D
330
72
100
AcDbEntity
  8
0
  6
Continuous
 62
     0
370
     0
100
AcDbMText
 10
81.8925816566
 20
-25.5054070993
 30
0.0
 40
2.38125
 41
0.0
 71
     1
 72
     1
  1
%%d
  7
SLDTEXTSTYLE0
 73
     1
 44
1.0
  0
MTEXT
  5
8E
330
72
100
AcDbEntity
  8
0
  6
Continuous
 62
     0
370
     0
100
AcDbMText
 10
84.2989719421
 20
-25.5054070993
 30
0.0
 40
2.38125
 41
0.0
 71
     1
 72
     1
  1
AOI
  7
SLDTEXTSTYLE0
 73
     1
 44
1.0
  0
MTEXT
  5
8F
330
72
100
AcDbEntity
  8
0
  6
Continuous
 62
     0
370
     0
100
AcDbMText
 10
0.0
 20
-25.5054070993
 30
0.0
 40
2.38125
 41
0.0
 71
     1
 72
     1
  1
9.
  7
SLDTEXTSTYLE0
 73
     1
 44
1.0
  0
MTEXT
  5
90
330
72
100
AcDbEntity
  8
0
  6
Continuous
 62
     0
370
     0
100
AcDbMText
 10
9.9999997765
 20
-28.680407061
 30
0.0
 40
2.38125
 41
0.0
 71
     1
 72
     1
  1
DAMAGE THRESHOLD: (S2) 4000 W/mm
  7
SLDTEXTSTYLE0
 73
     1
 44
1.0
  0
MTEXT
  5
91
330
72
100
AcDbEntity
  8
0
  6
Continuous
 62
     0
370
     0
100
AcDbMText
 10
0.0
 20
-28.680407061
 30
0.0
 40
2.38125
 41
0.0
 71
     1
 72
     1
  1
10.
  7
SLDTEXTSTYLE0
 73
     1
 44
1.0
  0
ENDBLK
  5
74
330
72
100
AcDbEntity
  8
0
100
AcDbBlockEnd
  0
BLOCK
  5
A5
330
A4
100
AcDbEntity
  8
0
100
AcDbBlockBegin
  2
SW_NOTE_2
 70
     0
 10
0.0
 20
0.0
 30
0.0
  3
SW_NOTE_2
  1

  0
MTEXT
  5
A7
330
A4
100
AcDbEntity
  8
0
  6
Continuous
 62
     0
370
     0
100
AcDbMText
 10
19.90725
 20
1.9645392354
 30
0.0
 40
1.524
 41
0.0
 71
     2
 72
     1
  1
VALUES IN PARENTHESIS ARE CALCULATED
  7
SLDTEXTSTYLE0
 73
     1
 44
1.0
  0
MTEXT
  5
A8
330
A4
100
AcDbEntity
  8
0
  6
Continuous
 62
     0
370
     0
100
AcDbMText
 10
19.8778795174
 20
-0.5594606586
 30
0.0
 40
1.524
 41
0.0
 71
     2
 72
     1
  1
AND MAY CONTAIN ROUNDOFF ERRORS
  7
SLDTEXTSTYLE0
 73
     1
 44
1.0
  0
ENDBLK
  5
A6
330
A4
100
AcDbEntity
  8
0
100
AcDbBlockEnd
  0
BLOCK
  5
AB
330
AA
100
AcDbEntity
  8
0
100
AcDbBlockBegin
  2
SW_NOTE_3
 70
     0
 10
0.0
 20
0.0
 30
0.0
  3
SW_NOTE_3
  1

  0
MTEXT
  5
AD
330
AA
100
AcDbEntity
  8
0
  6
Continuous
 62
     0
370
     0
100
AcDbMText
 10
0.0
 20
2.7285267159
 30
0.0
 40
2.1166666667
 41
0.0
 71
     1
 72
     1
  1
DRAWING
  7
SLDTEXTSTYLE0
 73
     1
 44
1.0
  0
MTEXT
  5
AE
330
AA
100
AcDbEntity
  8
0
  6
Continuous
 62
     0
370
     0
100
AcDbMText
 10
0.0
 20
-0.0936954723
 30
0.0
 40
2.1166666667
 41
0.0
 71
     1
 72
     1
  1
PROJECTION
  7
SLDTEXTSTYLE0
 73
     1
 44
1.0
  0
ENDBLK
  5
AC
330
AA
100
AcDbEntity
  8
0
100
AcDbBlockEnd
  0
BLOCK
  5
B2
330
B1
100
AcDbEntity
  8
0
100
AcDbBlockBegin
  2
SW_NOTE_4
 70
     0
 10
0.0
 20
0.0
 30
0.0
  3
SW_NOTE_4
  1

  0
MTEXT
  5
B4
330
B1
100
AcDbEntity
  8
0
  6
Continuous
 62
     0
370
     0
100
AcDbMText
 10
25.052734375
 20
4.0927900738
 30
0.0
 40
3.175
 41
0.0
 71
     2
 72
     1
  1
FOR INFORMATION ONLY
  7
SLDTEXTSTYLE0
 73
     1
 44
1.0
  0
MTEXT
  5
B5
330
B1
100
AcDbEntity
  8
0
  6
Continuous
 62
     0
370
     0
100
AcDbMText
 10
25.3768468589
 20
-0.1405432084
 30
0.0
 40
3.175
 41
0.0
 71
     2
 72
     1
  1
NOT FOR MANUFACTURING PURPOSES
  7
SLDTEXTSTYLE0
 73
     1
 44
1.0
  0
ENDBLK
  5
B3
330
B1
100
AcDbEntity
  8
0
100
AcDbBlockEnd
  0
BLOCK
  5
B8
330
B7
100
AcDbEntity
  8
0
100
AcDbBlockBegin
  2
SW_NOTE_5
 70
     0
 10
0.0
 20
0.0
 30
0.0
  3
SW_NOTE_5
  1

  0
MTEXT
  5
BA
330
B7
100
AcDbEntity
  8
0
  6
Continuous
 62
     0
370
     0
100
AcDbMText
 10
1.9016927083
 20
3.4106583948
 30
0.0
 40
2.6458333333
 41
0.0
 71
     2
 72
     1
  1
%%c
  7
SLDTEXTSTYLE0
 73
     1
 44
1.0
  0
MTEXT
  5
BB
330
B7
100
AcDbEntity
  8
0
  6
Continuous
 62
     0
370
     0
100
AcDbMText
 10
24.2095587552
 20
3.4106583948
 30
0.0
 40
2.6458333333
 41
0.0
 71
     2
 72
     1
  1
50.8mm CO2 LASER LINE
  7
SLDTEXTSTYLE0
 73
     1
 44
1.0
  0
MTEXT
  5
BC
330
B7
100
AcDbEntity
  8
0
  6
Continuous
 62
     0
370
     0
100
AcDbMText
 10
22.9504022499
 20
-0.1171193403
 30
0.0
 40
2.6458333333
 41
0.0
 71
     2
 72
     1
  1
MIRROR
  7
SLDTEXTSTYLE0
 73
     1
 44
1.0
  0
ENDBLK
  5
B9
330
B7
100
AcDbEntity
  8
0
100
AcDbBlockEnd
  0
BLOCK
  5
16F
330
16E
100
AcDbEntity
  8
0
100
AcDbBlockBegin
  2
_D
 70
     0
 10
0.0
 20
0.0
 30
0.0
  3
_D
  1

  0
SOLID
  5
171
330
16E
100
AcDbEntity
  8
0
  6
Continuous
 62
     7
370
     0
100
AcDbTrace
 10
82.250123462
 20
134.7946233607
 30
0.0
 11
84.8304965277
 21
136.7130508005
 31
0.0
 12
84.1031058474
 22
137.4223876727
 32
0.0
 13
84.1031058474
 23
137.4223876727
 33
0.0
  0
LINE
  5
172
330
16E
100
AcDbEntity
  8
0
  6
Continuous
 62
     7
370
     0
100
AcDbLine
 10
102.8055164193
 20
149.6259439059
 30
0.0
 11
102.3763034596
 21
149.6259439059
 31
0.0
  0
LINE
  5
173
330
16E
100
AcDbEntity
  8
0
  6
Continuous
 62
     7
370
     0
100
AcDbLine
 10
102.3763034596
 20
149.6259439059
 30
0.0
 11
102.3763034596
 21
146.2627958294
 31
0.0
  0
LINE
  5
174
330
16E
100
AcDbEntity
  8
0
  6
Continuous
 62
     7
370
     0
100
AcDbLine
 10
102.3763034596
 20
146.2627958294
 30
0.0
 11
102.8055164193
 21
146.2627958294
 31
0.0
  0
LINE
  5
175
330
16E
100
AcDbEntity
  8
0
  6
Continuous
 62
     7
370
     0
100
AcDbLine
 10
111.6357404085
 20
149.6259439059
 30
0.0
 11
112.0649533683
 21
149.6259439059
 31
0.0
  0
LINE
  5
176
330
16E
100
AcDbEntity
  8
0
  6
Continuous
 62
     7
370
     0
100
AcDbLine
 10
112.0649533683
 20
149.6259439059
 30
0.0
 11
112.0649533683
 21
146.2627958294
 31
0.0
  0
LINE
  5
177
330
16E
100
AcDbEntity
  8
0
  6
Continuous
 62
     7
370
     0
100
AcDbLine
 10
112.0649533683
 20
146.2627958294
 30
0.0
 11
111.6357404085
 21
146.2627958294
 31
0.0
  0
LINE
  5
178
330
16E
100
AcDbEntity
  8
0
  6
Continuous
 62
     7
370
     0
100
AcDbLine
 10
82.250123462
 20
134.7946233607
 30
0.0
 11
98.2443937326
 21
151.1959745227
 31
0.0
  0
LINE
  5
179
330
16E
100
AcDbEntity
  8
0
  6
Continuous
 62
     7
370
     0
100
AcDbLine
 10
98.2443937326
 20
151.1959745227
 30
0.0
 11
102.0543937326
 21
151.1959745227
 31
0.0
  0
MTEXT
  5
17A
330
16E
100
AcDbEntity
  8
0
  6
Continuous
 62
     7
370
     0
100
AcDbMText
 10
102.0543937326
 20
152.7836835523
 30
0.1
 40
2.1166666667
 41
0.0
 71
     1
 72
     1
  1
%%c
  7
SLDTEXTSTYLE0
 73
     1
 44
1.0
  0
MTEXT
  5
17B
330
16E
100
AcDbEntity
  8
0
  6
Continuous
 62
     7
370
     0
100
AcDbMText
 10
105.2493845332
 20
152.7836835523
 30
0.1
 40
2.1166666667
 41
0.0
 71
     1
 72
     1
  1
50.8mm
  7
SLDTEXTSTYLE0
 73
     1
 44
1.0
  0
MTEXT
  5
17C
330
16E
100
AcDbEntity
  8
0
  6
Continuous
 62
     7
370
     0
100
AcDbMText
 10
103.3420326408
 20
148.9913224289
 30
0.1
 40
2.1166666667
 41
0.0
 71
     1
 72
     1
  1
2.00in
  7
SLDTEXTSTYLE0
 73
     1
 44
1.0
  0
ENDBLK
  5
170
330
16E
100
AcDbEntity
  8
0
100
AcDbBlockEnd
  0
BLOCK
  5
181
330
180
100
AcDbEntity
  8
0
100
AcDbBlockBegin
  2
SW_CENTERMARKSYMBOL_0
 70
     0
 10
0.0
 20
0.0
 30
0.0
  3
SW_CENTERMARKSYMBOL_0
  1

  0
LINE
  5
183
330
180
100
AcDbEntity
  8
0
  6
Continuous
 62
     0
370
     0
100
AcDbLine
 10
0.0
 20
0.0
 30
0.0
 11
0.0
 21
1.27
 31
0.0
  0
LINE
  5
184
330
180
100
AcDbEntity
  8
0
  6
Continuous
 62
     0
370
     0
100
AcDbLine
 10
0.0
 20
0.0
 30
0.0
 11
-1.27
 21
0.0
 31
0.0
  0
LINE
  5
185
330
180
100
AcDbEntity
  8
0
  6
Continuous
 62
     0
370
     0
100
AcDbLine
 10
0.0
 20
0.0
 30
0.0
 11
0.0
 21
-1.27
 31
0.0
  0
LINE
  5
186
330
180
100
AcDbEntity
  8
0
  6
Continuous
 62
     0
370
     0
100
AcDbLine
 10
0.0
 20
0.0
 30
0.0
 11
1.27
 21
0.0
 31
0.0
  0
ENDBLK
  5
182
330
180
100
AcDbEntity
  8
0
100
AcDbBlockEnd
  0
BLOCK
  5
199
330
198
100
AcDbEntity
  8
0
100
AcDbBlockBegin
  2
_D_1
 70
     0
 10
0.0
 20
0.0
 30
0.0
  3
_D_1
  1

  0
SOLID
  5
19B
330
198
100
AcDbEntity
  8
0
  6
Continuous
 62
     7
370
     0
100
AcDbTrace
 10
193.5781864503
 20
148.3191563386
 30
0.0
 11
190.4031864503
 21
148.8271563386
 31
0.0
 12
190.4031864503
 22
147.8111563386
 32
0.0
 13
190.4031864503
 23
147.8111563386
 33
0.0
  0
SOLID
  5
19C
330
198
100
AcDbEntity
  8
0
  6
Continuous
 62
     7
370
     0
100
AcDbTrace
 10
205.5781864503
 20
148.3191563386
 30
0.0
 11
208.7531864503
 21
147.8111563386
 31
0.0
 12
208.7531864503
 22
148.8271563386
 32
0.0
 13
208.7531864503
 23
148.8271563386
 33
0.0
  0
LINE
  5
19D
330
198
100
AcDbEntity
  8
0
  6
Continuous
 62
     7
370
     0
100
AcDbLine
 10
218.2151718433
 20
148.3191561058
 30
0.0
 11
217.7859588836
 21
148.3191561058
 31
0.0
  0
LINE
  5
19E
330
198
100
AcDbEntity
  8
0
  6
Continuous
 62
     7
370
     0
100
AcDbLine
 10
217.7859588836
 20
148.3191561058
 30
0.0
 11
217.7859588836
 21
144.9560080293
 31
0.0
  0
LINE
  5
19F
330
198
100
AcDbEntity
  8
0
  6
Continuous
 62
     7
370
     0
100
AcDbLine
 10
217.7859588836
 20
144.9560080293
 30
0.0
 11
218.2151718433
 21
144.9560080293
 31
0.0
  0
LINE
  5
1A0
330
198
100
AcDbEntity
  8
0
  6
Continuous
 62
     7
370
     0
100
AcDbLine
 10
227.0453958325
 20
148.3191561058
 30
0.0
 11
227.4746087923
 21
148.3191561058
 31
0.0
  0
LINE
  5
1A1
330
198
100
AcDbEntity
  8
0
  6
Continuous
 62
     7
370
     0
100
AcDbLine
 10
227.4746087923
 20
148.3191561058
 30
0.0
 11
227.4746087923
 21
144.9560080293
 31
0.0
  0
LINE
  5
1A2
330
198
100
AcDbEntity
  8
0
  6
Continuous
 62
     7
370
     0
100
AcDbLine
 10
227.4746087923
 20
144.9560080293
 30
0.0
 11
227.0453958325
 21
144.9560080293
 31
0.0
  0
LINE
  5
1A3
330
198
100
AcDbEntity
  8
0
  6
Continuous
 62
     7
370
     0
100
AcDbLine
 10
193.5781864503
 20
143.0798563536
 30
0.0
 11
193.5781864503
 21
150.0971563386
 31
0.0
  0
LINE
  5
1A4
330
198
100
AcDbEntity
  8
0
  6
Continuous
 62
     7
370
     0
100
AcDbLine
 10
205.5781864503
 20
143.0798563536
 30
0.0
 11
205.5781864503
 21
150.0971563386
 31
0.0
  0
LINE
  5
1A5
330
198
100
AcDbEntity
  8
0
  6
Continuous
 62
     7
370
     0
100
AcDbLine
 10
193.5781864503
 20
148.3191563386
 30
0.0
 11
187.2281864503
 21
148.3191563386
 31
0.0
  0
LINE
  5
1A6
330
198
100
AcDbEntity
  8
0
  6
Continuous
 62
     7
370
     0
100
AcDbLine
 10
205.5781864503
 20
148.3191563386
 30
0.0
 11
214.4006087838
 21
148.3191563386
 31
0.0
  0
MTEXT
  5
1A7
330
198
100
AcDbEntity
  8
0
  6
Continuous
 62
     7
370
     0
100
AcDbMText
 10
216.4174746176
 20
151.4768957522
 30
0.1
 40
2.1166666667
 41
0.0
 71
     1
 72
     1
  1

  7
SLDTEXTSTYLE0
 73
     1
 44
1.0
  0
MTEXT
  5
1A8
330
198
100
AcDbEntity
  8
0
  6
Continuous
 62
     7
370
     0
100
AcDbMText
 10
216.390036322
 20
151.4768957522
 30
0.1
 40
2.1166666667
 41
0.0
 71
     1
 72
     1
  1
12.0mm
  7
SLDTEXTSTYLE0
 73
     1
 44
1.0
  0
MTEXT
  5
1A9
330
198
100
AcDbEntity
  8
0
  6
Continuous
 62
     7
370
     0
100
AcDbMText
 10
218.7516880648
 20
147.6845346288
 30
0.1
 40
2.1166666667
 41
0.0
 71
     1
 72
     1
  1
0.47in
  7
SLDTEXTSTYLE0
 73
     1
 44
1.0
  0
MTEXT
  5
1AA
330
198
100
AcDbEntity
  8
0
  6
Continuous
 62
     7
370
     0
100
AcDbMText
 10
230.4580304226
 20
151.4768957522
 30
0.1
 40
2.1166666667
 41
0.0
 71
     1
 72
     1
  1

  7
SLDTEXTSTYLE0
 73
     1
 44
1.0
  0
ENDBLK
  5
19A
330
198
100
AcDbEntity
  8
0
100
AcDbBlockEnd
  0
ENDSEC
  0
SECTION
  2
ENTITIES
  0
LINE
  5
52
330
1F
100
AcDbEntity
  8
0
  6
Continuous
 62
     7
370
     0
100
AcDbLine
 10
1.5793501011
 20
214.6453799966
 30
0.0
 11
277.9892068491
 21
214.6453799966
 31
0.0
  0
LINE
  5
53
330
1F
100
AcDbEntity
  8
0
  6
Continuous
 62
     7
370
     0
100
AcDbLine
 10
1.5793501011
 20
214.6453799966
 30
0.0
 11
1.5793501011
 21
0.9031642596
 31
0.0
  0
LINE
  5
54
330
1F
100
AcDbEntity
  8
0
  6
Continuous
 62
     7
370
     0
100
AcDbLine
 10
277.9892068491
 20
0.9031642596
 30
0.0
 11
1.5793501011
 21
0.9031642596
 31
0.0
  0
LINE
  5
55
330
1F
100
AcDbEntity
  8
0
  6
Continuous
 62
     7
370
     0
100
AcDbLine
 10
277.9892068491
 20
0.9031642596
 30
0.0
 11
277.9892068491
 21
214.6453799966
 31
0.0
  0
LINE
  5
56
330
1F
100
AcDbEntity
  8
0
  6
Continuous
 62
     7
370
     0
100
AcDbLine
 10
215.7427640041
 20
12.2958890132
 30
0.0
 11
171.6327596684
 21
12.2958890132
 31
0.0
  0
LINE
  5
57
330
1F
100
AcDbEntity
  8
0
  6
Continuous
 62
     7
370
     0
100
AcDbLine
 10
171.6327596684
 20
12.2958890132
 30
0.0
 11
171.6327596684
 21
26.1661402506
 31
0.0
  0
LINE
  5
58
330
1F
100
AcDbEntity
  8
0
  6
Continuous
 62
     7
370
     0
100
AcDbLine
 10
171.6327596684
 20
0.9031642596
 30
0.0
 11
171.6327596684
 21
26.1661402506
 31
0.0
  0
LINE
  5
59
330
1F
100
AcDbEntity
  8
0
  6
Continuous
 62
     7
370
     0
100
AcDbLine
 10
215.7427640041
 20
17.1604579552
 30
0.0
 11
277.9892068491
 21
17.1604579552
 31
0.0
  0
LINE
  5
5A
330
1F
100
AcDbEntity
  8
0
  6
Continuous
 62
     7
370
     0
100
AcDbLine
 10
215.7427640041
 20
35.2394508358
 30
0.0
 11
215.7427640041
 21
0.9031642596
 31
0.0
  0
LINE
  5
5B
330
1F
100
AcDbEntity
  8
0
  6
Continuous
 62
     7
370
     0
100
AcDbLine
 10
215.7427640041
 20
26.1661402506
 30
0.0
 11
171.6327596684
 21
26.1661402506
 31
0.0
  0
LINE
  5
5C
330
1F
100
AcDbEntity
  8
0
  6
Continuous
 62
     7
370
     0
100
AcDbLine
 10
215.7427640041
 20
9.1409200612
 30
0.0
 11
277.9892068491
 21
9.1409200612
 31
0.0
  0
LINE
  5
5D
330
1F
100
AcDbEntity
  8
0
  6
Continuous
 62
     7
370
     0
100
AcDbLine
 10
215.7427640041
 20
16.9216824031
 30
0.0
 11
171.6327596684
 21
16.9216824031
 31
0.0
  0
LINE
  5
5E
330
1F
100
AcDbEntity
  8
0
  6
Continuous
 62
     7
370
     0
100
AcDbLine
 10
215.7427640041
 20
21.4874005542
 30
0.0
 11
171.6327596684
 21
21.4874005542
 31
0.0
  0
LINE
  5
5F
330
1F
100
AcDbEntity
  8
0
  6
Continuous
 62
     7
370
     0
100
AcDbLine
 10
186.1338100705
 20
26.1661402506
 30
0.0
 11
186.1338100705
 21
12.2958890132
 31
0.0
  0
LINE
  5
60
330
1F
100
AcDbEntity
  8
0
  6
Continuous
 62
     7
370
     0
100
AcDbLine
 10
198.2145906188
 20
26.1661402506
 30
0.0
 11
198.2145906188
 21
12.2958890132
 31
0.0
  0
LINE
  5
61
330
1F
100
AcDbEntity
  8
0
  6
Continuous
 62
     7
370
     0
100
AcDbLine
 10
253.7490408369
 20
9.1409200612
 30
0.0
 11
253.7490408369
 21
0.9031642596
 31
0.0
  0
LINE
  5
62
330
1F
100
AcDbEntity
  8
0
  6
Continuous
 62
     7
370
     0
100
AcDbLine
 10
171.6327596684
 20
12.2958890132
 30
0.0
 11
171.6327596684
 21
7.5627342528
 31
0.0
  0
LINE
  5
63
330
1F
100
AcDbEntity
  8
0
  6
Continuous
 62
     7
370
     0
100
AcDbLine
 10
171.6327596684
 20
7.5627342528
 30
0.0
 11
215.7427640041
 21
7.5627342528
 31
0.0
  0
LINE
  5
64
330
1F
100
AcDbEntity
  8
0
  6
Continuous
 62
     7
370
     0
100
AcDbLine
 10
171.6327596684
 20
7.5627342528
 30
0.0
 11
171.6327596684
 21
35.2394508358
 31
0.0
  0
LINE
  5
65
330
1F
100
AcDbEntity
  8
0
  6
Continuous
 62
     7
370
     0
100
AcDbLine
 10
171.6327596684
 20
35.2394508358
 30
0.0
 11
215.7427640041
 21
35.2394508358
 31
0.0
  0
LINE
  5
66
330
1F
100
AcDbEntity
  8
0
  6
Continuous
 62
     7
370
     0
100
AcDbLine
 10
270.1683598194
 20
17.1604579552
 30
0.0
 11
270.1683598194
 21
9.1409200612
 31
0.0
  0
LINE
  5
67
330
1F
100
AcDbEntity
  8
0
  6
Continuous
 62
     7
370
     0
100
AcDbLine
 10
215.7427640041
 20
35.2394508358
 30
0.0
 11
277.9892068491
 21
35.2394508358
 31
0.0
  0
LINE
  5
68
330
1F
100
AcDbEntity
  8
0
  6
Continuous
 62
     7
370
     0
100
AcDbLine
 10
277.9892068491
 20
35.2394508358
 30
0.0
 11
277.9892068491
 21
50.0331356147
 31
0.0
  0
LINE
  5
69
330
1F
100
AcDbEntity
  8
0
  6
Continuous
 62
     7
370
     0
100
AcDbLine
 10
215.7427640041
 20
24.8927335446
 30
0.0
 11
277.9892068491
 21
24.8927335446
 31
0.0
  0
INSERT
  5
6A
330
1F
100
AcDbEntity
  8
0
  6
Continuous
 62
     7
100
AcDbBlockReference
  2
Third Angle Projection Block
 10
117.7262204235
 20
15.5162339489
 30
0.0
 41
0.8
 42
0.8
 43
0.8
  0
INSERT
  5
71
330
1F
100
AcDbEntity
  8
0
  6
Continuous
 62
     7
370
     0
100
AcDbBlockReference
  2
SW_NOTE_0
 10
165.6408545753
 20
82.0218176782
 30
0.0
  0
INSERT
  5
92
330
1F
100
AcDbEntity
  8
0
  6
Continuous
 62
     7
370
     0
100
AcDbBlockReference
  2
SW_NOTE_1
 10
3.6117310536
 20
44.5419164826
 30
0.0
  0
MTEXT
  5
93
330
1F
100
AcDbEntity
  8
0
  6
Continuous
 62
     7
370
     0
100
AcDbMText
 10
274.1458225539
 20
13.2559386876
 30
0.0
 40
3.175
 41
0.0
 71
     2
 72
     1
  1
A
  7
SLDTEXTSTYLE0
 73
     1
 44
1.0
  0
MTEXT
  5
94
330
1F
100
AcDbEntity
  8
0
  6
Continuous
 62
     7
370
     0
100
AcDbMText
 10
234.7244485042
 20
5.1306563898
 30
0.0
 40
3.175
 41
0.0
 71
     2
 72
     1
  1
NB2-L01
  7
SLDTEXTSTYLE0
 73
     1
 44
1.0
  0
MTEXT
  5
95
330
1F
100
AcDbEntity
  8
0
  6
Continuous
 62
     7
370
     0
100
AcDbMText
 10
216.4199766059
 20
16.8243178599
 30
0.0
 40
2.1166666667
 41
0.0
 71
     1
 72
     1
  1
MATERIAL
  7
SLDTEXTSTYLE0
 73
     1
 44
1.0
  0
MTEXT
  5
96
330
1F
100
AcDbEntity
  8
0
  6
Continuous
 62
     7
370
     0
100
AcDbMText
 10
174.230946566
 20
20.054553926
 30
0.0
 40
1.8520833333
 41
0.0
 71
     1
 72
     1
  1
DRAWN
  7
SLDTEXTSTYLE0
 73
     1
 44
1.0
  0
MTEXT
  5
97
330
1F
100
AcDbEntity
  8
0
  6
Continuous
 62
     7
370
     0
100
AcDbMText
 10
172.3960124543
 20
15.5787169747
 30
0.0
 40
1.8520833333
 41
0.0
 71
     1
 72
     1
  1
APPROVAL
  7
SLDTEXTSTYLE0
 73
     1
 44
1.0
  0
MTEXT
  5
98
330
1F
100
AcDbEntity
  8
0
  6
Continuous
 62
     7
370
     0
100
AcDbMText
 10
271.7160653675
 20
16.1671746307
 30
0.0
 40
2.1166666667
 41
0.0
 71
     1
 72
     1
  1
REV
  7
SLDTEXTSTYLE0
 73
     1
 44
1.0
  0
MTEXT
  5
99
330
1F
100
AcDbEntity
  8
0
  6
Continuous
 62
     7
370
     0
100
AcDbMText
 10
190.2958696448
 20
20.3177146903
 30
0.0
 40
2.1166666667
 41
0.0
 71
     1
 72
     1
  1
GG
  7
SLDTEXTSTYLE0
 73
     1
 44
1.0
  0
MTEXT
  5
9A
330
1F
100
AcDbEntity
  8
0
  6
Continuous
 62
     7
370
     0
100
AcDbMText
 10
190.2958696448
 20
15.841877739
 30
0.0
 40
2.1166666667
 41
0.0
 71
     1
 72
     1
  1
DD
  7
SLDTEXTSTYLE0
 73
     1
 44
1.0
  0
MTEXT
  5
9B
330
1F
100
AcDbEntity
  8
0
  6
Continuous
 62
     7
370
     0
100
AcDbMText
 10
199.8662436873
 20
20.3177146903
 30
0.0
 40
2.1166666667
 41
0.0
 71
     1
 72
     1
  1
13/MAR/13
  7
SLDTEXTSTYLE0
 73
     1
 44
1.0
  0
MTEXT
  5
9C
330
1F
100
AcDbEntity
  8
0
  6
Continuous
 62
     7
370
     0
100
AcDbMText
 10
203.6145073853
 20
24.8221395769
 30
0.0
 40
2.1166666667
 41
0.0
 71
     1
 72
     1
  1
DATE
  7
SLDTEXTSTYLE0
 73
     1
 44
1.0
  0
MTEXT
  5
9D
330
1F
100
AcDbEntity
  8
0
  6
Continuous
 62
     7
370
     0
100
AcDbMText
 10
199.8662436873
 20
15.841877739
 30
0.0
 40
2.1166666667
 41
0.0
 71
     1
 72
     1
  1
13/MAR/13
  7
SLDTEXTSTYLE0
 73
     1
 44
1.0
  0
MTEXT
  5
9F
330
1F
100
AcDbEntity
  8
0
  6
Continuous
 62
     7
370
     0
100
AcDbMText
 10
229.402906477
 20
27.7957480569
 30
0.0
 40
2.1166666667
 41
0.0
 71
     1
 72
     1
  1
w w w . t h o r  l a b s . c o m
  7
SLDTEXTSTYLE3
 73
     1
 44
1.0
  0
MTEXT
  5
A0
330
1F
100
AcDbEntity
  8
0
  6
Continuous
 62
     7
370
     0
100
AcDbMText
 10
216.7004035316
 20
8.3494791871
 30
0.0
 40
2.1166666667
 41
0.0
 71
     1
 72
     1
  1
ITEM #
  7
SLDTEXTSTYLE0
 73
     1
 44
1.0
  0
MTEXT
  5
A1
330
1F
100
AcDbEntity
  8
0
  6
Continuous
 62
     7
370
     0
100
AcDbMText
 10
254.5318000914
 20
8.3494791871
 30
0.0
 40
2.1166666667
 41
0.0
 71
     1
 72
     1
  1
APPROX WEIGHT
  7
SLDTEXTSTYLE0
 73
     1
 44
1.0
  0
MTEXT
  5
A2
330
1F
100
AcDbEntity
  8
0
  6
Continuous
 62
     7
370
     0
100
AcDbMText
 10
243.4437582451
 20
13.8481889913
 30
0.0
 40
2.6458333333
 41
0.0
 71
     2
 72
     1
  1
COPPER, OFHC
  7
SLDTEXTSTYLE0
 73
     1
 44
1.0
  0
MTEXT
  5
A3
330
1F
100
AcDbEntity
  8
0
  6
Continuous
 62
     7
370
     0
100
AcDbMText
 10
266.1130947984
 20
5.1306563898
 30
0.0
 40
3.175
 41
0.0
 71
     2
 72
     1
  1
216.40g
  7
SLDTEXTSTYLE0
 73
     1
 44
1.0
  0
INSERT
  5
A9
330
1F
100
AcDbEntity
  8
0
  6
Continuous
 62
     7
370
     0
100
AcDbBlockReference
  2
SW_NOTE_2
 10
174.8430140051
 20
4.4558554801
 30
0.0
  0
INSERT
  5
AF
330
1F
100
AcDbEntity
  8
0
  6
Continuous
 62
     7
370
     0
100
AcDbBlockReference
  2
SW_NOTE_3
 10
174.5483650337
 20
30.4835322715
 30
0.0
  0
MTEXT
  5
B0
330
1F
100
AcDbEntity
  8
0
  6
Continuous
 62
     7
370
     0
100
AcDbMText
 10
187.9273588276
 20
24.8221395769
 30
0.0
 40
2.1166666667
 41
0.0
 71
     1
 72
     1
  1
NAME
  7
SLDTEXTSTYLE0
 73
     1
 44
1.0
  0
INSERT
  5
B6
330
1F
100
AcDbEntity
  8
0
  6
Continuous
 62
     7
370
     0
100
AcDbBlockReference
  2
SW_NOTE_4
 10
58.6204667508
 20
8.1776609732
 30
0.0
  0
INSERT
  5
BD
330
1F
100
AcDbEntity
  8
0
  6
Continuous
 62
     7
370
     0
100
AcDbBlockReference
  2
SW_NOTE_5
 10
225.4289416761
 20
20.7275903336
 30
0.0
  0
MTEXT
  5
BE
330
1F
100
AcDbEntity
  8
0
  6
Continuous
 62
     7
370
     0
100
AcDbMText
 10
177.6925831922
 20
10.7142101515
 30
0.0
 40
1.5875
 41
0.0
 71
     1
 72
     1
  1
COPYRIGHT © 2013 BY THORLABS
  7
SLDTEXTSTYLE0
 73
     1
 44
1.0
  0
SPLINE
  5
BF
330
1F
100
AcDbEntity
  8
0
  6
Continuous
 62
     7
370
     0
100
AcDbSpline
210
0.0
220
0.0
230
1.0
 70
     8
 71
     3
 72
    15
 73
    11
 74
     0
 42
0.00000001
 43
0.00000001
 12
1.0
 22
0.0
 32
0.0
 13
1.0
 23
0.0
 33
0.0
 40
0.0
 40
0.0
 40
0.0
 40
0.0
 40
0.1426572507006134
 40
0.2811689939054438
 40
0.4169771923679742
 40
0.5508524927475584
 40
0.6783641702618123
 40
0.7950324430070947
 40
0.901998178347352
 40
1.0
 40
1.0
 40
1.0
 40
1.0
 10
68.86308712861243
 20
113.5961926160911
 30
0.0
 10
68.896003524565
 20
113.6131446259068
 30
0.0
 10
68.96087979189473
 20
113.6465560334668
 30
0.0
 10
69.05253592884927
 20
113.7042621273929
 30
0.0
 10
69.13810679226559
 20
113.7668179087234
 30
0.0
 10
69.21617584557671
 20
113.8342095275918
 30
0.0
 10
69.28615977720729
 20
113.9030958596849
 30
0.0
 10
69.34513625268251
 20
113.9726048745859
 30
0.0
 10
69.39448401445227
 20
114.0401886720684
 30
0.0
 10
69.41924272138058
 20
114.0873208758143
 30
0.0
 10
69.43108068450185
 20
114.1098563535911
 30
0.0
  0
LINE
  5
C0
330
1F
100
AcDbEntity
  8
0
  6
Continuous
 62
     7
370
     0
100
AcDbLine
 10
68.8630872556
 20
113.3533547236
 30
0.0
 11
68.8630872556
 21
113.5961926612
 31
0.0
  0
SPLINE
  5
C1
330
1F
100
AcDbEntity
  8
0
  6
Continuous
 62
     7
370
     0
100
AcDbSpline
210
0.0
220
0.0
230
1.0
 70
     8
 71
     3
 72
    15
 73
    11
 74
     0
 42
0.00000001
 43
0.00000001
 12
1.0
 22
0.0
 32
0.0
 13
1.0
 23
0.0
 33
0.0
 40
0.0
 40
0.0
 40
0.0
 40
0.0
 40
0.1116703001015864
 40
0.232094480856017
 40
0.3627434591045528
 40
0.5025575097108844
 40
0.6415251033312813
 40
0.7710984952996679
 40
0.8901617573732516
 40
1.0
 40
1.0
 40
1.0
 40
1.0
 10
69.33723827092012
 20
113.6562846879461
 30
0.0
 10
69.32207067940652
 20
113.6416574120313
 30
0.0
 10
69.29054650265601
 20
113.6112562220399
 30
0.0
 10
69.23725821211887
 20
113.5682309467377
 30
0.0
 10
69.17778166970545
 20
113.5246230064442
 30
0.0
 10
69.11288921616416
 20
113.482689096703
 30
0.0
 10
69.0467423374992
 20
113.4432128428867
 30
0.0
 10
68.98281989544648
 20
113.4077100217009
 30
0.0
 10
68.92218910240113
 20
113.3776660209862
 30
0.0
 10
68.88225127155091
 20
113.3612378425369
 30
0.0
 10
68.86308712861243
 20
113.3533547914717
 30
0.0
  0
LINE
  5
C2
330
1F
100
AcDbEntity
  8
0
  6
Continuous
 62
     7
370
     0
100
AcDbLine
 10
69.3372384795
 20
112.0552014164
 30
0.0
 11
69.3372384795
 21
113.6562846205
 31
0.0
  0
LINE
  5
C3
330
1F
100
AcDbEntity
  8
0
  6
Continuous
 62
     7
370
     0
100
AcDbLine
 10
69.6006556192
 20
112.0552014164
 30
0.0
 11
69.3372384795
 21
112.0552014164
 31
0.0
  0
LINE
  5
C4
330
1F
100
AcDbEntity
  8
0
  6
Continuous
 62
     7
370
     0
100
AcDbLine
 10
69.6006556192
 20
114.1098564095
 30
0.0
 11
69.6006556192
 21
112.0552014164
 31
0.0
  0
LINE
  5
C5
330
1F
100
AcDbEntity
  8
0
  6
Continuous
 62
     7
370
     0
100
AcDbLine
 10
69.4310808705
 20
114.1098564095
 30
0.0
 11
69.6006556192
 21
114.1098564095
 31
0.0
  0
LINE
  5
C6
330
1F
100
AcDbEntity
  8
0
  6
Continuous
 62
     7
370
     0
100
AcDbLine
 10
65.9128133358
 20
112.2922770283
 30
0.0
 11
66.8874573113
 21
112.2922770283
 31
0.0
  0
LINE
  5
C7
330
1F
100
AcDbEntity
  8
0
  6
Continuous
 62
     7
370
     0
100
AcDbLine
 10
65.9128133358
 20
114.1098564095
 30
0.0
 11
65.9128133358
 21
112.2922770283
 31
0.0
  0
LINE
  5
C8
330
1F
100
AcDbEntity
  8
0
  6
Continuous
 62
     7
370
     0
100
AcDbLine
 10
65.6230543192
 20
114.1098564095
 30
0.0
 11
65.9128133358
 21
114.1098564095
 31
0.0
  0
LINE
  5
C9
330
1F
100
AcDbEntity
  8
0
  6
Continuous
 62
     7
370
     0
100
AcDbLine
 10
65.6230543192
 20
112.0552014164
 30
0.0
 11
65.6230543192
 21
114.1098564095
 31
0.0
  0
LINE
  5
CA
330
1F
100
AcDbEntity
  8
0
  6
Continuous
 62
     7
370
     0
100
AcDbLine
 10
66.8874573113
 20
112.0552014164
 30
0.0
 11
65.6230543192
 21
112.0552014164
 31
0.0
  0
LINE
  5
CB
330
1F
100
AcDbEntity
  8
0
  6
Continuous
 62
     7
370
     0
100
AcDbLine
 10
66.8874573113
 20
112.2922770283
 30
0.0
 11
66.8874573113
 21
112.0552014164
 31
0.0
  0
SPLINE
  5
CC
330
1F
100
AcDbEntity
  8
0
  6
Continuous
 62
     7
370
     0
100
AcDbSpline
210
0.0
220
0.0
230
1.0
 70
     8
 71
     3
 72
    23
 73
    19
 74
     0
 42
0.00000001
 43
0.00000001
 12
1.0
 22
0.0
 32
0.0
 13
1.0
 23
0.0
 33
0.0
 40
0.0
 40
0.0
 40
0.0
 40
0.0
 40
0.0579448754623253
 40
0.1160176254256827
 40
0.1748257843638406
 40
0.2346830900793707
 40
0.2968270303289142
 40
0.364061335963788
 40
0.436192424049739
 40
0.5142601195414408
 40
0.5569758971654883
 40
0.604855928383654
 40
0.6576752010734875
 40
0.7157505846619322
 40
0.7788397991664558
 40
0.8475011894738633
 40
0.9212282309463237
 40
1.0
 40
1.0
 40
1.0
 40
1.0
 10
64.25328435617654
 20
113.5426859767682
 30
0.0
 10
64.25271804267697
 20
113.5223535217941
 30
0.0
 10
64.25158416592011
 20
113.4816437415702
 30
0.0
 10
64.24273410680482
 20
113.4207946260777
 30
0.0
 10
64.22759155684611
 20
113.3606058588497
 30
0.0
 10
64.20751657711644
 20
113.3003449065895
 30
0.0
 10
64.18008997657975
 20
113.2397725960995
 30
0.0
 10
64.1454411240451
 20
113.1780533307815
 30
0.0
 10
64.10245543644393
 20
113.1149591249435
 30
0.0
 10
64.06111525696808
 20
113.061322040204
 30
0.0
 10
64.02263425938621
 20
113.0163606374303
 30
0.0
 10
63.98852449170548
 20
112.9793547759943
 30
0.0
 10
63.94906146458661
 20
112.9400385228439
 30
0.0
 10
63.90572558394484
 20
112.8970502652338
 30
0.0
 10
63.85674940417246
 20
112.8519157463029
 30
0.0
 10
63.80354012484721
 20
112.8032833867398
 30
0.0
 10
63.74493296964812
 20
112.7524330052908
 30
0.0
 10
63.70424818184209
 20
112.7176944655872
 30
0.0
 10
63.68323285262085
 20
112.6997506126656
 30
0.0
  0
SPLINE
  5
CD
330
1F
100
AcDbEntity
  8
0
  6
Continuous
 62
     7
370
     0
100
AcDbSpline
210
0.0
220
0.0
230
1.0
 70
     8
 71
     3
 72
    23
 73
    19
 74
     0
 42
0.00000001
 43
0.00000001
 12
1.0
 22
0.0
 32
0.0
 13
1.0
 23
0.0
 33
0.0
 40
0.0
 40
0.0
 40
0.0
 40
0.0
 40
0.074711890304501
 40
0.1455392023749086
 40
0.2133390572509725
 40
0.2786150735384709
 40
0.3420941969414983
 40
0.4038900759591956
 40
0.4650633525655207
 40
0.526576736383486
 40
0.5873283340287674
 40
0.6463804557031432
 40
0.7043453083753259
 40
0.7616719489990784
 40
0.8194178590468649
 40
0.8780393997816818
 40
0.9377955090070547
 40
1.0
 40
1.0
 40
1.0
 40
1.0
 10
63.62108283309961
 20
114.1098563535911
 30
0.0
 10
63.64484193715189
 20
114.1094495058791
 30
0.0
 10
63.69112481178962
 20
114.1086569641398
 30
0.0
 10
63.75856639935361
 20
114.1005476708646
 30
0.0
 10
63.82219940114536
 20
114.0879175204832
 30
0.0
 10
63.88225709400985
 20
114.0703149577309
 30
0.0
 10
63.93838464874833
 20
114.0472327488812
 30
0.0
 10
63.99062524038215
 20
114.0190315016841
 30
0.0
 10
64.03921973942339
 20
113.9859863113095
 30
0.0
 10
64.08335623142437
 20
113.9477004916528
 30
0.0
 10
64.12315526007185
 20
113.9059051061228
 30
0.0
 10
64.15803324014625
 20
113.86130041982
 30
0.0
 10
64.1871929104264
 20
113.8140769847987
 30
0.0
 10
64.21202055930989
 20
113.7648784892131
 30
0.0
 10
64.23043614279123
 20
113.7126654008245
 30
0.0
 10
64.24338632041449
 20
113.6581475665737
 30
0.0
 10
64.25218634171567
 20
113.6012783993558
 30
0.0
 10
64.25291348550722
 20
113.5624764365081
 30
0.0
 10
64.25328435617654
 20
113.5426859767682
 30
0.0
  0
SPLINE
  5
CE
330
1F
100
AcDbEntity
  8
0
  6
Continuous
 62
     7
370
     0
100
AcDbSpline
210
0.0
220
0.0
230
1.0
 70
     8
 71
     3
 72
    23
 73
    19
 74
     0
 42
0.00000001
 43
0.00000001
 12
1.0
 22
0.0
 32
0.0
 13
1.0
 23
0.0
 33
0.0
 40
0.0
 40
0.0
 40
0.0
 40
0.0
 40
0.0706752902033303
 40
0.1374926938441249
 40
0.2014728253723051
 40
0.2628693217722905
 40
0.3225500865261561
 40
0.380737251338555
 40
0.4382197368560125
 40
0.4954874370602864
 40
0.5534836796953481
 40
0.6113462062294294
 40
0.6706437388141556
 40
0.7315869484227133
 40
0.7941831937999382
 40
0.8594451119347497
 40
0.9282076353998099
 40
1.0
 40
1.0
 40
1.0
 40
1.0
 10
62.96253957989449
 20
113.5303382907706
 30
0.0
 10
62.96523471310054
 20
113.5532957522254
 30
0.0
 10
62.97047786277424
 20
113.5979575174641
 30
0.0
 10
62.98353783331084
 20
113.6626425616791
 30
0.0
 10
63.00187285006034
 20
113.7228181945657
 30
0.0
 10
63.02381224503742
 20
113.7793233909001
 30
0.0
 10
63.05131534377434
 20
113.8311962620768
 30
0.0
 10
63.0824052295219
 20
113.8795097402194
 30
0.0
 10
63.11907431542627
 20
113.9227315243783
 30
0.0
 10
63.15958392654633
 20
113.9622240271463
 30
0.0
 10
63.20437789010703
 20
113.9970273136453
 30
0.0
 10
63.25303543611668
 20
114.0274328163192
 30
0.0
 10
63.30553430706108
 20
114.0528651420157
 30
0.0
 10
63.36158210265246
 20
114.073922047373
 30
0.0
 10
63.42130749493721
 20
114.0898984514231
 30
0.0
 10
63.48462599207782
 20
114.1013550405918
 30
0.0
 10
63.55163942156263
 20
114.1084170131404
 30
0.0
 10
63.59760474869982
 20
114.1093697277783
 30
0.0
 10
63.62108283309961
 20
114.1098563535911
 30
0.0
  0
LINE
  5
CF
330
1F
100
AcDbEntity
  8
0
  6
Continuous
 62
     7
370
     0
100
AcDbLine
 10
63.2259569048
 20
113.5039966157
 30
0.0
 11
62.9625395324
 21
113.5303383763
 31
0.0
  0
SPLINE
  5
D0
330
1F
100
AcDbEntity
  8
0
  6
Continuous
 62
     7
370
     0
100
AcDbSpline
210
0.0
220
0.0
230
1.0
 70
     8
 71
     3
 72
    23
 73
    19
 74
     0
 42
0.00000001
 43
0.00000001
 12
1.0
 22
0.0
 32
0.0
 13
1.0
 23
0.0
 33
0.0
 40
0.0
 40
0.0
 40
0.0
 40
0.0
 40
0.0706964833433765
 40
0.1383582132030687
 40
0.2033698682591695
 40
0.2657002133402296
 40
0.3272558681973762
 40
0.3865123433292941
 40
0.4458582974819496
 40
0.5051731438069386
 40
0.5637797628070202
 40
0.6223430642934391
 40
0.6808235796100192
 40
0.7397951568104396
 40
0.8008011629883826
 40
0.864239461576907
 40
0.930631098173453
 40
1.0
 40
1.0
 40
1.0
 40
1.0
 10
63.61532057963408
 20
113.8727807824373
 30
0.0
 10
63.60103865976159
 20
113.8724527872056
 30
0.0
 10
63.57308789303011
 20
113.8718108764336
 30
0.0
 10
63.53223135726549
 20
113.8671382953104
 30
0.0
 10
63.49344515862841
 20
113.8599992229286
 30
0.0
 10
63.45682187364059
 20
113.8490841921956
 30
0.0
 10
63.42240607752895
 20
113.8353339338466
 30
0.0
 10
63.39033793823022
 20
113.8180260206177
 30
0.0
 10
63.36010391136032
 20
113.7984885170602
 30
0.0
 10
63.3326561827135
 20
113.7753575866765
 30
0.0
 10
63.30783556168457
 20
113.7497101032348
 30
0.0
 10
63.28580062850244
 20
113.7217877518226
 30
0.0
 10
63.2677463115452
 20
113.6910516894393
 30
0.0
 10
63.25283631244132
 20
113.6581777329104
 30
0.0
 10
63.24084742489419
 20
113.6230625390472
 30
0.0
 10
63.23214390024464
 20
113.585437659248
 30
0.0
 10
63.22739868027912
 20
113.5454117300053
 30
0.0
 10
63.2264444563402
 20
113.5180019847988
 30
0.0
 10
63.22595688117654
 20
113.5039965606424
 30
0.0
  0
SPLINE
  5
D1
330
1F
100
AcDbEntity
  8
0
  6
Continuous
 62
     7
370
     0
100
AcDbSpline
210
0.0
220
0.0
230
1.0
 70
     8
 71
     3
 72
    23
 73
    19
 74
     0
 42
0.00000001
 43
0.00000001
 12
1.0
 22
0.0
 32
0.0
 13
1.0
 23
0.0
 33
0.0
 40
0.0
 40
0.0
 40
0.0
 40
0.0
 40
0.0617621567680707
 40
0.1211739926536296
 40
0.1794214068253158
 40
0.2368434346502759
 40
0.2943217954133986
 40
0.3531909627945252
 40
0.4127207064163253
 40
0.4745221507037181
 40
0.5370567441421367
 40
0.5995913375805563
 40
0.6623669793543064
 40
0.7252456446794924
 40
0.7903164461250803
 40
0.8577243009540925
 40
0.927231952378493
 40
1.0
 40
1.0
 40
1.0
 40
1.0
 10
63.98986705489448
 20
113.5402164395687
 30
0.0
 10
63.98958104685527
 20
113.5517637342228
 30
0.0
 10
63.98901991463685
 20
113.5744188983364
 30
0.0
 10
63.98369591991575
 20
113.6075745893802
 30
0.0
 10
63.97628449232622
 20
113.6395043120045
 30
0.0
 10
63.96430246964084
 20
113.6696332614458
 30
0.0
 10
63.95004025554039
 20
113.6988536727478
 30
0.0
 10
63.93174552353213
 20
113.7262422182939
 30
0.0
 10
63.91058227946751
 20
113.7524814904726
 30
0.0
 10
63.88635215615351
 20
113.7768796834183
 30
0.0
 10
63.85988718722463
 20
113.7997690836077
 30
0.0
 10
63.83031635589896
 20
113.8187957355883
 30
0.0
 10
63.79958186626008
 20
113.8359253915443
 30
0.0
 10
63.76662340424858
 20
113.8496986174962
 30
0.0
 10
63.73149452565083
 20
113.8598125430198
 30
0.0
 10
63.69445095221764
 20
113.8671526482769
 30
0.0
 10
63.65549856205245
 20
113.8718066683668
 30
0.0
 10
63.6289162939167
 20
113.8724511547212
 30
0.0
 10
63.61532057963408
 20
113.8727807824373
 30
0.0
  0
SPLINE
  5
D2
330
1F
100
AcDbEntity
  8
0
  6
Continuous
 62
     7
370
     0
100
AcDbSpline
210
0.0
220
0.0
230
1.0
 70
     8
 71
     3
 72
    23
 73
    19
 74
     0
 42
0.00000001
 43
0.00000001
 12
1.0
 22
0.0
 32
0.0
 13
1.0
 23
0.0
 33
0.0
 40
0.0
 40
0.0
 40
0.0
 40
0.0
 40
0.1114096600426609
 40
0.2145263672558014
 40
0.3094172254458344
 40
0.3960871907990314
 40
0.4742842164262464
 40
0.5443738816396977
 40
0.6064195628105363
 40
0.6605816023749737
 40
0.7097938180647577
 40
0.7564506485918284
 40
0.8007673253039324
 40
0.843168287941335
 40
0.8842948685500491
 40
0.9238845020552849
 40
0.9623587101392161
 40
0.9999999999999999
 40
0.9999999999999999
 40
0.9999999999999999
 40
0.9999999999999999
 10
63.43751390126869
 20
112.8236390621749
 30
0.0
 10
63.46395136403993
 20
112.8458910454064
 30
0.0
 10
63.51485837556479
 20
112.8887386505878
 30
0.0
 10
63.58674705319767
 20
112.952320525535
 30
0.0
 10
63.65240565862825
 20
113.0113598978199
 30
0.0
 10
63.71078865305699
 20
113.0668915531702
 30
0.0
 10
63.7623735481223
 20
113.1183768704294
 30
0.0
 10
63.8072814660613
 20
113.1656992028597
 30
0.0
 10
63.84589880846171
 20
113.2087108670844
 30
0.0
 10
63.87775413326782
 20
113.2489687030899
 30
0.0
 10
63.90463144826045
 20
113.2869832980723
 30
0.0
 10
63.92740759884926
 20
113.3240641879263
 30
0.0
 10
63.94638849841139
 20
113.3608590945886
 30
0.0
 10
63.96219704805363
 20
113.3972515888752
 30
0.0
 10
63.97470026759677
 20
113.433397301345
 30
0.0
 10
63.98322299032816
 20
113.4694015409565
 30
0.0
 10
63.98900280603208
 20
113.5049070581388
 30
0.0
 10
63.98958108126102
 20
113.5285328232602
 30
0.0
 10
63.98986705489448
 20
113.5402164395687
 30
0.0
  0
SPLINE
  5
D3
330
1F
100
AcDbEntity
  8
0
  6
Continuous
 62
     7
370
     0
100
AcDbSpline
210
0.0
220
0.0
230
1.0
 70
     8
 71
     3
 72
    19
 73
    15
 74
     0
 42
0.00000001
 43
0.00000001
 12
1.0
 22
0.0
 32
0.0
 13
1.0
 23
0.0
 33
0.0
 40
0.0
 40
0.0
 40
0.0
 40
0.0
 40
0.1003881431397104
 40
0.2044067930373087
 40
0.3106860830942073
 40
0.4221572938827997
 40
0.4806854607703737
 40
0.5432381544526684
 40
0.6094995045645645
 40
0.6795546087742244
 40
0.7538412220511749
 40
0.8316406764893857
 40
0.9138127068095903
 40
1.0
 40
1.0
 40
1.0
 40
1.0
 10
62.96377434849425
 20
112.2379471563555
 30
0.0
 10
62.97249137781362
 20
112.2620191939498
 30
0.0
 10
62.9902406851746
 20
112.311033827079
 30
0.0
 10
63.02620096780922
 20
112.3817550978102
 30
0.0
 10
63.0684987581609
 20
112.4520486602894
 30
0.0
 10
63.10968161099749
 20
112.5092775445709
 30
0.0
 10
63.14739621118896
 20
112.5549994222064
 30
0.0
 10
63.17902481947868
 20
112.5907714999823
 30
0.0
 10
63.21407511543344
 20
112.6273884370624
 30
0.0
 10
63.25251902935153
 20
112.6648435447849
 30
0.0
 10
63.29398656160906
 20
112.7033794047099
 30
0.0
 10
63.33853429445305
 20
112.7431245324732
 30
0.0
 10
63.38668826662738
 20
112.7833382341077
 30
0.0
 10
63.42030477890363
 20
112.8099935487147
 30
0.0
 10
63.43751390126869
 20
112.8236390621749
 30
0.0
  0
SPLINE
  5
D4
330
1F
100
AcDbEntity
  8
0
  6
Continuous
 62
     7
370
     0
100
AcDbSpline
210
0.0
220
0.0
230
1.0
 70
     8
 71
     3
 72
    11
 73
     7
 74
     0
 42
0.00000001
 43
0.00000001
 12
1.0
 22
0.0
 32
0.0
 13
1.0
 23
0.0
 33
0.0
 40
0.0
 40
0.0
 40
0.0
 40
0.0
 40
0.2526433275832392
 40
0.5044398525799855
 40
0.7504068042814536
 40
0.9999999999999999
 40
0.9999999999999999
 40
0.9999999999999999
 40
0.9999999999999999
 10
62.93619784976629
 20
112.0552014035911
 30
0.0
 10
62.93617034626216
 20
112.0708570343549
 30
0.0
 10
62.93611543143934
 20
112.1021158217929
 30
0.0
 10
62.94140492179832
 20
112.1483455855037
 30
0.0
 10
62.94968932271262
 20
112.1939620725313
 30
0.0
 10
62.95905649192287
 20
112.2232141114907
 30
0.0
 10
62.96377434849425
 20
112.2379471563555
 30
0.0
  0
LINE
  5
D5
330
1F
100
AcDbEntity
  8
0
  6
Continuous
 62
     7
370
     0
100
AcDbLine
 10
64.2796260892
 20
112.0552014164
 30
0.0
 11
62.9361978882
 21
112.0552014164
 31
0.0
  0
LINE
  5
D6
330
1F
100
AcDbEntity
  8
0
  6
Continuous
 62
     7
370
     0
100
AcDbLine
 10
64.2796260892
 20
112.318618556
 30
0.0
 11
64.2796260892
 21
112.0552014164
 31
0.0
  0
LINE
  5
D7
330
1F
100
AcDbEntity
  8
0
  6
Continuous
 62
     7
370
     0
100
AcDbLine
 10
63.2745244458
 20
112.318618556
 30
0.0
 11
64.2796260892
 21
112.318618556
 31
0.0
  0
SPLINE
  5
D8
330
1F
100
AcDbEntity
  8
0
  6
Continuous
 62
     7
370
     0
100
AcDbSpline
210
0.0
220
0.0
230
1.0
 70
     8
 71
     3
 72
    17
 73
    13
 74
     0
 42
0.00000001
 43
0.00000001
 12
1.0
 22
0.0
 32
0.0
 13
1.0
 23
0.0
 33
0.0
 40
0.0
 40
0.0
 40
0.0
 40
0.0
 40
0.1241996726524874
 40
0.2368296581100276
 40
0.3394949853062826
 40
0.431253510031225
 40
0.5114548721194183
 40
0.5812230366234583
 40
0.6404953748643706
 40
0.6883082049320183
 40
0.8503329734146888
 40
1.0
 40
1.0
 40
1.0
 40
1.0
 10
63.68323285262085
 20
112.6997506126656
 30
0.0
 10
63.66523639741731
 20
112.6850995796984
 30
0.0
 10
63.63091992747803
 20
112.6571623150141
 30
0.0
 10
63.58209810095359
 20
112.6166609139805
 30
0.0
 10
63.53836859390598
 20
112.5795222264226
 30
0.0
 10
63.49870879869832
 20
112.5469576462604
 30
0.0
 10
63.46456309903797
 20
112.5173920653468
 30
0.0
 10
63.4347287608676
 20
112.4921203270489
 30
0.0
 10
63.41028968185847
 20
112.4698717777115
 30
0.0
 10
63.3730732911823
 20
112.4360757823438
 30
0.0
 10
63.32593555707743
 20
112.3879030067617
 30
0.0
 10
63.29120245842454
 20
112.3410948665201
 30
0.0
 10
63.27452444610042
 20
112.3186187048732
 30
0.0
  0
LINE
  5
D9
330
1F
100
AcDbEntity
  8
0
  6
Continuous
 62
     7
370
     0
100
AcDbLine
 10
60.4172697441
 20
112.0552014164
 30
0.0
 11
59.4327476957
 21
113.5883723455
 31
0.0
  0
LINE
  5
DA
330
1F
100
AcDbEntity
  8
0
  6
Continuous
 62
     7
370
     0
100
AcDbLine
 10
60.7234925648
 20
112.0552014164
 30
0.0
 11
60.4172697441
 21
112.0552014164
 31
0.0
  0
LINE
  5
DB
330
1F
100
AcDbEntity
  8
0
  6
Continuous
 62
     7
370
     0
100
AcDbLine
 10
60.7234925648
 20
114.1098564095
 30
0.0
 11
60.7234925648
 21
112.0552014164
 31
0.0
  0
LINE
  5
DC
330
1F
100
AcDbEntity
  8
0
  6
Continuous
 62
     7
370
     0
100
AcDbLine
 10
60.4337336646
 20
114.1098564095
 30
0.0
 11
60.7234925648
 21
114.1098564095
 31
0.0
  0
LINE
  5
DD
330
1F
100
AcDbEntity
  8
0
  6
Continuous
 62
     7
370
     0
100
AcDbLine
 10
60.4337336646
 20
112.5766852475
 30
0.0
 11
60.4337336646
 21
114.1098564095
 31
0.0
  0
LINE
  5
DE
330
1F
100
AcDbEntity
  8
0
  6
Continuous
 62
     7
370
     0
100
AcDbLine
 10
59.4492111505
 20
114.1098564095
 30
0.0
 11
60.4337336646
 21
112.5766852475
 31
0.0
  0
LINE
  5
DF
330
1F
100
AcDbEntity
  8
0
  6
Continuous
 62
     7
370
     0
100
AcDbLine
 10
59.1429885627
 20
114.1098564095
 30
0.0
 11
59.4492111505
 21
114.1098564095
 31
0.0
  0
LINE
  5
E0
330
1F
100
AcDbEntity
  8
0
  6
Continuous
 62
     7
370
     0
100
AcDbLine
 10
59.1429885627
 20
112.0552014164
 30
0.0
 11
59.1429885627
 21
114.1098564095
 31
0.0
  0
LINE
  5
E1
330
1F
100
AcDbEntity
  8
0
  6
Continuous
 62
     7
370
     0
100
AcDbLine
 10
59.4327476957
 20
112.0552014164
 30
0.0
 11
59.1429885627
 21
112.0552014164
 31
0.0
  0
LINE
  5
E2
330
1F
100
AcDbEntity
  8
0
  6
Continuous
 62
     7
370
     0
100
AcDbLine
 10
59.4327476957
 20
113.5883723455
 30
0.0
 11
59.4327476957
 21
112.0552014164
 31
0.0
  0
SPLINE
  5
E3
330
1F
100
AcDbEntity
  8
0
  6
Continuous
 62
     7
370
     0
100
AcDbSpline
210
0.0
220
0.0
230
1.0
 70
     8
 71
     3
 72
    23
 73
    19
 74
     0
 42
0.00000001
 43
0.00000001
 12
1.0
 22
0.0
 32
0.0
 13
1.0
 23
0.0
 33
0.0
 40
0.0
 40
0.0
 40
0.0
 40
0.0
 40
0.070464225929175
 40
0.137956965604269
 40
0.2035785636142838
 40
0.2676916802449441
 40
0.3301858648593756
 40
0.39153376408982
 40
0.4526637734870355
 40
0.5131537880892139
 40
0.5734535531000289
 40
0.632967559389193
 40
0.6923319074206217
 40
0.7514741915716303
 40
0.8121874455294297
 40
0.8729617178483159
 40
0.935420306759491
 40
0.9999999999999999
 40
0.9999999999999999
 40
0.9999999999999999
 40
0.9999999999999999
 10
69.77969701383087
 20
120.1898672877524
 30
0.0
 10
69.7948551985293
 20
120.1851221258898
 30
0.0
 10
69.82453234515926
 20
120.1758319063034
 30
0.0
 10
69.86719632643842
 20
120.1588321075023
 30
0.0
 10
69.90724477503255
 20
120.1394754036421
 30
0.0
 10
69.94476486535847
 20
120.117729986184
 30
0.0
 10
69.97950307891132
 20
120.0933944818513
 30
0.0
 10
70.01136139738101
 20
120.066430952925
 30
0.0
 10
70.04056071258265
 20
120.0372566529891
 30
0.0
 10
70.06704885707684
 20
120.0058893284181
 30
0.0
 10
70.09031591304273
 20
119.9725308346396
 30
0.0
 10
70.1111835556088
 20
119.9379102565835
 30
0.0
 10
70.12841514709558
 20
119.9016106861974
 30
0.0
 10
70.14253925513651
 20
119.8637263662492
 30
0.0
 10
70.15355815919116
 20
119.8244913887807
 30
0.0
 10
70.1614709317336
 20
119.783754849053
 30
0.0
 10
70.16598101006231
 20
119.7416115693414
 30
0.0
 10
70.16665840942375
 20
119.7129827810576
 30
0.0
 10
70.16700276422942
 20
119.6984293855464
 30
0.0
  0
SPLINE
  5
E4
330
1F
100
AcDbEntity
  8
0
  6
Continuous
 62
     7
370
     0
100
AcDbSpline
210
0.0
220
0.0
230
1.0
 70
     8
 71
     3
 72
    15
 73
    11
 74
     0
 42
0.00000001
 43
0.00000001
 12
1.0
 22
0.0
 32
0.0
 13
1.0
 23
0.0
 33
0.0
 40
0.0
 40
0.0
 40
0.0
 40
0.0
 40
0.1158426906010184
 40
0.2305685484828846
 40
0.3473546045205446
 40
0.4682527467344627
 40
0.5923025714800839
 40
0.7199701656206973
 40
0.8556003811349093
 40
0.9999999999999999
 40
0.9999999999999999
 40
0.9999999999999999
 40
0.9999999999999999
 10
70.08797757392493
 20
120.6319144460182
 30
0.0
 10
70.08701887722648
 20
120.6098810663657
 30
0.0
 10
70.08511072656935
 20
120.566026729607
 30
0.0
 10
70.06992398221067
 20
120.5014266242382
 30
0.0
 10
70.04595465337776
 20
120.4387003241572
 30
0.0
 10
70.01206134382306
 20
120.3786103923021
 30
0.0
 10
69.96874144580764
 20
120.3222561603095
 30
0.0
 10
69.91503714283702
 20
120.271544334885
 30
0.0
 10
69.85172016085961
 20
120.2263662347926
 30
0.0
 10
69.80420076799051
 20
120.2022849793176
 30
0.0
 10
69.77969701383087
 20
120.1898672877524
 30
0.0
  0
SPLINE
  5
E5
330
1F
100
AcDbEntity
  8
0
  6
Continuous
 62
     7
370
     0
100
AcDbSpline
210
0.0
220
0.0
230
1.0
 70
     8
 71
     3
 72
    23
 73
    19
 74
     0
 42
0.00000001
 43
0.00000001
 12
1.0
 22
0.0
 32
0.0
 13
1.0
 23
0.0
 33
0.0
 40
0.0
 40
0.0
 40
0.0
 40
0.0
 40
0.0587320371008649
 40
0.1146029008469823
 40
0.1676568100446118
 40
0.217966707090844
 40
0.2657752056293755
 40
0.3111706510536958
 40
0.3537918046646691
 40
0.3947449080003071
 40
0.4728059510824636
 40
0.5491923665616077
 40
0.6247801075795555
 40
0.7026247640242258
 40
0.7797414321940387
 40
0.8540634639886259
 40
0.9271552664103503
 40
0.9999999999999999
 40
0.9999999999999999
 40
0.9999999999999999
 40
0.9999999999999999
 10
69.4084432552129
 20
121.1645113015078
 30
0.0
 10
69.42751965168225
 20
121.1644381198499
 30
0.0
 10
69.46474312427075
 20
121.1642953216313
 30
0.0
 10
69.51909709138793
 20
121.160724086039
 30
0.0
 10
69.57057435701498
 20
121.1558393763702
 30
0.0
 10
69.61928573975706
 20
121.1495428358091
 30
0.0
 10
69.66502046598274
 20
121.1404066833158
 30
0.0
 10
69.70773591612826
 20
121.1293388452955
 30
0.0
 10
69.74765438044986
 20
121.1165724517138
 30
0.0
 10
69.79644862007079
 20
121.0971250991809
 30
0.0
 10
69.85267863168907
 20
121.0671914898643
 30
0.0
 10
69.91290631595601
 20
121.0225258213475
 30
0.0
 10
69.9653067412657
 20
120.9688983755061
 30
0.0
 10
70.00842458525935
 20
120.90741147217
 30
0.0
 10
70.04394903838889
 20
120.8417318631903
 30
0.0
 10
70.06913545977702
 20
120.7731108074808
 30
0.0
 10
70.0852385031302
 20
120.7030423526385
 30
0.0
 10
70.08706558140067
 20
120.6555969734027
 30
0.0
 10
70.08797757392493
 20
120.6319144460182
 30
0.0
  0
LINE
  5
E6
330
1F
100
AcDbEntity
  8
0
  6
Continuous
 62
     7
370
     0
100
AcDbLine
 10
68.6391824075
 20
121.1645112908
 30
0.0
 11
69.4084432126
 21
121.1645112908
 31
0.0
  0
LINE
  5
E7
330
1F
100
AcDbEntity
  8
0
  6
Continuous
 62
     7
370
     0
100
AcDbLine
 10
68.6391824075
 20
119.1098562977
 30
0.0
 11
68.6391824075
 21
121.1645112908
 31
0.0
  0
LINE
  5
E8
330
1F
100
AcDbEntity
  8
0
  6
Continuous
 62
     7
370
     0
100
AcDbLine
 10
69.4105014355
 20
119.1098562977
 30
0.0
 11
68.6391824075
 21
119.1098562977
 31
0.0
  0
SPLINE
  5
E9
330
1F
100
AcDbEntity
  8
0
  6
Continuous
 62
     7
370
     0
100
AcDbSpline
210
0.0
220
0.0
230
1.0
 70
     8
 71
     3
 72
    23
 73
    19
 74
     0
 42
0.00000001
 43
0.00000001
 12
1.0
 22
0.0
 32
0.0
 13
1.0
 23
0.0
 33
0.0
 40
0.0
 40
0.0
 40
0.0
 40
0.0
 40
0.064254575424703
 40
0.1273603868320973
 40
0.1894718420926418
 40
0.2517207629332009
 40
0.3120272840890017
 40
0.3686746571150511
 40
0.4226814918055485
 40
0.4740604252251507
 40
0.5257737722739171
 40
0.5796221048577139
 40
0.6373752855308659
 40
0.6984003818208013
 40
0.7643573310122579
 40
0.8363147679791494
 40
0.9146777942540467
 40
1.0
 40
1.0
 40
1.0
 40
1.0
 10
70.16700276422942
 20
119.6984293855464
 30
0.0
 10
70.16629299646927
 20
119.6750641126725
 30
0.0
 10
70.16488615040583
 20
119.6287512988068
 30
0.0
 10
70.15358760814033
 20
119.5605866251592
 30
0.0
 10
70.1344936707744
 20
119.4950179540933
 30
0.0
 10
70.10821248984938
 20
119.4331054517814
 30
0.0
 10
70.07689740487449
 20
119.3758582282661
 30
0.0
 10
70.04130671364082
 20
119.3247752024988
 30
0.0
 10
70.00234805241932
 20
119.2803820152931
 30
0.0
 10
69.95892438535522
 20
119.2430394099409
 30
0.0
 10
69.91131581373091
 20
119.2113464658968
 30
0.0
 10
69.85817767004268
 20
119.1846589343666
 30
0.0
 10
69.7999208088071
 20
119.1611230890973
 30
0.0
 10
69.73536119181166
 20
119.1423217870776
 30
0.0
 10
69.66452820644473
 20
119.1273860572599
 30
0.0
 10
69.58646058416967
 20
119.1176822892773
 30
0.0
 10
69.50103838584161
 20
119.1107356922579
 30
0.0
 10
69.44152369851753
 20
119.1101576583044
 30
0.0
 10
69.41050120287709
 20
119.1098563535911
 30
0.0
  0
LINE
  5
EA
330
1F
100
AcDbEntity
  8
0
  6
Continuous
 62
     7
370
     0
100
AcDbLine
 10
65.4518330504
 20
119.3469319097
 30
0.0
 11
66.4264770841
 21
119.3469319097
 31
0.0
  0
LINE
  5
EB
330
1F
100
AcDbEntity
  8
0
  6
Continuous
 62
     7
370
     0
100
AcDbLine
 10
65.4518330504
 20
121.1645112908
 30
0.0
 11
65.4518330504
 21
119.3469319097
 31
0.0
  0
LINE
  5
EC
330
1F
100
AcDbEntity
  8
0
  6
Continuous
 62
     7
370
     0
100
AcDbLine
 10
65.1620740338
 20
121.1645112908
 30
0.0
 11
65.4518330504
 21
121.1645112908
 31
0.0
  0
LINE
  5
ED
330
1F
100
AcDbEntity
  8
0
  6
Continuous
 62
     7
370
     0
100
AcDbLine
 10
65.1620740338
 20
119.1098562977
 30
0.0
 11
65.1620740338
 21
121.1645112908
 31
0.0
  0
LINE
  5
EE
330
1F
100
AcDbEntity
  8
0
  6
Continuous
 62
     7
370
     0
100
AcDbLine
 10
66.4264770841
 20
119.1098562977
 30
0.0
 11
65.1620740338
 21
119.1098562977
 31
0.0
  0
LINE
  5
EF
330
1F
100
AcDbEntity
  8
0
  6
Continuous
 62
     7
370
     0
100
AcDbLine
 10
66.4264770841
 20
119.3469319097
 30
0.0
 11
66.4264770841
 21
119.1098562977
 31
0.0
  0
SPLINE
  5
F0
330
1F
100
AcDbEntity
  8
0
  6
Continuous
 62
     7
370
     0
100
AcDbSpline
210
0.0
220
0.0
230
1.0
 70
     8
 71
     3
 72
    31
 73
    27
 74
     0
 42
0.00000001
 43
0.00000001
 12
1.0
 22
0.0
 32
0.0
 13
1.0
 23
0.0
 33
0.0
 40
0.0
 40
0.0
 40
0.0
 40
0.0
 40
0.0430989705688968
 40
0.0855867603450731
 40
0.1269076657436391
 40
0.1679674856215208
 40
0.208449558601066
 40
0.2490254246415442
 40
0.289280534171679
 40
0.3300098489827308
 40
0.3705977240995768
 40
0.4104659863326995
 40
0.4500332158929481
 40
0.4896882096042474
 40
0.5291164230741913
 40
0.5690368070925095
 40
0.6097030542359447
 40
0.6507589174942194
 40
0.6925092624061776
 40
0.7342191213706861
 40
0.7767069111468623
 40
0.8195518402403213
 40
0.8633507288313336
 40
0.9078385251300616
 40
0.9533337036124183
 40
0.9999999999999999
 40
0.9999999999999999
 40
0.9999999999999999
 40
0.9999999999999999
 10
61.76522563045079
 20
121.1908530316093
 30
0.0
 10
61.78842335546096
 20
121.1904479556591
 30
0.0
 10
61.83448984161568
 20
121.189643548087
 30
0.0
 10
61.90259502993608
 20
121.1835230807343
 30
0.0
 10
61.96895015444084
 20
121.1725991068198
 30
0.0
 10
62.03348987196563
 20
121.1579597567687
 30
0.0
 10
62.09638986001455
 20
121.1387535661332
 30
0.0
 10
62.15768768127991
 20
121.1160812425115
 30
0.0
 10
62.21684674182948
 20
121.087987041098
 30
0.0
 10
62.27426061112248
 20
121.0565327869481
 30
0.0
 10
62.32925156095585
 20
121.0213498436199
 30
0.0
 10
62.38093191791549
 20
120.9824833175201
 30
0.0
 10
62.42917789121474
 20
120.9402271544654
 30
0.0
 10
62.47463755513865
 20
120.8952759306028
 30
0.0
 10
62.51579398469323
 20
120.8461126048645
 30
0.0
 10
62.5543474566291
 20
120.7942347763816
 30
0.0
 10
62.58919011429079
 20
120.7387225671892
 30
0.0
 10
62.62044558709266
 20
120.680030805857
 30
0.0
 10
62.64839115594278
 20
120.6190659759024
 30
0.0
 10
62.6722760409691
 20
120.5555754029403
 30
0.0
 10
62.69278555591573
 20
120.4903207008191
 30
0.0
 10
62.70995375023786
 20
120.4229156314124
 30
0.0
 10
62.72227239287365
 20
120.3533832383999
 30
0.0
 10
62.73208186119135
 20
120.282023129993
 30
0.0
 10
62.73724485538359
 20
120.208602077355
 30
0.0
 10
62.7381676269068
 20
120.1590048479287
 30
0.0
 10
62.73863487560763
 20
120.1338911112868
 30
0.0
  0
SPLINE
  5
F1
330
1F
100
AcDbEntity
  8
0
  6
Continuous
 62
     7
370
     0
100
AcDbSpline
210
0.0
220
0.0
230
1.0
 70
     8
 71
     3
 72
    23
 73
    19
 74
     0
 42
0.00000001
 43
0.00000001
 12
1.0
 22
0.0
 32
0.0
 13
1.0
 23
0.0
 33
0.0
 40
0.0
 40
0.0
 40
0.0
 40
0.0
 40
0.0752263466908986
 40
0.1465747215268521
 40
0.2145002518264754
 40
0.2795299716530228
 40
0.3424029515883815
 40
0.4034960527288083
 40
0.4637616065030392
 40
0.523864359079587
 40
0.5832517242549666
 40
0.6413020392831352
 40
0.6988977748564889
 40
0.7562952438113089
 40
0.8146278048129693
 40
0.8743247683399981
 40
0.9357832838625454
 40
1.0
 40
1.0
 40
1.0
 40
1.0
 10
60.78934684809695
 20
120.1100189183823
 30
0.0
 10
60.79006096709093
 20
120.1512129791479
 30
0.0
 10
60.79145239173513
 20
120.2314775174498
 30
0.0
 10
60.80445322206942
 20
120.3483530275618
 30
0.0
 10
60.8255632335168
 20
120.4583175943995
 30
0.0
 10
60.85574186281389
 20
120.5613626509435
 30
0.0
 10
60.89399336217483
 20
120.6576496694948
 30
0.0
 10
60.94049536681482
 20
120.7473966772795
 30
0.0
 10
60.99664662628894
 20
120.8295878027811
 30
0.0
 10
61.06016800956743
 20
120.9050054521162
 30
0.0
 10
61.13111847708233
 20
120.9716801819497
 30
0.0
 10
61.20666055898683
 20
121.0308968946192
 30
0.0
 10
61.28773753891318
 20
121.0802906338836
 30
0.0
 10
61.37360032778612
 20
121.1210735787159
 30
0.0
 10
61.46461371955115
 20
121.1523855428032
 30
0.0
 10
61.56052217626167
 20
121.174306766828
 30
0.0
 10
61.66122312445795
 20
121.1884480865843
 30
0.0
 10
61.73005457932203
 20
121.1900397392407
 30
0.0
 10
61.76522563045079
 20
121.1908530316093
 30
0.0
  0
SPLINE
  5
F2
330
1F
100
AcDbEntity
  8
0
  6
Continuous
 62
     7
370
     0
100
AcDbSpline
210
0.0
220
0.0
230
1.0
 70
     8
 71
     3
 72
    31
 73
    27
 74
     0
 42
0.00000001
 43
0.00000001
 12
1.0
 22
0.0
 32
0.0
 13
1.0
 23
0.0
 33
0.0
 40
0.0
 40
0.0
 40
0.0
 40
0.0
 40
0.0446969998899172
 40
0.0885335629185875
 40
0.1314091332352275
 40
0.1738139421467784
 40
0.2157145332694449
 40
0.2572471603264208
 40
0.2988479641797118
 40
0.3406041827148144
 40
0.3820294481091345
 40
0.4229697500404858
 40
0.4636322295306198
 40
0.5040475437003948
 40
0.5445912057564577
 40
0.5849639251690937
 40
0.6262652162680832
 40
0.6679794005009907
 40
0.7099427472053506
 40
0.7513818550852256
 40
0.7926185649779642
 40
0.8339484357458206
 40
0.8750080506311037
 40
0.9164455302232759
 40
0.9579066137283071
 40
1.0
 40
1.0
 40
1.0
 40
1.0
 10
61.76399086185229
 20
119.0835146234896
 30
0.0
 10
61.74037630385472
 20
119.0838640038012
 30
0.0
 10
61.69360177846329
 20
119.0845560387
 30
0.0
 10
61.62446777018975
 20
119.0914637266298
 30
0.0
 10
61.55705370738463
 20
119.1020016451927
 30
0.0
 10
61.49155557472742
 20
119.1172152159543
 30
0.0
 10
61.42806287281764
 20
119.1370623939105
 30
0.0
 10
61.36650047525783
 20
119.1610847901193
 30
0.0
 10
61.30665186059811
 20
119.1889613527054
 30
0.0
 10
61.24925965110181
 20
119.2214902789376
 30
0.0
 10
61.19451918641359
 20
119.2576589483152
 30
0.0
 10
61.14296103088343
 20
119.297287567974
 30
0.0
 10
61.09461369428107
 20
119.3400109250128
 30
0.0
 10
61.05025295344117
 20
119.386535185547
 30
0.0
 10
61.00844210363032
 20
119.4351738270827
 30
0.0
 10
60.97085293046268
 20
119.4877347177742
 30
0.0
 10
60.93625783020104
 20
119.543025831642
 30
0.0
 10
60.90568052856293
 20
119.6015801510771
 30
0.0
 10
60.87805851248487
 20
119.6616576637141
 30
0.0
 10
60.85478636729899
 20
119.7232775867301
 30
0.0
 10
60.83433466197443
 20
119.7855318062518
 30
0.0
 10
60.81804694891444
 20
119.8488040312573
 30
0.0
 10
60.80506762366107
 20
119.9129483071359
 30
0.0
 10
60.79633996797493
 20
119.9778579000528
 30
0.0
 10
60.79003678867656
 20
120.0436294818026
 30
0.0
 10
60.78957798562875
 20
120.0877777414438
 30
0.0
 10
60.78934684809695
 20
120.1100189183823
 30
0.0
  0
SPLINE
  5
F3
330
1F
100
AcDbEntity
  8
0
  6
Continuous
 62
     7
370
     0
100
AcDbSpline
210
0.0
220
0.0
230
1.0
 70
     8
 71
     3
 72
    31
 73
    27
 74
     0
 42
0.00000001
 43
0.00000001
 12
1.0
 22
0.0
 32
0.0
 13
1.0
 23
0.0
 33
0.0
 40
0.0
 40
0.0
 40
0.0
 40
0.0
 40
0.0475595569054264
 40
0.0939621052432108
 40
0.1391115332408223
 40
0.1836263101269048
 40
0.2274570284004936
 40
0.2707025105518543
 40
0.3136105321155538
 40
0.3562604510849769
 40
0.3983661529550377
 40
0.4395565149792804
 40
0.4800453830214204
 40
0.5198884957050126
 40
0.5596577503171973
 40
0.5994212546627414
 40
0.6392077550883982
 40
0.6796683749857804
 40
0.7200198525128484
 40
0.7598588655624577
 40
0.7995598848323807
 40
0.8391991446364382
 40
0.878956076230279
 40
0.9187942693024659
 40
0.9590833628432751
 40
0.9999999999999999
 40
0.9999999999999999
 40
0.9999999999999999
 40
0.9999999999999999
 10
62.73863487560763
 20
120.1338911112868
 30
0.0
 10
62.73820677405603
 20
120.1083632485667
 30
0.0
 10
62.73736098562435
 20
120.0579285540571
 30
0.0
 10
62.73163803500878
 20
119.983421079283
 30
0.0
 10
62.72157509862438
 20
119.9110525595837
 30
0.0
 10
62.70822832681284
 20
119.8406072051222
 30
0.0
 10
62.69034406005618
 20
119.772231668473
 30
0.0
 10
62.66909135732132
 20
119.7057299127827
 30
0.0
 10
62.64338501266019
 20
119.6414980357867
 30
0.0
 10
62.61435255040891
 20
119.5793812253639
 30
0.0
 10
62.58150233168227
 20
119.5202338032236
 30
0.0
 10
62.54526631139526
 20
119.4644693560476
 30
0.0
 10
62.505618818656
 20
119.4126095161743
 30
0.0
 10
62.46316209427938
 20
119.3640180957409
 30
0.0
 10
62.41690466129607
 20
119.3195640002299
 30
0.0
 10
62.36741611675868
 20
119.2788315512279
 30
0.0
 10
62.31488674384448
 20
119.241436595453
 30
0.0
 10
62.25914007057121
 20
119.2083919052498
 30
0.0
 10
62.20117654702683
 20
119.1794270539466
 30
0.0
 10
62.14214317996359
 20
119.1537300124799
 30
0.0
 10
62.08199611807814
 20
119.1318145529151
 30
0.0
 10
62.02052979713086
 20
119.1140542511988
 30
0.0
 10
61.95791189121081
 20
119.1006332888791
 30
0.0
 10
61.89431861454928
 20
119.0905835307356
 30
0.0
 10
61.82954149957436
 20
119.0847968454861
 30
0.0
 10
61.78595335493355
 20
119.0839442271168
 30
0.0
 10
61.76399086185229
 20
119.0835146234896
 30
0.0
  0
LINE
  5
F4
330
1F
100
AcDbEntity
  8
0
  6
Continuous
 62
     7
370
     0
100
AcDbLine
 10
58.5239580051
 20
120.9274356789
 30
0.0
 11
57.8654146904
 21
120.9274356789
 31
0.0
  0
LINE
  5
F5
330
1F
100
AcDbEntity
  8
0
  6
Continuous
 62
     7
370
     0
100
AcDbLine
 10
58.5239580051
 20
121.1645112908
 30
0.0
 11
58.5239580051
 21
120.9274356789
 31
0.0
  0
LINE
  5
F6
330
1F
100
AcDbEntity
  8
0
  6
Continuous
 62
     7
370
     0
100
AcDbLine
 10
56.9171127082
 20
121.1645112908
 30
0.0
 11
58.5239580051
 21
121.1645112908
 31
0.0
  0
LINE
  5
F7
330
1F
100
AcDbEntity
  8
0
  6
Continuous
 62
     7
370
     0
100
AcDbLine
 10
56.9171127082
 20
120.9274356789
 30
0.0
 11
56.9171127082
 21
121.1645112908
 31
0.0
  0
LINE
  5
F8
330
1F
100
AcDbEntity
  8
0
  6
Continuous
 62
     7
370
     0
100
AcDbLine
 10
57.5756555573
 20
120.9274356789
 30
0.0
 11
56.9171127082
 21
120.9274356789
 31
0.0
  0
LINE
  5
F9
330
1F
100
AcDbEntity
  8
0
  6
Continuous
 62
     7
370
     0
100
AcDbLine
 10
57.5756555573
 20
119.1098562977
 30
0.0
 11
57.5756555573
 21
120.9274356789
 31
0.0
  0
LINE
  5
FA
330
1F
100
AcDbEntity
  8
0
  6
Continuous
 62
     7
370
     0
100
AcDbLine
 10
57.8654146904
 20
119.1098562977
 30
0.0
 11
57.5756555573
 21
119.1098562977
 31
0.0
  0
LINE
  5
FB
330
1F
100
AcDbEntity
  8
0
  6
Continuous
 62
     7
370
     0
100
AcDbLine
 10
57.8654146904
 20
120.9274356789
 30
0.0
 11
57.8654146904
 21
119.1098562977
 31
0.0
  0
CIRCLE
  5
FC
330
1F
100
AcDbEntity
  8
0
  6
Continuous
 62
     7
370
     0
100
AcDbCircle
 10
64.5167016575
 20
116.6098563536
 30
0.0
 40
25.2
  0
LINE
  5
FD
330
1F
100
AcDbEntity
  8
0
  6
Continuous
 62
     7
370
     0
100
AcDbLine
 10
60.1308037677
 20
120.0845002732
 30
0.0
 11
59.1298177989
 21
120.0845002732
 31
0.0
  0
LINE
  5
FE
330
1F
100
AcDbEntity
  8
0
  6
Continuous
 62
     7
370
     0
100
AcDbLine
 10
60.1308037677
 20
119.1098562977
 30
0.0
 11
60.1308037677
 21
120.0845002732
 31
0.0
  0
LINE
  5
FF
330
1F
100
AcDbEntity
  8
0
  6
Continuous
 62
     7
370
     0
100
AcDbLine
 10
60.4205624351
 20
119.1098562977
 30
0.0
 11
60.1308037677
 21
119.1098562977
 31
0.0
  0
LINE
  5
100
330
1F
100
AcDbEntity
  8
0
  6
Continuous
 62
     7
370
     0
100
AcDbLine
 10
60.4205624351
 20
121.1645112908
 30
0.0
 11
60.4205624351
 21
119.1098562977
 31
0.0
  0
LINE
  5
101
330
1F
100
AcDbEntity
  8
0
  6
Continuous
 62
     7
370
     0
100
AcDbLine
 10
60.1308037677
 20
121.1645112908
 30
0.0
 11
60.4205624351
 21
121.1645112908
 31
0.0
  0
LINE
  5
102
330
1F
100
AcDbEntity
  8
0
  6
Continuous
 62
     7
370
     0
100
AcDbLine
 10
60.1308037677
 20
120.3215758852
 30
0.0
 11
60.1308037677
 21
121.1645112908
 31
0.0
  0
LINE
  5
103
330
1F
100
AcDbEntity
  8
0
  6
Continuous
 62
     7
370
     0
100
AcDbLine
 10
59.1298177989
 20
120.3215758852
 30
0.0
 11
60.1308037677
 21
120.3215758852
 31
0.0
  0
LINE
  5
104
330
1F
100
AcDbEntity
  8
0
  6
Continuous
 62
     7
370
     0
100
AcDbLine
 10
59.1298177989
 20
121.1645112908
 30
0.0
 11
59.1298177989
 21
120.3215758852
 31
0.0
  0
LINE
  5
105
330
1F
100
AcDbEntity
  8
0
  6
Continuous
 62
     7
370
     0
100
AcDbLine
 10
58.8400586659
 20
121.1645112908
 30
0.0
 11
59.1298177989
 21
121.1645112908
 31
0.0
  0
LINE
  5
106
330
1F
100
AcDbEntity
  8
0
  6
Continuous
 62
     7
370
     0
100
AcDbLine
 10
58.8400586659
 20
119.1098562977
 30
0.0
 11
58.8400586659
 21
121.1645112908
 31
0.0
  0
LINE
  5
107
330
1F
100
AcDbEntity
  8
0
  6
Continuous
 62
     7
370
     0
100
AcDbLine
 10
59.1298177989
 20
119.1098562977
 30
0.0
 11
58.8400586659
 21
119.1098562977
 31
0.0
  0
LINE
  5
108
330
1F
100
AcDbEntity
  8
0
  6
Continuous
 62
     7
370
     0
100
AcDbLine
 10
59.1298177989
 20
120.0845002732
 30
0.0
 11
59.1298177989
 21
119.1098562977
 31
0.0
  0
LINE
  5
109
330
1F
100
AcDbEntity
  8
0
  6
Continuous
 62
     7
370
     0
100
AcDbLine
 10
63.6939341586
 20
120.031816985
 30
0.0
 11
63.3971781155
 21
120.031816985
 31
0.0
  0
SPLINE
  5
10A
330
1F
100
AcDbEntity
  8
0
  6
Continuous
 62
     7
370
     0
100
AcDbSpline
210
0.0
220
0.0
230
1.0
 70
     8
 71
     3
 72
    11
 73
     7
 74
     0
 42
0.00000001
 43
0.00000001
 12
1.0
 22
0.0
 32
0.0
 13
1.0
 23
0.0
 33
0.0
 40
0.0
 40
0.0
 40
0.0
 40
0.0
 40
0.1774946570818496
 40
0.4052256231013751
 40
0.6783881083348569
 40
0.9999999999999999
 40
0.9999999999999999
 40
0.9999999999999999
 40
0.9999999999999999
 10
63.83675574921374
 20
120.0223503478882
 30
0.0
 10
63.8284041685619
 20
120.0238564217175
 30
0.0
 10
63.80933725956779
 20
120.027294833419
 30
0.0
 10
63.77696169567468
 20
120.0295404655832
 30
0.0
 10
63.73773472812947
 20
120.0319239036895
 30
0.0
 10
63.70930627625247
 20
120.0318544582971
 30
0.0
 10
63.69393418131969
 20
120.0318169071435
 30
0.0
  0
SPLINE
  5
10B
330
1F
100
AcDbEntity
  8
0
  6
Continuous
 62
     7
370
     0
100
AcDbSpline
210
0.0
220
0.0
230
1.0
 70
     8
 71
     3
 72
    21
 73
    17
 74
     0
 42
0.00000001
 43
0.00000001
 12
1.0
 22
0.0
 32
0.0
 13
1.0
 23
0.0
 33
0.0
 40
0.0
 40
0.0
 40
0.0
 40
0.0
 40
0.0807814705861227
 40
0.1565412257955893
 40
0.2279349868434863
 40
0.2943103173046009
 40
0.3568678635548113
 40
0.4147585592592751
 40
0.4676413968340161
 40
0.5167484215300132
 40
0.6047297418940532
 40
0.6815706529393897
 40
0.7481095416219827
 40
0.8049410995352805
 40
0.9054060495000025
 40
1.0
 40
1.0
 40
1.0
 40
1.0
 10
64.26810157962574
 20
119.5436717212001
 30
0.0
 10
64.25889679307497
 20
119.5588926548141
 30
0.0
 10
64.24105942815218
 20
119.5883883249026
 30
0.0
 10
64.21529399355761
 20
119.631465331154
 30
0.0
 10
64.19003183205587
 20
119.6711245790139
 30
0.0
 10
64.16660160936534
 20
119.7084995513689
 30
0.0
 10
64.14405248778837
 20
119.7429117240284
 30
0.0
 10
64.12260234461405
 20
119.7744806381757
 30
0.0
 10
64.10284149730772
 20
119.8036204367236
 30
0.0
 10
64.07836513315156
 20
119.8375467455726
 30
0.0
 10
64.04987871053177
 20
119.8750865211342
 30
0.0
 10
64.01663700985941
 20
119.9137454011485
 30
0.0
 10
63.98498105501958
 20
119.9445676112204
 30
0.0
 10
63.94599616242244
 20
119.9747920668835
 30
0.0
 10
63.89770747499349
 20
120.0030619647254
 30
0.0
 10
63.85666117915201
 20
120.0160512061534
 30
0.0
 10
63.83675574921374
 20
120.0223503478882
 30
0.0
  0
LINE
  5
10C
330
1F
100
AcDbEntity
  8
0
  6
Continuous
 62
     7
370
     0
100
AcDbLine
 10
64.524110269
 20
119.1098562977
 30
0.0
 11
64.2681015689
 21
119.5436717081
 31
0.0
  0
LINE
  5
10D
330
1F
100
AcDbEntity
  8
0
  6
Continuous
 62
     7
370
     0
100
AcDbLine
 10
64.8562630323
 20
119.1098562977
 30
0.0
 11
64.524110269
 21
119.1098562977
 31
0.0
  0
LINE
  5
10E
330
1F
100
AcDbEntity
  8
0
  6
Continuous
 62
     7
370
     0
100
AcDbLine
 10
64.5191711946
 20
119.6770266234
 30
0.0
 11
64.8562630323
 21
119.1098562977
 31
0.0
  0
SPLINE
  5
10F
330
1F
100
AcDbEntity
  8
0
  6
Continuous
 62
     7
370
     0
100
AcDbSpline
210
0.0
220
0.0
230
1.0
 70
     8
 71
     3
 72
    11
 73
     7
 74
     0
 42
0.00000001
 43
0.00000001
 12
1.0
 22
0.0
 32
0.0
 13
1.0
 23
0.0
 33
0.0
 40
0.0
 40
0.0
 40
0.0
 40
0.0
 40
0.2295275697008571
 40
0.4714659343032296
 40
0.7281863484998701
 40
1.0
 40
1.0
 40
1.0
 40
1.0
 10
64.30267510038394
 20
119.9569076121673
 30
0.0
 10
64.3220849102559
 20
119.9378803262886
 30
0.0
 10
64.36195403864802
 20
119.898796929354
 30
0.0
 10
64.41689542933607
 20
119.8322264554322
 30
0.0
 10
64.47016299450479
 20
119.7581233028608
 30
0.0
 10
64.5025270566763
 20
119.7045687033632
 30
0.0
 10
64.51917119465561
 20
119.677026729839
 30
0.0
  0
SPLINE
  5
110
330
1F
100
AcDbEntity
  8
0
  6
Continuous
 62
     7
370
     0
100
AcDbSpline
210
0.0
220
0.0
230
1.0
 70
     8
 71
     3
 72
    11
 73
     7
 74
     0
 42
0.00000001
 43
0.00000001
 12
1.0
 22
0.0
 32
0.0
 13
1.0
 23
0.0
 33
0.0
 40
0.0
 40
0.0
 40
0.0
 40
0.0
 40
0.2930762433192209
 40
0.5565623371181895
 40
0.7919136092098107
 40
1.0
 40
1.0
 40
1.0
 40
1.0
 10
64.14297836164363
 20
120.058158637245
 30
0.0
 10
64.15952020865052
 20
120.0498020610099
 30
0.0
 10
64.19093377164062
 20
120.0339326218938
 30
0.0
 10
64.2344262388583
 20
120.0090494791874
 30
0.0
 10
64.27129329778286
 20
119.9836250390682
 30
0.0
 10
64.29265225317984
 20
119.9654407321706
 30
0.0
 10
64.30267510038394
 20
119.9569076121673
 30
0.0
  0
SPLINE
  5
111
330
1F
100
AcDbEntity
  8
0
  6
Continuous
 62
     7
370
     0
100
AcDbSpline
210
0.0
220
0.0
230
1.0
 70
     8
 71
     3
 72
    23
 73
    19
 74
     0
 42
0.00000001
 43
0.00000001
 12
1.0
 22
0.0
 32
0.0
 13
1.0
 23
0.0
 33
0.0
 40
0.0
 40
0.0
 40
0.0
 40
0.0
 40
0.0614130692946597
 40
0.1212950233845467
 40
0.1792240423087195
 40
0.2359380947348317
 40
0.2922168332673605
 40
0.3481966394342065
 40
0.4044447389633584
 40
0.4620255339229973
 40
0.5203342118681484
 40
0.5803829016508378
 40
0.6418259048139877
 40
0.7063632097966276
 40
0.7738513938275593
 40
0.8452662573568825
 40
0.9201546757684059
 40
1.0
 40
1.0
 40
1.0
 40
1.0
 10
64.6879229031183
 20
120.6105117903107
 30
0.0
 10
64.68752084284253
 20
120.5929359416854
 30
0.0
 10
64.68672674622574
 20
120.5582224353505
 30
0.0
 10
64.68064388626199
 20
120.5071842892832
 30
0.0
 10
64.6696374422831
 20
120.458419393064
 30
0.0
 10
64.65552384728592
 20
120.4115006724742
 30
0.0
 10
64.63620664135776
 20
120.3670928907896
 30
0.0
 10
64.61382849674862
 20
120.3242890055364
 30
0.0
 10
64.5861051571819
 20
120.2842649536417
 30
0.0
 10
64.5550658128338
 20
120.2459549587756
 30
0.0
 10
64.51947200851153
 20
120.2101795187478
 30
0.0
 10
64.47901062627845
 20
120.1782293234763
 30
0.0
 10
64.43408275053201
 20
120.1494900588736
 30
0.0
 10
64.38447678901304
 20
120.1247546524166
 30
0.0
 10
64.33076375621043
 20
120.1021453165865
 30
0.0
 10
64.27226970111019
 20
120.0839391899982
 30
0.0
 10
64.2092307008411
 20
120.069072491578
 30
0.0
 10
64.16552913556733
 20
120.0618734624826
 30
0.0
 10
64.14297836164363
 20
120.058158637245
 30
0.0
  0
SPLINE
  5
112
330
1F
100
AcDbEntity
  8
0
  6
Continuous
 62
     7
370
     0
100
AcDbSpline
210
0.0
220
0.0
230
1.0
 70
     8
 71
     3
 72
    27
 73
    23
 74
     0
 42
0.00000001
 43
0.00000001
 12
1.0
 22
0.0
 32
0.0
 13
1.0
 23
0.0
 33
0.0
 40
0.0
 40
0.0
 40
0.0
 40
0.0
 40
0.0621127506505294
 40
0.1202119588785538
 40
0.1743851213884739
 40
0.2254437557784868
 40
0.2723582126361769
 40
0.3163881629634407
 40
0.3568694790582284
 40
0.3939783235063669
 40
0.4295893718770921
 40
0.4646830409549869
 40
0.5000363461428402
 40
0.5354827477530638
 40
0.5713634671484435
 40
0.60790853220526
 40
0.6456622985331157
 40
0.6845173397035778
 40
0.7625786223763459
 40
0.8404972886541803
 40
0.9190729926935229
 40
1.0
 40
1.0
 40
1.0
 40
1.0
 10
63.99892202515106
 20
121.1645113015078
 30
0.0
 10
64.01991418933763
 20
121.1643468192145
 30
0.0
 10
64.06054206608655
 20
121.1640284829878
 30
0.0
 10
64.11946087612012
 20
121.1617750240343
 30
0.0
 10
64.17445567871604
 20
121.1569171576781
 30
0.0
 10
64.22562759091598
 20
121.1516640522571
 30
0.0
 10
64.27296752093821
 20
121.1436012370463
 30
0.0
 10
64.3164266294661
 20
121.1343533701431
 30
0.0
 10
64.35607201516562
 20
121.1233482687119
 30
0.0
 10
64.39208091689102
 20
121.1103503955377
 30
0.0
 10
64.42548932591374
 20
121.09564524925
 30
0.0
 10
64.45645639756698
 20
121.0775014728898
 30
0.0
 10
64.48626939310714
 20
121.0576197626768
 30
0.0
 10
64.51382184826247
 20
121.0342617202442
 30
0.0
 10
64.53984046173308
 20
121.0086868257846
 30
0.0
 10
64.56430111865032
 20
120.9805475707412
 30
0.0
 10
64.58684169845297
 20
120.9495997636488
 30
0.0
 10
64.61464280423723
 20
120.9053070336766
 30
0.0
 10
64.64446772256824
 20
120.8463184447204
 30
0.0
 10
64.66931656421465
 20
120.7708258323524
 30
0.0
 10
64.68533865278695
 20
120.6918578042993
 30
0.0
 10
64.68705306204119
 20
120.6378923051044
 30
0.0
 10
64.6879229031183
 20
120.6105117903107
 30
0.0
  0
LINE
  5
113
330
1F
100
AcDbEntity
  8
0
  6
Continuous
 62
     7
370
     0
100
AcDbLine
 10
63.1074190989
 20
121.1645112908
 30
0.0
 11
63.9989220455
 21
121.1645112908
 31
0.0
  0
LINE
  5
114
330
1F
100
AcDbEntity
  8
0
  6
Continuous
 62
     7
370
     0
100
AcDbLine
 10
63.1074190989
 20
119.1098562977
 30
0.0
 11
63.1074190989
 21
121.1645112908
 31
0.0
  0
LINE
  5
115
330
1F
100
AcDbEntity
  8
0
  6
Continuous
 62
     7
370
     0
100
AcDbLine
 10
63.3971781155
 20
119.1098562977
 30
0.0
 11
63.1074190989
 21
119.1098562977
 31
0.0
  0
LINE
  5
116
330
1F
100
AcDbEntity
  8
0
  6
Continuous
 62
     7
370
     0
100
AcDbLine
 10
63.3971781155
 20
120.031816985
 30
0.0
 11
63.3971781155
 21
119.1098562977
 31
0.0
  0
LINE
  5
117
330
1F
100
AcDbEntity
  8
0
  6
Continuous
 62
     7
370
     0
100
AcDbLine
 10
67.8785649744
 20
119.742057852
 30
0.0
 11
67.0027024263
 21
119.742057852
 31
0.0
  0
LINE
  5
118
330
1F
100
AcDbEntity
  8
0
  6
Continuous
 62
     7
370
     0
100
AcDbLine
 10
68.1123478954
 20
119.1098562977
 30
0.0
 11
67.8785649744
 21
119.742057852
 31
0.0
  0
LINE
  5
119
330
1F
100
AcDbEntity
  8
0
  6
Continuous
 62
     7
370
     0
100
AcDbLine
 10
68.4198051841
 20
119.1098562977
 30
0.0
 11
68.1123478954
 21
119.1098562977
 31
0.0
  0
LINE
  5
11A
330
1F
100
AcDbEntity
  8
0
  6
Continuous
 62
     7
370
     0
100
AcDbLine
 10
67.6040348282
 20
121.1645112908
 30
0.0
 11
68.4198051841
 21
119.1098562977
 31
0.0
  0
LINE
  5
11B
330
1F
100
AcDbEntity
  8
0
  6
Continuous
 62
     7
370
     0
100
AcDbLine
 10
67.2772325726
 20
121.1645112908
 30
0.0
 11
67.6040348282
 21
121.1645112908
 31
0.0
  0
LINE
  5
11C
330
1F
100
AcDbEntity
  8
0
  6
Continuous
 62
     7
370
     0
100
AcDbLine
 10
66.4614622166
 20
119.1098562977
 30
0.0
 11
67.2772325726
 21
121.1645112908
 31
0.0
  0
LINE
  5
11D
330
1F
100
AcDbEntity
  8
0
  6
Continuous
 62
     7
370
     0
100
AcDbLine
 10
66.7689195053
 20
119.1098562977
 30
0.0
 11
66.4614622166
 21
119.1098562977
 31
0.0
  0
LINE
  5
11E
330
1F
100
AcDbEntity
  8
0
  6
Continuous
 62
     7
370
     0
100
AcDbLine
 10
67.0027024263
 20
119.742057852
 30
0.0
 11
66.7689195053
 21
119.1098562977
 31
0.0
  0
SPLINE
  5
11F
330
1F
100
AcDbEntity
  8
0
  6
Continuous
 62
     7
370
     0
100
AcDbSpline
210
0.0
220
0.0
230
1.0
 70
     8
 71
     3
 72
    23
 73
    19
 74
     0
 42
0.00000001
 43
0.00000001
 12
1.0
 22
0.0
 32
0.0
 13
1.0
 23
0.0
 33
0.0
 40
0.0
 40
0.0
 40
0.0
 40
0.0
 40
0.0749313059818451
 40
0.1470775964339471
 40
0.2163644561730686
 40
0.2825027309006237
 40
0.3466877108244162
 40
0.4088355551310385
 40
0.4692619872876919
 40
0.528432043253463
 40
0.5870013379727417
 40
0.6444163938320673
 40
0.7021887902662974
 40
0.7597671795443346
 40
0.8184897928274493
 40
0.8776328274167845
 40
0.9380195662701677
 40
1.0
 40
1.0
 40
1.0
 40
1.0
 10
71.68082906599976
 20
120.1898672877524
 30
0.0
 10
71.69560196200025
 20
120.1830560340154
 30
0.0
 10
71.7245986811639
 20
120.1696866843794
 30
0.0
 10
71.7656764167159
 20
120.1468605310761
 30
0.0
 10
71.80400640052636
 20
120.1231567997003
 30
0.0
 10
71.8392789519427
 20
120.0979373057599
 30
0.0
 10
71.87138001776094
 20
120.071149000679
 30
0.0
 10
71.90066852539691
 20
120.0430988194991
 30
0.0
 10
71.9273213671581
 20
120.0139444088121
 30
0.0
 10
71.95026310341758
 20
119.9827526577281
 30
0.0
 10
71.97086242881785
 20
119.9507844773359
 30
0.0
 10
71.988888210231
 20
119.9175930712307
 30
0.0
 10
72.00340222324766
 20
119.8829832471129
 30
0.0
 10
72.0161319179545
 20
119.8473721942808
 30
0.0
 10
72.02528821975964
 20
119.8103638142371
 30
0.0
 10
72.03246860718846
 20
119.7723319163378
 30
0.0
 10
72.03665680709368
 20
119.7330977396073
 30
0.0
 10
72.03706091563514
 20
119.7065337164629
 30
0.0
 10
72.0372656014356
 20
119.6930787216196
 30
0.0
  0
SPLINE
  5
120
330
1F
100
AcDbEntity
  8
0
  6
Continuous
 62
     7
370
     0
100
AcDbSpline
210
0.0
220
0.0
230
1.0
 70
     8
 71
     3
 72
    23
 73
    19
 74
     0
 42
0.00000001
 43
0.00000001
 12
1.0
 22
0.0
 32
0.0
 13
1.0
 23
0.0
 33
0.0
 40
0.0
 40
0.0
 40
0.0
 40
0.0
 40
0.0327432182311376
 40
0.0724096054938576
 40
0.1196114857927605
 40
0.1746729151985131
 40
0.2373450901947014
 40
0.3083524168429163
 40
0.3876300477623598
 40
0.4747836155862523
 40
0.5633323159904136
 40
0.6451362168299873
 40
0.7202025267224655
 40
0.789134156332447
 40
0.8514970735699656
 40
0.907330604431562
 40
0.9569686823424193
 40
1.0
 40
1.0
 40
1.0
 40
1.0
 10
70.87287881304295
 20
120.4656322747525
 30
0.0
 10
70.88001429004215
 20
120.4595505284045
 30
0.0
 10
70.89579395686889
 20
120.4461011218537
 30
0.0
 10
70.92515445947058
 20
120.4283024070055
 30
0.0
 10
70.96155712830917
 20
120.4103190740021
 30
0.0
 10
71.00524520005938
 20
120.3924422493866
 30
0.0
 10
71.05614350782727
 20
120.3744549103706
 30
0.0
 10
71.11416995163623
 20
120.3559347328959
 30
0.0
 10
71.17954554736605
 20
120.3375407341055
 30
0.0
 10
71.25027797571327
 20
120.3198150728565
 30
0.0
 10
71.32173422144153
 20
120.3020181530871
 30
0.0
 10
71.38964167799855
 20
120.284289062583
 30
0.0
 10
71.45199221776747
 20
120.2674867635608
 30
0.0
 10
71.50868691709115
 20
120.2510988731566
 30
0.0
 10
71.55978445674987
 20
120.2351717304
 30
0.0
 10
71.60510725407079
 20
120.2193716411199
 30
0.0
 10
71.64502198762531
 20
120.2048395667769
 30
0.0
 10
71.66947447745494
 20
120.1946150660024
 30
0.0
 10
71.68082906599976
 20
120.1898672877524
 30
0.0
  0
SPLINE
  5
121
330
1F
100
AcDbEntity
  8
0
  6
Continuous
 62
     7
370
     0
100
AcDbSpline
210
0.0
220
0.0
230
1.0
 70
     8
 71
     3
 72
    11
 73
     7
 74
     0
 42
0.00000001
 43
0.00000001
 12
1.0
 22
0.0
 32
0.0
 13
1.0
 23
0.0
 33
0.0
 40
0.0
 40
0.0
 40
0.0
 40
0.0
 40
0.2627412305282685
 40
0.5099565029432362
 40
0.7533267184204515
 40
1.0
 40
1.0
 40
1.0
 40
1.0
 10
70.79920428666532
 20
120.6471432587331
 30
0.0
 10
70.79995309220605
 20
120.6294659106867
 30
0.0
 10
70.80140645471853
 20
120.595155808032
 30
0.0
 10
70.81624741091294
 20
120.5464114946514
 30
0.0
 10
70.83907290537478
 20
120.5019778946925
 30
0.0
 10
70.86155965427922
 20
120.4778017998694
 30
0.0
 10
70.87287881304295
 20
120.4656322747525
 30
0.0
  0
SPLINE
  5
122
330
1F
100
AcDbEntity
  8
0
  6
Continuous
 62
     7
370
     0
100
AcDbSpline
210
0.0
220
0.0
230
1.0
 70
     8
 71
     3
 72
    23
 73
    19
 74
     0
 42
0.00000001
 43
0.00000001
 12
1.0
 22
0.0
 32
0.0
 13
1.0
 23
0.0
 33
0.0
 40
0.0
 40
0.0
 40
0.0
 40
0.0
 40
0.0915110363280375
 40
0.1771428603141496
 40
0.2571084852282353
 40
0.3311983993883852
 40
0.4005922945239584
 40
0.4656249598049649
 40
0.5269734913138605
 40
0.5854431157040239
 40
0.6413985080863311
 40
0.6950441672657246
 40
0.7467815514927489
 40
0.7969589345766999
 40
0.8475448623598802
 40
0.89743854141874
 40
0.9476489188871292
 40
1.0
 40
1.0
 40
1.0
 40
1.0
 10
71.23425442287284
 20
120.9537774606958
 30
0.0
 10
71.2159947102725
 20
120.9536398276143
 30
0.0
 10
71.1806483974306
 20
120.9533734038177
 30
0.0
 10
71.12955129381983
 20
120.9485168309076
 30
0.0
 10
71.08219088358479
 20
120.9418534406062
 30
0.0
 10
71.03864851325751
 20
120.932024373296
 30
0.0
 10
70.99906682195792
 20
120.9191580911853
 30
0.0
 10
70.9628583606501
 20
120.9043004877255
 30
0.0
 10
70.93103646153462
 20
120.8854720236593
 30
0.0
 10
70.90285930123969
 20
120.8644995635459
 30
0.0
 10
70.87855293170409
 20
120.8412946949629
 30
0.0
 10
70.85760444174596
 20
120.8168423738719
 30
0.0
 10
70.83907712038206
 20
120.7918610270448
 30
0.0
 10
70.82468098300535
 20
120.7649851576914
 30
0.0
 10
70.81296036339508
 20
120.7372325957994
 30
0.0
 10
70.80539927588092
 20
120.7080816841012
 30
0.0
 10
70.8000458492919
 20
120.6780716387301
 30
0.0
 10
70.79948868399953
 20
120.6575951829809
 30
0.0
 10
70.79920428666532
 20
120.6471432587331
 30
0.0
  0
SPLINE
  5
123
330
1F
100
AcDbEntity
  8
0
  6
Continuous
 62
     7
370
     0
100
AcDbSpline
210
0.0
220
0.0
230
1.0
 70
     8
 71
     3
 72
    23
 73
    19
 74
     0
 42
0.00000001
 43
0.00000001
 12
1.0
 22
0.0
 32
0.0
 13
1.0
 23
0.0
 33
0.0
 40
0.0
 40
0.0
 40
0.0
 40
0.0
 40
0.0671554674490454
 40
0.1314033464826136
 40
0.1927317719102087
 40
0.2512526591565253
 40
0.307703729884191
 40
0.3626989162982
 40
0.4177783327854303
 40
0.4723043857981141
 40
0.5278725997916962
 40
0.5852299868117373
 40
0.6450565760102913
 40
0.7079523564294421
 40
0.7744342720454271
 40
0.8449404313752613
 40
0.9204035944750272
 40
1.0
 40
1.0
 40
1.0
 40
1.0
 10
71.69482311011618
 20
120.5849932392749
 30
0.0
 10
71.69298202393182
 20
120.5997058505265
 30
0.0
 10
71.68937956392408
 20
120.6284940702709
 30
0.0
 10
71.6804423388517
 20
120.6701693493406
 30
0.0
 10
71.6679141477156
 20
120.7088754732055
 30
0.0
 10
71.65323979642088
 20
120.7449734026743
 30
0.0
 10
71.63545141046437
 20
120.7780876795532
 30
0.0
 10
71.6147152997261
 20
120.808536273343
 30
0.0
 10
71.59077894236609
 20
120.835960447655
 30
0.0
 10
71.56425824604142
 20
120.8610848543095
 30
0.0
 10
71.53434619083639
 20
120.8829611991374
 30
0.0
 10
71.50119647419073
 20
120.901950538053
 30
0.0
 10
71.46475313832569
 20
120.9179921811838
 30
0.0
 10
71.42504828975301
 20
120.9311308101055
 30
0.0
 10
71.38207406768808
 20
120.9413179890499
 30
0.0
 10
71.33573272676304
 20
120.948811872357
 30
0.0
 10
71.28604217862713
 20
120.9526498255227
 30
0.0
 10
71.25182107219078
 20
120.9533949615634
 30
0.0
 10
71.23425442287284
 20
120.9537774606958
 30
0.0
  0
LINE
  5
124
330
1F
100
AcDbEntity
  8
0
  6
Continuous
 62
     7
370
     0
100
AcDbLine
 10
71.9845820369
 20
120.5849930248
 30
0.0
 11
71.6948229039
 21
120.5849930248
 31
0.0
  0
SPLINE
  5
125
330
1F
100
AcDbEntity
  8
0
  6
Continuous
 62
     7
370
     0
100
AcDbSpline
210
0.0
220
0.0
230
1.0
 70
     8
 71
     3
 72
    23
 73
    19
 74
     0
 42
0.00000001
 43
0.00000001
 12
1.0
 22
0.0
 32
0.0
 13
1.0
 23
0.0
 33
0.0
 40
0.0
 40
0.0
 40
0.0
 40
0.0
 40
0.1004750608070148
 40
0.1956443031597846
 40
0.2860833790699327
 40
0.3729828804699541
 40
0.4150256681909619
 40
0.4560516735090281
 40
0.4959387495188997
 40
0.5355660888033519
 40
0.5740871099085046
 40
0.612519287487098
 40
0.6510809601344453
 40
0.6895131377130388
 40
0.766237460327735
 40
0.8423504388672229
 40
0.919974494737104
 40
1.0
 40
1.0
 40
1.0
 40
1.0
 10
71.22272991595344
 20
121.1908530316093
 30
0.0
 10
71.25926368377138
 20
121.1900159161141
 30
0.0
 10
71.33040196912431
 20
121.1883858909475
 30
0.0
 10
71.43376790848072
 20
121.1748243784893
 30
0.0
 10
71.53018003251128
 20
121.1515356929982
 30
0.0
 10
71.60578972812623
 20
121.125466346142
 30
0.0
 10
71.66168709188864
 20
121.0990746695747
 30
0.0
 10
71.7013981355426
 20
121.078481512331
 30
0.0
 10
71.73825783672812
 20
121.0546720711779
 30
0.0
 10
71.77259800709986
 20
121.0289065310491
 30
0.0
 10
71.80473762036802
 20
121.0011966589516
 30
0.0
 10
71.83385061630257
 20
120.9708833286073
 30
0.0
 10
71.86120116238631
 20
120.9390007759925
 30
0.0
 10
71.8933418653312
 20
120.8932274197634
 30
0.0
 10
71.92799635699761
 20
120.8326466417567
 30
0.0
 10
71.95795988215816
 20
120.7541618375966
 30
0.0
 10
71.97854517344892
 20
120.6713275708219
 30
0.0
 10
71.98254948629548
 20
120.6140621214608
 30
0.0
 10
71.98458214123262
 20
120.5849932392749
 30
0.0
  0
SPLINE
  5
126
330
1F
100
AcDbEntity
  8
0
  6
Continuous
 62
     7
370
     0
100
AcDbSpline
210
0.0
220
0.0
230
1.0
 70
     8
 71
     3
 72
    23
 73
    19
 74
     0
 42
0.00000001
 43
0.00000001
 12
1.0
 22
0.0
 32
0.0
 13
1.0
 23
0.0
 33
0.0
 40
0.0
 40
0.0
 40
0.0
 40
0.0
 40
0.0749954673898314
 40
0.1491654404266557
 40
0.223664294338224
 40
0.3004120221906725
 40
0.3395704846106345
 40
0.3789205746932792
 40
0.4180957375990932
 40
0.4582296767501549
 40
0.4984267212184582
 40
0.5397075464534796
 40
0.5822159516458437
 40
0.6258238199943749
 40
0.715481264873698
 40
0.8073840844133601
 40
0.9016341255073719
 40
1.0
 40
1.0
 40
1.0
 40
1.0
 10
70.50944525554887
 20
120.6282101402226
 30
0.0
 10
70.51042316008196
 20
120.6536825991485
 30
0.0
 10
70.512368205102
 20
120.7043471351088
 30
0.0
 10
70.5296218203952
 20
120.7786941831834
 30
0.0
 10
70.55714166687362
 20
120.8502358190141
 30
0.0
 10
70.58846760983516
 20
120.9070337731064
 30
0.0
 10
70.61901732678629
 20
120.9499841318087
 30
0.0
 10
70.64434327418344
 20
120.9809161949998
 30
0.0
 10
70.67275127754536
 20
121.0095087289509
 30
0.0
 10
70.70336646912084
 20
121.0361608661496
 30
0.0
 10
70.73673612648184
 20
121.0604743928172
 30
0.0
 10
70.77203234510063
 20
121.0834485643428
 30
0.0
 10
70.81053265094394
 20
121.1031954160886
 30
0.0
 10
70.8646313062497
 20
121.1283287012417
 30
0.0
 10
70.93700227180562
 20
121.1534266367786
 30
0.0
 10
71.02810826557209
 20
121.1752963040757
 30
0.0
 10
71.12399433250013
 20
121.1881748964636
 30
0.0
 10
71.18935252829189
 20
121.189947692806
 30
0.0
 10
71.22272991595344
 20
121.1908530316093
 30
0.0
  0
SPLINE
  5
127
330
1F
100
AcDbEntity
  8
0
  6
Continuous
 62
     7
370
     0
100
AcDbSpline
210
0.0
220
0.0
230
1.0
 70
     8
 71
     3
 72
    15
 73
    11
 74
     0
 42
0.00000001
 43
0.00000001
 12
1.0
 22
0.0
 32
0.0
 13
1.0
 23
0.0
 33
0.0
 40
0.0
 40
0.0
 40
0.0
 40
0.0
 40
0.1448052410584835
 40
0.2795118010254855
 40
0.4063939211311605
 40
0.5275015404829175
 40
0.6453932904726498
 40
0.7618854106740857
 40
0.8789420729184865
 40
1.0
 40
1.0
 40
1.0
 40
1.0
 10
70.8127867412489
 20
120.1841050342927
 30
0.0
 10
70.78860419725098
 20
120.1971691411685
 30
0.0
 10
70.74192559379138
 20
120.2223862673923
 30
0.0
 10
70.67910136339746
 20
120.2674745596394
 30
0.0
 10
70.62616557154794
 20
120.3175083651372
 30
0.0
 10
70.58334154394521
 20
120.3724151327656
 30
0.0
 10
70.54978202925157
 20
120.4312662572609
 30
0.0
 10
70.527139571427
 20
120.4941617860876
 30
0.0
 10
70.51163135695008
 20
120.5599600478963
 30
0.0
 10
70.51018207390754
 20
120.6052066688468
 30
0.0
 10
70.50944525554887
 20
120.6282101402226
 30
0.0
  0
SPLINE
  5
128
330
1F
100
AcDbEntity
  8
0
  6
Continuous
 62
     7
370
     0
100
AcDbSpline
210
0.0
220
0.0
230
1.0
 70
     8
 71
     3
 72
    23
 73
    19
 74
     0
 42
0.00000001
 43
0.00000001
 12
1.0
 22
0.0
 32
0.0
 13
1.0
 23
0.0
 33
0.0
 40
0.0
 40
0.0
 40
0.0
 40
0.0
 40
0.031200111153937
 40
0.0704867190162007
 40
0.1172148300204118
 40
0.1715755269954925
 40
0.2341219784876085
 40
0.3039626396728072
 40
0.3821556401561973
 40
0.4676462220680265
 40
0.5543353814021611
 40
0.6350744656665043
 40
0.7100366878785244
 40
0.7790924037748317
 40
0.8429656453505103
 40
0.9010012068505269
 40
0.9532462564590259
 40
1.0
 40
1.0
 40
1.0
 40
1.0
 10
71.52854093885048
 20
119.9564960226345
 30
0.0
 10
71.52130229057651
 20
119.9594665250059
 30
0.0
 10
71.50494886912789
 20
119.9661774294946
 30
0.0
 10
71.47691987215906
 20
119.9750615115712
 30
0.0
 10
71.44365991761467
 20
119.9865495362082
 30
0.0
 10
71.40436996181644
 20
119.9983803318847
 30
0.0
 10
71.35926034116814
 20
120.0108956590853
 30
0.0
 10
71.3084061586526
 20
120.0250611120005
 30
0.0
 10
71.25183583075693
 20
120.0401252958156
 30
0.0
 10
71.19115378966742
 20
120.0561594786204
 30
0.0
 10
71.12988341988508
 20
120.0724637836694
 30
0.0
 10
71.07134673951118
 20
120.0887833573879
 30
0.0
 10
71.01749021073215
 20
120.1053498151721
 30
0.0
 10
70.96787267587045
 20
120.1213010268187
 30
0.0
 10
70.92274993589314
 20
120.1373180480212
 30
0.0
 10
70.88199392211231
 20
120.1529623671577
 30
0.0
 10
70.84555382166357
 20
120.1679165817526
 30
0.0
 10
70.82329759553029
 20
120.1789121863631
 30
0.0
 10
70.8127867412489
 20
120.1841050342927
 30
0.0
  0
SPLINE
  5
129
330
1F
100
AcDbEntity
  8
0
  6
Continuous
 62
     7
370
     0
100
AcDbSpline
210
0.0
220
0.0
230
1.0
 70
     8
 71
     3
 72
    15
 73
    11
 74
     0
 42
0.00000001
 43
0.00000001
 12
1.0
 22
0.0
 32
0.0
 13
1.0
 23
0.0
 33
0.0
 40
0.0
 40
0.0
 40
0.0
 40
0.0
 40
0.1177675192120373
 40
0.2301764485440574
 40
0.3398429589695391
 40
0.4506252599208616
 40
0.566942888872161
 40
0.6960213064547939
 40
0.8394383602270622
 40
1.0
 40
1.0
 40
1.0
 40
1.0
 10
71.74750657031917
 20
119.6790846775031
 30
0.0
 10
71.74681287520401
 20
119.6939371919316
 30
0.0
 10
71.7454570490896
 20
119.7229664102252
 30
0.0
 10
71.73662150580556
 20
119.7652293258127
 30
0.0
 10
71.71982830726479
 20
119.8039121694623
 30
0.0
 10
71.69803720228369
 20
119.8405937945379
 30
0.0
 10
71.6677220546143
 20
119.874131193509
 30
0.0
 10
71.62942228666273
 20
119.9050329151301
 30
0.0
 10
71.5822940584305
 20
119.9330487152037
 30
0.0
 10
71.54711992630037
 20
119.9483918003327
 30
0.0
 10
71.52854093885048
 20
119.9564960226345
 30
0.0
  0
SPLINE
  5
12A
330
1F
100
AcDbEntity
  8
0
  6
Continuous
 62
     7
370
     0
100
AcDbSpline
210
0.0
220
0.0
230
1.0
 70
     8
 71
     3
 72
    19
 73
    15
 74
     0
 42
0.00000001
 43
0.00000001
 12
1.0
 22
0.0
 32
0.0
 13
1.0
 23
0.0
 33
0.0
 40
0.0
 40
0.0
 40
0.0
 40
0.0
 40
0.1055838864195047
 40
0.2058681332620123
 40
0.3009467177422132
 40
0.3930019285950109
 40
0.480948511606587
 40
0.562873866280227
 40
0.6414613436333618
 40
0.7177416181792271
 40
0.7917717603087846
 40
0.8627163930302567
 40
0.9317768462002767
 40
1.0
 40
1.0
 40
1.0
 40
1.0
 10
71.27829450288628
 20
119.3205901944031
 30
0.0
 10
71.30152208478799
 20
119.3210201122048
 30
0.0
 10
71.3468113717091
 20
119.3218583686689
 30
0.0
 10
71.41232738745825
 20
119.3319279055863
 30
0.0
 10
71.47397814864944
 20
119.3462112731926
 30
0.0
 10
71.5306162703252
 20
119.367817102907
 30
0.0
 10
71.58203282021752
 20
119.3940533547006
 30
0.0
 10
71.6266823335328
 20
119.4257867164901
 30
0.0
 10
71.66480171293178
 20
119.4615732314841
 30
0.0
 10
71.69465195005115
 20
119.5023554966556
 30
0.0
 10
71.71810170030105
 20
119.5450884906438
 30
0.0
 10
71.73530451625012
 20
119.5890136012109
 30
0.0
 10
71.74555188114917
 20
119.633887023854
 30
0.0
 10
71.74685766193593
 20
119.6640801761196
 30
0.0
 10
71.74750657031917
 20
119.6790846775031
 30
0.0
  0
SPLINE
  5
12B
330
1F
100
AcDbEntity
  8
0
  6
Continuous
 62
     7
370
     0
100
AcDbSpline
210
0.0
220
0.0
230
1.0
 70
     8
 71
     3
 72
    19
 73
    15
 74
     0
 42
0.00000001
 43
0.00000001
 12
1.0
 22
0.0
 32
0.0
 13
1.0
 23
0.0
 33
0.0
 40
0.0
 40
0.0
 40
0.0
 40
0.0
 40
0.0937964706969319
 40
0.1801880710186106
 40
0.2603631916661887
 40
0.3348466760639746
 40
0.4070930058327163
 40
0.4814483792884682
 40
0.5592709137563652
 40
0.6422698113109349
 40
0.7285859445716476
 40
0.8159775452756136
 40
0.9060351298875358
 40
1.0
 40
1.0
 40
1.0
 40
1.0
 10
70.72017909636082
 20
119.8210830663315
 30
0.0
 10
70.72336627759974
 20
119.7950666898271
 30
0.0
 10
70.72948902438493
 20
119.7450878296163
 30
0.0
 10
70.74660883594407
 20
119.6742503189278
 30
0.0
 10
70.76864313804415
 20
119.6105601269272
 30
0.0
 10
70.79609727101588
 20
119.5531719723268
 30
0.0
 10
70.83221213688682
 20
119.5027739356419
 30
0.0
 10
70.87572433799207
 20
119.457315676193
 30
0.0
 10
70.92856753809146
 20
119.4179515761295
 30
0.0
 10
70.98821546503807
 20
119.3829201061384
 30
0.0
 10
71.05464660916404
 20
119.3554148615492
 30
0.0
 10
71.12556778027441
 20
119.3350247709851
 30
0.0
 10
71.20064074620853
 20
119.3229434798559
 30
0.0
 10
71.25204609330771
 20
119.3213856485197
 30
0.0
 10
71.27829450288628
 20
119.3205901944031
 30
0.0
  0
LINE
  5
12C
330
1F
100
AcDbEntity
  8
0
  6
Continuous
 62
     7
370
     0
100
AcDbLine
 10
70.430420261
 20
119.8210831336
 30
0.0
 11
70.7201789284
 21
119.8210831336
 31
0.0
  0
SPLINE
  5
12D
330
1F
100
AcDbEntity
  8
0
  6
Continuous
 62
     7
370
     0
100
AcDbSpline
210
0.0
220
0.0
230
1.0
 70
     8
 71
     3
 72
    31
 73
    27
 74
     0
 42
0.00000001
 43
0.00000001
 12
1.0
 22
0.0
 32
0.0
 13
1.0
 23
0.0
 33
0.0
 40
0.0
 40
0.0
 40
0.0
 40
0.0
 40
0.0524925849212958
 40
0.1028254751380329
 40
0.1513973394924576
 40
0.1980330772483324
 40
0.2428758954632243
 40
0.2859991683849086
 40
0.3278486614843783
 40
0.3683945968796912
 40
0.4078519911389193
 40
0.4468375528599373
 40
0.4851660451611073
 40
0.5233414044713736
 40
0.5616022144094736
 40
0.5999198855663566
 40
0.6384964264110082
 40
0.6777905770472505
 40
0.717289989175832
 40
0.7566052415928193
 40
0.7960678905323557
 40
0.8358862309537682
 40
0.8757136832726162
 40
0.9162634539474126
 40
0.9577596754778293
 40
1.0
 40
1.0
 40
1.0
 40
1.0
 10
71.29105377840418
 20
119.0835146234896
 30
0.0
 10
71.26868303317457
 20
119.0836992370833
 30
0.0
 10
71.22486193899765
 20
119.0840608687407
 30
0.0
 10
71.16047173533502
 20
119.0884403422091
 30
0.0
 10
71.09876542631228
 20
119.0947754658124
 30
0.0
 10
71.03980356807176
 20
119.1042117029435
 30
0.0
 10
70.9837710591813
 20
119.1165915336719
 30
0.0
 10
70.93046676835502
 20
119.1314573177795
 30
0.0
 10
70.87976434935348
 20
119.1485783330017
 30
0.0
 10
70.83184095807248
 20
119.1687123501544
 30
0.0
 10
70.78682169459547
 20
119.1921058787095
 30
0.0
 10
70.74389706705807
 20
119.2173415770594
 30
0.0
 10
70.70376870703024
 20
119.2459474237997
 30
0.0
 10
70.66635213931431
 20
119.2774739216763
 30
0.0
 10
70.63069930768948
 20
119.311010298263
 30
0.0
 10
70.59828791592722
 20
119.3479261516293
 30
0.0
 10
70.5680160595055
 20
119.3871419292082
 30
0.0
 10
70.54057544158889
 20
119.4290165487274
 30
0.0
 10
70.51606142704594
 20
119.4730021516348
 30
0.0
 10
70.49401634385646
 20
119.5183600470232
 30
0.0
 10
70.47544305281335
 20
119.5654192710007
 30
0.0
 10
70.4604747475659
 20
119.6139419872735
 30
0.0
 10
70.44779583517233
 20
119.6636034812212
 30
0.0
 10
70.43900330245523
 20
119.7148180914585
 30
0.0
 10
70.43253873624283
 20
119.7674250226013
 30
0.0
 10
70.43113046033612
 20
119.8030914050841
 30
0.0
 10
70.43042006524439
 20
119.8210830663315
 30
0.0
  0
SPLINE
  5
12E
330
1F
100
AcDbEntity
  8
0
  6
Continuous
 62
     7
370
     0
100
AcDbSpline
210
0.0
220
0.0
230
1.0
 70
     8
 71
     3
 72
    23
 73
    19
 74
     0
 42
0.00000001
 43
0.00000001
 12
1.0
 22
0.0
 32
0.0
 13
1.0
 23
0.0
 33
0.0
 40
0.0
 40
0.0
 40
0.0
 40
0.0
 40
0.0748159666505558
 40
0.1485345605139198
 40
0.2238723272963846
 40
0.3012971209351245
 40
0.3408936290197578
 40
0.3803400620654406
 40
0.4201265887284643
 40
0.4599499070829662
 40
0.500831155556217
 40
0.5419071755971084
 40
0.5844387941530513
 40
0.6280801713306067
 40
0.7172666799070601
 40
0.8078600064218678
 40
0.9019246558363443
 40
1.0
 40
1.0
 40
1.0
 40
1.0
 10
72.0372656014356
 20
119.6930787216196
 30
0.0
 10
72.0361933159355
 20
119.6662262088223
 30
0.0
 10
72.0340644728204
 20
119.6129150459034
 30
0.0
 10
72.0157343658244
 20
119.534331926202
 30
0.0
 10
71.98693873720525
 20
119.4581853218409
 30
0.0
 10
71.95316872982998
 20
119.3977587967055
 30
0.0
 10
71.92124586584244
 20
119.3516017130865
 30
0.0
 10
71.89442915427243
 20
119.3184261108673
 30
0.0
 10
71.86469096291553
 20
119.2877502111605
 30
0.0
 10
71.83276341585871
 20
119.2586129962358
 30
0.0
 10
71.79839862580842
 20
119.231608960506
 30
0.0
 10
71.7613068762676
 20
119.2067289086021
 30
0.0
 10
71.72187965309895
 20
119.1837138414123
 30
0.0
 10
71.66557856989098
 20
119.1556686342981
 30
0.0
 10
71.59080137806842
 20
119.1263306845488
 30
0.0
 10
71.49555024732578
 20
119.1018990335351
 30
0.0
 10
71.39516709264163
 20
119.0860496174065
 30
0.0
 10
71.32623782210536
 20
119.0843712990974
 30
0.0
 10
71.29105377840418
 20
119.0835146234896
 30
0.0
  0
SPLINE
  5
12F
330
1F
100
AcDbEntity
  8
0
  6
Continuous
 62
     7
370
     0
100
AcDbSpline
210
0.0
220
0.0
230
1.0
 70
     8
 71
     3
 72
    23
 73
    19
 74
     0
 42
0.00000001
 43
0.00000001
 12
1.0
 22
0.0
 32
0.0
 13
1.0
 23
0.0
 33
0.0
 40
0.0
 40
0.0
 40
0.0
 40
0.0
 40
0.0704642259291743
 40
0.1379569656042687
 40
0.2035785636142837
 40
0.2676916802449436
 40
0.330185864859375
 40
0.3915337640898204
 40
0.4526637734870355
 40
0.5131537880892142
 40
0.5734535531000293
 40
0.6329675593891936
 40
0.6923319074206221
 40
0.7514741915716308
 40
0.8121874455294302
 40
0.8729617178483164
 40
0.935420306759492
 40
1.0
 40
1.0
 40
1.0
 40
1.0
 10
62.33815825794937
 20
113.1352123388475
 30
0.0
 10
62.35331644266319
 20
113.1304671769801
 30
0.0
 10
62.38299358932323
 20
113.1211769573842
 30
0.0
 10
62.42565757064565
 20
113.104177158566
 30
0.0
 10
62.46570601928039
 20
113.084820454686
 30
0.0
 10
62.50322610964434
 20
113.063075037206
 30
0.0
 10
62.53796432323243
 20
113.0387395328486
 30
0.0
 10
62.56982264173441
 20
113.011776003895
 30
0.0
 10
62.59902195696566
 20
112.9826017039295
 30
0.0
 10
62.62551010148672
 20
112.9512343793266
 30
0.0
 10
62.64877715747619
 20
112.9178758855143
 30
0.0
 10
62.66964480006342
 20
112.8832553074231
 30
0.0
 10
62.68687639156769
 20
112.8469557370002
 30
0.0
 10
62.70100049962294
 20
112.8090714170136
 30
0.0
 10
62.71201940368874
 20
112.7698364395053
 30
0.0
 10
62.71993217623921
 20
112.7290998997363
 30
0.0
 10
62.72444225457249
 20
112.686956619982
 30
0.0
 10
62.72511965393463
 20
112.6583278316692
 30
0.0
 10
62.72546400874064
 20
112.6437744361432
 30
0.0
  0
SPLINE
  5
130
330
1F
100
AcDbEntity
  8
0
  6
Continuous
 62
     7
370
     0
100
AcDbSpline
210
0.0
220
0.0
230
1.0
 70
     8
 71
     3
 72
    15
 73
    11
 74
     0
 42
0.00000001
 43
0.00000001
 12
1.0
 22
0.0
 32
0.0
 13
1.0
 23
0.0
 33
0.0
 40
0.0
 40
0.0
 40
0.0
 40
0.0
 40
0.1158426906010183
 40
0.2305685484828847
 40
0.3473546045205448
 40
0.4682527467344625
 40
0.5923025714800838
 40
0.7199701656206967
 40
0.8556003811349103
 40
1.0
 40
1.0
 40
1.0
 40
1.0
 10
62.64643881835603
 20
113.5772594975615
 30
0.0
 10
62.64548012165662
 20
113.5552261178866
 30
0.0
 10
62.64357197099754
 20
113.5113717810835
 30
0.0
 10
62.62838522662345
 20
113.4467716756492
 30
0.0
 10
62.60441589776624
 20
113.3840453755045
 30
0.0
 10
62.57052258817719
 20
113.3239554435885
 30
0.0
 10
62.52720269011784
 20
113.2676012115388
 30
0.0
 10
62.47349838709276
 20
113.2168893860629
 30
0.0
 10
62.41018140505115
 20
113.1717112859247
 30
0.0
 10
62.36266201213387
 20
113.1476300304253
 30
0.0
 10
62.33815825794937
 20
113.1352123388475
 30
0.0
  0
SPLINE
  5
131
330
1F
100
AcDbEntity
  8
0
  6
Continuous
 62
     7
370
     0
100
AcDbSpline
210
0.0
220
0.0
230
1.0
 70
     8
 71
     3
 72
    23
 73
    19
 74
     0
 42
0.00000001
 43
0.00000001
 12
1.0
 22
0.0
 32
0.0
 13
1.0
 23
0.0
 33
0.0
 40
0.0
 40
0.0
 40
0.0
 40
0.0
 40
0.058732037100865
 40
0.1146029008469812
 40
0.1676568100446123
 40
0.2179667070908434
 40
0.2657752056293753
 40
0.3111706510536961
 40
0.3537918046646694
 40
0.3947449080003071
 40
0.4728059510824632
 40
0.5491923665616072
 40
0.6247801075795549
 40
0.7026247640242251
 40
0.7797414321940387
 40
0.8540634639886252
 40
0.9271552664103494
 40
0.9999999999999999
 40
0.9999999999999999
 40
0.9999999999999999
 40
0.9999999999999999
 10
61.96690449895498
 20
114.1098563535911
 30
0.0
 10
61.98598089544366
 20
114.1097831719332
 30
0.0
 10
62.02320436806992
 20
114.1096403737144
 30
0.0
 10
62.07755833524222
 20
114.1060691381185
 30
0.0
 10
62.12903560092145
 20
114.1011844284448
 30
0.0
 10
62.17774698371293
 20
114.0948878878772
 30
0.0
 10
62.22348170998497
 20
114.0857517353747
 30
0.0
 10
62.26619716017382
 20
114.0746838973432
 30
0.0
 10
62.30611562453588
 20
114.0619175037485
 30
0.0
 10
62.3549098642063
 20
114.0424701511959
 30
0.0
 10
62.4111398758816
 20
114.0125365418489
 30
0.0
 10
62.47136756020959
 20
113.9678708732868
 30
0.0
 10
62.52376798557243
 20
113.9142434273911
 30
0.0
 10
62.56688582960979
 20
113.8527565239926
 30
0.0
 10
62.60241028277533
 20
113.7870769149464
 30
0.0
 10
62.62759670418901
 20
113.7184558591672
 30
0.0
 10
62.64369974755851
 20
113.648387404254
 30
0.0
 10
62.64552682583084
 20
113.60094202497
 30
0.0
 10
62.64643881835603
 20
113.5772594975615
 30
0.0
  0
LINE
  5
132
330
1F
100
AcDbEntity
  8
0
  6
Continuous
 62
     7
370
     0
100
AcDbLine
 10
61.1976435558
 20
114.1098564095
 30
0.0
 11
61.9669045938
 21
114.1098564095
 31
0.0
  0
LINE
  5
133
330
1F
100
AcDbEntity
  8
0
  6
Continuous
 62
     7
370
     0
100
AcDbLine
 10
61.1976435558
 20
112.0552014164
 30
0.0
 11
61.1976435558
 21
114.1098564095
 31
0.0
  0
LINE
  5
134
330
1F
100
AcDbEntity
  8
0
  6
Continuous
 62
     7
370
     0
100
AcDbLine
 10
61.968962351
 20
112.0552014164
 30
0.0
 11
61.1976435558
 21
112.0552014164
 31
0.0
  0
SPLINE
  5
135
330
1F
100
AcDbEntity
  8
0
  6
Continuous
 62
     7
370
     0
100
AcDbSpline
210
0.0
220
0.0
230
1.0
 70
     8
 71
     3
 72
    23
 73
    19
 74
     0
 42
0.00000001
 43
0.00000001
 12
1.0
 22
0.0
 32
0.0
 13
1.0
 23
0.0
 33
0.0
 40
0.0
 40
0.0
 40
0.0
 40
0.0
 40
0.0642545754247033
 40
0.1273603868320977
 40
0.1894718420926422
 40
0.2517207629332013
 40
0.3120272840890022
 40
0.3686746571150514
 40
0.4226814918055484
 40
0.4740604252251509
 40
0.5257737722739171
 40
0.5796221048577139
 40
0.6373752855308658
 40
0.6984003818208012
 40
0.7643573310122576
 40
0.836314767979149
 40
0.9146777942540464
 40
1.0
 40
1.0
 40
1.0
 40
1.0
 10
62.72546400874064
 20
112.6437744361432
 30
0.0
 10
62.72475424097977
 20
112.6204091632456
 30
0.0
 10
62.72334739491492
 20
112.574096349333
 30
0.0
 10
62.71204885263796
 20
112.5059316756162
 30
0.0
 10
62.69295491525266
 20
112.4403630044838
 30
0.0
 10
62.66667373430099
 20
112.3784505021092
 30
0.0
 10
62.63535864929433
 20
112.3212032785358
 30
0.0
 10
62.59976795802461
 20
112.2701202527168
 30
0.0
 10
62.56080929676359
 20
112.225727065466
 30
0.0
 10
62.51738562965546
 20
112.188384460076
 30
0.0
 10
62.46977705798288
 20
112.1566915159997
 30
0.0
 10
62.41663891424077
 20
112.1300039844425
 30
0.0
 10
62.35838205294613
 20
112.1064681391493
 30
0.0
 10
62.29382243588522
 20
112.0876668371105
 30
0.0
 10
62.22298945044646
 20
112.0727311072777
 30
0.0
 10
62.14492182809225
 20
112.0630273392853
 30
0.0
 10
62.05949962967757
 20
112.0560807422588
 30
0.0
 10
61.99998494229315
 20
112.0555027083047
 30
0.0
 10
61.96896244662125
 20
112.0552014035911
 30
0.0
  0
LINE
  5
136
330
1F
100
AcDbEntity
  8
0
  6
Continuous
 62
     7
370
     0
100
AcDbLine
 10
64.5167016575
 20
112.898136822
 30
0.0
 11
65.2806118397
 21
112.898136822
 31
0.0
  0
LINE
  5
137
330
1F
100
AcDbEntity
  8
0
  6
Continuous
 62
     7
370
     0
100
AcDbLine
 10
64.5167016575
 20
112.6610612101
 30
0.0
 11
64.5167016575
 21
112.898136822
 31
0.0
  0
LINE
  5
138
330
1F
100
AcDbEntity
  8
0
  6
Continuous
 62
     7
370
     0
100
AcDbLine
 10
65.2806118397
 20
112.6610612101
 30
0.0
 11
64.5167016575
 21
112.6610612101
 31
0.0
  0
LINE
  5
139
330
1F
100
AcDbEntity
  8
0
  6
Continuous
 62
     7
370
     0
100
AcDbLine
 10
65.2806118397
 20
112.898136822
 30
0.0
 11
65.2806118397
 21
112.6610612101
 31
0.0
  0
SPLINE
  5
13A
330
1F
100
AcDbEntity
  8
0
  6
Continuous
 62
     7
370
     0
100
AcDbSpline
210
0.0
220
0.0
230
1.0
 70
     8
 71
     3
 72
    31
 73
    27
 74
     0
 42
0.00000001
 43
0.00000001
 12
1.0
 22
0.0
 32
0.0
 13
1.0
 23
0.0
 33
0.0
 40
0.0
 40
0.0
 40
0.0
 40
0.0
 40
0.0628739462114327
 40
0.1228366299919133
 40
0.1796565674430315
 40
0.2339600122308624
 40
0.2855950186955593
 40
0.3345131060783807
 40
0.3809048259061767
 40
0.4248945919393349
 40
0.4665290347654875
 40
0.5064882940692464
 40
0.5450315536447543
 40
0.5818311798231348
 40
0.6174482799494427
 40
0.6520669127690464
 40
0.6858797142465106
 40
0.7191745547913921
 40
0.7521816462063929
 40
0.7852401639180911
 40
0.8186564497770834
 40
0.852547740653311
 40
0.8876263422585191
 40
0.9236350780687512
 40
0.9610218444769892
 40
1.0
 40
1.0
 40
1.0
 40
1.0
 10
68.41527771643295
 20
113.0685348344605
 30
0.0
 10
68.41500735219667
 20
113.0393098510879
 30
0.0
 10
68.41447914244279
 20
112.9822130934423
 30
0.0
 10
68.41134142616326
 20
112.8987409824789
 30
0.0
 10
68.40537320668031
 20
112.8194331131159
 30
0.0
 10
68.39802920356705
 20
112.7441078140991
 30
0.0
 10
68.38691926513933
 20
112.672966168525
 30
0.0
 10
68.37494770453696
 20
112.6057059143631
 30
0.0
 10
68.36014184119666
 20
112.5426324724028
 30
0.0
 10
68.34286687473008
 20
112.4837181991802
 30
0.0
 10
68.32341133977042
 20
112.4286515772347
 30
0.0
 10
68.30207533510779
 20
112.377016443649
 30
0.0
 10
68.27844366128029
 20
112.3288480813608
 30
0.0
 10
68.25181295042191
 20
112.2846163004159
 30
0.0
 10
68.22340167819408
 20
112.2437339979763
 30
0.0
 10
68.19300176223469
 20
112.2060478153354
 30
0.0
 10
68.15996868873573
 20
112.1721001655922
 30
0.0
 10
68.12433583652704
 20
112.1420815931443
 30
0.0
 10
68.08682556616778
 20
112.1150410895626
 30
0.0
 10
68.04669170876174
 20
112.0918886084765
 30
0.0
 10
68.00410992394745
 20
112.0727071800361
 30
0.0
 10
67.95936471702596
 20
112.0563080116813
 30
0.0
 10
67.91200208332083
 20
112.0442916629725
 30
0.0
 10
67.86239552015378
 20
112.0350933358045
 30
0.0
 10
67.81036225072278
 20
112.0296766946511
 30
0.0
 10
67.77485702669213
 20
112.029135771341
 30
0.0
 10
67.75673446322782
 20
112.0288596734629
 30
0.0
  0
SPLINE
  5
13B
330
1F
100
AcDbEntity
  8
0
  6
Continuous
 62
     7
370
     0
100
AcDbSpline
210
0.0
220
0.0
230
1.0
 70
     8
 71
     3
 72
    27
 73
    23
 74
     0
 42
0.00000001
 43
0.00000001
 12
1.0
 22
0.0
 32
0.0
 13
1.0
 23
0.0
 33
0.0
 40
0.0
 40
0.0
 40
0.0
 40
0.0
 40
0.0567243372181507
 40
0.1114372357370106
 40
0.1643678222229012
 40
0.21643537246209
 40
0.2676414903219252
 40
0.3173597799690278
 40
0.3674730633322808
 40
0.4182103970528083
 40
0.4714042826470199
 40
0.5279657201290494
 40
0.5880611158232141
 40
0.6521342629937148
 40
0.686344836335306
 40
0.7232636803169655
 40
0.7626102507715419
 40
0.8047389366452182
 40
0.84943033879095
 40
0.8967112583864925
 40
0.9468896380534767
 40
1.0
 40
1.0
 40
1.0
 40
1.0
 10
67.75673446322782
 20
114.1098563535911
 30
0.0
 10
67.78312165236392
 20
114.1090805889056
 30
0.0
 10
67.83496034383928
 20
114.107556568064
 30
0.0
 10
67.91064510109398
 20
114.095126930626
 30
0.0
 10
67.98197310681151
 20
114.0738641200969
 30
0.0
 10
68.04889801970612
 20
114.0451796714211
 30
0.0
 10
68.1102757687599
 20
114.0087449008063
 30
0.0
 10
68.16508868564871
 20
113.9644528861128
 30
0.0
 10
68.21274552452577
 20
113.9127686847481
 30
0.0
 10
68.25272618473863
 20
113.853079855873
 30
0.0
 10
68.28767327249233
 20
113.7870330159936
 30
0.0
 10
68.31871949809897
 20
113.7143317225273
 30
0.0
 10
68.34678438430203
 20
113.6350574454834
 30
0.0
 10
68.3666998385059
 20
113.5640959007361
 30
0.0
 10
68.38090551563712
 20
113.5028393773787
 30
0.0
 10
68.39030854521292
 20
113.452316729747
 30
0.0
 10
68.39811494487519
 20
113.3978025085228
 30
0.0
 10
68.4040957020112
 20
113.3394285982822
 30
0.0
 10
68.4090027721279
 20
113.2772604705596
 30
0.0
 10
68.41279227748984
 20
113.2112594182895
 30
0.0
 10
68.41471583946594
 20
113.1412604830708
 30
0.0
 10
68.41508691297943
 20
113.093231174993
 30
0.0
 10
68.41527771643295
 20
113.0685348344605
 30
0.0
  0
SPLINE
  5
13C
330
1F
100
AcDbEntity
  8
0
  6
Continuous
 62
     7
370
     0
100
AcDbSpline
210
0.0
220
0.0
230
1.0
 70
     8
 71
     3
 72
    31
 73
    27
 74
     0
 42
0.00000001
 43
0.00000001
 12
1.0
 22
0.0
 32
0.0
 13
1.0
 23
0.0
 33
0.0
 40
0.0
 40
0.0
 40
0.0
 40
0.0
 40
0.0631144583947933
 40
0.1236146457694896
 40
0.1809737111859573
 40
0.2352614550083219
 40
0.287100701833872
 40
0.3360307363034435
 40
0.3823823485850663
 40
0.4263340836597074
 40
0.4682106947981602
 40
0.5082496012618053
 40
0.546628336606585
 40
0.5836495392304463
 40
0.6189943150301616
 40
0.653583018620596
 40
0.6871561361903314
 40
0.7204221919788075
 40
0.7532302188118171
 40
0.7862601560779
 40
0.8195039834988842
 40
0.8535452747120184
 40
0.8883082803397299
 40
0.9239958607406948
 40
0.9613503047546451
 40
1.0
 40
1.0
 40
1.0
 40
1.0
 10
67.09819121002269
 20
113.0685348344605
 30
0.0
 10
67.09845660301133
 20
113.0978977396924
 30
0.0
 10
67.098976396116
 20
113.1554073059839
 30
0.0
 10
67.10220050388462
 20
113.2395541327155
 30
0.0
 10
67.10782953479519
 20
113.3194648898359
 30
0.0
 10
67.11623212830638
 20
113.3950701785865
 30
0.0
 10
67.12618237325893
 20
113.4665406549613
 30
0.0
 10
67.1391177544707
 20
113.5337743232199
 30
0.0
 10
67.15367193882926
 20
113.5969220329284
 30
0.0
 10
67.17113434827029
 20
113.6559179628292
 30
0.0
 10
67.19031981963526
 20
113.7112693705256
 30
0.0
 10
67.21208634897542
 20
113.7628874598632
 30
0.0
 10
67.23657664719435
 20
113.8107175035179
 30
0.0
 10
67.26258716835662
 20
113.8552555258687
 30
0.0
 10
67.29148715961922
 20
113.895808777369
 30
0.0
 10
67.3215322754588
 20
113.9335153482704
 30
0.0
 10
67.35490601550299
 20
113.9669923914901
 30
0.0
 10
67.39022062804929
 20
113.9971012743838
 30
0.0
 10
67.42799612992334
 20
114.0236706088834
 30
0.0
 10
67.46803265121648
 20
114.0465967398401
 30
0.0
 10
67.51017614228604
 20
114.0668388604109
 30
0.0
 10
67.55522981146669
 20
114.0820771234885
 30
0.0
 10
67.6022583532451
 20
114.0944995382635
 30
0.0
 10
67.65162376894783
 20
114.1036376171938
 30
0.0
 10
67.70338045850151
 20
114.1090248231165
 30
0.0
 10
67.73874888052401
 20
114.1095760454831
 30
0.0
 10
67.75673446322782
 20
114.1098563535911
 30
0.0
  0
SPLINE
  5
13D
330
1F
100
AcDbEntity
  8
0
  6
Continuous
 62
     7
370
     0
100
AcDbSpline
210
0.0
220
0.0
230
1.0
 70
     8
 71
     3
 72
    15
 73
    11
 74
     0
 42
0.00000001
 43
0.00000001
 12
1.0
 22
0.0
 32
0.0
 13
1.0
 23
0.0
 33
0.0
 40
0.0
 40
0.0
 40
0.0
 40
0.0
 40
0.097420668177215
 40
0.2008855880393203
 40
0.3111719701726506
 40
0.4297979458253724
 40
0.5577399263645875
 40
0.6947152693641581
 40
0.8421299102060551
 40
1.0
 40
1.0
 40
1.0
 40
1.0
 10
67.2978121336505
 20
112.2268342389577
 30
0.0
 10
67.28152837671534
 20
112.2503237972295
 30
0.0
 10
67.24795057286107
 20
112.2987602718966
 30
0.0
 10
67.20865066481171
 20
112.3813489542631
 30
0.0
 10
67.1735944510361
 20
112.4722674978549
 30
0.0
 10
67.14608175059627
 20
112.5732997137193
 30
0.0
 10
67.1245324478054
 20
112.6836414996296
 30
0.0
 10
67.10896847099333
 20
112.803509369674
 30
0.0
 10
67.10016079237569
 20
112.9328515369784
 30
0.0
 10
67.09886255819659
 20
113.0222860782948
 30
0.0
 10
67.09819121002269
 20
113.0685348344605
 30
0.0
  0
SPLINE
  5
13E
330
1F
100
AcDbEntity
  8
0
  6
Continuous
 62
     7
370
     0
100
AcDbSpline
210
0.0
220
0.0
230
1.0
 70
     8
 71
     3
 72
    15
 73
    11
 74
     0
 42
0.00000001
 43
0.00000001
 12
1.0
 22
0.0
 32
0.0
 13
1.0
 23
0.0
 33
0.0
 40
0.0
 40
0.0
 40
0.0
 40
0.0
 40
0.1379032299933931
 40
0.2688733426002933
 40
0.3951781273461135
 40
0.5170892381308878
 40
0.6367430265135476
 40
0.7562218164637969
 40
0.876628359463679
 40
1.0
 40
1.0
 40
1.0
 40
1.0
 10
67.75673446322782
 20
112.0288596734629
 30
0.0
 10
67.73297368126602
 20
112.0295374510248
 30
0.0
 10
67.68664669625505
 20
112.0308589307219
 30
0.0
 10
67.6189895506009
 20
112.0398375712933
 30
0.0
 10
67.55548971061324
 20
112.0556404002621
 30
0.0
 10
67.49561159150618
 20
112.0768342222082
 30
0.0
 10
67.44002823971053
 20
112.1051821795177
 30
0.0
 10
67.38847426682321
 20
112.1396730050826
 30
0.0
 10
67.33991373292484
 20
112.1795042334171
 30
0.0
 10
67.3119593374107
 20
112.2109301582602
 30
0.0
 10
67.2978121336505
 20
112.2268342389577
 30
0.0
  0
CIRCLE
  5
13F
330
1F
100
AcDbEntity
  8
0
  6
Continuous
 62
     7
370
     0
100
AcDbCircle
 10
64.5167016575
 20
116.6098563536
 30
0.0
 40
1.25
  0
SPLINE
  5
140
330
1F
100
AcDbEntity
  8
0
  6
Continuous
 62
     7
370
     0
100
AcDbSpline
210
0.0
220
0.0
230
1.0
 70
     8
 71
     3
 72
    23
 73
    19
 74
     0
 42
0.00000001
 43
0.00000001
 12
1.0
 22
0.0
 32
0.0
 13
1.0
 23
0.0
 33
0.0
 40
0.0
 40
0.0
 40
0.0
 40
0.0
 40
0.1156291309254417
 40
0.2215410391198766
 40
0.3170478562190415
 40
0.4031508756396167
 40
0.4801812167162794
 40
0.5476493661481896
 40
0.607035842842181
 40
0.6586524080635069
 40
0.7057228903536459
 40
0.7498040879796473
 40
0.7925868153452743
 40
0.8338739610102607
 40
0.8747683933034326
 40
0.9152226988916382
 40
0.95688070373048
 40
1.0
 40
1.0
 40
1.0
 40
1.0
 10
68.15186041515089
 20
113.069358013527
 30
0.0
 10
68.1516109635734
 20
113.1080544241826
 30
0.0
 10
68.15113302379089
 20
113.1821952826172
 30
0.0
 10
68.14573142844701
 20
113.2881881879231
 30
0.0
 10
68.13726664309586
 20
113.3840500947803
 30
0.0
 10
68.12568816146495
 20
113.469869378978
 30
0.0
 10
68.11030036152445
 20
113.5455528719179
 30
0.0
 10
68.09163705926866
 20
113.6112616934694
 30
0.0
 10
68.06939694403044
 20
113.6668557088958
 30
0.0
 10
68.04295352637583
 20
113.7128933611768
 30
0.0
 10
68.01351671156621
 20
113.7506567255482
 30
0.0
 10
67.98276716791877
 20
113.7833442032664
 30
0.0
 10
67.94993615374185
 20
113.8111438381356
 30
0.0
 10
67.91444200225632
 20
113.8334451153202
 30
0.0
 10
67.87742875672058
 20
113.8514369562559
 30
0.0
 10
67.8380459468296
 20
113.8638193993554
 30
0.0
 10
67.79668067448178
 20
113.8714267850869
 30
0.0
 10
67.76829222472932
 20
113.872324293257
 30
0.0
 10
67.75385333649504
 20
113.8727807824373
 30
0.0
  0
SPLINE
  5
141
330
1F
100
AcDbEntity
  8
0
  6
Continuous
 62
     7
370
     0
100
AcDbSpline
210
0.0
220
0.0
230
1.0
 70
     8
 71
     3
 72
    23
 73
    19
 74
     0
 42
0.00000001
 43
0.00000001
 12
1.0
 22
0.0
 32
0.0
 13
1.0
 23
0.0
 33
0.0
 40
0.0
 40
0.0
 40
0.0
 40
0.0
 40
0.0407818458722599
 40
0.080869588721587
 40
0.1202681657882672
 40
0.1601868504553521
 40
0.2004597376386394
 40
0.2422651778979079
 40
0.2864592615494688
 40
0.3329520837492635
 40
0.3844305340495301
 40
0.4433891253601061
 40
0.5116814722136833
 40
0.5890200255490083
 40
0.6762451906507722
 40
0.7737051914728239
 40
0.8815677677819828
 40
1.0
 40
1.0
 40
1.0
 40
1.0
 10
67.75673446322782
 20
112.2659352446168
 30
0.0
 10
67.77034013081854
 20
112.2664546726345
 30
0.0
 10
67.79731989887
 20
112.2674846880558
 30
0.0
 10
67.8370366035382
 20
112.2743454577472
 30
0.0
 10
67.87487502095203
 20
112.2871635564769
 30
0.0
 10
67.91117635922883
 20
112.3039232750442
 30
0.0
 10
67.94575319442417
 20
112.3256311347241
 30
0.0
 10
67.97842368461806
 20
112.3523740000629
 30
0.0
 10
68.00970954492514
 20
112.3837000349131
 30
0.0
 10
68.03971842463753
 20
112.4205695446007
 30
0.0
 10
68.06704047701425
 20
112.465487141592
 30
0.0
 10
68.08970609218045
 20
112.5208429016132
 30
0.0
 10
68.1091354772817
 20
112.5863616881187
 30
0.0
 10
68.12494065937938
 20
112.6625154662453
 30
0.0
 10
68.13689439600537
 20
112.7491650393336
 30
0.0
 10
68.14584452228826
 20
112.8463930003157
 30
0.0
 10
68.15111030586588
 20
112.9543289154363
 30
0.0
 10
68.15160271237006
 20
113.0298393473166
 30
0.0
 10
68.15186041515089
 20
113.069358013527
 30
0.0
  0
SPLINE
  5
142
330
1F
100
AcDbEntity
  8
0
  6
Continuous
 62
     7
370
     0
100
AcDbSpline
210
0.0
220
0.0
230
1.0
 70
     8
 71
     3
 72
    23
 73
    19
 74
     0
 42
0.00000001
 43
0.00000001
 12
1.0
 22
0.0
 32
0.0
 13
1.0
 23
0.0
 33
0.0
 40
0.0
 40
0.0
 40
0.0
 40
0.0
 40
0.1184055081537696
 40
0.2266543328167019
 40
0.3240923419286022
 40
0.4117048030053222
 40
0.4890259050064155
 40
0.5569093973430757
 40
0.6162333444927066
 40
0.6673492812770747
 40
0.7135123932013475
 40
0.7576965045209785
 40
0.7994925114422908
 40
0.839976064743939
 40
0.8798857418167761
 40
0.9191486593857415
 40
0.9592273564930828
 40
1.0
 40
1.0
 40
1.0
 40
1.0
 10
67.36160851130474
 20
113.069358013527
 30
0.0
 10
67.36187006373794
 20
113.0298395255968
 30
0.0
 10
67.36237073294805
 20
112.9541923985719
 30
0.0
 10
67.36760151088679
 20
112.8461174262691
 30
0.0
 10
67.37660607980689
 20
112.7486190489404
 30
0.0
 10
67.38851070806835
 20
112.6618322594597
 30
0.0
 10
67.4042296373566
 20
112.5856396615322
 30
0.0
 10
67.42396661220924
 20
112.5202354173536
 30
0.0
 10
67.44621487724197
 20
112.4648345277198
 30
0.0
 10
67.47374668362869
 20
112.4201236440205
 30
0.0
 10
67.50389097071299
 20
112.3836777514513
 30
0.0
 10
67.53501288701399
 20
112.3523331051879
 30
0.0
 10
67.56784462364197
 20
112.3256908735763
 30
0.0
 10
67.60217195748324
 20
112.303476685736
 30
0.0
 10
67.63852750182481
 20
112.2866575621876
 30
0.0
 10
67.67651371483251
 20
112.2744670239873
 30
0.0
 10
67.71613886198185
 20
112.2674515564263
 30
0.0
 10
67.74312538776864
 20
112.2664435657452
 30
0.0
 10
67.75673446322782
 20
112.2659352446168
 30
0.0
  0
SPLINE
  5
143
330
1F
100
AcDbEntity
  8
0
  6
Continuous
 62
     7
370
     0
100
AcDbSpline
210
0.0
220
0.0
230
1.0
 70
     8
 71
     3
 72
    15
 73
    11
 74
     0
 42
0.00000001
 43
0.00000001
 12
1.0
 22
0.0
 32
0.0
 13
1.0
 23
0.0
 33
0.0
 40
0.0
 40
0.0
 40
0.0
 40
0.0
 40
0.0838881132795454
 40
0.1771540327539692
 40
0.2825136355617228
 40
0.3993998606601629
 40
0.5294908061912198
 40
0.6728021776758327
 40
0.8295357616196696
 40
0.9999999999999999
 40
0.9999999999999999
 40
0.9999999999999999
 40
0.9999999999999999
 10
67.48055788641493
 20
113.7320171620647
 30
0.0
 10
67.47076746208032
 20
113.715648560607
 30
0.0
 10
67.450092147242
 20
113.6810815207083
 30
0.0
 10
67.42695767211777
 20
113.621002581158
 30
0.0
 10
67.40652159133933
 20
113.5523437889821
 30
0.0
 10
67.38969592137222
 20
113.4740487787957
 30
0.0
 10
67.37752372952828
 20
113.3862518580336
 30
0.0
 10
67.36791425473159
 20
113.2890549862215
 30
0.0
 10
67.36292249025736
 20
113.1823224648981
 30
0.0
 10
67.3620585886546
 20
113.1080517390237
 30
0.0
 10
67.36160851130474
 20
113.069358013527
 30
0.0
  0
SPLINE
  5
144
330
1F
100
AcDbEntity
  8
0
  6
Continuous
 62
     7
370
     0
100
AcDbSpline
210
0.0
220
0.0
230
1.0
 70
     8
 71
     3
 72
    15
 73
    11
 74
     0
 42
0.00000001
 43
0.00000001
 12
1.0
 22
0.0
 32
0.0
 13
1.0
 23
0.0
 33
0.0
 40
0.0
 40
0.0
 40
0.0
 40
0.0
 40
0.1276647678962246
 40
0.2517385630080489
 40
0.3727533493873891
 40
0.492146758972386
 40
0.6140696213092451
 40
0.7371973244121082
 40
0.8656069906011162
 40
1.0
 40
1.0
 40
1.0
 40
1.0
 10
67.75385333649504
 20
113.8727807824373
 30
0.0
 10
67.7402451157609
 20
113.8724236203585
 30
0.0
 10
67.71341144826467
 20
113.8717193425069
 30
0.0
 10
67.67412344484188
 20
113.8649970175453
 30
0.0
 10
67.63689066554124
 20
113.8537557918904
 30
0.0
 10
67.6012865430674
 20
113.8385284602444
 30
0.0
 10
67.5681999153472
 20
113.8180354795249
 30
0.0
 10
67.53631864900741
 20
113.7941084658379
 30
0.0
 10
67.50713593921255
 20
113.7649560702649
 30
0.0
 10
67.48955069432911
 20
113.7431621950211
 30
0.0
 10
67.48055788641493
 20
113.7320171620647
 30
0.0
  0
SPLINE
  5
145
330
1F
100
AcDbEntity
  8
0
  6
Continuous
 62
     7
370
     0
100
AcDbSpline
210
0.0
220
0.0
230
1.0
 70
     8
 71
     3
 72
    19
 73
    15
 74
     0
 42
0.00000001
 43
0.00000001
 12
1.0
 22
0.0
 32
0.0
 13
1.0
 23
0.0
 33
0.0
 40
0.0
 40
0.0
 40
0.0
 40
0.0
 40
0.0801399024652512
 40
0.1562809906190944
 40
0.2294060490129018
 40
0.3017986969723058
 40
0.372742862769578
 40
0.442667609902629
 40
0.5133209646126977
 40
0.5865476923632089
 40
0.6683225082295053
 40
0.7636766255259048
 40
0.8740807567185482
 40
1.0
 40
1.0
 40
1.0
 40
1.0
 10
62.43570497733038
 20
112.6478903314757
 30
0.0
 10
62.43513802708916
 20
112.6665988512673
 30
0.0
 10
62.43403241624355
 20
112.7030823746571
 30
0.0
 10
62.42352320600649
 20
112.7558029144463
 30
0.0
 10
62.40616371054167
 20
112.8047018705922
 30
0.0
 10
62.38172659920473
 20
112.8491020416884
 30
0.0
 10
62.35175320653884
 20
112.8890361728821
 30
0.0
 10
62.31548842801065
 20
112.9229112093211
 30
0.0
 10
62.27320342907454
 20
112.9497927260143
 30
0.0
 10
62.22476825063515
 20
112.9708895140739
 30
0.0
 10
62.16815722915433
 20
112.985899515429
 30
0.0
 10
62.10180744677542
 20
112.9960828921666
 30
0.0
 10
62.02465761796338
 20
113.0026539810819
 30
0.0
 10
61.96952648271765
 20
113.003208321309
 30
0.0
 10
61.94015117929353
 20
113.0035036882065
 30
0.0
  0
SPLINE
  5
146
330
1F
100
AcDbEntity
  8
0
  6
Continuous
 62
     7
370
     0
100
AcDbSpline
210
0.0
220
0.0
230
1.0
 70
     8
 71
     3
 72
    19
 73
    15
 74
     0
 42
0.00000001
 43
0.00000001
 12
1.0
 22
0.0
 32
0.0
 13
1.0
 23
0.0
 33
0.0
 40
0.0
 40
0.0
 40
0.0
 40
0.0
 40
0.0889709576989553
 40
0.1722707767733147
 40
0.25031203046371
 40
0.3246551996215512
 40
0.3978444501802945
 40
0.4733008807185319
 40
0.5518258887444476
 40
0.6347494834982539
 40
0.7217660118923849
 40
0.8103926655611184
 40
0.9031752367994194
 40
1.0
 40
1.0
 40
1.0
 40
1.0
 10
62.14923866218616
 20
112.302155123543
 30
0.0
 10
62.16358059965999
 20
112.3051696534753
 30
0.0
 10
62.19135029859265
 20
112.3110065628047
 30
0.0
 10
62.23049891114213
 20
112.324033935486
 30
0.0
 10
62.26639323958443
 20
112.3389574852116
 30
0.0
 10
62.29840680265156
 20
112.3579236589834
 30
0.0
 10
62.32805059397018
 20
112.3797808750296
 30
0.0
 10
62.35381325488828
 20
112.4070815838632
 30
0.0
 10
62.37754188849348
 20
112.4380998116332
 30
0.0
 10
62.39810066042801
 20
112.4735966449316
 30
0.0
 10
62.41472541275282
 20
112.5128656000951
 30
0.0
 10
62.42743142651975
 20
112.5552999440989
 30
0.0
 10
62.43419957493087
 20
112.6007508931728
 30
0.0
 10
62.43519609500869
 20
112.6319554380448
 30
0.0
 10
62.43570497733038
 20
112.6478903314757
 30
0.0
  0
SPLINE
  5
147
330
1F
100
AcDbEntity
  8
0
  6
Continuous
 62
     7
370
     0
100
AcDbSpline
210
0.0
220
0.0
230
1.0
 70
     8
 71
     3
 72
    11
 73
     7
 74
     0
 42
0.00000001
 43
0.00000001
 12
1.0
 22
0.0
 32
0.0
 13
1.0
 23
0.0
 33
0.0
 40
0.0
 40
0.0
 40
0.0
 40
0.0
 40
0.3293954641291841
 40
0.6051903468528007
 40
0.8278865786947364
 40
1.0
 40
1.0
 40
1.0
 40
1.0
 10
61.97348993148704
 20
112.292276974745
 30
0.0
 10
61.9928350822329
 20
112.2924992231429
 30
0.0
 10
62.02837746142372
 20
112.2929075547676
 30
0.0
 10
62.07699249220698
 20
112.2941885109472
 30
0.0
 10
62.11628846729752
 20
112.2973174077253
 30
0.0
 10
62.13923524015146
 20
112.3006864307729
 30
0.0
 10
62.14923866218616
 20
112.302155123543
 30
0.0
  0
LINE
  5
148
330
1F
100
AcDbEntity
  8
0
  6
Continuous
 62
     7
370
     0
100
AcDbLine
 10
61.4874026888
 20
112.2922770283
 30
0.0
 11
61.9734899757
 21
112.2922770283
 31
0.0
  0
LINE
  5
149
330
1F
100
AcDbEntity
  8
0
  6
Continuous
 62
     7
370
     0
100
AcDbLine
 10
61.4874026888
 20
113.0035036313
 30
0.0
 11
61.4874026888
 21
112.2922770283
 31
0.0
  0
LINE
  5
14A
330
1F
100
AcDbEntity
  8
0
  6
Continuous
 62
     7
370
     0
100
AcDbLine
 10
61.9401511887
 20
113.0035036313
 30
0.0
 11
61.4874026888
 21
113.0035036313
 31
0.0
  0
SPLINE
  5
14B
330
1F
100
AcDbEntity
  8
0
  6
Continuous
 62
     7
370
     0
100
AcDbSpline
210
0.0
220
0.0
230
1.0
 70
     8
 71
     3
 72
    23
 73
    19
 74
     0
 42
0.00000001
 43
0.00000001
 12
1.0
 22
0.0
 32
0.0
 13
1.0
 23
0.0
 33
0.0
 40
0.0
 40
0.0
 40
0.0
 40
0.0
 40
0.0760105192062331
 40
0.1481357362434486
 40
0.2177881778331541
 40
0.2867678984972349
 40
0.3540434632439191
 40
0.4186108400234797
 40
0.4836364388553448
 40
0.5502295626461514
 40
0.586927811313815
 40
0.6291578250269657
 40
0.6772382242876697
 40
0.7300426397437303
 40
0.788862566116924
 40
0.853750451461094
 40
0.9241097665384562
 40
1.0
 40
1.0
 40
1.0
 40
1.0
 10
62.35667978694577
 20
113.5517409464998
 30
0.0
 10
62.35614787253827
 20
113.5686515686796
 30
0.0
 10
62.3551112326995
 20
113.6016084211404
 30
0.0
 10
62.34640956811227
 20
113.6494674849689
 30
0.0
 10
62.33135165900266
 20
113.6939915555881
 30
0.0
 10
62.31095912658296
 20
113.7351708660059
 30
0.0
 10
62.28513676217658
 20
113.7718057770606
 30
0.0
 10
62.25431686949961
 20
113.8033032251973
 30
0.0
 10
62.21739681348814
 20
113.8271139092237
 30
0.0
 10
62.18288762003755
 20
113.8419670629833
 30
0.0
 10
62.15184933550172
 20
113.8512591120587
 30
0.0
 10
62.12411771835632
 20
113.8567568350084
 30
0.0
 10
62.09266179320932
 20
113.861600875677
 30
0.0
 10
62.05737804721401
 20
113.8657191179838
 30
0.0
 10
62.01825313353131
 20
113.8689152534482
 30
0.0
 10
61.97516650148055
 20
113.8714543712671
 30
0.0
 10
61.92822071594239
 20
113.8725324190497
 30
0.0
 10
61.8956997609572
 20
113.8726959333603
 30
0.0
 10
61.8788243388388
 20
113.8727807824373
 30
0.0
  0
SPLINE
  5
14C
330
1F
100
AcDbEntity
  8
0
  6
Continuous
 62
     7
370
     0
100
AcDbSpline
210
0.0
220
0.0
230
1.0
 70
     8
 71
     3
 72
    15
 73
    11
 74
     0
 42
0.00000001
 43
0.00000001
 12
1.0
 22
0.0
 32
0.0
 13
1.0
 23
0.0
 33
0.0
 40
0.0
 40
0.0
 40
0.0
 40
0.0
 40
0.1323768784386561
 40
0.2551949197670694
 40
0.3737221416536695
 40
0.490011315447418
 40
0.6078124214239353
 40
0.7311098159015443
 40
0.8599973777575853
 40
1.0
 40
1.0
 40
1.0
 40
1.0
 10
62.15788204238448
 20
113.2648630418223
 30
0.0
 10
62.17361628582945
 20
113.2703747485336
 30
0.0
 10
62.20394861456309
 20
113.2810001656652
 30
0.0
 10
62.24459677232801
 20
113.3051315561883
 30
0.0
 10
62.27921718774463
 20
113.3340891070434
 30
0.0
 10
62.30771708569176
 20
113.3683841373257
 30
0.0
 10
62.32961784507044
 20
113.407833114322
 30
0.0
 10
62.34585662597175
 20
113.4516179620575
 30
0.0
 10
62.35474771882621
 20
113.5003507521714
 30
0.0
 10
62.35601825756962
 20
113.5341452298427
 30
0.0
 10
62.35667978694577
 20
113.5517409464998
 30
0.0
  0
SPLINE
  5
14D
330
1F
100
AcDbEntity
  8
0
  6
Continuous
 62
     7
370
     0
100
AcDbSpline
210
0.0
220
0.0
230
1.0
 70
     8
 71
     3
 72
    15
 73
    11
 74
     0
 42
0.00000001
 43
0.00000001
 12
1.0
 22
0.0
 32
0.0
 13
1.0
 23
0.0
 33
0.0
 40
0.0
 40
0.0
 40
0.0
 40
0.0
 40
0.1669801744060311
 40
0.3208066328848169
 40
0.4631345048703169
 40
0.5942480539785209
 40
0.7123671525397444
 40
0.8194549510427509
 40
0.9157522665813524
 40
1.0
 40
1.0
 40
1.0
 40
1.0
 10
61.91092832243255
 20
113.2405792593604
 30
0.0
 10
61.92478713556983
 20
113.2406340900614
 30
0.0
 10
61.95141304606587
 20
113.2407394322233
 30
0.0
 10
61.98982028760048
 20
113.2422082163103
 30
0.0
 10
62.02526833055281
 20
113.2434612994351
 30
0.0
 10
62.05762005715502
 20
113.2466064412519
 30
0.0
 10
62.08703574047499
 20
113.2496869679474
 30
0.0
 10
62.11339766251739
 20
113.2538338370759
 30
0.0
 10
62.13683494542496
 20
113.2585064180259
 30
0.0
 10
62.15118559772321
 20
113.262840588105
 30
0.0
 10
62.15788204238448
 20
113.2648630418223
 30
0.0
  0
LINE
  5
14E
330
1F
100
AcDbEntity
  8
0
  6
Continuous
 62
     7
370
     0
100
AcDbLine
 10
61.4874026888
 20
113.2405792433
 30
0.0
 11
61.9109283817
 21
113.2405792433
 31
0.0
  0
LINE
  5
14F
330
1F
100
AcDbEntity
  8
0
  6
Continuous
 62
     7
370
     0
100
AcDbLine
 10
61.4874026888
 20
113.8727807975
 30
0.0
 11
61.4874026888
 21
113.2405792433
 31
0.0
  0
LINE
  5
150
330
1F
100
AcDbEntity
  8
0
  6
Continuous
 62
     7
370
     0
100
AcDbLine
 10
61.8788242956
 20
113.8727807975
 30
0.0
 11
61.4874026888
 21
113.8727807975
 31
0.0
  0
SPLINE
  5
151
330
1F
100
AcDbEntity
  8
0
  6
Continuous
 62
     7
370
     0
100
AcDbSpline
210
0.0
220
0.0
230
1.0
 70
     8
 71
     3
 72
    19
 73
    15
 74
     0
 42
0.00000001
 43
0.00000001
 12
1.0
 22
0.0
 32
0.0
 13
1.0
 23
0.0
 33
0.0
 40
0.0
 40
0.0
 40
0.0
 40
0.0
 40
0.0801399024652516
 40
0.1562809906190948
 40
0.229406049012902
 40
0.3017986969723052
 40
0.3727428627695778
 40
0.4426676099026291
 40
0.5133209646126978
 40
0.5865476923632091
 40
0.6683225082295051
 40
0.7636766255259053
 40
0.8740807567185483
 40
1.0
 40
1.0
 40
1.0
 40
1.0
 10
69.87724373311296
 20
119.7025452808748
 30
0.0
 10
69.87667678287231
 20
119.7212538006474
 30
0.0
 10
69.87557117202783
 20
119.7577373240002
 30
0.0
 10
69.8650619618014
 20
119.8104578637359
 30
0.0
 10
69.8477024663542
 20
119.8593568198323
 30
0.0
 10
69.82326535504204
 20
119.9037569908834
 30
0.0
 10
69.79329196240654
 20
119.9436911220366
 30
0.0
 10
69.75702718391511
 20
119.9775661584413
 30
0.0
 10
69.71474218502189
 20
120.0044476751072
 30
0.0
 10
69.66630700663161
 20
120.0255444631454
 30
0.0
 10
69.60969598520819
 20
120.0405544644853
 30
0.0
 10
69.54334620289656
 20
120.0507378412126
 30
0.0
 10
69.46619637416275
 20
120.0573089301212
 30
0.0
 10
69.41106523897292
 20
120.0578632703478
 30
0.0
 10
69.38168993557858
 20
120.058158637245
 30
0.0
  0
SPLINE
  5
152
330
1F
100
AcDbEntity
  8
0
  6
Continuous
 62
     7
370
     0
100
AcDbSpline
210
0.0
220
0.0
230
1.0
 70
     8
 71
     3
 72
    19
 73
    15
 74
     0
 42
0.00000001
 43
0.00000001
 12
1.0
 22
0.0
 32
0.0
 13
1.0
 23
0.0
 33
0.0
 40
0.0
 40
0.0
 40
0.0
 40
0.0
 40
0.0889709576989536
 40
0.1722707767733143
 40
0.2503120304637099
 40
0.3246551996215509
 40
0.3978444501802942
 40
0.4733008807185331
 40
0.5518258887444482
 40
0.6347494834982531
 40
0.7217660118923857
 40
0.8103926655611197
 40
0.9031752367994196
 40
1.0
 40
1.0
 40
1.0
 40
1.0
 10
69.5907774182592
 20
119.3568100732926
 30
0.0
 10
69.60511935571849
 20
119.3598246032218
 30
0.0
 10
69.63288905462298
 20
119.3656615125453
 30
0.0
 10
69.67203766713277
 20
119.3786888852134
 30
0.0
 10
69.7079319955387
 20
119.3936124349238
 30
0.0
 10
69.73994555857335
 20
119.4125786086765
 30
0.0
 10
69.76958934986192
 20
119.4344358247005
 30
0.0
 10
69.79535201075389
 20
119.4617365335064
 30
0.0
 10
69.81908064433503
 20
119.4927547612449
 30
0.0
 10
69.83963941624873
 20
119.5282515945074
 30
0.0
 10
69.85626416855666
 20
119.5675205496311
 30
0.0
 10
69.86897018231072
 20
119.6099548935918
 30
0.0
 10
69.87573833071498
 20
119.6554058426196
 30
0.0
 10
69.87673485079179
 20
119.68661038746
 30
0.0
 10
69.87724373311296
 20
119.7025452808748
 30
0.0
  0
SPLINE
  5
153
330
1F
100
AcDbEntity
  8
0
  6
Continuous
 62
     7
370
     0
100
AcDbSpline
210
0.0
220
0.0
230
1.0
 70
     8
 71
     3
 72
    11
 73
     7
 74
     0
 42
0.00000001
 43
0.00000001
 12
1.0
 22
0.0
 32
0.0
 13
1.0
 23
0.0
 33
0.0
 40
0.0
 40
0.0
 40
0.0
 40
0.0
 40
0.3293954641291863
 40
0.6051903468528026
 40
0.8278865786947355
 40
1.0
 40
1.0
 40
1.0
 40
1.0
 10
69.41502868773829
 20
119.3469319245046
 30
0.0
 10
69.43437383846454
 20
119.3471541729023
 30
0.0
 10
69.4699162176193
 20
119.3475625045266
 30
0.0
 10
69.51853124835327
 20
119.3488434607048
 30
0.0
 10
69.55782722340398
 20
119.3519723574798
 30
0.0
 10
69.58077399623465
 20
119.355341380524
 30
0.0
 10
69.5907774182592
 20
119.3568100732926
 30
0.0
  0
LINE
  5
154
330
1F
100
AcDbEntity
  8
0
  6
Continuous
 62
     7
370
     0
100
AcDbLine
 10
68.9289415406
 20
119.3469319097
 30
0.0
 11
69.4150285946
 21
119.3469319097
 31
0.0
  0
LINE
  5
155
330
1F
100
AcDbEntity
  8
0
  6
Continuous
 62
     7
370
     0
100
AcDbLine
 10
68.9289415406
 20
120.0581587455
 30
0.0
 11
68.9289415406
 21
119.3469319097
 31
0.0
  0
LINE
  5
156
330
1F
100
AcDbEntity
  8
0
  6
Continuous
 62
     7
370
     0
100
AcDbLine
 10
69.3816900404
 20
120.0581587455
 30
0.0
 11
68.9289415406
 21
120.0581587455
 31
0.0
  0
SPLINE
  5
157
330
1F
100
AcDbEntity
  8
0
  6
Continuous
 62
     7
370
     0
100
AcDbSpline
210
0.0
220
0.0
230
1.0
 70
     8
 71
     3
 72
    23
 73
    19
 74
     0
 42
0.00000001
 43
0.00000001
 12
1.0
 22
0.0
 32
0.0
 13
1.0
 23
0.0
 33
0.0
 40
0.0
 40
0.0
 40
0.0
 40
0.0
 40
0.0760105192062331
 40
0.1481357362434476
 40
0.2177881778331541
 40
0.2867678984972346
 40
0.3540434632439185
 40
0.4186108400234789
 40
0.4836364388553431
 40
0.5502295626461512
 40
0.5869278113138148
 40
0.6291578250269647
 40
0.6772382242876699
 40
0.7300426397437305
 40
0.7888625661169237
 40
0.8537504514610939
 40
0.9241097665384562
 40
1.0
 40
1.0
 40
1.0
 40
1.0
 10
69.79821854280847
 20
120.6063958949824
 30
0.0
 10
69.79768662840151
 20
120.6233065171451
 30
0.0
 10
69.79664998856379
 20
120.6562633695724
 30
0.0
 10
69.78794832398539
 20
120.7041224333524
 30
0.0
 10
69.77289041489104
 20
120.7486465039265
 30
0.0
 10
69.75249788249202
 20
120.7898258143024
 30
0.0
 10
69.72667551811183
 20
120.82646072532
 30
0.0
 10
69.69585562546611
 20
120.8579581734248
 30
0.0
 10
69.65893556949207
 20
120.881768857427
 30
0.0
 10
69.62442637607649
 20
120.8966220111716
 30
0.0
 10
69.59338809157212
 20
120.9059140602376
 30
0.0
 10
69.56565647445484
 20
120.9114117831816
 30
0.0
 10
69.53420054933973
 20
120.9162558238454
 30
0.0
 10
69.49891680338018
 20
120.920374066148
 30
0.0
 10
69.45979188973716
 20
120.9235702016092
 30
0.0
 10
69.4167052577301
 20
120.9261093194255
 30
0.0
 10
69.36975947223954
 20
120.927187367207
 30
0.0
 10
69.33723851728732
 20
120.9273508815174
 30
0.0
 10
69.32036309518604
 20
120.9274357305943
 30
0.0
  0
SPLINE
  5
158
330
1F
100
AcDbEntity
  8
0
  6
Continuous
 62
     7
370
     0
100
AcDbSpline
210
0.0
220
0.0
230
1.0
 70
     8
 71
     3
 72
    15
 73
    11
 74
     0
 42
0.00000001
 43
0.00000001
 12
1.0
 22
0.0
 32
0.0
 13
1.0
 23
0.0
 33
0.0
 40
0.0
 40
0.0
 40
0.0
 40
0.0
 40
0.1323768784386551
 40
0.2551949197670689
 40
0.3737221416536681
 40
0.4900113154474159
 40
0.6078124214239333
 40
0.7311098159015433
 40
0.8599973777575838
 40
1.0
 40
1.0
 40
1.0
 40
1.0
 10
69.59942079844876
 20
120.3195179905957
 30
0.0
 10
69.61515504187777
 20
120.3250296973015
 30
0.0
 10
69.64548737058065
 20
120.3356551144223
 30
0.0
 10
69.68613552830436
 20
120.3597865049209
 30
0.0
 10
69.72075594368589
 20
120.3887440557467
 30
0.0
 10
69.74925584160411
 20
120.4230390859942
 30
0.0
 10
69.7711566009606
 20
120.4624880629505
 30
0.0
 10
69.78739538184543
 20
120.5062729106416
 30
0.0
 10
69.79628647469089
 20
120.5550057007061
 30
0.0
 10
69.797557013433
 20
120.5888001783431
 30
0.0
 10
69.79821854280847
 20
120.6063958949824
 30
0.0
  0
SPLINE
  5
159
330
1F
100
AcDbEntity
  8
0
  6
Continuous
 62
     7
370
     0
100
AcDbSpline
210
0.0
220
0.0
230
1.0
 70
     8
 71
     3
 72
    15
 73
    11
 74
     0
 42
0.00000001
 43
0.00000001
 12
1.0
 22
0.0
 32
0.0
 13
1.0
 23
0.0
 33
0.0
 40
0.0
 40
0.0
 40
0.0
 40
0.0
 40
0.1669801744060311
 40
0.3208066328848163
 40
0.4631345048703153
 40
0.594248053978518
 40
0.7123671525397411
 40
0.8194549510427488
 40
0.9157522665813511
 40
1.0
 40
1.0
 40
1.0
 40
1.0
 10
69.35246707874724
 20
120.2952342081584
 30
0.0
 10
69.36632589187046
 20
120.2952890388594
 30
0.0
 10
69.39295180233951
 20
120.2953943810213
 30
0.0
 10
69.43135904383517
 20
120.2968631651067
 30
0.0
 10
69.46680708675157
 20
120.2981162482302
 30
0.0
 10
69.49915881332096
 20
120.3012613900438
 30
0.0
 10
69.5285744966111
 20
120.3043419167362
 30
0.0
 10
69.55493641862678
 20
120.3084887858606
 30
0.0
 10
69.57837370151057
 20
120.3131613668059
 30
0.0
 10
69.59272435379428
 20
120.3174955368805
 30
0.0
 10
69.59942079844876
 20
120.3195179905957
 30
0.0
  0
LINE
  5
15A
330
1F
100
AcDbEntity
  8
0
  6
Continuous
 62
     7
370
     0
100
AcDbLine
 10
68.9289415406
 20
120.2952341246
 30
0.0
 11
69.3524670006
 21
120.2952341246
 31
0.0
  0
LINE
  5
15B
330
1F
100
AcDbEntity
  8
0
  6
Continuous
 62
     7
370
     0
100
AcDbLine
 10
68.9289415406
 20
120.9274356789
 30
0.0
 11
68.9289415406
 21
120.2952341246
 31
0.0
  0
LINE
  5
15C
330
1F
100
AcDbEntity
  8
0
  6
Continuous
 62
     7
370
     0
100
AcDbLine
 10
69.3203629145
 20
120.9274356789
 30
0.0
 11
68.9289415406
 21
120.9274356789
 31
0.0
  0
SPLINE
  5
15D
330
1F
100
AcDbEntity
  8
0
  6
Continuous
 62
     7
370
     0
100
AcDbSpline
210
0.0
220
0.0
230
1.0
 70
     8
 71
     3
 72
    15
 73
    11
 74
     0
 42
0.00000001
 43
0.00000001
 12
1.0
 22
0.0
 32
0.0
 13
1.0
 23
0.0
 33
0.0
 40
0.0
 40
0.0
 40
0.0
 40
0.0
 40
0.1531481085926314
 40
0.2994334688329076
 40
0.4364263514567513
 40
0.5656705729563589
 40
0.6865083102878727
 40
0.7992685160630044
 40
0.9033947408013447
 40
1.0
 40
1.0
 40
1.0
 40
1.0
 10
67.59168705727538
 20
120.5191389140211
 30
0.0
 10
67.5840343037752
 20
120.5400039893622
 30
0.0
 10
67.56907172573396
 20
120.5807991512762
 30
0.0
 10
67.5467580140375
 20
120.6400710777199
 30
0.0
 10
67.52637256660303
 20
120.6963581318464
 30
0.0
 10
67.50638296138415
 20
120.7488532379231
 30
0.0
 10
67.48833798770598
 20
120.7983189401298
 30
0.0
 10
67.47170547293643
 20
120.8444211200529
 30
0.0
 10
67.45525605616973
 20
120.8868393454743
 30
0.0
 10
67.4453845297729
 20
120.9142458897906
 30
0.0
 10
67.44063369872462
 20
120.9274357305943
 30
0.0
  0
LINE
  5
15E
330
1F
100
AcDbEntity
  8
0
  6
Continuous
 62
     7
370
     0
100
AcDbLine
 10
67.7913079654
 20
119.9791334639
 30
0.0
 11
67.5916871206
 21
120.5191387399
 31
0.0
  0
LINE
  5
15F
330
1F
100
AcDbEntity
  8
0
  6
Continuous
 62
     7
370
     0
100
AcDbLine
 10
67.0899594353
 20
119.9791334639
 30
0.0
 11
67.7913079654
 21
119.9791334639
 31
0.0
  0
LINE
  5
160
330
1F
100
AcDbEntity
  8
0
  6
Continuous
 62
     7
370
     0
100
AcDbLine
 10
67.3002816421
 20
120.5479501351
 30
0.0
 11
67.0899594353
 21
119.9791334639
 31
0.0
  0
SPLINE
  5
161
330
1F
100
AcDbEntity
  8
0
  6
Continuous
 62
     7
370
     0
100
AcDbSpline
210
0.0
220
0.0
230
1.0
 70
     8
 71
     3
 72
    11
 73
     7
 74
     0
 42
0.00000001
 43
0.00000001
 12
1.0
 22
0.0
 32
0.0
 13
1.0
 23
0.0
 33
0.0
 40
0.0
 40
0.0
 40
0.0
 40
0.0
 40
0.2472940500353361
 40
0.4956077709090487
 40
0.7463591727731966
 40
1.0
 40
1.0
 40
1.0
 40
1.0
 10
67.44063369872462
 20
120.9274357305943
 30
0.0
 10
67.43277490717648
 20
120.8949107447185
 30
0.0
 10
67.4170249198207
 20
120.829726662261
 30
0.0
 10
67.38404828095625
 20
120.7342232368915
 30
0.0
 10
67.34632415141976
 20
120.639593233454
 30
0.0
 10
67.31568766315911
 20
120.5786143052114
 30
0.0
 10
67.30028166802758
 20
120.5479501813196
 30
0.0
  0
SPLINE
  5
162
330
1F
100
AcDbEntity
  8
0
  6
Continuous
 62
     7
370
     0
100
AcDbSpline
210
0.0
220
0.0
230
1.0
 70
     8
 71
     3
 72
    23
 73
    19
 74
     0
 42
0.00000001
 43
0.00000001
 12
1.0
 22
0.0
 32
0.0
 13
1.0
 23
0.0
 33
0.0
 40
0.0
 40
0.0
 40
0.0
 40
0.0
 40
0.0603255293380428
 40
0.1181599905079978
 40
0.1741866762963808
 40
0.2295388181458
 40
0.2834498146386372
 40
0.337826511950592
 40
0.3926321025334827
 40
0.4484655764151914
 40
0.5059654091573054
 40
0.5650585322290049
 40
0.6266544786228438
 40
0.692232033037364
 40
0.7611310781257619
 40
0.8353098773394204
 40
0.9153255598322018
 40
0.9999999999999999
 40
0.9999999999999999
 40
0.9999999999999999
 40
0.9999999999999999
 10
64.39816387200187
 20
120.6043379473182
 30
0.0
 10
64.397781444391
 20
120.6158710247183
 30
0.0
 10
64.39703238104472
 20
120.6384609353428
 30
0.0
 10
64.39310554324419
 20
120.6716166523059
 30
0.0
 10
64.38547083824935
 20
120.7031222470797
 30
0.0
 10
64.37538922903848
 20
120.7331442617793
 30
0.0
 10
64.36191815332921
 20
120.7614628066103
 30
0.0
 10
64.34591506495279
 20
120.7882973189887
 30
0.0
 10
64.32681844017685
 20
120.8134990712131
 30
0.0
 10
64.30494435530352
 20
120.837144831683
 30
0.0
 10
64.27982893073148
 20
120.8586601628802
 30
0.0
 10
64.25114121136818
 20
120.8772232271448
 30
0.0
 10
64.21910745557099
 20
120.8929978271138
 30
0.0
 10
64.18369042931126
 20
120.9055176041634
 30
0.0
 10
64.14500170269278
 20
120.9155313878334
 30
0.0
 10
64.10282102931855
 20
120.9221932351256
 30
0.0
 10
64.05734131041558
 20
120.927013725622
 30
0.0
 10
64.02582650265798
 20
120.9272924342319
 30
0.0
 10
64.00962335300481
 20
120.9274357305943
 30
0.0
  0
SPLINE
  5
163
330
1F
100
AcDbEntity
  8
0
  6
Continuous
 62
     7
370
     0
100
AcDbSpline
210
0.0
220
0.0
230
1.0
 70
     8
 71
     3
 72
    19
 73
    15
 74
     0
 42
0.00000001
 43
0.00000001
 12
1.0
 22
0.0
 32
0.0
 13
1.0
 23
0.0
 33
0.0
 40
0.0
 40
0.0
 40
0.0
 40
0.0
 40
0.1288602680417313
 40
0.2408921848092289
 40
0.3380442015575111
 40
0.4201204852136087
 40
0.4940584568685508
 40
0.5660947835833201
 40
0.6368049543510104
 40
0.7091484493607204
 40
0.7819418055941272
 40
0.854285300603837
 40
0.9261704072165594
 40
1.0
 40
1.0
 40
1.0
 40
1.0
 10
63.94747333354658
 20
120.2688924780569
 30
0.0
 10
63.97506721959444
 20
120.2693242105737
 30
0.0
 10
64.02665140142534
 20
120.2701312940201
 30
0.0
 10
64.09878371913494
 20
120.2770229383434
 30
0.0
 10
64.16025650327467
 20
120.2879740538353
 30
0.0
 10
64.21228498303
 20
120.3039475383336
 30
0.0
 10
64.25599711853162
 20
120.326124039236
 30
0.0
 10
64.29401439330883
 20
120.3531502495968
 30
0.0
 10
64.32560722720292
 20
120.3870033915434
 30
0.0
 10
64.35188920148576
 20
120.4251994547081
 30
0.0
 10
64.37231871925488
 20
120.4672323156008
 30
0.0
 10
64.38705559897892
 20
120.5113816733605
 30
0.0
 10
64.39670114307226
 20
120.5572764811996
 30
0.0
 10
64.39767197726778
 20
120.5885118520695
 30
0.0
 10
64.39816387200187
 20
120.6043379473182
 30
0.0
  0
LINE
  5
164
330
1F
100
AcDbEntity
  8
0
  6
Continuous
 62
     7
370
     0
100
AcDbLine
 10
63.3971781155
 20
120.2688923641
 30
0.0
 11
63.9474733417
 21
120.2688923641
 31
0.0
  0
LINE
  5
165
330
1F
100
AcDbEntity
  8
0
  6
Continuous
 62
     7
370
     0
100
AcDbLine
 10
63.3971781155
 20
120.9274356789
 30
0.0
 11
63.3971781155
 21
120.2688923641
 31
0.0
  0
LINE
  5
166
330
1F
100
AcDbEntity
  8
0
  6
Continuous
 62
     7
370
     0
100
AcDbLine
 10
64.0096233493
 20
120.9274356789
 30
0.0
 11
63.3971781155
 21
120.9274356789
 31
0.0
  0
SPLINE
  5
167
330
1F
100
AcDbEntity
  8
0
  6
Continuous
 62
     7
370
     0
100
AcDbSpline
210
0.0
220
0.0
230
1.0
 70
     8
 71
     3
 72
    23
 73
    19
 74
     0
 42
0.00000001
 43
0.00000001
 12
1.0
 22
0.0
 32
0.0
 13
1.0
 23
0.0
 33
0.0
 40
0.0
 40
0.0
 40
0.0
 40
0.0
 40
0.0610549117432832
 40
0.1195453450847438
 40
0.1768063562451035
 40
0.2329564830316851
 40
0.2885834899465034
 40
0.3446666617213001
 40
0.4016615108374461
 40
0.4605400973082778
 40
0.5204770623221884
 40
0.5812128653554004
 40
0.6434307597220102
 40
0.7079608695212422
 40
0.7753707435336737
 40
0.8464136772813298
 40
0.9211518871893691
 40
1.0
 40
1.0
 40
1.0
 40
1.0
 10
61.76275609325378
 20
119.3205901944031
 30
0.0
 10
61.78720901336123
 20
119.3212022427043
 30
0.0
 10
61.83508776200092
 20
119.3224006315527
 30
0.0
 10
61.90535662001059
 20
119.3324319153697
 30
0.0
 10
61.97211990120371
 20
119.3495097484845
 30
0.0
 10
62.03603934901093
 20
119.37224421296
 30
0.0
 10
62.09595936165442
 20
119.4029773333466
 30
0.0
 10
62.15328129705663
 20
119.4389656491428
 30
0.0
 10
62.20644255186647
 20
119.4829423402459
 30
0.0
 10
62.25674808446832
 20
119.5323413786179
 30
0.0
 10
62.30186875848753
 20
119.5884924585026
 30
0.0
 10
62.34190385793865
 20
119.6500123998995
 30
0.0
 10
62.374425554742
 20
119.7178238455354
 30
0.0
 10
62.40250365051955
 20
119.790433002096
 30
0.0
 10
62.42306405047989
 20
119.8692122102645
 30
0.0
 10
62.4382594459722
 20
119.9532659087881
 30
0.0
 10
62.44741651299918
 20
120.0428644719741
 30
0.0
 10
62.44838079936654
 20
120.1043722231083
 30
0.0
 10
62.44887584449118
 20
120.1359490589509
 30
0.0
  0
SPLINE
  5
168
330
1F
100
AcDbEntity
  8
0
  6
Continuous
 62
     7
370
     0
100
AcDbSpline
210
0.0
220
0.0
230
1.0
 70
     8
 71
     3
 72
    23
 73
    19
 74
     0
 42
0.00000001
 43
0.00000001
 12
1.0
 22
0.0
 32
0.0
 13
1.0
 23
0.0
 33
0.0
 40
0.0
 40
0.0
 40
0.0
 40
0.0
 40
0.0759644026221998
 40
0.1481252239748712
 40
0.2172006111446031
 40
0.2832999093723609
 40
0.347201868136241
 40
0.4092995407059238
 40
0.4704256161074026
 40
0.5315880640528348
 40
0.5917391729173695
 40
0.6502577442905727
 40
0.7073030399522858
 40
0.7642084640229154
 40
0.8211475320101304
 40
0.8791188121552541
 40
0.9384228183936666
 40
1.0
 40
1.0
 40
1.0
 40
1.0
 10
61.07910587921341
 20
120.1067262021196
 30
0.0
 10
61.07954992119686
 20
120.0770627615646
 30
0.0
 10
61.08041577172663
 20
120.0192211459605
 30
0.0
 10
61.09032157044323
 20
119.9348911462892
 30
0.0
 10
61.10535203789896
 20
119.8553214970503
 30
0.0
 10
61.12606995069827
 20
119.78028882711
 30
0.0
 10
61.15391989907058
 20
119.7105351984897
 30
0.0
 10
61.18721811828194
 20
119.6453903465975
 30
0.0
 10
61.22708576719651
 20
119.5852873172312
 30
0.0
 10
61.27264324668508
 20
119.5303942423062
 30
0.0
 10
61.32275125142394
 20
119.4810824170275
 30
0.0
 10
61.37629673969294
 20
119.4380111608021
 30
0.0
 10
61.43329174825315
 20
119.4019420303544
 30
0.0
 10
61.49310438605465
 20
119.3721592632931
 30
0.0
 10
61.55616425933044
 20
119.3489110978815
 30
0.0
 10
61.6222825031125
 20
119.3325868218618
 30
0.0
 10
61.6915076973501
 20
119.3223773123514
 30
0.0
 10
61.73871074292581
 20
119.3211933220469
 30
0.0
 10
61.76275609325378
 20
119.3205901944031
 30
0.0
  0
SPLINE
  5
169
330
1F
100
AcDbEntity
  8
0
  6
Continuous
 62
     7
370
     0
100
AcDbSpline
210
0.0
220
0.0
230
1.0
 70
     8
 71
     3
 72
    23
 73
    19
 74
     0
 42
0.00000001
 43
0.00000001
 12
1.0
 22
0.0
 32
0.0
 13
1.0
 23
0.0
 33
0.0
 40
0.0
 40
0.0
 40
0.0
 40
0.0
 40
0.0559431333569187
 40
0.1103820356898408
 40
0.16404785888285
 40
0.2167594775435861
 40
0.2696011346144475
 40
0.3230085051908687
 40
0.3775814436721363
 40
0.433449336708054
 40
0.4909218580498929
 40
0.5506247708713257
 40
0.6131168723098183
 40
0.6798607463518507
 40
0.7513577440202002
 40
0.8282611012589941
 40
0.9107950320656291
 40
1.0
 40
1.0
 40
1.0
 40
1.0
 10
61.76687198858214
 20
120.9537774606958
 30
0.0
 10
61.74378606876535
 20
120.9533189834377
 30
0.0
 10
61.69823497657156
 20
120.9524143567207
 30
0.0
 10
61.63117834621503
 20
120.9423580261904
 30
0.0
 10
61.56652848397837
 20
120.9273324943419
 30
0.0
 10
61.50418506018021
 20
120.9063260001836
 30
0.0
 10
61.44468128854685
 20
120.8785101005917
 30
0.0
 10
61.38770888510966
 20
120.8443977064887
 30
0.0
 10
61.3327621363041
 20
120.8049176444832
 30
0.0
 10
61.28070747401651
 20
120.7591079918122
 30
0.0
 10
61.23218114283236
 20
120.7064838835176
 30
0.0
 10
61.19115699810474
 20
120.6444416724082
 30
0.0
 10
61.1565807281136
 20
120.5744624363402
 30
0.0
 10
61.12771017961258
 20
120.4967235564252
 30
0.0
 10
61.10569723659624
 20
120.4106229964175
 30
0.0
 10
61.09048353955975
 20
120.3165312874559
 30
0.0
 10
61.08087792165171
 20
120.2143492800444
 30
0.0
 10
61.07971166079739
 20
120.1435176904102
 30
0.0
 10
61.07910587921341
 20
120.1067262021196
 30
0.0
  0
SPLINE
  5
16A
330
1F
100
AcDbEntity
  8
0
  6
Continuous
 62
     7
370
     0
100
AcDbSpline
210
0.0
220
0.0
230
1.0
 70
     8
 71
     3
 72
    31
 73
    27
 74
     0
 42
0.00000001
 43
0.00000001
 12
1.0
 22
0.0
 32
0.0
 13
1.0
 23
0.0
 33
0.0
 40
0.0
 40
0.0
 40
0.0
 40
0.0
 40
0.0508516157922844
 40
0.0997524678094166
 40
0.147437647776932
 40
0.1940857839327045
 40
0.2391709270841441
 40
0.2833398222454341
 40
0.3265771497238442
 40
0.3689362814999021
 40
0.4105718726814497
 40
0.4510505934949119
 40
0.4908768629924158
 40
0.5300443324843861
 40
0.5689366633103305
 40
0.6075778621311334
 40
0.6464200964505131
 40
0.6856793513063945
 40
0.7247985849801969
 40
0.7635130084045113
 40
0.8021725263787551
 40
0.8407403615726128
 40
0.8796493769005861
 40
0.9190706128663401
 40
0.9590978622172245
 40
0.9999999999999999
 40
0.9999999999999999
 40
0.9999999999999999
 40
0.9999999999999999
 10
62.44887584449118
 20
120.1359490589509
 30
0.0
 10
62.44870089573482
 20
120.1562635398225
 30
0.0
 10
62.44835770958594
 20
120.1961131998113
 30
0.0
 10
62.44381277476859
 20
120.2548520545964
 30
0.0
 10
62.43795039204834
 20
120.3117637946752
 30
0.0
 10
62.42902482321751
 20
120.3667749835332
 30
0.0
 10
62.41672425690933
 20
120.4196578073286
 30
0.0
 10
62.40309731829028
 20
120.4708148640827
 30
0.0
 10
62.38605730808507
 20
120.5198053104094
 30
0.0
 10
62.36672304173875
 20
120.5668212681218
 30
0.0
 10
62.34508832507839
 20
120.6116213662117
 30
0.0
 10
62.32068724205033
 20
120.6538279220162
 30
0.0
 10
62.29380338329653
 20
120.6932768457997
 30
0.0
 10
62.26516210667285
 20
120.7307160491849
 30
0.0
 10
62.23317742023748
 20
120.7646964816726
 30
0.0
 10
62.19938940562321
 20
120.7966534925
 30
0.0
 10
62.16303056923787
 20
120.8259268427976
 30
0.0
 10
62.12446375893143
 20
120.8525241792442
 30
0.0
 10
62.08423609491626
 20
120.8764659737864
 30
0.0
 10
62.04243050624546
 20
120.896957043489
 30
0.0
 10
61.99971301544208
 20
120.914955873768
 30
0.0
 10
61.95536859214273
 20
120.9287527325878
 30
0.0
 10
61.91000954737051
 20
120.93988010172
 30
0.0
 10
61.86345251570328
 20
120.9483323749374
 30
0.0
 10
61.81552468980546
 20
120.9527093553639
 30
0.0
 10
61.78320601616905
 20
120.9534188688496
 30
0.0
 10
61.76687198858214
 20
120.9537774606958
 30
0.0
  0
CIRCLE
  5
16B
330
1F
100
AcDbEntity
  8
0
  6
Continuous
 62
     7
370
     0
100
AcDbCircle
 10
64.5167016575
 20
116.6098563536
 30
0.0
 40
25.40000000000001
  0
DIMENSION
  5
16C
330
1F
100
AcDbEntity
  8
0
  6
Continuous
 62
     7
370
     0
100
AcDbDimension
  2
_D
 10
46.783279853
 20
98.4250893465
 30
0.0
 11
109.8921362996
 21
151.1959745227
 31
0.0
 70
   163
  1
<>
 71
     1
 42
-1.0
  3
SLDDIMSTYLE0
100
AcDbDiametricDimension
 15
82.250123462
 25
134.7946233607
 35
0.0
 40
0.0
  0
MTEXT
  5
17D
330
1F
100
AcDbEntity
  8
0
  6
Continuous
 62
     7
370
     0
100
AcDbMText
 10
96.5535544897
 20
112.9186355781
 30
0.0
 40
2.1166666667
 41
0.0
 71
     1
 72
     1
  1
NOT FOR MOUNTING PURPOSES
  7
SLDTEXTSTYLE0
 73
     1
 44
1.0
  0
LEADER
  5
17F
330
1F
100
AcDbEntity
  8
0
  6
Continuous
 62
     7
370
     0
100
AcDbLeader
  3
SLDDIMSTYLE1
 76
     3
 10
65.7054261455
 20
116.2232892942
 30
0.0
 10
89.6875586854
 20
111.8544600939
 30
0.0
 10
96.0375586854
 20
111.8544600939
 30
0.0
  0
INSERT
  5
187
330
1F
100
AcDbEntity
  8
0
  6
Continuous
 62
     7
370
     0
100
AcDbBlockReference
  2
SW_CENTERMARKSYMBOL_0
 10
64.5167016575
 20
116.6098563536
 30
0.0
  0
LINE
  5
188
330
1F
100
AcDbEntity
  8
0
  6
Continuous
 62
     7
370
     0
100
AcDbLine
 10
205.3781863765
 20
142.0098560466
 30
0.0
 11
193.7781865241
 21
142.0098560466
 31
0.0
  0
LINE
  5
189
330
1F
100
AcDbEntity
  8
0
  6
Continuous
 62
     7
370
     0
100
AcDbLine
 10
193.7781865241
 20
91.2098566606
 30
0.0
 11
205.3781863765
 21
91.2098566606
 31
0.0
  0
LINE
  5
18A
330
1F
100
AcDbEntity
  8
0
  6
Continuous
 62
     7
370
     0
100
AcDbLine
 10
205.3781863765
 20
91.2098566606
 30
0.0
 11
205.5781865025
 21
91.4098563208
 31
0.0
  0
LINE
  5
18B
330
1F
100
AcDbEntity
  8
0
  6
Continuous
 62
     7
370
     0
100
AcDbLine
 10
205.5781865025
 20
141.8098563864
 30
0.0
 11
205.3781863765
 21
142.0098560466
 31
0.0
  0
LINE
  5
18C
330
1F
100
AcDbEntity
  8
0
  6
Continuous
 62
     7
370
     0
100
AcDbLine
 10
193.7781865241
 20
142.0098560466
 30
0.0
 11
193.5781863981
 21
141.8098563864
 31
0.0
  0
LINE
  5
18D
330
1F
100
AcDbEntity
  8
0
  6
Continuous
 62
     7
370
     0
100
AcDbLine
 10
193.5781863981
 20
91.4098563208
 30
0.0
 11
193.7781865241
 21
91.2098566606
 31
0.0
  0
LINE
  5
18E
330
1F
100
AcDbEntity
  8
0
  6
Continuous
 62
     7
370
     0
100
AcDbLine
 10
193.7781865241
 20
116.6098563536
 30
0.0
 11
193.7781865241
 21
91.2098566606
 31
0.0
  0
LINE
  5
18F
330
1F
100
AcDbEntity
  8
0
  6
Continuous
 62
     7
370
     0
100
AcDbLine
 10
193.7781865241
 20
142.0098560466
 30
0.0
 11
193.7781865241
 21
116.6098563536
 31
0.0
  0
LINE
  5
190
330
1F
100
AcDbEntity
  8
0
  6
Continuous
 62
     7
370
     0
100
AcDbLine
 10
205.3781863765
 20
116.6098563536
 30
0.0
 11
205.3781863765
 21
142.0098560466
 31
0.0
  0
LINE
  5
191
330
1F
100
AcDbEntity
  8
0
  6
Continuous
 62
     7
370
     0
100
AcDbLine
 10
205.3781863765
 20
91.2098566606
 30
0.0
 11
205.3781863765
 21
116.6098563536
 31
0.0
  0
LINE
  5
192
330
1F
100
AcDbEntity
  8
0
  6
Continuous
 62
     7
370
     0
100
AcDbLine
 10
205.5781865025
 20
116.6098563536
 30
0.0
 11
205.5781865025
 21
91.4098563208
 31
0.0
  0
LINE
  5
193
330
1F
100
AcDbEntity
  8
0
  6
Continuous
 62
     7
370
     0
100
AcDbLine
 10
205.5781865025
 20
141.8098563864
 30
0.0
 11
205.5781865025
 21
116.6098563536
 31
0.0
  0
LINE
  5
194
330
1F
100
AcDbEntity
  8
0
  6
Continuous
 62
     7
370
     0
100
AcDbLine
 10
193.5781863981
 20
116.6098563536
 30
0.0
 11
193.5781863981
 21
141.8098563864
 31
0.0
  0
LINE
  5
195
330
1F
100
AcDbEntity
  8
0
  6
Continuous
 62
     7
370
     0
100
AcDbLine
 10
193.5781863981
 20
91.4098563208
 30
0.0
 11
193.5781863981
 21
116.6098563536
 31
0.0
  0
DIMENSION
  5
196
330
1F
100
AcDbEntity
  8
0
  6
Continuous
 62
     7
370
     0
100
AcDbDimension
  2
_D_1
 10
205.5781864503
 20
148.3191563386
 30
0.0
 11
222.6302836051
 21
148.3191563386
 31
0.0
 70
   160
  1
<>
 71
     2
 42
-1.0
  3
SLDDIMSTYLE2
100
AcDbAlignedDimension
 13
193.5781864503
 23
141.8098563536
 33
0.0
 14
205.5781864503
 24
141.8098563536
 34
0.0
100
AcDbRotatedDimension
  0
MTEXT
  5
1AB
330
1F
100
AcDbEntity
  8
0
  6
Continuous
 62
     7
370
     0
100
AcDbMText
 10
169.4857276362
 20
129.3846468173
 30
0.0
 40
2.1166666667
 41
0.0
 71
     1
 72
     1
  1
S1
  7
SLDTEXTSTYLE0
 73
     1
 44
1.0
  0
LEADER
  5
1AC
330
1F
100
AcDbEntity
  8
0
  6
Continuous
 62
     7
370
     0
100
AcDbLeader
  3
SLDDIMSTYLE1
 76
     3
 10
193.7781864503
 20
117.1633344725
 30
0.0
 10
179.2091549296
 20
128.2863849765
 30
0.0
 10
172.8591549296
 20
128.2863849765
 30
0.0
  0
MTEXT
  5
1AD
330
1F
100
AcDbEntity
  8
0
  6
Continuous
 62
     7
370
     0
100
AcDbMText
 10
219.9252131674
 20
108.9533491788
 30
0.0
 40
2.1166666667
 41
0.0
 71
     1
 72
     1
  1
S2
  7
SLDTEXTSTYLE0
 73
     1
 44
1.0
  0
LEADER
  5
1AE
330
1F
100
AcDbEntity
  8
0
  6
Continuous
 62
     7
370
     0
100
AcDbLeader
  3
SLDDIMSTYLE1
 76
     3
 10
205.5781864503
 20
114.7594200063
 30
0.0
 10
213.0443661972
 20
107.9812206573
 30
0.0
 10
219.3943661972
 20
107.9812206573
 30
0.0
  0
LINE
  5
1AF
330
1F
100
AcDbEntity
  8
0
  6
Continuous
 62
     7
370
     0
100
AcDbLine
 10
227.3297822391
 20
193.2334569544
 30
0.0
 11
227.3297822391
 21
193.0701753321
 31
0.0
  0
LINE
  5
1B0
330
1F
100
AcDbEntity
  8
0
  6
Continuous
 62
     7
370
     0
100
AcDbLine
 10
245.1459770216
 20
162.2082768203
 30
0.0
 11
245.2873753929
 21
162.1266227401
 31
0.0
  0
LINE
  5
1B1
330
1F
100
AcDbEntity
  8
0
  6
Continuous
 62
     7
370
     0
100
AcDbLine
 10
240.7937652386
 20
209.5978820873
 30
0.0
 11
232.5913265768
 21
204.8627150387
 31
0.0
  0
LINE
  5
1B2
330
1F
100
AcDbEntity
  8
0
  6
Continuous
 62
     7
370
     0
100
AcDbLine
 10
257.9892623858
 20
160.8674328298
 30
0.0
 11
266.1917010475
 21
165.6025998784
 31
0.0
  0
LINE
  5
1B3
330
1F
100
AcDbEntity
  8
0
  6
Continuous
 62
     7
370
     0
100
AcDbLine
 10
271.4532453852
 20
177.2318579627
 30
0.0
 11
271.4532453852
 21
177.3951395851
 31
0.0
  0
LINE
  5
1B4
330
1F
100
AcDbEntity
  8
0
  6
Continuous
 62
     7
370
     0
100
AcDbLine
 10
253.6370506027
 20
208.2570380969
 30
0.0
 11
253.4956522314
 21
208.338692177
 31
0.0
  0
LWPOLYLINE
  5
1B5
330
1F
100
AcDbEntity
  8
0
  6
Continuous
 62
     7
370
     0
100
AcDbPolyline
 90
      165
 70
   128
 43
0.0
 10
262.9679640109
 20
172.4966909141
 10
262.9548880244
 20
173.2923883012
 10
262.9156792556
 20
174.1020151053
 10
262.8503952487
 20
174.9243830875
 10
262.7591318171
 20
175.7582853093
 10
262.6420229025
 20
176.6024979044
 10
262.4992403783
 20
177.4557818742
 10
262.3309937976
 20
178.3168849069
 10
262.1375300854
 20
179.1845432151
 10
261.9191331763
 20
180.0574833904
 10
261.6761235981
 20
180.9344242729
 10
261.4088580007
 20
181.8140788309
 10
261.1177286333
 20
182.69515605
 10
260.8031627684
 20
183.5763628278
 10
260.4656220747
 20
184.4564058719
 10
260.1056019398
 20
185.3339935979
 10
259.7236307428
 20
186.2078380246
 10
259.3202690792
 20
187.0766566649
 10
258.8961089378
 20
187.9391744077
 10
258.4517728321
 20
188.7941253891
 10
257.9879128867
 20
189.6402548508
 10
257.5052098799
 20
190.476320981
 10
257.004372245
 20
191.3010967375
 10
256.4861350303
 20
192.1133716481
 10
255.9512588204
 20
192.9119535872
 10
255.4005286198
 20
193.6956705259
 10
254.8347527011
 20
194.4633722514
 10
254.2547614185
 20
195.2139320557
 10
253.6614059891
 20
195.9462483885
 10
253.0555572439
 20
196.6592464749
 10
252.4381043494
 20
197.3518798917
 10
251.8099535029
 20
198.0231321039
 10
251.1720266024
 20
198.6720179563
 10
250.5252598936
 20
199.2975851195
 10
249.8706025958
 20
199.8989154873
 10
249.2090155089
 20
200.4751265246
 10
248.5414696031
 20
201.0253725621
 10
247.8689445942
 20
201.548846038
 10
247.1924275053
 20
202.0447786827
 10
246.5129112186
 20
202.5124426467
 10
245.8313930178
 20
202.9511515686
 10
245.148873125
 20
203.3602615826
 10
244.4663532322
 20
203.7391722633
 10
243.7848350315
 20
204.0873275071
 10
243.1053187448
 20
204.4042163481
 10
242.4288016559
 20
204.6893737083
 10
241.756276647
 20
204.9423810798
 10
241.0887307412
 20
205.1628671395
 10
240.4271436543
 20
205.3505082938
 10
239.7724863565
 20
205.5050291532
 10
239.1257196477
 20
205.6262029372
 10
238.4877927472
 20
205.7138518065
 10
237.8596419007
 20
205.7678471244
 10
237.2421890062
 20
205.7881096452
 10
236.636340261
 20
205.7746096308
 10
236.0429848316
 20
205.7273668945
 10
235.4629935489
 20
205.6464507715
 10
234.8972176302
 20
205.5319800173
 10
234.3464874297
 20
205.3841226335
 10
233.8116112198
 20
205.2030956213
 10
233.2933740051
 20
204.9891646627
 10
232.7925363702
 20
204.742643731
 10
232.3098333634
 20
204.4638946295
 10
231.845973418
 20
204.1533264611
 10
231.4016373123
 20
203.8113950274
 10
230.9774771709
 20
203.4386021598
 10
230.5741155073
 20
203.0354949833
 10
230.1921443103
 20
202.6026651134
 10
229.8321241754
 20
202.1407477874
 10
229.4945834817
 20
201.6504209329
 10
229.1800176167
 20
201.132404172
 10
228.8888882493
 20
200.5874577658
 10
228.621622652
 20
200.0163814983
 10
228.3786130737
 20
199.4200135026
 10
228.1602161647
 20
198.7992290311
 10
227.9667524525
 20
198.1549391706
 10
227.7985058718
 20
197.4880895052
 10
227.6557233476
 20
196.7996587288
 10
227.5386144329
 20
196.0906572085
 10
227.4473510014
 20
195.3621255019
 10
227.3820669945
 20
194.6151328296
 10
227.3428582257
 20
193.8507755064
 10
227.3297822391
 20
193.0701753321
 10
227.3428582257
 20
192.274477945
 10
227.3820669945
 20
191.4648511409
 10
227.4473510014
 20
190.6424831587
 10
227.5386144329
 20
189.8085809369
 10
227.6557233476
 20
188.9643683418
 10
227.7985058718
 20
188.111084372
 10
227.9667524525
 20
187.2499813393
 10
228.1602161647
 20
186.3823230311
 10
228.3786130737
 20
185.5093828558
 10
228.621622652
 20
184.6324419733
 10
228.8888882493
 20
183.7527874153
 10
229.1800176167
 20
182.8717101962
 10
229.4945834817
 20
181.9905034184
 10
229.8321241754
 20
181.1104603742
 10
230.1921443103
 20
180.2328726483
 10
230.5741155073
 20
179.3590282216
 10
230.9774771709
 20
178.4902095813
 10
231.4016373123
 20
177.6276918385
 10
231.845973418
 20
176.7727408571
 10
232.3098333634
 20
175.9266113954
 10
232.7925363702
 20
175.0905452652
 10
233.2933740051
 20
174.2657695087
 10
233.8116112198
 20
173.4534945981
 10
234.3464874297
 20
172.654912659
 10
234.8972176302
 20
171.8711957203
 10
235.4629935489
 20
171.1034939947
 10
236.0429848316
 20
170.3529341905
 10
236.636340261
 20
169.6206178577
 10
237.2421890062
 20
168.9076197713
 10
237.8596419007
 20
168.2149863545
 10
238.4877927472
 20
167.5437341423
 10
239.1257196477
 20
166.8948482899
 10
239.7724863565
 20
166.2692811267
 10
240.4271436543
 20
165.6679507589
 10
241.0887307412
 20
165.0917397216
 10
241.756276647
 20
164.5414936841
 10
242.4288016559
 20
164.0180202082
 10
243.1053187448
 20
163.5220875635
 10
243.7848350315
 20
163.0544235995
 10
244.4663532322
 20
162.6157146776
 10
245.148873125
 20
162.2066046636
 10
245.8313930178
 20
161.8276939828
 10
246.5129112186
 20
161.4795387391
 10
247.1924275053
 20
161.1626498981
 10
247.8689445942
 20
160.8774925379
 10
248.5414696031
 20
160.6244851664
 10
249.2090155089
 20
160.4039991066
 10
249.8706025958
 20
160.2163579524
 10
250.5252598936
 20
160.061837093
 10
251.1720266024
 20
159.940663309
 10
251.8099535029
 20
159.8530144396
 10
252.4381043494
 20
159.7990191218
 10
253.0555572439
 20
159.778756601
 10
253.6614059891
 20
159.7922566154
 10
254.2547614185
 20
159.8394993517
 10
254.8347527011
 20
159.9204154747
 10
255.4005286198
 20
160.0348862289
 10
255.9512588204
 20
160.1827436127
 10
256.4861350303
 20
160.3637706249
 10
257.004372245
 20
160.5777015835
 10
257.5052098799
 20
160.8242225152
 10
257.9879128867
 20
161.1029716167
 10
258.4517728321
 20
161.4135397851
 10
258.8961089378
 20
161.7554712188
 10
259.3202690792
 20
162.1282640864
 10
259.7236307428
 20
162.5313712629
 10
260.1056019398
 20
162.9642011328
 10
260.4656220747
 20
163.4261184588
 10
260.8031627684
 20
163.9164453133
 10
261.1177286333
 20
164.4344620742
 10
261.4088580007
 20
164.9794084804
 10
261.6761235981
 20
165.5504847479
 10
261.9191331763
 20
166.1468527436
 10
262.1375300854
 20
166.7676372151
 10
262.3309937976
 20
167.4119270756
 10
262.4992403783
 20
168.078776741
 10
262.6420229025
 20
168.7672075174
 10
262.7591318171
 20
169.4762090377
 10
262.8503952487
 20
170.2047407443
 10
262.9156792556
 20
170.9517334166
 10
262.9548880244
 20
171.7160907398
 10
262.9679640109
 20
172.4966909141
  0
LWPOLYLINE
  5
1B6
330
1F
100
AcDbEntity
  8
0
  6
Continuous
 62
     7
370
     0
100
AcDbPolyline
 90
       43
 70
   128
 43
0.0
 10
263.2508067234
 20
172.4966909141
 10
263.2377862106
 20
171.7146158013
 10
263.1987435505
 20
170.9487077867
 10
263.1337353513
 20
170.2000773638
 10
263.0428558688
 20
169.4698099752
 10
262.9262368694
 20
168.7589644387
 10
262.7840474395
 20
168.0685714124
 10
262.6164937403
 20
167.3996319002
 10
262.4238187085
 20
166.7531158005
 10
262.2063017046
 20
166.1299604997
 10
261.9642581074
 20
165.5310695135
 10
261.698038857
 20
164.9573111766
 10
261.4080299459
 20
164.4095173837
 10
261.0946518592
 20
163.8884823834
 10
260.7583589652
 20
163.3949616267
 10
260.3996388564
 20
162.9296706714
 10
260.0190116428
 20
162.4932841451
 10
259.6170291974
 20
162.0864347664
 10
259.1942743563
 20
161.709712428
 10
258.7513600736
 20
161.3636633413
 10
258.2889285327
 20
161.0487892444
 10
257.8076502151
 20
160.7655466747
 10
257.3082229284
 20
160.5143463068
 10
256.7913707943
 20
160.2955523572
 10
256.2578431991
 20
160.1094820562
 10
255.7084137068
 20
159.9564051879
 10
255.1438789375
 20
159.8365436993
 10
254.5650574128
 20
159.7500713779
 10
253.9727883686
 20
159.6971136005
 10
253.3679305383
 20
159.6777471506
 10
252.7513609079
 20
159.6920001079
 10
252.1239734444
 20
159.7398518068
 10
251.4866777998
 20
159.821232867
 10
250.8403979918
 20
159.9360252938
 10
250.1860710642
 20
160.084062649
 10
249.5246457287
 20
160.2651302927
 10
248.8570809886
 20
160.4789656941
 10
248.1843447491
 20
160.7252588124
 10
247.5074124134
 20
161.003652546
 10
246.8272654687
 20
161.3137432506
 10
246.1448900629
 20
161.6550813244
 10
245.4612755753
 20
162.0271718598
 10
245.2873753929
 20
162.1266227401
  0
LWPOLYLINE
  5
1B7
330
1F
100
AcDbEntity
  8
0
  6
Continuous
 62
     7
370
     0
100
AcDbPolyline
 90
       85
 70
   128
 43
0.0
 10
227.3297822391
 20
193.2334569544
 10
227.3330376624
 20
193.6264450576
 10
227.359073968
 20
194.4005769361
 10
227.4111088292
 20
195.1579834382
 10
227.4890668003
 20
195.8975663967
 10
227.5928348497
 20
196.618253487
 10
227.7222625237
 20
197.3189997818
 10
227.8771621645
 20
197.9987892659
 10
228.0573091824
 20
198.6566363096
 10
228.2624423816
 20
199.2915870975
 10
228.4922643384
 20
199.9027210117
 10
228.746441833
 20
200.4891519665
 10
229.0246063323
 20
201.0500296931
 10
229.3263545245
 20
201.5845409722
 10
229.6512489034
 20
202.0919108138
 10
229.9988184033
 20
202.57140358
 10
230.3685590816
 20
203.0223240521
 10
230.7599348497
 20
203.4440184386
 10
231.1723782502
 20
203.835875323
 10
231.6052912795
 20
204.1973265502
 10
232.0580462552
 20
204.5278480505
 10
232.5299867257
 20
204.8269605992
 10
233.0204284227
 20
205.0942305119
 10
233.5286602524
 20
205.3292702727
 10
234.0539453273
 20
205.5317390964
 10
234.5955220342
 20
205.7013434226
 10
235.1526051388
 20
205.8378373412
 10
235.7243869238
 20
205.941022949
 10
236.3100383602
 20
206.0107506369
 10
236.9087103095
 20
206.0469193063
 10
237.5195347545
 20
206.0494765161
 10
238.1416260582
 20
206.0184185586
 10
238.7740822478
 20
205.9537904649
 10
239.4159863221
 20
205.8556859395
 10
240.0664075817
 20
205.7242472247
 10
240.7244029778
 20
205.5596648939
 10
241.3890184801
 20
205.3621775759
 10
242.0592904597
 20
205.1320716083
 10
242.7342470862
 20
204.8696806228
 10
243.4129097371
 20
204.5753850614
 10
244.0942944164
 20
204.2496116243
 10
244.7774131814
 20
203.8928326519
 10
245.4612755753
 20
203.5055654397
 10
246.1448900629
 20
203.088371488
 10
246.8272654687
 20
202.6418556882
 10
247.5074124134
 20
202.1666654456
 10
248.1843447491
 20
201.6634897406
 10
248.8570809886
 20
201.1330581297
 10
249.5246457287
 20
200.5761396883
 10
250.1860710642
 20
199.9935418946
 10
250.8403979918
 20
199.38610946
 10
251.4866777998
 20
198.7547231032
 10
252.1239734444
 20
198.1002982742
 10
252.7513609079
 20
197.4237838265
 10
253.3679305383
 20
196.7261606412
 10
253.9727883686
 20
196.0084402053
 10
254.5650574128
 20
195.2716631448
 10
255.1438789375
 20
194.5168977161
 10
255.7084137068
 20
193.7452382568
 10
256.2578431991
 20
192.9578035994
 10
256.7913707943
 20
192.1557354488
 10
257.3082229284
 20
191.3401967273
 10
257.8076502151
 20
190.5123698879
 10
258.2889285327
 20
189.6734552005
 10
258.7513600736
 20
188.8246690112
 10
259.1942743563
 20
187.9672419787
 10
259.6170291974
 20
187.1024172903
 10
260.0190116428
 20
186.2314488592
 10
260.3996388564
 20
185.3555995062
 10
260.7583589652
 20
184.4761391293
 10
261.0946518592
 20
183.5943428618
 10
261.4080299459
 20
182.7114892242
 10
261.698038857
 20
181.8288582696
 10
261.9642581074
 20
180.9477297288
 10
262.2063017046
 20
180.0693811537
 10
262.4238187085
 20
179.1950860659
 10
262.6164937403
 20
178.3261121096
 10
262.7840474395
 20
177.4637192141
 10
262.9262368694
 20
176.6091577665
 10
263.0428558688
 20
175.7636667993
 10
263.1337353513
 20
174.9284721935
 10
263.1987435505
 20
174.1047849015
 10
263.2377862106
 20
173.2937991912
 10
263.2508067234
 20
172.4966909141
 10
263.2508067234
 20
172.4966909141
  0
LWPOLYLINE
  5
1B8
330
1F
100
AcDbEntity
  8
0
  6
Continuous
 62
     7
370
     0
100
AcDbPolyline
 90
       63
 70
   128
 43
0.0
 10
271.4532453852
 20
177.2318579627
 10
271.4402248723
 20
178.0289662397
 10
271.4011822123
 20
178.8399519501
 10
271.3361740131
 20
179.6636392421
 10
271.2452945305
 20
180.4988338478
 10
271.1286755311
 20
181.3443248151
 10
270.9864861013
 20
182.1988862626
 10
270.818932402
 20
183.0612791582
 10
270.6262573703
 20
183.9302531144
 10
270.4087403664
 20
184.8045482023
 10
270.1666967692
 20
185.6828967773
 10
269.9004775188
 20
186.5640253182
 10
269.6104686076
 20
187.4466562727
 10
269.2970905209
 20
188.3295099104
 10
268.9607976269
 20
189.2113061779
 10
268.6020775182
 20
190.0907665548
 10
268.2214503046
 20
190.9666159078
 10
267.8194678592
 20
191.8375843389
 10
267.3967130181
 20
192.7024090273
 10
266.9537987354
 20
193.5598360597
 10
266.4913671945
 20
194.4086222491
 10
266.0100888769
 20
195.2475369365
 10
265.5106615901
 20
196.0753637759
 10
264.9938094561
 20
196.8909024974
 10
264.4602818609
 20
197.692970648
 10
263.9108523685
 20
198.4804053054
 10
263.3463175993
 20
199.2520647647
 10
262.7674960746
 20
200.0068301934
 10
262.1752270304
 20
200.7436072539
 10
261.5703692
 20
201.4613276897
 10
260.9537995696
 20
202.158950875
 10
260.3264121062
 20
202.8354653228
 10
259.6891164616
 20
203.4898901518
 10
259.0428366535
 20
204.1212765085
 10
258.388509726
 20
204.7287089432
 10
257.7270843904
 20
205.3113067368
 10
257.0595196504
 20
205.8682251783
 10
256.3867834109
 20
206.3986567891
 10
255.7098510752
 20
206.9018324942
 10
255.0297041304
 20
207.3770227368
 10
254.3473287247
 20
207.8235385366
 10
253.6637142371
 20
208.2407324882
 10
252.9798518432
 20
208.6279997005
 10
252.2967330781
 20
208.9847786728
 10
251.6153483989
 20
209.3105521099
 10
250.936685748
 20
209.6048476714
 10
250.2617291215
 20
209.8672386569
 10
249.5914571419
 20
210.0973446244
 10
248.9268416396
 20
210.2948319425
 10
248.2688462434
 20
210.4594142732
 10
247.6184249839
 20
210.5908529881
 10
246.9765209095
 20
210.6889575135
 10
246.34406472
 20
210.7535856072
 10
245.7219734163
 20
210.7846435647
 10
245.1111489712
 20
210.7820863548
 10
244.512477022
 20
210.7459176854
 10
243.9268255856
 20
210.6761899976
 10
243.3550438006
 20
210.5730043897
 10
242.797960696
 20
210.4365104712
 10
242.256383989
 20
210.266906145
 10
241.7310989141
 20
210.0644373213
 10
241.2228670844
 20
209.8293975605
 10
240.7937652386
 20
209.5978820873
  0
LWPOLYLINE
  5
1B9
330
1F
100
AcDbEntity
  8
0
  6
Continuous
 62
     7
370
     0
100
AcDbPolyline
 90
       22
 70
   128
 43
0.0
 10
266.1917010475
 20
165.6025998784
 10
266.4913671945
 20
165.783956293
 10
266.9537987354
 20
166.0988303899
 10
267.3967130181
 20
166.4448794765
 10
267.8194678592
 20
166.8216018149
 10
268.2214503046
 20
167.2284511936
 10
268.6020775182
 20
167.66483772
 10
268.9607976269
 20
168.1301286752
 10
269.2970905209
 20
168.623649432
 10
269.6104686076
 20
169.1446844322
 10
269.9004775188
 20
169.6924782252
 10
270.1666967692
 20
170.2662365621
 10
270.4087403664
 20
170.8651275483
 10
270.6262573703
 20
171.488282849
 10
270.818932402
 20
172.1347989488
 10
270.9864861013
 20
172.803738461
 10
271.1286755311
 20
173.4941314873
 10
271.2452945305
 20
174.2049770237
 10
271.3361740131
 20
174.9352444124
 10
271.4011822123
 20
175.6838748353
 10
271.4402248723
 20
176.4497828498
 10
271.4532453852
 20
177.2318579627
  0
SPLINE
  5
1BA
330
1F
100
AcDbEntity
  8
0
  6
Continuous
 62
     7
370
     0
100
AcDbSpline
210
0.0
220
0.0
230
1.0
 70
     8
 71
     3
 72
    15
 73
    11
 74
     0
 42
0.00000001
 43
0.00000001
 12
1.0
 22
0.0
 32
0.0
 13
1.0
 23
0.0
 33
0.0
 40
0.0
 40
0.0
 40
0.0
 40
0.0
 40
0.1426572507006134
 40
0.2811689939054438
 40
0.4169771923679742
 40
0.5508524927475584
 40
0.6783641702618123
 40
0.7950324430070947
 40
0.901998178347352
 40
1.0
 40
1.0
 40
1.0
 40
1.0
 10
248.222231765339
 20
178.5484415102472
 30
0.0
 10
248.2455071721293
 20
178.5488469117714
 30
0.0
 10
248.2913816206962
 20
178.5496459341703
 30
0.0
 10
248.3561922966741
 20
178.5593509081014
 30
0.0
 10
248.4167000344678
 20
178.5754998830628
 30
0.0
 10
248.4719031914649
 20
178.5986597860452
 30
0.0
 10
248.521389304095
 20
178.6263405628401
 30
0.0
 10
248.5630919698339
 20
178.6590230738084
 30
0.0
 10
248.5979861068177
 20
178.6940640461705
 30
0.0
 10
248.6154931563802
 20
178.7224428094958
 30
0.0
 10
248.6238638603787
 20
178.7360116422562
 30
0.0
  0
LINE
  5
1BB
330
1F
100
AcDbEntity
  8
0
  6
Continuous
 62
     7
370
     0
100
AcDbLine
 10
248.2222317653
 20
178.3501545158
 30
0.0
 11
248.2222317653
 21
178.5484415102
 31
0.0
  0
SPLINE
  5
1BC
330
1F
100
AcDbEntity
  8
0
  6
Continuous
 62
     7
370
     0
100
AcDbSpline
210
0.0
220
0.0
230
1.0
 70
     8
 71
     3
 72
    15
 73
    11
 74
     0
 42
0.00000001
 43
0.00000001
 12
1.0
 22
0.0
 32
0.0
 13
1.0
 23
0.0
 33
0.0
 40
0.0
 40
0.0
 40
0.0
 40
0.0
 40
0.1116703001015864
 40
0.232094480856017
 40
0.3627434591045528
 40
0.5025575097108844
 40
0.6415251033312813
 40
0.7710984952996679
 40
0.8901617573732516
 40
1.0
 40
1.0
 40
1.0
 40
1.0
 10
248.5575072533721
 20
178.4039587199826
 30
0.0
 10
248.5467821465586
 20
178.3982064246057
 30
0.0
 10
248.5244911874069
 20
178.3862509090566
 30
0.0
 10
248.4868106758103
 20
178.3728715121596
 30
0.0
 10
248.4447544093482
 20
178.3615424150325
 30
0.0
 10
248.3988685154013
 20
178.3537910290604
 30
0.0
 10
248.352095608943
 20
178.3485584808759
 30
0.0
 10
248.3068956166975
 20
178.3456623785503
 30
0.0
 10
248.2640231717865
 20
178.3458799614487
 30
0.0
 10
248.2357828607664
 20
178.3487684678173
 30
0.0
 10
248.222231765339
 20
178.350154515776
 30
0.0
  0
LINE
  5
1BD
330
1F
100
AcDbEntity
  8
0
  6
Continuous
 62
     7
370
     0
100
AcDbLine
 10
248.5575072534
 20
177.0966088751
 30
0.0
 11
248.5575072534
 21
178.40395872
 31
0.0
  0
LINE
  5
1BE
330
1F
100
AcDbEntity
  8
0
  6
Continuous
 62
     7
370
     0
100
AcDbLine
 10
248.7437714134
 20
176.9890808643
 30
0.0
 11
248.5575072534
 21
177.0966088751
 31
0.0
  0
LINE
  5
1BF
330
1F
100
AcDbEntity
  8
0
  6
Continuous
 62
     7
370
     0
100
AcDbLine
 10
248.7437714134
 20
178.6667904853
 30
0.0
 11
248.7437714134
 21
176.9890808643
 31
0.0
  0
LINE
  5
1C0
330
1F
100
AcDbEntity
  8
0
  6
Continuous
 62
     7
370
     0
100
AcDbLine
 10
248.6238638604
 20
178.7360116423
 30
0.0
 11
248.7437714134
 21
178.6667904853
 31
0.0
  0
LINE
  5
1C1
330
1F
100
AcDbEntity
  8
0
  6
Continuous
 62
     7
370
     0
100
AcDbLine
 10
246.1360731731
 20
178.6880548946
 30
0.0
 11
246.8252505652
 21
178.2902012547
 31
0.0
  0
LINE
  5
1C2
330
1F
100
AcDbEntity
  8
0
  6
Continuous
 62
     7
370
     0
100
AcDbLine
 10
246.1360731731
 20
180.1721826362
 30
0.0
 11
246.1360731731
 21
178.6880548946
 31
0.0
  0
LINE
  5
1C3
330
1F
100
AcDbEntity
  8
0
  6
Continuous
 62
     7
370
     0
100
AcDbLine
 10
245.9311825971
 20
180.2904634481
 30
0.0
 11
246.1360731731
 21
180.1721826362
 31
0.0
  0
LINE
  5
1C4
330
1F
100
AcDbEntity
  8
0
  6
Continuous
 62
     7
370
     0
100
AcDbLine
 10
245.9311825971
 20
178.6127538271
 30
0.0
 11
245.9311825971
 21
180.2904634481
 31
0.0
  0
LINE
  5
1C5
330
1F
100
AcDbEntity
  8
0
  6
Continuous
 62
     7
370
     0
100
AcDbLine
 10
246.8252505652
 20
178.0966193753
 30
0.0
 11
245.9311825971
 21
178.6127538271
 31
0.0
  0
LINE
  5
1C6
330
1F
100
AcDbEntity
  8
0
  6
Continuous
 62
     7
370
     0
100
AcDbLine
 10
246.8252505652
 20
178.2902012547
 30
0.0
 11
246.8252505652
 21
178.0966193753
 31
0.0
  0
SPLINE
  5
1C7
330
1F
100
AcDbEntity
  8
0
  6
Continuous
 62
     7
370
     0
100
AcDbSpline
210
0.0
220
0.0
230
1.0
 70
     8
 71
     3
 72
    23
 73
    19
 74
     0
 42
0.00000001
 43
0.00000001
 12
1.0
 22
0.0
 32
0.0
 13
1.0
 23
0.0
 33
0.0
 40
0.0
 40
0.0
 40
0.0
 40
0.0
 40
0.0579448754623253
 40
0.1160176254256827
 40
0.1748257843638406
 40
0.2346830900793707
 40
0.2968270303289142
 40
0.364061335963788
 40
0.436192424049739
 40
0.5142601195414408
 40
0.5569758971654883
 40
0.604855928383654
 40
0.6576752010734875
 40
0.7157505846619322
 40
0.7788397991664558
 40
0.8475011894738633
 40
0.9212282309463237
 40
1.0
 40
1.0
 40
1.0
 40
1.0
 10
244.962608965017
 20
180.386491344193
 30
0.0
 10
244.9622085209012
 20
180.3701202363682
 30
0.0
 10
244.9614067489574
 20
180.3373418924636
 30
0.0
 10
244.9551488121431
 20
180.2912687363226
 30
0.0
 10
244.9444414123828
 20
180.248303401774
 30
0.0
 10
244.9302462580838
 20
180.2072925630383
 30
0.0
 10
244.9108527228594
 20
180.169028449032
 30
0.0
 10
244.8863522842718
 20
180.1327759521576
 30
0.0
 10
244.8559568130751
 20
180.0988038901223
 30
0.0
 10
244.8267248918322
 20
180.071882250336
 30
0.0
 10
244.7995147174952
 20
180.0508775293001
 30
0.0
 10
244.7753954694635
 20
180.0345844786721
 30
0.0
 10
244.7474908953816
 20
180.0185901211328
 30
0.0
 10
244.7168478003111
 20
180.0011783366068
 30
0.0
 10
244.6822164114774
 20
179.984316435101
 30
0.0
 10
244.6445917692445
 20
179.9663263723721
 30
0.0
 10
244.6031502523772
 20
179.9487286390767
 30
0.0
 10
244.5743817630284
 20
179.9369708990598
 30
0.0
 10
244.5595216812272
 20
179.9308975534512
 30
0.0
  0
SPLINE
  5
1C8
330
1F
100
AcDbEntity
  8
0
  6
Continuous
 62
     7
370
     0
100
AcDbSpline
210
0.0
220
0.0
230
1.0
 70
     8
 71
     3
 72
    23
 73
    19
 74
     0
 42
0.00000001
 43
0.00000001
 12
1.0
 22
0.0
 32
0.0
 13
1.0
 23
0.0
 33
0.0
 40
0.0
 40
0.0
 40
0.0
 40
0.0
 40
0.074711890304501
 40
0.1455392023749086
 40
0.2133390572509725
 40
0.2786150735384709
 40
0.3420941969414983
 40
0.4038900759591956
 40
0.4650633525655207
 40
0.526576736383486
 40
0.5873283340287674
 40
0.6463804557031432
 40
0.7043453083753259
 40
0.7616719489990784
 40
0.8194178590468649
 40
0.8780393997816818
 40
0.9377955090070547
 40
1.0
 40
1.0
 40
1.0
 40
1.0
 10
244.5155749809729
 20
181.1076763300348
 30
0.0
 10
244.5323752045632
 20
181.0976455596348
 30
0.0
 10
244.5651021390723
 20
181.0781055598132
 30
0.0
 10
244.6127905429728
 20
181.0439540613177
 30
0.0
 10
244.657785870047
 20
181.0076657786498
 30
0.0
 10
244.7002530719339
 20
180.9687767739528
 30
0.0
 10
244.7399412465009
 20
180.927017712906
 30
0.0
 10
244.7768809230984
 20
180.8826654222353
 30
0.0
 10
244.8112424228988
 20
180.8358462040543
 30
0.0
 10
244.8424516356905
 20
180.7865675747396
 30
0.0
 10
244.8705937987317
 20
180.7361938117906
 30
0.0
 10
244.8952562549564
 20
180.6855349320947
 30
0.0
 10
244.9158752555487
 20
180.6350719744449
 30
0.0
 10
244.9334310544351
 20
180.584764647943
 30
0.0
 10
244.9464528383943
 20
180.53461321449
 30
0.0
 10
244.9556099968092
 20
180.484810862818
 30
0.0
 10
244.9618325515459
 20
180.4347826624594
 30
0.0
 10
244.9623467198518
 20
180.402802453168
 30
0.0
 10
244.962608965017
 20
180.386491344193
 30
0.0
  0
SPLINE
  5
1C9
330
1F
100
AcDbEntity
  8
0
  6
Continuous
 62
     7
370
     0
100
AcDbSpline
210
0.0
220
0.0
230
1.0
 70
     8
 71
     3
 72
    23
 73
    19
 74
     0
 42
0.00000001
 43
0.00000001
 12
1.0
 22
0.0
 32
0.0
 13
1.0
 23
0.0
 33
0.0
 40
0.0
 40
0.0
 40
0.0
 40
0.0
 40
0.0706752902033303
 40
0.1374926938441249
 40
0.2014728253723051
 40
0.2628693217722905
 40
0.3225500865261561
 40
0.380737251338555
 40
0.4382197368560125
 40
0.4954874370602864
 40
0.5534836796953481
 40
0.6113462062294294
 40
0.6706437388141556
 40
0.7315869484227133
 40
0.7941831937999382
 40
0.8594451119347497
 40
0.9282076353998099
 40
1.0
 40
1.0
 40
1.0
 40
1.0
 10
244.0499145809269
 20
180.9032962074683
 30
0.0
 10
244.0518203278931
 20
180.9209417473775
 30
0.0
 10
244.0555277945821
 20
180.9552696264631
 30
0.0
 10
244.0647625883106
 20
181.0027564720403
 30
0.0
 10
244.0777274029874
 20
181.0444079039709
 30
0.0
 10
244.0932408979508
 20
181.0815909528476
 30
0.0
 10
244.1126885255713
 20
181.1127203927385
 30
0.0
 10
244.1346723946097
 20
181.1394793019462
 30
0.0
 10
244.1606013539126
 20
181.1598031830817
 30
0.0
 10
244.1892459746389
 20
181.1755142357926
 30
0.0
 10
244.2209200900288
 20
181.1856474620011
 30
0.0
 10
244.2553261707682
 20
181.1906125882084
 30
0.0
 10
244.2924484784176
 20
181.1899488680305
 30
0.0
 10
244.3320802547508
 20
181.1842637531414
 30
0.0
 10
244.3743124846444
 20
181.1729289917039
 30
0.0
 10
244.4190854233471
 20
181.1564368969782
 30
0.0
 10
244.4664710737663
 20
181.1348481320603
 30
0.0
 10
244.4989734682845
 20
181.1168628294756
 30
0.0
 10
244.5155749809729
 20
181.1076763300348
 30
0.0
  0
LINE
  5
1CA
330
1F
100
AcDbEntity
  8
0
  6
Continuous
 62
     7
370
     0
100
AcDbLine
 10
244.2361787409
 20
180.774259099
 30
0.0
 11
244.0499145809
 21
180.9032962075
 31
0.0
  0
SPLINE
  5
1CB
330
1F
100
AcDbEntity
  8
0
  6
Continuous
 62
     7
370
     0
100
AcDbSpline
210
0.0
220
0.0
230
1.0
 70
     8
 71
     3
 72
    23
 73
    19
 74
     0
 42
0.00000001
 43
0.00000001
 12
1.0
 22
0.0
 32
0.0
 13
1.0
 23
0.0
 33
0.0
 40
0.0
 40
0.0
 40
0.0
 40
0.0
 40
0.0706964833433765
 40
0.1383582132030687
 40
0.2033698682591695
 40
0.2657002133402296
 40
0.3272558681973762
 40
0.3865123433292941
 40
0.4458582974819496
 40
0.5051731438069386
 40
0.5637797628070202
 40
0.6223430642934391
 40
0.6808235796100192
 40
0.7397951568104396
 40
0.8008011629883826
 40
0.864239461576907
 40
0.930631098173453
 40
1.0
 40
1.0
 40
1.0
 40
1.0
 10
244.5115004524725
 20
180.9164466259224
 30
0.0
 10
244.5014016100823
 20
180.9220087420478
 30
0.0
 10
244.4816374333871
 20
180.9328942120505
 30
0.0
 10
244.4527474998921
 20
180.9457566624762
 30
0.0
 10
244.4253215158194
 20
180.9557600021145
 30
0.0
 10
244.3994249426552
 20
180.9617972075308
 30
0.0
 10
244.3750892998447
 20
180.964618227975
 30
0.0
 10
244.3524137010865
 20
180.9635759549823
 30
0.0
 10
244.3310350156642
 20
180.9599644383601
 30
0.0
 10
244.3116265406099
 20
180.9522813638442
 30
0.0
 10
244.2940757111671
 20
180.941471025066
 30
0.0
 10
244.278494660491
 20
180.9276660346709
 30
0.0
 10
244.2657283305409
 20
180.9099386307468
 30
0.0
 10
244.255185369067
 20
180.8891820257007
 30
0.0
 10
244.2467079453836
 20
180.8654029493167
 30
0.0
 10
244.2405536240836
 20
180.8382335134811
 30
0.0
 10
244.2371982468678
 20
180.8074877267569
 30
0.0
 10
244.2365235086498
 20
180.7854960692345
 30
0.0
 10
244.2361787409453
 20
180.7742590989824
 30
0.0
  0
SPLINE
  5
1CC
330
1F
100
AcDbEntity
  8
0
  6
Continuous
 62
     7
370
     0
100
AcDbSpline
210
0.0
220
0.0
230
1.0
 70
     8
 71
     3
 72
    23
 73
    19
 74
     0
 42
0.00000001
 43
0.00000001
 12
1.0
 22
0.0
 32
0.0
 13
1.0
 23
0.0
 33
0.0
 40
0.0
 40
0.0
 40
0.0
 40
0.0
 40
0.0617621567680707
 40
0.1211739926536296
 40
0.1794214068253158
 40
0.2368434346502759
 40
0.2943217954133986
 40
0.3531909627945252
 40
0.4127207064163253
 40
0.4745221507037181
 40
0.5370567441421367
 40
0.5995913375805563
 40
0.6623669793543064
 40
0.7252456446794924
 40
0.7903164461250803
 40
0.8577243009540925
 40
0.927231952378493
 40
1.0
 40
1.0
 40
1.0
 40
1.0
 10
244.7763448049986
 20
180.4920028770636
 30
0.0
 10
244.7761425667746
 20
180.5015484640572
 30
0.0
 10
244.7757457863779
 20
180.5202763866034
 30
0.0
 10
244.7719811536076
 20
180.5495226377257
 30
0.0
 10
244.7667404829007
 20
180.5786199341628
 30
0.0
 10
244.7582679134075
 20
180.6081125612591
 30
0.0
 10
244.7481830051024
 20
180.6377941132694
 30
0.0
 10
244.7352466760394
 20
180.6676259622935
 30
0.0
 10
244.7202820026494
 20
180.697690320965
 30
0.0
 10
244.703148718145
 20
180.7275032758534
 30
0.0
 10
244.6844351591515
 20
180.756996512924
 30
0.0
 10
244.6635254237958
 20
180.7846034840635
 30
0.0
 10
244.6417928577559
 20
180.8111364905721
 30
0.0
 10
244.61848770577
 20
180.8358366695429
 30
0.0
 10
244.5936478374981
 20
180.8584348532245
 30
0.0
 10
244.5674540755241
 20
180.8795496856513
 30
0.0
 10
244.5399105762949
 20
180.8992504066469
 30
0.0
 10
244.5211140742368
 20
180.9106276457263
 30
0.0
 10
244.5115004524725
 20
180.9164466259224
 30
0.0
  0
SPLINE
  5
1CD
330
1F
100
AcDbEntity
  8
0
  6
Continuous
 62
     7
370
     0
100
AcDbSpline
210
0.0
220
0.0
230
1.0
 70
     8
 71
     3
 72
    23
 73
    19
 74
     0
 42
0.00000001
 43
0.00000001
 12
1.0
 22
0.0
 32
0.0
 13
1.0
 23
0.0
 33
0.0
 40
0.0
 40
0.0
 40
0.0
 40
0.0
 40
0.1114096600426609
 40
0.2145263672558014
 40
0.3094172254458344
 40
0.3960871907990314
 40
0.4742842164262464
 40
0.5443738816396977
 40
0.6064195628105363
 40
0.6605816023749737
 40
0.7097938180647577
 40
0.7564506485918284
 40
0.8007673253039324
 40
0.843168287941335
 40
0.8842948685500491
 40
0.9238845020552849
 40
0.9623587101392161
 40
0.9999999999999999
 40
0.9999999999999999
 40
0.9999999999999999
 40
0.9999999999999999
 10
244.38577214446
 20
180.132361001153
 30
0.0
 10
244.4044662536629
 20
180.1397387740757
 30
0.0
 10
244.4404629467221
 20
180.1539451438192
 30
0.0
 10
244.4912959181669
 20
180.1765170898259
 30
0.0
 10
244.5377235633101
 20
180.1979230377624
 30
0.0
 10
244.5790065745766
 20
180.2194347255854
 30
0.0
 10
244.6154826036841
 20
180.240417424951
 30
0.0
 10
244.6472372969877
 20
180.2607264464488
 30
0.0
 10
244.6745438816704
 20
180.2800834698789
 30
0.0
 10
244.6970689978578
 20
180.2999521631874
 30
0.0
 10
244.7160741295491
 20
180.3200212024459
 30
0.0
 10
244.7321793000798
 20
180.3410019453043
 30
0.0
 10
244.7456008228732
 20
180.3632984080775
 30
0.0
 10
244.756779155526
 20
180.3865612508268
 30
0.0
 10
244.7656202668516
 20
180.4109718353036
 30
0.0
 10
244.7716467418891
 20
180.436891756361
 30
0.0
 10
244.7757336887674
 20
180.4635241159746
 30
0.0
 10
244.7761425911031
 20
180.4825794631144
 30
0.0
 10
244.7763448049986
 20
180.4920028770636
 30
0.0
  0
SPLINE
  5
1CE
330
1F
100
AcDbEntity
  8
0
  6
Continuous
 62
     7
370
     0
100
AcDbSpline
210
0.0
220
0.0
230
1.0
 70
     8
 71
     3
 72
    19
 73
    15
 74
     0
 42
0.00000001
 43
0.00000001
 12
1.0
 22
0.0
 32
0.0
 13
1.0
 23
0.0
 33
0.0
 40
0.0
 40
0.0
 40
0.0
 40
0.0
 40
0.1003881431397104
 40
0.2044067930373087
 40
0.3106860830942073
 40
0.4221572938827997
 40
0.4806854607703737
 40
0.5432381544526684
 40
0.6094995045645645
 40
0.6795546087742244
 40
0.7538412220511749
 40
0.8316406764893857
 40
0.9138127068095903
 40
1.0
 40
1.0
 40
1.0
 40
1.0
 10
244.050787694177
 20
179.8475020637485
 30
0.0
 10
244.0569515647205
 20
179.8635995381458
 30
0.0
 10
244.0695022203168
 20
179.896376647221
 30
0.0
 10
244.0949299800211
 20
179.9394443178184
 30
0.0
 10
244.124839034408
 20
179.9795757508178
 30
0.0
 10
244.1539597089173
 20
180.0094944628904
 30
0.0
 10
244.1806279584625
 20
180.0314329892107
 30
0.0
 10
244.2029927618636
 20
180.0477314244539
 30
0.0
 10
244.2277770638158
 20
180.0633229750165
 30
0.0
 10
244.2549610160427
 20
180.0782136374989
 30
0.0
 10
244.2842829893011
 20
180.0927525249927
 30
0.0
 10
244.3157829932815
 20
180.1070214786564
 30
0.0
 10
244.3498329935471
 20
180.1202009604883
 30
0.0
 10
244.3736034573375
 20
180.1282437160617
 30
0.0
 10
244.38577214446
 20
180.132361001153
 30
0.0
  0
SPLINE
  5
1CF
330
1F
100
AcDbEntity
  8
0
  6
Continuous
 62
     7
370
     0
100
AcDbSpline
210
0.0
220
0.0
230
1.0
 70
     8
 71
     3
 72
    11
 73
     7
 74
     0
 42
0.00000001
 43
0.00000001
 12
1.0
 22
0.0
 32
0.0
 13
1.0
 23
0.0
 33
0.0
 40
0.0
 40
0.0
 40
0.0
 40
0.0
 40
0.2526433275832392
 40
0.5044398525799855
 40
0.7504068042814536
 40
0.9999999999999999
 40
0.9999999999999999
 40
0.9999999999999999
 40
0.9999999999999999
 10
244.031288164925
 20
179.7095395370462
 30
0.0
 10
244.0312687170108
 20
179.7223342255426
 30
0.0
 10
244.0312298863672
 20
179.7478807176692
 30
0.0
 10
244.034970120869
 20
179.7834700150447
 30
0.0
 10
244.0408280769336
 20
179.8173360123435
 30
0.0
 10
244.0474516658027
 20
179.8373977795207
 30
0.0
 10
244.050787694177
 20
179.8475020637485
 30
0.0
  0
LINE
  5
1D0
330
1F
100
AcDbEntity
  8
0
  6
Continuous
 62
     7
370
     0
100
AcDbLine
 10
244.981235381
 20
179.1611466821
 30
0.0
 11
244.0312881649
 21
179.709539537
 31
0.0
  0
LINE
  5
1D1
330
1F
100
AcDbEntity
  8
0
  6
Continuous
 62
     7
370
     0
100
AcDbLine
 10
244.981235381
 20
179.3762376591
 30
0.0
 11
244.981235381
 21
179.1611466821
 31
0.0
  0
LINE
  5
1D2
330
1F
100
AcDbEntity
  8
0
  6
Continuous
 62
     7
370
     0
100
AcDbLine
 10
244.2705211954
 20
179.7865242253
 30
0.0
 11
244.981235381
 21
179.3762376591
 31
0.0
  0
SPLINE
  5
1D3
330
1F
100
AcDbEntity
  8
0
  6
Continuous
 62
     7
370
     0
100
AcDbSpline
210
0.0
220
0.0
230
1.0
 70
     8
 71
     3
 72
    17
 73
    13
 74
     0
 42
0.00000001
 43
0.00000001
 12
1.0
 22
0.0
 32
0.0
 13
1.0
 23
0.0
 33
0.0
 40
0.0
 40
0.0
 40
0.0
 40
0.0
 40
0.1241996726524874
 40
0.2368296581100276
 40
0.3394949853062826
 40
0.431253510031225
 40
0.5114548721194183
 40
0.5812230366234583
 40
0.6404953748643706
 40
0.6883082049320183
 40
0.8503329734146888
 40
1.0
 40
1.0
 40
1.0
 40
1.0
 10
244.5595216812272
 20
179.9308975534512
 30
0.0
 10
244.5467962657155
 20
179.9262806131033
 30
0.0
 10
244.522530857115
 20
179.9174768185299
 30
0.0
 10
244.4880086125097
 20
179.9043350392517
 30
0.0
 10
244.4570871815384
 20
179.8918603473006
 30
0.0
 10
244.4290434714065
 20
179.8814593278366
 30
0.0
 10
244.4048988156283
 20
179.8712562374869
 30
0.0
 10
244.3838027527959
 20
179.8627993296259
 30
0.0
 10
244.3665217143026
 20
179.854608612261
 30
0.0
 10
244.3402057520842
 20
179.8422046843854
 30
0.0
 10
244.3068743406488
 20
179.8221114613488
 30
0.0
 10
244.2823143310598
 20
179.7980688962575
 30
0.0
 10
244.2705211954487
 20
179.7865242252535
 30
0.0
  0
LINE
  5
1D4
330
1F
100
AcDbEntity
  8
0
  6
Continuous
 62
     7
370
     0
100
AcDbLine
 10
242.2501371347
 20
180.7377761401
 30
0.0
 11
241.5539748367
 21
182.3915587828
 31
0.0
  0
LINE
  5
1D5
330
1F
100
AcDbEntity
  8
0
  6
Continuous
 62
     7
370
     0
100
AcDbLine
 10
242.4666692208
 20
180.6127748276
 30
0.0
 11
242.2501371347
 21
180.7377761401
 31
0.0
  0
LINE
  5
1D6
330
1F
100
AcDbEntity
  8
0
  6
Continuous
 62
     7
370
     0
100
AcDbLine
 10
242.4666692208
 20
182.2904844486
 30
0.0
 11
242.4666692208
 21
180.6127748276
 31
0.0
  0
LINE
  5
1D7
330
1F
100
AcDbEntity
  8
0
  6
Continuous
 62
     7
370
     0
100
AcDbLine
 10
242.2617786448
 20
182.4087652605
 30
0.0
 11
242.4666692208
 21
182.2904844486
 31
0.0
  0
LINE
  5
1D8
330
1F
100
AcDbEntity
  8
0
  6
Continuous
 62
     7
370
     0
100
AcDbLine
 10
242.2617786448
 20
181.1568685581
 30
0.0
 11
242.2617786448
 21
182.4087652605
 31
0.0
  0
LINE
  5
1D9
330
1F
100
AcDbEntity
  8
0
  6
Continuous
 62
     7
370
     0
100
AcDbLine
 10
241.5656163467
 20
182.8106512008
 30
0.0
 11
242.2617786448
 21
181.1568685581
 31
0.0
  0
LINE
  5
1DA
330
1F
100
AcDbEntity
  8
0
  6
Continuous
 62
     7
370
     0
100
AcDbLine
 10
241.3490842607
 20
182.9356525133
 30
0.0
 11
241.5656163467
 21
182.8106512008
 31
0.0
  0
LINE
  5
1DB
330
1F
100
AcDbEntity
  8
0
  6
Continuous
 62
     7
370
     0
100
AcDbLine
 10
241.3490842607
 20
181.2579428923
 30
0.0
 11
241.3490842607
 21
182.9356525133
 31
0.0
  0
LINE
  5
1DC
330
1F
100
AcDbEntity
  8
0
  6
Continuous
 62
     7
370
     0
100
AcDbLine
 10
241.5539748367
 20
181.1396620804
 30
0.0
 11
241.3490842607
 21
181.2579428923
 31
0.0
  0
LINE
  5
1DD
330
1F
100
AcDbEntity
  8
0
  6
Continuous
 62
     7
370
     0
100
AcDbLine
 10
241.5539748367
 20
182.3915587828
 30
0.0
 11
241.5539748367
 21
181.1396620804
 31
0.0
  0
SPLINE
  5
1DE
330
1F
100
AcDbEntity
  8
0
  6
Continuous
 62
     7
370
     0
100
AcDbSpline
210
0.0
220
0.0
230
1.0
 70
     8
 71
     3
 72
    23
 73
    19
 74
     0
 42
0.00000001
 43
0.00000001
 12
1.0
 22
0.0
 32
0.0
 13
1.0
 23
0.0
 33
0.0
 40
0.0
 40
0.0
 40
0.0
 40
0.0
 40
0.070464225929175
 40
0.137956965604269
 40
0.2035785636142838
 40
0.2676916802449441
 40
0.3301858648593756
 40
0.39153376408982
 40
0.4526637734870355
 40
0.5131537880892139
 40
0.5734535531000289
 40
0.632967559389193
 40
0.6923319074206217
 40
0.7514741915716303
 40
0.8121874455294297
 40
0.8729617178483159
 40
0.935420306759491
 40
0.9999999999999999
 40
0.9999999999999999
 40
0.9999999999999999
 40
0.9999999999999999
 10
248.8703728308796
 20
183.5582821071215
 30
0.0
 10
248.8810912860703
 20
183.5482198563275
 30
0.0
 10
248.9020761976986
 20
183.5285196812615
 30
0.0
 10
248.9322441881735
 20
183.4972230415472
 30
0.0
 10
248.9605627177504
 20
183.4650695637126
 30
0.0
 10
248.9870934280506
 20
183.4319976898374
 30
0.0
 10
249.0116570544202
 20
183.3979464777046
 30
0.0
 10
249.0341842874473
 20
183.3629249610899
 30
0.0
 10
249.0548313212323
 20
183.3271836756389
 30
0.0
 10
249.0735612678252
 20
183.2907584069509
 30
0.0
 10
249.090013560877
 20
183.2540221287433
 30
0.0
 10
249.1047692124428
 20
183.2172347574966
 30
0.0
 10
249.1169537876338
 20
183.1805606712877
 30
0.0
 10
249.1269410402077
 20
183.1438610597311
 30
0.0
 10
249.134732581986
 20
183.1073261380478
 30
0.0
 10
249.1403277571087
 20
183.0708330649798
 30
0.0
 10
249.1435168640787
 20
183.0345803248824
 30
0.0
 10
249.1439958577607
 20
183.010927233687
 30
0.0
 10
249.1442393533789
 20
182.9989032252722
 30
0.0
  0
SPLINE
  5
1DF
330
1F
100
AcDbEntity
  8
0
  6
Continuous
 62
     7
370
     0
100
AcDbSpline
210
0.0
220
0.0
230
1.0
 70
     8
 71
     3
 72
    15
 73
    11
 74
     0
 42
0.00000001
 43
0.00000001
 12
1.0
 22
0.0
 32
0.0
 13
1.0
 23
0.0
 33
0.0
 40
0.0
 40
0.0
 40
0.0
 40
0.0
 40
0.1158426906010184
 40
0.2305685484828846
 40
0.3473546045205446
 40
0.4682527467344627
 40
0.5923025714800839
 40
0.7199701656206973
 40
0.8556003811349093
 40
0.9999999999999999
 40
0.9999999999999999
 40
0.9999999999999999
 40
0.9999999999999999
 10
249.0883601054301
 20
183.7933902776345
 30
0.0
 10
249.0876822044935
 20
183.7757904678052
 30
0.0
 10
249.0863329382243
 20
183.7407605269011
 30
0.0
 10
249.0755942883041
 20
183.6942111950587
 30
0.0
 10
249.0586454133459
 20
183.652776988311
 30
0.0
 10
249.0346792243229
 20
183.6175464929963
 30
0.0
 10
249.0040474306759
 20
183.5892143207234
 30
0.0
 10
248.9660727538665
 20
183.5697283599116
 30
0.0
 10
248.921300886546
 20
183.5586848462339
 30
0.0
 10
248.8876996016104
 20
183.5584191272408
 30
0.0
 10
248.8703728308796
 20
183.5582821071215
 30
0.0
  0
SPLINE
  5
1E0
330
1F
100
AcDbEntity
  8
0
  6
Continuous
 62
     7
370
     0
100
AcDbSpline
210
0.0
220
0.0
230
1.0
 70
     8
 71
     3
 72
    23
 73
    19
 74
     0
 42
0.00000001
 43
0.00000001
 12
1.0
 22
0.0
 32
0.0
 13
1.0
 23
0.0
 33
0.0
 40
0.0
 40
0.0
 40
0.0
 40
0.0
 40
0.0587320371008649
 40
0.1146029008469823
 40
0.1676568100446118
 40
0.217966707090844
 40
0.2657752056293755
 40
0.3111706510536958
 40
0.3537918046646691
 40
0.3947449080003071
 40
0.4728059510824636
 40
0.5491923665616077
 40
0.6247801075795555
 40
0.7026247640242258
 40
0.7797414321940387
 40
0.8540634639886259
 40
0.9271552664103503
 40
0.9999999999999999
 40
0.9999999999999999
 40
0.9999999999999999
 40
0.9999999999999999
 10
248.6078567806198
 20
184.505666011453
 30
0.0
 10
248.6213458299239
 20
184.4978191932318
 30
0.0
 10
248.6476667998105
 20
184.4825078201726
 30
0.0
 10
248.6861008585435
 20
184.4574042507306
 30
0.0
 10
248.7225007821453
 20
184.4324024573156
 30
0.0
 10
248.7569449312032
 20
184.4073768909694
 30
0.0
 10
248.7892842662531
 20
184.3812477488537
 30
0.0
 10
248.8194886507124
 20
184.3547737874113
 30
0.0
 10
248.8477152675288
 20
184.3280546269894
 30
0.0
 10
248.8822180052476
 20
184.2922570634448
 30
0.0
 10
248.9219786277691
 20
184.2448617309842
 30
0.0
 10
248.9645660317294
 20
184.1838052047541
 30
0.0
 10
249.0016187278029
 20
184.1186261404445
 30
0.0
 10
249.032107647681
 20
184.0508186956738
 30
0.0
 10
249.0572272293868
 20
183.9826873885817
 30
0.0
 10
249.0750367187442
 20
183.9163742966757
 30
0.0
 10
249.0864232898969
 20
183.8525872160619
 30
0.0
 10
249.0877152293318
 20
183.81310030682
 30
0.0
 10
249.0883601054301
 20
183.7933902776345
 30
0.0
  0
LINE
  5
1E1
330
1F
100
AcDbEntity
  8
0
  6
Continuous
 62
     7
370
     0
100
AcDbLine
 10
248.0639072264
 20
184.8196814051
 30
0.0
 11
248.6078567806
 21
184.5056660115
 31
0.0
  0
LINE
  5
1E2
330
1F
100
AcDbEntity
  8
0
  6
Continuous
 62
     7
370
     0
100
AcDbLine
 10
248.0639072264
 20
183.1419717858
 30
0.0
 11
248.0639072264
 21
184.8196814051
 31
0.0
  0
LINE
  5
1E3
330
1F
100
AcDbEntity
  8
0
  6
Continuous
 62
     7
370
     0
100
AcDbLine
 10
248.6093119694
 20
182.8271163296
 30
0.0
 11
248.0639072264
 21
183.1419717858
 31
0.0
  0
SPLINE
  5
1E4
330
1F
100
AcDbEntity
  8
0
  6
Continuous
 62
     7
370
     0
100
AcDbSpline
210
0.0
220
0.0
230
1.0
 70
     8
 71
     3
 72
    23
 73
    19
 74
     0
 42
0.00000001
 43
0.00000001
 12
1.0
 22
0.0
 32
0.0
 13
1.0
 23
0.0
 33
0.0
 40
0.0
 40
0.0
 40
0.0
 40
0.0
 40
0.064254575424703
 40
0.1273603868320973
 40
0.1894718420926418
 40
0.2517207629332009
 40
0.3120272840890017
 40
0.3686746571150511
 40
0.4226814918055485
 40
0.4740604252251507
 40
0.5257737722739171
 40
0.5796221048577139
 40
0.6373752855308659
 40
0.6984003818208013
 40
0.7643573310122579
 40
0.8363147679791494
 40
0.9146777942540467
 40
1.0
 40
1.0
 40
1.0
 40
1.0
 10
249.1442393533789
 20
182.9989032252722
 30
0.0
 10
249.1437374717827
 20
182.9801142564683
 30
0.0
 10
249.1427426813911
 20
182.9428722341029
 30
0.0
 10
249.1347534055377
 20
182.8918251069193
 30
0.0
 10
249.1212519529467
 20
182.846079833689
 30
0.0
 10
249.102668351697
 20
182.8062538334331
 30
0.0
 10
249.0805252427578
 20
182.7722920837637
 30
0.0
 10
249.0553588236394
 20
182.7451089729444
 30
0.0
 10
249.0278108901037
 20
182.7247632073448
 30
0.0
 10
248.9971057206587
 20
182.7119971630706
 30
0.0
 10
248.9634413768205
 20
182.7055525928429
 30
0.0
 10
248.9258670350789
 20
182.7054523399572
 30
0.0
 10
248.8846732134486
 20
182.7100150487937
 30
0.0
 10
248.8390226704803
 20
182.7210165158835
 30
0.0
 10
248.7889361861957
 20
182.7377351948512
 30
0.0
 10
248.7337340410938
 20
182.7616791923124
 30
0.0
 10
248.6733314253922
 20
182.7908767001647
 30
0.0
 10
248.6312481864052
 20
182.814698848603
 30
0.0
 10
248.6093119693685
 20
182.8271163295527
 30
0.0
  0
LINE
  5
1E5
330
1F
100
AcDbEntity
  8
0
  6
Continuous
 62
     7
370
     0
100
AcDbLine
 10
245.8101108924
 20
184.6366425941
 30
0.0
 11
246.4992882838
 21
184.2387889546
 31
0.0
  0
LINE
  5
1E6
330
1F
100
AcDbEntity
  8
0
  6
Continuous
 62
     7
370
     0
100
AcDbLine
 10
245.8101108924
 20
186.1207703342
 30
0.0
 11
245.8101108924
 21
184.6366425941
 31
0.0
  0
LINE
  5
1E7
330
1F
100
AcDbEntity
  8
0
  6
Continuous
 62
     7
370
     0
100
AcDbLine
 10
245.6052203166
 20
186.239051146
 30
0.0
 11
245.8101108924
 21
186.1207703342
 31
0.0
  0
LINE
  5
1E8
330
1F
100
AcDbEntity
  8
0
  6
Continuous
 62
     7
370
     0
100
AcDbLine
 10
245.6052203166
 20
184.5613415267
 30
0.0
 11
245.6052203166
 21
186.239051146
 31
0.0
  0
LINE
  5
1E9
330
1F
100
AcDbEntity
  8
0
  6
Continuous
 62
     7
370
     0
100
AcDbLine
 10
246.4992882838
 20
184.0452070754
 30
0.0
 11
245.6052203166
 21
184.5613415267
 31
0.0
  0
LINE
  5
1EA
330
1F
100
AcDbEntity
  8
0
  6
Continuous
 62
     7
370
     0
100
AcDbLine
 10
246.4992882838
 20
184.2387889546
 30
0.0
 11
246.4992882838
 21
184.0452070754
 31
0.0
  0
SPLINE
  5
1EB
330
1F
100
AcDbEntity
  8
0
  6
Continuous
 62
     7
370
     0
100
AcDbSpline
210
0.0
220
0.0
230
1.0
 70
     8
 71
     3
 72
    31
 73
    27
 74
     0
 42
0.00000001
 43
0.00000001
 12
1.0
 22
0.0
 32
0.0
 13
1.0
 23
0.0
 33
0.0
 40
0.0
 40
0.0
 40
0.0
 40
0.0
 40
0.0430989705688968
 40
0.0855867603450731
 40
0.1269076657436391
 40
0.1679674856215208
 40
0.208449558601066
 40
0.2490254246415442
 40
0.289280534171679
 40
0.3300098489827308
 40
0.3705977240995768
 40
0.4104659863326995
 40
0.4500332158929481
 40
0.4896882096042474
 40
0.5291164230741913
 40
0.5690368070925095
 40
0.6097030542359447
 40
0.6507589174942194
 40
0.6925092624061776
 40
0.7342191213706861
 40
0.7767069111468623
 40
0.8195518402403213
 40
0.8633507288313336
 40
0.9078385251300616
 40
0.9533337036124183
 40
0.9999999999999999
 40
0.9999999999999999
 40
0.9999999999999999
 40
0.9999999999999999
 10
243.203285768066
 20
187.6471675437776
 30
0.0
 10
243.2196890367288
 20
187.6373673772953
 30
0.0
 10
243.2522629614742
 20
187.6179060191934
 30
0.0
 10
243.3004206019695
 20
187.5851075937111
 30
0.0
 10
243.3473407604733
 20
187.5491012922286
 30
0.0
 10
243.392977232391
 20
187.5108022909914
 30
0.0
 10
243.4374542404769
 20
187.4694436222583
 30
0.0
 10
243.4807983455656
 20
187.4259087254618
 30
0.0
 10
243.5226301184489
 20
187.3788196949701
 30
0.0
 10
243.5632278547601
 20
187.3296994384384
 30
0.0
 10
243.6021123282912
 20
187.2785236005682
 30
0.0
 10
243.6386558591514
 20
187.2256913644696
 30
0.0
 10
243.6727709140363
 20
187.1714932807997
 30
0.0
 10
243.7049157506674
 20
187.1162319527775
 30
0.0
 10
243.7340177410948
 20
187.0592878693931
 30
0.0
 10
243.761279162539
 20
187.0011898215911
 30
0.0
 10
243.7859166420461
 20
186.9416389230514
 30
0.0
 10
243.8080175988135
 20
186.8809560938351
 30
0.0
 10
243.8277781000515
 20
186.8197683275381
 30
0.0
 10
243.8446672642215
 20
186.7581757766017
 30
0.0
 10
243.8591696813191
 20
186.6965205819664
 30
0.0
 10
243.871309427945
 20
186.6344734653129
 30
0.0
 10
243.8800200236878
 20
186.5726689087828
 30
0.0
 10
243.8869563652551
 20
186.5103962031744
 30
0.0
 10
243.8906071534597
 20
186.4483373620739
 30
0.0
 10
243.8912596514612
 20
186.4074625210124
 30
0.0
 10
243.8915900461861
 20
186.3867653972905
 30
0.0
  0
SPLINE
  5
1EC
330
1F
100
AcDbEntity
  8
0
  6
Continuous
 62
     7
370
     0
100
AcDbSpline
210
0.0
220
0.0
230
1.0
 70
     8
 71
     3
 72
    23
 73
    19
 74
     0
 42
0.00000001
 43
0.00000001
 12
1.0
 22
0.0
 32
0.0
 13
1.0
 23
0.0
 33
0.0
 40
0.0
 40
0.0
 40
0.0
 40
0.0
 40
0.0752263466908986
 40
0.1465747215268521
 40
0.2145002518264754
 40
0.2795299716530228
 40
0.3424029515883815
 40
0.4034960527288083
 40
0.4637616065030392
 40
0.523864359079587
 40
0.5832517242549666
 40
0.6413020392831352
 40
0.6988977748564889
 40
0.7562952438113089
 40
0.8146278048129693
 40
0.8743247683399981
 40
0.9357832838625454
 40
1.0
 40
1.0
 40
1.0
 40
1.0
 10
242.5132352634475
 20
187.1629800564841
 30
0.0
 10
242.5137402218307
 20
187.1963251820368
 30
0.0
 10
242.5147241076322
 20
187.2612964681242
 30
0.0
 10
242.5239170829226
 20
187.3514231003679
 30
0.0
 10
242.538844115168
 20
187.4325964647591
 30
0.0
 10
242.5601836285908
 20
187.5044179200094
 30
0.0
 10
242.5872315231795
 20
187.5674257831276
 30
0.0
 10
242.6201134059992
 20
187.6217255708263
 30
0.0
 10
242.6598183423455
 20
187.6659168073114
 30
0.0
 10
242.7047347432121
 20
187.7015687096386
 30
0.0
 10
242.7549042999202
 20
187.7270490790607
 30
0.0
 10
242.8083206182999
 20
187.7445653574757
 30
0.0
 10
242.8656507006039
 20
187.7518014093897
 30
0.0
 10
242.9263648608676
 20
187.7500528096043
 30
0.0
 10
242.9907210473634
 20
187.7384682705212
 30
0.0
 10
243.0585385674765
 20
187.7172176235585
 30
0.0
 10
243.129744890818
 20
187.6876580527856
 30
0.0
 10
243.1784160793114
 20
187.6608604230881
 30
0.0
 10
243.203285768066
 20
187.6471675437776
 30
0.0
  0
SPLINE
  5
1ED
330
1F
100
AcDbEntity
  8
0
  6
Continuous
 62
     7
370
     0
100
AcDbSpline
210
0.0
220
0.0
230
1.0
 70
     8
 71
     3
 72
    31
 73
    27
 74
     0
 42
0.00000001
 43
0.00000001
 12
1.0
 22
0.0
 32
0.0
 13
1.0
 23
0.0
 33
0.0
 40
0.0
 40
0.0
 40
0.0
 40
0.0
 40
0.0446969998899172
 40
0.0885335629185875
 40
0.1314091332352275
 40
0.1738139421467784
 40
0.2157145332694449
 40
0.2572471603264208
 40
0.2988479641797118
 40
0.3406041827148144
 40
0.3820294481091345
 40
0.4229697500404858
 40
0.4636322295306198
 40
0.5040475437003948
 40
0.5445912057564577
 40
0.5849639251690937
 40
0.6262652162680832
 40
0.6679794005009907
 40
0.7099427472053506
 40
0.7513818550852256
 40
0.7926185649779642
 40
0.8339484357458206
 40
0.8750080506311037
 40
0.9164455302232759
 40
0.9579066137283071
 40
1.0
 40
1.0
 40
1.0
 40
1.0
 10
243.2024126548168
 20
185.9269437666436
 30
0.0
 10
243.185714640722
 20
185.93686860828
 30
0.0
 10
243.1526400566309
 20
185.9565272339962
 30
0.0
 10
243.1037549305701
 20
185.9903884256854
 30
0.0
 10
243.0560859896133
 20
186.0265117601268
 30
0.0
 10
243.0097718158563
 20
186.0656708649535
 30
0.0
 10
242.9648756957801
 20
186.1077948741958
 30
0.0
 10
242.9213445069994
 20
186.1525401614752
 30
0.0
 10
242.8790251457289
 20
186.1997329597665
 30
0.0
 10
242.8384427252068
 20
186.2497218882961
 30
0.0
 10
242.7997353714204
 20
186.3016003626626
 30
0.0
 10
242.7632782500196
 20
186.3550049961356
 30
0.0
 10
242.7290915204557
 20
186.4096259396721
 30
0.0
 10
242.6977237397894
 20
186.4657231314751
 30
0.0
 10
242.6681590043609
 20
186.5225059257976
 30
0.0
 10
242.6415794451149
 20
186.5807680911017
 30
0.0
 10
242.6171170151241
 20
186.6400374023508
 30
0.0
 10
242.5954955977854
 20
186.7003311724292
 30
0.0
 10
242.5759638829066
 20
186.7606623323695
 30
0.0
 10
242.5595079912329
 20
186.8204772983919
 30
0.0
 10
242.545046451711
 20
186.8796588784073
 30
0.0
 10
242.5335292993563
 20
186.9379719429157
 30
0.0
 10
242.5243515304544
 20
186.9956465752308
 30
0.0
 10
242.5181801459349
 20
187.05221057138
 30
0.0
 10
242.51372312511
 20
187.1084887354958
 30
0.0
 10
242.5133987023636
 20
187.1447248765315
 30
0.0
 10
242.5132352634475
 20
187.1629800564841
 30
0.0
  0
SPLINE
  5
1EE
330
1F
100
AcDbEntity
  8
0
  6
Continuous
 62
     7
370
     0
100
AcDbSpline
210
0.0
220
0.0
230
1.0
 70
     8
 71
     3
 72
    31
 73
    27
 74
     0
 42
0.00000001
 43
0.00000001
 12
1.0
 22
0.0
 32
0.0
 13
1.0
 23
0.0
 33
0.0
 40
0.0
 40
0.0
 40
0.0
 40
0.0
 40
0.0475595569054264
 40
0.0939621052432108
 40
0.1391115332408223
 40
0.1836263101269048
 40
0.2274570284004936
 40
0.2707025105518543
 40
0.3136105321155538
 40
0.3562604510849769
 40
0.3983661529550377
 40
0.4395565149792804
 40
0.4800453830214204
 40
0.5198884957050126
 40
0.5596577503171973
 40
0.5994212546627414
 40
0.6392077550883982
 40
0.6796683749857804
 40
0.7200198525128484
 40
0.7598588655624577
 40
0.7995598848323807
 40
0.8391991446364382
 40
0.878956076230279
 40
0.9187942693024659
 40
0.9590833628432751
 40
0.9999999999999999
 40
0.9999999999999999
 40
0.9999999999999999
 40
0.9999999999999999
 10
243.8915900461861
 20
186.3867653972905
 30
0.0
 10
243.8912873326759
 20
186.3660956083291
 30
0.0
 10
243.8906892699404
 20
186.3252588761952
 30
0.0
 10
243.8866425327518
 20
186.2667566139047
 30
0.0
 10
243.8795269621957
 20
186.211772495521
 30
0.0
 10
243.8700893693408
 20
186.1596991949822
 30
0.0
 10
243.8574432830406
 20
186.1111682090006
 30
0.0
 10
243.8424153528183
 20
186.0655422508729
 30
0.0
 10
243.8242382221889
 20
186.023587736035
 30
0.0
 10
243.8037091712564
 20
185.9847179940646
 30
0.0
 10
243.7804805588313
 20
185.949831302491
 30
0.0
 10
243.7548578231632
 20
185.9190890459708
 30
0.0
 10
243.7268228121902
 20
185.8929276375593
 30
0.0
 10
243.6968013744766
 20
185.8705817667592
 30
0.0
 10
243.6640924299338
 20
185.8531656552788
 30
0.0
 10
243.6290987445003
 20
185.8401073729019
 30
0.0
 10
243.5919548687012
 20
185.8310155684311
 30
0.0
 10
243.5525360180011
 20
185.8267892483978
 30
0.0
 10
243.5115496174414
 20
185.8267992106043
 30
0.0
 10
243.4698067232747
 20
185.8299141873713
 30
0.0
 10
243.4272763279471
 20
185.8365715948381
 30
0.0
 10
243.3838130755906
 20
185.847160385168
 30
0.0
 10
243.3395355296909
 20
185.8617625048685
 30
0.0
 10
243.2945682925256
 20
185.8795155006566
 30
0.0
 10
243.2487639552612
 20
185.9012327170479
 30
0.0
 10
243.2179424826063
 20
185.9183293767844
 30
0.0
 10
243.2024126548168
 20
185.9269437666436
 30
0.0
  0
LINE
  5
1EF
330
1F
100
AcDbEntity
  8
0
  6
Continuous
 62
     7
370
     0
100
AcDbLine
 10
240.9113634889
 20
188.7551751358
 30
0.0
 11
240.4457030893
 21
189.0239951624
 31
0.0
  0
LINE
  5
1F0
330
1F
100
AcDbEntity
  8
0
  6
Continuous
 62
     7
370
     0
100
AcDbLine
 10
240.9113634889
 20
188.9487570149
 30
0.0
 11
240.9113634889
 21
188.7551751358
 31
0.0
  0
LINE
  5
1F1
330
1F
100
AcDbEntity
  8
0
  6
Continuous
 62
     7
370
     0
100
AcDbLine
 10
239.775152114
 20
189.60467788
 30
0.0
 11
240.9113634889
 21
188.9487570149
 31
0.0
  0
LINE
  5
1F2
330
1F
100
AcDbEntity
  8
0
  6
Continuous
 62
     7
370
     0
100
AcDbLine
 10
239.775152114
 20
189.4110960008
 30
0.0
 11
239.775152114
 21
189.60467788
 31
0.0
  0
LINE
  5
1F3
330
1F
100
AcDbEntity
  8
0
  6
Continuous
 62
     7
370
     0
100
AcDbLine
 10
240.2408125135
 20
189.1422759742
 30
0.0
 11
239.775152114
 21
189.4110960008
 31
0.0
  0
LINE
  5
1F4
330
1F
100
AcDbEntity
  8
0
  6
Continuous
 62
     7
370
     0
100
AcDbLine
 10
240.2408125135
 20
187.658148234
 30
0.0
 11
240.2408125135
 21
189.1422759742
 31
0.0
  0
LINE
  5
1F5
330
1F
100
AcDbEntity
  8
0
  6
Continuous
 62
     7
370
     0
100
AcDbLine
 10
240.4457030893
 20
187.5398674223
 30
0.0
 11
240.2408125135
 21
187.658148234
 31
0.0
  0
LINE
  5
1F6
330
1F
100
AcDbEntity
  8
0
  6
Continuous
 62
     7
370
     0
100
AcDbLine
 10
240.4457030893
 20
189.0239951624
 30
0.0
 11
240.4457030893
 21
187.5398674223
 31
0.0
  0
LINE
  5
1F7
330
1F
100
AcDbEntity
  8
0
  6
Continuous
 62
     7
370
     0
100
AcDbLine
 10
242.0475748639
 20
187.4109631448
 30
0.0
 11
241.3397710565
 21
187.8195695853
 31
0.0
  0
LINE
  5
1F8
330
1F
100
AcDbEntity
  8
0
  6
Continuous
 62
     7
370
     0
100
AcDbLine
 10
242.0475748639
 20
186.6151265305
 30
0.0
 11
242.0475748639
 21
187.4109631448
 31
0.0
  0
LINE
  5
1F9
330
1F
100
AcDbEntity
  8
0
  6
Continuous
 62
     7
370
     0
100
AcDbLine
 10
242.2524654397
 20
186.4968457188
 30
0.0
 11
242.0475748639
 21
186.6151265305
 31
0.0
  0
LINE
  5
1FA
330
1F
100
AcDbEntity
  8
0
  6
Continuous
 62
     7
370
     0
100
AcDbLine
 10
242.2524654397
 20
188.1745553381
 30
0.0
 11
242.2524654397
 21
186.4968457188
 31
0.0
  0
LINE
  5
1FB
330
1F
100
AcDbEntity
  8
0
  6
Continuous
 62
     7
370
     0
100
AcDbLine
 10
242.0475748639
 20
188.2928361498
 30
0.0
 11
242.2524654397
 21
188.1745553381
 31
0.0
  0
LINE
  5
1FC
330
1F
100
AcDbEntity
  8
0
  6
Continuous
 62
     7
370
     0
100
AcDbLine
 10
242.0475748639
 20
187.6045450239
 30
0.0
 11
242.0475748639
 21
188.2928361498
 31
0.0
  0
LINE
  5
1FD
330
1F
100
AcDbEntity
  8
0
  6
Continuous
 62
     7
370
     0
100
AcDbLine
 10
241.3397710565
 20
188.0131514645
 30
0.0
 11
242.0475748639
 21
187.6045450239
 31
0.0
  0
LINE
  5
1FE
330
1F
100
AcDbEntity
  8
0
  6
Continuous
 62
     7
370
     0
100
AcDbLine
 10
241.3397710565
 20
188.7014425904
 30
0.0
 11
241.3397710565
 21
188.0131514645
 31
0.0
  0
LINE
  5
1FF
330
1F
100
AcDbEntity
  8
0
  6
Continuous
 62
     7
370
     0
100
AcDbLine
 10
241.1348804807
 20
188.8197234021
 30
0.0
 11
241.3397710565
 21
188.7014425904
 31
0.0
  0
LINE
  5
200
330
1F
100
AcDbEntity
  8
0
  6
Continuous
 62
     7
370
     0
100
AcDbLine
 10
241.1348804807
 20
187.1420137828
 30
0.0
 11
241.1348804807
 21
188.8197234021
 31
0.0
  0
LINE
  5
201
330
1F
100
AcDbEntity
  8
0
  6
Continuous
 62
     7
370
     0
100
AcDbLine
 10
241.3397710565
 20
187.023732971
 30
0.0
 11
241.1348804807
 21
187.1420137828
 31
0.0
  0
LINE
  5
202
330
1F
100
AcDbEntity
  8
0
  6
Continuous
 62
     7
370
     0
100
AcDbLine
 10
241.3397710565
 20
187.8195695853
 30
0.0
 11
241.3397710565
 21
187.023732971
 31
0.0
  0
LINE
  5
203
330
1F
100
AcDbEntity
  8
0
  6
Continuous
 62
     7
370
     0
100
AcDbLine
 10
244.5670886633
 20
185.9134605926
 30
0.0
 11
244.3572504458
 21
186.0345976171
 31
0.0
  0
SPLINE
  5
204
330
1F
100
AcDbEntity
  8
0
  6
Continuous
 62
     7
370
     0
100
AcDbSpline
210
0.0
220
0.0
230
1.0
 70
     8
 71
     3
 72
    11
 73
     7
 74
     0
 42
0.00000001
 43
0.00000001
 12
1.0
 22
0.0
 32
0.0
 13
1.0
 23
0.0
 33
0.0
 40
0.0
 40
0.0
 40
0.0
 40
0.0
 40
0.1774946570818496
 40
0.4052256231013751
 40
0.6783881083348569
 40
0.9999999999999999
 40
0.9999999999999999
 40
0.9999999999999999
 40
0.9999999999999999
 10
244.6680787624754
 20
185.8474304172998
 30
0.0
 10
244.6621733031629
 20
185.8520693371424
 30
0.0
 10
244.6486909625169
 20
185.8626601302099
 30
0.0
 10
244.6257979817433
 20
185.877709617014
 30
0.0
 10
244.5980603269867
 20
185.8956683987534
 30
0.0
 10
244.5779583758859
 20
185.9072163031159
 30
0.0
 10
244.5670886633179
 20
185.9134605925658
 30
0.0
  0
SPLINE
  5
205
330
1F
100
AcDbEntity
  8
0
  6
Continuous
 62
     7
370
     0
100
AcDbSpline
210
0.0
220
0.0
230
1.0
 70
     8
 71
     3
 72
    21
 73
    17
 74
     0
 42
0.00000001
 43
0.00000001
 12
1.0
 22
0.0
 32
0.0
 13
1.0
 23
0.0
 33
0.0
 40
0.0
 40
0.0
 40
0.0
 40
0.0
 40
0.0807814705861227
 40
0.1565412257955893
 40
0.2279349868434863
 40
0.2943103173046009
 40
0.3568678635548113
 40
0.4147585592592751
 40
0.4676413968340161
 40
0.5167484215300132
 40
0.6047297418940532
 40
0.6815706529393897
 40
0.7481095416219827
 40
0.8049410995352805
 40
0.9054060495000025
 40
1.0
 40
1.0
 40
1.0
 40
1.0
 10
244.9730863241963
 20
185.2804926653569
 30
0.0
 10
244.9665775572069
 20
185.2966786100515
 30
0.0
 10
244.9539646355115
 20
185.328044313161
 30
0.0
 10
244.9357457219895
 20
185.3737360017229
 30
0.0
 10
244.9178826762841
 20
185.4164315129553
 30
0.0
 10
244.901315006935
 20
185.4565140151595
 30
0.0
 10
244.8853703701581
 20
185.4938176014465
 30
0.0
 10
244.8702028284621
 20
185.5283509436784
 30
0.0
 10
244.8562297993298
 20
185.5602112364616
 30
0.0
 10
244.8389223962562
 20
185.5979048033559
 30
0.0
 10
244.81877945365
 20
185.6401858354228
 30
0.0
 10
244.7952740216864
 20
185.6853217857361
 30
0.0
 10
244.7728898813542
 20
185.7234114673317
 30
0.0
 10
244.7453233994349
 20
185.7640047601751
 30
0.0
 10
244.7111781410993
 20
185.806799923574
 30
0.0
 10
244.6821540269672
 20
185.834161433758
 30
0.0
 10
244.6680787624754
 20
185.8474304172998
 30
0.0
  0
LINE
  5
206
330
1F
100
AcDbEntity
  8
0
  6
Continuous
 62
     7
370
     0
100
AcDbLine
 10
245.1541118045
 20
184.8217609275
 30
0.0
 11
244.9730863242
 21
185.2804926654
 31
0.0
  0
LINE
  5
207
330
1F
100
AcDbEntity
  8
0
  6
Continuous
 62
     7
370
     0
100
AcDbLine
 10
245.3889792686
 20
184.6861748266
 30
0.0
 11
245.1541118045
 21
184.8217609275
 31
0.0
  0
LINE
  5
208
330
1F
100
AcDbEntity
  8
0
  6
Continuous
 62
     7
370
     0
100
AcDbLine
 10
245.1506193515
 20
185.2868948372
 30
0.0
 11
245.3889792686
 21
184.6861748266
 31
0.0
  0
SPLINE
  5
209
330
1F
100
AcDbEntity
  8
0
  6
Continuous
 62
     7
370
     0
100
AcDbSpline
210
0.0
220
0.0
230
1.0
 70
     8
 71
     3
 72
    11
 73
     7
 74
     0
 42
0.00000001
 43
0.00000001
 12
1.0
 22
0.0
 32
0.0
 13
1.0
 23
0.0
 33
0.0
 40
0.0
 40
0.0
 40
0.0
 40
0.0
 40
0.2295275697008571
 40
0.4714659343032296
 40
0.7281863484998701
 40
1.0
 40
1.0
 40
1.0
 40
1.0
 10
244.9975334951739
 20
185.603803583867
 30
0.0
 10
245.0112583033559
 20
185.5803438652934
 30
0.0
 10
245.039450034402
 20
185.5321559367138
 30
0.0
 10
245.0782994643253
 20
185.4553711293738
 30
0.0
 10
245.1159653208734
 20
185.3731188448595
 30
0.0
 10
245.1388501687017
 20
185.3161781872613
 30
0.0
 10
245.1506193515338
 20
185.2868948372086
 30
0.0
  0
SPLINE
  5
20A
330
1F
100
AcDbEntity
  8
0
  6
Continuous
 62
     7
370
     0
100
AcDbSpline
210
0.0
220
0.0
230
1.0
 70
     8
 71
     3
 72
    11
 73
     7
 74
     0
 42
0.00000001
 43
0.00000001
 12
1.0
 22
0.0
 32
0.0
 13
1.0
 23
0.0
 33
0.0
 40
0.0
 40
0.0
 40
0.0
 40
0.0
 40
0.2930762433192209
 40
0.5565623371181895
 40
0.7919136092098107
 40
1.0
 40
1.0
 40
1.0
 40
1.0
 10
244.8846108482772
 20
185.7516680345577
 30
0.0
 10
244.8963077004692
 20
185.7380920999737
 30
0.0
 10
244.9185204438807
 20
185.7123109114505
 30
0.0
 10
244.9492742623809
 20
185.6742390083829
 30
0.0
 10
244.9753432097488
 20
185.6384296324237
 30
0.0
 10
244.9904462719491
 20
185.6148625914829
 30
0.0
 10
244.9975334951739
 20
185.603803583867
 30
0.0
  0
SPLINE
  5
20B
330
1F
100
AcDbEntity
  8
0
  6
Continuous
 62
     7
370
     0
100
AcDbSpline
210
0.0
220
0.0
230
1.0
 70
     8
 71
     3
 72
    23
 73
    19
 74
     0
 42
0.00000001
 43
0.00000001
 12
1.0
 22
0.0
 32
0.0
 13
1.0
 23
0.0
 33
0.0
 40
0.0
 40
0.0
 40
0.0
 40
0.0
 40
0.0614130692946597
 40
0.1212950233845467
 40
0.1792240423087195
 40
0.2359380947348317
 40
0.2922168332673605
 40
0.3481966394342065
 40
0.4044447389633584
 40
0.4620255339229973
 40
0.5203342118681484
 40
0.5803829016508378
 40
0.6418259048139877
 40
0.7063632097966276
 40
0.7738513938275593
 40
0.8452662573568825
 40
0.9201546757684059
 40
1.0
 40
1.0
 40
1.0
 40
1.0
 10
245.2699448289246
 20
185.980238354533
 30
0.0
 10
245.2696605293771
 20
185.9660510794622
 30
0.0
 10
245.2690990182745
 20
185.9380302382758
 30
0.0
 10
245.2647977867451
 20
185.8988385571576
 30
0.0
 10
245.2570150555709
 20
185.8635129042806
 30
0.0
 10
245.2470352368415
 20
185.8309630807989
 30
0.0
 10
245.2333759095361
 20
185.8025876764969
 30
0.0
 10
245.2175521717326
 20
185.7767714066736
 30
0.0
 10
245.1979488103279
 20
185.7554069144991
 30
0.0
 10
245.1760006794557
 20
185.7367956264435
 30
0.0
 10
245.1508320590512
 20
185.7221130548873
 30
0.0
 10
245.122221541298
 20
185.7125409168357
 30
0.0
 10
245.0904527356934
 20
185.7074138754872
 30
0.0
 10
245.0553760239161
 20
185.7074657613059
 30
0.0
 10
245.0173951741833
 20
185.7109301937163
 30
0.0
 10
244.9760336311628
 20
185.7199416588692
 30
0.0
 10
244.9314583265933
 20
185.7335351684616
 30
0.0
 10
244.9005566534397
 20
185.7454960235937
 30
0.0
 10
244.8846108482772
 20
185.7516680345577
 30
0.0
  0
SPLINE
  5
20C
330
1F
100
AcDbEntity
  8
0
  6
Continuous
 62
     7
370
     0
100
AcDbSpline
210
0.0
220
0.0
230
1.0
 70
     8
 71
     3
 72
    27
 73
    23
 74
     0
 42
0.00000001
 43
0.00000001
 12
1.0
 22
0.0
 32
0.0
 13
1.0
 23
0.0
 33
0.0
 40
0.0
 40
0.0
 40
0.0
 40
0.0
 40
0.0621127506505294
 40
0.1202119588785538
 40
0.1743851213884739
 40
0.2254437557784868
 40
0.2723582126361769
 40
0.3163881629634407
 40
0.3568694790582284
 40
0.3939783235063669
 40
0.4295893718770921
 40
0.4646830409549869
 40
0.5000363461428402
 40
0.5354827477530638
 40
0.5713634671484435
 40
0.60790853220526
 40
0.6456622985331157
 40
0.6845173397035778
 40
0.7625786223763459
 40
0.8404972886541803
 40
0.9190729926935229
 40
1.0
 40
1.0
 40
1.0
 40
1.0
 10
244.7827476358705
 20
186.7138545181029
 30
0.0
 10
244.7975913375186
 20
186.7051511250343
 30
0.0
 10
244.826319584673
 20
186.6883067264413
 30
0.0
 10
244.8679814747871
 20
186.6624157880127
 30
0.0
 10
244.9068686726327
 20
186.6360000404004
 30
0.0
 10
244.9430526787556
 20
186.6108220833263
 30
0.0
 10
244.9765270642952
 20
186.5849141142064
 30
0.0
 10
245.0072572946396
 20
186.5596226690896
 30
0.0
 10
245.0352908157105
 20
186.5344531473914
 30
0.0
 10
245.0607529543036
 20
186.5091408737437
 30
0.0
 10
245.0843762668722
 20
186.4834960735904
 30
0.0
 10
245.1062732932317
 20
186.456040055462
 30
0.0
 10
245.1273542645457
 20
186.4276360419647
 30
0.0
 10
245.1468367924243
 20
186.397316223088
 30
0.0
 10
245.1652347304465
 20
186.3658123744542
 30
0.0
 10
245.1825310268249
 20
186.3328505849313
 30
0.0
 10
245.1984696236552
 20
186.2983792813039
 30
0.0
 10
245.2181279740798
 20
186.2508639354719
 30
0.0
 10
245.23921737608
 20
186.1905226925236
 30
0.0
 10
245.2567881605128
 20
186.1187364955845
 30
0.0
 10
245.268117487991
 20
186.0477155963056
 30
0.0
 10
245.2693297584004
 20
186.0029507349682
 30
0.0
 10
245.2699448289246
 20
185.980238354533
 30
0.0
  0
LINE
  5
20D
330
1F
100
AcDbEntity
  8
0
  6
Continuous
 62
     7
370
     0
100
AcDbLine
 10
244.1523598699
 20
187.0777696292
 30
0.0
 11
244.7827476359
 21
186.7138545181
 31
0.0
  0
LINE
  5
20E
330
1F
100
AcDbEntity
  8
0
  6
Continuous
 62
     7
370
     0
100
AcDbLine
 10
244.1523598699
 20
185.4000600099
 30
0.0
 11
244.1523598699
 21
187.0777696292
 31
0.0
  0
LINE
  5
20F
330
1F
100
AcDbEntity
  8
0
  6
Continuous
 62
     7
370
     0
100
AcDbLine
 10
244.3572504458
 20
185.2817791982
 30
0.0
 11
244.1523598699
 21
185.4000600099
 31
0.0
  0
LINE
  5
210
330
1F
100
AcDbEntity
  8
0
  6
Continuous
 62
     7
370
     0
100
AcDbLine
 10
244.3572504458
 20
186.0345976171
 30
0.0
 11
244.3572504458
 21
185.2817791982
 31
0.0
  0
LINE
  5
211
330
1F
100
AcDbEntity
  8
0
  6
Continuous
 62
     7
370
     0
100
AcDbLine
 10
247.5260694649
 20
183.968677261
 30
0.0
 11
246.9067411334
 21
184.3262078965
 31
0.0
  0
LINE
  5
212
330
1F
100
AcDbEntity
  8
0
  6
Continuous
 62
     7
370
     0
100
AcDbLine
 10
247.6913789067
 20
183.3570278071
 30
0.0
 11
247.5260694649
 21
183.968677261
 31
0.0
  0
LINE
  5
213
330
1F
100
AcDbEntity
  8
0
  6
Continuous
 62
     7
370
     0
100
AcDbLine
 10
247.9087841058
 20
183.2315224572
 30
0.0
 11
247.6913789067
 21
183.3570278071
 31
0.0
  0
LINE
  5
214
330
1F
100
AcDbEntity
  8
0
  6
Continuous
 62
     7
370
     0
100
AcDbLine
 10
247.3319472858
 20
185.2422328846
 30
0.0
 11
247.9087841058
 21
183.2315224572
 31
0.0
  0
LINE
  5
215
330
1F
100
AcDbEntity
  8
0
  6
Continuous
 62
     7
370
     0
100
AcDbLine
 10
247.1008633125
 20
185.3756348228
 30
0.0
 11
247.3319472858
 21
185.2422328846
 31
0.0
  0
LINE
  5
216
330
1F
100
AcDbEntity
  8
0
  6
Continuous
 62
     7
370
     0
100
AcDbLine
 10
246.5240264925
 20
184.0309260115
 30
0.0
 11
247.1008633125
 21
185.3756348228
 31
0.0
  0
LINE
  5
217
330
1F
100
AcDbEntity
  8
0
  6
Continuous
 62
     7
370
     0
100
AcDbLine
 10
246.7414316916
 20
183.9054206616
 30
0.0
 11
246.5240264925
 21
184.0309260115
 31
0.0
  0
LINE
  5
218
330
1F
100
AcDbEntity
  8
0
  6
Continuous
 62
     7
370
     0
100
AcDbLine
 10
246.9067411334
 20
184.3262078965
 30
0.0
 11
246.7414316916
 21
183.9054206616
 31
0.0
  0
SPLINE
  5
219
330
1F
100
AcDbEntity
  8
0
  6
Continuous
 62
     7
370
     0
100
AcDbSpline
210
0.0
220
0.0
230
1.0
 70
     8
 71
     3
 72
    23
 73
    19
 74
     0
 42
0.00000001
 43
0.00000001
 12
1.0
 22
0.0
 32
0.0
 13
1.0
 23
0.0
 33
0.0
 40
0.0
 40
0.0
 40
0.0
 40
0.0
 40
0.0749313059818451
 40
0.1470775964339471
 40
0.2163644561730686
 40
0.2825027309006237
 40
0.3466877108244162
 40
0.4088355551310385
 40
0.4692619872876919
 40
0.528432043253463
 40
0.5870013379727417
 40
0.6444163938320673
 40
0.7021887902662974
 40
0.7597671795443346
 40
0.8184897928274493
 40
0.8776328274167845
 40
0.9380195662701677
 40
1.0
 40
1.0
 40
1.0
 40
1.0
 10
250.2146761968993
 20
182.7822322926031
 30
0.0
 10
250.225122211839
 20
182.7706402698817
 30
0.0
 10
250.2456259885918
 20
182.7478870719048
 30
0.0
 10
250.2746723339564
 20
182.7124804878943
 30
0.0
 10
250.3017757254315
 20
182.6774789689775
 30
0.0
 10
250.3267171857277
 20
182.6424878243696
 30
0.0
 10
250.3494160670511
 20
182.6075102947237
 30
0.0
 10
250.3701261694114
 20
182.572650489401
 30
0.0
 10
250.3889725745586
 20
182.53796492512
 30
0.0
 10
250.4051948318399
 20
182.5031306775751
 30
0.0
 10
250.4197607545183
 20
182.4686186254256
 30
0.0
 10
250.4325069067917
 20
182.434158290653
 30
0.0
 10
250.442769863818
 20
182.3999732777877
 30
0.0
 10
250.4517711172677
 20
182.3656990867862
 30
0.0
 10
250.4582456003647
 20
182.3317425945648
 30
0.0
 10
250.4633229010071
 20
182.2977569345051
 30
0.0
 10
250.4662844055611
 20
182.2640109877956
 30
0.0
 10
250.4665701534511
 20
182.2421554200247
 30
0.0
 10
250.4667148881686
 20
182.2310853140374
 30
0.0
  0
SPLINE
  5
21A
330
1F
100
AcDbEntity
  8
0
  6
Continuous
 62
     7
370
     0
100
AcDbSpline
210
0.0
220
0.0
230
1.0
 70
     8
 71
     3
 72
    23
 73
    19
 74
     0
 42
0.00000001
 43
0.00000001
 12
1.0
 22
0.0
 32
0.0
 13
1.0
 23
0.0
 33
0.0
 40
0.0
 40
0.0
 40
0.0
 40
0.0
 40
0.0327432182311376
 40
0.0724096054938576
 40
0.1196114857927605
 40
0.1746729151985131
 40
0.2373450901947014
 40
0.3083524168429163
 40
0.3876300477623598
 40
0.4747836155862523
 40
0.5633323159904136
 40
0.6451362168299873
 40
0.7202025267224655
 40
0.789134156332447
 40
0.8514970735699656
 40
0.907330604431562
 40
0.9569686823424193
 40
1.0
 40
1.0
 40
1.0
 40
1.0
 10
249.6433690941721
 20
183.3372142292093
 30
0.0
 10
249.6484146383453
 20
183.3293355044567
 30
0.0
 10
249.6595725477633
 20
183.3119121911127
 30
0.0
 10
249.680333558252
 20
183.2853937377944
 30
0.0
 10
249.7060741322411
 20
183.2558498953975
 30
0.0
 10
249.7369662640326
 20
183.2234190904286
 30
0.0
 10
249.7729568026062
 20
183.187954798355
 30
0.0
 10
249.8139876945117
 20
183.1491456878906
 30
0.0
 10
249.8602152215763
 20
183.10743965385
 30
0.0
 10
249.9102306013104
 20
183.0640926638867
 30
0.0
 10
249.960757797223
 20
183.0203920232426
 30
0.0
 10
250.0087756202477
 20
182.9781953980952
 30
0.0
 10
250.0528641097289
 20
182.9390238919881
 30
0.0
 10
250.0929533160779
 20
182.9024995044398
 30
0.0
 10
250.1290847328726
 20
182.8686361194265
 30
0.0
 10
250.1611327902006
 20
182.8372337520063
 30
0.0
 10
250.1893567689663
 20
182.8090743640962
 30
0.0
 10
250.2066472903416
 20
182.7907440364071
 30
0.0
 10
250.2146761968993
 20
182.7822322926031
 30
0.0
  0
SPLINE
  5
21B
330
1F
100
AcDbEntity
  8
0
  6
Continuous
 62
     7
370
     0
100
AcDbSpline
210
0.0
220
0.0
230
1.0
 70
     8
 71
     3
 72
    11
 73
     7
 74
     0
 42
0.00000001
 43
0.00000001
 12
1.0
 22
0.0
 32
0.0
 13
1.0
 23
0.0
 33
0.0
 40
0.0
 40
0.0
 40
0.0
 40
0.0
 40
0.2627412305282685
 40
0.5099565029432362
 40
0.7533267184204515
 40
1.0
 40
1.0
 40
1.0
 40
1.0
 10
249.5912733369698
 20
183.5154995959197
 30
0.0
 10
249.5918028224455
 20
183.5007596543351
 30
0.0
 10
249.5928305049335
 20
183.4721507867852
 30
0.0
 10
249.6033246456979
 20
183.4262909270505
 30
0.0
 10
249.6194647076158
 20
183.3806916198475
 30
0.0
 10
249.635365240253
 20
183.3517716696454
 30
0.0
 10
249.6433690941721
 20
183.3372142292093
 30
0.0
  0
SPLINE
  5
21C
330
1F
100
AcDbEntity
  8
0
  6
Continuous
 62
     7
370
     0
100
AcDbSpline
210
0.0
220
0.0
230
1.0
 70
     8
 71
     3
 72
    23
 73
    19
 74
     0
 42
0.00000001
 43
0.00000001
 12
1.0
 22
0.0
 32
0.0
 13
1.0
 23
0.0
 33
0.0
 40
0.0
 40
0.0
 40
0.0
 40
0.0
 40
0.0915110363280375
 40
0.1771428603141496
 40
0.2571084852282353
 40
0.3311983993883852
 40
0.4005922945239584
 40
0.4656249598049649
 40
0.5269734913138605
 40
0.5854431157040239
 40
0.6413985080863311
 40
0.6950441672657246
 40
0.7467815514927489
 40
0.7969589345766999
 40
0.8475448623598802
 40
0.89743854141874
 40
0.9476489188871292
 40
1.0
 40
1.0
 40
1.0
 40
1.0
 10
249.8989002384383
 20
183.5882897060176
 30
0.0
 10
249.8859886718361
 20
183.5956310117327
 30
0.0
 10
249.8609950543356
 20
183.6098419740931
 30
0.0
 10
249.8248639458734
 20
183.6267344290453
 30
0.0
 10
249.7913750786365
 20
183.6406262104663
 30
0.0
 10
249.7605859733091
 20
183.6503745480363
 30
0.0
 10
249.7325974909803
 20
183.656026110524
 30
0.0
 10
249.7069942424532
 20
183.6586747116965
 30
0.0
 10
249.6844927617984
 20
183.656290330647
 30
0.0
 10
249.6645685006793
 20
183.6506674921552
 30
0.0
 10
249.6473813019547
 20
183.6416417285517
 30
0.0
 10
249.6325684826497
 20
183.6302266690017
 30
0.0
 10
249.619467688076
 20
183.6173913075074
 30
0.0
 10
249.6092880817141
 20
183.601322624992
 30
0.0
 10
249.6010003521079
 20
183.5834459300356
 30
0.0
 10
249.5956538558535
 20
183.5627294875207
 30
0.0
 10
249.5918684116099
 20
183.5404103511553
 30
0.0
 10
249.5914744362534
 20
183.5239179264854
 30
0.0
 10
249.5912733369698
 20
183.5154995959197
 30
0.0
  0
SPLINE
  5
21D
330
1F
100
AcDbEntity
  8
0
  6
Continuous
 62
     7
370
     0
100
AcDbSpline
210
0.0
220
0.0
230
1.0
 70
     8
 71
     3
 72
    23
 73
    19
 74
     0
 42
0.00000001
 43
0.00000001
 12
1.0
 22
0.0
 32
0.0
 13
1.0
 23
0.0
 33
0.0
 40
0.0
 40
0.0
 40
0.0
 40
0.0
 40
0.0671554674490454
 40
0.1314033464826136
 40
0.1927317719102087
 40
0.2512526591565253
 40
0.307703729884191
 40
0.3626989162982
 40
0.4177783327854303
 40
0.4723043857981141
 40
0.5278725997916962
 40
0.5852299868117373
 40
0.6450565760102913
 40
0.7079523564294421
 40
0.7744342720454271
 40
0.8449404313752613
 40
0.9204035944750272
 40
1.0
 40
1.0
 40
1.0
 40
1.0
 10
250.2245714803902
 20
183.0991563322894
 30
0.0
 10
250.2232696358645
 20
183.1119213186735
 30
0.0
 10
250.2207223119641
 20
183.1368986137828
 30
0.0
 10
250.2144027395104
 20
183.174576391513
 30
0.0
 10
250.2055439706021
 20
183.2112955797536
 30
0.0
 10
250.1951676372921
 20
183.2467611421058
 30
0.0
 10
250.1825893489559
 20
183.281061591929
 30
0.0
 10
250.1679267044374
 20
183.3143886759302
 30
0.0
 10
250.1510011438312
 20
183.3465525516463
 30
0.0
 10
250.1322481796183
 20
183.3778935108594
 30
0.0
 10
250.1110971625435
 20
183.4079666614816
 30
0.0
 10
250.087656773109
 20
183.437004080484
 30
0.0
 10
250.0618874431897
 20
183.4649790543011
 30
0.0
 10
250.033811875518
 20
183.4919149612546
 30
0.0
 10
250.0034245116797
 20
183.5177754603672
 30
0.0
 10
249.9706562352623
 20
183.5428112452489
 30
0.0
 10
249.9355197117145
 20
183.5662289739324
 30
0.0
 10
249.9113217352937
 20
183.5808066023651
 30
0.0
 10
249.8989002384383
 20
183.5882897060176
 30
0.0
  0
LINE
  5
21E
330
1F
100
AcDbEntity
  8
0
  6
Continuous
 62
     7
370
     0
100
AcDbLine
 10
250.4294620562
 20
182.9808755206
 30
0.0
 11
250.2245714804
 21
183.0991563323
 31
0.0
  0
SPLINE
  5
21F
330
1F
100
AcDbEntity
  8
0
  6
Continuous
 62
     7
370
     0
100
AcDbSpline
210
0.0
220
0.0
230
1.0
 70
     8
 71
     3
 72
    23
 73
    19
 74
     0
 42
0.00000001
 43
0.00000001
 12
1.0
 22
0.0
 32
0.0
 13
1.0
 23
0.0
 33
0.0
 40
0.0
 40
0.0
 40
0.0
 40
0.0
 40
0.1004750608070148
 40
0.1956443031597846
 40
0.2860833790699327
 40
0.3729828804699541
 40
0.4150256681909619
 40
0.4560516735090281
 40
0.4959387495188997
 40
0.5355660888033519
 40
0.5740871099085046
 40
0.612519287487098
 40
0.6510809601344453
 40
0.6895131377130388
 40
0.766237460327735
 40
0.8423504388672229
 40
0.919974494737104
 40
1.0
 40
1.0
 40
1.0
 40
1.0
 10
249.8907511814457
 20
183.7865759356364
 30
0.0
 10
249.9165844564121
 20
183.7709791644693
 30
0.0
 10
249.9668868203871
 20
183.7406092457848
 30
0.0
 10
250.0399775770498
 20
183.6873413217034
 30
0.0
 10
250.1081512437404
 20
183.6289693394764
 30
0.0
 10
250.1616153722331
 20
183.5768184694129
 30
0.0
 10
250.2011407772
 20
183.5324510577991
 30
0.0
 10
250.2292207254557
 20
183.49942569538
 30
0.0
 10
250.2552844701165
 20
183.4649380354466
 30
0.0
 10
250.2795666374534
 20
183.4298816235648
 30
0.0
 10
250.3022927759401
 20
183.3941358616135
 30
0.0
 10
250.3228787727861
 20
183.357499747223
 30
0.0
 10
250.342218529391
 20
183.3203017379832
 30
0.0
 10
250.3649454383955
 20
183.2698059592232
 30
0.0
 10
250.3894498644513
 20
183.2061931775112
 30
0.0
 10
250.4106372762807
 20
183.1298758993016
 30
0.0
 10
250.425193275345
 20
183.0538353404605
 30
0.0
 10
250.4280247521128
 20
183.005441187201
 30
0.0
 10
250.4294620562027
 20
182.9808755205507
 30
0.0
  0
SPLINE
  5
220
330
1F
100
AcDbEntity
  8
0
  6
Continuous
 62
     7
370
     0
100
AcDbSpline
210
0.0
220
0.0
230
1.0
 70
     8
 71
     3
 72
    23
 73
    19
 74
     0
 42
0.00000001
 43
0.00000001
 12
1.0
 22
0.0
 32
0.0
 13
1.0
 23
0.0
 33
0.0
 40
0.0
 40
0.0
 40
0.0
 40
0.0
 40
0.0749954673898314
 40
0.1491654404266557
 40
0.223664294338224
 40
0.3004120221906725
 40
0.3395704846106345
 40
0.3789205746932792
 40
0.4180957375990932
 40
0.4582296767501549
 40
0.4984267212184582
 40
0.5397075464534796
 40
0.5822159516458437
 40
0.6258238199943749
 40
0.715481264873698
 40
0.8073840844133601
 40
0.9016341255073719
 40
1.0
 40
1.0
 40
1.0
 40
1.0
 10
249.3863827611573
 20
183.6183207436983
 30
0.0
 10
249.387074244084
 20
183.6387208613937
 30
0.0
 10
249.3884495986074
 20
183.6792965474544
 30
0.0
 10
249.4006497469812
 20
183.7329609507087
 30
0.0
 10
249.4201092170433
 20
183.7801439031631
 30
0.0
 10
249.4422600037385
 20
183.8137343737388
 30
0.0
 10
249.4638619157579
 20
183.836334576138
 30
0.0
 10
249.4817700649025
 20
183.851253713682
 30
0.0
 10
249.5018575567196
 20
183.8630044223757
 30
0.0
 10
249.52350576629
 20
183.8722697347487
 30
0.0
 10
249.5471016772958
 20
183.8785010920746
 30
0.0
 10
249.5720598728314
 20
183.882852381146
 30
0.0
 10
249.599283700171
 20
183.8832605105036
 30
0.0
 10
249.6375372261907
 20
183.8816995730527
 30
0.0
 10
249.6887112266964
 20
183.8726509400425
 30
0.0
 10
249.7531328926954
 20
183.8533185797597
 30
0.0
 10
249.8209345808415
 20
183.8246933946186
 30
0.0
 10
249.867149804292
 20
183.7994614745741
 30
0.0
 10
249.8907511814457
 20
183.7865759356364
 30
0.0
  0
SPLINE
  5
221
330
1F
100
AcDbEntity
  8
0
  6
Continuous
 62
     7
370
     0
100
AcDbSpline
210
0.0
220
0.0
230
1.0
 70
     8
 71
     3
 72
    15
 73
    11
 74
     0
 42
0.00000001
 43
0.00000001
 12
1.0
 22
0.0
 32
0.0
 13
1.0
 23
0.0
 33
0.0
 40
0.0
 40
0.0
 40
0.0
 40
0.0
 40
0.1448052410584835
 40
0.2795118010254855
 40
0.4063939211311605
 40
0.5275015404829175
 40
0.6453932904726498
 40
0.7618854106740857
 40
0.8789420729184865
 40
1.0
 40
1.0
 40
1.0
 40
1.0
 10
249.600877582711
 20
183.1318655751508
 30
0.0
 10
249.5837779418637
 20
183.1524043641279
 30
0.0
 10
249.5507711848211
 20
183.1920495721046
 30
0.0
 10
249.5063477454868
 20
183.2545111085188
 30
0.0
 10
249.4689164881025
 20
183.3169743576177
 30
0.0
 10
249.4386353277869
 20
183.3792889159929
 30
0.0
 10
249.4149051673737
 20
183.441042390981
 30
0.0
 10
249.3988945319032
 20
183.501641900273
 30
0.0
 10
249.3879285682825
 20
183.5616993824403
 30
0.0
 10
249.3869037704152
 20
183.5992366982625
 30
0.0
 10
249.3863827611573
 20
183.6183207436983
 30
0.0
  0
SPLINE
  5
222
330
1F
100
AcDbEntity
  8
0
  6
Continuous
 62
     7
370
     0
100
AcDbSpline
210
0.0
220
0.0
230
1.0
 70
     8
 71
     3
 72
    23
 73
    19
 74
     0
 42
0.00000001
 43
0.00000001
 12
1.0
 22
0.0
 32
0.0
 13
1.0
 23
0.0
 33
0.0
 40
0.0
 40
0.0
 40
0.0
 40
0.0
 40
0.031200111153937
 40
0.0704867190162007
 40
0.1172148300204118
 40
0.1715755269954925
 40
0.2341219784876085
 40
0.3039626396728072
 40
0.3821556401561973
 40
0.4676462220680265
 40
0.5543353814021611
 40
0.6350744656665043
 40
0.7100366878785244
 40
0.7790924037748317
 40
0.8429656453505103
 40
0.9010012068505269
 40
0.9532462564590259
 40
1.0
 40
1.0
 40
1.0
 40
1.0
 10
250.1069922294978
 20
182.6538397614823
 30
0.0
 10
250.1018737322167
 20
182.6592201434852
 30
0.0
 10
250.0903101170148
 20
182.6713754038482
 30
0.0
 10
250.0704906231882
 20
182.6900711696856
 30
0.0
 10
250.0469722837879
 20
182.7130284589941
 30
0.0
 10
250.0191900896105
 20
182.7387271058145
 30
0.0
 10
249.9872927709533
 20
182.7673603113572
 30
0.0
 10
249.9513334336449
 20
182.7996858653442
 30
0.0
 10
249.9113321711759
 20
182.8350786235182
 30
0.0
 10
249.8684234884253
 20
182.8729418434573
 30
0.0
 10
249.8250987944664
 20
182.9112657873916
 30
0.0
 10
249.7837071108258
 20
182.9484862957135
 30
0.0
 10
249.745624794115
 20
182.9839979380876
 30
0.0
 10
249.7105398987486
 20
183.0172768323709
 30
0.0
 10
249.6786333033249
 20
183.0487746693402
 30
0.0
 10
249.6498144496063
 20
183.0781856645173
 30
0.0
 10
249.6240474074719
 20
183.1052713878449
 30
0.0
 10
249.6083098790494
 20
183.1233348295376
 30
0.0
 10
249.600877582711
 20
183.1318655751508
 30
0.0
  0
SPLINE
  5
223
330
1F
100
AcDbEntity
  8
0
  6
Continuous
 62
     7
370
     0
100
AcDbSpline
210
0.0
220
0.0
230
1.0
 70
     8
 71
     3
 72
    15
 73
    11
 74
     0
 42
0.00000001
 43
0.00000001
 12
1.0
 22
0.0
 32
0.0
 13
1.0
 23
0.0
 33
0.0
 40
0.0
 40
0.0
 40
0.0
 40
0.0
 40
0.1177675192120373
 40
0.2301764485440574
 40
0.3398429589695391
 40
0.4506252599208616
 40
0.566942888872161
 40
0.6960213064547939
 40
0.8394383602270622
 40
1.0
 40
1.0
 40
1.0
 40
1.0
 10
250.2618243123561
 20
182.3379394176317
 30
0.0
 10
250.2613337958362
 20
182.3503502709813
 30
0.0
 10
250.2603750819965
 20
182.3746072661741
 30
0.0
 10
250.2541274094249
 20
182.4127233661854
 30
0.0
 10
250.2422528248589
 20
182.4511645385011
 30
0.0
 10
250.2268441867572
 20
182.4900117998577
 30
0.0
 10
250.2054081402675
 20
182.5297712210763
 30
0.0
 10
250.1783261146311
 20
182.5706378585557
 30
0.0
 10
250.1450014248628
 20
182.6127518366058
 30
0.0
 10
250.1201295575112
 20
182.6396383151926
 30
0.0
 10
250.1069922294978
 20
182.6538397614823
 30
0.0
  0
SPLINE
  5
224
330
1F
100
AcDbEntity
  8
0
  6
Continuous
 62
     7
370
     0
100
AcDbSpline
210
0.0
220
0.0
230
1.0
 70
     8
 71
     3
 72
    19
 73
    15
 74
     0
 42
0.00000001
 43
0.00000001
 12
1.0
 22
0.0
 32
0.0
 13
1.0
 23
0.0
 33
0.0
 40
0.0
 40
0.0
 40
0.0
 40
0.0
 40
0.1055838864195047
 40
0.2058681332620123
 40
0.3009467177422132
 40
0.3930019285950109
 40
0.480948511606587
 40
0.562873866280227
 40
0.6414613436333618
 40
0.7177416181792271
 40
0.7917717603087846
 40
0.8627163930302567
 40
0.9317768462002767
 40
1.0
 40
1.0
 40
1.0
 40
1.0
 10
249.9300412776598
 20
182.2367483103533
 30
0.0
 10
249.946465658333
 20
182.2276177626429
 30
0.0
 10
249.97849002023
 20
182.2098149626461
 30
0.0
 10
250.0248168392426
 20
182.19129324714
 30
0.0
 10
250.0684105105462
 20
182.1777901089534
 30
0.0
 10
250.1084597104568
 20
182.1723122397026
 30
0.0
 10
250.1448167015509
 20
182.1727467658361
 30
0.0
 10
250.1763886751928
 20
182.1804322384057
 30
0.0
 10
250.2033431468604
 20
182.194092903134
 30
0.0
 10
250.2244504519476
 20
182.2152082991857
 30
0.0
 10
250.2410319293664
 20
182.240529249629
 30
0.0
 10
250.2531961571795
 20
182.2693736358301
 30
0.0
 10
250.260442138389
 20
182.301831600873
 30
0.0
 10
250.261365464838
 20
182.325952516924
 30
0.0
 10
250.2618243123561
 20
182.3379394176317
 30
0.0
  0
SPLINE
  5
225
330
1F
100
AcDbEntity
  8
0
  6
Continuous
 62
     7
370
     0
100
AcDbSpline
210
0.0
220
0.0
230
1.0
 70
     8
 71
     3
 72
    19
 73
    15
 74
     0
 42
0.00000001
 43
0.00000001
 12
1.0
 22
0.0
 32
0.0
 13
1.0
 23
0.0
 33
0.0
 40
0.0
 40
0.0
 40
0.0
 40
0.0
 40
0.0937964706969319
 40
0.1801880710186106
 40
0.2603631916661887
 40
0.3348466760639746
 40
0.4070930058327163
 40
0.4814483792884682
 40
0.5592709137563652
 40
0.6422698113109349
 40
0.7285859445716476
 40
0.8159775452756136
 40
0.9060351298875358
 40
1.0
 40
1.0
 40
1.0
 40
1.0
 10
249.5353940890209
 20
182.8732461389511
 30
0.0
 10
249.5376477664879
 20
182.8507016854492
 30
0.0
 10
249.5419772022591
 20
182.8073925762845
 30
0.0
 10
249.5540827371053
 20
182.7425624812801
 30
0.0
 10
249.5696633415389
 20
182.6815623487083
 30
0.0
 10
249.5890763451348
 20
182.6234956899277
 30
0.0
 10
249.6146134116938
 20
182.5676014014083
 30
0.0
 10
249.6453811841597
 20
182.5127210203582
 30
0.0
 10
249.6827469692896
 20
182.4590078175254
 30
0.0
 10
249.7249244229172
 20
182.4060546668709
 30
0.0
 10
249.7718983354107
 20
182.3564780496519
 30
0.0
 10
249.8220471764325
 20
182.310878398851
 30
0.0
 10
249.8751317797283
 20
182.2703684424002
 30
0.0
 10
249.9114808492514
 20
182.2481125383547
 30
0.0
 10
249.9300412776598
 20
182.2367483103533
 30
0.0
  0
LINE
  5
226
330
1F
100
AcDbEntity
  8
0
  6
Continuous
 62
     7
370
     0
100
AcDbLine
 10
249.3305035132
 20
182.9915269507
 30
0.0
 11
249.535394089
 21
182.873246139
 31
0.0
  0
SPLINE
  5
227
330
1F
100
AcDbEntity
  8
0
  6
Continuous
 62
     7
370
     0
100
AcDbSpline
210
0.0
220
0.0
230
1.0
 70
     8
 71
     3
 72
    31
 73
    27
 74
     0
 42
0.00000001
 43
0.00000001
 12
1.0
 22
0.0
 32
0.0
 13
1.0
 23
0.0
 33
0.0
 40
0.0
 40
0.0
 40
0.0
 40
0.0
 40
0.0524925849212958
 40
0.1028254751380329
 40
0.1513973394924576
 40
0.1980330772483324
 40
0.2428758954632243
 40
0.2859991683849086
 40
0.3278486614843783
 40
0.3683945968796912
 40
0.4078519911389193
 40
0.4468375528599373
 40
0.4851660451611073
 40
0.5233414044713736
 40
0.5616022144094736
 40
0.5999198855663566
 40
0.6384964264110082
 40
0.6777905770472505
 40
0.717289989175832
 40
0.7566052415928193
 40
0.7960678905323557
 40
0.8358862309537682
 40
0.8757136832726162
 40
0.9162634539474126
 40
0.9577596754778293
 40
1.0
 40
1.0
 40
1.0
 40
1.0
 10
249.9390634479015
 20
182.0379580431845
 30
0.0
 10
249.9232449422495
 20
182.0472406166546
 30
0.0
 10
249.8922587493979
 20
182.0654238520393
 30
0.0
 10
249.8467279997461
 20
182.0952842131568
 30
0.0
 10
249.8030950501941
 20
182.1256458657456
 30
0.0
 10
249.7614027204009
 20
182.1574194081516
 30
0.0
 10
249.7217817533976
 20
182.1904007425776
 30
0.0
 10
249.684089927888
 20
182.2242982897149
 30
0.0
 10
249.6482379035894
 20
182.2589752304657
 30
0.0
 10
249.6143509486372
 20
182.294977999872
 30
0.0
 10
249.5825175221485
 20
182.3324568166168
 30
0.0
 10
249.5521652269369
 20
182.3705848012951
 30
0.0
 10
249.5237901914434
 20
182.4103232019375
 30
0.0
 10
249.4973326826827
 20
182.4513394688096
 30
0.0
 10
249.4721223236723
 20
182.4932769194494
 30
0.0
 10
249.4492040087695
 20
182.5366506819036
 30
0.0
 10
249.4277985738146
 20
182.5810290593379
 30
0.0
 10
249.4083951268058
 20
182.6264227666878
 30
0.0
 10
249.3910611008884
 20
182.6723455267602
 30
0.0
 10
249.3754728730733
 20
182.7183809918569
 30
0.0
 10
249.3623395730278
 20
182.7643884615456
 30
0.0
 10
249.3517553828844
 20
182.8101193625981
 30
0.0
 10
249.3427900379529
 20
182.8558455826492
 30
0.0
 10
249.3365727784448
 20
182.9012535495896
 30
0.0
 10
249.3320016398386
 20
182.9468481180034
 30
0.0
 10
249.3310058383952
 20
182.9765460388499
 30
0.0
 10
249.3305035132085
 20
182.9915269506898
 30
0.0
  0
SPLINE
  5
228
330
1F
100
AcDbEntity
  8
0
  6
Continuous
 62
     7
370
     0
100
AcDbSpline
210
0.0
220
0.0
230
1.0
 70
     8
 71
     3
 72
    23
 73
    19
 74
     0
 42
0.00000001
 43
0.00000001
 12
1.0
 22
0.0
 32
0.0
 13
1.0
 23
0.0
 33
0.0
 40
0.0
 40
0.0
 40
0.0
 40
0.0
 40
0.0748159666505558
 40
0.1485345605139198
 40
0.2238723272963846
 40
0.3012971209351245
 40
0.3408936290197578
 40
0.3803400620654406
 40
0.4201265887284643
 40
0.4599499070829662
 40
0.500831155556217
 40
0.5419071755971084
 40
0.5844387941530513
 40
0.6280801713306067
 40
0.7172666799070601
 40
0.8078600064218678
 40
0.9019246558363443
 40
1.0
 40
1.0
 40
1.0
 40
1.0
 10
250.4667148881686
 20
182.2310853140374
 30
0.0
 10
250.4659566678201
 20
182.209596852727
 30
0.0
 10
250.4644513484173
 20
182.1669351148686
 30
0.0
 10
250.4514900054606
 20
182.1102512145282
 30
0.0
 10
250.4311284211955
 20
182.0598288967757
 30
0.0
 10
250.4072494199797
 20
182.0242732268609
 30
0.0
 10
250.3846765463792
 20
181.9996151268845
 30
0.0
 10
250.3657142677789
 20
181.9834725841426
 30
0.0
 10
250.3446861910103
 20
181.9705637104181
 30
0.0
 10
250.3221100059797
 20
181.9598049394913
 30
0.0
 10
250.2978104299011
 20
181.9517828889114
 30
0.0
 10
250.2715826022747
 20
181.9466083137334
 30
0.0
 10
250.2437033454088
 20
181.9439099244954
 30
0.0
 10
250.2038924676843
 20
181.9439921988265
 30
0.0
 10
250.1510170082685
 20
181.9505609185109
 30
0.0
 10
250.0836642878047
 20
181.9694933762557
 30
0.0
 10
250.0126826784106
 20
181.9975284920293
 30
0.0
 10
249.9639423237922
 20
182.0242952844386
 30
0.0
 10
249.9390634479015
 20
182.0379580431845
 30
0.0
  0
SPLINE
  5
229
330
1F
100
AcDbEntity
  8
0
  6
Continuous
 62
     7
370
     0
100
AcDbSpline
210
0.0
220
0.0
230
1.0
 70
     8
 71
     3
 72
    23
 73
    19
 74
     0
 42
0.00000001
 43
0.00000001
 12
1.0
 22
0.0
 32
0.0
 13
1.0
 23
0.0
 33
0.0
 40
0.0
 40
0.0
 40
0.0
 40
0.0
 40
0.0704642259291743
 40
0.1379569656042687
 40
0.2035785636142837
 40
0.2676916802449436
 40
0.330185864859375
 40
0.3915337640898204
 40
0.4526637734870355
 40
0.5131537880892142
 40
0.5734535531000293
 40
0.6329675593891936
 40
0.6923319074206221
 40
0.7514741915716308
 40
0.8121874455294302
 40
0.8729617178483164
 40
0.935420306759492
 40
1.0
 40
1.0
 40
1.0
 40
1.0
 10
243.6084103141333
 20
180.8355347299412
 30
0.0
 10
243.6191287693348
 20
180.825472479137
 30
0.0
 10
243.6401136809845
 20
180.8057723040511
 30
0.0
 10
243.67028167149
 20
180.774475664305
 30
0.0
 10
243.6986002010956
 20
180.7423221864378
 30
0.0
 10
243.7251309114227
 20
180.7092503125291
 30
0.0
 10
243.7496945378171
 20
180.6751991003617
 30
0.0
 10
243.7722217708671
 20
180.6401775837116
 30
0.0
 10
243.7928688046731
 20
180.6044362982243
 30
0.0
 10
243.811598751285
 20
180.5680110294994
 30
0.0
 10
243.8280510443534
 20
180.5312747512546
 30
0.0
 10
243.8428066959342
 20
180.4944873799705
 30
0.0
 10
243.8549912711375
 20
180.4578132937245
 30
0.0
 10
243.8649785237216
 20
180.4211136821307
 30
0.0
 10
243.8727700655078
 20
180.3845787604103
 30
0.0
 10
243.8783652406362
 20
180.3480856873053
 30
0.0
 10
243.8815543476093
 20
180.3118329471711
 30
0.0
 10
243.8820333412918
 20
180.2881798559517
 30
0.0
 10
243.8822768369103
 20
180.2761558475248
 30
0.0
  0
SPLINE
  5
22A
330
1F
100
AcDbEntity
  8
0
  6
Continuous
 62
     7
370
     0
100
AcDbSpline
210
0.0
220
0.0
230
1.0
 70
     8
 71
     3
 72
    15
 73
    11
 74
     0
 42
0.00000001
 43
0.00000001
 12
1.0
 22
0.0
 32
0.0
 13
1.0
 23
0.0
 33
0.0
 40
0.0
 40
0.0
 40
0.0
 40
0.0
 40
0.1158426906010183
 40
0.2305685484828847
 40
0.3473546045205448
 40
0.4682527467344625
 40
0.5923025714800838
 40
0.7199701656206967
 40
0.8556003811349103
 40
1.0
 40
1.0
 40
1.0
 40
1.0
 10
243.8263975889048
 20
181.0706429006926
 30
0.0
 10
243.8257196879675
 20
181.0530430908455
 30
0.0
 10
243.824370421697
 20
181.0180131499059
 30
0.0
 10
243.8136317717659
 20
180.9714638180162
 30
0.0
 10
243.7966828967905
 20
180.9300296112265
 30
0.0
 10
243.7727167077432
 20
180.8947991158761
 30
0.0
 10
243.7420849140651
 20
180.8664669435745
 30
0.0
 10
243.7041102372172
 20
180.8469809827429
 30
0.0
 10
243.6593383698513
 20
180.8359374690541
 30
0.0
 10
243.6257370848816
 20
180.8356717500607
 30
0.0
 10
243.6084103141333
 20
180.8355347299412
 30
0.0
  0
SPLINE
  5
22B
330
1F
100
AcDbEntity
  8
0
  6
Continuous
 62
     7
370
     0
100
AcDbSpline
210
0.0
220
0.0
230
1.0
 70
     8
 71
     3
 72
    23
 73
    19
 74
     0
 42
0.00000001
 43
0.00000001
 12
1.0
 22
0.0
 32
0.0
 13
1.0
 23
0.0
 33
0.0
 40
0.0
 40
0.0
 40
0.0
 40
0.0
 40
0.058732037100865
 40
0.1146029008469812
 40
0.1676568100446123
 40
0.2179667070908434
 40
0.2657752056293753
 40
0.3111706510536961
 40
0.3537918046646694
 40
0.3947449080003071
 40
0.4728059510824632
 40
0.5491923665616072
 40
0.6247801075795549
 40
0.7026247640242251
 40
0.7797414321940387
 40
0.8540634639886252
 40
0.9271552664103494
 40
0.9999999999999999
 40
0.9999999999999999
 40
0.9999999999999999
 40
0.9999999999999999
 10
243.3458942636073
 20
181.7829186352334
 30
0.0
 10
243.3593833129251
 20
181.7750718170041
 30
0.0
 10
243.3857042828384
 20
181.7597604439295
 30
0.0
 10
243.4241383416103
 20
181.734656874462
 30
0.0
 10
243.4605382652491
 20
181.7096550810217
 30
0.0
 10
243.4949824143419
 20
181.68462951465
 30
0.0
 10
243.5273217494246
 20
181.6585003725079
 30
0.0
 10
243.5575261339145
 20
181.6320264110386
 30
0.0
 10
243.5857527507595
 20
181.6053072505896
 30
0.0
 10
243.6202554885133
 20
181.5695096870087
 30
0.0
 10
243.6600161110751
 20
181.5221143545
 30
0.0
 10
243.7026035150786
 20
181.4610578282081
 30
0.0
 10
243.7396562111897
 20
181.3958787638324
 30
0.0
 10
243.7701451310986
 20
181.3280713189929
 30
0.0
 10
243.79526471283
 20
181.2599400118317
 30
0.0
 10
243.8130742022054
 20
181.1936269198585
 30
0.0
 10
243.8244607733697
 20
181.12983983918
 30
0.0
 10
243.8257527128058
 20
181.090352929898
 30
0.0
 10
243.8263975889048
 20
181.0706429006926
 30
0.0
  0
LINE
  5
22C
330
1F
100
AcDbEntity
  8
0
  6
Continuous
 62
     7
370
     0
100
AcDbLine
 10
242.8019447088
 20
182.0969340292
 30
0.0
 11
243.3458942636
 21
181.7829186352
 31
0.0
  0
LINE
  5
22D
330
1F
100
AcDbEntity
  8
0
  6
Continuous
 62
     7
370
     0
100
AcDbLine
 10
242.8019447088
 20
180.4192244082
 30
0.0
 11
242.8019447088
 21
182.0969340292
 31
0.0
  0
LINE
  5
22E
330
1F
100
AcDbEntity
  8
0
  6
Continuous
 62
     7
370
     0
100
AcDbLine
 10
243.3473494524
 20
180.1043689516
 30
0.0
 11
242.8019447088
 21
180.4192244082
 31
0.0
  0
SPLINE
  5
22F
330
1F
100
AcDbEntity
  8
0
  6
Continuous
 62
     7
370
     0
100
AcDbSpline
210
0.0
220
0.0
230
1.0
 70
     8
 71
     3
 72
    23
 73
    19
 74
     0
 42
0.00000001
 43
0.00000001
 12
1.0
 22
0.0
 32
0.0
 13
1.0
 23
0.0
 33
0.0
 40
0.0
 40
0.0
 40
0.0
 40
0.0
 40
0.0642545754247033
 40
0.1273603868320977
 40
0.1894718420926422
 40
0.2517207629332013
 40
0.3120272840890022
 40
0.3686746571150514
 40
0.4226814918055484
 40
0.4740604252251509
 40
0.5257737722739171
 40
0.5796221048577139
 40
0.6373752855308658
 40
0.6984003818208012
 40
0.7643573310122576
 40
0.836314767979149
 40
0.9146777942540464
 40
1.0
 40
1.0
 40
1.0
 40
1.0
 10
243.8822768369103
 20
180.2761558475248
 30
0.0
 10
243.8817749553135
 20
180.2573668787018
 30
0.0
 10
243.880780164921
 20
180.2201248562986
 30
0.0
 10
243.8727908890594
 20
180.1690777290633
 30
0.0
 10
243.8592894364547
 20
180.1233324557866
 30
0.0
 10
243.8407058351862
 20
180.0835064554903
 30
0.0
 10
243.8185627262246
 20
180.0495447057864
 30
0.0
 10
243.7933963070806
 20
180.0223615949396
 30
0.0
 10
243.765848373517
 20
180.0020158293193
 30
0.0
 10
243.7351432040409
 20
179.9892497850323
 30
0.0
 10
243.7014788601686
 20
179.982805214798
 30
0.0
 10
243.6639045183889
 20
179.9827049619122
 30
0.0
 10
243.6227106967168
 20
179.9872676707533
 30
0.0
 10
243.5770601537022
 20
179.9982691378543
 30
0.0
 10
243.5269736693668
 20
180.014987816839
 30
0.0
 10
243.471771524209
 20
180.0389318143244
 30
0.0
 10
243.4113689084461
 20
180.0681293222063
 30
0.0
 10
243.3692856694164
 20
180.0919514706688
 30
0.0
 10
243.3473494523575
 20
180.1043689516311
 30
0.0
  0
LINE
  5
230
330
1F
100
AcDbEntity
  8
0
  6
Continuous
 62
     7
370
     0
100
AcDbLine
 10
245.148873125
 20
179.7526625989
 30
0.0
 11
245.6890391891
 21
179.4408313677
 31
0.0
  0
LINE
  5
231
330
1F
100
AcDbEntity
  8
0
  6
Continuous
 62
     7
370
     0
100
AcDbLine
 10
245.148873125
 20
179.5590807196
 30
0.0
 11
245.148873125
 21
179.7526625989
 31
0.0
  0
LINE
  5
232
330
1F
100
AcDbEntity
  8
0
  6
Continuous
 62
     7
370
     0
100
AcDbLine
 10
245.6890391891
 20
179.2472494883
 30
0.0
 11
245.148873125
 21
179.5590807196
 31
0.0
  0
LINE
  5
233
330
1F
100
AcDbEntity
  8
0
  6
Continuous
 62
     7
370
     0
100
AcDbLine
 10
245.6890391891
 20
179.4408313677
 30
0.0
 11
245.6890391891
 21
179.2472494883
 31
0.0
  0
SPLINE
  5
234
330
1F
100
AcDbEntity
  8
0
  6
Continuous
 62
     7
370
     0
100
AcDbSpline
210
0.0
220
0.0
230
1.0
 70
     8
 71
     3
 72
    31
 73
    27
 74
     0
 42
0.00000001
 43
0.00000001
 12
1.0
 22
0.0
 32
0.0
 13
1.0
 23
0.0
 33
0.0
 40
0.0
 40
0.0
 40
0.0
 40
0.0
 40
0.0628739462114327
 40
0.1228366299919133
 40
0.1796565674430315
 40
0.2339600122308624
 40
0.2855950186955593
 40
0.3345131060783807
 40
0.3809048259061767
 40
0.4248945919393349
 40
0.4665290347654875
 40
0.5064882940692464
 40
0.5450315536447543
 40
0.5818311798231348
 40
0.6174482799494427
 40
0.6520669127690464
 40
0.6858797142465106
 40
0.7191745547913921
 40
0.7521816462063929
 40
0.7852401639180911
 40
0.8186564497770834
 40
0.852547740653311
 40
0.8876263422585191
 40
0.9236350780687512
 40
0.9610218444769892
 40
1.0
 40
1.0
 40
1.0
 40
1.0
 10
247.9055826933077
 20
178.3003850151637
 30
0.0
 10
247.9053915169228
 20
178.2766319872911
 30
0.0
 10
247.905018016224
 20
178.230225771811
 30
0.0
 10
247.9027993157653
 20
178.1633482150668
 30
0.0
 10
247.8985791472973
 20
178.1010263544277
 30
0.0
 10
247.8933861528949
 20
178.0425180254704
 30
0.0
 10
247.8855302400941
 20
177.9889630903615
 30
0.0
 10
247.8770650684107
 20
177.938929187414
 30
0.0
 10
247.8665957420415
 20
177.8934709613742
 30
0.0
 10
247.8543804961082
 20
177.8524167642627
 30
0.0
 10
247.8406233554066
 20
177.8153944483519
 30
0.0
 10
247.8255365218262
 20
177.7819416980923
 30
0.0
 10
247.808826405012
 20
177.7522568095466
 30
0.0
 10
247.7899956487762
 20
177.7270105194069
 30
0.0
 10
247.7699058455218
 20
177.7052260475382
 30
0.0
 10
247.7484098587994
 20
177.6868631103616
 30
0.0
 10
247.7250519485249
 20
177.6726277034602
 30
0.0
 10
247.6998557170951
 20
177.6626617887372
 30
0.0
 10
247.6733319505599
 20
177.6558939584878
 30
0.0
 10
247.6449530278329
 20
177.6533718161571
 30
0.0
 10
247.6148431590357
 20
177.6550914542744
 30
0.0
 10
247.5832035197959
 20
177.6599660389796
 30
0.0
 10
247.5497130803282
 20
177.6694878190261
 30
0.0
 10
247.5146359431214
 20
177.682226609777
 30
0.0
 10
247.4778428654594
 20
177.699043892836
 30
0.0
 10
247.4527368807798
 20
177.7130955833326
 30
0.0
 10
247.4399222932617
 20
177.7202678420567
 30
0.0
  0
SPLINE
  5
235
330
1F
100
AcDbEntity
  8
0
  6
Continuous
 62
     7
370
     0
100
AcDbSpline
210
0.0
220
0.0
230
1.0
 70
     8
 71
     3
 72
    27
 73
    23
 74
     0
 42
0.00000001
 43
0.00000001
 12
1.0
 22
0.0
 32
0.0
 13
1.0
 23
0.0
 33
0.0
 40
0.0
 40
0.0
 40
0.0
 40
0.0
 40
0.0567243372181507
 40
0.1114372357370106
 40
0.1643678222229012
 40
0.21643537246209
 40
0.2676414903219252
 40
0.3173597799690278
 40
0.3674730633322808
 40
0.4182103970528083
 40
0.4714042826470199
 40
0.5279657201290494
 40
0.5880611158232141
 40
0.6521342629937148
 40
0.686344836335306
 40
0.7232636803169655
 40
0.7626102507715419
 40
0.8047389366452182
 40
0.84943033879095
 40
0.8967112583864925
 40
0.9468896380534767
 40
1.0
 40
1.0
 40
1.0
 40
1.0
 10
247.4399222932617
 20
179.4194865607801
 30
0.0
 10
247.4585808536363
 20
179.4080817596245
 30
0.0
 10
247.4952363439064
 20
179.3856765702957
 30
0.0
 10
247.5487535489936
 20
179.3446324391687
 30
0.0
 10
247.599190065525
 20
179.2981541053623
 30
0.0
 10
247.6465131252631
 20
179.247413061467
 30
0.0
 10
247.689913747833
 20
179.1926079381819
 30
0.0
 10
247.7286723330617
 20
179.1340668455536
 30
0.0
 10
247.7623708070016
 20
179.0724108708881
 30
0.0
 10
247.7906414029544
 20
179.007352238441
 30
0.0
 10
247.8153527256877
 20
178.93915675522
 30
0.0
 10
247.8373057223445
 20
178.8671199868145
 30
0.0
 10
247.8571505936919
 20
178.7909331038987
 30
0.0
 10
247.8712329464098
 20
178.7248605373567
 30
0.0
 10
247.8812778770407
 20
178.6690432710192
 30
0.0
 10
247.8879268230174
 20
178.6239511124927
 30
0.0
 10
247.8934467811553
 20
178.5762514220308
 30
0.0
 10
247.8976758150827
 20
178.5261453726496
 30
0.0
 10
247.9011456376381
 20
178.4733794732413
 30
0.0
 10
247.9038252225768
 20
178.4179400289767
 30
0.0
 10
247.9051853862941
 20
178.3599978357817
 30
0.0
 10
247.9054477748919
 20
178.3206284718563
 30
0.0
 10
247.9055826933077
 20
178.3003850151637
 30
0.0
  0
SPLINE
  5
236
330
1F
100
AcDbEntity
  8
0
  6
Continuous
 62
     7
370
     0
100
AcDbSpline
210
0.0
220
0.0
230
1.0
 70
     8
 71
     3
 72
    31
 73
    27
 74
     0
 42
0.00000001
 43
0.00000001
 12
1.0
 22
0.0
 32
0.0
 13
1.0
 23
0.0
 33
0.0
 40
0.0
 40
0.0
 40
0.0
 40
0.0
 40
0.0631144583947933
 40
0.1236146457694896
 40
0.1809737111859573
 40
0.2352614550083219
 40
0.287100701833872
 40
0.3360307363034435
 40
0.3823823485850663
 40
0.4263340836597074
 40
0.4682106947981602
 40
0.5082496012618053
 40
0.546628336606585
 40
0.5836495392304463
 40
0.6189943150301616
 40
0.653583018620596
 40
0.6871561361903314
 40
0.7204221919788075
 40
0.7532302188118171
 40
0.7862601560779
 40
0.8195039834988842
 40
0.8535452747120184
 40
0.8883082803397299
 40
0.9239958607406948
 40
0.9613503047546451
 40
1.0
 40
1.0
 40
1.0
 40
1.0
 10
246.9742618932157
 20
178.8380250690665
 30
0.0
 10
246.9744495543977
 20
178.8618927450495
 30
0.0
 10
246.9748171036268
 20
178.9086394713468
 30
0.0
 10
246.9770968920933
 20
178.9760326956959
 30
0.0
 10
246.9810772180216
 20
179.0389852969449
 30
0.0
 10
246.9870187488729
 20
179.0972901280527
 30
0.0
 10
246.9940546345534
 20
179.1515869585107
 30
0.0
 10
247.0032013303255
 20
179.2012057175012
 30
0.0
 10
247.01349269278
 20
179.2468273225697
 30
0.0
 10
247.0258404809116
 20
179.2878716807091
 30
0.0
 10
247.0394066578141
 20
179.3252367768628
 30
0.0
 10
247.0547979183134
 20
179.3584998678787
 30
0.0
 10
247.0721151742572
 20
179.3875580114936
 30
0.0
 10
247.0905073901533
 20
179.4133075241889
 30
0.0
 10
247.1109427699513
 20
179.4346238154443
 30
0.0
 10
247.132187875103
 20
179.4531482313156
 30
0.0
 10
247.1557866730018
 20
179.4668603073187
 30
0.0
 10
247.1807578750083
 20
179.4770298709274
 30
0.0
 10
247.2074691885461
 20
179.4833047038119
 30
0.0
 10
247.2357792842477
 20
179.4856817550202
 30
0.0
 10
247.2655792325658
 20
179.4850071286006
 30
0.0
 10
247.2974369875608
 20
179.4790587018124
 30
0.0
 10
247.3306911883616
 20
179.4700048689608
 30
0.0
 10
247.3655978085611
 20
179.4573153204381
 30
0.0
 10
247.4021953147163
 20
179.4405869033396
 30
0.0
 10
247.4272045657683
 20
179.4265994655776
 30
0.0
 10
247.4399222932617
 20
179.4194865607801
 30
0.0
  0
SPLINE
  5
237
330
1F
100
AcDbEntity
  8
0
  6
Continuous
 62
     7
370
     0
100
AcDbSpline
210
0.0
220
0.0
230
1.0
 70
     8
 71
     3
 72
    15
 73
    11
 74
     0
 42
0.00000001
 43
0.00000001
 12
1.0
 22
0.0
 32
0.0
 13
1.0
 23
0.0
 33
0.0
 40
0.0
 40
0.0
 40
0.0
 40
0.0
 40
0.097420668177215
 40
0.2008855880393203
 40
0.3111719701726506
 40
0.4297979458253724
 40
0.5577399263645875
 40
0.6947152693641581
 40
0.8421299102060551
 40
1.0
 40
1.0
 40
1.0
 40
1.0
 10
247.1154152019797
 20
178.0692561107803
 30
0.0
 10
247.1039008470276
 20
178.0950833893887
 30
0.0
 10
247.0801577542249
 20
178.1483403434602
 30
0.0
 10
247.0523685227432
 20
178.231819755075
 30
0.0
 10
247.0275800362597
 20
178.3203685451231
 30
0.0
 10
247.00812561921
 20
178.4140962686002
 30
0.0
 10
246.9928879610767
 20
178.5129913528536
 30
0.0
 10
246.9818825675307
 20
178.6172216392395
 30
0.0
 10
246.9756545982536
 20
178.7264301276762
 30
0.0
 10
246.974736608062
 20
178.7999870251107
 30
0.0
 10
246.9742618932157
 20
178.8380250690665
 30
0.0
  0
SPLINE
  5
238
330
1F
100
AcDbEntity
  8
0
  6
Continuous
 62
     7
370
     0
100
AcDbSpline
210
0.0
220
0.0
230
1.0
 70
     8
 71
     3
 72
    15
 73
    11
 74
     0
 42
0.00000001
 43
0.00000001
 12
1.0
 22
0.0
 32
0.0
 13
1.0
 23
0.0
 33
0.0
 40
0.0
 40
0.0
 40
0.0
 40
0.0
 40
0.1379032299933931
 40
0.2688733426002933
 40
0.3951781273461135
 40
0.5170892381308878
 40
0.6367430265135476
 40
0.7562218164637969
 40
0.876628359463679
 40
1.0
 40
1.0
 40
1.0
 40
1.0
 10
247.4399222932617
 20
177.7202678420567
 30
0.0
 10
247.4231208832102
 20
177.7305205226657
 30
0.0
 10
247.3903627579571
 20
177.7505104279501
 30
0.0
 10
247.3425219314693
 20
177.7854597756793
 30
0.0
 10
247.2976207640097
 20
177.8242843227083
 30
0.0
 10
247.2552805399444
 20
177.866032434367
 30
0.0
 10
247.2159771749687
 20
177.9118690480879
 30
0.0
 10
247.1795230111429
 20
177.9610767556282
 30
0.0
 10
247.1451855283254
 20
178.0134231860454
 30
0.0
 10
247.1254187856933
 20
178.0504948338605
 30
0.0
 10
247.1154152019797
 20
178.0692561107803
 30
0.0
  0
LWPOLYLINE
  5
239
330
1F
100
AcDbEntity
  8
0
  6
Continuous
 62
     7
370
     0
100
AcDbPolyline
 90
       37
 70
   128
 43
0.0
 10
246.0327566015
 20
182.2731780532
 10
246.0193284254
 20
182.4581685042
 10
245.9794519055
 20
182.6530419561
 10
245.9143386697
 20
182.8518772776
 10
245.8259671506
 20
183.0486329581
 10
245.7170224721
 20
183.2373306758
 10
245.5908148633
 20
183.4122369461
 10
245.4511790783
 20
183.5680373303
 10
245.30235788
 20
183.6999979128
 10
245.148873125
 20
183.804109138
 10
244.9953883701
 20
183.8772076389
 10
244.8465671717
 20
183.9170723546
 10
244.7069313868
 20
183.9224920159
 10
244.5807237779
 20
183.8933019492
 10
244.4717790995
 20
183.8303890798
 10
244.3834075804
 20
183.7356649835
 10
244.3182943445
 20
183.6120078039
 10
244.2784178246
 20
183.4631748019
 10
244.2649896486
 20
183.293688193
 10
244.2784178246
 20
183.108697742
 10
244.3182943445
 20
182.9138242901
 10
244.3834075804
 20
182.7149889686
 10
244.4717790995
 20
182.5182332881
 10
244.5807237779
 20
182.3295355704
 10
244.7069313868
 20
182.1546293001
 10
244.8465671717
 20
181.9988289159
 10
244.9953883701
 20
181.8668683334
 10
245.148873125
 20
181.7627571082
 10
245.30235788
 20
181.6896586073
 10
245.4511790783
 20
181.6497938916
 10
245.5908148633
 20
181.6443742303
 10
245.7170224721
 20
181.673564297
 10
245.8259671506
 20
181.7364771664
 10
245.9143386697
 20
181.8312012627
 10
245.9794519055
 20
181.9548584423
 10
246.0193284254
 20
182.1036914443
 10
246.0327566015
 20
182.2731780532
  0
ARC
  5
23A
330
1F
100
AcDbEntity
  8
0
  6
Continuous
 62
     7
370
     0
100
AcDbCircle
 10
232.7968987764
 20
175.6527901116
 30
0.0
 40
38.69559296387392
100
AcDbArc
 50
2.5807340673
 51
57.4138894
  0
LINE
  5
23B
330
1F
100
AcDbEntity
  8
0
  6
Continuous
 62
     7
370
     0
100
AcDbLine
 10
248.2687978022
 20
183.9916003698
 30
0.0
 11
248.5682756467
 21
183.8187154902
 31
0.0
  0
SPLINE
  5
23C
330
1F
100
AcDbEntity
  8
0
  6
Continuous
 62
     7
370
     0
100
AcDbSpline
210
0.0
220
0.0
230
1.0
 70
     8
 71
     3
 72
    15
 73
    11
 74
     0
 42
0.00000001
 43
0.00000001
 12
1.0
 22
0.0
 32
0.0
 13
1.0
 23
0.0
 33
0.0
 40
0.0
 40
0.0
 40
0.0
 40
0.0
 40
0.1669801744060311
 40
0.3208066328848163
 40
0.4631345048703153
 40
0.594248053978518
 40
0.7123671525397411
 40
0.8194549510427488
 40
0.9157522665813511
 40
1.0
 40
1.0
 40
1.0
 40
1.0
 10
248.568275646656
 20
183.8187154901636
 30
0.0
 10
248.5780753073946
 20
183.8131030379416
 30
0.0
 10
248.5969026692426
 20
183.8023202494702
 30
0.0
 10
248.6240606901508
 20
183.7878415798649
 30
0.0
 10
248.6491262416768
 20
183.7743947384834
 30
0.0
 10
248.6720023669171
 20
183.763756769132
 30
0.0
 10
248.6928023960448
 20
183.754264543672
 30
0.0
 10
248.7114430898672
 20
183.7468895880652
 30
0.0
 10
248.728015751527
 20
183.7411377471711
 30
0.0
 10
248.7381631950712
 20
183.7388187794555
 30
0.0
 10
248.7428982964962
 20
183.737736679586
 30
0.0
  0
SPLINE
  5
23D
330
1F
100
AcDbEntity
  8
0
  6
Continuous
 62
     7
370
     0
100
AcDbSpline
210
0.0
220
0.0
230
1.0
 70
     8
 71
     3
 72
    15
 73
    11
 74
     0
 42
0.00000001
 43
0.00000001
 12
1.0
 22
0.0
 32
0.0
 13
1.0
 23
0.0
 33
0.0
 40
0.0
 40
0.0
 40
0.0
 40
0.0
 40
0.1323768784386551
 40
0.2551949197670689
 40
0.3737221416536681
 40
0.4900113154474159
 40
0.6078124214239333
 40
0.7311098159015433
 40
0.8599973777575838
 40
1.0
 40
1.0
 40
1.0
 40
1.0
 10
248.7428982964962
 20
183.737736679586
 30
0.0
 10
248.7540240867217
 20
183.73581443107
 30
0.0
 10
248.7754722820367
 20
183.7321087381906
 30
0.0
 10
248.8042148700059
 20
183.7352202605322
 30
0.0
 10
248.8286952004896
 20
183.7447330886176
 30
0.0
 10
248.8488476715708
 20
183.7611026065363
 30
0.0
 10
248.8643338470249
 20
183.7843743274114
 30
0.0
 10
248.8758163991067
 20
183.8134977062731
 30
0.0
 10
248.8821033511499
 20
183.8496606380769
 30
0.0
 10
248.8830017577102
 20
183.8767365692161
 30
0.0
 10
248.8834695296176
 20
183.8908341509923
 30
0.0
  0
SPLINE
  5
23E
330
1F
100
AcDbEntity
  8
0
  6
Continuous
 62
     7
370
     0
100
AcDbSpline
210
0.0
220
0.0
230
1.0
 70
     8
 71
     3
 72
    23
 73
    19
 74
     0
 42
0.00000001
 43
0.00000001
 12
1.0
 22
0.0
 32
0.0
 13
1.0
 23
0.0
 33
0.0
 40
0.0
 40
0.0
 40
0.0
 40
0.0
 40
0.0760105192062331
 40
0.1481357362434476
 40
0.2177881778331541
 40
0.2867678984972346
 40
0.3540434632439185
 40
0.4186108400234789
 40
0.4836364388553431
 40
0.5502295626461512
 40
0.5869278113138148
 40
0.6291578250269647
 40
0.6772382242876699
 40
0.7300426397437305
 40
0.7888625661169237
 40
0.8537504514610939
 40
0.9241097665384562
 40
1.0
 40
1.0
 40
1.0
 40
1.0
 10
248.8834695296176
 20
183.8908341509923
 30
0.0
 10
248.8830934093334
 20
183.9048594937608
 30
0.0
 10
248.8823603942745
 20
183.9321932693853
 30
0.0
 10
248.8762073882435
 20
183.9748242029544
 30
0.0
 10
248.8655598386124
 20
184.0173266232553
 30
0.0
 10
248.8511401406675
 20
184.0592755252182
 30
0.0
 10
248.832880971708
 20
184.0997302190771
 30
0.0
 10
248.8110880166227
 20
184.1380299761056
 30
0.0
 10
248.7849815946817
 20
184.1725432879454
 30
0.0
 10
248.7605799100043
 20
184.1987582868815
 30
0.0
 10
248.7386325285548
 20
184.2190155777932
 30
0.0
 10
248.7190233140379
 20
184.2348248515337
 30
0.0
 10
248.6967806160806
 20
184.2516206446445
 30
0.0
 10
248.6718312400469
 20
184.2693863257662
 30
0.0
 10
248.6441657482966
 20
184.2879670492468
 30
0.0
 10
248.6136988986259
 20
184.3076284805109
 30
0.0
 10
248.5805032153574
 20
184.3276722105669
 30
0.0
 10
248.55750742758
 20
184.3410809123883
 30
0.0
 10
248.5455747021768
 20
184.3480388108694
 30
0.0
  0
LINE
  5
23F
330
1F
100
AcDbEntity
  8
0
  6
Continuous
 62
     7
370
     0
100
AcDbLine
 10
248.5455747022
 20
184.3480388109
 30
0.0
 11
248.2687978022
 21
184.5078187142
 31
0.0
  0
LINE
  5
240
330
1F
100
AcDbEntity
  8
0
  6
Continuous
 62
     7
370
     0
100
AcDbLine
 10
248.2687978022
 20
184.5078187142
 30
0.0
 11
248.2687978022
 21
183.9916003698
 31
0.0
  0
LINE
  5
241
330
1F
100
AcDbEntity
  8
0
  6
Continuous
 62
     7
370
     0
100
AcDbLine
 10
248.2687978022
 20
183.2172728532
 30
0.0
 11
248.6125133846
 21
183.018850071
 31
0.0
  0
SPLINE
  5
242
330
1F
100
AcDbEntity
  8
0
  6
Continuous
 62
     7
370
     0
100
AcDbSpline
210
0.0
220
0.0
230
1.0
 70
     8
 71
     3
 72
    11
 73
     7
 74
     0
 42
0.00000001
 43
0.00000001
 12
1.0
 22
0.0
 32
0.0
 13
1.0
 23
0.0
 33
0.0
 40
0.0
 40
0.0
 40
0.0
 40
0.0
 40
0.3293954641291863
 40
0.6051903468528026
 40
0.8278865786947355
 40
1.0
 40
1.0
 40
1.0
 40
1.0
 10
248.6125133846155
 20
183.0188500710213
 30
0.0
 10
248.6261924718771
 20
183.0111347769197
 30
0.0
 10
248.651324729197
 20
182.996959653028
 30
0.0
 10
248.6857007470966
 20
182.9781607533019
 30
0.0
 10
248.7134871975283
 20
182.9646748488181
 30
0.0
 10
248.7297130162032
 20
182.9580588278903
 30
0.0
 10
248.7367865037518
 20
182.9551746380327
 30
0.0
  0
SPLINE
  5
243
330
1F
100
AcDbEntity
  8
0
  6
Continuous
 62
     7
370
     0
100
AcDbSpline
210
0.0
220
0.0
230
1.0
 70
     8
 71
     3
 72
    19
 73
    15
 74
     0
 42
0.00000001
 43
0.00000001
 12
1.0
 22
0.0
 32
0.0
 13
1.0
 23
0.0
 33
0.0
 40
0.0
 40
0.0
 40
0.0
 40
0.0
 40
0.0889709576989536
 40
0.1722707767733143
 40
0.2503120304637099
 40
0.3246551996215509
 40
0.3978444501802942
 40
0.4733008807185331
 40
0.5518258887444482
 40
0.6347494834982531
 40
0.7217660118923857
 40
0.8103926655611197
 40
0.9031752367994196
 40
1.0
 40
1.0
 40
1.0
 40
1.0
 10
248.7367865037518
 20
182.9551746380327
 30
0.0
 10
248.7469277849846
 20
182.951781687708
 30
0.0
 10
248.7665639273915
 20
182.9452120586616
 30
0.0
 10
248.7942461767712
 20
182.939868817707
 30
0.0
 10
248.8196272997932
 20
182.9374022946642
 30
0.0
 10
248.8422643073049
 20
182.9398208833037
 30
0.0
 10
248.8632256331452
 20
182.9455674763849
 30
0.0
 10
248.8814425853633
 20
182.9573431966512
 30
0.0
 10
248.8982212630768
 20
182.972984721043
 30
0.0
 10
248.9127585101098
 20
182.9935771600148
 30
0.0
 10
248.9245139852023
 20
183.0188555731927
 30
0.0
 10
248.9334984936897
 20
183.0483183005134
 30
0.0
 10
248.9382842973224
 20
183.0826680697039
 30
0.0
 10
248.9389889434263
 20
183.1077410705452
 30
0.0
 10
248.9393487775664
 20
183.120544833524
 30
0.0
  0
SPLINE
  5
244
330
1F
100
AcDbEntity
  8
0
  6
Continuous
 62
     7
370
     0
100
AcDbSpline
210
0.0
220
0.0
230
1.0
 70
     8
 71
     3
 72
    19
 73
    15
 74
     0
 42
0.00000001
 43
0.00000001
 12
1.0
 22
0.0
 32
0.0
 13
1.0
 23
0.0
 33
0.0
 40
0.0
 40
0.0
 40
0.0
 40
0.0
 40
0.0801399024652516
 40
0.1562809906190948
 40
0.229406049012902
 40
0.3017986969723052
 40
0.3727428627695778
 40
0.4426676099026291
 40
0.5133209646126978
 40
0.5865476923632091
 40
0.6683225082295051
 40
0.7636766255259053
 40
0.8740807567185483
 40
1.0
 40
1.0
 40
1.0
 40
1.0
 10
248.9393487775664
 20
183.120544833524
 30
0.0
 10
248.9389478832067
 20
183.136052534836
 30
0.0
 10
248.9381660982812
 20
183.166294135446
 30
0.0
 10
248.9307349644652
 20
183.2136325100037
 30
0.0
 10
248.9184599475165
 20
183.2606467197651
 30
0.0
 10
248.901180300395
 20
183.3068765994354
 30
0.0
 10
248.8799859112073
 20
183.3517197077524
 30
0.0
 10
248.8543428404178
 20
183.3941834871479
 30
0.0
 10
248.8244428309579
 20
183.4333942506435
 30
0.0
 10
248.7901939878702
 20
183.470392075344
 30
0.0
 10
248.7501639507318
 20
183.5057572025788
 30
0.0
 10
248.703247569729
 20
183.5411565955279
 30
0.0
 10
248.6486944026639
 20
183.5780150308023
 30
0.0
 10
248.6097108031167
 20
183.6009724252125
 30
0.0
 10
248.5889393268871
 20
183.6132047223277
 30
0.0
  0
LINE
  5
245
330
1F
100
AcDbEntity
  8
0
  6
Continuous
 62
     7
370
     0
100
AcDbLine
 10
248.5889393269
 20
183.6132047223
 30
0.0
 11
248.2687978022
 21
183.7980184907
 31
0.0
  0
LINE
  5
246
330
1F
100
AcDbEntity
  8
0
  6
Continuous
 62
     7
370
     0
100
AcDbLine
 10
248.2687978022
 20
183.7980184907
 30
0.0
 11
248.2687978022
 21
183.2172728532
 31
0.0
  0
LINE
  5
247
330
1F
100
AcDbEntity
  8
0
  6
Continuous
 62
     7
370
     0
100
AcDbLine
 10
246.9684411364
 20
184.4841711221
 30
0.0
 11
247.4643694619
 21
184.1978777937
 31
0.0
  0
LINE
  5
248
330
1F
100
AcDbEntity
  8
0
  6
Continuous
 62
     7
370
     0
100
AcDbLine
 10
247.4643694619
 20
184.1978777937
 30
0.0
 11
247.3232161533
 21
184.7203003668
 31
0.0
  0
SPLINE
  5
249
330
1F
100
AcDbEntity
  8
0
  6
Continuous
 62
     7
370
     0
100
AcDbSpline
210
0.0
220
0.0
230
1.0
 70
     8
 71
     3
 72
    15
 73
    11
 74
     0
 42
0.00000001
 43
0.00000001
 12
1.0
 22
0.0
 32
0.0
 13
1.0
 23
0.0
 33
0.0
 40
0.0
 40
0.0
 40
0.0
 40
0.0
 40
0.1531481085926314
 40
0.2994334688329076
 40
0.4364263514567513
 40
0.5656705729563589
 40
0.6865083102878727
 40
0.7992685160630044
 40
0.9033947408013447
 40
1.0
 40
1.0
 40
1.0
 40
1.0
 10
247.3232161532955
 20
184.7203003668062
 30
0.0
 10
247.3178048394008
 20
184.740461437383
 30
0.0
 10
247.3072246990038
 20
184.7798801370565
 30
0.0
 10
247.2914465221498
 20
184.8373866316138
 30
0.0
 10
247.2770318340313
 20
184.8916687308133
 30
0.0
 10
247.2628970486278
 20
184.9426929652756
 30
0.0
 10
247.2501373253737
 20
184.9904497613601
 30
0.0
 10
247.2383763613919
 20
185.0348835327733
 30
0.0
 10
247.2267448672496
 20
185.0762344636391
 30
0.0
 10
247.2197646439938
 20
185.1026426226994
 30
0.0
 10
247.2164052991432
 20
185.1153519745207
 30
0.0
  0
SPLINE
  5
24A
330
1F
100
AcDbEntity
  8
0
  6
Continuous
 62
     7
370
     0
100
AcDbSpline
210
0.0
220
0.0
230
1.0
 70
     8
 71
     3
 72
    11
 73
     7
 74
     0
 42
0.00000001
 43
0.00000001
 12
1.0
 22
0.0
 32
0.0
 13
1.0
 23
0.0
 33
0.0
 40
0.0
 40
0.0
 40
0.0
 40
0.0
 40
0.2472940500353361
 40
0.4956077709090487
 40
0.7463591727731966
 40
1.0
 40
1.0
 40
1.0
 40
1.0
 10
247.2164052991432
 20
185.1153519745207
 30
0.0
 10
247.2108482943476
 20
185.0920019867316
 30
0.0
 10
247.1997113714847
 20
185.0452057318389
 30
0.0
 10
247.1763933665229
 20
184.9806844850847
 30
0.0
 10
247.1497183787133
 20
184.9188143679315
 30
0.0
 10
247.1280551101125
 20
184.8815285231233
 30
0.0
 10
247.1171614264841
 20
184.862778804203
 30
0.0
  0
LINE
  5
24B
330
1F
100
AcDbEntity
  8
0
  6
Continuous
 62
     7
370
     0
100
AcDbLine
 10
247.1171614265
 20
184.8627788042
 30
0.0
 11
246.9684411364
 21
184.4841711221
 31
0.0
  0
LINE
  5
24C
330
1F
100
AcDbEntity
  8
0
  6
Continuous
 62
     7
370
     0
100
AcDbLine
 10
244.3572504458
 20
186.2281794962
 30
0.0
 11
244.7463679172
 21
186.0035467614
 31
0.0
  0
SPLINE
  5
24D
330
1F
100
AcDbEntity
  8
0
  6
Continuous
 62
     7
370
     0
100
AcDbSpline
210
0.0
220
0.0
230
1.0
 70
     8
 71
     3
 72
    19
 73
    15
 74
     0
 42
0.00000001
 43
0.00000001
 12
1.0
 22
0.0
 32
0.0
 13
1.0
 23
0.0
 33
0.0
 40
0.0
 40
0.0
 40
0.0
 40
0.0
 40
0.1288602680417313
 40
0.2408921848092289
 40
0.3380442015575111
 40
0.4201204852136087
 40
0.4940584568685508
 40
0.5660947835833201
 40
0.6368049543510104
 40
0.7091484493607204
 40
0.7819418055941272
 40
0.854285300603837
 40
0.9261704072165594
 40
1.0
 40
1.0
 40
1.0
 40
1.0
 10
244.7463679171538
 20
186.0035467614464
 30
0.0
 10
244.7658797410975
 20
185.9926353524631
 30
0.0
 10
244.8023552658721
 20
185.9722374967914
 30
0.0
 10
244.8533605168673
 20
185.9484201009911
 30
0.0
 10
244.8968283393909
 20
185.9322686939119
 30
0.0
 10
244.9336180302407
 20
185.9240734594538
 30
0.0
 10
244.9645271776741
 20
185.924338006501
 30
0.0
 10
244.9914094504712
 20
185.9308872044924
 30
0.0
 10
245.0137489575546
 20
185.9456333535692
 30
0.0
 10
245.032333119793
 20
185.9660935894969
 30
0.0
 10
245.046778970344
 20
185.9920757238424
 30
0.0
 10
245.0571995179303
 20
186.022109822197
 30
0.0
 10
245.064019947567
 20
186.0556474556308
 30
0.0
 10
245.06470643101
 20
186.0807561122643
 30
0.0
 10
245.0650542531121
 20
186.093477971502
 30
0.0
  0
SPLINE
  5
24E
330
1F
100
AcDbEntity
  8
0
  6
Continuous
 62
     7
370
     0
100
AcDbSpline
210
0.0
220
0.0
230
1.0
 70
     8
 71
     3
 72
    23
 73
    19
 74
     0
 42
0.00000001
 43
0.00000001
 12
1.0
 22
0.0
 32
0.0
 13
1.0
 23
0.0
 33
0.0
 40
0.0
 40
0.0
 40
0.0
 40
0.0
 40
0.0603255293380428
 40
0.1181599905079978
 40
0.1741866762963808
 40
0.2295388181458
 40
0.2834498146386372
 40
0.337826511950592
 40
0.3926321025334827
 40
0.4484655764151914
 40
0.5059654091573054
 40
0.5650585322290049
 40
0.6266544786228438
 40
0.692232033037364
 40
0.7611310781257619
 40
0.8353098773394204
 40
0.9153255598322018
 40
0.9999999999999999
 40
0.9999999999999999
 40
0.9999999999999999
 40
0.9999999999999999
 10
245.0650542531121
 20
186.093477971502
 30
0.0
 10
245.0647838359552
 20
186.1030513083877
 30
0.0
 10
245.0642541681835
 20
186.1218026630456
 30
0.0
 10
245.0614774745461
 20
186.1504786102104
 30
0.0
 10
245.0560789228719
 20
186.1793207316905
 30
0.0
 10
245.0489501486336
 20
186.2079502857178
 30
0.0
 10
245.0394246596497
 20
186.2365724810475
 30
0.0
 10
245.0281087673388
 20
186.2650164811539
 30
0.0
 10
245.014605414462
 20
186.2933900600638
 30
0.0
 10
244.9991381007158
 20
186.3216268786803
 30
0.0
 10
244.9813788136885
 20
186.3494472428603
 30
0.0
 10
244.96109353279
 20
186.3763151858249
 30
0.0
 10
244.9384422468389
 20
186.4022720995333
 30
0.0
 10
244.9133986274012
 20
186.4269523822175
 30
0.0
 10
244.8860415664538
 20
186.4509219403892
 30
0.0
 10
244.8562153262758
 20
186.4735799325382
 30
0.0
 10
244.8240563086331
 20
186.4960810654797
 30
0.0
 10
244.8017719743599
 20
186.5091731147822
 30
0.0
 10
244.7903146173635
 20
186.5159043135174
 30
0.0
  0
LINE
  5
24F
330
1F
100
AcDbEntity
  8
0
  6
Continuous
 62
     7
370
     0
100
AcDbLine
 10
244.7903146174
 20
186.5159043135
 30
0.0
 11
244.3572504458
 21
186.7659069383
 31
0.0
  0
LINE
  5
250
330
1F
100
AcDbEntity
  8
0
  6
Continuous
 62
     7
370
     0
100
AcDbLine
 10
244.3572504458
 20
186.7659069383
 30
0.0
 11
244.3572504458
 21
186.2281794962
 31
0.0
  0
SPLINE
  5
251
330
1F
100
AcDbEntity
  8
0
  6
Continuous
 62
     7
370
     0
100
AcDbSpline
210
0.0
220
0.0
230
1.0
 70
     8
 71
     3
 72
    23
 73
    19
 74
     0
 42
0.00000001
 43
0.00000001
 12
1.0
 22
0.0
 32
0.0
 13
1.0
 23
0.0
 33
0.0
 40
0.0
 40
0.0
 40
0.0
 40
0.0
 40
0.0759644026221998
 40
0.1481252239748712
 40
0.2172006111446031
 40
0.2832999093723609
 40
0.347201868136241
 40
0.4092995407059238
 40
0.4704256161074026
 40
0.5315880640528348
 40
0.5917391729173695
 40
0.6502577442905727
 40
0.7073030399522858
 40
0.7642084640229154
 40
0.8211475320101304
 40
0.8791188121552541
 40
0.9384228183936666
 40
1.0
 40
1.0
 40
1.0
 40
1.0
 10
242.71812583926
 20
187.042010607535
 30
0.0
 10
242.7184398243577
 20
187.0176079379623
 30
0.0
 10
242.7190520731387
 20
186.970024454498
 30
0.0
 10
242.7260565305843
 20
186.8971219808869
 30
0.0
 10
242.7366846760467
 20
186.8260146171183
 30
0.0
 10
242.7513344526791
 20
186.7562902438526
 30
0.0
 10
242.7710273400288
 20
186.6879650974244
 30
0.0
 10
242.7945727366346
 20
186.6211791990335
 30
0.0
 10
242.8227634215321
 20
186.5558284866514
 30
0.0
 10
242.8549774242122
 20
186.4924093027809
 30
0.0
 10
242.8904091341548
 20
186.4316898941643
 30
0.0
 10
242.9282715120117
 20
186.3746629701498
 30
0.0
 10
242.9685730690585
 20
186.3219454594291
 30
0.0
 10
243.0108669908486
 20
186.2732108532873
 30
0.0
 10
243.0554570548626
 20
186.2284864813908
 30
0.0
 10
243.1022097134011
 20
186.1881673085147
 30
0.0
 10
243.1511593176754
 20
186.1515728222711
 30
0.0
 10
243.1845369112947
 20
186.1313375712112
 30
0.0
 10
243.2015395415676
 20
186.1210296833456
 30
0.0
  0
SPLINE
  5
252
330
1F
100
AcDbEntity
  8
0
  6
Continuous
 62
     7
370
     0
100
AcDbSpline
210
0.0
220
0.0
230
1.0
 70
     8
 71
     3
 72
    23
 73
    19
 74
     0
 42
0.00000001
 43
0.00000001
 12
1.0
 22
0.0
 32
0.0
 13
1.0
 23
0.0
 33
0.0
 40
0.0
 40
0.0
 40
0.0
 40
0.0
 40
0.0610549117432832
 40
0.1195453450847438
 40
0.1768063562451035
 40
0.2329564830316851
 40
0.2885834899465034
 40
0.3446666617213001
 40
0.4016615108374461
 40
0.4605400973082778
 40
0.5204770623221884
 40
0.5812128653554004
 40
0.6434307597220102
 40
0.7079608695212422
 40
0.7753707435336737
 40
0.8464136772813298
 40
0.9211518871893691
 40
1.0
 40
1.0
 40
1.0
 40
1.0
 10
243.2015395415676
 20
186.1210296833456
 30
0.0
 10
243.2188303671954
 20
186.1115476645956
 30
0.0
 10
243.2526857550332
 20
186.0929818986122
 30
0.0
 10
243.3023733410381
 20
186.0724888184006
 30
0.0
 10
243.349582109904
 20
186.0591805239484
 30
0.0
 10
243.3947799848982
 20
186.0516519641825
 30
0.0
 10
243.4371498321672
 20
186.0522872190634
 30
0.0
 10
243.4776825614009
 20
186.0582741011382
 30
0.0
 10
243.5152732451733
 20
186.0724822243648
 30
0.0
 10
243.5508446284072
 20
186.0922836328207
 30
0.0
 10
243.5827497629779
 20
186.1197148390378
 30
0.0
 10
243.6110588532853
 20
186.1536058919584
 30
0.0
 10
243.6340551656306
 20
186.1957012162929
 30
0.0
 10
243.6539093775577
 20
186.2435279633626
 30
0.0
 10
243.6684477757936
 20
186.2994615633052
 30
0.0
 10
243.679192542989
 20
186.3618920164685
 30
0.0
 10
243.6856675671796
 20
186.4313149480955
 30
0.0
 10
243.6863494206089
 20
186.4811449115377
 30
0.0
 10
243.6866994703736
 20
186.5067266072857
 30
0.0
  0
SPLINE
  5
253
330
1F
100
AcDbEntity
  8
0
  6
Continuous
 62
     7
370
     0
100
AcDbSpline
210
0.0
220
0.0
230
1.0
 70
     8
 71
     3
 72
    31
 73
    27
 74
     0
 42
0.00000001
 43
0.00000001
 12
1.0
 22
0.0
 32
0.0
 13
1.0
 23
0.0
 33
0.0
 40
0.0
 40
0.0
 40
0.0
 40
0.0
 40
0.0508516157922844
 40
0.0997524678094166
 40
0.147437647776932
 40
0.1940857839327045
 40
0.2391709270841441
 40
0.2833398222454341
 40
0.3265771497238442
 40
0.3689362814999021
 40
0.4105718726814497
 40
0.4510505934949119
 40
0.4908768629924158
 40
0.5300443324843861
 40
0.5689366633103305
 40
0.6075778621311334
 40
0.6464200964505131
 40
0.6856793513063945
 40
0.7247985849801969
 40
0.7635130084045113
 40
0.8021725263787551
 40
0.8407403615726128
 40
0.8796493769005861
 40
0.9190706128663401
 40
0.9590978622172245
 40
0.9999999999999999
 40
0.9999999999999999
 40
0.9999999999999999
 40
0.9999999999999999
 10
243.6866994703736
 20
186.5067266072857
 30
0.0
 10
243.6865757629216
 20
186.5233856247816
 30
0.0
 10
243.6863330936685
 20
186.5560645884801
 30
0.0
 10
243.6831193394391
 20
186.6058825214818
 30
0.0
 10
243.6789740088637
 20
186.6547463283353
 30
0.0
 10
243.6726626786175
 20
186.7033086625463
 30
0.0
 10
243.6639648647686
 20
186.75151078748
 30
0.0
 10
243.6543291640642
 20
186.7988451837496
 30
0.0
 10
243.6422800572966
 20
186.8458036838465
 30
0.0
 10
243.6286086664539
 20
186.8920864580691
 30
0.0
 10
243.6133106115943
 20
186.9374989456253
 30
0.0
 10
243.5960564403168
 20
186.9819229420295
 30
0.0
 10
243.5770466814876
 20
187.0251086984655
 30
0.0
 10
243.5567942405651
 20
187.0673708212783
 30
0.0
 10
243.5341776518925
 20
187.10817350994
 30
0.0
 10
243.510285917636
 20
187.1480601181132
 30
0.0
 10
243.4845763378718
 20
187.1868048278126
 30
0.0
 10
243.4573054847754
 20
187.2242657668993
 30
0.0
 10
243.428860230759
 20
187.2602363148636
 30
0.0
 10
243.3992992155184
 20
187.2940333204101
 30
0.0
 10
243.369093388096
 20
187.3261675529034
 30
0.0
 10
243.3377371456733
 20
187.3555348246535
 30
0.0
 10
243.3056634575267
 20
187.3831365217272
 30
0.0
 10
243.2727426647228
 20
187.4090429169201
 30
0.0
 10
243.238852574023
 20
187.4321812329937
 30
0.0
 10
243.2159998207357
 20
187.4459531933713
 30
0.0
 10
243.2044499190649
 20
187.452913614559
 30
0.0
  0
SPLINE
  5
254
330
1F
100
AcDbEntity
  8
0
  6
Continuous
 62
     7
370
     0
100
AcDbSpline
210
0.0
220
0.0
230
1.0
 70
     8
 71
     3
 72
    23
 73
    19
 74
     0
 42
0.00000001
 43
0.00000001
 12
1.0
 22
0.0
 32
0.0
 13
1.0
 23
0.0
 33
0.0
 40
0.0
 40
0.0
 40
0.0
 40
0.0
 40
0.0559431333569187
 40
0.1103820356898408
 40
0.16404785888285
 40
0.2167594775435861
 40
0.2696011346144475
 40
0.3230085051908687
 40
0.3775814436721363
 40
0.433449336708054
 40
0.4909218580498929
 40
0.5506247708713257
 40
0.6131168723098183
 40
0.6798607463518507
 40
0.7513577440202002
 40
0.8282611012589941
 40
0.9107950320656291
 40
1.0
 40
1.0
 40
1.0
 40
1.0
 10
243.2044499190649
 20
187.452913614559
 30
0.0
 10
243.1881257086125
 20
187.46196301527
 30
0.0
 10
243.1559162224318
 20
187.4798184912208
 30
0.0
 10
243.1085000243833
 20
187.4989798754123
 30
0.0
 10
243.0627856683929
 20
187.5131012514168
 30
0.0
 10
243.0187022106628
 20
187.5213974300757
 30
0.0
 10
242.9766266902347
 20
187.5229742937624
 30
0.0
 10
242.9363411174238
 20
187.5183764979442
 30
0.0
 10
242.8974878987393
 20
187.5085689017826
 30
0.0
 10
242.8606796940433
 20
187.4924123750733
 30
0.0
 10
242.8263663961969
 20
187.4692512881695
 30
0.0
 10
242.7973579452676
 20
187.4353375130071
 30
0.0
 10
242.7729088302887
 20
187.3923107844217
 30
0.0
 10
242.7524942696671
 20
187.3406188912953
 30
0.0
 10
242.7369287683864
 20
187.2793000427446
 30
0.0
 10
242.7261710600449
 20
187.208680615153
 30
0.0
 10
242.7193788624847
 20
187.1291658880508
 30
0.0
 10
242.718554191526
 20
187.0718050767547
 30
0.0
 10
242.71812583926
 20
187.042010607535
 30
0.0
  0
SPLINE
  5
255
330
1F
100
AcDbEntity
  8
0
  6
Continuous
 62
     7
370
     0
100
AcDbSpline
210
0.0
220
0.0
230
1.0
 70
     8
 71
     3
 72
    23
 73
    19
 74
     0
 42
0.00000001
 43
0.00000001
 12
1.0
 22
0.0
 32
0.0
 13
1.0
 23
0.0
 33
0.0
 40
0.0
 40
0.0
 40
0.0
 40
0.0
 40
0.1184055081537696
 40
0.2266543328167019
 40
0.3240923419286022
 40
0.4117048030053222
 40
0.4890259050064155
 40
0.5569093973430757
 40
0.6162333444927066
 40
0.6673492812770747
 40
0.7135123932013475
 40
0.7576965045209785
 40
0.7994925114422908
 40
0.839976064743939
 40
0.8798857418167761
 40
0.9191486593857415
 40
0.9592273564930828
 40
1.0
 40
1.0
 40
1.0
 40
1.0
 10
247.1605260532341
 20
178.7311692175892
 30
0.0
 10
247.1607109987333
 20
178.6987939926061
 30
0.0
 10
247.1610650253269
 20
178.6368206508861
 30
0.0
 10
247.1647637438782
 20
178.5464378004873
 30
0.0
 10
247.1711309356233
 20
178.4631506947508
 30
0.0
 10
247.1795487789945
 20
178.3874262216669
 30
0.0
 10
247.1906637404872
 20
178.3187953252055
 30
0.0
 10
247.2046198892456
 20
178.2573333773769
 30
0.0
 10
247.2203517883199
 20
178.2030144579527
 30
0.0
 10
247.2398197153142
 20
178.1552676016431
 30
0.0
 10
247.2611349451256
 20
178.1132030226844
 30
0.0
 10
247.2831414631856
 20
178.0749047473143
 30
0.0
 10
247.3063570067933
 20
178.0397482298297
 30
0.0
 10
247.3306300973325
 20
178.0075968819525
 30
0.0
 10
247.3563373492702
 20
177.9790229005
 30
0.0
 10
247.3831976580795
 20
177.9535627023222
 30
0.0
 10
247.4112168683343
 20
177.9316591409617
 30
0.0
 10
247.4302992237188
 20
177.9198200661515
 30
0.0
 10
247.4399222932617
 20
177.9138497214049
 30
0.0
  0
SPLINE
  5
256
330
1F
100
AcDbEntity
  8
0
  6
Continuous
 62
     7
370
     0
100
AcDbSpline
210
0.0
220
0.0
230
1.0
 70
     8
 71
     3
 72
    23
 73
    19
 74
     0
 42
0.00000001
 43
0.00000001
 12
1.0
 22
0.0
 32
0.0
 13
1.0
 23
0.0
 33
0.0
 40
0.0
 40
0.0
 40
0.0
 40
0.0
 40
0.0407818458722599
 40
0.080869588721587
 40
0.1202681657882672
 40
0.1601868504553521
 40
0.2004597376386394
 40
0.2422651778979079
 40
0.2864592615494688
 40
0.3329520837492635
 40
0.3844305340495301
 40
0.4433891253601061
 40
0.5116814722136833
 40
0.5890200255490083
 40
0.6762451906507722
 40
0.7737051914728239
 40
0.8815677677819828
 40
1.0
 40
1.0
 40
1.0
 40
1.0
 10
247.4399222932617
 20
177.9138497214049
 30
0.0
 10
247.4495429530777
 20
177.9087199668863
 30
0.0
 10
247.4686205300217
 20
177.8985477657685
 30
0.0
 10
247.496704481219
 20
177.8879373442895
 30
0.0
 10
247.5234602827616
 20
177.8829580495754
 30
0.0
 10
247.5491292052233
 20
177.8818246902618
 30
0.0
 10
247.5735787198619
 20
177.8854356392618
 30
0.0
 10
247.5966802450227
 20
177.8939360536319
 30
0.0
 10
247.6188026890011
 20
177.9067440244917
 30
0.0
 10
247.6400221713415
 20
177.9245997374538
 30
0.0
 10
247.659341779853
 20
177.9501238159731
 30
0.0
 10
247.6753687900369
 20
177.9860718571628
 30
0.0
 10
247.6891074399962
 20
178.0316394664875
 30
0.0
 10
247.7002833914354
 20
178.0873703948705
 30
0.0
 10
247.7087359596641
 20
178.1532437438556
 30
0.0
 10
247.7150646546512
 20
178.2289808642043
 30
0.0
 10
247.7187881259272
 20
178.3149654297546
 30
0.0
 10
247.7191363099055
 20
178.3764217767758
 30
0.0
 10
247.7193185332893
 20
178.4085851852475
 30
0.0
  0
SPLINE
  5
257
330
1F
100
AcDbEntity
  8
0
  6
Continuous
 62
     7
370
     0
100
AcDbSpline
210
0.0
220
0.0
230
1.0
 70
     8
 71
     3
 72
    23
 73
    19
 74
     0
 42
0.00000001
 43
0.00000001
 12
1.0
 22
0.0
 32
0.0
 13
1.0
 23
0.0
 33
0.0
 40
0.0
 40
0.0
 40
0.0
 40
0.0
 40
0.1156291309254417
 40
0.2215410391198766
 40
0.3170478562190415
 40
0.4031508756396167
 40
0.4801812167162794
 40
0.5476493661481896
 40
0.607035842842181
 40
0.6586524080635069
 40
0.7057228903536459
 40
0.7498040879796473
 40
0.7925868153452743
 40
0.8338739610102607
 40
0.8747683933034326
 40
0.9152226988916382
 40
0.95688070373048
 40
1.0
 40
1.0
 40
1.0
 40
1.0
 10
247.7193185332893
 20
178.4085851852475
 30
0.0
 10
247.7191421443873
 20
178.440284210967
 30
0.0
 10
247.7188041899261
 20
178.5010183446647
 30
0.0
 10
247.7149846852292
 20
178.5897708307452
 30
0.0
 10
247.7089991781061
 20
178.6715013497121
 30
0.0
 10
247.7008119552291
 20
178.7463026808693
 30
0.0
 10
247.6899311375436
 20
178.814382703988
 30
0.0
 10
247.6767341899592
 20
178.8756550741633
 30
0.0
 10
247.6610080536599
 20
178.9301283618998
 30
0.0
 10
247.6423097337185
 20
178.9785142942094
 30
0.0
 10
247.6214947623501
 20
179.0213658496111
 30
0.0
 10
247.5997515515186
 20
179.0606085976399
 30
0.0
 10
247.5765365187609
 20
179.0967098872128
 30
0.0
 10
247.551438363553
 20
179.1294086467888
 30
0.0
 10
247.525266046641
 20
179.1592086761438
 30
0.0
 10
247.4974181947049
 20
179.1853956690161
 30
0.0
 10
247.4681685301221
 20
179.2084928818839
 30
0.0
 10
247.4480948647948
 20
179.2208140142638
 30
0.0
 10
247.4378850290115
 20
179.2270807690498
 30
0.0
  0
SPLINE
  5
258
330
1F
100
AcDbEntity
  8
0
  6
Continuous
 62
     7
370
     0
100
AcDbSpline
210
0.0
220
0.0
230
1.0
 70
     8
 71
     3
 72
    15
 73
    11
 74
     0
 42
0.00000001
 43
0.00000001
 12
1.0
 22
0.0
 32
0.0
 13
1.0
 23
0.0
 33
0.0
 40
0.0
 40
0.0
 40
0.0
 40
0.0
 40
0.1276647678962246
 40
0.2517385630080489
 40
0.3727533493873891
 40
0.492146758972386
 40
0.6140696213092451
 40
0.7371973244121082
 40
0.8656069906011162
 40
1.0
 40
1.0
 40
1.0
 40
1.0
 10
247.4378850290115
 20
179.2270807690498
 30
0.0
 10
247.4282625638505
 20
179.2323440625334
 30
0.0
 10
247.4092882955998
 20
179.2427226028315
 30
0.0
 10
247.3815074819603
 20
179.2532710724955
 30
0.0
 10
247.3551799312344
 20
179.2592907244961
 30
0.0
 10
247.3300040147949
 20
179.2613907339519
 30
0.0
 10
247.3066082359674
 20
179.2581634744691
 30
0.0
 10
247.2840647763457
 20
179.2516401535147
 30
0.0
 10
247.2634294843564
 20
179.2397485332658
 30
0.0
 10
247.2509948384505
 20
179.2291313129657
 30
0.0
 10
247.2446359629924
 20
179.2237018393716
 30
0.0
  0
SPLINE
  5
259
330
1F
100
AcDbEntity
  8
0
  6
Continuous
 62
     7
370
     0
100
AcDbSpline
210
0.0
220
0.0
230
1.0
 70
     8
 71
     3
 72
    15
 73
    11
 74
     0
 42
0.00000001
 43
0.00000001
 12
1.0
 22
0.0
 32
0.0
 13
1.0
 23
0.0
 33
0.0
 40
0.0
 40
0.0
 40
0.0
 40
0.0
 40
0.0838881132795454
 40
0.1771540327539692
 40
0.2825136355617228
 40
0.3993998606601629
 40
0.5294908061912198
 40
0.6728021776758327
 40
0.8295357616196696
 40
0.9999999999999999
 40
0.9999999999999999
 40
0.9999999999999999
 40
0.9999999999999999
 10
247.2446359629924
 20
179.2237018393716
 30
0.0
 10
247.2377130875547
 20
179.2143326991704
 30
0.0
 10
247.2230934322294
 20
179.1945470477212
 30
0.0
 10
247.2067348879899
 20
179.1549337282207
 30
0.0
 10
247.1922843966905
 20
179.107213113375
 30
0.0
 10
247.1803868513588
 20
179.0501503489148
 30
0.0
 10
247.171779811964
 20
178.9834293180346
 30
0.0
 10
247.1649848871716
 20
178.9079867319996
 30
0.0
 10
247.1614551766619
 20
178.8228729308881
 30
0.0
 10
247.1608443059802
 20
178.7625805002215
 30
0.0
 10
247.1605260532341
 20
178.7311692175892
 30
0.0
  0
LINE
  5
25A
330
1F
100
AcDbEntity
  8
0
  6
Continuous
 62
     7
370
     0
100
AcDbLine
 10
243.0068352848
 20
181.2688529931
 30
0.0
 11
243.3063131296
 21
181.0959681132
 31
0.0
  0
SPLINE
  5
25B
330
1F
100
AcDbEntity
  8
0
  6
Continuous
 62
     7
370
     0
100
AcDbSpline
210
0.0
220
0.0
230
1.0
 70
     8
 71
     3
 72
    15
 73
    11
 74
     0
 42
0.00000001
 43
0.00000001
 12
1.0
 22
0.0
 32
0.0
 13
1.0
 23
0.0
 33
0.0
 40
0.0
 40
0.0
 40
0.0
 40
0.0
 40
0.1669801744060311
 40
0.3208066328848169
 40
0.4631345048703169
 40
0.5942480539785209
 40
0.7123671525397444
 40
0.8194549510427509
 40
0.9157522665813524
 40
1.0
 40
1.0
 40
1.0
 40
1.0
 10
243.3063131296034
 20
181.0959681132474
 30
0.0
 10
243.316112790352
 20
181.0903556610197
 30
0.0
 10
243.334940152219
 20
181.0795728725373
 30
0.0
 10
243.3620981731548
 20
181.0650942029174
 30
0.0
 10
243.3871637247062
 20
181.0516473615222
 30
0.0
 10
243.4100398499697
 20
181.04100939216
 30
0.0
 10
243.4308398791185
 20
181.0315171666904
 30
0.0
 10
243.4494805729598
 20
181.0241422110761
 30
0.0
 10
243.4660532346363
 20
181.0183903701762
 30
0.0
 10
243.4762006781908
 20
181.0160714024583
 30
0.0
 10
243.4809357796207
 20
181.0149893025877
 30
0.0
  0
SPLINE
  5
25C
330
1F
100
AcDbEntity
  8
0
  6
Continuous
 62
     7
370
     0
100
AcDbSpline
210
0.0
220
0.0
230
1.0
 70
     8
 71
     3
 72
    15
 73
    11
 74
     0
 42
0.00000001
 43
0.00000001
 12
1.0
 22
0.0
 32
0.0
 13
1.0
 23
0.0
 33
0.0
 40
0.0
 40
0.0
 40
0.0
 40
0.0
 40
0.1323768784386561
 40
0.2551949197670694
 40
0.3737221416536695
 40
0.490011315447418
 40
0.6078124214239353
 40
0.7311098159015443
 40
0.8599973777575853
 40
1.0
 40
1.0
 40
1.0
 40
1.0
 10
243.4809357796207
 20
181.0149893025877
 30
0.0
 10
243.4920615698574
 20
181.0130670540697
 30
0.0
 10
243.5135097651942
 20
181.0093613611866
 30
0.0
 10
243.5422523531925
 20
181.0124728835313
 30
0.0
 10
243.5667326837011
 20
181.0219857116264
 30
0.0
 10
243.5868851548026
 20
181.0383552295617
 30
0.0
 10
243.6023713302724
 20
181.0616269504604
 30
0.0
 10
243.613853882366
 20
181.0907503293516
 30
0.0
 10
243.6201408344155
 20
181.1269132611921
 30
0.0
 10
243.6210392409767
 20
181.1539891923587
 30
0.0
 10
243.6215070128845
 20
181.1680867741492
 30
0.0
  0
SPLINE
  5
25D
330
1F
100
AcDbEntity
  8
0
  6
Continuous
 62
     7
370
     0
100
AcDbSpline
210
0.0
220
0.0
230
1.0
 70
     8
 71
     3
 72
    23
 73
    19
 74
     0
 42
0.00000001
 43
0.00000001
 12
1.0
 22
0.0
 32
0.0
 13
1.0
 23
0.0
 33
0.0
 40
0.0
 40
0.0
 40
0.0
 40
0.0
 40
0.0760105192062331
 40
0.1481357362434486
 40
0.2177881778331541
 40
0.2867678984972349
 40
0.3540434632439191
 40
0.4186108400234797
 40
0.4836364388553448
 40
0.5502295626461514
 40
0.586927811313815
 40
0.6291578250269657
 40
0.6772382242876697
 40
0.7300426397437303
 40
0.788862566116924
 40
0.853750451461094
 40
0.9241097665384562
 40
1.0
 40
1.0
 40
1.0
 40
1.0
 10
243.6215070128845
 20
181.1680867741492
 30
0.0
 10
243.6211308926
 20
181.1821121169319
 30
0.0
 10
243.6203978775404
 20
181.2094458925842
 30
0.0
 10
243.6142448715031
 20
181.2520768261965
 30
0.0
 10
243.6035973218612
 20
181.2945792465405
 30
0.0
 10
243.5891776239017
 20
181.3365281485459
 30
0.0
 10
243.5709184549237
 20
181.3769828424458
 30
0.0
 10
243.5491254998163
 20
181.4152825995131
 30
0.0
 10
243.5230190778489
 20
181.4497959113879
 30
0.0
 10
243.4986173931466
 20
181.4760109103507
 30
0.0
 10
243.476670011675
 20
181.4962682012829
 30
0.0
 10
243.4570607971382
 20
181.5120774750394
 30
0.0
 10
243.4348180991582
 20
181.5288732681672
 30
0.0
 10
243.4098687230993
 20
181.546638949307
 30
0.0
 10
243.3822032313209
 20
181.5652196728064
 30
0.0
 10
243.3517363816193
 20
181.5848811040904
 30
0.0
 10
243.3185406983172
 20
181.6049248341667
 30
0.0
 10
243.2955449105165
 20
181.6183335360017
 30
0.0
 10
243.2836121851012
 20
181.6252914344899
 30
0.0
  0
LINE
  5
25E
330
1F
100
AcDbEntity
  8
0
  6
Continuous
 62
     7
370
     0
100
AcDbLine
 10
243.2836121851
 20
181.6252914345
 30
0.0
 11
243.0068352848
 21
181.785071338
 31
0.0
  0
LINE
  5
25F
330
1F
100
AcDbEntity
  8
0
  6
Continuous
 62
     7
370
     0
100
AcDbLine
 10
243.0068352848
 20
181.785071338
 30
0.0
 11
243.0068352848
 21
181.2688529931
 31
0.0
  0
LINE
  5
260
330
1F
100
AcDbEntity
  8
0
  6
Continuous
 62
     7
370
     0
100
AcDbLine
 10
243.0068352848
 20
180.4945254757
 30
0.0
 11
243.3505508676
 21
180.2961026933
 31
0.0
  0
SPLINE
  5
261
330
1F
100
AcDbEntity
  8
0
  6
Continuous
 62
     7
370
     0
100
AcDbSpline
210
0.0
220
0.0
230
1.0
 70
     8
 71
     3
 72
    11
 73
     7
 74
     0
 42
0.00000001
 43
0.00000001
 12
1.0
 22
0.0
 32
0.0
 13
1.0
 23
0.0
 33
0.0
 40
0.0
 40
0.0
 40
0.0
 40
0.0
 40
0.3293954641291841
 40
0.6051903468528007
 40
0.8278865786947364
 40
1.0
 40
1.0
 40
1.0
 40
1.0
 10
243.3505508676078
 20
180.296102693294
 30
0.0
 10
243.3642299548833
 20
180.2883873991846
 30
0.0
 10
243.3893622122286
 20
180.2742122752785
 30
0.0
 10
243.423738230163
 20
180.2554133755334
 30
0.0
 10
243.4515246806229
 20
180.241927471036
 30
0.0
 10
243.4677504993143
 20
180.2353114501014
 30
0.0
 10
243.4748239868701
 20
180.2324272602409
 30
0.0
  0
SPLINE
  5
262
330
1F
100
AcDbEntity
  8
0
  6
Continuous
 62
     7
370
     0
100
AcDbSpline
210
0.0
220
0.0
230
1.0
 70
     8
 71
     3
 72
    19
 73
    15
 74
     0
 42
0.00000001
 43
0.00000001
 12
1.0
 22
0.0
 32
0.0
 13
1.0
 23
0.0
 33
0.0
 40
0.0
 40
0.0
 40
0.0
 40
0.0
 40
0.0889709576989553
 40
0.1722707767733147
 40
0.25031203046371
 40
0.3246551996215512
 40
0.3978444501802945
 40
0.4733008807185319
 40
0.5518258887444476
 40
0.6347494834982539
 40
0.7217660118923849
 40
0.8103926655611184
 40
0.9031752367994194
 40
1.0
 40
1.0
 40
1.0
 40
1.0
 10
243.4748239868701
 20
180.2324272602409
 30
0.0
 10
243.4849652681132
 20
180.2290343099128
 30
0.0
 10
243.5046014105399
 20
180.2224646808597
 30
0.0
 10
243.5322836599478
 20
180.2171214398997
 30
0.0
 10
243.5576647829954
 20
180.2146549168544
 30
0.0
 10
243.5803017905301
 20
180.2170735054963
 30
0.0
 10
243.6012631163916
 20
180.2228200985834
 30
0.0
 10
243.6194800686282
 20
180.2345958188616
 30
0.0
 10
243.6362587463587
 20
180.2502373432692
 30
0.0
 10
243.6507959934065
 20
180.2708297822619
 30
0.0
 10
243.6625514685109
 20
180.2961081954655
 30
0.0
 10
243.6715359770074
 20
180.325570922816
 30
0.0
 10
243.676321780645
 20
180.3599206920414
 30
0.0
 10
243.6770264267496
 20
180.3849936929081
 30
0.0
 10
243.6773862608901
 20
180.3977974558999
 30
0.0
  0
SPLINE
  5
263
330
1F
100
AcDbEntity
  8
0
  6
Continuous
 62
     7
370
     0
100
AcDbSpline
210
0.0
220
0.0
230
1.0
 70
     8
 71
     3
 72
    19
 73
    15
 74
     0
 42
0.00000001
 43
0.00000001
 12
1.0
 22
0.0
 32
0.0
 13
1.0
 23
0.0
 33
0.0
 40
0.0
 40
0.0
 40
0.0
 40
0.0
 40
0.0801399024652512
 40
0.1562809906190944
 40
0.2294060490129018
 40
0.3017986969723058
 40
0.372742862769578
 40
0.442667609902629
 40
0.5133209646126977
 40
0.5865476923632089
 40
0.6683225082295053
 40
0.7636766255259048
 40
0.8740807567185482
 40
1.0
 40
1.0
 40
1.0
 40
1.0
 10
243.6773862608901
 20
180.3977974558999
 30
0.0
 10
243.6769853665299
 20
180.4133051572276
 30
0.0
 10
243.6762035816036
 20
180.4435467578682
 30
0.0
 10
243.6687724477801
 20
180.4908851324739
 30
0.0
 10
243.6564974308189
 20
180.537899342283
 30
0.0
 10
243.63921778368
 20
180.5841292220002
 30
0.0
 10
243.6180233944708
 20
180.6289723303627
 30
0.0
 10
243.5923803236552
 20
180.6714361098012
 30
0.0
 10
243.562480314165
 20
180.7106468733365
 30
0.0
 10
243.5282314710426
 20
180.7476446980746
 30
0.0
 10
243.4882014338636
 20
180.7830098253453
 30
0.0
 10
243.4412850528132
 20
180.8184092183303
 30
0.0
 10
243.3867318856929
 20
180.8552676536421
 30
0.0
 10
243.3477482861061
 20
180.8782250480755
 30
0.0
 10
243.3269768098555
 20
180.8904573452031
 30
0.0
  0
LINE
  5
264
330
1F
100
AcDbEntity
  8
0
  6
Continuous
 62
     7
370
     0
100
AcDbLine
 10
243.3269768099
 20
180.8904573452
 30
0.0
 11
243.0068352848
 21
181.0752711137
 31
0.0
  0
LINE
  5
265
330
1F
100
AcDbEntity
  8
0
  6
Continuous
 62
     7
370
     0
100
AcDbLine
 10
243.0068352848
 20
181.0752711137
 30
0.0
 11
243.0068352848
 21
180.4945254757
 31
0.0
  0
OLE2FRAME
  5
266
330
1F
100
AcDbEntity
  8
0
100
AcDbOle2Frame
 70
     2
  3
Bitmap Image
 10
229.0524258301
 20
33.6996297921
 30
0.0
 11
265.1686469208
 21
28.555479607
 31
0.0
 71
     2
 72
     0
 73
     1
 90
     7296
310
80557333EF78ADA16C40002412788DD94040000000000000000041161DC7B292
310
7040002412788DD94040000000000000000041161DC7B2927040F6DD59E9338E
310
3C4000000000000000007333EF78ADA16C40F6DD59E9338E3C40000000000000
310
00000000000001000000000100000100000001000000000001000000001C0000
310
D0CF11E0A1B11AE1000000000000000000000000000000003E000300FEFF0900
310
0600000000000000000000000100000001000000000000000010000002000000
310
01000000FEFFFFFF0000000000000000FFFFFFFFFFFFFFFFFFFFFFFFFFFFFFFF
310
FFFFFFFFFFFFFFFFFFFFFFFFFFFFFFFFFFFFFFFFFFFFFFFFFFFFFFFFFFFFFFFF
310
FFFFFFFFFFFFFFFFFFFFFFFFFFFFFFFFFFFFFFFFFFFFFFFFFFFFFFFFFFFFFFFF
310
FFFFFFFFFFFFFFFFFFFFFFFFFFFFFFFFFFFFFFFFFFFFFFFFFFFFFFFFFFFFFFFF
310
FFFFFFFFFFFFFFFFFFFFFFFFFFFFFFFFFFFFFFFFFFFFFFFFFFFFFFFFFFFFFFFF
310
FFFFFFFFFFFFFFFFFFFFFFFFFFFFFFFFFFFFFFFFFFFFFFFFFFFFFFFFFFFFFFFF
310
FFFFFFFFFFFFFFFFFFFFFFFFFFFFFFFFFFFFFFFFFFFFFFFFFFFFFFFFFFFFFFFF
310
FFFFFFFFFFFFFFFFFFFFFFFFFFFFFFFFFFFFFFFFFFFFFFFFFFFFFFFFFFFFFFFF
310
FFFFFFFFFFFFFFFFFFFFFFFFFFFFFFFFFFFFFFFFFFFFFFFFFFFFFFFFFFFFFFFF
310
FFFFFFFFFFFFFFFFFFFFFFFFFFFFFFFFFFFFFFFFFFFFFFFFFFFFFFFFFFFFFFFF
310
FFFFFFFFFFFFFFFFFFFFFFFFFFFFFFFFFFFFFFFFFFFFFFFFFFFFFFFFFFFFFFFF
310
FFFFFFFFFFFFFFFFFFFFFFFFFFFFFFFFFFFFFFFFFFFFFFFFFFFFFFFFFFFFFFFF
310
FFFFFFFFFFFFFFFFFFFFFFFFFFFFFFFFFFFFFFFFFFFFFFFFFFFFFFFFFFFFFFFF
310
FFFFFFFFFFFFFFFFFFFFFFFFFFFFFFFFFFFFFFFFFFFFFFFFFFFFFFFFFFFFFFFF
310
FDFFFFFFFEFFFFFFFEFFFFFFFEFFFFFF05000000060000000700000008000000
310
090000000A0000000B0000000C000000FEFFFFFFFFFFFFFFFFFFFFFFFFFFFFFF
310
FFFFFFFFFFFFFFFFFFFFFFFFFFFFFFFFFFFFFFFFFFFFFFFFFFFFFFFFFFFFFFFF
310
FFFFFFFFFFFFFFFFFFFFFFFFFFFFFFFFFFFFFFFFFFFFFFFFFFFFFFFFFFFFFFFF
310
FFFFFFFFFFFFFFFFFFFFFFFFFFFFFFFFFFFFFFFFFFFFFFFFFFFFFFFFFFFFFFFF
310
FFFFFFFFFFFFFFFFFFFFFFFFFFFFFFFFFFFFFFFFFFFFFFFFFFFFFFFFFFFFFFFF
310
FFFFFFFFFFFFFFFFFFFFFFFFFFFFFFFFFFFFFFFFFFFFFFFFFFFFFFFFFFFFFFFF
310
FFFFFFFFFFFFFFFFFFFFFFFFFFFFFFFFFFFFFFFFFFFFFFFFFFFFFFFFFFFFFFFF
310
FFFFFFFFFFFFFFFFFFFFFFFFFFFFFFFFFFFFFFFFFFFFFFFFFFFFFFFFFFFFFFFF
310
FFFFFFFFFFFFFFFFFFFFFFFFFFFFFFFFFFFFFFFFFFFFFFFFFFFFFFFFFFFFFFFF
310
FFFFFFFFFFFFFFFFFFFFFFFFFFFFFFFFFFFFFFFFFFFFFFFFFFFFFFFFFFFFFFFF
310
FFFFFFFFFFFFFFFFFFFFFFFFFFFFFFFFFFFFFFFFFFFFFFFFFFFFFFFFFFFFFFFF
310
FFFFFFFFFFFFFFFFFFFFFFFFFFFFFFFFFFFFFFFFFFFFFFFFFFFFFFFFFFFFFFFF
310
FFFFFFFFFFFFFFFFFFFFFFFFFFFFFFFFFFFFFFFFFFFFFFFFFFFFFFFFFFFFFFFF
310
FFFFFFFFFFFFFFFFFFFFFFFFFFFFFFFFFFFFFFFFFFFFFFFFFFFFFFFFFFFFFFFF
310
FFFFFFFFFFFFFFFFFFFFFFFFFFFFFFFFFFFFFFFFFFFFFFFFFFFFFFFFFFFFFFFF
310
52006F006F007400200045006E00740072007900000000000000000000000000
310
0000000000000000000000000000000000000000000000000000000000000000
310
16000500FFFFFFFFFFFFFFFF020000000A00030000000000C000000000000046
310
0000000000000000000000007033BF96D524CE0103000000C000000000000000
310
01004F006C006500000000000000000000000000000000000000000000000000
310
0000000000000000000000000000000000000000000000000000000000000000
310
0A000200FFFFFFFFFFFFFFFFFFFFFFFF00000000000000000000000000000000
310
0000000000000000000000000000000000000000000000001400000000000000
310
010043006F006D0070004F0062006A0000000000000000000000000000000000
310
0000000000000000000000000000000000000000000000000000000000000000
310
120002010100000003000000FFFFFFFF00000000000000000000000000000000
310
0000000000000000000000000000000000000000010000004D00000000000000
310
01004F006C006500310030004E00610074006900760065000000000000000000
310
0000000000000000000000000000000000000000000000000000000000000000
310
1A000200FFFFFFFFFFFFFFFFFFFFFFFF00000000000000000000000000000000
310
000000000000000000000000000000000000000004000000E411000000000000
310
FEFFFFFF02000000FEFFFFFFFFFFFFFFFFFFFFFFFFFFFFFFFFFFFFFFFFFFFFFF
310
FFFFFFFFFFFFFFFFFFFFFFFFFFFFFFFFFFFFFFFFFFFFFFFFFFFFFFFFFFFFFFFF
310
FFFFFFFFFFFFFFFFFFFFFFFFFFFFFFFFFFFFFFFFFFFFFFFFFFFFFFFFFFFFFFFF
310
FFFFFFFFFFFFFFFFFFFFFFFFFFFFFFFFFFFFFFFFFFFFFFFFFFFFFFFFFFFFFFFF
310
FFFFFFFFFFFFFFFFFFFFFFFFFFFFFFFFFFFFFFFFFFFFFFFFFFFFFFFFFFFFFFFF
310
FFFFFFFFFFFFFFFFFFFFFFFFFFFFFFFFFFFFFFFFFFFFFFFFFFFFFFFFFFFFFFFF
310
FFFFFFFFFFFFFFFFFFFFFFFFFFFFFFFFFFFFFFFFFFFFFFFFFFFFFFFFFFFFFFFF
310
FFFFFFFFFFFFFFFFFFFFFFFFFFFFFFFFFFFFFFFFFFFFFFFFFFFFFFFFFFFFFFFF
310
FFFFFFFFFFFFFFFFFFFFFFFFFFFFFFFFFFFFFFFFFFFFFFFFFFFFFFFFFFFFFFFF
310
FFFFFFFFFFFFFFFFFFFFFFFFFFFFFFFFFFFFFFFFFFFFFFFFFFFFFFFFFFFFFFFF
310
FFFFFFFFFFFFFFFFFFFFFFFFFFFFFFFFFFFFFFFFFFFFFFFFFFFFFFFFFFFFFFFF
310
FFFFFFFFFFFFFFFFFFFFFFFFFFFFFFFFFFFFFFFFFFFFFFFFFFFFFFFFFFFFFFFF
310
FFFFFFFFFFFFFFFFFFFFFFFFFFFFFFFFFFFFFFFFFFFFFFFFFFFFFFFFFFFFFFFF
310
FFFFFFFFFFFFFFFFFFFFFFFFFFFFFFFFFFFFFFFFFFFFFFFFFFFFFFFFFFFFFFFF
310
FFFFFFFFFFFFFFFFFFFFFFFFFFFFFFFFFFFFFFFFFFFFFFFFFFFFFFFFFFFFFFFF
310
FFFFFFFFFFFFFFFFFFFFFFFFFFFFFFFFFFFFFFFFFFFFFFFFFFFFFFFFFFFFFFFF
310
0100000200000000000000000000000000000000FFFFFF7FFFFFFF7FFFFFFF7F
310
FFFFFF7FFFFFFF7FFFFFFF7FFFFFFF7FFFFFFF7FFFFFFF7FFFFFFF7FFFFFFF7F
310
0100FEFF030A0000FFFFFFFF0A00030000000000C00000000000004607000000
310
5042727573680007000000504272757368000700000050427275736800F439B2
310
71000000000000000000000000FFFF7FFFFFFF7FFFFFFF7FFFFFFF7FFFFFFF7F
310
FFFFFF7FFFFFFF7FFFFFFF7FFFFFFF7FFFFFFF7FFFFFFF7FFFFFFF7FFFFFFF7F
310
FFFFFF7FFFFFFF7FFFFFFF7FFFFFFF7FFFFFFF7FFFFFFF7FFFFFFF7FFFFFFF7F
310
FFFFFF7FFFFFFF7FFFFFFF7FFFFFFF7FFFFFFF7FFFFFFF7FFFFFFF7FFFFFFF7F
310
FFFFFF7FFFFFFF7FFFFFFF7FFFFFFF7FFFFFFF7FFFFFFF7FFFFFFF7FFFFFFF7F
310
FFFFFF7FFFFFFF7FFFFFFF7FFFFFFF7FFFFFFF7FFFFFFF7FFFFFFF7FFFFFFF7F
310
FFFFFF7FFFFFFF7FFFFFFF7FFFFFFF7FFFFFFF7FFFFFFF7FFFFFFF7FFFFFFF7F
310
FFFFFF7FFFFFFF7FFFFFFF7FFFFFFF7FFFFFFF7FFFFFFF7FFFFFFF7FFFFFFF7F
310
FFFFFF7FFFFFFF7FFFFFFF7FFFFFFF7FFFFFFF7FFFFFFF7FFFFFFF7FFFFFFF7F
310
FFFFFF7FFFFFFF7FFFFFFF7FFFFFFF7FFFFFFF7FFFFFFF7FFFFFFF7FFFFFFF7F
310
FFFFFF7FFFFFFF7FFFFFFF7FFFFFFF7FFFFFFF7FFFFFFF7FFFFFFF7FFFFFFF7F
310
FFFFFF7FFFFFFF7FFFFFFF7FFFFFFF7FFFFFFF7FFFFFFF7FFFFFFF7FFFFFFF7F
310
E0110000424DDE11000000000000360400002800000096000000170000000100
310
08000000000000000000E7240000E72400000001000000010000000000FF0101
310
01FF020202FF030303FF040404FF050505FF060606FF070707FF080808FF0909
310
09FF0A0A0AFF0B0B0BFF0C0C0CFF0D0D0DFF0E0E0EFF0F0F0FFF101010FF1111
310
11FF121212FF131313FF141414FF151515FF161616FF171717FF181818FF1919
310
19FF1A1A1AFF1B1B1BFF1C1C1CFF1D1D1DFF1E1E1EFF1F1F1FFF202020FF2121
310
21FF222222FF232323FF242424FF252525FF262626FF272727FF282828FF2929
310
29FF2A2A2AFF2B2B2BFF2C2C2CFF2D2D2DFF2E2E2EFF2F2F2FFF303030FF3131
310
31FF323232FF333333FF343434FF353535FF363636FF373737FF383838FF3939
310
39FF3A3A3AFF3B3B3BFF3C3C3CFF3D3D3DFF3E3E3EFF3F3F3FFF404040FF4141
310
41FF424242FF434343FF444444FF454545FF464646FF474747FF484848FF4949
310
49FF4A4A4AFF4B4B4BFF4C4C4CFF4D4D4DFF4E4E4EFF4F4F4FFF505050FF5151
310
51FF525252FF535353FF545454FF555555FF565656FF575757FF585858FF5959
310
59FF5A5A5AFF5B5B5BFF5C5C5CFF5D5D5DFF5E5E5EFF5F5F5FFF606060FF6161
310
61FF626262FF636363FF646464FF656565FF666666FF676767FF686868FF6969
310
69FF6A6A6AFF6B6B6BFF6C6C6CFF6D6D6DFF6E6E6EFF6F6F6FFF707070FF7171
310
71FF727272FF737373FF747474FF757575FF767676FF777777FF787878FF7979
310
79FF7A7A7AFF7B7B7BFF7C7C7CFF7D7D7DFF7E7E7EFF7F7F7FFF808080FF8181
310
81FF828282FF838383FF848484FF858585FF868686FF878787FF888888FF8989
310
89FF8A8A8AFF8B8B8BFF8C8C8CFF8D8D8DFF8E8E8EFF8F8F8FFF909090FF9191
310
91FF929292FF939393FF949494FF959595FF969696FF979797FF989898FF9999
310
99FF9A9A9AFF9B9B9BFF9C9C9CFF9D9D9DFF9E9E9EFF9F9F9FFFA0A0A0FFA1A1
310
A1FFA2A2A2FFA3A3A3FFA4A4A4FFA5A5A5FFA6A6A6FFA7A7A7FFA8A8A8FFA9A9
310
A9FFAAAAAAFFABABABFFACACACFFADADADFFAEAEAEFFAFAFAFFFB0B0B0FFB1B1
310
B1FFB2B2B2FFB3B3B3FFB4B4B4FFB5B5B5FFB6B6B6FFB7B7B7FFB8B8B8FFB9B9
310
B9FFBABABAFFBBBBBBFFBCBCBCFFBDBDBDFFBEBEBEFFBFBFBFFFC0C0C0FFC1C1
310
C1FFC2C2C2FFC3C3C3FFC4C4C4FFC5C5C5FFC6C6C6FFC7C7C7FFC8C8C8FFC9C9
310
C9FFCACACAFFCBCBCBFFCCCCCCFFCDCDCDFFCECECEFFCFCFCFFFD0D0D0FFD1D1
310
D1FFD2D2D2FFD3D3D3FFD4D4D4FFD5D5D5FFD6D6D6FFD7D7D7FFD8D8D8FFD9D9
310
D9FFDADADAFFDBDBDBFFDCDCDCFFDDDDDDFFDEDEDEFFDFDFDFFFE0E0E0FFE1E1
310
E1FFE2E2E2FFE3E3E3FFE4E4E4FFE5E5E5FFE6E6E6FFE7E7E7FFE8E8E8FFE9E9
310
E9FFEAEAEAFFEBEBEBFFECECECFFEDEDEDFFEEEEEEFFEFEFEFFFF0F0F0FFF1F1
310
F1FFF2F2F2FFF3F3F3FFF4F4F4FFF5F5F5FFF6F6F6FFF7F7F7FFF8F8F8FFF9F9
310
F9FFFAFAFAFFFBFBFBFFFCFCFCFFFDFDFDFFFEFEFEFFFFFFFFFFFFFFFFFFFFFF
310
C94E4E4E4F4E4EFFFFFFFFFFC94E4E4E4E4E72FFFFFFFFFFFFFF734E4D4E4E4E
310
C9FFFFFFFFFFAA683516171616265B9BE9FFFFFFFFFF4E4E4E4D4E4EFFFFFFFF
310
FFFFFFFF4E4E4F4E4D4E4E4E4F4E4E4F4D4E4E4E4E4E4D4E4F4E4D4E4E4EAAFF
310
FFFFFFFFFFEA4E4F4F4E4E4E4E4E4D4D4F4F4E4E4E4E4E5B7FAAFFFFFFFFFFFF
310
C9744E1716171616164D8DEAFFFFFFFF0000FFFFFFFFFFFFBA161617161716FF
310
FFFFFFFFB917171616174FFFFFFFFFFFFFFF4E1716161616B9FFFFFFB9341717
310
1716171617171616268CFFFFFFFF161617161617FFFFFFFFFFFFFFB917161717
310
1617167F807F7F7F7F7F7F807F7F807F7F807F7F7F414EFFFFFFFFFFFF8C167F
310
7F807F7F7F7E7F7F807F807F7F807F4E3417258EFFFFEA4E162674AABAEAEBBA
310
AA74341680FFFFFF0000FFFFFFFFFFFFB9171717171617FFFFFFFFFFBB161616
310
16164EFFFFFFFFFFFFFF4E1717171717B9FFFF9C171617171716161616171616
310
171766FFFFFF161717161617FFFFFFFFFFFFFF8E16171717161616FFFFFFFFFF
310
FFFFFFFFFFFFFFFFFFFFFFFFFFAA16D9FFFFFFFFFF3467FFFFFFFFEAFFFFFFFF
310
FFFFFFFFFFFFFFFFFFCA671667EB26278DFFFFFFFFFFFFFFFFFFFF8C2541EAFF
310
0000FFFFFFFFFFFFB9171717171716FFFFFFFFFFBA16171617174EFFFFFFFFFF
310
FFFF4E1717161616BAFF9B1617161616171716171617161616161667FFFF1616
310
16161716FFFFFFFFFFFFFF7F16161617174017FFFFFFFFFFFFFFFFFFFFFFFFFF
310
FFFFFFFFFFFF344E7F7F7F7E7417DAFFFFFFFF80FFFFFFFFFFFFFFFFFFFFFFFF
310
FFFFFF9B163425CAFFFFFFFFFFFFFFFFFFFFFFFFCA2667FF0000FFFFFFFFFFFF
310
BA171717171617FFFFFFFFFFB916171716164EFFFFFFFFFFFFFF4F1716161717
310
B9C91716171616161716161617171616161617168DFF161716161717FFFFFFFF
310
FFFFFF7F17171716164F16FFFFFFFFFFFFFFFFFFFFFFFFFFFFFFFFFFFFFF9B16
310
17161617174EFFFFFFFFFF34FFFFFFFFD9BABABABABADAFFFFFFFFFF7F16AAFF
310
FFFFFFFFFFFFFFFFFFFFFFFFFF9C16BA0000FFFFFFFFFFFFB9161717161717FF
310
FFFFFFFFB917161716174DFFFFFFFFFFFFFF4E1616161616BA4E161617171716
310
419BEAEAAA4E16161617161726E9171717161616FFFFFFFFFFFFFF4F16161717
310
164E16FFFFFFFFFFBAB9B9B9B9B9BABABACAFFFFFFFFFFFFFFFFFFFFFFFFFFFF
310
FFFFBA16FFFFFFFF7F1617161617174DEAFFFFFFEA41FFFFFFFFFFAA4D16174E
310
9BFFFFFFFFFF34730000FFFFFFFFFFFFB9161617171617FFFFFFFFFFBA161616
310
16164EFFFFFFFFFFFFFF4F16161717169B1617161716175BFFFFFFFFFFFF7417
310
16171616168D171717161617FFFFFFFFFFFFEA2616171717167416FFFFFFFFFF
310
16171616171717171717EAFFFFFFFFFFFFFFFFFFFFFFFFFFFFFF6716FFFFFFFF
310
7F4EFFFFFFFFBA2573FFFFFFFFBAFFFFFFFFAA167FB9BB9B269BFFFFFFFF664F
310
0000FFFFFFFFFFFFB9171616161616FFFFFFFFFFBA16161717164EFFFFFFFFFF
310
FFFF4E16161616174E161617171626EAFFFFFFFFFFFFFF4E16161616164E1716
310
16161617FFFFFFFFFFFF671616161716347F16FFFFFFFFFF16B9FFFFFFFFFFFF
310
D9168DFFFFFFFFFFFFFFFFFFFFFFFFFFFFEA1716FFFFFFFF7F4EFFFFFFFFFF7F
310
4EFFFFFFFFFFFFFFFFFF5B66FFFFFFEA347FFFFFFFFF7F4D0000FFFFFFFFFFFF
310
B9171616171617FFFFFFFFFFBA17161716174EFFFFFFFFFFFFFF4D1716161617
310
17161716161673FFFFFFFFFFFFFFFF9B1617161717161616171616174F4E4E4E
310
4E341616171616167E7F16FFFFFFFFFF16BAFFFFFFFFFFFFFF5B41FFFFFFFF34
310
1616171616BAFFFFFF9B1716FFFFFFFF7F4EFFFFFFFFFF4E4EFFFFFFFF734E4E
310
4E4E267EDA9B67164EEAFFFFFFFF744D0000FFFFFFFFFFFFBA171717161617FF
310
FFFFFFFFBA1616171616347F7F7F7F80807F331616161717161717161716B9FF
310
FFFFFFFFFFFFFFE9161616161616171716161716171616161616171616171734
310
EA7F16FFFFFFFFFF16BAFFFFFFFFFFFFFFAA17C9FFFFFF7326BABA5B25FFFFFF
310
FF401716FFFFFFFF7F264F4E4E4E4217AAFFFFFFEA16677F73261616164173CA
310
FFFFFFFFFFFF417F0000FFFFFFFFFFFFBA171616171617FFFFFFFFFFBA161616
310
17171616161616161616161717161616161616161617EAFFFFFFFFFFFFFFFFFF
310
261717161716161617161616161617161617161616174EEAFF8016FFFFFFFFFF
310
17BAFFFFFFFFFFFFFFFF3467FFFFFFC916C9FF3467FFFFFFDA166716FFFFFFFF
310
9C4D4E4E4E4E67AAFFFFFFFF6834FF7F262567AAEAFFFFFFFFFFFFFFFF9B17D9
310
0000FFFFFFFFFFFFB9161616161616FFFFFFFFFFBA1617161717171616161616
310
1716171716161716161617171716FFFFFFFFFFFFFFFFFFFF4E17161716171616
310
1617171616161716171717161616169BFF7F17FFFFFFFFFF17B9FFFFFFFFFFFF
310
FFFF7326FFFFFFFF3473DA16AAFFFFFF7317AA16FFFFFFFFFFFFFFFFFFFFFFFF
310
FFFFEA6725BA4E167FEAFFFFFFFFFFFFFFFFFFFF9C167FFF0000FFFFFFFFFFFF
310
B9161717171716FFFFFFFFFFBA16161716171616171717161617161716161616
310
171617171617EAFFFFFFFFFFFFFFFFFF26161717161616161616161617171616
310
1616161616171616AA8016FFFFFFFFFF16BAFFFFFFFFFFFFFFFFDA179BFFFFFF
310
74348D26FFFFFFFF2566B917FFFFFFFFD8BAB9BAB9BADAFFFFEA41169B7425C9
310
FFFFFFFFFFFFFFFFFFFFAB4F1680FFFF0000FFFFFFFFFFFFBA161717171617FF
310
FFFFFFFFBA17161717161617171617161616161617171616171716171617BBFF
310
FFFFFFFFFFFFFFE9171616161617161617161716FFFFFFFFFFD9671616161617
310
348017FFFFFFFFFF16BAFFFFFFFFFFFFFFFFFF4E5AFFFFFFC916265AFFFFFFAA
310
16AABA16FFFFFFFF7F1617161616179BFFFFEB4127168DFFFFFFFFFFFFFFD99B
310
6734175AC9FFFFFF0000FFFFFFFFFFFFB9161617171617FFFFFFFFFFBB161616
310
1616347F807F7F7F7F8033171716171617171616161672FFFFFFFFFFFFFFFF9C
310
171617171617161716161617FFFFFFFFFFFFFF4117161616174E17FFFFFFFFFF
310
16BAFFFFFFFFFFFFFFFFFF9B16DAFFFFFF34169BFFFFFF5A26FFB917FFFFFFFF
310
7F4EFFFFFFEA5B26FFFFFFEA2616EAFFFFFFFFDA743416331617414E4E4E4ECA
310
0000FFFFFFFFFFFFBA161716161616FFFFFFFFFFBA17171616164EFFFFFFFFFF
310
FFFF4E16161717174E161717171626EBFFFFFFFFFFFFFF4E16161617165B1616
310
16171617FFFFFFFFFFFFFF6716161616161617FFFFFFFFFF16BAFFFFFFFFFFFF
310
FFFFFFEA268CFFFFFF7316EAFFFFEB1774FFB916FFFFFFFF7F4EFFFFFFFF7316
310
FFFFFFFF6826FFFFFFFFEB264D9CEABA257F807F7F6616BA0000FFFFFFFFFFFF
310
BA161716161616FFFFFFFFFFBA16171616164DFFFFFFFFFFFFFF4E1617161617
310
9B1617171717165BEBFFFFFFFFFF671616161617179B171616161616FFFFFFFF
310
FFFFFF3417161617171617FFFFFFFFFF17BAFFFFFFFFFFFFFFFFFFFF6734FFFF
310
FFEBCAFFFFFF8D17C9FFBA17FFFFFFFF7F357F808066174FFFFFFFFF7F16FFFF
310
FFFFD91673B99B415BFFFFFFFFBA16DA00009B7F7F7F807F671617161616167F
310
80807F7E6617161616164EFFFFFFFFFFFFFF4E1616161617B94E171716161616
310
349BC9D9AA4E16171616161634FF161617161717B9B9BAB9BA9B411716171716
310
163416FFFFFFFFFF16B9FFFFFFFFFFFFFFFFFFFFC917CAFFFFFFFFFFFFFF3342
310
FFFFBA17FFFFFFFF9B4E4E4F4E4E66EAFFFFFFFF5B16C9FFFFFFFFAA4E164E73
310
EAFFFFFFFF8D26FF00004E161716161616171617171616171717171617161616
310
17174EFFFFFFFFFFFFFF4E1717171616B9D92616171716171716171717171716
310
16171716AAFF161717171617161617171616161617161716166717FFFFFFFFFF
310
17B9FFFFFFFFFFFFFFFFFFFFFF3467FFFFFFFFFFFFCA168CFFFFBB17FFFFFFFF
310
FFFFFFFFFFFFFFFFFFFFFFEA26265BFFFFFFFFFFFFFFFFFFFFFFFFFFEA3467FF
310
00004D16161616161617161717161617161616171617171616164EFFFFFFFFFF
310
FFFF4D1617161616BAFF9B1616161616161716161616171717161766FFFF1616
310
16171617161617161716171616171717667F16FFFFFFFFFF17BAFFFFFFFFFFFF
310
FFFFFFFFFF8C26EAFFFFFFFFFF6617EAFFFFBA17FFFFFFFFFFFFFFFFFFFFFFFF
310
FFFFEA5A25BA269BFFFFFFFFFFFFFFFFFFFFFFFF6616DAFF00004E1616171616
310
1616161616161716161617171616171616174EFFFFFFFFFFFFFF4D1717171716
310
B9FFFF9C161616161616161716161717171667FFFFFF17161717171716161617
310
1716161616161641E97E16FFFFFFFFFF16B9FFFFFFFFFFFFFFFFFFFFFFEA169B
310
FFFFFFFFEA265BFFFFFFB916FFFFFFFFFFFFFFFFFFFFFFFFFF9B3416AAFF9B17
310
67EAFFFFFFFFFFFFFFFFEA5B169BFFFF00004D17161716161616161717171616
310
161717161716171716174EFFFFFFFFFFFFFF4D1616161616BAFFFFFFBB411616
310
161716161616171634ABFFFFFFFF161716161617171716171617171617267FFF
310
FF7F164E4E4E4E4F17BAFFFFFFFFFFFFFFFFFFFFFFFF66344D4E4E4F4117AAFF
310
FFFFBA174E4E4E4D4E4D4D4E4E4E4E4116174EBBFFFFFFCA342666ABEAFFFFEA
310
AA6725269CFFFFFF0000724F4E4D4D4D4E4D4D4E4E4E4D4E4E4E4E4E4E4E4E4D
310
4E4E74FFFFFFFFFFFFFF734E4E4E4D4ECAFFFFFFFFFFAA663416171717265B9B
310
FFFFFFFFFFFF7F8080807F80807F7F7F7F7F807FBAFFFFFFFF9B4E4E4F4D4D4E
310
4DC9FFFFFFFFFFFFFFFFFFFFFFFFBA4E4E4E4E4D4E4EFFFFFFFFC94E4E4E4F4E
310
4E4E4D4E4E5A807F9CD9FFFFFFFFFFFFFF9B5B2617171716174E8DEAFFFFFFFF
310
0000000000000000000000000000000000000000000000000000000000000000
  1
OLE
  0
ENDSEC
  0
SECTION
  2
OBJECTS
  0
DICTIONARY
  5
C
330
0
100
AcDbDictionary
281
     1
  3
ACAD_GROUP
350
D
  3
ACAD_LAYOUT
350
1A
  3
ACAD_MLINESTYLE
350
17
  3
ACAD_PLOTSETTINGS
350
19
  3
ACAD_PLOTSTYLENAME
350
E
  0
DICTIONARY
  5
D
102
{ACAD_REACTORS
330
C
102
}
330
C
100
AcDbDictionary
281
     1
  0
DICTIONARY
  5
1A
102
{ACAD_REACTORS
330
C
102
}
330
C
100
AcDbDictionary
281
     1
  3
Layout1
350
1E
  3
Layout2
350
26
  3
Model
350
22
  0
DICTIONARY
  5
17
102
{ACAD_REACTORS
330
C
102
}
330
C
100
AcDbDictionary
281
     1
  3
Standard
350
18
  0
DICTIONARY
  5
19
102
{ACAD_REACTORS
330
C
102
}
330
C
100
AcDbDictionary
281
     1
  0
ACDBDICTIONARYWDFLT
  5
E
102
{ACAD_REACTORS
330
C
102
}
330
C
100
AcDbDictionary
281
     1
  3
Normal
350
F
100
AcDbDictionaryWithDefault
340
F
  0
LAYOUT
  5
1E
102
{ACAD_REACTORS
330
1A
102
}
330
1A
100
AcDbPlotSettings
  1

  2
none_device
  4

  6

 40
0.0
 41
0.0
 42
0.0
 43
0.0
 44
0.0
 45
0.0
 46
0.0
 47
0.0
 48
0.0
 49
0.0
140
0.0
141
0.0
142
1.0
143
1.0
 70
   688
 72
     0
 73
     0
 74
     5
  7

 75
    16
147
1.0
148
0.0
149
0.0
100
AcDbLayout
  1
Layout1
 70
     1
 71
     1
 10
0.0
 20
0.0
 11
420.0
 21
297.0
 12
0.0
 22
0.0
 32
0.0
 14
1.0000000000E+20
 24
1.0000000000E+20
 34
1.0000000000E+20
 15
-1.0000000000E+20
 25
-1.0000000000E+20
 35
-1.0000000000E+20
146
0.0
 13
0.0
 23
0.0
 33
0.0
 16
1.0
 26
0.0
 36
0.0
 17
0.0
 27
1.0
 37
0.0
 76
     0
330
1B
  0
LAYOUT
  5
26
102
{ACAD_REACTORS
330
1A
102
}
330
1A
100
AcDbPlotSettings
  1

  2
none_device
  4

  6

 40
0.0
 41
0.0
 42
0.0
 43
0.0
 44
0.0
 45
0.0
 46
0.0
 47
0.0
 48
0.0
 49
0.0
140
0.0
141
0.0
142
1.0
143
1.0
 70
   688
 72
     0
 73
     0
 74
     5
  7

 75
    16
147
1.0
148
0.0
149
0.0
100
AcDbLayout
  1
Layout2
 70
     1
 71
     2
 10
0.0
 20
0.0
 11
0.0
 21
0.0
 12
0.0
 22
0.0
 32
0.0
 14
0.0
 24
0.0
 34
0.0
 15
0.0
 25
0.0
 35
0.0
146
0.0
 13
0.0
 23
0.0
 33
0.0
 16
1.0
 26
0.0
 36
0.0
 17
0.0
 27
1.0
 37
0.0
 76
     0
330
23
  0
LAYOUT
  5
22
102
{ACAD_REACTORS
330
1A
102
}
330
1A
100
AcDbPlotSettings
  1

  2
none_device
  4

  6

 40
0.0
 41
0.0
 42
0.0
 43
0.0
 44
0.0
 45
0.0
 46
0.0
 47
0.0
 48
0.0
 49
0.0
140
0.0
141
0.0
142
1.0
143
1.0
 70
  1712
 72
     0
 73
     0
 74
     0
  7

 75
     0
147
1.0
148
0.0
149
0.0
100
AcDbLayout
  1
Model
 70
     1
 71
     0
 10
0.0
 20
0.0
 11
279.4
 21
215.9
 12
0.0
 22
0.0
 32
0.0
 14
0.0
 24
0.0
 34
0.0
 15
279.4
 25
215.9
 35
0.0
146
0.0
 13
0.0
 23
0.0
 33
0.0
 16
1.0
 26
0.0
 36
0.0
 17
0.0
 27
1.0
 37
0.0
 76
     0
330
1F
331
29
  0
MLINESTYLE
  5
18
102
{ACAD_REACTORS
330
17
102
}
330
17
100
AcDbMlineStyle
  2
Standard
 70
     0
  3

 62
   256
 51
90.0
 52
90.0
 71
     2
 49
0.5
 62
   256
  6
BYLAYER
 49
-0.5
 62
   256
  6
BYLAYER
  0
ACDBPLACEHOLDER
  5
F
102
{ACAD_REACTORS
330
E
102
}
330
E
  0
ENDSEC
  0
EOF
