  0
SECTION
  2
HEADER
  9
$ACADVER
  1
AC1015
  9
$ACADMAINTVER
 70
     6
  9
$DWGCODEPAGE
  3
ANSI_1252
  9
$INSBASE
 10
0.0
 20
0.0
 30
0.0
  9
$EXTMIN
 10
0.0
 20
0.0
 30
0.0
  9
$EXTMAX
 10
279.4
 20
215.9
 30
0.0
  9
$LIMMIN
 10
0.0
 20
0.0
  9
$LIMMAX
 10
279.4
 20
215.9
  9
$ORTHOMODE
 70
     0
  9
$REGENMODE
 70
     1
  9
$FILLMODE
 70
     1
  9
$QTEXTMODE
 70
     0
  9
$MIRRTEXT
 70
     1
  9
$LTSCALE
 40
1.0
  9
$ATTMODE
 70
     1
  9
$TEXTSIZE
 40
2.8222222222
  9
$TRACEWID
 40
1.0
  9
$TEXTSTYLE
  7
Standard
  9
$CLAYER
  8
0
  9
$CELTYPE
  6
ByLayer
  9
$CECOLOR
 62
   256
  9
$CELTSCALE
 40
1.0
  9
$DISPSILH
 70
     0
  9
$DIMSCALE
 40
1.0
  9
$DIMASZ
 40
3.175
  9
$DIMEXO
 40
1.27
  9
$DIMDLI
 40
3.75
  9
$DIMRND
 40
0.0
  9
$DIMDLE
 40
0.0
  9
$DIMEXE
 40
1.778
  9
$DIMTP
 40
0.0
  9
$DIMTM
 40
0.0
  9
$DIMTXT
 40
2.8222222222
  9
$DIMCEN
 40
2.5
  9
$DIMTSZ
 40
0.0
  9
$DIMTOL
 70
     0
  9
$DIMLIM
 70
     0
  9
$DIMTIH
 70
     1
  9
$DIMTOH
 70
     1
  9
$DIMSE1
 70
     0
  9
$DIMSE2
 70
     0
  9
$DIMTAD
 70
     0
  9
$DIMZIN
 70
     1
  9
$DIMBLK
  1

  9
$DIMASO
 70
     1
  9
$DIMSHO
 70
     1
  9
$DIMPOST
  1

  9
$DIMAPOST
  1

  9
$DIMALT
 70
     0
  9
$DIMALTD
 70
     3
  9
$DIMALTF
 40
0.0393700787
  9
$DIMLFAC
 40
1.0
  9
$DIMTOFL
 70
     1
  9
$DIMTVP
 40
0.0
  9
$DIMTIX
 70
     0
  9
$DIMSOXD
 70
     0
  9
$DIMSAH
 70
     0
  9
$DIMBLK1
  1

  9
$DIMBLK2
  1

  9
$DIMSTYLE
  2
ISO-25
  9
$DIMCLRD
 70
     0
  9
$DIMCLRE
 70
     0
  9
$DIMCLRT
 70
     0
  9
$DIMTFAC
 40
1.0
  9
$DIMGAP
 40
2.54
  9
$DIMJUST
 70
     0
  9
$DIMSD1
 70
     0
  9
$DIMSD2
 70
     0
  9
$DIMTOLJ
 70
     0
  9
$DIMTZIN
 70
     1
  9
$DIMALTZ
 70
     0
  9
$DIMALTTZ
 70
     0
  9
$DIMUPT
 70
     0
  9
$DIMDEC
 70
     1
  9
$DIMTDEC
 70
     1
  9
$DIMALTU
 70
     2
  9
$DIMALTTD
 70
     3
  9
$DIMTXSTY
  7
Standard
  9
$DIMAUNIT
 70
     0
  9
$DIMADEC
 70
     0
  9
$DIMALTRND
 40
0.0
  9
$DIMAZIN
 70
     0
  9
$DIMDSEP
 70
    44
  9
$DIMATFIT
 70
     3
  9
$DIMFRAC
 70
     0
  9
$DIMLDRBLK
  1

  9
$DIMLUNIT
 70
     2
  9
$DIMLWD
 70
    -2
  9
$DIMLWE
 70
    -2
  9
$DIMTMOVE
 70
     0
  9
$LUNITS
 70
     2
  9
$LUPREC
 70
     1
  9
$SKETCHINC
 40
1.0
  9
$FILLETRAD
 40
10.0
  9
$AUNITS
 70
     0
  9
$AUPREC
 70
     0
  9
$MENU
  1
.
  9
$ELEVATION
 40
0.0
  9
$PELEVATION
 40
0.0
  9
$THICKNESS
 40
0.0
  9
$LIMCHECK
 70
     0
  9
$CHAMFERA
 40
10.0
  9
$CHAMFERB
 40
10.0
  9
$CHAMFERC
 40
20.0
  9
$CHAMFERD
 40
0.0
  9
$SKPOLY
 70
     0
  9
$TDCREATE
 40
2456715.452022917
  9
$TDUCREATE
 40
2456715.66035625
  9
$TDUPDATE
 40
2456715.452025255
  9
$TDUUPDATE
 40
2456715.660358588
  9
$TDINDWG
 40
0.0000000116
  9
$TDUSRTIMER
 40
0.0000000116
  9
$USRTIMER
 70
     1
  9
$ANGBASE
 50
0.0
  9
$ANGDIR
 70
     0
  9
$PDMODE
 70
     0
  9
$PDSIZE
 40
-1.0
  9
$PLINEWID
 40
0.0
  9
$SPLFRAME
 70
     0
  9
$SPLINETYPE
 70
     6
  9
$SPLINESEGS
 70
     8
  9
$HANDSEED
  5
1D2
  9
$SURFTAB1
 70
     6
  9
$SURFTAB2
 70
     6
  9
$SURFTYPE
 70
     6
  9
$SURFU
 70
     6
  9
$SURFV
 70
     6
  9
$UCSBASE
  2

  9
$UCSNAME
  2

  9
$UCSORG
 10
0.0
 20
0.0
 30
0.0
  9
$UCSXDIR
 10
1.0
 20
0.0
 30
0.0
  9
$UCSYDIR
 10
0.0
 20
1.0
 30
0.0
  9
$UCSORTHOREF
  2

  9
$UCSORTHOVIEW
 70
     0
  9
$UCSORGTOP
 10
0.0
 20
0.0
 30
0.0
  9
$UCSORGBOTTOM
 10
0.0
 20
0.0
 30
0.0
  9
$UCSORGLEFT
 10
0.0
 20
0.0
 30
0.0
  9
$UCSORGRIGHT
 10
0.0
 20
0.0
 30
0.0
  9
$UCSORGFRONT
 10
0.0
 20
0.0
 30
0.0
  9
$UCSORGBACK
 10
0.0
 20
0.0
 30
0.0
  9
$PUCSBASE
  2

  9
$PUCSNAME
  2

  9
$PUCSORG
 10
0.0
 20
0.0
 30
0.0
  9
$PUCSXDIR
 10
1.0
 20
0.0
 30
0.0
  9
$PUCSYDIR
 10
0.0
 20
1.0
 30
0.0
  9
$PUCSORTHOREF
  2

  9
$PUCSORTHOVIEW
 70
     0
  9
$PUCSORGTOP
 10
0.0
 20
0.0
 30
0.0
  9
$PUCSORGBOTTOM
 10
0.0
 20
0.0
 30
0.0
  9
$PUCSORGLEFT
 10
0.0
 20
0.0
 30
0.0
  9
$PUCSORGRIGHT
 10
0.0
 20
0.0
 30
0.0
  9
$PUCSORGFRONT
 10
0.0
 20
0.0
 30
0.0
  9
$PUCSORGBACK
 10
0.0
 20
0.0
 30
0.0
  9
$USERI1
 70
     0
  9
$USERI2
 70
     0
  9
$USERI3
 70
     0
  9
$USERI4
 70
     0
  9
$USERI5
 70
     0
  9
$USERR1
 40
0.0
  9
$USERR2
 40
0.0
  9
$USERR3
 40
0.0
  9
$USERR4
 40
0.0
  9
$USERR5
 40
0.0
  9
$WORLDVIEW
 70
     1
  9
$SHADEDGE
 70
     3
  9
$SHADEDIF
 70
    70
  9
$TILEMODE
 70
     1
  9
$MAXACTVP
 70
    64
  9
$PINSBASE
 10
0.0
 20
0.0
 30
0.0
  9
$PLIMCHECK
 70
     0
  9
$PEXTMIN
 10
1.0000000000E+20
 20
1.0000000000E+20
 30
1.0000000000E+20
  9
$PEXTMAX
 10
-1.0000000000E+20
 20
-1.0000000000E+20
 30
-1.0000000000E+20
  9
$PLIMMIN
 10
0.0
 20
0.0
  9
$PLIMMAX
 10
420.0
 20
297.0
  9
$UNITMODE
 70
     0
  9
$VISRETAIN
 70
     1
  9
$PLINEGEN
 70
     0
  9
$PSLTSCALE
 70
     1
  9
$TREEDEPTH
 70
  3020
  9
$CMLSTYLE
  2
Standard
  9
$CMLJUST
 70
     0
  9
$CMLSCALE
 40
20.0
  9
$PROXYGRAPHICS
 70
     1
  9
$MEASUREMENT
 70
     1
  9
$CELWEIGHT
370
    -1
  9
$ENDCAPS
280
     0
  9
$JOINSTYLE
280
     0
  9
$LWDISPLAY
290
     1
  9
$INSUNITS
 70
     4
  9
$HYPERLINKBASE
  1

  9
$STYLESHEET
  1

  9
$XEDIT
290
     1
  9
$CEPSNTYPE
380
     0
  9
$PSTYLEMODE
290
     1
  9
$FINGERPRINTGUID
  2
{180F97D8-3CA0-4B09-93D0-C5A842267A58}
  9
$VERSIONGUID
  2
{FAEB1C32-E019-11D5-929B-00C0DF256EC4}
  9
$EXTNAMES
290
     1
  9
$PSVPSCALE
 40
0.0
  9
$OLESTARTUP
290
     0
  0
ENDSEC
  0
SECTION
  2
CLASSES
  0
CLASS
  1
ACDBDICTIONARYWDFLT
  2
AcDbDictionaryWithDefault
  3
ObjectDBX Classes
 90
        0
280
     0
281
     0
  0
CLASS
  1
VISUALSTYLE
  2
AcDbVisualStyle
  3
ObjectDBX Classes
 90
     4095
280
     0
281
     0
  0
CLASS
  1
MATERIAL
  2
AcDbMaterial
  3
ObjectDBX Classes
 90
     1153
280
     0
281
     0
  0
CLASS
  1
ACDBPLACEHOLDER
  2
AcDbPlaceHolder
  3
ObjectDBX Classes
 90
        0
280
     0
281
     0
  0
CLASS
  1
LAYOUT
  2
AcDbLayout
  3
ObjectDBX Classes
 90
        0
280
     0
281
     0
  0
ENDSEC
  0
SECTION
  2
TABLES
  0
TABLE
  2
VPORT
  5
8
330
0
100
AcDbSymbolTable
 70
     1
  0
VPORT
  5
29
330
8
100
AcDbSymbolTableRecord
100
AcDbViewportTableRecord
  2
*Active
 70
     0
 10
0.0
 20
0.0
 11
1.0
 21
1.0
 12
139.7
 22
107.95
 13
0.0
 23
0.0
 14
10.0
 24
10.0
 15
10.0
 25
10.0
 16
0.0
 26
0.0
 36
1.0
 17
0.0
 27
0.0
 37
0.0
 40
215.9
 41
1.2941176471
 42
50.0
 43
0.0
 44
0.0
 50
0.0
 51
0.0
 71
     0
 72
  2000
 73
     1
 74
     3
 75
     0
 76
     0
 77
     0
 78
     0
281
     0
 65
     1
110
0.0
120
0.0
130
0.0
111
1.0
121
0.0
131
0.0
112
0.0
122
1.0
132
0.0
 79
     0
146
0.0
  0
ENDTAB
  0
TABLE
  2
LTYPE
  5
5
330
0
100
AcDbSymbolTable
 70
     6
  0
LTYPE
  5
14
330
5
100
AcDbSymbolTableRecord
100
AcDbLinetypeTableRecord
  2
ByBlock
 70
     0
  3

 72
    65
 73
     0
 40
0.0
  0
LTYPE
  5
15
330
5
100
AcDbSymbolTableRecord
100
AcDbLinetypeTableRecord
  2
ByLayer
 70
     0
  3

 72
    65
 73
     0
 40
0.0
  0
LTYPE
  5
16
330
5
100
AcDbSymbolTableRecord
100
AcDbLinetypeTableRecord
  2
Continuous
 70
     0
  3
Solid line
 72
    65
 73
     0
 40
0.0
  0
LTYPE
  5
3F
330
5
100
AcDbSymbolTableRecord
100
AcDbLinetypeTableRecord
  2
HIDDEN
 70
     0
  3
Hidden __ __ __ __ __ __ __ __ __ __ __ __ __ __
 72
    65
 73
     2
 40
1.905
 49
1.27
 74
     0
 49
-0.635
 74
     0
  0
LTYPE
  5
40
330
5
100
AcDbSymbolTableRecord
100
AcDbLinetypeTableRecord
  2
PHANTOM
 70
     0
  3
Phantom ______  __  __  ______  __  __  ______
 72
    65
 73
     6
 40
12.7
 49
6.35
 74
     0
 49
-1.27
 74
     0
 49
1.27
 74
     0
 49
-1.27
 74
     0
 49
1.27
 74
     0
 49
-1.27
 74
     0
  0
LTYPE
  5
41
330
5
100
AcDbSymbolTableRecord
100
AcDbLinetypeTableRecord
  2
CENTER
 70
     0
  3
Center ____ _ ____ _ ____ _ ____ _ ____ _ ____
 72
    65
 73
     4
 40
10.16
 49
6.35
 74
     0
 49
-1.27
 74
     0
 49
1.27
 74
     0
 49
-1.27
 74
     0
  0
LTYPE
  5
42
330
5
100
AcDbSymbolTableRecord
100
AcDbLinetypeTableRecord
  2
CENTERX2
 70
     0
  3
Center (2x) ________  __  ________  __  _____
 72
    65
 73
     4
 40
20.32
 49
12.7
 74
     0
 49
-2.54
 74
     0
 49
2.54
 74
     0
 49
-2.54
 74
     0
  0
LTYPE
  5
43
330
5
100
AcDbSymbolTableRecord
100
AcDbLinetypeTableRecord
  2
DOT2
 70
     0
  3
Dot (.5x) ........................................
 72
    65
 73
     2
 40
0.635
 49
0.0
 74
     0
 49
-0.635
 74
     0
  0
ENDTAB
  0
TABLE
  2
LAYER
  5
2
330
0
100
AcDbSymbolTable
 70
     2
  0
LAYER
  5
10
330
2
100
AcDbSymbolTableRecord
100
AcDbLayerTableRecord
  2
0
 70
     0
 62
     7
  6
Continuous
370
    -3
390
F
  0
LAYER
  5
44
330
2
100
AcDbSymbolTableRecord
100
AcDbLayerTableRecord
  2
FORMAT
 70
     0
 62
     7
  6
Continuous
370
    -3
390
F
  0
ENDTAB
  0
TABLE
  2
STYLE
  5
3
330
0
100
AcDbSymbolTable
 70
     5
  0
STYLE
  5
11
330
3
100
AcDbSymbolTableRecord
100
AcDbTextStyleTableRecord
  2
Standard
 70
     0
 40
0.0
 41
1.0
 50
0.0
 71
     0
 42
2.8222222222
  3
txt
  4

  0
STYLE
  5
6E
330
3
100
AcDbSymbolTableRecord
100
AcDbTextStyleTableRecord
  2
SLDTEXTSTYLE0
 70
     0
 40
0.0
 41
0.75
 50
0.0
 71
     0
 42
0.2
  3
TXT
  4

  0
STYLE
  5
70
330
3
100
AcDbSymbolTableRecord
100
AcDbTextStyleTableRecord
  2
SLDTEXTSTYLE1
 70
     0
 40
0.0
 41
0.75
 50
0.0
 71
     0
 42
0.2
  3
TXT
  4
bigfont
  0
STYLE
  5
74
330
3
100
AcDbSymbolTableRecord
100
AcDbTextStyleTableRecord
  2
SLDTEXTSTYLE2
 70
     0
 40
0.0
 41
0.7
 50
0.0
 71
     0
 42
0.2
  3
TXT
  4

  0
STYLE
  5
91
330
3
100
AcDbSymbolTableRecord
100
AcDbTextStyleTableRecord
  2
SLDTEXTSTYLE3
 70
     0
 40
0.0
 41
0.6
 50
0.0
 71
     0
 42
0.2
  3
TXT
  4

  0
ENDTAB
  0
TABLE
  2
VIEW
  5
6
330
0
100
AcDbSymbolTable
 70
     0
  0
ENDTAB
  0
TABLE
  2
UCS
  5
7
330
0
100
AcDbSymbolTable
 70
     0
  0
ENDTAB
  0
TABLE
  2
APPID
  5
9
330
0
100
AcDbSymbolTable
 70
     1
  0
APPID
  5
12
330
9
100
AcDbSymbolTableRecord
100
AcDbRegAppTableRecord
  2
ACAD
 70
     0
  0
ENDTAB
  0
TABLE
  2
DIMSTYLE
  5
A
330
0
100
AcDbSymbolTable
 70
     4
100
AcDbDimStyleTable
  0
DIMSTYLE
105
27
330
A
100
AcDbSymbolTableRecord
100
AcDbDimStyleTableRecord
  2
ISO-25
 70
     0
 41
2.5
 42
0.625
 43
3.75
 44
1.25
 73
     0
 74
     0
 77
     1
 78
     8
140
2.5
141
2.5
143
0.0393700787
147
0.625
171
     3
172
     1
178
     0
271
     2
272
     2
274
     3
278
    44
283
     0
284
     8
340
11
  0
DIMSTYLE
105
12C
102
{ACAD_REACTORS
330
12B
102
}
330
A
100
AcDbSymbolTableRecord
100
AcDbDimStyleTableRecord
  2
SLDDIMSTYLE0
 70
     0
 41
3.175
 44
0.0
 45
0.000000001
 78
    12
 79
     3
140
2.1166666667
141
0.0
143
0.0393700787
147
0.5291666667
148
0.000000001
170
     1
173
     1
178
     0
271
     1
272
     1
276
     2
284
    12
340
6E
  0
DIMSTYLE
105
1B3
102
{ACAD_REACTORS
330
1B2
102
}
330
A
100
AcDbSymbolTableRecord
100
AcDbDimStyleTableRecord
  2
SLDDIMSTYLE1
 70
     0
 41
3.175
 44
0.0
 45
0.000000001
 78
     4
 79
     1
140
2.1166666667
143
0.0393700787
147
0.5291666667
148
0.000000001
170
     1
172
     1
173
     1
178
     0
271
     1
272
     1
276
     2
284
    12
289
     0
340
6E
  0
DIMSTYLE
105
1C8
330
A
100
AcDbSymbolTableRecord
100
AcDbDimStyleTableRecord
  2
SLDDIMSTYLE2
 70
     0
 41
3.175
 44
0.0
 45
0.000000001
140
0.0
146
3.175
147
0.0
173
     1
178
     0
271
     0
272
     0
276
     2
340
11
  0
ENDTAB
  0
TABLE
  2
BLOCK_RECORD
  5
1
330
0
100
AcDbSymbolTable
 70
    10
  0
BLOCK_RECORD
  5
1F
330
1
100
AcDbSymbolTableRecord
100
AcDbBlockTableRecord
  2
*Model_Space
340
22
  0
BLOCK_RECORD
  5
1B
330
1
100
AcDbSymbolTableRecord
100
AcDbBlockTableRecord
  2
*Paper_Space
340
1E
  0
BLOCK_RECORD
  5
23
330
1
100
AcDbSymbolTableRecord
100
AcDbBlockTableRecord
  2
*Paper_Space0
340
26
  0
BLOCK_RECORD
  5
45
330
1
100
AcDbSymbolTableRecord
100
AcDbBlockTableRecord
  2
Third Angle Projection Block
340
0
102
{BLKREFS
331
6A
102
}
  0
BLOCK_RECORD
  5
6B
330
1
100
AcDbSymbolTableRecord
100
AcDbBlockTableRecord
  2
SW_NOTE_0
340
0
102
{BLKREFS
331
85
102
}
  0
BLOCK_RECORD
  5
95
330
1
100
AcDbSymbolTableRecord
100
AcDbBlockTableRecord
  2
SW_NOTE_1
340
0
102
{BLKREFS
331
9A
102
}
  0
BLOCK_RECORD
  5
9B
330
1
100
AcDbSymbolTableRecord
100
AcDbBlockTableRecord
  2
SW_NOTE_2
340
0
102
{BLKREFS
331
A0
102
}
  0
BLOCK_RECORD
  5
A2
330
1
100
AcDbSymbolTableRecord
100
AcDbBlockTableRecord
  2
SW_NOTE_3
340
0
102
{BLKREFS
331
A7
102
}
  0
BLOCK_RECORD
  5
A9
330
1
100
AcDbSymbolTableRecord
100
AcDbBlockTableRecord
  2
SW_NOTE_4
340
0
102
{BLKREFS
331
AE
102
}
  0
BLOCK_RECORD
  5
12D
330
1
100
AcDbSymbolTableRecord
100
AcDbBlockTableRecord
  2
_D
340
0
  0
BLOCK_RECORD
  5
1B4
330
1
100
AcDbSymbolTableRecord
100
AcDbBlockTableRecord
  2
_D_1
340
0
  0
BLOCK_RECORD
  5
1CA
330
1
100
AcDbSymbolTableRecord
100
AcDbBlockTableRecord
  2
SW_NOTE_5
340
0
102
{BLKREFS
331
1CF
102
}
  0
ENDTAB
  0
ENDSEC
  0
SECTION
  2
BLOCKS
  0
BLOCK
  5
20
330
1F
100
AcDbEntity
  8
0
100
AcDbBlockBegin
  2
*Model_Space
 70
     0
 10
0.0
 20
0.0
 30
0.0
  3
*Model_Space
  1

  0
ENDBLK
  5
21
330
1F
100
AcDbEntity
  8
0
100
AcDbBlockEnd
  0
BLOCK
  5
1C
330
1B
100
AcDbEntity
 67
     1
  8
0
100
AcDbBlockBegin
  2
*Paper_Space
 70
     0
 10
0.0
 20
0.0
 30
0.0
  3
*Paper_Space
  1

  0
ENDBLK
  5
1D
330
1B
100
AcDbEntity
 67
     1
  8
0
100
AcDbBlockEnd
  0
BLOCK
  5
24
330
23
100
AcDbEntity
  8
0
100
AcDbBlockBegin
  2
*Paper_Space0
 70
     0
 10
0.0
 20
0.0
 30
0.0
  3
*Paper_Space0
  1

  0
ENDBLK
  5
25
330
23
100
AcDbEntity
  8
0
100
AcDbBlockEnd
  0
BLOCK
  5
46
330
45
100
AcDbEntity
  8
0
100
AcDbBlockBegin
  2
Third Angle Projection Block
 70
     0
 10
0.0
 20
0.0
 30
0.0
  3
Third Angle Projection Block
  1

  0
CIRCLE
  5
48
330
45
100
AcDbEntity
  8
0
  6
Continuous
 62
     7
370
    30
100
AcDbCircle
 10
101.4766388944
 20
18.9404083667
 30
0.0
 40
1.768227153674871
  0
CIRCLE
  5
49
330
45
100
AcDbEntity
  8
0
  6
Continuous
 62
     7
370
    30
100
AcDbCircle
 10
101.4766388944
 20
18.9404083667
 30
0.0
 40
3.901228248531818
  0
LINE
  5
4A
330
45
100
AcDbEntity
  8
0
  6
CENTERX2
 62
     7
370
     0
100
AcDbLine
 10
110.1367822585
 20
18.9404083667
 30
0.0
 11
119.4527334874
 21
18.9404083667
 31
0.0
  0
LINE
  5
4B
330
45
100
AcDbEntity
  8
0
  6
Continuous
 62
     7
370
    30
100
AcDbLine
 10
111.0016388944
 20
20.7086355204
 30
0.0
 11
111.0016388944
 21
17.172181213
 31
0.0
  0
LINE
  5
4C
330
45
100
AcDbEntity
  8
0
  6
Continuous
 62
     7
370
    30
100
AcDbLine
 10
111.0016388944
 20
17.172181213
 30
0.0
 11
118.6216388944
 21
15.1304083667
 31
0.0
  0
LINE
  5
4D
330
45
100
AcDbEntity
  8
0
  6
Continuous
 62
     7
370
    30
100
AcDbLine
 10
118.6216388944
 20
15.1304083667
 30
0.0
 11
118.6216388944
 21
22.7504083667
 31
0.0
  0
LINE
  5
4E
330
45
100
AcDbEntity
  8
0
  6
Continuous
 62
     7
370
    30
100
AcDbLine
 10
118.6216388944
 20
22.7504083667
 30
0.0
 11
111.0016388944
 21
20.7086355204
 31
0.0
  0
LINE
  5
4F
330
45
100
AcDbEntity
  8
0
  6
CENTERX2
 62
     7
370
     0
100
AcDbLine
 10
96.6025854619
 20
18.9404083667
 30
0.0
 11
106.3506923269
 21
18.9404083667
 31
0.0
  0
LINE
  5
50
330
45
100
AcDbEntity
  8
0
  6
CENTERX2
 62
     7
370
     0
100
AcDbLine
 10
101.4766388944
 20
23.8144617992
 30
0.0
 11
101.4766388944
 21
14.0663549342
 31
0.0
  0
POINT
  5
51
330
45
100
AcDbEntity
  8
0
  6
Continuous
 62
     7
370
     0
100
AcDbPoint
 10
101.4766388944
 20
18.9404083667
 30
0.0
  0
ENDBLK
  5
47
330
45
100
AcDbEntity
  8
0
100
AcDbBlockEnd
  0
BLOCK
  5
6C
330
6B
100
AcDbEntity
  8
0
100
AcDbBlockBegin
  2
SW_NOTE_0
 70
     0
 10
0.0
 20
0.0
 30
0.0
  3
SW_NOTE_0
  1

  0
MTEXT
  5
6F
330
6B
100
AcDbEntity
  8
0
  6
Continuous
 62
     0
370
     0
100
AcDbMText
 10
0.0
 20
3.0695925553
 30
0.0
 40
2.38125
 41
0.0
 71
     1
 72
     1
  1
NOTES/SPECIFICATIONS:
  7
SLDTEXTSTYLE0
 73
     1
 44
1.0
  0
MTEXT
  5
71
330
6B
100
AcDbEntity
  8
0
  6
Continuous
 62
     0
370
     0
100
AcDbMText
 10
9.9999997765
 20
-3.2804073679
 30
0.0
 40
2.38125
 41
0.0
 71
     1
 72
     1
  1
CLEAR APERTURE: \U+2265 90% OF DIAMETER
  7
SLDTEXTSTYLE1
 73
     1
 44
1.0
  0
MTEXT
  5
72
330
6B
100
AcDbEntity
  8
0
  6
Continuous
 62
     0
370
     0
100
AcDbMText
 10
0.0
 20
-3.2804073679
 30
0.0
 40
2.38125
 41
0.0
 71
     1
 72
     1
  1
1.
  7
SLDTEXTSTYLE0
 73
     1
 44
1.0
  0
MTEXT
  5
73
330
6B
100
AcDbEntity
  8
0
  6
Continuous
 62
     0
370
     0
100
AcDbMText
 10
9.9999997765
 20
-6.4598169091
 30
0.0
 40
2.38125
 41
0.0
 71
     1
 72
     1
  1
TRANSMITTED WAVEFRONT ERROR:
  7
SLDTEXTSTYLE0
 73
     1
 44
1.0
  0
MTEXT
  5
75
330
6B
100
AcDbEntity
  8
0
  6
Continuous
 62
     0
370
     0
100
AcDbMText
 10
62.9916321486
 20
-6.4554071549
 30
0.0
 40
2.38125
 41
0.0
 71
     1
 72
     1
  1
l
  7
SLDTEXTSTYLE2
 73
     1
 44
1.0
  0
MTEXT
  5
76
330
6B
100
AcDbEntity
  8
0
  6
Continuous
 62
     0
370
     0
100
AcDbMText
 10
64.7334735841
 20
-6.4598169091
 30
0.0
 40
2.38125
 41
0.0
 71
     1
 72
     1
  1
/4 @ 633nm OVER CLEAR APERTURE
  7
SLDTEXTSTYLE0
 73
     1
 44
1.0
  0
MTEXT
  5
77
330
6B
100
AcDbEntity
  8
0
  6
Continuous
 62
     0
370
     0
100
AcDbMText
 10
0.0
 20
-6.4598169091
 30
0.0
 40
2.38125
 41
0.0
 71
     1
 72
     1
  1
2.
  7
SLDTEXTSTYLE0
 73
     1
 44
1.0
  0
MTEXT
  5
78
330
6B
100
AcDbEntity
  8
0
  6
Continuous
 62
     0
370
     0
100
AcDbMText
 10
9.9999997765
 20
-9.6348168707
 30
0.0
 40
2.38125
 41
0.0
 71
     1
 72
     1
  1
SURFACE QUALITY: 40-20 SCRATCH-DIG
  7
SLDTEXTSTYLE0
 73
     1
 44
1.0
  0
MTEXT
  5
79
330
6B
100
AcDbEntity
  8
0
  6
Continuous
 62
     0
370
     0
100
AcDbMText
 10
0.0
 20
-9.6348168707
 30
0.0
 40
2.38125
 41
0.0
 71
     1
 72
     1
  1
3.
  7
SLDTEXTSTYLE0
 73
     1
 44
1.0
  0
MTEXT
  5
7A
330
6B
100
AcDbEntity
  8
0
  6
Continuous
 62
     0
370
     0
100
AcDbMText
 10
9.9999997765
 20
-12.8098168324
 30
0.0
 40
2.38125
 41
0.0
 71
     1
 72
     1
  1
PARALLELISM: \U+2264 3 arcmin OVER CLEAR APERTURE
  7
SLDTEXTSTYLE1
 73
     1
 44
1.0
  0
MTEXT
  5
7B
330
6B
100
AcDbEntity
  8
0
  6
Continuous
 62
     0
370
     0
100
AcDbMText
 10
0.0
 20
-12.8098168324
 30
0.0
 40
2.38125
 41
0.0
 71
     1
 72
     1
  1
4.
  7
SLDTEXTSTYLE0
 73
     1
 44
1.0
  0
MTEXT
  5
7C
330
6B
100
AcDbEntity
  8
0
  6
Continuous
 62
     0
370
     0
100
AcDbMText
 10
9.9999997765
 20
-15.984816794
 30
0.0
 40
2.38125
 41
0.0
 71
     1
 72
     1
  1
COATING AOI (S1, S2): 45°
  7
SLDTEXTSTYLE0
 73
     1
 44
1.0
  0
MTEXT
  5
7D
330
6B
100
AcDbEntity
  8
0
  6
Continuous
 62
     0
370
     0
100
AcDbMText
 10
0.0
 20
-15.984816794
 30
0.0
 40
2.38125
 41
0.0
 71
     1
 72
     1
  1
5.
  7
SLDTEXTSTYLE0
 73
     1
 44
1.0
  0
MTEXT
  5
7E
330
6B
100
AcDbEntity
  8
0
  6
Continuous
 62
     0
370
     0
100
AcDbMText
 10
9.9999997765
 20
-19.1598167556
 30
0.0
 40
2.38125
 41
0.0
 71
     1
 72
     1
  1
FILTER COATING (S1)
  7
SLDTEXTSTYLE0
 73
     1
 44
1.0
  0
MTEXT
  5
7F
330
6B
100
AcDbEntity
  8
0
  6
Continuous
 62
     0
370
     0
100
AcDbMText
 10
0.0
 20
-19.1598167556
 30
0.0
 40
2.38125
 41
0.0
 71
     1
 72
     1
  1
6.
  7
SLDTEXTSTYLE0
 73
     1
 44
1.0
  0
MTEXT
  5
80
330
6B
100
AcDbEntity
  8
0
  6
Continuous
 62
     0
370
     0
100
AcDbMText
 10
20.0
 20
-22.3348167173
 30
0.0
 40
2.38125
 41
0.0
 71
     1
 72
     1
  1
REFLECTION BAND (R): > 90% ABSOLUTE 580-621nm
  7
SLDTEXTSTYLE0
 73
     1
 44
1.0
  0
MTEXT
  5
81
330
6B
100
AcDbEntity
  8
0
  6
Continuous
 62
     0
370
     0
100
AcDbMText
 10
20.0
 20
-25.5098166789
 30
0.0
 40
2.38125
 41
0.0
 71
     1
 72
     1
  1
TRANSMISSION BAND (T): > 90% AVERAGE, >85% ABSOLUTE 655-700nm
  7
SLDTEXTSTYLE0
 73
     1
 44
1.0
  0
MTEXT
  5
82
330
6B
100
AcDbEntity
  8
0
  6
Continuous
 62
     0
370
     0
100
AcDbMText
 10
9.9999997765
 20
-28.6848166405
 30
0.0
 40
2.38125
 41
0.0
 71
     1
 72
     1
  1
AR COATING (S2)
  7
SLDTEXTSTYLE0
 73
     1
 44
1.0
  0
MTEXT
  5
83
330
6B
100
AcDbEntity
  8
0
  6
Continuous
 62
     0
370
     0
100
AcDbMText
 10
0.0
 20
-28.6848166405
 30
0.0
 40
2.38125
 41
0.0
 71
     1
 72
     1
  1
7.
  7
SLDTEXTSTYLE0
 73
     1
 44
1.0
  0
MTEXT
  5
84
330
6B
100
AcDbEntity
  8
0
  6
Continuous
 62
     0
370
     0
100
AcDbMText
 10
20.0
 20
-31.8598166022
 30
0.0
 40
2.38125
 41
0.0
 71
     1
 72
     1
  1
R: < 2% ABSOLUTE 400-800nm
  7
SLDTEXTSTYLE0
 73
     1
 44
1.0
  0
ENDBLK
  5
6D
330
6B
100
AcDbEntity
  8
0
100
AcDbBlockEnd
  0
BLOCK
  5
96
330
95
100
AcDbEntity
  8
0
100
AcDbBlockBegin
  2
SW_NOTE_1
 70
     0
 10
0.0
 20
0.0
 30
0.0
  3
SW_NOTE_1
  1

  0
MTEXT
  5
98
330
95
100
AcDbEntity
  8
0
  6
Continuous
 62
     0
370
     0
100
AcDbMText
 10
19.90725
 20
1.9645392354
 30
0.0
 40
1.524
 41
0.0
 71
     2
 72
     1
  1
VALUES IN PARENTHESIS ARE CALCULATED
  7
SLDTEXTSTYLE0
 73
     1
 44
1.0
  0
MTEXT
  5
99
330
95
100
AcDbEntity
  8
0
  6
Continuous
 62
     0
370
     0
100
AcDbMText
 10
19.8778795174
 20
-0.5594606586
 30
0.0
 40
1.524
 41
0.0
 71
     2
 72
     1
  1
AND MAY CONTAIN ROUNDOFF ERRORS
  7
SLDTEXTSTYLE0
 73
     1
 44
1.0
  0
ENDBLK
  5
97
330
95
100
AcDbEntity
  8
0
100
AcDbBlockEnd
  0
BLOCK
  5
9C
330
9B
100
AcDbEntity
  8
0
100
AcDbBlockBegin
  2
SW_NOTE_2
 70
     0
 10
0.0
 20
0.0
 30
0.0
  3
SW_NOTE_2
  1

  0
MTEXT
  5
9E
330
9B
100
AcDbEntity
  8
0
  6
Continuous
 62
     0
370
     0
100
AcDbMText
 10
0.0
 20
2.7285267159
 30
0.0
 40
2.1166666667
 41
0.0
 71
     1
 72
     1
  1
DRAWING
  7
SLDTEXTSTYLE0
 73
     1
 44
1.0
  0
MTEXT
  5
9F
330
9B
100
AcDbEntity
  8
0
  6
Continuous
 62
     0
370
     0
100
AcDbMText
 10
0.0
 20
-0.0936954723
 30
0.0
 40
2.1166666667
 41
0.0
 71
     1
 72
     1
  1
PROJECTION
  7
SLDTEXTSTYLE0
 73
     1
 44
1.0
  0
ENDBLK
  5
9D
330
9B
100
AcDbEntity
  8
0
100
AcDbBlockEnd
  0
BLOCK
  5
A3
330
A2
100
AcDbEntity
  8
0
100
AcDbBlockBegin
  2
SW_NOTE_3
 70
     0
 10
0.0
 20
0.0
 30
0.0
  3
SW_NOTE_3
  1

  0
MTEXT
  5
A5
330
A2
100
AcDbEntity
  8
0
  6
Continuous
 62
     0
370
     0
100
AcDbMText
 10
25.052734375
 20
4.0927900738
 30
0.0
 40
3.175
 41
0.0
 71
     2
 72
     1
  1
FOR INFORMATION ONLY
  7
SLDTEXTSTYLE0
 73
     1
 44
1.0
  0
MTEXT
  5
A6
330
A2
100
AcDbEntity
  8
0
  6
Continuous
 62
     0
370
     0
100
AcDbMText
 10
25.3768468589
 20
-0.1405432084
 30
0.0
 40
3.175
 41
0.0
 71
     2
 72
     1
  1
NOT FOR MANUFACTURING PURPOSES
  7
SLDTEXTSTYLE0
 73
     1
 44
1.0
  0
ENDBLK
  5
A4
330
A2
100
AcDbEntity
  8
0
100
AcDbBlockEnd
  0
BLOCK
  5
AA
330
A9
100
AcDbEntity
  8
0
100
AcDbBlockBegin
  2
SW_NOTE_4
 70
     0
 10
0.0
 20
0.0
 30
0.0
  3
SW_NOTE_4
  1

  0
MTEXT
  5
AC
330
A9
100
AcDbEntity
  8
0
  6
Continuous
 62
     0
370
     0
100
AcDbMText
 10
0.0
 20
3.4106583948
 30
0.0
 40
2.6458333333
 41
0.0
 71
     1
 72
     1
  1
Ø 50.8mm DICHROIC MIRROR,
  7
SLDTEXTSTYLE0
 73
     1
 44
1.0
  0
MTEXT
  5
AD
330
A9
100
AcDbEntity
  8
0
  6
Continuous
 62
     0
370
     0
100
AcDbMText
 10
0.0
 20
-0.1171193403
 30
0.0
 40
2.6458333333
 41
0.0
 71
     1
 72
     1
  1
LONG PASS 638nm
  7
SLDTEXTSTYLE0
 73
     1
 44
1.0
  0
ENDBLK
  5
AB
330
A9
100
AcDbEntity
  8
0
100
AcDbBlockEnd
  0
BLOCK
  5
12E
330
12D
100
AcDbEntity
  8
0
100
AcDbBlockBegin
  2
_D
 70
     0
 10
0.0
 20
0.0
 30
0.0
  3
_D
  1

  0
SOLID
  5
130
330
12D
100
AcDbEntity
  8
0
  6
Continuous
 62
     7
370
     0
100
AcDbTrace
 10
105.5720377585
 20
135.7500173049
 30
0.0
 11
108.1529716698
 21
137.6676901512
 31
0.0
 12
107.4257884336
 22
138.377239685
 32
0.0
 13
107.4257884336
 23
138.377239685
 33
0.0
  0
LINE
  5
131
330
12D
100
AcDbEntity
  8
0
  6
Continuous
 62
     7
370
     0
100
AcDbLine
 10
126.9359960056
 20
151.4004861347
 30
0.0
 11
126.5067830459
 21
151.4004861347
 31
0.0
  0
LINE
  5
132
330
12D
100
AcDbEntity
  8
0
  6
Continuous
 62
     7
370
     0
100
AcDbLine
 10
126.5067830459
 20
151.4004861347
 30
0.0
 11
126.5067830459
 21
148.0373380583
 31
0.0
  0
LINE
  5
133
330
12D
100
AcDbEntity
  8
0
  6
Continuous
 62
     7
370
     0
100
AcDbLine
 10
126.5067830459
 20
148.0373380583
 30
0.0
 11
126.9359960056
 21
148.0373380583
 31
0.0
  0
LINE
  5
134
330
12D
100
AcDbEntity
  8
0
  6
Continuous
 62
     7
370
     0
100
AcDbLine
 10
135.7662199948
 20
151.4004861347
 30
0.0
 11
136.1954329546
 21
151.4004861347
 31
0.0
  0
LINE
  5
135
330
12D
100
AcDbEntity
  8
0
  6
Continuous
 62
     7
370
     0
100
AcDbLine
 10
136.1954329546
 20
151.4004861347
 30
0.0
 11
136.1954329546
 21
148.0373380583
 31
0.0
  0
LINE
  5
136
330
12D
100
AcDbEntity
  8
0
  6
Continuous
 62
     7
370
     0
100
AcDbLine
 10
136.1954329546
 20
148.0373380583
 30
0.0
 11
135.7662199948
 21
148.0373380583
 31
0.0
  0
LINE
  5
137
330
12D
100
AcDbEntity
  8
0
  6
Continuous
 62
     7
370
     0
100
AcDbLine
 10
105.5720377585
 20
135.7500173049
 30
0.0
 11
122.3748733189
 21
152.9704363992
 31
0.0
  0
LINE
  5
138
330
12D
100
AcDbEntity
  8
0
  6
Continuous
 62
     7
370
     0
100
AcDbLine
 10
122.3748733189
 20
152.9704363992
 30
0.0
 11
126.1848733189
 21
152.9704363992
 31
0.0
  0
MTEXT
  5
139
330
12D
100
AcDbEntity
  8
0
  6
Continuous
 62
     7
370
     0
100
AcDbMText
 10
126.1848733189
 20
154.5582257812
 30
0.1
 40
2.1166666667
 41
0.0
 71
     1
 72
     1
  1
%%c
  7
SLDTEXTSTYLE0
 73
     1
 44
1.0
  0
MTEXT
  5
13A
330
12D
100
AcDbEntity
  8
0
  6
Continuous
 62
     7
370
     0
100
AcDbMText
 10
129.3798641196
 20
154.5582257812
 30
0.1
 40
2.1166666667
 41
0.0
 71
     1
 72
     1
  1
50.8mm
  7
SLDTEXTSTYLE0
 73
     1
 44
1.0
  0
MTEXT
  5
13B
330
12D
100
AcDbEntity
  8
0
  6
Continuous
 62
     7
370
     0
100
AcDbMText
 10
127.4725122271
 20
150.7658646577
 30
0.1
 40
2.1166666667
 41
0.0
 71
     1
 72
     1
  1
2.00in
  7
SLDTEXTSTYLE0
 73
     1
 44
1.0
  0
ENDBLK
  5
12F
330
12D
100
AcDbEntity
  8
0
100
AcDbBlockEnd
  0
BLOCK
  5
1B5
330
1B4
100
AcDbEntity
  8
0
100
AcDbBlockBegin
  2
_D_1
 70
     0
 10
0.0
 20
0.0
 30
0.0
  3
_D_1
  1

  0
SOLID
  5
1B7
330
1B4
100
AcDbEntity
  8
0
  6
Continuous
 62
     7
370
     0
100
AcDbTrace
 10
175.1240391389
 20
82.1704363992
 30
0.0
 11
171.9490391389
 21
82.6784363992
 31
0.0
 12
171.9490391389
 22
81.6624363992
 32
0.0
 13
171.9490391389
 23
81.6624363992
 33
0.0
  0
SOLID
  5
1B8
330
1B4
100
AcDbEntity
  8
0
  6
Continuous
 62
     7
370
     0
100
AcDbTrace
 10
180.1240391389
 20
82.1704363992
 30
0.0
 11
183.2990391389
 21
81.6624363992
 31
0.0
 12
183.2990391389
 22
82.6784363992
 32
0.0
 13
183.2990391389
 23
82.6784363992
 33
0.0
  0
LINE
  5
1B9
330
1B4
100
AcDbEntity
  8
0
  6
Continuous
 62
     7
370
     0
100
AcDbLine
 10
157.6326302929
 20
82.1704361664
 30
0.0
 11
157.2034173332
 21
82.1704361664
 31
0.0
  0
LINE
  5
1BA
330
1B4
100
AcDbEntity
  8
0
  6
Continuous
 62
     7
370
     0
100
AcDbLine
 10
157.2034173332
 20
82.1704361664
 30
0.0
 11
157.2034173332
 21
78.8072880899
 31
0.0
  0
LINE
  5
1BB
330
1B4
100
AcDbEntity
  8
0
  6
Continuous
 62
     7
370
     0
100
AcDbLine
 10
157.2034173332
 20
78.8072880899
 30
0.0
 11
157.6326302929
 21
78.8072880899
 31
0.0
  0
LINE
  5
1BC
330
1B4
100
AcDbEntity
  8
0
  6
Continuous
 62
     7
370
     0
100
AcDbLine
 10
166.4628542821
 20
82.1704361664
 30
0.0
 11
166.8920672419
 21
82.1704361664
 31
0.0
  0
LINE
  5
1BD
330
1B4
100
AcDbEntity
  8
0
  6
Continuous
 62
     7
370
     0
100
AcDbLine
 10
166.8920672419
 20
82.1704361664
 30
0.0
 11
166.8920672419
 21
78.8072880899
 31
0.0
  0
LINE
  5
1BE
330
1B4
100
AcDbEntity
  8
0
  6
Continuous
 62
     7
370
     0
100
AcDbLine
 10
166.8920672419
 20
78.8072880899
 30
0.0
 11
166.4628542821
 21
78.8072880899
 31
0.0
  0
LINE
  5
1BF
330
1B4
100
AcDbEntity
  8
0
  6
Continuous
 62
     7
370
     0
100
AcDbLine
 10
175.1240391389
 20
91.2004363992
 30
0.0
 11
175.1240391389
 21
80.3924363992
 31
0.0
  0
LINE
  5
1C0
330
1B4
100
AcDbEntity
  8
0
  6
Continuous
 62
     7
370
     0
100
AcDbLine
 10
180.1240391389
 20
91.2004363992
 30
0.0
 11
180.1240391389
 21
80.3924363992
 31
0.0
  0
LINE
  5
1C1
330
1B4
100
AcDbEntity
  8
0
  6
Continuous
 62
     7
370
     0
100
AcDbLine
 10
175.1240391389
 20
82.1704363992
 30
0.0
 11
169.4954948928
 21
82.1704363992
 31
0.0
  0
LINE
  5
1C2
330
1B4
100
AcDbEntity
  8
0
  6
Continuous
 62
     7
370
     0
100
AcDbLine
 10
180.1240391389
 20
82.1704363992
 30
0.0
 11
186.4740391389
 21
82.1704363992
 31
0.0
  0
MTEXT
  5
1C3
330
1B4
100
AcDbEntity
  8
0
  6
Continuous
 62
     7
370
     0
100
AcDbMText
 10
156.6169241206
 20
85.3281758128
 30
0.1
 40
2.1166666667
 41
0.0
 71
     1
 72
     1
  1

  7
SLDTEXTSTYLE0
 73
     1
 44
1.0
  0
MTEXT
  5
1C4
330
1B4
100
AcDbEntity
  8
0
  6
Continuous
 62
     7
370
     0
100
AcDbMText
 10
156.5894858249
 20
85.3281758128
 30
0.1
 40
2.1166666667
 41
0.0
 71
     1
 72
     1
  1
5.0mm
  7
SLDTEXTSTYLE0
 73
     1
 44
1.0
  0
MTEXT
  5
1C5
330
1B4
100
AcDbEntity
  8
0
  6
Continuous
 62
     7
370
     0
100
AcDbMText
 10
158.1691465144
 20
81.5358146894
 30
0.1
 40
2.1166666667
 41
0.0
 71
     1
 72
     1
  1
0.20in
  7
SLDTEXTSTYLE0
 73
     1
 44
1.0
  0
MTEXT
  5
1C6
330
1B4
100
AcDbEntity
  8
0
  6
Continuous
 62
     7
370
     0
100
AcDbMText
 10
169.0934987501
 20
85.3281758128
 30
0.1
 40
2.1166666667
 41
0.0
 71
     1
 72
     1
  1

  7
SLDTEXTSTYLE0
 73
     1
 44
1.0
  0
ENDBLK
  5
1B6
330
1B4
100
AcDbEntity
  8
0
100
AcDbBlockEnd
  0
BLOCK
  5
1CB
330
1CA
100
AcDbEntity
  8
0
100
AcDbBlockBegin
  2
SW_NOTE_5
 70
     0
 10
0.0
 20
0.0
 30
0.0
  3
SW_NOTE_5
  1

  0
MTEXT
  5
1CD
330
1CA
100
AcDbEntity
  8
0
  6
Continuous
 62
     0
370
     0
100
AcDbMText
 10
0.5804815479
 20
0.9978169608
 30
0.0
 40
2.1166666667
 41
0.0
 71
     1
 72
     1
  1
S2, INDICATED BY
  7
SLDTEXTSTYLE0
 73
     1
 44
1.0
  0
MTEXT
  5
1CE
330
1CA
100
AcDbEntity
  8
0
  6
Continuous
 62
     0
370
     0
100
AcDbMText
 10
0.5804815479
 20
-1.8244052274
 30
0.0
 40
2.1166666667
 41
0.0
 71
     1
 72
     1
  1
ENGRAVED ARROW
  7
SLDTEXTSTYLE0
 73
     1
 44
1.0
  0
ENDBLK
  5
1CC
330
1CA
100
AcDbEntity
  8
0
100
AcDbBlockEnd
  0
ENDSEC
  0
SECTION
  2
ENTITIES
  0
LINE
  5
52
330
1F
100
AcDbEntity
  8
0
  6
Continuous
 62
     7
370
     0
100
AcDbLine
 10
1.5793501011
 20
214.6453799966
 30
0.0
 11
277.9892068491
 21
214.6453799966
 31
0.0
  0
LINE
  5
53
330
1F
100
AcDbEntity
  8
0
  6
Continuous
 62
     7
370
     0
100
AcDbLine
 10
1.5793501011
 20
214.6453799966
 30
0.0
 11
1.5793501011
 21
0.9031642596
 31
0.0
  0
LINE
  5
54
330
1F
100
AcDbEntity
  8
0
  6
Continuous
 62
     7
370
     0
100
AcDbLine
 10
277.9892068491
 20
0.9031642596
 30
0.0
 11
1.5793501011
 21
0.9031642596
 31
0.0
  0
LINE
  5
55
330
1F
100
AcDbEntity
  8
0
  6
Continuous
 62
     7
370
     0
100
AcDbLine
 10
277.9892068491
 20
0.9031642596
 30
0.0
 11
277.9892068491
 21
214.6453799966
 31
0.0
  0
LINE
  5
56
330
1F
100
AcDbEntity
  8
0
  6
Continuous
 62
     7
370
     0
100
AcDbLine
 10
215.7427640041
 20
12.2958890132
 30
0.0
 11
171.6327596684
 21
12.2958890132
 31
0.0
  0
LINE
  5
57
330
1F
100
AcDbEntity
  8
0
  6
Continuous
 62
     7
370
     0
100
AcDbLine
 10
171.6327596684
 20
12.2958890132
 30
0.0
 11
171.6327596684
 21
26.1661402506
 31
0.0
  0
LINE
  5
58
330
1F
100
AcDbEntity
  8
0
  6
Continuous
 62
     7
370
     0
100
AcDbLine
 10
171.6327596684
 20
0.9031642596
 30
0.0
 11
171.6327596684
 21
26.1661402506
 31
0.0
  0
LINE
  5
59
330
1F
100
AcDbEntity
  8
0
  6
Continuous
 62
     7
370
     0
100
AcDbLine
 10
215.7427640041
 20
17.1604579552
 30
0.0
 11
277.9892068491
 21
17.1604579552
 31
0.0
  0
LINE
  5
5A
330
1F
100
AcDbEntity
  8
0
  6
Continuous
 62
     7
370
     0
100
AcDbLine
 10
215.7427640041
 20
35.2394508358
 30
0.0
 11
215.7427640041
 21
0.9031642596
 31
0.0
  0
LINE
  5
5B
330
1F
100
AcDbEntity
  8
0
  6
Continuous
 62
     7
370
     0
100
AcDbLine
 10
215.7427640041
 20
26.1661402506
 30
0.0
 11
171.6327596684
 21
26.1661402506
 31
0.0
  0
LINE
  5
5C
330
1F
100
AcDbEntity
  8
0
  6
Continuous
 62
     7
370
     0
100
AcDbLine
 10
215.7427640041
 20
9.1409200612
 30
0.0
 11
277.9892068491
 21
9.1409200612
 31
0.0
  0
LINE
  5
5D
330
1F
100
AcDbEntity
  8
0
  6
Continuous
 62
     7
370
     0
100
AcDbLine
 10
215.7427640041
 20
16.9216824031
 30
0.0
 11
171.6327596684
 21
16.9216824031
 31
0.0
  0
LINE
  5
5E
330
1F
100
AcDbEntity
  8
0
  6
Continuous
 62
     7
370
     0
100
AcDbLine
 10
215.7427640041
 20
21.4874005542
 30
0.0
 11
171.6327596684
 21
21.4874005542
 31
0.0
  0
LINE
  5
5F
330
1F
100
AcDbEntity
  8
0
  6
Continuous
 62
     7
370
     0
100
AcDbLine
 10
186.1338100705
 20
26.1661402506
 30
0.0
 11
186.1338100705
 21
12.2958890132
 31
0.0
  0
LINE
  5
60
330
1F
100
AcDbEntity
  8
0
  6
Continuous
 62
     7
370
     0
100
AcDbLine
 10
198.2145906188
 20
26.1661402506
 30
0.0
 11
198.2145906188
 21
12.2958890132
 31
0.0
  0
LINE
  5
61
330
1F
100
AcDbEntity
  8
0
  6
Continuous
 62
     7
370
     0
100
AcDbLine
 10
253.7490408369
 20
9.1409200612
 30
0.0
 11
253.7490408369
 21
0.9031642596
 31
0.0
  0
LINE
  5
62
330
1F
100
AcDbEntity
  8
0
  6
Continuous
 62
     7
370
     0
100
AcDbLine
 10
171.6327596684
 20
12.2958890132
 30
0.0
 11
171.6327596684
 21
7.5627342528
 31
0.0
  0
LINE
  5
63
330
1F
100
AcDbEntity
  8
0
  6
Continuous
 62
     7
370
     0
100
AcDbLine
 10
171.6327596684
 20
7.5627342528
 30
0.0
 11
215.7427640041
 21
7.5627342528
 31
0.0
  0
LINE
  5
64
330
1F
100
AcDbEntity
  8
0
  6
Continuous
 62
     7
370
     0
100
AcDbLine
 10
171.6327596684
 20
7.5627342528
 30
0.0
 11
171.6327596684
 21
35.2394508358
 31
0.0
  0
LINE
  5
65
330
1F
100
AcDbEntity
  8
0
  6
Continuous
 62
     7
370
     0
100
AcDbLine
 10
171.6327596684
 20
35.2394508358
 30
0.0
 11
215.7427640041
 21
35.2394508358
 31
0.0
  0
LINE
  5
66
330
1F
100
AcDbEntity
  8
0
  6
Continuous
 62
     7
370
     0
100
AcDbLine
 10
270.1683598194
 20
17.1604579552
 30
0.0
 11
270.1683598194
 21
9.1409200612
 31
0.0
  0
LINE
  5
67
330
1F
100
AcDbEntity
  8
0
  6
Continuous
 62
     7
370
     0
100
AcDbLine
 10
215.7427640041
 20
35.2394508358
 30
0.0
 11
277.9892068491
 21
35.2394508358
 31
0.0
  0
LINE
  5
68
330
1F
100
AcDbEntity
  8
0
  6
Continuous
 62
     7
370
     0
100
AcDbLine
 10
277.9892068491
 20
35.2394508358
 30
0.0
 11
277.9892068491
 21
50.0331356147
 31
0.0
  0
LINE
  5
69
330
1F
100
AcDbEntity
  8
0
  6
Continuous
 62
     7
370
     0
100
AcDbLine
 10
215.7427640041
 20
24.8927335446
 30
0.0
 11
277.9892068491
 21
24.8927335446
 31
0.0
  0
INSERT
  5
6A
330
1F
100
AcDbEntity
  8
0
  6
Continuous
 62
     7
100
AcDbBlockReference
  2
Third Angle Projection Block
 10
117.7262204235
 20
15.5162339489
 30
0.0
 41
0.8
 42
0.8
 43
0.8
  0
INSERT
  5
85
330
1F
100
AcDbEntity
  8
0
  6
Continuous
 62
     7
370
     0
100
AcDbBlockReference
  2
SW_NOTE_0
 10
7.8242281509
 20
62.170998082
 30
0.0
  0
MTEXT
  5
86
330
1F
100
AcDbEntity
  8
0
  6
Continuous
 62
     7
370
     0
100
AcDbMText
 10
273.8657318933
 20
13.1125292762
 30
0.0
 40
3.175
 41
0.0
 71
     2
 72
     1
  1
D
  7
SLDTEXTSTYLE0
 73
     1
 44
1.0
  0
MTEXT
  5
87
330
1F
100
AcDbEntity
  8
0
  6
Continuous
 62
     7
370
     0
100
AcDbMText
 10
234.5561439998
 20
5.1306563898
 30
0.0
 40
3.175
 41
0.0
 71
     2
 72
     1
  1
DMLP638L
  7
SLDTEXTSTYLE0
 73
     1
 44
1.0
  0
MTEXT
  5
88
330
1F
100
AcDbEntity
  8
0
  6
Continuous
 62
     7
370
     0
100
AcDbMText
 10
216.4199766059
 20
16.8243178599
 30
0.0
 40
2.1166666667
 41
0.0
 71
     1
 72
     1
  1
MATERIAL
  7
SLDTEXTSTYLE0
 73
     1
 44
1.0
  0
MTEXT
  5
89
330
1F
100
AcDbEntity
  8
0
  6
Continuous
 62
     7
370
     0
100
AcDbMText
 10
174.230946566
 20
20.054553926
 30
0.0
 40
1.8520833333
 41
0.0
 71
     1
 72
     1
  1
DRAWN
  7
SLDTEXTSTYLE0
 73
     1
 44
1.0
  0
MTEXT
  5
8A
330
1F
100
AcDbEntity
  8
0
  6
Continuous
 62
     7
370
     0
100
AcDbMText
 10
172.3960124543
 20
15.5787169747
 30
0.0
 40
1.8520833333
 41
0.0
 71
     1
 72
     1
  1
APPROVAL
  7
SLDTEXTSTYLE0
 73
     1
 44
1.0
  0
MTEXT
  5
8B
330
1F
100
AcDbEntity
  8
0
  6
Continuous
 62
     7
370
     0
100
AcDbMText
 10
271.321689486
 20
16.0237652193
 30
0.0
 40
2.1166666667
 41
0.0
 71
     1
 72
     1
  1
REV
  7
SLDTEXTSTYLE0
 73
     1
 44
1.0
  0
MTEXT
  5
8C
330
1F
100
AcDbEntity
  8
0
  6
Continuous
 62
     7
370
     0
100
AcDbMText
 10
190.2958696448
 20
20.3177146903
 30
0.0
 40
2.1166666667
 41
0.0
 71
     1
 72
     1
  1
TW
  7
SLDTEXTSTYLE0
 73
     1
 44
1.0
  0
MTEXT
  5
8D
330
1F
100
AcDbEntity
  8
0
  6
Continuous
 62
     7
370
     0
100
AcDbMText
 10
190.2958696448
 20
15.841877739
 30
0.0
 40
2.1166666667
 41
0.0
 71
     1
 72
     1
  1
DD
  7
SLDTEXTSTYLE0
 73
     1
 44
1.0
  0
MTEXT
  5
8E
330
1F
100
AcDbEntity
  8
0
  6
Continuous
 62
     7
370
     0
100
AcDbMText
 10
199.8662436873
 20
20.3177146903
 30
0.0
 40
2.1166666667
 41
0.0
 71
     1
 72
     1
  1
17/OCT/11
  7
SLDTEXTSTYLE0
 73
     1
 44
1.0
  0
MTEXT
  5
8F
330
1F
100
AcDbEntity
  8
0
  6
Continuous
 62
     7
370
     0
100
AcDbMText
 10
203.6145073853
 20
24.8221395769
 30
0.0
 40
2.1166666667
 41
0.0
 71
     1
 72
     1
  1
DATE
  7
SLDTEXTSTYLE0
 73
     1
 44
1.0
  0
MTEXT
  5
90
330
1F
100
AcDbEntity
  8
0
  6
Continuous
 62
     7
370
     0
100
AcDbMText
 10
199.8662436873
 20
15.841877739
 30
0.0
 40
2.1166666667
 41
0.0
 71
     1
 72
     1
  1
26/FEB/14
  7
SLDTEXTSTYLE0
 73
     1
 44
1.0
  0
MTEXT
  5
92
330
1F
100
AcDbEntity
  8
0
  6
Continuous
 62
     7
370
     0
100
AcDbMText
 10
229.402906477
 20
27.7957480569
 30
0.0
 40
2.1166666667
 41
0.0
 71
     1
 72
     1
  1
w w w . t h o r  l a b s . c o m
  7
SLDTEXTSTYLE3
 73
     1
 44
1.0
  0
MTEXT
  5
93
330
1F
100
AcDbEntity
  8
0
  6
Continuous
 62
     7
370
     0
100
AcDbMText
 10
216.7004035316
 20
8.3494791871
 30
0.0
 40
2.1166666667
 41
0.0
 71
     1
 72
     1
  1
ITEM #
  7
SLDTEXTSTYLE0
 73
     1
 44
1.0
  0
MTEXT
  5
94
330
1F
100
AcDbEntity
  8
0
  6
Continuous
 62
     7
370
     0
100
AcDbMText
 10
266.1678480997
 20
5.1306563898
 30
0.0
 40
3.175
 41
0.0
 71
     2
 72
     1
  1
0.12 kg
  7
SLDTEXTSTYLE0
 73
     1
 44
1.0
  0
INSERT
  5
9A
330
1F
100
AcDbEntity
  8
0
  6
Continuous
 62
     7
370
     0
100
AcDbBlockReference
  2
SW_NOTE_1
 10
174.8430140051
 20
4.4558554801
 30
0.0
  0
INSERT
  5
A0
330
1F
100
AcDbEntity
  8
0
  6
Continuous
 62
     7
370
     0
100
AcDbBlockReference
  2
SW_NOTE_2
 10
174.5483650337
 20
30.4835322715
 30
0.0
  0
MTEXT
  5
A1
330
1F
100
AcDbEntity
  8
0
  6
Continuous
 62
     7
370
     0
100
AcDbMText
 10
187.9273588276
 20
24.8221395769
 30
0.0
 40
2.1166666667
 41
0.0
 71
     1
 72
     1
  1
NAME
  7
SLDTEXTSTYLE0
 73
     1
 44
1.0
  0
INSERT
  5
A7
330
1F
100
AcDbEntity
  8
0
  6
Continuous
 62
     7
370
     0
100
AcDbBlockReference
  2
SW_NOTE_3
 10
58.6204667508
 20
8.1776609732
 30
0.0
  0
MTEXT
  5
A8
330
1F
100
AcDbEntity
  8
0
  6
Continuous
 62
     7
370
     0
100
AcDbMText
 10
179.1174811218
 20
10.6680638482
 30
0.0
 40
1.5875
 41
0.0
 71
     1
 72
     1
  1
COPYRIGHT © 2011 BY THORLABS
  7
SLDTEXTSTYLE0
 73
     1
 44
1.0
  0
INSERT
  5
AE
330
1F
100
AcDbEntity
  8
0
  6
Continuous
 62
     7
370
     0
100
AcDbBlockReference
  2
SW_NOTE_4
 10
219.4903195239
 20
20.9611555011
 30
0.0
  0
MTEXT
  5
AF
330
1F
100
AcDbEntity
  8
0
  6
Continuous
 62
     7
370
     0
100
AcDbMText
 10
254.5318000914
 20
8.3494791871
 30
0.0
 40
2.1166666667
 41
0.0
 71
     1
 72
     1
  1
APPROX WEIGHT
  7
SLDTEXTSTYLE0
 73
     1
 44
1.0
  0
MTEXT
  5
B0
330
1F
100
AcDbEntity
  8
0
  6
Continuous
 62
     7
370
     0
100
AcDbMText
 10
243.0107086898
 20
13.2422338929
 30
0.0
 40
2.6458333333
 41
0.0
 71
     2
 72
     1
  1
UV GRADE FUSED SILICA
  7
SLDTEXTSTYLE0
 73
     1
 44
1.0
  0
LINE
  5
B1
330
1F
100
AcDbEntity
  8
0
  6
Continuous
 62
     7
370
     0
100
AcDbLine
 10
216.2422348533
 20
187.2814203967
 30
0.0
 11
216.2422348533
 21
187.0364979632
 31
0.0
  0
LINE
  5
B2
330
1F
100
AcDbEntity
  8
0
  6
Continuous
 62
     7
370
     0
100
AcDbLine
 10
233.9877304502
 20
156.2970673026
 30
0.0
 11
234.1998280071
 21
156.1745861825
 31
0.0
  0
LINE
  5
B3
330
1F
100
AcDbEntity
  8
0
  6
Continuous
 62
     7
370
     0
100
AcDbLine
 10
246.9017149999
 20
154.9153962721
 30
0.0
 11
250.0129848372
 21
156.7114941181
 31
0.0
  0
LINE
  5
B4
330
1F
100
AcDbEntity
  8
0
  6
Continuous
 62
     7
370
     0
100
AcDbLine
 10
224.6150490282
 20
200.7067763271
 30
0.0
 11
221.503779191
 21
198.9106784811
 31
0.0
  0
LINE
  5
B5
330
1F
100
AcDbEntity
  8
0
  6
Continuous
 62
     7
370
     0
100
AcDbLine
 10
255.2745291748
 20
168.3407522024
 30
0.0
 11
255.2745291748
 21
168.585674636
 31
0.0
  0
LINE
  5
B6
330
1F
100
AcDbEntity
  8
0
  6
Continuous
 62
     7
370
     0
100
AcDbLine
 10
237.529033578
 20
199.3251052966
 30
0.0
 11
237.316936021
 21
199.4475864167
 31
0.0
  0
LWPOLYLINE
  5
B7
330
1F
100
AcDbEntity
  8
0
  6
Continuous
 62
     7
370
     0
100
AcDbPolyline
 90
      170
 70
   128
 43
0.0
 10
251.7389952689
 20
166.5446543564
 10
251.7267303401
 20
167.3135413411
 10
251.6899525051
 20
168.0955264402
 10
251.6287125941
 20
168.8895288799
 10
251.5430952462
 20
169.6944512774
 10
251.4332187922
 20
170.5091811577
 10
251.2992350913
 20
171.3325924907
 10
251.141329321
 20
172.163547248
 10
250.9597197213
 20
173.0008969753
 10
250.754657293
 20
173.84348438
 10
250.5264254508
 20
174.6901449306
 10
250.2753396316
 20
175.5397084661
 10
250.0017468586
 20
176.3910008132
 10
249.7060252617
 20
177.2428454093
 10
249.3885835546
 20
178.0940649287
 10
249.0498604704
 20
178.9434829094
 10
248.6903241548
 20
179.7899253793
 10
248.3104715193
 20
180.6322224789
 10
247.9108275545
 20
181.4692100779
 10
247.4919446042
 20
182.299731384
 10
247.0544016023
 20
183.1226385422
 10
246.5988032727
 20
183.9367942207
 10
246.1257792931
 20
184.7410731832
 10
245.6359834253
 20
185.5343638439
 10
245.1300926112
 20
186.3155698038
 10
244.6088060373
 20
187.0836113658
 10
244.0728441687
 20
187.8374270276
 10
243.5229477528
 20
188.5759749481
 10
242.9598767959
 20
189.2982343876
 10
242.3844095128
 20
190.0032071187
 10
241.7973412508
 20
190.6899188056
 10
241.1994833912
 20
191.3574203511
 10
240.5916622274
 20
192.0047892079
 10
239.9747178227
 20
192.6311306542
 10
239.3495028499
 20
193.2355790296
 10
238.7168814122
 20
193.8172989323
 10
238.0777278495
 20
194.3754863729
 10
237.4329255293
 20
194.9093698862
 10
236.7833656265
 20
195.4182115973
 10
236.1299458913
 20
195.901308241
 10
235.4735694085
 20
196.3579921345
 10
234.8151433494
 20
196.7876320994
 10
234.1555777181
 20
197.1896343348
 10
233.4957840935
 20
197.5634432373
 10
232.8366743699
 20
197.9085421696
 10
232.179159496
 20
198.2244541737
 10
231.5241482167
 20
198.5107426309
 10
230.8725458163
 20
198.7670118648
 10
230.225252868
 20
198.9929076884
 10
229.5831639889
 20
199.1881178931
 10
228.9471666035
 20
199.3523726811
 10
228.3181397174
 20
199.4854450374
 10
227.6969527023
 20
199.587151044
 10
227.0844640946
 20
199.657350134
 10
226.4815204086
 20
199.6959452862
 10
225.8889549667
 20
199.7028831583
 10
225.3075867475
 20
199.6781541618
 10
224.7382192544
 20
199.6217924743
 10
224.1816394042
 20
199.5338759927
 10
223.6386164405
 20
199.4145262255
 10
223.1099008699
 20
199.2639081248
 10
222.5962234247
 20
199.0822298584
 10
222.0982940534
 20
198.8697425219
 10
221.6168009392
 20
198.6267397921
 10
221.1524095488
 20
198.3535575204
 10
220.705761713
 20
198.0505732694
 10
220.2774747391
 20
197.7182057906
 10
219.8681405583
 20
197.3569144457
 10
219.4783249073
 20
196.9671985717
 10
219.1085665464
 20
196.5495967912
 10
218.7593765147
 20
196.1046862674
 10
218.4312374245
 20
195.6330819065
 10
218.1246027933
 20
195.1354355082
 10
217.8398964179
 20
194.6124348646
 10
217.577511788
 20
194.0648028096
 10
217.3378115428
 20
193.49329622
 10
217.1211269696
 20
192.8987049692
 10
216.9277575459
 20
192.2818508358
 10
216.7579705258
 20
191.6435863678
 10
216.6120005701
 20
190.984793704
 10
216.4900494224
 20
190.3063833551
 10
216.3922856302
 20
189.6092929452
 10
216.3188443118
 20
188.894485916
 10
216.2698269698
 20
188.1629501951
 10
216.2453013504
 20
187.4156968305
 10
216.2453013504
 20
186.6537585937
 10
216.2698269698
 20
185.8781885518
 10
216.3188443118
 20
185.0900586123
 10
216.3922856302
 20
184.2904580418
 10
216.4900494224
 20
183.4804919601
 10
216.6120005701
 20
182.6612798131
 10
216.7579705258
 20
181.8339538257
 10
216.9277575459
 20
180.9996574369
 10
217.1211269696
 20
180.1595437193
 10
217.3378115428
 20
179.3147737855
 10
217.577511788
 20
178.4665151836
 10
217.8398964179
 20
177.6159402832
 10
218.1246027933
 20
176.7642246555
 10
218.4312374245
 20
175.9125454478
 10
218.7593765147
 20
175.0620797576
 10
219.1085665464
 20
174.2140030048
 10
219.4783249073
 20
173.3694873079
 10
219.8681405583
 20
172.5296998633
 10
220.2774747391
 20
171.695801333
 10
220.705761713
 20
170.8689442397
 10
221.1524095488
 20
170.0502713742
 10
221.6168009392
 20
169.240914216
 10
222.0982940534
 20
168.4419913695
 10
222.5962234247
 20
167.654607018
 10
223.1099008699
 20
166.8798493975
 10
223.6386164405
 20
166.1187892925
 10
224.1816394042
 20
165.3724785567
 10
224.7382192544
 20
164.6419486585
 10
225.3075867475
 20
163.928209256
 10
225.8889549667
 20
163.2322468013
 10
226.4815204086
 20
162.555023177
 10
227.0844640946
 20
161.8974743671
 10
227.6969527023
 20
161.2605091631
 10
228.3181397174
 20
160.6450079083
 10
228.9471666035
 20
160.0518212808
 10
229.5831639889
 20
159.4817691177
 10
230.225252868
 20
158.9356392825
 10
230.8725458163
 20
158.4141865757
 10
231.5241482167
 20
157.9181316919
 10
232.179159496
 20
157.4481602234
 10
232.8366743699
 20
157.0049217131
 10
233.4957840935
 20
156.5890287566
 10
234.1555777181
 20
156.2010561552
 10
234.8151433494
 20
155.841540122
 10
235.4735694085
 20
155.5109775405
 10
236.1299458913
 20
155.2098252779
 10
236.7833656265
 20
154.9384995537
 10
237.4329255293
 20
154.6973753645
 10
238.0777278495
 20
154.4867859655
 10
238.7168814122
 20
154.3070224103
 10
239.3495028499
 20
154.1583331482
 10
239.9747178227
 20
154.0409236812
 10
240.5916622274
 20
153.9549562798
 10
241.1994833912
 20
153.9005497585
 10
241.7973412508
 20
153.8777793122
 10
242.3844095128
 20
153.8866764115
 10
242.9598767959
 20
153.92722876
 10
243.5229477528
 20
153.9993803107
 10
244.0728441687
 20
154.1030313435
 10
244.6088060373
 20
154.2380386035
 10
245.1300926112
 20
154.4042154985
 10
245.6359834253
 20
154.601332357
 10
246.1257792931
 20
154.8291167458
 10
246.5988032727
 20
155.0872538465
 10
247.0544016023
 20
155.3753868904
 10
247.4919446042
 20
155.6931176516
 10
247.9108275545
 20
156.0400069977
 10
248.3104715193
 20
156.4155754964
 10
248.6903241548
 20
156.8193040783
 10
249.0498604704
 20
157.2506347541
 10
249.3885835546
 20
157.7089713862
 10
249.7060252617
 20
158.193680512
 10
250.0017468586
 20
158.7040922199
 10
250.2753396316
 20
159.2395010751
 10
250.5264254508
 20
159.7991670943
 10
250.754657293
 20
160.3823167689
 10
250.9597197213
 20
160.9881441335
 10
251.141329321
 20
161.6158118802
 10
251.2992350913
 20
162.2644525157
 10
251.4332187922
 20
162.9331695605
 10
251.5430952462
 20
163.6210387873
 10
251.6287125941
 20
164.327109499
 10
251.6899525051
 20
165.0504058425
 10
251.7267303401
 20
165.7899281571
 10
251.7389952689
 20
166.5446543564
  0
LWPOLYLINE
  5
B8
330
1F
100
AcDbEntity
  8
0
  6
Continuous
 62
     7
370
     0
100
AcDbPolyline
 90
       44
 70
   128
 43
0.0
 10
252.1632593376
 20
166.5446543564
 10
252.1509933879
 20
165.7853561927
 10
252.1142122928
 20
165.041257103
 10
252.0529662906
 20
164.3133734372
 10
251.9673390362
 20
163.6026993967
 10
251.857447486
 20
162.9102056768
 10
251.7234417387
 20
162.2368381407
 10
251.56550483
 20
161.5835165275
 10
251.3838524828
 20
160.9511331957
 10
251.1787328122
 20
160.3405519051
 10
250.9504259871
 20
159.7526066362
 10
250.6992438472
 20
159.1881004516
 10
250.425529477
 20
158.6478043987
 10
250.1296567374
 20
158.132456457
 10
249.8120297551
 20
157.6427605298
 10
249.4730823702
 20
157.1793854828
 10
249.1132775442
 20
156.7429642306
 10
248.733106727
 20
156.3340928722
 10
248.3330891865
 20
155.9533298766
 10
247.9137712983
 20
155.6011953203
 10
247.4757258003
 20
155.2781701767
 10
247.0195510099
 20
154.9846956594
 10
246.5458700071
 20
154.7211726191
 10
246.055329783
 20
154.4879609968
 10
245.5486003568
 20
154.2853793313
 10
245.0263738597
 20
154.113704325
 10
244.4893635904
 20
153.9731704651
 10
243.9383030403
 20
153.8639697041
 10
243.3739448918
 20
153.7862511971
 10
242.7970599903
 20
153.7401210982
 10
242.2084362912
 20
153.7256424155
 10
241.6088777836
 20
153.7428349252
 10
240.9992033923
 20
153.7916751444
 10
240.3802458593
 20
153.8720963633
 10
239.752850606
 20
153.9839887361
 10
239.1178745789
 20
154.1271994312
 10
238.4761850789
 20
154.3015328402
 10
237.8286585766
 20
154.5067508445
 10
237.1761795154
 20
154.7425731411
 10
236.5196391032
 20
155.008677625
 10
235.8599340952
 20
155.3047008296
 10
235.1979655691
 20
155.6302384227
 10
234.5346376942
 20
155.9848457591
 10
234.1998280071
 20
156.1745861825
  0
LWPOLYLINE
  5
B9
330
1F
100
AcDbEntity
  8
0
  6
Continuous
 62
     7
370
     0
100
AcDbPolyline
 90
       86
 70
   128
 43
0.0
 10
216.2422348533
 20
187.2814203967
 10
216.254500803
 20
188.0407185604
 10
216.2912818982
 20
188.7848176501
 10
216.3525279003
 20
189.512701316
 10
216.4381551547
 20
190.2233753565
 10
216.5480467049
 20
190.9158690763
 10
216.6820524522
 20
191.5892366124
 10
216.8399893609
 20
192.2425582257
 10
217.0216417081
 20
192.8749415574
 10
217.2267613787
 20
193.485522848
 10
217.4550682038
 20
194.0734681169
 10
217.7062503437
 20
194.6379743016
 10
217.9799647139
 20
195.1782703545
 10
218.2758374535
 20
195.6936182962
 10
218.5934644358
 20
196.1833142234
 10
218.9324118207
 20
196.6466892704
 10
219.2922166468
 20
197.0831105225
 10
219.6723874639
 20
197.491981881
 10
220.0724050045
 20
197.8727448766
 10
220.4917228927
 20
198.2248794329
 10
220.9297683907
 20
198.5479045764
 10
221.385943181
 20
198.8413790938
 10
221.8596241839
 20
199.104902134
 10
222.3501644079
 20
199.3381137564
 10
222.8568938342
 20
199.5406954218
 10
223.3791203312
 20
199.7123704282
 10
223.9161306005
 20
199.852904288
 10
224.4671911507
 20
199.962105049
 10
225.0315492991
 20
200.039823556
 10
225.6084342006
 20
200.085953655
 10
226.1970578998
 20
200.1004323377
 10
226.7966164074
 20
200.0832398279
 10
227.4062907986
 20
200.0343996087
 10
228.0252483317
 20
199.9539783899
 10
228.652643585
 20
199.8420860171
 10
229.2876196121
 20
199.6988753219
 10
229.9293091121
 20
199.524541913
 10
230.5768356143
 20
199.3193239086
 10
231.2293146755
 20
199.0835016121
 10
231.8858550878
 20
198.8173971281
 10
232.5455600958
 20
198.5213739236
 10
233.2075286219
 20
198.1958363305
 10
233.8708564967
 20
197.8412289941
 10
234.5346376942
 20
197.4580362652
 10
235.1979655691
 20
197.0467815392
 10
235.8599340952
 20
196.6080265405
 10
236.5196391032
 20
196.1423705556
 10
237.1761795154
 20
195.6504496146
 10
237.8286585766
 20
195.1329356223
 10
238.4761850789
 20
194.5905354406
 10
239.1178745789
 20
194.0239899229
 10
239.752850606
 20
193.4340729023
 10
240.3802458593
 20
192.8215901343
 10
240.9992033923
 20
192.1873781969
 10
241.6088777836
 20
191.5323033472
 10
242.2084362912
 20
190.8572603387
 10
242.7970599903
 20
190.163171199
 10
243.3739448918
 20
189.4509839702
 10
243.9383030403
 20
188.7216714145
 10
244.4893635904
 20
187.9762296851
 10
245.0263738597
 20
187.2156769658
 10
245.5486003568
 20
186.4410520801
 10
246.055329783
 20
185.6534130724
 10
246.5458700071
 20
184.8538357628
 10
247.0195510099
 20
184.0434122778
 10
247.4757258003
 20
183.2232495583
 10
247.9137712983
 20
182.3944678481
 10
248.3330891865
 20
181.5581991632
 10
248.733106727
 20
180.715585746
 10
249.1132775442
 20
179.8677785051
 10
249.4730823702
 20
179.0159354433
 10
249.8120297551
 20
178.1612200756
 10
250.1296567374
 20
177.3047998406
 10
250.425529477
 20
176.4478445051
 10
250.6992438472
 20
175.5915245671
 10
250.9504259871
 20
174.7370096567
 10
251.1787328122
 20
173.8854669384
 10
251.3838524828
 20
173.0380595171
 10
251.56550483
 20
172.1959448495
 10
251.7234417387
 20
171.3602731629
 10
251.857447486
 20
170.5321858843
 10
251.9673390362
 20
169.7128140813
 10
252.0529662906
 20
168.9032769172
 10
252.1142122928
 20
168.1046801224
 10
252.1509933879
 20
167.3181144842
 10
252.1632593376
 20
166.5446543564
  0
ARC
  5
BA
330
1F
100
AcDbEntity
  8
0
  6
Continuous
 62
     7
370
     0
100
AcDbCircle
 10
216.2574473995
 20
168.4126031436
 30
0.0
 40
35.14565313743385
100
AcDbArc
 50
45.5574811247
 51
47.4434025227
  0
LINE
  5
BB
330
1F
100
AcDbEntity
  8
0
  6
Continuous
 62
     7
370
     0
100
AcDbLine
 10
241.9004650061
 20
195.3827050572
 30
0.0
 11
240.0270911962
 21
194.3012293766
 31
0.0
  0
ARC
  5
BC
330
1F
100
AcDbEntity
  8
0
  6
Continuous
 62
     7
370
     0
100
AcDbCircle
 10
218.8306553503
 20
170.2502289914
 30
0.0
 40
34.11535535142372
100
AcDbArc
 50
47.4502992141
 51
47.9312335668
  0
LINE
  5
BD
330
1F
100
AcDbEntity
  8
0
  6
Continuous
 62
     7
370
     0
100
AcDbLine
 10
239.5673752379
 20
194.3508506339
 30
0.0
 11
241.6886955815
 21
195.5754628017
 31
0.0
  0
ARC
  5
BE
330
1F
100
AcDbEntity
  8
0
  6
Continuous
 62
     7
370
     0
100
AcDbCircle
 10
216.1521002691
 20
168.4185065647
 30
0.0
 40
34.93939854650768
100
AcDbArc
 50
45.55330367
 51
47.919949605
  0
LINE
  5
BF
330
1F
100
AcDbEntity
  8
0
  6
Continuous
 62
     7
370
     0
100
AcDbLine
 10
240.866200147
 20
193.5049570122
 30
0.0
 11
240.6182536133
 21
193.3618205251
 31
0.0
  0
SPLINE
  5
C0
330
1F
100
AcDbEntity
  8
0
  6
Continuous
 62
     7
370
     0
100
AcDbSpline
210
0.0
220
0.0
230
1.0
 70
     8
 71
     3
 72
    15
 73
    11
 74
     0
 42
0.00000001
 43
0.00000001
 12
1.0
 22
0.0
 32
0.0
 13
1.0
 23
0.0
 33
0.0
 40
0.0
 40
0.0
 40
0.0
 40
0.0
 40
0.0625883864441317
 40
0.1251453538309956
 40
0.2501107778949289
 40
0.3709198417053798
 40
0.5000385589551126
 40
0.7497303507263371
 40
0.874837902005407
 40
1.0
 40
1.0
 40
1.0
 40
1.0
 10
238.805202984612
 20
196.6311831275549
 30
0.0
 10
238.8142226772566
 20
196.6187967610443
 30
0.0
 10
238.8322575347051
 20
196.594030245917
 30
0.0
 10
238.8596913450105
 20
196.5424790635533
 30
0.0
 10
238.8798911871334
 20
196.4768083275105
 30
0.0
 10
238.8771943938051
 20
196.3974051709451
 30
0.0
 10
238.8400770797121
 20
196.2978787977684
 30
0.0
 10
238.7701054465786
 20
196.2076655440904
 30
0.0
 10
238.6783000482754
 20
196.1307403967891
 30
0.0
 10
238.6242293654682
 20
196.0977771009644
 30
0.0
 10
238.5971881316637
 20
196.0812918608476
 30
0.0
  0
SPLINE
  5
C1
330
1F
100
AcDbEntity
  8
0
  6
Continuous
 62
     7
370
     0
100
AcDbSpline
210
0.0
220
0.0
230
1.0
 70
     8
 71
     3
 72
    13
 73
     9
 74
     0
 42
0.00000001
 43
0.00000001
 12
1.0
 22
0.0
 32
0.0
 13
1.0
 23
0.0
 33
0.0
 40
0.0
 40
0.0
 40
0.0
 40
0.0
 40
0.1252099869911468
 40
0.250349818077825
 40
0.5000909072610702
 40
0.7496995620989352
 40
0.874811831300961
 40
1.0
 40
1.0
 40
1.0
 40
1.0
 10
239.4732272271351
 20
196.6980054474692
 30
0.0
 10
239.451004326859
 20
196.6859638278868
 30
0.0
 10
239.4065709779311
 20
196.6618873357135
 30
0.0
 10
239.3069047527294
 20
196.6237670671321
 30
0.0
 10
239.1672656074599
 20
196.5937416357008
 30
0.0
 10
239.015356454203
 20
196.5926431392242
 30
0.0
 10
238.8938016629967
 20
196.608695822296
 30
0.0
 10
238.8347418470466
 20
196.623685843976
 30
0.0
 10
238.805202984612
 20
196.6311831275549
 30
0.0
  0
SPLINE
  5
C2
330
1F
100
AcDbEntity
  8
0
  6
Continuous
 62
     7
370
     0
100
AcDbSpline
210
0.0
220
0.0
230
1.0
 70
     8
 71
     3
 72
    16
 73
    12
 74
     0
 42
0.00000001
 43
0.00000001
 12
1.0
 22
0.0
 32
0.0
 13
1.0
 23
0.0
 33
0.0
 40
0.0
 40
0.0
 40
0.0
 40
0.0
 40
0.0626588867697323
 40
0.1252974675626994
 40
0.2503187250317795
 40
0.4992376341359909
 40
0.6255638958849383
 40
0.7494966237450198
 40
0.8746864990787085
 40
0.937334858300888
 40
1.0
 40
1.0
 40
1.0
 40
1.0
 10
239.5320413634225
 20
197.3960110442949
 30
0.0
 10
239.5486425611811
 20
197.3828147071673
 30
0.0
 10
239.5818395767187
 20
197.3564263094727
 30
0.0
 10
239.638877795013
 20
197.299019398454
 30
0.0
 10
239.7151618855598
 20
197.1900846334079
 30
0.0
 10
239.7356671247719
 20
197.0534513049177
 30
0.0
 10
239.7034465489089
 20
196.9264650366147
 30
0.0
 10
239.6502668689303
 20
196.8384425849949
 30
0.0
 10
239.5857031160124
 20
196.7743538388237
 30
0.0
 10
239.5243028397681
 20
196.7287012514739
 30
0.0
 10
239.490253951333
 20
196.7082382956306
 30
0.0
 10
239.4732272271351
 20
196.6980054474692
 30
0.0
  0
SPLINE
  5
C3
330
1F
100
AcDbEntity
  8
0
  6
Continuous
 62
     7
370
     0
100
AcDbSpline
210
0.0
220
0.0
230
1.0
 70
     8
 71
     3
 72
    15
 73
    11
 74
     0
 42
0.00000001
 43
0.00000001
 12
1.0
 22
0.0
 32
0.0
 13
1.0
 23
0.0
 33
0.0
 40
0.0
 40
0.0
 40
0.0
 40
0.0
 40
0.1252341676629945
 40
0.2504185904834582
 40
0.4996345629613536
 40
0.624699165843382
 40
0.7497326816378568
 40
0.874761197916651
 40
0.9373708476522385
 40
0.9999999999999999
 40
0.9999999999999999
 40
0.9999999999999999
 40
0.9999999999999999
 10
238.4942461348819
 20
197.4718193596418
 30
0.0
 10
238.5335377336683
 20
197.486775452246
 30
0.0
 10
238.6121053240435
 20
197.5166816966756
 30
0.0
 10
238.7817097129052
 20
197.5614282065585
 30
0.0
 10
238.9704135253781
 20
197.5810872386168
 30
0.0
 10
239.1611354764034
 20
197.5581698702348
 30
0.0
 10
239.2995469739033
 20
197.5228634036975
 30
0.0
 10
239.4049010625071
 20
197.4771537243246
 30
0.0
 10
239.4804514525289
 20
197.4328879585873
 30
0.0
 10
239.5148429412715
 20
197.4083046251258
 30
0.0
 10
239.5320413634225
 20
197.3960110442949
 30
0.0
  0
SPLINE
  5
C4
330
1F
100
AcDbEntity
  8
0
  6
Continuous
 62
     7
370
     0
100
AcDbSpline
210
0.0
220
0.0
230
1.0
 70
     8
 71
     3
 72
     8
 73
     4
 74
     0
 42
0.00000001
 43
0.00000001
 12
1.0
 22
0.0
 32
0.0
 13
1.0
 23
0.0
 33
0.0
 40
0.0
 40
0.0
 40
0.0
 40
0.0
 40
1.0
 40
1.0
 40
1.0
 40
1.0
 10
238.6853082980954
 20
197.2973989652262
 30
0.0
 10
238.6216790568385
 20
197.3560216941343
 30
0.0
 10
238.5579898402606
 20
197.414163151706
 30
0.0
 10
238.4942461348819
 20
197.4718193596418
 30
0.0
  0
SPLINE
  5
C5
330
1F
100
AcDbEntity
  8
0
  6
Continuous
 62
     7
370
     0
100
AcDbSpline
210
0.0
220
0.0
230
1.0
 70
     8
 71
     3
 72
    14
 73
    10
 74
     0
 42
0.00000001
 43
0.00000001
 12
1.0
 22
0.0
 32
0.0
 13
1.0
 23
0.0
 33
0.0
 40
0.0
 40
0.0
 40
0.0
 40
0.0
 40
0.1251717002211796
 40
0.2502007123742238
 40
0.3731296697837786
 40
0.5001936843439049
 40
0.7495148542008764
 40
0.8926309034239375
 40
1.0
 40
1.0
 40
1.0
 40
1.0
 10
239.3176030264487
 20
197.2642971104228
 30
0.0
 10
239.2960427947144
 20
197.2791000007559
 30
0.0
 10
239.2529469085888
 20
197.3086889070344
 30
0.0
 10
239.1742247716996
 20
197.3405554431208
 30
0.0
 10
239.089072297868
 20
197.3612410912253
 30
0.0
 10
238.9719082422333
 20
197.3706928407856
 30
0.0
 10
238.8537552271046
 20
197.355325252042
 30
0.0
 10
238.7527814775303
 20
197.3245540351625
 30
0.0
 10
238.7055526698568
 20
197.3055464593209
 30
0.0
 10
238.6853082980954
 20
197.2973989652262
 30
0.0
  0
SPLINE
  5
C6
330
1F
100
AcDbEntity
  8
0
  6
Continuous
 62
     7
370
     0
100
AcDbSpline
210
0.0
220
0.0
230
1.0
 70
     8
 71
     3
 72
    13
 73
     9
 74
     0
 42
0.00000001
 43
0.00000001
 12
1.0
 22
0.0
 32
0.0
 13
1.0
 23
0.0
 33
0.0
 40
0.0
 40
0.0
 40
0.0
 40
0.0
 40
0.1254852044870827
 40
0.2508437863163052
 40
0.5002097958322458
 40
0.7494510840741708
 40
0.874608088902579
 40
1.0
 40
1.0
 40
1.0
 40
1.0
 10
239.268559507857
 20
196.8740789560247
 30
0.0
 10
239.2873406576297
 20
196.8860235113312
 30
0.0
 10
239.3248840057845
 20
196.9099005691183
 30
0.0
 10
239.3874641146652
 20
196.9655960648413
 30
0.0
 10
239.4307993612203
 20
197.0518399323771
 30
0.0
 10
239.4189451117129
 20
197.1472036017905
 30
0.0
 10
239.3723434880596
 20
197.2184494993964
 30
0.0
 10
239.3358612484942
 20
197.2490050241352
 30
0.0
 10
239.3176030264487
 20
197.2642971104228
 30
0.0
  0
SPLINE
  5
C7
330
1F
100
AcDbEntity
  8
0
  6
Continuous
 62
     7
370
     0
100
AcDbSpline
210
0.0
220
0.0
230
1.0
 70
     8
 71
     3
 72
    14
 73
    10
 74
     0
 42
0.00000001
 43
0.00000001
 12
1.0
 22
0.0
 32
0.0
 13
1.0
 23
0.0
 33
0.0
 40
0.0
 40
0.0
 40
0.0
 40
0.0
 40
0.0717346767476651
 40
0.143459773354336
 40
0.2509588837864648
 40
0.5001424473574595
 40
0.7491709626086758
 40
0.874524072982843
 40
1.0
 40
1.0
 40
1.0
 40
1.0
 10
238.5754881955277
 20
196.9392713917579
 30
0.0
 10
238.588755620327
 20
196.9295783207641
 30
0.0
 10
238.6152886980659
 20
196.9101934732826
 30
0.0
 10
238.6674110023196
 20
196.8800255805427
 30
0.0
 10
238.762254300592
 20
196.8336091946909
 30
0.0
 10
238.9197843870412
 20
196.7937594370882
 30
0.0
 10
239.0835494505374
 20
196.8018029683843
 30
0.0
 10
239.1964265716709
 20
196.8360196446382
 30
0.0
 10
239.2445073483256
 20
196.8613883783563
 30
0.0
 10
239.268559507857
 20
196.8740789560247
 30
0.0
  0
SPLINE
  5
C8
330
1F
100
AcDbEntity
  8
0
  6
Continuous
 62
     7
370
     0
100
AcDbSpline
210
0.0
220
0.0
230
1.0
 70
     8
 71
     3
 72
     8
 73
     4
 74
     0
 42
0.00000001
 43
0.00000001
 12
1.0
 22
0.0
 32
0.0
 13
1.0
 23
0.0
 33
0.0
 40
0.0
 40
0.0
 40
0.0
 40
0.0
 40
1.0
 40
1.0
 40
1.0
 40
1.0
 10
238.5457041657691
 20
196.9654789935924
 30
0.0
 10
238.5556336467724
 20
196.9567539265521
 30
0.0
 10
238.5655616628975
 20
196.9480180546443
 30
0.0
 10
238.5754881955277
 20
196.9392713917579
 30
0.0
  0
LINE
  5
C9
330
1F
100
AcDbEntity
  8
0
  6
Continuous
 62
     7
370
     0
100
AcDbLine
 10
238.2687690201
 20
196.84163629
 30
0.0
 11
238.5457041658
 21
196.9654789936
 31
0.0
  0
SPLINE
  5
CA
330
1F
100
AcDbEntity
  8
0
  6
Continuous
 62
     7
370
     0
100
AcDbSpline
210
0.0
220
0.0
230
1.0
 70
     8
 71
     3
 72
    10
 73
     6
 74
     0
 42
0.00000001
 43
0.00000001
 12
1.0
 22
0.0
 32
0.0
 13
1.0
 23
0.0
 33
0.0
 40
0.0
 40
0.0
 40
0.0
 40
0.0
 40
0.2500137948370225
 40
0.500055933419661
 40
1.0
 40
1.0
 40
1.0
 40
1.0
 10
238.4483571631652
 20
196.7460774822018
 30
0.0
 10
238.4350570522035
 20
196.7554190720946
 30
0.0
 10
238.4084553224633
 20
196.7741033109244
 30
0.0
 10
238.348511753693
 20
196.8064620998057
 30
0.0
 10
238.3006643244979
 20
196.8275674030415
 30
0.0
 10
238.2687690200742
 20
196.8416362899803
 30
0.0
  0
SPLINE
  5
CB
330
1F
100
AcDbEntity
  8
0
  6
Continuous
 62
     7
370
     0
100
AcDbSpline
210
0.0
220
0.0
230
1.0
 70
     8
 71
     3
 72
    15
 73
    11
 74
     0
 42
0.00000001
 43
0.00000001
 12
1.0
 22
0.0
 32
0.0
 13
1.0
 23
0.0
 33
0.0
 40
0.0
 40
0.0
 40
0.0
 40
0.0
 40
0.1253044930661368
 40
0.250497156207878
 40
0.3756914863566538
 40
0.5008346873114786
 40
0.7496416840877465
 40
0.8747077858772837
 40
0.9373364107678793
 40
1.0
 40
1.0
 40
1.0
 40
1.0
 10
238.3776298946204
 20
196.2497198714223
 30
0.0
 10
238.4018935514929
 20
196.2646961166905
 30
0.0
 10
238.4503992107637
 20
196.2946352414464
 30
0.0
 10
238.5091788213511
 20
196.3486646888177
 30
0.0
 10
238.553873249879
 20
196.4093939576873
 30
0.0
 10
238.5850500524523
 20
196.4988118225839
 30
0.0
 10
238.5772671224058
 20
196.5968361549952
 30
0.0
 10
238.5248296421937
 20
196.6759415449722
 30
0.0
 10
238.4843701821926
 20
196.717584548401
 30
0.0
 10
238.4603637359396
 20
196.7365780708091
 30
0.0
 10
238.4483571631652
 20
196.7460774822018
 30
0.0
  0
SPLINE
  5
CC
330
1F
100
AcDbEntity
  8
0
  6
Continuous
 62
     7
370
     0
100
AcDbSpline
210
0.0
220
0.0
230
1.0
 70
     8
 71
     3
 72
    16
 73
    12
 74
     0
 42
0.00000001
 43
0.00000001
 12
1.0
 22
0.0
 32
0.0
 13
1.0
 23
0.0
 33
0.0
 40
0.0
 40
0.0
 40
0.0
 40
0.0
 40
0.0714748983120378
 40
0.1429605478135483
 40
0.2855238170234781
 40
0.3926196488311579
 40
0.4998231957010136
 40
0.6247937871614303
 40
0.749791111518378
 40
0.8748705096675069
 40
0.9999999999999999
 40
0.9999999999999999
 40
0.9999999999999999
 40
0.9999999999999999
 10
237.5824028922102
 20
196.2620215115984
 30
0.0
 10
237.5978099968023
 20
196.2510645962491
 30
0.0
 10
237.628626523509
 20
196.2291491174212
 30
0.0
 10
237.7005595381619
 20
196.1930070031602
 30
0.0
 10
237.7914251328077
 20
196.1633337045133
 30
0.0
 10
237.8972238496783
 20
196.1479312925285
 30
0.0
 10
237.9979179679592
 20
196.142493791456
 30
0.0
 10
238.1014414228665
 20
196.1503973557017
 30
0.0
 10
238.2027836001092
 20
196.1727763237065
 30
0.0
 10
238.2962829690504
 20
196.2056542846773
 30
0.0
 10
238.3505106339446
 20
196.2350293821949
 30
0.0
 10
238.3776298946204
 20
196.2497198714223
 30
0.0
  0
SPLINE
  5
CD
330
1F
100
AcDbEntity
  8
0
  6
Continuous
 62
     7
370
     0
100
AcDbSpline
210
0.0
220
0.0
230
1.0
 70
     8
 71
     3
 72
    14
 73
    10
 74
     0
 42
0.00000001
 43
0.00000001
 12
1.0
 22
0.0
 32
0.0
 13
1.0
 23
0.0
 33
0.0
 40
0.0
 40
0.0
 40
0.0
 40
0.0
 40
0.1355229732914336
 40
0.2508374022844056
 40
0.5010239145982911
 40
0.7495841688941781
 40
0.8746147165034573
 40
0.9372877092171249
 40
1.0
 40
1.0
 40
1.0
 40
1.0
 10
237.666214695515
 20
196.7448259661034
 30
0.0
 10
237.6450475380755
 20
196.7264918127643
 30
0.0
 10
237.6058695695222
 20
196.6925574082498
 30
0.0
 10
237.5364902872898
 20
196.6203842466516
 30
0.0
 10
237.4696763179044
 20
196.5235701929397
 30
0.0
 10
237.4616855436387
 20
196.4073951012309
 30
0.0
 10
237.5087830384318
 20
196.3302547926199
 30
0.0
 10
237.5475559797083
 20
196.2898219884143
 30
0.0
 10
237.5707848279259
 20
196.2712902732646
 30
0.0
 10
237.5824028922102
 20
196.2620215115984
 30
0.0
  0
SPLINE
  5
CE
330
1F
100
AcDbEntity
  8
0
  6
Continuous
 62
     7
370
     0
100
AcDbSpline
210
0.0
220
0.0
230
1.0
 70
     8
 71
     3
 72
     8
 73
     4
 74
     0
 42
0.00000001
 43
0.00000001
 12
1.0
 22
0.0
 32
0.0
 13
1.0
 23
0.0
 33
0.0
 40
0.0
 40
0.0
 40
0.0
 40
0.0
 40
1.0
 40
1.0
 40
1.0
 40
1.0
 10
237.4200106357498
 20
196.8870756205615
 30
0.0
 10
237.5021342872535
 20
196.8401434878122
 30
0.0
 10
237.5842041363724
 20
196.7927256132599
 30
0.0
 10
237.666214695515
 20
196.7448259661034
 30
0.0
  0
SPLINE
  5
CF
330
1F
100
AcDbEntity
  8
0
  6
Continuous
 62
     7
370
     0
100
AcDbSpline
210
0.0
220
0.0
230
1.0
 70
     8
 71
     3
 72
    16
 73
    12
 74
     0
 42
0.00000001
 43
0.00000001
 12
1.0
 22
0.0
 32
0.0
 13
1.0
 23
0.0
 33
0.0
 40
0.0
 40
0.0
 40
0.0
 40
0.0
 40
0.0625665768458793
 40
0.1251105477877633
 40
0.2499818396694569
 40
0.3720036460820754
 40
0.4998585227932845
 40
0.6248526661662422
 40
0.7498508640998901
 40
0.874906050032823
 40
1.0
 40
1.0
 40
1.0
 40
1.0
 10
237.3586011189142
 20
196.137350284632
 30
0.0
 10
237.3404474606971
 20
196.151671788519
 30
0.0
 10
237.3041467033536
 20
196.1803096217965
 30
0.0
 10
237.2423069565379
 20
196.2423561351449
 30
0.0
 10
237.1845123823616
 20
196.3253349291675
 30
0.0
 10
237.1494553434405
 20
196.4306130841561
 30
0.0
 10
237.1506105702643
 20
196.5351488764662
 30
0.0
 10
237.1793198654699
 20
196.6365794151106
 30
0.0
 10
237.2396859529332
 20
196.7287812098563
 30
0.0
 10
237.3188749851131
 20
196.8136708792403
 30
0.0
 10
237.3862952696388
 20
196.8626048457917
 30
0.0
 10
237.4200106357498
 20
196.8870756205615
 30
0.0
  0
SPLINE
  5
D0
330
1F
100
AcDbEntity
  8
0
  6
Continuous
 62
     7
370
     0
100
AcDbSpline
210
0.0
220
0.0
230
1.0
 70
     8
 71
     3
 72
    17
 73
    13
 74
     0
 42
0.00000001
 43
0.00000001
 12
1.0
 22
0.0
 32
0.0
 13
1.0
 23
0.0
 33
0.0
 40
0.0
 40
0.0
 40
0.0
 40
0.0
 40
0.0625781114081231
 40
0.1251418955521408
 40
0.2501732111410206
 40
0.375805035099882
 40
0.5001247609789808
 40
0.6251195279422562
 40
0.750022471413354
 40
0.8748882098132066
 40
0.9374302638311374
 40
1.0
 40
1.0
 40
1.0
 40
1.0
 10
238.5971881316637
 20
196.0812918608476
 30
0.0
 10
238.5763152425043
 20
196.0696941734322
 30
0.0
 10
238.5345742430353
 20
196.0465014538929
 30
0.0
 10
238.4444247002915
 20
196.0059749323161
 30
0.0
 10
238.3222871276536
 20
195.9643816465861
 30
0.0
 10
238.1610430950927
 20
195.9352922657403
 30
0.0
 10
237.9899690298611
 20
195.9301068778034
 30
0.0
 10
237.8166653006483
 20
195.9473148437889
 30
0.0
 10
237.6460466998219
 20
195.9858003651352
 30
0.0
 10
237.5150846529553
 20
196.0395831546273
 30
0.0
 10
237.4214499478267
 20
196.0925768872619
 30
0.0
 10
237.3795538185216
 20
196.1224236175528
 30
0.0
 10
237.3586011189142
 20
196.137350284632
 30
0.0
  0
ARC
  5
D1
330
1F
100
AcDbEntity
  8
0
  6
Continuous
 62
     7
370
     0
100
AcDbCircle
 10
223.8760698563
 20
178.2139061968
 30
0.0
 40
23.34716877543552
100
AcDbArc
 50
60.2085010619
 51
61.4664420431
  0
SPLINE
  5
D2
330
1F
100
AcDbEntity
  8
0
  6
Continuous
 62
     7
370
     0
100
AcDbSpline
210
0.0
220
0.0
230
1.0
 70
     8
 71
     3
 72
    17
 73
    13
 74
     0
 42
0.00000001
 43
0.00000001
 12
1.0
 22
0.0
 32
0.0
 13
1.0
 23
0.0
 33
0.0
 40
0.0
 40
0.0
 40
0.0
 40
0.0
 40
0.0625867507144379
 40
0.1251607877735521
 40
0.2502054915255323
 40
0.3751630122568523
 40
0.4405101568607808
 40
0.5002773891343765
 40
0.6183058012602893
 40
0.7498302131143925
 40
0.874861890725474
 40
1.0
 40
1.0
 40
1.0
 40
1.0
 10
236.7827832718559
 20
198.4639833071465
 30
0.0
 10
236.7603584288752
 20
198.4514293526555
 30
0.0
 10
236.7155132982186
 20
198.4263239938404
 30
0.0
 10
236.6189284875096
 20
198.3808368438605
 30
0.0
 10
236.4876360415701
 20
198.3322078680706
 30
0.0
 10
236.3406838938494
 20
198.2992812127972
 30
0.0
 10
236.2189188386131
 20
198.2843658790875
 30
0.0
 10
236.0980212424589
 20
198.2777783633275
 30
0.0
 10
235.9422760624709
 20
198.2914734599188
 30
0.0
 10
235.769279196962
 20
198.3371517543869
 30
0.0
 10
235.6120059371261
 20
198.4012900710607
 30
0.0
 10
235.521347293262
 20
198.450752353416
 30
0.0
 10
235.4759986865266
 20
198.475494016154
 30
0.0
  0
SPLINE
  5
D3
330
1F
100
AcDbEntity
  8
0
  6
Continuous
 62
     7
370
     0
100
AcDbSpline
210
0.0
220
0.0
230
1.0
 70
     8
 71
     3
 72
    16
 73
    12
 74
     0
 42
0.00000001
 43
0.00000001
 12
1.0
 22
0.0
 32
0.0
 13
1.0
 23
0.0
 33
0.0
 40
0.0
 40
0.0
 40
0.0
 40
0.0
 40
0.0625716166060415
 40
0.1251333442834471
 40
0.2500890908637027
 40
0.3712225297604079
 40
0.5001650323831507
 40
0.7497016235417546
 40
0.8498037792774736
 40
0.9248985296235307
 40
1.0
 40
1.0
 40
1.0
 40
1.0
 10
237.0278085701316
 20
198.9937917305743
 30
0.0
 10
237.0361635760981
 20
198.98255574653
 30
0.0
 10
237.0528722675912
 20
198.9600855541962
 30
0.0
 10
237.0752650721248
 20
198.912751569383
 30
0.0
 10
237.0898806302128
 20
198.8523705050923
 30
0.0
 10
237.0813988789548
 20
198.7785721303922
 30
0.0
 10
237.0445341915616
 20
198.6828388185475
 30
0.0
 10
236.9725722568322
 20
198.5979624595188
 30
0.0
 10
236.8886479949887
 20
198.5319167391963
 30
0.0
 10
236.8351624885527
 20
198.4948971625505
 30
0.0
 10
236.8002435315324
 20
198.4742882329738
 30
0.0
 10
236.7827832718559
 20
198.4639833071465
 30
0.0
  0
SPLINE
  5
D4
330
1F
100
AcDbEntity
  8
0
  6
Continuous
 62
     7
370
     0
100
AcDbSpline
210
0.0
220
0.0
230
1.0
 70
     8
 71
     3
 72
    13
 73
     9
 74
     0
 42
0.00000001
 43
0.00000001
 12
1.0
 22
0.0
 32
0.0
 13
1.0
 23
0.0
 33
0.0
 40
0.0
 40
0.0
 40
0.0
 40
0.0
 40
0.2716161760927583
 40
0.5000373570164428
 40
0.6342271489842847
 40
0.7500701523405284
 40
0.8670131673702696
 40
1.0
 40
1.0
 40
1.0
 40
1.0
 10
236.7286453937857
 20
199.2154512669272
 30
0.0
 10
236.7595543988702
 20
199.1974544055969
 30
0.0
 10
236.8164569642211
 20
199.1643227154905
 30
0.0
 10
236.8842562810904
 20
199.1193844197036
 30
0.0
 10
236.9323220744938
 20
199.0838486502877
 30
0.0
 10
236.9677162067312
 20
199.0558149696321
 30
0.0
 10
236.9993968130051
 20
199.0263217227638
 30
0.0
 10
237.0179411765596
 20
199.0050893857809
 30
0.0
 10
237.0278085701316
 20
198.9937917305743
 30
0.0
  0
ARC
  5
D5
330
1F
100
AcDbEntity
  8
0
  6
Continuous
 62
     7
370
     0
100
AcDbCircle
 10
225.2570697715
 20
179.1487738684
 30
0.0
 40
23.11425077904136
100
AcDbArc
 50
60.2445668095
 51
62.0929923019
  0
LINE
  5
D6
330
1F
100
AcDbEntity
  8
0
  6
Continuous
 62
     7
370
     0
100
AcDbLine
 10
233.9540948651
 20
198.3504190934
 30
0.0
 11
236.0754152087
 21
199.5750312612
 31
0.0
  0
ARC
  5
D7
330
1F
100
AcDbEntity
  8
0
  6
Continuous
 62
     7
370
     0
100
AcDbCircle
 10
223.3373817766
 20
178.2983771218
 30
0.0
 40
22.68918209275862
100
AcDbArc
 50
61.4694521771
 51
62.1006619761
  0
LINE
  5
D8
330
1F
100
AcDbEntity
  8
0
  6
Continuous
 62
     7
370
     0
100
AcDbLine
 10
235.0283913175
 20
198.7252692879
 30
0.0
 11
234.1743532571
 21
198.23224361
 31
0.0
  0
SPLINE
  5
D9
330
1F
100
AcDbEntity
  8
0
  6
Continuous
 62
     7
370
     0
100
AcDbSpline
210
0.0
220
0.0
230
1.0
 70
     8
 71
     3
 72
     8
 73
     4
 74
     0
 42
0.00000001
 43
0.00000001
 12
1.0
 22
0.0
 32
0.0
 13
1.0
 23
0.0
 33
0.0
 40
0.0
 40
0.0
 40
0.0
 40
0.0
 40
1.0
 40
1.0
 40
1.0
 40
1.0
 10
231.311007397583
 20
199.5219642900104
 30
0.0
 10
231.7628559006851
 20
199.9370032115289
 30
0.0
 10
232.2151505603731
 20
200.3491013479852
 30
0.0
 10
232.6679565132464
 20
200.7582366385547
 30
0.0
  0
ARC
  5
DA
330
1F
100
AcDbEntity
  8
0
  6
Continuous
 62
     7
370
     0
100
AcDbCircle
 10
225.3468942737
 20
182.7495014398
 30
0.0
 40
17.80129645327271
100
AcDbArc
 50
69.6657262332
 51
70.4251432078
  0
SPLINE
  5
DB
330
1F
100
AcDbEntity
  8
0
  6
Continuous
 62
     7
370
     0
100
AcDbSpline
210
0.0
220
0.0
230
1.0
 70
     8
 71
     3
 72
     8
 73
     4
 74
     0
 42
0.00000001
 43
0.00000001
 12
1.0
 22
0.0
 32
0.0
 13
1.0
 23
0.0
 33
0.0
 40
0.0
 40
0.0
 40
0.0
 40
0.0
 40
1.0
 40
1.0
 40
1.0
 40
1.0
 10
233.7863806011634
 20
200.2576771356431
 30
0.0
 10
233.0348027795115
 20
199.9885620727256
 30
0.0
 10
232.2835817102514
 20
199.7164927395229
 30
0.0
 10
231.5327847175346
 20
199.4414430534356
 30
0.0
  0
LINE
  5
DC
330
1F
100
AcDbEntity
  8
0
  6
Continuous
 62
     7
370
     0
100
AcDbLine
 10
232.0352582072
 20
199.2467756952
 30
0.0
 11
233.7863806012
 21
200.2576771356
 31
0.0
  0
ARC
  5
DD
330
1F
100
AcDbEntity
  8
0
  6
Continuous
 62
     7
370
     0
100
AcDbCircle
 10
224.8878116893
 20
181.5646210374
 30
0.0
 40
19.07208916375901
100
AcDbArc
 50
67.2818641146
 51
67.9905510109
  0
LINE
  5
DE
330
1F
100
AcDbEntity
  8
0
  6
Continuous
 62
     7
370
     0
100
AcDbLine
 10
234.3747353877
 20
200.3816313444
 30
0.0
 11
232.2534150441
 21
199.1570191766
 31
0.0
  0
ARC
  5
DF
330
1F
100
AcDbEntity
  8
0
  6
Continuous
 62
     7
370
     0
100
AcDbCircle
 10
227.040218783
 20
182.8645331955
 30
0.0
 40
18.99062561851826
100
AcDbArc
 50
67.2806398053
 51
68.2870202014
  0
SPLINE
  5
E0
330
1F
100
AcDbEntity
  8
0
  6
Continuous
 62
     7
370
     0
100
AcDbSpline
210
0.0
220
0.0
230
1.0
 70
     8
 71
     3
 72
     8
 73
     4
 74
     0
 42
0.00000001
 43
0.00000001
 12
1.0
 22
0.0
 32
0.0
 13
1.0
 23
0.0
 33
0.0
 40
0.0
 40
0.0
 40
0.0
 40
0.0
 40
1.0
 40
1.0
 40
1.0
 40
1.0
 10
232.1636427004229
 20
199.8192770501582
 30
0.0
 10
232.7974480428583
 20
200.0509102010489
 30
0.0
 10
233.4315602218072
 20
200.2803962057827
 30
0.0
 10
234.0659381027038
 20
200.5077508561663
 30
0.0
  0
SPLINE
  5
E1
330
1F
100
AcDbEntity
  8
0
  6
Continuous
 62
     7
370
     0
100
AcDbSpline
210
0.0
220
0.0
230
1.0
 70
     8
 71
     3
 72
    12
 73
     8
 74
     0
 42
0.00000001
 43
0.00000001
 12
1.0
 22
0.0
 32
0.0
 13
1.0
 23
0.0
 33
0.0
 40
0.0
 40
0.0
 40
0.0
 40
0.0
 40
0.2499936386573782
 40
0.4999942819844623
 40
0.6249956604535687
 40
0.7499971038686543
 40
1.0
 40
1.0
 40
1.0
 40
1.0
 10
231.7291457824332
 20
199.6575615985298
 30
0.0
 10
231.7652170359686
 20
199.671158195241
 30
0.0
 10
231.8373605537339
 20
199.6983517696315
 30
0.0
 10
231.9274837433096
 20
199.7323542735177
 30
0.0
 10
232.0002584835965
 20
199.7590338840725
 30
0.0
 10
232.0729821110792
 20
199.7857397251174
 30
0.0
 10
232.1273784644156
 20
199.8058621200421
 30
0.0
 10
232.1636427004229
 20
199.8192770501582
 30
0.0
  0
SPLINE
  5
E2
330
1F
100
AcDbEntity
  8
0
  6
Continuous
 62
     7
370
     0
100
AcDbSpline
210
0.0
220
0.0
230
1.0
 70
     8
 71
     3
 72
     8
 73
     4
 74
     0
 42
0.00000001
 43
0.00000001
 12
1.0
 22
0.0
 32
0.0
 13
1.0
 23
0.0
 33
0.0
 40
0.0
 40
0.0
 40
0.0
 40
0.0
 40
1.0
 40
1.0
 40
1.0
 40
1.0
 10
231.9621542669705
 20
199.868247634635
 30
0.0
 10
231.8844730269511
 20
199.7980976662561
 30
0.0
 10
231.8068036276654
 20
199.7278689531082
 30
0.0
 10
231.7291457824332
 20
199.6575615985298
 30
0.0
  0
SPLINE
  5
E3
330
1F
100
AcDbEntity
  8
0
  6
Continuous
 62
     7
370
     0
100
AcDbSpline
210
0.0
220
0.0
230
1.0
 70
     8
 71
     3
 72
     8
 73
     4
 74
     0
 42
0.00000001
 43
0.00000001
 12
1.0
 22
0.0
 32
0.0
 13
1.0
 23
0.0
 33
0.0
 40
0.0
 40
0.0
 40
0.0
 40
0.0
 40
1.0
 40
1.0
 40
1.0
 40
1.0
 10
233.059413125234
 20
200.8744311886552
 30
0.0
 10
232.6933410062024
 20
200.5410094427826
 30
0.0
 10
232.3275999290485
 20
200.2056108403649
 30
0.0
 10
231.9621542669705
 20
199.868247634635
 30
0.0
  0
ARC
  5
E4
330
1F
100
AcDbEntity
  8
0
  6
Continuous
 62
     7
370
     0
100
AcDbCircle
 10
227.822493097
 20
185.0122781428
 30
0.0
 40
16.70428779177692
100
AcDbArc
 50
71.7292616859
 51
72.9404127003
  0
LINE
  5
E5
330
1F
100
AcDbEntity
  8
0
  6
Continuous
 62
     7
370
     0
100
AcDbLine
 10
230.6016444859
 20
199.7569680084
 30
0.0
 11
232.7229648295
 21
200.9815801761
 31
0.0
  0
ARC
  5
E6
330
1F
100
AcDbEntity
  8
0
  6
Continuous
 62
     7
370
     0
100
AcDbCircle
 10
225.7309070942
 20
183.8826075053
 30
0.0
 40
16.60480063476084
100
AcDbArc
 50
72.1651347229
 51
72.9423912783
  0
LINE
  5
E7
330
1F
100
AcDbEntity
  8
0
  6
Continuous
 62
     7
370
     0
100
AcDbLine
 10
232.6679565132
 20
200.7582366386
 30
0.0
 11
230.8165363027
 21
199.6894345011
 31
0.0
  0
LWPOLYLINE
  5
E8
330
1F
100
AcDbEntity
  8
0
  6
Continuous
 62
     7
370
     0
100
AcDbPolyline
 90
       65
 70
   128
 43
0.0
 10
255.2745291748
 20
168.3407522024
 10
255.2622632252
 20
169.1142123302
 10
255.22548213
 20
169.9007779684
 10
255.1642361279
 20
170.6993747632
 10
255.0786088734
 20
171.5089119273
 10
254.9687173233
 20
172.3282837303
 10
254.834711576
 20
173.1563710089
 10
254.6767746673
 20
173.9920426955
 10
254.49512232
 20
174.8341573632
 10
254.2900026494
 20
175.6815647844
 10
254.0616958244
 20
176.5331075027
 10
253.8105136844
 20
177.3876224131
 10
253.5367993142
 20
178.2439423511
 10
253.2409265747
 20
179.1008976866
 10
252.9232995923
 20
179.9573179217
 10
252.5843522074
 20
180.8120332893
 10
252.2245473814
 20
181.6638763511
 10
251.8443765643
 20
182.511683592
 10
251.4443590237
 20
183.3542970092
 10
251.0250411355
 20
184.1905656941
 10
250.5869956375
 20
185.0193474044
 10
250.1308208471
 20
185.8395101238
 10
249.6571398443
 20
186.6499336088
 10
249.1665996203
 20
187.4495109184
 10
248.659870194
 20
188.2371499261
 10
248.1376436969
 20
189.0117748118
 10
247.6006334276
 20
189.7723275311
 10
247.0495728775
 20
190.5177692605
 10
246.485214729
 20
191.2470818162
 10
245.9083298275
 20
191.959269045
 10
245.3197061284
 20
192.6533581847
 10
244.7201476208
 20
193.3284011933
 10
244.1104732295
 20
193.9834760429
 10
243.4915156965
 20
194.6176879804
 10
242.8641204432
 20
195.2301707483
 10
242.2291444161
 20
195.8200877689
 10
241.5874549161
 20
196.3866332866
 10
240.9399284138
 20
196.9290334683
 10
240.2874493526
 20
197.4465474606
 10
239.6309089404
 20
197.9384684016
 10
238.9712039324
 20
198.4041243865
 10
238.3092354063
 20
198.8428793852
 10
237.6459075314
 20
199.2541341113
 10
236.9821263339
 20
199.6373268401
 10
236.3187984591
 20
199.9919341765
 10
235.656829933
 20
200.3174717696
 10
234.997124925
 20
200.6134949742
 10
234.3405845128
 20
200.8795994581
 10
233.6881054516
 20
201.1154217546
 10
233.0405789493
 20
201.320639759
 10
232.3988894493
 20
201.4949731679
 10
231.7639134222
 20
201.6381838631
 10
231.1365181689
 20
201.7500762359
 10
230.5175606358
 20
201.8304974547
 10
229.9078862446
 20
201.8793376739
 10
229.308327737
 20
201.8965301837
 10
228.7197040378
 20
201.882051501
 10
228.1428191363
 20
201.8359214021
 10
227.5784609879
 20
201.758202895
 10
227.0274004378
 20
201.649002134
 10
226.4903901685
 20
201.5084682742
 10
225.9681636714
 20
201.3367932679
 10
225.4614342451
 20
201.1342116024
 10
224.9708940211
 20
200.9009999801
 10
224.6150490282
 20
200.7067763271
  0
LWPOLYLINE
  5
E9
330
1F
100
AcDbEntity
  8
0
  6
Continuous
 62
     7
370
     0
100
AcDbPolyline
 90
       23
 70
   128
 43
0.0
 10
250.0129848372
 20
156.7114941181
 10
250.1308208471
 20
156.7807935054
 10
250.5869956375
 20
157.0742680227
 10
251.0250411355
 20
157.3972931663
 10
251.4443590237
 20
157.7494277226
 10
251.8443765643
 20
158.1301907182
 10
252.2245473814
 20
158.5390620767
 10
252.5843522074
 20
158.9754833288
 10
252.9232995923
 20
159.4388583758
 10
253.2409265747
 20
159.928554303
 10
253.5367993142
 20
160.4439022447
 10
253.8105136844
 20
160.9841982976
 10
254.0616958244
 20
161.5487044822
 10
254.2900026494
 20
162.1366497511
 10
254.49512232
 20
162.7472310417
 10
254.6767746673
 20
163.3796143735
 10
254.834711576
 20
164.0329359868
 10
254.9687173233
 20
164.7063035228
 10
255.0786088734
 20
165.3987972427
 10
255.1642361279
 20
166.1094712832
 10
255.22548213
 20
166.837354949
 10
255.2622632252
 20
167.5814540387
 10
255.2745291748
 20
168.3407522024
  0
SPLINE
  5
EA
330
1F
100
AcDbEntity
  8
0
  6
Continuous
 62
     7
370
     0
100
AcDbSpline
210
0.0
220
0.0
230
1.0
 70
     8
 71
     3
 72
    14
 73
    10
 74
     0
 42
0.00000001
 43
0.00000001
 12
1.0
 22
0.0
 32
0.0
 13
1.0
 23
0.0
 33
0.0
 40
0.0
 40
0.0
 40
0.0
 40
0.0
 40
0.0626209035518769
 40
0.1251971369841648
 40
0.2501776311320265
 40
0.4995004115477653
 40
0.7494942445745857
 40
0.8747342129769935
 40
1.0
 40
1.0
 40
1.0
 40
1.0
 10
231.8824622828432
 20
201.1821980055447
 30
0.0
 10
231.8960539325383
 20
201.1713939650958
 30
0.0
 10
231.9232275364342
 20
201.1497935911736
 30
0.0
 10
231.9554644667902
 20
201.0989281165777
 30
0.0
 10
231.9629455038568
 20
200.9973798469202
 30
0.0
 10
231.8625019622847
 20
200.8360283975933
 30
0.0
 10
231.6786645714372
 20
200.6787896762286
 30
0.0
 10
231.5003217879671
 20
200.5581793188354
 30
0.0
 10
231.4019479700299
 20
200.5000029736574
 30
0.0
 10
231.3527559915644
 20
200.4709118030674
 30
0.0
  0
SPLINE
  5
EB
330
1F
100
AcDbEntity
  8
0
  6
Continuous
 62
     7
370
     0
100
AcDbSpline
210
0.0
220
0.0
230
1.0
 70
     8
 71
     3
 72
    13
 73
     9
 74
     0
 42
0.00000001
 43
0.00000001
 12
1.0
 22
0.0
 32
0.0
 13
1.0
 23
0.0
 33
0.0
 40
0.0
 40
0.0
 40
0.0
 40
0.0
 40
0.2621623226486194
 40
0.5000242273424923
 40
0.6219901488738572
 40
0.75005454304432
 40
0.8623234327934889
 40
1.0
 40
1.0
 40
1.0
 40
1.0
 10
231.5978239024685
 20
201.2819616548111
 30
0.0
 10
231.6260349949372
 20
201.2752675449199
 30
0.0
 10
231.6798422299801
 20
201.2624998173065
 30
0.0
 10
231.74301232938
 20
201.2438991052753
 30
0.0
 10
231.7895400619011
 20
201.2275473510042
 30
0.0
 10
231.8227788601459
 20
201.2146178664134
 30
0.0
 10
231.8542851590665
 20
201.1995365513794
 30
0.0
 10
231.8724542610243
 20
201.188356353941
 30
0.0
 10
231.8824622828432
 20
201.1821980055447
 30
0.0
  0
ARC
  5
EC
330
1F
100
AcDbEntity
  8
0
  6
Continuous
 62
     7
370
     0
100
AcDbCircle
 10
228.44356828
 20
187.3646659053
 30
0.0
 40
14.27026452138949
100
AcDbArc
 50
77.2300551587
 51
79.5628185982
  0
LINE
  5
ED
330
1F
100
AcDbEntity
  8
0
  6
Continuous
 62
     7
370
     0
100
AcDbLine
 10
228.9074117259
 20
200.1742041462
 30
0.0
 11
231.0287320695
 21
201.398816314
 31
0.0
  0
ARC
  5
EE
330
1F
100
AcDbEntity
  8
0
  6
Continuous
 62
     7
370
     0
100
AcDbCircle
 10
226.3185740378
 20
186.1215524542
 30
0.0
 40
14.28912524095846
100
AcDbArc
 50
77.1236658708
 51
79.5617701828
  0
SPLINE
  5
EF
330
1F
100
AcDbEntity
  8
0
  6
Continuous
 62
     7
370
     0
100
AcDbSpline
210
0.0
220
0.0
230
1.0
 70
     8
 71
     3
 72
    17
 73
    13
 74
     0
 42
0.00000001
 43
0.00000001
 12
1.0
 22
0.0
 32
0.0
 13
1.0
 23
0.0
 33
0.0
 40
0.0
 40
0.0
 40
0.0
 40
0.0
 40
0.0715357051320337
 40
0.143064735485807
 40
0.2860245204547989
 40
0.4289089802452734
 40
0.5716729696068827
 40
0.6786677761034713
 40
0.7855971142383397
 40
0.8927121774632336
 40
0.9463509865938889
 40
1.0
 40
1.0
 40
1.0
 40
1.0
 10
231.3527559915644
 20
200.4709118030674
 30
0.0
 10
231.3158891396079
 20
200.4500362687907
 30
0.0
 10
231.2421588756283
 20
200.4082871480697
 30
0.0
 10
231.0867494936752
 20
200.3273789755384
 30
0.0
 10
230.8780365344377
 20
200.2315906928409
 30
0.0
 10
230.6030210525529
 20
200.130495483049
 30
0.0
 10
230.3321450462201
 20
200.0551086046041
 30
0.0
 10
230.0764382965643
 20
200.0105694654397
 30
0.0
 10
229.857936985242
 20
200.002692992497
 30
0.0
 10
229.6981261915233
 20
200.0159005226541
 30
0.0
 10
229.5827783582643
 20
200.0341750468207
 30
0.0
 10
229.5295074814009
 20
200.0456271132949
 30
0.0
 10
229.5028695096401
 20
200.0513536911419
 30
0.0
  0
ARC
  5
F0
330
1F
100
AcDbEntity
  8
0
  6
Continuous
 62
     7
370
     0
100
AcDbCircle
 10
224.2892031162
 20
179.8128360814
 30
0.0
 40
21.1477317480348
100
AcDbArc
 50
62.8042683761
 51
65.450371781
  0
LINE
  5
F1
330
1F
100
AcDbEntity
  8
0
  6
Continuous
 62
     7
370
     0
100
AcDbLine
 10
234.9490634433
 20
200.1303251944
 30
0.0
 11
233.0756896334
 21
199.0488495138
 31
0.0
  0
ARC
  5
F2
330
1F
100
AcDbEntity
  8
0
  6
Continuous
 62
     7
370
     0
100
AcDbCircle
 10
226.5950540301
 20
181.8272055266
 30
0.0
 40
20.11948465668294
100
AcDbArc
 50
65.4668377162
 51
66.1507103957
  0
LINE
  5
F3
330
1F
100
AcDbEntity
  8
0
  6
Continuous
 62
     7
370
     0
100
AcDbLine
 10
232.6086902976
 20
199.004118942
 30
0.0
 11
234.7300106412
 21
200.2287311097
 31
0.0
  0
ARC
  5
F4
330
1F
100
AcDbEntity
  8
0
  6
Continuous
 62
     7
370
     0
100
AcDbCircle
 10
224.1334575069
 20
179.8570573357
 30
0.0
 40
20.9389478964384
100
AcDbArc
 50
62.7943621394
 51
66.1239587775
  0
LINE
  5
F5
330
1F
100
AcDbEntity
  8
0
  6
Continuous
 62
     7
370
     0
100
AcDbLine
 10
233.9543862049
 20
198.6226950375
 30
0.0
 11
233.7064396713
 21
198.4795585504
 31
0.0
  0
SPLINE
  5
F6
330
1F
100
AcDbEntity
  8
0
  6
Continuous
 62
     7
370
     0
100
AcDbSpline
210
0.0
220
0.0
230
1.0
 70
     8
 71
     3
 72
    18
 73
    14
 74
     0
 42
0.00000001
 43
0.00000001
 12
1.0
 22
0.0
 32
0.0
 13
1.0
 23
0.0
 33
0.0
 40
0.0
 40
0.0
 40
0.0
 40
0.0
 40
0.0625017672758701
 40
0.1249767194373948
 40
0.1874405397014911
 40
0.2499072625739301
 40
0.3213249937575778
 40
0.3927461089174684
 40
0.4997948830968786
 40
0.6143446776344226
 40
0.749838826380545
 40
0.8749099219191546
 40
1.0
 40
1.0
 40
1.0
 40
1.0
 10
236.0621827083369
 20
197.0570368540502
 30
0.0
 10
236.0357201416435
 20
197.0761996588841
 30
0.0
 10
235.9828063614836
 20
197.1145170471397
 30
0.0
 10
235.9226745553654
 20
197.1799986603195
 30
0.0
 10
235.8820968088293
 20
197.2497747184865
 30
0.0
 10
235.8590367432836
 20
197.325199078178
 30
0.0
 10
235.858664029542
 20
197.4042931485896
 30
0.0
 10
235.8782284373623
 20
197.4987464458686
 30
0.0
 10
235.9364703892058
 20
197.6039043223202
 30
0.0
 10
236.0440736929814
 20
197.7204903282138
 30
0.0
 10
236.1812894465202
 20
197.8328296754206
 30
0.0
 10
236.3376204350135
 20
197.9406043895763
 30
0.0
 10
236.4474631141977
 20
198.0055874908907
 30
0.0
 10
236.5023886212897
 20
198.0380815070473
 30
0.0
  0
SPLINE
  5
F7
330
1F
100
AcDbEntity
  8
0
  6
Continuous
 62
     7
370
     0
100
AcDbSpline
210
0.0
220
0.0
230
1.0
 70
     8
 71
     3
 72
    16
 73
    12
 74
     0
 42
0.00000001
 43
0.00000001
 12
1.0
 22
0.0
 32
0.0
 13
1.0
 23
0.0
 33
0.0
 40
0.0
 40
0.0
 40
0.0
 40
0.0
 40
0.125141562472801
 40
0.2502242604832171
 40
0.3774823235847191
 40
0.5003657507131224
 40
0.629356435458054
 40
0.7500881083544272
 40
0.8748949524102552
 40
0.9374238382137784
 40
1.0
 40
1.0
 40
1.0
 40
1.0
 10
237.3146755460554
 20
197.1079191746244
 30
0.0
 10
237.2718564085122
 20
197.084711400938
 30
0.0
 10
237.1862382748197
 20
197.038306770107
 30
0.0
 10
237.0391286311053
 20
196.9831497171432
 30
0.0
 10
236.8813763531874
 20
196.9417665011448
 30
0.0
 10
236.7119713086798
 20
196.9156211761917
 30
0.0
 10
236.5375350716682
 20
196.9090955246895
 30
0.0
 10
236.3609195951317
 20
196.930765954962
 30
0.0
 10
236.2250604672896
 20
196.9717106351758
 30
0.0
 10
236.126890373558
 20
197.0168680228441
 30
0.0
 10
236.0837573632592
 20
197.0436438708705
 30
0.0
 10
236.0621827083369
 20
197.0570368540502
 30
0.0
  0
SPLINE
  5
F8
330
1F
100
AcDbEntity
  8
0
  6
Continuous
 62
     7
370
     0
100
AcDbSpline
210
0.0
220
0.0
230
1.0
 70
     8
 71
     3
 72
    16
 73
    12
 74
     0
 42
0.00000001
 43
0.00000001
 12
1.0
 22
0.0
 32
0.0
 13
1.0
 23
0.0
 33
0.0
 40
0.0
 40
0.0
 40
0.0
 40
0.0
 40
0.0714849144540489
 40
0.1429337451704767
 40
0.2854116503119442
 40
0.3925655405453349
 40
0.4997322810527072
 40
0.6247304050320027
 40
0.7497831095180534
 40
0.8748562503498962
 40
1.0
 40
1.0
 40
1.0
 40
1.0
 10
237.4856665438089
 20
197.8558230560338
 30
0.0
 10
237.5073746279425
 20
197.8400849684
 30
0.0
 10
237.5507798385298
 20
197.8086167373124
 30
0.0
 10
237.6166861710919
 20
197.736251273953
 30
0.0
 10
237.6598285607418
 20
197.6460246571596
 30
0.0
 10
237.6672012641654
 20
197.5440974223314
 30
0.0
 10
237.6518663732795
 20
197.4484987032457
 30
0.0
 10
237.6057855953932
 20
197.3526800157746
 30
0.0
 10
237.5285777385502
 20
197.2613185921383
 30
0.0
 10
237.4309270419875
 20
197.1789897615053
 30
0.0
 10
237.3534333340277
 20
197.1316138265969
 30
0.0
 10
237.3146755460554
 20
197.1079191746244
 30
0.0
  0
SPLINE
  5
F9
330
1F
100
AcDbEntity
  8
0
  6
Continuous
 62
     7
370
     0
100
AcDbSpline
210
0.0
220
0.0
230
1.0
 70
     8
 71
     3
 72
    13
 73
     9
 74
     0
 42
0.00000001
 43
0.00000001
 12
1.0
 22
0.0
 32
0.0
 13
1.0
 23
0.0
 33
0.0
 40
0.0
 40
0.0
 40
0.0
 40
0.0
 40
0.1252064650766518
 40
0.250347637559903
 40
0.5000234775137319
 40
0.7497435158999793
 40
0.8748273607871844
 40
1.0
 40
1.0
 40
1.0
 40
1.0
 10
236.7918528064087
 20
197.9743278296894
 30
0.0
 10
236.8219398506733
 20
197.9782615232413
 30
0.0
 10
236.8820982494285
 20
197.9861268590048
 30
0.0
 10
237.0056906105386
 20
197.9911596827876
 30
0.0
 10
237.1624043779518
 20
197.9807016463539
 30
0.0
 10
237.3105659374826
 20
197.9427255090892
 30
0.0
 10
237.4170734237134
 20
197.8981929923322
 30
0.0
 10
237.4627967626944
 20
197.8699497084973
 30
0.0
 10
237.4856665438089
 20
197.8558230560338
 30
0.0
  0
SPLINE
  5
FA
330
1F
100
AcDbEntity
  8
0
  6
Continuous
 62
     7
370
     0
100
AcDbSpline
210
0.0
220
0.0
230
1.0
 70
     8
 71
     3
 72
    12
 73
     8
 74
     0
 42
0.00000001
 43
0.00000001
 12
1.0
 22
0.0
 32
0.0
 13
1.0
 23
0.0
 33
0.0
 40
0.0
 40
0.0
 40
0.0
 40
0.0
 40
0.1249974191074113
 40
0.250001643839323
 40
0.4999494407406341
 40
0.7499494651721297
 40
1.0
 40
1.0
 40
1.0
 40
1.0
 10
237.4812898967029
 20
198.2526537863291
 30
0.0
 10
237.4480750006277
 20
198.2459423537197
 30
0.0
 10
237.3816434000551
 20
198.2325191230896
 30
0.0
 10
237.2565779877245
 20
198.1948013157299
 30
0.0
 10
237.1100753645974
 20
198.137679773769
 30
0.0
 10
236.9451708447929
 20
198.0600614986116
 30
0.0
 10
236.8429622605861
 20
198.0029076437115
 30
0.0
 10
236.7918528064087
 20
197.9743278296894
 30
0.0
  0
SPLINE
  5
FB
330
1F
100
AcDbEntity
  8
0
  6
Continuous
 62
     7
370
     0
100
AcDbSpline
210
0.0
220
0.0
230
1.0
 70
     8
 71
     3
 72
    12
 73
     8
 74
     0
 42
0.00000001
 43
0.00000001
 12
1.0
 22
0.0
 32
0.0
 13
1.0
 23
0.0
 33
0.0
 40
0.0
 40
0.0
 40
0.0
 40
0.0
 40
0.1251943715410444
 40
0.2503092074440488
 40
0.4995697016855025
 40
0.7495824696687634
 40
1.0
 40
1.0
 40
1.0
 40
1.0
 10
238.0109093928099
 20
198.1910897939412
 30
0.0
 10
237.9935447500776
 20
198.2017652723284
 30
0.0
 10
237.9588264963224
 20
198.223109447001
 30
0.0
 10
237.8753104773973
 20
198.254235712583
 30
0.0
 10
237.7586955094848
 20
198.2748978220467
 30
0.0
 10
237.6164135662483
 20
198.273643439323
 30
0.0
 10
237.5263554004254
 20
198.259654108984
 30
0.0
 10
237.4812898967029
 20
198.2526537863291
 30
0.0
  0
SPLINE
  5
FC
330
1F
100
AcDbEntity
  8
0
  6
Continuous
 62
     7
370
     0
100
AcDbSpline
210
0.0
220
0.0
230
1.0
 70
     8
 71
     3
 72
    11
 73
     7
 74
     0
 42
0.00000001
 43
0.00000001
 12
1.0
 22
0.0
 32
0.0
 13
1.0
 23
0.0
 33
0.0
 40
0.0
 40
0.0
 40
0.0
 40
0.0
 40
0.2501498668194548
 40
0.5001182101488377
 40
0.74999113706576
 40
1.0
 40
1.0
 40
1.0
 40
1.0
 10
238.1148074180986
 20
197.9957219110013
 30
0.0
 10
238.115836641187
 20
198.0131199862977
 30
0.0
 10
238.1178943404988
 20
198.0479035118212
 30
0.0
 10
238.101608938309
 20
198.1002804926015
 30
0.0
 10
238.065753126645
 20
198.1495583140746
 30
0.0
 10
238.0291939513442
 20
198.1772434577869
 30
0.0
 10
238.0109093928099
 20
198.1910897939412
 30
0.0
  0
SPLINE
  5
FD
330
1F
100
AcDbEntity
  8
0
  6
Continuous
 62
     7
370
     0
100
AcDbSpline
210
0.0
220
0.0
230
1.0
 70
     8
 71
     3
 72
    11
 73
     7
 74
     0
 42
0.00000001
 43
0.00000001
 12
1.0
 22
0.0
 32
0.0
 13
1.0
 23
0.0
 33
0.0
 40
0.0
 40
0.0
 40
0.0
 40
0.0
 40
0.2501453768984927
 40
0.5002105857360005
 40
0.7501695483138507
 40
0.9999999999999999
 40
0.9999999999999999
 40
0.9999999999999999
 40
0.9999999999999999
 10
237.9736749306744
 20
197.8018965203137
 30
0.0
 10
237.9900124964368
 20
197.8164809680856
 30
0.0
 10
238.0226823920024
 20
197.84564518952
 30
0.0
 10
238.0645809368449
 20
197.8923440140964
 30
0.0
 10
238.1011773456516
 20
197.9414503530235
 30
0.0
 10
238.1102648395056
 20
197.977634493019
 30
0.0
 10
238.1148074180986
 20
197.9957219110013
 30
0.0
  0
SPLINE
  5
FE
330
1F
100
AcDbEntity
  8
0
  6
Continuous
 62
     7
370
     0
100
AcDbSpline
210
0.0
220
0.0
230
1.0
 70
     8
 71
     3
 72
     8
 73
     4
 74
     0
 42
0.00000001
 43
0.00000001
 12
1.0
 22
0.0
 32
0.0
 13
1.0
 23
0.0
 33
0.0
 40
0.0
 40
0.0
 40
0.0
 40
0.0
 40
1.0
 40
1.0
 40
1.0
 40
1.0
 10
238.2205255372251
 20
197.6658678382782
 30
0.0
 10
238.1382877861873
 20
197.7117021230902
 30
0.0
 10
238.0560024160645
 20
197.7570462881255
 30
0.0
 10
237.9736749306744
 20
197.8018965203137
 30
0.0
  0
SPLINE
  5
FF
330
1F
100
AcDbEntity
  8
0
  6
Continuous
 62
     7
370
     0
100
AcDbSpline
210
0.0
220
0.0
230
1.0
 70
     8
 71
     3
 72
    16
 73
    12
 74
     0
 42
0.00000001
 43
0.00000001
 12
1.0
 22
0.0
 32
0.0
 13
1.0
 23
0.0
 33
0.0
 40
0.0
 40
0.0
 40
0.0
 40
0.0
 40
0.0625723509088663
 40
0.1251169806303084
 40
0.2500252679446887
 40
0.3500109261581434
 40
0.4998543840072935
 40
0.624800217705081
 40
0.7498078838122627
 40
0.8748912078062911
 40
1.0
 40
1.0
 40
1.0
 40
1.0
 10
238.2583431559283
 20
198.3002762103445
 30
0.0
 10
238.2743421299221
 20
198.2889879346616
 30
0.0
 10
238.3063329899459
 20
198.266416384297
 30
0.0
 10
238.3626343690758
 20
198.217272877569
 30
0.0
 10
238.4118078339798
 20
198.154465540708
 30
0.0
 10
238.4490907010039
 20
198.0673830301287
 30
0.0
 10
238.454643815579
 20
197.9776416588943
 30
0.0
 10
238.4258209691603
 20
197.885886171063
 30
0.0
 10
238.3751265562852
 20
197.8054843004878
 30
0.0
 10
238.3054333263149
 20
197.7318769367369
 30
0.0
 10
238.2488300542237
 20
197.68787236424
 30
0.0
 10
238.2205255372251
 20
197.6658678382782
 30
0.0
  0
SPLINE
  5
100
330
1F
100
AcDbEntity
  8
0
  6
Continuous
 62
     7
370
     0
100
AcDbSpline
210
0.0
220
0.0
230
1.0
 70
     8
 71
     3
 72
    17
 73
    13
 74
     0
 42
0.00000001
 43
0.00000001
 12
1.0
 22
0.0
 32
0.0
 13
1.0
 23
0.0
 33
0.0
 40
0.0
 40
0.0
 40
0.0
 40
0.0
 40
0.1251470263986586
 40
0.2502848246898056
 40
0.5000607495379534
 40
0.5715358706692544
 40
0.6429886773963305
 40
0.7500501686849583
 40
0.8131518885203778
 40
0.8750026788769604
 40
0.9374739688445926
 40
1.0
 40
1.0
 40
1.0
 40
1.0
 10
236.5023886212897
 20
198.0380815070473
 30
0.0
 10
236.5632982016101
 20
198.0724747689524
 30
0.0
 10
236.6851128708927
 20
198.1412587566677
 30
0.0
 10
236.9433970722417
 20
198.2682011903022
 30
0.0
 10
237.1952677336828
 20
198.3676898810339
 30
0.0
 10
237.4419543483591
 20
198.4241668679818
 30
0.0
 10
237.6072897931104
 20
198.4447756108859
 30
0.0
 10
237.7726533404768
 20
198.4477075165558
 30
0.0
 10
237.9300454411803
 20
198.4300031064315
 30
0.0
 10
238.0516310620089
 20
198.4005973657474
 30
0.0
 10
238.163913686891
 20
198.3579196375733
 30
0.0
 10
238.226857477738
 20
198.3194962951127
 30
0.0
 10
238.2583431559283
 20
198.3002762103445
 30
0.0
  0
SPLINE
  5
101
330
1F
100
AcDbEntity
  8
0
  6
Continuous
 62
     7
370
     0
100
AcDbSpline
210
0.0
220
0.0
230
1.0
 70
     8
 71
     3
 72
    16
 73
    12
 74
     0
 42
0.00000001
 43
0.00000001
 12
1.0
 22
0.0
 32
0.0
 13
1.0
 23
0.0
 33
0.0
 40
0.0
 40
0.0
 40
0.0
 40
0.0
 40
0.1251211158362752
 40
0.2501811140306721
 40
0.3755465893300594
 40
0.5001494650777687
 40
0.6665494793281628
 40
0.7499242508552596
 40
0.8748533350169904
 40
0.9374120666503273
 40
1.0
 40
1.0
 40
1.0
 40
1.0
 10
239.8909936775091
 20
194.9672742163371
 30
0.0
 10
239.8498673279647
 20
194.9453084978498
 30
0.0
 10
239.7676347177751
 20
194.9013877904224
 30
0.0
 10
239.6247752629999
 20
194.8559724484678
 30
0.0
 10
239.4696094547187
 20
194.8302695147977
 30
0.0
 10
239.2866042927924
 20
194.8299647660658
 30
0.0
 10
239.1184046697922
 20
194.8567875698897
 30
0.0
 10
238.9573819528323
 20
194.9080055982298
 30
0.0
 10
238.8493797635184
 20
194.9610316653256
 30
0.0
 10
238.760653274537
 20
195.0194105968865
 30
0.0
 10
238.7205002777742
 20
195.0514624344227
 30
0.0
 10
238.7004190947438
 20
195.0674920926778
 30
0.0
  0
SPLINE
  5
102
330
1F
100
AcDbEntity
  8
0
  6
Continuous
 62
     7
370
     0
100
AcDbSpline
210
0.0
220
0.0
230
1.0
 70
     8
 71
     3
 72
    16
 73
    12
 74
     0
 42
0.00000001
 43
0.00000001
 12
1.0
 22
0.0
 32
0.0
 13
1.0
 23
0.0
 33
0.0
 40
0.0
 40
0.0
 40
0.0
 40
0.0
 40
0.0625698984382215
 40
0.1251290334456595
 40
0.2501086358182249
 40
0.3750849225922311
 40
0.5001003749485992
 40
0.6997810841216549
 40
0.8498368638193774
 40
0.9249143285961033
 40
0.9999999999999999
 40
0.9999999999999999
 40
0.9999999999999999
 40
0.9999999999999999
 10
240.1114265764752
 20
195.5685947532315
 30
0.0
 10
240.1189656047325
 20
195.5543633823339
 30
0.0
 10
240.1340423643645
 20
195.5259030886548
 30
0.0
 10
240.1569371646447
 20
195.4678726736122
 30
0.0
 10
240.1737793963781
 20
195.3943906261239
 30
0.0
 10
240.1731198201036
 20
195.3072190674803
 30
0.0
 10
240.1452490929311
 20
195.2078994960993
 30
0.0
 10
240.0835624867927
 20
195.1134386613588
 30
0.0
 10
240.0042834304967
 20
195.042978394618
 30
0.0
 10
239.9421301702585
 20
194.997644123979
 30
0.0
 10
239.9080397961213
 20
194.9773978877128
 30
0.0
 10
239.8909936775091
 20
194.9672742163371
 30
0.0
  0
SPLINE
  5
103
330
1F
100
AcDbEntity
  8
0
  6
Continuous
 62
     7
370
     0
100
AcDbSpline
210
0.0
220
0.0
230
1.0
 70
     8
 71
     3
 72
    13
 73
     9
 74
     0
 42
0.00000001
 43
0.00000001
 12
1.0
 22
0.0
 32
0.0
 13
1.0
 23
0.0
 33
0.0
 40
0.0
 40
0.0
 40
0.0
 40
0.0
 40
0.1252840493845651
 40
0.2504984224740335
 40
0.5001336699048929
 40
0.7495724329694073
 40
0.8747368351678763
 40
1.0
 40
1.0
 40
1.0
 40
1.0
 10
240.7868847329908
 20
195.6009007971479
 30
0.0
 10
240.7642666808376
 20
195.5885957627878
 30
0.0
 10
240.7190431554832
 20
195.5639925374705
 30
0.0
 10
240.6184177699283
 20
195.5253538918782
 30
0.0
 10
240.4765198181098
 20
195.4965540399393
 30
0.0
 10
240.3205612588083
 20
195.5074877825607
 30
0.0
 10
240.1987923043185
 20
195.536292535191
 30
0.0
 10
240.1405561414055
 20
195.5578245166521
 30
0.0
 10
240.1114265764752
 20
195.5685947532315
 30
0.0
  0
SPLINE
  5
104
330
1F
100
AcDbEntity
  8
0
  6
Continuous
 62
     7
370
     0
100
AcDbSpline
210
0.0
220
0.0
230
1.0
 70
     8
 71
     3
 72
    16
 73
    12
 74
     0
 42
0.00000001
 43
0.00000001
 12
1.0
 22
0.0
 32
0.0
 13
1.0
 23
0.0
 33
0.0
 40
0.0
 40
0.0
 40
0.0
 40
0.0
 40
0.0625805693480312
 40
0.1251378661616158
 40
0.2500256142484423
 40
0.3749099005375659
 40
0.4998790156667634
 40
0.6249115350692207
 40
0.7498531354868248
 40
0.8749004598436746
 40
1.0
 40
1.0
 40
1.0
 40
1.0
 10
240.8734827123322
 20
196.3267416911883
 30
0.0
 10
240.8897289801423
 20
196.3122767935301
 30
0.0
 10
240.9222154740816
 20
196.2833523774363
 30
0.0
 10
240.9778648254258
 20
196.2210073750641
 30
0.0
 10
241.031356477945
 20
196.1369822353605
 30
0.0
 10
241.0588042959601
 20
196.0313015051222
 30
0.0
 10
241.055905542747
 20
195.9274881837341
 30
0.0
 10
241.0254047584752
 20
195.8290433386038
 30
0.0
 10
240.9672198095404
 20
195.740490656212
 30
0.0
 10
240.8867391042106
 20
195.6635272721468
 30
0.0
 10
240.8201741549993
 20
195.6217791936534
 30
0.0
 10
240.7868847329908
 20
195.6009007971479
 30
0.0
  0
SPLINE
  5
105
330
1F
100
AcDbEntity
  8
0
  6
Continuous
 62
     7
370
     0
100
AcDbSpline
210
0.0
220
0.0
230
1.0
 70
     8
 71
     3
 72
    16
 73
    12
 74
     0
 42
0.00000001
 43
0.00000001
 12
1.0
 22
0.0
 32
0.0
 13
1.0
 23
0.0
 33
0.0
 40
0.0
 40
0.0
 40
0.0
 40
0.0
 40
0.1250889871004372
 40
0.2501467135631084
 40
0.3929270099957644
 40
0.5000907602932342
 40
0.6274342659817591
 40
0.7499795038187407
 40
0.8748689312895572
 40
0.9374208143943433
 40
1.0
 40
1.0
 40
1.0
 40
1.0
 10
239.8559444243529
 20
196.3980089974418
 30
0.0
 10
239.8911206327275
 20
196.4167123233092
 30
0.0
 10
239.9614642586891
 20
196.4541143009482
 30
0.0
 10
240.0885062331965
 20
196.4968133454682
 30
0.0
 10
240.2223244194132
 20
196.5196759357645
 30
0.0
 10
240.364397564207
 20
196.5215238081393
 30
0.0
 10
240.5012100415396
 20
196.5061517027404
 30
0.0
 10
240.6406779773004
 20
196.466902974757
 30
0.0
 10
240.7466900215616
 20
196.4171519030375
 30
0.0
 10
240.8220499493431
 20
196.3676066107632
 30
0.0
 10
240.8563359643667
 20
196.3403653123174
 30
0.0
 10
240.8734827123322
 20
196.3267416911883
 30
0.0
  0
SPLINE
  5
106
330
1F
100
AcDbEntity
  8
0
  6
Continuous
 62
     7
370
     0
100
AcDbSpline
210
0.0
220
0.0
230
1.0
 70
     8
 71
     3
 72
    13
 73
     9
 74
     0
 42
0.00000001
 43
0.00000001
 12
1.0
 22
0.0
 32
0.0
 13
1.0
 23
0.0
 33
0.0
 40
0.0
 40
0.0
 40
0.0
 40
0.0
 40
0.1252653966353174
 40
0.2504280287003127
 40
0.4998107605113092
 40
0.7494990940726858
 40
0.8747146500223183
 40
1.0
 40
1.0
 40
1.0
 40
1.0
 10
239.6718176415989
 20
195.939269327914
 30
0.0
 10
239.6622647765812
 20
195.9613702337074
 30
0.0
 10
239.6431668834751
 20
196.0055539142688
 30
0.0
 10
239.6258927105649
 20
196.0947226001848
 30
0.0
 10
239.6430990248348
 20
196.2039777835556
 30
0.0
 10
239.7144277228835
 20
196.29564404645
 30
0.0
 10
239.789836878569
 20
196.3578895651399
 30
0.0
 10
239.8339044830843
 20
196.3846333695739
 30
0.0
 10
239.8559444243529
 20
196.3980089974418
 30
0.0
  0
SPLINE
  5
107
330
1F
100
AcDbEntity
  8
0
  6
Continuous
 62
     7
370
     0
100
AcDbSpline
210
0.0
220
0.0
230
1.0
 70
     8
 71
     3
 72
    14
 73
    10
 74
     0
 42
0.00000001
 43
0.00000001
 12
1.0
 22
0.0
 32
0.0
 13
1.0
 23
0.0
 33
0.0
 40
0.0
 40
0.0
 40
0.0
 40
0.0
 40
0.1253177412709345
 40
0.2506152694767269
 40
0.500277958929166
 40
0.7495301291181923
 40
0.8746654168958528
 40
0.9373257528056878
 40
0.9999999999999999
 40
0.9999999999999999
 40
0.9999999999999999
 40
0.9999999999999999
 10
238.797745544957
 20
195.8993905473974
 30
0.0
 10
238.8270718569398
 20
195.9154654944847
 30
0.0
 10
238.8857197507319
 20
195.9476127958586
 30
0.0
 10
239.0167001144023
 20
195.9988013695068
 30
0.0
 10
239.2010278383779
 20
196.0393881481133
 30
0.0
 10
239.4058557510246
 20
196.0287297967334
 30
0.0
 10
239.5432136540375
 20
195.9925954215794
 30
0.0
 10
239.6181621268569
 20
195.9642759740196
 30
0.0
 10
239.6539311466458
 20
195.9476054933858
 30
0.0
 10
239.6718176415989
 20
195.939269327914
 30
0.0
  0
SPLINE
  5
108
330
1F
100
AcDbEntity
  8
0
  6
Continuous
 62
     7
370
     0
100
AcDbSpline
210
0.0
220
0.0
230
1.0
 70
     8
 71
     3
 72
    17
 73
    13
 74
     0
 42
0.00000001
 43
0.00000001
 12
1.0
 22
0.0
 32
0.0
 13
1.0
 23
0.0
 33
0.0
 40
0.0
 40
0.0
 40
0.0
 40
0.0
 40
0.0625793915239942
 40
0.1251304534509947
 40
0.2500366663791511
 40
0.3749355344688444
 40
0.4998839605297348
 40
0.6426305843103104
 40
0.7497974123321105
 40
0.8748426961108018
 40
0.93741524455153
 40
1.0
 40
1.0
 40
1.0
 40
1.0
 10
238.7004190947438
 20
195.0674920926778
 30
0.0
 10
238.6814333265626
 20
195.0843912936645
 30
0.0
 10
238.6434703850291
 20
195.118182045395
 30
0.0
 10
238.577557999569
 20
195.1901326088548
 30
0.0
 10
238.5152914101361
 20
195.2868467964446
 30
0.0
 10
238.4812972346578
 20
195.4072618383724
 30
0.0
 10
238.482465160714
 20
195.5311530165762
 30
0.0
 10
238.5207435120129
 20
195.6425602194826
 30
0.0
 10
238.5908650641208
 20
195.7424291305829
 30
0.0
 10
238.6659167472272
 20
195.8111732517692
 30
0.0
 10
238.7384380106249
 20
195.8636215998419
 30
0.0
 10
238.7779750814523
 20
195.8874667896454
 30
0.0
 10
238.797745544957
 20
195.8993905473974
 30
0.0
  0
LINE
  5
109
330
1F
100
AcDbEntity
  8
0
  6
Continuous
 62
     7
370
     0
100
AcDbLine
 10
243.5013603366
 20
193.8169795112
 30
0.0
 11
242.1565471719
 21
193.0406353962
 31
0.0
  0
ARC
  5
10A
330
1F
100
AcDbEntity
  8
0
  6
Continuous
 62
     7
370
     0
100
AcDbCircle
 10
215.3700989105
 20
167.2886553239
 30
0.0
 40
37.1574795714963
100
AcDbArc
 50
43.8720065394
 51
44.377472914
  0
SPLINE
  5
10B
330
1F
100
AcDbEntity
  8
0
  6
Continuous
 62
     7
370
     0
100
AcDbSpline
210
0.0
220
0.0
230
1.0
 70
     8
 71
     3
 72
     8
 73
     4
 74
     0
 42
0.00000001
 43
0.00000001
 12
1.0
 22
0.0
 32
0.0
 13
1.0
 23
0.0
 33
0.0
 40
0.0
 40
0.0
 40
0.0
 40
0.0
 40
1.0
 40
1.0
 40
1.0
 40
1.0
 10
241.9283224295648
 20
193.2759416697039
 30
0.0
 10
241.7754280771531
 20
193.0182518842288
 30
0.0
 10
241.6221469295343
 20
192.7596254565945
 30
0.0
 10
241.4684600105858
 20
192.5000820189537
 30
0.0
  0
SPLINE
  5
10C
330
1F
100
AcDbEntity
  8
0
  6
Continuous
 62
     7
370
     0
100
AcDbSpline
210
0.0
220
0.0
230
1.0
 70
     8
 71
     3
 72
     8
 73
     4
 74
     0
 42
0.00000001
 43
0.00000001
 12
1.0
 22
0.0
 32
0.0
 13
1.0
 23
0.0
 33
0.0
 40
0.0
 40
0.0
 40
0.0
 40
0.0
 40
1.0
 40
1.0
 40
1.0
 40
1.0
 10
241.4684600105858
 20
192.5000820189537
 30
0.0
 10
241.8324445442622
 20
192.5393839498108
 30
0.0
 10
242.1960233061558
 20
192.577768871136
 30
0.0
 10
242.5591774660396
 20
192.6152567447938
 30
0.0
  0
ARC
  5
10D
330
1F
100
AcDbEntity
  8
0
  6
Continuous
 62
     7
370
     0
100
AcDbCircle
 10
214.845935734
 20
166.7881005371
 30
0.0
 40
37.88226187910441
100
AcDbArc
 50
42.9824566826
 51
43.4814550679
  0
LINE
  5
10E
330
1F
100
AcDbEntity
  8
0
  6
Continuous
 62
     7
370
     0
100
AcDbLine
 10
242.3331963383
 20
192.8556333997
 30
0.0
 11
243.678009503
 21
193.6319775147
 31
0.0
  0
ARC
  5
10F
330
1F
100
AcDbEntity
  8
0
  6
Continuous
 62
     7
370
     0
100
AcDbCircle
 10
216.450991202
 20
167.8110953409
 30
0.0
 40
37.52370559781748
100
AcDbArc
 50
43.4816212552
 51
43.8721998388
  0
ARC
  5
110
330
1F
100
AcDbEntity
  8
0
  6
Continuous
 62
     7
370
     0
100
AcDbCircle
 10
216.793020048
 20
166.8626158813
 30
0.0
 40
38.5200658897196
100
AcDbArc
 50
2.5637792864
 51
57.4308441809
  0
SPLINE
  5
111
330
1F
100
AcDbEntity
  8
0
  6
Continuous
 62
     7
370
     0
100
AcDbSpline
210
0.0
220
0.0
230
1.0
 70
     8
 71
     3
 72
    13
 73
     9
 74
     0
 42
0.00000001
 43
0.00000001
 12
1.0
 22
0.0
 32
0.0
 13
1.0
 23
0.0
 33
0.0
 40
0.0
 40
0.0
 40
0.0
 40
0.0
 40
0.125485450939511
 40
0.2508717548292324
 40
0.5005437881486908
 40
0.7496100251974721
 40
0.8746824297346196
 40
1.0
 40
1.0
 40
1.0
 40
1.0
 10
240.0777272023699
 20
196.2249905964901
 30
0.0
 10
240.0583675167872
 20
196.2129276728905
 30
0.0
 10
240.0196634418628
 20
196.1888113567028
 30
0.0
 10
239.9532988437078
 20
196.1328976010553
 30
0.0
 10
239.8987784662346
 20
196.0467117882562
 30
0.0
 10
239.8995893682766
 20
195.94555266899
 30
0.0
 10
239.9403302787715
 20
195.866440680288
 30
0.0
 10
239.9769321420357
 20
195.8321465107226
 30
0.0
 10
239.9952509927607
 20
195.8149826366194
 30
0.0
  0
SPLINE
  5
112
330
1F
100
AcDbEntity
  8
0
  6
Continuous
 62
     7
370
     0
100
AcDbSpline
210
0.0
220
0.0
230
1.0
 70
     8
 71
     3
 72
    13
 73
     9
 74
     0
 42
0.00000001
 43
0.00000001
 12
1.0
 22
0.0
 32
0.0
 13
1.0
 23
0.0
 33
0.0
 40
0.0
 40
0.0
 40
0.0
 40
0.0
 40
0.1253127525110424
 40
0.2504463542530739
 40
0.4994972475177283
 40
0.7491566124193237
 40
0.8745209453086593
 40
1.0
 40
1.0
 40
1.0
 40
1.0
 10
239.9952509927607
 20
195.8149826366194
 30
0.0
 10
240.0153550253969
 20
195.7997206456934
 30
0.0
 10
240.0555343493573
 20
195.769218482829
 30
0.0
 10
240.1562126744703
 20
195.7272761192719
 30
0.0
 10
240.2941916585458
 20
195.7062698629574
 30
0.0
 10
240.4238030142049
 20
195.7227151568333
 30
0.0
 10
240.5135960074643
 20
195.7549545222363
 30
0.0
 10
240.5535967902001
 20
195.7761387921423
 30
0.0
 10
240.5736063286337
 20
195.7867357713482
 30
0.0
  0
SPLINE
  5
113
330
1F
100
AcDbEntity
  8
0
  6
Continuous
 62
     7
370
     0
100
AcDbSpline
210
0.0
220
0.0
230
1.0
 70
     8
 71
     3
 72
    13
 73
     9
 74
     0
 42
0.00000001
 43
0.00000001
 12
1.0
 22
0.0
 32
0.0
 13
1.0
 23
0.0
 33
0.0
 40
0.0
 40
0.0
 40
0.0
 40
0.0
 40
0.125459413634036
 40
0.2508058477527738
 40
0.5003949865767626
 40
0.7496402696056343
 40
0.8747301922451508
 40
1.0
 40
1.0
 40
1.0
 40
1.0
 10
240.5736063286337
 20
195.7867357713482
 30
0.0
 10
240.592741154754
 20
195.7986911359589
 30
0.0
 10
240.6309935755783
 20
195.8225910990589
 30
0.0
 10
240.6952658491925
 20
195.8792874595958
 30
0.0
 10
240.7446662969757
 20
195.9673456037131
 30
0.0
 10
240.7453495558659
 20
196.0680302556211
 30
0.0
 10
240.7075171358095
 20
196.1474455852698
 30
0.0
 10
240.6717974644249
 20
196.1816749898671
 30
0.0
 10
240.653924796323
 20
196.1988019891921
 30
0.0
  0
SPLINE
  5
114
330
1F
100
AcDbEntity
  8
0
  6
Continuous
 62
     7
370
     0
100
AcDbSpline
210
0.0
220
0.0
230
1.0
 70
     8
 71
     3
 72
    13
 73
     9
 74
     0
 42
0.00000001
 43
0.00000001
 12
1.0
 22
0.0
 32
0.0
 13
1.0
 23
0.0
 33
0.0
 40
0.0
 40
0.0
 40
0.0
 40
0.0
 40
0.12529213878489
 40
0.2503681048607836
 40
0.499652810341767
 40
0.7492268595677021
 40
0.8745537364249412
 40
1.0
 40
1.0
 40
1.0
 40
1.0
 10
240.653924796323
 20
196.1988019891921
 30
0.0
 10
240.633978661472
 20
196.2139022333183
 30
0.0
 10
240.5941208058204
 20
196.2440766683744
 30
0.0
 10
240.4937909284475
 20
196.2846056926594
 30
0.0
 10
240.3567645291076
 20
196.30363648407
 30
0.0
 10
240.2277930984255
 20
196.2873549889045
 30
0.0
 10
240.1371590526977
 20
196.2566804850919
 30
0.0
 10
240.0975441057023
 20
196.23555724477
 30
0.0
 10
240.0777272023699
 20
196.2249905964901
 30
0.0
  0
SPLINE
  5
115
330
1F
100
AcDbEntity
  8
0
  6
Continuous
 62
     7
370
     0
100
AcDbSpline
210
0.0
220
0.0
230
1.0
 70
     8
 71
     3
 72
    15
 73
    11
 74
     0
 42
0.00000001
 43
0.00000001
 12
1.0
 22
0.0
 32
0.0
 13
1.0
 23
0.0
 33
0.0
 40
0.0
 40
0.0
 40
0.0
 40
0.0
 40
0.1252769592109959
 40
0.2504893215106138
 40
0.4997180923027253
 40
0.6426531291474389
 40
0.7853776591259619
 40
0.8926169015178652
 40
0.9462953635232972
 40
1.0
 40
1.0
 40
1.0
 40
1.0
 10
239.014567480223
 20
195.7244190066598
 30
0.0
 10
238.9896953834524
 20
195.7089068967571
 30
0.0
 10
238.9399640147804
 20
195.6778906755047
 30
0.0
 10
238.8570255524657
 20
195.6046733211813
 30
0.0
 10
238.802794605816
 20
195.5109047414606
 30
0.0
 10
238.795245029539
 20
195.403432808082
 30
0.0
 10
238.8158994096007
 20
195.3221774262329
 30
0.0
 10
238.8539822695612
 20
195.2620383989392
 30
0.0
 10
238.8894062597101
 20
195.2223202108536
 30
0.0
 10
238.9103443943937
 20
195.2039245820464
 30
0.0
 10
238.9208160135551
 20
195.1947245256891
 30
0.0
  0
SPLINE
  5
116
330
1F
100
AcDbEntity
  8
0
  6
Continuous
 62
     7
370
     0
100
AcDbSpline
210
0.0
220
0.0
230
1.0
 70
     8
 71
     3
 72
    17
 73
    13
 74
     0
 42
0.00000001
 43
0.00000001
 12
1.0
 22
0.0
 32
0.0
 13
1.0
 23
0.0
 33
0.0
 40
0.0
 40
0.0
 40
0.0
 40
0.0
 40
0.0625585655731044
 40
0.1250994094969919
 40
0.2499259470216674
 40
0.3747629568250878
 40
0.4997011588805036
 40
0.5711911304207261
 40
0.6426637601587335
 40
0.7498260757951587
 40
0.8748745084348671
 40
1.0
 40
1.0
 40
1.0
 40
1.0
 10
238.9208160135551
 20
195.1947245256891
 30
0.0
 10
238.9335107934413
 20
195.1844724145968
 30
0.0
 10
238.9588967570244
 20
195.1639710966398
 30
0.0
 10
239.0170526552831
 20
195.128323784663
 30
0.0
 10
239.0975683319225
 20
195.0914113641066
 30
0.0
 10
239.2029641659168
 20
195.0654736673965
 30
0.0
 10
239.2941570466597
 20
195.0571041125433
 30
0.0
 10
239.3689332627072
 20
195.0572646403889
 30
0.0
 10
239.436212015043
 20
195.0650673879572
 30
0.0
 10
239.5142434917825
 20
195.0815593286899
 30
0.0
 10
239.5990664199949
 20
195.1113120823991
 30
0.0
 10
239.6510864884836
 20
195.1395029447705
 30
0.0
 10
239.6771045343754
 20
195.1536027176508
 30
0.0
  0
SPLINE
  5
117
330
1F
100
AcDbEntity
  8
0
  6
Continuous
 62
     7
370
     0
100
AcDbSpline
210
0.0
220
0.0
230
1.0
 70
     8
 71
     3
 72
    16
 73
    12
 74
     0
 42
0.00000001
 43
0.00000001
 12
1.0
 22
0.0
 32
0.0
 13
1.0
 23
0.0
 33
0.0
 40
0.0
 40
0.0
 40
0.0
 40
0.0
 40
0.1251302078352176
 40
0.2501967679340027
 40
0.3786924357609119
 40
0.5001275909751383
 40
0.6291666256659925
 40
0.7500341205787885
 40
0.8748902692403021
 40
0.9374274165517043
 40
1.0
 40
1.0
 40
1.0
 40
1.0
 10
239.6771045343754
 20
195.1536027176508
 30
0.0
 10
239.702158090165
 20
195.1691312967349
 30
0.0
 10
239.7522524582019
 20
195.2001805562593
 30
0.0
 10
239.8143512930644
 20
195.2573109977201
 30
0.0
 10
239.8619326254109
 20
195.3215196443898
 30
0.0
 10
239.8890742830739
 20
195.3945518691813
 30
0.0
 10
239.8953487141954
 20
195.4706738893563
 30
0.0
 10
239.8801760023631
 20
195.5494076381551
 30
0.0
 10
239.8457533467302
 20
195.612494672122
 30
0.0
 10
239.8060935222919
 20
195.6599589626638
 30
0.0
 10
239.7816338639481
 20
195.6815492949881
 30
0.0
 10
239.7694005707938
 20
195.692347518778
 30
0.0
  0
SPLINE
  5
118
330
1F
100
AcDbEntity
  8
0
  6
Continuous
 62
     7
370
     0
100
AcDbSpline
210
0.0
220
0.0
230
1.0
 70
     8
 71
     3
 72
    15
 73
    11
 74
     0
 42
0.00000001
 43
0.00000001
 12
1.0
 22
0.0
 32
0.0
 13
1.0
 23
0.0
 33
0.0
 40
0.0
 40
0.0
 40
0.0
 40
0.0
 40
0.0626592737439258
 40
0.1252783759597278
 40
0.2502968459658551
 40
0.4991786019196683
 40
0.5826921588068449
 40
0.7494807581770955
 40
0.8746886697912927
 40
1.0
 40
1.0
 40
1.0
 40
1.0
 10
239.7694005707938
 20
195.692347518778
 30
0.0
 10
239.7567771867712
 20
195.7025165259263
 30
0.0
 10
239.7315385117119
 20
195.7228480207642
 30
0.0
 10
239.6735339969234
 20
195.7578545053455
 30
0.0
 10
239.5606860606597
 20
195.8067758745202
 30
0.0
 10
239.4270234831574
 20
195.8242455402657
 30
0.0
 10
239.2893262528985
 20
195.819800960957
 30
0.0
 10
239.191081901325
 20
195.8008658032725
 30
0.0
 10
239.0923977520935
 20
195.7663380306747
 30
0.0
 10
239.0405180431213
 20
195.7383958596656
 30
0.0
 10
239.014567480223
 20
195.7244190066598
 30
0.0
  0
SPLINE
  5
119
330
1F
100
AcDbEntity
  8
0
  6
Continuous
 62
     7
370
     0
100
AcDbSpline
210
0.0
220
0.0
230
1.0
 70
     8
 71
     3
 72
    16
 73
    12
 74
     0
 42
0.00000001
 43
0.00000001
 12
1.0
 22
0.0
 32
0.0
 13
1.0
 23
0.0
 33
0.0
 40
0.0
 40
0.0
 40
0.0
 40
0.0
 40
0.1251455295635135
 40
0.2502672356213222
 40
0.3779636231445404
 40
0.5003586457970585
 40
0.6431581242061798
 40
0.7857856337862161
 40
0.8927524405963406
 40
0.9463645194336514
 40
1.0
 40
1.0
 40
1.0
 40
1.0
 10
236.4168733235684
 20
197.7217000508561
 30
0.0
 10
236.3887773297362
 20
197.7045962294666
 30
0.0
 10
236.3325906906054
 20
197.6703918426808
 30
0.0
 10
236.2607918938655
 20
197.6115149900376
 30
0.0
 10
236.2024359713917
 20
197.5476192632816
 30
0.0
 10
236.1628541499927
 20
197.4741314051531
 30
0.0
 10
236.1469611775923
 20
197.3933993701898
 30
0.0
 10
236.1596060215224
 20
197.3137666936017
 30
0.0
 10
236.1968223319338
 20
197.2550890680789
 30
0.0
 10
236.2353890200427
 20
197.2173619050444
 30
0.0
 10
236.2591224822211
 20
197.2004516410885
 30
0.0
 10
236.2709918026655
 20
197.1919946641763
 30
0.0
  0
SPLINE
  5
11A
330
1F
100
AcDbEntity
  8
0
  6
Continuous
 62
     7
370
     0
100
AcDbSpline
210
0.0
220
0.0
230
1.0
 70
     8
 71
     3
 72
    15
 73
    11
 74
     0
 42
0.00000001
 43
0.00000001
 12
1.0
 22
0.0
 32
0.0
 13
1.0
 23
0.0
 33
0.0
 40
0.0
 40
0.0
 40
0.0
 40
0.0
 40
0.0715134253843407
 40
0.1429748421749412
 40
0.2855214986884532
 40
0.4080905000837247
 40
0.5000667352255134
 40
0.749535943185327
 40
0.8747362323901956
 40
1.0
 40
1.0
 40
1.0
 40
1.0
 10
236.2709918026655
 20
197.1919946641763
 30
0.0
 10
236.28732744352
 20
197.1821219696607
 30
0.0
 10
236.3199868450301
 20
197.1623837606097
 30
0.0
 10
236.3986688094172
 20
197.1338103351998
 30
0.0
 10
236.5013127702524
 20
197.1153871335531
 30
0.0
 10
236.6111959925468
 20
197.1135684136557
 30
0.0
 10
236.751092520507
 20
197.1237179686259
 30
0.0
 10
236.8814397639883
 20
197.1584027781038
 30
0.0
 10
237.0044037543465
 20
197.2097565085134
 30
0.0
 10
237.0599033184796
 20
197.2404147370751
 30
0.0
 10
237.087660133539
 20
197.2557477364152
 30
0.0
  0
SPLINE
  5
11B
330
1F
100
AcDbEntity
  8
0
  6
Continuous
 62
     7
370
     0
100
AcDbSpline
210
0.0
220
0.0
230
1.0
 70
     8
 71
     3
 72
    15
 73
    11
 74
     0
 42
0.00000001
 43
0.00000001
 12
1.0
 22
0.0
 32
0.0
 13
1.0
 23
0.0
 33
0.0
 40
0.0
 40
0.0
 40
0.0
 40
0.0
 40
0.1254900545901006
 40
0.2509253290261151
 40
0.3762890484356027
 40
0.5015870529781995
 40
0.7852084580458263
 40
0.8924696902402228
 40
0.9462252253689362
 40
1.0
 40
1.0
 40
1.0
 40
1.0
 10
237.087660133539
 20
197.2557477364152
 30
0.0
 10
237.1141691910699
 20
197.2718605299827
 30
0.0
 10
237.167175734137
 20
197.3040790834022
 30
0.0
 10
237.2365685944595
 20
197.3585629375563
 30
0.0
 10
237.2925597493993
 20
197.4193753208736
 30
0.0
 10
237.3469520762878
 20
197.5137099771494
 30
0.0
 10
237.3490044618195
 20
197.6188838635279
 30
0.0
 10
237.2918490431072
 20
197.6992293062435
 30
0.0
 10
237.2546779225052
 20
197.7347052202461
 30
0.0
 10
237.2319842779622
 20
197.7504694449889
 30
0.0
 10
237.2206354254983
 20
197.7583529676409
 30
0.0
  0
SPLINE
  5
11C
330
1F
100
AcDbEntity
  8
0
  6
Continuous
 62
     7
370
     0
100
AcDbSpline
210
0.0
220
0.0
230
1.0
 70
     8
 71
     3
 72
    15
 73
    11
 74
     0
 42
0.00000001
 43
0.00000001
 12
1.0
 22
0.0
 32
0.0
 13
1.0
 23
0.0
 33
0.0
 40
0.0
 40
0.0
 40
0.0
 40
0.0
 40
0.0626173427386428
 40
0.1252286942408525
 40
0.2501494449114082
 40
0.3751278682770096
 40
0.5002516890628569
 40
0.7495287002126386
 40
0.8747345946215767
 40
1.0
 40
1.0
 40
1.0
 40
1.0
 10
237.2206354254983
 20
197.7583529676409
 30
0.0
 10
237.2069683432958
 20
197.7669713708525
 30
0.0
 10
237.179635486559
 20
197.7842073526656
 30
0.0
 10
237.1160468576128
 20
197.8119014523486
 30
0.0
 10
237.0275719416201
 20
197.8367424484386
 30
0.0
 10
236.9146442460948
 20
197.848021390614
 30
0.0
 10
236.7642762626871
 20
197.8466406534256
 30
0.0
 10
236.6217982600139
 20
197.8154449637512
 30
0.0
 10
236.4989931336161
 20
197.7664335841587
 30
0.0
 10
236.4442509290933
 20
197.736613590327
 30
0.0
 10
236.4168733235684
 20
197.7217000508561
 30
0.0
  0
ARC
  5
11D
330
1F
100
AcDbEntity
  8
0
  6
Continuous
 62
     7
370
     0
100
AcDbCircle
 10
224.1174198876
 20
178.3451221228
 30
0.0
 40
23.36079240924847
100
AcDbArc
 50
60.1700512787
 51
61.466193983
  0
SPLINE
  5
11E
330
1F
100
AcDbEntity
  8
0
  6
Continuous
 62
     7
370
     0
100
AcDbSpline
210
0.0
220
0.0
230
1.0
 70
     8
 71
     3
 72
    15
 73
    11
 74
     0
 42
0.00000001
 43
0.00000001
 12
1.0
 22
0.0
 32
0.0
 13
1.0
 23
0.0
 33
0.0
 40
0.0
 40
0.0
 40
0.0
 40
0.0
 40
0.1253687344043246
 40
0.2506537146082105
 40
0.4990061076881856
 40
0.5824744486737397
 40
0.6659284924138863
 40
0.7494593542610676
 40
0.8746717774612628
 40
0.9999999999999999
 40
0.9999999999999999
 40
0.9999999999999999
 40
0.9999999999999999
 10
235.7377199259963
 20
198.6107395326925
 30
0.0
 10
235.7660523038986
 20
198.5952487130246
 30
0.0
 10
235.8226981318925
 20
198.5642774225308
 30
0.0
 10
235.9485826296465
 20
198.5114162172696
 30
0.0
 10
236.0877281318481
 20
198.4786597737327
 30
0.0
 10
236.2177756964896
 20
198.4815617654251
 30
0.0
 10
236.2940706257631
 20
198.4914358152166
 30
0.0
 10
236.3775426397795
 20
198.5123303409795
 30
0.0
 10
236.4653702701569
 20
198.5448772415238
 30
0.0
 10
236.5223414256246
 20
198.5756862991412
 30
0.0
 10
236.5508401693301
 20
198.5910979478895
 30
0.0
  0
SPLINE
  5
11F
330
1F
100
AcDbEntity
  8
0
  6
Continuous
 62
     7
370
     0
100
AcDbSpline
210
0.0
220
0.0
230
1.0
 70
     8
 71
     3
 72
    15
 73
    11
 74
     0
 42
0.00000001
 43
0.00000001
 12
1.0
 22
0.0
 32
0.0
 13
1.0
 23
0.0
 33
0.0
 40
0.0
 40
0.0
 40
0.0
 40
0.0
 40
0.1251540318599156
 40
0.2502318117948294
 40
0.375237720869918
 40
0.5001643140107042
 40
0.6246887580925312
 40
0.7495887405035494
 40
0.8622797430452331
 40
1.0
 40
1.0
 40
1.0
 40
1.0
 10
236.5508401693301
 20
198.5910979478895
 30
0.0
 10
236.5774908779966
 20
198.6075943223499
 30
0.0
 10
236.6307760579955
 20
198.6405770206132
 30
0.0
 10
236.6928389096952
 20
198.6989238012388
 30
0.0
 10
236.7315080076442
 20
198.7637028951496
 30
0.0
 10
236.7496083320629
 20
198.8317724174939
 30
0.0
 10
236.727473127076
 20
198.9008888173343
 30
0.0
 10
236.6634071544171
 20
198.9562821850228
 30
0.0
 10
236.5892666194638
 20
199.0086903423734
 30
0.0
 10
236.534774123216
 20
199.0408391870212
 30
0.0
 10
236.504804541974
 20
199.0585202895188
 30
0.0
  0
ARC
  5
120
330
1F
100
AcDbEntity
  8
0
  6
Continuous
 62
     7
370
     0
100
AcDbCircle
 10
224.8908709103
 20
178.7941608529
 30
0.0
 40
23.35653479819429
100
AcDbArc
 50
60.1820644313
 51
61.4662722866
  0
LINE
  5
121
330
1F
100
AcDbEntity
  8
0
  6
Continuous
 62
     7
370
     0
100
AcDbLine
 10
236.047727067
 20
199.3137192906
 30
0.0
 11
235.2763378511
 21
198.868405775
 31
0.0
  0
ARC
  5
122
330
1F
100
AcDbEntity
  8
0
  6
Continuous
 62
     7
370
     0
100
AcDbCircle
 10
226.5382680827
 20
186.1346738112
 30
0.0
 40
14.42216452103826
100
AcDbArc
 50
77.2334173082
 51
78.6992605148
  0
SPLINE
  5
123
330
1F
100
AcDbEntity
  8
0
  6
Continuous
 62
     7
370
     0
100
AcDbSpline
210
0.0
220
0.0
230
1.0
 70
     8
 71
     3
 72
    15
 73
    11
 74
     0
 42
0.00000001
 43
0.00000001
 12
1.0
 22
0.0
 32
0.0
 13
1.0
 23
0.0
 33
0.0
 40
0.0
 40
0.0
 40
0.0
 40
0.0
 40
0.1397214989305027
 40
0.2501771574758241
 40
0.375238625844428
 40
0.50023145062014
 40
0.6214276674151485
 40
0.7499576434759527
 40
0.8749319569283701
 40
1.0
 40
1.0
 40
1.0
 40
1.0
 10
229.7252738429043
 20
200.2002994196123
 30
0.0
 10
229.7555075963067
 20
200.1939836237504
 30
0.0
 10
229.8096423897631
 20
200.1826749284672
 30
0.0
 10
229.8975740801741
 20
200.1692022831489
 30
0.0
 10
229.9886217763513
 20
200.160443289053
 30
0.0
 10
230.0919086795197
 20
200.1590257727325
 30
0.0
 10
230.2049359307057
 20
200.1688020865119
 30
0.0
 10
230.3204147887636
 20
200.1897080798938
 30
0.0
 10
230.4352912733782
 20
200.2182282664011
 30
0.0
 10
230.5069119354762
 20
200.2421864332013
 30
0.0
 10
230.5427356902057
 20
200.2541700070204
 30
0.0
  0
SPLINE
  5
124
330
1F
100
AcDbEntity
  8
0
  6
Continuous
 62
     7
370
     0
100
AcDbSpline
210
0.0
220
0.0
230
1.0
 70
     8
 71
     3
 72
    12
 73
     8
 74
     0
 42
0.00000001
 43
0.00000001
 12
1.0
 22
0.0
 32
0.0
 13
1.0
 23
0.0
 33
0.0
 40
0.0
 40
0.0
 40
0.0
 40
0.0
 40
0.1250178846381799
 40
0.2500201696718626
 40
0.4999844141952995
 40
0.749986801893363
 40
1.0
 40
1.0
 40
1.0
 40
1.0
 10
230.5427356902057
 20
200.2541700070204
 30
0.0
 10
230.5707326782296
 20
200.2641544829196
 30
0.0
 10
230.6267231608417
 20
200.2841221888654
 30
0.0
 10
230.7344858797536
 20
200.326976597444
 30
0.0
 10
230.8630477694288
 20
200.3838928740626
 30
0.0
 10
231.008402846842
 20
200.4559994398346
 30
0.0
 10
231.0977868733931
 20
200.5064493308632
 30
0.0
 10
231.1424798529164
 20
200.5316748217444
 30
0.0
  0
SPLINE
  5
125
330
1F
100
AcDbEntity
  8
0
  6
Continuous
 62
     7
370
     0
100
AcDbSpline
210
0.0
220
0.0
230
1.0
 70
     8
 71
     3
 72
    15
 73
    11
 74
     0
 42
0.00000001
 43
0.00000001
 12
1.0
 22
0.0
 32
0.0
 13
1.0
 23
0.0
 33
0.0
 40
0.0
 40
0.0
 40
0.0
 40
0.0
 40
0.1251268274281163
 40
0.2502484251834727
 40
0.5001030853491313
 40
0.6251006234200797
 40
0.7501052843047152
 40
0.874955926622918
 40
0.9374630657903266
 40
1.0
 40
1.0
 40
1.0
 40
1.0
 10
231.1424798529164
 20
200.5316748217444
 30
0.0
 10
231.1781223897197
 20
200.5526110287593
 30
0.0
 10
231.2494059736473
 20
200.5944825677609
 30
0.0
 10
231.3813716213772
 20
200.6804854931681
 30
0.0
 10
231.498386597471
 20
200.7699528148199
 30
0.0
 10
231.5771906134957
 20
200.8611515192822
 30
0.0
 10
231.6162882536004
 20
200.928900170699
 30
0.0
 10
231.6245261009601
 20
200.9827208105641
 30
0.0
 10
231.6132118382555
 20
201.0220681689089
 30
0.0
 10
231.5980820917116
 20
201.0390270274302
 30
0.0
 10
231.5905154159094
 20
201.047508477138
 30
0.0
  0
SPLINE
  5
126
330
1F
100
AcDbEntity
  8
0
  6
Continuous
 62
     7
370
     0
100
AcDbSpline
210
0.0
220
0.0
230
1.0
 70
     8
 71
     3
 72
    12
 73
     8
 74
     0
 42
0.00000001
 43
0.00000001
 12
1.0
 22
0.0
 32
0.0
 13
1.0
 23
0.0
 33
0.0
 40
0.0
 40
0.0
 40
0.0
 40
0.0
 40
0.1428151998865892
 40
0.2856721884586214
 40
0.4999151269693849
 40
0.749937838827124
 40
1.0
 40
1.0
 40
1.0
 40
1.0
 10
231.5905154159094
 20
201.047508477138
 30
0.0
 10
231.582804000226
 20
201.0537685708832
 30
0.0
 10
231.5673789124473
 20
201.0662905901192
 30
0.0
 10
231.5310647296271
 20
201.0844270529921
 30
0.0
 10
231.4812299693461
 20
201.1035164017904
 30
0.0
 10
231.4170476002582
 20
201.1228487696534
 30
0.0
 10
231.3689738767277
 20
201.1342448850943
 30
0.0
 10
231.3449351188089
 20
201.1399433923074
 30
0.0
  0
ARC
  5
127
330
1F
100
AcDbEntity
  8
0
  6
Continuous
 62
     7
370
     0
100
AcDbCircle
 10
228.1645471687
 20
187.0770957612
 30
0.0
 40
14.41799400083087
100
AcDbArc
 50
77.2566262445
 51
78.6994005667
  0
LINE
  5
128
330
1F
100
AcDbEntity
  8
0
  6
Continuous
 62
     7
370
     0
100
AcDbLine
 10
230.9898454188
 20
201.2155624676
 30
0.0
 11
229.3644181426
 21
200.2772232741
 31
0.0
  0
CIRCLE
  5
129
330
1F
100
AcDbEntity
  8
0
  6
Continuous
 62
     7
370
     0
100
AcDbCircle
 10
87.8332994129
 20
117.5704363992
 30
0.0
 40
25.39999999999999
  0
CIRCLE
  5
12A
330
1F
100
AcDbEntity
  8
0
  6
Continuous
 62
     7
370
     0
100
AcDbCircle
 10
87.8332994129
 20
117.5704363992
 30
0.0
 40
25.10000000000001
  0
DIMENSION
  5
12B
330
1F
100
AcDbEntity
  8
0
  6
Continuous
 62
     7
370
     0
100
AcDbDimension
  2
_D
 10
70.0945610673
 20
99.3908554935
 30
0.0
 11
134.0226158859
 21
152.9704363992
 31
0.0
 70
   163
  1
<>
 71
     1
 42
-1.0
  3
SLDDIMSTYLE0
100
AcDbDiametricDimension
 15
105.5720377585
 25
135.7500173049
 35
0.0
 40
0.0
  0
LINE
  5
13C
330
1F
100
AcDbEntity
  8
0
  6
Continuous
 62
     7
370
     0
100
AcDbLine
 10
179.8240391389
 20
92.1704363992
 30
0.0
 11
180.1240391389
 21
92.4704363992
 31
0.0
  0
LINE
  5
13D
330
1F
100
AcDbEntity
  8
0
  6
Continuous
 62
     7
370
     0
100
AcDbLine
 10
180.1240391389
 20
142.6704363992
 30
0.0
 11
179.8240391389
 21
142.9704363992
 31
0.0
  0
LINE
  5
13E
330
1F
100
AcDbEntity
  8
0
  6
Continuous
 62
     7
370
     0
100
AcDbLine
 10
179.8240391389
 20
142.9704363992
 30
0.0
 11
175.4240391389
 21
142.9704363992
 31
0.0
  0
LINE
  5
13F
330
1F
100
AcDbEntity
  8
0
  6
Continuous
 62
     7
370
     0
100
AcDbLine
 10
175.4240391389
 20
92.1704363992
 30
0.0
 11
179.8240391389
 21
92.1704363992
 31
0.0
  0
LINE
  5
140
330
1F
100
AcDbEntity
  8
0
  6
Continuous
 62
     7
370
     0
100
AcDbLine
 10
175.4240391389
 20
142.9704363992
 30
0.0
 11
175.1240391389
 21
142.6704363992
 31
0.0
  0
LINE
  5
141
330
1F
100
AcDbEntity
  8
0
  6
Continuous
 62
     7
370
     0
100
AcDbLine
 10
175.1240391389
 20
92.4704363992
 30
0.0
 11
175.4240391389
 21
92.1704363992
 31
0.0
  0
LINE
  5
142
330
1F
100
AcDbEntity
  8
0
  6
Continuous
 62
     7
370
     0
100
AcDbLine
 10
180.1240391389
 20
142.6704363992
 30
0.0
 11
180.1240391389
 21
92.4704363992
 31
0.0
  0
LINE
  5
143
330
1F
100
AcDbEntity
  8
0
  6
Continuous
 62
     7
370
     0
100
AcDbLine
 10
179.8240391389
 20
92.1704363992
 30
0.0
 11
179.8240391389
 21
142.9704363992
 31
0.0
  0
LINE
  5
144
330
1F
100
AcDbEntity
  8
0
  6
Continuous
 62
     7
370
     0
100
AcDbLine
 10
178.7733897883
 20
125.9433327263
 30
0.0
 11
178.7733897883
 21
124.7566534677
 31
0.0
  0
LINE
  5
145
330
1F
100
AcDbEntity
  8
0
  6
Continuous
 62
     7
370
     0
100
AcDbLine
 10
176.1240391389
 20
124.7566534677
 30
0.0
 11
178.7733897883
 21
124.7566534677
 31
0.0
  0
LINE
  5
146
330
1F
100
AcDbEntity
  8
0
  6
Continuous
 62
     7
370
     0
100
AcDbLine
 10
176.1240391389
 20
124.7566534677
 30
0.0
 11
176.1240391389
 21
124.4571662754
 31
0.0
  0
LINE
  5
147
330
1F
100
AcDbEntity
  8
0
  6
Continuous
 62
     7
370
     0
100
AcDbLine
 10
179.1240391389
 20
124.4571662754
 30
0.0
 11
176.1240391389
 21
124.4571662754
 31
0.0
  0
LINE
  5
148
330
1F
100
AcDbEntity
  8
0
  6
Continuous
 62
     7
370
     0
100
AcDbLine
 10
179.1240391389
 20
125.9433327263
 30
0.0
 11
179.1240391389
 21
124.4571662754
 31
0.0
  0
LINE
  5
149
330
1F
100
AcDbEntity
  8
0
  6
Continuous
 62
     7
370
     0
100
AcDbLine
 10
178.7733897883
 20
125.9433327263
 30
0.0
 11
179.1240391389
 21
125.9433327263
 31
0.0
  0
SPLINE
  5
14A
330
1F
100
AcDbEntity
  8
0
  6
Continuous
 62
     7
370
     0
100
AcDbSpline
210
0.0
220
0.0
230
1.0
 70
     8
 71
     3
 72
    15
 73
    11
 74
     0
 42
0.00000001
 43
0.00000001
 12
1.0
 22
0.0
 32
0.0
 13
1.0
 23
0.0
 33
0.0
 40
0.0
 40
0.0
 40
0.0
 40
0.0
 40
0.0625883864441317
 40
0.1251453538309956
 40
0.2501107778949289
 40
0.3709198417053798
 40
0.5000385589551126
 40
0.7497303507263371
 40
0.874837902005407
 40
1.0
 40
1.0
 40
1.0
 40
1.0
 10
177.4779352428394
 20
121.7331880417649
 30
0.0
 10
177.483647986748
 20
121.7516565573399
 30
0.0
 10
177.4950706067962
 20
121.7885843173872
 30
0.0
 10
177.5268419367469
 20
121.8591529139395
 30
0.0
 10
177.5790398901944
 20
121.9399177580749
 30
0.0
 10
177.6638951780407
 20
122.0209592042215
 30
0.0
 10
177.7974894924741
 20
122.1020617096657
 30
0.0
 10
177.9480193420972
 20
122.1536367267301
 30
0.0
 10
178.1025994464302
 20
122.1783843916836
 30
0.0
 10
178.1808749832461
 20
122.1801924355467
 30
0.0
 10
178.2200212818004
 20
122.1810966545114
 30
0.0
  0
SPLINE
  5
14B
330
1F
100
AcDbEntity
  8
0
  6
Continuous
 62
     7
370
     0
100
AcDbSpline
210
0.0
220
0.0
230
1.0
 70
     8
 71
     3
 72
    13
 73
     9
 74
     0
 42
0.00000001
 43
0.00000001
 12
1.0
 22
0.0
 32
0.0
 13
1.0
 23
0.0
 33
0.0
 40
0.0
 40
0.0
 40
0.0
 40
0.0
 40
0.1252099869911468
 40
0.250349818077825
 40
0.5000909072610702
 40
0.7496995620989352
 40
0.874811831300961
 40
1.0
 40
1.0
 40
1.0
 40
1.0
 10
176.8661251779043
 20
122.0661069205999
 30
0.0
 10
176.8967358034563
 20
122.0652896191864
 30
0.0
 10
176.9579399032437
 20
122.0636554742981
 30
0.0
 10
177.0787272132362
 20
122.0434934568999
 30
0.0
 10
177.2236402331492
 20
121.9909269037346
 30
0.0
 10
177.3481984964628
 20
121.9006531822636
 30
0.0
 10
177.4299154426355
 20
121.810465694141
 30
0.0
 10
177.4619254072727
 20
121.7589524660704
 30
0.0
 10
177.4779352428394
 20
121.7331880417649
 30
0.0
  0
SPLINE
  5
14C
330
1F
100
AcDbEntity
  8
0
  6
Continuous
 62
     7
370
     0
100
AcDbSpline
210
0.0
220
0.0
230
1.0
 70
     8
 71
     3
 72
    16
 73
    12
 74
     0
 42
0.00000001
 43
0.00000001
 12
1.0
 22
0.0
 32
0.0
 13
1.0
 23
0.0
 33
0.0
 40
0.0
 40
0.0
 40
0.0
 40
0.0
 40
0.0626588867697323
 40
0.1252974675626994
 40
0.2503187250317795
 40
0.4992376341359909
 40
0.6255638958849383
 40
0.7494966237450198
 40
0.8746864990787085
 40
0.937334858300888
 40
1.0
 40
1.0
 40
1.0
 40
1.0
 10
176.0850780999822
 20
121.3682355918749
 30
0.0
 10
176.0858193421139
 20
121.3924544730284
 30
0.0
 10
176.0873015861616
 20
121.4408843866796
 30
0.0
 10
176.1023678058379
 20
121.5366148282413
 30
0.0
 10
176.1560017309559
 20
121.6981307488039
 30
0.0
 10
176.2825845377922
 20
121.8537123430336
 30
0.0
 10
176.4412009328217
 20
121.9667619626903
 30
0.0
 10
176.5760444495361
 20
122.0263980547361
 30
0.0
 10
176.6952058946237
 20
122.0542525648096
 30
0.0
 10
176.7926367840507
 20
122.0648503508384
 30
0.0
 10
176.8416268596386
 20
122.0656880266178
 30
0.0
 10
176.8661251779043
 20
122.0661069205999
 30
0.0
  0
SPLINE
  5
14D
330
1F
100
AcDbEntity
  8
0
  6
Continuous
 62
     7
370
     0
100
AcDbSpline
210
0.0
220
0.0
230
1.0
 70
     8
 71
     3
 72
    15
 73
    11
 74
     0
 42
0.00000001
 43
0.00000001
 12
1.0
 22
0.0
 32
0.0
 13
1.0
 23
0.0
 33
0.0
 40
0.0
 40
0.0
 40
0.0
 40
0.0
 40
0.1252341676629945
 40
0.2504185904834582
 40
0.4996345629613536
 40
0.624699165843382
 40
0.7497326816378568
 40
0.874761197916651
 40
0.9373708476522385
 40
0.9999999999999999
 40
0.9999999999999999
 40
0.9999999999999999
 40
0.9999999999999999
 10
176.825337840242
 20
120.6408312449664
 30
0.0
 10
176.7782063191746
 20
120.64926643579
 30
0.0
 10
176.6839619983691
 20
120.6661334668561
 30
0.0
 10
176.5020647186424
 20
120.7240930140957
 30
0.0
 10
176.3323242723674
 20
120.8212200586913
 30
0.0
 10
176.2064850025209
 20
120.965102358627
 30
0.0
 10
176.1348357306798
 20
121.0891965037387
 30
0.0
 10
176.1000412186119
 20
121.2033951726257
 30
0.0
 10
176.0870627659579
 20
121.2972611061831
 30
0.0
 10
176.0857397239836
 20
121.3445749740188
 30
0.0
 10
176.0850780999822
 20
121.3682355918749
 30
0.0
  0
SPLINE
  5
14E
330
1F
100
AcDbEntity
  8
0
  6
Continuous
 62
     7
370
     0
100
AcDbSpline
210
0.0
220
0.0
230
1.0
 70
     8
 71
     3
 72
     8
 73
     4
 74
     0
 42
0.00000001
 43
0.00000001
 12
1.0
 22
0.0
 32
0.0
 13
1.0
 23
0.0
 33
0.0
 40
0.0
 40
0.0
 40
0.0
 40
0.0
 40
1.0
 40
1.0
 40
1.0
 40
1.0
 10
176.864298879203
 20
120.9499949864003
 30
0.0
 10
176.851311866216
 20
120.8470226374643
 30
0.0
 10
176.838324853229
 20
120.7439654706158
 30
0.0
 10
176.825337840242
 20
120.6408312449664
 30
0.0
  0
SPLINE
  5
14F
330
1F
100
AcDbEntity
  8
0
  6
Continuous
 62
     7
370
     0
100
AcDbSpline
210
0.0
220
0.0
230
1.0
 70
     8
 71
     3
 72
    14
 73
    10
 74
     0
 42
0.00000001
 43
0.00000001
 12
1.0
 22
0.0
 32
0.0
 13
1.0
 23
0.0
 33
0.0
 40
0.0
 40
0.0
 40
0.0
 40
0.0
 40
0.1251717002211796
 40
0.2502007123742238
 40
0.3731296697837786
 40
0.5001936843439049
 40
0.7495148542008764
 40
0.8926309034239375
 40
1.0
 40
1.0
 40
1.0
 40
1.0
 10
176.3967664116706
 20
121.3766622991221
 30
0.0
 10
176.3982474649716
 20
121.3476525802966
 30
0.0
 10
176.4012078832638
 20
121.2896662119474
 30
0.0
 10
176.4299089728682
 20
121.2070373879042
 30
0.0
 10
176.4754930842379
 20
121.1321977159115
 30
0.0
 10
176.5583712338052
 20
121.0493808689777
 30
0.0
 10
176.6685131990941
 20
120.9924292378364
 30
0.0
 10
176.7816149952716
 20
120.9627325879222
 30
0.0
 10
176.8394907510104
 20
120.9538167233144
 30
0.0
 10
176.864298879203
 20
120.9499949864003
 30
0.0
  0
SPLINE
  5
150
330
1F
100
AcDbEntity
  8
0
  6
Continuous
 62
     7
370
     0
100
AcDbSpline
210
0.0
220
0.0
230
1.0
 70
     8
 71
     3
 72
    13
 73
     9
 74
     0
 42
0.00000001
 43
0.00000001
 12
1.0
 22
0.0
 32
0.0
 13
1.0
 23
0.0
 33
0.0
 40
0.0
 40
0.0
 40
0.0
 40
0.0
 40
0.1254852044870827
 40
0.2508437863163052
 40
0.5002097958322458
 40
0.7494510840741708
 40
0.874608088902579
 40
1.0
 40
1.0
 40
1.0
 40
1.0
 10
176.8484709571251
 20
121.7590088354378
 30
0.0
 10
176.8207535963853
 20
121.7578520314234
 30
0.0
 10
176.7653468435089
 20
121.7555395906845
 30
0.0
 10
176.6563040009535
 20
121.7349983868428
 30
0.0
 10
176.5307002874987
 20
121.6706799667951
 30
0.0
 10
176.4396777886444
 20
121.5628930275157
 30
0.0
 10
176.4016587350915
 20
121.4589693257638
 30
0.0
 10
176.3983982051321
 20
121.4041151178251
 30
0.0
 10
176.3967664116706
 20
121.3766622991221
 30
0.0
  0
SPLINE
  5
151
330
1F
100
AcDbEntity
  8
0
  6
Continuous
 62
     7
370
     0
100
AcDbSpline
210
0.0
220
0.0
230
1.0
 70
     8
 71
     3
 72
    14
 73
    10
 74
     0
 42
0.00000001
 43
0.00000001
 12
1.0
 22
0.0
 32
0.0
 13
1.0
 23
0.0
 33
0.0
 40
0.0
 40
0.0
 40
0.0
 40
0.0
 40
0.0717346767476651
 40
0.143459773354336
 40
0.2509588837864648
 40
0.5001424473574595
 40
0.7491709626086758
 40
0.874524072982843
 40
1.0
 40
1.0
 40
1.0
 40
1.0
 10
177.3360927103718
 20
121.2664797390966
 30
0.0
 10
177.3358478456135
 20
121.2849978464273
 30
0.0
 10
177.3353581487983
 20
121.3220315880019
 30
0.0
 10
177.3257925464307
 20
121.3861780552121
 30
0.0
 10
177.2991173575314
 20
121.4936315450298
 30
0.0
 10
177.2145458953416
 20
121.6318412675782
 30
0.0
 10
177.0738700141634
 20
121.7227641602392
 30
0.0
 10
176.9467239096326
 20
121.755250411297
 30
0.0
 10
176.8812326304063
 20
121.7577556185052
 30
0.0
 10
176.8484709571251
 20
121.7590088354378
 30
0.0
  0
SPLINE
  5
152
330
1F
100
AcDbEntity
  8
0
  6
Continuous
 62
     7
370
     0
100
AcDbSpline
210
0.0
220
0.0
230
1.0
 70
     8
 71
     3
 72
     8
 73
     4
 74
     0
 42
0.00000001
 43
0.00000001
 12
1.0
 22
0.0
 32
0.0
 13
1.0
 23
0.0
 33
0.0
 40
0.0
 40
0.0
 40
0.0
 40
0.0
 40
1.0
 40
1.0
 40
1.0
 40
1.0
 10
177.3318313467355
 20
121.2200973966336
 30
0.0
 10
177.333251801281
 20
121.2355602578813
 30
0.0
 10
177.3346722558264
 20
121.2510210474782
 30
0.0
 10
177.3360927103718
 20
121.2664797390966
 30
0.0
  0
LINE
  5
153
330
1F
100
AcDbEntity
  8
0
  6
Continuous
 62
     7
370
     0
100
AcDbLine
 10
177.6849157623
 20
121.1815363733
 30
0.0
 11
177.3318313467
 21
121.2200973966
 31
0.0
  0
SPLINE
  5
154
330
1F
100
AcDbEntity
  8
0
  6
Continuous
 62
     7
370
     0
100
AcDbSpline
210
0.0
220
0.0
230
1.0
 70
     8
 71
     3
 72
    10
 73
     6
 74
     0
 42
0.00000001
 43
0.00000001
 12
1.0
 22
0.0
 32
0.0
 13
1.0
 23
0.0
 33
0.0
 40
0.0
 40
0.0
 40
0.0
 40
0.0
 40
0.2500137948370225
 40
0.500055933419661
 40
1.0
 40
1.0
 40
1.0
 40
1.0
 10
177.6435196584238
 20
121.3941162569831
 30
0.0
 10
177.6442266956085
 20
121.3760140968647
 30
0.0
 10
177.6456408501338
 20
121.3398077244089
 30
0.0
 10
177.6590290780736
 20
121.2684229444166
 30
0.0
 10
177.6745616693877
 20
121.2162890524383
 30
0.0
 10
177.6849157623199
 20
121.1815363732785
 30
0.0
  0
SPLINE
  5
155
330
1F
100
AcDbEntity
  8
0
  6
Continuous
 62
     7
370
     0
100
AcDbSpline
210
0.0
220
0.0
230
1.0
 70
     8
 71
     3
 72
    15
 73
    11
 74
     0
 42
0.00000001
 43
0.00000001
 12
1.0
 22
0.0
 32
0.0
 13
1.0
 23
0.0
 33
0.0
 40
0.0
 40
0.0
 40
0.0
 40
0.0
 40
0.1253044930661368
 40
0.250497156207878
 40
0.3756914863566538
 40
0.5008346873114786
 40
0.7496416840877465
 40
0.8747077858772837
 40
0.9373364107678793
 40
1.0
 40
1.0
 40
1.0
 40
1.0
 10
178.223673879203
 20
121.8742470153566
 30
0.0
 10
178.1883471506092
 20
121.8732342793847
 30
0.0
 10
178.1177252213047
 20
121.8712097112727
 30
0.0
 10
178.0135878299043
 20
121.8501992423561
 30
0.0
 10
177.9138290674404
 20
121.8136479468789
 30
0.0
 10
177.7948762115261
 20
121.7387857479952
 30
0.0
 10
177.698094002071
 20
121.6309968133133
 30
0.0
 10
177.6566259914474
 20
121.5153710069972
 30
0.0
 10
177.6449482383758
 20
121.4464749368656
 30
0.0
 10
177.6439959403247
 20
121.4115723969391
 30
0.0
 10
177.6435196584238
 20
121.3941162569831
 30
0.0
  0
SPLINE
  5
156
330
1F
100
AcDbEntity
  8
0
  6
Continuous
 62
     7
370
     0
100
AcDbSpline
210
0.0
220
0.0
230
1.0
 70
     8
 71
     3
 72
    16
 73
    12
 74
     0
 42
0.00000001
 43
0.00000001
 12
1.0
 22
0.0
 32
0.0
 13
1.0
 23
0.0
 33
0.0
 40
0.0
 40
0.0
 40
0.0
 40
0.0
 40
0.0714748983120378
 40
0.1429605478135483
 40
0.2855238170234781
 40
0.3926196488311579
 40
0.4998231957010136
 40
0.6247937871614303
 40
0.749791111518378
 40
0.8748705096675069
 40
0.9999999999999999
 40
0.9999999999999999
 40
0.9999999999999999
 40
0.9999999999999999
 10
178.851311866216
 20
121.3772641903959
 30
0.0
 10
178.8506232789273
 20
121.3983645393781
 30
0.0
 10
178.8492460007733
 20
121.440568411238
 30
0.0
 10
178.8298410100653
 20
121.5228920654345
 30
0.0
 10
178.7881126497022
 20
121.6096670613725
 30
0.0
 10
178.7190323077762
 20
121.6902086997267
 30
0.0
 10
178.6434158318436
 20
121.7569952115181
 30
0.0
 10
178.5513740613182
 20
121.8113577149464
 30
0.0
 10
178.445861227999
 20
121.8491643631241
 30
0.0
 10
178.3356906006013
 20
121.8712218113565
 30
0.0
 10
178.2610177695389
 20
121.8732384794433
 30
0.0
 10
178.223673879203
 20
121.8742470153566
 30
0.0
  0
SPLINE
  5
157
330
1F
100
AcDbEntity
  8
0
  6
Continuous
 62
     7
370
     0
100
AcDbSpline
210
0.0
220
0.0
230
1.0
 70
     8
 71
     3
 72
    14
 73
    10
 74
     0
 42
0.00000001
 43
0.00000001
 12
1.0
 22
0.0
 32
0.0
 13
1.0
 23
0.0
 33
0.0
 40
0.0
 40
0.0
 40
0.0
 40
0.0
 40
0.1355229732914336
 40
0.2508374022844056
 40
0.5010239145982911
 40
0.7495841688941781
 40
0.8746147165034573
 40
0.9372877092171249
 40
1.0
 40
1.0
 40
1.0
 40
1.0
 10
178.2668962818004
 20
120.9113763949009
 30
0.0
 10
178.3034423885805
 20
120.9179876205532
 30
0.0
 10
178.3710850196834
 20
120.9302242371818
 30
0.0
 10
178.5038975715958
 20
120.9649196672133
 30
0.0
 10
178.6612345121958
 20
121.0277673861525
 30
0.0
 10
178.7924702803216
 20
121.1477024929378
 30
0.0
 10
178.8374343236402
 20
121.2592724521467
 30
0.0
 10
178.849600313723
 20
121.3262716616358
 30
0.0
 10
178.8507412295236
 20
121.3602631296241
 30
0.0
 10
178.851311866216
 20
121.3772641903959
 30
0.0
  0
SPLINE
  5
158
330
1F
100
AcDbEntity
  8
0
  6
Continuous
 62
     7
370
     0
100
AcDbSpline
210
0.0
220
0.0
230
1.0
 70
     8
 71
     3
 72
     8
 73
     4
 74
     0
 42
0.00000001
 43
0.00000001
 12
1.0
 22
0.0
 32
0.0
 13
1.0
 23
0.0
 33
0.0
 40
0.0
 40
0.0
 40
0.0
 40
0.0
 40
1.0
 40
1.0
 40
1.0
 40
1.0
 10
178.3058573207614
 20
120.6021523134306
 30
0.0
 10
178.2928703077745
 20
120.7053056821918
 30
0.0
 10
178.2798832947875
 20
120.8083829628905
 30
0.0
 10
178.2668962818004
 20
120.9113763949009
 30
0.0
  0
SPLINE
  5
159
330
1F
100
AcDbEntity
  8
0
  6
Continuous
 62
     7
370
     0
100
AcDbSpline
210
0.0
220
0.0
230
1.0
 70
     8
 71
     3
 72
    16
 73
    12
 74
     0
 42
0.00000001
 43
0.00000001
 12
1.0
 22
0.0
 32
0.0
 13
1.0
 23
0.0
 33
0.0
 40
0.0
 40
0.0
 40
0.0
 40
0.0
 40
0.0625665768458793
 40
0.1251105477877633
 40
0.2499818396694569
 40
0.3720036460820754
 40
0.4998585227932845
 40
0.6248526661662422
 40
0.7498508640998901
 40
0.874906050032823
 40
1.0
 40
1.0
 40
1.0
 40
1.0
 10
179.1630001779043
 20
121.3724489990058
 30
0.0
 10
179.1622680497423
 20
121.3460437211865
 30
0.0
 10
179.1608040579432
 20
121.2932427060277
 30
0.0
 10
179.1438230152814
 20
121.1888070547255
 30
0.0
 10
179.1007508391588
 20
121.0640010079712
 30
0.0
 10
179.0149776262062
 20
120.9286496551198
 30
0.0
 10
178.9008386678549
 20
120.8161444342103
 30
0.0
 10
178.7679822851239
 20
120.7238891261252
 30
0.0
 10
178.6200848903338
 20
120.6613622709331
 30
0.0
 10
178.4653083396877
 20
120.618575923587
 30
0.0
 10
178.3590131510353
 20
120.6076274156898
 30
0.0
 10
178.3058573207614
 20
120.6021523134306
 30
0.0
  0
SPLINE
  5
15A
330
1F
100
AcDbEntity
  8
0
  6
Continuous
 62
     7
370
     0
100
AcDbSpline
210
0.0
220
0.0
230
1.0
 70
     8
 71
     3
 72
    17
 73
    13
 74
     0
 42
0.00000001
 43
0.00000001
 12
1.0
 22
0.0
 32
0.0
 13
1.0
 23
0.0
 33
0.0
 40
0.0
 40
0.0
 40
0.0
 40
0.0
 40
0.0625781114081231
 40
0.1251418955521408
 40
0.2501732111410206
 40
0.375805035099882
 40
0.5001247609789808
 40
0.6251195279422562
 40
0.750022471413354
 40
0.8748882098132066
 40
0.9374302638311374
 40
1.0
 40
1.0
 40
1.0
 40
1.0
 10
178.2200212818004
 20
122.1810966545114
 30
0.0
 10
178.2490727133249
 20
122.1806293631008
 30
0.0
 10
178.3071689250461
 20
122.1796948872659
 30
0.0
 10
178.4227507081693
 20
122.167785964399
 30
0.0
 10
178.5655643744251
 20
122.137871018955
 30
0.0
 10
178.7272759877544
 20
122.0715491345851
 30
0.0
 10
178.8719528494112
 20
121.974290733021
 30
0.0
 10
178.9946907305772
 20
121.8519401299243
 30
0.0
 10
179.092379768248
 20
121.7083380283132
 30
0.0
 10
179.141191070425
 20
121.5719410276554
 30
0.0
 10
179.16026864838
 20
121.4585991357089
 30
0.0
 10
179.1620895337669
 20
121.4011699468215
 30
0.0
 10
179.1630001779043
 20
121.3724489990058
 30
0.0
  0
LINE
  5
15B
330
1F
100
AcDbEntity
  8
0
  6
Continuous
 62
     7
370
     0
100
AcDbLine
 10
177.9162469312
 20
117.4632938598
 30
0.0
 11
177.9162469312
 21
116.8302814479
 31
0.0
  0
SPLINE
  5
15C
330
1F
100
AcDbEntity
  8
0
  6
Continuous
 62
     7
370
     0
100
AcDbSpline
210
0.0
220
0.0
230
1.0
 70
     8
 71
     3
 72
    17
 73
    13
 74
     0
 42
0.00000001
 43
0.00000001
 12
1.0
 22
0.0
 32
0.0
 13
1.0
 23
0.0
 33
0.0
 40
0.0
 40
0.0
 40
0.0
 40
0.0
 40
0.0625867507144379
 40
0.1251607877735521
 40
0.2502054915255323
 40
0.3751630122568523
 40
0.4405101568607808
 40
0.5002773891343765
 40
0.6183058012602893
 40
0.7498302131143925
 40
0.874861890725474
 40
1.0
 40
1.0
 40
1.0
 40
1.0
 10
176.9933573207615
 20
118.3884767330966
 30
0.0
 10
177.0246061669895
 20
118.3880120622472
 30
0.0
 10
177.0870975116634
 20
118.3870828149401
 30
0.0
 10
177.2115000770777
 20
118.3748938311305
 30
0.0
 10
177.3649214455301
 20
118.3426396418982
 30
0.0
 10
177.5109816835712
 20
118.2808781596128
 30
0.0
 10
177.6171007100101
 20
118.2147953935135
 30
0.0
 10
177.7124973951461
 20
118.1392170585099
 30
0.0
 10
177.8084612261005
 20
118.0149239436511
 30
0.0
 10
177.8773360369153
 20
117.839144241015
 30
0.0
 10
177.9113561150509
 20
117.6507463420921
 30
0.0
 10
177.9146161967971
 20
117.5257957401393
 30
0.0
 10
177.9162469311511
 20
117.4632938598134
 30
0.0
  0
SPLINE
  5
15D
330
1F
100
AcDbEntity
  8
0
  6
Continuous
 62
     7
370
     0
100
AcDbSpline
210
0.0
220
0.0
230
1.0
 70
     8
 71
     3
 72
    16
 73
    12
 74
     0
 42
0.00000001
 43
0.00000001
 12
1.0
 22
0.0
 32
0.0
 13
1.0
 23
0.0
 33
0.0
 40
0.0
 40
0.0
 40
0.0
 40
0.0
 40
0.0625716166060415
 40
0.1251333442834471
 40
0.2500890908637027
 40
0.3712225297604079
 40
0.5001650323831507
 40
0.7497016235417546
 40
0.8498037792774736
 40
0.9248985296235307
 40
1.0
 40
1.0
 40
1.0
 40
1.0
 10
176.1818719311511
 20
117.9235094434322
 30
0.0
 10
176.1894439253885
 20
117.9428972004212
 30
0.0
 10
176.2045867171721
 20
117.9816696503238
 30
0.0
 10
176.2454659210394
 20
118.0542170620622
 30
0.0
 10
176.3073962439807
 20
118.1368169054731
 30
0.0
 10
176.401797634191
 20
118.2192232880216
 30
0.0
 10
176.5427206735478
 20
118.3080117864943
 30
0.0
 10
176.6959705539962
 20
118.3594921228738
 30
0.0
 10
176.8355497685917
 20
118.380384508158
 30
0.0
 10
176.9184798141109
 20
118.3876746250851
 30
0.0
 10
176.9683974074124
 20
118.3882093557845
 30
0.0
 10
176.9933573207615
 20
118.3884767330966
 30
0.0
  0
SPLINE
  5
15E
330
1F
100
AcDbEntity
  8
0
  6
Continuous
 62
     7
370
     0
100
AcDbSpline
210
0.0
220
0.0
230
1.0
 70
     8
 71
     3
 72
    13
 73
     9
 74
     0
 42
0.00000001
 43
0.00000001
 12
1.0
 22
0.0
 32
0.0
 13
1.0
 23
0.0
 33
0.0
 40
0.0
 40
0.0
 40
0.0
 40
0.0
 40
0.2716161760927583
 40
0.5000373570164428
 40
0.6342271489842847
 40
0.7500701523405284
 40
0.8670131673702696
 40
1.0
 40
1.0
 40
1.0
 40
1.0
 10
176.1240391389433
 20
117.4425960298734
 30
0.0
 10
176.1243837224943
 20
117.4866525476144
 30
0.0
 10
176.1250180906332
 20
117.5677592954064
 30
0.0
 10
176.1318484301781
 20
117.6704723483874
 30
0.0
 10
176.1409442483054
 20
117.747543463432
 30
0.0
 10
176.1497696420934
 20
117.8064237190588
 30
0.0
 10
176.1628987641342
 20
117.8643559841563
 30
0.0
 10
176.175282556709
 20
117.9029654671754
 30
0.0
 10
176.1818719311511
 20
117.9235094434322
 30
0.0
  0
LINE
  5
15F
330
1F
100
AcDbEntity
  8
0
  6
Continuous
 62
     7
370
     0
100
AcDbLine
 10
176.1240391389
 20
117.4425960299
 30
0.0
 11
176.1240391389
 21
116.5187890428
 31
0.0
  0
LINE
  5
160
330
1F
100
AcDbEntity
  8
0
  6
Continuous
 62
     7
370
     0
100
AcDbLine
 10
179.1240391389
 20
116.5187890428
 30
0.0
 11
176.1240391389
 21
116.5187890428
 31
0.0
  0
LINE
  5
161
330
1F
100
AcDbEntity
  8
0
  6
Continuous
 62
     7
370
     0
100
AcDbLine
 10
179.1240391389
 20
116.8302814479
 30
0.0
 11
179.1240391389
 21
116.5187890428
 31
0.0
  0
LINE
  5
162
330
1F
100
AcDbEntity
  8
0
  6
Continuous
 62
     7
370
     0
100
AcDbLine
 10
177.9162469312
 20
116.8302814479
 30
0.0
 11
179.1240391389
 21
116.8302814479
 31
0.0
  0
SPLINE
  5
163
330
1F
100
AcDbEntity
  8
0
  6
Continuous
 62
     7
370
     0
100
AcDbSpline
210
0.0
220
0.0
230
1.0
 70
     8
 71
     3
 72
     8
 73
     4
 74
     0
 42
0.00000001
 43
0.00000001
 12
1.0
 22
0.0
 32
0.0
 13
1.0
 23
0.0
 33
0.0
 40
0.0
 40
0.0
 40
0.0
 40
0.0
 40
1.0
 40
1.0
 40
1.0
 40
1.0
 10
179.1240391389433
 20
112.7808988996157
 30
0.0
 10
178.2512712818004
 20
112.5471413236979
 30
0.0
 10
177.3785034246576
 20
112.3140147084748
 30
0.0
 10
176.5057355675147
 20
112.0816111710086
 30
0.0
  0
LINE
  5
164
330
1F
100
AcDbEntity
  8
0
  6
Continuous
 62
     7
370
     0
100
AcDbLine
 10
179.1240391389
 20
113.0945393933
 30
0.0
 11
179.1240391389
 21
112.7808988996
 31
0.0
  0
SPLINE
  5
165
330
1F
100
AcDbEntity
  8
0
  6
Continuous
 62
     7
370
     0
100
AcDbSpline
210
0.0
220
0.0
230
1.0
 70
     8
 71
     3
 72
     8
 73
     4
 74
     0
 42
0.00000001
 43
0.00000001
 12
1.0
 22
0.0
 32
0.0
 13
1.0
 23
0.0
 33
0.0
 40
0.0
 40
0.0
 40
0.0
 40
0.0
 40
1.0
 40
1.0
 40
1.0
 40
1.0
 10
176.6475780999822
 20
113.8051442170931
 30
0.0
 10
177.4730651129693
 20
113.5677396815212
 30
0.0
 10
178.2985521259563
 20
113.3308396700201
 30
0.0
 10
179.1240391389433
 20
113.0945393933181
 30
0.0
  0
LINE
  5
166
330
1F
100
AcDbEntity
  8
0
  6
Continuous
 62
     7
370
     0
100
AcDbLine
 10
179.1240391389
 20
113.8051442171
 30
0.0
 11
176.6475781
 21
113.8051442171
 31
0.0
  0
LINE
  5
167
330
1F
100
AcDbEntity
  8
0
  6
Continuous
 62
     7
370
     0
100
AcDbLine
 10
179.1240391389
 20
114.1136645746
 30
0.0
 11
179.1240391389
 21
113.8051442171
 31
0.0
  0
LINE
  5
168
330
1F
100
AcDbEntity
  8
0
  6
Continuous
 62
     7
370
     0
100
AcDbLine
 10
176.1240391389
 20
114.1136645746
 30
0.0
 11
179.1240391389
 21
114.1136645746
 31
0.0
  0
LINE
  5
169
330
1F
100
AcDbEntity
  8
0
  6
Continuous
 62
     7
370
     0
100
AcDbLine
 10
176.1240391389
 20
114.1136645746
 30
0.0
 11
176.1240391389
 21
113.6769592662
 31
0.0
  0
SPLINE
  5
16A
330
1F
100
AcDbEntity
  8
0
  6
Continuous
 62
     7
370
     0
100
AcDbSpline
210
0.0
220
0.0
230
1.0
 70
     8
 71
     3
 72
     8
 73
     4
 74
     0
 42
0.00000001
 43
0.00000001
 12
1.0
 22
0.0
 32
0.0
 13
1.0
 23
0.0
 33
0.0
 40
0.0
 40
0.0
 40
0.0
 40
0.0
 40
1.0
 40
1.0
 40
1.0
 40
1.0
 10
178.2114985545277
 20
113.0741667242344
 30
0.0
 10
177.5156787493329
 20
113.2746830302164
 30
0.0
 10
176.8198589441381
 20
113.4756332685571
 30
0.0
 10
176.1240391389433
 20
113.6769592661957
 30
0.0
  0
SPLINE
  5
16B
330
1F
100
AcDbEntity
  8
0
  6
Continuous
 62
     7
370
     0
100
AcDbSpline
210
0.0
220
0.0
230
1.0
 70
     8
 71
     3
 72
    12
 73
     8
 74
     0
 42
0.00000001
 43
0.00000001
 12
1.0
 22
0.0
 32
0.0
 13
1.0
 23
0.0
 33
0.0
 40
0.0
 40
0.0
 40
0.0
 40
0.0
 40
0.2499936386573782
 40
0.4999942819844623
 40
0.6249956604535687
 40
0.7499971038686543
 40
1.0
 40
1.0
 40
1.0
 40
1.0
 10
178.692423879203
 20
112.9406206146794
 30
0.0
 10
178.6522730888975
 20
112.9514822803355
 30
0.0
 10
178.5719703832859
 20
112.9732059159848
 30
0.0
 10
178.4715508902602
 20
113.0002398599415
 30
0.0
 10
178.3916006977293
 20
113.0232086921225
 30
0.0
 10
178.3116203308434
 20
113.0460750655276
 30
0.0
 10
178.251547265352
 20
113.0629300606681
 30
0.0
 10
178.2114985545277
 20
113.0741667242344
 30
0.0
  0
SPLINE
  5
16C
330
1F
100
AcDbEntity
  8
0
  6
Continuous
 62
     7
370
     0
100
AcDbSpline
210
0.0
220
0.0
230
1.0
 70
     8
 71
     3
 72
     8
 73
     4
 74
     0
 42
0.00000001
 43
0.00000001
 12
1.0
 22
0.0
 32
0.0
 13
1.0
 23
0.0
 33
0.0
 40
0.0
 40
0.0
 40
0.0
 40
0.0
 40
1.0
 40
1.0
 40
1.0
 40
1.0
 10
178.2480245285537
 20
112.8257450230107
 30
0.0
 10
178.3961576454368
 20
112.8640202767164
 30
0.0
 10
178.5442907623199
 20
112.9023122757484
 30
0.0
 10
178.692423879203
 20
112.9406206146794
 30
0.0
  0
SPLINE
  5
16D
330
1F
100
AcDbEntity
  8
0
  6
Continuous
 62
     7
370
     0
100
AcDbSpline
210
0.0
220
0.0
230
1.0
 70
     8
 71
     3
 72
     8
 73
     4
 74
     0
 42
0.00000001
 43
0.00000001
 12
1.0
 22
0.0
 32
0.0
 13
1.0
 23
0.0
 33
0.0
 40
0.0
 40
0.0
 40
0.0
 40
0.0
 40
1.0
 40
1.0
 40
1.0
 40
1.0
 10
176.1240391389433
 20
112.2535179921906
 30
0.0
 10
176.8320342688134
 20
112.4438089665197
 30
0.0
 10
177.5400293986835
 20
112.6345681047618
 30
0.0
 10
178.2480245285537
 20
112.8257450230107
 30
0.0
  0
LINE
  5
16E
330
1F
100
AcDbEntity
  8
0
  6
Continuous
 62
     7
370
     0
100
AcDbLine
 10
176.1240391389
 20
112.2535179922
 30
0.0
 11
176.1240391389
 21
111.7777082493
 31
0.0
  0
LINE
  5
16F
330
1F
100
AcDbEntity
  8
0
  6
Continuous
 62
     7
370
     0
100
AcDbLine
 10
179.1240391389
 20
111.7777082493
 30
0.0
 11
176.1240391389
 21
111.7777082493
 31
0.0
  0
LINE
  5
170
330
1F
100
AcDbEntity
  8
0
  6
Continuous
 62
     7
370
     0
100
AcDbLine
 10
179.1240391389
 20
112.081611171
 30
0.0
 11
179.1240391389
 21
111.7777082493
 31
0.0
  0
LINE
  5
171
330
1F
100
AcDbEntity
  8
0
  6
Continuous
 62
     7
370
     0
100
AcDbLine
 10
176.5057355675
 20
112.081611171
 30
0.0
 11
179.1240391389
 21
112.081611171
 31
0.0
  0
LINE
  5
172
330
1F
100
AcDbEntity
  8
0
  6
Continuous
 62
     7
370
     0
100
AcDbLine
 10
175.4240391389
 20
142.9704363992
 30
0.0
 11
175.4240391389
 21
92.1704363992
 31
0.0
  0
SPLINE
  5
173
330
1F
100
AcDbEntity
  8
0
  6
Continuous
 62
     7
370
     0
100
AcDbSpline
210
0.0
220
0.0
230
1.0
 70
     8
 71
     3
 72
    14
 73
    10
 74
     0
 42
0.00000001
 43
0.00000001
 12
1.0
 22
0.0
 32
0.0
 13
1.0
 23
0.0
 33
0.0
 40
0.0
 40
0.0
 40
0.0
 40
0.0
 40
0.0626209035518769
 40
0.1251971369841648
 40
0.2501776311320265
 40
0.4995004115477653
 40
0.7494942445745857
 40
0.8747342129769935
 40
1.0
 40
1.0
 40
1.0
 40
1.0
 10
176.179436866216
 20
110.6444558759079
 30
0.0
 10
176.192040964418
 20
110.6762814694437
 30
0.0
 10
176.2172401697897
 20
110.7399099539834
 30
0.0
 10
176.2893440578509
 20
110.8576037461633
 30
0.0
 10
176.4567417513737
 20
111.0355812237664
 30
0.0
 10
176.7702143921695
 20
111.2070052458183
 30
0.0
 10
177.1142882763488
 20
111.2910937985897
 30
0.0
 10
177.3955005481335
 20
111.3200912872395
 30
0.0
 10
177.5368969587458
 20
111.3223661103427
 30
0.0
 10
177.6076024506316
 20
111.3235036391226
 30
0.0
  0
SPLINE
  5
174
330
1F
100
AcDbEntity
  8
0
  6
Continuous
 62
     7
370
     0
100
AcDbSpline
210
0.0
220
0.0
230
1.0
 70
     8
 71
     3
 72
    13
 73
     9
 74
     0
 42
0.00000001
 43
0.00000001
 12
1.0
 22
0.0
 32
0.0
 13
1.0
 23
0.0
 33
0.0
 40
0.0
 40
0.0
 40
0.0
 40
0.0
 40
0.2621623226486194
 40
0.5000242273424923
 40
0.6219901488738572
 40
0.75005454304432
 40
0.8623234327934889
 40
1.0
 40
1.0
 40
1.0
 40
1.0
 10
176.1240391389433
 20
110.1865186907373
 30
0.0
 10
176.1244875887954
 20
110.226863650168
 30
0.0
 10
176.1253429206697
 20
110.3038139035937
 30
0.0
 10
176.1317734104408
 20
110.3995804046727
 30
0.0
 10
176.1407689861474
 20
110.4743761307371
 30
0.0
 10
176.149146554448
 20
110.5297604583124
 30
0.0
 10
176.161778646679
 20
110.5869491857772
 30
0.0
 10
176.1731649753087
 20
110.6240305048116
 30
0.0
 10
176.179436866216
 20
110.6444558759079
 30
0.0
  0
LINE
  5
175
330
1F
100
AcDbEntity
  8
0
  6
Continuous
 62
     7
370
     0
100
AcDbLine
 10
176.1240391389
 20
110.1865186907
 30
0.0
 11
176.1240391389
 21
109.3817013023
 31
0.0
  0
LINE
  5
176
330
1F
100
AcDbEntity
  8
0
  6
Continuous
 62
     7
370
     0
100
AcDbLine
 10
179.1240391389
 20
109.3817013023
 30
0.0
 11
176.1240391389
 21
109.3817013023
 31
0.0
  0
LINE
  5
177
330
1F
100
AcDbEntity
  8
0
  6
Continuous
 62
     7
370
     0
100
AcDbLine
 10
179.1240391389
 20
110.2238057758
 30
0.0
 11
179.1240391389
 21
109.3817013023
 31
0.0
  0
SPLINE
  5
178
330
1F
100
AcDbEntity
  8
0
  6
Continuous
 62
     7
370
     0
100
AcDbSpline
210
0.0
220
0.0
230
1.0
 70
     8
 71
     3
 72
    17
 73
    13
 74
     0
 42
0.00000001
 43
0.00000001
 12
1.0
 22
0.0
 32
0.0
 13
1.0
 23
0.0
 33
0.0
 40
0.0
 40
0.0
 40
0.0
 40
0.0
 40
0.0715357051320337
 40
0.143064735485807
 40
0.2860245204547989
 40
0.4289089802452734
 40
0.5716729696068827
 40
0.6786677761034713
 40
0.7855971142383397
 40
0.8927121774632336
 40
0.9463509865938889
 40
1.0
 40
1.0
 40
1.0
 40
1.0
 10
177.6076024506316
 20
111.3235036391226
 30
0.0
 10
177.6590716973725
 20
111.3228352838247
 30
0.0
 10
177.7620053884161
 20
111.3214986355909
 30
0.0
 10
177.967324994993
 20
111.3070361864897
 30
0.0
 10
178.2219037428011
 20
111.2664502367012
 30
0.0
 10
178.515684977507
 20
111.171300847063
 30
0.0
 10
178.7642188129044
 20
111.036758160583
 30
0.0
 10
178.952961540809
 20
110.863876935134
 30
0.0
 10
179.0614225244092
 20
110.6633304008659
 30
0.0
 10
179.1061425046796
 20
110.4820437892457
 30
0.0
 10
179.1219306888223
 20
110.3347055032033
 30
0.0
 10
179.1233362776739
 20
110.260774695515
 30
0.0
 10
179.1240391389433
 20
110.2238057758463
 30
0.0
  0
LINE
  5
179
330
1F
100
AcDbEntity
  8
0
  6
Continuous
 62
     7
370
     0
100
AcDbLine
 10
178.7733897883
 20
116.1685517088
 30
0.0
 11
178.7733897883
 21
114.9258871002
 31
0.0
  0
LINE
  5
17A
330
1F
100
AcDbEntity
  8
0
  6
Continuous
 62
     7
370
     0
100
AcDbLine
 10
176.1240391389
 20
114.9258871002
 30
0.0
 11
178.7733897883
 21
114.9258871002
 31
0.0
  0
LINE
  5
17B
330
1F
100
AcDbEntity
  8
0
  6
Continuous
 62
     7
370
     0
100
AcDbLine
 10
176.1240391389
 20
114.9258871002
 30
0.0
 11
176.1240391389
 21
114.6160996565
 31
0.0
  0
LINE
  5
17C
330
1F
100
AcDbEntity
  8
0
  6
Continuous
 62
     7
370
     0
100
AcDbLine
 10
179.1240391389
 20
114.6160996565
 30
0.0
 11
176.1240391389
 21
114.6160996565
 31
0.0
  0
LINE
  5
17D
330
1F
100
AcDbEntity
  8
0
  6
Continuous
 62
     7
370
     0
100
AcDbLine
 10
179.1240391389
 20
116.1685517088
 30
0.0
 11
179.1240391389
 21
114.6160996565
 31
0.0
  0
LINE
  5
17E
330
1F
100
AcDbEntity
  8
0
  6
Continuous
 62
     7
370
     0
100
AcDbLine
 10
178.7733897883
 20
116.1685517088
 30
0.0
 11
179.1240391389
 21
116.1685517088
 31
0.0
  0
SPLINE
  5
17F
330
1F
100
AcDbEntity
  8
0
  6
Continuous
 62
     7
370
     0
100
AcDbSpline
210
0.0
220
0.0
230
1.0
 70
     8
 71
     3
 72
    18
 73
    14
 74
     0
 42
0.00000001
 43
0.00000001
 12
1.0
 22
0.0
 32
0.0
 13
1.0
 23
0.0
 33
0.0
 40
0.0
 40
0.0
 40
0.0
 40
0.0
 40
0.0625017672758701
 40
0.1249767194373948
 40
0.1874405397014911
 40
0.2499072625739301
 40
0.3213249937575778
 40
0.3927461089174684
 40
0.4997948830968786
 40
0.6143446776344226
 40
0.749838826380545
 40
0.8749099219191546
 40
1.0
 40
1.0
 40
1.0
 40
1.0
 10
179.1630001779043
 20
119.5390365002572
 30
0.0
 10
179.1612338210638
 20
119.4998464227036
 30
0.0
 10
179.1577018652024
 20
119.4214830813037
 30
0.0
 10
179.128092790818
 20
119.3068347911769
 30
0.0
 10
179.0784244028687
 20
119.1997808037458
 30
0.0
 10
179.0087072043857
 20
119.0974517478189
 30
0.0
 10
178.9174425872813
 20
119.0056600338861
 30
0.0
 10
178.7932033367602
 20
118.9090890342443
 30
0.0
 10
178.6274554757693
 20
118.8257077314496
 30
0.0
 10
178.4116163658205
 20
118.7620426730564
 30
0.0
 10
178.1787685968431
 20
118.7232472837048
 30
0.0
 10
177.9371359898174
 20
118.7027000808257
 30
0.0
 10
177.7799509394928
 20
118.7008560371307
 30
0.0
 10
177.7013524506316
 20
118.6999339453191
 30
0.0
  0
SPLINE
  5
180
330
1F
100
AcDbEntity
  8
0
  6
Continuous
 62
     7
370
     0
100
AcDbSpline
210
0.0
220
0.0
230
1.0
 70
     8
 71
     3
 72
    16
 73
    12
 74
     0
 42
0.00000001
 43
0.00000001
 12
1.0
 22
0.0
 32
0.0
 13
1.0
 23
0.0
 33
0.0
 40
0.0
 40
0.0
 40
0.0
 40
0.0
 40
0.125141562472801
 40
0.2502242604832171
 40
0.3774823235847191
 40
0.5003657507131224
 40
0.629356435458054
 40
0.7500881083544272
 40
0.8748949524102552
 40
0.9374238382137784
 40
1.0
 40
1.0
 40
1.0
 40
1.0
 10
178.1451430350472
 20
120.2924717152768
 30
0.0
 10
178.2040279300109
 20
120.2908012051978
 30
0.0
 10
178.3217700214855
 20
120.2874609708193
 30
0.0
 10
178.4968852527257
 20
120.2545317487629
 30
0.0
 10
178.6649295803845
 20
120.1994806654947
 30
0.0
 10
178.8249234250209
 20
120.1198995986541
 30
0.0
 10
178.9666736733009
 20
120.0149597547829
 30
0.0
 10
179.0780689750251
 20
119.8765830542643
 30
0.0
 10
179.135830855885
 20
119.7422111139578
 30
0.0
 10
179.1595131250391
 20
119.6270599051372
 30
0.0
 10
179.1618375341587
 20
119.5683850261062
 30
0.0
 10
179.1630001779043
 20
119.5390365002572
 30
0.0
  0
SPLINE
  5
181
330
1F
100
AcDbEntity
  8
0
  6
Continuous
 62
     7
370
     0
100
AcDbSpline
210
0.0
220
0.0
230
1.0
 70
     8
 71
     3
 72
    16
 73
    12
 74
     0
 42
0.00000001
 43
0.00000001
 12
1.0
 22
0.0
 32
0.0
 13
1.0
 23
0.0
 33
0.0
 40
0.0
 40
0.0
 40
0.0
 40
0.0
 40
0.0714849144540489
 40
0.1429337451704767
 40
0.2854116503119442
 40
0.3925655405453349
 40
0.4997322810527072
 40
0.6247304050320027
 40
0.7497831095180534
 40
0.8748562503498962
 40
1.0
 40
1.0
 40
1.0
 40
1.0
 10
177.1759871908913
 20
119.5651336591876
 30
0.0
 10
177.1773522845253
 20
119.5971986198164
 30
0.0
 10
177.1800817827292
 20
119.6613123555104
 30
0.0
 10
177.2115551845047
 20
119.7859913866416
 30
0.0
 10
177.2799046434027
 20
119.9153533980957
 30
0.0
 10
177.3881903175347
 20
120.0340656494007
 30
0.0
 10
177.5065138388093
 20
120.130702360007
 30
0.0
 10
177.6485329333472
 20
120.2075533934933
 30
0.0
 10
177.8095509367804
 20
120.2593829986575
 30
0.0
 10
177.9763608568708
 20
120.2880939792937
 30
0.0
 10
178.0888717258239
 20
120.2910121954515
 30
0.0
 10
178.1451430350472
 20
120.2924717152768
 30
0.0
  0
SPLINE
  5
182
330
1F
100
AcDbEntity
  8
0
  6
Continuous
 62
     7
370
     0
100
AcDbSpline
210
0.0
220
0.0
230
1.0
 70
     8
 71
     3
 72
    13
 73
     9
 74
     0
 42
0.00000001
 43
0.00000001
 12
1.0
 22
0.0
 32
0.0
 13
1.0
 23
0.0
 33
0.0
 40
0.0
 40
0.0
 40
0.0
 40
0.0
 40
0.1252064650766518
 40
0.250347637559903
 40
0.5000234775137319
 40
0.7497435158999793
 40
0.8748273607871844
 40
1.0
 40
1.0
 40
1.0
 40
1.0
 10
177.5613362168654
 20
118.9692818879695
 30
0.0
 10
177.5343758183225
 20
118.9848709954773
 30
0.0
 10
177.4804690805294
 20
119.0160410810945
 30
0.0
 10
177.3824509388174
 20
119.0928089326701
 30
0.0
 10
177.2772946297987
 20
119.2092793589377
 30
0.0
 10
177.2094370008116
 20
119.3509538168613
 30
0.0
 10
177.1798308054653
 20
119.471971953037
 30
0.0
 10
177.1772686987725
 20
119.534072412448
 30
0.0
 10
177.1759871908913
 20
119.5651336591876
 30
0.0
  0
SPLINE
  5
183
330
1F
100
AcDbEntity
  8
0
  6
Continuous
 62
     7
370
     0
100
AcDbSpline
210
0.0
220
0.0
230
1.0
 70
     8
 71
     3
 72
    12
 73
     8
 74
     0
 42
0.00000001
 43
0.00000001
 12
1.0
 22
0.0
 32
0.0
 13
1.0
 23
0.0
 33
0.0
 40
0.0
 40
0.0
 40
0.0
 40
0.0
 40
0.1249974191074113
 40
0.250001643839323
 40
0.4999494407406341
 40
0.7499494651721297
 40
1.0
 40
1.0
 40
1.0
 40
1.0
 10
176.7248914116705
 20
119.1078483662717
 30
0.0
 10
176.7574638754084
 20
119.0934478735073
 30
0.0
 10
176.8226105763284
 20
119.0646461039273
 30
0.0
 10
176.9595612945447
 20
119.024727619842
 30
0.0
 10
177.1349241577035
 20
118.9929044864511
 30
0.0
 10
177.3477332893807
 20
118.9725034097241
 30
0.0
 10
177.4901304464974
 20
118.9703558008648
 30
0.0
 10
177.5613362168654
 20
118.9692818879695
 30
0.0
  0
SPLINE
  5
184
330
1F
100
AcDbEntity
  8
0
  6
Continuous
 62
     7
370
     0
100
AcDbSpline
210
0.0
220
0.0
230
1.0
 70
     8
 71
     3
 72
    12
 73
     8
 74
     0
 42
0.00000001
 43
0.00000001
 12
1.0
 22
0.0
 32
0.0
 13
1.0
 23
0.0
 33
0.0
 40
0.0
 40
0.0
 40
0.0
 40
0.0
 40
0.1251943715410444
 40
0.2503092074440488
 40
0.4995697016855025
 40
0.7495824696687634
 40
1.0
 40
1.0
 40
1.0
 40
1.0
 10
176.3967664116706
 20
119.5287184405635
 30
0.0
 10
176.3977710790139
 20
119.505165794649
 30
0.0
 10
176.3997797754381
 20
119.4580754657508
 30
0.0
 10
176.4273189304611
 20
119.3675051341344
 30
0.0
 10
176.4914321110284
 20
119.2666998455042
 30
0.0
 10
176.5996027044125
 20
119.1736533850824
 30
0.0
 10
176.6831059959672
 20
119.1297951971278
 30
0.0
 10
176.7248914116705
 20
119.1078483662717
 30
0.0
  0
SPLINE
  5
185
330
1F
100
AcDbEntity
  8
0
  6
Continuous
 62
     7
370
     0
100
AcDbSpline
210
0.0
220
0.0
230
1.0
 70
     8
 71
     3
 72
    11
 73
     7
 74
     0
 42
0.00000001
 43
0.00000001
 12
1.0
 22
0.0
 32
0.0
 13
1.0
 23
0.0
 33
0.0
 40
0.0
 40
0.0
 40
0.0
 40
0.0
 40
0.2501498668194548
 40
0.5001182101488377
 40
0.74999113706576
 40
1.0
 40
1.0
 40
1.0
 40
1.0
 10
176.5386089441381
 20
119.8174949694981
 30
0.0
 10
176.5182399728032
 20
119.7985815394135
 30
0.0
 10
176.4775168110599
 20
119.7607684039442
 30
0.0
 10
176.4308178747088
 20
119.6910384309476
 30
0.0
 10
176.4023467308037
 20
119.6118595118974
 30
0.0
 10
176.3986268552381
 20
119.5564371547922
 30
0.0
 10
176.3967664116706
 20
119.5287184405635
 30
0.0
  0
SPLINE
  5
186
330
1F
100
AcDbEntity
  8
0
  6
Continuous
 62
     7
370
     0
100
AcDbSpline
210
0.0
220
0.0
230
1.0
 70
     8
 71
     3
 72
    11
 73
     7
 74
     0
 42
0.00000001
 43
0.00000001
 12
1.0
 22
0.0
 32
0.0
 13
1.0
 23
0.0
 33
0.0
 40
0.0
 40
0.0
 40
0.0
 40
0.0
 40
0.2501453768984927
 40
0.5002105857360005
 40
0.7501695483138507
 40
0.9999999999999999
 40
0.9999999999999999
 40
0.9999999999999999
 40
0.9999999999999999
 10
176.864298879203
 20
119.9435934267563
 30
0.0
 10
176.8354232649233
 20
119.9378226195538
 30
0.0
 10
176.7776812905905
 20
119.9262828546112
 30
0.0
 10
176.693191450566
 20
119.9010465049468
 30
0.0
 10
176.6100520868302
 20
119.8696622788795
 30
0.0
 10
176.5624192424231
 20
119.8348810915288
 30
0.0
 10
176.5386089441381
 20
119.8174949694981
 30
0.0
  0
SPLINE
  5
187
330
1F
100
AcDbEntity
  8
0
  6
Continuous
 62
     7
370
     0
100
AcDbSpline
210
0.0
220
0.0
230
1.0
 70
     8
 71
     3
 72
     8
 73
     4
 74
     0
 42
0.00000001
 43
0.00000001
 12
1.0
 22
0.0
 32
0.0
 13
1.0
 23
0.0
 33
0.0
 40
0.0
 40
0.0
 40
0.0
 40
0.0
 40
1.0
 40
1.0
 40
1.0
 40
1.0
 10
176.825337840242
 20
120.2537318634592
 30
0.0
 10
176.838324853229
 20
120.1504171335895
 30
0.0
 10
176.851311866216
 20
120.047035060164
 30
0.0
 10
176.864298879203
 20
119.9435934267563
 30
0.0
  0
SPLINE
  5
188
330
1F
100
AcDbEntity
  8
0
  6
Continuous
 62
     7
370
     0
100
AcDbSpline
210
0.0
220
0.0
230
1.0
 70
     8
 71
     3
 72
    16
 73
    12
 74
     0
 42
0.00000001
 43
0.00000001
 12
1.0
 22
0.0
 32
0.0
 13
1.0
 23
0.0
 33
0.0
 40
0.0
 40
0.0
 40
0.0
 40
0.0
 40
0.0625723509088663
 40
0.1251169806303084
 40
0.2500252679446887
 40
0.3500109261581434
 40
0.4998543840072935
 40
0.624800217705081
 40
0.7498078838122627
 40
0.8748912078062911
 40
1.0
 40
1.0
 40
1.0
 40
1.0
 10
176.0850780999822
 20
119.5669543124662
 30
0.0
 10
176.0857368558934
 20
119.5902390343835
 30
0.0
 10
176.0870540758696
 20
119.6367981624774
 30
0.0
 10
176.0997591674067
 20
119.7291254279603
 30
0.0
 10
176.1329645421925
 20
119.8318725837221
 30
0.0
 10
176.2020792841764
 20
119.9537132618956
 30
0.0
 10
176.2980472505481
 20
120.0575345182129
 30
0.0
 10
176.4224153993906
 20
120.1411410067439
 30
0.0
 10
176.5508872430288
 20
120.1979201241576
 30
0.0
 10
176.6864430139011
 20
120.2349147840004
 30
0.0
 10
176.7790364229595
 20
120.2474590779926
 30
0.0
 10
176.825337840242
 20
120.2537318634592
 30
0.0
  0
SPLINE
  5
189
330
1F
100
AcDbEntity
  8
0
  6
Continuous
 62
     7
370
     0
100
AcDbSpline
210
0.0
220
0.0
230
1.0
 70
     8
 71
     3
 72
    17
 73
    13
 74
     0
 42
0.00000001
 43
0.00000001
 12
1.0
 22
0.0
 32
0.0
 13
1.0
 23
0.0
 33
0.0
 40
0.0
 40
0.0
 40
0.0
 40
0.0
 40
0.1251470263986586
 40
0.2502848246898056
 40
0.5000607495379534
 40
0.5715358706692544
 40
0.6429886773963305
 40
0.7500501686849583
 40
0.8131518885203778
 40
0.8750026788769604
 40
0.9374739688445926
 40
1.0
 40
1.0
 40
1.0
 40
1.0
 10
177.7013524506316
 20
118.6999339453191
 30
0.0
 10
177.6161157724915
 20
118.7008364217467
 30
0.0
 10
177.4456487014044
 20
118.702641308055
 30
0.0
 10
177.1063519446528
 20
118.7286135717977
 30
0.0
 10
176.8039644657809
 20
118.7824249982998
 30
0.0
 10
176.5553066034288
 20
118.8826346920789
 30
0.0
 10
176.4085407461698
 20
118.9696884631281
 30
0.0
 10
176.2819186196458
 20
119.0769257080118
 30
0.0
 10
176.1845279405052
 20
119.2021210722966
 30
0.0
 10
176.1269557732426
 20
119.3164969389993
 30
0.0
 10
176.0911106640536
 20
119.4394434407374
 30
0.0
 10
176.0870895416746
 20
119.5244382810413
 30
0.0
 10
176.0850780999822
 20
119.5669543124662
 30
0.0
  0
SPLINE
  5
18A
330
1F
100
AcDbEntity
  8
0
  6
Continuous
 62
     7
370
     0
100
AcDbSpline
210
0.0
220
0.0
230
1.0
 70
     8
 71
     3
 72
    16
 73
    12
 74
     0
 42
0.00000001
 43
0.00000001
 12
1.0
 22
0.0
 32
0.0
 13
1.0
 23
0.0
 33
0.0
 40
0.0
 40
0.0
 40
0.0
 40
0.0
 40
0.1251211158362752
 40
0.2501811140306721
 40
0.3755465893300594
 40
0.5001494650777687
 40
0.6665494793281628
 40
0.7499242508552596
 40
0.8748533350169904
 40
0.9374120666503273
 40
1.0
 40
1.0
 40
1.0
 40
1.0
 10
178.2528946584238
 20
124.0436873811429
 30
0.0
 10
178.3093349476211
 20
124.0419662290435
 30
0.0
 10
178.4221879567491
 20
124.0385247655722
 30
0.0
 10
178.588283957479
 20
124.0025869878457
 30
0.0
 10
178.7456730114222
 20
123.9405384513011
 30
0.0
 10
178.9018737109167
 20
123.8379307688151
 30
0.0
 10
179.018535684856
 20
123.7167225547214
 30
0.0
 10
179.1045484295041
 20
123.5750147891947
 30
0.0
 10
179.1433937291387
 20
123.4611219279357
 30
0.0
 10
179.1602362168588
 20
123.3524862115966
 30
0.0
 10
179.1620787142464
 20
123.2975437963922
 30
0.0
 10
179.1630001779043
 20
123.2700661786599
 30
0.0
  0
SPLINE
  5
18B
330
1F
100
AcDbEntity
  8
0
  6
Continuous
 62
     7
370
     0
100
AcDbSpline
210
0.0
220
0.0
230
1.0
 70
     8
 71
     3
 72
    16
 73
    12
 74
     0
 42
0.00000001
 43
0.00000001
 12
1.0
 22
0.0
 32
0.0
 13
1.0
 23
0.0
 33
0.0
 40
0.0
 40
0.0
 40
0.0
 40
0.0
 40
0.0625698984382215
 40
0.1251290334456595
 40
0.2501086358182249
 40
0.3750849225922311
 40
0.5001003749485992
 40
0.6997810841216549
 40
0.8498368638193774
 40
0.9249143285961033
 40
0.9999999999999999
 40
0.9999999999999999
 40
0.9999999999999999
 40
0.9999999999999999
 10
177.4779352428394
 20
123.5804671608695
 30
0.0
 10
177.4855674355658
 20
123.5987611496045
 30
0.0
 10
177.5008305081096
 20
123.6353459800966
 30
0.0
 10
177.5384232851323
 20
123.7053168941833
 30
0.0
 10
177.5961082882849
 20
123.786820409874
 30
0.0
 10
177.6817807467704
 20
123.8715600866466
 30
0.0
 10
177.8022444959106
 20
123.9526086754262
 30
0.0
 10
177.9466258055481
 20
124.009751950046
 30
0.0
 10
178.0826901264604
 20
124.0336987543324
 30
0.0
 10
178.1797534145002
 20
124.0428640587978
 30
0.0
 10
178.2285133555161
 20
124.0434129303623
 30
0.0
 10
178.2528946584238
 20
124.0436873811429
 30
0.0
  0
SPLINE
  5
18C
330
1F
100
AcDbEntity
  8
0
  6
Continuous
 62
     7
370
     0
100
AcDbSpline
210
0.0
220
0.0
230
1.0
 70
     8
 71
     3
 72
    13
 73
     9
 74
     0
 42
0.00000001
 43
0.00000001
 12
1.0
 22
0.0
 32
0.0
 13
1.0
 23
0.0
 33
0.0
 40
0.0
 40
0.0
 40
0.0
 40
0.0
 40
0.1252840493845651
 40
0.2504984224740335
 40
0.5001336699048929
 40
0.7495724329694073
 40
0.8747368351678763
 40
1.0
 40
1.0
 40
1.0
 40
1.0
 10
176.8728216064758
 20
123.9305956102659
 30
0.0
 10
176.9040766239435
 20
123.929863871624
 30
0.0
 10
176.966569276508
 20
123.9284008012941
 30
0.0
 10
177.0899408419556
 20
123.9094665817708
 30
0.0
 10
177.2388867340887
 20
123.8577384659692
 30
0.0
 10
177.360786976658
 20
123.7590799988063
 30
0.0
 10
177.4358058722469
 20
123.6618915874797
 30
0.0
 10
177.4638884276129
 20
123.6076157714335
 30
0.0
 10
177.4779352428394
 20
123.5804671608695
 30
0.0
  0
SPLINE
  5
18D
330
1F
100
AcDbEntity
  8
0
  6
Continuous
 62
     7
370
     0
100
AcDbSpline
210
0.0
220
0.0
230
1.0
 70
     8
 71
     3
 72
    16
 73
    12
 74
     0
 42
0.00000001
 43
0.00000001
 12
1.0
 22
0.0
 32
0.0
 13
1.0
 23
0.0
 33
0.0
 40
0.0
 40
0.0
 40
0.0
 40
0.0
 40
0.0625805693480312
 40
0.1251378661616158
 40
0.2500256142484423
 40
0.3749099005375659
 40
0.4998790156667634
 40
0.6249115350692207
 40
0.7498531354868248
 40
0.8749004598436746
 40
1.0
 40
1.0
 40
1.0
 40
1.0
 10
176.0850780999822
 20
123.265320140631
 30
0.0
 10
176.0858277686715
 20
123.2890455015953
 30
0.0
 10
176.0873268272625
 20
123.3364874005092
 30
0.0
 10
176.1023385781102
 20
123.430199218765
 30
0.0
 10
176.140269765479
 20
123.5437790266003
 30
0.0
 10
176.2210280927841
 20
123.6633544303999
 30
0.0
 10
176.325249494934
 20
123.7634763764418
 30
0.0
 10
176.4473756882899
 20
123.8424679470176
 30
0.0
 10
176.5832463473628
 20
123.8960526621809
 30
0.0
 10
176.7267589605892
 20
123.9257483704205
 30
0.0
 10
176.8241272829405
 20
123.9289796388185
 30
0.0
 10
176.8728216064758
 20
123.9305956102659
 30
0.0
  0
SPLINE
  5
18E
330
1F
100
AcDbEntity
  8
0
  6
Continuous
 62
     7
370
     0
100
AcDbSpline
210
0.0
220
0.0
230
1.0
 70
     8
 71
     3
 72
    16
 73
    12
 74
     0
 42
0.00000001
 43
0.00000001
 12
1.0
 22
0.0
 32
0.0
 13
1.0
 23
0.0
 33
0.0
 40
0.0
 40
0.0
 40
0.0
 40
0.0
 40
0.1250889871004372
 40
0.2501467135631084
 40
0.3929270099957644
 40
0.5000907602932342
 40
0.6274342659817591
 40
0.7499795038187407
 40
0.8748689312895572
 40
0.9374208143943433
 40
1.0
 40
1.0
 40
1.0
 40
1.0
 10
176.8606462818004
 20
122.6018718753549
 30
0.0
 10
176.8125336993452
 20
122.6035059638559
 30
0.0
 10
176.7163205581152
 20
122.6067737324873
 30
0.0
 10
176.5678634772654
 20
122.6379811349765
 30
0.0
 10
176.4339305832474
 20
122.6932957347984
 30
0.0
 10
176.3143327504969
 20
122.7746196702643
 30
0.0
 10
176.2162853083062
 20
122.8700542890192
 30
0.0
 10
176.1397171202511
 20
122.9907235472331
 30
0.0
 10
176.1010787395328
 20
123.1020088372841
 30
0.0
 10
176.0875086376605
 20
123.1950137673398
 30
0.0
 10
176.0858883970491
 20
123.2418812741744
 30
0.0
 10
176.0850780999822
 20
123.265320140631
 30
0.0
  0
SPLINE
  5
18F
330
1F
100
AcDbEntity
  8
0
  6
Continuous
 62
     7
370
     0
100
AcDbSpline
210
0.0
220
0.0
230
1.0
 70
     8
 71
     3
 72
    13
 73
     9
 74
     0
 42
0.00000001
 43
0.00000001
 12
1.0
 22
0.0
 32
0.0
 13
1.0
 23
0.0
 33
0.0
 40
0.0
 40
0.0
 40
0.0
 40
0.0
 40
0.1252653966353174
 40
0.2504280287003127
 40
0.4998107605113092
 40
0.7494990940726858
 40
0.8747146500223183
 40
1.0
 40
1.0
 40
1.0
 40
1.0
 10
177.4779352428394
 20
122.9587662430271
 30
0.0
 10
177.4636289938888
 20
122.9309502028089
 30
0.0
 10
177.4350282324733
 20
122.8753409419501
 30
0.0
 10
177.3592368930738
 20
122.7751202329422
 30
0.0
 10
177.2341179891165
 20
122.6743347319838
 30
0.0
 10
177.0818362764592
 20
122.6229270314934
 30
0.0
 10
176.956130361206
 20
122.6038657669378
 30
0.0
 10
176.8924802196245
 20
122.6025366293231
 30
0.0
 10
176.8606462818004
 20
122.6018718753549
 30
0.0
  0
SPLINE
  5
190
330
1F
100
AcDbEntity
  8
0
  6
Continuous
 62
     7
370
     0
100
AcDbSpline
210
0.0
220
0.0
230
1.0
 70
     8
 71
     3
 72
    14
 73
    10
 74
     0
 42
0.00000001
 43
0.00000001
 12
1.0
 22
0.0
 32
0.0
 13
1.0
 23
0.0
 33
0.0
 40
0.0
 40
0.0
 40
0.0
 40
0.0
 40
0.1253177412709345
 40
0.2506152694767269
 40
0.500277958929166
 40
0.7495301291181923
 40
0.8746654168958528
 40
0.9373257528056878
 40
0.9999999999999999
 40
0.9999999999999999
 40
0.9999999999999999
 40
0.9999999999999999
 10
178.2425456324498
 20
122.4872520190746
 30
0.0
 10
178.2019466371089
 20
122.4881266918742
 30
0.0
 10
178.1207551948227
 20
122.4898758963933
 30
0.0
 10
177.9604987855375
 20
122.5148536938154
 30
0.0
 10
177.7670862352767
 20
122.5821199107222
 30
0.0
 10
177.6085976172569
 20
122.7133017047201
 30
0.0
 10
177.5311765041909
 20
122.830134000994
 30
0.0
 10
177.4974448363129
 20
122.9023954798564
 30
0.0
 10
177.4844389218532
 20
122.9399745982949
 30
0.0
 10
177.4779352428394
 20
122.9587662430271
 30
0.0
  0
SPLINE
  5
191
330
1F
100
AcDbEntity
  8
0
  6
Continuous
 62
     7
370
     0
100
AcDbSpline
210
0.0
220
0.0
230
1.0
 70
     8
 71
     3
 72
    17
 73
    13
 74
     0
 42
0.00000001
 43
0.00000001
 12
1.0
 22
0.0
 32
0.0
 13
1.0
 23
0.0
 33
0.0
 40
0.0
 40
0.0
 40
0.0
 40
0.0
 40
0.0625793915239942
 40
0.1251304534509947
 40
0.2500366663791511
 40
0.3749355344688444
 40
0.4998839605297348
 40
0.6426305843103104
 40
0.7497974123321105
 40
0.8748426961108018
 40
0.93741524455153
 40
1.0
 40
1.0
 40
1.0
 40
1.0
 10
179.1630001779043
 20
123.2700661786599
 30
0.0
 10
179.1620902833628
 20
123.2423063532646
 30
0.0
 10
179.1602709061877
 20
123.1867992693053
 30
0.0
 10
179.1434791520074
 20
123.0767933256789
 30
0.0
 10
179.0983186080786
 20
122.9435745264914
 30
0.0
 10
179.0050027846394
 20
122.8021836790491
 30
0.0
 10
178.8783800330799
 20
122.6772126243582
 30
0.0
 10
178.7332943997096
 20
122.58626075454
 30
0.0
 10
178.573499225833
 20
122.525632430669
 30
0.0
 10
178.441370854806
 20
122.49964316777
 30
0.0
 10
178.3279859229905
 20
122.488818790212
 30
0.0
 10
178.2710275810755
 20
122.4877743100776
 30
0.0
 10
178.2425456324498
 20
122.4872520190746
 30
0.0
  0
LINE
  5
192
330
1F
100
AcDbEntity
  8
0
  6
Continuous
 62
     7
370
     0
100
AcDbLine
 10
176.1240391389
 20
127.020661356
 30
0.0
 11
178.0258921552
 21
127.020661356
 31
0.0
  0
LINE
  5
193
330
1F
100
AcDbEntity
  8
0
  6
Continuous
 62
     7
370
     0
100
AcDbLine
 10
178.0258921552
 20
127.020661356
 30
0.0
 11
178.0258921552
 21
126.6979028301
 31
0.0
  0
SPLINE
  5
194
330
1F
100
AcDbEntity
  8
0
  6
Continuous
 62
     7
370
     0
100
AcDbSpline
210
0.0
220
0.0
230
1.0
 70
     8
 71
     3
 72
     8
 73
     4
 74
     0
 42
0.00000001
 43
0.00000001
 12
1.0
 22
0.0
 32
0.0
 13
1.0
 23
0.0
 33
0.0
 40
0.0
 40
0.0
 40
0.0
 40
0.0
 40
1.0
 40
1.0
 40
1.0
 40
1.0
 10
178.0258921552102
 20
126.6979028300991
 30
0.0
 10
178.3919411497879
 20
126.8477265578859
 30
0.0
 10
178.7579901443656
 20
126.9970032746449
 30
0.0
 10
179.1240391389433
 20
127.1457061440864
 30
0.0
  0
SPLINE
  5
195
330
1F
100
AcDbEntity
  8
0
  6
Continuous
 62
     7
370
     0
100
AcDbSpline
210
0.0
220
0.0
230
1.0
 70
     8
 71
     3
 72
     8
 73
     4
 74
     0
 42
0.00000001
 43
0.00000001
 12
1.0
 22
0.0
 32
0.0
 13
1.0
 23
0.0
 33
0.0
 40
0.0
 40
0.0
 40
0.0
 40
0.0
 40
1.0
 40
1.0
 40
1.0
 40
1.0
 10
179.1240391389433
 20
127.1457061440864
 30
0.0
 10
178.7579901443656
 20
127.2944090135279
 30
0.0
 10
178.3919411497879
 20
127.4425380350109
 30
0.0
 10
178.0258921552102
 20
127.5900665785731
 30
0.0
  0
LINE
  5
196
330
1F
100
AcDbEntity
  8
0
  6
Continuous
 62
     7
370
     0
100
AcDbLine
 10
178.0258921552
 20
127.5900665786
 30
0.0
 11
178.0258921552
 21
127.2704810029
 31
0.0
  0
LINE
  5
197
330
1F
100
AcDbEntity
  8
0
  6
Continuous
 62
     7
370
     0
100
AcDbLine
 10
178.0258921552
 20
127.2704810029
 30
0.0
 11
176.1240391389
 21
127.2704810029
 31
0.0
  0
LINE
  5
198
330
1F
100
AcDbEntity
  8
0
  6
Continuous
 62
     7
370
     0
100
AcDbLine
 10
176.1240391389
 20
127.2704810029
 30
0.0
 11
176.1240391389
 21
127.020661356
 31
0.0
  0
LINE
  5
199
330
1F
100
AcDbEntity
  8
0
  6
Continuous
 62
     7
370
     0
100
AcDbLine
 10
175.1240391389
 20
92.4704363992
 30
0.0
 11
175.1240391389
 21
142.6704363992
 31
0.0
  0
LINE
  5
19A
330
1F
100
AcDbEntity
  8
0
  6
Continuous
 62
     7
370
     0
100
AcDbLine
 10
177.5655975805
 20
117.4827742356
 30
0.0
 11
177.5655975805
 21
116.8302814479
 31
0.0
  0
SPLINE
  5
19B
330
1F
100
AcDbEntity
  8
0
  6
Continuous
 62
     7
370
     0
100
AcDbSpline
210
0.0
220
0.0
230
1.0
 70
     8
 71
     3
 72
    15
 73
    11
 74
     0
 42
0.00000001
 43
0.00000001
 12
1.0
 22
0.0
 32
0.0
 13
1.0
 23
0.0
 33
0.0
 40
0.0
 40
0.0
 40
0.0
 40
0.0
 40
0.1253687344043246
 40
0.2506537146082105
 40
0.4990061076881856
 40
0.5824744486737397
 40
0.6659284924138863
 40
0.7494593542610676
 40
0.8746717774612628
 40
0.9999999999999999
 40
0.9999999999999999
 40
0.9999999999999999
 40
0.9999999999999999
 10
177.5655975805017
 20
117.4827742355833
 30
0.0
 10
177.564619629756
 20
117.5218643179212
 30
0.0
 10
177.5626643815972
 20
117.6000183679631
 30
0.0
 10
177.53784307993
 20
117.7532246303123
 30
0.0
 10
177.478117658881
 20
117.89028066562
 30
0.0
 10
177.3812780493119
 20
117.9773560857204
 30
0.0
 10
177.3145368368322
 20
118.0185121969597
 30
0.0
 10
177.2293168580135
 20
118.0513394724415
 30
0.0
 10
177.126920367141
 20
118.0731500075999
 30
0.0
 10
177.0488481566974
 20
118.0756471778827
 30
0.0
 10
177.0097940090731
 20
118.0768963401174
 30
0.0
  0
SPLINE
  5
19C
330
1F
100
AcDbEntity
  8
0
  6
Continuous
 62
     7
370
     0
100
AcDbSpline
210
0.0
220
0.0
230
1.0
 70
     8
 71
     3
 72
    15
 73
    11
 74
     0
 42
0.00000001
 43
0.00000001
 12
1.0
 22
0.0
 32
0.0
 13
1.0
 23
0.0
 33
0.0
 40
0.0
 40
0.0
 40
0.0
 40
0.0
 40
0.1251540318599156
 40
0.2502318117948294
 40
0.375237720869918
 40
0.5001643140107042
 40
0.6246887580925312
 40
0.7495887405035494
 40
0.8622797430452331
 40
1.0
 40
1.0
 40
1.0
 40
1.0
 10
177.0097940090731
 20
118.0768963401174
 30
0.0
 10
176.9707698184597
 20
118.075561943147
 30
0.0
 10
176.8927452132918
 20
118.072893962207
 30
0.0
 10
176.7779228781029
 20
118.0458417536114
 30
0.0
 10
176.6721506509831
 20
117.9947558892558
 30
0.0
 10
176.5770637478324
 20
117.9252667103813
 30
0.0
 10
176.5092846091778
 20
117.8261836646285
 30
0.0
 10
176.4876118790526
 20
117.7139079670822
 30
0.0
 10
176.4762710416101
 20
117.5977165795873
 30
0.0
 10
176.4752500246941
 20
117.51963153543
 30
0.0
 10
176.4746884895926
 20
117.4766866120776
 30
0.0
  0
LINE
  5
19D
330
1F
100
AcDbEntity
  8
0
  6
Continuous
 62
     7
370
     0
100
AcDbLine
 10
176.4746884896
 20
117.4766866121
 30
0.0
 11
176.4746884896
 21
116.8302814479
 31
0.0
  0
LINE
  5
19E
330
1F
100
AcDbEntity
  8
0
  6
Continuous
 62
     7
370
     0
100
AcDbLine
 10
176.4746884896
 20
116.8302814479
 30
0.0
 11
177.5655975805
 21
116.8302814479
 31
0.0
  0
SPLINE
  5
19F
330
1F
100
AcDbEntity
  8
0
  6
Continuous
 62
     7
370
     0
100
AcDbSpline
210
0.0
220
0.0
230
1.0
 70
     8
 71
     3
 72
    16
 73
    12
 74
     0
 42
0.00000001
 43
0.00000001
 12
1.0
 22
0.0
 32
0.0
 13
1.0
 23
0.0
 33
0.0
 40
0.0
 40
0.0
 40
0.0
 40
0.0
 40
0.1251455295635135
 40
0.2502672356213222
 40
0.3779636231445404
 40
0.5003586457970585
 40
0.6431581242061798
 40
0.7857856337862161
 40
0.8927524405963406
 40
0.9463645194336514
 40
1.0
 40
1.0
 40
1.0
 40
1.0
 10
178.1335764766056
 20
119.0112210774654
 30
0.0
 10
178.17433535016
 20
119.0122462154939
 30
0.0
 10
178.2558453381482
 20
119.0142962963991
 30
0.0
 10
178.3775774634077
 20
119.034489589547
 30
0.0
 10
178.4950711558376
 20
119.0694555449696
 30
0.0
 10
178.6095636784262
 20
119.1279709189123
 30
0.0
 10
178.7145165878541
 20
119.2104477712253
 30
0.0
 10
178.7964724118981
 20
119.3102861050493
 30
0.0
 10
178.8355269375981
 20
119.4019724416746
 30
0.0
 10
178.8494118628764
 20
119.4703989003323
 30
0.0
 10
178.8506784396459
 20
119.5052296611966
 30
0.0
 10
178.851311866216
 20
119.5226488417153
 30
0.0
  0
SPLINE
  5
1A0
330
1F
100
AcDbEntity
  8
0
  6
Continuous
 62
     7
370
     0
100
AcDbSpline
210
0.0
220
0.0
230
1.0
 70
     8
 71
     3
 72
    15
 73
    11
 74
     0
 42
0.00000001
 43
0.00000001
 12
1.0
 22
0.0
 32
0.0
 13
1.0
 23
0.0
 33
0.0
 40
0.0
 40
0.0
 40
0.0
 40
0.0
 40
0.0715134253843407
 40
0.1429748421749412
 40
0.2855214986884532
 40
0.4080905000837247
 40
0.5000667352255134
 40
0.749535943185327
 40
0.8747362323901956
 40
1.0
 40
1.0
 40
1.0
 40
1.0
 10
178.851311866216
 20
119.5226488417153
 30
0.0
 10
178.8501455539772
 20
119.5445846143228
 30
0.0
 10
178.8478137777074
 20
119.5884402066077
 30
0.0
 10
178.8203725748928
 20
119.6722721049434
 30
0.0
 10
178.7629233444767
 20
119.7599833560361
 30
0.0
 10
178.6809570152112
 20
119.8334153700167
 30
0.0
 10
178.562406725402
 20
119.9127086473777
 30
0.0
 10
178.4234644885948
 20
119.9581052501197
 30
0.0
 10
178.2715273165602
 20
119.9800654209332
 30
0.0
 10
178.1945828240421
 20
119.981609164718
 30
0.0
 10
178.156100827255
 20
119.982381232236
 30
0.0
  0
SPLINE
  5
1A1
330
1F
100
AcDbEntity
  8
0
  6
Continuous
 62
     7
370
     0
100
AcDbSpline
210
0.0
220
0.0
230
1.0
 70
     8
 71
     3
 72
    15
 73
    11
 74
     0
 42
0.00000001
 43
0.00000001
 12
1.0
 22
0.0
 32
0.0
 13
1.0
 23
0.0
 33
0.0
 40
0.0
 40
0.0
 40
0.0
 40
0.0
 40
0.1254900545901006
 40
0.2509253290261151
 40
0.3762890484356027
 40
0.5015870529781995
 40
0.7852084580458263
 40
0.8924696902402228
 40
0.9462252253689362
 40
1.0
 40
1.0
 40
1.0
 40
1.0
 10
178.156100827255
 20
119.982381232236
 30
0.0
 10
178.1177062947704
 20
119.9814761684374
 30
0.0
 10
178.0409339901605
 20
119.9796664359276
 30
0.0
 10
177.9266651536235
 20
119.9635339235905
 30
0.0
 10
177.8155907957598
 20
119.9316430164155
 30
0.0
 10
177.6681181914012
 20
119.8610927784317
 30
0.0
 10
177.5482937170379
 20
119.7441708155226
 30
0.0
 10
177.5008295015743
 20
119.6158766317529
 30
0.0
 10
177.488784370574
 20
119.5512635978687
 30
0.0
 10
177.4880451693308
 20
119.5184307367331
 30
0.0
 10
177.4876755025797
 20
119.5020113689101
 30
0.0
  0
SPLINE
  5
1A2
330
1F
100
AcDbEntity
  8
0
  6
Continuous
 62
     7
370
     0
100
AcDbSpline
210
0.0
220
0.0
230
1.0
 70
     8
 71
     3
 72
    15
 73
    11
 74
     0
 42
0.00000001
 43
0.00000001
 12
1.0
 22
0.0
 32
0.0
 13
1.0
 23
0.0
 33
0.0
 40
0.0
 40
0.0
 40
0.0
 40
0.0
 40
0.0626173427386428
 40
0.1252286942408525
 40
0.2501494449114082
 40
0.3751278682770096
 40
0.5002516890628569
 40
0.7495287002126386
 40
0.8747345946215767
 40
1.0
 40
1.0
 40
1.0
 40
1.0
 10
177.4876755025797
 20
119.5020113689101
 30
0.0
 10
177.4882047507765
 20
119.4832124440981
 30
0.0
 10
177.4892631965317
 20
119.4456163931577
 30
0.0
 10
177.5056592674
 20
119.3720845625576
 30
0.0
 10
177.5438455663798
 20
119.2851484354107
 30
0.0
 10
177.6156579586882
 20
119.1972569491396
 30
0.0
 10
177.7298291104068
 20
119.0987756593765
 30
0.0
 10
177.872220382288
 20
119.0396726075374
 30
0.0
 10
178.0205405526533
 20
119.014320102622
 30
0.0
 10
178.0958918675655
 20
119.0122542494637
 30
0.0
 10
178.1335764766056
 20
119.0112210774654
 30
0.0
  0
SPLINE
  5
1A3
330
1F
100
AcDbEntity
  8
0
  6
Continuous
 62
     7
370
     0
100
AcDbSpline
210
0.0
220
0.0
230
1.0
 70
     8
 71
     3
 72
    13
 73
     9
 74
     0
 42
0.00000001
 43
0.00000001
 12
1.0
 22
0.0
 32
0.0
 13
1.0
 23
0.0
 33
0.0
 40
0.0
 40
0.0
 40
0.0
 40
0.0
 40
0.125485450939511
 40
0.2508717548292324
 40
0.5005437881486908
 40
0.7496100251974721
 40
0.8746824297346196
 40
1.0
 40
1.0
 40
1.0
 40
1.0
 10
176.8521235545277
 20
122.9069973606547
 30
0.0
 10
176.8803964624812
 20
122.9078915386939
 30
0.0
 10
176.9369199397396
 20
122.909679188275
 30
0.0
 10
177.0485152150396
 20
122.9274207488028
 30
0.0
 10
177.1807358328327
 20
122.9825379093477
 30
0.0
 10
177.2816150812602
 20
123.0845639464406
 30
0.0
 10
177.3266342669204
 20
123.1871994802661
 30
0.0
 10
177.3300978563559
 20
123.242425921138
 30
0.0
 10
177.3318313467355
 20
123.2700661786599
 30
0.0
  0
SPLINE
  5
1A4
330
1F
100
AcDbEntity
  8
0
  6
Continuous
 62
     7
370
     0
100
AcDbSpline
210
0.0
220
0.0
230
1.0
 70
     8
 71
     3
 72
    13
 73
     9
 74
     0
 42
0.00000001
 43
0.00000001
 12
1.0
 22
0.0
 32
0.0
 13
1.0
 23
0.0
 33
0.0
 40
0.0
 40
0.0
 40
0.0
 40
0.0
 40
0.1253127525110424
 40
0.2504463542530739
 40
0.4994972475177283
 40
0.7491566124193237
 40
0.8745209453086593
 40
1.0
 40
1.0
 40
1.0
 40
1.0
 10
177.3318313467355
 20
123.2700661786599
 30
0.0
 10
177.3301272601737
 20
123.2967934877106
 30
0.0
 10
177.326721523262
 20
123.3502098956707
 30
0.0
 10
177.2835338173036
 20
123.4494028425242
 30
0.0
 10
177.1878172569558
 20
123.5488180327784
 30
0.0
 10
177.0619771580334
 20
123.6062760708667
 30
0.0
 10
176.9542662352344
 20
123.6255516169412
 30
0.0
 10
176.8995723098917
 20
123.6274273410491
 30
0.0
 10
176.872212840242
 20
123.6283656320289
 30
0.0
  0
SPLINE
  5
1A5
330
1F
100
AcDbEntity
  8
0
  6
Continuous
 62
     7
370
     0
100
AcDbSpline
210
0.0
220
0.0
230
1.0
 70
     8
 71
     3
 72
    13
 73
     9
 74
     0
 42
0.00000001
 43
0.00000001
 12
1.0
 22
0.0
 32
0.0
 13
1.0
 23
0.0
 33
0.0
 40
0.0
 40
0.0
 40
0.0
 40
0.0
 40
0.125459413634036
 40
0.2508058477527738
 40
0.5003949865767626
 40
0.7496402696056343
 40
0.8747301922451508
 40
1.0
 40
1.0
 40
1.0
 40
1.0
 10
176.872212840242
 20
123.6283656320289
 30
0.0
 10
176.8442582688105
 20
123.6274717912104
 30
0.0
 10
176.7883742997772
 20
123.6256849145005
 30
0.0
 10
176.678208633452
 20
123.606413969205
 30
0.0
 10
176.5497421347476
 20
123.5478102537429
 30
0.0
 10
176.4497231849604
 20
123.4487575779449
 30
0.0
 10
176.4028480866126
 20
123.3483793580558
 30
0.0
 10
176.3987946074684
 20
123.293810635196
 30
0.0
 10
176.3967664116706
 20
123.2665066697727
 30
0.0
  0
SPLINE
  5
1A6
330
1F
100
AcDbEntity
  8
0
  6
Continuous
 62
     7
370
     0
100
AcDbSpline
210
0.0
220
0.0
230
1.0
 70
     8
 71
     3
 72
    13
 73
     9
 74
     0
 42
0.00000001
 43
0.00000001
 12
1.0
 22
0.0
 32
0.0
 13
1.0
 23
0.0
 33
0.0
 40
0.0
 40
0.0
 40
0.0
 40
0.0
 40
0.12529213878489
 40
0.2503681048607836
 40
0.499652810341767
 40
0.7492268595677021
 40
0.8745537364249412
 40
1.0
 40
1.0
 40
1.0
 40
1.0
 10
176.3967664116706
 20
123.2665066697727
 30
0.0
 10
176.3984521066293
 20
123.2399842703082
 30
0.0
 10
176.4018205881341
 20
123.1869852317835
 30
0.0
 10
176.4452615699849
 20
123.0885383403422
 30
0.0
 10
176.5405512574602
 20
122.9900434354681
 30
0.0
 10
176.6643582174611
 20
122.9314572490395
 30
0.0
 10
176.7707154439286
 20
122.909638578826
 30
0.0
 10
176.8249789065096
 20
122.9078780460934
 30
0.0
 10
176.8521235545277
 20
122.9069973606547
 30
0.0
  0
SPLINE
  5
1A7
330
1F
100
AcDbEntity
  8
0
  6
Continuous
 62
     7
370
     0
100
AcDbSpline
210
0.0
220
0.0
230
1.0
 70
     8
 71
     3
 72
    15
 73
    11
 74
     0
 42
0.00000001
 43
0.00000001
 12
1.0
 22
0.0
 32
0.0
 13
1.0
 23
0.0
 33
0.0
 40
0.0
 40
0.0
 40
0.0
 40
0.0
 40
0.1252769592109959
 40
0.2504893215106138
 40
0.4997180923027253
 40
0.6426531291474389
 40
0.7853776591259619
 40
0.8926169015178652
 40
0.9462953635232972
 40
1.0
 40
1.0
 40
1.0
 40
1.0
 10
178.2413280999822
 20
122.7926670080802
 30
0.0
 10
178.2776705349009
 20
122.7938349864212
 30
0.0
 10
178.3503366653862
 20
122.7961703408552
 30
0.0
 10
178.4932679980315
 20
122.8218089752527
 30
0.0
 10
178.6331062361442
 20
122.8849530731131
 30
0.0
 10
178.7476222855795
 20
122.9887924093874
 30
0.0
 10
178.8119428185612
 20
123.0823226467747
 30
0.0
 10
178.840232612949
 20
123.1644697382126
 30
0.0
 10
178.8501846307858
 20
123.2245188433513
 30
0.0
 10
178.8509360600194
 20
123.2548812666252
 30
0.0
 10
178.851311866216
 20
123.2700661786599
 30
0.0
  0
SPLINE
  5
1A8
330
1F
100
AcDbEntity
  8
0
  6
Continuous
 62
     7
370
     0
100
AcDbSpline
210
0.0
220
0.0
230
1.0
 70
     8
 71
     3
 72
    17
 73
    13
 74
     0
 42
0.00000001
 43
0.00000001
 12
1.0
 22
0.0
 32
0.0
 13
1.0
 23
0.0
 33
0.0
 40
0.0
 40
0.0
 40
0.0
 40
0.0
 40
0.0625585655731044
 40
0.1250994094969919
 40
0.2499259470216674
 40
0.3747629568250878
 40
0.4997011588805036
 40
0.5711911304207261
 40
0.6426637601587335
 40
0.7498260757951587
 40
0.8748745084348671
 40
1.0
 40
1.0
 40
1.0
 40
1.0
 10
178.851311866216
 20
123.2700661786599
 30
0.0
 10
178.8508525613109
 20
123.2875600036412
 30
0.0
 10
178.8499340816132
 20
123.3225426979366
 30
0.0
 10
178.8364106121109
 20
123.3912640884838
 30
0.0
 10
178.8051225002899
 20
123.4738423385498
 30
0.0
 10
178.7417190969484
 20
123.5594911530608
 30
0.0
 10
178.6728111448801
 20
123.6195494097309
 30
0.0
 10
178.6093250271672
 20
123.6618128308953
 30
0.0
 10
178.544646471716
 20
123.6922807994569
 30
0.0
 10
178.462295765247
 20
123.720283265685
 30
0.0
 10
178.3611630497435
 20
123.7391082856596
 30
0.0
 10
178.2893973348118
 20
123.7409100571002
 30
0.0
 10
178.2535034246576
 20
123.7418112203126
 30
0.0
  0
SPLINE
  5
1A9
330
1F
100
AcDbEntity
  8
0
  6
Continuous
 62
     7
370
     0
100
AcDbSpline
210
0.0
220
0.0
230
1.0
 70
     8
 71
     3
 72
    16
 73
    12
 74
     0
 42
0.00000001
 43
0.00000001
 12
1.0
 22
0.0
 32
0.0
 13
1.0
 23
0.0
 33
0.0
 40
0.0
 40
0.0
 40
0.0
 40
0.0
 40
0.1251302078352176
 40
0.2501967679340027
 40
0.3786924357609119
 40
0.5001275909751383
 40
0.6291666256659925
 40
0.7500341205787885
 40
0.8748902692403021
 40
0.9374274165517043
 40
1.0
 40
1.0
 40
1.0
 40
1.0
 10
178.2535034246576
 20
123.7418112203126
 30
0.0
 10
178.217028874131
 20
123.7407677481694
 30
0.0
 10
178.1440983259328
 20
123.7386813346474
 30
0.0
 10
178.0354258868847
 20
123.7178299100695
 30
0.0
 10
177.9321039546163
 20
123.6817981433212
 30
0.0
 10
177.8373725268492
 20
123.6254508159264
 30
0.0
 10
177.7571243187471
 20
123.5540759934125
 30
0.0
 10
177.6922103540076
 20
123.4677045738219
 30
0.0
 10
177.6587285838135
 20
123.3855418171789
 30
0.0
 10
177.6449481584608
 20
123.3156739302242
 30
0.0
 10
177.6439959150074
 20
123.2801305062099
 30
0.0
 10
177.6435196584238
 20
123.262353760535
 30
0.0
  0
SPLINE
  5
1AA
330
1F
100
AcDbEntity
  8
0
  6
Continuous
 62
     7
370
     0
100
AcDbSpline
210
0.0
220
0.0
230
1.0
 70
     8
 71
     3
 72
    15
 73
    11
 74
     0
 42
0.00000001
 43
0.00000001
 12
1.0
 22
0.0
 32
0.0
 13
1.0
 23
0.0
 33
0.0
 40
0.0
 40
0.0
 40
0.0
 40
0.0
 40
0.0626592737439258
 40
0.1252783759597278
 40
0.2502968459658551
 40
0.4991786019196683
 40
0.5826921588068449
 40
0.7494807581770955
 40
0.8746886697912927
 40
1.0
 40
1.0
 40
1.0
 40
1.0
 10
177.6435196584238
 20
123.262353760535
 30
0.0
 10
177.6439786847298
 20
123.2449606259532
 30
0.0
 10
177.6448964430552
 20
123.2101855077135
 30
0.0
 10
177.6585284739174
 20
123.1417867670828
 30
0.0
 10
177.7039112418886
 20
123.0275784531041
 30
0.0
 10
177.7976930393247
 20
122.9323328206547
 30
0.0
 10
177.916709788606
 20
122.8566162794026
 30
0.0
 10
178.0174557035959
 20
122.8184236999708
 30
0.0
 10
178.134308152533
 20
122.7957156866735
 30
0.0
 10
178.2056449678165
 20
122.7936835139164
 30
0.0
 10
178.2413280999822
 20
122.7926670080802
 30
0.0
  0
LINE
  5
1AB
330
1F
100
AcDbEntity
  8
0
  6
Continuous
 62
     7
370
     0
100
AcDbLine
 10
178.7733897883
 20
110.1876836496
 30
0.0
 11
178.7733897883
 21
109.6773566242
 31
0.0
  0
SPLINE
  5
1AC
330
1F
100
AcDbEntity
  8
0
  6
Continuous
 62
     7
370
     0
100
AcDbSpline
210
0.0
220
0.0
230
1.0
 70
     8
 71
     3
 72
    15
 73
    11
 74
     0
 42
0.00000001
 43
0.00000001
 12
1.0
 22
0.0
 32
0.0
 13
1.0
 23
0.0
 33
0.0
 40
0.0
 40
0.0
 40
0.0
 40
0.0
 40
0.1397214989305027
 40
0.2501771574758241
 40
0.375238625844428
 40
0.50023145062014
 40
0.6214276674151485
 40
0.7499576434759527
 40
0.8749319569283701
 40
1.0
 40
1.0
 40
1.0
 40
1.0
 10
178.7733897882939
 20
110.1876836496297
 30
0.0
 10
178.7723576297997
 20
110.2294084752385
 30
0.0
 10
178.7705095070689
 20
110.3041185116101
 30
0.0
 10
178.7578715362403
 20
110.4158347299232
 30
0.0
 10
178.7351056121755
 20
110.5218296926149
 30
0.0
 10
178.6938179240683
 20
110.626611743784
 30
0.0
 10
178.6286040650284
 20
110.7212425562892
 30
0.0
 10
178.5429347834281
 20
110.7988850419216
 30
0.0
 10
178.4443357958532
 20
110.8627459368864
 30
0.0
 10
178.3723180189914
 20
110.8920150717097
 30
0.0
 10
178.3362956324498
 20
110.9066551249617
 30
0.0
  0
SPLINE
  5
1AD
330
1F
100
AcDbEntity
  8
0
  6
Continuous
 62
     7
370
     0
100
AcDbSpline
210
0.0
220
0.0
230
1.0
 70
     8
 71
     3
 72
    12
 73
     8
 74
     0
 42
0.00000001
 43
0.00000001
 12
1.0
 22
0.0
 32
0.0
 13
1.0
 23
0.0
 33
0.0
 40
0.0
 40
0.0
 40
0.0
 40
0.0
 40
0.1250178846381799
 40
0.2500201696718626
 40
0.4999844141952995
 40
0.749986801893363
 40
1.0
 40
1.0
 40
1.0
 40
1.0
 10
178.3362956324498
 20
110.9066551249617
 30
0.0
 10
178.307088984347
 20
110.917042197028
 30
0.0
 10
178.2486793325174
 20
110.9378150450723
 30
0.0
 10
178.1287491243056
 20
110.9702843354638
 30
0.0
 10
177.9759030284243
 20
110.9992522075655
 30
0.0
 10
177.7900719733794
 20
111.018984274358
 30
0.0
 10
177.6655856129276
 20
111.0209060165144
 30
0.0
 10
177.6033410869952
 20
111.0218669083668
 30
0.0
  0
SPLINE
  5
1AE
330
1F
100
AcDbEntity
  8
0
  6
Continuous
 62
     7
370
     0
100
AcDbSpline
210
0.0
220
0.0
230
1.0
 70
     8
 71
     3
 72
    15
 73
    11
 74
     0
 42
0.00000001
 43
0.00000001
 12
1.0
 22
0.0
 32
0.0
 13
1.0
 23
0.0
 33
0.0
 40
0.0
 40
0.0
 40
0.0
 40
0.0
 40
0.1251268274281163
 40
0.2502484251834727
 40
0.5001030853491313
 40
0.6251006234200797
 40
0.7501052843047152
 40
0.874955926622918
 40
0.9374630657903266
 40
1.0
 40
1.0
 40
1.0
 40
1.0
 10
177.6033410869952
 20
111.0218669083668
 30
0.0
 10
177.5523334157108
 20
111.0212653960269
 30
0.0
 10
177.4503202050062
 20
111.0200623964874
 30
0.0
 10
177.2472749257414
 20
111.0036447260096
 30
0.0
 10
177.0451479239896
 20
110.9670018904502
 30
0.0
 10
176.8568984326513
 20
110.8901981073436
 30
0.0
 10
176.7253853252187
 20
110.8139774128038
 30
0.0
 10
176.6305054967367
 20
110.7307476597827
 30
0.0
 10
176.568290884128
 20
110.652532263409
 30
0.0
 10
176.545663812209
 20
110.6085084987322
 30
0.0
 10
176.5343475805017
 20
110.5864913714835
 30
0.0
  0
SPLINE
  5
1AF
330
1F
100
AcDbEntity
  8
0
  6
Continuous
 62
     7
370
     0
100
AcDbSpline
210
0.0
220
0.0
230
1.0
 70
     8
 71
     3
 72
    12
 73
     8
 74
     0
 42
0.00000001
 43
0.00000001
 12
1.0
 22
0.0
 32
0.0
 13
1.0
 23
0.0
 33
0.0
 40
0.0
 40
0.0
 40
0.0
 40
0.0
 40
0.1428151998865892
 40
0.2856721884586214
 40
0.4999151269693849
 40
0.749937838827124
 40
1.0
 40
1.0
 40
1.0
 40
1.0
 10
176.5343475805017
 20
110.5864913714835
 30
0.0
 10
176.5268583550216
 20
110.5680965573587
 30
0.0
 10
176.5118777126636
 20
110.5313015466633
 30
0.0
 10
176.4957940829464
 20
110.4638619070953
 30
0.0
 10
176.4833552356447
 20
110.3809460659265
 30
0.0
 10
176.4758835096567
 20
110.2827067631092
 30
0.0
 10
176.4750868505622
 20
110.2139235922042
 30
0.0
 10
176.4746884895926
 20
110.1795292937632
 30
0.0
  0
LINE
  5
1B0
330
1F
100
AcDbEntity
  8
0
  6
Continuous
 62
     7
370
     0
100
AcDbLine
 10
176.4746884896
 20
110.1795292938
 30
0.0
 11
176.4746884896
 21
109.6773566242
 31
0.0
  0
LINE
  5
1B1
330
1F
100
AcDbEntity
  8
0
  6
Continuous
 62
     7
370
     0
100
AcDbLine
 10
176.4746884896
 20
109.6773566242
 30
0.0
 11
178.7733897883
 21
109.6773566242
 31
0.0
  0
DIMENSION
  5
1B2
330
1F
100
AcDbEntity
  8
0
  6
Continuous
 62
     7
370
     0
100
AcDbDimension
  2
_D_1
 10
180.1240391389
 20
82.1704363992
 30
0.0
 11
162.0477425204
 21
82.1704363992
 31
0.0
 70
   160
  1
<>
 71
     2
 42
-1.0
  3
SLDDIMSTYLE1
100
AcDbAlignedDimension
 13
175.1240391389
 23
92.4704363992
 33
0.0
 14
180.1240391389
 24
92.4704363992
 34
0.0
100
AcDbRotatedDimension
  0
MTEXT
  5
1C7
330
1F
100
AcDbEntity
  8
0
  6
Continuous
 62
     7
370
     0
100
AcDbMText
 10
152.560907253
 20
131.9196372641
 30
0.0
 40
2.1166666667
 41
0.0
 71
     1
 72
     1
  1
S1
  7
SLDTEXTSTYLE0
 73
     1
 44
1.0
  0
LEADER
  5
1C9
330
1F
100
AcDbEntity
  8
0
  6
Continuous
 62
     7
370
     0
100
AcDbLeader
  3
SLDDIMSTYLE2
 76
     3
 10
175.1240391389
 20
116.4269560241
 30
0.0
 10
162.3342473746
 20
130.805134189
 30
0.0
 10
155.9842473746
 20
130.805134189
 30
0.0
  0
INSERT
  5
1CF
102
{ACAD_REACTORS
330
1D0
102
}
330
1F
100
AcDbEntity
  8
0
  6
Continuous
 62
     7
370
     0
100
AcDbBlockReference
  2
SW_NOTE_5
 10
192.9072345391
 20
130.9218203034
 30
0.0
  0
LEADER
  5
1D0
330
1F
100
AcDbEntity
  8
0
  6
Continuous
 62
     7
370
     0
100
AcDbLeader
  3
SLDDIMSTYLE2
 73
     2
 76
     3
 10
180.1240391389
 20
116.527513294
 30
0.0
 10
186.5572345391
 20
130.9218203034
 30
0.0
 10
192.9072345391
 20
130.9218203034
 30
0.0
340
1CF
  0
OLE2FRAME
  5
1D1
330
1F
100
AcDbEntity
  8
0
100
AcDbOle2Frame
 70
     2
  3
Paintbrush Picture
 10
229.0524258301
 20
33.6996297921
 30
0.0
 11
265.1686469208
 21
28.555479607
 31
0.0
 71
     2
 72
     0
 73
     1
 90
     7296
310
80557333EF78ADA16C40002412788DD94040000000000000000041161DC7B292
310
7040002412788DD94040000000000000000041161DC7B2927040F6DD59E9338E
310
3C4000000000000000007333EF78ADA16C40F6DD59E9338E3C40000000000000
310
00000000000001000000000100000100000001000000000001000000001C0000
310
D0CF11E0A1B11AE1000000000000000000000000000000003E000300FEFF0900
310
0600000000000000000000000100000001000000000000000010000002000000
310
01000000FEFFFFFF0000000000000000FFFFFFFFFFFFFFFFFFFFFFFFFFFFFFFF
310
FFFFFFFFFFFFFFFFFFFFFFFFFFFFFFFFFFFFFFFFFFFFFFFFFFFFFFFFFFFFFFFF
310
FFFFFFFFFFFFFFFFFFFFFFFFFFFFFFFFFFFFFFFFFFFFFFFFFFFFFFFFFFFFFFFF
310
FFFFFFFFFFFFFFFFFFFFFFFFFFFFFFFFFFFFFFFFFFFFFFFFFFFFFFFFFFFFFFFF
310
FFFFFFFFFFFFFFFFFFFFFFFFFFFFFFFFFFFFFFFFFFFFFFFFFFFFFFFFFFFFFFFF
310
FFFFFFFFFFFFFFFFFFFFFFFFFFFFFFFFFFFFFFFFFFFFFFFFFFFFFFFFFFFFFFFF
310
FFFFFFFFFFFFFFFFFFFFFFFFFFFFFFFFFFFFFFFFFFFFFFFFFFFFFFFFFFFFFFFF
310
FFFFFFFFFFFFFFFFFFFFFFFFFFFFFFFFFFFFFFFFFFFFFFFFFFFFFFFFFFFFFFFF
310
FFFFFFFFFFFFFFFFFFFFFFFFFFFFFFFFFFFFFFFFFFFFFFFFFFFFFFFFFFFFFFFF
310
FFFFFFFFFFFFFFFFFFFFFFFFFFFFFFFFFFFFFFFFFFFFFFFFFFFFFFFFFFFFFFFF
310
FFFFFFFFFFFFFFFFFFFFFFFFFFFFFFFFFFFFFFFFFFFFFFFFFFFFFFFFFFFFFFFF
310
FFFFFFFFFFFFFFFFFFFFFFFFFFFFFFFFFFFFFFFFFFFFFFFFFFFFFFFFFFFFFFFF
310
FFFFFFFFFFFFFFFFFFFFFFFFFFFFFFFFFFFFFFFFFFFFFFFFFFFFFFFFFFFFFFFF
310
FFFFFFFFFFFFFFFFFFFFFFFFFFFFFFFFFFFFFFFFFFFFFFFFFFFFFFFFFFFFFFFF
310
FDFFFFFFFEFFFFFFFEFFFFFFFEFFFFFF05000000060000000700000008000000
310
090000000A0000000B0000000C000000FEFFFFFFFFFFFFFFFFFFFFFFFFFFFFFF
310
FFFFFFFFFFFFFFFFFFFFFFFFFFFFFFFFFFFFFFFFFFFFFFFFFFFFFFFFFFFFFFFF
310
FFFFFFFFFFFFFFFFFFFFFFFFFFFFFFFFFFFFFFFFFFFFFFFFFFFFFFFFFFFFFFFF
310
FFFFFFFFFFFFFFFFFFFFFFFFFFFFFFFFFFFFFFFFFFFFFFFFFFFFFFFFFFFFFFFF
310
FFFFFFFFFFFFFFFFFFFFFFFFFFFFFFFFFFFFFFFFFFFFFFFFFFFFFFFFFFFFFFFF
310
FFFFFFFFFFFFFFFFFFFFFFFFFFFFFFFFFFFFFFFFFFFFFFFFFFFFFFFFFFFFFFFF
310
FFFFFFFFFFFFFFFFFFFFFFFFFFFFFFFFFFFFFFFFFFFFFFFFFFFFFFFFFFFFFFFF
310
FFFFFFFFFFFFFFFFFFFFFFFFFFFFFFFFFFFFFFFFFFFFFFFFFFFFFFFFFFFFFFFF
310
FFFFFFFFFFFFFFFFFFFFFFFFFFFFFFFFFFFFFFFFFFFFFFFFFFFFFFFFFFFFFFFF
310
FFFFFFFFFFFFFFFFFFFFFFFFFFFFFFFFFFFFFFFFFFFFFFFFFFFFFFFFFFFFFFFF
310
FFFFFFFFFFFFFFFFFFFFFFFFFFFFFFFFFFFFFFFFFFFFFFFFFFFFFFFFFFFFFFFF
310
FFFFFFFFFFFFFFFFFFFFFFFFFFFFFFFFFFFFFFFFFFFFFFFFFFFFFFFFFFFFFFFF
310
FFFFFFFFFFFFFFFFFFFFFFFFFFFFFFFFFFFFFFFFFFFFFFFFFFFFFFFFFFFFFFFF
310
FFFFFFFFFFFFFFFFFFFFFFFFFFFFFFFFFFFFFFFFFFFFFFFFFFFFFFFFFFFFFFFF
310
FFFFFFFFFFFFFFFFFFFFFFFFFFFFFFFFFFFFFFFFFFFFFFFFFFFFFFFFFFFFFFFF
310
52006F006F007400200045006E00740072007900000000000000000000000000
310
0000000000000000000000000000000000000000000000000000000000000000
310
16000500FFFFFFFFFFFFFFFF020000000A00030000000000C000000000000046
310
00000000000000000000000050F37F880A33CF0103000000C000000000000000
310
01004F006C006500000000000000000000000000000000000000000000000000
310
0000000000000000000000000000000000000000000000000000000000000000
310
0A000200FFFFFFFFFFFFFFFFFFFFFFFF00000000000000000000000000000000
310
0000000000000000000000000000000000000000000000001400000000000000
310
010043006F006D0070004F0062006A0000000000000000000000000000000000
310
0000000000000000000000000000000000000000000000000000000000000000
310
120002010100000003000000FFFFFFFF00000000000000000000000000000000
310
0000000000000000000000000000000000000000010000004D00000000000000
310
01004F006C006500310030004E00610074006900760065000000000000000000
310
0000000000000000000000000000000000000000000000000000000000000000
310
1A000200FFFFFFFFFFFFFFFFFFFFFFFF00000000000000000000000000000000
310
000000000000000000000000000000000000000004000000E411000000000000
310
FEFFFFFF02000000FEFFFFFFFFFFFFFFFFFFFFFFFFFFFFFFFFFFFFFFFFFFFFFF
310
FFFFFFFFFFFFFFFFFFFFFFFFFFFFFFFFFFFFFFFFFFFFFFFFFFFFFFFFFFFFFFFF
310
FFFFFFFFFFFFFFFFFFFFFFFFFFFFFFFFFFFFFFFFFFFFFFFFFFFFFFFFFFFFFFFF
310
FFFFFFFFFFFFFFFFFFFFFFFFFFFFFFFFFFFFFFFFFFFFFFFFFFFFFFFFFFFFFFFF
310
FFFFFFFFFFFFFFFFFFFFFFFFFFFFFFFFFFFFFFFFFFFFFFFFFFFFFFFFFFFFFFFF
310
FFFFFFFFFFFFFFFFFFFFFFFFFFFFFFFFFFFFFFFFFFFFFFFFFFFFFFFFFFFFFFFF
310
FFFFFFFFFFFFFFFFFFFFFFFFFFFFFFFFFFFFFFFFFFFFFFFFFFFFFFFFFFFFFFFF
310
FFFFFFFFFFFFFFFFFFFFFFFFFFFFFFFFFFFFFFFFFFFFFFFFFFFFFFFFFFFFFFFF
310
FFFFFFFFFFFFFFFFFFFFFFFFFFFFFFFFFFFFFFFFFFFFFFFFFFFFFFFFFFFFFFFF
310
FFFFFFFFFFFFFFFFFFFFFFFFFFFFFFFFFFFFFFFFFFFFFFFFFFFFFFFFFFFFFFFF
310
FFFFFFFFFFFFFFFFFFFFFFFFFFFFFFFFFFFFFFFFFFFFFFFFFFFFFFFFFFFFFFFF
310
FFFFFFFFFFFFFFFFFFFFFFFFFFFFFFFFFFFFFFFFFFFFFFFFFFFFFFFFFFFFFFFF
310
FFFFFFFFFFFFFFFFFFFFFFFFFFFFFFFFFFFFFFFFFFFFFFFFFFFFFFFFFFFFFFFF
310
FFFFFFFFFFFFFFFFFFFFFFFFFFFFFFFFFFFFFFFFFFFFFFFFFFFFFFFFFFFFFFFF
310
FFFFFFFFFFFFFFFFFFFFFFFFFFFFFFFFFFFFFFFFFFFFFFFFFFFFFFFFFFFFFFFF
310
FFFFFFFFFFFFFFFFFFFFFFFFFFFFFFFFFFFFFFFFFFFFFFFFFFFFFFFFFFFFFFFF
310
0100000200000000000000000000000000000000000000000000000000000000
310
0000000000000000000000000000000000000000000000000000000000000000
310
0100FEFF030A0000FFFFFFFF0A00030000000000C00000000000004607000000
310
5042727573680007000000504272757368000700000050427275736800F439B2
310
7100000000000000000000000000000000000000000000000000000000000000
310
0000000000000000000000000000000000000000000000000000000000000000
310
0000000000000000000000000000000000000000000000000000000000000000
310
0000000000000000000000000000000000000000000000000000000000000000
310
0000000000000000000000000000000000000000000000000000000000000000
310
0000000000000000000000000000000000000000000000000000000000000000
310
0000000000000000000000000000000000000000000000000000000000000000
310
0000000000000000000000000000000000000000000000000000000000000000
310
0000000000000000000000000000000000000000000000000000000000000000
310
0000000000000000000000000000000000000000000000000000000000000000
310
0000000000000000000000000000000000000000000000000000000000000000
310
0000000000000000000000000000000000000000000000000000000000000000
310
E0110000424DDE11000000000000360400002800000096000000170000000100
310
08000000000000000000E7240000E72400000001000000010000000000FF0101
310
01FF020202FF030303FF040404FF050505FF060606FF070707FF080808FF0909
310
09FF0A0A0AFF0B0B0BFF0C0C0CFF0D0D0DFF0E0E0EFF0F0F0FFF101010FF1111
310
11FF121212FF131313FF141414FF151515FF161616FF171717FF181818FF1919
310
19FF1A1A1AFF1B1B1BFF1C1C1CFF1D1D1DFF1E1E1EFF1F1F1FFF202020FF2121
310
21FF222222FF232323FF242424FF252525FF262626FF272727FF282828FF2929
310
29FF2A2A2AFF2B2B2BFF2C2C2CFF2D2D2DFF2E2E2EFF2F2F2FFF303030FF3131
310
31FF323232FF333333FF343434FF353535FF363636FF373737FF383838FF3939
310
39FF3A3A3AFF3B3B3BFF3C3C3CFF3D3D3DFF3E3E3EFF3F3F3FFF404040FF4141
310
41FF424242FF434343FF444444FF454545FF464646FF474747FF484848FF4949
310
49FF4A4A4AFF4B4B4BFF4C4C4CFF4D4D4DFF4E4E4EFF4F4F4FFF505050FF5151
310
51FF525252FF535353FF545454FF555555FF565656FF575757FF585858FF5959
310
59FF5A5A5AFF5B5B5BFF5C5C5CFF5D5D5DFF5E5E5EFF5F5F5FFF606060FF6161
310
61FF626262FF636363FF646464FF656565FF666666FF676767FF686868FF6969
310
69FF6A6A6AFF6B6B6BFF6C6C6CFF6D6D6DFF6E6E6EFF6F6F6FFF707070FF7171
310
71FF727272FF737373FF747474FF757575FF767676FF777777FF787878FF7979
310
79FF7A7A7AFF7B7B7BFF7C7C7CFF7D7D7DFF7E7E7EFF7F7F7FFF808080FF8181
310
81FF828282FF838383FF848484FF858585FF868686FF878787FF888888FF8989
310
89FF8A8A8AFF8B8B8BFF8C8C8CFF8D8D8DFF8E8E8EFF8F8F8FFF909090FF9191
310
91FF929292FF939393FF949494FF959595FF969696FF979797FF989898FF9999
310
99FF9A9A9AFF9B9B9BFF9C9C9CFF9D9D9DFF9E9E9EFF9F9F9FFFA0A0A0FFA1A1
310
A1FFA2A2A2FFA3A3A3FFA4A4A4FFA5A5A5FFA6A6A6FFA7A7A7FFA8A8A8FFA9A9
310
A9FFAAAAAAFFABABABFFACACACFFADADADFFAEAEAEFFAFAFAFFFB0B0B0FFB1B1
310
B1FFB2B2B2FFB3B3B3FFB4B4B4FFB5B5B5FFB6B6B6FFB7B7B7FFB8B8B8FFB9B9
310
B9FFBABABAFFBBBBBBFFBCBCBCFFBDBDBDFFBEBEBEFFBFBFBFFFC0C0C0FFC1C1
310
C1FFC2C2C2FFC3C3C3FFC4C4C4FFC5C5C5FFC6C6C6FFC7C7C7FFC8C8C8FFC9C9
310
C9FFCACACAFFCBCBCBFFCCCCCCFFCDCDCDFFCECECEFFCFCFCFFFD0D0D0FFD1D1
310
D1FFD2D2D2FFD3D3D3FFD4D4D4FFD5D5D5FFD6D6D6FFD7D7D7FFD8D8D8FFD9D9
310
D9FFDADADAFFDBDBDBFFDCDCDCFFDDDDDDFFDEDEDEFFDFDFDFFFE0E0E0FFE1E1
310
E1FFE2E2E2FFE3E3E3FFE4E4E4FFE5E5E5FFE6E6E6FFE7E7E7FFE8E8E8FFE9E9
310
E9FFEAEAEAFFEBEBEBFFECECECFFEDEDEDFFEEEEEEFFEFEFEFFFF0F0F0FFF1F1
310
F1FFF2F2F2FFF3F3F3FFF4F4F4FFF5F5F5FFF6F6F6FFF7F7F7FFF8F8F8FFF9F9
310
F9FFFAFAFAFFFBFBFBFFFCFCFCFFFDFDFDFFFEFEFEFFFFFFFFFFFFFFFFFFFFFF
310
C94E4E4E4F4E4EFFFFFFFFFFC94E4E4E4E4E72FFFFFFFFFFFFFF734E4D4E4E4E
310
C9FFFFFFFFFFAA683516171616265B9BE9FFFFFFFFFF4E4E4E4D4E4EFFFFFFFF
310
FFFFFFFF4E4E4F4E4D4E4E4E4F4E4E4F4D4E4E4E4E4E4D4E4F4E4D4E4E4EAAFF
310
FFFFFFFFFFEA4E4F4F4E4E4E4E4E4D4D4F4F4E4E4E4E4E5B7FAAFFFFFFFFFFFF
310
C9744E1716171616164D8DEAFFFFFFFF0000FFFFFFFFFFFFBA161617161716FF
310
FFFFFFFFB917171616174FFFFFFFFFFFFFFF4E1716161616B9FFFFFFB9341717
310
1716171617171616268CFFFFFFFF161617161617FFFFFFFFFFFFFFB917161717
310
1617167F807F7F7F7F7F7F807F7F807F7F807F7F7F414EFFFFFFFFFFFF8C167F
310
7F807F7F7F7E7F7F807F807F7F807F4E3417258EFFFFEA4E162674AABAEAEBBA
310
AA74341680FFFFFF0000FFFFFFFFFFFFB9171717171617FFFFFFFFFFBB161616
310
16164EFFFFFFFFFFFFFF4E1717171717B9FFFF9C171617171716161616171616
310
171766FFFFFF161717161617FFFFFFFFFFFFFF8E16171717161616FFFFFFFFFF
310
FFFFFFFFFFFFFFFFFFFFFFFFFFAA16D9FFFFFFFFFF3467FFFFFFFFEAFFFFFFFF
310
FFFFFFFFFFFFFFFFFFCA671667EB26278DFFFFFFFFFFFFFFFFFFFF8C2541EAFF
310
0000FFFFFFFFFFFFB9171717171716FFFFFFFFFFBA16171617174EFFFFFFFFFF
310
FFFF4E1717161616BAFF9B1617161616171716171617161616161667FFFF1616
310
16161716FFFFFFFFFFFFFF7F16161617174017FFFFFFFFFFFFFFFFFFFFFFFFFF
310
FFFFFFFFFFFF344E7F7F7F7E7417DAFFFFFFFF80FFFFFFFFFFFFFFFFFFFFFFFF
310
FFFFFF9B163425CAFFFFFFFFFFFFFFFFFFFFFFFFCA2667FF0000FFFFFFFFFFFF
310
BA171717171617FFFFFFFFFFB916171716164EFFFFFFFFFFFFFF4F1716161717
310
B9C91716171616161716161617171616161617168DFF161716161717FFFFFFFF
310
FFFFFF7F17171716164F16FFFFFFFFFFFFFFFFFFFFFFFFFFFFFFFFFFFFFF9B16
310
17161617174EFFFFFFFFFF34FFFFFFFFD9BABABABABADAFFFFFFFFFF7F16AAFF
310
FFFFFFFFFFFFFFFFFFFFFFFFFF9C16BA0000FFFFFFFFFFFFB9161717161717FF
310
FFFFFFFFB917161716174DFFFFFFFFFFFFFF4E1616161616BA4E161617171716
310
419BEAEAAA4E16161617161726E9171717161616FFFFFFFFFFFFFF4F16161717
310
164E16FFFFFFFFFFBAB9B9B9B9B9BABABACAFFFFFFFFFFFFFFFFFFFFFFFFFFFF
310
FFFFBA16FFFFFFFF7F1617161617174DEAFFFFFFEA41FFFFFFFFFFAA4D16174E
310
9BFFFFFFFFFF34730000FFFFFFFFFFFFB9161617171617FFFFFFFFFFBA161616
310
16164EFFFFFFFFFFFFFF4F16161717169B1617161716175BFFFFFFFFFFFF7417
310
16171616168D171717161617FFFFFFFFFFFFEA2616171717167416FFFFFFFFFF
310
16171616171717171717EAFFFFFFFFFFFFFFFFFFFFFFFFFFFFFF6716FFFFFFFF
310
7F4EFFFFFFFFBA2573FFFFFFFFBAFFFFFFFFAA167FB9BB9B269BFFFFFFFF664F
310
0000FFFFFFFFFFFFB9171616161616FFFFFFFFFFBA16161717164EFFFFFFFFFF
310
FFFF4E16161616174E161617171626EAFFFFFFFFFFFFFF4E16161616164E1716
310
16161617FFFFFFFFFFFF671616161716347F16FFFFFFFFFF16B9FFFFFFFFFFFF
310
D9168DFFFFFFFFFFFFFFFFFFFFFFFFFFFFEA1716FFFFFFFF7F4EFFFFFFFFFF7F
310
4EFFFFFFFFFFFFFFFFFF5B66FFFFFFEA347FFFFFFFFF7F4D0000FFFFFFFFFFFF
310
B9171616171617FFFFFFFFFFBA17161716174EFFFFFFFFFFFFFF4D1716161617
310
17161716161673FFFFFFFFFFFFFFFF9B1617161717161616171616174F4E4E4E
310
4E341616171616167E7F16FFFFFFFFFF16BAFFFFFFFFFFFFFF5B41FFFFFFFF34
310
1616171616BAFFFFFF9B1716FFFFFFFF7F4EFFFFFFFFFF4E4EFFFFFFFF734E4E
310
4E4E267EDA9B67164EEAFFFFFFFF744D0000FFFFFFFFFFFFBA171717161617FF
310
FFFFFFFFBA1616171616347F7F7F7F80807F331616161717161717161716B9FF
310
FFFFFFFFFFFFFFE9161616161616171716161716171616161616171616171734
310
EA7F16FFFFFFFFFF16BAFFFFFFFFFFFFFFAA17C9FFFFFF7326BABA5B25FFFFFF
310
FF401716FFFFFFFF7F264F4E4E4E4217AAFFFFFFEA16677F73261616164173CA
310
FFFFFFFFFFFF417F0000FFFFFFFFFFFFBA171616171617FFFFFFFFFFBA161616
310
17171616161616161616161717161616161616161617EAFFFFFFFFFFFFFFFFFF
310
261717161716161617161616161617161617161616174EEAFF8016FFFFFFFFFF
310
17BAFFFFFFFFFFFFFFFF3467FFFFFFC916C9FF3467FFFFFFDA166716FFFFFFFF
310
9C4D4E4E4E4E67AAFFFFFFFF6834FF7F262567AAEAFFFFFFFFFFFFFFFF9B17D9
310
0000FFFFFFFFFFFFB9161616161616FFFFFFFFFFBA1617161717171616161616
310
1716171716161716161617171716FFFFFFFFFFFFFFFFFFFF4E17161716171616
310
1617171616161716171717161616169BFF7F17FFFFFFFFFF17B9FFFFFFFFFFFF
310
FFFF7326FFFFFFFF3473DA16AAFFFFFF7317AA16FFFFFFFFFFFFFFFFFFFFFFFF
310
FFFFEA6725BA4E167FEAFFFFFFFFFFFFFFFFFFFF9C167FFF0000FFFFFFFFFFFF
310
B9161717171716FFFFFFFFFFBA16161716171616171717161617161716161616
310
171617171617EAFFFFFFFFFFFFFFFFFF26161717161616161616161617171616
310
1616161616171616AA8016FFFFFFFFFF16BAFFFFFFFFFFFFFFFFDA179BFFFFFF
310
74348D26FFFFFFFF2566B917FFFFFFFFD8BAB9BAB9BADAFFFFEA41169B7425C9
310
FFFFFFFFFFFFFFFFFFFFAB4F1680FFFF0000FFFFFFFFFFFFBA161717171617FF
310
FFFFFFFFBA17161717161617171617161616161617171616171716171617BBFF
310
FFFFFFFFFFFFFFE9171616161617161617161716FFFFFFFFFFD9671616161617
310
348017FFFFFFFFFF16BAFFFFFFFFFFFFFFFFFF4E5AFFFFFFC916265AFFFFFFAA
310
16AABA16FFFFFFFF7F1617161616179BFFFFEB4127168DFFFFFFFFFFFFFFD99B
310
6734175AC9FFFFFF0000FFFFFFFFFFFFB9161617171617FFFFFFFFFFBB161616
310
1616347F807F7F7F7F8033171716171617171616161672FFFFFFFFFFFFFFFF9C
310
171617171617161716161617FFFFFFFFFFFFFF4117161616174E17FFFFFFFFFF
310
16BAFFFFFFFFFFFFFFFFFF9B16DAFFFFFF34169BFFFFFF5A26FFB917FFFFFFFF
310
7F4EFFFFFFEA5B26FFFFFFEA2616EAFFFFFFFFDA743416331617414E4E4E4ECA
310
0000FFFFFFFFFFFFBA161716161616FFFFFFFFFFBA17171616164EFFFFFFFFFF
310
FFFF4E16161717174E161717171626EBFFFFFFFFFFFFFF4E16161617165B1616
310
16171617FFFFFFFFFFFFFF6716161616161617FFFFFFFFFF16BAFFFFFFFFFFFF
310
FFFFFFEA268CFFFFFF7316EAFFFFEB1774FFB916FFFFFFFF7F4EFFFFFFFF7316
310
FFFFFFFF6826FFFFFFFFEB264D9CEABA257F807F7F6616BA0000FFFFFFFFFFFF
310
BA161716161616FFFFFFFFFFBA16171616164DFFFFFFFFFFFFFF4E1617161617
310
9B1617171717165BEBFFFFFFFFFF671616161617179B171616161616FFFFFFFF
310
FFFFFF3417161617171617FFFFFFFFFF17BAFFFFFFFFFFFFFFFFFFFF6734FFFF
310
FFEBCAFFFFFF8D17C9FFBA17FFFFFFFF7F357F808066174FFFFFFFFF7F16FFFF
310
FFFFD91673B99B415BFFFFFFFFBA16DA00009B7F7F7F807F671617161616167F
310
80807F7E6617161616164EFFFFFFFFFFFFFF4E1616161617B94E171716161616
310
349BC9D9AA4E16171616161634FF161617161717B9B9BAB9BA9B411716171716
310
163416FFFFFFFFFF16B9FFFFFFFFFFFFFFFFFFFFC917CAFFFFFFFFFFFFFF3342
310
FFFFBA17FFFFFFFF9B4E4E4F4E4E66EAFFFFFFFF5B16C9FFFFFFFFAA4E164E73
310
EAFFFFFFFF8D26FF00004E161716161616171617171616171717171617161616
310
17174EFFFFFFFFFFFFFF4E1717171616B9D92616171716171716171717171716
310
16171716AAFF161717171617161617171616161617161716166717FFFFFFFFFF
310
17B9FFFFFFFFFFFFFFFFFFFFFF3467FFFFFFFFFFFFCA168CFFFFBB17FFFFFFFF
310
FFFFFFFFFFFFFFFFFFFFFFEA26265BFFFFFFFFFFFFFFFFFFFFFFFFFFEA3467FF
310
00004D16161616161617161717161617161616171617171616164EFFFFFFFFFF
310
FFFF4D1617161616BAFF9B1616161616161716161616171717161766FFFF1616
310
16171617161617161716171616171717667F16FFFFFFFFFF17BAFFFFFFFFFFFF
310
FFFFFFFFFF8C26EAFFFFFFFFFF6617EAFFFFBA17FFFFFFFFFFFFFFFFFFFFFFFF
310
FFFFEA5A25BA269BFFFFFFFFFFFFFFFFFFFFFFFF6616DAFF00004E1616171616
310
1616161616161716161617171616171616174EFFFFFFFFFFFFFF4D1717171716
310
B9FFFF9C161616161616161716161717171667FFFFFF17161717171716161617
310
1716161616161641E97E16FFFFFFFFFF16B9FFFFFFFFFFFFFFFFFFFFFFEA169B
310
FFFFFFFFEA265BFFFFFFB916FFFFFFFFFFFFFFFFFFFFFFFFFF9B3416AAFF9B17
310
67EAFFFFFFFFFFFFFFFFEA5B169BFFFF00004D17161716161616161717171616
310
161717161716171716174EFFFFFFFFFFFFFF4D1616161616BAFFFFFFBB411616
310
161716161616171634ABFFFFFFFF161716161617171716171617171617267FFF
310
FF7F164E4E4E4E4F17BAFFFFFFFFFFFFFFFFFFFFFFFF66344D4E4E4F4117AAFF
310
FFFFBA174E4E4E4D4E4D4D4E4E4E4E4116174EBBFFFFFFCA342666ABEAFFFFEA
310
AA6725269CFFFFFF0000724F4E4D4D4D4E4D4D4E4E4E4D4E4E4E4E4E4E4E4E4D
310
4E4E74FFFFFFFFFFFFFF734E4E4E4D4ECAFFFFFFFFFFAA663416171717265B9B
310
FFFFFFFFFFFF7F8080807F80807F7F7F7F7F807FBAFFFFFFFF9B4E4E4F4D4D4E
310
4DC9FFFFFFFFFFFFFFFFFFFFFFFFBA4E4E4E4E4D4E4EFFFFFFFFC94E4E4E4F4E
310
4E4E4D4E4E5A807F9CD9FFFFFFFFFFFFFF9B5B2617171716174E8DEAFFFFFFFF
310
0000000000000000000000000000000000000000000000000000000000000000
  1
OLE
  0
ENDSEC
  0
SECTION
  2
OBJECTS
  0
DICTIONARY
  5
C
330
0
100
AcDbDictionary
281
     1
  3
ACAD_GROUP
350
D
  3
ACAD_LAYOUT
350
1A
  3
ACAD_MLINESTYLE
350
17
  3
ACAD_PLOTSETTINGS
350
19
  3
ACAD_PLOTSTYLENAME
350
E
  0
DICTIONARY
  5
D
102
{ACAD_REACTORS
330
C
102
}
330
C
100
AcDbDictionary
281
     1
  0
DICTIONARY
  5
1A
102
{ACAD_REACTORS
330
C
102
}
330
C
100
AcDbDictionary
281
     1
  3
Layout1
350
1E
  3
Layout2
350
26
  3
Model
350
22
  0
DICTIONARY
  5
17
102
{ACAD_REACTORS
330
C
102
}
330
C
100
AcDbDictionary
281
     1
  3
Standard
350
18
  0
DICTIONARY
  5
19
102
{ACAD_REACTORS
330
C
102
}
330
C
100
AcDbDictionary
281
     1
  0
ACDBDICTIONARYWDFLT
  5
E
102
{ACAD_REACTORS
330
C
102
}
330
C
100
AcDbDictionary
281
     1
  3
Normal
350
F
100
AcDbDictionaryWithDefault
340
F
  0
LAYOUT
  5
1E
102
{ACAD_REACTORS
330
1A
102
}
330
1A
100
AcDbPlotSettings
  1

  2
none_device
  4

  6

 40
0.0
 41
0.0
 42
0.0
 43
0.0
 44
0.0
 45
0.0
 46
0.0
 47
0.0
 48
0.0
 49
0.0
140
0.0
141
0.0
142
1.0
143
1.0
 70
   688
 72
     0
 73
     0
 74
     5
  7

 75
    16
147
1.0
148
0.0
149
0.0
100
AcDbLayout
  1
Layout1
 70
     1
 71
     1
 10
0.0
 20
0.0
 11
420.0
 21
297.0
 12
0.0
 22
0.0
 32
0.0
 14
1.0000000000E+20
 24
1.0000000000E+20
 34
1.0000000000E+20
 15
-1.0000000000E+20
 25
-1.0000000000E+20
 35
-1.0000000000E+20
146
0.0
 13
0.0
 23
0.0
 33
0.0
 16
1.0
 26
0.0
 36
0.0
 17
0.0
 27
1.0
 37
0.0
 76
     0
330
1B
  0
LAYOUT
  5
26
102
{ACAD_REACTORS
330
1A
102
}
330
1A
100
AcDbPlotSettings
  1

  2
none_device
  4

  6

 40
0.0
 41
0.0
 42
0.0
 43
0.0
 44
0.0
 45
0.0
 46
0.0
 47
0.0
 48
0.0
 49
0.0
140
0.0
141
0.0
142
1.0
143
1.0
 70
   688
 72
     0
 73
     0
 74
     5
  7

 75
    16
147
1.0
148
0.0
149
0.0
100
AcDbLayout
  1
Layout2
 70
     1
 71
     2
 10
0.0
 20
0.0
 11
0.0
 21
0.0
 12
0.0
 22
0.0
 32
0.0
 14
0.0
 24
0.0
 34
0.0
 15
0.0
 25
0.0
 35
0.0
146
0.0
 13
0.0
 23
0.0
 33
0.0
 16
1.0
 26
0.0
 36
0.0
 17
0.0
 27
1.0
 37
0.0
 76
     0
330
23
  0
LAYOUT
  5
22
102
{ACAD_REACTORS
330
1A
102
}
330
1A
100
AcDbPlotSettings
  1

  2
none_device
  4

  6

 40
0.0
 41
0.0
 42
0.0
 43
0.0
 44
0.0
 45
0.0
 46
0.0
 47
0.0
 48
0.0
 49
0.0
140
0.0
141
0.0
142
1.0
143
1.0
 70
  1712
 72
     0
 73
     0
 74
     0
  7

 75
     0
147
1.0
148
0.0
149
0.0
100
AcDbLayout
  1
Model
 70
     1
 71
     0
 10
0.0
 20
0.0
 11
279.4
 21
215.9
 12
0.0
 22
0.0
 32
0.0
 14
0.0
 24
0.0
 34
0.0
 15
279.4
 25
215.9
 35
0.0
146
0.0
 13
0.0
 23
0.0
 33
0.0
 16
1.0
 26
0.0
 36
0.0
 17
0.0
 27
1.0
 37
0.0
 76
     0
330
1F
331
29
  0
MLINESTYLE
  5
18
102
{ACAD_REACTORS
330
17
102
}
330
17
100
AcDbMlineStyle
  2
Standard
 70
     0
  3

 62
   256
 51
90.0
 52
90.0
 71
     2
 49
0.5
 62
   256
  6
BYLAYER
 49
-0.5
 62
   256
  6
BYLAYER
  0
ACDBPLACEHOLDER
  5
F
102
{ACAD_REACTORS
330
E
102
}
330
E
  0
ENDSEC
  0
EOF
