  0
SECTION
  2
HEADER
  9
$ACADVER
  1
AC1015
  9
$ACADMAINTVER
 70
     6
  9
$DWGCODEPAGE
  3
ANSI_1252
  9
$INSBASE
 10
0.0
 20
0.0
 30
0.0
  9
$EXTMIN
 10
0.0
 20
0.0
 30
0.0
  9
$EXTMAX
 10
17.0
 20
11.0
 30
0.0
  9
$LIMMIN
 10
0.0
 20
0.0
  9
$LIMMAX
 10
0.0
 20
0.0
  9
$ORTHOMODE
 70
     0
  9
$REGENMODE
 70
     1
  9
$FILLMODE
 70
     1
  9
$QTEXTMODE
 70
     0
  9
$MIRRTEXT
 70
     1
  9
$LTSCALE
 40
1.0
  9
$ATTMODE
 70
     1
  9
$TEXTSIZE
 40
0.1388888889
  9
$TRACEWID
 40
0.05
  9
$TEXTSTYLE
  7
Standard
  9
$CLAYER
  8
0
  9
$CELTYPE
  6
ByLayer
  9
$CECOLOR
 62
   256
  9
$CELTSCALE
 40
1.0
  9
$DISPSILH
 70
     0
  9
$DIMSCALE
 40
1.0
  9
$DIMASZ
 40
0.156
  9
$DIMEXO
 40
0.05
  9
$DIMDLI
 40
0.38
  9
$DIMRND
 40
0.0
  9
$DIMDLE
 40
0.0
  9
$DIMEXE
 40
0.125
  9
$DIMTP
 40
0.0
  9
$DIMTM
 40
0.0
  9
$DIMTXT
 40
0.1388888889
  9
$DIMCEN
 40
0.09
  9
$DIMTSZ
 40
0.0
  9
$DIMTOL
 70
     0
  9
$DIMLIM
 70
     0
  9
$DIMTIH
 70
     1
  9
$DIMTOH
 70
     1
  9
$DIMSE1
 70
     0
  9
$DIMSE2
 70
     0
  9
$DIMTAD
 70
     0
  9
$DIMZIN
 70
     0
  9
$DIMBLK
  1

  9
$DIMASO
 70
     1
  9
$DIMSHO
 70
     1
  9
$DIMPOST
  1

  9
$DIMAPOST
  1

  9
$DIMALT
 70
     0
  9
$DIMALTD
 70
     2
  9
$DIMALTF
 40
25.4
  9
$DIMLFAC
 40
2.0
  9
$DIMTOFL
 70
     0
  9
$DIMTVP
 40
0.0
  9
$DIMTIX
 70
     0
  9
$DIMSOXD
 70
     0
  9
$DIMSAH
 70
     0
  9
$DIMBLK1
  1

  9
$DIMBLK2
  1

  9
$DIMSTYLE
  2
Standard
  9
$DIMCLRD
 70
     0
  9
$DIMCLRE
 70
     0
  9
$DIMCLRT
 70
     0
  9
$DIMTFAC
 40
1.0
  9
$DIMGAP
 40
0.06
  9
$DIMJUST
 70
     0
  9
$DIMSD1
 70
     0
  9
$DIMSD2
 70
     0
  9
$DIMTOLJ
 70
     1
  9
$DIMTZIN
 70
     0
  9
$DIMALTZ
 70
     0
  9
$DIMALTTZ
 70
     0
  9
$DIMUPT
 70
     0
  9
$DIMDEC
 70
     4
  9
$DIMTDEC
 70
     4
  9
$DIMALTU
 70
     2
  9
$DIMALTTD
 70
     2
  9
$DIMTXSTY
  7
Standard
  9
$DIMAUNIT
 70
     0
  9
$DIMADEC
 70
     0
  9
$DIMALTRND
 40
0.0
  9
$DIMAZIN
 70
     0
  9
$DIMDSEP
 70
    46
  9
$DIMATFIT
 70
     3
  9
$DIMFRAC
 70
     0
  9
$DIMLDRBLK
  1

  9
$DIMLUNIT
 70
     2
  9
$DIMLWD
 70
    -2
  9
$DIMLWE
 70
    -2
  9
$DIMTMOVE
 70
     0
  9
$LUNITS
 70
     2
  9
$LUPREC
 70
     2
  9
$SKETCHINC
 40
0.1
  9
$FILLETRAD
 40
0.5
  9
$AUNITS
 70
     0
  9
$AUPREC
 70
     0
  9
$MENU
  1
.
  9
$ELEVATION
 40
0.0
  9
$PELEVATION
 40
0.0
  9
$THICKNESS
 40
0.0
  9
$LIMCHECK
 70
     0
  9
$CHAMFERA
 40
0.5
  9
$CHAMFERB
 40
0.5
  9
$CHAMFERC
 40
1.0
  9
$CHAMFERD
 40
0.0
  9
$SKPOLY
 70
     0
  9
$TDCREATE
 40
2454805.309866528
  9
$TDUCREATE
 40
2454805.518199861
  9
$TDUPDATE
 40
2454805.309866539
  9
$TDUUPDATE
 40
2454805.518199873
  9
$TDINDWG
 40
0.0000000116
  9
$TDUSRTIMER
 40
0.0000000116
  9
$USRTIMER
 70
     1
  9
$ANGBASE
 50
0.0
  9
$ANGDIR
 70
     0
  9
$PDMODE
 70
     0
  9
$PDSIZE
 40
-1.0
  9
$PLINEWID
 40
0.0
  9
$SPLFRAME
 70
     0
  9
$SPLINETYPE
 70
     6
  9
$SPLINESEGS
 70
     8
  9
$HANDSEED
  5
4A6
  9
$SURFTAB1
 70
     6
  9
$SURFTAB2
 70
     6
  9
$SURFTYPE
 70
     6
  9
$SURFU
 70
     6
  9
$SURFV
 70
     6
  9
$UCSBASE
  2

  9
$UCSNAME
  2

  9
$UCSORG
 10
0.0
 20
0.0
 30
0.0
  9
$UCSXDIR
 10
1.0
 20
0.0
 30
0.0
  9
$UCSYDIR
 10
0.0
 20
1.0
 30
0.0
  9
$UCSORTHOREF
  2

  9
$UCSORTHOVIEW
 70
     0
  9
$UCSORGTOP
 10
0.0
 20
0.0
 30
0.0
  9
$UCSORGBOTTOM
 10
0.0
 20
0.0
 30
0.0
  9
$UCSORGLEFT
 10
0.0
 20
0.0
 30
0.0
  9
$UCSORGRIGHT
 10
0.0
 20
0.0
 30
0.0
  9
$UCSORGFRONT
 10
0.0
 20
0.0
 30
0.0
  9
$UCSORGBACK
 10
0.0
 20
0.0
 30
0.0
  9
$PUCSBASE
  2

  9
$PUCSNAME
  2

  9
$PUCSORG
 10
0.0
 20
0.0
 30
0.0
  9
$PUCSXDIR
 10
1.0
 20
0.0
 30
0.0
  9
$PUCSYDIR
 10
0.0
 20
1.0
 30
0.0
  9
$PUCSORTHOREF
  2

  9
$PUCSORTHOVIEW
 70
     0
  9
$PUCSORGTOP
 10
0.0
 20
0.0
 30
0.0
  9
$PUCSORGBOTTOM
 10
0.0
 20
0.0
 30
0.0
  9
$PUCSORGLEFT
 10
0.0
 20
0.0
 30
0.0
  9
$PUCSORGRIGHT
 10
0.0
 20
0.0
 30
0.0
  9
$PUCSORGFRONT
 10
0.0
 20
0.0
 30
0.0
  9
$PUCSORGBACK
 10
0.0
 20
0.0
 30
0.0
  9
$USERI1
 70
     0
  9
$USERI2
 70
     0
  9
$USERI3
 70
     0
  9
$USERI4
 70
     0
  9
$USERI5
 70
     0
  9
$USERR1
 40
0.0
  9
$USERR2
 40
0.0
  9
$USERR3
 40
0.0
  9
$USERR4
 40
0.0
  9
$USERR5
 40
0.0
  9
$WORLDVIEW
 70
     1
  9
$SHADEDGE
 70
     3
  9
$SHADEDIF
 70
    70
  9
$TILEMODE
 70
     1
  9
$MAXACTVP
 70
    64
  9
$PINSBASE
 10
0.0
 20
0.0
 30
0.0
  9
$PLIMCHECK
 70
     0
  9
$PEXTMIN
 10
1.0000000000E+20
 20
1.0000000000E+20
 30
1.0000000000E+20
  9
$PEXTMAX
 10
-1.0000000000E+20
 20
-1.0000000000E+20
 30
-1.0000000000E+20
  9
$PLIMMIN
 10
0.0
 20
0.0
  9
$PLIMMAX
 10
12.0
 20
9.0
  9
$UNITMODE
 70
     0
  9
$VISRETAIN
 70
     1
  9
$PLINEGEN
 70
     0
  9
$PSLTSCALE
 70
     1
  9
$TREEDEPTH
 70
  3020
  9
$CMLSTYLE
  2
Standard
  9
$CMLJUST
 70
     0
  9
$CMLSCALE
 40
1.0
  9
$PROXYGRAPHICS
 70
     1
  9
$MEASUREMENT
 70
     0
  9
$CELWEIGHT
370
    -1
  9
$ENDCAPS
280
     0
  9
$JOINSTYLE
280
     0
  9
$LWDISPLAY
290
     1
  9
$INSUNITS
 70
     1
  9
$HYPERLINKBASE
  1

  9
$STYLESHEET
  1

  9
$XEDIT
290
     1
  9
$CEPSNTYPE
380
     0
  9
$PSTYLEMODE
290
     1
  9
$FINGERPRINTGUID
  2
{D45CDA59-EC68-455E-A26F-0CAA24FD03EA}
  9
$VERSIONGUID
  2
{FAEB1C32-E019-11D5-929B-00C0DF256EC4}
  9
$EXTNAMES
290
     1
  9
$PSVPSCALE
 40
0.0
  9
$OLESTARTUP
290
     0
  0
ENDSEC
  0
SECTION
  2
CLASSES
  0
CLASS
  1
ACDBDICTIONARYWDFLT
  2
AcDbDictionaryWithDefault
  3
ObjectDBX Classes
 90
        0
280
     0
281
     0
  0
CLASS
  1
ACDBPLACEHOLDER
  2
AcDbPlaceHolder
  3
ObjectDBX Classes
 90
        0
280
     0
281
     0
  0
CLASS
  1
LAYOUT
  2
AcDbLayout
  3
ObjectDBX Classes
 90
        0
280
     0
281
     0
  0
ENDSEC
  0
SECTION
  2
TABLES
  0
TABLE
  2
VPORT
  5
8
330
0
100
AcDbSymbolTable
 70
     1
  0
VPORT
  5
29
330
8
100
AcDbSymbolTableRecord
100
AcDbViewportTableRecord
  2
*Active
 70
     0
 10
0.0
 20
0.0
 11
1.0
 21
1.0
 12
8.5
 22
5.5
 13
0.0
 23
0.0
 14
0.5
 24
0.5
 15
0.5
 25
0.5
 16
0.0
 26
0.0
 36
1.0
 17
0.0
 27
0.0
 37
0.0
 40
11.0
 41
1.5454545455
 42
50.0
 43
0.0
 44
0.0
 50
0.0
 51
0.0
 71
     0
 72
  2000
 73
     1
 74
     3
 75
     0
 76
     0
 77
     0
 78
     0
281
     0
 65
     1
110
0.0
120
0.0
130
0.0
111
1.0
121
0.0
131
0.0
112
0.0
122
1.0
132
0.0
 79
     0
146
0.0
  0
ENDTAB
  0
TABLE
  2
LTYPE
  5
5
330
0
100
AcDbSymbolTable
 70
     6
  0
LTYPE
  5
14
330
5
100
AcDbSymbolTableRecord
100
AcDbLinetypeTableRecord
  2
ByBlock
 70
     0
  3

 72
    65
 73
     0
 40
0.0
  0
LTYPE
  5
15
330
5
100
AcDbSymbolTableRecord
100
AcDbLinetypeTableRecord
  2
ByLayer
 70
     0
  3

 72
    65
 73
     0
 40
0.0
  0
LTYPE
  5
16
330
5
100
AcDbSymbolTableRecord
100
AcDbLinetypeTableRecord
  2
Continuous
 70
     0
  3
Solid line
 72
    65
 73
     0
 40
0.0
  0
LTYPE
  5
2A
330
5
100
AcDbSymbolTableRecord
100
AcDbLinetypeTableRecord
  2
HIDDEN
 70
     0
  3
Hidden __ __ __ __ __ __ __ __ __ __ __ __ __ __
 72
    65
 73
     2
 40
0.075
 49
0.05
 74
     0
 49
-0.025
 74
     0
  0
LTYPE
  5
2B
330
5
100
AcDbSymbolTableRecord
100
AcDbLinetypeTableRecord
  2
PHANTOM
 70
     0
  3
Phantom ______  __  __  ______  __  __  ______
 72
    65
 73
     6
 40
0.5
 49
0.25
 74
     0
 49
-0.05
 74
     0
 49
0.05
 74
     0
 49
-0.05
 74
     0
 49
0.05
 74
     0
 49
-0.05
 74
     0
  0
LTYPE
  5
2C
330
5
100
AcDbSymbolTableRecord
100
AcDbLinetypeTableRecord
  2
CENTER
 70
     0
  3
Center ____ _ ____ _ ____ _ ____ _ ____ _ ____
 72
    65
 73
     4
 40
0.4
 49
0.25
 74
     0
 49
-0.05
 74
     0
 49
0.05
 74
     0
 49
-0.05
 74
     0
  0
LTYPE
  5
2D
330
5
100
AcDbSymbolTableRecord
100
AcDbLinetypeTableRecord
  2
CENTERX2
 70
     0
  3
Center (2x) ________  __  ________  __  _____
 72
    65
 73
     4
 40
0.8
 49
0.5
 74
     0
 49
-0.1
 74
     0
 49
0.1
 74
     0
 49
-0.1
 74
     0
  0
LTYPE
  5
2E
330
5
100
AcDbSymbolTableRecord
100
AcDbLinetypeTableRecord
  2
DOT2
 70
     0
  3
Dot (.5x) ........................................
 72
    65
 73
     2
 40
0.025
 49
0.0
 74
     0
 49
-0.025
 74
     0
  0
ENDTAB
  0
TABLE
  2
LAYER
  5
2
330
0
100
AcDbSymbolTable
 70
     2
  0
LAYER
  5
10
330
2
100
AcDbSymbolTableRecord
100
AcDbLayerTableRecord
  2
0
 70
     0
 62
     7
  6
Continuous
370
    -3
390
F
  0
LAYER
  5
2F
330
2
100
AcDbSymbolTableRecord
100
AcDbLayerTableRecord
  2
FORMAT
 70
     0
 62
     7
  6
Continuous
370
    -3
390
F
  0
ENDTAB
  0
TABLE
  2
STYLE
  5
3
330
0
100
AcDbSymbolTable
 70
    20
  0
STYLE
  5
11
330
3
100
AcDbSymbolTableRecord
100
AcDbTextStyleTableRecord
  2
Standard
 70
     0
 40
0.0
 41
1.0
 50
0.0
 71
     0
 42
0.2
  3
txt
  4

  0
STYLE
  5
6B
330
3
100
AcDbSymbolTableRecord
100
AcDbTextStyleTableRecord
  2
SLDTEXTSTYLE0
 70
     0
 40
0.0
 41
0.75
 50
0.0
 71
     0
 42
0.2
  3
TXT
  4

  0
STYLE
  5
87
330
3
100
AcDbSymbolTableRecord
100
AcDbTextStyleTableRecord
  2
SLDTEXTSTYLE1
 70
     0
 40
0.0
 41
0.7016129032
 50
0.0
 71
     0
 42
0.2
  3
TXT
  4

  0
STYLE
  5
89
330
3
100
AcDbSymbolTableRecord
100
AcDbTextStyleTableRecord
  2
SLDTEXTSTYLE2
 70
     0
 40
0.0
 41
0.6853448276
 50
0.0
 71
     0
 42
0.2
  3
TXT
  4

  0
STYLE
  5
8B
330
3
100
AcDbSymbolTableRecord
100
AcDbTextStyleTableRecord
  2
SLDTEXTSTYLE3
 70
     0
 40
0.0
 41
0.7
 50
0.0
 71
     0
 42
0.2
  3
TXT
  4

  0
STYLE
  5
8D
330
3
100
AcDbSymbolTableRecord
100
AcDbTextStyleTableRecord
  2
SLDTEXTSTYLE4
 70
     0
 40
0.0
 41
0.6513157895
 50
0.0
 71
     0
 42
0.2
  3
TXT
  4

  0
STYLE
  5
90
330
3
100
AcDbSymbolTableRecord
100
AcDbTextStyleTableRecord
  2
SLDTEXTSTYLE5
 70
     0
 40
0.0
 41
0.7083333333
 50
0.0
 71
     0
 42
0.2
  3
TXT
  4

  0
STYLE
  5
93
330
3
100
AcDbSymbolTableRecord
100
AcDbTextStyleTableRecord
  2
SLDTEXTSTYLE6
 70
     0
 40
0.0
 41
0.7211538462
 50
0.0
 71
     0
 42
0.2
  3
TXT
  4

  0
STYLE
  5
9C
330
3
100
AcDbSymbolTableRecord
100
AcDbTextStyleTableRecord
  2
SLDTEXTSTYLE7
 70
     0
 40
0.0
 41
0.6428571429
 50
0.0
 71
     0
 42
0.2
  3
TXT
  4

  0
STYLE
  5
A0
330
3
100
AcDbSymbolTableRecord
100
AcDbTextStyleTableRecord
  2
SLDTEXTSTYLE8
 70
     0
 40
0.0
 41
0.6375
 50
0.0
 71
     0
 42
0.2
  3
TXT
  4

  0
STYLE
  5
AF
330
3
100
AcDbSymbolTableRecord
100
AcDbTextStyleTableRecord
  2
SLDTEXTSTYLE9
 70
     0
 40
0.0
 41
0.7105263158
 50
0.0
 71
     0
 42
0.2
  3
TXT
  4

  0
STYLE
  5
B5
330
3
100
AcDbSymbolTableRecord
100
AcDbTextStyleTableRecord
  2
SLDTEXTSTYLE10
 70
     0
 40
0.0
 41
0.65625
 50
0.0
 71
     0
 42
0.2
  3
TXT
  4

  0
STYLE
  5
BE
330
3
100
AcDbSymbolTableRecord
100
AcDbTextStyleTableRecord
  2
SLDTEXTSTYLE11
 70
     0
 40
0.0
 41
0.703125
 50
0.0
 71
     0
 42
0.2
  3
TXT
  4

  0
STYLE
  5
C0
330
3
100
AcDbSymbolTableRecord
100
AcDbTextStyleTableRecord
  2
SLDTEXTSTYLE12
 70
     0
 40
0.0
 41
0.7142857143
 50
0.0
 71
     0
 42
0.2
  3
TXT
  4

  0
STYLE
  5
C2
330
3
100
AcDbSymbolTableRecord
100
AcDbTextStyleTableRecord
  2
SLDTEXTSTYLE13
 70
     0
 40
0.0
 41
0.7115384615
 50
0.0
 71
     0
 42
0.2
  3
TXT
  4

  0
STYLE
  5
C5
330
3
100
AcDbSymbolTableRecord
100
AcDbTextStyleTableRecord
  2
SLDTEXTSTYLE14
 70
     0
 40
0.0
 41
0.6796875
 50
0.0
 71
     0
 42
0.2
  3
TXT
  4

  0
STYLE
  5
CA
330
3
100
AcDbSymbolTableRecord
100
AcDbTextStyleTableRecord
  2
SLDTEXTSTYLE15
 70
     0
 40
0.0
 41
0.705
 50
0.0
 71
     0
 42
0.2
  3
TXT
  4

  0
STYLE
  5
46E
330
3
100
AcDbSymbolTableRecord
100
AcDbTextStyleTableRecord
  2
SLDTEXTSTYLE16
 70
     0
 40
0.0
 41
0.675
 50
0.0
 71
     0
 42
0.2
  3
TXT
  4

  0
STYLE
  5
470
330
3
100
AcDbSymbolTableRecord
100
AcDbTextStyleTableRecord
  2
SLDTEXTSTYLE17
 70
     0
 40
0.0
 41
0.625
 50
0.0
 71
     0
 42
0.2
  3
TXT
  4

  0
STYLE
  5
476
330
3
100
AcDbSymbolTableRecord
100
AcDbTextStyleTableRecord
  2
SLDTEXTSTYLE18
 70
     0
 40
0.0
 41
0.6875
 50
0.0
 71
     0
 42
0.2
  3
TXT
  4

  0
ENDTAB
  0
TABLE
  2
VIEW
  5
6
330
0
100
AcDbSymbolTable
 70
     0
  0
ENDTAB
  0
TABLE
  2
UCS
  5
7
330
0
100
AcDbSymbolTable
 70
     0
  0
ENDTAB
  0
TABLE
  2
APPID
  5
9
330
0
100
AcDbSymbolTable
 70
     1
  0
APPID
  5
12
330
9
100
AcDbSymbolTableRecord
100
AcDbRegAppTableRecord
  2
ACAD
 70
     0
  0
ENDTAB
  0
TABLE
  2
DIMSTYLE
  5
A
330
0
100
AcDbSymbolTable
 70
     6
100
AcDbDimStyleTable
  0
DIMSTYLE
105
27
330
A
100
AcDbSymbolTableRecord
100
AcDbDimStyleTableRecord
  2
Standard
 70
     0
340
11
  0
DIMSTYLE
105
FD
102
{ACAD_REACTORS
330
FC
102
}
330
A
100
AcDbSymbolTableRecord
100
AcDbDimStyleTableRecord
  2
SLDDIMSTYLE0
 70
     0
 41
0.156
 44
0.0
 78
     4
140
0.1041666667
147
0.0260416667
170
     1
172
     1
173
     1
271
     2
272
     2
284
    12
340
6B
  0
DIMSTYLE
105
3EB
102
{ACAD_REACTORS
330
3EA
330
3FD
330
40F
330
421
330
446
102
}
330
A
100
AcDbSymbolTableRecord
100
AcDbDimStyleTableRecord
  2
SLDDIMSTYLE1
 70
     0
 41
0.156
 44
0.0
 78
    12
140
0.1041666667
147
0.0260416667
170
     1
173
     1
271
     2
272
     2
284
    12
340
6B
  0
DIMSTYLE
105
434
102
{ACAD_REACTORS
330
433
102
}
330
A
100
AcDbSymbolTableRecord
100
AcDbDimStyleTableRecord
  2
SLDDIMSTYLE2
 70
     0
 41
0.156
 44
0.0
 78
     8
140
0.1041666667
147
0.0260416667
170
     1
173
     1
271
     2
272
     2
284
    12
340
6B
  0
DIMSTYLE
105
459
102
{ACAD_REACTORS
330
458
102
}
330
A
100
AcDbSymbolTableRecord
100
AcDbDimStyleTableRecord
  2
SLDDIMSTYLE3
 70
     0
 41
0.156
 44
0.0
140
0.1041666667
147
0.0260416667
170
     1
173
     1
271
     2
272
     2
284
    12
340
6B
  0
DIMSTYLE
105
47A
330
A
100
AcDbSymbolTableRecord
100
AcDbDimStyleTableRecord
  2
SLDDIMSTYLE4
 70
     0
 41
0.156
 44
0.0
140
0.156
147
0.039
173
     1
271
     0
272
     0
340
11
  0
ENDTAB
  0
TABLE
  2
BLOCK_RECORD
  5
1
330
0
100
AcDbSymbolTable
 70
    20
  0
BLOCK_RECORD
  5
1F
330
1
100
AcDbSymbolTableRecord
100
AcDbBlockTableRecord
  2
*Model_Space
340
22
  0
BLOCK_RECORD
  5
1B
330
1
100
AcDbSymbolTableRecord
100
AcDbBlockTableRecord
  2
*Paper_Space
340
1E
  0
BLOCK_RECORD
  5
23
330
1
100
AcDbSymbolTableRecord
100
AcDbBlockTableRecord
  2
*Paper_Space0
340
26
  0
BLOCK_RECORD
  5
84
330
1
100
AcDbSymbolTableRecord
100
AcDbBlockTableRecord
  2
SW_NOTE_0
340
0
102
{BLKREFS
331
92
102
}
1001
ACAD
1000
DesignCenter Data
1002
{
1070
     1
1070
     0
1002
}
  0
BLOCK_RECORD
  5
B2
330
1
100
AcDbSymbolTableRecord
100
AcDbBlockTableRecord
  2
SW_NOTE_1
340
0
102
{BLKREFS
331
B8
102
}
1001
ACAD
1000
DesignCenter Data
1002
{
1070
     1
1070
     0
1002
}
  0
BLOCK_RECORD
  5
B9
330
1
100
AcDbSymbolTableRecord
100
AcDbBlockTableRecord
  2
SW_NOTE_2
340
0
102
{BLKREFS
331
CC
102
}
1001
ACAD
1000
DesignCenter Data
1002
{
1070
     1
1070
     0
1002
}
  0
BLOCK_RECORD
  5
CD
330
1
100
AcDbSymbolTableRecord
100
AcDbBlockTableRecord
  2
SW_TABLEANNOTATION_0
340
0
102
{BLKREFS
331
E9
102
}
1001
ACAD
1000
DesignCenter Data
1002
{
1070
     1
1070
     0
1002
}
  0
BLOCK_RECORD
  5
FE
330
1
100
AcDbSymbolTableRecord
100
AcDbBlockTableRecord
  2
*D5
340
0
  0
BLOCK_RECORD
  5
3EC
330
1
100
AcDbSymbolTableRecord
100
AcDbBlockTableRecord
  2
*D6
340
0
  0
BLOCK_RECORD
  5
3FE
330
1
100
AcDbSymbolTableRecord
100
AcDbBlockTableRecord
  2
*D7
340
0
  0
BLOCK_RECORD
  5
410
330
1
100
AcDbSymbolTableRecord
100
AcDbBlockTableRecord
  2
*D8
340
0
  0
BLOCK_RECORD
  5
422
330
1
100
AcDbSymbolTableRecord
100
AcDbBlockTableRecord
  2
*D9
340
0
  0
BLOCK_RECORD
  5
435
330
1
100
AcDbSymbolTableRecord
100
AcDbBlockTableRecord
  2
*D10
340
0
  0
BLOCK_RECORD
  5
447
330
1
100
AcDbSymbolTableRecord
100
AcDbBlockTableRecord
  2
*D11
340
0
  0
BLOCK_RECORD
  5
45A
330
1
100
AcDbSymbolTableRecord
100
AcDbBlockTableRecord
  2
*D12
340
0
  0
BLOCK_RECORD
  5
46B
330
1
100
AcDbSymbolTableRecord
100
AcDbBlockTableRecord
  2
SW_NOTE_3
340
0
102
{BLKREFS
331
472
102
}
1001
ACAD
1000
DesignCenter Data
1002
{
1070
     1
1070
     0
1002
}
  0
BLOCK_RECORD
  5
473
330
1
100
AcDbSymbolTableRecord
100
AcDbBlockTableRecord
  2
SW_NOTE_4
340
0
102
{BLKREFS
331
479
102
}
1001
ACAD
1000
DesignCenter Data
1002
{
1070
     1
1070
     0
1002
}
  0
BLOCK_RECORD
  5
47D
330
1
100
AcDbSymbolTableRecord
100
AcDbBlockTableRecord
  2
SW_NOTE_5
340
0
102
{BLKREFS
331
482
102
}
1001
ACAD
1000
DesignCenter Data
1002
{
1070
     1
1070
     0
1002
}
  0
BLOCK_RECORD
  5
484
330
1
100
AcDbSymbolTableRecord
100
AcDbBlockTableRecord
  2
SW_NOTE_6
340
0
102
{BLKREFS
331
489
102
}
1001
ACAD
1000
DesignCenter Data
1002
{
1070
     1
1070
     0
1002
}
  0
BLOCK_RECORD
  5
48B
330
1
100
AcDbSymbolTableRecord
100
AcDbBlockTableRecord
  2
SW_NOTE_7
340
0
102
{BLKREFS
331
490
102
}
1001
ACAD
1000
DesignCenter Data
1002
{
1070
     1
1070
     0
1002
}
  0
BLOCK_RECORD
  5
492
330
1
100
AcDbSymbolTableRecord
100
AcDbBlockTableRecord
  2
SW_NOTE_8
340
0
102
{BLKREFS
331
497
102
}
1001
ACAD
1000
DesignCenter Data
1002
{
1070
     1
1070
     0
1002
}
  0
BLOCK_RECORD
  5
499
330
1
100
AcDbSymbolTableRecord
100
AcDbBlockTableRecord
  2
SW_NOTE_9
340
0
102
{BLKREFS
331
49E
102
}
1001
ACAD
1000
DesignCenter Data
1002
{
1070
     1
1070
     0
1002
}
  0
ENDTAB
  0
ENDSEC
  0
SECTION
  2
BLOCKS
  0
BLOCK
  5
20
330
1F
100
AcDbEntity
  8
0
100
AcDbBlockBegin
  2
*Model_Space
 70
     0
 71
     0
 10
0.0
 20
0.0
 30
0.0
  3
*Model_Space
  1

  0
ENDBLK
  5
21
330
1F
100
AcDbEntity
  8
0
100
AcDbBlockEnd
  0
BLOCK
  5
1C
330
1B
100
AcDbEntity
 67
     1
  8
0
100
AcDbBlockBegin
  2
*Paper_Space
 70
     0
 71
     0
 10
0.0
 20
0.0
 30
0.0
  3
*Paper_Space
  1

  0
ENDBLK
  5
1D
330
1B
100
AcDbEntity
 67
     1
  8
0
100
AcDbBlockEnd
  0
BLOCK
  5
24
330
23
100
AcDbEntity
  8
0
100
AcDbBlockBegin
  2
*Paper_Space0
 70
     0
 71
     0
 10
0.0
 20
0.0
 30
0.0
  3
*Paper_Space0
  1

  0
ENDBLK
  5
25
330
23
100
AcDbEntity
  8
0
100
AcDbBlockEnd
  0
BLOCK
  5
85
330
84
100
AcDbEntity
  8
0
100
AcDbBlockBegin
  2
SW_NOTE_0
 70
     0
 71
     0
 10
0.0
 20
0.0
 30
0.0
  3
SW_NOTE_0
  1

  0
MTEXT
  5
88
330
84
100
AcDbEntity
  8
0
  6
Continuous
 62
     0
370
     0
100
AcDbMText
 10
0.0
 20
0.1330566406
 30
0.0
 40
0.1041666667
 41
0.0
 71
     1
 72
     1
  1
THE INFORMATION CONTAINED IN THIS
  7
SLDTEXTSTYLE1
 73
     1
 44
1.0
  0
MTEXT
  5
8A
330
84
100
AcDbEntity
  8
0
  6
Continuous
 62
     0
370
     0
100
AcDbMText
 10
0.0
 20
-0.0058322466
 30
0.0
 40
0.1041666667
 41
0.0
 71
     1
 72
     1
  1
DRAWING IS THE SOLE PROPERTY OF
  7
SLDTEXTSTYLE2
 73
     1
 44
1.0
  0
MTEXT
  5
8C
330
84
100
AcDbEntity
  8
0
  6
Continuous
 62
     0
370
     0
100
AcDbMText
 10
0.0
 20
-0.1447211338
 30
0.0
 40
0.1041666667
 41
0.0
 71
     1
 72
     1
  1
THORLABS, INC.  ANY REPRODUCTION
  7
SLDTEXTSTYLE3
 73
     1
 44
1.0
  0
MTEXT
  5
8E
330
84
100
AcDbEntity
  8
0
  6
Continuous
 62
     0
370
     0
100
AcDbMText
 10
0.0
 20
-0.283610021
 30
0.0
 40
0.1041666667
 41
0.0
 71
     1
 72
     1
  1
IN PART OR AS A WHOLE
  7
SLDTEXTSTYLE4
 73
     1
 44
1.0
  0
MTEXT
  5
8F
330
84
100
AcDbEntity
  8
0
  6
Continuous
 62
     0
370
     0
100
AcDbMText
 10
0.0
 20
-0.4224989082
 30
0.0
 40
0.1041666667
 41
0.0
 71
     1
 72
     1
  1
WITHOUT THE WRITTEN PERMISSION OF
  7
SLDTEXTSTYLE1
 73
     1
 44
1.0
  0
MTEXT
  5
91
330
84
100
AcDbEntity
  8
0
  6
Continuous
 62
     0
370
     0
100
AcDbMText
 10
0.0
 20
-0.5613877954
 30
0.0
 40
0.1041666667
 41
0.0
 71
     1
 72
     1
  1
THORLABS, INC. IS PROHIBITED.
  7
SLDTEXTSTYLE5
 73
     1
 44
1.0
  0
ENDBLK
  5
86
330
84
100
AcDbEntity
  8
0
100
AcDbBlockEnd
  0
BLOCK
  5
B3
330
B2
100
AcDbEntity
  8
0
100
AcDbBlockBegin
  2
SW_NOTE_1
 70
     0
 71
     0
 10
0.0
 20
0.0
 30
0.0
  3
SW_NOTE_1
  1

  0
MTEXT
  5
B6
330
B2
100
AcDbEntity
  8
0
  6
Continuous
 62
     0
370
     0
100
AcDbMText
 10
0.0
 20
0.1596679688
 30
0.0
 40
0.125
 41
0.0
 71
     1
 72
     1
  1
PO BOX 366
  7
SLDTEXTSTYLE10
 73
     1
 44
1.0
  0
MTEXT
  5
B7
330
B2
100
AcDbEntity
  8
0
  6
Continuous
 62
     0
370
     0
100
AcDbMText
 10
0.0
 20
-0.0069986959
 30
0.0
 40
0.125
 41
0.0
 71
     1
 72
     1
  1
NEWTON NJ
  7
SLDTEXTSTYLE0
 73
     1
 44
1.0
  0
ENDBLK
  5
B4
330
B2
100
AcDbEntity
  8
0
100
AcDbBlockEnd
  0
BLOCK
  5
BA
330
B9
100
AcDbEntity
  8
0
100
AcDbBlockBegin
  2
SW_NOTE_2
 70
     0
 71
     0
 10
0.0
 20
0.0
 30
0.0
  3
SW_NOTE_2
  1

  0
LINE
  5
BC
330
B9
100
AcDbEntity
  8
0
  6
Continuous
 62
     0
370
     0
100
AcDbLine
 10
1.3443287902
 20
-0.864004615
 30
0.0
 11
1.7023534976
 21
-0.864004615
 31
0.0
  0
MTEXT
  5
BD
330
B9
100
AcDbEntity
  8
0
  6
Continuous
 62
     0
370
     0
100
AcDbMText
 10
0.0
 20
0.1330566406
 30
0.0
 40
0.1041666667
 41
0.0
 71
     1
 72
     1
  1
SPECIFICATIONS:
  7
SLDTEXTSTYLE0
 73
     1
 44
1.0
  0
MTEXT
  5
BF
330
B9
100
AcDbEntity
  8
0
  6
Continuous
 62
     0
370
     0
100
AcDbMText
 10
0.0
 20
-0.1447211338
 30
0.0
 40
0.1041666667
 41
0.0
 71
     1
 72
     1
  1
DESIGN WAVELENGTH: 486.1, 587.6, & 656.3nm
  7
SLDTEXTSTYLE11
 73
     1
 44
1.0
  0
MTEXT
  5
C1
330
B9
100
AcDbEntity
  8
0
  6
Continuous
 62
     0
370
     0
100
AcDbMText
 10
0.0
 20
-0.283610021
 30
0.0
 40
0.1041666667
 41
0.0
 71
     1
 72
     1
  1
COATING: BBAR 400-700nm
  7
SLDTEXTSTYLE12
 73
     1
 44
1.0
  0
MTEXT
  5
C3
330
B9
100
AcDbEntity
  8
0
  6
Continuous
 62
     0
370
     0
100
AcDbMText
 10
0.0
 20
-0.4224989082
 30
0.0
 40
0.1041666667
 41
0.0
 71
     1
 72
     1
  1
COATING RANGE: R(AVG)<0.5% FROM 400-700nm
  7
SLDTEXTSTYLE13
 73
     1
 44
1.0
  0
MTEXT
  5
C4
330
B9
100
AcDbEntity
  8
0
  6
Continuous
 62
     0
370
     0
100
AcDbMText
 10
0.0
 20
-0.5613877954
 30
0.0
 40
0.1041666667
 41
0.0
 71
     1
 72
     1
  1
MAGNIFICATION: 1:2
  7
SLDTEXTSTYLE0
 73
     1
 44
1.0
  0
MTEXT
  5
C6
330
B9
100
AcDbEntity
  8
0
  6
Continuous
 62
     0
370
     0
100
AcDbMText
 10
0.0
 20
-0.8157280673
 30
0.0
 40
0.1041666667
 41
0.0
 71
     1
 72
     1
  1
DIMENSIONS ARE IN 
  7
SLDTEXTSTYLE14
 73
     1
 44
1.0
  0
MTEXT
  5
C7
330
B9
100
AcDbEntity
  8
0
  6
Continuous
 62
     0
370
     0
100
AcDbMText
 10
1.3443287902
 20
-0.7002766826
 30
0.0
 40
0.1041666667
 41
0.0
 71
     1
 72
     1
  1
[mm]
  7
SLDTEXTSTYLE0
 73
     1
 44
1.0
  0
MTEXT
  5
C8
330
B9
100
AcDbEntity
  8
0
  6
Continuous
 62
     0
370
     0
100
AcDbMText
 10
1.4671104351
 20
-0.9005081579
 30
0.0
 40
0.1041666667
 41
0.0
 71
     1
 72
     1
  1
in
  7
SLDTEXTSTYLE0
 73
     1
 44
1.0
  0
MTEXT
  5
C9
330
B9
100
AcDbEntity
  8
0
  6
Continuous
 62
     0
370
     0
100
AcDbMText
 10
0.0
 20
-1.0393970451
 30
0.0
 40
0.1041666667
 41
0.0
 71
     1
 72
     1
  1
NOTE:
  7
SLDTEXTSTYLE0
 73
     1
 44
1.0
  0
MTEXT
  5
CB
330
B9
100
AcDbEntity
  8
0
  6
Continuous
 62
     0
370
     0
100
AcDbMText
 10
0.0
 20
-1.1782859323
 30
0.0
 40
0.1041666667
 41
0.0
 71
     1
 72
     1
  1
FOR INFORMATION ONLY, NOT INTENDED FOR MANUFACTURING
  7
SLDTEXTSTYLE15
 73
     1
 44
1.0
  0
ENDBLK
  5
BB
330
B9
100
AcDbEntity
  8
0
100
AcDbBlockEnd
  0
BLOCK
  5
CE
330
CD
100
AcDbEntity
  8
0
100
AcDbBlockBegin
  2
SW_TABLEANNOTATION_0
 70
     0
 71
     0
 10
0.0
 20
0.0
 30
0.0
  3
SW_TABLEANNOTATION_0
  1

  0
LINE
  5
D0
330
CD
100
AcDbEntity
  8
0
  6
Continuous
 62
     0
370
     0
100
AcDbLine
 10
0.0
 20
0.0
 30
0.0
 11
0.0
 21
-1.0877351438
 31
0.0
  0
LINE
  5
D1
330
CD
100
AcDbEntity
  8
0
  6
Continuous
 62
     0
370
     0
100
AcDbLine
 10
0.0
 20
-1.0877351438
 30
0.0
 11
5.3007222216
 21
-1.0877351438
 31
0.0
  0
LINE
  5
D2
330
CD
100
AcDbEntity
  8
0
  6
Continuous
 62
     0
370
     0
100
AcDbLine
 10
5.3007222216
 20
-1.0877351438
 30
0.0
 11
5.3007222216
 21
0.0
 31
0.0
  0
LINE
  5
D3
330
CD
100
AcDbEntity
  8
0
  6
Continuous
 62
     0
370
     0
100
AcDbLine
 10
5.3007222216
 20
0.0
 30
0.0
 11
0.0
 21
0.0
 31
0.0
  0
LINE
  5
D4
330
CD
100
AcDbEntity
  8
0
  6
Continuous
 62
     0
370
     0
100
AcDbLine
 10
1.7669074072
 20
0.0
 30
0.0
 11
1.7669074072
 21
-1.0877351438
 31
0.0
  0
LINE
  5
D5
330
CD
100
AcDbEntity
  8
0
  6
Continuous
 62
     0
370
     0
100
AcDbLine
 10
3.5338148144
 20
0.0
 30
0.0
 11
3.5338148144
 21
-1.0877351438
 31
0.0
  0
LINE
  5
D6
330
CD
100
AcDbEntity
  8
0
  6
Continuous
 62
     0
370
     0
100
AcDbLine
 10
0.0
 20
-0.2175470288
 30
0.0
 11
5.3007222216
 21
-0.2175470288
 31
0.0
  0
LINE
  5
D7
330
CD
100
AcDbEntity
  8
0
  6
Continuous
 62
     0
370
     0
100
AcDbLine
 10
0.0
 20
-0.4350940575
 30
0.0
 11
5.3007222216
 21
-0.4350940575
 31
0.0
  0
LINE
  5
D8
330
CD
100
AcDbEntity
  8
0
  6
Continuous
 62
     0
370
     0
100
AcDbLine
 10
0.0
 20
-0.6526410863
 30
0.0
 11
5.3007222216
 21
-0.6526410863
 31
0.0
  0
LINE
  5
D9
330
CD
100
AcDbEntity
  8
0
  6
Continuous
 62
     0
370
     0
100
AcDbLine
 10
0.0
 20
-0.870188115
 30
0.0
 11
5.3007222216
 21
-0.870188115
 31
0.0
  0
MTEXT
  5
DA
330
CD
100
AcDbEntity
  8
0
  6
Continuous
 62
     0
370
     0
100
AcDbMText
 10
0.6662347763
 20
-0.0387177596
 30
0.0
 40
0.1377952756
 41
0.0
 71
     1
 72
     1
  1
PART
  7
SLDTEXTSTYLE0
 73
     1
 44
1.0
  0
MTEXT
  5
DB
330
CD
100
AcDbEntity
  8
0
  6
Continuous
 62
     0
370
     0
100
AcDbMText
 10
2.2344873384
 20
-0.0387177596
 30
0.0
 40
0.1377952756
 41
0.0
 71
     1
 72
     1
  1
PART NO.
  7
SLDTEXTSTYLE0
 73
     1
 44
1.0
  0
MTEXT
  5
DC
330
CD
100
AcDbEntity
  8
0
  6
Continuous
 62
     0
370
     0
100
AcDbMText
 10
3.9896246982
 20
-0.0387177596
 30
0.0
 40
0.1377952756
 41
0.0
 71
     1
 72
     1
  1
MATERIAL
  7
SLDTEXTSTYLE0
 73
     1
 44
1.0
  0
MTEXT
  5
DD
330
CD
100
AcDbEntity
  8
0
  6
Continuous
 62
     0
370
     0
100
AcDbMText
 10
0.8155129793
 20
-0.2562647884
 30
0.0
 40
0.1377952756
 41
0.0
 71
     1
 72
     1
  1
A
  7
SLDTEXTSTYLE0
 73
     1
 44
1.0
  0
MTEXT
  5
DE
330
CD
100
AcDbEntity
  8
0
  6
Continuous
 62
     0
370
     0
100
AcDbMText
 10
2.0224357113
 20
-0.2562647884
 30
0.0
 40
0.1377952756
 41
0.0
 71
     1
 72
     1
  1
AC254-075-A1
  7
SLDTEXTSTYLE0
 73
     1
 44
1.0
  0
MTEXT
  5
DF
330
CD
100
AcDbEntity
  8
0
  6
Continuous
 62
     0
370
     0
100
AcDbMText
 10
4.0877081451
 20
-0.2562647884
 30
0.0
 40
0.1377952756
 41
0.0
 71
     1
 72
     1
  1
BK7-SF5
  7
SLDTEXTSTYLE0
 73
     1
 44
1.0
  0
MTEXT
  5
E0
330
CD
100
AcDbEntity
  8
0
  6
Continuous
 62
     0
370
     0
100
AcDbMText
 10
0.8307278706
 20
-0.4738118171
 30
0.0
 40
0.1377952756
 41
0.0
 71
     1
 72
     1
  1
B
  7
SLDTEXTSTYLE0
 73
     1
 44
1.0
  0
MTEXT
  5
E1
330
CD
100
AcDbEntity
  8
0
  6
Continuous
 62
     0
370
     0
100
AcDbMText
 10
2.0224357113
 20
-0.4738118171
 30
0.0
 40
0.1377952756
 41
0.0
 71
     1
 72
     1
  1
AC254-150-A1
  7
SLDTEXTSTYLE0
 73
     1
 44
1.0
  0
MTEXT
  5
E2
330
CD
100
AcDbEntity
  8
0
  6
Continuous
 62
     0
370
     0
100
AcDbMText
 10
4.0877081451
 20
-0.4738118171
 30
0.0
 40
0.1377952756
 41
0.0
 71
     1
 72
     1
  1
BK7-SF5
  7
SLDTEXTSTYLE0
 73
     1
 44
1.0
  0
MTEXT
  5
E3
330
CD
100
AcDbEntity
  8
0
  6
Continuous
 62
     0
370
     0
100
AcDbMText
 10
0.8088145975
 20
-0.6913588459
 30
0.0
 40
0.1377952756
 41
0.0
 71
     1
 72
     1
  1
C
  7
SLDTEXTSTYLE0
 73
     1
 44
1.0
  0
MTEXT
  5
E4
330
CD
100
AcDbEntity
  8
0
  6
Continuous
 62
     0
370
     0
100
AcDbMText
 10
2.088079873
 20
-0.6913588459
 30
0.0
 40
0.1377952756
 41
0.0
 71
     1
 72
     1
  1
LENS MOUNT
  7
SLDTEXTSTYLE0
 73
     1
 44
1.0
  0
MTEXT
  5
E5
330
CD
100
AcDbEntity
  8
0
  6
Continuous
 62
     0
370
     0
100
AcDbMText
 10
3.5793966839
 20
-0.6913588459
 30
0.0
 40
0.1377952756
 41
0.0
 71
     1
 72
     1
  1
6061-T6 ALUMINUM
  7
SLDTEXTSTYLE0
 73
     1
 44
1.0
  0
MTEXT
  5
E6
330
CD
100
AcDbEntity
  8
0
  6
Continuous
 62
     0
370
     0
100
AcDbMText
 10
0.8151302112
 20
-0.9089058746
 30
0.0
 40
0.1377952756
 41
0.0
 71
     1
 72
     1
  1
D
  7
SLDTEXTSTYLE0
 73
     1
 44
1.0
  0
MTEXT
  5
E7
330
CD
100
AcDbEntity
  8
0
  6
Continuous
 62
     0
370
     0
100
AcDbMText
 10
2.3577375412
 20
-0.9089058746
 30
0.0
 40
0.1377952756
 41
0.0
 71
     1
 72
     1
  1
SM1RR
  7
SLDTEXTSTYLE0
 73
     1
 44
1.0
  0
MTEXT
  5
E8
330
CD
100
AcDbEntity
  8
0
  6
Continuous
 62
     0
370
     0
100
AcDbMText
 10
3.5793966839
 20
-0.9089058746
 30
0.0
 40
0.1377952756
 41
0.0
 71
     1
 72
     1
  1
6061-T6 ALUMINUM
  7
SLDTEXTSTYLE0
 73
     1
 44
1.0
  0
ENDBLK
  5
CF
330
CD
100
AcDbEntity
  8
0
100
AcDbBlockEnd
  0
BLOCK
  5
FF
330
FE
100
AcDbEntity
  8
0
100
AcDbBlockBegin
  2
*D5
 70
     1
 71
     0
 10
0.0
 20
0.0
 30
0.0
  3
*D5
  1

  0
SOLID
  5
101
330
FE
100
AcDbEntity
  8
0
  6
Continuous
 62
     7
370
     0
100
AcDbTrace
 10
2.5645900708
 20
5.657717567
 30
0.0
 11
2.6906180272
 21
5.7532631279
 31
0.0
 12
2.6528179558
 22
5.7889724348
 32
0.0
 13
2.6528179558
 23
5.7889724348
 33
0.0
  0
LINE
  5
102
330
FE
100
AcDbEntity
  8
0
  6
Continuous
 62
     7
370
     0
100
AcDbLine
 10
3.28665942
 20
6.1904878259
 30
0.0
 11
3.28665942
 21
6.0499798492
 31
0.0
  0
LINE
  5
103
330
FE
100
AcDbEntity
  8
0
  6
Continuous
 62
     7
370
     0
100
AcDbLine
 10
3.28665942
 20
6.0499798492
 30
0.0
 11
3.3077440504
 21
6.0499798492
 31
0.0
  0
LINE
  5
104
330
FE
100
AcDbEntity
  8
0
  6
Continuous
 62
     7
370
     0
100
AcDbLine
 10
3.28665942
 20
6.1904878259
 30
0.0
 11
3.3077440504
 21
6.1904878259
 31
0.0
  0
LINE
  5
105
330
FE
100
AcDbEntity
  8
0
  6
Continuous
 62
     7
370
     0
100
AcDbLine
 10
3.7171232333
 20
6.1904878259
 30
0.0
 11
3.7171232333
 21
6.0499798492
 31
0.0
  0
LINE
  5
106
330
FE
100
AcDbEntity
  8
0
  6
Continuous
 62
     7
370
     0
100
AcDbLine
 10
3.7171232333
 20
6.0499798492
 30
0.0
 11
3.6960386029
 21
6.0499798492
 31
0.0
  0
LINE
  5
107
330
FE
100
AcDbEntity
  8
0
  6
Continuous
 62
     7
370
     0
100
AcDbLine
 10
3.7171232333
 20
6.1904878259
 30
0.0
 11
3.6960386029
 21
6.1904878259
 31
0.0
  0
LINE
  5
108
330
FE
100
AcDbEntity
  8
0
  6
Continuous
 62
     7
370
     0
100
AcDbLine
 10
2.5645900708
 20
5.657717567
 30
0.0
 11
2.9234438558
 21
6.0375820866
 31
0.0
  0
LINE
  5
109
330
FE
100
AcDbEntity
  8
0
  6
Continuous
 62
     7
370
     0
100
AcDbLine
 10
2.9234438558
 20
6.0375820866
 30
0.0
 11
3.1734438558
 21
6.0375820866
 31
0.0
  0
MTEXT
  5
10A
330
FE
100
AcDbEntity
  8
0
  6
Continuous
 62
     7
370
     0
100
AcDbMText
 10
3.2929004706
 20
6.005335223
 30
0.0
 40
0.1041666667
 41
0.0
 71
     1
 72
     1
  1
%%c
  7
SLDTEXTSTYLE0
 73
     1
 44
1.0
  0
MTEXT
  5
10B
330
FE
100
AcDbEntity
  8
0
  6
Continuous
 62
     7
370
     0
100
AcDbMText
 10
3.4416736224
 20
6.005335223
 30
0.0
 40
0.1041666667
 41
0.0
 71
     1
 72
     1
  1
1.20
  7
SLDTEXTSTYLE0
 73
     1
 44
1.0
  0
MTEXT
  5
10C
330
FE
100
AcDbEntity
  8
0
  6
Continuous
 62
     7
370
     0
100
AcDbMText
 10
3.3288286807
 20
6.1706387249
 30
0.0
 40
0.1041666667
 41
0.0
 71
     1
 72
     1
  1
30.48
  7
SLDTEXTSTYLE0
 73
     1
 44
1.0
  0
ENDBLK
  5
100
330
FE
100
AcDbEntity
  8
0
100
AcDbBlockEnd
  0
BLOCK
  5
3ED
330
3EC
100
AcDbEntity
  8
0
100
AcDbBlockBegin
  2
*D6
 70
     1
 71
     0
 10
0.0
 20
0.0
 30
0.0
  3
*D6
  1

  0
SOLID
  5
3EF
330
3EC
100
AcDbEntity
  8
0
  6
Continuous
 62
     7
370
     0
100
AcDbTrace
 10
14.96317066
 20
3.7510607004
 30
0.0
 11
14.80717066
 21
3.7770607004
 31
0.0
 12
14.80717066
 22
3.7250607004
 32
0.0
 13
14.80717066
 23
3.7250607004
 33
0.0
  0
SOLID
  5
3F0
330
3EC
100
AcDbEntity
  8
0
  6
Continuous
 62
     7
370
     0
100
AcDbTrace
 10
12.4022257781
 20
3.7510607004
 30
0.0
 11
12.5582257781
 21
3.7250607004
 31
0.0
 12
12.5582257781
 22
3.7770607004
 32
0.0
 13
12.5582257781
 23
3.7770607004
 33
0.0
  0
LINE
  5
3F1
330
3EC
100
AcDbEntity
  8
0
  6
Continuous
 62
     7
370
     0
100
AcDbLine
 10
13.4468363912
 20
3.9039664397
 30
0.0
 11
13.4468363912
 21
3.763458463
 31
0.0
  0
LINE
  5
3F2
330
3EC
100
AcDbEntity
  8
0
  6
Continuous
 62
     7
370
     0
100
AcDbLine
 10
13.4468363912
 20
3.763458463
 30
0.0
 11
13.4679210215
 21
3.763458463
 31
0.0
  0
LINE
  5
3F3
330
3EC
100
AcDbEntity
  8
0
  6
Continuous
 62
     7
370
     0
100
AcDbLine
 10
13.4468363912
 20
3.9039664397
 30
0.0
 11
13.4679210215
 21
3.9039664397
 31
0.0
  0
LINE
  5
3F4
330
3EC
100
AcDbEntity
  8
0
  6
Continuous
 62
     7
370
     0
100
AcDbLine
 10
13.8773002044
 20
3.9039664397
 30
0.0
 11
13.8773002044
 21
3.763458463
 31
0.0
  0
LINE
  5
3F5
330
3EC
100
AcDbEntity
  8
0
  6
Continuous
 62
     7
370
     0
100
AcDbLine
 10
13.8773002044
 20
3.763458463
 30
0.0
 11
13.8562155741
 21
3.763458463
 31
0.0
  0
LINE
  5
3F6
330
3EC
100
AcDbEntity
  8
0
  6
Continuous
 62
     7
370
     0
100
AcDbLine
 10
13.8773002044
 20
3.9039664397
 30
0.0
 11
13.8562155741
 21
3.9039664397
 31
0.0
  0
LINE
  5
3F7
330
3EC
100
AcDbEntity
  8
0
  6
Continuous
 62
     7
370
     0
100
AcDbLine
 10
14.96317066
 20
5.1715628966
 30
0.0
 11
14.96317066
 21
3.6260607004
 31
0.0
  0
LINE
  5
3F8
330
3EC
100
AcDbEntity
  8
0
  6
Continuous
 62
     7
370
     0
100
AcDbLine
 10
12.4022257781
 20
4.5815628966
 30
0.0
 11
12.4022257781
 21
3.6260607004
 31
0.0
  0
LINE
  5
3F9
330
3EC
100
AcDbEntity
  8
0
  6
Continuous
 62
     7
370
     0
100
AcDbLine
 10
14.96317066
 20
3.7510607004
 30
0.0
 11
14.0031103211
 21
3.7510607004
 31
0.0
  0
LINE
  5
3FA
330
3EC
100
AcDbEntity
  8
0
  6
Continuous
 62
     7
370
     0
100
AcDbLine
 10
12.4022257781
 20
3.7510607004
 30
0.0
 11
13.3210262744
 21
3.7510607004
 31
0.0
  0
MTEXT
  5
3FB
330
3EC
100
AcDbEntity
  8
0
  6
Continuous
 62
     7
370
     0
100
AcDbMText
 10
13.5274640176
 20
3.7188138368
 30
0.0
 40
0.1041666667
 41
0.0
 71
     1
 72
     1
  1
2.56
  7
SLDTEXTSTYLE0
 73
     1
 44
1.0
  0
MTEXT
  5
3FC
330
3EC
100
AcDbEntity
  8
0
  6
Continuous
 62
     7
370
     0
100
AcDbMText
 10
13.4890056519
 20
3.8841173387
 30
0.0
 40
0.1041666667
 41
0.0
 71
     1
 72
     1
  1
65.05
  7
SLDTEXTSTYLE0
 73
     1
 44
1.0
  0
ENDBLK
  5
3EE
330
3EC
100
AcDbEntity
  8
0
100
AcDbBlockEnd
  0
BLOCK
  5
3FF
330
3FE
100
AcDbEntity
  8
0
100
AcDbBlockBegin
  2
*D7
 70
     1
 71
     0
 10
0.0
 20
0.0
 30
0.0
  3
*D7
  1

  0
SOLID
  5
401
330
3FE
100
AcDbEntity
  8
0
  6
Continuous
 62
     7
370
     0
100
AcDbTrace
 10
5.6274619986
 20
3.7510607004
 30
0.0
 11
5.7834619986
 21
3.7250607004
 31
0.0
 12
5.7834619986
 22
3.7770607004
 32
0.0
 13
5.7834619986
 23
3.7770607004
 33
0.0
  0
SOLID
  5
402
330
3FE
100
AcDbEntity
  8
0
  6
Continuous
 62
     7
370
     0
100
AcDbTrace
 10
11.1872257781
 20
3.7510607004
 30
0.0
 11
11.0312257781
 21
3.7770607004
 31
0.0
 12
11.0312257781
 22
3.7250607004
 32
0.0
 13
11.0312257781
 23
3.7250607004
 33
0.0
  0
LINE
  5
403
330
3FE
100
AcDbEntity
  8
0
  6
Continuous
 62
     7
370
     0
100
AcDbLine
 10
8.0836968667
 20
3.9039664397
 30
0.0
 11
8.0836968667
 21
3.763458463
 31
0.0
  0
LINE
  5
404
330
3FE
100
AcDbEntity
  8
0
  6
Continuous
 62
     7
370
     0
100
AcDbLine
 10
8.0836968667
 20
3.763458463
 30
0.0
 11
8.104781497
 21
3.763458463
 31
0.0
  0
LINE
  5
405
330
3FE
100
AcDbEntity
  8
0
  6
Continuous
 62
     7
370
     0
100
AcDbLine
 10
8.0836968667
 20
3.9039664397
 30
0.0
 11
8.104781497
 21
3.9039664397
 31
0.0
  0
LINE
  5
406
330
3FE
100
AcDbEntity
  8
0
  6
Continuous
 62
     7
370
     0
100
AcDbLine
 10
8.5910774114
 20
3.9039664397
 30
0.0
 11
8.5910774114
 21
3.763458463
 31
0.0
  0
LINE
  5
407
330
3FE
100
AcDbEntity
  8
0
  6
Continuous
 62
     7
370
     0
100
AcDbLine
 10
8.5910774114
 20
3.763458463
 30
0.0
 11
8.5699927811
 21
3.763458463
 31
0.0
  0
LINE
  5
408
330
3FE
100
AcDbEntity
  8
0
  6
Continuous
 62
     7
370
     0
100
AcDbLine
 10
8.5910774114
 20
3.9039664397
 30
0.0
 11
8.5699927811
 21
3.9039664397
 31
0.0
  0
LINE
  5
409
330
3FE
100
AcDbEntity
  8
0
  6
Continuous
 62
     7
370
     0
100
AcDbLine
 10
5.6274619986
 20
5.1715628966
 30
0.0
 11
5.6274619986
 21
3.6260607004
 31
0.0
  0
LINE
  5
40A
330
3FE
100
AcDbEntity
  8
0
  6
Continuous
 62
     7
370
     0
100
AcDbLine
 10
11.1872257781
 20
4.5815628966
 30
0.0
 11
11.1872257781
 21
3.6260607004
 31
0.0
  0
LINE
  5
40B
330
3FE
100
AcDbEntity
  8
0
  6
Continuous
 62
     7
370
     0
100
AcDbLine
 10
5.6274619986
 20
3.7510607004
 30
0.0
 11
7.9578867499
 21
3.7510607004
 31
0.0
  0
LINE
  5
40C
330
3FE
100
AcDbEntity
  8
0
  6
Continuous
 62
     7
370
     0
100
AcDbLine
 10
11.1872257781
 20
3.7510607004
 30
0.0
 11
8.7168875282
 21
3.7510607004
 31
0.0
  0
MTEXT
  5
40D
330
3FE
100
AcDbEntity
  8
0
  6
Continuous
 62
     7
370
     0
100
AcDbMText
 10
8.2027828589
 20
3.7188138368
 30
0.0
 40
0.1041666667
 41
0.0
 71
     1
 72
     1
  1
5.56
  7
SLDTEXTSTYLE0
 73
     1
 44
1.0
  0
MTEXT
  5
40E
330
3FE
100
AcDbEntity
  8
0
  6
Continuous
 62
     7
370
     0
100
AcDbMText
 10
8.1258661274
 20
3.8841173387
 30
0.0
 40
0.1041666667
 41
0.0
 71
     1
 72
     1
  1
141.22
  7
SLDTEXTSTYLE0
 73
     1
 44
1.0
  0
ENDBLK
  5
400
330
3FE
100
AcDbEntity
  8
0
100
AcDbBlockEnd
  0
BLOCK
  5
411
330
410
100
AcDbEntity
  8
0
100
AcDbBlockBegin
  2
*D8
 70
     1
 71
     0
 10
0.0
 20
0.0
 30
0.0
  3
*D8
  1

  0
SOLID
  5
413
330
410
100
AcDbEntity
  8
0
  6
Continuous
 62
     7
370
     0
100
AcDbTrace
 10
14.96317066
 20
6.219624148
 30
0.0
 11
14.80717066
 21
6.245624148
 31
0.0
 12
14.80717066
 22
6.193624148
 32
0.0
 13
14.80717066
 23
6.193624148
 33
0.0
  0
SOLID
  5
414
330
410
100
AcDbEntity
  8
0
  6
Continuous
 62
     7
370
     0
100
AcDbTrace
 10
12.1995400817
 20
6.219624148
 30
0.0
 11
12.3555400817
 21
6.193624148
 31
0.0
 12
12.3555400817
 22
6.245624148
 32
0.0
 13
12.3555400817
 23
6.245624148
 33
0.0
  0
LINE
  5
415
330
410
100
AcDbEntity
  8
0
  6
Continuous
 62
     7
370
     0
100
AcDbLine
 10
15.1791198557
 20
6.3725298873
 30
0.0
 11
15.1791198557
 21
6.2320219106
 31
0.0
  0
LINE
  5
416
330
410
100
AcDbEntity
  8
0
  6
Continuous
 62
     7
370
     0
100
AcDbLine
 10
15.1791198557
 20
6.2320219106
 30
0.0
 11
15.2002044861
 21
6.2320219106
 31
0.0
  0
LINE
  5
417
330
410
100
AcDbEntity
  8
0
  6
Continuous
 62
     7
370
     0
100
AcDbLine
 10
15.1791198557
 20
6.3725298873
 30
0.0
 11
15.2002044861
 21
6.3725298873
 31
0.0
  0
LINE
  5
418
330
410
100
AcDbEntity
  8
0
  6
Continuous
 62
     7
370
     0
100
AcDbLine
 10
15.609583669
 20
6.3725298873
 30
0.0
 11
15.609583669
 21
6.2320219106
 31
0.0
  0
LINE
  5
419
330
410
100
AcDbEntity
  8
0
  6
Continuous
 62
     7
370
     0
100
AcDbLine
 10
15.609583669
 20
6.2320219106
 30
0.0
 11
15.5884990386
 21
6.2320219106
 31
0.0
  0
LINE
  5
41A
330
410
100
AcDbEntity
  8
0
  6
Continuous
 62
     7
370
     0
100
AcDbLine
 10
15.609583669
 20
6.3725298873
 30
0.0
 11
15.5884990386
 21
6.3725298873
 31
0.0
  0
LINE
  5
41B
330
410
100
AcDbEntity
  8
0
  6
Continuous
 62
     7
370
     0
100
AcDbLine
 10
14.96317066
 20
5.2715628966
 30
0.0
 11
14.96317066
 21
6.344624148
 31
0.0
  0
LINE
  5
41C
330
410
100
AcDbEntity
  8
0
  6
Continuous
 62
     7
370
     0
100
AcDbLine
 10
12.1995400817
 20
5.2715628966
 30
0.0
 11
12.1995400817
 21
6.344624148
 31
0.0
  0
LINE
  5
41D
330
410
100
AcDbEntity
  8
0
  6
Continuous
 62
     7
370
     0
100
AcDbLine
 10
14.96317066
 20
6.219624148
 30
0.0
 11
15.053309739
 21
6.219624148
 31
0.0
  0
LINE
  5
41E
330
410
100
AcDbEntity
  8
0
  6
Continuous
 62
     7
370
     0
100
AcDbLine
 10
12.1995400817
 20
6.219624148
 30
0.0
 11
14.96317066
 21
6.219624148
 31
0.0
  0
MTEXT
  5
41F
330
410
100
AcDbEntity
  8
0
  6
Continuous
 62
     7
370
     0
100
AcDbMText
 10
15.2597474822
 20
6.1873772843
 30
0.0
 40
0.1041666667
 41
0.0
 71
     1
 72
     1
  1
2.76
  7
SLDTEXTSTYLE0
 73
     1
 44
1.0
  0
MTEXT
  5
420
330
410
100
AcDbEntity
  8
0
  6
Continuous
 62
     7
370
     0
100
AcDbMText
 10
15.2212891164
 20
6.3526807863
 30
0.0
 40
0.1041666667
 41
0.0
 71
     1
 72
     1
  1
70.20
  7
SLDTEXTSTYLE0
 73
     1
 44
1.0
  0
ENDBLK
  5
412
330
410
100
AcDbEntity
  8
0
100
AcDbBlockEnd
  0
BLOCK
  5
423
330
422
100
AcDbEntity
  8
0
100
AcDbBlockBegin
  2
*D9
 70
     1
 71
     0
 10
0.0
 20
0.0
 30
0.0
  3
*D9
  1

  0
SOLID
  5
425
330
422
100
AcDbEntity
  8
0
  6
Continuous
 62
     7
370
     0
100
AcDbTrace
 10
5.6274619986
 20
6.0157151117
 30
0.0
 11
5.7834619986
 21
5.9897151117
 31
0.0
 12
5.7834619986
 22
6.0417151117
 32
0.0
 13
5.7834619986
 23
6.0417151117
 33
0.0
  0
SOLID
  5
426
330
422
100
AcDbEntity
  8
0
  6
Continuous
 62
     7
370
     0
100
AcDbTrace
 10
11.400199158
 20
6.0157151117
 30
0.0
 11
11.244199158
 21
6.0417151117
 31
0.0
 12
11.244199158
 22
5.9897151117
 32
0.0
 13
11.244199158
 23
5.9897151117
 33
0.0
  0
LINE
  5
427
330
422
100
AcDbEntity
  8
0
  6
Continuous
 62
     7
370
     0
100
AcDbLine
 10
8.0836968667
 20
6.168620851
 30
0.0
 11
8.0836968667
 21
6.0281128743
 31
0.0
  0
LINE
  5
428
330
422
100
AcDbEntity
  8
0
  6
Continuous
 62
     7
370
     0
100
AcDbLine
 10
8.0836968667
 20
6.0281128743
 30
0.0
 11
8.104781497
 21
6.0281128743
 31
0.0
  0
LINE
  5
429
330
422
100
AcDbEntity
  8
0
  6
Continuous
 62
     7
370
     0
100
AcDbLine
 10
8.0836968667
 20
6.168620851
 30
0.0
 11
8.104781497
 21
6.168620851
 31
0.0
  0
LINE
  5
42A
330
422
100
AcDbEntity
  8
0
  6
Continuous
 62
     7
370
     0
100
AcDbLine
 10
8.5910774114
 20
6.168620851
 30
0.0
 11
8.5910774114
 21
6.0281128743
 31
0.0
  0
LINE
  5
42B
330
422
100
AcDbEntity
  8
0
  6
Continuous
 62
     7
370
     0
100
AcDbLine
 10
8.5910774114
 20
6.0281128743
 30
0.0
 11
8.5699927811
 21
6.0281128743
 31
0.0
  0
LINE
  5
42C
330
422
100
AcDbEntity
  8
0
  6
Continuous
 62
     7
370
     0
100
AcDbLine
 10
8.5910774114
 20
6.168620851
 30
0.0
 11
8.5699927811
 21
6.168620851
 31
0.0
  0
LINE
  5
42D
330
422
100
AcDbEntity
  8
0
  6
Continuous
 62
     7
370
     0
100
AcDbLine
 10
5.6274619986
 20
5.2715628966
 30
0.0
 11
5.6274619986
 21
6.1407151117
 31
0.0
  0
LINE
  5
42E
330
422
100
AcDbEntity
  8
0
  6
Continuous
 62
     7
370
     0
100
AcDbLine
 10
11.400199158
 20
5.2715628966
 30
0.0
 11
11.400199158
 21
6.1407151117
 31
0.0
  0
LINE
  5
42F
330
422
100
AcDbEntity
  8
0
  6
Continuous
 62
     7
370
     0
100
AcDbLine
 10
5.6274619986
 20
6.0157151117
 30
0.0
 11
7.9578867499
 21
6.0157151117
 31
0.0
  0
LINE
  5
430
330
422
100
AcDbEntity
  8
0
  6
Continuous
 62
     7
370
     0
100
AcDbLine
 10
11.400199158
 20
6.0157151117
 30
0.0
 11
8.7168875282
 21
6.0157151117
 31
0.0
  0
MTEXT
  5
431
330
422
100
AcDbEntity
  8
0
  6
Continuous
 62
     7
370
     0
100
AcDbMText
 10
8.2027828589
 20
5.9834682481
 30
0.0
 40
0.1041666667
 41
0.0
 71
     1
 72
     1
  1
5.77
  7
SLDTEXTSTYLE0
 73
     1
 44
1.0
  0
MTEXT
  5
432
330
422
100
AcDbEntity
  8
0
  6
Continuous
 62
     7
370
     0
100
AcDbMText
 10
8.1258661274
 20
6.14877175
 30
0.0
 40
0.1041666667
 41
0.0
 71
     1
 72
     1
  1
146.63
  7
SLDTEXTSTYLE0
 73
     1
 44
1.0
  0
ENDBLK
  5
424
330
422
100
AcDbEntity
  8
0
100
AcDbBlockEnd
  0
BLOCK
  5
436
330
435
100
AcDbEntity
  8
0
100
AcDbBlockBegin
  2
*D10
 70
     1
 71
     0
 10
0.0
 20
0.0
 30
0.0
  3
*D10
  1

  0
SOLID
  5
438
330
435
100
AcDbEntity
  8
0
  6
Continuous
 62
     7
370
     0
100
AcDbTrace
 10
11.8255243337
 20
3.9872811728
 30
0.0
 11
11.9815243337
 21
3.9612811728
 31
0.0
 12
11.9815243337
 22
4.0132811728
 32
0.0
 13
11.9815243337
 23
4.0132811728
 33
0.0
  0
SOLID
  5
439
330
435
100
AcDbEntity
  8
0
  6
Continuous
 62
     7
370
     0
100
AcDbTrace
 10
11.71122278
 20
3.9872811728
 30
0.0
 11
11.55522278
 21
4.0132811728
 31
0.0
 12
11.55522278
 22
3.9612811728
 32
0.0
 13
11.55522278
 23
3.9612811728
 33
0.0
  0
LINE
  5
43A
330
435
100
AcDbEntity
  8
0
  6
Continuous
 62
     7
370
     0
100
AcDbLine
 10
12.9355255747
 20
4.1401869121
 30
0.0
 11
12.9355255747
 21
3.9996789355
 31
0.0
  0
LINE
  5
43B
330
435
100
AcDbEntity
  8
0
  6
Continuous
 62
     7
370
     0
100
AcDbLine
 10
12.9355255747
 20
3.9996789355
 30
0.0
 11
12.956610205
 21
3.9996789355
 31
0.0
  0
LINE
  5
43C
330
435
100
AcDbEntity
  8
0
  6
Continuous
 62
     7
370
     0
100
AcDbLine
 10
12.9355255747
 20
4.1401869121
 30
0.0
 11
12.956610205
 21
4.1401869121
 31
0.0
  0
LINE
  5
43D
330
435
100
AcDbEntity
  8
0
  6
Continuous
 62
     7
370
     0
100
AcDbLine
 10
13.2890726564
 20
4.1401869121
 30
0.0
 11
13.2890726564
 21
3.9996789355
 31
0.0
  0
LINE
  5
43E
330
435
100
AcDbEntity
  8
0
  6
Continuous
 62
     7
370
     0
100
AcDbLine
 10
13.2890726564
 20
3.9996789355
 30
0.0
 11
13.267988026
 21
3.9996789355
 31
0.0
  0
LINE
  5
43F
330
435
100
AcDbEntity
  8
0
  6
Continuous
 62
     7
370
     0
100
AcDbLine
 10
13.2890726564
 20
4.1401869121
 30
0.0
 11
13.267988026
 21
4.1401869121
 31
0.0
  0
LINE
  5
440
330
435
100
AcDbEntity
  8
0
  6
Continuous
 62
     7
370
     0
100
AcDbLine
 10
11.8255243337
 20
5.1715628966
 30
0.0
 11
11.8255243337
 21
3.8622811728
 31
0.0
  0
LINE
  5
441
330
435
100
AcDbEntity
  8
0
  6
Continuous
 62
     7
370
     0
100
AcDbLine
 10
11.71122278
 20
5.1715628966
 30
0.0
 11
11.71122278
 21
3.8622811728
 31
0.0
  0
LINE
  5
442
330
435
100
AcDbEntity
  8
0
  6
Continuous
 62
     7
370
     0
100
AcDbLine
 10
11.8255243337
 20
3.9872811728
 30
0.0
 11
12.8097154579
 21
3.9872811728
 31
0.0
  0
LINE
  5
443
330
435
100
AcDbEntity
  8
0
  6
Continuous
 62
     7
370
     0
100
AcDbLine
 10
11.71122278
 20
3.9872811728
 30
0.0
 11
11.21122278
 21
3.9872811728
 31
0.0
  0
MTEXT
  5
444
330
435
100
AcDbEntity
  8
0
  6
Continuous
 62
     7
370
     0
100
AcDbMText
 10
12.9776948354
 20
3.9550343092
 30
0.0
 40
0.1041666667
 41
0.0
 71
     1
 72
     1
  1
0.11
  7
SLDTEXTSTYLE0
 73
     1
 44
1.0
  0
MTEXT
  5
445
330
435
100
AcDbEntity
  8
0
  6
Continuous
 62
     7
370
     0
100
AcDbMText
 10
12.9776948354
 20
4.1203378112
 30
0.0
 40
0.1041666667
 41
0.0
 71
     1
 72
     1
  1
2.90
  7
SLDTEXTSTYLE0
 73
     1
 44
1.0
  0
ENDBLK
  5
437
330
435
100
AcDbEntity
  8
0
100
AcDbBlockEnd
  0
BLOCK
  5
448
330
447
100
AcDbEntity
  8
0
100
AcDbBlockBegin
  2
*D11
 70
     1
 71
     0
 10
0.0
 20
0.0
 30
0.0
  3
*D11
  1

  0
SOLID
  5
44A
330
447
100
AcDbEntity
  8
0
  6
Continuous
 62
     7
370
     0
100
AcDbTrace
 10
11.1872257781
 20
3.3148881133
 30
0.0
 11
11.0312257781
 21
3.3408881133
 31
0.0
 12
11.0312257781
 22
3.2888881133
 32
0.0
 13
11.0312257781
 23
3.2888881133
 33
0.0
  0
SOLID
  5
44B
330
447
100
AcDbEntity
  8
0
  6
Continuous
 62
     7
370
     0
100
AcDbTrace
 10
12.4022257781
 20
3.3148881133
 30
0.0
 11
12.5582257781
 21
3.2888881133
 31
0.0
 12
12.5582257781
 22
3.3408881133
 32
0.0
 13
12.5582257781
 23
3.3408881133
 33
0.0
  0
LINE
  5
44C
330
447
100
AcDbEntity
  8
0
  6
Continuous
 62
     7
370
     0
100
AcDbLine
 10
11.6086325323
 20
3.4677938526
 30
0.0
 11
11.6086325323
 21
3.327285876
 31
0.0
  0
LINE
  5
44D
330
447
100
AcDbEntity
  8
0
  6
Continuous
 62
     7
370
     0
100
AcDbLine
 10
11.6086325323
 20
3.327285876
 30
0.0
 11
11.6297171627
 21
3.327285876
 31
0.0
  0
LINE
  5
44E
330
447
100
AcDbEntity
  8
0
  6
Continuous
 62
     7
370
     0
100
AcDbLine
 10
11.6086325323
 20
3.4677938526
 30
0.0
 11
11.6297171627
 21
3.4677938526
 31
0.0
  0
LINE
  5
44F
330
447
100
AcDbEntity
  8
0
  6
Continuous
 62
     7
370
     0
100
AcDbLine
 10
12.0390963455
 20
3.4677938526
 30
0.0
 11
12.0390963455
 21
3.327285876
 31
0.0
  0
LINE
  5
450
330
447
100
AcDbEntity
  8
0
  6
Continuous
 62
     7
370
     0
100
AcDbLine
 10
12.0390963455
 20
3.327285876
 30
0.0
 11
12.0180117152
 21
3.327285876
 31
0.0
  0
LINE
  5
451
330
447
100
AcDbEntity
  8
0
  6
Continuous
 62
     7
370
     0
100
AcDbLine
 10
12.0390963455
 20
3.4677938526
 30
0.0
 11
12.0180117152
 21
3.4677938526
 31
0.0
  0
LINE
  5
452
330
447
100
AcDbEntity
  8
0
  6
Continuous
 62
     7
370
     0
100
AcDbLine
 10
11.1872257781
 20
4.5815628966
 30
0.0
 11
11.1872257781
 21
3.1898881133
 31
0.0
  0
LINE
  5
453
330
447
100
AcDbEntity
  8
0
  6
Continuous
 62
     7
370
     0
100
AcDbLine
 10
12.4022257781
 20
4.5815628966
 30
0.0
 11
12.4022257781
 21
3.1898881133
 31
0.0
  0
LINE
  5
454
330
447
100
AcDbEntity
  8
0
  6
Continuous
 62
     7
370
     0
100
AcDbLine
 10
11.1872257781
 20
3.3148881133
 30
0.0
 11
10.6872257781
 21
3.3148881133
 31
0.0
  0
LINE
  5
455
330
447
100
AcDbEntity
  8
0
  6
Continuous
 62
     7
370
     0
100
AcDbLine
 10
12.4022257781
 20
3.3148881133
 30
0.0
 11
12.9022257781
 21
3.3148881133
 31
0.0
  0
MTEXT
  5
456
330
447
100
AcDbEntity
  8
0
  6
Continuous
 62
     7
370
     0
100
AcDbMText
 10
11.6892601588
 20
3.2826412497
 30
0.0
 40
0.1041666667
 41
0.0
 71
     1
 72
     1
  1
1.22
  7
SLDTEXTSTYLE0
 73
     1
 44
1.0
  0
MTEXT
  5
457
330
447
100
AcDbEntity
  8
0
  6
Continuous
 62
     7
370
     0
100
AcDbMText
 10
11.650801793
 20
3.4479447517
 30
0.0
 40
0.1041666667
 41
0.0
 71
     1
 72
     1
  1
30.86
  7
SLDTEXTSTYLE0
 73
     1
 44
1.0
  0
ENDBLK
  5
449
330
447
100
AcDbEntity
  8
0
100
AcDbBlockEnd
  0
BLOCK
  5
45B
330
45A
100
AcDbEntity
  8
0
100
AcDbBlockBegin
  2
*D12
 70
     1
 71
     0
 10
0.0
 20
0.0
 30
0.0
  3
*D12
  1

  0
SOLID
  5
45D
330
45A
100
AcDbEntity
  8
0
  6
Continuous
 62
     7
370
     0
100
AcDbTrace
 10
11.400199158
 20
6.4558446204
 30
0.0
 11
11.556199158
 21
6.4298446204
 31
0.0
 12
11.556199158
 22
6.4818446204
 32
0.0
 13
11.556199158
 23
6.4818446204
 33
0.0
  0
SOLID
  5
45E
330
45A
100
AcDbEntity
  8
0
  6
Continuous
 62
     7
370
     0
100
AcDbTrace
 10
12.1995400817
 20
6.4558446204
 30
0.0
 11
12.0435400817
 21
6.4818446204
 31
0.0
 12
12.0435400817
 22
6.4298446204
 32
0.0
 13
12.0435400817
 23
6.4298446204
 33
0.0
  0
LINE
  5
45F
330
45A
100
AcDbEntity
  8
0
  6
Continuous
 62
     7
370
     0
100
AcDbLine
 10
10.0016669354
 20
6.6087503597
 30
0.0
 11
10.0016669354
 21
6.468242383
 31
0.0
  0
LINE
  5
460
330
45A
100
AcDbEntity
  8
0
  6
Continuous
 62
     7
370
     0
100
AcDbLine
 10
10.0016669354
 20
6.468242383
 30
0.0
 11
10.0227515658
 21
6.468242383
 31
0.0
  0
LINE
  5
461
330
45A
100
AcDbEntity
  8
0
  6
Continuous
 62
     7
370
     0
100
AcDbLine
 10
10.0016669354
 20
6.6087503597
 30
0.0
 11
10.0227515658
 21
6.6087503597
 31
0.0
  0
LINE
  5
462
330
45A
100
AcDbEntity
  8
0
  6
Continuous
 62
     7
370
     0
100
AcDbLine
 10
10.4321307487
 20
6.6087503597
 30
0.0
 11
10.4321307487
 21
6.468242383
 31
0.0
  0
LINE
  5
463
330
45A
100
AcDbEntity
  8
0
  6
Continuous
 62
     7
370
     0
100
AcDbLine
 10
10.4321307487
 20
6.468242383
 30
0.0
 11
10.4110461183
 21
6.468242383
 31
0.0
  0
LINE
  5
464
330
45A
100
AcDbEntity
  8
0
  6
Continuous
 62
     7
370
     0
100
AcDbLine
 10
10.4321307487
 20
6.6087503597
 30
0.0
 11
10.4110461183
 21
6.6087503597
 31
0.0
  0
LINE
  5
465
330
45A
100
AcDbEntity
  8
0
  6
Continuous
 62
     7
370
     0
100
AcDbLine
 10
11.400199158
 20
5.2715628966
 30
0.0
 11
11.400199158
 21
6.5808446204
 31
0.0
  0
LINE
  5
466
330
45A
100
AcDbEntity
  8
0
  6
Continuous
 62
     7
370
     0
100
AcDbLine
 10
12.1995400817
 20
5.2715628966
 30
0.0
 11
12.1995400817
 21
6.5808446204
 31
0.0
  0
LINE
  5
467
330
45A
100
AcDbEntity
  8
0
  6
Continuous
 62
     7
370
     0
100
AcDbLine
 10
11.400199158
 20
6.4558446204
 30
0.0
 11
10.5579408654
 21
6.4558446204
 31
0.0
  0
LINE
  5
468
330
45A
100
AcDbEntity
  8
0
  6
Continuous
 62
     7
370
     0
100
AcDbLine
 10
12.1995400817
 20
6.4558446204
 30
0.0
 11
11.400199158
 21
6.4558446204
 31
0.0
  0
MTEXT
  5
469
330
45A
100
AcDbEntity
  8
0
  6
Continuous
 62
     7
370
     0
100
AcDbMText
 10
10.0822945619
 20
6.4235977568
 30
0.0
 40
0.1041666667
 41
0.0
 71
     1
 72
     1
  1
0.80
  7
SLDTEXTSTYLE0
 73
     1
 44
1.0
  0
MTEXT
  5
46A
330
45A
100
AcDbEntity
  8
0
  6
Continuous
 62
     7
370
     0
100
AcDbMText
 10
10.0438361961
 20
6.5889012587
 30
0.0
 40
0.1041666667
 41
0.0
 71
     1
 72
     1
  1
20.30
  7
SLDTEXTSTYLE0
 73
     1
 44
1.0
  0
ENDBLK
  5
45C
330
45A
100
AcDbEntity
  8
0
100
AcDbBlockEnd
  0
BLOCK
  5
46C
330
46B
100
AcDbEntity
  8
0
100
AcDbBlockBegin
  2
SW_NOTE_3
 70
     0
 71
     0
 10
0.0
 20
0.0
 30
0.0
  3
SW_NOTE_3
  1

  0
MTEXT
  5
46F
330
46B
100
AcDbEntity
  8
0
  6
Continuous
 62
     0
370
     0
100
AcDbMText
 10
0.0
 20
0.1330566406
 30
0.0
 40
0.1041666667
 41
0.0
 71
     1
 72
     1
  1
SECTION A-A 
  7
SLDTEXTSTYLE16
 73
     1
 44
1.0
  0
MTEXT
  5
471
330
46B
100
AcDbEntity
  8
0
  6
Continuous
 62
     0
370
     0
100
AcDbMText
 10
0.0841049551
 20
-0.0058322466
 30
0.0
 40
0.1041666667
 41
0.0
 71
     1
 72
     1
  1
SCALE 1 : 1
  7
SLDTEXTSTYLE17
 73
     1
 44
1.0
  0
ENDBLK
  5
46D
330
46B
100
AcDbEntity
  8
0
100
AcDbBlockEnd
  0
BLOCK
  5
474
330
473
100
AcDbEntity
  8
0
100
AcDbBlockBegin
  2
SW_NOTE_4
 70
     0
 71
     0
 10
0.0
 20
0.0
 30
0.0
  3
SW_NOTE_4
  1

  0
MTEXT
  5
477
330
473
100
AcDbEntity
  8
0
  6
Continuous
 62
     0
370
     0
100
AcDbMText
 10
-1.3412472499
 20
0.1666890514
 30
0.0
 40
0.09
 41
0.0
 71
     1
 72
     1
  1
INTERNAL  SM1 THREAD
  7
SLDTEXTSTYLE18
 73
     1
 44
1.0
  0
MTEXT
  5
478
330
473
100
AcDbEntity
  8
0
  6
Continuous
 62
     0
370
     0
100
AcDbMText
 10
-0.9606847378
 20
0.0373189684
 30
0.0
 40
0.09
 41
0.0
 71
     1
 72
     1
  1
(1.035-40)
  7
SLDTEXTSTYLE0
 73
     1
 44
1.0
  0
ENDBLK
  5
475
330
473
100
AcDbEntity
  8
0
100
AcDbBlockEnd
  0
BLOCK
  5
47E
330
47D
100
AcDbEntity
  8
0
100
AcDbBlockBegin
  2
SW_NOTE_5
 70
     0
 71
     0
 10
0.0
 20
0.0
 30
0.0
  3
SW_NOTE_5
  1

  0
CIRCLE
  5
480
330
47D
100
AcDbEntity
  8
0
  6
Continuous
 62
     0
370
     0
100
AcDbCircle
 10
0.1865179556
 20
0.0628868898
 30
0.0
 40
0.1968342162403359
  0
MTEXT
  5
481
330
47D
100
AcDbEntity
  8
0
  6
Continuous
 62
     0
370
     0
100
AcDbMText
 10
0.1185772313
 20
0.1338301026
 30
0.0
 40
0.1377952756
 41
0.0
 71
     1
 72
     1
  1
A
  7
SLDTEXTSTYLE0
 73
     1
 44
1.0
  0
ENDBLK
  5
47F
330
47D
100
AcDbEntity
  8
0
100
AcDbBlockEnd
  0
BLOCK
  5
485
330
484
100
AcDbEntity
  8
0
100
AcDbBlockBegin
  2
SW_NOTE_6
 70
     0
 71
     0
 10
0.0
 20
0.0
 30
0.0
  3
SW_NOTE_6
  1

  0
CIRCLE
  5
487
330
484
100
AcDbEntity
  8
0
  6
Continuous
 62
     0
370
     0
100
AcDbCircle
 10
-0.1955277321
 20
0.0226409951
 30
0.0
 40
0.1968342162403359
  0
MTEXT
  5
488
330
484
100
AcDbEntity
  8
0
  6
Continuous
 62
     0
370
     0
100
AcDbMText
 10
-0.2482535651
 20
0.0935842079
 30
0.0
 40
0.1377952756
 41
0.0
 71
     1
 72
     1
  1
B
  7
SLDTEXTSTYLE0
 73
     1
 44
1.0
  0
ENDBLK
  5
486
330
484
100
AcDbEntity
  8
0
100
AcDbBlockEnd
  0
BLOCK
  5
48C
330
48B
100
AcDbEntity
  8
0
100
AcDbBlockBegin
  2
SW_NOTE_7
 70
     0
 71
     0
 10
0.0
 20
0.0
 30
0.0
  3
SW_NOTE_7
  1

  0
CIRCLE
  5
48E
330
48B
100
AcDbEntity
  8
0
  6
Continuous
 62
     0
370
     0
100
AcDbCircle
 10
0.1855776654
 20
-0.0656097462
 30
0.0
 40
0.1968342162403357
  0
MTEXT
  5
48F
330
48B
100
AcDbEntity
  8
0
  6
Continuous
 62
     0
370
     0
100
AcDbMText
 10
0.1109385593
 20
0.0053334666
 30
0.0
 40
0.1377952756
 41
0.0
 71
     1
 72
     1
  1
C
  7
SLDTEXTSTYLE0
 73
     1
 44
1.0
  0
ENDBLK
  5
48D
330
48B
100
AcDbEntity
  8
0
100
AcDbBlockEnd
  0
BLOCK
  5
493
330
492
100
AcDbEntity
  8
0
100
AcDbBlockBegin
  2
SW_NOTE_8
 70
     0
 71
     0
 10
0.0
 20
0.0
 30
0.0
  3
SW_NOTE_8
  1

  0
CIRCLE
  5
495
330
492
100
AcDbEntity
  8
0
  6
Continuous
 62
     0
370
     0
100
AcDbCircle
 10
0.1966135639
 20
-0.0093174653
 30
0.0
 40
0.1968342162403357
  0
MTEXT
  5
496
330
492
100
AcDbEntity
  8
0
  6
Continuous
 62
     0
370
     0
100
AcDbMText
 10
0.1282900715
 20
0.0616257476
 30
0.0
 40
0.1377952756
 41
0.0
 71
     1
 72
     1
  1
D
  7
SLDTEXTSTYLE0
 73
     1
 44
1.0
  0
ENDBLK
  5
494
330
492
100
AcDbEntity
  8
0
100
AcDbBlockEnd
  0
BLOCK
  5
49A
330
499
100
AcDbEntity
  8
0
100
AcDbBlockBegin
  2
SW_NOTE_9
 70
     0
 71
     0
 10
0.0
 20
0.0
 30
0.0
  3
SW_NOTE_9
  1

  0
CIRCLE
  5
49C
330
499
100
AcDbEntity
  8
0
  6
Continuous
 62
     0
370
     0
100
AcDbCircle
 10
-0.1966745968
 20
-0.0079253809
 30
0.0
 40
0.1968342162403366
  0
MTEXT
  5
49D
330
499
100
AcDbEntity
  8
0
  6
Continuous
 62
     0
370
     0
100
AcDbMText
 10
-0.2649980892
 20
0.0630178319
 30
0.0
 40
0.1377952756
 41
0.0
 71
     1
 72
     1
  1
D
  7
SLDTEXTSTYLE0
 73
     1
 44
1.0
  0
ENDBLK
  5
49B
330
499
100
AcDbEntity
  8
0
100
AcDbBlockEnd
  0
ENDSEC
  0
SECTION
  2
ENTITIES
  0
LINE
  5
30
330
1F
100
AcDbEntity
  8
0
  6
Continuous
 62
     7
370
     0
100
AcDbLine
 10
0.6262516046
 20
10.6420731707
 30
0.0
 11
16.3762516046
 21
10.6420731707
 31
0.0
  0
LINE
  5
31
330
1F
100
AcDbEntity
  8
0
  6
Continuous
 62
     7
370
     0
100
AcDbLine
 10
0.6262516046
 20
10.6420731707
 30
0.0
 11
0.6262516046
 21
0.3920731707
 31
0.0
  0
LINE
  5
32
330
1F
100
AcDbEntity
  8
0
  6
Continuous
 62
     7
370
     0
100
AcDbLine
 10
16.3762516046
 20
0.3920731707
 30
0.0
 11
0.6262516046
 21
0.3920731707
 31
0.0
  0
LINE
  5
33
330
1F
100
AcDbEntity
  8
0
  6
Continuous
 62
     7
370
     0
100
AcDbLine
 10
16.3762516046
 20
0.3920731707
 30
0.0
 11
16.3762516046
 21
10.6420731707
 31
0.0
  0
LINE
  5
34
330
1F
100
AcDbEntity
  8
0
  6
Continuous
 62
     7
370
     0
100
AcDbLine
 10
16.3762516046
 20
8.0752921748
 30
0.0
 11
16.5012516046
 21
8.0752921748
 31
0.0
  0
LINE
  5
35
330
1F
100
AcDbEntity
  8
0
  6
Continuous
 62
     7
370
     0
100
AcDbLine
 10
16.3762516046
 20
5.5127921748
 30
0.0
 11
16.5012516046
 21
5.5127921748
 31
0.0
  0
LINE
  5
36
330
1F
100
AcDbEntity
  8
0
  6
Continuous
 62
     7
370
     0
100
AcDbLine
 10
16.3762516046
 20
5.5127921748
 30
0.0
 11
16.4434330337
 21
5.5368018253
 31
0.0
  0
LINE
  5
37
330
1F
100
AcDbEntity
  8
0
  6
Continuous
 62
     7
370
     0
100
AcDbLine
 10
16.3762516046
 20
5.5127921748
 30
0.0
 11
16.4434330337
 21
5.4902136493
 31
0.0
  0
LINE
  5
38
330
1F
100
AcDbEntity
  8
0
  6
Continuous
 62
     7
370
     0
100
AcDbLine
 10
16.4434330337
 20
5.5368018253
 30
0.0
 11
16.4434330337
 21
5.4902136493
 31
0.0
  0
LINE
  5
39
330
1F
100
AcDbEntity
  8
0
  6
Continuous
 62
     7
370
     0
100
AcDbLine
 10
16.3762516046
 20
5.5127921748
 30
0.0
 11
16.4434330337
 21
5.5218303331
 31
0.0
  0
LINE
  5
3A
330
1F
100
AcDbEntity
  8
0
  6
Continuous
 62
     7
370
     0
100
AcDbLine
 10
16.3762516046
 20
5.5127921748
 30
0.0
 11
16.4434330337
 21
5.5024840548
 31
0.0
  0
LINE
  5
3B
330
1F
100
AcDbEntity
  8
0
  6
Continuous
 62
     7
370
     0
100
AcDbLine
 10
16.3762516046
 20
2.9502921748
 30
0.0
 11
16.5012516046
 21
2.9502921748
 31
0.0
  0
LINE
  5
3C
330
1F
100
AcDbEntity
  8
0
  6
Continuous
 62
     7
370
     0
100
AcDbLine
 10
0.6262516046
 20
2.9545731707
 30
0.0
 11
0.5012516046
 21
2.9545731707
 31
0.0
  0
LINE
  5
3D
330
1F
100
AcDbEntity
  8
0
  6
Continuous
 62
     7
370
     0
100
AcDbLine
 10
0.6262516046
 20
5.5170731707
 30
0.0
 11
0.5590701755
 21
5.5067650507
 31
0.0
  0
LINE
  5
3E
330
1F
100
AcDbEntity
  8
0
  6
Continuous
 62
     7
370
     0
100
AcDbLine
 10
0.6262516046
 20
5.5170731707
 30
0.0
 11
0.5590701755
 21
5.5261113291
 31
0.0
  0
LINE
  5
3F
330
1F
100
AcDbEntity
  8
0
  6
Continuous
 62
     7
370
     0
100
AcDbLine
 10
0.5590701755
 20
5.5410828212
 30
0.0
 11
0.5590701755
 21
5.4944946453
 31
0.0
  0
LINE
  5
40
330
1F
100
AcDbEntity
  8
0
  6
Continuous
 62
     7
370
     0
100
AcDbLine
 10
0.6262516046
 20
5.5170731707
 30
0.0
 11
0.5590701755
 21
5.4944946453
 31
0.0
  0
LINE
  5
41
330
1F
100
AcDbEntity
  8
0
  6
Continuous
 62
     7
370
     0
100
AcDbLine
 10
0.6262516046
 20
5.5170731707
 30
0.0
 11
0.5590701755
 21
5.5410828212
 31
0.0
  0
LINE
  5
42
330
1F
100
AcDbEntity
  8
0
  6
Continuous
 62
     7
370
     0
100
AcDbLine
 10
0.6262516046
 20
5.5170731707
 30
0.0
 11
0.5012516046
 21
5.5170731707
 31
0.0
  0
LINE
  5
43
330
1F
100
AcDbEntity
  8
0
  6
Continuous
 62
     7
370
     0
100
AcDbLine
 10
0.6262516046
 20
8.0795731707
 30
0.0
 11
0.5012516046
 21
8.0795731707
 31
0.0
  0
LINE
  5
44
330
1F
100
AcDbEntity
  8
0
  6
Continuous
 62
     7
370
     0
100
AcDbLine
 10
10.182308474
 20
0.3920731707
 30
0.0
 11
10.182308474
 21
2.1463865056
 31
0.0
  0
LINE
  5
45
330
1F
100
AcDbEntity
  8
0
  6
Continuous
 62
     7
370
     0
100
AcDbLine
 10
10.182308474
 20
2.1463865056
 30
0.0
 11
12.7491798875
 21
2.1463865056
 31
0.0
  0
LINE
  5
46
330
1F
100
AcDbEntity
  8
0
  6
Continuous
 62
     7
370
     0
100
AcDbLine
 10
10.182308474
 20
1.9702834133
 30
0.0
 11
16.3762516046
 21
1.9702834133
 31
0.0
  0
LINE
  5
47
330
1F
100
AcDbEntity
  8
0
  6
Continuous
 62
     7
370
     0
100
AcDbLine
 10
10.182308474
 20
1.8002528414
 30
0.0
 11
12.7491798875
 21
1.8002528414
 31
0.0
  0
LINE
  5
48
330
1F
100
AcDbEntity
  8
0
  6
Continuous
 62
     7
370
     0
100
AcDbLine
 10
12.7491798875
 20
0.3920731707
 30
0.0
 11
12.7491798875
 21
2.3625790021
 31
0.0
  0
LINE
  5
49
330
1F
100
AcDbEntity
  8
0
  6
Continuous
 62
     7
370
     0
100
AcDbLine
 10
11.9873869055
 20
2.1463865056
 30
0.0
 11
11.9873869055
 21
1.490469794
 31
0.0
  0
LINE
  5
4A
330
1F
100
AcDbEntity
  8
0
  6
Continuous
 62
     7
370
     0
100
AcDbLine
 10
10.182308474
 20
1.6492239749
 30
0.0
 11
12.7491798875
 21
1.6492239749
 31
0.0
  0
LINE
  5
4B
330
1F
100
AcDbEntity
  8
0
  6
Continuous
 62
     7
370
     0
100
AcDbLine
 10
10.182308474
 20
1.490469794
 30
0.0
 11
16.3762516046
 21
1.490469794
 31
0.0
  0
LINE
  5
4C
330
1F
100
AcDbEntity
  8
0
  6
Continuous
 62
     7
370
     0
100
AcDbLine
 10
10.182308474
 20
1.3275472385
 30
0.0
 11
12.7491798875
 21
1.3275472385
 31
0.0
  0
LINE
  5
4D
330
1F
100
AcDbEntity
  8
0
  6
Continuous
 62
     7
370
     0
100
AcDbLine
 10
11.2521368269
 20
2.1463865056
 30
0.0
 11
11.2521368269
 21
1.490469794
 31
0.0
  0
LINE
  5
4E
330
1F
100
AcDbEntity
  8
0
  6
Continuous
 62
     7
370
     0
100
AcDbLine
 10
14.0901904116
 20
0.3920731707
 30
0.0
 11
14.0901904116
 21
0.8572133274
 31
0.0
  0
LINE
  5
4F
330
1F
100
AcDbEntity
  8
0
  6
Continuous
 62
     7
370
     0
100
AcDbLine
 10
12.7491798875
 20
0.8572133274
 30
0.0
 11
16.3762516046
 21
0.8572133274
 31
0.0
  0
LINE
  5
50
330
1F
100
AcDbEntity
  8
0
  6
Continuous
 62
     7
370
     0
100
AcDbLine
 10
12.7394849349
 20
1.0773568959
 30
0.0
 11
16.3762516046
 21
1.0773568959
 31
0.0
  0
LINE
  5
51
330
1F
100
AcDbEntity
  8
0
  6
Continuous
 62
     7
370
     0
100
AcDbLine
 10
14.3778934702
 20
1.0773568959
 30
0.0
 11
14.3778934702
 21
0.8572133274
 31
0.0
  0
LINE
  5
52
330
1F
100
AcDbEntity
  8
0
  6
Continuous
 62
     7
370
     0
100
AcDbLine
 10
15.4872706427
 20
1.490469794
 30
0.0
 11
15.4872706427
 21
1.0773568959
 31
0.0
  0
LINE
  5
53
330
1F
100
AcDbEntity
  8
0
  6
Continuous
 62
     7
370
     0
100
AcDbLine
 10
15.9241321453
 20
1.490469794
 30
0.0
 11
15.9241321453
 21
1.0773568959
 31
0.0
  0
LINE
  5
54
330
1F
100
AcDbEntity
  8
0
  6
Continuous
 62
     7
370
     0
100
AcDbLine
 10
12.7491798875
 20
2.3625790021
 30
0.0
 11
16.3762516046
 21
2.3625790021
 31
0.0
  0
LINE
  5
55
330
1F
100
AcDbEntity
  8
0
  6
Continuous
 62
     7
370
     0
100
AcDbLine
 10
14.4072516046
 20
0.3920731707
 30
0.0
 11
14.4072516046
 21
0.3072739649
 31
0.0
  0
LINE
  5
56
330
1F
100
AcDbEntity
  8
0
  6
Continuous
 62
     7
370
     0
100
AcDbLine
 10
12.4385016046
 20
0.3920731707
 30
0.0
 11
12.4385016046
 21
0.3072739649
 31
0.0
  0
LINE
  5
57
330
1F
100
AcDbEntity
  8
0
  6
Continuous
 62
     7
370
     0
100
AcDbLine
 10
10.4697516046
 20
0.3920731707
 30
0.0
 11
10.4697516046
 21
0.3072739649
 31
0.0
  0
LINE
  5
58
330
1F
100
AcDbEntity
  8
0
  6
Continuous
 62
     7
370
     0
100
AcDbLine
 10
8.5010016046
 20
0.3920731707
 30
0.0
 11
8.5010016046
 21
0.3072739649
 31
0.0
  0
LINE
  5
59
330
1F
100
AcDbEntity
  8
0
  6
Continuous
 62
     7
370
     0
100
AcDbLine
 10
6.5322516046
 20
0.3920731707
 30
0.0
 11
6.5322516046
 21
0.3072739649
 31
0.0
  0
LINE
  5
5A
330
1F
100
AcDbEntity
  8
0
  6
Continuous
 62
     7
370
     0
100
AcDbLine
 10
4.5635016046
 20
0.3920731707
 30
0.0
 11
4.5635016046
 21
0.3072739649
 31
0.0
  0
LINE
  5
5B
330
1F
100
AcDbEntity
  8
0
  6
Continuous
 62
     7
370
     0
100
AcDbLine
 10
2.5947516046
 20
0.3920731707
 30
0.0
 11
2.5947516046
 21
0.3072739649
 31
0.0
  0
LINE
  5
5C
330
1F
100
AcDbEntity
  8
0
  6
Continuous
 62
     7
370
     0
100
AcDbLine
 10
2.5947516046
 20
10.6420731707
 30
0.0
 11
2.5947516046
 21
10.7268723765
 31
0.0
  0
LINE
  5
5D
330
1F
100
AcDbEntity
  8
0
  6
Continuous
 62
     7
370
     0
100
AcDbLine
 10
4.5635016046
 20
10.6420731707
 30
0.0
 11
4.5635016046
 21
10.7268723765
 31
0.0
  0
LINE
  5
5E
330
1F
100
AcDbEntity
  8
0
  6
Continuous
 62
     7
370
     0
100
AcDbLine
 10
6.5322516046
 20
10.6420731707
 30
0.0
 11
6.5322516046
 21
10.7268723765
 31
0.0
  0
LINE
  5
5F
330
1F
100
AcDbEntity
  8
0
  6
Continuous
 62
     7
370
     0
100
AcDbLine
 10
8.5010016046
 20
10.6420731707
 30
0.0
 11
8.5010016046
 21
10.7268723765
 31
0.0
  0
LINE
  5
60
330
1F
100
AcDbEntity
  8
0
  6
Continuous
 62
     7
370
     0
100
AcDbLine
 10
10.4697516046
 20
10.6420731707
 30
0.0
 11
10.4697516046
 21
10.7268723765
 31
0.0
  0
LINE
  5
61
330
1F
100
AcDbEntity
  8
0
  6
Continuous
 62
     7
370
     0
100
AcDbLine
 10
12.4385016046
 20
10.6420731707
 30
0.0
 11
12.4385016046
 21
10.7268723765
 31
0.0
  0
LINE
  5
62
330
1F
100
AcDbEntity
  8
0
  6
Continuous
 62
     7
370
     0
100
AcDbLine
 10
14.4072516046
 20
10.6420731707
 30
0.0
 11
14.4072516046
 21
10.7268723765
 31
0.0
  0
LINE
  5
63
330
1F
100
AcDbEntity
  8
0
  6
Continuous
 62
     7
370
     0
100
AcDbLine
 10
8.5010016046
 20
10.6420731707
 30
0.0
 11
8.4877504872
 21
10.6840054626
 31
0.0
  0
LINE
  5
64
330
1F
100
AcDbEntity
  8
0
  6
Continuous
 62
     7
370
     0
100
AcDbLine
 10
8.5010016046
 20
10.6420731707
 30
0.0
 11
8.5135565785
 21
10.6840054626
 31
0.0
  0
LINE
  5
65
330
1F
100
AcDbEntity
  8
0
  6
Continuous
 62
     7
370
     0
100
AcDbLine
 10
8.5135565785
 20
10.6840054626
 30
0.0
 11
8.4877504872
 21
10.6840054626
 31
0.0
  0
LINE
  5
66
330
1F
100
AcDbEntity
  8
0
  6
Continuous
 62
     7
370
     0
100
AcDbLine
 10
8.4939630647
 20
10.6840054626
 30
0.0
 11
8.5010016046
 21
10.6420731707
 31
0.0
  0
LINE
  5
67
330
1F
100
AcDbEntity
  8
0
  6
Continuous
 62
     7
370
     0
100
AcDbLine
 10
8.5059103292
 20
10.6840054626
 30
0.0
 11
8.5010016046
 21
10.6420731707
 31
0.0
  0
LINE
  5
68
330
1F
100
AcDbEntity
  8
0
  6
Continuous
 62
     7
370
     0
100
AcDbLine
 10
8.5010016046
 20
0.3920731707
 30
0.0
 11
8.5135565785
 21
0.3575
 31
0.0
  0
LINE
  5
69
330
1F
100
AcDbEntity
  8
0
  6
Continuous
 62
     7
370
     0
100
AcDbLine
 10
8.5135565785
 20
0.3575
 30
0.0
 11
8.4877504872
 21
0.3575
 31
0.0
  0
LINE
  5
6A
330
1F
100
AcDbEntity
  8
0
  6
Continuous
 62
     7
370
     0
100
AcDbLine
 10
8.4877504872
 20
0.3575
 30
0.0
 11
8.5010016046
 21
0.3920731707
 31
0.0
  0
MTEXT
  5
6C
330
1F
100
AcDbEntity
  8
0
  6
Continuous
 62
     7
370
     0
100
AcDbMText
 10
16.4913158734
 20
9.4899010903
 30
0.0
 40
0.09375
 41
0.0
 71
     1
 72
     1
  1
D
  7
SLDTEXTSTYLE0
 73
     1
 44
1.0
  0
MTEXT
  5
6D
330
1F
100
AcDbEntity
  8
0
  6
Continuous
 62
     7
370
     0
100
AcDbMText
 10
16.4711826244
 20
6.903980486
 30
0.0
 40
0.09375
 41
0.0
 71
     1
 72
     1
  1
C
  7
SLDTEXTSTYLE0
 73
     1
 44
1.0
  0
MTEXT
  5
6E
330
1F
100
AcDbEntity
  8
0
  6
Continuous
 62
     7
370
     0
100
AcDbMText
 10
16.5114787596
 20
4.3779889516
 30
0.0
 40
0.09375
 41
0.0
 71
     1
 72
     1
  1
B
  7
SLDTEXTSTYLE0
 73
     1
 44
1.0
  0
MTEXT
  5
6F
330
1F
100
AcDbEntity
  8
0
  6
Continuous
 62
     7
370
     0
100
AcDbMText
 10
16.4820809255
 20
1.7715265362
 30
0.0
 40
0.09375
 41
0.0
 71
     1
 72
     1
  1
A
  7
SLDTEXTSTYLE0
 73
     1
 44
1.0
  0
MTEXT
  5
70
330
1F
100
AcDbEntity
  8
0
  6
Continuous
 62
     7
370
     0
100
AcDbMText
 10
0.4260099495
 20
1.7547509735
 30
0.0
 40
0.09375
 41
0.0
 71
     1
 72
     1
  1
A
  7
SLDTEXTSTYLE0
 73
     1
 44
1.0
  0
MTEXT
  5
71
330
1F
100
AcDbEntity
  8
0
  6
Continuous
 62
     7
370
     0
100
AcDbMText
 10
0.4264017314
 20
4.3921463777
 30
0.0
 40
0.09375
 41
0.0
 71
     1
 72
     1
  1
B
  7
SLDTEXTSTYLE0
 73
     1
 44
1.0
  0
MTEXT
  5
72
330
1F
100
AcDbEntity
  8
0
  6
Continuous
 62
     7
370
     0
100
AcDbMText
 10
0.427314415
 20
6.9092447003
 30
0.0
 40
0.09375
 41
0.0
 71
     1
 72
     1
  1
C
  7
SLDTEXTSTYLE0
 73
     1
 44
1.0
  0
MTEXT
  5
73
330
1F
100
AcDbEntity
  8
0
  6
Continuous
 62
     7
370
     0
100
AcDbMText
 10
0.42861048
 20
9.4564482391
 30
0.0
 40
0.09375
 41
0.0
 71
     1
 72
     1
  1
D
  7
SLDTEXTSTYLE0
 73
     1
 44
1.0
  0
MTEXT
  5
74
330
1F
100
AcDbEntity
  8
0
  6
Continuous
 62
     7
370
     0
100
AcDbMText
 10
15.4083167374
 20
0.300272888
 30
0.0
 40
0.09375
 41
0.0
 71
     1
 72
     1
  1
1
  7
SLDTEXTSTYLE0
 73
     1
 44
1.0
  0
MTEXT
  5
75
330
1F
100
AcDbEntity
  8
0
  6
Continuous
 62
     7
370
     0
100
AcDbMText
 10
13.352296777
 20
0.3113400111
 30
0.0
 40
0.09375
 41
0.0
 71
     1
 72
     1
  1
2
  7
SLDTEXTSTYLE0
 73
     1
 44
1.0
  0
MTEXT
  5
76
330
1F
100
AcDbEntity
  8
0
  6
Continuous
 62
     7
370
     0
100
AcDbMText
 10
11.3787703324
 20
0.3105200602
 30
0.0
 40
0.09375
 41
0.0
 71
     1
 72
     1
  1
3
  7
SLDTEXTSTYLE0
 73
     1
 44
1.0
  0
MTEXT
  5
77
330
1F
100
AcDbEntity
  8
0
  6
Continuous
 62
     7
370
     0
100
AcDbMText
 10
9.4701249316
 20
0.3126246278
 30
0.0
 40
0.09375
 41
0.0
 71
     1
 72
     1
  1
4
  7
SLDTEXTSTYLE0
 73
     1
 44
1.0
  0
MTEXT
  5
78
330
1F
100
AcDbEntity
  8
0
  6
Continuous
 62
     7
370
     0
100
AcDbMText
 10
7.4851155555
 20
0.3094873007
 30
0.0
 40
0.09375
 41
0.0
 71
     1
 72
     1
  1
5
  7
SLDTEXTSTYLE0
 73
     1
 44
1.0
  0
MTEXT
  5
79
330
1F
100
AcDbEntity
  8
0
  6
Continuous
 62
     7
370
     0
100
AcDbMText
 10
5.5188252386
 20
0.3125562944
 30
0.0
 40
0.09375
 41
0.0
 71
     1
 72
     1
  1
6
  7
SLDTEXTSTYLE0
 73
     1
 44
1.0
  0
MTEXT
  5
7A
330
1F
100
AcDbEntity
  8
0
  6
Continuous
 62
     7
370
     0
100
AcDbMText
 10
3.5574266754
 20
0.3121618912
 30
0.0
 40
0.09375
 41
0.0
 71
     1
 72
     1
  1
7
  7
SLDTEXTSTYLE0
 73
     1
 44
1.0
  0
MTEXT
  5
7B
330
1F
100
AcDbEntity
  8
0
  6
Continuous
 62
     7
370
     0
100
AcDbMText
 10
1.5267744527
 20
0.3118636282
 30
0.0
 40
0.09375
 41
0.0
 71
     1
 72
     1
  1
8
  7
SLDTEXTSTYLE0
 73
     1
 44
1.0
  0
MTEXT
  5
7C
330
1F
100
AcDbEntity
  8
0
  6
Continuous
 62
     7
370
     0
100
AcDbMText
 10
1.5090888689
 20
10.8303991325
 30
0.0
 40
0.09375
 41
0.0
 71
     1
 72
     1
  1
8
  7
SLDTEXTSTYLE0
 73
     1
 44
1.0
  0
MTEXT
  5
7D
330
1F
100
AcDbEntity
  8
0
  6
Continuous
 62
     7
370
     0
100
AcDbMText
 10
3.5509870273
 20
10.8275581734
 30
0.0
 40
0.09375
 41
0.0
 71
     1
 72
     1
  1
7
  7
SLDTEXTSTYLE0
 73
     1
 44
1.0
  0
MTEXT
  5
7E
330
1F
100
AcDbEntity
  8
0
  6
Continuous
 62
     7
370
     0
100
AcDbMText
 10
5.4986876861
 20
10.8356494067
 30
0.0
 40
0.09375
 41
0.0
 71
     1
 72
     1
  1
6
  7
SLDTEXTSTYLE0
 73
     1
 44
1.0
  0
MTEXT
  5
7F
330
1F
100
AcDbEntity
  8
0
  6
Continuous
 62
     7
370
     0
100
AcDbMText
 10
7.4786946819
 20
10.8361859641
 30
0.0
 40
0.09375
 41
0.0
 71
     1
 72
     1
  1
5
  7
SLDTEXTSTYLE0
 73
     1
 44
1.0
  0
MTEXT
  5
80
330
1F
100
AcDbEntity
  8
0
  6
Continuous
 62
     7
370
     0
100
AcDbMText
 10
9.464298725
 20
10.8345566209
 30
0.0
 40
0.09375
 41
0.0
 71
     1
 72
     1
  1
4
  7
SLDTEXTSTYLE0
 73
     1
 44
1.0
  0
MTEXT
  5
81
330
1F
100
AcDbEntity
  8
0
  6
Continuous
 62
     7
370
     0
100
AcDbMText
 10
11.432728105
 20
10.8284231398
 30
0.0
 40
0.09375
 41
0.0
 71
     1
 72
     1
  1
3
  7
SLDTEXTSTYLE0
 73
     1
 44
1.0
  0
MTEXT
  5
82
330
1F
100
AcDbEntity
  8
0
  6
Continuous
 62
     7
370
     0
100
AcDbMText
 10
13.4009949841
 20
10.8351030138
 30
0.0
 40
0.09375
 41
0.0
 71
     1
 72
     1
  1
2
  7
SLDTEXTSTYLE0
 73
     1
 44
1.0
  0
MTEXT
  5
83
330
1F
100
AcDbEntity
  8
0
  6
Continuous
 62
     7
370
     0
100
AcDbMText
 10
15.4273970005
 20
10.8289695327
 30
0.0
 40
0.09375
 41
0.0
 71
     1
 72
     1
  1
1
  7
SLDTEXTSTYLE0
 73
     1
 44
1.0
  0
INSERT
  5
92
330
1F
100
AcDbEntity
  8
0
  6
Continuous
 62
     7
370
     0
100
AcDbBlockReference
  2
SW_NOTE_0
 10
10.2332396989
 20
1.1579499108
 30
0.0
  0
MTEXT
  5
94
330
1F
100
AcDbEntity
  8
0
  6
Continuous
 62
     7
370
     0
100
AcDbMText
 10
10.231213698
 20
1.4534446649
 30
0.0
 40
0.1041666667
 41
0.0
 71
     1
 72
     1
  1
PROPRIETARY AND CONFIDENTIAL
  7
SLDTEXTSTYLE6
 73
     1
 44
1.0
  0
MTEXT
  5
95
330
1F
100
AcDbEntity
  8
0
  6
Continuous
 62
     7
370
     0
100
AcDbMText
 10
10.2569647568
 20
1.9436008831
 30
0.0
 40
0.09375
 41
0.0
 71
     1
 72
     1
  1
DRAWN
  7
SLDTEXTSTYLE0
 73
     1
 44
1.0
  0
MTEXT
  5
96
330
1F
100
AcDbEntity
  8
0
  6
Continuous
 62
     7
370
     0
100
AcDbMText
 10
10.2446080968
 20
1.7824832128
 30
0.0
 40
0.09375
 41
0.0
 71
     1
 72
     1
  1
ENG APPR.
  7
SLDTEXTSTYLE0
 73
     1
 44
1.0
  0
MTEXT
  5
97
330
1F
100
AcDbEntity
  8
0
  6
Continuous
 62
     7
370
     0
100
AcDbMText
 10
10.2374068806
 20
1.6029723279
 30
0.0
 40
0.09375
 41
0.0
 71
     1
 72
     1
  1
MFG APPR.
  7
SLDTEXTSTYLE0
 73
     1
 44
1.0
  0
MTEXT
  5
98
330
1F
100
AcDbEntity
  8
0
  6
Continuous
 62
     7
370
     0
100
AcDbMText
 10
12.223033932
 20
2.1154301863
 30
0.0
 40
0.09375
 41
0.0
 71
     1
 72
     1
  1
DATE
  7
SLDTEXTSTYLE0
 73
     1
 44
1.0
  0
MTEXT
  5
99
330
1F
100
AcDbEntity
  8
0
  6
Continuous
 62
     7
370
     0
100
AcDbMText
 10
11.4132599533
 20
2.120193059
 30
0.0
 40
0.09375
 41
0.0
 71
     1
 72
     1
  1
NAME
  7
SLDTEXTSTYLE0
 73
     1
 44
1.0
  0
MTEXT
  5
9A
330
1F
100
AcDbEntity
  8
0
  6
Continuous
 62
     7
370
     0
100
AcDbMText
 10
15.5666497203
 20
1.4612867589
 30
0.0
 40
0.125
 41
0.0
 71
     1
 72
     1
  1
SIZE
  7
SLDTEXTSTYLE0
 73
     1
 44
1.0
  0
MTEXT
  5
9B
330
1F
100
AcDbEntity
  8
0
  6
Continuous
 62
     7
370
     0
100
AcDbMText
 10
15.6496337739
 20
1.282817129
 30
0.0
 40
0.1458333333
 41
0.0
 71
     1
 72
     1
  1
B
  7
SLDTEXTSTYLE0
 73
     1
 44
1.0
  0
MTEXT
  5
9D
330
1F
100
AcDbEntity
  8
0
  6
Continuous
 62
     7
370
     0
100
AcDbMText
 10
12.8081224516
 20
0.8176714899
 30
0.0
 40
0.125
 41
0.0
 71
     1
 72
     1
  1
DWG.  NO.
  7
SLDTEXTSTYLE7
 73
     1
 44
1.0
  0
MTEXT
  5
9E
330
1F
100
AcDbEntity
  8
0
  6
Continuous
 62
     7
370
     0
100
AcDbMText
 10
15.9995661304
 20
1.4559817095
 30
0.0
 40
0.125
 41
0.0
 71
     1
 72
     1
  1
REV
  7
SLDTEXTSTYLE0
 73
     1
 44
1.0
  0
MTEXT
  5
9F
330
1F
100
AcDbEntity
  8
0
  6
Continuous
 62
     7
370
     0
100
AcDbMText
 10
13.2167397921
 20
1.0327168502
 30
0.0
 40
0.125
 41
0.0
 71
     1
 72
     1
  1
SCALE: 1:1
  7
SLDTEXTSTYLE0
 73
     1
 44
1.0
  0
MTEXT
  5
A1
330
1F
100
AcDbEntity
  8
0
  6
Continuous
 62
     7
370
     0
100
AcDbMText
 10
14.7937743884
 20
1.0330420155
 30
0.0
 40
0.125
 41
0.0
 71
     1
 72
     1
  1
SHEET 1 OF 1
  7
SLDTEXTSTYLE8
 73
     1
 44
1.0
  0
MTEXT
  5
A2
330
1F
100
AcDbEntity
  8
0
  6
Continuous
 62
     7
370
     0
100
AcDbMText
 10
12.0781656752
 20
1.6311313733
 30
0.0
 40
0.0833333333
 41
0.0
 71
     1
 72
     1
  1
04/13/06
  7
SLDTEXTSTYLE0
 73
     1
 44
1.0
  0
MTEXT
  5
A3
330
1F
100
AcDbEntity
  8
0
  6
Continuous
 62
     7
370
     0
100
AcDbMText
 10
11.5259211614
 20
1.624011166
 30
0.0
 40
0.0833333333
 41
0.0
 71
     1
 72
     1
  1
TO
  7
SLDTEXTSTYLE0
 73
     1
 44
1.0
  0
MTEXT
  5
A4
330
1F
100
AcDbEntity
  8
0
  6
Continuous
 62
     7
370
     0
100
AcDbMText
 10
12.0727277329
 20
1.7833937573
 30
0.0
 40
0.0833333333
 41
0.0
 71
     1
 72
     1
  1
04/13/06
  7
SLDTEXTSTYLE0
 73
     1
 44
1.0
  0
MTEXT
  5
A5
330
1F
100
AcDbEntity
  8
0
  6
Continuous
 62
     7
370
     0
100
AcDbMText
 10
11.5204832191
 20
1.7871494345
 30
0.0
 40
0.0833333333
 41
0.0
 71
     1
 72
     1
  1
TO
  7
SLDTEXTSTYLE0
 73
     1
 44
1.0
  0
MTEXT
  5
A6
330
1F
100
AcDbEntity
  8
0
  6
Continuous
 62
     7
370
     0
100
AcDbMText
 10
11.5259211614
 20
1.9557256454
 30
0.0
 40
0.0833333333
 41
0.0
 71
     1
 72
     1
  1
AP
  7
SLDTEXTSTYLE0
 73
     1
 44
1.0
  0
MTEXT
  5
A7
330
1F
100
AcDbEntity
  8
0
  6
Continuous
 62
     7
370
     0
100
AcDbMText
 10
12.0727277329
 20
1.9519699682
 30
0.0
 40
0.0833333333
 41
0.0
 71
     1
 72
     1
  1
04/12/06
  7
SLDTEXTSTYLE0
 73
     1
 44
1.0
  0
MTEXT
  5
A8
330
1F
100
AcDbEntity
  8
0
  6
Continuous
 62
     7
370
     0
100
AcDbMText
 10
14.2115626345
 20
0.8261085246
 30
0.0
 40
0.125
 41
0.0
 71
     1
 72
     1
  1
PART  NO.
  7
SLDTEXTSTYLE7
 73
     1
 44
1.0
  0
MTEXT
  5
A9
330
1F
100
AcDbEntity
  8
0
  6
Continuous
 62
     7
370
     0
100
AcDbMText
 10
12.7887323095
 20
1.9345885253
 30
0.0
 40
0.1458333333
 41
0.0
 71
     1
 72
     1
  1
TITLE:
  7
SLDTEXTSTYLE0
 73
     1
 44
1.0
  0
MTEXT
  5
AA
330
1F
100
AcDbEntity
  8
0
  6
Continuous
 62
     7
370
     0
100
AcDbMText
 10
12.7833450969
 20
1.4619937302
 30
0.0
 40
0.1458333333
 41
0.0
 71
     1
 72
     1
  1
MATERIAL:
  7
SLDTEXTSTYLE0
 73
     1
 44
1.0
  0
MTEXT
  5
AB
330
1F
100
AcDbEntity
  8
0
  6
Continuous
 62
     7
370
     0
100
AcDbMText
 10
16.0504557056
 20
1.282817129
 30
0.0
 40
0.1458333333
 41
0.0
 71
     1
 72
     1
  1
C
  7
SLDTEXTSTYLE0
 73
     1
 44
1.0
  0
MTEXT
  5
AC
330
1F
100
AcDbEntity
  8
0
  6
Continuous
 62
     7
370
     0
100
AcDbMText
 10
14.6786333213
 20
0.6276358074
 30
0.0
 40
0.1
 41
0.0
 71
     1
 72
     1
  1
MAP1075150-A1
  7
SLDTEXTSTYLE0
 73
     1
 44
1.0
  0
MTEXT
  5
AD
330
1F
100
AcDbEntity
  8
0
  6
Continuous
 62
     7
370
     0
100
AcDbMText
 10
13.0354571381
 20
0.6191987726
 30
0.0
 40
0.1
 41
0.0
 71
     1
 72
     1
  1
13301-E01
  7
SLDTEXTSTYLE0
 73
     1
 44
1.0
  0
MTEXT
  5
AE
330
1F
100
AcDbEntity
  8
0
  6
Continuous
 62
     7
370
     0
100
AcDbMText
 10
13.6439282049
 20
1.2657309203
 30
0.0
 40
0.1
 41
0.0
 71
     1
 72
     1
  1
SEE TABLE
  7
SLDTEXTSTYLE0
 73
     1
 44
1.0
  0
MTEXT
  5
B0
330
1F
100
AcDbEntity
  8
0
  6
Continuous
 62
     7
370
     0
100
AcDbMText
 10
12.9254105901
 20
1.710909901
 30
0.0
 40
0.1
 41
0.0
 71
     1
 72
     1
  1
MATCHED ACHROMATIC PAIR F1=75mm F2=150mm
  7
SLDTEXTSTYLE9
 73
     1
 44
1.0
  0
MTEXT
  5
B1
330
1F
100
AcDbEntity
  8
0
  6
Continuous
 62
     7
370
     0
100
AcDbMText
 10
12.9539659526
 20
2.3087908465
 30
0.0
 40
0.2291666667
 41
0.0
 71
     1
 72
     1
  1
THORLABS, INC.
  7
SLDTEXTSTYLE0
 73
     1
 44
1.0
  0
INSERT
  5
B8
330
1F
100
AcDbEntity
  8
0
  6
Continuous
 62
     7
370
     0
100
AcDbBlockReference
  2
SW_NOTE_1
 10
15.2801627025
 20
2.1686075287
 30
0.0
  0
INSERT
  5
CC
330
1F
100
AcDbEntity
  8
0
  6
Continuous
 62
     7
370
     0
100
AcDbBlockReference
  2
SW_NOTE_2
 10
0.7658550001
 20
1.8405796547
 30
0.0
  0
INSERT
  5
E9
330
1F
100
AcDbEntity
  8
0
  6
Continuous
 62
     7
370
     0
100
AcDbBlockReference
  2
SW_TABLEANNOTATION_0
 10
0.6121122112
 20
10.6504950495
 30
0.0
  0
ARC
  5
EA
330
1F
100
AcDbEntity
  8
0
  6
Continuous
 62
     7
370
     0
100
AcDbCircle
 10
2.1525596065
 20
5.2215628966
 30
0.0
 40
0.5001794919243152
100
AcDbArc
 50
84.9993951216
 51
263.2810741676
  0
SPLINE
  5
EB
330
1F
100
AcDbEntity
  8
0
  6
Continuous
 62
     7
370
     0
100
AcDbSpline
210
0.0
220
0.0
230
1.0
 70
    24
 71
     1
 72
     4
 73
     2
 74
     0
 42
0.00000001
 43
0.00000001
 40
0.0
 40
0.0
 40
1.0
 40
1.0
 10
2.094039210067967
 20
4.724818608374172
 30
0.0
 10
2.093545146192101
 20
4.720004587319488
 30
0.0
  0
SPLINE
  5
EC
330
1F
100
AcDbEntity
  8
0
  6
Continuous
 62
     7
370
     0
100
AcDbSpline
210
0.0
220
0.0
230
1.0
 70
    24
 71
     1
 72
     4
 73
     2
 74
     0
 42
0.00000001
 43
0.00000001
 40
0.0
 40
0.0
 40
1.0
 40
1.0
 10
2.196646235576186
 20
5.72459210890538
 30
0.0
 10
2.196158382045244
 20
5.719838587151802
 30
0.0
  0
ARC
  5
ED
330
1F
100
AcDbEntity
  8
0
  6
Continuous
 62
     7
370
     0
100
AcDbCircle
 10
2.1525596065
 20
5.2215628966
 30
0.0
 40
0.4500000000000018
100
AcDbArc
 50
85.0952085184
 51
263.1852607708
  0
LINE
  5
EE
330
1F
100
AcDbEntity
  8
0
  6
Continuous
 62
     7
370
     0
100
AcDbLine
 10
2.0940392101
 20
4.7248186084
 30
0.0
 11
2.099162873
 21
4.774742155
 31
0.0
  0
LINE
  5
EF
330
1F
100
AcDbEntity
  8
0
  6
Continuous
 62
     7
370
     0
100
AcDbLine
 10
2.196158382
 20
5.7198385872
 30
0.0
 11
2.1910347146
 21
5.6699150772
 31
0.0
  0
ARC
  5
F0
330
1F
100
AcDbEntity
  8
0
  6
Continuous
 62
     7
370
     0
100
AcDbCircle
 10
2.1525596065
 20
5.2215628966
 30
0.0
 40
0.5001794919243135
100
AcDbArc
 50
264.9993951216
 51
83.2810741676
  0
SPLINE
  5
F1
330
1F
100
AcDbEntity
  8
0
  6
Continuous
 62
     7
370
     0
100
AcDbSpline
210
0.0
220
0.0
230
1.0
 70
    24
 71
     1
 72
     4
 73
     2
 74
     0
 42
0.00000001
 43
0.00000001
 40
0.0
 40
0.0
 40
1.0
 40
1.0
 10
2.211080003002739
 20
5.718307184842693
 30
0.0
 10
2.211598097017673
 20
5.723355319859539
 30
0.0
  0
SPLINE
  5
F2
330
1F
100
AcDbEntity
  8
0
  6
Continuous
 62
     7
370
     0
100
AcDbSpline
210
0.0
220
0.0
230
1.0
 70
    24
 71
     1
 72
     4
 73
     2
 74
     0
 42
0.00000001
 43
0.00000001
 40
0.0
 40
0.0
 40
1.0
 40
1.0
 10
2.108419091867011
 20
4.718008660376606
 30
0.0
 10
2.108960831025461
 20
4.723287206065063
 30
0.0
  0
ARC
  5
F3
330
1F
100
AcDbEntity
  8
0
  6
Continuous
 62
     7
370
     0
100
AcDbCircle
 10
2.1525596065
 20
5.2215628966
 30
0.0
 40
0.4500000000000002
100
AcDbArc
 50
265.0952085184
 51
83.1852607708
  0
LINE
  5
F4
330
1F
100
AcDbEntity
  8
0
  6
Continuous
 62
     7
370
     0
100
AcDbLine
 10
2.211080003
 20
5.7183071848
 30
0.0
 11
2.2059563401
 21
5.6683836382
 31
0.0
  0
LINE
  5
F5
330
1F
100
AcDbEntity
  8
0
  6
Continuous
 62
     7
370
     0
100
AcDbLine
 10
2.108960831
 20
4.7232872061
 30
0.0
 11
2.1140844985
 21
4.773210716
 31
0.0
  0
ARC
  5
F6
330
1F
100
AcDbEntity
  8
0
  6
Continuous
 62
     7
370
     0
100
AcDbCircle
 10
2.1525596065
 20
5.2215628966
 30
0.0
 40
0.4500000000000001
100
AcDbArc
 50
83.1852607708
 51
85.0952085184
  0
ARC
  5
F7
330
1F
100
AcDbEntity
  8
0
  6
Continuous
 62
     7
370
     0
100
AcDbCircle
 10
2.1525596065
 20
5.2215628966
 30
0.0
 40
0.4500000000000002
100
AcDbArc
 50
263.1852607708
 51
265.0952085184
  0
CIRCLE
  5
F8
330
1F
100
AcDbEntity
  8
0
  6
Continuous
 62
     7
370
     0
100
AcDbCircle
 10
2.1525596065
 20
5.2215628966
 30
0.0
 40
0.5059999999999995
  0
CIRCLE
  5
F9
330
1F
100
AcDbEntity
  8
0
  6
Continuous
 62
     7
370
     0
100
AcDbCircle
 10
2.1525596065
 20
5.2215628966
 30
0.0
 40
0.5159999999999995
  0
CIRCLE
  5
FA
330
1F
100
AcDbEntity
  8
0
  6
Continuous
 62
     7
370
     0
100
AcDbCircle
 10
2.1525596065
 20
5.2215628966
 30
0.0
 40
0.5899999999999997
  0
CIRCLE
  5
FB
330
1F
100
AcDbEntity
  8
0
  6
Continuous
 62
     7
370
     0
100
AcDbCircle
 10
2.1525596065
 20
5.2215628966
 30
0.0
 40
0.5999999999999999
  0
DIMENSION
  5
FC
330
1F
100
AcDbEntity
  8
0
  6
Continuous
 62
     7
370
     0
100
AcDbDimension
  2
*D5
 10
1.7405291423
 20
4.7854082262
 30
0.0
 11
3.4933450231
 21
6.0375820866
 31
0.0
 70
   163
  1
<>
 71
     1
 42
-1.0
  3
SLDDIMSTYLE0
100
AcDbDiametricDimension
 15
2.5645900708
 25
5.657717567
 35
0.0
 40
0.0
  0
LINE
  5
10D
330
1F
100
AcDbEntity
  8
0
  6
PHANTOM
 62
     7
370
    30
100
AcDbLine
 10
2.1525596065
 20
6.057690493
 30
0.0
 11
2.1525596065
 21
4.4240258046
 31
0.0
  0
LINE
  5
10E
330
1F
100
AcDbEntity
  8
0
  6
Continuous
 62
     7
370
    30
100
AcDbLine
 10
2.1525596065
 20
6.057690493
 30
0.0
 11
1.6825596065
 21
6.057690493
 31
0.0
  0
SOLID
  5
10F
330
1F
100
AcDbEntity
  8
0
  6
Continuous
 62
     7
370
    30
100
AcDbTrace
 10
1.6825596065
 20
6.057690493
 30
0.0
 11
1.9225596065
 21
5.997690493
 31
0.0
 12
1.9225596065
 22
6.117690493
 32
0.0
 13
1.9225596065
 23
6.117690493
 33
0.0
  0
LINE
  5
110
330
1F
100
AcDbEntity
  8
0
  6
Continuous
 62
     7
370
    30
100
AcDbLine
 10
2.1525596065
 20
4.4240258046
 30
0.0
 11
1.6825596065
 21
4.4240258046
 31
0.0
  0
SOLID
  5
111
330
1F
100
AcDbEntity
  8
0
  6
Continuous
 62
     7
370
    30
100
AcDbTrace
 10
1.6825596065
 20
4.4240258046
 30
0.0
 11
1.9225596065
 21
4.3640258046
 31
0.0
 12
1.9225596065
 22
4.4840258046
 32
0.0
 13
1.9225596065
 23
4.4840258046
 33
0.0
  0
MTEXT
  5
112
330
1F
100
AcDbEntity
  8
0
  6
Continuous
 62
     7
100
AcDbMText
 10
1.5216417077
 20
6.1569850456
 30
0.0
 40
0.125
 41
0.0
 71
     1
 72
     1
  1
A
  7
SLDTEXTSTYLE0
 73
     1
 44
1.0
  0
MTEXT
  5
113
330
1F
100
AcDbEntity
  8
0
  6
Continuous
 62
     7
100
AcDbMText
 10
1.5216417077
 20
4.5233203571
 30
0.0
 40
0.125
 41
0.0
 71
     1
 72
     1
  1
A
  7
SLDTEXTSTYLE0
 73
     1
 44
1.0
  0
LINE
  5
114
330
1F
100
AcDbEntity
  8
0
  6
Continuous
 62
     7
370
     0
100
AcDbLine
 10
10.9774927279
 20
8.6800225727
 30
0.0
 11
10.9774927279
 21
8.6718584916
 31
0.0
  0
LINE
  5
115
330
1F
100
AcDbEntity
  8
0
  6
Continuous
 62
     7
370
     0
100
AcDbLine
 10
11.3946179232
 20
7.9492981693
 30
0.0
 11
11.4016878418
 21
7.9452154652
 31
0.0
  0
LINE
  5
116
330
1F
100
AcDbEntity
  8
0
  6
Continuous
 62
     7
370
     0
100
AcDbLine
 10
11.3999893638
 20
9.1268813785
 30
0.0
 11
11.1017811768
 21
8.9547294566
 31
0.0
  0
LINE
  5
117
330
1F
100
AcDbEntity
  8
0
  6
Continuous
 62
     7
370
     0
100
AcDbLine
 10
11.9467737803
 20
9.4425333034
 30
0.0
 11
11.4417893401
 21
9.1510119912
 31
0.0
  0
LINE
  5
118
330
1F
100
AcDbEntity
  8
0
  6
Continuous
 62
     7
370
     0
100
AcDbLine
 10
11.9230017397
 20
8.0432068831
 30
0.0
 11
12.5467250199
 21
8.4032746685
 31
0.0
  0
LINE
  5
119
330
1F
100
AcDbEntity
  8
0
  6
Continuous
 62
     7
370
     0
100
AcDbLine
 10
11.7905516407
 20
7.9667450685
 30
0.0
 11
11.8656985408
 21
8.0101264505
 31
0.0
  0
LINE
  5
11A
330
1F
100
AcDbEntity
  8
0
  6
Continuous
 62
     7
370
     0
100
AcDbLine
 10
11.7650562309
 20
7.9520268817
 30
0.0
 11
11.7847970062
 21
7.9634229887
 31
0.0
  0
LINE
  5
11B
330
1F
100
AcDbEntity
  8
0
  6
Continuous
 62
     7
370
     0
100
AcDbLine
 10
11.7017324164
 20
7.9154708217
 30
0.0
 11
11.7621312605
 21
7.9503383322
 31
0.0
  0
LINE
  5
11C
330
1F
100
AcDbEntity
  8
0
  6
Continuous
 62
     7
370
     0
100
AcDbLine
 10
12.6710134689
 20
8.6779815524
 30
0.0
 11
12.6710134689
 21
8.6861456335
 31
0.0
  0
LINE
  5
11D
330
1F
100
AcDbEntity
  8
0
  6
Continuous
 62
     7
370
     0
100
AcDbLine
 10
12.2538882735
 20
9.4087059558
 30
0.0
 11
12.246818355
 21
9.4127886598
 31
0.0
  0
LINE
  5
11E
330
1F
100
AcDbEntity
  8
0
  6
Continuous
 62
     7
370
     0
100
AcDbLine
 10
11.7847970062
 20
7.9634229887
 30
0.0
 11
11.7905516407
 21
7.9667450685
 31
0.0
  0
LINE
  5
11F
330
1F
100
AcDbEntity
  8
0
  6
Continuous
 62
     7
370
     0
100
AcDbLine
 10
11.7621312605
 20
7.9503383322
 30
0.0
 11
11.7650562309
 21
7.9520268817
 31
0.0
  0
LINE
  5
120
330
1F
100
AcDbEntity
  8
0
  6
Continuous
 62
     7
370
     0
100
AcDbLine
 10
11.8656985408
 20
8.0101264505
 30
0.0
 11
11.9230017397
 21
8.0432068831
 31
0.0
  0
LINE
  5
121
330
1F
100
AcDbEntity
  8
0
  6
Continuous
 62
     7
370
     0
100
AcDbLine
 10
11.4417893401
 20
9.1510119912
 30
0.0
 11
11.3999139255
 21
9.126837829
 31
0.0
  0
LWPOLYLINE
  5
122
330
1F
100
AcDbEntity
  8
0
  6
Continuous
 62
     7
370
     0
100
AcDbPolyline
 90
       84
 70
   128
 43
0.0
 10
11.8118676316
 20
8.1936980832
 10
11.8104427015
 20
8.2309444798
 10
11.8066363531
 20
8.2693368798
 10
11.8004703888
 20
8.3086553753
 10
11.7919801268
 20
8.3486747534
 10
11.7812141984
 20
8.3891657867
 10
11.7682342699
 20
8.4298965462
 10
11.7531146893
 20
8.4706337299
 10
11.73594206
 20
8.5111439988
 10
11.7168147453
 20
8.5511953139
 10
11.6958423048
 20
8.5905582647
 10
11.6731448667
 20
8.6290073839
 10
11.6488524399
 20
8.6663224384
 10
11.6231041692
 20
8.702289691
 10
11.5960475384
 20
8.7367031245
 10
11.5678375253
 20
8.7693656218
 10
11.5386357144
 20
8.8000900951
 10
11.5086093711
 20
8.8287005574
 10
11.4779304834
 20
8.8550331307
 10
11.4467747773
 20
8.8789369842
 10
11.4153207099
 20
8.900275199
 10
11.3837484472
 20
8.9189255515
 10
11.3522388322
 20
8.9347812144
 10
11.3209723492
 20
8.9477513677
 10
11.2901280897
 20
8.9577617197
 10
11.259882727
 20
8.9647549319
 10
11.2304095036
 20
8.9686909478
 10
11.2018772396
 20
8.9695472224
 10
11.1744493652
 20
8.9673188509
 10
11.1482829847
 20
8.9620185973
 10
11.1235279768
 20
8.9536768209
 10
11.1003261359
 20
8.9423413027
 10
11.0788103602
 20
8.9280769715
 10
11.0591038899
 20
8.910965532
 10
11.041319602
 20
8.8911049972
 10
11.0255593633
 20
8.8686091262
 10
11.011913447
 20
8.8436067735
 10
11.0004600157
 20
8.8162411501
 10
10.9912646735
 20
8.7866690041
 10
10.9843800906
 20
8.7550597218
 10
10.9798457013
 20
8.7215943585
 10
10.9776874781
 20
8.6864646007
 10
10.977917783
 20
8.6498716684
 10
10.9805352971
 20
8.6120251628
 10
10.9855250273
 20
8.573141865
 10
10.9928583929
 20
8.5334444952
 10
11.0024933892
 20
8.4931604363
 10
11.0143748276
 20
8.4525204316
 10
11.0284346524
 20
8.4117572636
 10
11.0445923303
 20
8.3711044199
 10
11.0627553114
 20
8.3307947563
 10
11.0828195599
 20
8.2910591629
 10
11.1046701496
 20
8.2521252417
 10
11.1281819222
 20
8.2142160025
 10
11.1532202045
 20
8.1775485861
 10
11.1796415795
 20
8.1423330201
 10
11.2072947079
 20
8.1087710161
 10
11.2360211951
 20
8.0770548142
 10
11.2656564983
 20
8.047366082
 10
11.2960308693
 20
8.0198748737
 10
11.3269703264
 20
7.9947386566
 10
11.3582976512
 20
7.9721014087
 10
11.3898334036
 20
7.9520927939
 10
11.4213969497
 20
7.93482742
 10
11.4528074964
 20
7.9204041813
 10
11.4838851268
 20
7.9089056929
 10
11.5144518311
 20
7.9003978171
 10
11.5443325261
 20
7.8949292862
 10
11.5733560577
 20
7.8925314235
 10
11.6013561819
 20
7.8932179637
 10
11.6281725165
 20
7.8969849743
 10
11.6536514599
 20
7.9038108784
 10
11.677647071
 20
7.9136565776
 10
11.7000219051
 20
7.9264656768
 10
11.7206478014
 20
7.9421648066
 10
11.7394066163
 20
7.9606640437
 10
11.7561909013
 20
7.9818574263
 10
11.7709045173
 20
8.0056235605
 10
11.7834631862
 20
8.0318263161
 10
11.7937949731
 20
8.0603156061
 10
11.8018406983
 20
8.0909282465
 10
11.8075542768
 20
8.1234888906
 10
11.8109029815
 20
8.1578110343
 10
11.8118676316
 20
8.1936980832
  0
LWPOLYLINE
  5
123
330
1F
100
AcDbEntity
  8
0
  6
Continuous
 62
     7
370
     0
100
AcDbPolyline
 90
       23
 70
   128
 43
0.0
 10
11.8260095791
 20
8.1937577507
 10
11.825054542
 20
8.1576879607
 10
11.8217322522
 20
8.1231695722
 10
11.8160612893
 20
8.0903956259
 10
11.8080733677
 20
8.0595494071
 10
11.7978131589
 20
8.0308034203
 10
11.7853380423
 20
8.0043184248
 10
11.7707177838
 20
7.9802425354
 10
11.7540341458
 20
7.9587103941
 10
11.7353804299
 20
7.9398424176
 10
11.7148609554
 20
7.9237441232
 10
11.6925904754
 20
7.910505539
 10
11.6686935355
 20
7.9002007006
 10
11.6433037771
 20
7.8928872369
 10
11.6165631899
 20
7.8886060477
 10
11.5886213183
 20
7.887381075
 10
11.5596344245
 20
7.8892191696
 10
11.529764615
 20
7.894110052
 10
11.4991789338
 20
7.9020263704
 10
11.4680484285
 20
7.9129238535
 10
11.4365471935
 20
7.9267415583
 10
11.4048513965
 20
7.9434022104
 10
11.4016878418
 20
7.9452154652
  0
LWPOLYLINE
  5
124
330
1F
100
AcDbEntity
  8
0
  6
Continuous
 62
     7
370
     0
100
AcDbPolyline
 90
       43
 70
   128
 43
0.0
 10
10.9774927279
 20
8.6800225727
 10
10.9784590512
 20
8.7125123175
 10
10.981781341
 20
8.7470307061
 10
10.9874523039
 20
8.7798046523
 10
10.9954402256
 20
8.8106508712
 10
11.0057004343
 20
8.8393968579
 10
11.0181755509
 20
8.8658818535
 10
11.0327958094
 20
8.8899577429
 10
11.0494794474
 20
8.9114898841
 10
11.0681331633
 20
8.9303578606
 10
11.0886526378
 20
8.9464561551
 10
11.1109231178
 20
8.9596947392
 10
11.1348200577
 20
8.9699995776
 10
11.1602098162
 20
8.9773130413
 10
11.1869504033
 20
8.9815942306
 10
11.2148922749
 20
8.9828192032
 10
11.2438791687
 20
8.9809811086
 10
11.2737489783
 20
8.9760902262
 10
11.3043346595
 20
8.9681739078
 10
11.3354651648
 20
8.9572764247
 10
11.3669663998
 20
8.94345872
 10
11.3986621968
 20
8.9267980678
 10
11.4303753
 20
8.9073876414
 10
11.461928357
 20
8.8853359917
 10
11.4931449102
 20
8.8607664405
 10
11.5238503841
 20
8.8338163906
 10
11.553873061
 20
8.8046365578
 10
11.5830450421
 20
8.7733901274
 10
11.6112031858
 20
8.7402518421
 10
11.6381900203
 20
8.7054070248
 10
11.6638546243
 20
8.6690505417
 10
11.688053471
 20
8.631385713
 10
11.7106512305
 20
8.5926231758
 10
11.7315215271
 20
8.5529797059
 10
11.7505476455
 20
8.5126770056
 10
11.767623184
 20
8.471940464
 10
11.7826526492
 20
8.4309978964
 10
11.7955519904
 20
8.3900782702
 10
11.806249069
 20
8.3494104245
 10
11.8146840628
 20
8.3092217905
 10
11.8208097999
 20
8.2697371193
 10
11.8245920225
 20
8.2311772251
 10
11.8260095791
 20
8.1937577507
  0
LINE
  5
125
330
1F
100
AcDbEntity
  8
0
  6
Continuous
 62
     7
370
     0
100
AcDbLine
 10
12.2274276221
 20
9.3338373243
 30
0.0
 11
12.2399167808
 21
9.3410471622
 31
0.0
  0
ARC
  5
126
330
1F
100
AcDbEntity
  8
0
  6
Continuous
 62
     7
370
     0
100
AcDbCircle
 10
11.8024378271
 20
8.7515122656
 30
0.0
 40
0.7209152514669694
100
AcDbArc
 50
49.7111051227
 51
53.8774563755
  0
LINE
  5
127
330
1F
100
AcDbEntity
  8
0
  6
Continuous
 62
     7
370
     0
100
AcDbLine
 10
12.2811010272
 20
9.3086316987
 30
0.0
 11
12.2686118684
 21
9.3014218609
 31
0.0
  0
ARC
  5
128
330
1F
100
AcDbEntity
  8
0
  6
Continuous
 62
     7
370
     0
100
AcDbCircle
 10
11.8149269859
 20
8.7587221034
 30
0.0
 40
0.7209152514675022
100
AcDbArc
 50
49.7111051227
 51
53.8774563755
  0
SPLINE
  5
129
330
1F
100
AcDbEntity
  8
0
  6
Continuous
 62
     7
370
     0
100
AcDbSpline
210
0.0
220
0.0
230
1.0
 70
     8
 71
     3
 72
     9
 73
     5
 74
     0
 42
0.00000001
 43
0.00000001
 40
0.0
 40
0.0
 40
0.0
 40
0.0
 40
0.5000993720193347
 40
1.0
 40
1.0
 40
1.0
 40
1.0
 10
12.23414940060266
 20
9.361097450187401
 30
0.0
 10
12.22489018275817
 20
9.357429265630303
 30
0.0
 10
12.20637542676657
 20
9.350094354286012
 30
0.0
 10
12.18392157994428
 20
9.348634053549551
 30
0.0
 10
12.17269688781724
 20
9.347904048294353
 30
0.0
  0
ARC
  5
12A
330
1F
100
AcDbEntity
  8
0
  6
Continuous
 62
     7
370
     0
100
AcDbCircle
 10
11.8834070349
 20
8.8439895083
 30
0.0
 40
0.6248366432091926
100
AcDbArc
 50
55.8518622506
 51
57.540485632
  0
SPLINE
  5
12B
330
1F
100
AcDbEntity
  8
0
  6
Continuous
 62
     7
370
     0
100
AcDbSpline
210
0.0
220
0.0
230
1.0
 70
    24
 71
     1
 72
     4
 73
     2
 74
     0
 42
0.00000001
 43
0.00000001
 40
0.0
 40
0.0
 40
1.0
 40
1.0
 10
12.19850196009804
 20
9.363132759157082
 30
0.0
 10
12.21875906539677
 20
9.371208482070012
 30
0.0
  0
SPLINE
  5
12C
330
1F
100
AcDbEntity
  8
0
  6
Continuous
 62
     7
370
     0
100
AcDbSpline
210
0.0
220
0.0
230
1.0
 70
    24
 71
     1
 72
     4
 73
     2
 74
     0
 42
0.00000001
 43
0.00000001
 40
0.0
 40
0.0
 40
1.0
 40
1.0
 10
12.17383826250362
 20
9.35800822576586
 30
0.0
 10
12.19850196009804
 20
9.363132759157082
 30
0.0
  0
SPLINE
  5
12D
330
1F
100
AcDbEntity
  8
0
  6
Continuous
 62
     7
370
     0
100
AcDbSpline
210
0.0
220
0.0
230
1.0
 70
    24
 71
     1
 72
     4
 73
     2
 74
     0
 42
0.00000001
 43
0.00000001
 40
0.0
 40
0.0
 40
1.0
 40
1.0
 10
12.15220152976647
 20
9.357153723757975
 30
0.0
 10
12.17383826250362
 20
9.35800822576586
 30
0.0
  0
LINE
  5
12E
330
1F
100
AcDbEntity
  8
0
  6
Continuous
 62
     7
370
     0
100
AcDbLine
 10
12.1416293651
 20
9.351050543
 30
0.0
 11
12.1522015298
 21
9.3571537238
 31
0.0
  0
ARC
  5
12F
330
1F
100
AcDbEntity
  8
0
  6
Continuous
 62
     7
370
     0
100
AcDbCircle
 10
11.833348901
 20
8.8208053228
 30
0.0
 40
0.6133488713484575
100
AcDbArc
 50
54.7791866142
 51
59.8266124693
  0
LINE
  5
130
330
1F
100
AcDbEntity
  8
0
  6
Continuous
 62
     7
370
     0
100
AcDbLine
 10
12.2003088685
 20
9.3295057041
 30
0.0
 11
12.1870850534
 21
9.3218717581
 31
0.0
  0
ARC
  5
131
330
1F
100
AcDbEntity
  8
0
  6
Continuous
 62
     7
370
     0
100
AcDbCircle
 10
11.8363103105
 20
8.8131407118
 30
0.0
 40
0.6317655858383332
100
AcDbArc
 50
54.8190364955
 51
57.8285381195
  0
LINE
  5
132
330
1F
100
AcDbEntity
  8
0
  6
Continuous
 62
     7
370
     0
100
AcDbLine
 10
12.1007597624
 20
9.4081695181
 30
0.0
 11
12.1214678895
 21
9.4201240655
 31
0.0
  0
ARC
  5
133
330
1F
100
AcDbEntity
  8
0
  6
Continuous
 62
     7
370
     0
100
AcDbCircle
 10
12.0902717614
 20
9.4231960783
 30
0.0
 40
0.01832472856541
100
AcDbArc
 50
255.4377992512
 51
304.9136613938
  0
SPLINE
  5
134
330
1F
100
AcDbEntity
  8
0
  6
Continuous
 62
     7
370
     0
100
AcDbSpline
210
0.0
220
0.0
230
1.0
 70
     8
 71
     3
 72
    11
 73
     7
 74
     0
 42
0.00000001
 43
0.00000001
 40
0.0
 40
0.0
 40
0.0
 40
0.0
 40
0.2500620333659314
 40
0.4999138376966921
 40
0.7498401673007722
 40
0.9999999999999999
 40
0.9999999999999999
 40
0.9999999999999999
 40
0.9999999999999999
 10
12.08425908139543
 20
9.40906557610502
 30
0.0
 10
12.08399075074416
 20
9.40871228957258
 30
0.0
 10
12.08345431502921
 20
9.408006013518351
 30
0.0
 10
12.08349253635237
 20
9.406970671791107
 30
0.0
 10
12.08420447501146
 20
9.406068068219568
 30
0.0
 10
12.08517757930555
 20
9.405662770473155
 30
0.0
 10
12.08566435863631
 20
9.405460026977973
 30
0.0
  0
SPLINE
  5
135
330
1F
100
AcDbEntity
  8
0
  6
Continuous
 62
     7
370
     0
100
AcDbSpline
210
0.0
220
0.0
230
1.0
 70
    24
 71
     1
 72
     4
 73
     2
 74
     0
 42
0.00000001
 43
0.00000001
 40
0.0
 40
0.0
 40
1.0
 40
1.0
 10
12.08758337014021
 20
9.411271575220518
 30
0.0
 10
12.08425908139543
 20
9.40906557610502
 30
0.0
  0
LINE
  5
136
330
1F
100
AcDbEntity
  8
0
  6
Continuous
 62
     7
370
     0
100
AcDbLine
 10
12.1099329952
 20
9.4241737391
 30
0.0
 11
12.0875833701
 21
9.4112715752
 31
0.0
  0
ARC
  5
137
330
1F
100
AcDbEntity
  8
0
  6
Continuous
 62
     7
370
     0
100
AcDbCircle
 10
11.9857809407
 20
9.0531896698
 30
0.0
 40
0.3912069941916312
100
AcDbArc
 50
71.4968720096
 51
73.8042188848
  0
LINE
  5
138
330
1F
100
AcDbEntity
  8
0
  6
Continuous
 62
     7
370
     0
100
AcDbLine
 10
12.073901448
 20
9.4167510971
 30
0.0
 11
12.0948965503
 21
9.4288713117
 31
0.0
  0
ARC
  5
139
330
1F
100
AcDbEntity
  8
0
  6
Continuous
 62
     7
370
     0
100
AcDbCircle
 10
12.0628846889
 20
9.4327437415
 30
0.0
 40
0.0194199293420715
100
AcDbArc
 50
259.1479619333
 51
304.5615627753
  0
SPLINE
  5
13A
330
1F
100
AcDbEntity
  8
0
  6
Continuous
 62
     7
370
     0
100
AcDbSpline
210
0.0
220
0.0
230
1.0
 70
     8
 71
     3
 72
    10
 73
     6
 74
     0
 42
0.00000001
 43
0.00000001
 40
0.0
 40
0.0
 40
0.0
 40
0.0
 40
0.4988226573033051
 40
0.7491700015752152
 40
1.0
 40
1.0
 40
1.0
 40
1.0
 10
12.05735111680186
 20
9.41594911445727
 30
0.0
 10
12.05730445170514
 20
9.415470257236809
 30
0.0
 10
12.05723436649535
 20
9.414751072854633
 30
0.0
 10
12.05815147409724
 20
9.41403305907816
 30
0.0
 10
12.05886921629949
 20
9.41379183405049
 30
0.0
 10
12.05922843300808
 20
9.413671105381903
 30
0.0
  0
SPLINE
  5
13B
330
1F
100
AcDbEntity
  8
0
  6
Continuous
 62
     7
370
     0
100
AcDbSpline
210
0.0
220
0.0
230
1.0
 70
     8
 71
     3
 72
     9
 73
     5
 74
     0
 42
0.00000001
 43
0.00000001
 40
0.0
 40
0.0
 40
0.0
 40
0.0
 40
0.5015771373281022
 40
1.0
 40
1.0
 40
1.0
 40
1.0
 10
12.06035387956308
 20
9.418597051099095
 30
0.0
 10
12.05963416574048
 20
9.418169896089426
 30
0.0
 10
12.05819926416895
 20
9.417318272325343
 30
0.0
 10
12.05763323745632
 20
9.416404539692065
 30
0.0
 10
12.05735111680186
 20
9.41594911445727
 30
0.0
  0
LINE
  5
13C
330
1F
100
AcDbEntity
  8
0
  6
Continuous
 62
     7
370
     0
100
AcDbLine
 10
12.0835299931
 20
9.4319763366
 30
0.0
 11
12.0603538796
 21
9.4185970511
 31
0.0
  0
ARC
  5
13D
330
1F
100
AcDbEntity
  8
0
  6
Continuous
 62
     7
370
     0
100
AcDbCircle
 10
11.9966112672
 20
9.092771546
 30
0.0
 40
0.3501638971522605
100
AcDbArc
 50
75.6276178488
 51
78.1119233844
  0
LINE
  5
13E
330
1F
100
AcDbEntity
  8
0
  6
Continuous
 62
     7
370
     0
100
AcDbLine
 10
12.0430207701
 20
9.4205746738
 30
0.0
 11
12.0687452229
 21
9.4354250843
 31
0.0
  0
SPLINE
  5
13F
330
1F
100
AcDbEntity
  8
0
  6
Continuous
 62
     7
370
     0
100
AcDbSpline
210
0.0
220
0.0
230
1.0
 70
     8
 71
     3
 72
    13
 73
     9
 74
     0
 42
0.00000001
 43
0.00000001
 40
0.0
 40
0.0
 40
0.0
 40
0.0
 40
0.2493551011003745
 40
0.3758643206426997
 40
0.4994912623306094
 40
0.6184449072879343
 40
0.749784392502041
 40
1.0
 40
1.0
 40
1.0
 40
1.0
 10
12.04039440142912
 20
9.408122363251591
 30
0.0
 10
12.03857094936685
 20
9.408699692332915
 30
0.0
 10
12.03582237687892
 20
9.40956992679767
 30
0.0
 10
12.03429431491126
 20
9.411501517424409
 30
0.0
 10
12.03425196489483
 20
9.41317437481474
 30
0.0
 10
12.03536382253807
 20
9.41502489129492
 30
0.0
 10
12.0380654997935
 20
9.417542826542155
 30
0.0
 10
12.04105821313544
 20
9.419373897142075
 30
0.0
 10
12.04302077005375
 20
9.420574673782937
 30
0.0
  0
ARC
  5
140
330
1F
100
AcDbEntity
  8
0
  6
Continuous
 62
     7
370
     0
100
AcDbCircle
 10
12.0503331749
 20
9.4502522695
 30
0.0
 40
0.0432863514271978
100
AcDbArc
 50
256.7261678296
 51
284.7457126688
  0
SPLINE
  5
141
330
1F
100
AcDbEntity
  8
0
  6
Continuous
 62
     7
370
     0
100
AcDbSpline
210
0.0
220
0.0
230
1.0
 70
     8
 71
     3
 72
    12
 73
     8
 74
     0
 42
0.00000001
 43
0.00000001
 40
0.0
 40
0.0
 40
0.0
 40
0.0
 40
0.2503533688407844
 40
0.4999961943216262
 40
0.7494886161542229
 40
0.8747044873187656
 40
0.9999999999999999
 40
0.9999999999999999
 40
0.9999999999999999
 40
0.9999999999999999
 10
12.06656412603674
 20
9.400495781627818
 30
0.0
 10
12.06536721587625
 20
9.400932415777017
 30
0.0
 10
12.06297679257992
 20
9.401804444837065
 30
0.0
 10
12.06049952715832
 20
9.403606711371697
 30
0.0
 10
12.0601411222779
 20
9.405543378087472
 30
0.0
 10
12.06060159772214
 20
9.407158214856025
 30
0.0
 10
12.06110103429075
 20
9.407980354237427
 30
0.0
 10
12.06135083196443
 20
9.408391554613662
 30
0.0
  0
ARC
  5
142
330
1F
100
AcDbEntity
  8
0
  6
Continuous
 62
     7
370
     0
100
AcDbCircle
 10
12.0787373707
 20
9.4396937213
 30
0.0
 40
0.0410446873780472
100
AcDbArc
 50
252.7473858147
 51
282.5841385091
  0
LINE
  5
143
330
1F
100
AcDbEntity
  8
0
  6
Continuous
 62
     7
370
     0
100
AcDbLine
 10
12.0813664492
 20
9.3959903667
 30
0.0
 11
12.0876799026
 21
9.3996350458
 31
0.0
  0
ARC
  5
144
330
1F
100
AcDbEntity
  8
0
  6
Continuous
 62
     7
370
     0
100
AcDbCircle
 10
11.9292811423
 20
8.9858413472
 30
0.0
 40
0.4374381770889159
100
AcDbArc
 50
67.6598176667
 51
69.6549677849
  0
LINE
  5
145
330
1F
100
AcDbEntity
  8
0
  6
Continuous
 62
     7
370
     0
100
AcDbLine
 10
12.1366943076
 20
9.4141969443
 30
0.0
 11
12.0955535495
 21
9.3904468901
 31
0.0
  0
ARC
  5
146
330
1F
100
AcDbEntity
  8
0
  6
Continuous
 62
     7
370
     0
100
AcDbCircle
 10
11.9707613467
 20
9.0104465748
 30
0.0
 40
0.4365181650194195
100
AcDbArc
 50
67.6583624042
 51
69.8031318746
  0
SPLINE
  5
147
330
1F
100
AcDbEntity
  8
0
  6
Continuous
 62
     7
370
     0
100
AcDbSpline
210
0.0
220
0.0
230
1.0
 70
    24
 71
     1
 72
     4
 73
     2
 74
     0
 42
0.00000001
 43
0.00000001
 40
0.0
 40
0.0
 40
1.0
 40
1.0
 10
12.03710993131544
 20
8.810802203894092
 30
0.0
 10
12.04344926834589
 20
8.801696997884719
 30
0.0
  0
SPLINE
  5
148
330
1F
100
AcDbEntity
  8
0
  6
Continuous
 62
     7
370
     0
100
AcDbSpline
210
0.0
220
0.0
230
1.0
 70
    24
 71
     1
 72
     4
 73
     2
 74
     0
 42
0.00000001
 43
0.00000001
 40
0.0
 40
0.0
 40
1.0
 40
1.0
 10
12.03042554112519
 20
8.81775661666612
 30
0.0
 10
12.03710993131544
 20
8.810802203894092
 30
0.0
  0
ARC
  5
149
330
1F
100
AcDbEntity
  8
0
  6
Continuous
 62
     7
370
     0
100
AcDbCircle
 10
12.0197315695
 20
8.8028034319
 30
0.0
 40
0.0183836547596359
100
AcDbArc
 50
54.429034532
 51
118.2541129863
  0
ARC
  5
14A
330
1F
100
AcDbEntity
  8
0
  6
Continuous
 62
     7
370
     0
100
AcDbCircle
 10
12.0206497477
 20
8.8045308637
 30
0.0
 40
0.0173729924847004
100
AcDbArc
 50
123.6262113317
 51
210.7673864472
  0
SPLINE
  5
14B
330
1F
100
AcDbEntity
  8
0
  6
Continuous
 62
     7
370
     0
100
AcDbSpline
210
0.0
220
0.0
230
1.0
 70
     8
 71
     3
 72
     9
 73
     5
 74
     0
 42
0.00000001
 43
0.00000001
 40
0.0
 40
0.0
 40
0.0
 40
0.0
 40
0.4993318956962389
 40
1.0
 40
1.0
 40
1.0
 40
1.0
 10
11.99750150263053
 20
8.801148189903826
 30
0.0
 10
11.9989895301037
 20
8.80049338517137
 30
0.0
 10
12.001969567001
 20
8.799182023453639
 30
0.0
 10
12.00447006378003
 20
8.796824153030427
 30
0.0
 10
12.0057219827622
 20
8.79564364251544
 30
0.0
  0
SPLINE
  5
14C
330
1F
100
AcDbEntity
  8
0
  6
Continuous
 62
     7
370
     0
100
AcDbSpline
210
0.0
220
0.0
230
1.0
 70
     8
 71
     3
 72
     9
 73
     5
 74
     0
 42
0.00000001
 43
0.00000001
 40
0.0
 40
0.0
 40
0.0
 40
0.0
 40
0.5001300021535778
 40
0.9999999999999999
 40
0.9999999999999999
 40
0.9999999999999999
 40
0.9999999999999999
 10
11.98680396526637
 20
8.800217765617816
 30
0.0
 10
11.98844646609752
 20
8.800958446412483
 30
0.0
 10
11.99173061386724
 20
8.802439422941541
 30
0.0
 10
11.99557820650632
 20
8.80157852630412
 30
0.0
 10
11.99750150263053
 20
8.801148189903826
 30
0.0
  0
SPLINE
  5
14D
330
1F
100
AcDbEntity
  8
0
  6
Continuous
 62
     7
370
     0
100
AcDbSpline
210
0.0
220
0.0
230
1.0
 70
     8
 71
     3
 72
    13
 73
     9
 74
     0
 42
0.00000001
 43
0.00000001
 40
0.0
 40
0.0
 40
0.0
 40
0.0
 40
0.2502329787228262
 40
0.4994066255430317
 40
0.6257013607058706
 40
0.7496002874184219
 40
0.8740371171721193
 40
0.9999999999999999
 40
0.9999999999999999
 40
0.9999999999999999
 40
0.9999999999999999
 10
11.98523775958233
 20
8.771897349509981
 30
0.0
 10
11.98389173290154
 20
8.77443932478542
 30
0.0
 10
11.9812053777857
 20
8.779512514182757
 30
0.0
 10
11.97984990990057
 20
8.78655772517888
 30
0.0
 10
11.98047106401073
 20
8.791770772189958
 30
0.0
 10
11.98178386063302
 20
8.795282931070943
 30
0.0
 10
11.98387893542764
 20
8.798239950175203
 30
0.0
 10
11.98582500190673
 20
8.799555820626757
 30
0.0
 10
11.98680396526637
 20
8.800217765617816
 30
0.0
  0
ARC
  5
14E
330
1F
100
AcDbEntity
  8
0
  6
Continuous
 62
     7
370
     0
100
AcDbCircle
 10
11.0868264403
 20
8.2532742194
 30
0.0
 40
1.037358592622929
100
AcDbArc
 50
27.4650865233
 51
29.9964179619
  0
LINE
  5
14F
330
1F
100
AcDbEntity
  8
0
  6
Continuous
 62
     7
370
     0
100
AcDbLine
 10
12.0638350019
 20
8.7643686494
 30
0.0
 11
12.0072664594
 21
8.731712325
 31
0.0
  0
ARC
  5
150
330
1F
100
AcDbEntity
  8
0
  6
Continuous
 62
     7
370
     0
100
AcDbCircle
 10
11.1435579536
 20
8.286018237
 30
0.0
 40
1.037173545187959
100
AcDbArc
 50
27.4649403524
 51
29.8146757912
  0
SPLINE
  5
151
330
1F
100
AcDbEntity
  8
0
  6
Continuous
 62
     7
370
     0
100
AcDbSpline
210
0.0
220
0.0
230
1.0
 70
    24
 71
     1
 72
     4
 73
     2
 74
     0
 42
0.00000001
 43
0.00000001
 40
0.0
 40
0.0
 40
1.0
 40
1.0
 10
11.88455212349731
 20
8.916110400137505
 30
0.0
 10
11.92226813300399
 20
8.970553205343702
 30
0.0
  0
ARC
  5
152
330
1F
100
AcDbEntity
  8
0
  6
Continuous
 62
     7
370
     0
100
AcDbCircle
 10
11.145588244
 20
8.2962425427
 30
0.0
 40
0.9645225636909456
100
AcDbArc
 50
38.3609151362
 51
39.9910599222
  0
SPLINE
  5
153
330
1F
100
AcDbEntity
  8
0
  6
Continuous
 62
     7
370
     0
100
AcDbSpline
210
0.0
220
0.0
230
1.0
 70
    24
 71
     1
 72
     4
 73
     2
 74
     0
 42
0.00000001
 43
0.00000001
 40
0.0
 40
0.0
 40
1.0
 40
1.0
 10
11.97601278515767
 20
8.904633598388392
 30
0.0
 10
11.90188678002405
 20
8.894837815227607
 30
0.0
  0
ARC
  5
154
330
1F
100
AcDbEntity
  8
0
  6
Continuous
 62
     7
370
     0
100
AcDbCircle
 10
11.1827381728
 20
8.3135620079
 30
0.0
 40
0.9892675248421609
100
AcDbArc
 50
36.6899193892
 51
38.1327639349
  0
SPLINE
  5
155
330
1F
100
AcDbEntity
  8
0
  6
Continuous
 62
     7
370
     0
100
AcDbSpline
210
0.0
220
0.0
230
1.0
 70
    24
 71
     1
 72
     4
 73
     2
 74
     0
 42
0.00000001
 43
0.00000001
 40
0.0
 40
0.0
 40
1.0
 40
1.0
 10
11.94887518202241
 20
8.922018135395314
 30
0.0
 10
11.96087824890331
 20
8.924420631197812
 30
0.0
  0
ARC
  5
156
330
1F
100
AcDbEntity
  8
0
  6
Continuous
 62
     7
370
     0
100
AcDbCircle
 10
11.1925436779
 20
8.3233352187
 30
0.0
 40
0.964602808911982
100
AcDbArc
 50
38.3637818707
 51
39.9778468165
  0
SPLINE
  5
157
330
1F
100
AcDbEntity
  8
0
  6
Continuous
 62
     7
370
     0
100
AcDbSpline
210
0.0
220
0.0
230
1.0
 70
    24
 71
     1
 72
     4
 73
     2
 74
     0
 42
0.00000001
 43
0.00000001
 40
0.0
 40
0.0
 40
1.0
 40
1.0
 10
11.9387354372006
 20
8.951598654490633
 30
0.0
 10
11.93171197816571
 20
8.943084202363663
 30
0.0
  0
ARC
  5
158
330
1F
100
AcDbEntity
  8
0
  6
Continuous
 62
     7
370
     0
100
AcDbCircle
 10
11.2244617666
 20
8.3476836185
 30
0.0
 40
0.9353610250319648
100
AcDbArc
 50
40.2143627832
 51
41.7524491787
  0
LINE
  5
159
330
1F
100
AcDbEntity
  8
0
  6
Continuous
 62
     7
370
     0
100
AcDbLine
 10
11.7862756228
 20
9.0805912261
 30
0.0
 11
11.7958261559
 21
9.0861046316
 31
0.0
  0
ARC
  5
15A
330
1F
100
AcDbEntity
  8
0
  6
Continuous
 62
     7
370
     0
100
AcDbCircle
 10
11.3935858771
 20
8.5394572134
 30
0.0
 40
0.6686039605120084
100
AcDbArc
 50
54.0323852448
 51
54.8010069957
  0
LINE
  5
15B
330
1F
100
AcDbEntity
  8
0
  6
Continuous
 62
     7
370
     0
100
AcDbLine
 10
11.7657573892
 20
9.0781763564
 30
0.0
 11
11.7789812044
 21
9.0858103023
 31
0.0
  0
ARC
  5
15C
330
1F
100
AcDbEntity
  8
0
  6
Continuous
 62
     7
370
     0
100
AcDbCircle
 10
11.380362062
 20
8.5318232675
 30
0.0
 40
0.6686039604785305
100
AcDbArc
 50
54.0323852448
 51
54.8010069957
  0
LINE
  5
15D
330
1F
100
AcDbEntity
  8
0
  6
Continuous
 62
     7
370
     0
100
AcDbLine
 10
11.738522957
 20
9.053024199
 30
0.0
 11
11.7730518076
 21
9.0729572801
 31
0.0
  0
ARC
  5
15E
330
1F
100
AcDbEntity
  8
0
  6
Continuous
 62
     7
370
     0
100
AcDbCircle
 10
11.332970676
 20
8.4942379781
 30
0.0
 40
0.6904452862286274
100
AcDbArc
 50
52.5994328459
 51
54.0288461966
  0
SPLINE
  5
15F
330
1F
100
AcDbEntity
  8
0
  6
Continuous
 62
     7
370
     0
100
AcDbSpline
210
0.0
220
0.0
230
1.0
 70
    24
 71
     1
 72
     4
 73
     2
 74
     0
 42
0.00000001
 43
0.00000001
 40
0.0
 40
0.0
 40
1.0
 40
1.0
 10
11.81505145617671
 20
9.040096219080322
 30
0.0
 10
11.75233589089433
 20
9.042733657025757
 30
0.0
  0
LINE
  5
160
330
1F
100
AcDbEntity
  8
0
  6
Continuous
 62
     7
370
     0
100
AcDbLine
 10
11.8281949183
 20
9.0476837782
 30
0.0
 11
11.8150514562
 21
9.0400962191
 31
0.0
  0
ARC
  5
161
330
1F
100
AcDbEntity
  8
0
  6
Continuous
 62
     7
370
     0
100
AcDbCircle
 10
11.3543043467
 20
8.4875455432
 30
0.0
 40
0.7337077866988507
100
AcDbArc
 50
49.7679666657
 51
52.5854672456
  0
LINE
  5
162
330
1F
100
AcDbEntity
  8
0
  6
Continuous
 62
     7
370
     0
100
AcDbLine
 10
11.8096390898
 20
9.0758140896
 30
0.0
 11
11.8000885566
 21
9.0703006842
 31
0.0
  0
ARC
  5
163
330
1F
100
AcDbEntity
  8
0
  6
Continuous
 62
     7
370
     0
100
AcDbCircle
 10
11.3902738749
 20
8.5273184107
 30
0.0
 40
0.6904452862317662
100
AcDbArc
 50
52.5994328459
 51
54.0288461966
  0
ARC
  5
164
330
1F
100
AcDbEntity
  8
0
  6
Continuous
 62
     7
370
     0
100
AcDbCircle
 10
11.6877474362
 20
9.0907399566
 30
0.0
 40
0.0532465604448554
100
AcDbArc
 50
66.9211369329
 51
126.9065503728
  0
SPLINE
  5
165
330
1F
100
AcDbEntity
  8
0
  6
Continuous
 62
     7
370
     0
100
AcDbSpline
210
0.0
220
0.0
230
1.0
 70
    24
 71
     1
 72
     4
 73
     2
 74
     0
 42
0.00000001
 43
0.00000001
 40
0.0
 40
0.0
 40
1.0
 40
1.0
 10
11.64427894169966
 20
9.125089938527347
 30
0.0
 10
11.65577225658222
 20
9.1333167588092
 30
0.0
  0
SPLINE
  5
166
330
1F
100
AcDbEntity
  8
0
  6
Continuous
 62
     7
370
     0
100
AcDbSpline
210
0.0
220
0.0
230
1.0
 70
     8
 71
     3
 72
    12
 73
     8
 74
     0
 42
0.00000001
 43
0.00000001
 40
0.0
 40
0.0
 40
0.0
 40
0.0
 40
0.2503309494299806
 40
0.4997648043321493
 40
0.6249322238031033
 40
0.7501904501281048
 40
1.0
 40
1.0
 40
1.0
 40
1.0
 10
11.65015876351203
 20
9.106425434908681
 30
0.0
 10
11.6478334758644
 20
9.107629420231126
 30
0.0
 10
11.64319123354925
 20
9.11003307623315
 30
0.0
 10
11.6398661280084
 20
9.114004565522608
 30
0.0
 10
11.63951392196329
 20
9.117449024772439
 30
0.0
 10
11.64028081209633
 20
9.120958738834846
 30
0.0
 10
11.64268059444833
 20
9.1234383933479
 30
0.0
 10
11.64427894169966
 20
9.125089938527347
 30
0.0
  0
ARC
  5
167
330
1F
100
AcDbEntity
  8
0
  6
Continuous
 62
     7
370
     0
100
AcDbCircle
 10
11.6728154765
 20
9.1535096347
 30
0.0
 40
0.0522517799826176
100
AcDbArc
 50
244.3033417421
 51
305.0336129423
  0
SPLINE
  5
168
330
1F
100
AcDbEntity
  8
0
  6
Continuous
 62
     7
370
     0
100
AcDbSpline
210
0.0
220
0.0
230
1.0
 70
     8
 71
     3
 72
     9
 73
     5
 74
     0
 42
0.00000001
 43
0.00000001
 40
0.0
 40
0.0
 40
0.0
 40
0.0
 40
0.4986702672090049
 40
1.0
 40
1.0
 40
1.0
 40
1.0
 10
11.71878023934121
 20
9.124866479096946
 30
0.0
 10
11.7169260077023
 20
9.122242982342788
 30
0.0
 10
11.71320765559504
 20
9.116981997426162
 30
0.0
 10
11.70628267160136
 20
9.112814408323239
 30
0.0
 10
11.70281097122622
 20
9.110725071991888
 30
0.0
  0
SPLINE
  5
169
330
1F
100
AcDbEntity
  8
0
  6
Continuous
 62
     7
370
     0
100
AcDbSpline
210
0.0
220
0.0
230
1.0
 70
     8
 71
     3
 72
    10
 73
     6
 74
     0
 42
0.00000001
 43
0.00000001
 40
0.0
 40
0.0
 40
0.0
 40
0.0
 40
0.499206798160621
 40
0.7495375815250997
 40
1.0
 40
1.0
 40
1.0
 40
1.0
 10
11.70861996861974
 20
9.139724990961998
 30
0.0
 10
11.71210856027737
 20
9.137768408756138
 30
0.0
 10
11.71734653092124
 20
9.134830684550375
 30
0.0
 10
11.71977047413455
 20
9.129193429571284
 30
0.0
 10
11.71911037544201
 20
9.126309048644671
 30
0.0
 10
11.71878023934121
 20
9.124866479096946
 30
0.0
  0
SPLINE
  5
16A
330
1F
100
AcDbEntity
  8
0
  6
Continuous
 62
     7
370
     0
100
AcDbSpline
210
0.0
220
0.0
230
1.0
 70
     8
 71
     3
 72
     9
 73
     5
 74
     0
 42
0.00000001
 43
0.00000001
 40
0.0
 40
0.0
 40
0.0
 40
0.0
 40
0.5000993720193344
 40
1.0
 40
1.0
 40
1.0
 40
1.0
 10
11.64262096229537
 20
9.16497696047265
 30
0.0
 10
11.63338925437329
 20
9.16080013746804
 30
0.0
 10
11.61492950729384
 20
9.15244815136627
 30
0.0
 10
11.59279269027186
 20
9.14731854578653
 30
0.0
 10
11.58172648154108
 20
9.144754252735922
 30
0.0
  0
ARC
  5
16B
330
1F
100
AcDbEntity
  8
0
  6
Continuous
 62
     7
370
     0
100
AcDbCircle
 10
11.5356305184
 20
8.8083297369
 30
0.0
 40
0.3723495631079732
100
AcDbArc
 50
73.301304519
 51
75.6859157463
  0
SPLINE
  5
16C
330
1F
100
AcDbEntity
  8
0
  6
Continuous
 62
     7
370
     0
100
AcDbSpline
210
0.0
220
0.0
230
1.0
 70
    24
 71
     1
 72
     4
 73
     2
 74
     0
 42
0.00000001
 43
0.00000001
 40
0.0
 40
0.0
 40
1.0
 40
1.0
 10
11.60754193796535
 20
9.159875381111782
 30
0.0
 10
11.62768918386372
 20
9.169119702501623
 30
0.0
  0
SPLINE
  5
16D
330
1F
100
AcDbEntity
  8
0
  6
Continuous
 62
     7
370
     0
100
AcDbSpline
210
0.0
220
0.0
230
1.0
 70
    24
 71
     1
 72
     4
 73
     2
 74
     0
 42
0.00000001
 43
0.00000001
 40
0.0
 40
0.0
 40
1.0
 40
1.0
 10
11.58318867109957
 20
9.151760066941375
 30
0.0
 10
11.60754193796536
 20
9.159875381111782
 30
0.0
  0
SPLINE
  5
16E
330
1F
100
AcDbEntity
  8
0
  6
Continuous
 62
     7
370
     0
100
AcDbSpline
210
0.0
220
0.0
230
1.0
 70
    24
 71
     1
 72
     4
 73
     2
 74
     0
 42
0.00000001
 43
0.00000001
 40
0.0
 40
0.0
 40
1.0
 40
1.0
 10
11.56202177255684
 20
9.146983436257104
 30
0.0
 10
11.58318867109957
 20
9.151760066941375
 30
0.0
  0
LINE
  5
16F
330
1F
100
AcDbEntity
  8
0
  6
Continuous
 62
     7
370
     0
100
AcDbLine
 10
11.5514496079
 20
9.1408802555
 30
0.0
 11
11.5620217726
 21
9.1469834363
 31
0.0
  0
ARC
  5
170
330
1F
100
AcDbEntity
  8
0
  6
Continuous
 62
     7
370
     0
100
AcDbCircle
 10
11.4815095083
 20
8.7835604141
 30
0.0
 40
0.3641003798241135
100
AcDbArc
 50
71.7781186244
 51
78.9252113586
  0
LINE
  5
171
330
1F
100
AcDbEntity
  8
0
  6
Continuous
 62
     7
370
     0
100
AcDbLine
 10
11.6085866718
 20
9.1370360892
 30
0.0
 11
11.5953628567
 21
9.1294021433
 31
0.0
  0
ARC
  5
172
330
1F
100
AcDbEntity
  8
0
  6
Continuous
 62
     7
370
     0
100
AcDbCircle
 10
11.4909521923
 20
8.7782506642
 30
0.0
 40
0.3775776105944255
100
AcDbArc
 50
71.8473065229
 51
76.0891260469
  0
ARC
  5
173
330
1F
100
AcDbEntity
  8
0
  6
Continuous
 62
     7
370
     0
100
AcDbCircle
 10
11.5525029111
 20
9.0562144616
 30
0.0
 40
0.1240992722413906
100
AcDbArc
 50
99.0168179031
 51
123.7993280532
  0
SPLINE
  5
174
330
1F
100
AcDbEntity
  8
0
  6
Continuous
 62
     7
370
     0
100
AcDbSpline
210
0.0
220
0.0
230
1.0
 70
    24
 71
     1
 72
     4
 73
     2
 74
     0
 42
0.00000001
 43
0.00000001
 40
0.0
 40
0.0
 40
1.0
 40
1.0
 10
11.47173524244255
 20
9.152005584986336
 30
0.0
 10
11.48346823950167
 20
9.159339839142152
 30
0.0
  0
SPLINE
  5
175
330
1F
100
AcDbEntity
  8
0
  6
Continuous
 62
     7
370
     0
100
AcDbSpline
210
0.0
220
0.0
230
1.0
 70
     8
 71
     3
 72
    12
 73
     8
 74
     0
 42
0.00000001
 43
0.00000001
 40
0.0
 40
0.0
 40
0.0
 40
0.0
 40
0.2503309494299776
 40
0.4997648043321521
 40
0.6249322238031053
 40
0.7501904501281069
 40
1.0
 40
1.0
 40
1.0
 40
1.0
 10
11.47464641983508
 20
9.14524645238241
 30
0.0
 10
11.4726350477042
 20
9.145113924512406
 30
0.0
 10
11.46861951146421
 20
9.14484934370379
 30
0.0
 10
11.46609349601279
 20
9.145633135381775
 30
0.0
 10
11.466254911032
 20
9.14707903408256
 30
0.0
 10
11.46746496907964
 20
9.14889352198944
 30
0.0
 10
11.47002809926082
 20
9.150761463902093
 30
0.0
 10
11.47173524244255
 20
9.152005584986336
 30
0.0
  0
ARC
  5
176
330
1F
100
AcDbEntity
  8
0
  6
Continuous
 62
     7
370
     0
100
AcDbCircle
 10
11.4626708414
 20
9.2597379305
 30
0.0
 40
0.1151160850276771
100
AcDbArc
 50
275.9713096576
 51
302.5041968677
  0
SPLINE
  5
177
330
1F
100
AcDbEntity
  8
0
  6
Continuous
 62
     7
370
     0
100
AcDbSpline
210
0.0
220
0.0
230
1.0
 70
     8
 71
     3
 72
     9
 73
     5
 74
     0
 42
0.00000001
 43
0.00000001
 40
0.0
 40
0.0
 40
0.0
 40
0.0
 40
0.498670267209002
 40
1.0
 40
1.0
 40
1.0
 40
1.0
 10
11.54096618437621
 20
9.17439568572888
 30
0.0
 10
11.53896359695974
 20
9.172530753993486
 30
0.0
 10
11.534947742099
 20
9.168790944628409
 30
0.0
 10
11.52800858570132
 20
9.16470363152199
 30
0.0
 10
11.52452978027867
 20
9.162654539934517
 30
0.0
  0
SPLINE
  5
178
330
1F
100
AcDbEntity
  8
0
  6
Continuous
 62
     7
370
     0
100
AcDbSpline
210
0.0
220
0.0
230
1.0
 70
     8
 71
     3
 72
    10
 73
     6
 74
     0
 42
0.00000001
 43
0.00000001
 40
0.0
 40
0.0
 40
0.0
 40
0.0
 40
0.4992067981606245
 40
0.7495375815251003
 40
1.0
 40
1.0
 40
1.0
 40
1.0
 10
11.53305353057861
 20
9.178780162253119
 30
0.0
 10
11.53608137289038
 20
9.178869864199962
 30
0.0
 10
11.54062754816676
 20
9.179004547823148
 30
0.0
 10
11.54232593993059
 20
9.176874259378469
 30
0.0
 10
11.54141951564652
 20
9.175222021710745
 30
0.0
 10
11.54096618437621
 20
9.17439568572888
 30
0.0
  0
LINE
  5
179
330
1F
100
AcDbEntity
  8
0
  6
Continuous
 62
     7
370
     0
100
AcDbLine
 10
11.4312780199
 20
9.1445567522
 30
0.0
 11
11.451986147
 21
9.1565112995
 31
0.0
  0
ARC
  5
17A
330
1F
100
AcDbEntity
  8
0
  6
Continuous
 62
     7
370
     0
100
AcDbCircle
 10
11.1947731776
 20
9.5535133864
 30
0.0
 40
0.472419378390913
100
AcDbArc
 50
298.1791432714
 51
300.0413430062
  0
SPLINE
  5
17B
330
1F
100
AcDbEntity
  8
0
  6
Continuous
 62
     7
370
     0
100
AcDbSpline
210
0.0
220
0.0
230
1.0
 70
     8
 71
     3
 72
    11
 73
     7
 74
     0
 42
0.00000001
 43
0.00000001
 40
0.0
 40
0.0
 40
0.0
 40
0.0
 40
0.2500620333659191
 40
0.4999138376966835
 40
0.7498401673007464
 40
1.0
 40
1.0
 40
1.0
 40
1.0
 10
11.41775312317116
 20
9.137121606148618
 30
0.0
 10
11.41742553678142
 20
9.136930059253661
 30
0.0
 10
11.4167706394063
 20
9.136547126498664
 30
0.0
 10
11.41649569047737
 20
9.136370655123129
 30
0.0
 10
11.41682244051743
 20
9.136530354642563
 30
0.0
 10
11.41751653493657
 20
9.136901607558755
 30
0.0
 10
11.41786374419141
 20
9.13708732069062
 30
0.0
  0
SPLINE
  5
17C
330
1F
100
AcDbEntity
  8
0
  6
Continuous
 62
     7
370
     0
100
AcDbSpline
210
0.0
220
0.0
230
1.0
 70
    24
 71
     1
 72
     4
 73
     2
 74
     0
 42
0.00000001
 43
0.00000001
 40
0.0
 40
0.0
 40
1.0
 40
1.0
 10
11.42116329330087
 20
9.139093460806924
 30
0.0
 10
11.41775312317116
 20
9.137121606148618
 30
0.0
  0
LINE
  5
17D
330
1F
100
AcDbEntity
  8
0
  6
Continuous
 62
     7
370
     0
100
AcDbLine
 10
11.4435129183
 20
9.1519956247
 30
0.0
 11
11.4211632933
 21
9.1390934608
 31
0.0
  0
ARC
  5
17E
330
1F
100
AcDbEntity
  8
0
  6
Continuous
 62
     7
370
     0
100
AcDbCircle
 10
11.9795804018
 20
8.0981345584
 30
0.0
 40
1.180787495895098
100
AcDbArc
 50
118.4021064963
 51
119.36512617
  0
LINE
  5
17F
330
1F
100
AcDbEntity
  8
0
  6
Continuous
 62
     7
370
     0
100
AcDbLine
 10
11.4116176426
 20
9.1331472665
 30
0.0
 11
11.4179310961
 21
9.1367919455
 31
0.0
  0
ARC
  5
180
330
1F
100
AcDbEntity
  8
0
  6
Continuous
 62
     7
370
     0
100
AcDbCircle
 10
11.5014181784
 20
8.9525049691
 30
0.0
 40
0.2017319405419428
100
AcDbArc
 50
113.0901995034
 51
116.4327973303
  0
LINE
  5
181
330
1F
100
AcDbEntity
  8
0
  6
Continuous
 62
     7
370
     0
100
AcDbLine
 10
11.4634437496
 20
9.1618259343
 30
0.0
 11
11.4223029914
 21
9.1380758801
 31
0.0
  0
ARC
  5
182
330
1F
100
AcDbEntity
  8
0
  6
Continuous
 62
     7
370
     0
100
AcDbCircle
 10
11.5425289391
 20
8.9763216206
 30
0.0
 40
0.2016589139750498
100
AcDbArc
 50
113.0897800811
 51
116.6788879449
  0
ARC
  5
183
330
1F
100
AcDbEntity
  8
0
  6
Continuous
 62
     7
370
     0
100
AcDbCircle
 10
11.8654783864
 20
8.6602266765
 30
0.0
 40
0.0381813883779766
100
AcDbArc
 50
35.1994104873
 51
85.5777220511
  0
LINE
  5
184
330
1F
100
AcDbEntity
  8
0
  6
Continuous
 62
     7
370
     0
100
AcDbLine
 10
11.9099021547
 20
8.6898692876
 30
0.0
 11
11.8966783396
 21
8.6822353416
 31
0.0
  0
SPLINE
  5
185
330
1F
100
AcDbEntity
  8
0
  6
Continuous
 62
     7
370
     0
100
AcDbSpline
210
0.0
220
0.0
230
1.0
 70
    24
 71
     1
 72
     4
 73
     2
 74
     0
 42
0.00000001
 43
0.00000001
 40
0.0
 40
0.0
 40
1.0
 40
1.0
 10
11.8899540777557
 20
8.705926104550784
 30
0.0
 10
11.90990215474121
 20
8.689869287622198
 30
0.0
  0
LINE
  5
186
330
1F
100
AcDbEntity
  8
0
  6
Continuous
 62
     7
370
     0
100
AcDbLine
 10
11.9277774031
 20
8.7277610455
 30
0.0
 11
11.8899540778
 21
8.7059261046
 31
0.0
  0
ARC
  5
187
330
1F
100
AcDbEntity
  8
0
  6
Continuous
 62
     7
370
     0
100
AcDbCircle
 10
11.0231474027
 20
8.2165334925
 30
0.0
 40
1.039090491048576
100
AcDbArc
 50
29.471806053
 51
30.7321011597
  0
LINE
  5
188
330
1F
100
AcDbEntity
  8
0
  6
Continuous
 62
     7
370
     0
100
AcDbLine
 10
11.8590111589
 20
8.71445385
 30
0.0
 11
11.9163143577
 21
8.7475342826
 31
0.0
  0
ARC
  5
189
330
1F
100
AcDbEntity
  8
0
  6
Continuous
 62
     7
370
     0
100
AcDbCircle
 10
10.9658536931
 20
8.1834586133
 30
0.0
 40
1.039079496531834
100
AcDbArc
 50
29.7009417964
 51
30.7321053375
  0
LINE
  5
18A
330
1F
100
AcDbEntity
  8
0
  6
Continuous
 62
     7
370
     0
100
AcDbLine
 10
11.8492804957
 20
8.7650932644
 30
0.0
 11
11.8654429364
 21
8.7744236429
 31
0.0
  0
ARC
  5
18B
330
1F
100
AcDbEntity
  8
0
  6
Continuous
 62
     7
370
     0
100
AcDbCircle
 10
10.9884062637
 20
8.1967619822
 30
0.0
 40
1.031554598456123
100
AcDbArc
 50
32.2231007445
 51
33.4319635372
  0
LINE
  5
18C
330
1F
100
AcDbEntity
  8
0
  6
Continuous
 62
     7
370
     0
100
AcDbLine
 10
11.8772414586
 20
8.756135226
 30
0.0
 11
11.8610790179
 21
8.7468048476
 31
0.0
  0
ARC
  5
18D
330
1F
100
AcDbEntity
  8
0
  6
Continuous
 62
     7
370
     0
100
AcDbCircle
 10
11.0045687044
 20
8.2060923606
 30
0.0
 40
1.031554598499547
100
AcDbArc
 50
32.2231007446
 51
33.4319635372
  0
LINE
  5
18E
330
1F
100
AcDbEntity
  8
0
  6
Continuous
 62
     7
370
     0
100
AcDbLine
 10
11.7575552911
 20
8.8799750438
 30
0.0
 11
11.8008655815
 21
8.9049775423
 31
0.0
  0
SPLINE
  5
18F
330
1F
100
AcDbEntity
  8
0
  6
Continuous
 62
     7
370
     0
100
AcDbSpline
210
0.0
220
0.0
230
1.0
 70
    24
 71
     1
 72
     4
 73
     2
 74
     0
 42
0.00000001
 43
0.00000001
 40
0.0
 40
0.0
 40
1.0
 40
1.0
 10
11.79109688944151
 20
8.915653439510104
 30
0.0
 10
11.75755529112069
 20
8.879975043826763
 30
0.0
  0
ARC
  5
190
330
1F
100
AcDbEntity
  8
0
  6
Continuous
 62
     7
370
     0
100
AcDbCircle
 10
11.1392201513
 20
8.3095886043
 30
0.0
 40
0.8900886844929549
100
AcDbArc
 50
42.9143155412
 51
44.0486281296
  0
SPLINE
  5
191
330
1F
100
AcDbEntity
  8
0
  6
Continuous
 62
     7
370
     0
100
AcDbSpline
210
0.0
220
0.0
230
1.0
 70
    24
 71
     1
 72
     4
 73
     2
 74
     0
 42
0.00000001
 43
0.00000001
 40
0.0
 40
0.0
 40
1.0
 40
1.0
 10
11.72565226053224
 20
8.91361502029124
 30
0.0
 10
11.77897136674962
 20
8.928439352492358
 30
0.0
  0
LINE
  5
192
330
1F
100
AcDbEntity
  8
0
  6
Continuous
 62
     7
370
     0
100
AcDbLine
 10
11.7689625509
 20
8.9386175187
 30
0.0
 11
11.7256522605
 21
8.9136150203
 31
0.0
  0
ARC
  5
193
330
1F
100
AcDbEntity
  8
0
  6
Continuous
 62
     7
370
     0
100
AcDbCircle
 10
11.1694816753
 20
8.3393937413
 30
0.0
 40
0.8476122082401238
100
AcDbArc
 50
44.9877112007
 51
46.3000723427
  0
LINE
  5
194
330
1F
100
AcDbEntity
  8
0
  6
Continuous
 62
     7
370
     0
100
AcDbLine
 10
11.6985127252
 20
8.9195339353
 30
0.0
 11
11.7550812677
 21
8.9521902598
 31
0.0
  0
ARC
  5
195
330
1F
100
AcDbEntity
  8
0
  6
Continuous
 62
     7
370
     0
100
AcDbCircle
 10
11.107514101
 20
8.3011984904
 30
0.0
 40
0.8553467695568838
100
AcDbArc
 50
44.2139890753
 51
46.2949422262
  0
SPLINE
  5
196
330
1F
100
AcDbEntity
  8
0
  6
Continuous
 62
     7
370
     0
100
AcDbSpline
210
0.0
220
0.0
230
1.0
 70
    24
 71
     1
 72
     4
 73
     2
 74
     0
 42
0.00000001
 43
0.00000001
 40
0.0
 40
0.0
 40
1.0
 40
1.0
 10
11.76278153062618
 20
8.909292597663732
 30
0.0
 10
11.72057566075602
 20
8.897666109064174
 30
0.0
  0
SPLINE
  5
197
330
1F
100
AcDbEntity
  8
0
  6
Continuous
 62
     7
370
     0
100
AcDbSpline
210
0.0
220
0.0
230
1.0
 70
    24
 71
     1
 72
     4
 73
     2
 74
     0
 42
0.00000001
 43
0.00000001
 40
0.0
 40
0.0
 40
1.0
 40
1.0
 10
11.73624470693834
 20
8.881145974772412
 30
0.0
 10
11.76278153062618
 20
8.909292597663732
 30
0.0
  0
ARC
  5
198
330
1F
100
AcDbEntity
  8
0
  6
Continuous
 62
     7
370
     0
100
AcDbCircle
 10
11.0593246715
 20
8.2554116087
 30
0.0
 40
0.9218265733107699
100
AcDbArc
 50
40.7633740978
 51
42.7498138562
  0
LINE
  5
199
330
1F
100
AcDbEntity
  8
0
  6
Continuous
 62
     7
370
     0
100
AcDbLine
 10
11.8140962712
 20
8.8899622114
 30
0.0
 11
11.7575277287
 21
8.8573058869
 31
0.0
  0
ARC
  5
19A
330
1F
100
AcDbEntity
  8
0
  6
Continuous
 62
     7
370
     0
100
AcDbCircle
 10
11.1109096926
 20
8.2836893372
 30
0.0
 40
0.9284601026901155
100
AcDbArc
 50
40.7672297985
 51
42.0022532002
  0
ARC
  5
19B
330
1F
100
AcDbEntity
  8
0
  6
Continuous
 62
     7
370
     0
100
AcDbCircle
 10
11.2181068081
 20
8.4188679917
 30
0.0
 40
0.7107412867178526
100
AcDbArc
 50
52.0131435282
 51
52.6034909341
  0
LINE
  5
19C
330
1F
100
AcDbEntity
  8
0
  6
Continuous
 62
     7
370
     0
100
AcDbLine
 10
11.6673088488
 20
8.9858258627
 30
0.0
 11
11.6555543465
 21
8.9790401329
 31
0.0
  0
ARC
  5
19D
330
1F
100
AcDbEntity
  8
0
  6
Continuous
 62
     7
370
     0
100
AcDbCircle
 10
11.2298613104
 20
8.4256537214
 30
0.0
 40
0.7107412867034255
100
AcDbArc
 50
52.0131435282
 51
52.6034909341
  0
LINE
  5
19E
330
1F
100
AcDbEntity
  8
0
  6
Continuous
 62
     7
370
     0
100
AcDbLine
 10
11.6757938776
 20
8.9985468933
 30
0.0
 11
11.6615139939
 21
8.9903032919
 31
0.0
  0
SPLINE
  5
19F
330
1F
100
AcDbEntity
  8
0
  6
Continuous
 62
     7
370
     0
100
AcDbSpline
210
0.0
220
0.0
230
1.0
 70
     8
 71
     3
 72
    13
 73
     9
 74
     0
 42
0.00000001
 43
0.00000001
 40
0.0
 40
0.0
 40
0.0
 40
0.0
 40
0.2500945475838492
 40
0.3790132877195151
 40
0.4995783988417156
 40
0.6244157670478766
 40
0.7495373859022507
 40
1.0
 40
1.0
 40
1.0
 40
1.0
 10
11.67768534423257
 20
9.018081383251419
 30
0.0
 10
11.67971755010736
 20
9.016534194956092
 30
0.0
 10
11.68279731748882
 20
9.0141894620213
 30
0.0
 10
11.68523777234311
 20
9.010391523163408
 30
0.0
 10
11.68545711345963
 20
9.007391031162504
 30
0.0
 10
11.68416641596744
 20
9.004672168448213
 30
0.0
 10
11.68091615106039
 20
9.001643446522854
 30
0.0
 10
11.67784314598802
 20
8.99978573161178
 30
0.0
 10
11.67579387763213
 20
8.998546893311197
 30
0.0
  0
SPLINE
  5
1A0
330
1F
100
AcDbEntity
  8
0
  6
Continuous
 62
     7
370
     0
100
AcDbSpline
210
0.0
220
0.0
230
1.0
 70
    24
 71
     1
 72
     4
 73
     2
 74
     0
 42
0.00000001
 43
0.00000001
 40
0.0
 40
0.0
 40
1.0
 40
1.0
 10
11.6656122587496
 20
9.025030325832194
 30
0.0
 10
11.67768534423257
 20
9.018081383251419
 30
0.0
  0
SPLINE
  5
1A1
330
1F
100
AcDbEntity
  8
0
  6
Continuous
 62
     7
370
     0
100
AcDbSpline
210
0.0
220
0.0
230
1.0
 70
    24
 71
     1
 72
     4
 73
     2
 74
     0
 42
0.00000001
 43
0.00000001
 40
0.0
 40
0.0
 40
1.0
 40
1.0
 10
11.65605537317401
 20
9.018000214573396
 30
0.0
 10
11.6656122587496
 20
9.025030325832194
 30
0.0
  0
SPLINE
  5
1A2
330
1F
100
AcDbEntity
  8
0
  6
Continuous
 62
     7
370
     0
100
AcDbSpline
210
0.0
220
0.0
230
1.0
 70
    24
 71
     1
 72
     4
 73
     2
 74
     0
 42
0.00000001
 43
0.00000001
 40
0.0
 40
0.0
 40
1.0
 40
1.0
 10
11.66205106029754
 20
9.0150367745623
 30
0.0
 10
11.65605537317401
 20
9.018000214573396
 30
0.0
  0
SPLINE
  5
1A3
330
1F
100
AcDbEntity
  8
0
  6
Continuous
 62
     7
370
     0
100
AcDbSpline
210
0.0
220
0.0
230
1.0
 70
     8
 71
     3
 72
    10
 73
     6
 74
     0
 42
0.00000001
 43
0.00000001
 40
0.0
 40
0.0
 40
0.0
 40
0.0
 40
0.2505976234532605
 40
0.5007350246834587
 40
0.9999999999999999
 40
0.9999999999999999
 40
0.9999999999999999
 40
0.9999999999999999
 10
11.66353473353857
 20
9.012296122816096
 30
0.0
 10
11.66359070123601
 20
9.012537390727482
 30
0.0
 10
11.66370253384628
 20
9.013019483462038
 30
0.0
 10
11.66330442262418
 20
9.014021280070551
 30
0.0
 10
11.66255220250338
 20
9.014630741016536
 30
0.0
 10
11.66205106029754
 20
9.0150367745623
 30
0.0
  0
SPLINE
  5
1A4
330
1F
100
AcDbEntity
  8
0
  6
Continuous
 62
     7
370
     0
100
AcDbSpline
210
0.0
220
0.0
230
1.0
 70
     8
 71
     3
 72
     9
 73
     5
 74
     0
 42
0.00000001
 43
0.00000001
 40
0.0
 40
0.0
 40
0.0
 40
0.0
 40
0.5017738075812754
 40
1.0
 40
1.0
 40
1.0
 40
1.0
 10
11.66061511896039
 20
9.009945222073915
 30
0.0
 10
11.66120718960047
 20
9.010281442222286
 30
0.0
 10
11.66238714485348
 20
9.01095150539277
 30
0.0
 10
11.66315310975978
 20
9.01184897830449
 30
0.0
 10
11.66353473353857
 20
9.012296122816096
 30
0.0
  0
LINE
  5
1A5
330
1F
100
AcDbEntity
  8
0
  6
Continuous
 62
     7
370
     0
100
AcDbLine
 10
11.6462434032
 20
9.0016486072
 30
0.0
 11
11.660615119
 21
9.0099452221
 31
0.0
  0
ARC
  5
1A6
330
1F
100
AcDbEntity
  8
0
  6
Continuous
 62
     7
370
     0
100
AcDbCircle
 10
11.2576443195
 20
8.4631491135
 30
0.0
 40
0.6640714965838609
100
AcDbArc
 50
54.1845348193
 51
55.1110726072
  0
LINE
  5
1A7
330
1F
100
AcDbEntity
  8
0
  6
Continuous
 62
     7
370
     0
100
AcDbLine
 10
11.6257303231
 20
9.001076283
 30
0.0
 11
11.6374848254
 21
9.0078620128
 31
0.0
  0
ARC
  5
1A8
330
1F
100
AcDbEntity
  8
0
  6
Continuous
 62
     7
370
     0
100
AcDbCircle
 10
11.2458898172
 20
8.4563633837
 30
0.0
 40
0.6640714965697734
100
AcDbArc
 50
54.1845348193
 51
55.1110726072
  0
LINE
  5
1A9
330
1F
100
AcDbEntity
  8
0
  6
Continuous
 62
     7
370
     0
100
AcDbLine
 10
11.6190611166
 20
8.9859566071
 30
0.0
 11
11.6344889009
 21
8.9948628774
 31
0.0
  0
SPLINE
  5
1AA
330
1F
100
AcDbEntity
  8
0
  6
Continuous
 62
     7
370
     0
100
AcDbSpline
210
0.0
220
0.0
230
1.0
 70
    24
 71
     1
 72
     4
 73
     2
 74
     0
 42
0.00000001
 43
0.00000001
 40
0.0
 40
0.0
 40
1.0
 40
1.0
 10
11.64230961658146
 20
8.979216840858383
 30
0.0
 10
11.61906111655949
 20
8.985956607099903
 30
0.0
  0
LINE
  5
1AB
330
1F
100
AcDbEntity
  8
0
  6
Continuous
 62
     7
370
     0
100
AcDbLine
 10
11.6497594916
 20
8.9835175622
 30
0.0
 11
11.6423096166
 21
8.9792168409
 31
0.0
  0
LINE
  5
1AC
330
1F
100
AcDbEntity
  8
0
  6
Continuous
 62
     7
370
     0
100
AcDbLine
 10
11.571772241
 20
9.0584207643
 30
0.0
 11
11.5913095095
 21
9.0696993894
 31
0.0
  0
ARC
  5
1AD
330
1F
100
AcDbEntity
  8
0
  6
Continuous
 62
     7
370
     0
100
AcDbCircle
 10
11.5612156532
 20
9.0728424094
 30
0.0
 40
0.0178724758315228
100
AcDbArc
 50
248.9517686639
 51
306.2039816362
  0
SPLINE
  5
1AE
330
1F
100
AcDbEntity
  8
0
  6
Continuous
 62
     7
370
     0
100
AcDbSpline
210
0.0
220
0.0
230
1.0
 70
     8
 71
     3
 72
    13
 73
     9
 74
     0
 42
0.00000001
 43
0.00000001
 40
0.0
 40
0.0
 40
0.0
 40
0.0
 40
0.2859863846377123
 40
0.4003931588230997
 40
0.5002671077726564
 40
0.620434628198658
 40
0.7504392972668733
 40
1.0
 40
1.0
 40
1.0
 40
1.0
 10
11.55576765428697
 20
9.063007757395074
 30
0.0
 10
11.55479489747569
 20
9.062397319293312
 30
0.0
 10
11.55343299637356
 20
9.061542679866545
 30
0.0
 10
11.5522992912086
 20
9.060308448670805
 30
0.0
 10
11.55186839579326
 20
9.059436422802829
 30
0.0
 10
11.55194567325152
 20
9.058521556538105
 30
0.0
 10
11.55271778199567
 20
9.057311218890993
 30
0.0
 10
11.55397203052387
 20
9.056618119660081
 30
0.0
 10
11.55479668726908
 20
9.056162413360246
 30
0.0
  0
LINE
  5
1AF
330
1F
100
AcDbEntity
  8
0
  6
Continuous
 62
     7
370
     0
100
AcDbLine
 10
11.5781402373
 20
9.0759231747
 30
0.0
 11
11.5557676543
 21
9.0630077574
 31
0.0
  0
ARC
  5
1B0
330
1F
100
AcDbEntity
  8
0
  6
Continuous
 62
     7
370
     0
100
AcDbCircle
 10
11.3858534999
 20
8.652983623
 30
0.0
 40
0.464598809439748
100
AcDbArc
 50
65.5513875439
 51
67.6088368325
  0
LINE
  5
1B1
330
1F
100
AcDbEntity
  8
0
  6
Continuous
 62
     7
370
     0
100
AcDbLine
 10
11.5368091848
 20
9.0675312059
 30
0.0
 11
11.5628320918
 21
9.0825539104
 31
0.0
  0
SPLINE
  5
1B2
330
1F
100
AcDbEntity
  8
0
  6
Continuous
 62
     7
370
     0
100
AcDbSpline
210
0.0
220
0.0
230
1.0
 70
     8
 71
     3
 72
    13
 73
     9
 74
     0
 42
0.00000001
 43
0.00000001
 40
0.0
 40
0.0
 40
0.0
 40
0.0
 40
0.2494533077504162
 40
0.3744959777606085
 40
0.4995513164958
 40
0.6197807958413668
 40
0.7498057006249526
 40
1.0
 40
1.0
 40
1.0
 40
1.0
 10
11.53513494142282
 20
9.052260694304945
 30
0.0
 10
11.53325764152289
 20
9.05325474359175
 30
0.0
 10
11.53043931344411
 20
9.054747076818204
 30
0.0
 10
11.52874603933693
 20
9.057397309668026
 30
0.0
 10
11.52848277735381
 20
9.059506394281488
 30
0.0
 10
11.52942070639091
 20
9.061684873785072
 30
0.0
 10
11.53191499216459
 20
9.064471313741942
 30
0.0
 10
11.53486681030999
 20
9.066316816344937
 30
0.0
 10
11.53680918477371
 20
9.067531205901544
 30
0.0
  0
ARC
  5
1B3
330
1F
100
AcDbEntity
  8
0
  6
Continuous
 62
     7
370
     0
100
AcDbCircle
 10
11.5511243938
 20
9.088549191
 30
0.0
 40
0.0396549817990654
100
AcDbArc
 50
246.2207310704
 51
276.6783234927
  0
LINE
  5
1B4
330
1F
100
AcDbEntity
  8
0
  6
Continuous
 62
     7
370
     0
100
AcDbLine
 10
11.534740967
 20
9.0370430649
 30
0.0
 11
11.5557360693
 21
9.0491632795
 31
0.0
  0
ARC
  5
1B5
330
1F
100
AcDbEntity
  8
0
  6
Continuous
 62
     7
370
     0
100
AcDbCircle
 10
11.3063273627
 20
8.5717656189
 30
0.0
 40
0.518320244986693
100
AcDbArc
 50
61.9399919757
 51
63.8526947463
  0
LINE
  5
1B6
330
1F
100
AcDbEntity
  8
0
  6
Continuous
 62
     7
370
     0
100
AcDbLine
 10
11.6067117008
 20
9.0618164495
 30
0.0
 11
11.5501431583
 21
9.029160125
 31
0.0
  0
ARC
  5
1B7
330
1F
100
AcDbEntity
  8
0
  6
Continuous
 62
     7
370
     0
100
AcDbCircle
 10
11.3628959052
 20
8.6044219434
 30
0.0
 40
0.5183202449805975
100
AcDbArc
 50
61.9399919757
 51
63.8526947463
  0
LINE
  5
1B8
330
1F
100
AcDbEntity
  8
0
  6
Continuous
 62
     7
370
     0
100
AcDbLine
 10
11.3917032377
 20
9.097828814
 30
0.0
 11
11.4122736168
 21
9.1097038411
 31
0.0
  0
ARC
  5
1B9
330
1F
100
AcDbEntity
  8
0
  6
Continuous
 62
     7
370
     0
100
AcDbCircle
 10
11.4116220361
 20
8.8594779382
 30
0.0
 40
0.2391817269794431
100
AcDbArc
 50
94.7770639068
 51
96.7432301877
  0
ARC
  5
1BA
330
1F
100
AcDbEntity
  8
0
  6
Continuous
 62
     7
370
     0
100
AcDbCircle
 10
11.3993253475
 20
8.9999648339
 30
0.0
 40
0.0983161889807982
100
AcDbArc
 50
99.2408173006
 51
121.6811327695
  0
SPLINE
  5
1BB
330
1F
100
AcDbEntity
  8
0
  6
Continuous
 62
     7
370
     0
100
AcDbSpline
210
0.0
220
0.0
230
1.0
 70
     8
 71
     3
 72
    13
 73
     9
 74
     0
 42
0.00000001
 43
0.00000001
 40
0.0
 40
0.0
 40
0.0
 40
0.0
 40
0.2500373757115537
 40
0.380345664523539
 40
0.5001717612001114
 40
0.6231396697160165
 40
0.7503495306897617
 40
1.0
 40
1.0
 40
1.0
 40
1.0
 10
11.34599736761374
 20
9.076036204300474
 30
0.0
 10
11.34402058100607
 20
9.075827965534812
 30
0.0
 10
11.34101358169736
 20
9.07551120204503
 30
0.0
 10
11.33885822143715
 20
9.075890968351391
 30
0.0
 10
11.3383496422264
 20
9.076637161837901
 30
0.0
 10
11.33915308584584
 20
9.077882714771924
 30
0.0
 10
11.34183165392952
 20
9.080121210411296
 30
0.0
 10
11.3453558966991
 20
9.082232035182997
 30
0.0
 10
11.34769052518262
 20
9.08363034737598
 30
0.0
  0
ARC
  5
1BC
330
1F
100
AcDbEntity
  8
0
  6
Continuous
 62
     7
370
     0
100
AcDbCircle
 10
11.3762331188
 20
8.8326393044
 30
0.0
 40
0.2452677140039814
100
AcDbArc
 50
91.1793160119
 51
97.0812380816
  0
LINE
  5
1BD
330
1F
100
AcDbEntity
  8
0
  6
Continuous
 62
     7
370
     0
100
AcDbLine
 10
11.4277536853
 20
9.1105113899
 30
0.0
 11
11.3711851428
 21
9.0778550655
 31
0.0
  0
ARC
  5
1BE
330
1F
100
AcDbEntity
  8
0
  6
Continuous
 62
     7
370
     0
100
AcDbCircle
 10
11.4330181919
 20
8.8608209169
 30
0.0
 40
0.2497459656624789
100
AcDbArc
 50
91.2078527413
 51
94.7646319496
  0
LINE
  5
1BF
330
1F
100
AcDbEntity
  8
0
  6
Continuous
 62
     7
370
     0
100
AcDbLine
 10
11.2857304168
 20
9.0608656189
 30
0.0
 11
11.326871175
 21
9.0846156731
 31
0.0
  0
ARC
  5
1C0
330
1F
100
AcDbEntity
  8
0
  6
Continuous
 62
     7
370
     0
100
AcDbCircle
 10
11.3822004787
 20
8.8849503216
 30
0.0
 40
0.2006306672875307
100
AcDbArc
 50
115.1385296345
 51
118.7398911283
  0
LINE
  5
1C1
330
1F
100
AcDbEntity
  8
0
  6
Continuous
 62
     7
370
     0
100
AcDbLine
 10
11.3381116654
 20
9.0903279751
 30
0.0
 11
11.2969709072
 21
9.0665779209
 31
0.0
  0
ARC
  5
1C2
330
1F
100
AcDbEntity
  8
0
  6
Continuous
 62
     7
370
     0
100
AcDbCircle
 10
11.4233412368
 20
8.9087003758
 30
0.0
 40
0.2006306672859547
100
AcDbArc
 50
115.1385296345
 51
118.7398911284
  0
SPLINE
  5
1C3
330
1F
100
AcDbEntity
  8
0
  6
Continuous
 62
     7
370
     0
100
AcDbSpline
210
0.0
220
0.0
230
1.0
 70
    24
 71
     1
 72
     4
 73
     2
 74
     0
 42
0.00000001
 43
0.00000001
 40
0.0
 40
0.0
 40
1.0
 40
1.0
 10
11.62691685534568
 20
8.860182444743842
 30
0.0
 10
11.64426137454616
 20
8.855086090512424
 30
0.0
  0
ARC
  5
1C4
330
1F
100
AcDbEntity
  8
0
  6
Continuous
 62
     7
370
     0
100
AcDbCircle
 10
11.6087031011
 20
8.8254595664
 30
0.0
 40
0.0392099364854569
100
AcDbArc
 50
62.3209133691
 51
112.6303449735
  0
SPLINE
  5
1C5
330
1F
100
AcDbEntity
  8
0
  6
Continuous
 62
     7
370
     0
100
AcDbSpline
210
0.0
220
0.0
230
1.0
 70
     8
 71
     3
 72
    13
 73
     9
 74
     0
 42
0.00000001
 43
0.00000001
 40
0.0
 40
0.0
 40
0.0
 40
0.0
 40
0.2505513334131831
 40
0.4997574289387248
 40
0.6245242524987873
 40
0.749890704061994
 40
0.874926642175401
 40
1.0
 40
1.0
 40
1.0
 40
1.0
 10
11.5987680195107
 20
8.831084768858538
 30
0.0
 10
11.59636453106105
 20
8.833624220612947
 30
0.0
 10
11.59157045875769
 20
8.838689489523745
 30
0.0
 10
11.58735547550027
 20
8.845822077912066
 30
0.0
 10
11.58672565996578
 20
8.851557841400592
 30
0.0
 10
11.58765703708589
 20
8.855573101403042
 30
0.0
 10
11.58989934170516
 20
8.859121461064477
 30
0.0
 10
11.59237681458223
 20
8.860807466229291
 30
0.0
 10
11.59361573635239
 20
8.86165059493621
 30
0.0
  0
ARC
  5
1C6
330
1F
100
AcDbEntity
  8
0
  6
Continuous
 62
     7
370
     0
100
AcDbCircle
 10
11.6260392134
 20
8.8507287091
 30
0.0
 40
0.0336095581812588
100
AcDbArc
 50
215.7658965768
 51
290.3043471146
  0
SPLINE
  5
1C7
330
1F
100
AcDbEntity
  8
0
  6
Continuous
 62
     7
370
     0
100
AcDbSpline
210
0.0
220
0.0
230
1.0
 70
    24
 71
     1
 72
     4
 73
     2
 74
     0
 42
0.00000001
 43
0.00000001
 40
0.0
 40
0.0
 40
1.0
 40
1.0
 10
11.62470631401091
 20
8.835061039985609
 30
0.0
 10
11.63770195891738
 20
8.81920756113499
 30
0.0
  0
ARC
  5
1C8
330
1F
100
AcDbEntity
  8
0
  6
Continuous
 62
     7
370
     0
100
AcDbCircle
 10
11.6189469816
 20
8.8468747084
 30
0.0
 40
0.0131427801455553
100
AcDbArc
 50
223.4941578973
 51
295.9898959363
  0
SPLINE
  5
1C9
330
1F
100
AcDbEntity
  8
0
  6
Continuous
 62
     7
370
     0
100
AcDbSpline
210
0.0
220
0.0
230
1.0
 70
     8
 71
     3
 72
    14
 73
    10
 74
     0
 42
0.00000001
 43
0.00000001
 40
0.0
 40
0.0
 40
0.0
 40
0.0
 40
0.1251988702826366
 40
0.2501891755462091
 40
0.3728829743907764
 40
0.5004529894627049
 40
0.7495671084745885
 40
0.8747153475527614
 40
0.9999999999999999
 40
0.9999999999999999
 40
0.9999999999999999
 40
0.9999999999999999
 10
11.6089890000925
 20
8.847898173190192
 30
0.0
 10
11.6085835556242
 20
8.847626480091044
 30
0.0
 10
11.6077733421053
 20
8.847083546498082
 30
0.0
 10
11.60697920034159
 20
8.845963891026479
 30
0.0
 10
11.6065572873855
 20
8.84467784916241
 30
0.0
 10
11.60647274261966
 20
8.842836383113942
 30
0.0
 10
11.60707142564909
 20
8.84088707045818
 30
0.0
 10
11.60826666820917
 20
8.839083290303213
 30
0.0
 10
11.60903049962017
 20
8.838247107015306
 30
0.0
 10
11.60941262335908
 20
8.837828787632539
 30
0.0
  0
ARC
  5
1CA
330
1F
100
AcDbEntity
  8
0
  6
Continuous
 62
     7
370
     0
100
AcDbCircle
 10
11.6167977309
 20
8.821161143
 30
0.0
 40
0.0278539953855223
100
AcDbArc
 50
57.1037071883
 51
106.2808017211
  0
ARC
  5
1CB
330
1F
100
AcDbEntity
  8
0
  6
Continuous
 62
     7
370
     0
100
AcDbCircle
 10
11.6601489436
 20
8.8993703578
 30
0.0
 40
0.061659868674763
100
AcDbArc
 50
242.7597182248
 51
287.2661281619
  0
ARC
  5
1CC
330
1F
100
AcDbEntity
  8
0
  6
Continuous
 62
     7
370
     0
100
AcDbCircle
 10
11.0338916651
 20
8.2536531675
 30
0.0
 40
0.8716835221863423
100
AcDbArc
 50
42.3161776821
 51
46.5020441521
  0
LINE
  5
1CD
330
1F
100
AcDbEntity
  8
0
  6
Continuous
 62
     7
370
     0
100
AcDbLine
 10
11.620672632
 20
8.878337515
 30
0.0
 11
11.6338964472
 21
8.885971461
 31
0.0
  0
ARC
  5
1CE
330
1F
100
AcDbEntity
  8
0
  6
Continuous
 62
     7
370
     0
100
AcDbCircle
 10
11.0343617827
 20
8.2599296231
 30
0.0
 40
0.8521670803698389
100
AcDbArc
 50
44.2990561217
 51
46.5261571508
  0
LINE
  5
1CF
330
1F
100
AcDbEntity
  8
0
  6
Continuous
 62
     7
370
     0
100
AcDbLine
 10
11.5414609986
 20
8.9027926161
 30
0.0
 11
11.5539501574
 21
8.910002454
 31
0.0
  0
ARC
  5
1D0
330
1F
100
AcDbEntity
  8
0
  6
Continuous
 62
     7
370
     0
100
AcDbCircle
 10
11.0567292754
 20
8.2996326883
 30
0.0
 40
0.7738001951743854
100
AcDbArc
 50
47.2385343822
 51
51.2127708479
  0
LINE
  5
1D1
330
1F
100
AcDbEntity
  8
0
  6
Continuous
 62
     7
370
     0
100
AcDbLine
 10
11.5945882809
 20
8.8749563054
 30
0.0
 11
11.5820991221
 21
8.8677464676
 31
0.0
  0
ARC
  5
1D2
330
1F
100
AcDbEntity
  8
0
  6
Continuous
 62
     7
370
     0
100
AcDbCircle
 10
11.0692184341
 20
8.3068425262
 30
0.0
 40
0.7738001951715097
100
AcDbArc
 50
47.2385343822
 51
51.2127708479
  0
ARC
  5
1D3
330
1F
100
AcDbEntity
  8
0
  6
Continuous
 62
     7
370
     0
100
AcDbCircle
 10
11.5053113575
 20
8.8613308005
 30
0.0
 40
0.057463711127882
100
AcDbArc
 50
62.2263823099
 51
97.5464389293
  0
LINE
  5
1D4
330
1F
100
AcDbEntity
  8
0
  6
Continuous
 62
     7
370
     0
100
AcDbLine
 10
11.5453120712
 20
8.9198083871
 30
0.0
 11
11.5320882561
 21
8.9121744411
 31
0.0
  0
SPLINE
  5
1D5
330
1F
100
AcDbEntity
  8
0
  6
Continuous
 62
     7
370
     0
100
AcDbSpline
210
0.0
220
0.0
230
1.0
 70
    24
 71
     1
 72
     4
 73
     2
 74
     0
 42
0.00000001
 43
0.00000001
 40
0.0
 40
0.0
 40
1.0
 40
1.0
 10
11.52016079638728
 20
8.92744094912207
 30
0.0
 10
11.54531207122566
 20
8.919808387128123
 30
0.0
  0
LINE
  5
1D6
330
1F
100
AcDbEntity
  8
0
  6
Continuous
 62
     7
370
     0
100
AcDbLine
 10
11.5579841218
 20
8.9492758901
 30
0.0
 11
11.5201607964
 21
8.9274409491
 31
0.0
  0
ARC
  5
1D7
330
1F
100
AcDbEntity
  8
0
  6
Continuous
 62
     7
370
     0
100
AcDbCircle
 10
11.1713777966
 20
8.4158888369
 30
0.0
 40
0.6587611093103283
100
AcDbArc
 50
54.0648796116
 51
55.7726430414
  0
LINE
  5
1D8
330
1F
100
AcDbEntity
  8
0
  6
Continuous
 62
     7
370
     0
100
AcDbLine
 10
11.4846133733
 20
8.9274800623
 30
0.0
 11
11.5419165722
 21
8.9605604948
 31
0.0
  0
ARC
  5
1D9
330
1F
100
AcDbEntity
  8
0
  6
Continuous
 62
     7
370
     0
100
AcDbCircle
 10
11.1157886671
 20
8.3852797996
 30
0.0
 40
0.6557536037051014
100
AcDbArc
 50
54.3734791922
 51
55.7750115113
  0
ARC
  5
1DA
330
1F
100
AcDbEntity
  8
0
  6
Continuous
 62
     7
370
     0
100
AcDbCircle
 10
11.430586495
 20
8.9594156084
 30
0.0
 40
0.0563256503934559
100
AcDbArc
 50
70.2793419128
 51
126.7255610731
  0
SPLINE
  5
1DB
330
1F
100
AcDbEntity
  8
0
  6
Continuous
 62
     7
370
     0
100
AcDbSpline
210
0.0
220
0.0
230
1.0
 70
    24
 71
     1
 72
     4
 73
     2
 74
     0
 42
0.00000001
 43
0.00000001
 40
0.0
 40
0.0
 40
1.0
 40
1.0
 10
11.38539840829276
 20
8.996435397244321
 30
0.0
 10
11.3969047259693
 20
9.004561121221887
 30
0.0
  0
SPLINE
  5
1DC
330
1F
100
AcDbEntity
  8
0
  6
Continuous
 62
     7
370
     0
100
AcDbSpline
210
0.0
220
0.0
230
1.0
 70
     8
 71
     3
 72
    12
 73
     8
 74
     0
 42
0.00000001
 43
0.00000001
 40
0.0
 40
0.0
 40
0.0
 40
0.0
 40
0.2503309494299765
 40
0.4997648043321448
 40
0.6249322238031042
 40
0.7501904501281046
 40
1.0
 40
1.0
 40
1.0
 40
1.0
 10
11.39113381276847
 20
8.97911190878508
 30
0.0
 10
11.38882227851359
 20
8.980165980738695
 30
0.0
 10
11.38420749369681
 20
8.982270347237723
 30
0.0
 10
11.38092159353704
 20
8.985882638018486
 30
0.0
 10
11.38059557204767
 20
8.989101482432057
 30
0.0
 10
11.38138562605456
 20
8.992419580071417
 30
0.0
 10
11.38379420330269
 20
8.994829978967037
 30
0.0
 10
11.38539840829276
 20
8.996435397244321
 30
0.0
  0
ARC
  5
1DD
330
1F
100
AcDbEntity
  8
0
  6
Continuous
 62
     7
370
     0
100
AcDbCircle
 10
11.4121365782
 20
9.0301296954
 30
0.0
 40
0.0551718289086315
100
AcDbArc
 50
247.6242423687
 51
304.8843221995
  0
SPLINE
  5
1DE
330
1F
100
AcDbEntity
  8
0
  6
Continuous
 62
     7
370
     0
100
AcDbSpline
210
0.0
220
0.0
230
1.0
 70
     8
 71
     3
 72
     9
 73
     5
 74
     0
 42
0.00000001
 43
0.00000001
 40
0.0
 40
0.0
 40
0.0
 40
0.0
 40
0.4986702672090033
 40
1.0
 40
1.0
 40
1.0
 40
1.0
 10
11.45967221670131
 20
8.998747106795934
 30
0.0
 10
11.45781396815326
 20
8.996207724392336
 30
0.0
 10
11.45408756080507
 20
8.991115416768285
 30
0.0
 10
11.44716234585593
 20
8.98695667935951
 30
0.0
 10
11.44369052969596
 20
8.984871780645621
 30
0.0
  0
SPLINE
  5
1DF
330
1F
100
AcDbEntity
  8
0
  6
Continuous
 62
     7
370
     0
100
AcDbSpline
210
0.0
220
0.0
230
1.0
 70
     8
 71
     3
 72
    10
 73
     6
 74
     0
 42
0.00000001
 43
0.00000001
 40
0.0
 40
0.0
 40
0.0
 40
0.0
 40
0.4992067981606261
 40
0.7495375815250989
 40
1.0
 40
1.0
 40
1.0
 40
1.0
 10
11.44959272306428
 20
9.012437699855107
 30
0.0
 10
11.45306278339069
 20
9.010709996290037
 30
0.0
 10
11.4582729300361
 20
9.008115923539973
 30
0.0
 10
11.46067325944223
 20
9.002868836221941
 30
0.0
 10
11.46000595608256
 20
9.000121257341263
 30
0.0
 10
11.45967221670131
 20
8.998747106795934
 30
0.0
  0
LINE
  5
1E0
330
1F
100
AcDbEntity
  8
0
  6
Continuous
 62
     7
370
     0
100
AcDbLine
 10
11.3071250656
 20
9.0297409516
 30
0.0
 11
11.3278331928
 21
9.0416954989
 31
0.0
  0
ARC
  5
1E1
330
1F
100
AcDbEntity
  8
0
  6
Continuous
 62
     7
370
     0
100
AcDbCircle
 10
11.291084617
 20
9.0540310222
 30
0.0
 40
0.0291084785929101
100
AcDbArc
 50
272.8427209122
 51
303.439599815
  0
SPLINE
  5
1E2
330
1F
100
AcDbEntity
  8
0
  6
Continuous
 62
     7
370
     0
100
AcDbSpline
210
0.0
220
0.0
230
1.0
 70
     8
 71
     3
 72
    11
 73
     7
 74
     0
 42
0.00000001
 43
0.00000001
 40
0.0
 40
0.0
 40
0.0
 40
0.0
 40
0.2500620333659402
 40
0.4999138376967026
 40
0.7498401673007677
 40
1.0
 40
1.0
 40
1.0
 40
1.0
 10
11.29151270978839
 20
9.027005110746009
 30
0.0
 10
11.29122643527517
 20
9.026722484655881
 30
0.0
 10
11.29065412692187
 20
9.026157470081507
 30
0.0
 10
11.29059776323944
 20
9.025497197363038
 30
0.0
 10
11.29119372884861
 20
9.025058281193223
 30
0.0
 10
11.29208326251036
 20
9.024991679750967
 30
0.0
 10
11.29252823701431
 20
9.024958363480877
 30
0.0
  0
SPLINE
  5
1E3
330
1F
100
AcDbEntity
  8
0
  6
Continuous
 62
     7
370
     0
100
AcDbSpline
210
0.0
220
0.0
230
1.0
 70
    24
 71
     1
 72
     4
 73
     2
 74
     0
 42
0.00000001
 43
0.00000001
 40
0.0
 40
0.0
 40
1.0
 40
1.0
 10
11.29486302177512
 20
9.029108807240595
 30
0.0
 10
11.29151270978839
 20
9.027005110746009
 30
0.0
  0
LINE
  5
1E4
330
1F
100
AcDbEntity
  8
0
  6
Continuous
 62
     7
370
     0
100
AcDbLine
 10
11.3172126468
 20
9.0420109712
 30
0.0
 11
11.2948630218
 21
9.0291088072
 31
0.0
  0
ARC
  5
1E5
330
1F
100
AcDbEntity
  8
0
  6
Continuous
 62
     7
370
     0
100
AcDbCircle
 10
11.3145710006
 20
8.7834370402
 30
0.0
 40
0.2585874243660782
100
AcDbArc
 50
89.4146745027
 51
92.4554694454
  0
LINE
  5
1E6
330
1F
100
AcDbEntity
  8
0
  6
Continuous
 62
     7
370
     0
100
AcDbLine
 10
11.2824972607
 20
9.0296668205
 30
0.0
 11
11.303492363
 21
9.0417870351
 31
0.0
  0
ARC
  5
1E7
330
1F
100
AcDbEntity
  8
0
  6
Continuous
 62
     7
370
     0
100
AcDbCircle
 10
11.2640786948
 20
9.0581723473
 30
0.0
 40
0.0339383062146307
100
AcDbArc
 50
277.3433270308
 51
302.8681262049
  0
SPLINE
  5
1E8
330
1F
100
AcDbEntity
  8
0
  6
Continuous
 62
     7
370
     0
100
AcDbSpline
210
0.0
220
0.0
230
1.0
 70
     8
 71
     3
 72
    10
 73
     6
 74
     0
 42
0.00000001
 43
0.00000001
 40
0.0
 40
0.0
 40
0.0
 40
0.0
 40
0.4988226573032946
 40
0.7491700015752187
 40
1.0
 40
1.0
 40
1.0
 40
1.0
 10
11.26692849600325
 20
9.025467293258984
 30
0.0
 10
11.26682861973066
 20
9.025167595239138
 30
0.0
 10
11.26667861790897
 20
9.024717485841114
 30
0.0
 10
11.26745154952686
 20
9.024490022873094
 30
0.0
 10
11.26809464822092
 20
9.024504936549599
 30
0.0
 10
11.26841650723304
 20
9.02451240056909
 30
0.0
  0
SPLINE
  5
1E9
330
1F
100
AcDbEntity
  8
0
  6
Continuous
 62
     7
370
     0
100
AcDbSpline
210
0.0
220
0.0
230
1.0
 70
     8
 71
     3
 72
     9
 73
     5
 74
     0
 42
0.00000001
 43
0.00000001
 40
0.0
 40
0.0
 40
0.0
 40
0.0
 40
0.5015771373280785
 40
1.0
 40
1.0
 40
1.0
 40
1.0
 10
11.27003994016257
 20
9.027751208601
 30
0.0
 10
11.26931879158775
 20
9.0273287702314
 30
0.0
 10
11.26788102953451
 20
9.026486550085856
 30
0.0
 10
11.26724533879928
 20
9.025806330334634
 30
0.0
 10
11.26692849600325
 20
9.025467293258984
 30
0.0
  0
LINE
  5
1EA
330
1F
100
AcDbEntity
  8
0
  6
Continuous
 62
     7
370
     0
100
AcDbLine
 10
11.2932160537
 20
9.0411304941
 30
0.0
 11
11.2700399402
 21
9.0277512086
 31
0.0
  0
ARC
  5
1EB
330
1F
100
AcDbEntity
  8
0
  6
Continuous
 62
     7
370
     0
100
AcDbCircle
 10
11.3132153096
 20
8.8051835793
 30
0.0
 40
0.2367929831554121
100
AcDbArc
 50
94.844905643
 51
98.0695479443
  0
LINE
  5
1EC
330
1F
100
AcDbEntity
  8
0
  6
Continuous
 62
     7
370
     0
100
AcDbLine
 10
11.2542510357
 20
9.0247815237
 30
0.0
 11
11.2799754885
 21
9.0396319343
 31
0.0
  0
SPLINE
  5
1ED
330
1F
100
AcDbEntity
  8
0
  6
Continuous
 62
     7
370
     0
100
AcDbSpline
210
0.0
220
0.0
230
1.0
 70
     8
 71
     3
 72
    13
 73
     9
 74
     0
 42
0.00000001
 43
0.00000001
 40
0.0
 40
0.0
 40
0.0
 40
0.0
 40
0.2493551011002419
 40
0.3758643206356148
 40
0.4994912623301957
 40
0.61844490729081
 40
0.7497843925021814
 40
1.0
 40
1.0
 40
1.0
 40
1.0
 10
11.25020647546927
 20
9.016857263159856
 30
0.0
 10
11.24858382487159
 20
9.016775302093007
 30
0.0
 10
11.24613792959278
 20
9.016651758437499
 30
0.0
 10
11.24497755407132
 20
9.01741420555187
 30
0.0
 10
11.24516176798896
 20
9.018374776547825
 30
0.0
 10
11.24643812125534
 20
9.019713412954095
 30
0.0
 10
11.24927184444135
 20
9.021823104529547
 30
0.0
 10
11.25227900473966
 20
9.023609828598
 30
0.0
 10
11.25425103566066
 20
9.024781523739176
 30
0.0
  0
ARC
  5
1EE
330
1F
100
AcDbEntity
  8
0
  6
Continuous
 62
     7
370
     0
100
AcDbCircle
 10
11.2426944427
 20
9.089065805
 30
0.0
 40
0.0725982379208645
100
AcDbArc
 50
275.9392564199
 51
291.9478207422
  0
SPLINE
  5
1EF
330
1F
100
AcDbEntity
  8
0
  6
Continuous
 62
     7
370
     0
100
AcDbSpline
210
0.0
220
0.0
230
1.0
 70
     8
 71
     3
 72
    12
 73
     8
 74
     0
 42
0.00000001
 43
0.00000001
 40
0.0
 40
0.0
 40
0.0
 40
0.0
 40
0.2503533688407842
 40
0.4999961943216255
 40
0.7494886161542218
 40
0.8747044873187737
 40
1.0
 40
1.0
 40
1.0
 40
1.0
 10
11.27396816966115
 20
9.01784693708645
 30
0.0
 10
11.27287653627059
 20
9.017877095995587
 30
0.0
 10
11.27069636772162
 20
9.017937328217997
 30
0.0
 10
11.26853664685193
 20
9.018551150604711
 30
0.0
 10
11.2683958456652
 20
9.019689333737757
 30
0.0
 10
11.26899582054937
 20
9.020797892941747
 30
0.0
 10
11.26955115405911
 20
9.021418666292014
 30
0.0
 10
11.26982890908861
 20
9.021729151643964
 30
0.0
  0
ARC
  5
1F0
330
1F
100
AcDbEntity
  8
0
  6
Continuous
 62
     7
370
     0
100
AcDbCircle
 10
11.27297403
 20
9.0792064622
 30
0.0
 40
0.061367578008018
100
AcDbArc
 50
270.9282180928
 51
290.0038277626
  0
LINE
  5
1F1
330
1F
100
AcDbEntity
  8
0
  6
Continuous
 62
     7
370
     0
100
AcDbLine
 10
11.287653377
 20
9.0178965252
 30
0.0
 11
11.2939668304
 21
9.0215412043
 31
0.0
  0
ARC
  5
1F2
330
1F
100
AcDbEntity
  8
0
  6
Continuous
 62
     7
370
     0
100
AcDbCircle
 10
11.2725541889
 20
8.7322199283
 30
0.0
 40
0.2860753459026719
100
AcDbArc
 50
84.3263635659
 51
86.9744966132
  0
LINE
  5
1F3
330
1F
100
AcDbEntity
  8
0
  6
Continuous
 62
     7
370
     0
100
AcDbLine
 10
11.3419768945
 20
9.0406438923
 30
0.0
 11
11.3008361363
 21
9.0168938382
 31
0.0
  0
ARC
  5
1F4
330
1F
100
AcDbEntity
  8
0
  6
Continuous
 62
     7
370
     0
100
AcDbCircle
 10
11.3137423061
 20
8.7565390725
 30
0.0
 40
0.2855043617950929
100
AcDbArc
 50
84.3245304728
 51
87.1710538586
  0
LWPOLYLINE
  5
1F5
330
1F
100
AcDbEntity
  8
0
  6
Continuous
 62
     7
370
     0
100
AcDbPolyline
 90
       44
 70
   128
 43
0.0
 10
12.5467250199
 20
8.4032746685
 10
12.5598535589
 20
8.41154797
 10
12.5803730335
 20
8.4276462644
 10
12.5990267493
 20
8.446514241
 10
12.6157103873
 20
8.4680463822
 10
12.6303306458
 20
8.4921222716
 10
12.6428057624
 20
8.5186072671
 10
12.6530659712
 20
8.5473532539
 10
12.6610538929
 20
8.5781994727
 10
12.6667248558
 20
8.610973419
 10
12.6700471455
 20
8.6454918075
 10
12.6710021826
 20
8.6815615975
 10
12.6695846261
 20
8.718981072
 10
12.6658024034
 20
8.7575409661
 10
12.6596766664
 20
8.7970256373
 10
12.6512416725
 20
8.8372142714
 10
12.6405445939
 20
8.877882117
 10
12.6276452527
 20
8.9188017432
 10
12.6126157875
 20
8.9597443109
 10
12.595540249
 20
9.0004808524
 10
12.5765141306
 20
9.0407835527
 10
12.555643834
 20
9.0804270226
 10
12.5330460745
 20
9.1191895598
 10
12.5088472278
 20
9.1568543885
 10
12.4831826238
 20
9.1932108716
 10
12.4561957893
 20
9.2280556889
 10
12.4280376456
 20
9.2611939742
 10
12.3988656645
 20
9.2924404046
 10
12.3688429876
 20
9.3216202374
 10
12.3381375138
 20
9.3485702873
 10
12.3069209605
 20
9.3731398385
 10
12.2753679036
 20
9.3951914882
 10
12.2436548003
 20
9.4146019146
 10
12.2119590033
 20
9.4312625668
 10
12.1804577683
 20
9.4450802715
 10
12.149327263
 20
9.4559777547
 10
12.1187415818
 20
9.4638940731
 10
12.0888717722
 20
9.4687849554
 10
12.0598848784
 20
9.47062305
 10
12.0319430068
 20
9.4693980774
 10
12.0052024197
 20
9.4651168882
 10
11.9798126613
 20
9.4578034244
 10
11.9559157214
 20
9.447498586
 10
11.9467737803
 20
9.4425333034
  0
LINE
  5
1F6
330
1F
100
AcDbEntity
  8
0
  6
Continuous
 62
     7
370
     0
100
AcDbLine
 10
11.3819368868
 20
9.0166690762
 30
0.0
 11
11.402645014
 21
9.0286236236
 31
0.0
  0
ARC
  5
1F7
330
1F
100
AcDbEntity
  8
0
  6
Continuous
 62
     7
370
     0
100
AcDbCircle
 10
11.3705554035
 20
9.0331364514
 30
0.0
 40
0.0200178072432343
100
AcDbArc
 50
259.5647939428
 51
304.650423733
  0
SPLINE
  5
1F8
330
1F
100
AcDbEntity
  8
0
  6
Continuous
 62
     7
370
     0
100
AcDbSpline
210
0.0
220
0.0
230
1.0
 70
     8
 71
     3
 72
    11
 73
     7
 74
     0
 42
0.00000001
 43
0.00000001
 40
0.0
 40
0.0
 40
0.0
 40
0.0
 40
0.2500620333659154
 40
0.499913837696683
 40
0.7498401673007635
 40
1.0
 40
1.0
 40
1.0
 40
1.0
 10
11.36559465190665
 20
9.016671409689529
 30
0.0
 10
11.36532306593396
 20
9.016335533349197
 30
0.0
 10
11.36478012231295
 20
9.015664063042301
 30
0.0
 10
11.36480123712271
 20
9.014721113093929
 30
0.0
 10
11.36549227817602
 20
9.013932698498472
 30
0.0
 10
11.36645041600211
 20
9.013610770535108
 30
0.0
 10
11.36692970860475
 20
9.013449731395198
 30
0.0
  0
SPLINE
  5
1F9
330
1F
100
AcDbEntity
  8
0
  6
Continuous
 62
     7
370
     0
100
AcDbSpline
210
0.0
220
0.0
230
1.0
 70
    24
 71
     1
 72
     4
 73
     2
 74
     0
 42
0.00000001
 43
0.00000001
 40
0.0
 40
0.0
 40
1.0
 40
1.0
 10
11.3689236652213
 20
9.018852200735983
 30
0.0
 10
11.36559465190665
 20
9.016671409689529
 30
0.0
  0
LINE
  5
1FA
330
1F
100
AcDbEntity
  8
0
  6
Continuous
 62
     7
370
     0
100
AcDbLine
 10
11.3912732903
 20
9.0317543646
 30
0.0
 11
11.3689236652
 21
9.0188522007
 31
0.0
  0
ARC
  5
1FB
330
1F
100
AcDbEntity
  8
0
  6
Continuous
 62
     7
370
     0
100
AcDbCircle
 10
11.303407203
 20
8.6917097885
 30
0.0
 40
0.3512132728776913
100
AcDbArc
 50
75.5119118039
 51
77.9912660566
  0
LINE
  5
1FC
330
1F
100
AcDbEntity
  8
0
  6
Continuous
 62
     7
370
     0
100
AcDbLine
 10
11.3554858129
 20
9.0231168591
 30
0.0
 11
11.3764809152
 21
9.0352370736
 31
0.0
  0
ARC
  5
1FD
330
1F
100
AcDbEntity
  8
0
  6
Continuous
 62
     7
370
     0
100
AcDbCircle
 10
11.3433718604
 20
9.0409069247
 30
0.0
 40
0.0215228780787237
100
AcDbArc
 50
263.4733855813
 51
304.2524818467
  0
SPLINE
  5
1FE
330
1F
100
AcDbEntity
  8
0
  6
Continuous
 62
     7
370
     0
100
AcDbSpline
210
0.0
220
0.0
230
1.0
 70
     8
 71
     3
 72
    10
 73
     6
 74
     0
 42
0.00000001
 43
0.00000001
 40
0.0
 40
0.0
 40
0.0
 40
0.0
 40
0.4988226573033027
 40
0.7491700015752271
 40
1.0
 40
1.0
 40
1.0
 40
1.0
 10
11.33912303229493
 20
9.02147373586904
 30
0.0
 10
11.33906609820585
 20
9.02103928265498
 30
0.0
 10
11.33898059023827
 20
9.02038678760429
 30
0.0
 10
11.33986997765338
 20
9.019790303861019
 30
0.0
 10
11.3405734123595
 20
9.019612513622308
 30
0.0
 10
11.34092546843067
 20
9.01952353289334
 30
0.0
  0
SPLINE
  5
1FF
330
1F
100
AcDbEntity
  8
0
  6
Continuous
 62
     7
370
     0
100
AcDbSpline
210
0.0
220
0.0
230
1.0
 70
     8
 71
     3
 72
     9
 73
     5
 74
     0
 42
0.00000001
 43
0.00000001
 40
0.0
 40
0.0
 40
0.0
 40
0.0
 40
0.5015771373280863
 40
1.0
 40
1.0
 40
1.0
 40
1.0
 10
11.34214680756936
 20
9.024031431962973
 30
0.0
 10
11.34142681454827
 20
9.023605447101186
 30
0.0
 10
11.33999135633554
 20
9.022756156274145
 30
0.0
 10
11.3394118643495
 20
9.02190030947879
 30
0.0
 10
11.33912303229493
 20
9.02147373586904
 30
0.0
  0
LINE
  5
200
330
1F
100
AcDbEntity
  8
0
  6
Continuous
 62
     7
370
     0
100
AcDbLine
 10
11.3653229211
 20
9.0374107175
 30
0.0
 11
11.3421468076
 21
9.024031432
 31
0.0
  0
ARC
  5
201
330
1F
100
AcDbEntity
  8
0
  6
Continuous
 62
     7
370
     0
100
AcDbCircle
 10
11.3104070693
 20
8.7275303331
 30
0.0
 40
0.3147087596501758
100
AcDbArc
 50
79.9505903484
 51
82.6181576755
  0
LINE
  5
202
330
1F
100
AcDbEntity
  8
0
  6
Continuous
 62
     7
370
     0
100
AcDbLine
 10
11.3251168128
 20
9.0247803538
 30
0.0
 11
11.3508412656
 21
9.0396307643
 31
0.0
  0
SPLINE
  5
203
330
1F
100
AcDbEntity
  8
0
  6
Continuous
 62
     7
370
     0
100
AcDbSpline
210
0.0
220
0.0
230
1.0
 70
     8
 71
     3
 72
    13
 73
     9
 74
     0
 42
0.00000001
 43
0.00000001
 40
0.0
 40
0.0
 40
0.0
 40
0.0
 40
0.2493551011005112
 40
0.375864320649539
 40
0.4994912623306963
 40
0.6184449072857454
 40
0.7497843925019114
 40
0.9999999999999999
 40
0.9999999999999999
 40
0.9999999999999999
 40
0.9999999999999999
 10
11.32221175000082
 20
9.013452782143279
 30
0.0
 10
11.32042739011373
 20
9.01386653987759
 30
0.0
 10
11.31773774304498
 20
9.014490215788108
 30
0.0
 10
11.31628203415057
 20
9.016131347617101
 30
0.0
 10
11.31628443187468
 20
9.017627160227764
 30
0.0
 10
11.31742888522076
 20
9.019350387971304
 30
0.0
 10
11.32015678197454
 20
9.021766776790107
 30
0.0
 10
11.32315237041483
 20
9.023586813162078
 30
0.0
 10
11.32511681276067
 20
9.024780353794029
 30
0.0
  0
ARC
  5
204
330
1F
100
AcDbEntity
  8
0
  6
Continuous
 62
     7
370
     0
100
AcDbCircle
 10
11.329450339
 20
9.0598848708
 30
0.0
 40
0.0469929359098547
100
AcDbArc
 50
261.1391265991
 51
286.6474835865
  0
SPLINE
  5
205
330
1F
100
AcDbEntity
  8
0
  6
Continuous
 62
     7
370
     0
100
AcDbSpline
210
0.0
220
0.0
230
1.0
 70
     8
 71
     3
 72
    12
 73
     8
 74
     0
 42
0.00000001
 43
0.00000001
 40
0.0
 40
0.0
 40
0.0
 40
0.0
 40
0.2503533688407861
 40
0.4999961943216288
 40
0.7494886161542257
 40
0.8747044873187646
 40
1.0
 40
1.0
 40
1.0
 40
1.0
 10
11.34792706416599
 20
9.007956609335077
 30
0.0
 10
11.34674941693259
 20
9.008293021710527
 30
0.0
 10
11.34439746481915
 20
9.008964891668684
 30
0.0
 10
11.34197906374852
 20
9.01047380288951
 30
0.0
 10
11.34166131944951
 20
9.012213228403017
 30
0.0
 10
11.34214797483791
 20
9.013702953013368
 30
0.0
 10
11.34265793196623
 20
9.014475316547557
 30
0.0
 10
11.3429129915921
 20
9.01486162108792
 30
0.0
  0
ARC
  5
206
330
1F
100
AcDbEntity
  8
0
  6
Continuous
 62
     7
370
     0
100
AcDbCircle
 10
11.3578550201
 20
9.0506982064
 30
0.0
 40
0.0438794761719559
100
AcDbArc
 50
256.9233055159
 51
284.5023919934
  0
LINE
  5
207
330
1F
100
AcDbEntity
  8
0
  6
Continuous
 62
     7
370
     0
100
AcDbLine
 10
11.3625298837
 20
9.0045721747
 30
0.0
 11
11.3688433371
 21
9.0082168538
 31
0.0
  0
ARC
  5
208
330
1F
100
AcDbEntity
  8
0
  6
Continuous
 62
     7
370
     0
100
AcDbCircle
 10
11.2510665894
 20
8.6274797131
 30
0.0
 40
0.3932210454440812
100
AcDbArc
 50
71.3909986629
 51
73.5330524753
  0
LINE
  5
209
330
1F
100
AcDbEntity
  8
0
  6
Continuous
 62
     7
370
     0
100
AcDbLine
 10
11.4176874086
 20
9.0238925436
 30
0.0
 11
11.3765466504
 21
9.0001424894
 31
0.0
  0
ARC
  5
20A
330
1F
100
AcDbEntity
  8
0
  6
Continuous
 62
     7
370
     0
100
AcDbCircle
 10
11.292466145
 20
8.6520325677
 30
0.0
 40
0.3923776325887393
100
AcDbArc
 50
71.3894050986
 51
73.6921601863
  0
SPLINE
  5
20B
330
1F
100
AcDbEntity
  8
0
  6
Continuous
 62
     7
370
     0
100
AcDbSpline
210
0.0
220
0.0
230
1.0
 70
    24
 71
     1
 72
     4
 73
     2
 74
     0
 42
0.00000001
 43
0.00000001
 40
0.0
 40
0.0
 40
1.0
 40
1.0
 10
11.48038121042566
 20
8.968535794996136
 30
0.0
 10
11.4863042561487
 20
8.967867393240208
 30
0.0
  0
SPLINE
  5
20C
330
1F
100
AcDbEntity
  8
0
  6
Continuous
 62
     7
370
     0
100
AcDbSpline
210
0.0
220
0.0
230
1.0
 70
    24
 71
     1
 72
     4
 73
     2
 74
     0
 42
0.00000001
 43
0.00000001
 40
0.0
 40
0.0
 40
1.0
 40
1.0
 10
11.47502053924148
 20
8.970562944464394
 30
0.0
 10
11.48038121042566
 20
8.968535794996136
 30
0.0
  0
SPLINE
  5
20D
330
1F
100
AcDbEntity
  8
0
  6
Continuous
 62
     7
370
     0
100
AcDbSpline
210
0.0
220
0.0
230
1.0
 70
     8
 71
     3
 72
    13
 73
     9
 74
     0
 42
0.00000001
 43
0.00000001
 40
0.0
 40
0.0
 40
0.0
 40
0.0
 40
0.2498441747937717
 40
0.3817947059274538
 40
0.4998701509662108
 40
0.622941444994126
 40
0.7501704474546206
 40
1.0
 40
1.0
 40
1.0
 40
1.0
 10
11.47504464563303
 20
8.97965172454808
 30
0.0
 10
11.47402552616663
 20
8.978994285514254
 30
0.0
 10
11.47246817780219
 20
8.977989632342762
 30
0.0
 10
11.471298987391
 20
8.976369779022082
 30
0.0
 10
11.47102304625255
 20
8.975080551997342
 30
0.0
 10
11.47138781450084
 20
8.973823411483265
 30
0.0
 10
11.47248013760343
 20
8.972204634746605
 30
0.0
 10
11.47400812985474
 20
8.971217196385401
 30
0.0
 10
11.47502053924148
 20
8.970562944464394
 30
0.0
  0
ARC
  5
20E
330
1F
100
AcDbEntity
  8
0
  6
Continuous
 62
     7
370
     0
100
AcDbCircle
 10
11.4833227996
 20
8.965820342
 30
0.0
 40
0.0161193975512156
100
AcDbArc
 50
60.8622903398
 51
120.9007389467
  0
SPLINE
  5
20F
330
1F
100
AcDbEntity
  8
0
  6
Continuous
 62
     7
370
     0
100
AcDbSpline
210
0.0
220
0.0
230
1.0
 70
     8
 71
     3
 72
    13
 73
     9
 74
     0
 42
0.00000001
 43
0.00000001
 40
0.0
 40
0.0
 40
0.0
 40
0.0
 40
0.2497059556549646
 40
0.3754902122056659
 40
0.4999844705106186
 40
0.7494478519747865
 40
0.8746685414676283
 40
0.9999999999999999
 40
0.9999999999999999
 40
0.9999999999999999
 40
0.9999999999999999
 10
11.49274396195228
 20
8.97133004790024
 30
0.0
 10
11.49343912821475
 20
8.97201362034719
 30
0.0
 10
11.49448447023203
 20
8.973041528402046
 30
0.0
 10
11.49495402966514
 20
8.974612745514497
 30
0.0
 10
11.49488280951816
 20
8.976194713087517
 30
0.0
 10
11.49400632823451
 20
8.977719575236724
 30
0.0
 10
11.49256350332736
 20
8.979047849614053
 30
0.0
 10
11.49163563864708
 20
8.979615773624403
 30
0.0
 10
11.49117150120257
 20
8.979899861169105
 30
0.0
  0
SPLINE
  5
210
330
1F
100
AcDbEntity
  8
0
  6
Continuous
 62
     7
370
     0
100
AcDbSpline
210
0.0
220
0.0
230
1.0
 70
    24
 71
     1
 72
     4
 73
     2
 74
     0
 42
0.00000001
 43
0.00000001
 40
0.0
 40
0.0
 40
1.0
 40
1.0
 10
11.50963289179688
 20
8.962728090073917
 30
0.0
 10
11.49274396195228
 20
8.97133004790024
 30
0.0
  0
SPLINE
  5
211
330
1F
100
AcDbEntity
  8
0
  6
Continuous
 62
     7
370
     0
100
AcDbSpline
210
0.0
220
0.0
230
1.0
 70
     8
 71
     3
 72
    12
 73
     8
 74
     0
 42
0.00000001
 43
0.00000001
 40
0.0
 40
0.0
 40
0.0
 40
0.0
 40
0.2504168115017464
 40
0.4997978941598351
 40
0.6250016503732535
 40
0.7501548209131084
 40
1.0
 40
1.0
 40
1.0
 40
1.0
 10
11.50200768740281
 20
8.986366046421157
 30
0.0
 10
11.50453533151349
 20
8.984805035583502
 30
0.0
 10
11.50958016534925
 20
8.98168947027963
 30
0.0
 10
11.5136658696294
 20
8.976558568194925
 30
0.0
 10
11.51440000772336
 20
8.97214012908197
 30
0.0
 10
11.51380873438628
 20
8.967679783132274
 30
0.0
 10
11.51130261244156
 20
8.964708036383827
 30
0.0
 10
11.50963289179688
 20
8.962728090073917
 30
0.0
  0
ARC
  5
212
330
1F
100
AcDbEntity
  8
0
  6
Continuous
 62
     7
370
     0
100
AcDbCircle
 10
11.4795877957
 20
8.9478036652
 30
0.0
 40
0.0446061519067754
100
AcDbArc
 50
59.8265881657
 51
118.5039953433
  0
SPLINE
  5
213
330
1F
100
AcDbEntity
  8
0
  6
Continuous
 62
     7
370
     0
100
AcDbSpline
210
0.0
220
0.0
230
1.0
 70
     8
 71
     3
 72
    13
 73
     9
 74
     0
 42
0.00000001
 43
0.00000001
 40
0.0
 40
0.0
 40
0.0
 40
0.0
 40
0.2498089441006752
 40
0.375492633195713
 40
0.5002625661607383
 40
0.6265425410072503
 40
0.7507234029546825
 40
1.0
 40
1.0
 40
1.0
 40
1.0
 10
11.45948978783502
 20
8.966743103327454
 30
0.0
 10
11.4572385168913
 20
8.968186572744724
 30
0.0
 10
11.45385458819436
 20
8.970356279415473
 30
0.0
 10
11.45146724238907
 20
8.973893884885529
 30
0.0
 10
11.45070499556736
 20
8.976691004483708
 30
0.0
 10
11.45101244075299
 20
8.979508837909641
 30
0.0
 10
11.45278434238968
 20
8.983206152869291
 30
0.0
 10
11.45609262374413
 20
8.98548304390938
 30
0.0
 10
11.45830084612194
 20
8.987002830532054
 30
0.0
  0
SPLINE
  5
214
330
1F
100
AcDbEntity
  8
0
  6
Continuous
 62
     7
370
     0
100
AcDbSpline
210
0.0
220
0.0
230
1.0
 70
     8
 71
     3
 72
     9
 73
     5
 74
     0
 42
0.00000001
 43
0.00000001
 40
0.0
 40
0.0
 40
0.0
 40
0.0
 40
0.5003482590474725
 40
1.0
 40
1.0
 40
1.0
 40
1.0
 10
11.47247215765421
 20
8.962544425100365
 30
0.0
 10
11.4700771496925
 20
8.963029706178144
 30
0.0
 10
11.46529046777963
 20
8.963999592790127
 30
0.0
 10
11.46142244976837
 20
8.965829024559122
 30
0.0
 10
11.45948978783502
 20
8.966743103327454
 30
0.0
  0
SPLINE
  5
215
330
1F
100
AcDbEntity
  8
0
  6
Continuous
 62
     7
370
     0
100
AcDbSpline
210
0.0
220
0.0
230
1.0
 70
    24
 71
     1
 72
     4
 73
     2
 74
     0
 42
0.00000001
 43
0.00000001
 40
0.0
 40
0.0
 40
1.0
 40
1.0
 10
11.46229029836677
 20
8.958411326782633
 30
0.0
 10
11.47247215765421
 20
8.962544425100365
 30
0.0
  0
ARC
  5
216
330
1F
100
AcDbEntity
  8
0
  6
Continuous
 62
     7
370
     0
100
AcDbCircle
 10
11.1889610774
 20
8.488339842
 30
0.0
 40
0.543761035624503
100
AcDbArc
 50
59.8235790275
 51
62.7830027398
  0
LINE
  5
217
330
1F
100
AcDbEntity
  8
0
  6
Continuous
 62
     7
370
     0
100
AcDbLine
 10
11.4244327663
 20
8.964262108
 30
0.0
 11
11.4376565814
 21
8.9718960539
 31
0.0
  0
ARC
  5
218
330
1F
100
AcDbEntity
  8
0
  6
Continuous
 62
     7
370
     0
100
AcDbCircle
 10
11.1700725289
 20
8.4702487211
 30
0.0
 40
0.5556512906578807
100
AcDbArc
 50
58.4089995846
 51
62.7567264183
  0
SPLINE
  5
219
330
1F
100
AcDbEntity
  8
0
  6
Continuous
 62
     7
370
     0
100
AcDbSpline
210
0.0
220
0.0
230
1.0
 70
    24
 71
     1
 72
     4
 73
     2
 74
     0
 42
0.00000001
 43
0.00000001
 40
0.0
 40
0.0
 40
1.0
 40
1.0
 10
11.49815625871017
 20
8.958762691195933
 30
0.0
 10
11.46115163368554
 20
8.943557617631773
 30
0.0
  0
SPLINE
  5
21A
330
1F
100
AcDbEntity
  8
0
  6
Continuous
 62
     7
370
     0
100
AcDbSpline
210
0.0
220
0.0
230
1.0
 70
    24
 71
     1
 72
     4
 73
     2
 74
     0
 42
0.00000001
 43
0.00000001
 40
0.0
 40
0.0
 40
1.0
 40
1.0
 10
11.4863042561487
 20
8.967867393240208
 30
0.0
 10
11.49815625871017
 20
8.958762691195933
 30
0.0
  0
LINE
  5
21B
330
1F
100
AcDbEntity
  8
0
  6
Continuous
 62
     7
370
     0
100
AcDbLine
 10
11.5605620649
 20
8.913819427
 30
0.0
 11
11.5730512237
 21
8.9210292648
 31
0.0
  0
ARC
  5
21C
330
1F
100
AcDbEntity
  8
0
  6
Continuous
 62
     7
370
     0
100
AcDbCircle
 10
11.0758303417
 20
8.3106594992
 30
0.0
 40
0.7738001951725331
100
AcDbArc
 50
47.2385343822
 51
51.2127708479
  0
LINE
  5
21D
330
1F
100
AcDbEntity
  8
0
  6
Continuous
 62
     7
370
     0
100
AcDbLine
 10
11.6136893471
 20
8.8859831163
 30
0.0
 11
11.6012001884
 21
8.8787732784
 31
0.0
  0
ARC
  5
21E
330
1F
100
AcDbEntity
  8
0
  6
Continuous
 62
     7
370
     0
100
AcDbCircle
 10
11.0883195004
 20
8.317869337
 30
0.0
 40
0.7738001951743867
100
AcDbArc
 50
47.2385343822
 51
51.2127708479
  0
LINE
  5
21F
330
1F
100
AcDbEntity
  8
0
  6
Continuous
 62
     7
370
     0
100
AcDbLine
 10
11.6839725037
 20
8.7948075295
 30
0.0
 11
11.706746852
 21
8.8079548809
 31
0.0
  0
ARC
  5
220
330
1F
100
AcDbEntity
  8
0
  6
Continuous
 62
     7
370
     0
100
AcDbCircle
 10
10.9595511119
 20
8.1934058681
 30
0.0
 40
0.941525523453765
100
AcDbArc
 50
39.6988498128
 51
41.5341787524
  0
LINE
  5
221
330
1F
100
AcDbEntity
  8
0
  6
Continuous
 62
     7
370
     0
100
AcDbLine
 10
11.6525852507
 20
8.8109143659
 30
0.0
 11
11.6643397531
 21
8.8177000957
 31
0.0
  0
ARC
  5
222
330
1F
100
AcDbEntity
  8
0
  6
Continuous
 62
     7
370
     0
100
AcDbCircle
 10
10.9477966096
 20
8.1866201383
 30
0.0
 40
0.9415255234621809
100
AcDbArc
 50
39.6988498128
 51
41.5341787524
  0
LINE
  5
223
330
1F
100
AcDbEntity
  8
0
  6
Continuous
 62
     7
370
     0
100
AcDbLine
 10
11.6634021246
 20
8.7829325024
 30
0.0
 11
11.6722180014
 21
8.7880217998
 31
0.0
  0
ARC
  5
224
330
1F
100
AcDbEntity
  8
0
  6
Continuous
 62
     7
370
     0
100
AcDbCircle
 10
10.94097297
 20
8.1832240768
 30
0.0
 40
0.9389111136308937
100
AcDbArc
 50
39.6970038273
 51
41.8421733639
  0
LINE
  5
225
330
1F
100
AcDbEntity
  8
0
  6
Continuous
 62
     7
370
     0
100
AcDbLine
 10
11.6272240266
 20
8.8019199026
 30
0.0
 11
11.6404478417
 21
8.8095538486
 31
0.0
  0
ARC
  5
226
330
1F
100
AcDbEntity
  8
0
  6
Continuous
 62
     7
370
     0
100
AcDbCircle
 10
10.9188459255
 20
8.1678822059
 30
0.0
 40
0.9506857183570204
100
AcDbArc
 50
38.2443340362
 51
41.8303075077
  0
LINE
  5
227
330
1F
100
AcDbEntity
  8
0
  6
Continuous
 62
     7
370
     0
100
AcDbLine
 10
11.7220622578
 20
8.7890284734
 30
0.0
 11
11.6654937153
 21
8.7563721489
 31
0.0
  0
ARC
  5
228
330
1F
100
AcDbEntity
  8
0
  6
Continuous
 62
     7
370
     0
100
AcDbCircle
 10
10.9623745727
 20
8.1899427858
 30
0.0
 40
0.9674859378656376
100
AcDbArc
 50
38.2591250689
 51
39.7010171067
  0
LINE
  5
229
330
1F
100
AcDbEntity
  8
0
  6
Continuous
 62
     7
370
     0
100
AcDbLine
 10
11.2703026325
 20
9.0519593486
 30
0.0
 11
11.280587822
 21
9.0578968622
 31
0.0
  0
ARC
  5
22A
330
1F
100
AcDbEntity
  8
0
  6
Continuous
 62
     7
370
     0
100
AcDbCircle
 10
11.3667726943
 20
8.8760440513
 30
0.0
 40
0.2006306672867725
100
AcDbArc
 50
115.1385296345
 51
118.7398911283
  0
LINE
  5
22B
330
1F
100
AcDbEntity
  8
0
  6
Continuous
 62
     7
370
     0
100
AcDbLine
 10
11.2918283125
 20
9.0636091641
 30
0.0
 11
11.2815431229
 21
9.0576716506
 31
0.0
  0
ARC
  5
22C
330
1F
100
AcDbEntity
  8
0
  6
Continuous
 62
     7
370
     0
100
AcDbCircle
 10
11.3770578839
 20
8.8819815649
 30
0.0
 40
0.2006306672873412
100
AcDbArc
 50
115.1385296345
 51
118.7398911283
  0
SPLINE
  5
22D
330
1F
100
AcDbEntity
  8
0
  6
Continuous
 62
     7
370
     0
100
AcDbSpline
210
0.0
220
0.0
230
1.0
 70
     8
 71
     3
 72
    13
 73
     9
 74
     0
 42
0.00000001
 43
0.00000001
 40
0.0
 40
0.0
 40
0.0
 40
0.0
 40
0.2502499937363261
 40
0.3875326883046037
 40
0.5000553989284536
 40
0.6148522551719344
 40
0.7498927631185364
 40
1.0
 40
1.0
 40
1.0
 40
1.0
 10
11.33138956373847
 20
9.083251056267724
 30
0.0
 10
11.3307097009114
 20
9.082854033677691
 30
0.0
 10
11.32965687743227
 20
9.082239211557877
 30
0.0
 10
11.32862505744402
 20
9.081572406677248
 30
0.0
 10
11.32816156754533
 20
9.08120865214596
 30
0.0
 10
11.32822079067145
 20
9.081090621402943
 30
0.0
 10
11.32879675229813
 20
9.081178073071733
 30
0.0
 10
11.3296044752564
 20
9.081436506621174
 30
0.0
 10
11.33012899437918
 20
9.081604328195715
 30
0.0
  0
SPLINE
  5
22E
330
1F
100
AcDbEntity
  8
0
  6
Continuous
 62
     7
370
     0
100
AcDbSpline
210
0.0
220
0.0
230
1.0
 70
    24
 71
     1
 72
     4
 73
     2
 74
     0
 42
0.00000001
 43
0.00000001
 40
0.0
 40
0.0
 40
1.0
 40
1.0
 10
11.34905024563049
 20
9.089866143752777
 30
0.0
 10
11.33138956373847
 20
9.083251056267724
 30
0.0
  0
ARC
  5
22F
330
1F
100
AcDbEntity
  8
0
  6
Continuous
 62
     7
370
     0
100
AcDbCircle
 10
11.2986007685
 20
9.2478708297
 30
0.0
 40
0.1658632886777413
100
AcDbArc
 50
287.7078156816
 51
292.2880280543
  0
SPLINE
  5
230
330
1F
100
AcDbEntity
  8
0
  6
Continuous
 62
     7
370
     0
100
AcDbSpline
210
0.0
220
0.0
230
1.0
 70
     8
 71
     3
 72
     9
 73
     5
 74
     0
 42
0.00000001
 43
0.00000001
 40
0.0
 40
0.0
 40
0.0
 40
0.0
 40
0.5005138828869249
 40
1.0
 40
1.0
 40
1.0
 40
1.0
 10
11.37094892427925
 20
9.099061003764092
 30
0.0
 10
11.36953222320343
 20
9.09827154884768
 30
0.0
 10
11.36670173013568
 20
9.096694260098252
 30
0.0
 10
11.36323708879587
 20
9.095163799451429
 30
0.0
 10
11.36150654854586
 20
9.094399355605553
 30
0.0
  0
SPLINE
  5
231
330
1F
100
AcDbEntity
  8
0
  6
Continuous
 62
     7
370
     0
100
AcDbSpline
210
0.0
220
0.0
230
1.0
 70
     8
 71
     3
 72
    13
 73
     9
 74
     0
 42
0.00000001
 43
0.00000001
 40
0.0
 40
0.0
 40
0.0
 40
0.0
 40
0.2503342404083042
 40
0.49976007102384
 40
0.6241777149122579
 40
0.7517673256819741
 40
0.8742692938027731
 40
1.0
 40
1.0
 40
1.0
 40
1.0
 10
11.36973721233054
 20
9.102307063232615
 30
0.0
 10
11.37106353788093
 20
9.10265622926604
 30
0.0
 10
11.37371137602797
 20
9.103353294283513
 30
0.0
 10
11.37565598696805
 20
9.103358608093039
 30
0.0
 10
11.37567275420388
 20
9.102614817930268
 30
0.0
 10
11.37500012943817
 20
9.101755293686432
 30
0.0
 10
11.37340697724142
 20
9.100533489233412
 30
0.0
 10
11.37177534940776
 20
9.099556069985997
 30
0.0
 10
11.37094892427925
 20
9.099061003764092
 30
0.0
  0
SPLINE
  5
232
330
1F
100
AcDbEntity
  8
0
  6
Continuous
 62
     7
370
     0
100
AcDbSpline
210
0.0
220
0.0
230
1.0
 70
    24
 71
     1
 72
     4
 73
     2
 74
     0
 42
0.00000001
 43
0.00000001
 40
0.0
 40
0.0
 40
1.0
 40
1.0
 10
11.36028221359904
 20
9.098946350534362
 30
0.0
 10
11.36973721233054
 20
9.102307063232615
 30
0.0
  0
SPLINE
  5
233
330
1F
100
AcDbEntity
  8
0
  6
Continuous
 62
     7
370
     0
100
AcDbSpline
210
0.0
220
0.0
230
1.0
 70
    24
 71
     1
 72
     4
 73
     2
 74
     0
 42
0.00000001
 43
0.00000001
 40
0.0
 40
0.0
 40
1.0
 40
1.0
 10
11.35120548306853
 20
9.094846451412874
 30
0.0
 10
11.36028221359904
 20
9.098946350534362
 30
0.0
  0
SPLINE
  5
234
330
1F
100
AcDbEntity
  8
0
  6
Continuous
 62
     7
370
     0
100
AcDbSpline
210
0.0
220
0.0
230
1.0
 70
     8
 71
     3
 72
     9
 73
     5
 74
     0
 42
0.00000001
 43
0.00000001
 40
0.0
 40
0.0
 40
0.0
 40
0.0
 40
0.4998712278477623
 40
1.0
 40
1.0
 40
1.0
 40
1.0
 10
11.35508610393057
 20
9.097374077481243
 30
0.0
 10
11.35460387595992
 20
9.097023174480546
 30
0.0
 10
11.35363917156449
 20
9.096321187686451
 30
0.0
 10
11.35201685184025
 20
9.095338114565692
 30
0.0
 10
11.35120548306853
 20
9.094846451412874
 30
0.0
  0
ARC
  5
235
330
1F
100
AcDbEntity
  8
0
  6
Continuous
 62
     7
370
     0
100
AcDbCircle
 10
11.4248397911
 20
8.9053216863
 30
0.0
 40
0.2043274279798633
100
AcDbArc
 50
109.9610897204
 51
113.3759183778
  0
SPLINE
  5
236
330
1F
100
AcDbEntity
  8
0
  6
Continuous
 62
     7
370
     0
100
AcDbSpline
210
0.0
220
0.0
230
1.0
 70
     8
 71
     3
 72
     9
 73
     5
 74
     0
 42
0.00000001
 43
0.00000001
 40
0.0
 40
0.0
 40
0.0
 40
0.0
 40
0.5000538352470536
 40
1.0
 40
1.0
 40
1.0
 40
1.0
 10
11.33654724482692
 20
9.088485439976763
 30
0.0
 10
11.33805781874227
 20
9.089359881519664
 30
0.0
 10
11.34107864131951
 20
9.091108576322634
 30
0.0
 10
11.3428732165486
 20
9.092288380319266
 30
0.0
 10
11.34377040755174
 20
9.092878218802541
 30
0.0
  0
LINE
  5
237
330
1F
100
AcDbEntity
  8
0
  6
Continuous
 62
     7
370
     0
100
AcDbLine
 10
11.3184563311
 20
9.0780417778
 30
0.0
 11
11.3365472448
 21
9.08848544
 31
0.0
  0
ARC
  5
238
330
1F
100
AcDbEntity
  8
0
  6
Continuous
 62
     7
370
     0
100
AcDbCircle
 10
11.3359868413
 20
9.0425311978
 30
0.0
 40
0.0396020211522371
100
AcDbArc
 50
116.2741742528
 51
129.5757440887
  0
ARC
  5
239
330
1F
100
AcDbEntity
  8
0
  6
Continuous
 62
     7
370
     0
100
AcDbCircle
 10
11.3099307771
 20
9.0963017683
 30
0.0
 40
0.0232606649333903
100
AcDbArc
 50
272.034310603
 51
298.5693739175
  0
SPLINE
  5
23A
330
1F
100
AcDbEntity
  8
0
  6
Continuous
 62
     7
370
     0
100
AcDbSpline
210
0.0
220
0.0
230
1.0
 70
     8
 71
     3
 72
     9
 73
     5
 74
     0
 42
0.00000001
 43
0.00000001
 40
0.0
 40
0.0
 40
0.0
 40
0.0
 40
0.4987757766930754
 40
1.0
 40
1.0
 40
1.0
 40
1.0
 10
11.33529481499657
 20
9.080821532568637
 30
0.0
 10
11.33254378796457
 20
9.079804172321337
 30
0.0
 10
11.32702822934976
 20
9.07776445769436
 30
0.0
 10
11.32304902410679
 20
9.076504748432543
 30
0.0
 10
11.32105455004951
 20
9.075873351636195
 30
0.0
  0
ARC
  5
23B
330
1F
100
AcDbEntity
  8
0
  6
Continuous
 62
     7
370
     0
100
AcDbCircle
 10
11.2757251263
 20
9.2310110247
 30
0.0
 40
0.1615717529701801
100
AcDbArc
 50
291.6347722158
 51
298.5056408776
  0
SPLINE
  5
23C
330
1F
100
AcDbEntity
  8
0
  6
Continuous
 62
     7
370
     0
100
AcDbSpline
210
0.0
220
0.0
230
1.0
 70
    24
 71
     1
 72
     4
 73
     2
 74
     0
 42
0.00000001
 43
0.00000001
 40
0.0
 40
0.0
 40
1.0
 40
1.0
 10
11.34123479474662
 20
9.086440378784873
 30
0.0
 10
11.3528344826434
 20
9.089026594137533
 30
0.0
  0
SPLINE
  5
23D
330
1F
100
AcDbEntity
  8
0
  6
Continuous
 62
     7
370
     0
100
AcDbSpline
210
0.0
220
0.0
230
1.0
 70
     8
 71
     3
 72
     9
 73
     5
 74
     0
 42
0.00000001
 43
0.00000001
 40
0.0
 40
0.0
 40
0.0
 40
0.0
 40
0.4983624828367132
 40
1.0
 40
1.0
 40
1.0
 40
1.0
 10
11.33562881210629
 20
9.083692484879576
 30
0.0
 10
11.33659074472902
 20
9.084135956424587
 30
0.0
 10
11.3385209314021
 20
9.085025813828153
 30
0.0
 10
11.34032820067547
 20
9.085967828755559
 30
0.0
 10
11.34123479474662
 20
9.086440378784873
 30
0.0
  0
SPLINE
  5
23E
330
1F
100
AcDbEntity
  8
0
  6
Continuous
 62
     7
370
     0
100
AcDbSpline
210
0.0
220
0.0
230
1.0
 70
     8
 71
     3
 72
     9
 73
     5
 74
     0
 42
0.00000001
 43
0.00000001
 40
0.0
 40
0.0
 40
0.0
 40
0.0
 40
0.5014167496225543
 40
0.9999999999999999
 40
0.9999999999999999
 40
0.9999999999999999
 40
0.9999999999999999
 10
11.33012899437918
 20
9.081604328195715
 30
0.0
 10
11.33088410558123
 20
9.081855134851393
 30
0.0
 10
11.33239006086218
 20
9.082355330857744
 30
0.0
 10
11.33455126961938
 20
9.083247609629375
 30
0.0
 10
11.33562881210629
 20
9.083692484879576
 30
0.0
  0
LINE
  5
23F
330
1F
100
AcDbEntity
  8
0
  6
Continuous
 62
     7
370
     0
100
AcDbLine
 10
11.4388694467
 20
9.0857651085
 30
0.0
 11
11.4195388003
 21
9.0746057639
 31
0.0
  0
SPLINE
  5
240
330
1F
100
AcDbEntity
  8
0
  6
Continuous
 62
     7
370
     0
100
AcDbSpline
210
0.0
220
0.0
230
1.0
 70
     8
 71
     3
 72
    11
 73
     7
 74
     0
 42
0.00000001
 43
0.00000001
 40
0.0
 40
0.0
 40
0.0
 40
0.0
 40
0.498969349283815
 40
0.7492892892638056
 40
0.8746232027899145
 40
1.0
 40
1.0
 40
1.0
 40
1.0
 10
11.44556426536562
 20
9.081166876958113
 30
0.0
 10
11.4436389179079
 20
9.08164905776091
 30
0.0
 10
11.44074767372577
 20
9.08237313612673
 30
0.0
 10
11.43927664219743
 20
9.08393411608559
 30
0.0
 10
11.43885884918059
 20
9.084935918892072
 30
0.0
 10
11.4388659138204
 20
9.085488680470906
 30
0.0
 10
11.4388694467445
 20
9.085765108534835
 30
0.0
  0
ARC
  5
241
330
1F
100
AcDbEntity
  8
0
  6
Continuous
 62
     7
370
     0
100
AcDbCircle
 10
11.4525493797
 20
9.137076179
 30
0.0
 40
0.0563439604061778
100
AcDbArc
 50
262.8785641828
 51
302.7264330396
  0
SPLINE
  5
242
330
1F
100
AcDbEntity
  8
0
  6
Continuous
 62
     7
370
     0
100
AcDbSpline
210
0.0
220
0.0
230
1.0
 70
     8
 71
     3
 72
    13
 73
     9
 74
     0
 42
0.00000001
 43
0.00000001
 40
0.0
 40
0.0
 40
0.0
 40
0.0
 40
0.1251834461243306
 40
0.2502299178032377
 40
0.3715684377514553
 40
0.5002574982630107
 40
0.7499110761101652
 40
1.0
 40
1.0
 40
1.0
 40
1.0
 10
11.48827223369552
 20
9.105746744498088
 30
0.0
 10
11.48944396636525
 20
9.105473740111243
 30
0.0
 10
11.49178614960679
 20
9.104928030056161
 30
0.0
 10
11.49401613274572
 20
9.103457043217448
 30
0.0
 10
11.49484437522657
 20
9.10148688491759
 30
0.0
 10
11.49389178468761
 20
9.098430219686012
 30
0.0
 10
11.49037634668322
 20
9.094291635267336
 30
0.0
 10
11.48546722761898
 20
9.091215556195548
 30
0.0
 10
11.48301052982011
 20
9.089676176810787
 30
0.0
  0
SPLINE
  5
243
330
1F
100
AcDbEntity
  8
0
  6
Continuous
 62
     7
370
     0
100
AcDbSpline
210
0.0
220
0.0
230
1.0
 70
    24
 71
     1
 72
     4
 73
     2
 74
     0
 42
0.00000001
 43
0.00000001
 40
0.0
 40
0.0
 40
1.0
 40
1.0
 10
11.47940574726703
 20
9.106040347026042
 30
0.0
 10
11.48827223369552
 20
9.105746744498088
 30
0.0
  0
SPLINE
  5
244
330
1F
100
AcDbEntity
  8
0
  6
Continuous
 62
     7
370
     0
100
AcDbSpline
210
0.0
220
0.0
230
1.0
 70
    24
 71
     1
 72
     4
 73
     2
 74
     0
 42
0.00000001
 43
0.00000001
 40
0.0
 40
0.0
 40
1.0
 40
1.0
 10
11.46916379109112
 20
9.104020070720235
 30
0.0
 10
11.47940574726703
 20
9.106040347026042
 30
0.0
  0
LINE
  5
245
330
1F
100
AcDbEntity
  8
0
  6
Continuous
 62
     7
370
     0
100
AcDbLine
 10
11.4750525213
 20
9.1074195623
 30
0.0
 11
11.4691637911
 21
9.1040200707
 31
0.0
  0
ARC
  5
246
330
1F
100
AcDbEntity
  8
0
  6
Continuous
 62
     7
370
     0
100
AcDbCircle
 10
11.4306627088
 20
8.8069979925
 30
0.0
 40
0.3036833467108991
100
AcDbArc
 50
81.5948831801
 51
84.1274369132
  0
LINE
  5
247
330
1F
100
AcDbEntity
  8
0
  6
Continuous
 62
     7
370
     0
100
AcDbLine
 10
11.4051658915
 20
9.0764312622
 30
0.0
 11
11.461734434
 21
9.1090875867
 31
0.0
  0
ARC
  5
248
330
1F
100
AcDbEntity
  8
0
  6
Continuous
 62
     7
370
     0
100
AcDbCircle
 10
11.374014938
 20
8.7736721347
 30
0.0
 40
0.304357472749182
100
AcDbArc
 50
81.397779419
 51
84.1254963256
  0
ARC
  5
249
330
1F
100
AcDbEntity
  8
0
  6
Continuous
 62
     7
370
     0
100
AcDbCircle
 10
11.5081669977
 20
9.12267944
 30
0.0
 40
0.0559371257559646
100
AcDbArc
 50
251.9255561014
 51
298.7582718735
  0
SPLINE
  5
24A
330
1F
100
AcDbEntity
  8
0
  6
Continuous
 62
     7
370
     0
100
AcDbSpline
210
0.0
220
0.0
230
1.0
 70
     8
 71
     3
 72
    13
 73
     9
 74
     0
 42
0.00000001
 43
0.00000001
 40
0.0
 40
0.0
 40
0.0
 40
0.0
 40
0.2502561190886817
 40
0.3753695374489806
 40
0.5004454107250087
 40
0.6243777276238149
 40
0.7509522925250237
 40
1.0
 40
1.0
 40
1.0
 40
1.0
 10
11.53288415895606
 20
9.094275705573923
 30
0.0
 10
11.53574208453301
 20
9.093227967774757
 30
0.0
 10
11.54002880569606
 20
9.091656422373699
 30
0.0
 10
11.5437079197075
 20
9.088484730228547
 30
0.0
 10
11.54480645939506
 20
9.085623934650283
 30
0.0
 10
11.54430186667257
 20
9.082529209072744
 30
0.0
 10
11.54204540022764
 20
9.078310277261476
 30
0.0
 10
11.53785653656157
 20
9.075503030489777
 30
0.0
 10
11.53507920686181
 20
9.07364175009129
 30
0.0
  0
ARC
  5
24B
330
1F
100
AcDbEntity
  8
0
  6
Continuous
 62
     7
370
     0
100
AcDbCircle
 10
11.516130059
 20
9.0426571156
 30
0.0
 40
0.054269500623611
100
AcDbArc
 50
72.0178694214
 51
108.8028887617
  0
SPLINE
  5
24C
330
1F
100
AcDbEntity
  8
0
  6
Continuous
 62
     7
370
     0
100
AcDbSpline
210
0.0
220
0.0
230
1.0
 70
    24
 71
     1
 72
     4
 73
     2
 74
     0
 42
0.00000001
 43
0.00000001
 40
0.0
 40
0.0
 40
1.0
 40
1.0
 10
11.51282218636313
 20
9.088789213731383
 30
0.0
 10
11.49863827045988
 20
9.094030416356125
 30
0.0
  0
SPLINE
  5
24D
330
1F
100
AcDbEntity
  8
0
  6
Continuous
 62
     7
370
     0
100
AcDbSpline
210
0.0
220
0.0
230
1.0
 70
    24
 71
     1
 72
     4
 73
     2
 74
     0
 42
0.00000001
 43
0.00000001
 40
0.0
 40
0.0
 40
1.0
 40
1.0
 10
11.51795248837698
 20
9.089455439857803
 30
0.0
 10
11.51282218636313
 20
9.088789213731383
 30
0.0
  0
ARC
  5
24E
330
1F
100
AcDbEntity
  8
0
  6
Continuous
 62
     7
370
     0
100
AcDbCircle
 10
11.5184517649
 20
9.0720310909
 30
0.0
 40
0.0174315006006564
100
AcDbArc
 50
74.004781203
 51
91.6413017125
  0
SPLINE
  5
24F
330
1F
100
AcDbEntity
  8
0
  6
Continuous
 62
     7
370
     0
100
AcDbSpline
210
0.0
220
0.0
230
1.0
 70
     8
 71
     3
 72
    10
 73
     6
 74
     0
 42
0.00000001
 43
0.00000001
 40
0.0
 40
0.0
 40
0.0
 40
0.0
 40
0.2550650714608435
 40
0.5011546383380254
 40
1.0
 40
1.0
 40
1.0
 40
1.0
 10
11.526308826634
 20
9.0854146544384
 30
0.0
 10
11.52633093413235
 20
9.085773400727273
 30
0.0
 10
11.52637437118658
 20
9.086478269354034
 30
0.0
 10
11.52566842929288
 20
9.087763743174161
 30
0.0
 10
11.52422304221849
 20
9.08837703501185
 30
0.0
 10
11.52325513937189
 20
9.088787725633079
 30
0.0
  0
SPLINE
  5
250
330
1F
100
AcDbEntity
  8
0
  6
Continuous
 62
     7
370
     0
100
AcDbSpline
210
0.0
220
0.0
230
1.0
 70
     8
 71
     3
 72
     9
 73
     5
 74
     0
 42
0.00000001
 43
0.00000001
 40
0.0
 40
0.0
 40
0.0
 40
0.0
 40
0.5011160372996479
 40
1.0
 40
1.0
 40
1.0
 40
1.0
 10
11.52276809915067
 20
9.081579396242587
 30
0.0
 10
11.52363131534823
 20
9.08219490103984
 30
0.0
 10
11.52535390279964
 20
9.083423169048526
 30
0.0
 10
11.52599099269995
 20
9.084751814520379
 30
0.0
 10
11.526308826634
 20
9.0854146544384
 30
0.0
  0
ARC
  5
251
330
1F
100
AcDbEntity
  8
0
  6
Continuous
 62
     7
370
     0
100
AcDbCircle
 10
11.3966539191
 20
8.7180044825
 30
0.0
 40
0.3848265899687905
100
AcDbArc
 50
70.8697404699
 51
75.6465948639
  0
LINE
  5
252
330
1F
100
AcDbEntity
  8
0
  6
Continuous
 62
     7
370
     0
100
AcDbLine
 10
11.4902969588
 20
9.0898048592
 30
0.0
 11
11.4920532467
 21
9.0908187427
 31
0.0
  0
SPLINE
  5
253
330
1F
100
AcDbEntity
  8
0
  6
Continuous
 62
     7
370
     0
100
AcDbSpline
210
0.0
220
0.0
230
1.0
 70
     8
 71
     3
 72
    13
 73
     9
 74
     0
 42
0.00000001
 43
0.00000001
 40
0.0
 40
0.0
 40
0.0
 40
0.0
 40
0.2501213163499022
 40
0.3752087323567218
 40
0.5002154264236813
 40
0.625177397283625
 40
0.750181986711108
 40
1.0
 40
1.0
 40
1.0
 40
1.0
 10
11.49081236835321
 20
9.0695025759072
 30
0.0
 10
11.48776350787792
 20
9.070580047100929
 30
0.0
 10
11.48318989099968
 20
9.072196369158762
 30
0.0
 10
11.47946776505775
 20
9.07520843729857
 30
0.0
 10
11.47837661904614
 20
9.077907632821628
 30
0.0
 10
11.47915633642191
 20
9.080893133334925
 30
0.0
 10
11.4825490250267
 20
9.085008391685726
 30
0.0
 10
11.48719825952664
 20
9.087886565798529
 30
0.0
 10
11.49029695879843
 20
9.089804859235342
 30
0.0
  0
ARC
  5
254
330
1F
100
AcDbEntity
  8
0
  6
Continuous
 62
     7
370
     0
100
AcDbCircle
 10
11.614433955
 20
9.042587234
 30
0.0
 40
0.0179937702869043
100
AcDbArc
 50
242.5209984551
 51
305.1327821791
  0
SPLINE
  5
255
330
1F
100
AcDbEntity
  8
0
  6
Continuous
 62
     7
370
     0
100
AcDbSpline
210
0.0
220
0.0
230
1.0
 70
     8
 71
     3
 72
    12
 73
     8
 74
     0
 42
0.00000001
 43
0.00000001
 40
0.0
 40
0.0
 40
0.0
 40
0.0
 40
0.2500161658406529
 40
0.3794861107471688
 40
0.5003609948061871
 40
0.7497424986442969
 40
1.0
 40
1.0
 40
1.0
 40
1.0
 10
11.60450336406
 20
9.033695716672746
 30
0.0
 10
11.60399506293527
 20
9.033126362815691
 30
0.0
 10
11.60322353995687
 20
9.032262171173818
 30
0.0
 10
11.6028565452195
 20
9.030982818004663
 30
0.0
 10
11.60293584070685
 20
9.029687415559305
 30
0.0
 10
11.60391558861036
 20
9.028116906594313
 30
0.0
 10
11.60539180451844
 20
9.02712189763242
 30
0.0
 10
11.60613120656827
 20
9.026623520896331
 30
0.0
  0
SPLINE
  5
256
330
1F
100
AcDbEntity
  8
0
  6
Continuous
 62
     7
370
     0
100
AcDbSpline
210
0.0
220
0.0
230
1.0
 70
    24
 71
     1
 72
     4
 73
     2
 74
     0
 42
0.00000001
 43
0.00000001
 40
0.0
 40
0.0
 40
1.0
 40
1.0
 10
11.58613796707431
 20
9.0417140074998
 30
0.0
 10
11.60450336406
 20
9.033695716672746
 30
0.0
  0
SPLINE
  5
257
330
1F
100
AcDbEntity
  8
0
  6
Continuous
 62
     7
370
     0
100
AcDbSpline
210
0.0
220
0.0
230
1.0
 70
     8
 71
     3
 72
    12
 73
     8
 74
     0
 42
0.00000001
 43
0.00000001
 40
0.0
 40
0.0
 40
0.0
 40
0.0
 40
0.2504615608200736
 40
0.5001568997102218
 40
0.6235742345098049
 40
0.7505262250100652
 40
1.0
 40
1.0
 40
1.0
 40
1.0
 10
11.59507694221205
 20
9.020283075504137
 30
0.0
 10
11.59274233444843
 20
9.021809755721558
 30
0.0
 10
11.58808026104576
 20
9.024858445675791
 30
0.0
 10
11.58384232563967
 20
9.02931106316963
 30
0.0
 10
11.58261218349111
 20
9.033203196571023
 30
0.0
 10
11.58276879867077
 20
9.037156281876957
 30
0.0
 10
11.58479506920357
 20
9.039897369296765
 30
0.0
 10
11.58613796707431
 20
9.0417140074998
 30
0.0
  0
SPLINE
  5
258
330
1F
100
AcDbEntity
  8
0
  6
Continuous
 62
     7
370
     0
100
AcDbSpline
210
0.0
220
0.0
230
1.0
 70
    24
 71
     1
 72
     4
 73
     2
 74
     0
 42
0.00000001
 43
0.00000001
 40
0.0
 40
0.0
 40
1.0
 40
1.0
 10
11.60882685659122
 20
9.013876718595178
 30
0.0
 10
11.59507694221205
 20
9.020283075504137
 30
0.0
  0
SPLINE
  5
259
330
1F
100
AcDbEntity
  8
0
  6
Continuous
 62
     7
370
     0
100
AcDbSpline
210
0.0
220
0.0
230
1.0
 70
     8
 71
     3
 72
     9
 73
     5
 74
     0
 42
0.00000001
 43
0.00000001
 40
0.0
 40
0.0
 40
0.0
 40
0.0
 40
0.4986120697491467
 40
1.0
 40
1.0
 40
1.0
 40
1.0
 10
11.62798149098948
 20
9.012512183723247
 30
0.0
 10
11.62475903690539
 20
9.012255227155551
 30
0.0
 10
11.61829618877236
 20
9.011739883498052
 30
0.0
 10
11.61198913648404
 20
9.013163123324397
 30
0.0
 10
11.60882685659122
 20
9.013876718595178
 30
0.0
  0
SPLINE
  5
25A
330
1F
100
AcDbEntity
  8
0
  6
Continuous
 62
     7
370
     0
100
AcDbSpline
210
0.0
220
0.0
230
1.0
 70
     8
 71
     3
 72
     9
 73
     5
 74
     0
 42
0.00000001
 43
0.00000001
 40
0.0
 40
0.0
 40
0.0
 40
0.0
 40
0.5005615848306325
 40
1.0
 40
1.0
 40
1.0
 40
1.0
 10
11.64062308462773
 20
9.017082326725678
 30
0.0
 10
11.63876129865195
 20
9.016070258309894
 30
0.0
 10
11.6350419042114
 20
9.014048392376802
 30
0.0
 10
11.6303331991719
 20
9.013023869703504
 30
0.0
 10
11.62798149098948
 20
9.012512183723247
 30
0.0
  0
SPLINE
  5
25B
330
1F
100
AcDbEntity
  8
0
  6
Continuous
 62
     7
370
     0
100
AcDbSpline
210
0.0
220
0.0
230
1.0
 70
     8
 71
     3
 72
    14
 73
    10
 74
     0
 42
0.00000001
 43
0.00000001
 40
0.0
 40
0.0
 40
0.0
 40
0.0
 40
0.2500577725992318
 40
0.379667345629021
 40
0.4999755349866984
 40
0.6255852466947419
 40
0.7499501153978005
 40
0.861038200672187
 40
1.0
 40
1.0
 40
1.0
 40
1.0
 10
11.63660852417599
 20
9.045543260582509
 30
0.0
 10
11.63965902548155
 20
9.04354465368149
 30
0.0
 10
11.64429065808981
 20
9.040510131822089
 30
0.0
 10
11.64847512626469
 20
9.035553591929043
 30
0.0
 10
11.6501055326385
 20
9.031481524063016
 30
0.0
 10
11.65008632936207
 20
9.02737720246347
 30
0.0
 10
11.64862485585684
 20
9.023511180498735
 30
0.0
 10
11.64534155909918
 20
9.020006339304114
 30
0.0
 10
11.64230860650206
 20
9.018126835325141
 30
0.0
 10
11.64062308462773
 20
9.017082326725678
 30
0.0
  0
ARC
  5
25C
330
1F
100
AcDbEntity
  8
0
  6
Continuous
 62
     7
370
     0
100
AcDbCircle
 10
11.6133006259
 20
9.0086993676
 30
0.0
 40
0.0435973688376209
100
AcDbArc
 50
57.6820531713
 51
109.6676960466
  0
SPLINE
  5
25D
330
1F
100
AcDbEntity
  8
0
  6
Continuous
 62
     7
370
     0
100
AcDbSpline
210
0.0
220
0.0
230
1.0
 70
    24
 71
     1
 72
     4
 73
     2
 74
     0
 42
0.00000001
 43
0.00000001
 40
0.0
 40
0.0
 40
1.0
 40
1.0
 10
11.61331933591065
 20
9.039646818393413
 30
0.0
 10
11.59862730388404
 20
9.049753285717204
 30
0.0
  0
ARC
  5
25E
330
1F
100
AcDbEntity
  8
0
  6
Continuous
 62
     7
370
     0
100
AcDbCircle
 10
11.6187384484
 20
9.0243279091
 30
0.0
 40
0.0162491772472577
100
AcDbArc
 50
60.0967687632
 51
109.4813937898
  0
SPLINE
  5
25F
330
1F
100
AcDbEntity
  8
0
  6
Continuous
 62
     7
370
     0
100
AcDbSpline
210
0.0
220
0.0
230
1.0
 70
     8
 71
     3
 72
    13
 73
     9
 74
     0
 42
0.00000001
 43
0.00000001
 40
0.0
 40
0.0
 40
0.0
 40
0.0
 40
0.2503406525423955
 40
0.4995871881525356
 40
0.6259062530581345
 40
0.7464326647506712
 40
0.8687151858290126
 40
1.0
 40
1.0
 40
1.0
 40
1.0
 10
11.62478888881671
 20
9.027871558197738
 30
0.0
 10
11.62591618605174
 20
9.028584925233528
 30
0.0
 10
11.62816585365524
 20
9.030008541525612
 30
0.0
 10
11.62984644374723
 20
9.032354611757302
 30
0.0
 10
11.63004201251002
 20
9.034354517715688
 30
0.0
 10
11.62958734518845
 20
9.035830181478762
 30
0.0
 10
11.62852557994583
 20
9.0372256251488
 30
0.0
 10
11.62741451414583
 20
9.038008484683846
 30
0.0
 10
11.62683925839792
 20
9.038413811215671
 30
0.0
  0
SPLINE
  5
260
330
1F
100
AcDbEntity
  8
0
  6
Continuous
 62
     7
370
     0
100
AcDbSpline
210
0.0
220
0.0
230
1.0
 70
     8
 71
     3
 72
    13
 73
     9
 74
     0
 42
0.00000001
 43
0.00000001
 40
0.0
 40
0.0
 40
0.0
 40
0.0
 40
0.2502499937361889
 40
0.3875326883038538
 40
0.5000553989282213
 40
0.6148522551772867
 40
0.7498927631186706
 40
1.0
 40
1.0
 40
1.0
 40
1.0
 10
11.69257788406193
 20
8.97041132826806
 30
0.0
 10
11.69190310456205
 20
8.969985838963028
 30
0.0
 10
11.690858153033
 20
8.969326933794793
 30
0.0
 10
11.68990473624537
 20
8.968219125277669
 30
0.0
 10
11.68954587294832
 20
8.967264519227411
 30
0.0
 10
11.68976699603512
 20
8.96622582385197
 30
0.0
 10
11.69059663473973
 20
8.964858373731222
 30
0.0
 10
11.69160570462135
 20
8.96393681360672
 30
0.0
 10
11.69226097440626
 20
8.963338370906595
 30
0.0
  0
SPLINE
  5
261
330
1F
100
AcDbEntity
  8
0
  6
Continuous
 62
     7
370
     0
100
AcDbSpline
210
0.0
220
0.0
230
1.0
 70
    24
 71
     1
 72
     4
 73
     2
 74
     0
 42
0.00000001
 43
0.00000001
 40
0.0
 40
0.0
 40
1.0
 40
1.0
 10
11.71329334775092
 20
8.958318468608178
 30
0.0
 10
11.69257788406193
 20
8.97041132826806
 30
0.0
  0
ARC
  5
262
330
1F
100
AcDbEntity
  8
0
  6
Continuous
 62
     7
370
     0
100
AcDbCircle
 10
11.7355591054
 20
8.9880515364
 30
0.0
 40
0.037145918793284
100
AcDbArc
 50
233.1721103445
 51
257.1254006643
  0
SPLINE
  5
263
330
1F
100
AcDbEntity
  8
0
  6
Continuous
 62
     7
370
     0
100
AcDbSpline
210
0.0
220
0.0
230
1.0
 70
     8
 71
     3
 72
     9
 73
     5
 74
     0
 42
0.00000001
 43
0.00000001
 40
0.0
 40
0.0
 40
0.0
 40
0.0
 40
0.500513882886941
 40
1.0
 40
1.0
 40
1.0
 40
1.0
 10
11.73710427456168
 20
8.953526367145837
 30
0.0
 10
11.73567525115016
 20
8.952838702708123
 30
0.0
 10
11.73282013871398
 20
8.951464785897372
 30
0.0
 10
11.72912699942486
 20
8.951714656479105
 30
0.0
 10
11.72728232762138
 20
8.951839463365754
 30
0.0
  0
SPLINE
  5
264
330
1F
100
AcDbEntity
  8
0
  6
Continuous
 62
     7
370
     0
100
AcDbSpline
210
0.0
220
0.0
230
1.0
 70
     8
 71
     3
 72
    13
 73
     9
 74
     0
 42
0.00000001
 43
0.00000001
 40
0.0
 40
0.0
 40
0.0
 40
0.0
 40
0.2503342404082681
 40
0.4997600710237646
 40
0.6241777149136606
 40
0.7517673256862504
 40
0.8742692938044804
 40
1.0
 40
1.0
 40
1.0
 40
1.0
 10
11.73363829876961
 20
8.973038444019718
 30
0.0
 10
11.73524677398096
 20
8.971497681256126
 30
0.0
 10
11.73845788758872
 20
8.96842174682979
 30
0.0
 10
11.74102712495949
 20
8.963874620228244
 30
0.0
 10
11.7414321498803
 20
8.960189773276458
 30
0.0
 10
11.74098932687878
 20
8.957541812364571
 30
0.0
 10
11.73953770756417
 20
8.955196114147078
 30
0.0
 10
11.73792242218209
 20
8.954087754919549
 30
0.0
 10
11.73710427456168
 20
8.953526367145837
 30
0.0
  0
SPLINE
  5
265
330
1F
100
AcDbEntity
  8
0
  6
Continuous
 62
     7
370
     0
100
AcDbSpline
210
0.0
220
0.0
230
1.0
 70
    24
 71
     1
 72
     4
 73
     2
 74
     0
 42
0.00000001
 43
0.00000001
 40
0.0
 40
0.0
 40
1.0
 40
1.0
 10
11.72247577053639
 20
8.980316702947121
 30
0.0
 10
11.73363829876961
 20
8.973038444019718
 30
0.0
  0
SPLINE
  5
266
330
1F
100
AcDbEntity
  8
0
  6
Continuous
 62
     7
370
     0
100
AcDbSpline
210
0.0
220
0.0
230
1.0
 70
    24
 71
     1
 72
     4
 73
     2
 74
     0
 42
0.00000001
 43
0.00000001
 40
0.0
 40
0.0
 40
1.0
 40
1.0
 10
11.71221815757295
 20
8.982988123835298
 30
0.0
 10
11.72247577053639
 20
8.980316702947121
 30
0.0
  0
SPLINE
  5
267
330
1F
100
AcDbEntity
  8
0
  6
Continuous
 62
     7
370
     0
100
AcDbSpline
210
0.0
220
0.0
230
1.0
 70
     8
 71
     3
 72
     9
 73
     5
 74
     0
 42
0.00000001
 43
0.00000001
 40
0.0
 40
0.0
 40
0.0
 40
0.0
 40
0.4998712278477559
 40
1.0
 40
1.0
 40
1.0
 40
1.0
 10
11.7157610826434
 20
8.987379260142667
 30
0.0
 10
11.7153650952475
 20
8.98655410673149
 30
0.0
 10
11.71457291643454
 20
8.98490337477252
 30
0.0
 10
11.71300321194963
 20
8.983626650418733
 30
0.0
 10
11.71221815757295
 20
8.982988123835298
 30
0.0
  0
ARC
  5
268
330
1F
100
AcDbEntity
  8
0
  6
Continuous
 62
     7
370
     0
100
AcDbCircle
 10
11.2404287649
 20
8.4188616558
 30
0.0
 40
0.7410486345368907
100
AcDbArc
 50
50.1013157951
 51
51.5478698896
  0
SPLINE
  5
269
330
1F
100
AcDbEntity
  8
0
  6
Continuous
 62
     7
370
     0
100
AcDbSpline
210
0.0
220
0.0
230
1.0
 70
     8
 71
     3
 72
     9
 73
     5
 74
     0
 42
0.00000001
 43
0.00000001
 40
0.0
 40
0.0
 40
0.0
 40
0.0
 40
0.5000538352470668
 40
1.0
 40
1.0
 40
1.0
 40
1.0
 10
11.69448479741087
 20
8.992622549953866
 30
0.0
 10
11.69599193347311
 20
8.993514981192057
 30
0.0
 10
11.69900588108436
 20
8.995299651512106
 30
0.0
 10
11.70050713692595
 20
8.997898364414656
 30
0.0
 10
11.70125768402626
 20
8.99919758096358
 30
0.0
  0
LINE
  5
26A
330
1F
100
AcDbEntity
  8
0
  6
Continuous
 62
     7
370
     0
100
AcDbLine
 10
11.6763938837
 20
8.9821788877
 30
0.0
 11
11.6944847974
 21
8.99262255
 31
0.0
  0
ARC
  5
26B
330
1F
100
AcDbEntity
  8
0
  6
Continuous
 62
     7
370
     0
100
AcDbCircle
 10
11.6809987769
 20
8.9717917157
 30
0.0
 40
0.01136214700793
100
AcDbArc
 50
113.9089079035
 51
176.8452464793
  0
ARC
  5
26C
330
1F
100
AcDbEntity
  8
0
  6
Continuous
 62
     7
370
     0
100
AcDbCircle
 10
11.6993560406
 20
8.981807862
 30
0.0
 40
0.0311513774197106
100
AcDbArc
 50
197.5452357328
 51
239.6966666978
  0
SPLINE
  5
26D
330
1F
100
AcDbEntity
  8
0
  6
Continuous
 62
     7
370
     0
100
AcDbSpline
210
0.0
220
0.0
230
1.0
 70
     8
 71
     3
 72
     9
 73
     5
 74
     0
 42
0.00000001
 43
0.00000001
 40
0.0
 40
0.0
 40
0.0
 40
0.0
 40
0.4987757766930722
 40
1.0
 40
1.0
 40
1.0
 40
1.0
 10
11.70022829400212
 20
8.944489718539053
 30
0.0
 10
11.69712676823548
 20
8.945920855004308
 30
0.0
 10
11.69090849158379
 20
8.948790153258413
 30
0.0
 10
11.6860652802709
 20
8.95286859961962
 30
0.0
 10
11.6836377454423
 20
8.954912815729317
 30
0.0
  0
ARC
  5
26E
330
1F
100
AcDbEntity
  8
0
  6
Continuous
 62
     7
370
     0
100
AcDbCircle
 10
11.7087293948
 20
8.9696766708
 30
0.0
 40
0.0265829132712422
100
AcDbArc
 50
251.3494311418
 51
292.238809001
  0
SPLINE
  5
26F
330
1F
100
AcDbEntity
  8
0
  6
Continuous
 62
     7
370
     0
100
AcDbSpline
210
0.0
220
0.0
230
1.0
 70
    24
 71
     1
 72
     4
 73
     2
 74
     0
 42
0.00000001
 43
0.00000001
 40
0.0
 40
0.0
 40
1.0
 40
1.0
 10
11.70470509677129
 20
8.95996573158584
 30
0.0
 10
11.71879017239694
 20
8.945071142296271
 30
0.0
  0
SPLINE
  5
270
330
1F
100
AcDbEntity
  8
0
  6
Continuous
 62
     7
370
     0
100
AcDbSpline
210
0.0
220
0.0
230
1.0
 70
     8
 71
     3
 72
     9
 73
     5
 74
     0
 42
0.00000001
 43
0.00000001
 40
0.0
 40
0.0
 40
0.0
 40
0.0
 40
0.4983624828367131
 40
1.0
 40
1.0
 40
1.0
 40
1.0
 10
11.69871523520711
 20
8.959641374651172
 30
0.0
 10
11.69976652699783
 20
8.959524174054227
 30
0.0
 10
11.70187601923878
 20
8.95928900266597
 30
0.0
 10
11.70376001421105
 20
8.959739663302864
 30
0.0
 10
11.70470509677129
 20
8.95996573158584
 30
0.0
  0
SPLINE
  5
271
330
1F
100
AcDbEntity
  8
0
  6
Continuous
 62
     7
370
     0
100
AcDbSpline
210
0.0
220
0.0
230
1.0
 70
     8
 71
     3
 72
     9
 73
     5
 74
     0
 42
0.00000001
 43
0.00000001
 40
0.0
 40
0.0
 40
0.0
 40
0.0
 40
0.5014167496225618
 40
1.0
 40
1.0
 40
1.0
 40
1.0
 10
11.69226097440626
 20
8.963338370906595
 30
0.0
 10
11.69318808687127
 20
8.962566914993465
 30
0.0
 10
11.69503707270133
 20
8.961028362654101
 30
0.0
 10
11.69749149924376
 20
8.960102829819952
 30
0.0
 10
11.69871523520711
 20
8.959641374651172
 30
0.0
  0
SPLINE
  5
272
330
1F
100
AcDbEntity
  8
0
  6
Continuous
 62
     7
370
     0
100
AcDbSpline
210
0.0
220
0.0
230
1.0
 70
    24
 71
     1
 72
     4
 73
     2
 74
     0
 42
0.00000001
 43
0.00000001
 40
0.0
 40
0.0
 40
1.0
 40
1.0
 10
11.83636690026298
 20
8.823760570829196
 30
0.0
 10
11.85259349306815
 20
8.81681388405194
 30
0.0
  0
ARC
  5
273
330
1F
100
AcDbEntity
  8
0
  6
Continuous
 62
     7
370
     0
100
AcDbCircle
 10
11.8167615112
 20
8.7974495479
 30
0.0
 40
0.0328122112437183
100
AcDbArc
 50
53.3087404766
 51
111.8844640368
  0
SPLINE
  5
274
330
1F
100
AcDbEntity
  8
0
  6
Continuous
 62
     7
370
     0
100
AcDbSpline
210
0.0
220
0.0
230
1.0
 70
     8
 71
     3
 72
    13
 73
     9
 74
     0
 42
0.00000001
 43
0.00000001
 40
0.0
 40
0.0
 40
0.0
 40
0.0
 40
0.2505513334131574
 40
0.4997574289386897
 40
0.6245242524954574
 40
0.7498907040620101
 40
0.8749266421754139
 40
1.0
 40
1.0
 40
1.0
 40
1.0
 10
11.80726997099998
 20
8.793084366983171
 30
0.0
 10
11.80515838538186
 20
8.796101972116993
 30
0.0
 10
11.80094655148293
 20
8.802120980528114
 30
0.0
 10
11.7974168764434
 20
8.810471079622488
 30
0.0
 10
11.79721664575815
 20
8.816998267177471
 30
0.0
 10
11.79839029655961
 20
8.821470207170828
 30
0.0
 10
11.8007883981636
 20
8.825317063769447
 30
0.0
 10
11.80328348352465
 20
8.827037085132151
 30
0.0
 10
11.80453121285433
 20
8.827897224482657
 30
0.0
  0
ARC
  5
275
330
1F
100
AcDbEntity
  8
0
  6
Continuous
 62
     7
370
     0
100
AcDbCircle
 10
11.834224483
 20
8.8054041949
 30
0.0
 40
0.0296365294347646
100
AcDbArc
 50
204.5632421412
 51
288.303390358
  0
SPLINE
  5
276
330
1F
100
AcDbEntity
  8
0
  6
Continuous
 62
     7
370
     0
100
AcDbSpline
210
0.0
220
0.0
230
1.0
 70
    24
 71
     1
 72
     4
 73
     2
 74
     0
 42
0.00000001
 43
0.00000001
 40
0.0
 40
0.0
 40
1.0
 40
1.0
 10
11.83237419065199
 20
8.795755539675048
 30
0.0
 10
11.84353179462296
 20
8.777267069499548
 30
0.0
  0
ARC
  5
277
330
1F
100
AcDbEntity
  8
0
  6
Continuous
 62
     7
370
     0
100
AcDbCircle
 10
11.8275263514
 20
8.8060334651
 30
0.0
 40
0.0113638592359233
100
AcDbArc
 50
212.6614642471
 51
295.2520747229
  0
SPLINE
  5
278
330
1F
100
AcDbEntity
  8
0
  6
Continuous
 62
     7
370
     0
100
AcDbSpline
210
0.0
220
0.0
230
1.0
 70
     8
 71
     3
 72
    14
 73
    10
 74
     0
 42
0.00000001
 43
0.00000001
 40
0.0
 40
0.0
 40
0.0
 40
0.0
 40
0.1251988702827863
 40
0.2501891755465248
 40
0.3728829743790091
 40
0.5004529894620309
 40
0.7495671084742618
 40
0.8747153475526033
 40
1.0
 40
1.0
 40
1.0
 40
1.0
 10
11.8182981121312
 20
8.81123481644154
 30
0.0
 10
11.81788992055649
 20
8.810958437543338
 30
0.0
 10
11.81707421740112
 20
8.810406140158198
 30
0.0
 10
11.81623176556319
 20
8.809204254987435
 30
0.0
 10
11.8157335200226
 20
8.807788906971366
 30
0.0
 10
11.81551734388904
 20
8.805725839273949
 30
0.0
 10
11.81594662763309
 20
8.80349465518292
 30
0.0
 10
11.8169566020587
 20
8.801387018553129
 30
0.0
 10
11.81762502223262
 20
8.800396308229733
 30
0.0
 10
11.81795941436724
 20
8.79990068324299
 30
0.0
  0
SPLINE
  5
279
330
1F
100
AcDbEntity
  8
0
  6
Continuous
 62
     7
370
     0
100
AcDbSpline
210
0.0
220
0.0
230
1.0
 70
     8
 71
     3
 72
    12
 73
     8
 74
     0
 42
0.00000001
 43
0.00000001
 40
0.0
 40
0.0
 40
0.0
 40
0.0
 40
0.500433529576983
 40
0.7500508073441545
 40
0.8749738419200968
 40
0.9374517669915622
 40
1.0
 40
1.0
 40
1.0
 40
1.0
 10
11.83999971940253
 20
8.805869493702478
 30
0.0
 10
11.83639707094835
 20
8.807531432166646
 30
0.0
 10
11.83099741400704
 20
8.810022348968042
 30
0.0
 10
11.82441554296383
 20
8.812011994779468
 30
0.0
 10
11.82117362848411
 20
8.812106294782064
 30
0.0
 10
11.81943185764928
 20
8.811788822472753
 30
0.0
 10
11.81867616895669
 20
8.811419554337407
 30
0.0
 10
11.8182981121312
 20
8.81123481644154
 30
0.0
  0
ARC
  5
27A
330
1F
100
AcDbEntity
  8
0
  6
Continuous
 62
     7
370
     0
100
AcDbCircle
 10
11.8698190952
 20
8.8473845525
 30
0.0
 40
0.0511145309955432
100
AcDbArc
 50
234.3111239759
 51
286.2226206733
  0
ARC
  5
27B
330
1F
100
AcDbEntity
  8
0
  6
Continuous
 62
     7
370
     0
100
AcDbCircle
 10
11.0507877679
 20
8.2350383861
 30
0.0
 40
1.005821602367886
100
AcDbArc
 50
34.0562612764
 51
37.8610532741
  0
LINE
  5
27C
330
1F
100
AcDbEntity
  8
0
  6
Continuous
 62
     7
370
     0
100
AcDbLine
 10
11.8316615783
 20
8.8447261203
 30
0.0
 11
11.8448853935
 21
8.8523600663
 31
0.0
  0
ARC
  5
27D
330
1F
100
AcDbEntity
  8
0
  6
Continuous
 62
     7
370
     0
100
AcDbCircle
 10
11.0454536394
 20
8.2333291555
 30
0.0
 40
0.9959564105895006
100
AcDbArc
 50
35.8633215299
 51
37.8705289705
  0
LINE
  5
27E
330
1F
100
AcDbEntity
  8
0
  6
Continuous
 62
     7
370
     0
100
AcDbLine
 10
11.8742588132
 20
8.7795129402
 30
0.0
 11
11.8904212539
 21
8.7888433186
 31
0.0
  0
ARC
  5
27F
330
1F
100
AcDbEntity
  8
0
  6
Continuous
 62
     7
370
     0
100
AcDbCircle
 10
11.0133845812
 20
8.2111816579
 30
0.0
 40
1.03155459850448
100
AcDbArc
 50
32.2231007446
 51
33.4319635372
  0
LINE
  5
280
330
1F
100
AcDbEntity
  8
0
  6
Continuous
 62
     7
370
     0
100
AcDbLine
 10
11.902219776
 20
8.7705549018
 30
0.0
 11
11.8860573353
 21
8.7612245234
 31
0.0
  0
ARC
  5
281
330
1F
100
AcDbEntity
  8
0
  6
Continuous
 62
     7
370
     0
100
AcDbCircle
 10
11.0295470219
 20
8.2205120363
 30
0.0
 40
1.031554598499852
100
AcDbArc
 50
32.2231007446
 51
33.4319635372
  0
LINE
  5
282
330
1F
100
AcDbEntity
  8
0
  6
Continuous
 62
     7
370
     0
100
AcDbLine
 10
11.4738282221
 20
9.16067623
 30
0.0
 11
11.4933654906
 21
9.1719548551
 31
0.0
  0
ARC
  5
283
330
1F
100
AcDbEntity
  8
0
  6
Continuous
 62
     7
370
     0
100
AcDbCircle
 10
11.4356538055
 20
9.2224369866
 30
0.0
 40
0.0726063160394405
100
AcDbArc
 50
288.1052917533
 51
301.720273523
  0
SPLINE
  5
284
330
1F
100
AcDbEntity
  8
0
  6
Continuous
 62
     7
370
     0
100
AcDbSpline
210
0.0
220
0.0
230
1.0
 70
     8
 71
     3
 72
    13
 73
     9
 74
     0
 42
0.00000001
 43
0.00000001
 40
0.0
 40
0.0
 40
0.0
 40
0.0
 40
0.2859863846255434
 40
0.4003931588138913
 40
0.5002671077715387
 40
0.6204346281943361
 40
0.7504392972668116
 40
1.0
 40
1.0
 40
1.0
 40
1.0
 10
11.46039495020139
 20
9.15602549824448
 30
0.0
 10
11.45941252307976
 20
9.155448426754123
 30
0.0
 10
11.4580370831299
 20
9.154640502009077
 30
0.0
 10
11.45678945301845
 20
9.15380109355132
 30
0.0
 10
11.45623658628036
 20
9.15335290885766
 30
0.0
 10
11.45612737531832
 20
9.153088948123733
 30
0.0
 10
11.45658036586422
 20
9.152998699325341
 30
0.0
 10
11.45756793372533
 20
9.153256272577375
 30
0.0
 10
11.45821725041153
 20
9.153425624595652
 30
0.0
  0
LINE
  5
285
330
1F
100
AcDbEntity
  8
0
  6
Continuous
 62
     7
370
     0
100
AcDbLine
 10
11.4827675333
 20
9.1689409155
 30
0.0
 11
11.4603949502
 21
9.1560254982
 31
0.0
  0
ARC
  5
286
330
1F
100
AcDbEntity
  8
0
  6
Continuous
 62
     7
370
     0
100
AcDbCircle
 10
11.544647339
 20
8.9709903473
 30
0.0
 40
0.2073970535935248
100
AcDbArc
 50
107.3593651072
 51
110.881957044
  0
LINE
  5
287
330
1F
100
AcDbEntity
  8
0
  6
Continuous
 62
     7
370
     0
100
AcDbLine
 10
11.4446990397
 20
9.1497421876
 30
0.0
 11
11.4707219467
 21
9.1647648921
 31
0.0
  0
SPLINE
  5
288
330
1F
100
AcDbEntity
  8
0
  6
Continuous
 62
     7
370
     0
100
AcDbSpline
210
0.0
220
0.0
230
1.0
 70
     8
 71
     3
 72
    13
 73
     9
 74
     0
 42
0.00000001
 43
0.00000001
 40
0.0
 40
0.0
 40
0.0
 40
0.0
 40
0.2494610831738285
 40
0.3766049575091706
 40
0.4996281366122178
 40
0.6186892926526533
 40
0.7498727238261382
 40
1.0
 40
1.0
 40
1.0
 40
1.0
 10
11.44005646816166
 20
9.144503497786683
 30
0.0
 10
11.43858481576913
 20
9.144061446510676
 30
0.0
 10
11.43636310014236
 20
9.143394093110702
 30
0.0
 10
11.43539289726356
 20
9.143477563120944
 30
0.0
 10
11.43561723698492
 20
9.143988365774618
 30
0.0
 10
11.43689860037196
 20
9.144993810130597
 30
0.0
 10
11.43972856594561
 20
9.14683641079533
 30
0.0
 10
11.44273011939799
 20
9.148591141804394
 30
0.0
 10
11.44469903969021
 20
9.149742187603154
 30
0.0
  0
ARC
  5
289
330
1F
100
AcDbEntity
  8
0
  6
Continuous
 62
     7
370
     0
100
AcDbCircle
 10
11.3877738519
 20
9.3053971345
 30
0.0
 40
0.1691751585960617
100
AcDbArc
 50
288.0016442148
 51
295.2656667261
  0
LINE
  5
28A
330
1F
100
AcDbEntity
  8
0
  6
Continuous
 62
     7
370
     0
100
AcDbLine
 10
11.4530816396
 20
9.1484228898
 30
0.0
 11
11.4599805223
 21
9.15240553
 31
0.0
  0
ARC
  5
28B
330
1F
100
AcDbEntity
  8
0
  6
Continuous
 62
     7
370
     0
100
AcDbCircle
 10
11.5067335637
 20
8.9356572091
 30
0.0
 40
0.219425987184844
100
AcDbArc
 50
100.9925136186
 51
104.1528985897
  0
LINE
  5
28C
330
1F
100
AcDbEntity
  8
0
  6
Continuous
 62
     7
370
     0
100
AcDbLine
 10
11.506034014
 20
9.1748072458
 30
0.0
 11
11.4648932558
 21
9.1510571916
 31
0.0
  0
ARC
  5
28D
330
1F
100
AcDbEntity
  8
0
  6
Continuous
 62
     7
370
     0
100
AcDbCircle
 10
11.5478188674
 20
8.9596662405
 30
0.0
 40
0.2191611875750563
100
AcDbArc
 50
100.9911920543
 51
104.3865603498
  0
ARC
  5
28E
330
1F
100
AcDbEntity
  8
0
  6
Continuous
 62
     7
370
     0
100
AcDbCircle
 10
11.5792008333
 20
9.0918275058
 30
0.0
 40
0.0863071074006093
100
AcDbArc
 50
89.0973317232
 51
125.0654690396
  0
SPLINE
  5
28F
330
1F
100
AcDbEntity
  8
0
  6
Continuous
 62
     7
370
     0
100
AcDbSpline
210
0.0
220
0.0
230
1.0
 70
    24
 71
     1
 72
     4
 73
     2
 74
     0
 42
0.00000001
 43
0.00000001
 40
0.0
 40
0.0
 40
1.0
 40
1.0
 10
11.51798068402976
 20
9.154877030798952
 30
0.0
 10
11.52961635874778
 20
9.162469537646034
 30
0.0
  0
SPLINE
  5
290
330
1F
100
AcDbEntity
  8
0
  6
Continuous
 62
     7
370
     0
100
AcDbSpline
210
0.0
220
0.0
230
1.0
 70
     8
 71
     3
 72
    12
 73
     8
 74
     0
 42
0.00000001
 43
0.00000001
 40
0.0
 40
0.0
 40
0.0
 40
0.0
 40
0.2503309494299801
 40
0.4997648043321497
 40
0.6249322238031055
 40
0.7501904501281058
 40
1.0
 40
1.0
 40
1.0
 40
1.0
 10
11.52213016434645
 20
9.144658508341518
 30
0.0
 10
11.51998484771113
 20
9.14491558384077
 30
0.0
 10
11.51570190247036
 20
9.145428813574744
 30
0.0
 10
11.51284322041727
 20
9.147138594375294
 30
0.0
 10
11.51279275951531
 20
9.149164237790494
 30
0.0
 10
11.5138211338756
 20
9.151469995089496
 30
0.0
 10
11.51631780508004
 20
9.153514987368233
 30
0.0
 10
11.51798068402976
 20
9.154877030798952
 30
0.0
  0
ARC
  5
291
330
1F
100
AcDbEntity
  8
0
  6
Continuous
 62
     7
370
     0
100
AcDbCircle
 10
11.5276210554
 20
9.2270483753
 30
0.0
 40
0.0825726351065393
100
AcDbArc
 50
266.1871483607
 51
303.5416800267
  0
SPLINE
  5
292
330
1F
100
AcDbEntity
  8
0
  6
Continuous
 62
     7
370
     0
100
AcDbSpline
210
0.0
220
0.0
230
1.0
 70
     8
 71
     3
 72
     9
 73
     5
 74
     0
 42
0.00000001
 43
0.00000001
 40
0.0
 40
0.0
 40
0.0
 40
0.0
 40
0.4986702672090055
 40
0.9999999999999999
 40
0.9999999999999999
 40
0.9999999999999999
 40
0.9999999999999999
 10
11.58946719126139
 20
9.170672467374871
 30
0.0
 10
11.58753281604981
 20
9.168584486104661
 30
0.0
 10
11.58365374938234
 20
9.16439738812127
 30
0.0
 10
11.57672141142933
 20
9.160286372056815
 30
0.0
 10
11.57324602429573
 20
9.158225397471723
 30
0.0
  0
SPLINE
  5
293
330
1F
100
AcDbEntity
  8
0
  6
Continuous
 62
     7
370
     0
100
AcDbSpline
210
0.0
220
0.0
230
1.0
 70
     8
 71
     3
 72
    10
 73
     6
 74
     0
 42
0.00000001
 43
0.00000001
 40
0.0
 40
0.0
 40
0.0
 40
0.0
 40
0.4992067981606242
 40
0.7495375815251034
 40
1.0
 40
1.0
 40
1.0
 40
1.0
 10
11.58056050529923
 20
9.178123902448021
 30
0.0
 10
11.58378821800272
 20
9.177615816132649
 30
0.0
 10
11.58863449009387
 20
9.17685294633714
 30
0.0
 10
11.59065863313147
 20
9.173694022882483
 30
0.0
 10
11.58986440813962
 20
9.171679829023194
 30
0.0
 10
11.58946719126139
 20
9.170672467374871
 30
0.0
  0
LINE
  5
294
330
1F
100
AcDbEntity
  8
0
  6
Continuous
 62
     7
370
     0
100
AcDbLine
 10
11.6297815808
 20
9.1446834924
 30
0.0
 11
11.6422707395
 21
9.1518933303
 31
0.0
  0
ARC
  5
295
330
1F
100
AcDbEntity
  8
0
  6
Continuous
 62
     7
370
     0
100
AcDbCircle
 10
11.4913147206
 20
8.7400876572
 30
0.0
 40
0.4276340272502497
100
AcDbArc
 50
67.7938841333
 51
71.1072577712
  0
LINE
  5
296
330
1F
100
AcDbEntity
  8
0
  6
Continuous
 62
     7
370
     0
100
AcDbLine
 10
11.6654237185
 20
9.1432140125
 30
0.0
 11
11.6529345597
 21
9.1360041747
 31
0.0
  0
ARC
  5
297
330
1F
100
AcDbEntity
  8
0
  6
Continuous
 62
     7
370
     0
100
AcDbCircle
 10
11.5038038793
 20
8.747297495
 30
0.0
 40
0.4276340272505078
100
AcDbArc
 50
67.7938841333
 51
71.1072577712
  0
ARC
  5
298
330
1F
100
AcDbEntity
  8
0
  6
Continuous
 62
     7
370
     0
100
AcDbCircle
 10
11.7371665436
 20
9.0695625375
 30
0.0
 40
0.0474275099687907
100
AcDbArc
 50
59.1700010349
 51
127.199696187
  0
SPLINE
  5
299
330
1F
100
AcDbEntity
  8
0
  6
Continuous
 62
     7
370
     0
100
AcDbSpline
210
0.0
220
0.0
230
1.0
 70
    24
 71
     1
 72
     4
 73
     2
 74
     0
 42
0.00000001
 43
0.00000001
 40
0.0
 40
0.0
 40
1.0
 40
1.0
 10
11.69701304310499
 20
9.098874443204355
 30
0.0
 10
11.70849211337821
 20
9.107340120217081
 30
0.0
  0
SPLINE
  5
29A
330
1F
100
AcDbEntity
  8
0
  6
Continuous
 62
     7
370
     0
100
AcDbSpline
210
0.0
220
0.0
230
1.0
 70
     8
 71
     3
 72
    12
 73
     8
 74
     0
 42
0.00000001
 43
0.00000001
 40
0.0
 40
0.0
 40
0.0
 40
0.0
 40
0.2503309494299794
 40
0.4997648043321492
 40
0.6249322238031044
 40
0.7501904501281058
 40
1.0
 40
1.0
 40
1.0
 40
1.0
 10
11.70301062512205
 20
9.077050240855668
 30
0.0
 10
11.7006782392687
 20
9.078606713026758
 30
0.0
 10
11.69602182597947
 20
9.081714079542182
 30
0.0
 10
11.69266385243584
 20
9.086532073461123
 30
0.0
 10
11.69228704560256
 20
9.090508709455262
 30
0.0
 10
11.69303069506539
 20
9.094470691213253
 30
0.0
 10
11.69542100490853
 20
9.097113938771324
 30
0.0
 10
11.69701304310499
 20
9.098874443204355
 30
0.0
  0
ARC
  5
29B
330
1F
100
AcDbEntity
  8
0
  6
Continuous
 62
     7
370
     0
100
AcDbCircle
 10
11.7286796999
 20
9.1160105514
 30
0.0
 40
0.0466562664156955
100
AcDbArc
 50
236.6210342779
 51
305.2909497576
  0
SPLINE
  5
29C
330
1F
100
AcDbEntity
  8
0
  6
Continuous
 62
     7
370
     0
100
AcDbSpline
210
0.0
220
0.0
230
1.0
 70
     8
 71
     3
 72
     9
 73
     5
 74
     0
 42
0.00000001
 43
0.00000001
 40
0.0
 40
0.0
 40
0.0
 40
0.0
 40
0.498670267209002
 40
1.0
 40
1.0
 40
1.0
 40
1.0
 10
11.77162145710783
 20
9.09269169006972
 30
0.0
 10
11.76976182152714
 20
9.089871561068186
 30
0.0
 10
11.76603263271646
 20
9.084216262994536
 30
0.0
 10
11.75910659355266
 20
9.080028040739263
 30
0.0
 10
11.75563436418937
 20
9.077928360395159
 30
0.0
  0
SPLINE
  5
29D
330
1F
100
AcDbEntity
  8
0
  6
Continuous
 62
     7
370
     0
100
AcDbSpline
210
0.0
220
0.0
230
1.0
 70
     8
 71
     3
 72
    10
 73
     6
 74
     0
 42
0.00000001
 43
0.00000001
 40
0.0
 40
0.0
 40
0.0
 40
0.0
 40
0.4992067981606256
 40
0.749537581525101
 40
1.0
 40
1.0
 40
1.0
 40
1.0
 10
11.76147278816062
 20
9.110288145918162
 30
0.0
 10
11.76496595943344
 20
9.10779417035038
 30
0.0
 10
11.77021080617298
 20
9.10404957307657
 30
0.0
 10
11.77262232023913
 20
9.097498692571182
 30
0.0
 10
11.77195513660872
 20
9.094294304998083
 30
0.0
 10
11.77162145710783
 20
9.09269169006972
 30
0.0
  0
ARC
  5
29E
330
1F
100
AcDbEntity
  8
0
  6
Continuous
 62
     7
370
     0
100
AcDbCircle
 10
11.2400559734
 20
8.3696606597
 30
0.0
 40
0.883338481004172
100
AcDbArc
 50
43.7683298273
 51
43.9029865643
  0
ARC
  5
29F
330
1F
100
AcDbEntity
  8
0
  6
Continuous
 62
     7
370
     0
100
AcDbCircle
 10
11.8833726511
 20
8.989181539
 30
0.0
 40
0.0097847996645271
100
AcDbArc
 50
192.4361325768
 51
225.5014398724
  0
SPLINE
  5
2A0
330
1F
100
AcDbEntity
  8
0
  6
Continuous
 62
     7
370
     0
100
AcDbSpline
210
0.0
220
0.0
230
1.0
 70
    24
 71
     1
 72
     4
 73
     2
 74
     0
 42
0.00000001
 43
0.00000001
 40
0.0
 40
0.0
 40
1.0
 40
1.0
 10
11.8751872793132
 20
8.992591275747431
 30
0.0
 10
11.87381743545389
 20
8.98707437063923
 30
0.0
  0
SPLINE
  5
2A1
330
1F
100
AcDbEntity
  8
0
  6
Continuous
 62
     7
370
     0
100
AcDbSpline
210
0.0
220
0.0
230
1.0
 70
    24
 71
     1
 72
     4
 73
     2
 74
     0
 42
0.00000001
 43
0.00000001
 40
0.0
 40
0.0
 40
1.0
 40
1.0
 10
11.88360872259287
 20
9.011230502823354
 30
0.0
 10
11.8751872793132
 20
8.992591275747431
 30
0.0
  0
ARC
  5
2A2
330
1F
100
AcDbEntity
  8
0
  6
Continuous
 62
     7
370
     0
100
AcDbCircle
 10
11.2970351768
 20
8.4170229573
 30
0.0
 40
0.8349557663172222
100
AcDbArc
 50
45.3704241835
 51
47.1651349709
  0
SPLINE
  5
2A3
330
1F
100
AcDbEntity
  8
0
  6
Continuous
 62
     7
370
     0
100
AcDbSpline
210
0.0
220
0.0
230
1.0
 70
    24
 71
     1
 72
     4
 73
     2
 74
     0
 42
0.00000001
 43
0.00000001
 40
0.0
 40
0.0
 40
1.0
 40
1.0
 10
11.85691733631694
 20
9.012165576555015
 30
0.0
 10
11.86471129905998
 20
9.029309615652524
 30
0.0
  0
SPLINE
  5
2A4
330
1F
100
AcDbEntity
  8
0
  6
Continuous
 62
     7
370
     0
100
AcDbSpline
210
0.0
220
0.0
230
1.0
 70
    24
 71
     1
 72
     4
 73
     2
 74
     0
 42
0.00000001
 43
0.00000001
 40
0.0
 40
0.0
 40
1.0
 40
1.0
 10
11.85526318698307
 20
9.003620055065367
 30
0.0
 10
11.85691733631694
 20
9.012165576555015
 30
0.0
  0
SPLINE
  5
2A5
330
1F
100
AcDbEntity
  8
0
  6
Continuous
 62
     7
370
     0
100
AcDbSpline
210
0.0
220
0.0
230
1.0
 70
    24
 71
     1
 72
     4
 73
     2
 74
     0
 42
0.00000001
 43
0.00000001
 40
0.0
 40
0.0
 40
1.0
 40
1.0
 10
11.85740420521264
 20
8.99823344883914
 30
0.0
 10
11.85526318698307
 20
9.003620055065367
 30
0.0
  0
SPLINE
  5
2A6
330
1F
100
AcDbEntity
  8
0
  6
Continuous
 62
     7
370
     0
100
AcDbSpline
210
0.0
220
0.0
230
1.0
 70
    24
 71
     1
 72
     4
 73
     2
 74
     0
 42
0.00000001
 43
0.00000001
 40
0.0
 40
0.0
 40
1.0
 40
1.0
 10
11.8491925567621
 20
9.00273479598443
 30
0.0
 10
11.85740420521264
 20
8.99823344883914
 30
0.0
  0
ARC
  5
2A7
330
1F
100
AcDbEntity
  8
0
  6
Continuous
 62
     7
370
     0
100
AcDbCircle
 10
11.8396354821
 20
8.9796531403
 30
0.0
 40
0.0249820036393271
100
AcDbArc
 50
67.5077554695
 51
117.4304129344
  0
SPLINE
  5
2A8
330
1F
100
AcDbEntity
  8
0
  6
Continuous
 62
     7
370
     0
100
AcDbSpline
210
0.0
220
0.0
230
1.0
 70
     8
 71
     3
 72
    14
 73
    10
 74
     0
 42
0.00000001
 43
0.00000001
 40
0.0
 40
0.0
 40
0.0
 40
0.0
 40
0.2503552942232328
 40
0.3755117362840356
 40
0.5003668258908442
 40
0.6248775190333054
 40
0.7504411376288233
 40
0.8747830016564372
 40
1.0
 40
1.0
 40
1.0
 40
1.0
 10
11.8332326231185
 20
8.972399977149296
 30
0.0
 10
11.8308437196043
 20
8.974870978515165
 30
0.0
 10
11.82726056667274
 20
8.978577271270575
 30
0.0
 10
11.82329135030603
 20
8.983816284433777
 30
0.0
 10
11.82123768228551
 20
8.987991366865925
 30
0.0
 10
11.82083346422006
 20
8.992209025781687
 30
0.0
 10
11.82191606722068
 20
8.996091903731493
 30
0.0
 10
11.82441372408296
 20
8.999408019954991
 30
0.0
 10
11.82688634977833
 20
9.001018418799262
 30
0.0
 10
11.82812699803526
 20
9.001826441834389
 30
0.0
  0
ARC
  5
2A9
330
1F
100
AcDbEntity
  8
0
  6
Continuous
 62
     7
370
     0
100
AcDbCircle
 10
11.2019804736
 20
8.3459400208
 30
0.0
 40
0.8893432145470301
100
AcDbArc
 50
42.2427946519
 51
44.7816900122
  0
LINE
  5
2AA
330
1F
100
AcDbEntity
  8
0
  6
Continuous
 62
     7
370
     0
100
AcDbLine
 10
11.9169321781
 20
8.9764784115
 30
0.0
 11
11.8603636356
 21
8.9438220871
 31
0.0
  0
ARC
  5
2AB
330
1F
100
AcDbEntity
  8
0
  6
Continuous
 62
     7
370
     0
100
AcDbCircle
 10
11.2514608694
 20
8.3720042577
 30
0.0
 40
0.8990222830195369
100
AcDbArc
 50
42.2501215341
 51
43.7643211336
  0
LINE
  5
2AC
330
1F
100
AcDbEntity
  8
0
  6
Continuous
 62
     7
370
     0
100
AcDbLine
 10
11.8779524083
 20
8.9807048565
 30
0.0
 11
11.9007267566
 21
8.9938522079
 31
0.0
  0
SPLINE
  5
2AD
330
1F
100
AcDbEntity
  8
0
  6
Continuous
 62
     7
370
     0
100
AcDbSpline
210
0.0
220
0.0
230
1.0
 70
    24
 71
     1
 72
     4
 73
     2
 74
     0
 42
0.00000001
 43
0.00000001
 40
0.0
 40
0.0
 40
1.0
 40
1.0
 10
11.98994731465748
 20
8.883889455967935
 30
0.0
 10
11.99702636852172
 20
8.875352852817187
 30
0.0
  0
SPLINE
  5
2AE
330
1F
100
AcDbEntity
  8
0
  6
Continuous
 62
     7
370
     0
100
AcDbSpline
210
0.0
220
0.0
230
1.0
 70
    24
 71
     1
 72
     4
 73
     2
 74
     0
 42
0.00000001
 43
0.00000001
 40
0.0
 40
0.0
 40
1.0
 40
1.0
 10
11.98264869473311
 20
8.890342675607638
 30
0.0
 10
11.98994731465748
 20
8.883889455967935
 30
0.0
  0
ARC
  5
2AF
330
1F
100
AcDbEntity
  8
0
  6
Continuous
 62
     7
370
     0
100
AcDbCircle
 10
11.9720385496
 20
8.8729494157
 30
0.0
 40
0.020374019495695
100
AcDbArc
 50
58.6161929209
 51
117.725596061
  0
SPLINE
  5
2B0
330
1F
100
AcDbEntity
  8
0
  6
Continuous
 62
     7
370
     0
100
AcDbSpline
210
0.0
220
0.0
230
1.0
 70
     8
 71
     3
 72
    12
 73
     8
 74
     0
 42
0.00000001
 43
0.00000001
 40
0.0
 40
0.0
 40
0.0
 40
0.0
 40
0.2503638791653778
 40
0.4997444809983035
 40
0.6245272986124834
 40
0.7501926945850391
 40
1.0
 40
1.0
 40
1.0
 40
1.0
 10
11.95839002231986
 20
8.868595418683025
 30
0.0
 10
11.95750901860914
 20
8.870775545785072
 30
0.0
 10
11.95575047123548
 20
8.875127237773373
 30
0.0
 10
11.95532521836508
 20
8.880730004406075
 30
0.0
 10
11.95647533847236
 20
8.884646355681243
 30
0.0
 10
11.95846130983934
 20
8.88811451432392
 30
0.0
 10
11.96092239569141
 20
8.889837730116167
 30
0.0
 10
11.96255979096096
 20
8.890984209985726
 30
0.0
  0
SPLINE
  5
2B1
330
1F
100
AcDbEntity
  8
0
  6
Continuous
 62
     7
370
     0
100
AcDbSpline
210
0.0
220
0.0
230
1.0
 70
     8
 71
     3
 72
     9
 73
     5
 74
     0
 42
0.00000001
 43
0.00000001
 40
0.0
 40
0.0
 40
0.0
 40
0.0
 40
0.4993318956962363
 40
1.0
 40
1.0
 40
1.0
 40
1.0
 10
11.94958997012028
 20
8.873620663791845
 30
0.0
 10
11.95116295914914
 20
8.873037645977346
 30
0.0
 10
11.95431314651432
 20
8.87187005019682
 30
0.0
 10
11.95702985368884
 20
8.869687934441574
 30
0.0
 10
11.95839002231986
 20
8.868595418683025
 30
0.0
  0
SPLINE
  5
2B2
330
1F
100
AcDbEntity
  8
0
  6
Continuous
 62
     7
370
     0
100
AcDbSpline
210
0.0
220
0.0
230
1.0
 70
     8
 71
     3
 72
     9
 73
     5
 74
     0
 42
0.00000001
 43
0.00000001
 40
0.0
 40
0.0
 40
0.0
 40
0.0
 40
0.5001300021535866
 40
1.0
 40
1.0
 40
1.0
 40
1.0
 10
11.93859981247456
 20
8.872438743717515
 30
0.0
 10
11.94025376611688
 20
8.873189570197487
 30
0.0
 10
11.94356081355497
 20
8.874690832822681
 30
0.0
 10
11.94758059965241
 20
8.873977324963752
 30
0.0
 10
11.94958997012028
 20
8.873620663791845
 30
0.0
  0
SPLINE
  5
2B3
330
1F
100
AcDbEntity
  8
0
  6
Continuous
 62
     7
370
     0
100
AcDbSpline
210
0.0
220
0.0
230
1.0
 70
     8
 71
     3
 72
    13
 73
     9
 74
     0
 42
0.00000001
 43
0.00000001
 40
0.0
 40
0.0
 40
0.0
 40
0.0
 40
0.2502329787227375
 40
0.4994066255428451
 40
0.6257013607230166
 40
0.7496002874258598
 40
0.8740371171767372
 40
1.0
 40
1.0
 40
1.0
 40
1.0
 10
11.93859269659287
 20
8.845386316371735
 30
0.0
 10
11.93705443055614
 20
8.847780295424526
 30
0.0
 10
11.93398441055113
 20
8.852558118901182
 30
0.0
 10
11.93218538651544
 20
8.8592388060121
 30
0.0
 10
11.9325339229851
 20
8.864221913004865
 30
0.0
 10
11.9336929396064
 20
8.867602197863361
 30
0.0
 10
11.9356908348984
 20
8.870474928269523
 30
0.0
 10
11.93762622156504
 20
8.871781484313454
 30
0.0
 10
11.93859981247456
 20
8.872438743717515
 30
0.0
  0
ARC
  5
2B4
330
1F
100
AcDbEntity
  8
0
  6
Continuous
 62
     7
370
     0
100
AcDbCircle
 10
11.0955292495
 20
8.2588690342
 30
0.0
 40
1.027014361170605
100
AcDbArc
 50
32.2779434237
 51
34.8262460508
  0
LINE
  5
2B5
330
1F
100
AcDbEntity
  8
0
  6
Continuous
 62
     7
370
     0
100
AcDbLine
 10
12.0204050305
 20
8.8399786726
 30
0.0
 11
11.963836488
 21
8.8073223482
 31
0.0
  0
ARC
  5
2B6
330
1F
100
AcDbEntity
  8
0
  6
Continuous
 62
     7
370
     0
100
AcDbCircle
 10
11.1515638432
 20
8.2911773396
 30
0.0
 40
1.027651649126163
100
AcDbArc
 50
32.2784505491
 51
34.6426799712
  0
LINE
  5
2B7
330
1F
100
AcDbEntity
  8
0
  6
Continuous
 62
     7
370
     0
100
AcDbLine
 10
12.0244685476
 20
9.4275357846
 30
0.0
 11
12.0451766748
 21
9.439490332
 31
0.0
  0
ARC
  5
2B8
330
1F
100
AcDbEntity
  8
0
  6
Continuous
 62
     7
370
     0
100
AcDbCircle
 10
12.0104672016
 20
9.4483601137
 30
0.0
 40
0.0250936321547231
100
AcDbArc
 50
268.2734435999
 51
303.9151187984
  0
SPLINE
  5
2B9
330
1F
100
AcDbEntity
  8
0
  6
Continuous
 62
     7
370
     0
100
AcDbSpline
210
0.0
220
0.0
230
1.0
 70
     8
 71
     3
 72
    11
 73
     7
 74
     0
 42
0.00000001
 43
0.00000001
 40
0.0
 40
0.0
 40
0.0
 40
0.0
 40
0.2500620333659102
 40
0.4999138376966671
 40
0.7498401673007715
 40
0.9999999999999999
 40
0.9999999999999999
 40
0.9999999999999999
 40
0.9999999999999999
 10
12.00857133969016
 20
9.425718634548534
 30
0.0
 10
12.00829076432583
 20
9.425418157187023
 30
0.0
 10
12.007729849479
 20
9.42481745507758
 30
0.0
 10
12.00770357974799
 20
9.42406240460257
 30
0.0
 10
12.00833652142626
 20
9.423506284908987
 30
0.0
 10
12.00925279261598
 20
9.423354034673434
 30
0.0
 10
12.00971114212614
 20
9.42327787401088
 30
0.0
  0
SPLINE
  5
2BA
330
1F
100
AcDbEntity
  8
0
  6
Continuous
 62
     7
370
     0
100
AcDbSpline
210
0.0
220
0.0
230
1.0
 70
    24
 71
     1
 72
     4
 73
     2
 74
     0
 42
0.00000001
 43
0.00000001
 40
0.0
 40
0.0
 40
1.0
 40
1.0
 10
12.01191338994826
 20
9.427848174736765
 30
0.0
 10
12.00857133969016
 20
9.425718634548534
 30
0.0
  0
LINE
  5
2BB
330
1F
100
AcDbEntity
  8
0
  6
Continuous
 62
     7
370
     0
100
AcDbLine
 10
12.034263015
 20
9.4407503386
 30
0.0
 11
12.0119133899
 21
9.4278481747
 31
0.0
  0
ARC
  5
2BC
330
1F
100
AcDbEntity
  8
0
  6
Continuous
 62
     7
370
     0
100
AcDbCircle
 10
12.0067648802
 20
9.1573715652
 30
0.0
 40
0.2847098112722813
100
AcDbArc
 50
84.4575605089
 51
87.3093777528
  0
LINE
  5
2BD
330
1F
100
AcDbEntity
  8
0
  6
Continuous
 62
     7
370
     0
100
AcDbLine
 10
11.9991348989
 20
9.4296472898
 30
0.0
 11
12.0201300012
 21
9.4417675043
 31
0.0
  0
ARC
  5
2BE
330
1F
100
AcDbEntity
  8
0
  6
Continuous
 62
     7
370
     0
100
AcDbCircle
 10
11.9836006165
 20
9.4532021757
 30
0.0
 40
0.028216069606574
100
AcDbArc
 50
272.5810548709
 51
303.4045717103
  0
SPLINE
  5
2BF
330
1F
100
AcDbEntity
  8
0
  6
Continuous
 62
     7
370
     0
100
AcDbSpline
210
0.0
220
0.0
230
1.0
 70
     8
 71
     3
 72
    10
 73
     6
 74
     0
 42
0.00000001
 43
0.00000001
 40
0.0
 40
0.0
 40
0.0
 40
0.0
 40
0.4988226573033065
 40
0.7491700015751932
 40
1.0
 40
1.0
 40
1.0
 40
1.0
 10
11.98326385665841
 20
9.426302088226766
 30
0.0
 10
11.98318026520312
 20
9.425957388947731
 30
0.0
 10
11.98305472116501
 20
9.425439693218323
 30
0.0
 10
11.98387188029457
 20
9.425088962220308
 30
0.0
 10
11.98453792061312
 20
9.425039490574965
 30
0.0
 10
11.98487126148435
 20
9.425014730930691
 30
0.0
  0
SPLINE
  5
2C0
330
1F
100
AcDbEntity
  8
0
  6
Continuous
 62
     7
370
     0
100
AcDbSpline
210
0.0
220
0.0
230
1.0
 70
     8
 71
     3
 72
     9
 73
     5
 74
     0
 42
0.00000001
 43
0.00000001
 40
0.0
 40
0.0
 40
0.0
 40
0.0
 40
0.5015771373281197
 40
1.0
 40
1.0
 40
1.0
 40
1.0
 10
11.98634207838667
 20
9.428677419452029
 30
0.0
 10
11.98562136659334
 20
9.428253797499904
 30
0.0
 10
11.98418447535631
 20
9.427409217632528
 30
0.0
 10
11.9835700835709
 20
9.426670354502939
 30
0.0
 10
11.98326385665841
 20
9.426302088226766
 30
0.0
  0
LINE
  5
2C1
330
1F
100
AcDbEntity
  8
0
  6
Continuous
 62
     7
370
     0
100
AcDbLine
 10
12.0095181919
 20
9.442056705
 30
0.0
 11
11.9863420784
 21
9.4286774195
 31
0.0
  0
ARC
  5
2C2
330
1F
100
AcDbEntity
  8
0
  6
Continuous
 62
     7
370
     0
100
AcDbCircle
 10
12.007524041
 20
9.1841334423
 30
0.0
 40
0.2579309715531098
100
AcDbArc
 50
89.5570227028
 51
92.60297522
  0
LINE
  5
2C3
330
1F
100
AcDbEntity
  8
0
  6
Continuous
 62
     7
370
     0
100
AcDbLine
 10
11.9700856887
 20
9.4269478734
 30
0.0
 11
11.9958101416
 21
9.441798284
 31
0.0
  0
SPLINE
  5
2C4
330
1F
100
AcDbEntity
  8
0
  6
Continuous
 62
     7
370
     0
100
AcDbSpline
210
0.0
220
0.0
230
1.0
 70
     8
 71
     3
 72
    13
 73
     9
 74
     0
 42
0.00000001
 43
0.00000001
 40
0.0
 40
0.0
 40
0.0
 40
0.0
 40
0.2493551011003595
 40
0.3758643206395738
 40
0.4994912623303659
 40
0.6184449072867034
 40
0.7497843925020634
 40
1.0
 40
1.0
 40
1.0
 40
1.0
 10
11.96647015015855
 20
9.417888732867885
 30
0.0
 10
11.96478638639795
 20
9.417972203991635
 30
0.0
 10
11.96224837246038
 20
9.41809802382481
 30
0.0
 10
11.96097686457423
 20
9.41915344623733
 30
0.0
 10
11.96109276472829
 20
9.420292422545193
 30
0.0
 10
11.96231962595188
 20
9.421759212155875
 30
0.0
 10
11.96511367416119
 20
9.423971081888489
 30
0.0
 10
11.96811650013757
 20
9.425768901842382
 30
0.0
 10
11.97008568870362
 20
9.426947873426109
 30
0.0
  0
ARC
  5
2C5
330
1F
100
AcDbEntity
  8
0
  6
Continuous
 62
     7
370
     0
100
AcDbCircle
 10
11.9656796448
 20
9.4780273705
 30
0.0
 40
0.0601438328450398
100
AcDbArc
 50
270.753093466
 51
290.2567465482
  0
SPLINE
  5
2C6
330
1F
100
AcDbEntity
  8
0
  6
Continuous
 62
     7
370
     0
100
AcDbSpline
210
0.0
220
0.0
230
1.0
 70
     8
 71
     3
 72
    12
 73
     8
 74
     0
 42
0.00000001
 43
0.00000001
 40
0.0
 40
0.0
 40
0.0
 40
0.0
 40
0.2503533688407856
 40
0.4999961943216248
 40
0.749488616154225
 40
0.874704487318763
 40
1.0
 40
1.0
 40
1.0
 40
1.0
 10
11.99097910592999
 20
9.41670907206787
 30
0.0
 10
11.98985419952339
 20
9.416841851293803
 30
0.0
 10
11.98760757937653
 20
9.417107032896748
 30
0.0
 10
11.98534825957543
 20
9.418020565602445
 30
0.0
 10
11.98513952886723
 20
9.419359972342944
 30
0.0
 10
11.98569606971852
 20
9.420596065526727
 30
0.0
 10
11.98623402970913
 20
9.421267550101797
 30
0.0
 10
11.98650309521742
 20
9.421603399127093
 30
0.0
  0
ARC
  5
2C7
330
1F
100
AcDbEntity
  8
0
  6
Continuous
 62
     7
370
     0
100
AcDbCircle
 10
11.9946810417
 20
9.4698401038
 30
0.0
 40
0.053259842863354
100
AcDbArc
 50
266.0143243849
 51
288.2224049145
  0
LINE
  5
2C8
330
1F
100
AcDbEntity
  8
0
  6
Continuous
 62
     7
370
     0
100
AcDbLine
 10
12.0050222805
 20
9.4156065713
 30
0.0
 11
12.0113357339
 21
9.4192512504
 31
0.0
  0
ARC
  5
2C9
330
1F
100
AcDbEntity
  8
0
  6
Continuous
 62
     7
370
     0
100
AcDbCircle
 10
11.9618374555
 20
9.1013354915
 30
0.0
 40
0.3172242750708056
100
AcDbArc
 50
79.7040311015
 51
82.1758349157
  0
LINE
  5
2CA
330
1F
100
AcDbEntity
  8
0
  6
Continuous
 62
     7
370
     0
100
AcDbLine
 10
12.0596766577
 20
9.4372017535
 30
0.0
 11
12.0185358995
 21
9.4134516993
 31
0.0
  0
ARC
  5
2CB
330
1F
100
AcDbEntity
  8
0
  6
Continuous
 62
     7
370
     0
100
AcDbCircle
 10
12.0030875368
 20
9.1257430301
 30
0.0
 40
0.316557838231689
100
AcDbArc
 50
79.7022299347
 51
82.3593985513
  0
SPLINE
  5
2CC
330
1F
100
AcDbEntity
  8
0
  6
Continuous
 62
     7
370
     0
100
AcDbSpline
210
0.0
220
0.0
230
1.0
 70
    24
 71
     1
 72
     4
 73
     2
 74
     0
 42
0.00000001
 43
0.00000001
 40
0.0
 40
0.0
 40
1.0
 40
1.0
 10
12.14691239211071
 20
9.383000653130255
 30
0.0
 10
12.1528303584207
 20
9.382587927532763
 30
0.0
  0
SPLINE
  5
2CD
330
1F
100
AcDbEntity
  8
0
  6
Continuous
 62
     7
370
     0
100
AcDbSpline
210
0.0
220
0.0
230
1.0
 70
    24
 71
     1
 72
     4
 73
     2
 74
     0
 42
0.00000001
 43
0.00000001
 40
0.0
 40
0.0
 40
1.0
 40
1.0
 10
12.14156073962126
 20
9.384703033688755
 30
0.0
 10
12.14691239211071
 20
9.383000653130255
 30
0.0
  0
SPLINE
  5
2CE
330
1F
100
AcDbEntity
  8
0
  6
Continuous
 62
     7
370
     0
100
AcDbSpline
210
0.0
220
0.0
230
1.0
 70
     8
 71
     3
 72
    13
 73
     9
 74
     0
 42
0.00000001
 43
0.00000001
 40
0.0
 40
0.0
 40
0.0
 40
0.0
 40
0.2498441747939121
 40
0.3817947059283877
 40
0.499870150966456
 40
0.6229414449835098
 40
0.7501704474544721
 40
0.9999999999999999
 40
0.9999999999999999
 40
0.9999999999999999
 40
0.9999999999999999
 10
12.14160835512139
 20
9.39320386709279
 30
0.0
 10
12.14058901498756
 20
9.39255097503666
 30
0.0
 10
12.13903132941433
 20
9.391553270244147
 30
0.0
 10
12.13785924393609
 20
9.389995378683563
 30
0.0
 10
12.13757997320987
 20
9.388780027069677
 30
0.0
 10
12.13794065914448
 20
9.38761844331196
 30
0.0
 10
12.13902710976502
 20
9.386145474676285
 30
0.0
 10
12.14055102894775
 20
9.38527788011213
 30
0.0
 10
12.14156073962126
 20
9.384703033688755
 30
0.0
  0
ARC
  5
2CF
330
1F
100
AcDbEntity
  8
0
  6
Continuous
 62
     7
370
     0
100
AcDbCircle
 10
12.1504392501
 20
9.3785984414
 30
0.0
 40
0.0170676057047639
100
AcDbArc
 50
64.7797950932
 51
121.158463863
  0
SPLINE
  5
2D0
330
1F
100
AcDbEntity
  8
0
  6
Continuous
 62
     7
370
     0
100
AcDbSpline
210
0.0
220
0.0
230
1.0
 70
     8
 71
     3
 72
    13
 73
     9
 74
     0
 42
0.00000001
 43
0.00000001
 40
0.0
 40
0.0
 40
0.0
 40
0.0
 40
0.2497059556550947
 40
0.3754902122068535
 40
0.4999844705103805
 40
0.7494478519746668
 40
0.874668541467566
 40
1.0
 40
1.0
 40
1.0
 40
1.0
 10
12.15926980858848
 20
9.3860664245096
 30
0.0
 10
12.159965253489
 20
9.386732462030592
 30
0.0
 10
12.16101101450255
 20
9.387734002299979
 30
0.0
 10
12.1614820595491
 20
9.389224114388206
 30
0.0
 10
12.16141289658608
 20
9.390704494977886
 30
0.0
 10
12.16053943841844
 20
9.392101502155048
 30
0.0
 10
12.15910041979009
 20
9.393292735485483
 30
0.0
 10
12.15817476210079
 20
9.393790244631955
 30
0.0
 10
12.15771172863963
 20
9.39403910917952
 30
0.0
  0
SPLINE
  5
2D1
330
1F
100
AcDbEntity
  8
0
  6
Continuous
 62
     7
370
     0
100
AcDbSpline
210
0.0
220
0.0
230
1.0
 70
    24
 71
     1
 72
     4
 73
     2
 74
     0
 42
0.00000001
 43
0.00000001
 40
0.0
 40
0.0
 40
1.0
 40
1.0
 10
12.1761583848814
 20
9.378575002348112
 30
0.0
 10
12.15926980858848
 20
9.3860664245096
 30
0.0
  0
SPLINE
  5
2D2
330
1F
100
AcDbEntity
  8
0
  6
Continuous
 62
     7
370
     0
100
AcDbSpline
210
0.0
220
0.0
230
1.0
 70
     8
 71
     3
 72
    12
 73
     8
 74
     0
 42
0.00000001
 43
0.00000001
 40
0.0
 40
0.0
 40
0.0
 40
0.0
 40
0.2504168115017473
 40
0.4997978941598381
 40
0.6250016503732548
 40
0.7501548209131133
 40
1.0
 40
1.0
 40
1.0
 40
1.0
 10
12.16854835038708
 20
9.400491833605157
 30
0.0
 10
12.17107060641579
 20
9.399122446721536
 30
0.0
 10
12.17610468637279
 20
9.396389336765303
 30
0.0
 10
12.18018690749113
 20
9.391717206202381
 30
0.0
 10
12.18092140010546
 20
9.387591046215936
 30
0.0
 10
12.18033193951795
 20
9.383376812478591
 30
0.0
 10
12.17782719068266
 20
9.38049501761091
 30
0.0
 10
12.1761583848814
 20
9.378575002348112
 30
0.0
  0
ARC
  5
2D3
330
1F
100
AcDbEntity
  8
0
  6
Continuous
 62
     7
370
     0
100
AcDbCircle
 10
12.147779561
 20
9.3582820676
 30
0.0
 40
0.0470426078899216
100
AcDbArc
 50
63.8010822563
 51
119.0507238517
  0
SPLINE
  5
2D4
330
1F
100
AcDbEntity
  8
0
  6
Continuous
 62
     7
370
     0
100
AcDbSpline
210
0.0
220
0.0
230
1.0
 70
     8
 71
     3
 72
    13
 73
     9
 74
     0
 42
0.00000001
 43
0.00000001
 40
0.0
 40
0.0
 40
0.0
 40
0.0
 40
0.2498089441007007
 40
0.375492633199741
 40
0.500262566160964
 40
0.626542541009223
 40
0.7507234029546577
 40
1.0
 40
1.0
 40
1.0
 40
1.0
 10
12.12604211152598
 20
9.3805518066344
 30
0.0
 10
12.12379892267826
 20
9.381815932409872
 30
0.0
 10
12.12042714233539
 20
9.383716064199929
 30
0.0
 10
12.1180592168589
 20
9.386924068895773
 30
0.0
 10
12.11731104420031
 20
9.389502002274236
 30
0.0
 10
12.11763104632223
 20
9.392139267701683
 30
0.0
 10
12.11941655948282
 20
9.395652200972318
 30
0.0
 10
12.1227268635086
 20
9.397903528983596
 30
0.0
 10
12.12493643598564
 20
9.39940625271283
 30
0.0
  0
SPLINE
  5
2D5
330
1F
100
AcDbEntity
  8
0
  6
Continuous
 62
     7
370
     0
100
AcDbSpline
210
0.0
220
0.0
230
1.0
 70
     8
 71
     3
 72
     9
 73
     5
 74
     0
 42
0.00000001
 43
0.00000001
 40
0.0
 40
0.0
 40
0.0
 40
0.0
 40
0.500348259047463
 40
1.0
 40
1.0
 40
1.0
 40
1.0
 10
12.13900135717125
 20
9.377098799655931
 30
0.0
 10
12.13660905744775
 20
9.377466605001858
 30
0.0
 10
12.13182778824129
 20
9.37820170368418
 30
0.0
 10
12.12796977470567
 20
9.379768802821962
 30
0.0
 10
12.12604211152598
 20
9.3805518066344
 30
0.0
  0
SPLINE
  5
2D6
330
1F
100
AcDbEntity
  8
0
  6
Continuous
 62
     7
370
     0
100
AcDbSpline
210
0.0
220
0.0
230
1.0
 70
    24
 71
     1
 72
     4
 73
     2
 74
     0
 42
0.00000001
 43
0.00000001
 40
0.0
 40
0.0
 40
1.0
 40
1.0
 10
12.1288219550697
 20
9.372856089840713
 30
0.0
 10
12.13900135717125
 20
9.377098799655931
 30
0.0
  0
ARC
  5
2D7
330
1F
100
AcDbEntity
  8
0
  6
Continuous
 62
     7
370
     0
100
AcDbCircle
 10
11.9051371477
 20
8.9337658289
 30
0.0
 40
0.4927830661939944
100
AcDbArc
 50
63.0044396729
 51
66.164622673
  0
LINE
  5
2D8
330
1F
100
AcDbEntity
  8
0
  6
Continuous
 62
     7
370
     0
100
AcDbLine
 10
12.0910519772
 20
9.3768856411
 30
0.0
 11
12.1042757924
 21
9.3845195871
 31
0.0
  0
ARC
  5
2D9
330
1F
100
AcDbEntity
  8
0
  6
Continuous
 62
     7
370
     0
100
AcDbCircle
 10
11.887075742
 20
8.9158265052
 30
0.0
 40
0.5041644883058284
100
AcDbArc
 50
61.4960312076
 51
66.1350197234
  0
SPLINE
  5
2DA
330
1F
100
AcDbEntity
  8
0
  6
Continuous
 62
     7
370
     0
100
AcDbSpline
210
0.0
220
0.0
230
1.0
 70
    24
 71
     1
 72
     4
 73
     2
 74
     0
 42
0.00000001
 43
0.00000001
 40
0.0
 40
0.0
 40
1.0
 40
1.0
 10
12.16467966158722
 20
9.374452201118975
 30
0.0
 10
12.12767293435801
 20
9.35887822041954
 30
0.0
  0
SPLINE
  5
2DB
330
1F
100
AcDbEntity
  8
0
  6
Continuous
 62
     7
370
     0
100
AcDbSpline
210
0.0
220
0.0
230
1.0
 70
    24
 71
     1
 72
     4
 73
     2
 74
     0
 42
0.00000001
 43
0.00000001
 40
0.0
 40
0.0
 40
1.0
 40
1.0
 10
12.1528303584207
 20
9.382587927532763
 30
0.0
 10
12.16467966158722
 20
9.374452201118975
 30
0.0
  0
LINE
  5
2DC
330
1F
100
AcDbEntity
  8
0
  6
Continuous
 62
     7
370
     0
100
AcDbLine
 10
12.2083265558
 20
9.3228105134
 30
0.0
 11
12.2208157145
 21
9.3300203513
 31
0.0
  0
ARC
  5
2DD
330
1F
100
AcDbEntity
  8
0
  6
Continuous
 62
     7
370
     0
100
AcDbCircle
 10
11.7833367608
 20
8.7404854547
 30
0.0
 40
0.7209152514673791
100
AcDbArc
 50
49.7111051227
 51
53.8774563755
  0
LINE
  5
2DE
330
1F
100
AcDbEntity
  8
0
  6
Continuous
 62
     7
370
     0
100
AcDbLine
 10
12.2619999609
 20
9.2976048879
 30
0.0
 11
12.2495108021
 21
9.29039505
 31
0.0
  0
ARC
  5
2DF
330
1F
100
AcDbEntity
  8
0
  6
Continuous
 62
     7
370
     0
100
AcDbCircle
 10
11.7958259196
 20
8.7476952926
 30
0.0
 40
0.7209152514676342
100
AcDbArc
 50
49.7111051227
 51
53.8774563755
  0
ARC
  5
2E0
330
1F
100
AcDbEntity
  8
0
  6
Continuous
 62
     7
370
     0
100
AcDbCircle
 10
12.2706182373
 20
9.2034428858
 30
0.0
 40
0.0515687712570652
100
AcDbArc
 50
54.00886648
 51
93.5139059537
  0
LINE
  5
2E1
330
1F
100
AcDbEntity
  8
0
  6
Continuous
 62
     7
370
     0
100
AcDbLine
 10
12.3141469592
 20
9.2528015343
 30
0.0
 11
12.3009231441
 21
9.2451675883
 31
0.0
  0
SPLINE
  5
2E2
330
1F
100
AcDbEntity
  8
0
  6
Continuous
 62
     7
370
     0
100
AcDbSpline
210
0.0
220
0.0
230
1.0
 70
    24
 71
     1
 72
     4
 73
     2
 74
     0
 42
0.00000001
 43
0.00000001
 40
0.0
 40
0.0
 40
1.0
 40
1.0
 10
12.28973710861693
 20
9.263512909264655
 30
0.0
 10
12.31414695918095
 20
9.252801534296465
 30
0.0
  0
LINE
  5
2E3
330
1F
100
AcDbEntity
  8
0
  6
Continuous
 62
     7
370
     0
100
AcDbLine
 10
12.327560434
 20
9.2853478502
 30
0.0
 11
12.2897371086
 21
9.2635129093
 31
0.0
  0
ARC
  5
2E4
330
1F
100
AcDbEntity
  8
0
  6
Continuous
 62
     7
370
     0
100
AcDbCircle
 10
11.7656265999
 20
8.6939175968
 30
0.0
 40
0.8158182264795644
100
AcDbArc
 50
46.4649771499
 51
47.945839806
  0
LINE
  5
2E5
330
1F
100
AcDbEntity
  8
0
  6
Continuous
 62
     7
370
     0
100
AcDbLine
 10
12.2547851937
 20
9.2665919725
 30
0.0
 11
12.3120883926
 21
9.2996724051
 31
0.0
  0
ARC
  5
2E6
330
1F
100
AcDbEntity
  8
0
  6
Continuous
 62
     7
370
     0
100
AcDbCircle
 10
11.7101832879
 20
8.6628667163
 30
0.0
 40
0.8130654467848336
100
AcDbArc
 50
46.7330042709
 51
47.9473568455
  0
LINE
  5
2E7
330
1F
100
AcDbEntity
  8
0
  6
Continuous
 62
     7
370
     0
100
AcDbLine
 10
12.3533169373
 20
9.2222115544
 30
0.0
 11
12.3760912855
 21
9.2353589058
 31
0.0
  0
ARC
  5
2E8
330
1F
100
AcDbEntity
  8
0
  6
Continuous
 62
     7
370
     0
100
AcDbCircle
 10
11.6820590271
 20
8.6198134139
 30
0.0
 40
0.9019261065941666
100
AcDbArc
 50
41.9053365601
 51
43.7940040925
  0
LINE
  5
2E9
330
1F
100
AcDbEntity
  8
0
  6
Continuous
 62
     7
370
     0
100
AcDbLine
 10
12.3213442416
 20
9.2372215553
 30
0.0
 11
12.3330987439
 21
9.2440072851
 31
0.0
  0
ARC
  5
2EA
330
1F
100
AcDbEntity
  8
0
  6
Continuous
 62
     7
370
     0
100
AcDbCircle
 10
11.6703045247
 20
8.6130276841
 30
0.0
 40
0.9019261065868935
100
AcDbArc
 50
41.9053365601
 51
43.7940040925
  0
LINE
  5
2EB
330
1F
100
AcDbEntity
  8
0
  6
Continuous
 62
     7
370
     0
100
AcDbLine
 10
12.3327465582
 20
9.2103365273
 30
0.0
 11
12.3415624349
 21
9.2154258247
 31
0.0
  0
ARC
  5
2EC
330
1F
100
AcDbEntity
  8
0
  6
Continuous
 62
     7
370
     0
100
AcDbCircle
 10
11.6636869643
 20
8.609958968
 30
0.0
 40
0.8989404617796976
100
AcDbArc
 50
41.9030702864
 51
44.1113723813
  0
LINE
  5
2ED
330
1F
100
AcDbEntity
  8
0
  6
Continuous
 62
     7
370
     0
100
AcDbLine
 10
12.2958917528
 20
9.2280373133
 30
0.0
 11
12.309115568
 21
9.2356712593
 31
0.0
  0
ARC
  5
2EE
330
1F
100
AcDbEntity
  8
0
  6
Continuous
 62
     7
370
     0
100
AcDbCircle
 10
11.6405191407
 20
8.5930115316
 30
0.0
 40
0.9125628768231645
100
AcDbArc
 50
40.4114550269
 51
44.0966426258
  0
LINE
  5
2EF
330
1F
100
AcDbEntity
  8
0
  6
Continuous
 62
     7
370
     0
100
AcDbLine
 10
12.3919210107
 20
9.2172569459
 30
0.0
 11
12.3353524682
 21
9.1846006214
 31
0.0
  0
ARC
  5
2F0
330
1F
100
AcDbEntity
  8
0
  6
Continuous
 62
     7
370
     0
100
AcDbCircle
 10
11.6823431301
 20
8.6127206259
 30
0.0
 40
0.9321828848607141
100
AcDbArc
 50
40.4298727965
 51
41.9079446885
  0
LINE
  5
2F1
330
1F
100
AcDbEntity
  8
0
  6
Continuous
 62
     7
370
     0
100
AcDbLine
 10
11.8717108254
 20
8.013739248
 30
0.0
 11
11.9290140243
 21
8.0468196806
 31
0.0
  0
LWPOLYLINE
  5
2F2
330
1F
100
AcDbEntity
  8
0
  6
Continuous
 62
     7
370
     0
100
AcDbPolyline
 90
       78
 70
   128
 43
0.0
 10
11.7595431218
 20
8.2234636445
 10
11.7585460141
 20
8.1896872313
 10
11.7551274763
 20
8.1575168353
 10
11.7493102581
 20
8.1271665451
 10
11.7411330721
 20
8.0988383368
 10
11.7306503363
 20
8.07272073
 10
11.7179318114
 20
8.0489875331
 10
11.7030621372
 20
8.0277966865
 10
11.6861402689
 20
8.009289212
 10
11.6672788187
 20
7.9935882736
 10
11.6466033064
 20
7.9807983585
 10
11.6242513242
 20
7.9710045815
 10
11.6003716209
 20
7.9642721185
 10
11.5751231119
 20
7.9606457731
 10
11.5486738219
 20
7.9601496779
 10
11.5211997665
 20
7.9627871343
 10
11.4928837811
 20
7.9685405905
 10
11.4639143038
 20
7.9773717583
 10
11.4344841218
 20
7.9892218676
 10
11.4047890881
 20
8.0040120579
 10
11.3750268182
 20
8.021643903
 10
11.345395375
 20
8.0420000658
 10
11.3160919511
 20
8.0649450794
 10
11.2873115558
 20
8.0903262486
 10
11.2592457178
 20
8.1179746658
 10
11.2320812108
 20
8.1477063354
 10
11.2059988101
 20
8.1793233981
 10
11.1811720896
 20
8.2126154474
 10
11.1577662672
 20
8.2473609304
 10
11.1359371048
 20
8.2833286216
 10
11.1158298717
 20
8.3202791618
 10
11.0975783784
 20
8.3579666514
 10
11.0813040854
 20
8.3961402863
 10
11.0671152956
 20
8.4345460273
 10
11.0551064329
 20
8.4729282905
 10
11.0453574145
 20
8.5110316483
 10
11.0379331184
 20
8.5486025291
 10
11.032882952
 20
8.585390905
 10
11.0302405234
 20
8.6211519553
 10
11.0300234175
 20
8.6556476961
 10
11.0322330791
 20
8.688648564
 10
11.0368548033
 20
8.7199349437
 10
11.0438578333
 20
8.7492986295
 10
11.0531955651
 20
8.7765442108
 10
11.0648058575
 20
8.8014903729
 10
11.0786114461
 20
8.8239711031
 10
11.0945204568
 20
8.8438367959
 10
11.112427018
 20
8.8609552483
 10
11.1322119642
 20
8.87521254
 10
11.1537436301
 20
8.886513791
 10
11.1768787259
 20
8.8947837932
 10
11.2014632914
 20
8.8999675113
 10
11.2273337203
 20
8.9020304484
 10
11.2543178492
 20
8.9009588761
 10
11.2822361032
 20
8.8967599254
 10
11.3109026909
 20
8.8894615397
 10
11.3401268408
 20
8.8791122885
 10
11.3697140712
 20
8.8657810444
 10
11.3994674839
 20
8.8495565246
 10
11.4291890747
 20
8.8305467007
 10
11.4586810515
 20
8.8088780799
 10
11.48774715
 20
8.7846948632
 10
11.51619394
 20
8.758157986
 10
11.543832113
 20
8.7294440468
 10
11.5704777414
 20
8.6987441322
 10
11.5959535029
 20
8.6662625449
 10
11.6200898606
 20
8.6322154448
 10
11.642726191
 20
8.5968294094
 10
11.6637118531
 20
8.5603399272
 10
11.6829071907
 20
8.5229898295
 10
11.700184462
 20
8.4850276751
 10
11.7154286896
 20
8.4467060959
 10
11.7285384258
 20
8.4082801157
 10
11.7394264273
 20
8.370005453
 10
11.7480202364
 20
8.3321368193
 10
11.7542626626
 20
8.2949262243
 10
11.7581121637
 20
8.2586212983
 10
11.7595431218
 20
8.2234636445
  0
LWPOLYLINE
  5
2F3
330
1F
100
AcDbEntity
  8
0
  6
Continuous
 62
     7
370
     0
100
AcDbPolyline
 90
       51
 70
   128
 43
0.0
 10
11.2719850508
 20
8.8986477546
 10
11.2692856056
 20
8.8989217983
 10
11.242824425
 20
8.8999726038
 10
11.217455361
 20
8.8979496461
 10
11.1933472406
 20
8.8928663876
 10
11.1706604993
 20
8.8847566567
 10
11.1495461138
 20
8.8736744223
 10
11.1301445967
 20
8.8596934347
 10
11.112585062
 20
8.8429067352
 10
11.0969843654
 20
8.8234260364
 10
11.083446327
 20
8.8013809793
 10
11.0720610402
 20
8.77691827
 10
11.0629042723
 20
8.7502007038
 10
11.0560369599
 20
8.7214060817
 10
11.051504804
 20
8.6907260272
 10
11.0493379653
 20
8.658364711
 10
11.0495508637
 20
8.6245374923
 10
11.0521420824
 20
8.5894694856
 10
11.0570943773
 20
8.5533940627
 10
11.0643747918
 20
8.5165512998
 10
11.0739348758
 20
8.4791863791
 10
11.0857110085
 20
8.4415479582
 10
11.0996248218
 20
8.4038865145
 10
11.1155837215
 20
8.3664526787
 10
11.1334815037
 20
8.3294955669
 10
11.1531990617
 20
8.2932611224
 10
11.1746051784
 20
8.2579904795
 10
11.1975573996
 20
8.2239183586
 10
11.221902982
 20
8.191271504
 10
11.2474799099
 20
8.1602671751
 10
11.274117973
 20
8.1311117006
 10
11.3016398993
 20
8.1039991055
 10
11.329862535
 20
8.0791098194
 10
11.3585980632
 20
8.0566094766
 10
11.3876552535
 20
8.0366478131
 10
11.4168407353
 20
8.0193576704
 10
11.4459602839
 20
8.0048541117
 10
11.4748201135
 20
7.9932336557
 10
11.5032281668
 20
7.9845736346
 10
11.5309953928
 20
7.9789316794
 10
11.5579370052
 20
7.9763453365
 10
11.5838737121
 20
7.9768318175
 10
11.6086329089
 20
7.9803878849
 10
11.6320498273
 20
7.9869898738
 10
11.6539686315
 20
7.9965938489
 10
11.6742434556
 20
8.0091358974
 10
11.6927393738
 20
8.024532554
 10
11.7093332989
 20
8.0426813566
 10
11.7239148012
 20
8.0634615278
 10
11.736386843
 20
8.0867347791
 10
11.7382826378
 20
8.0909091223
  0
SPLINE
  5
2F4
330
1F
100
AcDbEntity
  8
0
  6
Continuous
 62
     7
370
     0
100
AcDbSpline
210
0.0
220
0.0
230
1.0
 70
     8
 71
     3
 72
     9
 73
     5
 74
     0
 42
0.00000001
 43
0.00000001
 40
0.0
 40
0.0
 40
0.0
 40
0.0
 40
0.499999437787066
 40
1.0
 40
1.0
 40
1.0
 40
1.0
 10
11.70065910441835
 20
8.975076517478476
 30
0.0
 10
11.70204714235687
 20
8.974349149318208
 30
0.0
 10
11.7048232213554
 20
8.972894411361924
 30
0.0
 10
11.70748907337168
 20
8.971305445114085
 30
0.0
 10
11.7088220008786
 20
8.970510961096828
 30
0.0
  0
SPLINE
  5
2F5
330
1F
100
AcDbEntity
  8
0
  6
Continuous
 62
     7
370
     0
100
AcDbSpline
210
0.0
220
0.0
230
1.0
 70
    24
 71
     1
 72
     4
 73
     2
 74
     0
 42
0.00000001
 43
0.00000001
 40
0.0
 40
0.0
 40
1.0
 40
1.0
 10
11.7088220008786
 20
8.970510961096828
 30
0.0
 10
11.71668356291953
 20
8.966638067998643
 30
0.0
  0
ARC
  5
2F6
330
1F
100
AcDbEntity
  8
0
  6
Continuous
 62
     7
370
     0
100
AcDbCircle
 10
11.7181724698
 20
8.9712290645
 30
0.0
 40
0.004826395374836
100
AcDbArc
 50
252.0315932343
 51
296.3404936323
  0
SPLINE
  5
2F7
330
1F
100
AcDbEntity
  8
0
  6
Continuous
 62
     7
370
     0
100
AcDbSpline
210
0.0
220
0.0
230
1.0
 70
     8
 71
     3
 72
    13
 73
     9
 74
     0
 42
0.00000001
 43
0.00000001
 40
0.0
 40
0.0
 40
0.0
 40
0.0
 40
0.1250915069580644
 40
0.2499455687836104
 40
0.3709820857177346
 40
0.5001127109825838
 40
0.7496528854791766
 40
1.0
 40
1.0
 40
1.0
 40
1.0
 10
11.72031396399978
 20
8.966903778913613
 30
0.0
 10
11.72058165274151
 20
8.96708542795628
 30
0.0
 10
11.72111652210585
 20
8.967448381240574
 30
0.0
 10
11.72153618355214
 20
8.968216132133513
 30
0.0
 10
11.72164234990628
 20
8.969072022411812
 30
0.0
 10
11.721395709967
 20
8.970252681723077
 30
0.0
 10
11.72047691377779
 20
8.971690763431594
 30
0.0
 10
11.71941246378957
 20
8.972674386093036
 30
0.0
 10
11.71887937965449
 20
8.973166991327217
 30
0.0
  0
ARC
  5
2F8
330
1F
100
AcDbEntity
  8
0
  6
Continuous
 62
     7
370
     0
100
AcDbCircle
 10
11.708673831
 20
8.963629833
 30
0.0
 40
0.0139682000510763
100
AcDbArc
 50
43.0609889822
 51
115.2571973167
  0
LINE
  5
2F9
330
1F
100
AcDbEntity
  8
0
  6
Continuous
 62
     7
370
     0
100
AcDbLine
 10
11.7027138465
 20
8.9762626948
 30
0.0
 11
11.7006591044
 21
8.9750765175
 31
0.0
  0
ARC
  5
2FA
330
1F
100
AcDbEntity
  8
0
  6
Continuous
 62
     7
370
     0
100
AcDbCircle
 10
11.1071994023
 20
8.2650473331
 30
0.0
 40
1.038428764796569
100
AcDbArc
 50
28.8414353966
 51
29.3975336261
  0
SPLINE
  5
2FB
330
1F
100
AcDbEntity
  8
0
  6
Continuous
 62
     7
370
     0
100
AcDbSpline
210
0.0
220
0.0
230
1.0
 70
     8
 71
     3
 72
    13
 73
     9
 74
     0
 42
0.00000001
 43
0.00000001
 40
0.0
 40
0.0
 40
0.0
 40
0.0
 40
0.2505627277009461
 40
0.5000471093108592
 40
0.6243230553629099
 40
0.7497534526002283
 40
0.8747558534753139
 40
1.0
 40
1.0
 40
1.0
 40
1.0
 10
12.01191482690595
 20
8.774776967358992
 30
0.0
 10
12.01133413413437
 20
8.775749157770806
 30
0.0
 10
12.01017524771702
 20
8.77768935458135
 30
0.0
 10
12.00830784712956
 20
8.779876258562162
 30
0.0
 10
12.00642027560794
 20
8.780928584062023
 30
0.0
 10
12.00492888089908
 20
8.781181339467196
 30
0.0
 10
12.00349850565018
 20
8.78098721841569
 30
0.0
 10
12.00267049025594
 20
8.780564849607131
 30
0.0
 10
12.00225608261499
 20
8.780353461192401
 30
0.0
  0
SPLINE
  5
2FC
330
1F
100
AcDbEntity
  8
0
  6
Continuous
 62
     7
370
     0
100
AcDbSpline
210
0.0
220
0.0
230
1.0
 70
     8
 71
     3
 72
    13
 73
     9
 74
     0
 42
0.00000001
 43
0.00000001
 40
0.0
 40
0.0
 40
0.0
 40
0.0
 40
0.1251815832451356
 40
0.2501778431338251
 40
0.3742188627263545
 40
0.4998769269697783
 40
0.7494759856937363
 40
1.0
 40
1.0
 40
1.0
 40
1.0
 10
12.00225608261499
 20
8.780353461192401
 30
0.0
 10
12.00187805033258
 20
8.780105516446643
 30
0.0
 10
12.00112254542046
 20
8.77960999402152
 30
0.0
 10
12.00031195841443
 20
8.778458581778908
 30
0.0
 10
11.99983676095473
 20
8.777059214477989
 30
0.0
 10
11.99984390780641
 20
8.774947205537394
 30
0.0
 10
12.00074622637007
 20
8.772302612300718
 30
0.0
 10
12.00177649043033
 20
8.770362622738448
 30
0.0
 10
12.00229257517444
 20
8.769390833994713
 30
0.0
  0
ARC
  5
2FD
330
1F
100
AcDbEntity
  8
0
  6
Continuous
 62
     7
370
     0
100
AcDbCircle
 10
11.0976433807
 20
8.2595308817
 30
0.0
 40
1.038435041808887
100
AcDbArc
 50
28.8414365278
 51
29.4055918247
  0
LINE
  5
2FE
330
1F
100
AcDbEntity
  8
0
  6
Continuous
 62
     7
370
     0
100
AcDbLine
 10
12.0072689095
 20
8.7604587541
 30
0.0
 11
12.0168194427
 21
8.7659721595
 31
0.0
  0
ARC
  5
2FF
330
1F
100
AcDbEntity
  8
0
  6
Continuous
 62
     7
370
     0
100
AcDbCircle
 10
11.1291545943
 20
8.2777236435
 30
0.0
 40
1.038525422957423
100
AcDbArc
 50
28.841454683
 51
29.5273549845
  0
SPLINE
  5
300
330
1F
100
AcDbEntity
  8
0
  6
Continuous
 62
     7
370
     0
100
AcDbSpline
210
0.0
220
0.0
230
1.0
 70
     8
 71
     3
 72
    13
 73
     9
 74
     0
 42
0.00000001
 43
0.00000001
 40
0.0
 40
0.0
 40
0.0
 40
0.0
 40
0.2504598900564476
 40
0.4998947466960529
 40
0.6257393024834196
 40
0.7498233176507851
 40
0.8747960687618362
 40
0.9999999999999999
 40
0.9999999999999999
 40
0.9999999999999999
 40
0.9999999999999999
 10
12.03279685122854
 20
8.789549517874342
 30
0.0
 10
12.03211328682461
 20
8.790684638330124
 30
0.0
 10
12.03074895557592
 20
8.792950233641946
 30
0.0
 10
12.0285175655262
 20
8.795468302391257
 30
0.0
 10
12.02631343739249
 20
8.796705014887989
 30
0.0
 10
12.02457003509955
 20
8.79707685815971
 30
0.0
 10
12.0228754607215
 20
8.79693483753734
 30
0.0
 10
12.02189980227585
 20
8.796451942664218
 30
0.0
 10
12.02141152226592
 20
8.79621027211394
 30
0.0
  0
SPLINE
  5
301
330
1F
100
AcDbEntity
  8
0
  6
Continuous
 62
     7
370
     0
100
AcDbSpline
210
0.0
220
0.0
230
1.0
 70
     8
 71
     3
 72
    13
 73
     9
 74
     0
 42
0.00000001
 43
0.00000001
 40
0.0
 40
0.0
 40
0.0
 40
0.0
 40
0.1295610237595929
 40
0.2496774389522218
 40
0.3752077547391881
 40
0.4998009282121418
 40
0.7495742841113
 40
1.0
 40
1.0
 40
1.0
 40
1.0
 10
12.02141152226592
 20
8.79621027211394
 30
0.0
 10
12.02095547685217
 20
8.795896427049577
 30
0.0
 10
12.02007663036234
 20
8.795291615281158
 30
0.0
 10
12.0191887658742
 20
8.79386216818976
 30
0.0
 10
12.01874570068974
 20
8.792175024833742
 30
0.0
 10
12.01884968708968
 20
8.789673778102609
 30
0.0
 10
12.01996251693375
 20
8.786578337203801
 30
0.0
 10
12.02118764273
 20
8.78429078854745
 30
0.0
 10
12.0218010045331
 20
8.783145522507972
 30
0.0
  0
ARC
  5
302
330
1F
100
AcDbEntity
  8
0
  6
Continuous
 62
     7
370
     0
100
AcDbCircle
 10
11.1181364119
 20
8.2713629466
 30
0.0
 40
1.038523519697614
100
AcDbArc
 50
28.8414542635
 51
29.5246691327
  0
LINE
  5
303
330
1F
100
AcDbEntity
  8
0
  6
Continuous
 62
     7
370
     0
100
AcDbLine
 10
12.0278392886
 20
8.7723337811
 30
0.0
 11
12.0388591346
 21
8.7786954028
 31
0.0
  0
ARC
  5
304
330
1F
100
AcDbEntity
  8
0
  6
Continuous
 62
     7
370
     0
100
AcDbCircle
 10
11.1188517026
 20
8.2725529953
 30
0.0
 40
1.024567670848087
100
AcDbArc
 50
33.663327629
 51
34.2244301832
  0
SPLINE
  5
305
330
1F
100
AcDbEntity
  8
0
  6
Continuous
 62
     7
370
     0
100
AcDbSpline
210
0.0
220
0.0
230
1.0
 70
     8
 71
     3
 72
    13
 73
     9
 74
     0
 42
0.00000001
 43
0.00000001
 40
0.0
 40
0.0
 40
0.0
 40
0.0
 40
0.2505627277008031
 40
0.5000471093106245
 40
0.624323055353712
 40
0.7497534526003411
 40
0.8747558534753741
 40
1.0
 40
1.0
 40
1.0
 40
1.0
 10
11.96600609002925
 20
8.848806720633084
 30
0.0
 10
11.96534785443521
 20
8.84972347460661
 30
0.0
 10
11.96403421609375
 20
8.851553037122219
 30
0.0
 10
11.96197480207823
 20
8.853598936189298
 30
0.0
 10
11.95996175359745
 20
8.854557972732596
 30
0.0
 10
11.95840527477514
 20
8.85476197588289
 30
0.0
 10
11.95693804054388
 20
8.854540124671486
 30
0.0
 10
11.95610678061448
 20
8.854115310032565
 30
0.0
 10
11.9556907491388
 20
8.85390269752128
 30
0.0
  0
SPLINE
  5
306
330
1F
100
AcDbEntity
  8
0
  6
Continuous
 62
     7
370
     0
100
AcDbSpline
210
0.0
220
0.0
230
1.0
 70
     8
 71
     3
 72
    13
 73
     9
 74
     0
 42
0.00000001
 43
0.00000001
 40
0.0
 40
0.0
 40
0.0
 40
0.0
 40
0.1251815832450275
 40
0.2501778431336246
 40
0.3742188627338692
 40
0.4998769269701463
 40
0.7494759856939128
 40
1.0
 40
1.0
 40
1.0
 40
1.0
 10
11.9556907491388
 20
8.85390269752128
 30
0.0
 10
11.95531444947959
 20
8.853656059141738
 30
0.0
 10
11.95456240724884
 20
8.853163147515055
 30
0.0
 10
11.95379170745883
 20
8.852041738421676
 30
0.0
 10
11.95338226428843
 20
8.850691605596959
 30
0.0
 10
11.95351338676538
 20
8.848671737680249
 30
0.0
 10
11.95460187864175
 20
8.846163842010192
 30
0.0
 10
11.95578244343415
 20
8.844331384713858
 30
0.0
 10
11.95637381753162
 20
8.843413461541186
 30
0.0
  0
ARC
  5
307
330
1F
100
AcDbEntity
  8
0
  6
Continuous
 62
     7
370
     0
100
AcDbCircle
 10
11.1093261605
 20
8.2670563525
 30
0.0
 40
1.024537578845225
100
AcDbArc
 50
33.6633220977
 51
34.2325676659
  0
LINE
  5
308
330
1F
100
AcDbEntity
  8
0
  6
Continuous
 62
     7
370
     0
100
AcDbLine
 10
11.9620581469
 20
8.8349695587
 30
0.0
 11
11.97160868
 21
8.8404829642
 31
0.0
  0
ARC
  5
309
330
1F
100
AcDbEntity
  8
0
  6
Continuous
 62
     7
370
     0
100
AcDbCircle
 10
11.1412975035
 20
8.2855488462
 30
0.0
 40
1.024078553004431
100
AcDbArc
 50
33.6632278825
 51
34.3555639261
  0
SPLINE
  5
30A
330
1F
100
AcDbEntity
  8
0
  6
Continuous
 62
     7
370
     0
100
AcDbSpline
210
0.0
220
0.0
230
1.0
 70
     8
 71
     3
 72
    13
 73
     9
 74
     0
 42
0.00000001
 43
0.00000001
 40
0.0
 40
0.0
 40
0.0
 40
0.0
 40
0.2504598900563455
 40
0.4998947466958242
 40
0.6257393024746419
 40
0.7498233176509039
 40
0.8747960687618929
 40
1.0
 40
1.0
 40
1.0
 40
1.0
 10
11.98672700045401
 20
8.863463933711047
 30
0.0
 10
11.98595314046543
 20
8.864533509322142
 30
0.0
 10
11.98440858759158
 20
8.866668283193755
 30
0.0
 10
11.98195474489348
 20
8.86901977287838
 30
0.0
 10
11.97960464813428
 20
8.870145608514036
 30
0.0
 10
11.97778129428264
 20
8.870456183138552
 30
0.0
 10
11.97603830191607
 20
8.870276847272713
 30
0.0
 10
11.97505799587824
 20
8.869790360862456
 30
0.0
 10
11.97456738992488
 20
8.8695468928842
 30
0.0
  0
SPLINE
  5
30B
330
1F
100
AcDbEntity
  8
0
  6
Continuous
 62
     7
370
     0
100
AcDbSpline
210
0.0
220
0.0
230
1.0
 70
     8
 71
     3
 72
    13
 73
     9
 74
     0
 42
0.00000001
 43
0.00000001
 40
0.0
 40
0.0
 40
0.0
 40
0.0
 40
0.1295610237594244
 40
0.2496774389405114
 40
0.3752077547168684
 40
0.4998009282121736
 40
0.7495742841113242
 40
0.9999999999999999
 40
0.9999999999999999
 40
0.9999999999999999
 40
0.9999999999999999
 10
11.97456738992488
 20
8.8695468928842
 30
0.0
 10
11.97411427012817
 20
8.869235308914282
 30
0.0
 10
11.97324106160379
 20
8.868634854507802
 30
0.0
 10
11.97240629179625
 20
8.867246311377581
 30
0.0
 10
11.97204627538553
 20
8.865622767516312
 30
0.0
 10
11.97229931486443
 20
8.863234622126244
 30
0.0
 10
11.9736306814889
 20
8.86030264359127
 30
0.0
 10
11.9750326043498
 20
8.858143377347767
 30
0.0
 10
11.97573447997466
 20
8.857062336167722
 30
0.0
  0
ARC
  5
30C
330
1F
100
AcDbEntity
  8
0
  6
Continuous
 62
     7
370
     0
100
AcDbCircle
 10
11.1302691802
 20
8.2791815294
 30
0.0
 40
1.024088765640708
100
AcDbArc
 50
33.6632301784
 51
34.3528501646
  0
LINE
  5
30D
330
1F
100
AcDbEntity
  8
0
  6
Continuous
 62
     7
370
     0
100
AcDbLine
 10
11.982628526
 20
8.8468445858
 30
0.0
 11
11.9936483719
 21
8.8532062075
 31
0.0
  0
SPLINE
  5
30E
330
1F
100
AcDbEntity
  8
0
  6
Continuous
 62
     7
370
     0
100
AcDbSpline
210
0.0
220
0.0
230
1.0
 70
     8
 71
     3
 72
    13
 73
     9
 74
     0
 42
0.00000001
 43
0.00000001
 40
0.0
 40
0.0
 40
0.0
 40
0.0
 40
0.5004639766922429
 40
0.6282475802573197
 40
0.7518824419773306
 40
0.8133314421075429
 40
0.8755414302573552
 40
1.0
 40
1.0
 40
1.0
 40
1.0
 10
11.42850370445193
 20
8.9921678864914
 30
0.0
 10
11.43213738670097
 20
8.994316344492184
 30
0.0
 10
11.43669885802899
 20
8.997013368859847
 30
0.0
 10
11.44051515885783
 20
9.00074955388148
 30
0.0
 10
11.44130022265557
 20
9.002429732991207
 30
0.0
 10
11.44124890354934
 20
9.003722534319245
 30
0.0
 10
11.44064038754574
 20
9.004954779890042
 30
0.0
 10
11.43941358881016
 20
9.005621725146222
 30
0.0
 10
11.43859563844019
 20
9.006066401280318
 30
0.0
  0
ARC
  5
30F
330
1F
100
AcDbEntity
  8
0
  6
Continuous
 62
     7
370
     0
100
AcDbCircle
 10
11.4322035396
 20
8.9784082094
 30
0.0
 40
0.0283872243510676
100
AcDbArc
 50
76.9868194914
 51
132.8602932842
  0
SPLINE
  5
310
330
1F
100
AcDbEntity
  8
0
  6
Continuous
 62
     7
370
     0
100
AcDbSpline
210
0.0
220
0.0
230
1.0
 70
     8
 71
     3
 72
    13
 73
     9
 74
     0
 42
0.00000001
 43
0.00000001
 40
0.0
 40
0.0
 40
0.0
 40
0.0
 40
0.5004231501093155
 40
0.6255784393530429
 40
0.7503815851609817
 40
0.8126552223371905
 40
0.8754890600875194
 40
0.9999999999999999
 40
0.9999999999999999
 40
0.9999999999999999
 40
0.9999999999999999
 10
11.41289417936051
 20
8.999216455624394
 30
0.0
 10
11.40917677035181
 20
8.997023859958201
 30
0.0
 10
11.4045296413659
 20
8.994282898484517
 30
0.0
 10
11.40052206308414
 20
8.990550152208385
 30
0.0
 10
11.39972444131966
 20
8.98887005054341
 30
0.0
 10
11.39985510694892
 20
8.987574863369131
 30
0.0
 10
11.40056176989681
 20
8.98635790159419
 30
0.0
 10
11.40183939882212
 20
8.985690164686394
 30
0.0
 10
11.40268852192198
 20
8.985246381032312
 30
0.0
  0
ARC
  5
311
330
1F
100
AcDbEntity
  8
0
  6
Continuous
 62
     7
370
     0
100
AcDbCircle
 10
11.409152119
 20
9.0127413396
 30
0.0
 40
0.0282444832442789
100
AcDbArc
 50
256.7709428127
 51
313.2470645862
  0
SPLINE
  5
312
330
1F
100
AcDbEntity
  8
0
  6
Continuous
 62
     7
370
     0
100
AcDbSpline
210
0.0
220
0.0
230
1.0
 70
    24
 71
     1
 72
     4
 73
     2
 74
     0
 42
0.00000001
 43
0.00000001
 40
0.0
 40
0.0
 40
1.0
 40
1.0
 10
11.90790521958351
 20
8.91370546811576
 30
0.0
 10
11.93317014833197
 20
8.918848478871427
 30
0.0
  0
ARC
  5
313
330
1F
100
AcDbEntity
  8
0
  6
Continuous
 62
     7
370
     0
100
AcDbCircle
 10
11.1799905037
 20
8.3160959517
 30
0.0
 40
0.9646710247672091
100
AcDbArc
 50
38.6694927241
 51
39.6711954116
  0
SPLINE
  5
314
330
1F
100
AcDbEntity
  8
0
  6
Continuous
 62
     7
370
     0
100
AcDbSpline
210
0.0
220
0.0
230
1.0
 70
    24
 71
     1
 72
     4
 73
     2
 74
     0
 42
0.00000001
 43
0.00000001
 40
0.0
 40
0.0
 40
1.0
 40
1.0
 10
11.92251765280849
 20
8.931923540344558
 30
0.0
 10
11.90790521958351
 20
8.91370546811576
 30
0.0
  0
ARC
  5
315
330
1F
100
AcDbEntity
  8
0
  6
Continuous
 62
     7
370
     0
100
AcDbCircle
 10
11.2326393654
 20
8.3667664194
 30
0.0
 40
0.8783378884218032
100
AcDbArc
 50
43.767584522
 51
44.4193897767
  0
SPLINE
  5
316
330
1F
100
AcDbEntity
  8
0
  6
Continuous
 62
     7
370
     0
100
AcDbSpline
210
0.0
220
0.0
230
1.0
 70
    24
 71
     1
 72
     4
 73
     2
 74
     0
 42
0.00000001
 43
0.00000001
 40
0.0
 40
0.0
 40
1.0
 40
1.0
 10
11.85997978414605
 20
8.981519577443963
 30
0.0
 10
11.85485268784308
 20
8.985545592529187
 30
0.0
  0
ARC
  5
317
330
1F
100
AcDbEntity
  8
0
  6
Continuous
 62
     7
370
     0
100
AcDbCircle
 10
11.849829271
 20
8.9794844835
 30
0.0
 40
0.0078722144193557
100
AcDbArc
 50
50.348230738
 51
116.9869356383
  0
SPLINE
  5
318
330
1F
100
AcDbEntity
  8
0
  6
Continuous
 62
     7
370
     0
100
AcDbSpline
210
0.0
220
0.0
230
1.0
 70
     8
 71
     3
 72
    12
 73
     8
 74
     0
 42
0.00000001
 43
0.00000001
 40
0.0
 40
0.0
 40
0.0
 40
0.0
 40
0.1254669244529406
 40
0.2506002708976398
 40
0.3754476425702254
 40
0.5006747216457784
 40
1.0
 40
1.0
 40
1.0
 40
1.0
 10
11.8462569598748
 20
8.98649949260724
 30
0.0
 10
11.84580367787701
 20
8.98619953523093
 30
0.0
 10
11.84489831901901
 20
8.985600417972828
 30
0.0
 10
11.84402188974862
 20
8.984339899806788
 30
0.0
 10
11.84371943572273
 20
8.982840251230101
 30
0.0
 10
11.84461657490722
 20
8.979644131289314
 30
0.0
 10
11.84686941259601
 20
8.977315141690045
 30
0.0
 10
11.84867054070425
 20
8.975453130657495
 30
0.0
  0
ARC
  5
319
330
1F
100
AcDbEntity
  8
0
  6
Continuous
 62
     7
370
     0
100
AcDbCircle
 10
11.2218091994
 20
8.3605879019
 30
0.0
 40
0.87807425129856
100
AcDbArc
 50
43.7675179186
 51
44.4464922865
  0
LINE
  5
31A
330
1F
100
AcDbEntity
  8
0
  6
Continuous
 62
     7
370
     0
100
AcDbLine
 10
11.8559127164
 20
8.9679816132
 30
0.0
 11
11.8669325623
 21
8.9743432348
 31
0.0
  0
SPLINE
  5
31B
330
1F
100
AcDbEntity
  8
0
  6
Continuous
 62
     7
370
     0
100
AcDbSpline
210
0.0
220
0.0
230
1.0
 70
    24
 71
     1
 72
     4
 73
     2
 74
     0
 42
0.00000001
 43
0.00000001
 40
0.0
 40
0.0
 40
1.0
 40
1.0
 10
11.76908376092276
 20
9.052401996596775
 30
0.0
 10
11.8017303741204
 20
9.050988301071952
 30
0.0
  0
ARC
  5
31C
330
1F
100
AcDbEntity
  8
0
  6
Continuous
 62
     7
370
     0
100
AcDbCircle
 10
11.3494843026
 20
8.490619014
 30
0.0
 40
0.720097387242223
100
AcDbArc
 50
51.0947330274
 51
52.5989299427
  0
LINE
  5
31D
330
1F
100
AcDbEntity
  8
0
  6
Continuous
 62
     7
370
     0
100
AcDbLine
 10
11.7868647415
 20
9.0626667382
 30
0.0
 11
11.7690837609
 21
9.0524019966
 31
0.0
  0
SPLINE
  5
31E
330
1F
100
AcDbEntity
  8
0
  6
Continuous
 62
     7
370
     0
100
AcDbSpline
210
0.0
220
0.0
230
1.0
 70
     8
 71
     3
 72
    13
 73
     9
 74
     0
 42
0.00000001
 43
0.00000001
 40
0.0
 40
0.0
 40
0.0
 40
0.0
 40
0.5004639766923266
 40
0.628247580257325
 40
0.7518824419768734
 40
0.8133314421062867
 40
0.8755414302564671
 40
1.0
 40
1.0
 40
1.0
 40
1.0
 10
11.74043130401274
 20
9.088360779148289
 30
0.0
 10
11.74406485304046
 20
9.090519311552065
 30
0.0
 10
11.7486261571317
 20
9.093228982622783
 30
0.0
 10
11.75243541056395
 20
9.097275248632585
 30
0.0
 10
11.75321427596176
 20
9.099204686359325
 30
0.0
 10
11.75315541709716
 20
9.100767818071946
 30
0.0
 10
11.75253724913325
 20
9.102324988744128
 30
0.0
 10
11.75130047713525
 20
9.103277214844152
 30
0.0
 10
11.75047587723633
 20
9.103912097867939
 30
0.0
  0
ARC
  5
31F
330
1F
100
AcDbEntity
  8
0
  6
Continuous
 62
     7
370
     0
100
AcDbCircle
 10
11.7414243283
 20
9.0821627719
 30
0.0
 40
0.0235576679407
100
AcDbArc
 50
67.404090443
 51
135.2321149786
  0
SPLINE
  5
320
330
1F
100
AcDbEntity
  8
0
  6
Continuous
 62
     7
370
     0
100
AcDbSpline
210
0.0
220
0.0
230
1.0
 70
     8
 71
     3
 72
    13
 73
     9
 74
     0
 42
0.00000001
 43
0.00000001
 40
0.0
 40
0.0
 40
0.0
 40
0.0
 40
0.5004231501093533
 40
0.6255784393530845
 40
0.7503815851610225
 40
0.8126552223370018
 40
0.8754890600875121
 40
1.0
 40
1.0
 40
1.0
 40
1.0
 10
11.7246991949242
 20
9.098752938577515
 30
0.0
 10
11.72098238699684
 20
9.096550164758384
 30
0.0
 10
11.71633600942206
 20
9.093796479586706
 30
0.0
 10
11.71234379037387
 20
9.089759405200207
 30
0.0
 10
11.71155878212633
 20
9.087818916762966
 30
0.0
 10
11.71170260930038
 20
9.086233092197764
 30
0.0
 10
11.71242415016509
 20
9.084672989740376
 30
0.0
 10
11.71371292354145
 20
9.083711857539921
 30
0.0
 10
11.71456945333868
 20
9.083073080867566
 30
0.0
  0
SPLINE
  5
321
330
1F
100
AcDbEntity
  8
0
  6
Continuous
 62
     7
370
     0
100
AcDbSpline
210
0.0
220
0.0
230
1.0
 70
     8
 71
     3
 72
    13
 73
     9
 74
     0
 42
0.00000001
 43
0.00000001
 40
0.0
 40
0.0
 40
0.0
 40
0.0
 40
0.1245513980942103
 40
0.1859899457709599
 40
0.2495609023917461
 40
0.3742835246962057
 40
0.4994689293691799
 40
1.0
 40
1.0
 40
1.0
 40
1.0
 10
11.71456945333868
 20
9.083073080867566
 30
0.0
 10
11.71556772899681
 20
9.08253943178537
 30
0.0
 10
11.71705843274131
 20
9.08174254499504
 30
0.0
 10
11.71956892862385
 20
9.08122923907156
 30
0.0
 10
11.72215748022796
 20
9.08106215643728
 30
0.0
 10
11.72534947929769
 20
9.081487764486498
 30
0.0
 10
11.73205326523646
 20
9.08366012925894
 30
0.0
 10
11.73670790525052
 20
9.086271699060816
 30
0.0
 10
11.74043130401274
 20
9.088360779148289
 30
0.0
  0
ARC
  5
322
330
1F
100
AcDbEntity
  8
0
  6
Continuous
 62
     7
370
     0
100
AcDbCircle
 10
11.5048825706
 20
9.093046942
 30
0.0
 40
0.0185546324473179
100
AcDbArc
 50
253.8209181769
 51
280.0219833847
  0
SPLINE
  5
323
330
1F
100
AcDbEntity
  8
0
  6
Continuous
 62
     7
370
     0
100
AcDbSpline
210
0.0
220
0.0
230
1.0
 70
     8
 71
     3
 72
     9
 73
     5
 74
     0
 42
0.00000001
 43
0.00000001
 40
0.0
 40
0.0
 40
0.0
 40
0.0
 40
0.4990303792097243
 40
1.0
 40
1.0
 40
1.0
 40
1.0
 10
11.50811155938873
 20
9.07477543370599
 30
0.0
 10
11.50930543564296
 20
9.075036252984848
 30
0.0
 10
11.51169782757732
 20
9.075558905091262
 30
0.0
 10
11.5136667453415
 20
9.076469635891662
 30
0.0
 10
11.51465311332718
 20
9.076925884355381
 30
0.0
  0
ARC
  5
324
330
1F
100
AcDbEntity
  8
0
  6
Continuous
 62
     7
370
     0
100
AcDbCircle
 10
11.3846212791
 20
8.7011305465
 30
0.0
 40
0.3976561502574195
100
AcDbArc
 50
70.913474791
 51
73.1907107671
  0
SPLINE
  5
325
330
1F
100
AcDbEntity
  8
0
  6
Continuous
 62
     7
370
     0
100
AcDbSpline
210
0.0
220
0.0
230
1.0
 70
     8
 71
     3
 72
    14
 73
    10
 74
     0
 42
0.00000001
 43
0.00000001
 40
0.0
 40
0.0
 40
0.0
 40
0.0
 40
0.2498680581562208
 40
0.3817391960392157
 40
0.4998759012707932
 40
0.6215720652100454
 40
0.7497806842472018
 40
0.8748255772341985
 40
1.0
 40
1.0
 40
1.0
 40
1.0
 10
11.49961826865774
 20
9.081795893307659
 30
0.0
 10
11.4987955030615
 20
9.081182928474501
 30
0.0
 10
11.49753851215376
 20
9.080246463428363
 30
0.0
 10
11.49652938939667
 20
9.078954446001703
 30
0.0
 10
11.4962364002531
 20
9.078005556901934
 30
0.0
 10
11.49649387710508
 20
9.07713972336011
 30
0.0
 10
11.49722187860957
 20
9.076374988480989
 30
0.0
 10
11.49830992520389
 20
9.075723142242188
 30
0.0
 10
11.49924481285069
 20
9.075392542406837
 30
0.0
 10
11.4997124986534
 20
9.075227156919182
 30
0.0
  0
SPLINE
  5
326
330
1F
100
AcDbEntity
  8
0
  6
Continuous
 62
     7
370
     0
100
AcDbSpline
210
0.0
220
0.0
230
1.0
 70
     8
 71
     3
 72
    13
 73
     9
 74
     0
 42
0.00000001
 43
0.00000001
 40
0.0
 40
0.0
 40
0.0
 40
0.0
 40
0.5004639766922837
 40
0.6282475802568614
 40
0.7518824419784826
 40
0.8133314421082903
 40
0.8755414302579406
 40
0.9999999999999999
 40
0.9999999999999999
 40
0.9999999999999999
 40
0.9999999999999999
 10
11.68757034436633
 20
9.11896001681362
 30
0.0
 10
11.69120383098487
 20
9.121111488413405
 30
0.0
 10
11.695765056732
 20
9.123812295843118
 30
0.0
 10
11.69957450708559
 20
9.127641159603382
 30
0.0
 10
11.70035391406755
 20
9.129395824566732
 30
0.0
 10
11.700296229962
 20
9.13076938723056
 30
0.0
 10
11.69967989765149
 20
9.132098688911617
 30
0.0
 10
11.69844581454416
 20
9.132850809199445
 30
0.0
 10
11.69762300742433
 20
9.13335227455791
 30
0.0
  0
ARC
  5
327
330
1F
100
AcDbEntity
  8
0
  6
Continuous
 62
     7
370
     0
100
AcDbCircle
 10
11.6903004159
 20
9.1076504815
 30
0.0
 40
0.0267245676275913
100
AcDbArc
 50
74.0974366443
 51
133.5904969633
  0
SPLINE
  5
328
330
1F
100
AcDbEntity
  8
0
  6
Continuous
 62
     7
370
     0
100
AcDbSpline
210
0.0
220
0.0
230
1.0
 70
     8
 71
     3
 72
    13
 73
     9
 74
     0
 42
0.00000001
 43
0.00000001
 40
0.0
 40
0.0
 40
0.0
 40
0.0
 40
0.5004231501093713
 40
0.6255784393531105
 40
0.7503815851610541
 40
0.8126552223372648
 40
0.8754890600875077
 40
1.0
 40
1.0
 40
1.0
 40
1.0
 10
11.67187384190151
 20
9.127006717839786
 30
0.0
 10
11.66815676178709
 20
9.124811089744837
 30
0.0
 10
11.66351004395154
 20
9.12206633743524
 30
0.0
 10
11.65951156441926
 20
9.118242852768454
 30
0.0
 10
11.65872157909024
 20
9.11648510043528
 30
0.0
 10
11.65886051021983
 20
9.115103217469008
 30
0.0
 10
11.65957674577551
 20
9.113783881111464
 30
0.0
 10
11.66086211597379
 20
9.113028569698422
 30
0.0
 10
11.6617163839898
 20
9.112526583279916
 30
0.0
  0
ARC
  5
329
330
1F
100
AcDbEntity
  8
0
  6
Continuous
 62
     7
370
     0
100
AcDbCircle
 10
11.6690825175
 20
9.1380906061
 30
0.0
 40
0.0266041197664825
100
AcDbArc
 50
253.925952623
 51
314.021117855
  0
SPLINE
  5
32A
330
1F
100
AcDbEntity
  8
0
  6
Continuous
 62
     7
370
     0
100
AcDbSpline
210
0.0
220
0.0
230
1.0
 70
     8
 71
     3
 72
    13
 73
     9
 74
     0
 42
0.00000001
 43
0.00000001
 40
0.0
 40
0.0
 40
0.0
 40
0.0
 40
0.2503907102769282
 40
0.4999495678158224
 40
0.6253606354906225
 40
0.7501944146345451
 40
0.8700210567316548
 40
1.0
 40
1.0
 40
1.0
 40
1.0
 10
11.45518822230014
 20
9.095264144953338
 30
0.0
 10
11.45407489595076
 20
9.094595043107478
 30
0.0
 10
11.45185194196577
 20
9.093259062318525
 30
0.0
 10
11.44989118770405
 20
9.091515866892708
 30
0.0
 10
11.44930203843453
 20
9.090236434554408
 30
0.0
 10
11.44946794536668
 20
9.089411015533994
 30
0.0
 10
11.45025631196792
 20
9.088751444837614
 30
0.0
 10
11.45125552644838
 20
9.088516692258581
 30
0.0
 10
11.45177543813122
 20
9.088394545701659
 30
0.0
  0
ARC
  5
32B
330
1F
100
AcDbEntity
  8
0
  6
Continuous
 62
     7
370
     0
100
AcDbCircle
 10
11.4529776339
 20
9.1140334395
 30
0.0
 40
0.0256670635228619
100
AcDbArc
 50
267.3153938818
 51
306.2040316042
  0
SPLINE
  5
32C
330
1F
100
AcDbEntity
  8
0
  6
Continuous
 62
     7
370
     0
100
AcDbSpline
210
0.0
220
0.0
230
1.0
 70
     8
 71
     3
 72
    13
 73
     9
 74
     0
 42
0.00000001
 43
0.00000001
 40
0.0
 40
0.0
 40
0.0
 40
0.0
 40
0.2504308113692416
 40
0.5001650640269792
 40
0.6247953729388287
 40
0.7514764919520284
 40
0.8754581573911613
 40
1.0
 40
1.0
 40
1.0
 40
1.0
 10
11.46813820450179
 20
9.093322204625222
 30
0.0
 10
11.46922760839808
 20
9.093976992701673
 30
0.0
 10
11.47140338607719
 20
9.095284747599692
 30
0.0
 10
11.47348803829307
 20
9.097013966283749
 30
0.0
 10
11.4742338773626
 20
9.098332842432214
 30
0.0
 10
11.47425283126718
 20
9.099224347214376
 30
0.0
 10
11.4736290984104
 20
9.099954349487597
 30
0.0
 10
11.47265155606208
 20
9.100185444591519
 30
0.0
 10
11.4721616831875
 20
9.100301252590073
 30
0.0
  0
ARC
  5
32D
330
1F
100
AcDbEntity
  8
0
  6
Continuous
 62
     7
370
     0
100
AcDbCircle
 10
11.4711883823
 20
9.0724648155
 30
0.0
 40
0.0278534476442085
100
AcDbArc
 50
87.9974692198
 51
125.0604887383
  0
ARC
  5
32E
330
1F
100
AcDbEntity
  8
0
  6
Continuous
 62
     7
370
     0
100
AcDbCircle
 10
11.4000523604
 20
8.8506781029
 30
0.0
 40
0.2412042288458171
100
AcDbArc
 50
94.7809719545
 51
95.6033149855
  0
ARC
  5
32F
330
1F
100
AcDbEntity
  8
0
  6
Continuous
 62
     7
370
     0
100
AcDbCircle
 10
11.3799820503
 20
9.0572070603
 30
0.0
 40
0.0337029854474373
100
AcDbArc
 50
95.9283225237
 51
120.2268058596
  0
SPLINE
  5
330
330
1F
100
AcDbEntity
  8
0
  6
Continuous
 62
     7
370
     0
100
AcDbSpline
210
0.0
220
0.0
230
1.0
 70
     8
 71
     3
 72
    13
 73
     9
 74
     0
 42
0.00000001
 43
0.00000001
 40
0.0
 40
0.0
 40
0.0
 40
0.0
 40
0.2485126094968049
 40
0.3782641238832082
 40
0.4992248968157911
 40
0.5972187856618135
 40
0.711400371245184
 40
0.9999999999999999
 40
0.9999999999999999
 40
0.9999999999999999
 40
0.9999999999999999
 10
11.36301515041509
 20
9.086327766547196
 30
0.0
 10
11.36213821570384
 20
9.08578325806363
 30
0.0
 10
11.36080342250793
 20
9.084954454950177
 30
0.0
 10
11.35998622700775
 20
9.08409883485593
 30
0.0
 10
11.35984302941852
 20
9.083645348020628
 30
0.0
 10
11.36022319692879
 20
9.08341674052929
 30
0.0
 10
11.36126243986514
 20
9.08328385017347
 30
0.0
 10
11.36254109288068
 20
9.083389316955502
 30
0.0
 10
11.36345726963484
 20
9.083464885708603
 30
0.0
  0
ARC
  5
331
330
1F
100
AcDbEntity
  8
0
  6
Continuous
 62
     7
370
     0
100
AcDbCircle
 10
11.3875419595
 20
8.8437073498
 30
0.0
 40
0.2409642054324071
100
AcDbArc
 50
94.7806767848
 51
95.7363671337
  0
LINE
  5
332
330
1F
100
AcDbEntity
  8
0
  6
Continuous
 62
     7
370
     0
100
AcDbLine
 10
11.3674595766
 20
9.0838332464
 30
0.0
 11
11.3799487354
 21
9.0910430843
 31
0.0
  0
ARC
  5
333
330
1F
100
AcDbEntity
  8
0
  6
Continuous
 62
     7
370
     0
100
AcDbCircle
 10
11.7702254165
 20
8.6478125456
 30
0.0
 40
0.9016033168584513
100
AcDbArc
 50
2.436755
 51
57.5578684673
  0
SPLINE
  5
334
330
1F
100
AcDbEntity
  8
0
  6
Continuous
 62
     7
370
     0
100
AcDbSpline
210
0.0
220
0.0
230
1.0
 70
     8
 71
     3
 72
    13
 73
     9
 74
     0
 42
0.00000001
 43
0.00000001
 40
0.0
 40
0.0
 40
0.0
 40
0.0
 40
0.5004639766923028
 40
0.628247580254695
 40
0.7518824419733023
 40
0.8133314421065472
 40
0.8755414302566471
 40
1.0
 40
1.0
 40
1.0
 40
1.0
 10
11.55895041353678
 20
9.160493428386388
 30
0.0
 10
11.56258706271874
 20
9.162625772801517
 30
0.0
 10
11.56715225852744
 20
9.165302569297301
 30
0.0
 10
11.57106366621508
 20
9.168544155831414
 30
0.0
 10
11.57192586711188
 20
9.169826998615056
 30
0.0
 10
11.57195925655003
 20
9.170689251745333
 30
0.0
 10
11.57145331406626
 20
9.171404270193337
 30
0.0
 10
11.57031850020685
 20
9.17161778874935
 30
0.0
 10
11.56956187942689
 20
9.17176014916824
 30
0.0
  0
ARC
  5
335
330
1F
100
AcDbEntity
  8
0
  6
Continuous
 62
     7
370
     0
100
AcDbCircle
 10
11.5719044456
 20
9.1276681728
 30
0.0
 40
0.0441541617121425
100
AcDbArc
 50
93.0412128351
 51
128.4859623937
  0
SPLINE
  5
336
330
1F
100
AcDbEntity
  8
0
  6
Continuous
 62
     7
370
     0
100
AcDbSpline
210
0.0
220
0.0
230
1.0
 70
     8
 71
     3
 72
    13
 73
     9
 74
     0
 42
0.00000001
 43
0.00000001
 40
0.0
 40
0.0
 40
0.0
 40
0.0
 40
0.5004231501093273
 40
0.6255784393530528
 40
0.7503815851609895
 40
0.8126552223369288
 40
0.8754890600875185
 40
1.0
 40
1.0
 40
1.0
 40
1.0
 10
11.54442630069938
 20
9.162230313165672
 30
0.0
 10
11.54070529468611
 20
9.160053781263054
 30
0.0
 10
11.53605366908866
 20
9.15733290108286
 30
0.0
 10
11.53194189827874
 20
9.154081672127457
 30
0.0
 10
11.53105580674582
 20
9.152813806672595
 30
0.0
 10
11.53108890352861
 20
9.151979171850611
 30
0.0
 10
11.53168122174963
 20
9.15130626649794
 30
0.0
 10
11.53286310880169
 20
9.151104442930126
 30
0.0
 10
11.53364860103456
 20
9.150970309262572
 30
0.0
  0
ARC
  5
337
330
1F
100
AcDbEntity
  8
0
  6
Continuous
 62
     7
370
     0
100
AcDbCircle
 10
11.5316905359
 20
9.1945461952
 30
0.0
 40
0.0436198562000068
100
AcDbArc
 50
272.5728323675
 51
308.6779262011
  0
SPLINE
  5
338
330
1F
100
AcDbEntity
  8
0
  6
Continuous
 62
     7
370
     0
100
AcDbSpline
210
0.0
220
0.0
230
1.0
 70
     8
 71
     3
 72
     9
 73
     5
 74
     0
 42
0.00000001
 43
0.00000001
 40
0.0
 40
0.0
 40
0.0
 40
0.0
 40
0.4999994377870572
 40
1.0
 40
1.0
 40
1.0
 40
1.0
 10
11.33947078409489
 20
9.087916245478139
 30
0.0
 10
11.34064525601512
 20
9.088396882449592
 30
0.0
 10
11.3429942024968
 20
9.089358157473383
 30
0.0
 10
11.34524874246212
 20
9.090215888969796
 30
0.0
 10
11.34637601371231
 20
9.09064475520023
 30
0.0
  0
SPLINE
  5
339
330
1F
100
AcDbEntity
  8
0
  6
Continuous
 62
     7
370
     0
100
AcDbSpline
210
0.0
220
0.0
230
1.0
 70
    24
 71
     1
 72
     4
 73
     2
 74
     0
 42
0.00000001
 43
0.00000001
 40
0.0
 40
0.0
 40
1.0
 40
1.0
 10
11.34637601371231
 20
9.09064475520023
 30
0.0
 10
11.35318399647363
 20
9.09329995780523
 30
0.0
  0
ARC
  5
33A
330
1F
100
AcDbEntity
  8
0
  6
Continuous
 62
     7
370
     0
100
AcDbCircle
 10
11.3401483517
 20
9.1241546663
 30
0.0
 40
0.0334953887756913
100
AcDbArc
 50
292.9033179453
 51
299.4088355546
  0
SPLINE
  5
33B
330
1F
100
AcDbEntity
  8
0
  6
Continuous
 62
     7
370
     0
100
AcDbSpline
210
0.0
220
0.0
230
1.0
 70
     8
 71
     3
 72
    13
 73
     9
 74
     0
 42
0.00000001
 43
0.00000001
 40
0.0
 40
0.0
 40
0.0
 40
0.0
 40
0.1250915069580967
 40
0.2499455687837204
 40
0.3709820857056779
 40
0.5001127109823402
 40
0.7496528854790527
 40
1.0
 40
1.0
 40
1.0
 40
1.0
 10
11.35659586366314
 20
9.094975556974537
 30
0.0
 10
11.3568667586148
 20
9.09513634718267
 30
0.0
 10
11.35740803431303
 20
9.095457622391548
 30
0.0
 10
11.35789003849991
 20
9.095820937312585
 30
0.0
 10
11.35809109589096
 20
9.096064661570395
 30
0.0
 10
11.35800385270414
 20
9.096224673659721
 30
0.0
 10
11.35732542213766
 20
9.096141048061384
 30
0.0
 10
11.35646181045417
 20
9.095883706134124
 30
0.0
 10
11.35602930757246
 20
9.095754827464171
 30
0.0
  0
ARC
  5
33C
330
1F
100
AcDbEntity
  8
0
  6
Continuous
 62
     7
370
     0
100
AcDbCircle
 10
11.3814495039
 20
9.0211959155
 30
0.0
 40
0.0787732044113345
100
AcDbArc
 50
108.8263522369
 51
120.4523627038
  0
LINE
  5
33D
330
1F
100
AcDbEntity
  8
0
  6
Continuous
 62
     7
370
     0
100
AcDbLine
 10
11.3415255262
 20
9.0891024228
 30
0.0
 11
11.3394707841
 21
9.0879162455
 31
0.0
  0
SPLINE
  5
33E
330
1F
100
AcDbEntity
  8
0
  6
Continuous
 62
     7
370
     0
100
AcDbSpline
210
0.0
220
0.0
230
1.0
 70
     8
 71
     3
 72
    13
 73
     9
 74
     0
 42
0.00000001
 43
0.00000001
 40
0.0
 40
0.0
 40
0.0
 40
0.0
 40
0.5004639766923531
 40
0.6282475802605864
 40
0.7518824419756865
 40
0.8133314421053984
 40
0.875541430255812
 40
1.0
 40
1.0
 40
1.0
 40
1.0
 10
11.51101234231678
 20
9.162443793322371
 30
0.0
 10
11.5146515323988
 20
9.164568208627692
 30
0.0
 10
11.51921991787631
 20
9.167235051471922
 30
0.0
 10
11.52321103228118
 20
9.170233792960632
 30
0.0
 10
11.52413757692164
 20
9.1713216429655
 30
0.0
 10
11.52424116564725
 20
9.171972753488738
 30
0.0
 10
11.52381989966638
 20
9.172434229111095
 30
0.0
 10
11.5227601939103
 20
9.172425753014458
 30
0.0
 10
11.52205365037538
 20
9.172420101699228
 30
0.0
  0
ARC
  5
33F
330
1F
100
AcDbEntity
  8
0
  6
Continuous
 62
     7
370
     0
100
AcDbCircle
 10
11.5345920966
 20
9.1103454037
 30
0.0
 40
0.0633283567593411
100
AcDbArc
 50
101.4195041335
 51
125.9968705129
  0
SPLINE
  5
340
330
1F
100
AcDbEntity
  8
0
  6
Continuous
 62
     7
370
     0
100
AcDbSpline
210
0.0
220
0.0
230
1.0
 70
     8
 71
     3
 72
    13
 73
     9
 74
     0
 42
0.00000001
 43
0.00000001
 40
0.0
 40
0.0
 40
0.0
 40
0.0
 40
0.5004231501094113
 40
0.6255784393531612
 40
0.7503815851611177
 40
0.8126552223380314
 40
0.8754890600875003
 40
0.9999999999999999
 40
0.9999999999999999
 40
0.9999999999999999
 40
0.9999999999999999
 10
11.49737142087924
 20
9.161581153573001
 30
0.0
 10
11.4936476103386
 20
9.159412441571414
 30
0.0
 10
11.48899247880451
 20
9.156701337041051
 30
0.0
 10
11.48479818246461
 20
9.15368499334757
 30
0.0
 10
11.48384174988666
 20
9.152618314577644
 30
0.0
 10
11.48379680067291
 20
9.152008614787558
 30
0.0
 10
11.48429731058168
 20
9.15160154925832
 30
0.0
 10
11.48540150139914
 20
9.15162767156769
 30
0.0
 10
11.48613535605065
 20
9.151645032677687
 30
0.0
  0
ARC
  5
341
330
1F
100
AcDbEntity
  8
0
  6
Continuous
 62
     7
370
     0
100
AcDbCircle
 10
11.4745069566
 20
9.212487049
 30
0.0
 40
0.0619432855314406
100
AcDbArc
 50
280.8201380202
 51
306.109877211
  0
ARC
  5
342
330
1F
100
AcDbEntity
  8
0
  6
Continuous
 62
     7
370
     0
100
AcDbCircle
 10
11.653869017
 20
8.3343862759
 30
0.0
 40
0.2986228322596819
100
AcDbArc
 50
231.2545182106
 51
280.3824492428
  0
SPLINE
  5
343
330
1F
100
AcDbEntity
  8
0
  6
Continuous
 62
     7
370
     0
100
AcDbSpline
210
0.0
220
0.0
230
1.0
 70
    24
 71
     1
 72
     4
 73
     2
 74
     0
 42
0.00000001
 43
0.00000001
 40
0.0
 40
0.0
 40
1.0
 40
1.0
 10
11.46892831812564
 20
8.098366205821696
 30
0.0
 10
11.46697234276574
 20
8.101480223777068
 30
0.0
  0
LWPOLYLINE
  5
344
330
1F
100
AcDbEntity
  8
0
  6
Continuous
 62
     7
370
     0
100
AcDbPolyline
 90
       13
 70
   128
 43
0.0
 10
11.4705953214
 20
8.1401533228
 10
11.4980354415
 20
8.1229670554
 10
11.5254738174
 20
8.1085192661
 10
11.5527060319
 20
8.0969175914
 10
11.5795292036
 20
8.0882484644
 10
11.6057434984
 20
8.0825764707
 10
11.6311536187
 20
8.0799438668
 10
11.6555702576
 20
8.0803702658
 10
11.6788115099
 20
8.083852491
 10
11.7007042273
 20
8.0903645996
 10
11.7210853077
 20
8.0998580761
 10
11.7398029111
 20
8.1122621936
 10
11.7470478253
 20
8.1182424642
  0
LINE
  5
345
330
1F
100
AcDbEntity
  8
0
  6
Continuous
 62
     7
370
     0
100
AcDbLine
 10
11.4669723428
 20
8.1014802238
 30
0.0
 11
11.4705953214
 21
8.1401533228
 31
0.0
  0
LINE
  5
346
330
1F
100
AcDbEntity
  8
0
  6
Continuous
 62
     7
370
     0
100
AcDbLine
 10
11.4705953214
 20
8.1401533228
 30
0.0
 11
11.4882729909
 21
8.1503584242
 31
0.0
  0
ARC
  5
347
330
1F
100
AcDbEntity
  8
0
  6
Continuous
 62
     7
370
     0
100
AcDbCircle
 10
11.7630781138
 20
8.5565588851
 30
0.0
 40
0.4904249891800377
100
AcDbArc
 50
234.4188703844
 51
235.9206315068
  0
LINE
  5
348
330
1F
100
AcDbEntity
  8
0
  6
Continuous
 62
     7
370
     0
100
AcDbLine
 10
11.4600441418
 20
8.1474948479
 30
0.0
 11
11.4777218113
 21
8.1576999493
 31
0.0
  0
LWPOLYLINE
  5
349
330
1F
100
AcDbEntity
  8
0
  6
Continuous
 62
     7
370
     0
100
AcDbPolyline
 90
       29
 70
   128
 43
0.0
 10
11.3000384427
 20
8.8925693262
 10
11.2948984379
 20
8.8907263394
 10
11.2745173575
 20
8.8812328629
 10
11.2557997541
 20
8.8688287454
 10
11.2388850748
 20
8.8536063982
 10
11.2238993348
 20
8.8356792286
 10
11.2109541787
 20
8.8151807948
 10
11.2001460485
 20
8.7922638114
 10
11.1915554653
 20
8.7670990108
 10
11.1852464295
 20
8.7398738723
 10
11.1812659436
 20
8.7107912245
 10
11.1796436626
 20
8.6800677346
 10
11.1803916724
 20
8.6479322941
 10
11.1835044003
 20
8.6146243138
 10
11.1889586565
 20
8.5803919398
 10
11.1967138063
 20
8.5454902049
 10
11.2067120735
 20
8.510179129
 10
11.2188789706
 20
8.4747217813
 10
11.2331238535
 20
8.4393823209
 10
11.2493405971
 20
8.4044240286
 10
11.2674083859
 20
8.3701073454
 10
11.2871926138
 20
8.3366879324
 10
11.3085458875
 20
8.3044147658
 10
11.3313091238
 20
8.2735282825
 10
11.3553127357
 20
8.2442585883
 10
11.3803778948
 20
8.216823744
 10
11.4063178645
 20
8.1914281404
 10
11.4329393908
 20
8.1682609762
 10
11.4600441418
 20
8.1474948479
  0
LWPOLYLINE
  5
34A
330
1F
100
AcDbEntity
  8
0
  6
Continuous
 62
     7
370
     0
100
AcDbPolyline
 90
       35
 70
   128
 43
0.0
 10
11.3014606416
 20
8.8921858753
 10
11.2964852437
 20
8.8873249879
 10
11.2812206119
 20
8.8693633812
 10
11.268034811
 20
8.8487672759
 10
11.2570281928
 20
8.8256934207
 10
11.2482845243
 20
8.8003174215
 10
11.2418703502
 20
8.7728324051
 10
11.2378344861
 20
8.743447549
 10
11.2362076475
 20
8.7123864897
 10
11.2370022156
 20
8.6798856207
 10
11.2402121431
 20
8.6461922931
 10
11.2458130008
 20
8.6115629336
 10
11.2537621625
 20
8.5762610924
 10
11.2639991304
 20
8.5405554379
 10
11.2764459951
 20
8.5047177118
 10
11.2910080282
 20
8.4690206606
 10
11.3075744041
 20
8.4337359606
 10
11.3260190425
 20
8.3991321496
 10
11.3462015686
 20
8.3654725835
 10
11.3679683813
 20
8.333013432
 10
11.3911538218
 20
8.3020017287
 10
11.4155814351
 20
8.2726734915
 10
11.4410653122
 20
8.2452519259
 10
11.4674115054
 20
8.2199457267
 10
11.4944195044
 20
8.1969474892
 10
11.5218837618
 20
8.1764322441
 10
11.5495952582
 20
8.1585561245
 10
11.5773430923
 20
8.1434551787
 10
11.6049160864
 20
8.1312443339
 10
11.6321043933
 20
8.1220165221
 10
11.6587010935
 20
8.1158419724
 10
11.6845037702
 20
8.112767677
 10
11.7093160493
 20
8.112817033
 10
11.7329490946
 20
8.1159896648
 10
11.7474269801
 20
8.1196658145
  0
LWPOLYLINE
  5
34B
330
1F
100
AcDbEntity
  8
0
  6
Continuous
 62
     7
370
     0
100
AcDbPolyline
 90
       27
 70
   128
 43
0.0
 10
11.2131635109
 20
8.8972840881
 10
11.2046198772
 20
8.8882355537
 10
11.1894216333
 20
8.868552522
 10
11.1762899306
 20
8.8463363561
 10
11.1653127685
 20
8.8217359328
 10
11.156563708
 20
8.7949161069
 10
11.1501013793
 20
8.7660566056
 10
11.1459690881
 20
8.7353508247
 10
11.1441945262
 20
8.7030045326
 10
11.1447895854
 20
8.6692344911
 10
11.1477502781
 20
8.634267003
 10
11.1530567638
 20
8.5983363954
 10
11.1606734822
 20
8.5616834498
 10
11.1705493914
 20
8.5245537881
 10
11.1826183103
 20
8.4871962268
 10
11.1967993614
 20
8.4498611098
 10
11.2129975135
 20
8.4127986304
 10
11.2311042181
 20
8.376257155
 10
11.2509981369
 20
8.3404815585
 10
11.272545955
 20
8.3057115835
 10
11.2956032743
 20
8.2721802337
 10
11.3200155811
 20
8.2401122122
 10
11.3456192815
 20
8.2097224162
 10
11.3722427976
 20
8.1812144964
 10
11.3997077177
 20
8.1547794926
 10
11.4278299914
 20
8.1305945533
 10
11.4564211631
 20
8.1088217489
  0
SPLINE
  5
34C
330
1F
100
AcDbEntity
  8
0
  6
Continuous
 62
     7
370
     0
100
AcDbSpline
210
0.0
220
0.0
230
1.0
 70
    24
 71
     1
 72
     4
 73
     2
 74
     0
 42
0.00000001
 43
0.00000001
 40
0.0
 40
0.0
 40
1.0
 40
1.0
 10
11.45642116313467
 20
8.108821748943528
 30
0.0
 10
11.45837713849435
 20
8.10570773098802
 30
0.0
  0
LINE
  5
34D
330
1F
100
AcDbEntity
  8
0
  6
Continuous
 62
     7
370
     0
100
AcDbLine
 10
11.4564211631
 20
8.1088217489
 30
0.0
 11
11.4600441418
 21
8.1474948479
 31
0.0
  0
LINE
  5
34E
330
1F
100
AcDbEntity
  8
0
  6
Continuous
 62
     7
370
     0
100
AcDbLine
 10
11.4763914705
 20
8.1434993684
 30
0.0
 11
11.4777218113
 21
8.1576999493
 31
0.0
  0
SPLINE
  5
34F
330
1F
100
AcDbEntity
  8
0
  6
Continuous
 62
     7
370
     0
100
AcDbSpline
210
0.0
220
0.0
230
1.0
 70
    24
 71
     1
 72
     4
 73
     2
 74
     0
 42
0.00000001
 43
0.00000001
 40
0.0
 40
0.0
 40
1.0
 40
1.0
 10
11.76565277771567
 20
7.952374233804271
 30
0.0
 10
11.76504176641511
 20
7.952052455231835
 30
0.0
  0
SPLINE
  5
350
330
1F
100
AcDbEntity
  8
0
  6
Continuous
 62
     7
370
     0
100
AcDbSpline
210
0.0
220
0.0
230
1.0
 70
    24
 71
     1
 72
     4
 73
     2
 74
     0
 42
0.00000001
 43
0.00000001
 40
0.0
 40
0.0
 40
1.0
 40
1.0
 10
11.76212880528628
 20
7.95034259269694
 30
0.0
 10
11.76565277771567
 20
7.952374233804271
 30
0.0
  0
SPLINE
  5
351
330
1F
100
AcDbEntity
  8
0
  6
Continuous
 62
     7
370
     0
100
AcDbSpline
210
0.0
220
0.0
230
1.0
 70
    24
 71
     1
 72
     4
 73
     2
 74
     0
 42
0.00000001
 43
0.00000001
 40
0.0
 40
0.0
 40
1.0
 40
1.0
 10
11.78678662029018
 20
7.964579094582734
 30
0.0
 10
11.7905496910934
 20
7.966748441516949
 30
0.0
  0
SPLINE
  5
352
330
1F
100
AcDbEntity
  8
0
  6
Continuous
 62
     7
370
     0
100
AcDbSpline
210
0.0
220
0.0
230
1.0
 70
    24
 71
     1
 72
     4
 73
     2
 74
     0
 42
0.00000001
 43
0.00000001
 40
0.0
 40
0.0
 40
1.0
 40
1.0
 10
11.78477514504693
 20
7.963461549675694
 30
0.0
 10
11.78678662029018
 20
7.964579094582734
 30
0.0
  0
LWPOLYLINE
  5
353
330
1F
100
AcDbEntity
  8
0
  6
Continuous
 62
     7
370
     0
100
AcDbPolyline
 90
        3
 70
   128
 43
0.0
 10
11.4417893401
 20
9.1510119912
 10
11.4421444686
 20
9.1512165178
 10
11.4435129183
 20
9.1519956247
  0
SPLINE
  5
354
330
1F
100
AcDbEntity
  8
0
  6
Continuous
 62
     7
370
     0
100
AcDbSpline
210
0.0
220
0.0
230
1.0
 70
    24
 71
     1
 72
     4
 73
     2
 74
     0
 42
0.00000001
 43
0.00000001
 40
0.0
 40
0.0
 40
1.0
 40
1.0
 10
11.40055363814362
 20
9.127205555686034
 30
0.0
 10
11.39999155898247
 20
9.126877587930839
 30
0.0
  0
ARC
  5
355
330
1F
100
AcDbEntity
  8
0
  6
Continuous
 62
     7
370
     0
100
AcDbCircle
 10
11.8229659213
 20
8.2164919198
 30
0.0
 40
0.2000871532600572
100
AcDbArc
 50
299.9974347344
 51
302.0061004024
  0
ARC
  5
356
330
1F
100
AcDbEntity
  8
0
  6
Continuous
 62
     7
370
     0
100
AcDbCircle
 10
11.7656605632
 20
8.1834150805
 30
0.0
 40
0.2000913447719752
100
AcDbArc
 50
299.9974557753
 51
302.0060793615
  0
LINE
  5
357
330
1F
100
AcDbEntity
  8
0
  6
Continuous
 62
     7
370
     0
100
AcDbLine
 10
11.400199158
 20
5.2215628966
 30
0.0
 11
5.6274619986
 21
5.2215628966
 31
0.0
  0
LINE
  5
358
330
1F
100
AcDbEntity
  8
0
  6
Continuous
 62
     7
370
     0
100
AcDbLine
 10
5.6274619986
 20
5.2215628966
 30
0.0
 11
11.4058000995
 21
5.5167883859
 31
0.0
  0
LINE
  5
359
330
1F
100
AcDbEntity
  8
0
  6
Continuous
 62
     7
370
     0
100
AcDbLine
 10
5.6274619986
 20
5.2215628966
 30
0.0
 11
11.4053710062
 21
4.9378675571
 31
0.0
  0
LINE
  5
35A
330
1F
100
AcDbEntity
  8
0
  6
Continuous
 62
     7
370
     0
100
AcDbLine
 10
12.1995400817
 20
5.2215628966
 30
0.0
 11
14.96317066
 21
5.2215628966
 31
0.0
  0
LINE
  5
35B
330
1F
100
AcDbEntity
  8
0
  6
Continuous
 62
     7
370
     0
100
AcDbLine
 10
14.96317066
 20
5.2215628966
 30
0.0
 11
12.1879363792
 21
5.5167883859
 31
0.0
  0
LINE
  5
35C
330
1F
100
AcDbEntity
  8
0
  6
Continuous
 62
     7
370
     0
100
AcDbLine
 10
14.96317066
 20
5.2215628966
 30
0.0
 11
12.1888263237
 21
4.9378675571
 31
0.0
  0
LINE
  5
35D
330
1F
100
AcDbEntity
  8
0
  6
Continuous
 62
     7
370
     0
100
AcDbLine
 10
12.1995400817
 20
5.2215628966
 30
0.0
 11
11.400199158
 21
5.2215628966
 31
0.0
  0
LINE
  5
35E
330
1F
100
AcDbEntity
  8
0
  6
Continuous
 62
     7
370
     0
100
AcDbLine
 10
11.4162754467
 20
4.7215628966
 30
0.0
 11
11.5348686443
 21
4.7215628966
 31
0.0
  0
LINE
  5
35F
330
1F
100
AcDbEntity
  8
0
  6
Continuous
 62
     7
370
     0
100
AcDbLine
 10
11.5348686443
 20
5.7215628966
 30
0.0
 11
11.4162754467
 21
5.7215628966
 31
0.0
  0
ARC
  5
360
330
1F
100
AcDbEntity
  8
0
  6
Continuous
 62
     7
370
     0
100
AcDbCircle
 10
19.1836637249
 20
5.2215628966
 30
0.0
 40
7.783464566929134
100
AcDbArc
 50
176.3168548748
 51
183.6831451252
  0
ARC
  5
361
330
1F
100
AcDbEntity
  8
0
  6
Continuous
 62
     7
370
     0
100
AcDbCircle
 10
8.1041361659
 20
5.2215628966
 30
0.0
 40
3.607086614173249
100
AcDbArc
 50
352.0322306394
 51
0.0
  0
ARC
  5
362
330
1F
100
AcDbEntity
  8
0
  6
Continuous
 62
     7
370
     0
100
AcDbCircle
 10
8.1041361659
 20
5.2215628966
 30
0.0
 40
3.607086614173249
100
AcDbArc
 50
0.0
 51
7.9677693606
  0
LINE
  5
363
330
1F
100
AcDbEntity
  8
0
  6
Continuous
 62
     7
370
     0
100
AcDbLine
 10
11.5348686443
 20
4.7215628966
 30
0.0
 11
11.6764006917
 21
4.7215628966
 31
0.0
  0
LINE
  5
364
330
1F
100
AcDbEntity
  8
0
  6
Continuous
 62
     7
370
     0
100
AcDbLine
 10
11.6764006917
 20
5.7215628966
 30
0.0
 11
11.5348686443
 21
5.7215628966
 31
0.0
  0
LINE
  5
365
330
1F
100
AcDbEntity
  8
0
  6
Continuous
 62
     7
370
     0
100
AcDbLine
 10
11.895064852
 20
4.7215628966
 30
0.0
 11
12.0039487392
 21
4.7215628966
 31
0.0
  0
LINE
  5
366
330
1F
100
AcDbEntity
  8
0
  6
Continuous
 62
     7
370
     0
100
AcDbLine
 10
12.0039487392
 20
5.7215628966
 30
0.0
 11
11.895064852
 21
5.7215628966
 31
0.0
  0
ARC
  5
367
330
1F
100
AcDbEntity
  8
0
  6
Continuous
 62
     7
370
     0
100
AcDbCircle
 10
13.6578077983
 20
5.2215628966
 30
0.0
 40
1.832283464566931
100
AcDbArc
 50
164.16407335
 51
195.83592665
  0
ARC
  5
368
330
1F
100
AcDbEntity
  8
0
  6
Continuous
 62
     7
370
     0
100
AcDbCircle
 10
8.4381227589
 20
5.2215628966
 30
0.0
 40
3.761417322834653
100
AcDbArc
 50
352.3611411862
 51
0.0
  0
ARC
  5
369
330
1F
100
AcDbEntity
  8
0
  6
Continuous
 62
     7
370
     0
100
AcDbCircle
 10
8.4381227589
 20
5.2215628966
 30
0.0
 40
3.761417322834653
100
AcDbArc
 50
0.0
 51
7.6388588138
  0
LINE
  5
36A
330
1F
100
AcDbEntity
  8
0
  6
Continuous
 62
     7
370
     0
100
AcDbLine
 10
12.0039487392
 20
4.7215628966
 30
0.0
 11
12.166159813
 21
4.7215628966
 31
0.0
  0
LINE
  5
36B
330
1F
100
AcDbEntity
  8
0
  6
Continuous
 62
     7
370
     0
100
AcDbLine
 10
12.166159813
 20
5.7215628966
 30
0.0
 11
12.0039487392
 21
5.7215628966
 31
0.0
  0
LINE
  5
36C
330
1F
100
AcDbEntity
  8
0
  6
Continuous
 62
     7
370
     0
100
AcDbLine
 10
11.4162754467
 20
5.2215628966
 30
0.0
 11
11.4162754467
 21
5.7215628966
 31
0.0
  0
LINE
  5
36D
330
1F
100
AcDbEntity
  8
0
  6
Continuous
 62
     7
370
     0
100
AcDbLine
 10
11.4162754467
 20
4.7215628966
 30
0.0
 11
11.4162754467
 21
5.2215628966
 31
0.0
  0
LINE
  5
36E
330
1F
100
AcDbEntity
  8
0
  6
Continuous
 62
     7
370
     0
100
AcDbLine
 10
11.5348686443
 20
5.2215628966
 30
0.0
 11
11.5348686443
 21
5.7215628966
 31
0.0
  0
LINE
  5
36F
330
1F
100
AcDbEntity
  8
0
  6
Continuous
 62
     7
370
     0
100
AcDbLine
 10
11.5348686443
 20
4.7215628966
 30
0.0
 11
11.5348686443
 21
5.2215628966
 31
0.0
  0
LINE
  5
370
330
1F
100
AcDbEntity
  8
0
  6
Continuous
 62
     7
370
     0
100
AcDbLine
 10
11.6764006917
 20
5.2215628966
 30
0.0
 11
11.6764006917
 21
5.7215628966
 31
0.0
  0
LINE
  5
371
330
1F
100
AcDbEntity
  8
0
  6
Continuous
 62
     7
370
     0
100
AcDbLine
 10
11.6764006917
 20
4.7215628966
 30
0.0
 11
11.6764006917
 21
5.2215628966
 31
0.0
  0
LINE
  5
372
330
1F
100
AcDbEntity
  8
0
  6
Continuous
 62
     7
370
     0
100
AcDbLine
 10
11.5348686443
 20
5.2215628966
 30
0.0
 11
11.5348686443
 21
5.7215628966
 31
0.0
  0
LINE
  5
373
330
1F
100
AcDbEntity
  8
0
  6
Continuous
 62
     7
370
     0
100
AcDbLine
 10
11.5348686443
 20
4.7215628966
 30
0.0
 11
11.5348686443
 21
5.2215628966
 31
0.0
  0
LINE
  5
374
330
1F
100
AcDbEntity
  8
0
  6
Continuous
 62
     7
370
     0
100
AcDbLine
 10
11.895064852
 20
5.2215628966
 30
0.0
 11
11.895064852
 21
5.7215628966
 31
0.0
  0
LINE
  5
375
330
1F
100
AcDbEntity
  8
0
  6
Continuous
 62
     7
370
     0
100
AcDbLine
 10
11.895064852
 20
4.7215628966
 30
0.0
 11
11.895064852
 21
5.2215628966
 31
0.0
  0
LINE
  5
376
330
1F
100
AcDbEntity
  8
0
  6
Continuous
 62
     7
370
     0
100
AcDbLine
 10
12.0039487392
 20
5.2215628966
 30
0.0
 11
12.0039487392
 21
5.7215628966
 31
0.0
  0
LINE
  5
377
330
1F
100
AcDbEntity
  8
0
  6
Continuous
 62
     7
370
     0
100
AcDbLine
 10
12.0039487392
 20
4.7215628966
 30
0.0
 11
12.0039487392
 21
5.2215628966
 31
0.0
  0
LINE
  5
378
330
1F
100
AcDbEntity
  8
0
  6
Continuous
 62
     7
370
     0
100
AcDbLine
 10
12.166159813
 20
5.2215628966
 30
0.0
 11
12.166159813
 21
5.7215628966
 31
0.0
  0
LINE
  5
379
330
1F
100
AcDbEntity
  8
0
  6
Continuous
 62
     7
370
     0
100
AcDbLine
 10
12.166159813
 20
4.7215628966
 30
0.0
 11
12.166159813
 21
5.2215628966
 31
0.0
  0
LINE
  5
37A
330
1F
100
AcDbEntity
  8
0
  6
Continuous
 62
     7
370
     0
100
AcDbLine
 10
12.0039487392
 20
5.2215628966
 30
0.0
 11
12.0039487392
 21
5.7215628966
 31
0.0
  0
LINE
  5
37B
330
1F
100
AcDbEntity
  8
0
  6
Continuous
 62
     7
370
     0
100
AcDbLine
 10
12.0039487392
 20
4.7215628966
 30
0.0
 11
12.0039487392
 21
5.2215628966
 31
0.0
  0
LINE
  5
37C
330
1F
100
AcDbEntity
  8
0
  6
Continuous
 62
     7
370
     0
100
AcDbLine
 10
12.1881773719
 20
4.7040628966
 30
0.0
 11
12.2408568639
 21
4.7040628966
 31
0.0
  0
LINE
  5
37D
330
1F
100
AcDbEntity
  8
0
  6
Continuous
 62
     7
370
     0
100
AcDbLine
 10
12.2408568639
 20
5.7390628966
 30
0.0
 11
12.1881773719
 21
5.7390628966
 31
0.0
  0
LINE
  5
37E
330
1F
100
AcDbEntity
  8
0
  6
Continuous
 62
     7
370
     0
100
AcDbLine
 10
12.1708568639
 20
5.7290628966
 30
0.0
 11
12.1881773719
 21
5.7390628966
 31
0.0
  0
LINE
  5
37F
330
1F
100
AcDbEntity
  8
0
  6
Continuous
 62
     7
370
     0
100
AcDbLine
 10
12.1881773719
 20
4.7040628966
 30
0.0
 11
12.1708568639
 21
4.7140628966
 31
0.0
  0
LINE
  5
380
330
1F
100
AcDbEntity
  8
0
  6
Continuous
 62
     7
370
     0
100
AcDbLine
 10
12.2508568639
 20
4.7805518239
 30
0.0
 11
12.2258568639
 21
4.7805518239
 31
0.0
  0
LINE
  5
381
330
1F
100
AcDbEntity
  8
0
  6
Continuous
 62
     7
370
     0
100
AcDbLine
 10
12.2258568639
 20
4.7778141003
 30
0.0
 11
12.2258568639
 21
4.7805518239
 31
0.0
  0
LINE
  5
382
330
1F
100
AcDbEntity
  8
0
  6
Continuous
 62
     7
370
     0
100
AcDbLine
 10
12.2508568639
 20
4.7778141003
 30
0.0
 11
12.2258568639
 21
4.7778141003
 31
0.0
  0
LINE
  5
383
330
1F
100
AcDbEntity
  8
0
  6
Continuous
 62
     7
370
     0
100
AcDbLine
 10
12.2508568639
 20
4.7715628966
 30
0.0
 11
12.2508568639
 21
4.7778141003
 31
0.0
  0
LINE
  5
384
330
1F
100
AcDbEntity
  8
0
  6
Continuous
 62
     7
370
     0
100
AcDbLine
 10
12.1725250238
 20
4.7715628966
 30
0.0
 11
12.2508568639
 21
4.7715628966
 31
0.0
  0
LINE
  5
385
330
1F
100
AcDbEntity
  8
0
  6
Continuous
 62
     7
370
     0
100
AcDbLine
 10
12.2508568639
 20
5.6715628966
 30
0.0
 11
12.1725250238
 21
5.6715628966
 31
0.0
  0
LINE
  5
386
330
1F
100
AcDbEntity
  8
0
  6
Continuous
 62
     7
370
     0
100
AcDbLine
 10
12.2508568639
 20
4.7805518239
 30
0.0
 11
12.2508568639
 21
5.6715628966
 31
0.0
  0
LINE
  5
387
330
1F
100
AcDbEntity
  8
0
  6
Continuous
 62
     7
370
     0
100
AcDbLine
 10
12.2408568639
 20
5.7390628966
 30
0.0
 11
12.2508568639
 21
5.7217423885
 31
0.0
  0
LINE
  5
388
330
1F
100
AcDbEntity
  8
0
  6
Continuous
 62
     7
370
     0
100
AcDbLine
 10
12.2508568639
 20
5.7217423885
 30
0.0
 11
12.2508568639
 21
5.6715628966
 31
0.0
  0
LINE
  5
389
330
1F
100
AcDbEntity
  8
0
  6
Continuous
 62
     7
370
     0
100
AcDbLine
 10
12.1708568639
 20
5.7290628966
 30
0.0
 11
12.1708568639
 21
5.6851967803
 31
0.0
  0
LINE
  5
38A
330
1F
100
AcDbEntity
  8
0
  6
Continuous
 62
     7
370
     0
100
AcDbLine
 10
12.2508568639
 20
4.7715628966
 30
0.0
 11
12.2508568639
 21
4.7213834047
 31
0.0
  0
LINE
  5
38B
330
1F
100
AcDbEntity
  8
0
  6
Continuous
 62
     7
370
     0
100
AcDbLine
 10
12.2508568639
 20
4.7213834047
 30
0.0
 11
12.2408568639
 21
4.7040628966
 31
0.0
  0
LINE
  5
38C
330
1F
100
AcDbEntity
  8
0
  6
Continuous
 62
     7
370
     0
100
AcDbLine
 10
12.1708568639
 20
4.7579290129
 30
0.0
 11
12.1708568639
 21
4.7140628966
 31
0.0
  0
LINE
  5
38D
330
1F
100
AcDbEntity
  8
0
  6
Continuous
 62
     7
370
     0
100
AcDbLine
 10
12.2508568639
 20
4.7778141003
 30
0.0
 11
12.2508568639
 21
4.7805518239
 31
0.0
  0
LINE
  5
38E
330
1F
100
AcDbEntity
  8
0
  6
Continuous
 62
     7
370
     0
100
AcDbLine
 10
11.4130532634
 20
4.7140628966
 30
0.0
 11
11.3957327553
 21
4.7040628966
 31
0.0
  0
LINE
  5
38F
330
1F
100
AcDbEntity
  8
0
  6
Continuous
 62
     7
370
     0
100
AcDbLine
 10
11.3957327553
 20
5.7390628966
 30
0.0
 11
11.4130532634
 21
5.7290628966
 31
0.0
  0
LINE
  5
390
330
1F
100
AcDbEntity
  8
0
  6
Continuous
 62
     7
370
     0
100
AcDbLine
 10
11.3957327553
 20
5.7390628966
 30
0.0
 11
11.3430532634
 21
5.7390628966
 31
0.0
  0
LINE
  5
391
330
1F
100
AcDbEntity
  8
0
  6
Continuous
 62
     7
370
     0
100
AcDbLine
 10
11.3430532634
 20
4.7040628966
 30
0.0
 11
11.3957327553
 21
4.7040628966
 31
0.0
  0
LINE
  5
392
330
1F
100
AcDbEntity
  8
0
  6
Continuous
 62
     7
370
     0
100
AcDbLine
 10
11.3330532634
 20
4.7732107293
 30
0.0
 11
11.3580532634
 21
4.7732107293
 31
0.0
  0
LINE
  5
393
330
1F
100
AcDbEntity
  8
0
  6
Continuous
 62
     7
370
     0
100
AcDbLine
 10
11.3580532634
 20
4.7747421394
 30
0.0
 11
11.3580532634
 21
4.7732107293
 31
0.0
  0
LINE
  5
394
330
1F
100
AcDbEntity
  8
0
  6
Continuous
 62
     7
370
     0
100
AcDbLine
 10
11.3330532634
 20
4.7747421394
 30
0.0
 11
11.3580532634
 21
4.7747421394
 31
0.0
  0
LINE
  5
395
330
1F
100
AcDbEntity
  8
0
  6
Continuous
 62
     7
370
     0
100
AcDbLine
 10
11.3330532634
 20
5.6715628966
 30
0.0
 11
11.3330532634
 21
4.7747421394
 31
0.0
  0
LINE
  5
396
330
1F
100
AcDbEntity
  8
0
  6
Continuous
 62
     7
370
     0
100
AcDbLine
 10
11.4130532634
 20
5.6715628966
 30
0.0
 11
11.3330532634
 21
5.6715628966
 31
0.0
  0
LINE
  5
397
330
1F
100
AcDbEntity
  8
0
  6
Continuous
 62
     7
370
     0
100
AcDbLine
 10
11.3330532634
 20
4.7715628966
 30
0.0
 11
11.4130532634
 21
4.7715628966
 31
0.0
  0
LINE
  5
398
330
1F
100
AcDbEntity
  8
0
  6
Continuous
 62
     7
370
     0
100
AcDbLine
 10
11.3330532634
 20
4.7732107293
 30
0.0
 11
11.3330532634
 21
4.7715628966
 31
0.0
  0
LINE
  5
399
330
1F
100
AcDbEntity
  8
0
  6
Continuous
 62
     7
370
     0
100
AcDbLine
 10
11.4130532634
 20
5.6715628966
 30
0.0
 11
11.4130532634
 21
5.6687023829
 31
0.0
  0
LINE
  5
39A
330
1F
100
AcDbEntity
  8
0
  6
Continuous
 62
     7
370
     0
100
AcDbLine
 10
11.4130532634
 20
4.7744234103
 30
0.0
 11
11.4130532634
 21
4.7715628966
 31
0.0
  0
LINE
  5
39B
330
1F
100
AcDbEntity
  8
0
  6
Continuous
 62
     7
370
     0
100
AcDbLine
 10
11.3330532634
 20
5.7217423885
 30
0.0
 11
11.3430532634
 21
5.7390628966
 31
0.0
  0
LINE
  5
39C
330
1F
100
AcDbEntity
  8
0
  6
Continuous
 62
     7
370
     0
100
AcDbLine
 10
11.3330532634
 20
5.6715628966
 30
0.0
 11
11.3330532634
 21
5.7217423885
 31
0.0
  0
LINE
  5
39D
330
1F
100
AcDbEntity
  8
0
  6
Continuous
 62
     7
370
     0
100
AcDbLine
 10
11.4130532634
 20
5.6715628966
 30
0.0
 11
11.4130532634
 21
5.7290628966
 31
0.0
  0
LINE
  5
39E
330
1F
100
AcDbEntity
  8
0
  6
Continuous
 62
     7
370
     0
100
AcDbLine
 10
11.3430532634
 20
4.7040628966
 30
0.0
 11
11.3330532634
 21
4.7213834047
 31
0.0
  0
LINE
  5
39F
330
1F
100
AcDbEntity
  8
0
  6
Continuous
 62
     7
370
     0
100
AcDbLine
 10
11.3330532634
 20
4.7213834047
 30
0.0
 11
11.3330532634
 21
4.7715628966
 31
0.0
  0
LINE
  5
3A0
330
1F
100
AcDbEntity
  8
0
  6
Continuous
 62
     7
370
     0
100
AcDbLine
 10
11.4130532634
 20
4.7140628966
 30
0.0
 11
11.4130532634
 21
4.7715628966
 31
0.0
  0
LINE
  5
3A1
330
1F
100
AcDbEntity
  8
0
  6
Continuous
 62
     7
370
     0
100
AcDbLine
 10
11.3330532634
 20
4.7732107293
 30
0.0
 11
11.3330532634
 21
4.7747421394
 31
0.0
  0
LINE
  5
3A2
330
1F
100
AcDbEntity
  8
0
  6
Continuous
 62
     7
370
     0
100
AcDbLine
 10
11.3287192846
 20
4.6215628966
 30
0.0
 11
12.3922257781
 21
4.6215628966
 31
0.0
  0
LINE
  5
3A3
330
1F
100
AcDbEntity
  8
0
  6
Continuous
 62
     7
370
     0
100
AcDbLine
 10
12.3922257781
 20
5.8215628966
 30
0.0
 11
11.6676085543
 21
5.8215628966
 31
0.0
  0
LINE
  5
3A4
330
1F
100
AcDbEntity
  8
0
  6
Continuous
 62
     7
370
     0
100
AcDbLine
 10
11.6090049232
 20
5.8215628966
 30
0.0
 11
11.5073731334
 21
5.8215628966
 31
0.0
  0
LINE
  5
3A5
330
1F
100
AcDbEntity
  8
0
  6
Continuous
 62
     7
370
     0
100
AcDbLine
 10
11.4881207159
 20
5.8215628966
 30
0.0
 11
11.4723975391
 21
5.8215628966
 31
0.0
  0
LINE
  5
3A6
330
1F
100
AcDbEntity
  8
0
  6
Continuous
 62
     7
370
     0
100
AcDbLine
 10
11.4546929928
 20
5.8215628966
 30
0.0
 11
11.3431379921
 21
5.8215628966
 31
0.0
  0
LINE
  5
3A7
330
1F
100
AcDbEntity
  8
0
  6
Continuous
 62
     7
370
     0
100
AcDbLine
 10
11.2913153439
 20
5.8215628966
 30
0.0
 11
11.2809270768
 21
5.8215628966
 31
0.0
  0
LINE
  5
3A8
330
1F
100
AcDbEntity
  8
0
  6
Continuous
 62
     7
370
     0
100
AcDbLine
 10
11.2622257781
 20
5.8215628966
 30
0.0
 11
11.1972257781
 21
5.8215628966
 31
0.0
  0
LINE
  5
3A9
330
1F
100
AcDbEntity
  8
0
  6
Continuous
 62
     7
370
     0
100
AcDbLine
 10
11.1972257781
 20
4.6215628966
 30
0.0
 11
11.2622257781
 21
4.6215628966
 31
0.0
  0
LINE
  5
3AA
330
1F
100
AcDbEntity
  8
0
  6
Continuous
 62
     7
370
     0
100
AcDbLine
 10
12.4022257781
 20
4.6315628966
 30
0.0
 11
12.3922257781
 21
4.6215628966
 31
0.0
  0
LINE
  5
3AB
330
1F
100
AcDbEntity
  8
0
  6
Continuous
 62
     7
370
     0
100
AcDbLine
 10
12.3922257781
 20
5.8215628966
 30
0.0
 11
12.4022257781
 21
5.8115628966
 31
0.0
  0
LINE
  5
3AC
330
1F
100
AcDbEntity
  8
0
  6
Continuous
 62
     7
370
     0
100
AcDbLine
 10
11.1872257781
 20
5.8115628966
 30
0.0
 11
11.1972257781
 21
5.8215628966
 31
0.0
  0
LINE
  5
3AD
330
1F
100
AcDbEntity
  8
0
  6
Continuous
 62
     7
370
     0
100
AcDbLine
 10
11.1972257781
 20
4.6215628966
 30
0.0
 11
11.1872257781
 21
4.6315628966
 31
0.0
  0
LINE
  5
3AE
330
1F
100
AcDbEntity
  8
0
  6
Continuous
 62
     7
370
     0
100
AcDbLine
 10
11.8822257781
 20
4.6965628966
 30
0.0
 11
11.9022257781
 21
4.6965628966
 31
0.0
  0
LINE
  5
3AF
330
1F
100
AcDbEntity
  8
0
  6
Continuous
 62
     7
370
     0
100
AcDbLine
 10
11.9022257781
 20
5.7465628966
 30
0.0
 11
11.8822257781
 21
5.7465628966
 31
0.0
  0
LINE
  5
3B0
330
1F
100
AcDbEntity
  8
0
  6
Continuous
 62
     7
370
     0
100
AcDbLine
 10
11.6622257781
 20
5.7465628966
 30
0.0
 11
11.6822257781
 21
5.7465628966
 31
0.0
  0
LINE
  5
3B1
330
1F
100
AcDbEntity
  8
0
  6
Continuous
 62
     7
370
     0
100
AcDbLine
 10
11.6822257781
 20
4.6965628966
 30
0.0
 11
11.6622257781
 21
4.6965628966
 31
0.0
  0
LINE
  5
3B2
330
1F
100
AcDbEntity
  8
0
  6
Continuous
 62
     7
370
     0
100
AcDbLine
 10
12.4022257781
 20
5.7375628966
 30
0.0
 11
12.38490527
 21
5.7275628966
 31
0.0
  0
LINE
  5
3B3
330
1F
100
AcDbEntity
  8
0
  6
Continuous
 62
     7
370
     0
100
AcDbLine
 10
12.38490527
 20
4.7155628966
 30
0.0
 11
12.4022257781
 21
4.7055628966
 31
0.0
  0
LINE
  5
3B4
330
1F
100
AcDbEntity
  8
0
  6
Continuous
 62
     7
370
     0
100
AcDbLine
 10
12.38490527
 20
4.7155628966
 30
0.0
 11
12.38490527
 21
5.7275628966
 31
0.0
  0
LINE
  5
3B5
330
1F
100
AcDbEntity
  8
0
  6
Continuous
 62
     7
370
     0
100
AcDbLine
 10
12.4022257781
 20
5.7375628966
 30
0.0
 11
12.4022257781
 21
4.7055628966
 31
0.0
  0
LINE
  5
3B6
330
1F
100
AcDbEntity
  8
0
  6
Continuous
 62
     7
370
     0
100
AcDbLine
 10
11.1872257781
 20
4.7055628966
 30
0.0
 11
11.2045462862
 21
4.7155628966
 31
0.0
  0
LINE
  5
3B7
330
1F
100
AcDbEntity
  8
0
  6
Continuous
 62
     7
370
     0
100
AcDbLine
 10
11.2045462862
 20
5.7275628966
 30
0.0
 11
11.1872257781
 21
5.7375628966
 31
0.0
  0
LINE
  5
3B8
330
1F
100
AcDbEntity
  8
0
  6
Continuous
 62
     7
370
     0
100
AcDbLine
 10
11.2045462862
 20
5.7275628966
 30
0.0
 11
11.2045462862
 21
4.7155628966
 31
0.0
  0
LINE
  5
3B9
330
1F
100
AcDbEntity
  8
0
  6
Continuous
 62
     7
370
     0
100
AcDbLine
 10
11.1872257781
 20
4.7055628966
 30
0.0
 11
11.1872257781
 21
5.7375628966
 31
0.0
  0
LINE
  5
3BA
330
1F
100
AcDbEntity
  8
0
  6
Continuous
 62
     7
370
     0
100
AcDbLine
 10
12.1012257781
 20
4.7155628966
 30
0.0
 11
12.1012257781
 21
4.7215628966
 31
0.0
  0
LINE
  5
3BB
330
1F
100
AcDbEntity
  8
0
  6
Continuous
 62
     7
370
     0
100
AcDbLine
 10
12.1012257781
 20
5.7215628966
 30
0.0
 11
12.1012257781
 21
5.7275628966
 31
0.0
  0
LINE
  5
3BC
330
1F
100
AcDbEntity
  8
0
  6
Continuous
 62
     7
370
     0
100
AcDbLine
 10
12.1012257781
 20
5.7275628966
 30
0.0
 11
12.38490527
 21
5.7275628966
 31
0.0
  0
LINE
  5
3BD
330
1F
100
AcDbEntity
  8
0
  6
Continuous
 62
     7
370
     0
100
AcDbLine
 10
12.38490527
 20
4.7155628966
 30
0.0
 11
12.1012257781
 21
4.7155628966
 31
0.0
  0
LINE
  5
3BE
330
1F
100
AcDbEntity
  8
0
  6
Continuous
 62
     7
370
     0
100
AcDbLine
 10
12.1000710776
 20
5.7255628966
 30
0.0
 11
12.1000710776
 21
5.7215628966
 31
0.0
  0
LINE
  5
3BF
330
1F
100
AcDbEntity
  8
0
  6
Continuous
 62
     7
370
     0
100
AcDbLine
 10
12.1000710776
 20
4.7215628966
 30
0.0
 11
12.1000710776
 21
4.7175628966
 31
0.0
  0
LINE
  5
3C0
330
1F
100
AcDbEntity
  8
0
  6
Continuous
 62
     7
370
     0
100
AcDbLine
 10
12.1000710776
 20
5.7255628966
 30
0.0
 11
12.1012257781
 21
5.7275628966
 31
0.0
  0
LINE
  5
3C1
330
1F
100
AcDbEntity
  8
0
  6
Continuous
 62
     7
370
     0
100
AcDbLine
 10
12.1012257781
 20
4.7155628966
 30
0.0
 11
12.1000710776
 21
4.7175628966
 31
0.0
  0
LINE
  5
3C2
330
1F
100
AcDbEntity
  8
0
  6
Continuous
 62
     7
370
     0
100
AcDbLine
 10
11.4893804786
 20
4.7175628966
 30
0.0
 11
11.4893804786
 21
4.7215628966
 31
0.0
  0
LINE
  5
3C3
330
1F
100
AcDbEntity
  8
0
  6
Continuous
 62
     7
370
     0
100
AcDbLine
 10
11.4893804786
 20
5.7215628966
 30
0.0
 11
11.4893804786
 21
5.7255628966
 31
0.0
  0
LINE
  5
3C4
330
1F
100
AcDbEntity
  8
0
  6
Continuous
 62
     7
370
     0
100
AcDbLine
 10
11.4893804786
 20
4.7175628966
 30
0.0
 11
11.4882257781
 21
4.7155628966
 31
0.0
  0
LINE
  5
3C5
330
1F
100
AcDbEntity
  8
0
  6
Continuous
 62
     7
370
     0
100
AcDbLine
 10
11.4882257781
 20
5.7275628966
 30
0.0
 11
11.4882257781
 21
5.7215628966
 31
0.0
  0
LINE
  5
3C6
330
1F
100
AcDbEntity
  8
0
  6
Continuous
 62
     7
370
     0
100
AcDbLine
 10
11.4882257781
 20
4.7215628966
 30
0.0
 11
11.4882257781
 21
4.7155628966
 31
0.0
  0
LINE
  5
3C7
330
1F
100
AcDbEntity
  8
0
  6
Continuous
 62
     7
370
     0
100
AcDbLine
 10
11.4882257781
 20
5.7275628966
 30
0.0
 11
11.4893804786
 21
5.7255628966
 31
0.0
  0
LINE
  5
3C8
330
1F
100
AcDbEntity
  8
0
  6
Continuous
 62
     7
370
     0
100
AcDbLine
 10
11.4882257781
 20
4.7155628966
 30
0.0
 11
11.2045462862
 21
4.7155628966
 31
0.0
  0
LINE
  5
3C9
330
1F
100
AcDbEntity
  8
0
  6
Continuous
 62
     7
370
     0
100
AcDbLine
 10
11.2045462862
 20
5.7275628966
 30
0.0
 11
11.4882257781
 21
5.7275628966
 31
0.0
  0
LINE
  5
3CA
330
1F
100
AcDbEntity
  8
0
  6
Continuous
 62
     7
370
     0
100
AcDbLine
 10
11.9022257781
 20
4.7175628966
 30
0.0
 11
12.1000710776
 21
4.7175628966
 31
0.0
  0
LINE
  5
3CB
330
1F
100
AcDbEntity
  8
0
  6
Continuous
 62
     7
370
     0
100
AcDbLine
 10
12.1000710776
 20
5.7255628966
 30
0.0
 11
11.9022257781
 21
5.7255628966
 31
0.0
  0
LINE
  5
3CC
330
1F
100
AcDbEntity
  8
0
  6
Continuous
 62
     7
370
     0
100
AcDbLine
 10
11.9022257781
 20
4.7175628966
 30
0.0
 11
11.9022257781
 21
4.7215628966
 31
0.0
  0
LINE
  5
3CD
330
1F
100
AcDbEntity
  8
0
  6
Continuous
 62
     7
370
     0
100
AcDbLine
 10
11.9022257781
 20
5.7215628966
 30
0.0
 11
11.9022257781
 21
5.7255628966
 31
0.0
  0
LINE
  5
3CE
330
1F
100
AcDbEntity
  8
0
  6
Continuous
 62
     7
370
     0
100
AcDbLine
 10
11.6622257781
 20
5.7255628966
 30
0.0
 11
11.4893804786
 21
5.7255628966
 31
0.0
  0
LINE
  5
3CF
330
1F
100
AcDbEntity
  8
0
  6
Continuous
 62
     7
370
     0
100
AcDbLine
 10
11.4893804786
 20
4.7175628966
 30
0.0
 11
11.6622257781
 21
4.7175628966
 31
0.0
  0
LINE
  5
3D0
330
1F
100
AcDbEntity
  8
0
  6
Continuous
 62
     7
370
     0
100
AcDbLine
 10
11.6622257781
 20
5.7255628966
 30
0.0
 11
11.6622257781
 21
5.7215628966
 31
0.0
  0
LINE
  5
3D1
330
1F
100
AcDbEntity
  8
0
  6
Continuous
 62
     7
370
     0
100
AcDbLine
 10
11.6622257781
 20
4.7215628966
 30
0.0
 11
11.6622257781
 21
4.7175628966
 31
0.0
  0
LINE
  5
3D2
330
1F
100
AcDbEntity
  8
0
  6
Continuous
 62
     7
370
     0
100
AcDbLine
 10
11.8818962874
 20
5.6725628966
 30
0.0
 11
11.6829170815
 21
5.6725628966
 31
0.0
  0
LINE
  5
3D3
330
1F
100
AcDbEntity
  8
0
  6
Continuous
 62
     7
370
     0
100
AcDbLine
 10
11.6829170815
 20
4.7705628966
 30
0.0
 11
11.8818962874
 21
4.7705628966
 31
0.0
  0
LINE
  5
3D4
330
1F
100
AcDbEntity
  8
0
  6
Continuous
 62
     7
370
     0
100
AcDbLine
 10
11.2809270768
 20
5.8215628966
 30
0.0
 11
11.2622257781
 21
5.8215628966
 31
0.0
  0
LINE
  5
3D5
330
1F
100
AcDbEntity
  8
0
  6
Continuous
 62
     7
370
     0
100
AcDbLine
 10
11.3053382278
 20
5.8215628966
 30
0.0
 11
11.2913153439
 21
5.8215628966
 31
0.0
  0
LINE
  5
3D6
330
1F
100
AcDbEntity
  8
0
  6
Continuous
 62
     7
370
     0
100
AcDbLine
 10
11.3271024382
 20
5.8215628966
 30
0.0
 11
11.3053382278
 21
5.8215628966
 31
0.0
  0
LINE
  5
3D7
330
1F
100
AcDbEntity
  8
0
  6
Continuous
 62
     7
370
     0
100
AcDbLine
 10
11.3431379921
 20
5.8215628966
 30
0.0
 11
11.3271024382
 21
5.8215628966
 31
0.0
  0
LINE
  5
3D8
330
1F
100
AcDbEntity
  8
0
  6
Continuous
 62
     7
370
     0
100
AcDbLine
 10
11.4723975391
 20
5.8215628966
 30
0.0
 11
11.4546929928
 21
5.8215628966
 31
0.0
  0
LINE
  5
3D9
330
1F
100
AcDbEntity
  8
0
  6
Continuous
 62
     7
370
     0
100
AcDbLine
 10
11.5073731334
 20
5.8215628966
 30
0.0
 11
11.4881207159
 21
5.8215628966
 31
0.0
  0
LINE
  5
3DA
330
1F
100
AcDbEntity
  8
0
  6
Continuous
 62
     7
370
     0
100
AcDbLine
 10
11.6676085543
 20
5.8215628966
 30
0.0
 11
11.6090049232
 21
5.8215628966
 31
0.0
  0
LINE
  5
3DB
330
1F
100
AcDbEntity
  8
0
  6
Continuous
 62
     7
370
     0
100
AcDbLine
 10
11.6622257781
 20
5.7255628966
 30
0.0
 11
11.6622257781
 21
5.7465628966
 31
0.0
  0
LINE
  5
3DC
330
1F
100
AcDbEntity
  8
0
  6
Continuous
 62
     7
370
     0
100
AcDbLine
 10
11.6822257781
 20
5.6780150507
 30
0.0
 11
11.6822257781
 21
5.7465628966
 31
0.0
  0
LINE
  5
3DD
330
1F
100
AcDbEntity
  8
0
  6
Continuous
 62
     7
370
     0
100
AcDbLine
 10
11.8822257781
 20
5.6738583578
 30
0.0
 11
11.8822257781
 21
5.7465628966
 31
0.0
  0
LINE
  5
3DE
330
1F
100
AcDbEntity
  8
0
  6
Continuous
 62
     7
370
     0
100
AcDbLine
 10
11.9022257781
 20
5.7465628966
 30
0.0
 11
11.9022257781
 21
5.7255628966
 31
0.0
  0
LINE
  5
3DF
330
1F
100
AcDbEntity
  8
0
  6
Continuous
 62
     7
370
     0
100
AcDbLine
 10
11.1872257781
 20
5.7375628966
 30
0.0
 11
11.1872257781
 21
5.8115628966
 31
0.0
  0
LINE
  5
3E0
330
1F
100
AcDbEntity
  8
0
  6
Continuous
 62
     7
370
     0
100
AcDbLine
 10
12.4022257781
 20
5.8115628966
 30
0.0
 11
12.4022257781
 21
5.7375628966
 31
0.0
  0
LINE
  5
3E1
330
1F
100
AcDbEntity
  8
0
  6
Continuous
 62
     7
370
     0
100
AcDbLine
 10
11.3110569469
 20
4.6215628966
 30
0.0
 11
11.3287192846
 21
4.6215628966
 31
0.0
  0
LINE
  5
3E2
330
1F
100
AcDbEntity
  8
0
  6
Continuous
 62
     7
370
     0
100
AcDbLine
 10
11.2955960456
 20
4.6215628966
 30
0.0
 11
11.3110569469
 21
4.6215628966
 31
0.0
  0
LINE
  5
3E3
330
1F
100
AcDbEntity
  8
0
  6
Continuous
 62
     7
370
     0
100
AcDbLine
 10
11.2622257781
 20
4.6215628966
 30
0.0
 11
11.2955960456
 21
4.6215628966
 31
0.0
  0
LINE
  5
3E4
330
1F
100
AcDbEntity
  8
0
  6
Continuous
 62
     7
370
     0
100
AcDbLine
 10
11.6622257781
 20
4.6965628966
 30
0.0
 11
11.6622257781
 21
4.7175628966
 31
0.0
  0
LINE
  5
3E5
330
1F
100
AcDbEntity
  8
0
  6
Continuous
 62
     7
370
     0
100
AcDbLine
 10
11.6822257781
 20
4.6965628966
 30
0.0
 11
11.6822257781
 21
4.7651107425
 31
0.0
  0
LINE
  5
3E6
330
1F
100
AcDbEntity
  8
0
  6
Continuous
 62
     7
370
     0
100
AcDbLine
 10
11.8822257781
 20
4.6965628966
 30
0.0
 11
11.8822257781
 21
4.7692674354
 31
0.0
  0
LINE
  5
3E7
330
1F
100
AcDbEntity
  8
0
  6
Continuous
 62
     7
370
     0
100
AcDbLine
 10
11.9022257781
 20
4.7175628966
 30
0.0
 11
11.9022257781
 21
4.6965628966
 31
0.0
  0
LINE
  5
3E8
330
1F
100
AcDbEntity
  8
0
  6
Continuous
 62
     7
370
     0
100
AcDbLine
 10
11.1872257781
 20
4.6315628966
 30
0.0
 11
11.1872257781
 21
4.7055628966
 31
0.0
  0
LINE
  5
3E9
330
1F
100
AcDbEntity
  8
0
  6
Continuous
 62
     7
370
     0
100
AcDbLine
 10
12.4022257781
 20
4.7055628966
 30
0.0
 11
12.4022257781
 21
4.6315628966
 31
0.0
  0
DIMENSION
  5
3EA
330
1F
100
AcDbEntity
  8
0
  6
Continuous
 62
     7
370
     0
100
AcDbDimension
  2
*D6
 10
12.4022257781
 20
3.7510607004
 30
0.0
 11
13.6620682978
 21
3.7510607004
 31
0.0
 70
   160
 71
     1
 42
-1.0
  3
SLDDIMSTYLE1
100
AcDbAlignedDimension
 13
14.96317066
 23
5.2215628966
 33
0.0
 14
12.4022257781
 24
4.6315628966
 34
0.0
100
AcDbRotatedDimension
  0
DIMENSION
  5
3FD
330
1F
100
AcDbEntity
  8
0
  6
Continuous
 62
     7
370
     0
100
AcDbDimension
  2
*D7
 10
11.1872257781
 20
3.7510607004
 30
0.0
 11
8.3373871391
 21
3.7510607004
 31
0.0
 70
   160
 71
     1
 42
-1.0
  3
SLDDIMSTYLE1
100
AcDbAlignedDimension
 13
5.6274619986
 23
5.2215628966
 33
0.0
 14
11.1872257781
 24
4.6315628966
 34
0.0
100
AcDbRotatedDimension
  0
DIMENSION
  5
40F
330
1F
100
AcDbEntity
  8
0
  6
Continuous
 62
     7
370
     0
100
AcDbDimension
  2
*D8
 10
12.1995400817
 20
6.219624148
 30
0.0
 11
15.3943517624
 21
6.219624148
 31
0.0
 70
   160
 71
     1
 42
-1.0
  3
SLDDIMSTYLE1
100
AcDbAlignedDimension
 13
14.96317066
 23
5.2215628966
 33
0.0
 14
12.1995400817
 24
5.2215628966
 34
0.0
 50
0.0
100
AcDbRotatedDimension
  0
DIMENSION
  5
421
330
1F
100
AcDbEntity
  8
0
  6
Continuous
 62
     7
370
     0
100
AcDbDimension
  2
*D9
 10
11.400199158
 20
6.0157151117
 30
0.0
 11
8.3373871391
 21
6.0157151117
 31
0.0
 70
   160
 71
     1
 42
-1.0
  3
SLDDIMSTYLE1
100
AcDbAlignedDimension
 13
5.6274619986
 23
5.2215628966
 33
0.0
 14
11.400199158
 24
5.2215628966
 34
0.0
 50
0.0
100
AcDbRotatedDimension
  0
DIMENSION
  5
433
330
1F
100
AcDbEntity
  8
0
  6
Continuous
 62
     7
370
     0
100
AcDbDimension
  2
*D10
 10
11.71122278
 20
3.9872811728
 30
0.0
 11
13.1122991155
 21
3.9872811728
 31
0.0
 70
   160
 71
     1
 42
-1.0
  3
SLDDIMSTYLE2
100
AcDbAlignedDimension
 13
11.8255243337
 23
5.2215628966
 33
0.0
 14
11.71122278
 24
5.2215628966
 34
0.0
100
AcDbRotatedDimension
  0
DIMENSION
  5
446
330
1F
100
AcDbEntity
  8
0
  6
Continuous
 62
     7
370
     0
100
AcDbDimension
  2
*D11
 10
12.4022257781
 20
3.3148881133
 30
0.0
 11
11.8238644389
 21
3.3148881133
 31
0.0
 70
   160
 71
     1
 42
-1.0
  3
SLDDIMSTYLE1
100
AcDbAlignedDimension
 13
11.1872257781
 23
4.6315628966
 33
0.0
 14
12.4022257781
 24
4.6315628966
 34
0.0
100
AcDbRotatedDimension
  0
DIMENSION
  5
458
330
1F
100
AcDbEntity
  8
0
  6
Continuous
 62
     7
370
     0
100
AcDbDimension
  2
*D12
 10
12.1995400817
 20
6.4558446204
 30
0.0
 11
10.2168988421
 21
6.4558446204
 31
0.0
 70
   160
 71
     1
 42
-1.0
  3
SLDDIMSTYLE3
100
AcDbAlignedDimension
 13
11.400199158
 23
5.2215628966
 33
0.0
 14
12.1995400817
 24
5.2215628966
 34
0.0
 50
0.0
100
AcDbRotatedDimension
  0
INSERT
  5
472
330
1F
100
AcDbEntity
  8
0
  6
Continuous
 62
     7
370
     0
100
AcDbBlockReference
  2
SW_NOTE_3
 10
9.6102454791
 20
3.284216817
 30
0.0
  0
INSERT
  5
479
102
{ACAD_REACTORS
330
47B
330
47C
102
}
330
1F
100
AcDbEntity
  8
0
  6
Continuous
 62
     7
370
     0
100
AcDbBlockReference
  2
SW_NOTE_4
 10
10.404594767
 20
4.1330015564
 30
0.0
  0
LEADER
  5
47B
330
1F
100
AcDbEntity
  8
0
  6
Continuous
 62
     7
370
     0
100
AcDbLeader
  3
SLDDIMSTYLE4
 73
     2
 76
     3
 10
12.2961609325
 20
4.7155628966
 30
0.0
 10
10.654594767
 20
4.1330015564
 30
0.0
 10
10.404594767
 20
4.1330015564
 30
0.0
340
479
  0
LEADER
  5
47C
330
1F
100
AcDbEntity
  8
0
  6
Continuous
 62
     7
370
     0
100
AcDbLeader
  3
SLDDIMSTYLE4
 73
     2
 76
     3
 10
11.2884240692
 20
4.7155628966
 30
0.0
 10
10.654594767
 20
4.1330015564
 30
0.0
 10
10.404594767
 20
4.1330015564
 30
0.0
340
479
  0
INSERT
  5
482
330
1F
100
AcDbEntity
  8
0
  6
Continuous
 62
     7
370
     0
100
AcDbBlockReference
  2
SW_NOTE_5
 10
12.9255622
 20
5.8481807569
 30
0.0
  0
LEADER
  5
483
330
1F
100
AcDbEntity
  8
0
  6
Continuous
 62
     7
370
     0
100
AcDbLeader
  3
SLDDIMSTYLE4
 76
     2
 10
12.0039487392
 20
5.5374471123
 30
0.0
 10
12.9255622
 20
5.8481807569
 30
0.0
  0
INSERT
  5
489
102
{ACAD_REACTORS
330
48A
102
}
330
1F
100
AcDbEntity
  8
0
  6
Continuous
 62
     7
370
     0
100
AcDbBlockReference
  2
SW_NOTE_6
 10
10.6859168372
 20
5.7134523325
 30
0.0
  0
LEADER
  5
48A
330
1F
100
AcDbEntity
  8
0
  6
Continuous
 62
     7
370
     0
100
AcDbLeader
  3
SLDDIMSTYLE4
 73
     2
 76
     2
 10
11.5348686443
 20
5.6151485599
 30
0.0
 10
10.6859168372
 20
5.7134523325
 30
0.0
340
489
  0
INSERT
  5
490
330
1F
100
AcDbEntity
  8
0
  6
Continuous
 62
     7
370
     0
100
AcDbBlockReference
  2
SW_NOTE_7
 10
13.5510573541
 20
4.2118657197
 30
0.0
  0
LEADER
  5
491
330
1F
100
AcDbEntity
  8
0
  6
Continuous
 62
     7
370
     0
100
AcDbLeader
  3
SLDDIMSTYLE4
 76
     2
 10
12.3922257781
 20
4.6215628966
 30
0.0
 10
13.5510573541
 20
4.2118657197
 30
0.0
  0
INSERT
  5
497
330
1F
100
AcDbEntity
  8
0
  6
Continuous
 62
     7
370
     0
100
AcDbBlockReference
  2
SW_NOTE_8
 10
13.6931802104
 20
4.7032115711
 30
0.0
  0
LEADER
  5
498
330
1F
100
AcDbEntity
  8
0
  6
Continuous
 62
     7
370
     0
100
AcDbLeader
  3
SLDDIMSTYLE4
 76
     2
 10
12.2508568639
 20
4.7715628966
 30
0.0
 10
13.6931802104
 20
4.7032115711
 30
0.0
  0
INSERT
  5
49E
102
{ACAD_REACTORS
330
49F
102
}
330
1F
100
AcDbEntity
  8
0
  6
Continuous
 62
     7
370
     0
100
AcDbBlockReference
  2
SW_NOTE_9
 10
9.8897835462
 20
4.7018194867
 30
0.0
  0
LEADER
  5
49F
330
1F
100
AcDbEntity
  8
0
  6
Continuous
 62
     7
370
     0
100
AcDbLeader
  3
SLDDIMSTYLE4
 73
     2
 76
     2
 10
11.3422257781
 20
4.7603484381
 30
0.0
 10
9.8897835462
 20
4.7018194867
 30
0.0
340
49E
  0
HATCH
  5
4A0
330
1F
100
AcDbEntity
  8
0
  6
Continuous
 62
     7
370
     0
100
AcDbHatch
 10
0.0
 20
0.0
 30
0.0
210
0.0
220
0.0
230
1.0
  2
ANSI31
 70
     0
 71
     0
 91
        1
 92
        0
 93
        6
 72
     1
 10
12.25085686385837
 20
4.771562896608433
 11
12.17085686385837
 21
4.771562896608433
 72
     1
 10
12.17085686385837
 20
4.771562896608433
 11
12.17085686385837
 21
4.714062896608434
 72
     1
 10
12.17085686385837
 20
4.714062896608434
 11
12.18817737193406
 21
4.704062896608434
 72
     1
 10
12.18817737193406
 20
4.704062896608434
 11
12.24085686385837
 21
4.704062896608434
 72
     1
 10
12.24085686385837
 20
4.704062896608434
 11
12.25085686385837
 21
4.721383404684122
 72
     1
 10
12.25085686385837
 20
4.721383404684122
 11
12.25085686385837
 21
4.771562896608433
 97
        0
 75
     0
 76
     1
 52
0.0
 41
1.0
 77
     0
 78
     1
 53
45.0
 43
0.0
 44
0.0
 45
-0.0883883476483184
 46
0.0883883476483184
 79
     0
 98
        1
 10
0.0
 20
0.0
  0
HATCH
  5
4A1
330
1F
100
AcDbEntity
  8
0
  6
Continuous
 62
     7
370
     0
100
AcDbHatch
 10
0.0
 20
0.0
 30
0.0
210
0.0
220
0.0
230
1.0
  2
ANSI31
 70
     0
 71
     0
 91
        1
 92
        0
 93
        6
 72
     1
 10
12.25085686385837
 20
5.671562896608433
 11
12.25085686385837
 21
5.721742388532745
 72
     1
 10
12.25085686385837
 20
5.721742388532745
 11
12.24085686385837
 21
5.739062896608433
 72
     1
 10
12.24085686385837
 20
5.739062896608433
 11
12.18817737193406
 21
5.739062896608433
 72
     1
 10
12.18817737193406
 20
5.739062896608433
 11
12.17085686385837
 21
5.729062896608434
 72
     1
 10
12.17085686385837
 20
5.729062896608434
 11
12.17085686385837
 21
5.671562896608433
 72
     1
 10
12.17085686385837
 20
5.671562896608433
 11
12.25085686385837
 21
5.671562896608433
 97
        0
 75
     0
 76
     1
 52
0.0
 41
1.0
 77
     0
 78
     1
 53
45.0
 43
0.0
 44
0.0
 45
-0.0883883476483184
 46
0.0883883476483184
 79
     0
 98
        1
 10
0.0
 20
0.0
  0
HATCH
  5
4A2
330
1F
100
AcDbEntity
  8
0
  6
Continuous
 62
     7
370
     0
100
AcDbHatch
 10
0.0
 20
0.0
 30
0.0
210
0.0
220
0.0
230
1.0
  2
ANSI31
 70
     0
 71
     0
 91
        1
 92
        0
 93
        6
 72
     1
 10
11.33305326342536
 20
5.671562896608434
 11
11.41305326342536
 21
5.671562896608434
 72
     1
 10
11.41305326342536
 20
5.671562896608434
 11
11.41305326342536
 21
5.729062896608434
 72
     1
 10
11.41305326342536
 20
5.729062896608434
 11
11.39573275534968
 21
5.739062896608434
 72
     1
 10
11.39573275534968
 20
5.739062896608434
 11
11.34305326342536
 21
5.739062896608434
 72
     1
 10
11.34305326342536
 20
5.739062896608434
 11
11.33305326342536
 21
5.721742388532745
 72
     1
 10
11.33305326342536
 20
5.721742388532745
 11
11.33305326342536
 21
5.671562896608434
 97
        0
 75
     0
 76
     1
 52
0.0
 41
1.0
 77
     0
 78
     1
 53
45.0
 43
0.0
 44
0.0
 45
-0.0883883476483184
 46
0.0883883476483184
 79
     0
 98
        1
 10
0.0
 20
0.0
  0
HATCH
  5
4A3
330
1F
100
AcDbEntity
  8
0
  6
Continuous
 62
     7
370
     0
100
AcDbHatch
 10
0.0
 20
0.0
 30
0.0
210
0.0
220
0.0
230
1.0
  2
ANSI31
 70
     0
 71
     0
 91
        1
 92
        0
 93
        6
 72
     1
 10
11.33305326342536
 20
4.771562896608433
 11
11.33305326342536
 21
4.721383404684121
 72
     1
 10
11.33305326342536
 20
4.721383404684121
 11
11.34305326342536
 21
4.704062896608432
 72
     1
 10
11.34305326342536
 20
4.704062896608432
 11
11.39573275534968
 21
4.704062896608431
 72
     1
 10
11.39573275534968
 20
4.704062896608431
 11
11.41305326342536
 21
4.714062896608432
 72
     1
 10
11.41305326342536
 20
4.714062896608432
 11
11.41305326342536
 21
4.771562896608432
 72
     1
 10
11.41305326342536
 20
4.771562896608432
 11
11.33305326342536
 21
4.771562896608433
 97
        0
 75
     0
 76
     1
 52
0.0
 41
1.0
 77
     0
 78
     1
 53
45.0
 43
0.0
 44
0.0
 45
-0.0883883476483184
 46
0.0883883476483184
 79
     0
 98
        1
 10
0.0
 20
0.0
  0
HATCH
  5
4A4
330
1F
100
AcDbEntity
  8
0
  6
Continuous
 62
     7
370
     0
100
AcDbHatch
 10
0.0
 20
0.0
 30
0.0
210
0.0
220
0.0
230
1.0
  2
ANSI31
 70
     0
 71
     0
 91
        1
 92
        0
 93
       32
 72
     1
 10
12.40222577810496
 20
5.737562896608433
 11
12.40222577810496
 21
5.811562896608432
 72
     1
 10
12.40222577810496
 20
5.811562896608432
 11
12.39222577810496
 21
5.821562896608434
 72
     1
 10
12.39222577810496
 20
5.821562896608434
 11
11.66760855426763
 21
5.821562896608434
 72
     1
 10
11.66760855426763
 20
5.821562896608434
 11
11.60900492318624
 21
5.821562896608434
 72
     1
 10
11.60900492318624
 20
5.821562896608434
 11
11.50737313343092
 21
5.821562896608434
 72
     1
 10
11.50737313343092
 20
5.821562896608434
 11
11.48812071586312
 21
5.821562896608434
 72
     1
 10
11.48812071586312
 20
5.821562896608434
 11
11.47239753911824
 21
5.821562896608434
 72
     1
 10
11.47239753911824
 20
5.821562896608434
 11
11.454692992758
 21
5.821562896608434
 72
     1
 10
11.454692992758
 20
5.821562896608434
 11
11.34313799211644
 21
5.821562896608434
 72
     1
 10
11.34313799211644
 20
5.821562896608434
 11
11.32710243818063
 21
5.821562896608434
 72
     1
 10
11.32710243818063
 20
5.821562896608434
 11
11.30533822777365
 21
5.821562896608434
 72
     1
 10
11.30533822777365
 20
5.821562896608434
 11
11.29131534392324
 21
5.821562896608434
 72
     1
 10
11.29131534392324
 20
5.821562896608434
 11
11.28092707680626
 21
5.821562896608434
 72
     1
 10
11.28092707680626
 20
5.821562896608434
 11
11.26222577810496
 21
5.821562896608434
 72
     1
 10
11.26222577810496
 20
5.821562896608434
 11
11.19722577810496
 21
5.821562896608434
 72
     1
 10
11.19722577810496
 20
5.821562896608434
 11
11.18722577810496
 21
5.811562896608433
 72
     1
 10
11.18722577810496
 20
5.811562896608433
 11
11.18722577810496
 21
5.737562896608433
 72
     1
 10
11.18722577810496
 20
5.737562896608433
 11
11.20454628618065
 21
5.727562896608433
 72
     1
 10
11.20454628618065
 20
5.727562896608433
 11
11.48822577810496
 21
5.727562896608433
 72
     1
 10
11.48822577810496
 20
5.727562896608433
 11
11.48938047864334
 21
5.725562896608433
 72
     1
 10
11.48938047864334
 20
5.725562896608433
 11
11.66222577810496
 21
5.725562896608433
 72
     1
 10
11.66222577810496
 20
5.725562896608433
 11
11.66222577810496
 21
5.746562896608434
 72
     1
 10
11.66222577810496
 20
5.746562896608434
 11
11.68222577810496
 21
5.746562896608434
 72
     1
 10
11.68222577810496
 20
5.746562896608434
 11
11.68222577810496
 21
5.672562896608434
 72
     1
 10
11.68222577810496
 20
5.672562896608434
 11
11.88222577810496
 21
5.672562896608434
 72
     1
 10
11.88222577810496
 20
5.672562896608434
 11
11.88222577810496
 21
5.746562896608434
 72
     1
 10
11.88222577810496
 20
5.746562896608434
 11
11.90222577810496
 21
5.746562896608434
 72
     1
 10
11.90222577810496
 20
5.746562896608434
 11
11.90222577810496
 21
5.725562896608433
 72
     1
 10
11.90222577810496
 20
5.725562896608433
 11
12.10007107756658
 21
5.725562896608433
 72
     1
 10
12.10007107756658
 20
5.725562896608433
 11
12.10122577810496
 21
5.727562896608433
 72
     1
 10
12.10122577810496
 20
5.727562896608433
 11
12.38490527002927
 21
5.727562896608433
 72
     1
 10
12.38490527002927
 20
5.727562896608433
 11
12.40222577810496
 21
5.737562896608433
 97
        0
 75
     0
 76
     1
 52
0.0
 41
1.0
 77
     0
 78
     1
 53
45.0
 43
0.0
 44
0.0
 45
-0.0883883476483184
 46
0.0883883476483184
 79
     0
 98
        1
 10
0.0
 20
0.0
  0
HATCH
  5
4A5
330
1F
100
AcDbEntity
  8
0
  6
Continuous
 62
     7
370
     0
100
AcDbHatch
 10
0.0
 20
0.0
 30
0.0
210
0.0
220
0.0
230
1.0
  2
ANSI31
 70
     0
 71
     0
 91
        1
 92
        0
 93
       24
 72
     1
 10
12.10007107756658
 20
4.717562896608434
 11
11.90222577810496
 21
4.717562896608434
 72
     1
 10
11.90222577810496
 20
4.717562896608434
 11
11.90222577810496
 21
4.696562896608433
 72
     1
 10
11.90222577810496
 20
4.696562896608433
 11
11.88222577810496
 21
4.696562896608433
 72
     1
 10
11.88222577810496
 20
4.696562896608433
 11
11.88222577810496
 21
4.770562896608433
 72
     1
 10
11.88222577810496
 20
4.770562896608433
 11
11.68222577810496
 21
4.770562896608433
 72
     1
 10
11.68222577810496
 20
4.770562896608433
 11
11.68222577810496
 21
4.696562896608433
 72
     1
 10
11.68222577810496
 20
4.696562896608433
 11
11.66222577810496
 21
4.696562896608433
 72
     1
 10
11.66222577810496
 20
4.696562896608433
 11
11.66222577810496
 21
4.717562896608434
 72
     1
 10
11.66222577810496
 20
4.717562896608434
 11
11.48938047864334
 21
4.717562896608434
 72
     1
 10
11.48938047864334
 20
4.717562896608434
 11
11.48822577810496
 21
4.715562896608434
 72
     1
 10
11.48822577810496
 20
4.715562896608434
 11
11.20454628618065
 21
4.715562896608434
 72
     1
 10
11.20454628618065
 20
4.715562896608434
 11
11.18722577810496
 21
4.705562896608433
 72
     1
 10
11.18722577810496
 20
4.705562896608433
 11
11.18722577810496
 21
4.631562896608433
 72
     1
 10
11.18722577810496
 20
4.631562896608433
 11
11.19722577810496
 21
4.621562896608433
 72
     1
 10
11.19722577810496
 20
4.621562896608433
 11
11.26222577810496
 21
4.621562896608433
 72
     1
 10
11.26222577810496
 20
4.621562896608433
 11
11.29559604562052
 21
4.621562896608433
 72
     1
 10
11.29559604562052
 20
4.621562896608433
 11
11.31105694693613
 21
4.621562896608433
 72
     1
 10
11.31105694693613
 20
4.621562896608433
 11
11.32871928459847
 21
4.621562896608433
 72
     1
 10
11.32871928459847
 20
4.621562896608433
 11
12.39222577810496
 21
4.621562896608433
 72
     1
 10
12.39222577810496
 20
4.621562896608433
 11
12.40222577810496
 21
4.631562896608433
 72
     1
 10
12.40222577810496
 20
4.631562896608433
 11
12.40222577810496
 21
4.705562896608433
 72
     1
 10
12.40222577810496
 20
4.705562896608433
 11
12.38490527002927
 21
4.715562896608434
 72
     1
 10
12.38490527002927
 20
4.715562896608434
 11
12.10122577810496
 21
4.715562896608434
 72
     1
 10
12.10122577810496
 20
4.715562896608434
 11
12.10007107756658
 21
4.717562896608434
 97
        0
 75
     0
 76
     1
 52
0.0
 41
1.0
 77
     0
 78
     1
 53
45.0
 43
0.0
 44
0.0
 45
-0.0883883476483184
 46
0.0883883476483184
 79
     0
 98
        1
 10
0.0
 20
0.0
  0
ENDSEC
  0
SECTION
  2
OBJECTS
  0
DICTIONARY
  5
C
330
0
100
AcDbDictionary
281
     1
  3
ACAD_GROUP
350
D
  3
ACAD_LAYOUT
350
1A
  3
ACAD_MLINESTYLE
350
17
  3
ACAD_PLOTSETTINGS
350
19
  3
ACAD_PLOTSTYLENAME
350
E
  0
DICTIONARY
  5
D
102
{ACAD_REACTORS
330
C
102
}
330
C
100
AcDbDictionary
281
     1
  0
DICTIONARY
  5
1A
102
{ACAD_REACTORS
330
C
102
}
330
C
100
AcDbDictionary
281
     1
  3
Layout1
350
1E
  3
Layout2
350
26
  3
Model
350
22
  0
DICTIONARY
  5
17
102
{ACAD_REACTORS
330
C
102
}
330
C
100
AcDbDictionary
281
     1
  3
Standard
350
18
  0
DICTIONARY
  5
19
102
{ACAD_REACTORS
330
C
102
}
330
C
100
AcDbDictionary
281
     1
  0
ACDBDICTIONARYWDFLT
  5
E
102
{ACAD_REACTORS
330
C
102
}
330
C
100
AcDbDictionary
281
     1
  3
Normal
350
F
100
AcDbDictionaryWithDefault
340
F
  0
LAYOUT
  5
1E
102
{ACAD_REACTORS
330
1A
102
}
330
1A
100
AcDbPlotSettings
  1

  2
none_device
  4

  6

 40
0.0
 41
0.0
 42
0.0
 43
0.0
 44
0.0
 45
0.0
 46
0.0
 47
0.0
 48
0.0
 49
0.0
140
0.0
141
0.0
142
1.0
143
1.0
 70
   688
 72
     0
 73
     0
 74
     5
  7

 75
    16
147
1.0
148
0.0
149
0.0
100
AcDbLayout
  1
Layout1
 70
     1
 71
     1
 10
0.0
 20
0.0
 11
12.0
 21
9.0
 12
0.0
 22
0.0
 32
0.0
 14
1.0000000000E+20
 24
1.0000000000E+20
 34
1.0000000000E+20
 15
-1.0000000000E+20
 25
-1.0000000000E+20
 35
-1.0000000000E+20
146
0.0
 13
0.0
 23
0.0
 33
0.0
 16
1.0
 26
0.0
 36
0.0
 17
0.0
 27
1.0
 37
0.0
 76
     0
330
1B
  0
LAYOUT
  5
26
102
{ACAD_REACTORS
330
1A
102
}
330
1A
100
AcDbPlotSettings
  1

  2
none_device
  4

  6

 40
0.0
 41
0.0
 42
0.0
 43
0.0
 44
0.0
 45
0.0
 46
0.0
 47
0.0
 48
0.0
 49
0.0
140
0.0
141
0.0
142
1.0
143
1.0
 70
   688
 72
     0
 73
     0
 74
     5
  7

 75
    16
147
1.0
148
0.0
149
0.0
100
AcDbLayout
  1
Layout2
 70
     1
 71
     2
 10
0.0
 20
0.0
 11
0.0
 21
0.0
 12
0.0
 22
0.0
 32
0.0
 14
0.0
 24
0.0
 34
0.0
 15
0.0
 25
0.0
 35
0.0
146
0.0
 13
0.0
 23
0.0
 33
0.0
 16
1.0
 26
0.0
 36
0.0
 17
0.0
 27
1.0
 37
0.0
 76
     0
330
23
  0
LAYOUT
  5
22
102
{ACAD_REACTORS
330
1A
102
}
330
1A
100
AcDbPlotSettings
  1

  2
none_device
  4

  6

 40
0.0
 41
0.0
 42
0.0
 43
0.0
 44
0.0
 45
0.0
 46
0.0
 47
0.0
 48
0.0
 49
0.0
140
0.0
141
0.0
142
1.0
143
1.0
 70
  1712
 72
     0
 73
     0
 74
     0
  7

 75
     0
147
1.0
148
0.0
149
0.0
100
AcDbLayout
  1
Model
 70
     1
 71
     0
 10
0.0
 20
0.0
 11
0.0
 21
0.0
 12
0.0
 22
0.0
 32
0.0
 14
0.0
 24
0.0
 34
0.0
 15
17.0
 25
11.0
 35
0.0
146
0.0
 13
0.0
 23
0.0
 33
0.0
 16
1.0
 26
0.0
 36
0.0
 17
0.0
 27
1.0
 37
0.0
 76
     0
330
1F
  0
MLINESTYLE
  5
18
102
{ACAD_REACTORS
330
17
102
}
330
17
100
AcDbMlineStyle
  2
Standard
 70
     0
  3

 62
   256
 51
90.0
 52
90.0
 71
     2
 49
0.5
 62
   256
  6
BYLAYER
 49
-0.5
 62
   256
  6
BYLAYER
  0
ACDBPLACEHOLDER
  5
F
102
{ACAD_REACTORS
330
E
102
}
330
E
  0
ENDSEC
  0
EOF
