  0
SECTION
  2
HEADER
  9
$ACADVER
  1
AC1015
  9
$ACADMAINTVER
 70
     6
  9
$DWGCODEPAGE
  3
ANSI_1252
  9
$INSBASE
 10
0.0
 20
0.0
 30
0.0
  9
$EXTMIN
 10
0.0
 20
0.0
 30
0.0
  9
$EXTMAX
 10
279.4
 20
215.9
 30
0.0
  9
$LIMMIN
 10
0.0
 20
0.0
  9
$LIMMAX
 10
279.4
 20
215.9
  9
$ORTHOMODE
 70
     0
  9
$REGENMODE
 70
     1
  9
$FILLMODE
 70
     1
  9
$QTEXTMODE
 70
     0
  9
$MIRRTEXT
 70
     1
  9
$LTSCALE
 40
1.0
  9
$ATTMODE
 70
     1
  9
$TEXTSIZE
 40
2.8222222222
  9
$TRACEWID
 40
1.0
  9
$TEXTSTYLE
  7
Standard
  9
$CLAYER
  8
0
  9
$CELTYPE
  6
ByLayer
  9
$CECOLOR
 62
   256
  9
$CELTSCALE
 40
1.0
  9
$DISPSILH
 70
     0
  9
$DIMSCALE
 40
1.0
  9
$DIMASZ
 40
3.175
  9
$DIMEXO
 40
1.27
  9
$DIMDLI
 40
3.75
  9
$DIMRND
 40
0.0
  9
$DIMDLE
 40
0.0
  9
$DIMEXE
 40
1.778
  9
$DIMTP
 40
0.0
  9
$DIMTM
 40
0.0
  9
$DIMTXT
 40
2.8222222222
  9
$DIMCEN
 40
2.5
  9
$DIMTSZ
 40
0.0
  9
$DIMTOL
 70
     0
  9
$DIMLIM
 70
     0
  9
$DIMTIH
 70
     1
  9
$DIMTOH
 70
     1
  9
$DIMSE1
 70
     0
  9
$DIMSE2
 70
     0
  9
$DIMTAD
 70
     0
  9
$DIMZIN
 70
     1
  9
$DIMBLK
  1

  9
$DIMASO
 70
     1
  9
$DIMSHO
 70
     1
  9
$DIMPOST
  1

  9
$DIMAPOST
  1

  9
$DIMALT
 70
     0
  9
$DIMALTD
 70
     3
  9
$DIMALTF
 40
0.0393700787
  9
$DIMLFAC
 40
1.0
  9
$DIMTOFL
 70
     1
  9
$DIMTVP
 40
0.0
  9
$DIMTIX
 70
     0
  9
$DIMSOXD
 70
     0
  9
$DIMSAH
 70
     0
  9
$DIMBLK1
  1

  9
$DIMBLK2
  1

  9
$DIMSTYLE
  2
ISO-25
  9
$DIMCLRD
 70
     0
  9
$DIMCLRE
 70
     0
  9
$DIMCLRT
 70
     0
  9
$DIMTFAC
 40
1.0
  9
$DIMGAP
 40
2.54
  9
$DIMJUST
 70
     0
  9
$DIMSD1
 70
     0
  9
$DIMSD2
 70
     0
  9
$DIMTOLJ
 70
     0
  9
$DIMTZIN
 70
     1
  9
$DIMALTZ
 70
     0
  9
$DIMALTTZ
 70
     0
  9
$DIMUPT
 70
     0
  9
$DIMDEC
 70
     1
  9
$DIMTDEC
 70
     1
  9
$DIMALTU
 70
     2
  9
$DIMALTTD
 70
     3
  9
$DIMTXSTY
  7
Standard
  9
$DIMAUNIT
 70
     0
  9
$DIMADEC
 70
     0
  9
$DIMALTRND
 40
0.0
  9
$DIMAZIN
 70
     0
  9
$DIMDSEP
 70
    44
  9
$DIMATFIT
 70
     3
  9
$DIMFRAC
 70
     0
  9
$DIMLDRBLK
  1

  9
$DIMLUNIT
 70
     2
  9
$DIMLWD
 70
    -2
  9
$DIMLWE
 70
    -2
  9
$DIMTMOVE
 70
     0
  9
$LUNITS
 70
     2
  9
$LUPREC
 70
     1
  9
$SKETCHINC
 40
1.0
  9
$FILLETRAD
 40
10.0
  9
$AUNITS
 70
     0
  9
$AUPREC
 70
     0
  9
$MENU
  1
.
  9
$ELEVATION
 40
0.0
  9
$PELEVATION
 40
0.0
  9
$THICKNESS
 40
0.0
  9
$LIMCHECK
 70
     0
  9
$CHAMFERA
 40
10.0
  9
$CHAMFERB
 40
10.0
  9
$CHAMFERC
 40
20.0
  9
$CHAMFERD
 40
0.0
  9
$SKPOLY
 70
     0
  9
$TDCREATE
 40
2456715.452092731
  9
$TDUCREATE
 40
2456715.660426065
  9
$TDUPDATE
 40
2456715.452094734
  9
$TDUUPDATE
 40
2456715.660428067
  9
$TDINDWG
 40
0.0000000116
  9
$TDUSRTIMER
 40
0.0000000116
  9
$USRTIMER
 70
     1
  9
$ANGBASE
 50
0.0
  9
$ANGDIR
 70
     0
  9
$PDMODE
 70
     0
  9
$PDSIZE
 40
-1.0
  9
$PLINEWID
 40
0.0
  9
$SPLFRAME
 70
     0
  9
$SPLINETYPE
 70
     6
  9
$SPLINESEGS
 70
     8
  9
$HANDSEED
  5
1B2
  9
$SURFTAB1
 70
     6
  9
$SURFTAB2
 70
     6
  9
$SURFTYPE
 70
     6
  9
$SURFU
 70
     6
  9
$SURFV
 70
     6
  9
$UCSBASE
  2

  9
$UCSNAME
  2

  9
$UCSORG
 10
0.0
 20
0.0
 30
0.0
  9
$UCSXDIR
 10
1.0
 20
0.0
 30
0.0
  9
$UCSYDIR
 10
0.0
 20
1.0
 30
0.0
  9
$UCSORTHOREF
  2

  9
$UCSORTHOVIEW
 70
     0
  9
$UCSORGTOP
 10
0.0
 20
0.0
 30
0.0
  9
$UCSORGBOTTOM
 10
0.0
 20
0.0
 30
0.0
  9
$UCSORGLEFT
 10
0.0
 20
0.0
 30
0.0
  9
$UCSORGRIGHT
 10
0.0
 20
0.0
 30
0.0
  9
$UCSORGFRONT
 10
0.0
 20
0.0
 30
0.0
  9
$UCSORGBACK
 10
0.0
 20
0.0
 30
0.0
  9
$PUCSBASE
  2

  9
$PUCSNAME
  2

  9
$PUCSORG
 10
0.0
 20
0.0
 30
0.0
  9
$PUCSXDIR
 10
1.0
 20
0.0
 30
0.0
  9
$PUCSYDIR
 10
0.0
 20
1.0
 30
0.0
  9
$PUCSORTHOREF
  2

  9
$PUCSORTHOVIEW
 70
     0
  9
$PUCSORGTOP
 10
0.0
 20
0.0
 30
0.0
  9
$PUCSORGBOTTOM
 10
0.0
 20
0.0
 30
0.0
  9
$PUCSORGLEFT
 10
0.0
 20
0.0
 30
0.0
  9
$PUCSORGRIGHT
 10
0.0
 20
0.0
 30
0.0
  9
$PUCSORGFRONT
 10
0.0
 20
0.0
 30
0.0
  9
$PUCSORGBACK
 10
0.0
 20
0.0
 30
0.0
  9
$USERI1
 70
     0
  9
$USERI2
 70
     0
  9
$USERI3
 70
     0
  9
$USERI4
 70
     0
  9
$USERI5
 70
     0
  9
$USERR1
 40
0.0
  9
$USERR2
 40
0.0
  9
$USERR3
 40
0.0
  9
$USERR4
 40
0.0
  9
$USERR5
 40
0.0
  9
$WORLDVIEW
 70
     1
  9
$SHADEDGE
 70
     3
  9
$SHADEDIF
 70
    70
  9
$TILEMODE
 70
     1
  9
$MAXACTVP
 70
    64
  9
$PINSBASE
 10
0.0
 20
0.0
 30
0.0
  9
$PLIMCHECK
 70
     0
  9
$PEXTMIN
 10
1.0000000000E+20
 20
1.0000000000E+20
 30
1.0000000000E+20
  9
$PEXTMAX
 10
-1.0000000000E+20
 20
-1.0000000000E+20
 30
-1.0000000000E+20
  9
$PLIMMIN
 10
0.0
 20
0.0
  9
$PLIMMAX
 10
420.0
 20
297.0
  9
$UNITMODE
 70
     0
  9
$VISRETAIN
 70
     1
  9
$PLINEGEN
 70
     0
  9
$PSLTSCALE
 70
     1
  9
$TREEDEPTH
 70
  3020
  9
$CMLSTYLE
  2
Standard
  9
$CMLJUST
 70
     0
  9
$CMLSCALE
 40
20.0
  9
$PROXYGRAPHICS
 70
     1
  9
$MEASUREMENT
 70
     1
  9
$CELWEIGHT
370
    -1
  9
$ENDCAPS
280
     0
  9
$JOINSTYLE
280
     0
  9
$LWDISPLAY
290
     1
  9
$INSUNITS
 70
     4
  9
$HYPERLINKBASE
  1

  9
$STYLESHEET
  1

  9
$XEDIT
290
     1
  9
$CEPSNTYPE
380
     0
  9
$PSTYLEMODE
290
     1
  9
$FINGERPRINTGUID
  2
{B54746F2-3786-4918-9C14-E05ED754EFCF}
  9
$VERSIONGUID
  2
{FAEB1C32-E019-11D5-929B-00C0DF256EC4}
  9
$EXTNAMES
290
     1
  9
$PSVPSCALE
 40
0.0
  9
$OLESTARTUP
290
     0
  0
ENDSEC
  0
SECTION
  2
CLASSES
  0
CLASS
  1
ACDBDICTIONARYWDFLT
  2
AcDbDictionaryWithDefault
  3
ObjectDBX Classes
 90
        0
280
     0
281
     0
  0
CLASS
  1
VISUALSTYLE
  2
AcDbVisualStyle
  3
ObjectDBX Classes
 90
     4095
280
     0
281
     0
  0
CLASS
  1
MATERIAL
  2
AcDbMaterial
  3
ObjectDBX Classes
 90
     1153
280
     0
281
     0
  0
CLASS
  1
ACDBPLACEHOLDER
  2
AcDbPlaceHolder
  3
ObjectDBX Classes
 90
        0
280
     0
281
     0
  0
CLASS
  1
LAYOUT
  2
AcDbLayout
  3
ObjectDBX Classes
 90
        0
280
     0
281
     0
  0
ENDSEC
  0
SECTION
  2
TABLES
  0
TABLE
  2
VPORT
  5
8
330
0
100
AcDbSymbolTable
 70
     1
  0
VPORT
  5
29
330
8
100
AcDbSymbolTableRecord
100
AcDbViewportTableRecord
  2
*Active
 70
     0
 10
0.0
 20
0.0
 11
1.0
 21
1.0
 12
139.7
 22
107.95
 13
0.0
 23
0.0
 14
10.0
 24
10.0
 15
10.0
 25
10.0
 16
0.0
 26
0.0
 36
1.0
 17
0.0
 27
0.0
 37
0.0
 40
215.9
 41
1.2941176471
 42
50.0
 43
0.0
 44
0.0
 50
0.0
 51
0.0
 71
     0
 72
  2000
 73
     1
 74
     3
 75
     0
 76
     0
 77
     0
 78
     0
281
     0
 65
     1
110
0.0
120
0.0
130
0.0
111
1.0
121
0.0
131
0.0
112
0.0
122
1.0
132
0.0
 79
     0
146
0.0
  0
ENDTAB
  0
TABLE
  2
LTYPE
  5
5
330
0
100
AcDbSymbolTable
 70
     6
  0
LTYPE
  5
14
330
5
100
AcDbSymbolTableRecord
100
AcDbLinetypeTableRecord
  2
ByBlock
 70
     0
  3

 72
    65
 73
     0
 40
0.0
  0
LTYPE
  5
15
330
5
100
AcDbSymbolTableRecord
100
AcDbLinetypeTableRecord
  2
ByLayer
 70
     0
  3

 72
    65
 73
     0
 40
0.0
  0
LTYPE
  5
16
330
5
100
AcDbSymbolTableRecord
100
AcDbLinetypeTableRecord
  2
Continuous
 70
     0
  3
Solid line
 72
    65
 73
     0
 40
0.0
  0
LTYPE
  5
3F
330
5
100
AcDbSymbolTableRecord
100
AcDbLinetypeTableRecord
  2
HIDDEN
 70
     0
  3
Hidden __ __ __ __ __ __ __ __ __ __ __ __ __ __
 72
    65
 73
     2
 40
1.905
 49
1.27
 74
     0
 49
-0.635
 74
     0
  0
LTYPE
  5
40
330
5
100
AcDbSymbolTableRecord
100
AcDbLinetypeTableRecord
  2
PHANTOM
 70
     0
  3
Phantom ______  __  __  ______  __  __  ______
 72
    65
 73
     6
 40
12.7
 49
6.35
 74
     0
 49
-1.27
 74
     0
 49
1.27
 74
     0
 49
-1.27
 74
     0
 49
1.27
 74
     0
 49
-1.27
 74
     0
  0
LTYPE
  5
41
330
5
100
AcDbSymbolTableRecord
100
AcDbLinetypeTableRecord
  2
CENTER
 70
     0
  3
Center ____ _ ____ _ ____ _ ____ _ ____ _ ____
 72
    65
 73
     4
 40
10.16
 49
6.35
 74
     0
 49
-1.27
 74
     0
 49
1.27
 74
     0
 49
-1.27
 74
     0
  0
LTYPE
  5
42
330
5
100
AcDbSymbolTableRecord
100
AcDbLinetypeTableRecord
  2
CENTERX2
 70
     0
  3
Center (2x) ________  __  ________  __  _____
 72
    65
 73
     4
 40
20.32
 49
12.7
 74
     0
 49
-2.54
 74
     0
 49
2.54
 74
     0
 49
-2.54
 74
     0
  0
LTYPE
  5
43
330
5
100
AcDbSymbolTableRecord
100
AcDbLinetypeTableRecord
  2
DOT2
 70
     0
  3
Dot (.5x) ........................................
 72
    65
 73
     2
 40
0.635
 49
0.0
 74
     0
 49
-0.635
 74
     0
  0
ENDTAB
  0
TABLE
  2
LAYER
  5
2
330
0
100
AcDbSymbolTable
 70
     2
  0
LAYER
  5
10
330
2
100
AcDbSymbolTableRecord
100
AcDbLayerTableRecord
  2
0
 70
     0
 62
     7
  6
Continuous
370
    -3
390
F
  0
LAYER
  5
44
330
2
100
AcDbSymbolTableRecord
100
AcDbLayerTableRecord
  2
FORMAT
 70
     0
 62
     7
  6
Continuous
370
    -3
390
F
  0
ENDTAB
  0
TABLE
  2
STYLE
  5
3
330
0
100
AcDbSymbolTable
 70
     5
  0
STYLE
  5
11
330
3
100
AcDbSymbolTableRecord
100
AcDbTextStyleTableRecord
  2
Standard
 70
     0
 40
0.0
 41
1.0
 50
0.0
 71
     0
 42
2.8222222222
  3
txt
  4

  0
STYLE
  5
6E
330
3
100
AcDbSymbolTableRecord
100
AcDbTextStyleTableRecord
  2
SLDTEXTSTYLE0
 70
     0
 40
0.0
 41
0.75
 50
0.0
 71
     0
 42
0.2
  3
TXT
  4

  0
STYLE
  5
70
330
3
100
AcDbSymbolTableRecord
100
AcDbTextStyleTableRecord
  2
SLDTEXTSTYLE1
 70
     0
 40
0.0
 41
0.75
 50
0.0
 71
     0
 42
0.2
  3
TXT
  4
bigfont
  0
STYLE
  5
74
330
3
100
AcDbSymbolTableRecord
100
AcDbTextStyleTableRecord
  2
SLDTEXTSTYLE2
 70
     0
 40
0.0
 41
0.7
 50
0.0
 71
     0
 42
0.2
  3
TXT
  4

  0
STYLE
  5
91
330
3
100
AcDbSymbolTableRecord
100
AcDbTextStyleTableRecord
  2
SLDTEXTSTYLE3
 70
     0
 40
0.0
 41
0.6
 50
0.0
 71
     0
 42
0.2
  3
TXT
  4

  0
ENDTAB
  0
TABLE
  2
VIEW
  5
6
330
0
100
AcDbSymbolTable
 70
     0
  0
ENDTAB
  0
TABLE
  2
UCS
  5
7
330
0
100
AcDbSymbolTable
 70
     0
  0
ENDTAB
  0
TABLE
  2
APPID
  5
9
330
0
100
AcDbSymbolTable
 70
     1
  0
APPID
  5
12
330
9
100
AcDbSymbolTableRecord
100
AcDbRegAppTableRecord
  2
ACAD
 70
     0
  0
ENDTAB
  0
TABLE
  2
DIMSTYLE
  5
A
330
0
100
AcDbSymbolTable
 70
     4
100
AcDbDimStyleTable
  0
DIMSTYLE
105
27
330
A
100
AcDbSymbolTableRecord
100
AcDbDimStyleTableRecord
  2
ISO-25
 70
     0
 41
2.5
 42
0.625
 43
3.75
 44
1.25
 73
     0
 74
     0
 77
     1
 78
     8
140
2.5
141
2.5
143
0.0393700787
147
0.625
171
     3
172
     1
178
     0
271
     2
272
     2
274
     3
278
    44
283
     0
284
     8
340
11
  0
DIMSTYLE
105
11C
102
{ACAD_REACTORS
330
11B
102
}
330
A
100
AcDbSymbolTableRecord
100
AcDbDimStyleTableRecord
  2
SLDDIMSTYLE0
 70
     0
 41
3.175
 44
0.0
 45
0.000000001
 78
    12
 79
     3
140
2.1166666667
141
0.0
143
0.0393700787
147
0.5291666667
148
0.000000001
170
     1
173
     1
178
     0
271
     1
272
     1
276
     2
284
    12
340
6E
  0
DIMSTYLE
105
193
102
{ACAD_REACTORS
330
192
102
}
330
A
100
AcDbSymbolTableRecord
100
AcDbDimStyleTableRecord
  2
SLDDIMSTYLE1
 70
     0
 41
3.175
 44
0.0
 45
0.000000001
 78
     4
 79
     1
140
2.1166666667
143
0.0393700787
147
0.5291666667
148
0.000000001
170
     1
172
     1
173
     1
178
     0
271
     1
272
     1
276
     2
284
    12
289
     0
340
6E
  0
DIMSTYLE
105
1A8
330
A
100
AcDbSymbolTableRecord
100
AcDbDimStyleTableRecord
  2
SLDDIMSTYLE2
 70
     0
 41
3.175
 44
0.0
 45
0.000000001
140
0.0
146
3.175
147
0.0
173
     1
178
     0
271
     0
272
     0
276
     2
340
11
  0
ENDTAB
  0
TABLE
  2
BLOCK_RECORD
  5
1
330
0
100
AcDbSymbolTable
 70
    10
  0
BLOCK_RECORD
  5
1F
330
1
100
AcDbSymbolTableRecord
100
AcDbBlockTableRecord
  2
*Model_Space
340
22
  0
BLOCK_RECORD
  5
1B
330
1
100
AcDbSymbolTableRecord
100
AcDbBlockTableRecord
  2
*Paper_Space
340
1E
  0
BLOCK_RECORD
  5
23
330
1
100
AcDbSymbolTableRecord
100
AcDbBlockTableRecord
  2
*Paper_Space0
340
26
  0
BLOCK_RECORD
  5
45
330
1
100
AcDbSymbolTableRecord
100
AcDbBlockTableRecord
  2
Third Angle Projection Block
340
0
102
{BLKREFS
331
6A
102
}
  0
BLOCK_RECORD
  5
6B
330
1
100
AcDbSymbolTableRecord
100
AcDbBlockTableRecord
  2
SW_NOTE_0
340
0
102
{BLKREFS
331
85
102
}
  0
BLOCK_RECORD
  5
95
330
1
100
AcDbSymbolTableRecord
100
AcDbBlockTableRecord
  2
SW_NOTE_1
340
0
102
{BLKREFS
331
9A
102
}
  0
BLOCK_RECORD
  5
9B
330
1
100
AcDbSymbolTableRecord
100
AcDbBlockTableRecord
  2
SW_NOTE_2
340
0
102
{BLKREFS
331
A0
102
}
  0
BLOCK_RECORD
  5
A2
330
1
100
AcDbSymbolTableRecord
100
AcDbBlockTableRecord
  2
SW_NOTE_3
340
0
102
{BLKREFS
331
A7
102
}
  0
BLOCK_RECORD
  5
A9
330
1
100
AcDbSymbolTableRecord
100
AcDbBlockTableRecord
  2
SW_NOTE_4
340
0
102
{BLKREFS
331
AE
102
}
  0
BLOCK_RECORD
  5
11D
330
1
100
AcDbSymbolTableRecord
100
AcDbBlockTableRecord
  2
_D
340
0
  0
BLOCK_RECORD
  5
194
330
1
100
AcDbSymbolTableRecord
100
AcDbBlockTableRecord
  2
_D_1
340
0
  0
BLOCK_RECORD
  5
1AA
330
1
100
AcDbSymbolTableRecord
100
AcDbBlockTableRecord
  2
SW_NOTE_5
340
0
102
{BLKREFS
331
1AF
102
}
  0
ENDTAB
  0
ENDSEC
  0
SECTION
  2
BLOCKS
  0
BLOCK
  5
20
330
1F
100
AcDbEntity
  8
0
100
AcDbBlockBegin
  2
*Model_Space
 70
     0
 10
0.0
 20
0.0
 30
0.0
  3
*Model_Space
  1

  0
ENDBLK
  5
21
330
1F
100
AcDbEntity
  8
0
100
AcDbBlockEnd
  0
BLOCK
  5
1C
330
1B
100
AcDbEntity
 67
     1
  8
0
100
AcDbBlockBegin
  2
*Paper_Space
 70
     0
 10
0.0
 20
0.0
 30
0.0
  3
*Paper_Space
  1

  0
ENDBLK
  5
1D
330
1B
100
AcDbEntity
 67
     1
  8
0
100
AcDbBlockEnd
  0
BLOCK
  5
24
330
23
100
AcDbEntity
  8
0
100
AcDbBlockBegin
  2
*Paper_Space0
 70
     0
 10
0.0
 20
0.0
 30
0.0
  3
*Paper_Space0
  1

  0
ENDBLK
  5
25
330
23
100
AcDbEntity
  8
0
100
AcDbBlockEnd
  0
BLOCK
  5
46
330
45
100
AcDbEntity
  8
0
100
AcDbBlockBegin
  2
Third Angle Projection Block
 70
     0
 10
0.0
 20
0.0
 30
0.0
  3
Third Angle Projection Block
  1

  0
CIRCLE
  5
48
330
45
100
AcDbEntity
  8
0
  6
Continuous
 62
     7
370
    30
100
AcDbCircle
 10
101.4766388944
 20
18.9404083667
 30
0.0
 40
1.768227153674871
  0
CIRCLE
  5
49
330
45
100
AcDbEntity
  8
0
  6
Continuous
 62
     7
370
    30
100
AcDbCircle
 10
101.4766388944
 20
18.9404083667
 30
0.0
 40
3.901228248531818
  0
LINE
  5
4A
330
45
100
AcDbEntity
  8
0
  6
CENTERX2
 62
     7
370
     0
100
AcDbLine
 10
110.1367822585
 20
18.9404083667
 30
0.0
 11
119.4527334874
 21
18.9404083667
 31
0.0
  0
LINE
  5
4B
330
45
100
AcDbEntity
  8
0
  6
Continuous
 62
     7
370
    30
100
AcDbLine
 10
111.0016388944
 20
20.7086355204
 30
0.0
 11
111.0016388944
 21
17.172181213
 31
0.0
  0
LINE
  5
4C
330
45
100
AcDbEntity
  8
0
  6
Continuous
 62
     7
370
    30
100
AcDbLine
 10
111.0016388944
 20
17.172181213
 30
0.0
 11
118.6216388944
 21
15.1304083667
 31
0.0
  0
LINE
  5
4D
330
45
100
AcDbEntity
  8
0
  6
Continuous
 62
     7
370
    30
100
AcDbLine
 10
118.6216388944
 20
15.1304083667
 30
0.0
 11
118.6216388944
 21
22.7504083667
 31
0.0
  0
LINE
  5
4E
330
45
100
AcDbEntity
  8
0
  6
Continuous
 62
     7
370
    30
100
AcDbLine
 10
118.6216388944
 20
22.7504083667
 30
0.0
 11
111.0016388944
 21
20.7086355204
 31
0.0
  0
LINE
  5
4F
330
45
100
AcDbEntity
  8
0
  6
CENTERX2
 62
     7
370
     0
100
AcDbLine
 10
96.6025854619
 20
18.9404083667
 30
0.0
 11
106.3506923269
 21
18.9404083667
 31
0.0
  0
LINE
  5
50
330
45
100
AcDbEntity
  8
0
  6
CENTERX2
 62
     7
370
     0
100
AcDbLine
 10
101.4766388944
 20
23.8144617992
 30
0.0
 11
101.4766388944
 21
14.0663549342
 31
0.0
  0
POINT
  5
51
330
45
100
AcDbEntity
  8
0
  6
Continuous
 62
     7
370
     0
100
AcDbPoint
 10
101.4766388944
 20
18.9404083667
 30
0.0
  0
ENDBLK
  5
47
330
45
100
AcDbEntity
  8
0
100
AcDbBlockEnd
  0
BLOCK
  5
6C
330
6B
100
AcDbEntity
  8
0
100
AcDbBlockBegin
  2
SW_NOTE_0
 70
     0
 10
0.0
 20
0.0
 30
0.0
  3
SW_NOTE_0
  1

  0
MTEXT
  5
6F
330
6B
100
AcDbEntity
  8
0
  6
Continuous
 62
     0
370
     0
100
AcDbMText
 10
0.0
 20
3.0695925553
 30
0.0
 40
2.38125
 41
0.0
 71
     1
 72
     1
  1
NOTES/SPECIFICATIONS:
  7
SLDTEXTSTYLE0
 73
     1
 44
1.0
  0
MTEXT
  5
71
330
6B
100
AcDbEntity
  8
0
  6
Continuous
 62
     0
370
     0
100
AcDbMText
 10
9.9999997765
 20
-3.2804073679
 30
0.0
 40
2.38125
 41
0.0
 71
     1
 72
     1
  1
CLEAR APERTURE: \U+2265 90% OF DIAMETER
  7
SLDTEXTSTYLE1
 73
     1
 44
1.0
  0
MTEXT
  5
72
330
6B
100
AcDbEntity
  8
0
  6
Continuous
 62
     0
370
     0
100
AcDbMText
 10
0.0
 20
-3.2804073679
 30
0.0
 40
2.38125
 41
0.0
 71
     1
 72
     1
  1
1.
  7
SLDTEXTSTYLE0
 73
     1
 44
1.0
  0
MTEXT
  5
73
330
6B
100
AcDbEntity
  8
0
  6
Continuous
 62
     0
370
     0
100
AcDbMText
 10
9.9999997765
 20
-6.4598169091
 30
0.0
 40
2.38125
 41
0.0
 71
     1
 72
     1
  1
TRANSMITTED WAVEFRONT ERROR:
  7
SLDTEXTSTYLE0
 73
     1
 44
1.0
  0
MTEXT
  5
75
330
6B
100
AcDbEntity
  8
0
  6
Continuous
 62
     0
370
     0
100
AcDbMText
 10
62.9916321486
 20
-6.4554071549
 30
0.0
 40
2.38125
 41
0.0
 71
     1
 72
     1
  1
l
  7
SLDTEXTSTYLE2
 73
     1
 44
1.0
  0
MTEXT
  5
76
330
6B
100
AcDbEntity
  8
0
  6
Continuous
 62
     0
370
     0
100
AcDbMText
 10
64.7334735841
 20
-6.4598169091
 30
0.0
 40
2.38125
 41
0.0
 71
     1
 72
     1
  1
/4 @ 633nm OVER CLEAR APERTURE
  7
SLDTEXTSTYLE0
 73
     1
 44
1.0
  0
MTEXT
  5
77
330
6B
100
AcDbEntity
  8
0
  6
Continuous
 62
     0
370
     0
100
AcDbMText
 10
0.0
 20
-6.4598169091
 30
0.0
 40
2.38125
 41
0.0
 71
     1
 72
     1
  1
2.
  7
SLDTEXTSTYLE0
 73
     1
 44
1.0
  0
MTEXT
  5
78
330
6B
100
AcDbEntity
  8
0
  6
Continuous
 62
     0
370
     0
100
AcDbMText
 10
9.9999997765
 20
-9.6348168707
 30
0.0
 40
2.38125
 41
0.0
 71
     1
 72
     1
  1
SURFACE QUALITY: 40-20 SCRATCH-DIG
  7
SLDTEXTSTYLE0
 73
     1
 44
1.0
  0
MTEXT
  5
79
330
6B
100
AcDbEntity
  8
0
  6
Continuous
 62
     0
370
     0
100
AcDbMText
 10
0.0
 20
-9.6348168707
 30
0.0
 40
2.38125
 41
0.0
 71
     1
 72
     1
  1
3.
  7
SLDTEXTSTYLE0
 73
     1
 44
1.0
  0
MTEXT
  5
7A
330
6B
100
AcDbEntity
  8
0
  6
Continuous
 62
     0
370
     0
100
AcDbMText
 10
9.9999997765
 20
-12.8098168324
 30
0.0
 40
2.38125
 41
0.0
 71
     1
 72
     1
  1
PARALLELISM: \U+2264 3 arcmin OVER CLEAR APERTURE
  7
SLDTEXTSTYLE1
 73
     1
 44
1.0
  0
MTEXT
  5
7B
330
6B
100
AcDbEntity
  8
0
  6
Continuous
 62
     0
370
     0
100
AcDbMText
 10
0.0
 20
-12.8098168324
 30
0.0
 40
2.38125
 41
0.0
 71
     1
 72
     1
  1
4.
  7
SLDTEXTSTYLE0
 73
     1
 44
1.0
  0
MTEXT
  5
7C
330
6B
100
AcDbEntity
  8
0
  6
Continuous
 62
     0
370
     0
100
AcDbMText
 10
9.9999997765
 20
-15.984816794
 30
0.0
 40
2.38125
 41
0.0
 71
     1
 72
     1
  1
COATING AOI (S1, S2): 45°
  7
SLDTEXTSTYLE0
 73
     1
 44
1.0
  0
MTEXT
  5
7D
330
6B
100
AcDbEntity
  8
0
  6
Continuous
 62
     0
370
     0
100
AcDbMText
 10
0.0
 20
-15.984816794
 30
0.0
 40
2.38125
 41
0.0
 71
     1
 72
     1
  1
5.
  7
SLDTEXTSTYLE0
 73
     1
 44
1.0
  0
MTEXT
  5
7E
330
6B
100
AcDbEntity
  8
0
  6
Continuous
 62
     0
370
     0
100
AcDbMText
 10
9.9999997765
 20
-19.1598167556
 30
0.0
 40
2.38125
 41
0.0
 71
     1
 72
     1
  1
FILTER COATING (S1)
  7
SLDTEXTSTYLE0
 73
     1
 44
1.0
  0
MTEXT
  5
7F
330
6B
100
AcDbEntity
  8
0
  6
Continuous
 62
     0
370
     0
100
AcDbMText
 10
0.0
 20
-19.1598167556
 30
0.0
 40
2.38125
 41
0.0
 71
     1
 72
     1
  1
6.
  7
SLDTEXTSTYLE0
 73
     1
 44
1.0
  0
MTEXT
  5
80
330
6B
100
AcDbEntity
  8
0
  6
Continuous
 62
     0
370
     0
100
AcDbMText
 10
20.0
 20
-22.3348167173
 30
0.0
 40
2.38125
 41
0.0
 71
     1
 72
     1
  1
REFLECTION BAND (R): > 90% ABSOLUTE 400-872nm
  7
SLDTEXTSTYLE0
 73
     1
 44
1.0
  0
MTEXT
  5
81
330
6B
100
AcDbEntity
  8
0
  6
Continuous
 62
     0
370
     0
100
AcDbMText
 10
20.0
 20
-25.5098166789
 30
0.0
 40
2.38125
 41
0.0
 71
     1
 72
     1
  1
TRANSMISSION BAND (T): > 90% AVERAGE, >85% ABSOLUTE 932-1300nm
  7
SLDTEXTSTYLE0
 73
     1
 44
1.0
  0
MTEXT
  5
82
330
6B
100
AcDbEntity
  8
0
  6
Continuous
 62
     0
370
     0
100
AcDbMText
 10
9.9999997765
 20
-28.6848166405
 30
0.0
 40
2.38125
 41
0.0
 71
     1
 72
     1
  1
AR COATING (S2)
  7
SLDTEXTSTYLE0
 73
     1
 44
1.0
  0
MTEXT
  5
83
330
6B
100
AcDbEntity
  8
0
  6
Continuous
 62
     0
370
     0
100
AcDbMText
 10
0.0
 20
-28.6848166405
 30
0.0
 40
2.38125
 41
0.0
 71
     1
 72
     1
  1
7.
  7
SLDTEXTSTYLE0
 73
     1
 44
1.0
  0
MTEXT
  5
84
330
6B
100
AcDbEntity
  8
0
  6
Continuous
 62
     0
370
     0
100
AcDbMText
 10
20.0
 20
-31.8598166022
 30
0.0
 40
2.38125
 41
0.0
 71
     1
 72
     1
  1
R: < 2% ABSOLUTE 932-1700nm
  7
SLDTEXTSTYLE0
 73
     1
 44
1.0
  0
ENDBLK
  5
6D
330
6B
100
AcDbEntity
  8
0
100
AcDbBlockEnd
  0
BLOCK
  5
96
330
95
100
AcDbEntity
  8
0
100
AcDbBlockBegin
  2
SW_NOTE_1
 70
     0
 10
0.0
 20
0.0
 30
0.0
  3
SW_NOTE_1
  1

  0
MTEXT
  5
98
330
95
100
AcDbEntity
  8
0
  6
Continuous
 62
     0
370
     0
100
AcDbMText
 10
19.90725
 20
1.9645392354
 30
0.0
 40
1.524
 41
0.0
 71
     2
 72
     1
  1
VALUES IN PARENTHESIS ARE CALCULATED
  7
SLDTEXTSTYLE0
 73
     1
 44
1.0
  0
MTEXT
  5
99
330
95
100
AcDbEntity
  8
0
  6
Continuous
 62
     0
370
     0
100
AcDbMText
 10
19.8778795174
 20
-0.5594606586
 30
0.0
 40
1.524
 41
0.0
 71
     2
 72
     1
  1
AND MAY CONTAIN ROUNDOFF ERRORS
  7
SLDTEXTSTYLE0
 73
     1
 44
1.0
  0
ENDBLK
  5
97
330
95
100
AcDbEntity
  8
0
100
AcDbBlockEnd
  0
BLOCK
  5
9C
330
9B
100
AcDbEntity
  8
0
100
AcDbBlockBegin
  2
SW_NOTE_2
 70
     0
 10
0.0
 20
0.0
 30
0.0
  3
SW_NOTE_2
  1

  0
MTEXT
  5
9E
330
9B
100
AcDbEntity
  8
0
  6
Continuous
 62
     0
370
     0
100
AcDbMText
 10
0.0
 20
2.7285267159
 30
0.0
 40
2.1166666667
 41
0.0
 71
     1
 72
     1
  1
DRAWING
  7
SLDTEXTSTYLE0
 73
     1
 44
1.0
  0
MTEXT
  5
9F
330
9B
100
AcDbEntity
  8
0
  6
Continuous
 62
     0
370
     0
100
AcDbMText
 10
0.0
 20
-0.0936954723
 30
0.0
 40
2.1166666667
 41
0.0
 71
     1
 72
     1
  1
PROJECTION
  7
SLDTEXTSTYLE0
 73
     1
 44
1.0
  0
ENDBLK
  5
9D
330
9B
100
AcDbEntity
  8
0
100
AcDbBlockEnd
  0
BLOCK
  5
A3
330
A2
100
AcDbEntity
  8
0
100
AcDbBlockBegin
  2
SW_NOTE_3
 70
     0
 10
0.0
 20
0.0
 30
0.0
  3
SW_NOTE_3
  1

  0
MTEXT
  5
A5
330
A2
100
AcDbEntity
  8
0
  6
Continuous
 62
     0
370
     0
100
AcDbMText
 10
25.052734375
 20
4.0927900738
 30
0.0
 40
3.175
 41
0.0
 71
     2
 72
     1
  1
FOR INFORMATION ONLY
  7
SLDTEXTSTYLE0
 73
     1
 44
1.0
  0
MTEXT
  5
A6
330
A2
100
AcDbEntity
  8
0
  6
Continuous
 62
     0
370
     0
100
AcDbMText
 10
25.3768468589
 20
-0.1405432084
 30
0.0
 40
3.175
 41
0.0
 71
     2
 72
     1
  1
NOT FOR MANUFACTURING PURPOSES
  7
SLDTEXTSTYLE0
 73
     1
 44
1.0
  0
ENDBLK
  5
A4
330
A2
100
AcDbEntity
  8
0
100
AcDbBlockEnd
  0
BLOCK
  5
AA
330
A9
100
AcDbEntity
  8
0
100
AcDbBlockBegin
  2
SW_NOTE_4
 70
     0
 10
0.0
 20
0.0
 30
0.0
  3
SW_NOTE_4
  1

  0
MTEXT
  5
AC
330
A9
100
AcDbEntity
  8
0
  6
Continuous
 62
     0
370
     0
100
AcDbMText
 10
0.0
 20
3.4106583948
 30
0.0
 40
2.6458333333
 41
0.0
 71
     1
 72
     1
  1
Ø 50.8mm DICHROIC MIRROR,
  7
SLDTEXTSTYLE0
 73
     1
 44
1.0
  0
MTEXT
  5
AD
330
A9
100
AcDbEntity
  8
0
  6
Continuous
 62
     0
370
     0
100
AcDbMText
 10
0.0
 20
-0.1171193403
 30
0.0
 40
2.6458333333
 41
0.0
 71
     1
 72
     1
  1
LONG PASS 900nm
  7
SLDTEXTSTYLE0
 73
     1
 44
1.0
  0
ENDBLK
  5
AB
330
A9
100
AcDbEntity
  8
0
100
AcDbBlockEnd
  0
BLOCK
  5
11E
330
11D
100
AcDbEntity
  8
0
100
AcDbBlockBegin
  2
_D
 70
     0
 10
0.0
 20
0.0
 30
0.0
  3
_D
  1

  0
SOLID
  5
120
330
11D
100
AcDbEntity
  8
0
  6
Continuous
 62
     7
370
     0
100
AcDbTrace
 10
107.8028635902
 20
133.2403382443
 30
0.0
 11
110.3837975015
 21
135.1580110906
 31
0.0
 12
109.6566142653
 22
135.8675606244
 32
0.0
 13
109.6566142653
 23
135.8675606244
 33
0.0
  0
LINE
  5
121
330
11D
100
AcDbEntity
  8
0
  6
Continuous
 62
     7
370
     0
100
AcDbLine
 10
129.1668218373
 20
148.8908070741
 30
0.0
 11
128.7376088776
 21
148.8908070741
 31
0.0
  0
LINE
  5
122
330
11D
100
AcDbEntity
  8
0
  6
Continuous
 62
     7
370
     0
100
AcDbLine
 10
128.7376088776
 20
148.8908070741
 30
0.0
 11
128.7376088776
 21
145.5276589976
 31
0.0
  0
LINE
  5
123
330
11D
100
AcDbEntity
  8
0
  6
Continuous
 62
     7
370
     0
100
AcDbLine
 10
128.7376088776
 20
145.5276589976
 30
0.0
 11
129.1668218373
 21
145.5276589976
 31
0.0
  0
LINE
  5
124
330
11D
100
AcDbEntity
  8
0
  6
Continuous
 62
     7
370
     0
100
AcDbLine
 10
137.9970458265
 20
148.8908070741
 30
0.0
 11
138.4262587863
 21
148.8908070741
 31
0.0
  0
LINE
  5
125
330
11D
100
AcDbEntity
  8
0
  6
Continuous
 62
     7
370
     0
100
AcDbLine
 10
138.4262587863
 20
148.8908070741
 30
0.0
 11
138.4262587863
 21
145.5276589976
 31
0.0
  0
LINE
  5
126
330
11D
100
AcDbEntity
  8
0
  6
Continuous
 62
     7
370
     0
100
AcDbLine
 10
138.4262587863
 20
145.5276589976
 30
0.0
 11
137.9970458265
 21
145.5276589976
 31
0.0
  0
LINE
  5
127
330
11D
100
AcDbEntity
  8
0
  6
Continuous
 62
     7
370
     0
100
AcDbLine
 10
107.8028635902
 20
133.2403382443
 30
0.0
 11
124.6056991506
 21
150.4607573386
 31
0.0
  0
LINE
  5
128
330
11D
100
AcDbEntity
  8
0
  6
Continuous
 62
     7
370
     0
100
AcDbLine
 10
124.6056991506
 20
150.4607573386
 30
0.0
 11
128.4156991506
 21
150.4607573386
 31
0.0
  0
MTEXT
  5
129
330
11D
100
AcDbEntity
  8
0
  6
Continuous
 62
     7
370
     0
100
AcDbMText
 10
128.4156991506
 20
152.0485467205
 30
0.1
 40
2.1166666667
 41
0.0
 71
     1
 72
     1
  1
%%c
  7
SLDTEXTSTYLE0
 73
     1
 44
1.0
  0
MTEXT
  5
12A
330
11D
100
AcDbEntity
  8
0
  6
Continuous
 62
     7
370
     0
100
AcDbMText
 10
131.6106899513
 20
152.0485467205
 30
0.1
 40
2.1166666667
 41
0.0
 71
     1
 72
     1
  1
50.8mm
  7
SLDTEXTSTYLE0
 73
     1
 44
1.0
  0
MTEXT
  5
12B
330
11D
100
AcDbEntity
  8
0
  6
Continuous
 62
     7
370
     0
100
AcDbMText
 10
129.7033380588
 20
148.256185597
 30
0.1
 40
2.1166666667
 41
0.0
 71
     1
 72
     1
  1
2.00in
  7
SLDTEXTSTYLE0
 73
     1
 44
1.0
  0
ENDBLK
  5
11F
330
11D
100
AcDbEntity
  8
0
100
AcDbBlockEnd
  0
BLOCK
  5
195
330
194
100
AcDbEntity
  8
0
100
AcDbBlockBegin
  2
_D_1
 70
     0
 10
0.0
 20
0.0
 30
0.0
  3
_D_1
  1

  0
SOLID
  5
197
330
194
100
AcDbEntity
  8
0
  6
Continuous
 62
     7
370
     0
100
AcDbTrace
 10
171.7778003914
 20
79.6607573386
 30
0.0
 11
168.6028003914
 21
80.1687573386
 31
0.0
 12
168.6028003914
 22
79.1527573386
 32
0.0
 13
168.6028003914
 23
79.1527573386
 33
0.0
  0
SOLID
  5
198
330
194
100
AcDbEntity
  8
0
  6
Continuous
 62
     7
370
     0
100
AcDbTrace
 10
176.7778003914
 20
79.6607573386
 30
0.0
 11
179.9528003914
 21
79.1527573386
 31
0.0
 12
179.9528003914
 22
80.1687573386
 32
0.0
 13
179.9528003914
 23
80.1687573386
 33
0.0
  0
LINE
  5
199
330
194
100
AcDbEntity
  8
0
  6
Continuous
 62
     7
370
     0
100
AcDbLine
 10
154.2863915454
 20
79.6607571057
 30
0.0
 11
153.8571785857
 21
79.6607571057
 31
0.0
  0
LINE
  5
19A
330
194
100
AcDbEntity
  8
0
  6
Continuous
 62
     7
370
     0
100
AcDbLine
 10
153.8571785857
 20
79.6607571057
 30
0.0
 11
153.8571785857
 21
76.2976090293
 31
0.0
  0
LINE
  5
19B
330
194
100
AcDbEntity
  8
0
  6
Continuous
 62
     7
370
     0
100
AcDbLine
 10
153.8571785857
 20
76.2976090293
 30
0.0
 11
154.2863915454
 21
76.2976090293
 31
0.0
  0
LINE
  5
19C
330
194
100
AcDbEntity
  8
0
  6
Continuous
 62
     7
370
     0
100
AcDbLine
 10
163.1166155346
 20
79.6607571057
 30
0.0
 11
163.5458284943
 21
79.6607571057
 31
0.0
  0
LINE
  5
19D
330
194
100
AcDbEntity
  8
0
  6
Continuous
 62
     7
370
     0
100
AcDbLine
 10
163.5458284943
 20
79.6607571057
 30
0.0
 11
163.5458284943
 21
76.2976090293
 31
0.0
  0
LINE
  5
19E
330
194
100
AcDbEntity
  8
0
  6
Continuous
 62
     7
370
     0
100
AcDbLine
 10
163.5458284943
 20
76.2976090293
 30
0.0
 11
163.1166155346
 21
76.2976090293
 31
0.0
  0
LINE
  5
19F
330
194
100
AcDbEntity
  8
0
  6
Continuous
 62
     7
370
     0
100
AcDbLine
 10
171.7778003914
 20
88.6907573386
 30
0.0
 11
171.7778003914
 21
77.8827573386
 31
0.0
  0
LINE
  5
1A0
330
194
100
AcDbEntity
  8
0
  6
Continuous
 62
     7
370
     0
100
AcDbLine
 10
176.7778003914
 20
88.6907573386
 30
0.0
 11
176.7778003914
 21
77.8827573386
 31
0.0
  0
LINE
  5
1A1
330
194
100
AcDbEntity
  8
0
  6
Continuous
 62
     7
370
     0
100
AcDbLine
 10
171.7778003914
 20
79.6607573386
 30
0.0
 11
166.1492561452
 21
79.6607573386
 31
0.0
  0
LINE
  5
1A2
330
194
100
AcDbEntity
  8
0
  6
Continuous
 62
     7
370
     0
100
AcDbLine
 10
176.7778003914
 20
79.6607573386
 30
0.0
 11
183.1278003914
 21
79.6607573386
 31
0.0
  0
MTEXT
  5
1A3
330
194
100
AcDbEntity
  8
0
  6
Continuous
 62
     7
370
     0
100
AcDbMText
 10
153.270685373
 20
82.8184967522
 30
0.1
 40
2.1166666667
 41
0.0
 71
     1
 72
     1
  1

  7
SLDTEXTSTYLE0
 73
     1
 44
1.0
  0
MTEXT
  5
1A4
330
194
100
AcDbEntity
  8
0
  6
Continuous
 62
     7
370
     0
100
AcDbMText
 10
153.2432470774
 20
82.8184967522
 30
0.1
 40
2.1166666667
 41
0.0
 71
     1
 72
     1
  1
5.0mm
  7
SLDTEXTSTYLE0
 73
     1
 44
1.0
  0
MTEXT
  5
1A5
330
194
100
AcDbEntity
  8
0
  6
Continuous
 62
     7
370
     0
100
AcDbMText
 10
154.8229077668
 20
79.0261356287
 30
0.1
 40
2.1166666667
 41
0.0
 71
     1
 72
     1
  1
0.20in
  7
SLDTEXTSTYLE0
 73
     1
 44
1.0
  0
MTEXT
  5
1A6
330
194
100
AcDbEntity
  8
0
  6
Continuous
 62
     7
370
     0
100
AcDbMText
 10
165.7472600026
 20
82.8184967522
 30
0.1
 40
2.1166666667
 41
0.0
 71
     1
 72
     1
  1

  7
SLDTEXTSTYLE0
 73
     1
 44
1.0
  0
ENDBLK
  5
196
330
194
100
AcDbEntity
  8
0
100
AcDbBlockEnd
  0
BLOCK
  5
1AB
330
1AA
100
AcDbEntity
  8
0
100
AcDbBlockBegin
  2
SW_NOTE_5
 70
     0
 10
0.0
 20
0.0
 30
0.0
  3
SW_NOTE_5
  1

  0
MTEXT
  5
1AD
330
1AA
100
AcDbEntity
  8
0
  6
Continuous
 62
     0
370
     0
100
AcDbMText
 10
0.5284229435
 20
1.0054786695
 30
0.0
 40
2.1166666667
 41
0.0
 71
     1
 72
     1
  1
S2, INDICATED BY
  7
SLDTEXTSTYLE0
 73
     1
 44
1.0
  0
MTEXT
  5
1AE
330
1AA
100
AcDbEntity
  8
0
  6
Continuous
 62
     0
370
     0
100
AcDbMText
 10
0.5284229435
 20
-1.8167435186
 30
0.0
 40
2.1166666667
 41
0.0
 71
     1
 72
     1
  1
ENGRAVED ARROW
  7
SLDTEXTSTYLE0
 73
     1
 44
1.0
  0
ENDBLK
  5
1AC
330
1AA
100
AcDbEntity
  8
0
100
AcDbBlockEnd
  0
ENDSEC
  0
SECTION
  2
ENTITIES
  0
LINE
  5
52
330
1F
100
AcDbEntity
  8
0
  6
Continuous
 62
     7
370
     0
100
AcDbLine
 10
1.5793501011
 20
214.6453799966
 30
0.0
 11
277.9892068491
 21
214.6453799966
 31
0.0
  0
LINE
  5
53
330
1F
100
AcDbEntity
  8
0
  6
Continuous
 62
     7
370
     0
100
AcDbLine
 10
1.5793501011
 20
214.6453799966
 30
0.0
 11
1.5793501011
 21
0.9031642596
 31
0.0
  0
LINE
  5
54
330
1F
100
AcDbEntity
  8
0
  6
Continuous
 62
     7
370
     0
100
AcDbLine
 10
277.9892068491
 20
0.9031642596
 30
0.0
 11
1.5793501011
 21
0.9031642596
 31
0.0
  0
LINE
  5
55
330
1F
100
AcDbEntity
  8
0
  6
Continuous
 62
     7
370
     0
100
AcDbLine
 10
277.9892068491
 20
0.9031642596
 30
0.0
 11
277.9892068491
 21
214.6453799966
 31
0.0
  0
LINE
  5
56
330
1F
100
AcDbEntity
  8
0
  6
Continuous
 62
     7
370
     0
100
AcDbLine
 10
215.7427640041
 20
12.2958890132
 30
0.0
 11
171.6327596684
 21
12.2958890132
 31
0.0
  0
LINE
  5
57
330
1F
100
AcDbEntity
  8
0
  6
Continuous
 62
     7
370
     0
100
AcDbLine
 10
171.6327596684
 20
12.2958890132
 30
0.0
 11
171.6327596684
 21
26.1661402506
 31
0.0
  0
LINE
  5
58
330
1F
100
AcDbEntity
  8
0
  6
Continuous
 62
     7
370
     0
100
AcDbLine
 10
171.6327596684
 20
0.9031642596
 30
0.0
 11
171.6327596684
 21
26.1661402506
 31
0.0
  0
LINE
  5
59
330
1F
100
AcDbEntity
  8
0
  6
Continuous
 62
     7
370
     0
100
AcDbLine
 10
215.7427640041
 20
17.1604579552
 30
0.0
 11
277.9892068491
 21
17.1604579552
 31
0.0
  0
LINE
  5
5A
330
1F
100
AcDbEntity
  8
0
  6
Continuous
 62
     7
370
     0
100
AcDbLine
 10
215.7427640041
 20
35.2394508358
 30
0.0
 11
215.7427640041
 21
0.9031642596
 31
0.0
  0
LINE
  5
5B
330
1F
100
AcDbEntity
  8
0
  6
Continuous
 62
     7
370
     0
100
AcDbLine
 10
215.7427640041
 20
26.1661402506
 30
0.0
 11
171.6327596684
 21
26.1661402506
 31
0.0
  0
LINE
  5
5C
330
1F
100
AcDbEntity
  8
0
  6
Continuous
 62
     7
370
     0
100
AcDbLine
 10
215.7427640041
 20
9.1409200612
 30
0.0
 11
277.9892068491
 21
9.1409200612
 31
0.0
  0
LINE
  5
5D
330
1F
100
AcDbEntity
  8
0
  6
Continuous
 62
     7
370
     0
100
AcDbLine
 10
215.7427640041
 20
16.9216824031
 30
0.0
 11
171.6327596684
 21
16.9216824031
 31
0.0
  0
LINE
  5
5E
330
1F
100
AcDbEntity
  8
0
  6
Continuous
 62
     7
370
     0
100
AcDbLine
 10
215.7427640041
 20
21.4874005542
 30
0.0
 11
171.6327596684
 21
21.4874005542
 31
0.0
  0
LINE
  5
5F
330
1F
100
AcDbEntity
  8
0
  6
Continuous
 62
     7
370
     0
100
AcDbLine
 10
186.1338100705
 20
26.1661402506
 30
0.0
 11
186.1338100705
 21
12.2958890132
 31
0.0
  0
LINE
  5
60
330
1F
100
AcDbEntity
  8
0
  6
Continuous
 62
     7
370
     0
100
AcDbLine
 10
198.2145906188
 20
26.1661402506
 30
0.0
 11
198.2145906188
 21
12.2958890132
 31
0.0
  0
LINE
  5
61
330
1F
100
AcDbEntity
  8
0
  6
Continuous
 62
     7
370
     0
100
AcDbLine
 10
253.7490408369
 20
9.1409200612
 30
0.0
 11
253.7490408369
 21
0.9031642596
 31
0.0
  0
LINE
  5
62
330
1F
100
AcDbEntity
  8
0
  6
Continuous
 62
     7
370
     0
100
AcDbLine
 10
171.6327596684
 20
12.2958890132
 30
0.0
 11
171.6327596684
 21
7.5627342528
 31
0.0
  0
LINE
  5
63
330
1F
100
AcDbEntity
  8
0
  6
Continuous
 62
     7
370
     0
100
AcDbLine
 10
171.6327596684
 20
7.5627342528
 30
0.0
 11
215.7427640041
 21
7.5627342528
 31
0.0
  0
LINE
  5
64
330
1F
100
AcDbEntity
  8
0
  6
Continuous
 62
     7
370
     0
100
AcDbLine
 10
171.6327596684
 20
7.5627342528
 30
0.0
 11
171.6327596684
 21
35.2394508358
 31
0.0
  0
LINE
  5
65
330
1F
100
AcDbEntity
  8
0
  6
Continuous
 62
     7
370
     0
100
AcDbLine
 10
171.6327596684
 20
35.2394508358
 30
0.0
 11
215.7427640041
 21
35.2394508358
 31
0.0
  0
LINE
  5
66
330
1F
100
AcDbEntity
  8
0
  6
Continuous
 62
     7
370
     0
100
AcDbLine
 10
270.1683598194
 20
17.1604579552
 30
0.0
 11
270.1683598194
 21
9.1409200612
 31
0.0
  0
LINE
  5
67
330
1F
100
AcDbEntity
  8
0
  6
Continuous
 62
     7
370
     0
100
AcDbLine
 10
215.7427640041
 20
35.2394508358
 30
0.0
 11
277.9892068491
 21
35.2394508358
 31
0.0
  0
LINE
  5
68
330
1F
100
AcDbEntity
  8
0
  6
Continuous
 62
     7
370
     0
100
AcDbLine
 10
277.9892068491
 20
35.2394508358
 30
0.0
 11
277.9892068491
 21
50.0331356147
 31
0.0
  0
LINE
  5
69
330
1F
100
AcDbEntity
  8
0
  6
Continuous
 62
     7
370
     0
100
AcDbLine
 10
215.7427640041
 20
24.8927335446
 30
0.0
 11
277.9892068491
 21
24.8927335446
 31
0.0
  0
INSERT
  5
6A
330
1F
100
AcDbEntity
  8
0
  6
Continuous
 62
     7
100
AcDbBlockReference
  2
Third Angle Projection Block
 10
117.7262204235
 20
15.5162339489
 30
0.0
 41
0.8
 42
0.8
 43
0.8
  0
INSERT
  5
85
330
1F
100
AcDbEntity
  8
0
  6
Continuous
 62
     7
370
     0
100
AcDbBlockReference
  2
SW_NOTE_0
 10
7.8242281509
 20
62.170998082
 30
0.0
  0
MTEXT
  5
86
330
1F
100
AcDbEntity
  8
0
  6
Continuous
 62
     7
370
     0
100
AcDbMText
 10
273.9057868792
 20
13.1125292762
 30
0.0
 40
3.175
 41
0.0
 71
     2
 72
     1
  1
E
  7
SLDTEXTSTYLE0
 73
     1
 44
1.0
  0
MTEXT
  5
87
330
1F
100
AcDbEntity
  8
0
  6
Continuous
 62
     7
370
     0
100
AcDbMText
 10
234.5521020598
 20
5.1306563898
 30
0.0
 40
3.175
 41
0.0
 71
     2
 72
     1
  1
DMLP900L
  7
SLDTEXTSTYLE0
 73
     1
 44
1.0
  0
MTEXT
  5
88
330
1F
100
AcDbEntity
  8
0
  6
Continuous
 62
     7
370
     0
100
AcDbMText
 10
216.4199766059
 20
16.8243178599
 30
0.0
 40
2.1166666667
 41
0.0
 71
     1
 72
     1
  1
MATERIAL
  7
SLDTEXTSTYLE0
 73
     1
 44
1.0
  0
MTEXT
  5
89
330
1F
100
AcDbEntity
  8
0
  6
Continuous
 62
     7
370
     0
100
AcDbMText
 10
174.230946566
 20
20.054553926
 30
0.0
 40
1.8520833333
 41
0.0
 71
     1
 72
     1
  1
DRAWN
  7
SLDTEXTSTYLE0
 73
     1
 44
1.0
  0
MTEXT
  5
8A
330
1F
100
AcDbEntity
  8
0
  6
Continuous
 62
     7
370
     0
100
AcDbMText
 10
172.3960124543
 20
15.5787169747
 30
0.0
 40
1.8520833333
 41
0.0
 71
     1
 72
     1
  1
APPROVAL
  7
SLDTEXTSTYLE0
 73
     1
 44
1.0
  0
MTEXT
  5
8B
330
1F
100
AcDbEntity
  8
0
  6
Continuous
 62
     7
370
     0
100
AcDbMText
 10
271.321689486
 20
16.0237652193
 30
0.0
 40
2.1166666667
 41
0.0
 71
     1
 72
     1
  1
REV
  7
SLDTEXTSTYLE0
 73
     1
 44
1.0
  0
MTEXT
  5
8C
330
1F
100
AcDbEntity
  8
0
  6
Continuous
 62
     7
370
     0
100
AcDbMText
 10
190.2958696448
 20
20.3177146903
 30
0.0
 40
2.1166666667
 41
0.0
 71
     1
 72
     1
  1
TW
  7
SLDTEXTSTYLE0
 73
     1
 44
1.0
  0
MTEXT
  5
8D
330
1F
100
AcDbEntity
  8
0
  6
Continuous
 62
     7
370
     0
100
AcDbMText
 10
190.2958696448
 20
15.841877739
 30
0.0
 40
2.1166666667
 41
0.0
 71
     1
 72
     1
  1
DD
  7
SLDTEXTSTYLE0
 73
     1
 44
1.0
  0
MTEXT
  5
8E
330
1F
100
AcDbEntity
  8
0
  6
Continuous
 62
     7
370
     0
100
AcDbMText
 10
199.8662436873
 20
20.3177146903
 30
0.0
 40
2.1166666667
 41
0.0
 71
     1
 72
     1
  1
17/OCT/11
  7
SLDTEXTSTYLE0
 73
     1
 44
1.0
  0
MTEXT
  5
8F
330
1F
100
AcDbEntity
  8
0
  6
Continuous
 62
     7
370
     0
100
AcDbMText
 10
203.6145073853
 20
24.8221395769
 30
0.0
 40
2.1166666667
 41
0.0
 71
     1
 72
     1
  1
DATE
  7
SLDTEXTSTYLE0
 73
     1
 44
1.0
  0
MTEXT
  5
90
330
1F
100
AcDbEntity
  8
0
  6
Continuous
 62
     7
370
     0
100
AcDbMText
 10
199.8662436873
 20
15.841877739
 30
0.0
 40
2.1166666667
 41
0.0
 71
     1
 72
     1
  1
26/FEB/14
  7
SLDTEXTSTYLE0
 73
     1
 44
1.0
  0
MTEXT
  5
92
330
1F
100
AcDbEntity
  8
0
  6
Continuous
 62
     7
370
     0
100
AcDbMText
 10
229.402906477
 20
27.7957480569
 30
0.0
 40
2.1166666667
 41
0.0
 71
     1
 72
     1
  1
w w w . t h o r  l a b s . c o m
  7
SLDTEXTSTYLE3
 73
     1
 44
1.0
  0
MTEXT
  5
93
330
1F
100
AcDbEntity
  8
0
  6
Continuous
 62
     7
370
     0
100
AcDbMText
 10
216.7004035316
 20
8.3494791871
 30
0.0
 40
2.1166666667
 41
0.0
 71
     1
 72
     1
  1
ITEM #
  7
SLDTEXTSTYLE0
 73
     1
 44
1.0
  0
MTEXT
  5
94
330
1F
100
AcDbEntity
  8
0
  6
Continuous
 62
     7
370
     0
100
AcDbMText
 10
266.1678480997
 20
5.1306563898
 30
0.0
 40
3.175
 41
0.0
 71
     2
 72
     1
  1
0.12 kg
  7
SLDTEXTSTYLE0
 73
     1
 44
1.0
  0
INSERT
  5
9A
330
1F
100
AcDbEntity
  8
0
  6
Continuous
 62
     7
370
     0
100
AcDbBlockReference
  2
SW_NOTE_1
 10
174.8430140051
 20
4.4558554801
 30
0.0
  0
INSERT
  5
A0
330
1F
100
AcDbEntity
  8
0
  6
Continuous
 62
     7
370
     0
100
AcDbBlockReference
  2
SW_NOTE_2
 10
174.5483650337
 20
30.4835322715
 30
0.0
  0
MTEXT
  5
A1
330
1F
100
AcDbEntity
  8
0
  6
Continuous
 62
     7
370
     0
100
AcDbMText
 10
187.9273588276
 20
24.8221395769
 30
0.0
 40
2.1166666667
 41
0.0
 71
     1
 72
     1
  1
NAME
  7
SLDTEXTSTYLE0
 73
     1
 44
1.0
  0
INSERT
  5
A7
330
1F
100
AcDbEntity
  8
0
  6
Continuous
 62
     7
370
     0
100
AcDbBlockReference
  2
SW_NOTE_3
 10
58.6204667508
 20
8.1776609732
 30
0.0
  0
MTEXT
  5
A8
330
1F
100
AcDbEntity
  8
0
  6
Continuous
 62
     7
370
     0
100
AcDbMText
 10
179.1174811218
 20
10.6680638482
 30
0.0
 40
1.5875
 41
0.0
 71
     1
 72
     1
  1
COPYRIGHT © 2011 BY THORLABS
  7
SLDTEXTSTYLE0
 73
     1
 44
1.0
  0
INSERT
  5
AE
330
1F
100
AcDbEntity
  8
0
  6
Continuous
 62
     7
370
     0
100
AcDbBlockReference
  2
SW_NOTE_4
 10
219.4903195239
 20
20.9611555011
 30
0.0
  0
MTEXT
  5
AF
330
1F
100
AcDbEntity
  8
0
  6
Continuous
 62
     7
370
     0
100
AcDbMText
 10
254.5318000914
 20
8.3494791871
 30
0.0
 40
2.1166666667
 41
0.0
 71
     1
 72
     1
  1
APPROX WEIGHT
  7
SLDTEXTSTYLE0
 73
     1
 44
1.0
  0
MTEXT
  5
B0
330
1F
100
AcDbEntity
  8
0
  6
Continuous
 62
     7
370
     0
100
AcDbMText
 10
243.0107086898
 20
13.2422338929
 30
0.0
 40
2.6458333333
 41
0.0
 71
     2
 72
     1
  1
UV GRADE FUSED SILICA
  7
SLDTEXTSTYLE0
 73
     1
 44
1.0
  0
LINE
  5
B1
330
1F
100
AcDbEntity
  8
0
  6
Continuous
 62
     7
370
     0
100
AcDbLine
 10
216.2422348533
 20
187.2814203967
 30
0.0
 11
216.2422348533
 21
187.0364979632
 31
0.0
  0
LINE
  5
B2
330
1F
100
AcDbEntity
  8
0
  6
Continuous
 62
     7
370
     0
100
AcDbLine
 10
233.9877304502
 20
156.2970673026
 30
0.0
 11
234.1998280071
 21
156.1745861825
 31
0.0
  0
LINE
  5
B3
330
1F
100
AcDbEntity
  8
0
  6
Continuous
 62
     7
370
     0
100
AcDbLine
 10
246.9017149999
 20
154.9153962721
 30
0.0
 11
250.0129848372
 21
156.7114941181
 31
0.0
  0
LINE
  5
B4
330
1F
100
AcDbEntity
  8
0
  6
Continuous
 62
     7
370
     0
100
AcDbLine
 10
224.6150490282
 20
200.7067763271
 30
0.0
 11
221.503779191
 21
198.9106784811
 31
0.0
  0
LINE
  5
B5
330
1F
100
AcDbEntity
  8
0
  6
Continuous
 62
     7
370
     0
100
AcDbLine
 10
255.2745291748
 20
168.3407522024
 30
0.0
 11
255.2745291748
 21
168.585674636
 31
0.0
  0
LINE
  5
B6
330
1F
100
AcDbEntity
  8
0
  6
Continuous
 62
     7
370
     0
100
AcDbLine
 10
237.529033578
 20
199.3251052966
 30
0.0
 11
237.316936021
 21
199.4475864167
 31
0.0
  0
LWPOLYLINE
  5
B7
330
1F
100
AcDbEntity
  8
0
  6
Continuous
 62
     7
370
     0
100
AcDbPolyline
 90
      170
 70
   128
 43
0.0
 10
251.7389952689
 20
166.5446543564
 10
251.7267303401
 20
167.3135413411
 10
251.6899525051
 20
168.0955264402
 10
251.6287125941
 20
168.8895288799
 10
251.5430952462
 20
169.6944512774
 10
251.4332187922
 20
170.5091811577
 10
251.2992350913
 20
171.3325924907
 10
251.141329321
 20
172.163547248
 10
250.9597197213
 20
173.0008969753
 10
250.754657293
 20
173.84348438
 10
250.5264254508
 20
174.6901449306
 10
250.2753396316
 20
175.5397084661
 10
250.0017468586
 20
176.3910008132
 10
249.7060252617
 20
177.2428454093
 10
249.3885835546
 20
178.0940649287
 10
249.0498604704
 20
178.9434829094
 10
248.6903241548
 20
179.7899253793
 10
248.3104715193
 20
180.6322224789
 10
247.9108275545
 20
181.4692100779
 10
247.4919446042
 20
182.299731384
 10
247.0544016023
 20
183.1226385422
 10
246.5988032727
 20
183.9367942207
 10
246.1257792931
 20
184.7410731832
 10
245.6359834253
 20
185.5343638439
 10
245.1300926112
 20
186.3155698038
 10
244.6088060373
 20
187.0836113658
 10
244.0728441687
 20
187.8374270276
 10
243.5229477528
 20
188.5759749481
 10
242.9598767959
 20
189.2982343876
 10
242.3844095128
 20
190.0032071187
 10
241.7973412508
 20
190.6899188056
 10
241.1994833912
 20
191.3574203511
 10
240.5916622274
 20
192.0047892079
 10
239.9747178227
 20
192.6311306542
 10
239.3495028499
 20
193.2355790296
 10
238.7168814122
 20
193.8172989323
 10
238.0777278495
 20
194.3754863729
 10
237.4329255293
 20
194.9093698862
 10
236.7833656265
 20
195.4182115973
 10
236.1299458913
 20
195.901308241
 10
235.4735694085
 20
196.3579921345
 10
234.8151433494
 20
196.7876320994
 10
234.1555777181
 20
197.1896343348
 10
233.4957840935
 20
197.5634432373
 10
232.8366743699
 20
197.9085421696
 10
232.179159496
 20
198.2244541737
 10
231.5241482167
 20
198.5107426309
 10
230.8725458163
 20
198.7670118648
 10
230.225252868
 20
198.9929076884
 10
229.5831639889
 20
199.1881178931
 10
228.9471666035
 20
199.3523726811
 10
228.3181397174
 20
199.4854450374
 10
227.6969527023
 20
199.587151044
 10
227.0844640946
 20
199.657350134
 10
226.4815204086
 20
199.6959452862
 10
225.8889549667
 20
199.7028831583
 10
225.3075867475
 20
199.6781541618
 10
224.7382192544
 20
199.6217924743
 10
224.1816394042
 20
199.5338759927
 10
223.6386164405
 20
199.4145262255
 10
223.1099008699
 20
199.2639081248
 10
222.5962234247
 20
199.0822298584
 10
222.0982940534
 20
198.8697425219
 10
221.6168009392
 20
198.6267397921
 10
221.1524095488
 20
198.3535575204
 10
220.705761713
 20
198.0505732694
 10
220.2774747391
 20
197.7182057906
 10
219.8681405583
 20
197.3569144457
 10
219.4783249073
 20
196.9671985717
 10
219.1085665464
 20
196.5495967912
 10
218.7593765147
 20
196.1046862674
 10
218.4312374245
 20
195.6330819065
 10
218.1246027933
 20
195.1354355082
 10
217.8398964179
 20
194.6124348646
 10
217.577511788
 20
194.0648028096
 10
217.3378115428
 20
193.49329622
 10
217.1211269696
 20
192.8987049692
 10
216.9277575459
 20
192.2818508358
 10
216.7579705258
 20
191.6435863678
 10
216.6120005701
 20
190.984793704
 10
216.4900494224
 20
190.3063833551
 10
216.3922856302
 20
189.6092929452
 10
216.3188443118
 20
188.894485916
 10
216.2698269698
 20
188.1629501951
 10
216.2453013504
 20
187.4156968305
 10
216.2453013504
 20
186.6537585937
 10
216.2698269698
 20
185.8781885518
 10
216.3188443118
 20
185.0900586123
 10
216.3922856302
 20
184.2904580418
 10
216.4900494224
 20
183.4804919601
 10
216.6120005701
 20
182.6612798131
 10
216.7579705258
 20
181.8339538257
 10
216.9277575459
 20
180.9996574369
 10
217.1211269696
 20
180.1595437193
 10
217.3378115428
 20
179.3147737855
 10
217.577511788
 20
178.4665151836
 10
217.8398964179
 20
177.6159402832
 10
218.1246027933
 20
176.7642246555
 10
218.4312374245
 20
175.9125454478
 10
218.7593765147
 20
175.0620797576
 10
219.1085665464
 20
174.2140030048
 10
219.4783249073
 20
173.3694873079
 10
219.8681405583
 20
172.5296998633
 10
220.2774747391
 20
171.695801333
 10
220.705761713
 20
170.8689442397
 10
221.1524095488
 20
170.0502713742
 10
221.6168009392
 20
169.240914216
 10
222.0982940534
 20
168.4419913695
 10
222.5962234247
 20
167.654607018
 10
223.1099008699
 20
166.8798493975
 10
223.6386164405
 20
166.1187892925
 10
224.1816394042
 20
165.3724785567
 10
224.7382192544
 20
164.6419486585
 10
225.3075867475
 20
163.928209256
 10
225.8889549667
 20
163.2322468013
 10
226.4815204086
 20
162.555023177
 10
227.0844640946
 20
161.8974743671
 10
227.6969527023
 20
161.2605091631
 10
228.3181397174
 20
160.6450079083
 10
228.9471666035
 20
160.0518212808
 10
229.5831639889
 20
159.4817691177
 10
230.225252868
 20
158.9356392825
 10
230.8725458163
 20
158.4141865757
 10
231.5241482167
 20
157.9181316919
 10
232.179159496
 20
157.4481602234
 10
232.8366743699
 20
157.0049217131
 10
233.4957840935
 20
156.5890287566
 10
234.1555777181
 20
156.2010561552
 10
234.8151433494
 20
155.841540122
 10
235.4735694085
 20
155.5109775405
 10
236.1299458913
 20
155.2098252779
 10
236.7833656265
 20
154.9384995537
 10
237.4329255293
 20
154.6973753645
 10
238.0777278495
 20
154.4867859655
 10
238.7168814122
 20
154.3070224103
 10
239.3495028499
 20
154.1583331482
 10
239.9747178227
 20
154.0409236812
 10
240.5916622274
 20
153.9549562798
 10
241.1994833912
 20
153.9005497585
 10
241.7973412508
 20
153.8777793122
 10
242.3844095128
 20
153.8866764115
 10
242.9598767959
 20
153.92722876
 10
243.5229477528
 20
153.9993803107
 10
244.0728441687
 20
154.1030313435
 10
244.6088060373
 20
154.2380386035
 10
245.1300926112
 20
154.4042154985
 10
245.6359834253
 20
154.601332357
 10
246.1257792931
 20
154.8291167458
 10
246.5988032727
 20
155.0872538465
 10
247.0544016023
 20
155.3753868904
 10
247.4919446042
 20
155.6931176516
 10
247.9108275545
 20
156.0400069977
 10
248.3104715193
 20
156.4155754964
 10
248.6903241548
 20
156.8193040783
 10
249.0498604704
 20
157.2506347541
 10
249.3885835546
 20
157.7089713862
 10
249.7060252617
 20
158.193680512
 10
250.0017468586
 20
158.7040922199
 10
250.2753396316
 20
159.2395010751
 10
250.5264254508
 20
159.7991670943
 10
250.754657293
 20
160.3823167689
 10
250.9597197213
 20
160.9881441335
 10
251.141329321
 20
161.6158118802
 10
251.2992350913
 20
162.2644525157
 10
251.4332187922
 20
162.9331695605
 10
251.5430952462
 20
163.6210387873
 10
251.6287125941
 20
164.327109499
 10
251.6899525051
 20
165.0504058425
 10
251.7267303401
 20
165.7899281571
 10
251.7389952689
 20
166.5446543564
  0
LWPOLYLINE
  5
B8
330
1F
100
AcDbEntity
  8
0
  6
Continuous
 62
     7
370
     0
100
AcDbPolyline
 90
       44
 70
   128
 43
0.0
 10
252.1632593376
 20
166.5446543564
 10
252.1509933879
 20
165.7853561927
 10
252.1142122928
 20
165.041257103
 10
252.0529662906
 20
164.3133734372
 10
251.9673390362
 20
163.6026993967
 10
251.857447486
 20
162.9102056768
 10
251.7234417387
 20
162.2368381407
 10
251.56550483
 20
161.5835165275
 10
251.3838524828
 20
160.9511331957
 10
251.1787328122
 20
160.3405519051
 10
250.9504259871
 20
159.7526066362
 10
250.6992438472
 20
159.1881004516
 10
250.425529477
 20
158.6478043987
 10
250.1296567374
 20
158.132456457
 10
249.8120297551
 20
157.6427605298
 10
249.4730823702
 20
157.1793854828
 10
249.1132775442
 20
156.7429642306
 10
248.733106727
 20
156.3340928722
 10
248.3330891865
 20
155.9533298766
 10
247.9137712983
 20
155.6011953203
 10
247.4757258003
 20
155.2781701767
 10
247.0195510099
 20
154.9846956594
 10
246.5458700071
 20
154.7211726191
 10
246.055329783
 20
154.4879609968
 10
245.5486003568
 20
154.2853793313
 10
245.0263738597
 20
154.113704325
 10
244.4893635904
 20
153.9731704651
 10
243.9383030403
 20
153.8639697041
 10
243.3739448918
 20
153.7862511971
 10
242.7970599903
 20
153.7401210982
 10
242.2084362912
 20
153.7256424155
 10
241.6088777836
 20
153.7428349252
 10
240.9992033923
 20
153.7916751444
 10
240.3802458593
 20
153.8720963633
 10
239.752850606
 20
153.9839887361
 10
239.1178745789
 20
154.1271994312
 10
238.4761850789
 20
154.3015328402
 10
237.8286585766
 20
154.5067508445
 10
237.1761795154
 20
154.7425731411
 10
236.5196391032
 20
155.008677625
 10
235.8599340952
 20
155.3047008296
 10
235.1979655691
 20
155.6302384227
 10
234.5346376942
 20
155.9848457591
 10
234.1998280071
 20
156.1745861825
  0
LWPOLYLINE
  5
B9
330
1F
100
AcDbEntity
  8
0
  6
Continuous
 62
     7
370
     0
100
AcDbPolyline
 90
       86
 70
   128
 43
0.0
 10
216.2422348533
 20
187.2814203967
 10
216.254500803
 20
188.0407185604
 10
216.2912818982
 20
188.7848176501
 10
216.3525279003
 20
189.512701316
 10
216.4381551547
 20
190.2233753565
 10
216.5480467049
 20
190.9158690763
 10
216.6820524522
 20
191.5892366124
 10
216.8399893609
 20
192.2425582257
 10
217.0216417081
 20
192.8749415574
 10
217.2267613787
 20
193.485522848
 10
217.4550682038
 20
194.0734681169
 10
217.7062503437
 20
194.6379743016
 10
217.9799647139
 20
195.1782703545
 10
218.2758374535
 20
195.6936182962
 10
218.5934644358
 20
196.1833142234
 10
218.9324118207
 20
196.6466892704
 10
219.2922166468
 20
197.0831105225
 10
219.6723874639
 20
197.491981881
 10
220.0724050045
 20
197.8727448766
 10
220.4917228927
 20
198.2248794329
 10
220.9297683907
 20
198.5479045764
 10
221.385943181
 20
198.8413790938
 10
221.8596241839
 20
199.104902134
 10
222.3501644079
 20
199.3381137564
 10
222.8568938342
 20
199.5406954218
 10
223.3791203312
 20
199.7123704282
 10
223.9161306005
 20
199.852904288
 10
224.4671911507
 20
199.962105049
 10
225.0315492991
 20
200.039823556
 10
225.6084342006
 20
200.085953655
 10
226.1970578998
 20
200.1004323377
 10
226.7966164074
 20
200.0832398279
 10
227.4062907986
 20
200.0343996087
 10
228.0252483317
 20
199.9539783899
 10
228.652643585
 20
199.8420860171
 10
229.2876196121
 20
199.6988753219
 10
229.9293091121
 20
199.524541913
 10
230.5768356143
 20
199.3193239086
 10
231.2293146755
 20
199.0835016121
 10
231.8858550878
 20
198.8173971281
 10
232.5455600958
 20
198.5213739236
 10
233.2075286219
 20
198.1958363305
 10
233.8708564967
 20
197.8412289941
 10
234.5346376942
 20
197.4580362652
 10
235.1979655691
 20
197.0467815392
 10
235.8599340952
 20
196.6080265405
 10
236.5196391032
 20
196.1423705556
 10
237.1761795154
 20
195.6504496146
 10
237.8286585766
 20
195.1329356223
 10
238.4761850789
 20
194.5905354406
 10
239.1178745789
 20
194.0239899229
 10
239.752850606
 20
193.4340729023
 10
240.3802458593
 20
192.8215901343
 10
240.9992033923
 20
192.1873781969
 10
241.6088777836
 20
191.5323033472
 10
242.2084362912
 20
190.8572603387
 10
242.7970599903
 20
190.163171199
 10
243.3739448918
 20
189.4509839702
 10
243.9383030403
 20
188.7216714145
 10
244.4893635904
 20
187.9762296851
 10
245.0263738597
 20
187.2156769658
 10
245.5486003568
 20
186.4410520801
 10
246.055329783
 20
185.6534130724
 10
246.5458700071
 20
184.8538357628
 10
247.0195510099
 20
184.0434122778
 10
247.4757258003
 20
183.2232495583
 10
247.9137712983
 20
182.3944678481
 10
248.3330891865
 20
181.5581991632
 10
248.733106727
 20
180.715585746
 10
249.1132775442
 20
179.8677785051
 10
249.4730823702
 20
179.0159354433
 10
249.8120297551
 20
178.1612200756
 10
250.1296567374
 20
177.3047998406
 10
250.425529477
 20
176.4478445051
 10
250.6992438472
 20
175.5915245671
 10
250.9504259871
 20
174.7370096567
 10
251.1787328122
 20
173.8854669384
 10
251.3838524828
 20
173.0380595171
 10
251.56550483
 20
172.1959448495
 10
251.7234417387
 20
171.3602731629
 10
251.857447486
 20
170.5321858843
 10
251.9673390362
 20
169.7128140813
 10
252.0529662906
 20
168.9032769172
 10
252.1142122928
 20
168.1046801224
 10
252.1509933879
 20
167.3181144842
 10
252.1632593376
 20
166.5446543564
  0
ARC
  5
BA
330
1F
100
AcDbEntity
  8
0
  6
Continuous
 62
     7
370
     0
100
AcDbCircle
 10
216.2574473995
 20
168.4126031436
 30
0.0
 40
35.14565313743385
100
AcDbArc
 50
45.5574811247
 51
47.4434025227
  0
LINE
  5
BB
330
1F
100
AcDbEntity
  8
0
  6
Continuous
 62
     7
370
     0
100
AcDbLine
 10
241.9004650061
 20
195.3827050572
 30
0.0
 11
240.0270911962
 21
194.3012293766
 31
0.0
  0
ARC
  5
BC
330
1F
100
AcDbEntity
  8
0
  6
Continuous
 62
     7
370
     0
100
AcDbCircle
 10
218.8306553503
 20
170.2502289914
 30
0.0
 40
34.11535535142372
100
AcDbArc
 50
47.4502992141
 51
47.9312335668
  0
LINE
  5
BD
330
1F
100
AcDbEntity
  8
0
  6
Continuous
 62
     7
370
     0
100
AcDbLine
 10
239.5673752379
 20
194.3508506339
 30
0.0
 11
241.6886955815
 21
195.5754628017
 31
0.0
  0
ARC
  5
BE
330
1F
100
AcDbEntity
  8
0
  6
Continuous
 62
     7
370
     0
100
AcDbCircle
 10
216.1521002691
 20
168.4185065647
 30
0.0
 40
34.93939854650768
100
AcDbArc
 50
45.55330367
 51
47.919949605
  0
LINE
  5
BF
330
1F
100
AcDbEntity
  8
0
  6
Continuous
 62
     7
370
     0
100
AcDbLine
 10
240.866200147
 20
193.5049570122
 30
0.0
 11
240.6182536133
 21
193.3618205251
 31
0.0
  0
SPLINE
  5
C0
330
1F
100
AcDbEntity
  8
0
  6
Continuous
 62
     7
370
     0
100
AcDbSpline
210
0.0
220
0.0
230
1.0
 70
     8
 71
     3
 72
    14
 73
    10
 74
     0
 42
0.00000001
 43
0.00000001
 12
1.0
 22
0.0
 32
0.0
 13
1.0
 23
0.0
 33
0.0
 40
0.0
 40
0.0
 40
0.0
 40
0.0
 40
0.1249642785198784
 40
0.2499282715641357
 40
0.3720998994052874
 40
0.499925055776528
 40
0.6246427517331034
 40
0.7499738496850062
 40
1.0
 40
1.0
 40
1.0
 40
1.0
 10
239.7126604407704
 20
196.9572132832053
 30
0.0
 10
239.6985989647182
 20
196.9243064623845
 30
0.0
 10
239.6704760447366
 20
196.858492895917
 30
0.0
 10
239.6026220866174
 20
196.7691420508685
 30
0.0
 10
239.5238818929455
 20
196.6842141494476
 30
0.0
 10
239.4342756933679
 20
196.6049661025315
 30
0.0
 10
239.3368863683518
 20
196.5293790780708
 30
0.0
 10
239.201693739469
 20
196.4333849041016
 30
0.0
 10
239.0912902123995
 20
196.3677780396515
 30
0.0
 10
239.01775022088
 20
196.3240771871211
 30
0.0
  0
SPLINE
  5
C1
330
1F
100
AcDbEntity
  8
0
  6
Continuous
 62
     7
370
     0
100
AcDbSpline
210
0.0
220
0.0
230
1.0
 70
     8
 71
     3
 72
    13
 73
     9
 74
     0
 42
0.00000001
 43
0.00000001
 12
1.0
 22
0.0
 32
0.0
 13
1.0
 23
0.0
 33
0.0
 40
0.0
 40
0.0
 40
0.0
 40
0.0
 40
0.1251948774509663
 40
0.2503112808433225
 40
0.4999074824305171
 40
0.7496464708871706
 40
0.8747928721822839
 40
1.0
 40
1.0
 40
1.0
 40
1.0
 10
239.5511928685899
 20
197.3815986273917
 30
0.0
 10
239.5699994152043
 20
197.3665776711578
 30
0.0
 10
239.6076007202027
 20
197.3365451740545
 30
0.0
 10
239.67037905148
 20
197.2704516986766
 30
0.0
 10
239.7234925882846
 20
197.1792100074841
 30
0.0
 10
239.7379244876537
 20
197.0844172321058
 30
0.0
 10
239.7287596316422
 20
197.0108043584423
 30
0.0
 10
239.7180277054507
 20
196.9750798634321
 30
0.0
 10
239.7126604407704
 20
196.9572132832053
 30
0.0
  0
SPLINE
  5
C2
330
1F
100
AcDbEntity
  8
0
  6
Continuous
 62
     7
370
     0
100
AcDbSpline
210
0.0
220
0.0
230
1.0
 70
     8
 71
     3
 72
    16
 73
    12
 74
     0
 42
0.00000001
 43
0.00000001
 12
1.0
 22
0.0
 32
0.0
 13
1.0
 23
0.0
 33
0.0
 40
0.0
 40
0.0
 40
0.0
 40
0.0
 40
0.1251729595269894
 40
0.2503372774080774
 40
0.5002449954419735
 40
0.6352206015976526
 40
0.7500261309021404
 40
0.8134102944341973
 40
0.8749697478553881
 40
0.9374576207513602
 40
1.0
 40
1.0
 40
1.0
 40
1.0
 10
237.9012679701856
 20
197.1648995660823
 30
0.0
 10
237.9588651650267
 20
197.1973482090107
 30
0.0
 10
238.0740555783342
 20
197.2622432546897
 30
0.0
 10
238.3190159834139
 20
197.3802278145176
 30
0.0
 10
238.5899344744045
 20
197.4842640650987
 30
0.0
 10
238.8889384865927
 20
197.5422331299122
 30
0.0
 10
239.090316193224
 20
197.54723923722
 30
0.0
 10
239.2439400202821
 20
197.5244628528638
 30
0.0
 10
239.3584559080839
 20
197.4906695931239
 30
0.0
 10
239.4630824095376
 20
197.4430662397821
 30
0.0
 10
239.5218141809589
 20
197.4020937854383
 30
0.0
 10
239.5511928685899
 20
197.3815986273917
 30
0.0
  0
SPLINE
  5
C3
330
1F
100
AcDbEntity
  8
0
  6
Continuous
 62
     7
370
     0
100
AcDbSpline
210
0.0
220
0.0
230
1.0
 70
     8
 71
     3
 72
    18
 73
    14
 74
     0
 42
0.00000001
 43
0.00000001
 12
1.0
 22
0.0
 32
0.0
 13
1.0
 23
0.0
 33
0.0
 40
0.0
 40
0.0
 40
0.0
 40
0.0
 40
0.0624950322413483
 40
0.1249340560767728
 40
0.1865917156229146
 40
0.249853639594221
 40
0.3120654852396299
 40
0.3748805468663523
 40
0.4997120087598385
 40
0.6247329320280185
 40
0.7498001999826471
 40
0.8748958867714979
 40
1.0
 40
1.0
 40
1.0
 40
1.0
 10
237.3722199425891
 20
196.127101280428
 30
0.0
 10
237.3454065461232
 20
196.1489944523865
 30
0.0
 10
237.2918037835109
 20
196.1927611755175
 30
0.0
 10
237.2357054178537
 20
196.2674824566872
 30
0.0
 10
237.200615465775
 20
196.3459231176122
 30
0.0
 10
237.1886551574864
 20
196.4253422236568
 30
0.0
 10
237.1950776959232
 20
196.5037345862932
 30
0.0
 10
237.223877307574
 20
196.6045923787715
 30
0.0
 10
237.3005761010384
 20
196.7208947053264
 30
0.0
 10
237.4283237941439
 20
196.8444294737493
 30
0.0
 10
237.5737266863469
 20
196.9588313515172
 30
0.0
 10
237.7328633069828
 20
197.0650193723163
 30
0.0
 10
237.8451318220935
 20
197.1316054206467
 30
0.0
 10
237.9012679701856
 20
197.1648995660823
 30
0.0
  0
SPLINE
  5
C4
330
1F
100
AcDbEntity
  8
0
  6
Continuous
 62
     7
370
     0
100
AcDbSpline
210
0.0
220
0.0
230
1.0
 70
     8
 71
     3
 72
    16
 73
    12
 74
     0
 42
0.00000001
 43
0.00000001
 12
1.0
 22
0.0
 32
0.0
 13
1.0
 23
0.0
 33
0.0
 40
0.0
 40
0.0
 40
0.0
 40
0.0
 40
0.125168179578366
 40
0.2503286224455503
 40
0.5002403576317201
 40
0.6338071334602303
 40
0.7500155071378941
 40
0.8124974968691971
 40
0.8749673844673904
 40
0.9374604080777053
 40
1.0
 40
1.0
 40
1.0
 40
1.0
 10
239.01775022088
 20
196.3240771871211
 30
0.0
 10
238.960201863319
 20
196.2917234549947
 30
0.0
 10
238.8451087052914
 20
196.227017990543
 30
0.0
 10
238.6005185338181
 20
196.1103886029008
 30
0.0
 10
238.3305174675755
 20
196.0099161911263
 30
0.0
 10
238.0329677009712
 20
195.9563460115227
 30
0.0
 10
237.8328416209129
 20
195.9545755320901
 30
0.0
 10
237.6789954497297
 20
195.980635720017
 30
0.0
 10
237.5647235471063
 20
196.0160629538459
 30
0.0
 10
237.4602002378863
 20
196.0654866877006
 30
0.0
 10
237.4015539886066
 20
196.1065579838601
 30
0.0
 10
237.3722199425891
 20
196.127101280428
 30
0.0
  0
ARC
  5
C5
330
1F
100
AcDbEntity
  8
0
  6
Continuous
 62
     7
370
     0
100
AcDbCircle
 10
223.8760698563
 20
178.2139061968
 30
0.0
 40
23.34716877543552
100
AcDbArc
 50
60.2085010619
 51
61.4664420431
  0
SPLINE
  5
C6
330
1F
100
AcDbEntity
  8
0
  6
Continuous
 62
     7
370
     0
100
AcDbSpline
210
0.0
220
0.0
230
1.0
 70
     8
 71
     3
 72
    17
 73
    13
 74
     0
 42
0.00000001
 43
0.00000001
 12
1.0
 22
0.0
 32
0.0
 13
1.0
 23
0.0
 33
0.0
 40
0.0
 40
0.0
 40
0.0
 40
0.0
 40
0.0625867507144379
 40
0.1251607877735521
 40
0.2502054915255323
 40
0.3751630122568523
 40
0.4405101568607808
 40
0.5002773891343765
 40
0.6183058012602893
 40
0.7498302131143925
 40
0.874861890725474
 40
1.0
 40
1.0
 40
1.0
 40
1.0
 10
236.7827832718559
 20
198.4639833071465
 30
0.0
 10
236.7603584288752
 20
198.4514293526555
 30
0.0
 10
236.7155132982186
 20
198.4263239938404
 30
0.0
 10
236.6189284875096
 20
198.3808368438605
 30
0.0
 10
236.4876360415701
 20
198.3322078680706
 30
0.0
 10
236.3406838938494
 20
198.2992812127972
 30
0.0
 10
236.2189188386131
 20
198.2843658790875
 30
0.0
 10
236.0980212424589
 20
198.2777783633275
 30
0.0
 10
235.9422760624709
 20
198.2914734599188
 30
0.0
 10
235.769279196962
 20
198.3371517543869
 30
0.0
 10
235.6120059371261
 20
198.4012900710607
 30
0.0
 10
235.521347293262
 20
198.450752353416
 30
0.0
 10
235.4759986865266
 20
198.475494016154
 30
0.0
  0
SPLINE
  5
C7
330
1F
100
AcDbEntity
  8
0
  6
Continuous
 62
     7
370
     0
100
AcDbSpline
210
0.0
220
0.0
230
1.0
 70
     8
 71
     3
 72
    16
 73
    12
 74
     0
 42
0.00000001
 43
0.00000001
 12
1.0
 22
0.0
 32
0.0
 13
1.0
 23
0.0
 33
0.0
 40
0.0
 40
0.0
 40
0.0
 40
0.0
 40
0.0625716166060415
 40
0.1251333442834471
 40
0.2500890908637027
 40
0.3712225297604079
 40
0.5001650323831507
 40
0.7497016235417546
 40
0.8498037792774736
 40
0.9248985296235307
 40
1.0
 40
1.0
 40
1.0
 40
1.0
 10
237.0278085701316
 20
198.9937917305743
 30
0.0
 10
237.0361635760981
 20
198.98255574653
 30
0.0
 10
237.0528722675912
 20
198.9600855541962
 30
0.0
 10
237.0752650721248
 20
198.912751569383
 30
0.0
 10
237.0898806302128
 20
198.8523705050923
 30
0.0
 10
237.0813988789548
 20
198.7785721303922
 30
0.0
 10
237.0445341915616
 20
198.6828388185475
 30
0.0
 10
236.9725722568322
 20
198.5979624595188
 30
0.0
 10
236.8886479949887
 20
198.5319167391963
 30
0.0
 10
236.8351624885527
 20
198.4948971625505
 30
0.0
 10
236.8002435315324
 20
198.4742882329738
 30
0.0
 10
236.7827832718559
 20
198.4639833071465
 30
0.0
  0
SPLINE
  5
C8
330
1F
100
AcDbEntity
  8
0
  6
Continuous
 62
     7
370
     0
100
AcDbSpline
210
0.0
220
0.0
230
1.0
 70
     8
 71
     3
 72
    13
 73
     9
 74
     0
 42
0.00000001
 43
0.00000001
 12
1.0
 22
0.0
 32
0.0
 13
1.0
 23
0.0
 33
0.0
 40
0.0
 40
0.0
 40
0.0
 40
0.0
 40
0.2716161760927583
 40
0.5000373570164428
 40
0.6342271489842847
 40
0.7500701523405284
 40
0.8670131673702696
 40
1.0
 40
1.0
 40
1.0
 40
1.0
 10
236.7286453937857
 20
199.2154512669272
 30
0.0
 10
236.7595543988702
 20
199.1974544055969
 30
0.0
 10
236.8164569642211
 20
199.1643227154905
 30
0.0
 10
236.8842562810904
 20
199.1193844197036
 30
0.0
 10
236.9323220744938
 20
199.0838486502877
 30
0.0
 10
236.9677162067312
 20
199.0558149696321
 30
0.0
 10
236.9993968130051
 20
199.0263217227638
 30
0.0
 10
237.0179411765596
 20
199.0050893857809
 30
0.0
 10
237.0278085701316
 20
198.9937917305743
 30
0.0
  0
ARC
  5
C9
330
1F
100
AcDbEntity
  8
0
  6
Continuous
 62
     7
370
     0
100
AcDbCircle
 10
225.2570697715
 20
179.1487738684
 30
0.0
 40
23.11425077904136
100
AcDbArc
 50
60.2445668095
 51
62.0929923019
  0
LINE
  5
CA
330
1F
100
AcDbEntity
  8
0
  6
Continuous
 62
     7
370
     0
100
AcDbLine
 10
233.9540948651
 20
198.3504190934
 30
0.0
 11
236.0754152087
 21
199.5750312612
 31
0.0
  0
ARC
  5
CB
330
1F
100
AcDbEntity
  8
0
  6
Continuous
 62
     7
370
     0
100
AcDbCircle
 10
223.3373817766
 20
178.2983771218
 30
0.0
 40
22.68918209275862
100
AcDbArc
 50
61.4694521771
 51
62.1006619761
  0
LINE
  5
CC
330
1F
100
AcDbEntity
  8
0
  6
Continuous
 62
     7
370
     0
100
AcDbLine
 10
235.0283913175
 20
198.7252692879
 30
0.0
 11
234.1743532571
 21
198.23224361
 31
0.0
  0
SPLINE
  5
CD
330
1F
100
AcDbEntity
  8
0
  6
Continuous
 62
     7
370
     0
100
AcDbSpline
210
0.0
220
0.0
230
1.0
 70
     8
 71
     3
 72
     8
 73
     4
 74
     0
 42
0.00000001
 43
0.00000001
 12
1.0
 22
0.0
 32
0.0
 13
1.0
 23
0.0
 33
0.0
 40
0.0
 40
0.0
 40
0.0
 40
0.0
 40
1.0
 40
1.0
 40
1.0
 40
1.0
 10
231.311007397583
 20
199.5219642900104
 30
0.0
 10
231.7628559006851
 20
199.9370032115289
 30
0.0
 10
232.2151505603731
 20
200.3491013479852
 30
0.0
 10
232.6679565132464
 20
200.7582366385547
 30
0.0
  0
ARC
  5
CE
330
1F
100
AcDbEntity
  8
0
  6
Continuous
 62
     7
370
     0
100
AcDbCircle
 10
225.3468942737
 20
182.7495014398
 30
0.0
 40
17.80129645327271
100
AcDbArc
 50
69.6657262332
 51
70.4251432078
  0
SPLINE
  5
CF
330
1F
100
AcDbEntity
  8
0
  6
Continuous
 62
     7
370
     0
100
AcDbSpline
210
0.0
220
0.0
230
1.0
 70
     8
 71
     3
 72
     8
 73
     4
 74
     0
 42
0.00000001
 43
0.00000001
 12
1.0
 22
0.0
 32
0.0
 13
1.0
 23
0.0
 33
0.0
 40
0.0
 40
0.0
 40
0.0
 40
0.0
 40
1.0
 40
1.0
 40
1.0
 40
1.0
 10
233.7863806011634
 20
200.2576771356431
 30
0.0
 10
233.0348027795115
 20
199.9885620727256
 30
0.0
 10
232.2835817102514
 20
199.7164927395229
 30
0.0
 10
231.5327847175346
 20
199.4414430534356
 30
0.0
  0
LINE
  5
D0
330
1F
100
AcDbEntity
  8
0
  6
Continuous
 62
     7
370
     0
100
AcDbLine
 10
232.0352582072
 20
199.2467756952
 30
0.0
 11
233.7863806012
 21
200.2576771356
 31
0.0
  0
ARC
  5
D1
330
1F
100
AcDbEntity
  8
0
  6
Continuous
 62
     7
370
     0
100
AcDbCircle
 10
224.8878116893
 20
181.5646210374
 30
0.0
 40
19.07208916375901
100
AcDbArc
 50
67.2818641146
 51
67.9905510109
  0
LINE
  5
D2
330
1F
100
AcDbEntity
  8
0
  6
Continuous
 62
     7
370
     0
100
AcDbLine
 10
234.3747353877
 20
200.3816313444
 30
0.0
 11
232.2534150441
 21
199.1570191766
 31
0.0
  0
ARC
  5
D3
330
1F
100
AcDbEntity
  8
0
  6
Continuous
 62
     7
370
     0
100
AcDbCircle
 10
227.040218783
 20
182.8645331955
 30
0.0
 40
18.99062561851826
100
AcDbArc
 50
67.2806398053
 51
68.2870202014
  0
SPLINE
  5
D4
330
1F
100
AcDbEntity
  8
0
  6
Continuous
 62
     7
370
     0
100
AcDbSpline
210
0.0
220
0.0
230
1.0
 70
     8
 71
     3
 72
     8
 73
     4
 74
     0
 42
0.00000001
 43
0.00000001
 12
1.0
 22
0.0
 32
0.0
 13
1.0
 23
0.0
 33
0.0
 40
0.0
 40
0.0
 40
0.0
 40
0.0
 40
1.0
 40
1.0
 40
1.0
 40
1.0
 10
232.1636427004229
 20
199.8192770501582
 30
0.0
 10
232.7974480428583
 20
200.0509102010489
 30
0.0
 10
233.4315602218072
 20
200.2803962057827
 30
0.0
 10
234.0659381027038
 20
200.5077508561663
 30
0.0
  0
SPLINE
  5
D5
330
1F
100
AcDbEntity
  8
0
  6
Continuous
 62
     7
370
     0
100
AcDbSpline
210
0.0
220
0.0
230
1.0
 70
     8
 71
     3
 72
    12
 73
     8
 74
     0
 42
0.00000001
 43
0.00000001
 12
1.0
 22
0.0
 32
0.0
 13
1.0
 23
0.0
 33
0.0
 40
0.0
 40
0.0
 40
0.0
 40
0.0
 40
0.2499936386573782
 40
0.4999942819844623
 40
0.6249956604535687
 40
0.7499971038686543
 40
1.0
 40
1.0
 40
1.0
 40
1.0
 10
231.7291457824332
 20
199.6575615985298
 30
0.0
 10
231.7652170359686
 20
199.671158195241
 30
0.0
 10
231.8373605537339
 20
199.6983517696315
 30
0.0
 10
231.9274837433096
 20
199.7323542735177
 30
0.0
 10
232.0002584835965
 20
199.7590338840725
 30
0.0
 10
232.0729821110792
 20
199.7857397251174
 30
0.0
 10
232.1273784644156
 20
199.8058621200421
 30
0.0
 10
232.1636427004229
 20
199.8192770501582
 30
0.0
  0
SPLINE
  5
D6
330
1F
100
AcDbEntity
  8
0
  6
Continuous
 62
     7
370
     0
100
AcDbSpline
210
0.0
220
0.0
230
1.0
 70
     8
 71
     3
 72
     8
 73
     4
 74
     0
 42
0.00000001
 43
0.00000001
 12
1.0
 22
0.0
 32
0.0
 13
1.0
 23
0.0
 33
0.0
 40
0.0
 40
0.0
 40
0.0
 40
0.0
 40
1.0
 40
1.0
 40
1.0
 40
1.0
 10
231.9621542669705
 20
199.868247634635
 30
0.0
 10
231.8844730269511
 20
199.7980976662561
 30
0.0
 10
231.8068036276654
 20
199.7278689531082
 30
0.0
 10
231.7291457824332
 20
199.6575615985298
 30
0.0
  0
SPLINE
  5
D7
330
1F
100
AcDbEntity
  8
0
  6
Continuous
 62
     7
370
     0
100
AcDbSpline
210
0.0
220
0.0
230
1.0
 70
     8
 71
     3
 72
     8
 73
     4
 74
     0
 42
0.00000001
 43
0.00000001
 12
1.0
 22
0.0
 32
0.0
 13
1.0
 23
0.0
 33
0.0
 40
0.0
 40
0.0
 40
0.0
 40
0.0
 40
1.0
 40
1.0
 40
1.0
 40
1.0
 10
233.059413125234
 20
200.8744311886552
 30
0.0
 10
232.6933410062024
 20
200.5410094427826
 30
0.0
 10
232.3275999290485
 20
200.2056108403649
 30
0.0
 10
231.9621542669705
 20
199.868247634635
 30
0.0
  0
ARC
  5
D8
330
1F
100
AcDbEntity
  8
0
  6
Continuous
 62
     7
370
     0
100
AcDbCircle
 10
227.822493097
 20
185.0122781428
 30
0.0
 40
16.70428779177692
100
AcDbArc
 50
71.7292616859
 51
72.9404127003
  0
LINE
  5
D9
330
1F
100
AcDbEntity
  8
0
  6
Continuous
 62
     7
370
     0
100
AcDbLine
 10
230.6016444859
 20
199.7569680084
 30
0.0
 11
232.7229648295
 21
200.9815801761
 31
0.0
  0
ARC
  5
DA
330
1F
100
AcDbEntity
  8
0
  6
Continuous
 62
     7
370
     0
100
AcDbCircle
 10
225.7309070942
 20
183.8826075053
 30
0.0
 40
16.60480063476084
100
AcDbArc
 50
72.1651347229
 51
72.9423912783
  0
LINE
  5
DB
330
1F
100
AcDbEntity
  8
0
  6
Continuous
 62
     7
370
     0
100
AcDbLine
 10
232.6679565132
 20
200.7582366386
 30
0.0
 11
230.8165363027
 21
199.6894345011
 31
0.0
  0
LWPOLYLINE
  5
DC
330
1F
100
AcDbEntity
  8
0
  6
Continuous
 62
     7
370
     0
100
AcDbPolyline
 90
       65
 70
   128
 43
0.0
 10
255.2745291748
 20
168.3407522024
 10
255.2622632252
 20
169.1142123302
 10
255.22548213
 20
169.9007779684
 10
255.1642361279
 20
170.6993747632
 10
255.0786088734
 20
171.5089119273
 10
254.9687173233
 20
172.3282837303
 10
254.834711576
 20
173.1563710089
 10
254.6767746673
 20
173.9920426955
 10
254.49512232
 20
174.8341573632
 10
254.2900026494
 20
175.6815647844
 10
254.0616958244
 20
176.5331075027
 10
253.8105136844
 20
177.3876224131
 10
253.5367993142
 20
178.2439423511
 10
253.2409265747
 20
179.1008976866
 10
252.9232995923
 20
179.9573179217
 10
252.5843522074
 20
180.8120332893
 10
252.2245473814
 20
181.6638763511
 10
251.8443765643
 20
182.511683592
 10
251.4443590237
 20
183.3542970092
 10
251.0250411355
 20
184.1905656941
 10
250.5869956375
 20
185.0193474044
 10
250.1308208471
 20
185.8395101238
 10
249.6571398443
 20
186.6499336088
 10
249.1665996203
 20
187.4495109184
 10
248.659870194
 20
188.2371499261
 10
248.1376436969
 20
189.0117748118
 10
247.6006334276
 20
189.7723275311
 10
247.0495728775
 20
190.5177692605
 10
246.485214729
 20
191.2470818162
 10
245.9083298275
 20
191.959269045
 10
245.3197061284
 20
192.6533581847
 10
244.7201476208
 20
193.3284011933
 10
244.1104732295
 20
193.9834760429
 10
243.4915156965
 20
194.6176879804
 10
242.8641204432
 20
195.2301707483
 10
242.2291444161
 20
195.8200877689
 10
241.5874549161
 20
196.3866332866
 10
240.9399284138
 20
196.9290334683
 10
240.2874493526
 20
197.4465474606
 10
239.6309089404
 20
197.9384684016
 10
238.9712039324
 20
198.4041243865
 10
238.3092354063
 20
198.8428793852
 10
237.6459075314
 20
199.2541341113
 10
236.9821263339
 20
199.6373268401
 10
236.3187984591
 20
199.9919341765
 10
235.656829933
 20
200.3174717696
 10
234.997124925
 20
200.6134949742
 10
234.3405845128
 20
200.8795994581
 10
233.6881054516
 20
201.1154217546
 10
233.0405789493
 20
201.320639759
 10
232.3988894493
 20
201.4949731679
 10
231.7639134222
 20
201.6381838631
 10
231.1365181689
 20
201.7500762359
 10
230.5175606358
 20
201.8304974547
 10
229.9078862446
 20
201.8793376739
 10
229.308327737
 20
201.8965301837
 10
228.7197040378
 20
201.882051501
 10
228.1428191363
 20
201.8359214021
 10
227.5784609879
 20
201.758202895
 10
227.0274004378
 20
201.649002134
 10
226.4903901685
 20
201.5084682742
 10
225.9681636714
 20
201.3367932679
 10
225.4614342451
 20
201.1342116024
 10
224.9708940211
 20
200.9009999801
 10
224.6150490282
 20
200.7067763271
  0
LWPOLYLINE
  5
DD
330
1F
100
AcDbEntity
  8
0
  6
Continuous
 62
     7
370
     0
100
AcDbPolyline
 90
       23
 70
   128
 43
0.0
 10
250.0129848372
 20
156.7114941181
 10
250.1308208471
 20
156.7807935054
 10
250.5869956375
 20
157.0742680227
 10
251.0250411355
 20
157.3972931663
 10
251.4443590237
 20
157.7494277226
 10
251.8443765643
 20
158.1301907182
 10
252.2245473814
 20
158.5390620767
 10
252.5843522074
 20
158.9754833288
 10
252.9232995923
 20
159.4388583758
 10
253.2409265747
 20
159.928554303
 10
253.5367993142
 20
160.4439022447
 10
253.8105136844
 20
160.9841982976
 10
254.0616958244
 20
161.5487044822
 10
254.2900026494
 20
162.1366497511
 10
254.49512232
 20
162.7472310417
 10
254.6767746673
 20
163.3796143735
 10
254.834711576
 20
164.0329359868
 10
254.9687173233
 20
164.7063035228
 10
255.0786088734
 20
165.3987972427
 10
255.1642361279
 20
166.1094712832
 10
255.22548213
 20
166.837354949
 10
255.2622632252
 20
167.5814540387
 10
255.2745291748
 20
168.3407522024
  0
SPLINE
  5
DE
330
1F
100
AcDbEntity
  8
0
  6
Continuous
 62
     7
370
     0
100
AcDbSpline
210
0.0
220
0.0
230
1.0
 70
     8
 71
     3
 72
    14
 73
    10
 74
     0
 42
0.00000001
 43
0.00000001
 12
1.0
 22
0.0
 32
0.0
 13
1.0
 23
0.0
 33
0.0
 40
0.0
 40
0.0
 40
0.0
 40
0.0
 40
0.0626209035518769
 40
0.1251971369841648
 40
0.2501776311320265
 40
0.4995004115477653
 40
0.7494942445745857
 40
0.8747342129769935
 40
1.0
 40
1.0
 40
1.0
 40
1.0
 10
231.8824622828432
 20
201.1821980055447
 30
0.0
 10
231.8960539325383
 20
201.1713939650958
 30
0.0
 10
231.9232275364342
 20
201.1497935911736
 30
0.0
 10
231.9554644667902
 20
201.0989281165777
 30
0.0
 10
231.9629455038568
 20
200.9973798469202
 30
0.0
 10
231.8625019622847
 20
200.8360283975933
 30
0.0
 10
231.6786645714372
 20
200.6787896762286
 30
0.0
 10
231.5003217879671
 20
200.5581793188354
 30
0.0
 10
231.4019479700299
 20
200.5000029736574
 30
0.0
 10
231.3527559915644
 20
200.4709118030674
 30
0.0
  0
SPLINE
  5
DF
330
1F
100
AcDbEntity
  8
0
  6
Continuous
 62
     7
370
     0
100
AcDbSpline
210
0.0
220
0.0
230
1.0
 70
     8
 71
     3
 72
    13
 73
     9
 74
     0
 42
0.00000001
 43
0.00000001
 12
1.0
 22
0.0
 32
0.0
 13
1.0
 23
0.0
 33
0.0
 40
0.0
 40
0.0
 40
0.0
 40
0.0
 40
0.2621623226486194
 40
0.5000242273424923
 40
0.6219901488738572
 40
0.75005454304432
 40
0.8623234327934889
 40
1.0
 40
1.0
 40
1.0
 40
1.0
 10
231.5978239024685
 20
201.2819616548111
 30
0.0
 10
231.6260349949372
 20
201.2752675449199
 30
0.0
 10
231.6798422299801
 20
201.2624998173065
 30
0.0
 10
231.74301232938
 20
201.2438991052753
 30
0.0
 10
231.7895400619011
 20
201.2275473510042
 30
0.0
 10
231.8227788601459
 20
201.2146178664134
 30
0.0
 10
231.8542851590665
 20
201.1995365513794
 30
0.0
 10
231.8724542610243
 20
201.188356353941
 30
0.0
 10
231.8824622828432
 20
201.1821980055447
 30
0.0
  0
ARC
  5
E0
330
1F
100
AcDbEntity
  8
0
  6
Continuous
 62
     7
370
     0
100
AcDbCircle
 10
228.44356828
 20
187.3646659053
 30
0.0
 40
14.27026452138949
100
AcDbArc
 50
77.2300551587
 51
79.5628185982
  0
LINE
  5
E1
330
1F
100
AcDbEntity
  8
0
  6
Continuous
 62
     7
370
     0
100
AcDbLine
 10
228.9074117259
 20
200.1742041462
 30
0.0
 11
231.0287320695
 21
201.398816314
 31
0.0
  0
ARC
  5
E2
330
1F
100
AcDbEntity
  8
0
  6
Continuous
 62
     7
370
     0
100
AcDbCircle
 10
226.3185740378
 20
186.1215524542
 30
0.0
 40
14.28912524095846
100
AcDbArc
 50
77.1236658708
 51
79.5617701828
  0
SPLINE
  5
E3
330
1F
100
AcDbEntity
  8
0
  6
Continuous
 62
     7
370
     0
100
AcDbSpline
210
0.0
220
0.0
230
1.0
 70
     8
 71
     3
 72
    17
 73
    13
 74
     0
 42
0.00000001
 43
0.00000001
 12
1.0
 22
0.0
 32
0.0
 13
1.0
 23
0.0
 33
0.0
 40
0.0
 40
0.0
 40
0.0
 40
0.0
 40
0.0715357051320337
 40
0.143064735485807
 40
0.2860245204547989
 40
0.4289089802452734
 40
0.5716729696068827
 40
0.6786677761034713
 40
0.7855971142383397
 40
0.8927121774632336
 40
0.9463509865938889
 40
1.0
 40
1.0
 40
1.0
 40
1.0
 10
231.3527559915644
 20
200.4709118030674
 30
0.0
 10
231.3158891396079
 20
200.4500362687907
 30
0.0
 10
231.2421588756283
 20
200.4082871480697
 30
0.0
 10
231.0867494936752
 20
200.3273789755384
 30
0.0
 10
230.8780365344377
 20
200.2315906928409
 30
0.0
 10
230.6030210525529
 20
200.130495483049
 30
0.0
 10
230.3321450462201
 20
200.0551086046041
 30
0.0
 10
230.0764382965643
 20
200.0105694654397
 30
0.0
 10
229.857936985242
 20
200.002692992497
 30
0.0
 10
229.6981261915233
 20
200.0159005226541
 30
0.0
 10
229.5827783582643
 20
200.0341750468207
 30
0.0
 10
229.5295074814009
 20
200.0456271132949
 30
0.0
 10
229.5028695096401
 20
200.0513536911419
 30
0.0
  0
ARC
  5
E4
330
1F
100
AcDbEntity
  8
0
  6
Continuous
 62
     7
370
     0
100
AcDbCircle
 10
224.2892031162
 20
179.8128360814
 30
0.0
 40
21.1477317480348
100
AcDbArc
 50
62.8042683761
 51
65.450371781
  0
LINE
  5
E5
330
1F
100
AcDbEntity
  8
0
  6
Continuous
 62
     7
370
     0
100
AcDbLine
 10
234.9490634433
 20
200.1303251944
 30
0.0
 11
233.0756896334
 21
199.0488495138
 31
0.0
  0
ARC
  5
E6
330
1F
100
AcDbEntity
  8
0
  6
Continuous
 62
     7
370
     0
100
AcDbCircle
 10
226.5950540301
 20
181.8272055266
 30
0.0
 40
20.11948465668294
100
AcDbArc
 50
65.4668377162
 51
66.1507103957
  0
LINE
  5
E7
330
1F
100
AcDbEntity
  8
0
  6
Continuous
 62
     7
370
     0
100
AcDbLine
 10
232.6086902976
 20
199.004118942
 30
0.0
 11
234.7300106412
 21
200.2287311097
 31
0.0
  0
ARC
  5
E8
330
1F
100
AcDbEntity
  8
0
  6
Continuous
 62
     7
370
     0
100
AcDbCircle
 10
224.1334575069
 20
179.8570573357
 30
0.0
 40
20.9389478964384
100
AcDbArc
 50
62.7943621394
 51
66.1239587775
  0
LINE
  5
E9
330
1F
100
AcDbEntity
  8
0
  6
Continuous
 62
     7
370
     0
100
AcDbLine
 10
233.9543862049
 20
198.6226950375
 30
0.0
 11
233.7064396713
 21
198.4795585504
 31
0.0
  0
SPLINE
  5
EA
330
1F
100
AcDbEntity
  8
0
  6
Continuous
 62
     7
370
     0
100
AcDbSpline
210
0.0
220
0.0
230
1.0
 70
     8
 71
     3
 72
    18
 73
    14
 74
     0
 42
0.00000001
 43
0.00000001
 12
1.0
 22
0.0
 32
0.0
 13
1.0
 23
0.0
 33
0.0
 40
0.0
 40
0.0
 40
0.0
 40
0.0
 40
0.0357437676380437
 40
0.0714843553612581
 40
0.1250503131659544
 40
0.1868299926287965
 40
0.2500771049101807
 40
0.3690392325420166
 40
0.4996908405000933
 40
0.6246704986705706
 40
0.7497525011449484
 40
0.8748699084751069
 40
0.9999999999999999
 40
0.9999999999999999
 40
0.9999999999999999
 40
0.9999999999999999
 10
238.1853793905123
 20
198.3488679328645
 30
0.0
 10
238.2006151598384
 20
198.3381719706088
 30
0.0
 10
238.2310853430529
 20
198.3167809976549
 30
0.0
 10
238.276488254297
 20
198.2753775648803
 30
0.0
 10
238.3222070694782
 20
198.2218265444015
 30
0.0
 10
238.3580783159579
 20
198.1539181595631
 30
0.0
 10
238.3854833601043
 20
198.0584535788683
 30
0.0
 10
238.3772224862456
 20
197.934404040264
 30
0.0
 10
238.3082132698061
 20
197.7957204475177
 30
0.0
 10
238.1973327719822
 20
197.6681852632374
 30
0.0
 10
238.0588282032022
 20
197.5562300137792
 30
0.0
 10
237.9068138005335
 20
197.4521178316043
 30
0.0
 10
237.7978840587244
 20
197.387657710934
 30
0.0
 10
237.7434164271808
 20
197.3554260169668
 30
0.0
  0
SPLINE
  5
EB
330
1F
100
AcDbEntity
  8
0
  6
Continuous
 62
     7
370
     0
100
AcDbSpline
210
0.0
220
0.0
230
1.0
 70
     8
 71
     3
 72
    15
 73
    11
 74
     0
 42
0.00000001
 43
0.00000001
 12
1.0
 22
0.0
 32
0.0
 13
1.0
 23
0.0
 33
0.0
 40
0.0
 40
0.0
 40
0.0
 40
0.0
 40
0.1252648797150894
 40
0.2504730981828983
 40
0.4997530348308103
 40
0.6248542863907024
 40
0.7498659653260448
 40
0.8747593715076795
 40
0.9373713317966352
 40
1.0
 40
1.0
 40
1.0
 40
1.0
 10
236.931990427879
 20
198.2860853510811
 30
0.0
 10
236.9748358210224
 20
198.3094397789669
 30
0.0
 10
237.0605072269893
 20
198.3561380707956
 30
0.0
 10
237.2512313055348
 20
198.4344650880639
 30
0.0
 10
237.4730198696809
 20
198.4858933326811
 30
0.0
 10
237.7083777929802
 20
198.4909501763573
 30
0.0
 10
237.8852479087354
 20
198.4731657282238
 30
0.0
 10
238.0228062471865
 20
198.4332020358647
 30
0.0
 10
238.1209000207061
 20
198.3889857270445
 30
0.0
 10
238.1638843557803
 20
198.3622417201993
 30
0.0
 10
238.1853793905123
 20
198.3488679328645
 30
0.0
  0
SPLINE
  5
EC
330
1F
100
AcDbEntity
  8
0
  6
Continuous
 62
     7
370
     0
100
AcDbSpline
210
0.0
220
0.0
230
1.0
 70
     8
 71
     3
 72
    15
 73
    11
 74
     0
 42
0.00000001
 43
0.00000001
 12
1.0
 22
0.0
 32
0.0
 13
1.0
 23
0.0
 33
0.0
 40
0.0
 40
0.0
 40
0.0
 40
0.0
 40
0.0626267793396838
 40
0.1252325262232963
 40
0.2501189884370547
 40
0.3751481854623889
 40
0.500255248054969
 40
0.7495312865386072
 40
0.8747313829892832
 40
1.0
 40
1.0
 40
1.0
 40
1.0
 10
236.7601727247074
 20
197.5511370680407
 30
0.0
 10
236.7408794927775
 20
197.5648581169832
 30
0.0
 10
236.702299508319
 20
197.5922956068176
 30
0.0
 10
236.6395653976943
 20
197.653337645246
 30
0.0
 10
236.587669778215
 20
197.7375326998769
 30
0.0
 10
236.5699687533443
 20
197.8422965055893
 30
0.0
 10
236.5893829908897
 20
197.9798475783602
 30
0.0
 10
236.6816319225903
 20
198.1065187953879
 30
0.0
 10
236.8142965693065
 20
198.2144200646346
 30
0.0
 10
236.892751987356
 20
198.2621925659018
 30
0.0
 10
236.931990427879
 20
198.2860853510811
 30
0.0
  0
SPLINE
  5
ED
330
1F
100
AcDbEntity
  8
0
  6
Continuous
 62
     7
370
     0
100
AcDbSpline
210
0.0
220
0.0
230
1.0
 70
     8
 71
     3
 72
    13
 73
     9
 74
     0
 42
0.00000001
 43
0.00000001
 12
1.0
 22
0.0
 32
0.0
 13
1.0
 23
0.0
 33
0.0
 40
0.0
 40
0.0
 40
0.0
 40
0.0
 40
0.1251798134821885
 40
0.250291309803033
 40
0.5000750050221441
 40
0.7498119197032848
 40
0.874858360217101
 40
1.0
 40
1.0
 40
1.0
 40
1.0
 10
237.4379583097228
 20
197.4308592625239
 30
0.0
 10
237.4087241411723
 20
197.427454717425
 30
0.0
 10
237.3502717586836
 20
197.4206474852652
 30
0.0
 10
237.2299542815675
 20
197.4180136438887
 30
0.0
 10
237.0778613326814
 20
197.4315204162504
 30
0.0
 10
236.9326806001748
 20
197.4678646041953
 30
0.0
 10
236.8276340637527
 20
197.5105244308651
 30
0.0
 10
236.7826655413922
 20
197.5375960886294
 30
0.0
 10
236.7601727247074
 20
197.5511370680407
 30
0.0
  0
LINE
  5
EE
330
1F
100
AcDbEntity
  8
0
  6
Continuous
 62
     7
370
     0
100
AcDbLine
 10
237.3858723191
 20
197.4007906602
 30
0.0
 11
237.4379583097
 21
197.4308592625
 31
0.0
  0
SPLINE
  5
EF
330
1F
100
AcDbEntity
  8
0
  6
Continuous
 62
     7
370
     0
100
AcDbSpline
210
0.0
220
0.0
230
1.0
 70
     8
 71
     3
 72
    16
 73
    12
 74
     0
 42
0.00000001
 43
0.00000001
 12
1.0
 22
0.0
 32
0.0
 13
1.0
 23
0.0
 33
0.0
 40
0.0
 40
0.0
 40
0.0
 40
0.0
 40
0.0625476671226782
 40
0.1250298027633569
 40
0.2494805479320175
 40
0.3066469042708544
 40
0.3495707590079221
 40
0.4996183859707379
 40
0.7495995043985947
 40
0.8747879854519645
 40
1.0
 40
1.0
 40
1.0
 40
1.0
 10
236.2212005591969
 20
197.2250904099264
 30
0.0
 10
236.2421729256614
 20
197.2125897770051
 30
0.0
 10
236.2840956857445
 20
197.1876016081337
 30
0.0
 10
236.3853729434445
 20
197.1522729098652
 30
0.0
 10
236.4958180774005
 20
197.1352191136803
 30
0.0
 10
236.5961193319177
 20
197.1367003820016
 30
0.0
 10
236.705324530818
 20
197.1471641728602
 30
0.0
 10
236.8902039803289
 20
197.1848417239227
 30
0.0
 10
237.091066327296
 20
197.253065835886
 30
0.0
 10
237.2646217211146
 20
197.3335555018172
 30
0.0
 10
237.3454529208703
 20
197.3783775365571
 30
0.0
 10
237.3858723191444
 20
197.4007906601911
 30
0.0
  0
SPLINE
  5
F0
330
1F
100
AcDbEntity
  8
0
  6
Continuous
 62
     7
370
     0
100
AcDbSpline
210
0.0
220
0.0
230
1.0
 70
     8
 71
     3
 72
    14
 73
    10
 74
     0
 42
0.00000001
 43
0.00000001
 12
1.0
 22
0.0
 32
0.0
 13
1.0
 23
0.0
 33
0.0
 40
0.0
 40
0.0
 40
0.0
 40
0.0
 40
0.1252523031887975
 40
0.2504538360967597
 40
0.5000694994427177
 40
0.6276476429752847
 40
0.7499691673172514
 40
0.8748621199227427
 40
1.0
 40
1.0
 40
1.0
 40
1.0
 10
236.2674571888384
 20
197.6018595248148
 30
0.0
 10
236.2509425770455
 20
197.5882521503424
 30
0.0
 10
236.2179200475599
 20
197.5610429170664
 30
0.0
 10
236.1608663134664
 20
197.5029698307065
 30
0.0
 10
236.1187351913896
 20
197.438197089275
 30
0.0
 10
236.1108383828573
 20
197.3683855400155
 30
0.0
 10
236.1269659443318
 20
197.3158643823443
 30
0.0
 10
236.1640328531332
 20
197.2667339330685
 30
0.0
 10
236.2021322166023
 20
197.2389806465792
 30
0.0
 10
236.2212005591969
 20
197.2250904099264
 30
0.0
  0
SPLINE
  5
F1
330
1F
100
AcDbEntity
  8
0
  6
Continuous
 62
     7
370
     0
100
AcDbSpline
210
0.0
220
0.0
230
1.0
 70
     8
 71
     3
 72
     8
 73
     4
 74
     0
 42
0.00000001
 43
0.00000001
 12
1.0
 22
0.0
 32
0.0
 13
1.0
 23
0.0
 33
0.0
 40
0.0
 40
0.0
 40
0.0
 40
0.0
 40
1.0
 40
1.0
 40
1.0
 40
1.0
 10
236.0198116959609
 20
197.7262811714999
 30
0.0
 10
236.1023827702168
 20
197.6853141164349
 30
0.0
 10
236.1849331090983
 20
197.6438390602842
 30
0.0
 10
236.2674571888384
 20
197.6018595248148
 30
0.0
  0
SPLINE
  5
F2
330
1F
100
AcDbEntity
  8
0
  6
Continuous
 62
     7
370
     0
100
AcDbSpline
210
0.0
220
0.0
230
1.0
 70
     8
 71
     3
 72
    15
 73
    11
 74
     0
 42
0.00000001
 43
0.00000001
 12
1.0
 22
0.0
 32
0.0
 13
1.0
 23
0.0
 33
0.0
 40
0.0
 40
0.0
 40
0.0
 40
0.0
 40
0.0626673614949659
 40
0.1253201049340347
 40
0.2503819052299953
 40
0.499058250404137
 40
0.624192323773353
 40
0.7494173023183197
 40
0.8746768552022396
 40
1.0
 40
1.0
 40
1.0
 40
1.0
 10
235.9814852818065
 20
197.1106554176254
 30
0.0
 10
235.9654181517796
 20
197.1217862090344
 30
0.0
 10
235.9332876396131
 20
197.1440451954366
 30
0.0
 10
235.8778976824502
 20
197.1925703015008
 30
0.0
 10
235.8008523178965
 20
197.2841255896523
 30
0.0
 10
235.7764953804717
 20
197.4019122528052
 30
0.0
 10
235.8114462976669
 20
197.5123015686131
 30
0.0
 10
235.8646790438557
 20
197.5896220017817
 30
0.0
 10
235.9335848726918
 20
197.661766789259
 30
0.0
 10
235.9910645592132
 20
197.704772739458
 30
0.0
 10
236.0198116959609
 20
197.7262811714999
 30
0.0
  0
SPLINE
  5
F3
330
1F
100
AcDbEntity
  8
0
  6
Continuous
 62
     7
370
     0
100
AcDbSpline
210
0.0
220
0.0
230
1.0
 70
     8
 71
     3
 72
    19
 73
    15
 74
     0
 42
0.00000001
 43
0.00000001
 12
1.0
 22
0.0
 32
0.0
 13
1.0
 23
0.0
 33
0.0
 40
0.0
 40
0.0
 40
0.0
 40
0.0
 40
0.1251635464303658
 40
0.2503214011055532
 40
0.3504322802624015
 40
0.4255217659697743
 40
0.5005920392318461
 40
0.5631649298605149
 40
0.6257186917626092
 40
0.7504027801754354
 40
0.8749349545528754
 40
0.9374326410568531
 40
0.9687110010050294
 40
1.0
 40
1.0
 40
1.0
 40
1.0
 10
237.7434164271808
 20
197.3554260169668
 30
0.0
 10
237.6822126743327
 20
197.3209922849328
 30
0.0
 10
237.5598079518493
 20
197.2521263867232
 30
0.0
 10
237.37889454334
 20
197.1627431989889
 30
0.0
 10
237.2147632666886
 20
197.0939455751941
 30
0.0
 10
237.0716844885108
 20
197.0425630992939
 30
0.0
 10
236.9419741686107
 20
197.0082455635376
 30
0.0
 10
236.8161834256204
 20
196.9812394362932
 30
0.0
 10
236.6530854602394
 20
196.9585164916318
 30
0.0
 10
236.4388590754733
 20
196.9530515082683
 30
0.0
 10
236.2265672010108
 20
196.9947130116592
 30
0.0
 10
236.0959110154268
 20
197.0461766695402
 30
0.0
 10
236.0278232328718
 20
197.0812843054048
 30
0.0
 10
235.9969330163677
 20
197.100863937102
 30
0.0
 10
235.9814852818065
 20
197.1106554176254
 30
0.0
  0
SPLINE
  5
F4
330
1F
100
AcDbEntity
  8
0
  6
Continuous
 62
     7
370
     0
100
AcDbSpline
210
0.0
220
0.0
230
1.0
 70
     8
 71
     3
 72
    14
 73
    10
 74
     0
 42
0.00000001
 43
0.00000001
 12
1.0
 22
0.0
 32
0.0
 13
1.0
 23
0.0
 33
0.0
 40
0.0
 40
0.0
 40
0.0
 40
0.0
 40
0.1249642785198609
 40
0.2499282715641028
 40
0.3720998993846755
 40
0.4999250557765788
 40
0.6246427517434052
 40
0.749973849685041
 40
1.0
 40
1.0
 40
1.0
 40
1.0
 10
241.032488950225
 20
195.8696799540702
 30
0.0
 10
241.0181349931525
 20
195.8353689553568
 30
0.0
 10
240.9894271117984
 20
195.7667470363121
 30
0.0
 10
240.9209724005176
 20
195.6745696493466
 30
0.0
 10
240.8417573425033
 20
195.587422533854
 30
0.0
 10
240.7518180356011
 20
195.5066309928663
 30
0.0
 10
240.6541935700157
 20
195.429959155258
 30
0.0
 10
240.5187823833345
 20
195.3329606212808
 30
0.0
 10
240.4083559822207
 20
195.2672491317615
 30
0.0
 10
240.3348007542563
 20
195.2234785882798
 30
0.0
  0
SPLINE
  5
F5
330
1F
100
AcDbEntity
  8
0
  6
Continuous
 62
     7
370
     0
100
AcDbSpline
210
0.0
220
0.0
230
1.0
 70
     8
 71
     3
 72
    13
 73
     9
 74
     0
 42
0.00000001
 43
0.00000001
 12
1.0
 22
0.0
 32
0.0
 13
1.0
 23
0.0
 33
0.0
 40
0.0
 40
0.0
 40
0.0
 40
0.0
 40
0.1251948774509649
 40
0.2503112808433222
 40
0.4999074824305187
 40
0.7496464708871736
 40
0.874792872182283
 40
1.0
 40
1.0
 40
1.0
 40
1.0
 10
240.8768386680063
 20
196.3239123686647
 30
0.0
 10
240.8953666401264
 20
196.3073768313716
 30
0.0
 10
240.9324109707514
 20
196.2743161215125
 30
0.0
 10
240.9940673483867
 20
196.2022702023335
 30
0.0
 10
241.0458169691648
 20
196.1039877850203
 30
0.0
 10
241.0590660986701
 20
196.0032917049385
 30
0.0
 10
241.0491076489461
 20
195.9257859468145
 30
0.0
 10
241.0380294121891
 20
195.8883849756832
 30
0.0
 10
241.032488950225
 20
195.8696799540702
 30
0.0
  0
SPLINE
  5
F6
330
1F
100
AcDbEntity
  8
0
  6
Continuous
 62
     7
370
     0
100
AcDbSpline
210
0.0
220
0.0
230
1.0
 70
     8
 71
     3
 72
    16
 73
    12
 74
     0
 42
0.00000001
 43
0.00000001
 12
1.0
 22
0.0
 32
0.0
 13
1.0
 23
0.0
 33
0.0
 40
0.0
 40
0.0
 40
0.0
 40
0.0
 40
0.1251729595269225
 40
0.250337277407944
 40
0.5002449954417075
 40
0.6352206015887871
 40
0.7500261309022611
 40
0.8134102944339276
 40
0.8749697478554543
 40
0.9374576207513926
 40
1.0
 40
1.0
 40
1.0
 40
1.0
 10
239.2342347552592
 20
196.1513704049628
 30
0.0
 10
239.2918246294209
 20
196.183769753797
 30
0.0
 10
239.4070004018751
 20
196.2485662146906
 30
0.0
 10
239.6517454795001
 20
196.3651123624372
 30
0.0
 10
239.9221821872982
 20
196.4659347271429
 30
0.0
 10
240.2201022098567
 20
196.5169203496461
 30
0.0
 10
240.4204012981602
 20
196.5151985756371
 30
0.0
 10
240.5729158740744
 20
196.485733354453
 30
0.0
 10
240.6864170284877
 20
196.4459823579087
 30
0.0
 10
240.7899247813973
 20
196.3919777558596
 30
0.0
 10
240.8478589537596
 20
196.3466074240575
 30
0.0
 10
240.8768386680063
 20
196.3239123686647
 30
0.0
  0
SPLINE
  5
F7
330
1F
100
AcDbEntity
  8
0
  6
Continuous
 62
     7
370
     0
100
AcDbSpline
210
0.0
220
0.0
230
1.0
 70
     8
 71
     3
 72
    18
 73
    14
 74
     0
 42
0.00000001
 43
0.00000001
 12
1.0
 22
0.0
 32
0.0
 13
1.0
 23
0.0
 33
0.0
 40
0.0
 40
0.0
 40
0.0
 40
0.0
 40
0.0624950322413546
 40
0.1249340560767827
 40
0.1865917156250536
 40
0.249853639594146
 40
0.3120654852392137
 40
0.3748805468662956
 40
0.4997120087597949
 40
0.6247329320279863
 40
0.7498001999826255
 40
0.874895886771487
 40
0.9999999999999999
 40
0.9999999999999999
 40
0.9999999999999999
 40
0.9999999999999999
 10
238.6979021418719
 20
195.0696141462165
 30
0.0
 10
238.6714865731178
 20
195.0937028252926
 30
0.0
 10
238.6186791093935
 20
195.1418585950324
 30
0.0
 10
238.5636895591318
 20
195.2229291477671
 30
0.0
 10
238.529601753815
 20
195.3072563781075
 30
0.0
 10
238.5185005282084
 20
195.3918557884152
 30
0.0
 10
238.5256537611481
 20
195.474752888129
 30
0.0
 10
238.5552648440215
 20
195.5807143094681
 30
0.0
 10
238.6326430776653
 20
195.7014069380936
 30
0.0
 10
238.7608539271981
 20
195.8279883824794
 30
0.0
 10
238.9065377207013
 20
195.9442588931575
 30
0.0
 10
239.0658057025454
 20
196.0513266126923
 30
0.0
 10
239.1780904771475
 20
196.1180217254679
 30
0.0
 10
239.2342347552592
 20
196.1513704049628
 30
0.0
  0
SPLINE
  5
F8
330
1F
100
AcDbEntity
  8
0
  6
Continuous
 62
     7
370
     0
100
AcDbSpline
210
0.0
220
0.0
230
1.0
 70
     8
 71
     3
 72
    16
 73
    12
 74
     0
 42
0.00000001
 43
0.00000001
 12
1.0
 22
0.0
 32
0.0
 13
1.0
 23
0.0
 33
0.0
 40
0.0
 40
0.0
 40
0.0
 40
0.0
 40
0.1251681795783937
 40
0.250328622445606
 40
0.5002403576318314
 40
0.6338071334560264
 40
0.7500155071378358
 40
0.8124974968691532
 40
0.8749673844673632
 40
0.9374604080776917
 40
0.9999999999999999
 40
0.9999999999999999
 40
0.9999999999999999
 40
0.9999999999999999
 10
240.3348007542563
 20
195.2234785882798
 30
0.0
 10
240.2772630088356
 20
195.191173365433
 30
0.0
 10
240.1621910744327
 20
195.1265649165423
 30
0.0
 10
239.9178999774522
 20
195.0113105142608
 30
0.0
 10
239.6485725722196
 20
194.9139394111932
 30
0.0
 10
239.352432649719
 20
194.8670369657399
 30
0.0
 10
239.1536383629553
 20
194.8717293517797
 30
0.0
 10
239.0011089191727
 20
194.9043669064946
 30
0.0
 10
238.887979285107
 20
194.9456361305494
 30
0.0
 10
238.7846708747211
 20
195.0014234836896
 30
0.0
 10
238.7268322334757
 20
195.0468782821714
 30
0.0
 10
238.6979021418719
 20
195.0696141462165
 30
0.0
  0
LINE
  5
F9
330
1F
100
AcDbEntity
  8
0
  6
Continuous
 62
     7
370
     0
100
AcDbLine
 10
243.3913932521
 20
193.9308773158
 30
0.0
 11
242.0465800875
 21
193.1545332008
 31
0.0
  0
ARC
  5
FA
330
1F
100
AcDbEntity
  8
0
  6
Continuous
 62
     7
370
     0
100
AcDbCircle
 10
215.5146007833
 20
167.4294071894
 30
0.0
 40
36.95575779362895
100
AcDbArc
 50
44.1154195208
 51
44.6227236159
  0
SPLINE
  5
FB
330
1F
100
AcDbEntity
  8
0
  6
Continuous
 62
     7
370
     0
100
AcDbSpline
210
0.0
220
0.0
230
1.0
 70
     8
 71
     3
 72
     8
 73
     4
 74
     0
 42
0.00000001
 43
0.00000001
 12
1.0
 22
0.0
 32
0.0
 13
1.0
 23
0.0
 33
0.0
 40
0.0
 40
0.0
 40
0.0
 40
0.0
 40
1.0
 40
1.0
 40
1.0
 40
1.0
 10
241.8177695488143
 20
193.3884392783299
 30
0.0
 10
241.6651416365607
 20
193.1314026060461
 30
0.0
 10
241.5121335545535
 20
192.8734225495997
 30
0.0
 10
241.3587262775797
 20
192.614518624942
 30
0.0
  0
SPLINE
  5
FC
330
1F
100
AcDbEntity
  8
0
  6
Continuous
 62
     7
370
     0
100
AcDbSpline
210
0.0
220
0.0
230
1.0
 70
     8
 71
     3
 72
     8
 73
     4
 74
     0
 42
0.00000001
 43
0.00000001
 12
1.0
 22
0.0
 32
0.0
 13
1.0
 23
0.0
 33
0.0
 40
0.0
 40
0.0
 40
0.0
 40
0.0
 40
1.0
 40
1.0
 40
1.0
 40
1.0
 10
241.3587262775797
 20
192.614518624942
 30
0.0
 10
241.7229904532307
 20
192.654460068782
 30
0.0
 10
242.0868554334606
 20
192.6934776448823
 30
0.0
 10
242.4503023365875
 20
192.7315912013719
 30
0.0
  0
ARC
  5
FD
330
1F
100
AcDbEntity
  8
0
  6
Continuous
 62
     7
370
     0
100
AcDbCircle
 10
214.986830121
 20
166.921116513
 30
0.0
 40
37.68849837516196
100
AcDbArc
 50
43.2227822252
 51
43.7234894516
  0
LINE
  5
FE
330
1F
100
AcDbEntity
  8
0
  6
Continuous
 62
     7
370
     0
100
AcDbLine
 10
242.2236990502
 20
192.9706055811
 30
0.0
 11
243.5685122148
 21
193.7469496961
 31
0.0
  0
ARC
  5
FF
330
1F
100
AcDbEntity
  8
0
  6
Continuous
 62
     7
370
     0
100
AcDbCircle
 10
216.5937779632
 20
167.9480147173
 30
0.0
 40
37.32588021717174
100
AcDbArc
 50
43.7236591092
 51
44.1156165125
  0
ARC
  5
100
330
1F
100
AcDbEntity
  8
0
  6
Continuous
 62
     7
370
     0
100
AcDbCircle
 10
216.793020048
 20
166.8626158813
 30
0.0
 40
38.5200658897196
100
AcDbArc
 50
2.5637792864
 51
57.4308441809
  0
SPLINE
  5
101
330
1F
100
AcDbEntity
  8
0
  6
Continuous
 62
     7
370
     0
100
AcDbSpline
210
0.0
220
0.0
230
1.0
 70
     8
 71
     3
 72
    16
 73
    12
 74
     0
 42
0.00000001
 43
0.00000001
 12
1.0
 22
0.0
 32
0.0
 13
1.0
 23
0.0
 33
0.0
 40
0.0
 40
0.0
 40
0.0
 40
0.0
 40
0.250266607097914
 40
0.5003870414468579
 40
0.6253978040240677
 40
0.7501183366664419
 40
0.8126309605029075
 40
0.8750812198716666
 40
0.9374681530762649
 40
0.9687217402228904
 40
1.0
 40
1.0
 40
1.0
 40
1.0
 10
239.4510566905252
 20
195.9763988642252
 30
0.0
 10
239.3664691670478
 20
195.9260942654867
 30
0.0
 10
239.1973435249694
 20
195.8255144493224
 30
0.0
 10
239.0061023445861
 20
195.6841927693675
 30
0.0
 10
238.8796876148545
 20
195.5546724190254
 30
0.0
 10
238.8347723487369
 20
195.4580219630314
 30
0.0
 10
238.8240601129733
 20
195.375236233168
 30
0.0
 10
238.8339343489642
 20
195.3106905105018
 30
0.0
 10
238.8622516797912
 20
195.2580357934929
 30
0.0
 10
238.8941639298842
 20
195.2184711127211
 30
0.0
 10
238.9144461668205
 20
195.2005198998179
 30
0.0
 10
238.924591286579
 20
195.1915407519417
 30
0.0
  0
SPLINE
  5
102
330
1F
100
AcDbEntity
  8
0
  6
Continuous
 62
     7
370
     0
100
AcDbSpline
210
0.0
220
0.0
230
1.0
 70
     8
 71
     3
 72
    15
 73
    11
 74
     0
 42
0.00000001
 43
0.00000001
 12
1.0
 22
0.0
 32
0.0
 13
1.0
 23
0.0
 33
0.0
 40
0.0
 40
0.0
 40
0.0
 40
0.0
 40
0.0312914406377331
 40
0.0625559738335167
 40
0.1249665424421841
 40
0.2494283959541443
 40
0.3742714550651934
 40
0.4993601535802129
 40
0.7496086004653206
 40
1.0
 40
1.0
 40
1.0
 40
1.0
 10
238.924591286579
 20
195.1915407519417
 30
0.0
 10
238.9352885145429
 20
195.1830001633639
 30
0.0
 10
238.9566737719475
 20
195.1659263302417
 30
0.0
 10
239.0068097526704
 20
195.1374169405039
 30
0.0
 10
239.1044015178244
 20
195.0991698423308
 30
0.0
 10
239.2561052914516
 20
195.0848008677029
 30
0.0
 10
239.4266321172468
 20
195.1011508332237
 30
0.0
 10
239.6315876444865
 20
195.1627979287263
 30
0.0
 10
239.8643032176854
 20
195.2664145576873
 30
0.0
 10
240.0362200424035
 20
195.3624974354846
 30
0.0
 10
240.1222029993187
 20
195.4105525921308
 30
0.0
  0
SPLINE
  5
103
330
1F
100
AcDbEntity
  8
0
  6
Continuous
 62
     7
370
     0
100
AcDbSpline
210
0.0
220
0.0
230
1.0
 70
     8
 71
     3
 72
    16
 73
    12
 74
     0
 42
0.00000001
 43
0.00000001
 12
1.0
 22
0.0
 32
0.0
 13
1.0
 23
0.0
 33
0.0
 40
0.0
 40
0.0
 40
0.0
 40
0.0
 40
0.2503496394344891
 40
0.5005495143908343
 40
0.6255888818189815
 40
0.6881323128788707
 40
0.7506868671567921
 40
0.8750305488322875
 40
0.9374399021183717
 40
0.9687083653526495
 40
1.0
 40
1.0
 40
1.0
 40
1.0
 10
240.1222029993187
 20
195.4105525921308
 30
0.0
 10
240.2069909895806
 20
195.4610257232268
 30
0.0
 10
240.3765162481256
 20
195.5619417913184
 30
0.0
 10
240.5687165746081
 20
195.7043043747208
 30
0.0
 10
240.6791070399521
 20
195.8196586821534
 30
0.0
 10
240.7229945383844
 20
195.8946973902372
 30
0.0
 10
240.7491613261258
 20
195.9750919106237
 30
0.0
 10
240.7502860245294
 20
196.0630290383492
 30
0.0
 10
240.7113272681225
 20
196.1376702301756
 30
0.0
 10
240.6778898744572
 20
196.1770055531819
 30
0.0
 10
240.6577204815494
 20
196.1950699572529
 30
0.0
 10
240.6476320498605
 20
196.2041055046938
 30
0.0
  0
SPLINE
  5
104
330
1F
100
AcDbEntity
  8
0
  6
Continuous
 62
     7
370
     0
100
AcDbSpline
210
0.0
220
0.0
230
1.0
 70
     8
 71
     3
 72
    15
 73
    11
 74
     0
 42
0.00000001
 43
0.00000001
 12
1.0
 22
0.0
 32
0.0
 13
1.0
 23
0.0
 33
0.0
 40
0.0
 40
0.0
 40
0.0
 40
0.0
 40
0.0312909998794808
 40
0.0625538939250207
 40
0.124957353093748
 40
0.2494428287818846
 40
0.3742794951282857
 40
0.4993614316828257
 40
0.7496082157734044
 40
1.0
 40
1.0
 40
1.0
 40
1.0
 10
240.6476320498605
 20
196.2041055046938
 30
0.0
 10
240.6369590934295
 20
196.2126187923084
 30
0.0
 10
240.6156227671048
 20
196.2296377208326
 30
0.0
 10
240.5654135065028
 20
196.2577497592292
 30
0.0
 10
240.4674688837512
 20
196.2946283933914
 30
0.0
 10
240.3158335796473
 20
196.3065235070133
 30
0.0
 10
240.1453505944868
 20
196.2882291422871
 30
0.0
 10
239.9412761161084
 20
196.224288027795
 30
0.0
 10
239.7084121474986
 20
196.1205399093327
 30
0.0
 10
239.5368584052412
 20
196.0244551556155
 30
0.0
 10
239.4510566905252
 20
195.9763988642252
 30
0.0
  0
SPLINE
  5
105
330
1F
100
AcDbEntity
  8
0
  6
Continuous
 62
     7
370
     0
100
AcDbSpline
210
0.0
220
0.0
230
1.0
 70
     8
 71
     3
 72
    16
 73
    12
 74
     0
 42
0.00000001
 43
0.00000001
 12
1.0
 22
0.0
 32
0.0
 13
1.0
 23
0.0
 33
0.0
 40
0.0
 40
0.0
 40
0.0
 40
0.0
 40
0.2502666070979152
 40
0.5003870414468611
 40
0.625397804024071
 40
0.750118336666443
 40
0.8126309605029061
 40
0.8750812198716654
 40
0.9374681530762606
 40
0.9687217402228865
 40
1.0
 40
1.0
 40
1.0
 40
1.0
 10
238.1207833405635
 20
197.0072428591893
 30
0.0
 10
238.0362094724587
 20
196.9570225354319
 30
0.0
 10
237.86711113315
 20
196.8566112200076
 30
0.0
 10
237.6761571011795
 20
196.7170573756738
 30
0.0
 10
237.5502731215018
 20
196.5907604474242
 30
0.0
 10
237.5060300311442
 20
196.4981279859727
 30
0.0
 10
237.4960587045232
 20
196.4196731602309
 30
0.0
 10
237.5066208378964
 20
196.3590850540382
 30
0.0
 10
237.5356243561451
 20
196.3103006011359
 30
0.0
 10
237.5681202372894
 20
196.273976871492
 30
0.0
 10
237.5887041308038
 20
196.2576782050571
 30
0.0
 10
237.5990001383623
 20
196.2495256564303
 30
0.0
  0
SPLINE
  5
106
330
1F
100
AcDbEntity
  8
0
  6
Continuous
 62
     7
370
     0
100
AcDbSpline
210
0.0
220
0.0
230
1.0
 70
     8
 71
     3
 72
    15
 73
    11
 74
     0
 42
0.00000001
 43
0.00000001
 12
1.0
 22
0.0
 32
0.0
 13
1.0
 23
0.0
 33
0.0
 40
0.0
 40
0.0
 40
0.0
 40
0.0
 40
0.0312914406377332
 40
0.0625559738335162
 40
0.1249665424421842
 40
0.2494283959541484
 40
0.3742714550651965
 40
0.4993601535802148
 40
0.7496086004653207
 40
1.0
 40
1.0
 40
1.0
 40
1.0
 10
237.5990001383623
 20
196.2495256564303
 30
0.0
 10
237.6098477567335
 20
196.2418038011424
 30
0.0
 10
237.6315336656324
 20
196.2263667305733
 30
0.0
 10
237.682262764527
 20
196.2010438769186
 30
0.0
 10
237.7808422696973
 20
196.1680243027303
 30
0.0
 10
237.9336337858851
 20
196.1592514744268
 30
0.0
 10
238.1050513200798
 20
196.1800834266458
 30
0.0
 10
238.3106280820343
 20
196.2448140932187
 30
0.0
 10
238.5436833777895
 20
196.3500978774877
 30
0.0
 10
238.7156352166884
 20
196.4463522673142
 30
0.0
 10
238.801635685693
 20
196.4944932044617
 30
0.0
  0
SPLINE
  5
107
330
1F
100
AcDbEntity
  8
0
  6
Continuous
 62
     7
370
     0
100
AcDbSpline
210
0.0
220
0.0
230
1.0
 70
     8
 71
     3
 72
    16
 73
    12
 74
     0
 42
0.00000001
 43
0.00000001
 12
1.0
 22
0.0
 32
0.0
 13
1.0
 23
0.0
 33
0.0
 40
0.0
 40
0.0
 40
0.0
 40
0.0
 40
0.2503496394344897
 40
0.5005495143908351
 40
0.6255888818189816
 40
0.6881323128788709
 40
0.7506868671567912
 40
0.8750305488322877
 40
0.9374399021183714
 40
0.9687083653526494
 40
1.0
 40
1.0
 40
1.0
 40
1.0
 10
238.801635685693
 20
196.4944932044617
 30
0.0
 10
238.8864067859316
 20
196.5448835655301
 30
0.0
 10
239.0558982745339
 20
196.6456341430813
 30
0.0
 10
239.247751274422
 20
196.7862927831331
 30
0.0
 10
239.3575760190639
 20
196.8988376042107
 30
0.0
 10
239.4009236309728
 20
196.9711637130205
 30
0.0
 10
239.4263865966952
 20
197.0479861851465
 30
0.0
 10
239.4265817955973
 20
197.1311287416613
 30
0.0
 10
239.3866116307252
 20
197.2003968876753
 30
0.0
 10
239.3525707547542
 20
197.2364767922159
 30
0.0
 10
239.3320987596681
 20
197.2528867260345
 30
0.0
 10
239.3218589708502
 20
197.2610947319525
 30
0.0
  0
SPLINE
  5
108
330
1F
100
AcDbEntity
  8
0
  6
Continuous
 62
     7
370
     0
100
AcDbSpline
210
0.0
220
0.0
230
1.0
 70
     8
 71
     3
 72
    15
 73
    11
 74
     0
 42
0.00000001
 43
0.00000001
 12
1.0
 22
0.0
 32
0.0
 13
1.0
 23
0.0
 33
0.0
 40
0.0
 40
0.0
 40
0.0
 40
0.0
 40
0.0312909998794804
 40
0.062553893925019
 40
0.1249573530937509
 40
0.2494428287818869
 40
0.3742794951282856
 40
0.4993614316828271
 40
0.7496082157734061
 40
1.0
 40
1.0
 40
1.0
 40
1.0
 10
239.3218589708502
 20
197.2610947319525
 30
0.0
 10
239.3110372585486
 20
197.2687895861446
 30
0.0
 10
239.2894035540966
 20
197.2841723829474
 30
0.0
 10
239.2386214686088
 20
197.3090901659427
 30
0.0
 10
239.1397508390946
 20
197.3407239320931
 30
0.0
 10
238.987152781662
 20
197.346999027816
 30
0.0
 10
238.8159087334153
 20
197.3241517215462
 30
0.0
 10
238.611328791035
 20
197.2571393272003
 30
0.0
 10
238.3781798115292
 20
197.1516371805544
 30
0.0
 10
238.2065987292498
 20
197.0553835922986
 30
0.0
 10
238.1207833405635
 20
197.0072428591893
 30
0.0
  0
SPLINE
  5
109
330
1F
100
AcDbEntity
  8
0
  6
Continuous
 62
     7
370
     0
100
AcDbSpline
210
0.0
220
0.0
230
1.0
 70
     8
 71
     3
 72
    14
 73
    10
 74
     0
 42
0.00000001
 43
0.00000001
 12
1.0
 22
0.0
 32
0.0
 13
1.0
 23
0.0
 33
0.0
 40
0.0
 40
0.0
 40
0.0
 40
0.0
 40
0.1254183002733472
 40
0.2508011305782775
 40
0.5005357186775314
 40
0.7497511349432453
 40
0.8746528560812858
 40
0.9373130958550171
 40
1.0
 40
1.0
 40
1.0
 40
1.0
 10
237.844413616489
 20
197.6926122232002
 30
0.0
 10
237.8710227841981
 20
197.7088684085965
 30
0.0
 10
237.9242335941887
 20
197.7413761819231
 30
0.0
 10
238.0171323346593
 20
197.814242015058
 30
0.0
 10
238.1009289453331
 20
197.9212163891004
 30
0.0
 10
238.1150070707892
 20
198.0446588434777
 30
0.0
 10
238.0768592568663
 20
198.1281493454193
 30
0.0
 10
238.0368520999621
 20
198.1712821082271
 30
0.0
 10
238.0109749293258
 20
198.1902041664667
 30
0.0
 10
237.9980335916575
 20
198.1996672081764
 30
0.0
  0
SPLINE
  5
10A
330
1F
100
AcDbEntity
  8
0
  6
Continuous
 62
     7
370
     0
100
AcDbSpline
210
0.0
220
0.0
230
1.0
 70
     8
 71
     3
 72
    15
 73
    11
 74
     0
 42
0.00000001
 43
0.00000001
 12
1.0
 22
0.0
 32
0.0
 13
1.0
 23
0.0
 33
0.0
 40
0.0
 40
0.0
 40
0.0
 40
0.0
 40
0.0715111606790147
 40
0.1429936792640114
 40
0.2855624957433239
 40
0.3921033932055988
 40
0.5001240085827022
 40
0.7495732677381878
 40
0.8497513347246752
 40
1.0
 40
1.0
 40
1.0
 40
1.0
 10
237.9980335916575
 20
198.1996672081764
 30
0.0
 10
237.9809294449629
 20
198.2100234877975
 30
0.0
 10
237.9467280022328
 20
198.2307318990783
 30
0.0
 10
237.8650891275132
 20
198.2613072531383
 30
0.0
 10
237.7625759150636
 20
198.2794565043421
 30
0.0
 10
237.647171118999
 20
198.2832878266101
 30
0.0
 10
237.4988385064005
 20
198.2746074986602
 30
0.0
 10
237.3614951302125
 20
198.2410052732683
 30
0.0
 10
237.2305965898169
 20
198.1878128431256
 30
0.0
 10
237.1715829781259
 20
198.1560198335996
 30
0.0
 10
237.1361765488298
 20
198.136944964063
 30
0.0
  0
SPLINE
  5
10B
330
1F
100
AcDbEntity
  8
0
  6
Continuous
 62
     7
370
     0
100
AcDbSpline
210
0.0
220
0.0
230
1.0
 70
     8
 71
     3
 72
    15
 73
    11
 74
     0
 42
0.00000001
 43
0.00000001
 12
1.0
 22
0.0
 32
0.0
 13
1.0
 23
0.0
 33
0.0
 40
0.0
 40
0.0
 40
0.0
 40
0.0
 40
0.1252781746061739
 40
0.250503579862851
 40
0.4996690341339189
 40
0.59982095374706
 40
0.6999307640919115
 40
0.8497508143240575
 40
0.9248817648192021
 40
0.9999999999999999
 40
0.9999999999999999
 40
0.9999999999999999
 40
0.9999999999999999
 10
237.1361765488298
 20
198.136944964063
 30
0.0
 10
237.1101912479984
 20
198.1210707855205
 30
0.0
 10
237.0582315917968
 20
198.0893291149162
 30
0.0
 10
236.9717383672782
 20
198.016859729815
 30
0.0
 10
236.9154036941442
 20
197.9360610460864
 30
0.0
 10
236.9024678937469
 20
197.8536795133401
 30
0.0
 10
236.9070560960059
 20
197.7885796096155
 30
0.0
 10
236.9366640036816
 20
197.7288052070049
 30
0.0
 10
236.9833629650518
 20
197.6787617523963
 30
0.0
 10
237.0141251762723
 20
197.6568414106126
 30
0.0
 10
237.0295049802076
 20
197.64588216726
 30
0.0
  0
SPLINE
  5
10C
330
1F
100
AcDbEntity
  8
0
  6
Continuous
 62
     7
370
     0
100
AcDbSpline
210
0.0
220
0.0
230
1.0
 70
     8
 71
     3
 72
    16
 73
    12
 74
     0
 42
0.00000001
 43
0.00000001
 12
1.0
 22
0.0
 32
0.0
 13
1.0
 23
0.0
 33
0.0
 40
0.0
 40
0.0
 40
0.0
 40
0.0
 40
0.0715321168988116
 40
0.1429869191275522
 40
0.2144782132859634
 40
0.2859667086659332
 40
0.3717653999893992
 40
0.5003371049854884
 40
0.7496213978003401
 40
0.874781607806447
 40
0.9999999999999999
 40
0.9999999999999999
 40
0.9999999999999999
 40
0.9999999999999999
 10
237.0295049802076
 20
197.64588216726
 30
0.0
 10
237.0457014673154
 20
197.635903007086
 30
0.0
 10
237.078076935743
 20
197.615955472599
 30
0.0
 10
237.1350651086554
 20
197.5923033659927
 30
0.0
 10
237.1961062516066
 20
197.5735423649439
 30
0.0
 10
237.2653842212287
 20
197.5616670612657
 30
0.0
 10
237.3532672428697
 20
197.5541810396011
 30
0.0
 10
237.495799504952
 20
197.5585674239838
 30
0.0
 10
237.6380417072639
 20
197.5947808746307
 30
0.0
 10
237.7607803768005
 20
197.6466699632681
 30
0.0
 10
237.816531551499
 20
197.6772957643139
 30
0.0
 10
237.844413616489
 20
197.6926122232002
 30
0.0
  0
ARC
  5
10D
330
1F
100
AcDbEntity
  8
0
  6
Continuous
 62
     7
370
     0
100
AcDbCircle
 10
224.1174198876
 20
178.3451221228
 30
0.0
 40
23.36079240924847
100
AcDbArc
 50
60.1700512787
 51
61.466193983
  0
SPLINE
  5
10E
330
1F
100
AcDbEntity
  8
0
  6
Continuous
 62
     7
370
     0
100
AcDbSpline
210
0.0
220
0.0
230
1.0
 70
     8
 71
     3
 72
    15
 73
    11
 74
     0
 42
0.00000001
 43
0.00000001
 12
1.0
 22
0.0
 32
0.0
 13
1.0
 23
0.0
 33
0.0
 40
0.0
 40
0.0
 40
0.0
 40
0.0
 40
0.1253687344043246
 40
0.2506537146082105
 40
0.4990061076881856
 40
0.5824744486737397
 40
0.6659284924138863
 40
0.7494593542610676
 40
0.8746717774612628
 40
0.9999999999999999
 40
0.9999999999999999
 40
0.9999999999999999
 40
0.9999999999999999
 10
235.7377199259963
 20
198.6107395326925
 30
0.0
 10
235.7660523038986
 20
198.5952487130246
 30
0.0
 10
235.8226981318925
 20
198.5642774225308
 30
0.0
 10
235.9485826296465
 20
198.5114162172696
 30
0.0
 10
236.0877281318481
 20
198.4786597737327
 30
0.0
 10
236.2177756964896
 20
198.4815617654251
 30
0.0
 10
236.2940706257631
 20
198.4914358152166
 30
0.0
 10
236.3775426397795
 20
198.5123303409795
 30
0.0
 10
236.4653702701569
 20
198.5448772415238
 30
0.0
 10
236.5223414256246
 20
198.5756862991412
 30
0.0
 10
236.5508401693301
 20
198.5910979478895
 30
0.0
  0
SPLINE
  5
10F
330
1F
100
AcDbEntity
  8
0
  6
Continuous
 62
     7
370
     0
100
AcDbSpline
210
0.0
220
0.0
230
1.0
 70
     8
 71
     3
 72
    15
 73
    11
 74
     0
 42
0.00000001
 43
0.00000001
 12
1.0
 22
0.0
 32
0.0
 13
1.0
 23
0.0
 33
0.0
 40
0.0
 40
0.0
 40
0.0
 40
0.0
 40
0.1251540318599156
 40
0.2502318117948294
 40
0.375237720869918
 40
0.5001643140107042
 40
0.6246887580925312
 40
0.7495887405035494
 40
0.8622797430452331
 40
1.0
 40
1.0
 40
1.0
 40
1.0
 10
236.5508401693301
 20
198.5910979478895
 30
0.0
 10
236.5774908779966
 20
198.6075943223499
 30
0.0
 10
236.6307760579955
 20
198.6405770206132
 30
0.0
 10
236.6928389096952
 20
198.6989238012388
 30
0.0
 10
236.7315080076442
 20
198.7637028951496
 30
0.0
 10
236.7496083320629
 20
198.8317724174939
 30
0.0
 10
236.727473127076
 20
198.9008888173343
 30
0.0
 10
236.6634071544171
 20
198.9562821850228
 30
0.0
 10
236.5892666194638
 20
199.0086903423734
 30
0.0
 10
236.534774123216
 20
199.0408391870212
 30
0.0
 10
236.504804541974
 20
199.0585202895188
 30
0.0
  0
ARC
  5
110
330
1F
100
AcDbEntity
  8
0
  6
Continuous
 62
     7
370
     0
100
AcDbCircle
 10
224.8908709103
 20
178.7941608529
 30
0.0
 40
23.35653479819429
100
AcDbArc
 50
60.1820644313
 51
61.4662722866
  0
LINE
  5
111
330
1F
100
AcDbEntity
  8
0
  6
Continuous
 62
     7
370
     0
100
AcDbLine
 10
236.047727067
 20
199.3137192906
 30
0.0
 11
235.2763378511
 21
198.868405775
 31
0.0
  0
ARC
  5
112
330
1F
100
AcDbEntity
  8
0
  6
Continuous
 62
     7
370
     0
100
AcDbCircle
 10
226.5382680827
 20
186.1346738112
 30
0.0
 40
14.42216452103826
100
AcDbArc
 50
77.2334173082
 51
78.6992605148
  0
SPLINE
  5
113
330
1F
100
AcDbEntity
  8
0
  6
Continuous
 62
     7
370
     0
100
AcDbSpline
210
0.0
220
0.0
230
1.0
 70
     8
 71
     3
 72
    15
 73
    11
 74
     0
 42
0.00000001
 43
0.00000001
 12
1.0
 22
0.0
 32
0.0
 13
1.0
 23
0.0
 33
0.0
 40
0.0
 40
0.0
 40
0.0
 40
0.0
 40
0.1397214989305027
 40
0.2501771574758241
 40
0.375238625844428
 40
0.50023145062014
 40
0.6214276674151485
 40
0.7499576434759527
 40
0.8749319569283701
 40
1.0
 40
1.0
 40
1.0
 40
1.0
 10
229.7252738429043
 20
200.2002994196123
 30
0.0
 10
229.7555075963067
 20
200.1939836237504
 30
0.0
 10
229.8096423897631
 20
200.1826749284672
 30
0.0
 10
229.8975740801741
 20
200.1692022831489
 30
0.0
 10
229.9886217763513
 20
200.160443289053
 30
0.0
 10
230.0919086795197
 20
200.1590257727325
 30
0.0
 10
230.2049359307057
 20
200.1688020865119
 30
0.0
 10
230.3204147887636
 20
200.1897080798938
 30
0.0
 10
230.4352912733782
 20
200.2182282664011
 30
0.0
 10
230.5069119354762
 20
200.2421864332013
 30
0.0
 10
230.5427356902057
 20
200.2541700070204
 30
0.0
  0
SPLINE
  5
114
330
1F
100
AcDbEntity
  8
0
  6
Continuous
 62
     7
370
     0
100
AcDbSpline
210
0.0
220
0.0
230
1.0
 70
     8
 71
     3
 72
    12
 73
     8
 74
     0
 42
0.00000001
 43
0.00000001
 12
1.0
 22
0.0
 32
0.0
 13
1.0
 23
0.0
 33
0.0
 40
0.0
 40
0.0
 40
0.0
 40
0.0
 40
0.1250178846381799
 40
0.2500201696718626
 40
0.4999844141952995
 40
0.749986801893363
 40
1.0
 40
1.0
 40
1.0
 40
1.0
 10
230.5427356902057
 20
200.2541700070204
 30
0.0
 10
230.5707326782296
 20
200.2641544829196
 30
0.0
 10
230.6267231608417
 20
200.2841221888654
 30
0.0
 10
230.7344858797536
 20
200.326976597444
 30
0.0
 10
230.8630477694288
 20
200.3838928740626
 30
0.0
 10
231.008402846842
 20
200.4559994398346
 30
0.0
 10
231.0977868733931
 20
200.5064493308632
 30
0.0
 10
231.1424798529164
 20
200.5316748217444
 30
0.0
  0
SPLINE
  5
115
330
1F
100
AcDbEntity
  8
0
  6
Continuous
 62
     7
370
     0
100
AcDbSpline
210
0.0
220
0.0
230
1.0
 70
     8
 71
     3
 72
    15
 73
    11
 74
     0
 42
0.00000001
 43
0.00000001
 12
1.0
 22
0.0
 32
0.0
 13
1.0
 23
0.0
 33
0.0
 40
0.0
 40
0.0
 40
0.0
 40
0.0
 40
0.1251268274281163
 40
0.2502484251834727
 40
0.5001030853491313
 40
0.6251006234200797
 40
0.7501052843047152
 40
0.874955926622918
 40
0.9374630657903266
 40
1.0
 40
1.0
 40
1.0
 40
1.0
 10
231.1424798529164
 20
200.5316748217444
 30
0.0
 10
231.1781223897197
 20
200.5526110287593
 30
0.0
 10
231.2494059736473
 20
200.5944825677609
 30
0.0
 10
231.3813716213772
 20
200.6804854931681
 30
0.0
 10
231.498386597471
 20
200.7699528148199
 30
0.0
 10
231.5771906134957
 20
200.8611515192822
 30
0.0
 10
231.6162882536004
 20
200.928900170699
 30
0.0
 10
231.6245261009601
 20
200.9827208105641
 30
0.0
 10
231.6132118382555
 20
201.0220681689089
 30
0.0
 10
231.5980820917116
 20
201.0390270274302
 30
0.0
 10
231.5905154159094
 20
201.047508477138
 30
0.0
  0
SPLINE
  5
116
330
1F
100
AcDbEntity
  8
0
  6
Continuous
 62
     7
370
     0
100
AcDbSpline
210
0.0
220
0.0
230
1.0
 70
     8
 71
     3
 72
    12
 73
     8
 74
     0
 42
0.00000001
 43
0.00000001
 12
1.0
 22
0.0
 32
0.0
 13
1.0
 23
0.0
 33
0.0
 40
0.0
 40
0.0
 40
0.0
 40
0.0
 40
0.1428151998865892
 40
0.2856721884586214
 40
0.4999151269693849
 40
0.749937838827124
 40
1.0
 40
1.0
 40
1.0
 40
1.0
 10
231.5905154159094
 20
201.047508477138
 30
0.0
 10
231.582804000226
 20
201.0537685708832
 30
0.0
 10
231.5673789124473
 20
201.0662905901192
 30
0.0
 10
231.5310647296271
 20
201.0844270529921
 30
0.0
 10
231.4812299693461
 20
201.1035164017904
 30
0.0
 10
231.4170476002582
 20
201.1228487696534
 30
0.0
 10
231.3689738767277
 20
201.1342448850943
 30
0.0
 10
231.3449351188089
 20
201.1399433923074
 30
0.0
  0
ARC
  5
117
330
1F
100
AcDbEntity
  8
0
  6
Continuous
 62
     7
370
     0
100
AcDbCircle
 10
228.1645471687
 20
187.0770957612
 30
0.0
 40
14.41799400083087
100
AcDbArc
 50
77.2566262445
 51
78.6994005667
  0
LINE
  5
118
330
1F
100
AcDbEntity
  8
0
  6
Continuous
 62
     7
370
     0
100
AcDbLine
 10
230.9898454188
 20
201.2155624676
 30
0.0
 11
229.3644181426
 21
200.2772232741
 31
0.0
  0
CIRCLE
  5
119
330
1F
100
AcDbEntity
  8
0
  6
Continuous
 62
     7
370
     0
100
AcDbCircle
 10
90.0641252446
 20
115.0607573386
 30
0.0
 40
25.40000000000001
  0
CIRCLE
  5
11A
330
1F
100
AcDbEntity
  8
0
  6
Continuous
 62
     7
370
     0
100
AcDbCircle
 10
90.0641252446
 20
115.0607573386
 30
0.0
 40
25.10000000000002
  0
DIMENSION
  5
11B
330
1F
100
AcDbEntity
  8
0
  6
Continuous
 62
     7
370
     0
100
AcDbDimension
  2
_D
 10
72.325386899
 20
96.8811764328
 30
0.0
 11
136.2534417176
 21
150.4607573386
 31
0.0
 70
   163
  1
<>
 71
     1
 42
-1.0
  3
SLDDIMSTYLE0
100
AcDbDiametricDimension
 15
107.8028635902
 25
133.2403382443
 35
0.0
 40
0.0
  0
LINE
  5
12C
330
1F
100
AcDbEntity
  8
0
  6
Continuous
 62
     7
370
     0
100
AcDbLine
 10
176.4778003914
 20
89.6607573386
 30
0.0
 11
176.7778003914
 21
89.9607573386
 31
0.0
  0
LINE
  5
12D
330
1F
100
AcDbEntity
  8
0
  6
Continuous
 62
     7
370
     0
100
AcDbLine
 10
176.7778003914
 20
140.1607573386
 30
0.0
 11
176.4778003914
 21
140.4607573386
 31
0.0
  0
LINE
  5
12E
330
1F
100
AcDbEntity
  8
0
  6
Continuous
 62
     7
370
     0
100
AcDbLine
 10
176.4778003914
 20
140.4607573386
 30
0.0
 11
172.0778003914
 21
140.4607573386
 31
0.0
  0
LINE
  5
12F
330
1F
100
AcDbEntity
  8
0
  6
Continuous
 62
     7
370
     0
100
AcDbLine
 10
172.0778003914
 20
89.6607573386
 30
0.0
 11
176.4778003914
 21
89.6607573386
 31
0.0
  0
LINE
  5
130
330
1F
100
AcDbEntity
  8
0
  6
Continuous
 62
     7
370
     0
100
AcDbLine
 10
172.0778003914
 20
140.4607573386
 30
0.0
 11
171.7778003914
 21
140.1607573386
 31
0.0
  0
LINE
  5
131
330
1F
100
AcDbEntity
  8
0
  6
Continuous
 62
     7
370
     0
100
AcDbLine
 10
171.7778003914
 20
89.9607573386
 30
0.0
 11
172.0778003914
 21
89.6607573386
 31
0.0
  0
LINE
  5
132
330
1F
100
AcDbEntity
  8
0
  6
Continuous
 62
     7
370
     0
100
AcDbLine
 10
176.7778003914
 20
140.1607573386
 30
0.0
 11
176.7778003914
 21
89.9607573386
 31
0.0
  0
LINE
  5
133
330
1F
100
AcDbEntity
  8
0
  6
Continuous
 62
     7
370
     0
100
AcDbLine
 10
176.4778003914
 20
89.6607573386
 30
0.0
 11
176.4778003914
 21
140.4607573386
 31
0.0
  0
LINE
  5
134
330
1F
100
AcDbEntity
  8
0
  6
Continuous
 62
     7
370
     0
100
AcDbLine
 10
175.4271510407
 20
123.4336536656
 30
0.0
 11
175.4271510407
 21
122.2469744071
 31
0.0
  0
LINE
  5
135
330
1F
100
AcDbEntity
  8
0
  6
Continuous
 62
     7
370
     0
100
AcDbLine
 10
172.7778003914
 20
122.2469744071
 30
0.0
 11
175.4271510407
 21
122.2469744071
 31
0.0
  0
LINE
  5
136
330
1F
100
AcDbEntity
  8
0
  6
Continuous
 62
     7
370
     0
100
AcDbLine
 10
172.7778003914
 20
122.2469744071
 30
0.0
 11
172.7778003914
 21
121.9474872147
 31
0.0
  0
LINE
  5
137
330
1F
100
AcDbEntity
  8
0
  6
Continuous
 62
     7
370
     0
100
AcDbLine
 10
175.7778003914
 20
121.9474872147
 30
0.0
 11
172.7778003914
 21
121.9474872147
 31
0.0
  0
LINE
  5
138
330
1F
100
AcDbEntity
  8
0
  6
Continuous
 62
     7
370
     0
100
AcDbLine
 10
175.7778003914
 20
123.4336536656
 30
0.0
 11
175.7778003914
 21
121.9474872147
 31
0.0
  0
LINE
  5
139
330
1F
100
AcDbEntity
  8
0
  6
Continuous
 62
     7
370
     0
100
AcDbLine
 10
175.4271510407
 20
123.4336536656
 30
0.0
 11
175.7778003914
 21
123.4336536656
 31
0.0
  0
SPLINE
  5
13A
330
1F
100
AcDbEntity
  8
0
  6
Continuous
 62
     7
370
     0
100
AcDbSpline
210
0.0
220
0.0
230
1.0
 70
     8
 71
     3
 72
    14
 73
    10
 74
     0
 42
0.00000001
 43
0.00000001
 12
1.0
 22
0.0
 32
0.0
 13
1.0
 23
0.0
 33
0.0
 40
0.0
 40
0.0
 40
0.0
 40
0.0
 40
0.1249642785198784
 40
0.2499282715641357
 40
0.3720998994052874
 40
0.499925055776528
 40
0.6246427517331034
 40
0.7499738496850062
 40
1.0
 40
1.0
 40
1.0
 40
1.0
 10
173.0553977939869
 20
119.4305489215766
 30
0.0
 10
173.1011094070014
 20
119.4563746044511
 30
0.0
 10
173.1925325286041
 20
119.5080259112024
 30
0.0
 10
173.3405997016716
 20
119.560133096437
 30
0.0
 10
173.4928985468917
 20
119.6010764918624
 30
0.0
 10
173.6481261821226
 20
119.6295818243779
 30
0.0
 10
173.8059002152848
 20
119.6496265532719
 30
0.0
 10
174.0156582669759
 20
119.6681933556641
 30
0.0
 10
174.1737276310421
 20
119.6701285544149
 30
0.0
 10
174.279017923857
 20
119.6714175938461
 30
0.0
  0
SPLINE
  5
13B
330
1F
100
AcDbEntity
  8
0
  6
Continuous
 62
     7
370
     0
100
AcDbSpline
210
0.0
220
0.0
230
1.0
 70
     8
 71
     3
 72
    13
 73
     9
 74
     0
 42
0.00000001
 43
0.00000001
 12
1.0
 22
0.0
 32
0.0
 13
1.0
 23
0.0
 33
0.0
 40
0.0
 40
0.0
 40
0.0
 40
0.0
 40
0.1251948774509663
 40
0.2503112808433225
 40
0.4999074824305171
 40
0.7496464708871706
 40
0.8747928721822839
 40
1.0
 40
1.0
 40
1.0
 40
1.0
 10
172.7388393524284
 20
118.885640849557
 30
0.0
 10
172.7397260488966
 20
118.9131240193087
 30
0.0
 10
172.7414988860382
 20
118.968073131942
 30
0.0
 10
172.7610025794083
 20
119.0763587928276
 30
0.0
 10
172.8143445474694
 20
119.2048146449835
 30
0.0
 10
172.9020349156965
 20
119.3129148010291
 30
0.0
 10
172.9864194616965
 20
119.3843382833604
 30
0.0
 10
173.0324012987247
 20
119.4151428848182
 30
0.0
 10
173.0553977939869
 20
119.4305489215766
 30
0.0
  0
SPLINE
  5
13C
330
1F
100
AcDbEntity
  8
0
  6
Continuous
 62
     7
370
     0
100
AcDbSpline
210
0.0
220
0.0
230
1.0
 70
     8
 71
     3
 72
    16
 73
    12
 74
     0
 42
0.00000001
 43
0.00000001
 12
1.0
 22
0.0
 32
0.0
 13
1.0
 23
0.0
 33
0.0
 40
0.0
 40
0.0
 40
0.0
 40
0.0
 40
0.1251729595269894
 40
0.2503372774080774
 40
0.5002449954419735
 40
0.6352206015976526
 40
0.7500261309021404
 40
0.8134102944341973
 40
0.8749697478553881
 40
0.9374576207513602
 40
1.0
 40
1.0
 40
1.0
 40
1.0
 10
174.279017923857
 20
118.0924732527652
 30
0.0
 10
174.1984400173623
 20
118.0933500803694
 30
0.0
 10
174.0372897672815
 20
118.0951036750435
 30
0.0
 10
173.7164667260086
 20
118.1207069608788
 30
0.0
 10
173.3905430677463
 20
118.177919906873
 30
0.0
 10
173.0923806583925
 20
118.3026130267597
 30
0.0
 10
172.9280662308618
 20
118.4230896831065
 30
0.0
 10
172.8309597622814
 20
118.5432401142553
 30
0.0
 10
172.7762978119471
 20
118.6505280855575
 30
0.0
 10
172.743896264461
 20
118.766090755411
 30
0.0
 10
172.7405254795986
 20
118.8457792382348
 30
0.0
 10
172.7388393524284
 20
118.885640849557
 30
0.0
  0
SPLINE
  5
13D
330
1F
100
AcDbEntity
  8
0
  6
Continuous
 62
     7
370
     0
100
AcDbSpline
210
0.0
220
0.0
230
1.0
 70
     8
 71
     3
 72
    18
 73
    14
 74
     0
 42
0.00000001
 43
0.00000001
 12
1.0
 22
0.0
 32
0.0
 13
1.0
 23
0.0
 33
0.0
 40
0.0
 40
0.0
 40
0.0
 40
0.0
 40
0.0624950322413483
 40
0.1249340560767728
 40
0.1865917156229146
 40
0.249853639594221
 40
0.3120654852396299
 40
0.3748805468663523
 40
0.4997120087598385
 40
0.6247329320280185
 40
0.7498001999826471
 40
0.8748958867714979
 40
1.0
 40
1.0
 40
1.0
 40
1.0
 10
175.8167614303505
 20
118.882029863485
 30
0.0
 10
175.8149027705637
 20
118.8422513347628
 30
0.0
 10
175.8111871167317
 20
118.7627299270639
 30
0.0
 10
175.7759064507279
 20
118.6481141915208
 30
0.0
 10
175.7195294637345
 20
118.5421125183946
 30
0.0
 10
175.6433909668378
 20
118.449059591306
 30
0.0
 10
175.5535556267678
 20
118.3683070921982
 30
0.0
 10
175.4215039694091
 20
118.2769842362272
 30
0.0
 10
175.2346648607743
 20
118.1986136015274
 30
0.0
 10
174.9997009381463
 20
118.1443121990511
 30
0.0
 10
174.7607972797712
 20
118.1110392828377
 30
0.0
 10
174.5200890651862
 20
118.0953842354262
 30
0.0
 10
174.359376775168
 20
118.093443602105
 30
0.0
 10
174.279017923857
 20
118.0924732527652
 30
0.0
  0
SPLINE
  5
13E
330
1F
100
AcDbEntity
  8
0
  6
Continuous
 62
     7
370
     0
100
AcDbSpline
210
0.0
220
0.0
230
1.0
 70
     8
 71
     3
 72
    16
 73
    12
 74
     0
 42
0.00000001
 43
0.00000001
 12
1.0
 22
0.0
 32
0.0
 13
1.0
 23
0.0
 33
0.0
 40
0.0
 40
0.0
 40
0.0
 40
0.0
 40
0.125168179578366
 40
0.2503286224455503
 40
0.5002403576317201
 40
0.6338071334602303
 40
0.7500155071378941
 40
0.8124974968691971
 40
0.8749673844673904
 40
0.9374604080777053
 40
1.0
 40
1.0
 40
1.0
 40
1.0
 10
174.279017923857
 20
119.6714175938461
 30
0.0
 10
174.3595062723001
 20
119.6705202745341
 30
0.0
 10
174.520477994159
 20
119.668725691374
 30
0.0
 10
174.8409638361627
 20
119.6433087956571
 30
0.0
 10
175.1654838350133
 20
119.5859896247721
 30
0.0
 10
175.4634373004632
 20
119.4631441748093
 30
0.0
 10
175.6277384556396
 20
119.3444243133827
 30
0.0
 10
175.7248774252309
 20
119.2239919411676
 30
0.0
 10
175.7797901640358
 20
119.1172998054843
 30
0.0
 10
175.8116866361096
 20
119.0013779960749
 30
0.0
 10
175.8150694122993
 20
118.921822451151
 30
0.0
 10
175.8167614303505
 20
118.882029863485
 30
0.0
  0
LINE
  5
13F
330
1F
100
AcDbEntity
  8
0
  6
Continuous
 62
     7
370
     0
100
AcDbLine
 10
174.5700081836
 20
114.9536147991
 30
0.0
 11
174.5700081836
 21
114.3206023872
 31
0.0
  0
SPLINE
  5
140
330
1F
100
AcDbEntity
  8
0
  6
Continuous
 62
     7
370
     0
100
AcDbSpline
210
0.0
220
0.0
230
1.0
 70
     8
 71
     3
 72
    17
 73
    13
 74
     0
 42
0.00000001
 43
0.00000001
 12
1.0
 22
0.0
 32
0.0
 13
1.0
 23
0.0
 33
0.0
 40
0.0
 40
0.0
 40
0.0
 40
0.0
 40
0.0625867507144379
 40
0.1251607877735521
 40
0.2502054915255323
 40
0.3751630122568523
 40
0.4405101568607808
 40
0.5002773891343765
 40
0.6183058012602893
 40
0.7498302131143925
 40
0.874861890725474
 40
1.0
 40
1.0
 40
1.0
 40
1.0
 10
173.6471185732076
 20
115.8787976724312
 30
0.0
 10
173.6783674194357
 20
115.8783330015819
 30
0.0
 10
173.7408587641096
 20
115.8774037542747
 30
0.0
 10
173.8652613295239
 20
115.8652147704652
 30
0.0
 10
174.0186826979763
 20
115.8329605812328
 30
0.0
 10
174.1647429360174
 20
115.7711990989475
 30
0.0
 10
174.2708619624563
 20
115.7051163328481
 30
0.0
 10
174.3662586475922
 20
115.6295379978445
 30
0.0
 10
174.4622224785467
 20
115.5052448829857
 30
0.0
 10
174.5310972893615
 20
115.3294651803497
 30
0.0
 10
174.5651173674971
 20
115.1410672814268
 30
0.0
 10
174.5683774492433
 20
115.016116679474
 30
0.0
 10
174.5700081835973
 20
114.953614799148
 30
0.0
  0
SPLINE
  5
141
330
1F
100
AcDbEntity
  8
0
  6
Continuous
 62
     7
370
     0
100
AcDbSpline
210
0.0
220
0.0
230
1.0
 70
     8
 71
     3
 72
    16
 73
    12
 74
     0
 42
0.00000001
 43
0.00000001
 12
1.0
 22
0.0
 32
0.0
 13
1.0
 23
0.0
 33
0.0
 40
0.0
 40
0.0
 40
0.0
 40
0.0
 40
0.0625716166060415
 40
0.1251333442834471
 40
0.2500890908637027
 40
0.3712225297604079
 40
0.5001650323831507
 40
0.7497016235417546
 40
0.8498037792774736
 40
0.9248985296235307
 40
1.0
 40
1.0
 40
1.0
 40
1.0
 10
172.8356331835973
 20
115.4138303827668
 30
0.0
 10
172.8432051778347
 20
115.4332181397558
 30
0.0
 10
172.8583479696183
 20
115.4719905896585
 30
0.0
 10
172.8992271734856
 20
115.5445380013968
 30
0.0
 10
172.9611574964269
 20
115.6271378448078
 30
0.0
 10
173.0555588866372
 20
115.7095442273562
 30
0.0
 10
173.196481925994
 20
115.798332725829
 30
0.0
 10
173.3497318064424
 20
115.8498130622085
 30
0.0
 10
173.4893110210378
 20
115.8707054474927
 30
0.0
 10
173.5722410665571
 20
115.8779955644198
 30
0.0
 10
173.6221586598585
 20
115.8785302951192
 30
0.0
 10
173.6471185732076
 20
115.8787976724312
 30
0.0
  0
SPLINE
  5
142
330
1F
100
AcDbEntity
  8
0
  6
Continuous
 62
     7
370
     0
100
AcDbSpline
210
0.0
220
0.0
230
1.0
 70
     8
 71
     3
 72
    13
 73
     9
 74
     0
 42
0.00000001
 43
0.00000001
 12
1.0
 22
0.0
 32
0.0
 13
1.0
 23
0.0
 33
0.0
 40
0.0
 40
0.0
 40
0.0
 40
0.0
 40
0.2716161760927583
 40
0.5000373570164428
 40
0.6342271489842847
 40
0.7500701523405284
 40
0.8670131673702696
 40
1.0
 40
1.0
 40
1.0
 40
1.0
 10
172.7778003913895
 20
114.932916969208
 30
0.0
 10
172.7781449749405
 20
114.976973486949
 30
0.0
 10
172.7787793430793
 20
115.058080234741
 30
0.0
 10
172.7856096826243
 20
115.160793287722
 30
0.0
 10
172.7947055007515
 20
115.2378644027667
 30
0.0
 10
172.8035308945396
 20
115.2967446583934
 30
0.0
 10
172.8166600165804
 20
115.3546769234909
 30
0.0
 10
172.8290438091552
 20
115.39328640651
 30
0.0
 10
172.8356331835972
 20
115.4138303827668
 30
0.0
  0
LINE
  5
143
330
1F
100
AcDbEntity
  8
0
  6
Continuous
 62
     7
370
     0
100
AcDbLine
 10
172.7778003914
 20
114.9329169692
 30
0.0
 11
172.7778003914
 21
114.0091099821
 31
0.0
  0
LINE
  5
144
330
1F
100
AcDbEntity
  8
0
  6
Continuous
 62
     7
370
     0
100
AcDbLine
 10
175.7778003914
 20
114.0091099821
 30
0.0
 11
172.7778003914
 21
114.0091099821
 31
0.0
  0
LINE
  5
145
330
1F
100
AcDbEntity
  8
0
  6
Continuous
 62
     7
370
     0
100
AcDbLine
 10
175.7778003914
 20
114.3206023872
 30
0.0
 11
175.7778003914
 21
114.0091099821
 31
0.0
  0
LINE
  5
146
330
1F
100
AcDbEntity
  8
0
  6
Continuous
 62
     7
370
     0
100
AcDbLine
 10
174.5700081836
 20
114.3206023872
 30
0.0
 11
175.7778003914
 21
114.3206023872
 31
0.0
  0
SPLINE
  5
147
330
1F
100
AcDbEntity
  8
0
  6
Continuous
 62
     7
370
     0
100
AcDbSpline
210
0.0
220
0.0
230
1.0
 70
     8
 71
     3
 72
     8
 73
     4
 74
     0
 42
0.00000001
 43
0.00000001
 12
1.0
 22
0.0
 32
0.0
 13
1.0
 23
0.0
 33
0.0
 40
0.0
 40
0.0
 40
0.0
 40
0.0
 40
1.0
 40
1.0
 40
1.0
 40
1.0
 10
175.7778003913895
 20
110.2712198389504
 30
0.0
 10
174.9050325342466
 20
110.0374622630326
 30
0.0
 10
174.0322646771037
 20
109.8043356478094
 30
0.0
 10
173.1594968199609
 20
109.5719321103432
 30
0.0
  0
LINE
  5
148
330
1F
100
AcDbEntity
  8
0
  6
Continuous
 62
     7
370
     0
100
AcDbLine
 10
175.7778003914
 20
110.5848603327
 30
0.0
 11
175.7778003914
 21
110.271219839
 31
0.0
  0
SPLINE
  5
149
330
1F
100
AcDbEntity
  8
0
  6
Continuous
 62
     7
370
     0
100
AcDbSpline
210
0.0
220
0.0
230
1.0
 70
     8
 71
     3
 72
     8
 73
     4
 74
     0
 42
0.00000001
 43
0.00000001
 12
1.0
 22
0.0
 32
0.0
 13
1.0
 23
0.0
 33
0.0
 40
0.0
 40
0.0
 40
0.0
 40
0.0
 40
1.0
 40
1.0
 40
1.0
 40
1.0
 10
173.3013393524284
 20
111.2954651564277
 30
0.0
 10
174.1268263654154
 20
111.0580606208558
 30
0.0
 10
174.9523133784024
 20
110.8211606093547
 30
0.0
 10
175.7778003913895
 20
110.5848603326527
 30
0.0
  0
LINE
  5
14A
330
1F
100
AcDbEntity
  8
0
  6
Continuous
 62
     7
370
     0
100
AcDbLine
 10
175.7778003914
 20
111.2954651564
 30
0.0
 11
173.3013393524
 21
111.2954651564
 31
0.0
  0
LINE
  5
14B
330
1F
100
AcDbEntity
  8
0
  6
Continuous
 62
     7
370
     0
100
AcDbLine
 10
175.7778003914
 20
111.603985514
 30
0.0
 11
175.7778003914
 21
111.2954651564
 31
0.0
  0
LINE
  5
14C
330
1F
100
AcDbEntity
  8
0
  6
Continuous
 62
     7
370
     0
100
AcDbLine
 10
172.7778003914
 20
111.603985514
 30
0.0
 11
175.7778003914
 21
111.603985514
 31
0.0
  0
LINE
  5
14D
330
1F
100
AcDbEntity
  8
0
  6
Continuous
 62
     7
370
     0
100
AcDbLine
 10
172.7778003914
 20
111.603985514
 30
0.0
 11
172.7778003914
 21
111.1672802055
 31
0.0
  0
SPLINE
  5
14E
330
1F
100
AcDbEntity
  8
0
  6
Continuous
 62
     7
370
     0
100
AcDbSpline
210
0.0
220
0.0
230
1.0
 70
     8
 71
     3
 72
     8
 73
     4
 74
     0
 42
0.00000001
 43
0.00000001
 12
1.0
 22
0.0
 32
0.0
 13
1.0
 23
0.0
 33
0.0
 40
0.0
 40
0.0
 40
0.0
 40
0.0
 40
1.0
 40
1.0
 40
1.0
 40
1.0
 10
174.8652598069739
 20
110.5644876635691
 30
0.0
 10
174.1694400017791
 20
110.765003969551
 30
0.0
 10
173.4736201965843
 20
110.9659542078917
 30
0.0
 10
172.7778003913895
 20
111.1672802055303
 30
0.0
  0
SPLINE
  5
14F
330
1F
100
AcDbEntity
  8
0
  6
Continuous
 62
     7
370
     0
100
AcDbSpline
210
0.0
220
0.0
230
1.0
 70
     8
 71
     3
 72
    12
 73
     8
 74
     0
 42
0.00000001
 43
0.00000001
 12
1.0
 22
0.0
 32
0.0
 13
1.0
 23
0.0
 33
0.0
 40
0.0
 40
0.0
 40
0.0
 40
0.0
 40
0.2499936386573782
 40
0.4999942819844623
 40
0.6249956604535687
 40
0.7499971038686543
 40
1.0
 40
1.0
 40
1.0
 40
1.0
 10
175.3461851316492
 20
110.4309415540141
 30
0.0
 10
175.3060343413437
 20
110.4418032196701
 30
0.0
 10
175.2257316357321
 20
110.4635268553195
 30
0.0
 10
175.1253121427064
 20
110.4905607992762
 30
0.0
 10
175.0453619501755
 20
110.5135296314571
 30
0.0
 10
174.9653815832895
 20
110.5363960048622
 30
0.0
 10
174.9053085177981
 20
110.5532510000027
 30
0.0
 10
174.8652598069739
 20
110.5644876635691
 30
0.0
  0
SPLINE
  5
150
330
1F
100
AcDbEntity
  8
0
  6
Continuous
 62
     7
370
     0
100
AcDbSpline
210
0.0
220
0.0
230
1.0
 70
     8
 71
     3
 72
     8
 73
     4
 74
     0
 42
0.00000001
 43
0.00000001
 12
1.0
 22
0.0
 32
0.0
 13
1.0
 23
0.0
 33
0.0
 40
0.0
 40
0.0
 40
0.0
 40
0.0
 40
1.0
 40
1.0
 40
1.0
 40
1.0
 10
174.9017857809999
 20
110.3160659623454
 30
0.0
 10
175.049918897883
 20
110.3543412160511
 30
0.0
 10
175.1980520147661
 20
110.392633215083
 30
0.0
 10
175.3461851316492
 20
110.4309415540141
 30
0.0
  0
SPLINE
  5
151
330
1F
100
AcDbEntity
  8
0
  6
Continuous
 62
     7
370
     0
100
AcDbSpline
210
0.0
220
0.0
230
1.0
 70
     8
 71
     3
 72
     8
 73
     4
 74
     0
 42
0.00000001
 43
0.00000001
 12
1.0
 22
0.0
 32
0.0
 13
1.0
 23
0.0
 33
0.0
 40
0.0
 40
0.0
 40
0.0
 40
0.0
 40
1.0
 40
1.0
 40
1.0
 40
1.0
 10
172.7778003913895
 20
109.7438389315253
 30
0.0
 10
173.4857955212596
 20
109.9341299058543
 30
0.0
 10
174.1937906511297
 20
110.1248890440964
 30
0.0
 10
174.9017857809999
 20
110.3160659623454
 30
0.0
  0
LINE
  5
152
330
1F
100
AcDbEntity
  8
0
  6
Continuous
 62
     7
370
     0
100
AcDbLine
 10
172.7778003914
 20
109.7438389315
 30
0.0
 11
172.7778003914
 21
109.2680291886
 31
0.0
  0
LINE
  5
153
330
1F
100
AcDbEntity
  8
0
  6
Continuous
 62
     7
370
     0
100
AcDbLine
 10
175.7778003914
 20
109.2680291886
 30
0.0
 11
172.7778003914
 21
109.2680291886
 31
0.0
  0
LINE
  5
154
330
1F
100
AcDbEntity
  8
0
  6
Continuous
 62
     7
370
     0
100
AcDbLine
 10
175.7778003914
 20
109.5719321103
 30
0.0
 11
175.7778003914
 21
109.2680291886
 31
0.0
  0
LINE
  5
155
330
1F
100
AcDbEntity
  8
0
  6
Continuous
 62
     7
370
     0
100
AcDbLine
 10
173.15949682
 20
109.5719321103
 30
0.0
 11
175.7778003914
 21
109.5719321103
 31
0.0
  0
LINE
  5
156
330
1F
100
AcDbEntity
  8
0
  6
Continuous
 62
     7
370
     0
100
AcDbLine
 10
172.0778003914
 20
140.4607573386
 30
0.0
 11
172.0778003914
 21
89.6607573386
 31
0.0
  0
SPLINE
  5
157
330
1F
100
AcDbEntity
  8
0
  6
Continuous
 62
     7
370
     0
100
AcDbSpline
210
0.0
220
0.0
230
1.0
 70
     8
 71
     3
 72
    14
 73
    10
 74
     0
 42
0.00000001
 43
0.00000001
 12
1.0
 22
0.0
 32
0.0
 13
1.0
 23
0.0
 33
0.0
 40
0.0
 40
0.0
 40
0.0
 40
0.0
 40
0.0626209035518769
 40
0.1251971369841648
 40
0.2501776311320265
 40
0.4995004115477653
 40
0.7494942445745857
 40
0.8747342129769935
 40
1.0
 40
1.0
 40
1.0
 40
1.0
 10
172.8331981186622
 20
108.1347768152425
 30
0.0
 10
172.8458022168642
 20
108.1666024087784
 30
0.0
 10
172.8710014222358
 20
108.2302308933181
 30
0.0
 10
172.943105310297
 20
108.347924685498
 30
0.0
 10
173.1105030038198
 20
108.5259021631011
 30
0.0
 10
173.4239756446157
 20
108.6973261851529
 30
0.0
 10
173.768049528795
 20
108.7814147379243
 30
0.0
 10
174.0492618005797
 20
108.8104122265742
 30
0.0
 10
174.190658211192
 20
108.8126870496773
 30
0.0
 10
174.2613637030778
 20
108.8138245784573
 30
0.0
  0
SPLINE
  5
158
330
1F
100
AcDbEntity
  8
0
  6
Continuous
 62
     7
370
     0
100
AcDbSpline
210
0.0
220
0.0
230
1.0
 70
     8
 71
     3
 72
    13
 73
     9
 74
     0
 42
0.00000001
 43
0.00000001
 12
1.0
 22
0.0
 32
0.0
 13
1.0
 23
0.0
 33
0.0
 40
0.0
 40
0.0
 40
0.0
 40
0.0
 40
0.2621623226486194
 40
0.5000242273424923
 40
0.6219901488738572
 40
0.75005454304432
 40
0.8623234327934889
 40
1.0
 40
1.0
 40
1.0
 40
1.0
 10
172.7778003913895
 20
107.6768396300719
 30
0.0
 10
172.7782488412415
 20
107.7171845895026
 30
0.0
 10
172.7791041731158
 20
107.7941348429283
 30
0.0
 10
172.785534662887
 20
107.8899013440073
 30
0.0
 10
172.7945302385936
 20
107.9646970700717
 30
0.0
 10
172.8029078068941
 20
108.0200813976471
 30
0.0
 10
172.8155398991252
 20
108.0772701251118
 30
0.0
 10
172.8269262277548
 20
108.1143514441463
 30
0.0
 10
172.8331981186622
 20
108.1347768152425
 30
0.0
  0
LINE
  5
159
330
1F
100
AcDbEntity
  8
0
  6
Continuous
 62
     7
370
     0
100
AcDbLine
 10
172.7778003914
 20
107.6768396301
 30
0.0
 11
172.7778003914
 21
106.8720222416
 31
0.0
  0
LINE
  5
15A
330
1F
100
AcDbEntity
  8
0
  6
Continuous
 62
     7
370
     0
100
AcDbLine
 10
175.7778003914
 20
106.8720222416
 30
0.0
 11
172.7778003914
 21
106.8720222416
 31
0.0
  0
LINE
  5
15B
330
1F
100
AcDbEntity
  8
0
  6
Continuous
 62
     7
370
     0
100
AcDbLine
 10
175.7778003914
 20
107.7141267152
 30
0.0
 11
175.7778003914
 21
106.8720222416
 31
0.0
  0
SPLINE
  5
15C
330
1F
100
AcDbEntity
  8
0
  6
Continuous
 62
     7
370
     0
100
AcDbSpline
210
0.0
220
0.0
230
1.0
 70
     8
 71
     3
 72
    17
 73
    13
 74
     0
 42
0.00000001
 43
0.00000001
 12
1.0
 22
0.0
 32
0.0
 13
1.0
 23
0.0
 33
0.0
 40
0.0
 40
0.0
 40
0.0
 40
0.0
 40
0.0715357051320337
 40
0.143064735485807
 40
0.2860245204547989
 40
0.4289089802452734
 40
0.5716729696068827
 40
0.6786677761034713
 40
0.7855971142383397
 40
0.8927121774632336
 40
0.9463509865938889
 40
1.0
 40
1.0
 40
1.0
 40
1.0
 10
174.2613637030778
 20
108.8138245784573
 30
0.0
 10
174.3128329498187
 20
108.8131562231593
 30
0.0
 10
174.4157666408623
 20
108.8118195749256
 30
0.0
 10
174.6210862474392
 20
108.7973571258243
 30
0.0
 10
174.8756649952472
 20
108.7567711760358
 30
0.0
 10
175.1694462299531
 20
108.6616217863976
 30
0.0
 10
175.4179800653506
 20
108.5270790999177
 30
0.0
 10
175.6067227932551
 20
108.3541978744687
 30
0.0
 10
175.7151837768554
 20
108.1536513402006
 30
0.0
 10
175.7599037571258
 20
107.9723647285803
 30
0.0
 10
175.7756919412685
 20
107.8250264425379
 30
0.0
 10
175.77709753012
 20
107.7510956348497
 30
0.0
 10
175.7778003913895
 20
107.714126715181
 30
0.0
  0
LINE
  5
15D
330
1F
100
AcDbEntity
  8
0
  6
Continuous
 62
     7
370
     0
100
AcDbLine
 10
175.4271510407
 20
113.6588726482
 30
0.0
 11
175.4271510407
 21
112.4162080395
 31
0.0
  0
LINE
  5
15E
330
1F
100
AcDbEntity
  8
0
  6
Continuous
 62
     7
370
     0
100
AcDbLine
 10
172.7778003914
 20
112.4162080395
 30
0.0
 11
175.4271510407
 21
112.4162080395
 31
0.0
  0
LINE
  5
15F
330
1F
100
AcDbEntity
  8
0
  6
Continuous
 62
     7
370
     0
100
AcDbLine
 10
172.7778003914
 20
112.4162080395
 30
0.0
 11
172.7778003914
 21
112.1064205959
 31
0.0
  0
LINE
  5
160
330
1F
100
AcDbEntity
  8
0
  6
Continuous
 62
     7
370
     0
100
AcDbLine
 10
175.7778003914
 20
112.1064205959
 30
0.0
 11
172.7778003914
 21
112.1064205959
 31
0.0
  0
LINE
  5
161
330
1F
100
AcDbEntity
  8
0
  6
Continuous
 62
     7
370
     0
100
AcDbLine
 10
175.7778003914
 20
113.6588726482
 30
0.0
 11
175.7778003914
 21
112.1064205959
 31
0.0
  0
LINE
  5
162
330
1F
100
AcDbEntity
  8
0
  6
Continuous
 62
     7
370
     0
100
AcDbLine
 10
175.4271510407
 20
113.6588726482
 30
0.0
 11
175.7778003914
 21
113.6588726482
 31
0.0
  0
SPLINE
  5
163
330
1F
100
AcDbEntity
  8
0
  6
Continuous
 62
     7
370
     0
100
AcDbSpline
210
0.0
220
0.0
230
1.0
 70
     8
 71
     3
 72
    18
 73
    14
 74
     0
 42
0.00000001
 43
0.00000001
 12
1.0
 22
0.0
 32
0.0
 13
1.0
 23
0.0
 33
0.0
 40
0.0
 40
0.0
 40
0.0
 40
0.0
 40
0.0357437676380437
 40
0.0714843553612581
 40
0.1250503131659544
 40
0.1868299926287965
 40
0.2500771049101807
 40
0.3690392325420166
 40
0.4996908405000933
 40
0.6246704986705706
 40
0.7497525011449484
 40
0.8748699084751069
 40
0.9999999999999999
 40
0.9999999999999999
 40
0.9999999999999999
 40
0.9999999999999999
 10
172.7388393524284
 20
116.9540889051878
 30
0.0
 10
172.7394906803927
 20
116.9762868647662
 30
0.0
 10
172.7407932783765
 20
117.0206808090999
 30
0.0
 10
172.7533484515865
 20
117.0974453951625
 30
0.0
 10
172.7791964453753
 20
117.1879495574363
 30
0.0
 10
172.8284096192623
 20
117.2878923345941
 30
0.0
 10
172.9147004037467
 20
117.4129397041877
 30
0.0
 10
173.059725891874
 20
117.546282552467
 30
0.0
 10
173.2672686802247
 20
117.6562315710003
 30
0.0
 10
173.4945173959234
 20
117.7266715828736
 30
0.0
 10
173.7258098030256
 20
117.7620889503565
 30
0.0
 10
173.9588803689824
 20
117.7801786863833
 30
0.0
 10
174.1146729032377
 20
117.7819213024263
 30
0.0
 10
174.1925731186622
 20
117.7827926546114
 30
0.0
  0
SPLINE
  5
164
330
1F
100
AcDbEntity
  8
0
  6
Continuous
 62
     7
370
     0
100
AcDbSpline
210
0.0
220
0.0
230
1.0
 70
     8
 71
     3
 72
    15
 73
    11
 74
     0
 42
0.00000001
 43
0.00000001
 12
1.0
 22
0.0
 32
0.0
 13
1.0
 23
0.0
 33
0.0
 40
0.0
 40
0.0
 40
0.0
 40
0.0
 40
0.1252648797150894
 40
0.2504730981828983
 40
0.4997530348308103
 40
0.6248542863907024
 40
0.7498659653260448
 40
0.8747593715076795
 40
0.9373713317966352
 40
1.0
 40
1.0
 40
1.0
 40
1.0
 10
173.7475650017791
 20
116.1902548846537
 30
0.0
 10
173.6885909211823
 20
116.1918733401255
 30
0.0
 10
173.5706694358215
 20
116.1951095189906
 30
0.0
 10
173.3381851641273
 20
116.2323498258466
 30
0.0
 10
173.114208081147
 20
116.3220291382611
 30
0.0
 10
172.933514274465
 20
116.4741816987209
 30
0.0
 10
172.8221655377419
 20
116.6129650784772
 30
0.0
 10
172.7650121286022
 20
116.7503485371926
 30
0.0
 10
172.7417994202192
 20
116.8658613737053
 30
0.0
 10
172.739826129442
 20
116.9246771125596
 30
0.0
 10
172.7388393524284
 20
116.9540889051878
 30
0.0
  0
SPLINE
  5
165
330
1F
100
AcDbEntity
  8
0
  6
Continuous
 62
     7
370
     0
100
AcDbSpline
210
0.0
220
0.0
230
1.0
 70
     8
 71
     3
 72
    15
 73
    11
 74
     0
 42
0.00000001
 43
0.00000001
 12
1.0
 22
0.0
 32
0.0
 13
1.0
 23
0.0
 33
0.0
 40
0.0
 40
0.0
 40
0.0
 40
0.0
 40
0.0626267793396838
 40
0.1252325262232963
 40
0.2501189884370547
 40
0.3751481854623889
 40
0.500255248054969
 40
0.7495312865386072
 40
0.8747313829892832
 40
1.0
 40
1.0
 40
1.0
 40
1.0
 10
174.7258523394414
 20
116.925555296235
 30
0.0
 10
174.7247501790994
 20
116.8971683856356
 30
0.0
 10
174.7225462285629
 20
116.8404040978418
 30
0.0
 10
174.6997626096041
 20
116.7289010488141
 30
0.0
 10
174.6416851964753
 20
116.5974321467899
 30
0.0
 10
174.5335555885119
 20
116.4642695093866
 30
0.0
 10
174.3591029819699
 20
116.3172727808843
 30
0.0
 10
174.1426934486711
 20
116.231322937911
 30
0.0
 10
173.9183756685993
 20
116.1946213004726
 30
0.0
 10
173.804512273897
 20
116.1917106220175
 30
0.0
 10
173.7475650017791
 20
116.1902548846537
 30
0.0
  0
SPLINE
  5
166
330
1F
100
AcDbEntity
  8
0
  6
Continuous
 62
     7
370
     0
100
AcDbSpline
210
0.0
220
0.0
230
1.0
 70
     8
 71
     3
 72
    13
 73
     9
 74
     0
 42
0.00000001
 43
0.00000001
 12
1.0
 22
0.0
 32
0.0
 13
1.0
 23
0.0
 33
0.0
 40
0.0
 40
0.0
 40
0.0
 40
0.0
 40
0.1251798134821885
 40
0.250291309803033
 40
0.5000750050221441
 40
0.7498119197032848
 40
0.874858360217101
 40
1.0
 40
1.0
 40
1.0
 40
1.0
 10
174.3447646771037
 20
117.5030012006071
 30
0.0
 10
174.3710540237009
 20
117.4879471895554
 30
0.0
 10
174.423618369426
 20
117.4578473832119
 30
0.0
 10
174.5189379246137
 20
117.3830123304714
 30
0.0
 10
174.6202327982182
 20
117.2692152930199
 30
0.0
 10
174.689810030035
 20
117.1334759639307
 30
0.0
 10
174.7211235482753
 20
117.0162312456826
 30
0.0
 10
174.7242756759132
 20
116.9557882791182
 30
0.0
 10
174.7258523394414
 20
116.925555296235
 30
0.0
  0
LINE
  5
167
330
1F
100
AcDbEntity
  8
0
  6
Continuous
 62
     7
370
     0
100
AcDbLine
 10
174.4184253914
 20
117.5030012006
 30
0.0
 11
174.3447646771
 21
117.5030012006
 31
0.0
  0
SPLINE
  5
168
330
1F
100
AcDbEntity
  8
0
  6
Continuous
 62
     7
370
     0
100
AcDbSpline
210
0.0
220
0.0
230
1.0
 70
     8
 71
     3
 72
    16
 73
    12
 74
     0
 42
0.00000001
 43
0.00000001
 12
1.0
 22
0.0
 32
0.0
 13
1.0
 23
0.0
 33
0.0
 40
0.0
 40
0.0
 40
0.0
 40
0.0
 40
0.0625476671226782
 40
0.1250298027633569
 40
0.2494805479320175
 40
0.3066469042708544
 40
0.3495707590079221
 40
0.4996183859707379
 40
0.7495995043985947
 40
0.8747879854519645
 40
1.0
 40
1.0
 40
1.0
 40
1.0
 10
175.5050731186622
 20
116.9425543292491
 30
0.0
 10
175.5034447473857
 20
116.9705853630618
 30
0.0
 10
175.5001897108848
 20
117.0266180624426
 30
0.0
 10
175.4633903291803
 20
117.1330463521374
 30
0.0
 10
175.398503373132
 20
117.2243524024276
 30
0.0
 10
175.3202110394277
 20
117.2879074631847
 30
0.0
 10
175.224919825095
 20
117.3470557222184
 30
0.0
 10
175.0409357168873
 20
117.4245306389131
 30
0.0
 10
174.8102473557012
 20
117.4779045329779
 30
0.0
 10
174.5868157181735
 20
117.4999172872116
 30
0.0
 10
174.4745590170737
 20
117.5019731650691
 30
0.0
 10
174.4184253913895
 20
117.5030012006071
 30
0.0
  0
SPLINE
  5
169
330
1F
100
AcDbEntity
  8
0
  6
Continuous
 62
     7
370
     0
100
AcDbSpline
210
0.0
220
0.0
230
1.0
 70
     8
 71
     3
 72
    14
 73
    10
 74
     0
 42
0.00000001
 43
0.00000001
 12
1.0
 22
0.0
 32
0.0
 13
1.0
 23
0.0
 33
0.0
 40
0.0
 40
0.0
 40
0.0
 40
0.0
 40
0.1252523031887975
 40
0.2504538360967597
 40
0.5000694994427177
 40
0.6276476429752847
 40
0.7499691673172514
 40
0.8748621199227427
 40
1.0
 40
1.0
 40
1.0
 40
1.0
 10
175.0375406511297
 20
116.5404386147055
 30
0.0
 10
175.0656099833579
 20
116.5451527589587
 30
0.0
 10
175.1217372700765
 20
116.5545791366148
 30
0.0
 10
175.2314886954164
 20
116.5836443974158
 30
0.0
 10
175.337798390095
 20
116.6303716878553
 30
0.0
 10
175.4241177012211
 20
116.7055232252555
 30
0.0
 10
175.4723423673087
 20
116.7765557075084
 30
0.0
 10
175.5007340128293
 20
116.8573678781712
 30
0.0
 10
175.503625805795
 20
116.9141403076726
 30
0.0
 10
175.5050731186622
 20
116.9425543292491
 30
0.0
  0
SPLINE
  5
16A
330
1F
100
AcDbEntity
  8
0
  6
Continuous
 62
     7
370
     0
100
AcDbSpline
210
0.0
220
0.0
230
1.0
 70
     8
 71
     3
 72
     8
 73
     4
 74
     0
 42
0.00000001
 43
0.00000001
 12
1.0
 22
0.0
 32
0.0
 13
1.0
 23
0.0
 33
0.0
 40
0.0
 40
0.0
 40
0.0
 40
0.0
 40
1.0
 40
1.0
 40
1.0
 40
1.0
 10
175.0765016900908
 20
116.2291760389785
 30
0.0
 10
175.0635146771037
 20
116.3329621590639
 30
0.0
 10
175.0505276641167
 20
116.4367189549016
 30
0.0
 10
175.0375406511297
 20
116.5404386147055
 30
0.0
  0
SPLINE
  5
16B
330
1F
100
AcDbEntity
  8
0
  6
Continuous
 62
     7
370
     0
100
AcDbSpline
210
0.0
220
0.0
230
1.0
 70
     8
 71
     3
 72
    15
 73
    11
 74
     0
 42
0.00000001
 43
0.00000001
 12
1.0
 22
0.0
 32
0.0
 13
1.0
 23
0.0
 33
0.0
 40
0.0
 40
0.0
 40
0.0
 40
0.0
 40
0.0626673614949659
 40
0.1253201049340347
 40
0.2503819052299953
 40
0.499058250404137
 40
0.624192323773353
 40
0.7494173023183197
 40
0.8746768552022396
 40
1.0
 40
1.0
 40
1.0
 40
1.0
 10
175.8167614303505
 20
116.9152340445439
 30
0.0
 10
175.8161764498056
 20
116.8919267108066
 30
0.0
 10
175.815006625171
 20
116.8453174801001
 30
0.0
 10
175.8010932812874
 20
116.7530709075774
 30
0.0
 10
175.7535922047039
 20
116.5966112315242
 30
0.0
 10
175.6351910822892
 20
116.4437641978654
 30
0.0
 10
175.4806841353509
 20
116.3386853120421
 30
0.0
 10
175.3510029302169
 20
116.2842865785305
 30
0.0
 10
175.2156997530291
 20
116.2464309590093
 30
0.0
 10
175.1229088937727
 20
116.2349286519925
 30
0.0
 10
175.0765016900908
 20
116.2291760389785
 30
0.0
  0
SPLINE
  5
16C
330
1F
100
AcDbEntity
  8
0
  6
Continuous
 62
     7
370
     0
100
AcDbSpline
210
0.0
220
0.0
230
1.0
 70
     8
 71
     3
 72
    19
 73
    15
 74
     0
 42
0.00000001
 43
0.00000001
 12
1.0
 22
0.0
 32
0.0
 13
1.0
 23
0.0
 33
0.0
 40
0.0
 40
0.0
 40
0.0
 40
0.0
 40
0.1251635464303658
 40
0.2503214011055532
 40
0.3504322802624015
 40
0.4255217659697743
 40
0.5005920392318461
 40
0.5631649298605149
 40
0.6257186917626092
 40
0.7504027801754354
 40
0.8749349545528754
 40
0.9374326410568531
 40
0.9687110010050294
 40
1.0
 40
1.0
 40
1.0
 40
1.0
 10
174.1925731186622
 20
117.7827926546114
 30
0.0
 10
174.278134919093
 20
117.7817992776964
 30
0.0
 10
174.4492546290707
 20
117.7798125690396
 30
0.0
 10
174.6884546280745
 20
117.7631623721143
 30
0.0
 10
174.891841475956
 20
117.7344325425459
 30
0.0
 10
175.0595933094977
 20
117.6998404275007
 30
0.0
 10
175.1980152162211
 20
117.6548242406417
 30
0.0
 10
175.3252009863157
 20
117.6041150359784
 30
0.0
 10
175.4762860540178
 20
117.5245447490432
 30
0.0
 10
175.6471673624192
 20
117.3924641986903
 30
0.0
 10
175.7625992123139
 20
117.2076700005385
 30
0.0
 10
175.8035654613907
 20
117.0638604999544
 30
0.0
 10
175.8152377937926
 20
116.9792421668352
 30
0.0
 10
175.8162534939275
 20
116.9365725038453
 30
0.0
 10
175.8167614303505
 20
116.9152340445439
 30
0.0
  0
SPLINE
  5
16D
330
1F
100
AcDbEntity
  8
0
  6
Continuous
 62
     7
370
     0
100
AcDbSpline
210
0.0
220
0.0
230
1.0
 70
     8
 71
     3
 72
    14
 73
    10
 74
     0
 42
0.00000001
 43
0.00000001
 12
1.0
 22
0.0
 32
0.0
 13
1.0
 23
0.0
 33
0.0
 40
0.0
 40
0.0
 40
0.0
 40
0.0
 40
0.1249642785198609
 40
0.2499282715641028
 40
0.3720998993846755
 40
0.4999250557765788
 40
0.6246427517434052
 40
0.749973849685041
 40
1.0
 40
1.0
 40
1.0
 40
1.0
 10
173.0553977939869
 20
121.297068299654
 30
0.0
 10
173.1011094070014
 20
121.3224803519028
 30
0.0
 10
173.1925325286041
 20
121.3733043983476
 30
0.0
 10
173.3405997016636
 20
121.4245619903055
 30
0.0
 10
173.4928985468824
 20
121.4648338261363
 30
0.0
 10
173.6481261821184
 20
121.4928680737608
 30
0.0
 10
173.8059002152889
 20
121.512580263681
 30
0.0
 10
174.0156582669803
 20
121.5308379786707
 30
0.0
 10
174.1737276310421
 20
121.5327408286334
 30
0.0
 10
174.279017923857
 20
121.5340083204776
 30
0.0
  0
SPLINE
  5
16E
330
1F
100
AcDbEntity
  8
0
  6
Continuous
 62
     7
370
     0
100
AcDbSpline
210
0.0
220
0.0
230
1.0
 70
     8
 71
     3
 72
    13
 73
     9
 74
     0
 42
0.00000001
 43
0.00000001
 12
1.0
 22
0.0
 32
0.0
 13
1.0
 23
0.0
 33
0.0
 40
0.0
 40
0.0
 40
0.0
 40
0.0
 40
0.1251948774509649
 40
0.2503112808433222
 40
0.4999074824305187
 40
0.7496464708871736
 40
0.874792872182283
 40
1.0
 40
1.0
 40
1.0
 40
1.0
 10
172.7388393524284
 20
120.7603871179946
 30
0.0
 10
172.7397260488966
 20
120.7874763239185
 30
0.0
 10
172.7414988860382
 20
120.8416377558388
 30
0.0
 10
172.7610025794083
 20
120.9483367346676
 30
0.0
 10
172.8143445474694
 20
121.0748637182807
 30
0.0
 10
172.9020349156965
 20
121.1812911851439
 30
0.0
 10
172.9864194616964
 20
121.2515923564839
 30
0.0
 10
173.0324012987247
 20
121.2819072008433
 30
0.0
 10
173.0553977939869
 20
121.297068299654
 30
0.0
  0
SPLINE
  5
16F
330
1F
100
AcDbEntity
  8
0
  6
Continuous
 62
     7
370
     0
100
AcDbSpline
210
0.0
220
0.0
230
1.0
 70
     8
 71
     3
 72
    16
 73
    12
 74
     0
 42
0.00000001
 43
0.00000001
 12
1.0
 22
0.0
 32
0.0
 13
1.0
 23
0.0
 33
0.0
 40
0.0
 40
0.0
 40
0.0
 40
0.0
 40
0.1251729595269225
 40
0.250337277407944
 40
0.5002449954417075
 40
0.6352206015887871
 40
0.7500261309022611
 40
0.8134102944339276
 40
0.8749697478554543
 40
0.9374576207513926
 40
1.0
 40
1.0
 40
1.0
 40
1.0
 10
174.279017923857
 20
119.9775729584092
 30
0.0
 10
174.1984400173623
 20
119.9784394330093
 30
0.0
 10
174.0372897672815
 20
119.9801723223901
 30
0.0
 10
173.7164667260083
 20
120.0054710892182
 30
0.0
 10
173.3905430677536
 20
120.0620026908951
 30
0.0
 10
173.0923806583939
 20
120.1851628179401
 30
0.0
 10
172.9280662308664
 20
120.3041140776224
 30
0.0
 10
172.8309597622812
 20
120.4226957907547
 30
0.0
 10
172.7762978119472
 20
120.5285487123368
 30
0.0
 10
172.743896264461
 20
120.6425292328262
 30
0.0
 10
172.7405254795986
 20
120.7210897402434
 30
0.0
 10
172.7388393524284
 20
120.7603871179946
 30
0.0
  0
SPLINE
  5
170
330
1F
100
AcDbEntity
  8
0
  6
Continuous
 62
     7
370
     0
100
AcDbSpline
210
0.0
220
0.0
230
1.0
 70
     8
 71
     3
 72
    18
 73
    14
 74
     0
 42
0.00000001
 43
0.00000001
 12
1.0
 22
0.0
 32
0.0
 13
1.0
 23
0.0
 33
0.0
 40
0.0
 40
0.0
 40
0.0
 40
0.0
 40
0.0624950322413546
 40
0.1249340560767827
 40
0.1865917156250536
 40
0.249853639594146
 40
0.3120654852392137
 40
0.3748805468662956
 40
0.4997120087597949
 40
0.6247329320279863
 40
0.7498001999826255
 40
0.874895886771487
 40
0.9999999999999999
 40
0.9999999999999999
 40
0.9999999999999999
 40
0.9999999999999999
 10
175.8167614303505
 20
120.7568276091074
 30
0.0
 10
175.8149027705637
 20
120.7176116937306
 30
0.0
 10
175.8111871167316
 20
120.6392150085051
 30
0.0
 10
175.7759064507279
 20
120.5261673747325
 30
0.0
 10
175.7195294637323
 20
120.4215829511464
 30
0.0
 10
175.6433909668372
 20
120.3297449504396
 30
0.0
 10
175.553555626768
 20
120.2500258094084
 30
0.0
 10
175.4215039694093
 20
120.1598505470459
 30
0.0
 10
175.2346648607743
 20
120.0824407858624
 30
0.0
 10
174.9997009381463
 20
120.0287943854872
 30
0.0
 10
174.7607972797712
 20
119.9959187237022
 30
0.0
 10
174.5200890651862
 20
119.9804494490929
 30
0.0
 10
174.359376775168
 20
119.9785318101651
 30
0.0
 10
174.279017923857
 20
119.9775729584092
 30
0.0
  0
SPLINE
  5
171
330
1F
100
AcDbEntity
  8
0
  6
Continuous
 62
     7
370
     0
100
AcDbSpline
210
0.0
220
0.0
230
1.0
 70
     8
 71
     3
 72
    16
 73
    12
 74
     0
 42
0.00000001
 43
0.00000001
 12
1.0
 22
0.0
 32
0.0
 13
1.0
 23
0.0
 33
0.0
 40
0.0
 40
0.0
 40
0.0
 40
0.0
 40
0.1251681795783937
 40
0.250328622445606
 40
0.5002403576318314
 40
0.6338071334560264
 40
0.7500155071378358
 40
0.8124974968691532
 40
0.8749673844673632
 40
0.9374604080776917
 40
0.9999999999999999
 40
0.9999999999999999
 40
0.9999999999999999
 40
0.9999999999999999
 10
174.279017923857
 20
121.5340083204776
 30
0.0
 10
174.3595062723001
 20
121.5331260089984
 30
0.0
 10
174.520477994159
 20
121.5313614405762
 30
0.0
 10
174.8409638361626
 20
121.5063675000629
 30
0.0
 10
175.1654838350113
 20
121.450001029713
 30
0.0
 10
175.4634373004591
 20
121.3291494004004
 30
0.0
 10
175.6277384556381
 20
121.2123129791157
 30
0.0
 10
175.7248774252309
 20
121.09374274065
 30
0.0
 10
175.7797901640358
 20
120.988666016653
 30
0.0
 10
175.8116866361096
 20
120.8744623336516
 30
0.0
 10
175.8150694122993
 20
120.796048918963
 30
0.0
 10
175.8167614303505
 20
120.7568276091074
 30
0.0
  0
LINE
  5
172
330
1F
100
AcDbEntity
  8
0
  6
Continuous
 62
     7
370
     0
100
AcDbLine
 10
172.7778003914
 20
124.3554653531
 30
0.0
 11
174.6796534077
 21
124.3554653531
 31
0.0
  0
LINE
  5
173
330
1F
100
AcDbEntity
  8
0
  6
Continuous
 62
     7
370
     0
100
AcDbLine
 10
174.6796534077
 20
124.3554653531
 30
0.0
 11
174.6796534077
 21
124.0318783861
 31
0.0
  0
SPLINE
  5
174
330
1F
100
AcDbEntity
  8
0
  6
Continuous
 62
     7
370
     0
100
AcDbSpline
210
0.0
220
0.0
230
1.0
 70
     8
 71
     3
 72
     8
 73
     4
 74
     0
 42
0.00000001
 43
0.00000001
 12
1.0
 22
0.0
 32
0.0
 13
1.0
 23
0.0
 33
0.0
 40
0.0
 40
0.0
 40
0.0
 40
0.0
 40
1.0
 40
1.0
 40
1.0
 40
1.0
 10
174.6796534076563
 20
124.0318783861169
 30
0.0
 10
175.045702402234
 20
124.1820789171889
 30
0.0
 10
175.4117513968118
 20
124.3317418070394
 30
0.0
 10
175.7778003913895
 20
124.4808401499539
 30
0.0
  0
SPLINE
  5
175
330
1F
100
AcDbEntity
  8
0
  6
Continuous
 62
     7
370
     0
100
AcDbSpline
210
0.0
220
0.0
230
1.0
 70
     8
 71
     3
 72
     8
 73
     4
 74
     0
 42
0.00000001
 43
0.00000001
 12
1.0
 22
0.0
 32
0.0
 13
1.0
 23
0.0
 33
0.0
 40
0.0
 40
0.0
 40
0.0
 40
0.0
 40
1.0
 40
1.0
 40
1.0
 40
1.0
 10
175.7778003913895
 20
124.4808401499539
 30
0.0
 10
175.4117513968118
 20
124.6299384928685
 30
0.0
 10
175.045702402234
 20
124.7784722882046
 30
0.0
 10
174.6796534076563
 20
124.9264148332314
 30
0.0
  0
LINE
  5
176
330
1F
100
AcDbEntity
  8
0
  6
Continuous
 62
     7
370
     0
100
AcDbLine
 10
174.6796534077
 20
124.9264148332
 30
0.0
 11
174.6796534077
 21
124.6059493923
 31
0.0
  0
LINE
  5
177
330
1F
100
AcDbEntity
  8
0
  6
Continuous
 62
     7
370
     0
100
AcDbLine
 10
174.6796534077
 20
124.6059493923
 30
0.0
 11
172.7778003914
 21
124.6059493923
 31
0.0
  0
LINE
  5
178
330
1F
100
AcDbEntity
  8
0
  6
Continuous
 62
     7
370
     0
100
AcDbLine
 10
172.7778003914
 20
124.6059493923
 30
0.0
 11
172.7778003914
 21
124.3554653531
 31
0.0
  0
LINE
  5
179
330
1F
100
AcDbEntity
  8
0
  6
Continuous
 62
     7
370
     0
100
AcDbLine
 10
171.7778003914
 20
89.9607573386
 30
0.0
 11
171.7778003914
 21
140.1607573386
 31
0.0
  0
LINE
  5
17A
330
1F
100
AcDbEntity
  8
0
  6
Continuous
 62
     7
370
     0
100
AcDbLine
 10
174.2193588329
 20
114.9730951749
 30
0.0
 11
174.2193588329
 21
114.3206023872
 31
0.0
  0
SPLINE
  5
17B
330
1F
100
AcDbEntity
  8
0
  6
Continuous
 62
     7
370
     0
100
AcDbSpline
210
0.0
220
0.0
230
1.0
 70
     8
 71
     3
 72
    15
 73
    11
 74
     0
 42
0.00000001
 43
0.00000001
 12
1.0
 22
0.0
 32
0.0
 13
1.0
 23
0.0
 33
0.0
 40
0.0
 40
0.0
 40
0.0
 40
0.0
 40
0.1253687344043246
 40
0.2506537146082105
 40
0.4990061076881856
 40
0.5824744486737397
 40
0.6659284924138863
 40
0.7494593542610676
 40
0.8746717774612628
 40
0.9999999999999999
 40
0.9999999999999999
 40
0.9999999999999999
 40
0.9999999999999999
 10
174.2193588329479
 20
114.9730951749179
 30
0.0
 10
174.2183808822022
 20
115.0121852572558
 30
0.0
 10
174.2164256340434
 20
115.0903393072978
 30
0.0
 10
174.1916043323762
 20
115.2435455696469
 30
0.0
 10
174.1318789113272
 20
115.3806016049546
 30
0.0
 10
174.0350393017581
 20
115.4676770250551
 30
0.0
 10
173.9682980892784
 20
115.5088331362943
 30
0.0
 10
173.8830781104597
 20
115.5416604117761
 30
0.0
 10
173.7806816195872
 20
115.5634709469346
 30
0.0
 10
173.7026094091436
 20
115.5659681172174
 30
0.0
 10
173.6635552615193
 20
115.5672172794521
 30
0.0
  0
SPLINE
  5
17C
330
1F
100
AcDbEntity
  8
0
  6
Continuous
 62
     7
370
     0
100
AcDbSpline
210
0.0
220
0.0
230
1.0
 70
     8
 71
     3
 72
    15
 73
    11
 74
     0
 42
0.00000001
 43
0.00000001
 12
1.0
 22
0.0
 32
0.0
 13
1.0
 23
0.0
 33
0.0
 40
0.0
 40
0.0
 40
0.0
 40
0.0
 40
0.1251540318599156
 40
0.2502318117948294
 40
0.375237720869918
 40
0.5001643140107042
 40
0.6246887580925312
 40
0.7495887405035494
 40
0.8622797430452331
 40
1.0
 40
1.0
 40
1.0
 40
1.0
 10
173.6635552615193
 20
115.5672172794521
 30
0.0
 10
173.6245310709058
 20
115.5658828824816
 30
0.0
 10
173.546506465738
 20
115.5632149015416
 30
0.0
 10
173.4316841305491
 20
115.5361626929461
 30
0.0
 10
173.3259119034293
 20
115.4850768285904
 30
0.0
 10
173.2308250002785
 20
115.415587649716
 30
0.0
 10
173.163045861624
 20
115.3165046039631
 30
0.0
 10
173.1413731314987
 20
115.2042289064169
 30
0.0
 10
173.1300322940563
 20
115.088037518922
 30
0.0
 10
173.1290112771403
 20
115.0099524747647
 30
0.0
 10
173.1284497420388
 20
114.9670075514122
 30
0.0
  0
LINE
  5
17D
330
1F
100
AcDbEntity
  8
0
  6
Continuous
 62
     7
370
     0
100
AcDbLine
 10
173.128449742
 20
114.9670075514
 30
0.0
 11
173.128449742
 21
114.3206023872
 31
0.0
  0
LINE
  5
17E
330
1F
100
AcDbEntity
  8
0
  6
Continuous
 62
     7
370
     0
100
AcDbLine
 10
173.128449742
 20
114.3206023872
 30
0.0
 11
174.2193588329
 21
114.3206023872
 31
0.0
  0
SPLINE
  5
17F
330
1F
100
AcDbEntity
  8
0
  6
Continuous
 62
     7
370
     0
100
AcDbSpline
210
0.0
220
0.0
230
1.0
 70
     8
 71
     3
 72
    14
 73
    10
 74
     0
 42
0.00000001
 43
0.00000001
 12
1.0
 22
0.0
 32
0.0
 13
1.0
 23
0.0
 33
0.0
 40
0.0
 40
0.0
 40
0.0
 40
0.0
 40
0.1254183002733472
 40
0.2508011305782775
 40
0.5005357186775314
 40
0.7497511349432453
 40
0.8746528560812858
 40
0.9373130958550171
 40
1.0
 40
1.0
 40
1.0
 40
1.0
 10
173.7396510407401
 20
117.4727021715707
 30
0.0
 10
173.7010193306277
 20
117.4717015073159
 30
0.0
 10
173.6237668359659
 20
117.4697004618077
 30
0.0
 10
173.470870726504
 20
117.4481830110467
 30
0.0
 10
173.2867744619081
 20
117.3825930497466
 30
0.0
 10
173.1372452101197
 20
117.2529732739111
 30
0.0
 10
173.0719046219671
 20
117.1336835299338
 30
0.0
 10
173.0533835706299
 20
117.0585838147106
 30
0.0
 10
173.0514797679494
 20
117.0200841663605
 30
0.0
 10
173.0505276641167
 20
117.000830247282
 30
0.0
  0
SPLINE
  5
180
330
1F
100
AcDbEntity
  8
0
  6
Continuous
 62
     7
370
     0
100
AcDbSpline
210
0.0
220
0.0
230
1.0
 70
     8
 71
     3
 72
    15
 73
    11
 74
     0
 42
0.00000001
 43
0.00000001
 12
1.0
 22
0.0
 32
0.0
 13
1.0
 23
0.0
 33
0.0
 40
0.0
 40
0.0
 40
0.0
 40
0.0
 40
0.0715111606790147
 40
0.1429936792640114
 40
0.2855624957433239
 40
0.3921033932055988
 40
0.5001240085827022
 40
0.7495732677381878
 40
0.8497513347246752
 40
1.0
 40
1.0
 40
1.0
 40
1.0
 10
173.0505276641167
 20
117.000830247282
 30
0.0
 10
173.0516831775639
 20
116.9777968445009
 30
0.0
 10
173.053993741645
 20
116.9317392644203
 30
0.0
 10
173.0806917813834
 20
116.8429825003134
 30
0.0
 10
173.1370254980853
 20
116.7543406416465
 30
0.0
 10
173.21919527044
 20
116.6733033862438
 30
0.0
 10
173.3402351576366
 20
116.5845692809614
 30
0.0
 10
173.4815788131458
 20
116.5316800711635
 30
0.0
 10
173.6407787686889
 20
116.5057615355843
 30
0.0
 10
173.7215993709315
 20
116.5031242878088
 30
0.0
 10
173.7700893524284
 20
116.5015420168
 30
0.0
  0
SPLINE
  5
181
330
1F
100
AcDbEntity
  8
0
  6
Continuous
 62
     7
370
     0
100
AcDbSpline
210
0.0
220
0.0
230
1.0
 70
     8
 71
     3
 72
    15
 73
    11
 74
     0
 42
0.00000001
 43
0.00000001
 12
1.0
 22
0.0
 32
0.0
 13
1.0
 23
0.0
 33
0.0
 40
0.0
 40
0.0
 40
0.0
 40
0.0
 40
0.1252781746061739
 40
0.250503579862851
 40
0.4996690341339189
 40
0.59982095374706
 40
0.6999307640919115
 40
0.8497508143240575
 40
0.9248817648192021
 40
0.9999999999999999
 40
0.9999999999999999
 40
0.9999999999999999
 40
0.9999999999999999
 10
173.7700893524284
 20
116.5015420168
 30
0.0
 10
173.8078504100633
 20
116.5025543095767
 30
0.0
 10
173.8833566197177
 20
116.5045784687346
 30
0.0
 10
174.0317881558906
 20
116.53069011374
 30
0.0
 10
174.1673429580981
 20
116.5865756571695
 30
0.0
 10
174.272015406227
 20
116.6729541209365
 30
0.0
 10
174.3434621273856
 20
116.7508895399565
 30
0.0
 10
174.3897167309968
 20
116.8390160481562
 30
0.0
 10
174.4116410451826
 20
116.9269826668606
 30
0.0
 10
174.4133230810122
 20
116.9721690390066
 30
0.0
 10
174.4141640277531
 20
116.9947603130596
 30
0.0
  0
SPLINE
  5
182
330
1F
100
AcDbEntity
  8
0
  6
Continuous
 62
     7
370
     0
100
AcDbSpline
210
0.0
220
0.0
230
1.0
 70
     8
 71
     3
 72
    16
 73
    12
 74
     0
 42
0.00000001
 43
0.00000001
 12
1.0
 22
0.0
 32
0.0
 13
1.0
 23
0.0
 33
0.0
 40
0.0
 40
0.0
 40
0.0
 40
0.0
 40
0.0715321168988116
 40
0.1429869191275522
 40
0.2144782132859634
 40
0.2859667086659332
 40
0.3717653999893992
 40
0.5003371049854884
 40
0.7496213978003401
 40
0.874781607806447
 40
0.9999999999999999
 40
0.9999999999999999
 40
0.9999999999999999
 40
0.9999999999999999
 10
174.4141640277531
 20
116.9947603130596
 30
0.0
 10
174.4132390636635
 20
117.0167406407005
 30
0.0
 10
174.4113901352211
 20
117.0606775387967
 30
0.0
 10
174.3949065862271
 20
117.1247874368303
 30
0.0
 10
174.3696672826702
 20
117.1858733454976
 30
0.0
 10
174.3302402563263
 20
117.2444201633671
 30
0.0
 10
174.2715330755467
 20
117.3099983436945
 30
0.0
 10
174.1574668305597
 20
117.3975031568199
 30
0.0
 10
174.0076751354106
 20
117.4488723133222
 30
0.0
 10
173.8553124145731
 20
117.4700882835709
 30
0.0
 10
173.7782108042272
 20
117.4718307406019
 30
0.0
 10
173.7396510407401
 20
117.4727021715707
 30
0.0
  0
SPLINE
  5
183
330
1F
100
AcDbEntity
  8
0
  6
Continuous
 62
     7
370
     0
100
AcDbSpline
210
0.0
220
0.0
230
1.0
 70
     8
 71
     3
 72
    16
 73
    12
 74
     0
 42
0.00000001
 43
0.00000001
 12
1.0
 22
0.0
 32
0.0
 13
1.0
 23
0.0
 33
0.0
 40
0.0
 40
0.0
 40
0.0
 40
0.0
 40
0.2502666070979152
 40
0.5003870414468611
 40
0.625397804024071
 40
0.750118336666443
 40
0.8126309605029061
 40
0.8750812198716654
 40
0.9374681530762606
 40
0.9687217402228865
 40
1.0
 40
1.0
 40
1.0
 40
1.0
 10
174.2778003913895
 20
118.4016973342355
 30
0.0
 10
174.3989164801224
 20
118.4032079116723
 30
0.0
 10
174.641077917541
 20
118.4062281842657
 30
0.0
 10
174.9428221444097
 20
118.437922629332
 30
0.0
 10
175.1787122401592
 20
118.4957858937357
 30
0.0
 10
175.3135150733282
 20
118.5680195484797
 30
0.0
 10
175.4056413075185
 20
118.6460441973276
 30
0.0
 10
175.4621134399871
 20
118.7174534420603
 30
0.0
 10
175.4910655755394
 20
118.7874227464764
 30
0.0
 10
175.503792784661
 20
118.8461060714336
 30
0.0
 10
175.5046462284166
 20
118.8760695365638
 30
0.0
 10
175.5050731186622
 20
118.8910571803368
 30
0.0
  0
SPLINE
  5
184
330
1F
100
AcDbEntity
  8
0
  6
Continuous
 62
     7
370
     0
100
AcDbSpline
210
0.0
220
0.0
230
1.0
 70
     8
 71
     3
 72
    15
 73
    11
 74
     0
 42
0.00000001
 43
0.00000001
 12
1.0
 22
0.0
 32
0.0
 13
1.0
 23
0.0
 33
0.0
 40
0.0
 40
0.0
 40
0.0
 40
0.0
 40
0.0312914406377332
 40
0.0625559738335162
 40
0.1249665424421842
 40
0.2494283959541484
 40
0.3742714550651965
 40
0.4993601535802148
 40
0.7496086004653207
 40
1.0
 40
1.0
 40
1.0
 40
1.0
 10
175.5050731186622
 20
118.8910571803368
 30
0.0
 10
175.5045867772128
 20
118.9059116879074
 30
0.0
 10
175.503614512518
 20
118.9356079296898
 30
0.0
 10
175.4897657391012
 20
118.9935009359368
 30
0.0
 10
175.4454758332472
 20
119.0886235032667
 30
0.0
 10
175.3315330208324
 20
119.1907605252601
 30
0.0
 10
175.1711115831494
 20
119.2727600892638
 30
0.0
 10
174.936882447872
 20
119.3292603988512
 30
0.0
 10
174.6378786885156
 20
119.3598465995346
 30
0.0
 10
174.3978493364169
 20
119.3629938700819
 30
0.0
 10
174.2778003913895
 20
119.3645679546912
 30
0.0
  0
SPLINE
  5
185
330
1F
100
AcDbEntity
  8
0
  6
Continuous
 62
     7
370
     0
100
AcDbSpline
210
0.0
220
0.0
230
1.0
 70
     8
 71
     3
 72
    16
 73
    12
 74
     0
 42
0.00000001
 43
0.00000001
 12
1.0
 22
0.0
 32
0.0
 13
1.0
 23
0.0
 33
0.0
 40
0.0
 40
0.0
 40
0.0
 40
0.0
 40
0.2503496394344897
 40
0.5005495143908351
 40
0.6255888818189816
 40
0.6881323128788709
 40
0.7506868671567912
 40
0.8750305488322877
 40
0.9374399021183714
 40
0.9687083653526494
 40
1.0
 40
1.0
 40
1.0
 40
1.0
 10
174.2778003913895
 20
119.3645679546912
 30
0.0
 10
174.1563971853479
 20
119.3630491883043
 30
0.0
 10
173.9136633992443
 20
119.3600125640889
 30
0.0
 10
173.6110800704216
 20
119.3287503496898
 30
0.0
 10
173.4042891598131
 20
119.2772750824381
 30
0.0
 10
173.2933502108479
 20
119.227638914131
 30
0.0
 10
173.1920494242132
 20
119.1623481989592
 30
0.0
 10
173.1042907949393
 20
119.07486562262
 30
0.0
 10
173.0630852871601
 20
118.9771337655884
 30
0.0
 10
173.052106732985
 20
118.91801414294
 30
0.0
 10
173.0510541503603
 20
118.8880097872157
 30
0.0
 10
173.0505276641167
 20
118.87300205275
 30
0.0
  0
SPLINE
  5
186
330
1F
100
AcDbEntity
  8
0
  6
Continuous
 62
     7
370
     0
100
AcDbSpline
210
0.0
220
0.0
230
1.0
 70
     8
 71
     3
 72
    15
 73
    11
 74
     0
 42
0.00000001
 43
0.00000001
 12
1.0
 22
0.0
 32
0.0
 13
1.0
 23
0.0
 33
0.0
 40
0.0
 40
0.0
 40
0.0
 40
0.0
 40
0.0312909998794804
 40
0.062553893925019
 40
0.1249573530937509
 40
0.2494428287818869
 40
0.3742794951282856
 40
0.4993614316828271
 40
0.7496082157734061
 40
1.0
 40
1.0
 40
1.0
 40
1.0
 10
173.0505276641167
 20
118.87300205275
 30
0.0
 10
173.0509987762005
 20
118.8581689525287
 30
0.0
 10
173.0519405772112
 20
118.828516075299
 30
0.0
 10
173.0659437107687
 20
118.7707024948341
 30
0.0
 10
173.1109869208425
 20
118.6759215197286
 30
0.0
 10
173.2255308803355
 20
118.5746592368086
 30
0.0
 10
173.3858619631383
 20
118.4928146641053
 30
0.0
 10
173.6200518925121
 20
118.4376848643754
 30
0.0
 10
173.9183263777913
 20
118.406236900784
 30
0.0
 10
174.1579525858473
 20
118.4032108152338
 30
0.0
 10
174.2778003913895
 20
118.4016973342355
 30
0.0
  0
SPLINE
  5
187
330
1F
100
AcDbEntity
  8
0
  6
Continuous
 62
     7
370
     0
100
AcDbSpline
210
0.0
220
0.0
230
1.0
 70
     8
 71
     3
 72
    16
 73
    12
 74
     0
 42
0.00000001
 43
0.00000001
 12
1.0
 22
0.0
 32
0.0
 13
1.0
 23
0.0
 33
0.0
 40
0.0
 40
0.0
 40
0.0
 40
0.0
 40
0.250266607097914
 40
0.5003870414468579
 40
0.6253978040240677
 40
0.7501183366664419
 40
0.8126309605029075
 40
0.8750812198716666
 40
0.9374681530762649
 40
0.9687217402228904
 40
1.0
 40
1.0
 40
1.0
 40
1.0
 10
174.2778003913895
 20
120.2829879474149
 30
0.0
 10
174.3989164801224
 20
120.2844792132384
 30
0.0
 10
174.641077917541
 20
120.2874608738847
 30
0.0
 10
174.9428221444097
 20
120.3187492297711
 30
0.0
 10
175.1787122401592
 20
120.3758619002505
 30
0.0
 10
175.3135150733282
 20
120.4471449549184
 30
0.0
 10
175.4056413075185
 20
120.5241218000084
 30
0.0
 10
175.462113439987
 20
120.5945582109334
 30
0.0
 10
175.4910655755394
 20
120.6635570997914
 30
0.0
 10
175.503792784661
 20
120.7214150458005
 30
0.0
 10
175.5046462284166
 20
120.7509519041067
 30
0.0
 10
175.5050731186622
 20
120.7657261603065
 30
0.0
  0
SPLINE
  5
188
330
1F
100
AcDbEntity
  8
0
  6
Continuous
 62
     7
370
     0
100
AcDbSpline
210
0.0
220
0.0
230
1.0
 70
     8
 71
     3
 72
    15
 73
    11
 74
     0
 42
0.00000001
 43
0.00000001
 12
1.0
 22
0.0
 32
0.0
 13
1.0
 23
0.0
 33
0.0
 40
0.0
 40
0.0
 40
0.0
 40
0.0
 40
0.0312914406377331
 40
0.0625559738335167
 40
0.1249665424421841
 40
0.2494283959541443
 40
0.3742714550651934
 40
0.4993601535802129
 40
0.7496086004653206
 40
1.0
 40
1.0
 40
1.0
 40
1.0
 10
175.5050731186622
 20
120.7657261603065
 30
0.0
 10
175.5045867772128
 20
120.7803679837235
 30
0.0
 10
175.503614512518
 20
120.8096390400852
 30
0.0
 10
175.4897657391012
 20
120.8666932505695
 30
0.0
 10
175.4454758332471
 20
120.9604189425723
 30
0.0
 10
175.3315330208324
 20
121.0610176642842
 30
0.0
 10
175.1711115831494
 20
121.1417575763892
 30
0.0
 10
174.936882447872
 20
121.1973793274175
 30
0.0
 10
174.6378786885156
 20
121.2274850878544
 30
0.0
 10
174.3978493364169
 20
121.2305828408723
 30
0.0
 10
174.2778003913895
 20
121.2321321596472
 30
0.0
  0
SPLINE
  5
189
330
1F
100
AcDbEntity
  8
0
  6
Continuous
 62
     7
370
     0
100
AcDbSpline
210
0.0
220
0.0
230
1.0
 70
     8
 71
     3
 72
    16
 73
    12
 74
     0
 42
0.00000001
 43
0.00000001
 12
1.0
 22
0.0
 32
0.0
 13
1.0
 23
0.0
 33
0.0
 40
0.0
 40
0.0
 40
0.0
 40
0.0
 40
0.2503496394344891
 40
0.5005495143908343
 40
0.6255888818189815
 40
0.6881323128788707
 40
0.7506868671567921
 40
0.8750305488322875
 40
0.9374399021183717
 40
0.9687083653526495
 40
1.0
 40
1.0
 40
1.0
 40
1.0
 10
174.2778003913895
 20
121.2321321596472
 30
0.0
 10
174.1563971853479
 20
121.2306372793604
 30
0.0
 10
173.9136633992443
 20
121.227648413056
 30
0.0
 10
173.6110800704216
 20
121.1968773926372
 30
0.0
 10
173.4042891598131
 20
121.146202175275
 30
0.0
 10
173.2933502108479
 20
121.0973295218113
 30
0.0
 10
173.1920494242132
 20
121.0330341612843
 30
0.0
 10
173.1042907949393
 20
120.9468660957465
 30
0.0
 10
173.0630852871601
 20
120.8505645862834
 30
0.0
 10
173.052106732985
 20
120.7922984164963
 30
0.0
 10
173.0510541503603
 20
120.7627220048765
 30
0.0
 10
173.0505276641167
 20
120.7479283217155
 30
0.0
  0
SPLINE
  5
18A
330
1F
100
AcDbEntity
  8
0
  6
Continuous
 62
     7
370
     0
100
AcDbSpline
210
0.0
220
0.0
230
1.0
 70
     8
 71
     3
 72
    15
 73
    11
 74
     0
 42
0.00000001
 43
0.00000001
 12
1.0
 22
0.0
 32
0.0
 13
1.0
 23
0.0
 33
0.0
 40
0.0
 40
0.0
 40
0.0
 40
0.0
 40
0.0312909998794808
 40
0.0625538939250207
 40
0.124957353093748
 40
0.2494428287818846
 40
0.3742794951282857
 40
0.4993614316828257
 40
0.7496082157734044
 40
1.0
 40
1.0
 40
1.0
 40
1.0
 10
173.0505276641167
 20
120.7479283217155
 30
0.0
 10
173.0509987762005
 20
120.7333055940638
 30
0.0
 10
173.0519405772112
 20
120.704073273015
 30
0.0
 10
173.0659437107687
 20
120.6470697892725
 30
0.0
 10
173.1109869208425
 20
120.5535983854895
 30
0.0
 10
173.2255308803355
 20
120.4536976413842
 30
0.0
 10
173.3858619631383
 20
120.3729293744191
 30
0.0
 10
173.6200518925121
 20
120.3185144087359
 30
0.0
 10
173.9183263777913
 20
120.2874695114192
 30
0.0
 10
174.1579525858473
 20
120.2844820904989
 30
0.0
 10
174.2778003913895
 20
120.2829879474149
 30
0.0
  0
LINE
  5
18B
330
1F
100
AcDbEntity
  8
0
  6
Continuous
 62
     7
370
     0
100
AcDbLine
 10
175.4271510407
 20
107.678004589
 30
0.0
 11
175.4271510407
 21
107.1676775635
 31
0.0
  0
SPLINE
  5
18C
330
1F
100
AcDbEntity
  8
0
  6
Continuous
 62
     7
370
     0
100
AcDbSpline
210
0.0
220
0.0
230
1.0
 70
     8
 71
     3
 72
    15
 73
    11
 74
     0
 42
0.00000001
 43
0.00000001
 12
1.0
 22
0.0
 32
0.0
 13
1.0
 23
0.0
 33
0.0
 40
0.0
 40
0.0
 40
0.0
 40
0.0
 40
0.1397214989305027
 40
0.2501771574758241
 40
0.375238625844428
 40
0.50023145062014
 40
0.6214276674151485
 40
0.7499576434759527
 40
0.8749319569283701
 40
1.0
 40
1.0
 40
1.0
 40
1.0
 10
175.4271510407401
 20
107.6780045889644
 30
0.0
 10
175.4261188822459
 20
107.7197294145732
 30
0.0
 10
175.4242707595151
 20
107.7944394509447
 30
0.0
 10
175.4116327886865
 20
107.9061556692578
 30
0.0
 10
175.3888668646217
 20
108.0121506319495
 30
0.0
 10
175.3475791765145
 20
108.1169326831187
 30
0.0
 10
175.2823653174746
 20
108.2115634956238
 30
0.0
 10
175.1966960358743
 20
108.2892059812562
 30
0.0
 10
175.0980970482993
 20
108.353066876221
 30
0.0
 10
175.0260792714375
 20
108.3823360110444
 30
0.0
 10
174.9900568848959
 20
108.3969760642963
 30
0.0
  0
SPLINE
  5
18D
330
1F
100
AcDbEntity
  8
0
  6
Continuous
 62
     7
370
     0
100
AcDbSpline
210
0.0
220
0.0
230
1.0
 70
     8
 71
     3
 72
    12
 73
     8
 74
     0
 42
0.00000001
 43
0.00000001
 12
1.0
 22
0.0
 32
0.0
 13
1.0
 23
0.0
 33
0.0
 40
0.0
 40
0.0
 40
0.0
 40
0.0
 40
0.1250178846381799
 40
0.2500201696718626
 40
0.4999844141952995
 40
0.749986801893363
 40
1.0
 40
1.0
 40
1.0
 40
1.0
 10
174.9900568848959
 20
108.3969760642963
 30
0.0
 10
174.9608502367932
 20
108.4073631363626
 30
0.0
 10
174.9024405849636
 20
108.4281359844069
 30
0.0
 10
174.7825103767517
 20
108.4606052747985
 30
0.0
 10
174.6296642808705
 20
108.4895731469001
 30
0.0
 10
174.4438332258255
 20
108.5093052136927
 30
0.0
 10
174.3193468653737
 20
108.5112269558491
 30
0.0
 10
174.2571023394414
 20
108.5121878477014
 30
0.0
  0
SPLINE
  5
18E
330
1F
100
AcDbEntity
  8
0
  6
Continuous
 62
     7
370
     0
100
AcDbSpline
210
0.0
220
0.0
230
1.0
 70
     8
 71
     3
 72
    15
 73
    11
 74
     0
 42
0.00000001
 43
0.00000001
 12
1.0
 22
0.0
 32
0.0
 13
1.0
 23
0.0
 33
0.0
 40
0.0
 40
0.0
 40
0.0
 40
0.0
 40
0.1251268274281163
 40
0.2502484251834727
 40
0.5001030853491313
 40
0.6251006234200797
 40
0.7501052843047152
 40
0.874955926622918
 40
0.9374630657903266
 40
1.0
 40
1.0
 40
1.0
 40
1.0
 10
174.2571023394414
 20
108.5121878477014
 30
0.0
 10
174.206094668157
 20
108.5115863353616
 30
0.0
 10
174.1040814574524
 20
108.5103833358221
 30
0.0
 10
173.9010361781876
 20
108.4939656653442
 30
0.0
 10
173.6989091764357
 20
108.4573228297849
 30
0.0
 10
173.5106596850974
 20
108.3805190466782
 30
0.0
 10
173.3791465776649
 20
108.3042983521384
 30
0.0
 10
173.2842667491829
 20
108.2210685991174
 30
0.0
 10
173.2220521365742
 20
108.1428532027436
 30
0.0
 10
173.1994250646552
 20
108.0988294380669
 30
0.0
 10
173.1881088329479
 20
108.0768123108181
 30
0.0
  0
SPLINE
  5
18F
330
1F
100
AcDbEntity
  8
0
  6
Continuous
 62
     7
370
     0
100
AcDbSpline
210
0.0
220
0.0
230
1.0
 70
     8
 71
     3
 72
    12
 73
     8
 74
     0
 42
0.00000001
 43
0.00000001
 12
1.0
 22
0.0
 32
0.0
 13
1.0
 23
0.0
 33
0.0
 40
0.0
 40
0.0
 40
0.0
 40
0.0
 40
0.1428151998865892
 40
0.2856721884586214
 40
0.4999151269693849
 40
0.749937838827124
 40
1.0
 40
1.0
 40
1.0
 40
1.0
 10
173.1881088329479
 20
108.0768123108181
 30
0.0
 10
173.1806196074677
 20
108.0584174966934
 30
0.0
 10
173.1656389651098
 20
108.0216224859979
 30
0.0
 10
173.1495553353926
 20
107.9541828464299
 30
0.0
 10
173.1371164880909
 20
107.8712670052612
 30
0.0
 10
173.1296447621029
 20
107.7730277024439
 30
0.0
 10
173.1288481030084
 20
107.7042445315388
 30
0.0
 10
173.1284497420388
 20
107.6698502330978
 30
0.0
  0
LINE
  5
190
330
1F
100
AcDbEntity
  8
0
  6
Continuous
 62
     7
370
     0
100
AcDbLine
 10
173.128449742
 20
107.6698502331
 30
0.0
 11
173.128449742
 21
107.1676775635
 31
0.0
  0
LINE
  5
191
330
1F
100
AcDbEntity
  8
0
  6
Continuous
 62
     7
370
     0
100
AcDbLine
 10
173.128449742
 20
107.1676775635
 30
0.0
 11
175.4271510407
 21
107.1676775635
 31
0.0
  0
DIMENSION
  5
192
330
1F
100
AcDbEntity
  8
0
  6
Continuous
 62
     7
370
     0
100
AcDbDimension
  2
_D_1
 10
176.7778003914
 20
79.6607573386
 30
0.0
 11
158.7015037728
 21
79.6607573386
 31
0.0
 70
   160
  1
<>
 71
     2
 42
-1.0
  3
SLDDIMSTYLE1
100
AcDbAlignedDimension
 13
171.7778003914
 23
89.9607573386
 33
0.0
 14
176.7778003914
 24
89.9607573386
 34
0.0
100
AcDbRotatedDimension
  0
MTEXT
  5
1A7
330
1F
100
AcDbEntity
  8
0
  6
Continuous
 62
     7
370
     0
100
AcDbMText
 10
148.6544226721
 20
129.3602044571
 30
0.0
 40
2.1166666667
 41
0.0
 71
     1
 72
     1
  1
S1
  7
SLDTEXTSTYLE0
 73
     1
 44
1.0
  0
LEADER
  5
1A9
330
1F
100
AcDbEntity
  8
0
  6
Continuous
 62
     7
370
     0
100
AcDbLeader
  3
SLDDIMSTYLE2
 76
     3
 10
171.7778003914
 20
113.0630650582
 30
0.0
 10
158.3669194866
 20
128.2380396733
 30
0.0
 10
152.0169194866
 20
128.2380396733
 30
0.0
  0
INSERT
  5
1AF
102
{ACAD_REACTORS
330
1B0
102
}
330
1F
100
AcDbEntity
  8
0
  6
Continuous
 62
     7
370
     0
100
AcDbBlockReference
  2
SW_NOTE_5
 10
189.7567094516
 20
128.3547257876
 30
0.0
  0
LEADER
  5
1B0
330
1F
100
AcDbEntity
  8
0
  6
Continuous
 62
     7
370
     0
100
AcDbLeader
  3
SLDDIMSTYLE2
 73
     2
 76
     3
 10
176.7778003914
 20
113.4652941377
 30
0.0
 10
183.4067094516
 20
128.3547257876
 30
0.0
 10
189.7567094516
 20
128.3547257876
 30
0.0
340
1AF
  0
OLE2FRAME
  5
1B1
330
1F
100
AcDbEntity
  8
0
100
AcDbOle2Frame
 70
     2
  3
Paintbrush Picture
 10
229.0524258301
 20
33.6996297921
 30
0.0
 11
265.1686469208
 21
28.555479607
 31
0.0
 71
     2
 72
     0
 73
     1
 90
     7296
310
80557333EF78ADA16C40002412788DD94040000000000000000041161DC7B292
310
7040002412788DD94040000000000000000041161DC7B2927040F6DD59E9338E
310
3C4000000000000000007333EF78ADA16C40F6DD59E9338E3C40000000000000
310
00000000000001000000000100000100000001000000000001000000001C0000
310
D0CF11E0A1B11AE1000000000000000000000000000000003E000300FEFF0900
310
0600000000000000000000000100000001000000000000000010000002000000
310
01000000FEFFFFFF0000000000000000FFFFFFFFFFFFFFFFFFFFFFFFFFFFFFFF
310
FFFFFFFFFFFFFFFFFFFFFFFFFFFFFFFFFFFFFFFFFFFFFFFFFFFFFFFFFFFFFFFF
310
FFFFFFFFFFFFFFFFFFFFFFFFFFFFFFFFFFFFFFFFFFFFFFFFFFFFFFFFFFFFFFFF
310
FFFFFFFFFFFFFFFFFFFFFFFFFFFFFFFFFFFFFFFFFFFFFFFFFFFFFFFFFFFFFFFF
310
FFFFFFFFFFFFFFFFFFFFFFFFFFFFFFFFFFFFFFFFFFFFFFFFFFFFFFFFFFFFFFFF
310
FFFFFFFFFFFFFFFFFFFFFFFFFFFFFFFFFFFFFFFFFFFFFFFFFFFFFFFFFFFFFFFF
310
FFFFFFFFFFFFFFFFFFFFFFFFFFFFFFFFFFFFFFFFFFFFFFFFFFFFFFFFFFFFFFFF
310
FFFFFFFFFFFFFFFFFFFFFFFFFFFFFFFFFFFFFFFFFFFFFFFFFFFFFFFFFFFFFFFF
310
FFFFFFFFFFFFFFFFFFFFFFFFFFFFFFFFFFFFFFFFFFFFFFFFFFFFFFFFFFFFFFFF
310
FFFFFFFFFFFFFFFFFFFFFFFFFFFFFFFFFFFFFFFFFFFFFFFFFFFFFFFFFFFFFFFF
310
FFFFFFFFFFFFFFFFFFFFFFFFFFFFFFFFFFFFFFFFFFFFFFFFFFFFFFFFFFFFFFFF
310
FFFFFFFFFFFFFFFFFFFFFFFFFFFFFFFFFFFFFFFFFFFFFFFFFFFFFFFFFFFFFFFF
310
FFFFFFFFFFFFFFFFFFFFFFFFFFFFFFFFFFFFFFFFFFFFFFFFFFFFFFFFFFFFFFFF
310
FFFFFFFFFFFFFFFFFFFFFFFFFFFFFFFFFFFFFFFFFFFFFFFFFFFFFFFFFFFFFFFF
310
FDFFFFFFFEFFFFFFFEFFFFFFFEFFFFFF05000000060000000700000008000000
310
090000000A0000000B0000000C000000FEFFFFFFFFFFFFFFFFFFFFFFFFFFFFFF
310
FFFFFFFFFFFFFFFFFFFFFFFFFFFFFFFFFFFFFFFFFFFFFFFFFFFFFFFFFFFFFFFF
310
FFFFFFFFFFFFFFFFFFFFFFFFFFFFFFFFFFFFFFFFFFFFFFFFFFFFFFFFFFFFFFFF
310
FFFFFFFFFFFFFFFFFFFFFFFFFFFFFFFFFFFFFFFFFFFFFFFFFFFFFFFFFFFFFFFF
310
FFFFFFFFFFFFFFFFFFFFFFFFFFFFFFFFFFFFFFFFFFFFFFFFFFFFFFFFFFFFFFFF
310
FFFFFFFFFFFFFFFFFFFFFFFFFFFFFFFFFFFFFFFFFFFFFFFFFFFFFFFFFFFFFFFF
310
FFFFFFFFFFFFFFFFFFFFFFFFFFFFFFFFFFFFFFFFFFFFFFFFFFFFFFFFFFFFFFFF
310
FFFFFFFFFFFFFFFFFFFFFFFFFFFFFFFFFFFFFFFFFFFFFFFFFFFFFFFFFFFFFFFF
310
FFFFFFFFFFFFFFFFFFFFFFFFFFFFFFFFFFFFFFFFFFFFFFFFFFFFFFFFFFFFFFFF
310
FFFFFFFFFFFFFFFFFFFFFFFFFFFFFFFFFFFFFFFFFFFFFFFFFFFFFFFFFFFFFFFF
310
FFFFFFFFFFFFFFFFFFFFFFFFFFFFFFFFFFFFFFFFFFFFFFFFFFFFFFFFFFFFFFFF
310
FFFFFFFFFFFFFFFFFFFFFFFFFFFFFFFFFFFFFFFFFFFFFFFFFFFFFFFFFFFFFFFF
310
FFFFFFFFFFFFFFFFFFFFFFFFFFFFFFFFFFFFFFFFFFFFFFFFFFFFFFFFFFFFFFFF
310
FFFFFFFFFFFFFFFFFFFFFFFFFFFFFFFFFFFFFFFFFFFFFFFFFFFFFFFFFFFFFFFF
310
FFFFFFFFFFFFFFFFFFFFFFFFFFFFFFFFFFFFFFFFFFFFFFFFFFFFFFFFFFFFFFFF
310
52006F006F007400200045006E00740072007900000000000000000000000000
310
0000000000000000000000000000000000000000000000000000000000000000
310
16000500FFFFFFFFFFFFFFFF020000000A00030000000000C000000000000046
310
00000000000000000000000080EF138C0A33CF0103000000C000000000000000
310
01004F006C006500000000000000000000000000000000000000000000000000
310
0000000000000000000000000000000000000000000000000000000000000000
310
0A000200FFFFFFFFFFFFFFFFFFFFFFFF00000000000000000000000000000000
310
0000000000000000000000000000000000000000000000001400000000000000
310
010043006F006D0070004F0062006A0000000000000000000000000000000000
310
0000000000000000000000000000000000000000000000000000000000000000
310
120002010100000003000000FFFFFFFF00000000000000000000000000000000
310
0000000000000000000000000000000000000000010000004D00000000000000
310
01004F006C006500310030004E00610074006900760065000000000000000000
310
0000000000000000000000000000000000000000000000000000000000000000
310
1A000200FFFFFFFFFFFFFFFFFFFFFFFF00000000000000000000000000000000
310
000000000000000000000000000000000000000004000000E411000000000000
310
FEFFFFFF02000000FEFFFFFFFFFFFFFFFFFFFFFFFFFFFFFFFFFFFFFFFFFFFFFF
310
FFFFFFFFFFFFFFFFFFFFFFFFFFFFFFFFFFFFFFFFFFFFFFFFFFFFFFFFFFFFFFFF
310
FFFFFFFFFFFFFFFFFFFFFFFFFFFFFFFFFFFFFFFFFFFFFFFFFFFFFFFFFFFFFFFF
310
FFFFFFFFFFFFFFFFFFFFFFFFFFFFFFFFFFFFFFFFFFFFFFFFFFFFFFFFFFFFFFFF
310
FFFFFFFFFFFFFFFFFFFFFFFFFFFFFFFFFFFFFFFFFFFFFFFFFFFFFFFFFFFFFFFF
310
FFFFFFFFFFFFFFFFFFFFFFFFFFFFFFFFFFFFFFFFFFFFFFFFFFFFFFFFFFFFFFFF
310
FFFFFFFFFFFFFFFFFFFFFFFFFFFFFFFFFFFFFFFFFFFFFFFFFFFFFFFFFFFFFFFF
310
FFFFFFFFFFFFFFFFFFFFFFFFFFFFFFFFFFFFFFFFFFFFFFFFFFFFFFFFFFFFFFFF
310
FFFFFFFFFFFFFFFFFFFFFFFFFFFFFFFFFFFFFFFFFFFFFFFFFFFFFFFFFFFFFFFF
310
FFFFFFFFFFFFFFFFFFFFFFFFFFFFFFFFFFFFFFFFFFFFFFFFFFFFFFFFFFFFFFFF
310
FFFFFFFFFFFFFFFFFFFFFFFFFFFFFFFFFFFFFFFFFFFFFFFFFFFFFFFFFFFFFFFF
310
FFFFFFFFFFFFFFFFFFFFFFFFFFFFFFFFFFFFFFFFFFFFFFFFFFFFFFFFFFFFFFFF
310
FFFFFFFFFFFFFFFFFFFFFFFFFFFFFFFFFFFFFFFFFFFFFFFFFFFFFFFFFFFFFFFF
310
FFFFFFFFFFFFFFFFFFFFFFFFFFFFFFFFFFFFFFFFFFFFFFFFFFFFFFFFFFFFFFFF
310
FFFFFFFFFFFFFFFFFFFFFFFFFFFFFFFFFFFFFFFFFFFFFFFFFFFFFFFFFFFFFFFF
310
FFFFFFFFFFFFFFFFFFFFFFFFFFFFFFFFFFFFFFFFFFFFFFFFFFFFFFFFFFFFFFFF
310
0100000200000000000000000000000000000000000000000000000000000000
310
0000000000000000000000000000000000000000000000000000000000000000
310
0100FEFF030A0000FFFFFFFF0A00030000000000C00000000000004607000000
310
5042727573680007000000504272757368000700000050427275736800F439B2
310
7100000000000000000000000000000000000000000000000000000000000000
310
0000000000000000000000000000000000000000000000000000000000000000
310
0000000000000000000000000000000000000000000000000000000000000000
310
0000000000000000000000000000000000000000000000000000000000000000
310
0000000000000000000000000000000000000000000000000000000000000000
310
0000000000000000000000000000000000000000000000000000000000000000
310
0000000000000000000000000000000000000000000000000000000000000000
310
0000000000000000000000000000000000000000000000000000000000000000
310
0000000000000000000000000000000000000000000000000000000000000000
310
0000000000000000000000000000000000000000000000000000000000000000
310
0000000000000000000000000000000000000000000000000000000000000000
310
0000000000000000000000000000000000000000000000000000000000000000
310
E0110000424DDE11000000000000360400002800000096000000170000000100
310
08000000000000000000E7240000E72400000001000000010000000000FF0101
310
01FF020202FF030303FF040404FF050505FF060606FF070707FF080808FF0909
310
09FF0A0A0AFF0B0B0BFF0C0C0CFF0D0D0DFF0E0E0EFF0F0F0FFF101010FF1111
310
11FF121212FF131313FF141414FF151515FF161616FF171717FF181818FF1919
310
19FF1A1A1AFF1B1B1BFF1C1C1CFF1D1D1DFF1E1E1EFF1F1F1FFF202020FF2121
310
21FF222222FF232323FF242424FF252525FF262626FF272727FF282828FF2929
310
29FF2A2A2AFF2B2B2BFF2C2C2CFF2D2D2DFF2E2E2EFF2F2F2FFF303030FF3131
310
31FF323232FF333333FF343434FF353535FF363636FF373737FF383838FF3939
310
39FF3A3A3AFF3B3B3BFF3C3C3CFF3D3D3DFF3E3E3EFF3F3F3FFF404040FF4141
310
41FF424242FF434343FF444444FF454545FF464646FF474747FF484848FF4949
310
49FF4A4A4AFF4B4B4BFF4C4C4CFF4D4D4DFF4E4E4EFF4F4F4FFF505050FF5151
310
51FF525252FF535353FF545454FF555555FF565656FF575757FF585858FF5959
310
59FF5A5A5AFF5B5B5BFF5C5C5CFF5D5D5DFF5E5E5EFF5F5F5FFF606060FF6161
310
61FF626262FF636363FF646464FF656565FF666666FF676767FF686868FF6969
310
69FF6A6A6AFF6B6B6BFF6C6C6CFF6D6D6DFF6E6E6EFF6F6F6FFF707070FF7171
310
71FF727272FF737373FF747474FF757575FF767676FF777777FF787878FF7979
310
79FF7A7A7AFF7B7B7BFF7C7C7CFF7D7D7DFF7E7E7EFF7F7F7FFF808080FF8181
310
81FF828282FF838383FF848484FF858585FF868686FF878787FF888888FF8989
310
89FF8A8A8AFF8B8B8BFF8C8C8CFF8D8D8DFF8E8E8EFF8F8F8FFF909090FF9191
310
91FF929292FF939393FF949494FF959595FF969696FF979797FF989898FF9999
310
99FF9A9A9AFF9B9B9BFF9C9C9CFF9D9D9DFF9E9E9EFF9F9F9FFFA0A0A0FFA1A1
310
A1FFA2A2A2FFA3A3A3FFA4A4A4FFA5A5A5FFA6A6A6FFA7A7A7FFA8A8A8FFA9A9
310
A9FFAAAAAAFFABABABFFACACACFFADADADFFAEAEAEFFAFAFAFFFB0B0B0FFB1B1
310
B1FFB2B2B2FFB3B3B3FFB4B4B4FFB5B5B5FFB6B6B6FFB7B7B7FFB8B8B8FFB9B9
310
B9FFBABABAFFBBBBBBFFBCBCBCFFBDBDBDFFBEBEBEFFBFBFBFFFC0C0C0FFC1C1
310
C1FFC2C2C2FFC3C3C3FFC4C4C4FFC5C5C5FFC6C6C6FFC7C7C7FFC8C8C8FFC9C9
310
C9FFCACACAFFCBCBCBFFCCCCCCFFCDCDCDFFCECECEFFCFCFCFFFD0D0D0FFD1D1
310
D1FFD2D2D2FFD3D3D3FFD4D4D4FFD5D5D5FFD6D6D6FFD7D7D7FFD8D8D8FFD9D9
310
D9FFDADADAFFDBDBDBFFDCDCDCFFDDDDDDFFDEDEDEFFDFDFDFFFE0E0E0FFE1E1
310
E1FFE2E2E2FFE3E3E3FFE4E4E4FFE5E5E5FFE6E6E6FFE7E7E7FFE8E8E8FFE9E9
310
E9FFEAEAEAFFEBEBEBFFECECECFFEDEDEDFFEEEEEEFFEFEFEFFFF0F0F0FFF1F1
310
F1FFF2F2F2FFF3F3F3FFF4F4F4FFF5F5F5FFF6F6F6FFF7F7F7FFF8F8F8FFF9F9
310
F9FFFAFAFAFFFBFBFBFFFCFCFCFFFDFDFDFFFEFEFEFFFFFFFFFFFFFFFFFFFFFF
310
C94E4E4E4F4E4EFFFFFFFFFFC94E4E4E4E4E72FFFFFFFFFFFFFF734E4D4E4E4E
310
C9FFFFFFFFFFAA683516171616265B9BE9FFFFFFFFFF4E4E4E4D4E4EFFFFFFFF
310
FFFFFFFF4E4E4F4E4D4E4E4E4F4E4E4F4D4E4E4E4E4E4D4E4F4E4D4E4E4EAAFF
310
FFFFFFFFFFEA4E4F4F4E4E4E4E4E4D4D4F4F4E4E4E4E4E5B7FAAFFFFFFFFFFFF
310
C9744E1716171616164D8DEAFFFFFFFF0000FFFFFFFFFFFFBA161617161716FF
310
FFFFFFFFB917171616174FFFFFFFFFFFFFFF4E1716161616B9FFFFFFB9341717
310
1716171617171616268CFFFFFFFF161617161617FFFFFFFFFFFFFFB917161717
310
1617167F807F7F7F7F7F7F807F7F807F7F807F7F7F414EFFFFFFFFFFFF8C167F
310
7F807F7F7F7E7F7F807F807F7F807F4E3417258EFFFFEA4E162674AABAEAEBBA
310
AA74341680FFFFFF0000FFFFFFFFFFFFB9171717171617FFFFFFFFFFBB161616
310
16164EFFFFFFFFFFFFFF4E1717171717B9FFFF9C171617171716161616171616
310
171766FFFFFF161717161617FFFFFFFFFFFFFF8E16171717161616FFFFFFFFFF
310
FFFFFFFFFFFFFFFFFFFFFFFFFFAA16D9FFFFFFFFFF3467FFFFFFFFEAFFFFFFFF
310
FFFFFFFFFFFFFFFFFFCA671667EB26278DFFFFFFFFFFFFFFFFFFFF8C2541EAFF
310
0000FFFFFFFFFFFFB9171717171716FFFFFFFFFFBA16171617174EFFFFFFFFFF
310
FFFF4E1717161616BAFF9B1617161616171716171617161616161667FFFF1616
310
16161716FFFFFFFFFFFFFF7F16161617174017FFFFFFFFFFFFFFFFFFFFFFFFFF
310
FFFFFFFFFFFF344E7F7F7F7E7417DAFFFFFFFF80FFFFFFFFFFFFFFFFFFFFFFFF
310
FFFFFF9B163425CAFFFFFFFFFFFFFFFFFFFFFFFFCA2667FF0000FFFFFFFFFFFF
310
BA171717171617FFFFFFFFFFB916171716164EFFFFFFFFFFFFFF4F1716161717
310
B9C91716171616161716161617171616161617168DFF161716161717FFFFFFFF
310
FFFFFF7F17171716164F16FFFFFFFFFFFFFFFFFFFFFFFFFFFFFFFFFFFFFF9B16
310
17161617174EFFFFFFFFFF34FFFFFFFFD9BABABABABADAFFFFFFFFFF7F16AAFF
310
FFFFFFFFFFFFFFFFFFFFFFFFFF9C16BA0000FFFFFFFFFFFFB9161717161717FF
310
FFFFFFFFB917161716174DFFFFFFFFFFFFFF4E1616161616BA4E161617171716
310
419BEAEAAA4E16161617161726E9171717161616FFFFFFFFFFFFFF4F16161717
310
164E16FFFFFFFFFFBAB9B9B9B9B9BABABACAFFFFFFFFFFFFFFFFFFFFFFFFFFFF
310
FFFFBA16FFFFFFFF7F1617161617174DEAFFFFFFEA41FFFFFFFFFFAA4D16174E
310
9BFFFFFFFFFF34730000FFFFFFFFFFFFB9161617171617FFFFFFFFFFBA161616
310
16164EFFFFFFFFFFFFFF4F16161717169B1617161716175BFFFFFFFFFFFF7417
310
16171616168D171717161617FFFFFFFFFFFFEA2616171717167416FFFFFFFFFF
310
16171616171717171717EAFFFFFFFFFFFFFFFFFFFFFFFFFFFFFF6716FFFFFFFF
310
7F4EFFFFFFFFBA2573FFFFFFFFBAFFFFFFFFAA167FB9BB9B269BFFFFFFFF664F
310
0000FFFFFFFFFFFFB9171616161616FFFFFFFFFFBA16161717164EFFFFFFFFFF
310
FFFF4E16161616174E161617171626EAFFFFFFFFFFFFFF4E16161616164E1716
310
16161617FFFFFFFFFFFF671616161716347F16FFFFFFFFFF16B9FFFFFFFFFFFF
310
D9168DFFFFFFFFFFFFFFFFFFFFFFFFFFFFEA1716FFFFFFFF7F4EFFFFFFFFFF7F
310
4EFFFFFFFFFFFFFFFFFF5B66FFFFFFEA347FFFFFFFFF7F4D0000FFFFFFFFFFFF
310
B9171616171617FFFFFFFFFFBA17161716174EFFFFFFFFFFFFFF4D1716161617
310
17161716161673FFFFFFFFFFFFFFFF9B1617161717161616171616174F4E4E4E
310
4E341616171616167E7F16FFFFFFFFFF16BAFFFFFFFFFFFFFF5B41FFFFFFFF34
310
1616171616BAFFFFFF9B1716FFFFFFFF7F4EFFFFFFFFFF4E4EFFFFFFFF734E4E
310
4E4E267EDA9B67164EEAFFFFFFFF744D0000FFFFFFFFFFFFBA171717161617FF
310
FFFFFFFFBA1616171616347F7F7F7F80807F331616161717161717161716B9FF
310
FFFFFFFFFFFFFFE9161616161616171716161716171616161616171616171734
310
EA7F16FFFFFFFFFF16BAFFFFFFFFFFFFFFAA17C9FFFFFF7326BABA5B25FFFFFF
310
FF401716FFFFFFFF7F264F4E4E4E4217AAFFFFFFEA16677F73261616164173CA
310
FFFFFFFFFFFF417F0000FFFFFFFFFFFFBA171616171617FFFFFFFFFFBA161616
310
17171616161616161616161717161616161616161617EAFFFFFFFFFFFFFFFFFF
310
261717161716161617161616161617161617161616174EEAFF8016FFFFFFFFFF
310
17BAFFFFFFFFFFFFFFFF3467FFFFFFC916C9FF3467FFFFFFDA166716FFFFFFFF
310
9C4D4E4E4E4E67AAFFFFFFFF6834FF7F262567AAEAFFFFFFFFFFFFFFFF9B17D9
310
0000FFFFFFFFFFFFB9161616161616FFFFFFFFFFBA1617161717171616161616
310
1716171716161716161617171716FFFFFFFFFFFFFFFFFFFF4E17161716171616
310
1617171616161716171717161616169BFF7F17FFFFFFFFFF17B9FFFFFFFFFFFF
310
FFFF7326FFFFFFFF3473DA16AAFFFFFF7317AA16FFFFFFFFFFFFFFFFFFFFFFFF
310
FFFFEA6725BA4E167FEAFFFFFFFFFFFFFFFFFFFF9C167FFF0000FFFFFFFFFFFF
310
B9161717171716FFFFFFFFFFBA16161716171616171717161617161716161616
310
171617171617EAFFFFFFFFFFFFFFFFFF26161717161616161616161617171616
310
1616161616171616AA8016FFFFFFFFFF16BAFFFFFFFFFFFFFFFFDA179BFFFFFF
310
74348D26FFFFFFFF2566B917FFFFFFFFD8BAB9BAB9BADAFFFFEA41169B7425C9
310
FFFFFFFFFFFFFFFFFFFFAB4F1680FFFF0000FFFFFFFFFFFFBA161717171617FF
310
FFFFFFFFBA17161717161617171617161616161617171616171716171617BBFF
310
FFFFFFFFFFFFFFE9171616161617161617161716FFFFFFFFFFD9671616161617
310
348017FFFFFFFFFF16BAFFFFFFFFFFFFFFFFFF4E5AFFFFFFC916265AFFFFFFAA
310
16AABA16FFFFFFFF7F1617161616179BFFFFEB4127168DFFFFFFFFFFFFFFD99B
310
6734175AC9FFFFFF0000FFFFFFFFFFFFB9161617171617FFFFFFFFFFBB161616
310
1616347F807F7F7F7F8033171716171617171616161672FFFFFFFFFFFFFFFF9C
310
171617171617161716161617FFFFFFFFFFFFFF4117161616174E17FFFFFFFFFF
310
16BAFFFFFFFFFFFFFFFFFF9B16DAFFFFFF34169BFFFFFF5A26FFB917FFFFFFFF
310
7F4EFFFFFFEA5B26FFFFFFEA2616EAFFFFFFFFDA743416331617414E4E4E4ECA
310
0000FFFFFFFFFFFFBA161716161616FFFFFFFFFFBA17171616164EFFFFFFFFFF
310
FFFF4E16161717174E161717171626EBFFFFFFFFFFFFFF4E16161617165B1616
310
16171617FFFFFFFFFFFFFF6716161616161617FFFFFFFFFF16BAFFFFFFFFFFFF
310
FFFFFFEA268CFFFFFF7316EAFFFFEB1774FFB916FFFFFFFF7F4EFFFFFFFF7316
310
FFFFFFFF6826FFFFFFFFEB264D9CEABA257F807F7F6616BA0000FFFFFFFFFFFF
310
BA161716161616FFFFFFFFFFBA16171616164DFFFFFFFFFFFFFF4E1617161617
310
9B1617171717165BEBFFFFFFFFFF671616161617179B171616161616FFFFFFFF
310
FFFFFF3417161617171617FFFFFFFFFF17BAFFFFFFFFFFFFFFFFFFFF6734FFFF
310
FFEBCAFFFFFF8D17C9FFBA17FFFFFFFF7F357F808066174FFFFFFFFF7F16FFFF
310
FFFFD91673B99B415BFFFFFFFFBA16DA00009B7F7F7F807F671617161616167F
310
80807F7E6617161616164EFFFFFFFFFFFFFF4E1616161617B94E171716161616
310
349BC9D9AA4E16171616161634FF161617161717B9B9BAB9BA9B411716171716
310
163416FFFFFFFFFF16B9FFFFFFFFFFFFFFFFFFFFC917CAFFFFFFFFFFFFFF3342
310
FFFFBA17FFFFFFFF9B4E4E4F4E4E66EAFFFFFFFF5B16C9FFFFFFFFAA4E164E73
310
EAFFFFFFFF8D26FF00004E161716161616171617171616171717171617161616
310
17174EFFFFFFFFFFFFFF4E1717171616B9D92616171716171716171717171716
310
16171716AAFF161717171617161617171616161617161716166717FFFFFFFFFF
310
17B9FFFFFFFFFFFFFFFFFFFFFF3467FFFFFFFFFFFFCA168CFFFFBB17FFFFFFFF
310
FFFFFFFFFFFFFFFFFFFFFFEA26265BFFFFFFFFFFFFFFFFFFFFFFFFFFEA3467FF
310
00004D16161616161617161717161617161616171617171616164EFFFFFFFFFF
310
FFFF4D1617161616BAFF9B1616161616161716161616171717161766FFFF1616
310
16171617161617161716171616171717667F16FFFFFFFFFF17BAFFFFFFFFFFFF
310
FFFFFFFFFF8C26EAFFFFFFFFFF6617EAFFFFBA17FFFFFFFFFFFFFFFFFFFFFFFF
310
FFFFEA5A25BA269BFFFFFFFFFFFFFFFFFFFFFFFF6616DAFF00004E1616171616
310
1616161616161716161617171616171616174EFFFFFFFFFFFFFF4D1717171716
310
B9FFFF9C161616161616161716161717171667FFFFFF17161717171716161617
310
1716161616161641E97E16FFFFFFFFFF16B9FFFFFFFFFFFFFFFFFFFFFFEA169B
310
FFFFFFFFEA265BFFFFFFB916FFFFFFFFFFFFFFFFFFFFFFFFFF9B3416AAFF9B17
310
67EAFFFFFFFFFFFFFFFFEA5B169BFFFF00004D17161716161616161717171616
310
161717161716171716174EFFFFFFFFFFFFFF4D1616161616BAFFFFFFBB411616
310
161716161616171634ABFFFFFFFF161716161617171716171617171617267FFF
310
FF7F164E4E4E4E4F17BAFFFFFFFFFFFFFFFFFFFFFFFF66344D4E4E4F4117AAFF
310
FFFFBA174E4E4E4D4E4D4D4E4E4E4E4116174EBBFFFFFFCA342666ABEAFFFFEA
310
AA6725269CFFFFFF0000724F4E4D4D4D4E4D4D4E4E4E4D4E4E4E4E4E4E4E4E4D
310
4E4E74FFFFFFFFFFFFFF734E4E4E4D4ECAFFFFFFFFFFAA663416171717265B9B
310
FFFFFFFFFFFF7F8080807F80807F7F7F7F7F807FBAFFFFFFFF9B4E4E4F4D4D4E
310
4DC9FFFFFFFFFFFFFFFFFFFFFFFFBA4E4E4E4E4D4E4EFFFFFFFFC94E4E4E4F4E
310
4E4E4D4E4E5A807F9CD9FFFFFFFFFFFFFF9B5B2617171716174E8DEAFFFFFFFF
310
0000000000000000000000000000000000000000000000000000000000000000
  1
OLE
  0
ENDSEC
  0
SECTION
  2
OBJECTS
  0
DICTIONARY
  5
C
330
0
100
AcDbDictionary
281
     1
  3
ACAD_GROUP
350
D
  3
ACAD_LAYOUT
350
1A
  3
ACAD_MLINESTYLE
350
17
  3
ACAD_PLOTSETTINGS
350
19
  3
ACAD_PLOTSTYLENAME
350
E
  0
DICTIONARY
  5
D
102
{ACAD_REACTORS
330
C
102
}
330
C
100
AcDbDictionary
281
     1
  0
DICTIONARY
  5
1A
102
{ACAD_REACTORS
330
C
102
}
330
C
100
AcDbDictionary
281
     1
  3
Layout1
350
1E
  3
Layout2
350
26
  3
Model
350
22
  0
DICTIONARY
  5
17
102
{ACAD_REACTORS
330
C
102
}
330
C
100
AcDbDictionary
281
     1
  3
Standard
350
18
  0
DICTIONARY
  5
19
102
{ACAD_REACTORS
330
C
102
}
330
C
100
AcDbDictionary
281
     1
  0
ACDBDICTIONARYWDFLT
  5
E
102
{ACAD_REACTORS
330
C
102
}
330
C
100
AcDbDictionary
281
     1
  3
Normal
350
F
100
AcDbDictionaryWithDefault
340
F
  0
LAYOUT
  5
1E
102
{ACAD_REACTORS
330
1A
102
}
330
1A
100
AcDbPlotSettings
  1

  2
none_device
  4

  6

 40
0.0
 41
0.0
 42
0.0
 43
0.0
 44
0.0
 45
0.0
 46
0.0
 47
0.0
 48
0.0
 49
0.0
140
0.0
141
0.0
142
1.0
143
1.0
 70
   688
 72
     0
 73
     0
 74
     5
  7

 75
    16
147
1.0
148
0.0
149
0.0
100
AcDbLayout
  1
Layout1
 70
     1
 71
     1
 10
0.0
 20
0.0
 11
420.0
 21
297.0
 12
0.0
 22
0.0
 32
0.0
 14
1.0000000000E+20
 24
1.0000000000E+20
 34
1.0000000000E+20
 15
-1.0000000000E+20
 25
-1.0000000000E+20
 35
-1.0000000000E+20
146
0.0
 13
0.0
 23
0.0
 33
0.0
 16
1.0
 26
0.0
 36
0.0
 17
0.0
 27
1.0
 37
0.0
 76
     0
330
1B
  0
LAYOUT
  5
26
102
{ACAD_REACTORS
330
1A
102
}
330
1A
100
AcDbPlotSettings
  1

  2
none_device
  4

  6

 40
0.0
 41
0.0
 42
0.0
 43
0.0
 44
0.0
 45
0.0
 46
0.0
 47
0.0
 48
0.0
 49
0.0
140
0.0
141
0.0
142
1.0
143
1.0
 70
   688
 72
     0
 73
     0
 74
     5
  7

 75
    16
147
1.0
148
0.0
149
0.0
100
AcDbLayout
  1
Layout2
 70
     1
 71
     2
 10
0.0
 20
0.0
 11
0.0
 21
0.0
 12
0.0
 22
0.0
 32
0.0
 14
0.0
 24
0.0
 34
0.0
 15
0.0
 25
0.0
 35
0.0
146
0.0
 13
0.0
 23
0.0
 33
0.0
 16
1.0
 26
0.0
 36
0.0
 17
0.0
 27
1.0
 37
0.0
 76
     0
330
23
  0
LAYOUT
  5
22
102
{ACAD_REACTORS
330
1A
102
}
330
1A
100
AcDbPlotSettings
  1

  2
none_device
  4

  6

 40
0.0
 41
0.0
 42
0.0
 43
0.0
 44
0.0
 45
0.0
 46
0.0
 47
0.0
 48
0.0
 49
0.0
140
0.0
141
0.0
142
1.0
143
1.0
 70
  1712
 72
     0
 73
     0
 74
     0
  7

 75
     0
147
1.0
148
0.0
149
0.0
100
AcDbLayout
  1
Model
 70
     1
 71
     0
 10
0.0
 20
0.0
 11
279.4
 21
215.9
 12
0.0
 22
0.0
 32
0.0
 14
0.0
 24
0.0
 34
0.0
 15
279.4
 25
215.9
 35
0.0
146
0.0
 13
0.0
 23
0.0
 33
0.0
 16
1.0
 26
0.0
 36
0.0
 17
0.0
 27
1.0
 37
0.0
 76
     0
330
1F
331
29
  0
MLINESTYLE
  5
18
102
{ACAD_REACTORS
330
17
102
}
330
17
100
AcDbMlineStyle
  2
Standard
 70
     0
  3

 62
   256
 51
90.0
 52
90.0
 71
     2
 49
0.5
 62
   256
  6
BYLAYER
 49
-0.5
 62
   256
  6
BYLAYER
  0
ACDBPLACEHOLDER
  5
F
102
{ACAD_REACTORS
330
E
102
}
330
E
  0
ENDSEC
  0
EOF
