  0
SECTION
  2
HEADER
  9
$ACADVER
  1
AC1015
  9
$ACADMAINTVER
 70
     6
  9
$DWGCODEPAGE
  3
ANSI_1252
  9
$INSBASE
 10
0.0
 20
0.0
 30
0.0
  9
$EXTMIN
 10
0.0
 20
0.0
 30
0.0
  9
$EXTMAX
 10
11.0
 20
8.5
 30
0.0
  9
$LIMMIN
 10
0.0
 20
0.0
  9
$LIMMAX
 10
0.0
 20
0.0
  9
$ORTHOMODE
 70
     0
  9
$REGENMODE
 70
     1
  9
$FILLMODE
 70
     1
  9
$QTEXTMODE
 70
     0
  9
$MIRRTEXT
 70
     1
  9
$LTSCALE
 40
1.0
  9
$ATTMODE
 70
     1
  9
$TEXTSIZE
 40
0.1388888889
  9
$TRACEWID
 40
0.05
  9
$TEXTSTYLE
  7
Standard
  9
$CLAYER
  8
0
  9
$CELTYPE
  6
ByLayer
  9
$CECOLOR
 62
   256
  9
$CELTSCALE
 40
1.0
  9
$DISPSILH
 70
     0
  9
$DIMSCALE
 40
1.0
  9
$DIMASZ
 40
0.156
  9
$DIMEXO
 40
0.05
  9
$DIMDLI
 40
0.38
  9
$DIMRND
 40
0.0
  9
$DIMDLE
 40
0.0
  9
$DIMEXE
 40
0.125
  9
$DIMTP
 40
0.0
  9
$DIMTM
 40
0.0
  9
$DIMTXT
 40
0.1388888889
  9
$DIMCEN
 40
0.09
  9
$DIMTSZ
 40
0.0
  9
$DIMTOL
 70
     0
  9
$DIMLIM
 70
     0
  9
$DIMTIH
 70
     1
  9
$DIMTOH
 70
     1
  9
$DIMSE1
 70
     0
  9
$DIMSE2
 70
     0
  9
$DIMTAD
 70
     0
  9
$DIMZIN
 70
     0
  9
$DIMBLK
  1

  9
$DIMASO
 70
     1
  9
$DIMSHO
 70
     1
  9
$DIMPOST
  1

  9
$DIMAPOST
  1

  9
$DIMALT
 70
     0
  9
$DIMALTD
 70
     2
  9
$DIMALTF
 40
25.4
  9
$DIMLFAC
 40
0.5
  9
$DIMTOFL
 70
     0
  9
$DIMTVP
 40
0.0
  9
$DIMTIX
 70
     0
  9
$DIMSOXD
 70
     0
  9
$DIMSAH
 70
     0
  9
$DIMBLK1
  1

  9
$DIMBLK2
  1

  9
$DIMSTYLE
  2
Standard
  9
$DIMCLRD
 70
     0
  9
$DIMCLRE
 70
     0
  9
$DIMCLRT
 70
     0
  9
$DIMTFAC
 40
1.0
  9
$DIMGAP
 40
0.06
  9
$DIMJUST
 70
     0
  9
$DIMSD1
 70
     0
  9
$DIMSD2
 70
     0
  9
$DIMTOLJ
 70
     1
  9
$DIMTZIN
 70
     0
  9
$DIMALTZ
 70
     0
  9
$DIMALTTZ
 70
     0
  9
$DIMUPT
 70
     0
  9
$DIMDEC
 70
     4
  9
$DIMTDEC
 70
     4
  9
$DIMALTU
 70
     2
  9
$DIMALTTD
 70
     2
  9
$DIMTXSTY
  7
Standard
  9
$DIMAUNIT
 70
     0
  9
$DIMADEC
 70
     0
  9
$DIMALTRND
 40
0.0
  9
$DIMAZIN
 70
     0
  9
$DIMDSEP
 70
    46
  9
$DIMATFIT
 70
     3
  9
$DIMFRAC
 70
     0
  9
$DIMLDRBLK
  1

  9
$DIMLUNIT
 70
     2
  9
$DIMLWD
 70
    -2
  9
$DIMLWE
 70
    -2
  9
$DIMTMOVE
 70
     0
  9
$LUNITS
 70
     2
  9
$LUPREC
 70
     2
  9
$SKETCHINC
 40
0.1
  9
$FILLETRAD
 40
0.5
  9
$AUNITS
 70
     0
  9
$AUPREC
 70
     0
  9
$MENU
  1
.
  9
$ELEVATION
 40
0.0
  9
$PELEVATION
 40
0.0
  9
$THICKNESS
 40
0.0
  9
$LIMCHECK
 70
     0
  9
$CHAMFERA
 40
0.5
  9
$CHAMFERB
 40
0.5
  9
$CHAMFERC
 40
1.0
  9
$CHAMFERD
 40
0.0
  9
$SKPOLY
 70
     0
  9
$TDCREATE
 40
2454805.322555671
  9
$TDUCREATE
 40
2454805.530889004
  9
$TDUPDATE
 40
2454805.322555683
  9
$TDUUPDATE
 40
2454805.530889016
  9
$TDINDWG
 40
0.0000000116
  9
$TDUSRTIMER
 40
0.0000000116
  9
$USRTIMER
 70
     1
  9
$ANGBASE
 50
0.0
  9
$ANGDIR
 70
     0
  9
$PDMODE
 70
     0
  9
$PDSIZE
 40
-1.0
  9
$PLINEWID
 40
0.0
  9
$SPLFRAME
 70
     0
  9
$SPLINETYPE
 70
     6
  9
$SPLINESEGS
 70
     8
  9
$HANDSEED
  5
45D
  9
$SURFTAB1
 70
     6
  9
$SURFTAB2
 70
     6
  9
$SURFTYPE
 70
     6
  9
$SURFU
 70
     6
  9
$SURFV
 70
     6
  9
$UCSBASE
  2

  9
$UCSNAME
  2

  9
$UCSORG
 10
0.0
 20
0.0
 30
0.0
  9
$UCSXDIR
 10
1.0
 20
0.0
 30
0.0
  9
$UCSYDIR
 10
0.0
 20
1.0
 30
0.0
  9
$UCSORTHOREF
  2

  9
$UCSORTHOVIEW
 70
     0
  9
$UCSORGTOP
 10
0.0
 20
0.0
 30
0.0
  9
$UCSORGBOTTOM
 10
0.0
 20
0.0
 30
0.0
  9
$UCSORGLEFT
 10
0.0
 20
0.0
 30
0.0
  9
$UCSORGRIGHT
 10
0.0
 20
0.0
 30
0.0
  9
$UCSORGFRONT
 10
0.0
 20
0.0
 30
0.0
  9
$UCSORGBACK
 10
0.0
 20
0.0
 30
0.0
  9
$PUCSBASE
  2

  9
$PUCSNAME
  2

  9
$PUCSORG
 10
0.0
 20
0.0
 30
0.0
  9
$PUCSXDIR
 10
1.0
 20
0.0
 30
0.0
  9
$PUCSYDIR
 10
0.0
 20
1.0
 30
0.0
  9
$PUCSORTHOREF
  2

  9
$PUCSORTHOVIEW
 70
     0
  9
$PUCSORGTOP
 10
0.0
 20
0.0
 30
0.0
  9
$PUCSORGBOTTOM
 10
0.0
 20
0.0
 30
0.0
  9
$PUCSORGLEFT
 10
0.0
 20
0.0
 30
0.0
  9
$PUCSORGRIGHT
 10
0.0
 20
0.0
 30
0.0
  9
$PUCSORGFRONT
 10
0.0
 20
0.0
 30
0.0
  9
$PUCSORGBACK
 10
0.0
 20
0.0
 30
0.0
  9
$USERI1
 70
     0
  9
$USERI2
 70
     0
  9
$USERI3
 70
     0
  9
$USERI4
 70
     0
  9
$USERI5
 70
     0
  9
$USERR1
 40
0.0
  9
$USERR2
 40
0.0
  9
$USERR3
 40
0.0
  9
$USERR4
 40
0.0
  9
$USERR5
 40
0.0
  9
$WORLDVIEW
 70
     1
  9
$SHADEDGE
 70
     3
  9
$SHADEDIF
 70
    70
  9
$TILEMODE
 70
     1
  9
$MAXACTVP
 70
    64
  9
$PINSBASE
 10
0.0
 20
0.0
 30
0.0
  9
$PLIMCHECK
 70
     0
  9
$PEXTMIN
 10
1.0000000000E+20
 20
1.0000000000E+20
 30
1.0000000000E+20
  9
$PEXTMAX
 10
-1.0000000000E+20
 20
-1.0000000000E+20
 30
-1.0000000000E+20
  9
$PLIMMIN
 10
0.0
 20
0.0
  9
$PLIMMAX
 10
12.0
 20
9.0
  9
$UNITMODE
 70
     0
  9
$VISRETAIN
 70
     1
  9
$PLINEGEN
 70
     0
  9
$PSLTSCALE
 70
     1
  9
$TREEDEPTH
 70
  3020
  9
$CMLSTYLE
  2
Standard
  9
$CMLJUST
 70
     0
  9
$CMLSCALE
 40
1.0
  9
$PROXYGRAPHICS
 70
     1
  9
$MEASUREMENT
 70
     0
  9
$CELWEIGHT
370
    -1
  9
$ENDCAPS
280
     0
  9
$JOINSTYLE
280
     0
  9
$LWDISPLAY
290
     1
  9
$INSUNITS
 70
     1
  9
$HYPERLINKBASE
  1

  9
$STYLESHEET
  1

  9
$XEDIT
290
     1
  9
$CEPSNTYPE
380
     0
  9
$PSTYLEMODE
290
     1
  9
$FINGERPRINTGUID
  2
{626ED439-413B-48C7-9477-F43A835F2CCF}
  9
$VERSIONGUID
  2
{FAEB1C32-E019-11D5-929B-00C0DF256EC4}
  9
$EXTNAMES
290
     1
  9
$PSVPSCALE
 40
0.0
  9
$OLESTARTUP
290
     0
  0
ENDSEC
  0
SECTION
  2
CLASSES
  0
CLASS
  1
ACDBDICTIONARYWDFLT
  2
AcDbDictionaryWithDefault
  3
ObjectDBX Classes
 90
        0
280
     0
281
     0
  0
CLASS
  1
ACDBPLACEHOLDER
  2
AcDbPlaceHolder
  3
ObjectDBX Classes
 90
        0
280
     0
281
     0
  0
CLASS
  1
LAYOUT
  2
AcDbLayout
  3
ObjectDBX Classes
 90
        0
280
     0
281
     0
  0
ENDSEC
  0
SECTION
  2
TABLES
  0
TABLE
  2
VPORT
  5
8
330
0
100
AcDbSymbolTable
 70
     1
  0
VPORT
  5
29
330
8
100
AcDbSymbolTableRecord
100
AcDbViewportTableRecord
  2
*Active
 70
     0
 10
0.0
 20
0.0
 11
1.0
 21
1.0
 12
5.5
 22
4.25
 13
0.0
 23
0.0
 14
0.5
 24
0.5
 15
0.5
 25
0.5
 16
0.0
 26
0.0
 36
1.0
 17
0.0
 27
0.0
 37
0.0
 40
8.5
 41
1.2941176471
 42
50.0
 43
0.0
 44
0.0
 50
0.0
 51
0.0
 71
     0
 72
  2000
 73
     1
 74
     3
 75
     0
 76
     0
 77
     0
 78
     0
281
     0
 65
     1
110
0.0
120
0.0
130
0.0
111
1.0
121
0.0
131
0.0
112
0.0
122
1.0
132
0.0
 79
     0
146
0.0
  0
ENDTAB
  0
TABLE
  2
LTYPE
  5
5
330
0
100
AcDbSymbolTable
 70
     6
  0
LTYPE
  5
14
330
5
100
AcDbSymbolTableRecord
100
AcDbLinetypeTableRecord
  2
ByBlock
 70
     0
  3

 72
    65
 73
     0
 40
0.0
  0
LTYPE
  5
15
330
5
100
AcDbSymbolTableRecord
100
AcDbLinetypeTableRecord
  2
ByLayer
 70
     0
  3

 72
    65
 73
     0
 40
0.0
  0
LTYPE
  5
16
330
5
100
AcDbSymbolTableRecord
100
AcDbLinetypeTableRecord
  2
Continuous
 70
     0
  3
Solid line
 72
    65
 73
     0
 40
0.0
  0
LTYPE
  5
2A
330
5
100
AcDbSymbolTableRecord
100
AcDbLinetypeTableRecord
  2
HIDDEN
 70
     0
  3
Hidden __ __ __ __ __ __ __ __ __ __ __ __ __ __
 72
    65
 73
     2
 40
0.075
 49
0.05
 74
     0
 49
-0.025
 74
     0
  0
LTYPE
  5
2B
330
5
100
AcDbSymbolTableRecord
100
AcDbLinetypeTableRecord
  2
PHANTOM
 70
     0
  3
Phantom ______  __  __  ______  __  __  ______
 72
    65
 73
     6
 40
0.5
 49
0.25
 74
     0
 49
-0.05
 74
     0
 49
0.05
 74
     0
 49
-0.05
 74
     0
 49
0.05
 74
     0
 49
-0.05
 74
     0
  0
LTYPE
  5
2C
330
5
100
AcDbSymbolTableRecord
100
AcDbLinetypeTableRecord
  2
CENTER
 70
     0
  3
Center ____ _ ____ _ ____ _ ____ _ ____ _ ____
 72
    65
 73
     4
 40
0.4
 49
0.25
 74
     0
 49
-0.05
 74
     0
 49
0.05
 74
     0
 49
-0.05
 74
     0
  0
LTYPE
  5
2D
330
5
100
AcDbSymbolTableRecord
100
AcDbLinetypeTableRecord
  2
CENTERX2
 70
     0
  3
Center (2x) ________  __  ________  __  _____
 72
    65
 73
     4
 40
0.8
 49
0.5
 74
     0
 49
-0.1
 74
     0
 49
0.1
 74
     0
 49
-0.1
 74
     0
  0
LTYPE
  5
2E
330
5
100
AcDbSymbolTableRecord
100
AcDbLinetypeTableRecord
  2
DOT2
 70
     0
  3
Dot (.5x) ........................................
 72
    65
 73
     2
 40
0.025
 49
0.0
 74
     0
 49
-0.025
 74
     0
  0
ENDTAB
  0
TABLE
  2
LAYER
  5
2
330
0
100
AcDbSymbolTable
 70
     2
  0
LAYER
  5
10
330
2
100
AcDbSymbolTableRecord
100
AcDbLayerTableRecord
  2
0
 70
     0
 62
     7
  6
Continuous
370
    -3
390
F
  0
LAYER
  5
2F
330
2
100
AcDbSymbolTableRecord
100
AcDbLayerTableRecord
  2
FORMAT
 70
     0
 62
     7
  6
Continuous
370
    -3
390
F
  0
ENDTAB
  0
TABLE
  2
STYLE
  5
3
330
0
100
AcDbSymbolTable
 70
    21
  0
STYLE
  5
11
330
3
100
AcDbSymbolTableRecord
100
AcDbTextStyleTableRecord
  2
Standard
 70
     0
 40
0.0
 41
1.0
 50
0.0
 71
     0
 42
0.2
  3
txt
  4

  0
STYLE
  5
4D
330
3
100
AcDbSymbolTableRecord
100
AcDbTextStyleTableRecord
  2
SLDTEXTSTYLE0
 70
     0
 40
0.0
 41
0.75
 50
0.0
 71
     0
 42
0.2
  3
TXT
  4

  0
STYLE
  5
56
330
3
100
AcDbSymbolTableRecord
100
AcDbTextStyleTableRecord
  2
SLDTEXTSTYLE1
 70
     0
 40
0.0
 41
0.6428571429
 50
0.0
 71
     0
 42
0.2
  3
TXT
  4

  0
STYLE
  5
58
330
3
100
AcDbSymbolTableRecord
100
AcDbTextStyleTableRecord
  2
SLDTEXTSTYLE2
 70
     0
 40
0.0
 41
0.7211538462
 50
0.0
 71
     0
 42
0.2
  3
TXT
  4

  0
STYLE
  5
63
330
3
100
AcDbSymbolTableRecord
100
AcDbTextStyleTableRecord
  2
SLDTEXTSTYLE3
 70
     0
 40
0.0
 41
0.6375
 50
0.0
 71
     0
 42
0.2
  3
TXT
  4

  0
STYLE
  5
69
330
3
100
AcDbSymbolTableRecord
100
AcDbTextStyleTableRecord
  2
SLDTEXTSTYLE4
 70
     0
 40
0.0
 41
0.7016129032
 50
0.0
 71
     0
 42
0.2
  3
TXT
  4

  0
STYLE
  5
6B
330
3
100
AcDbSymbolTableRecord
100
AcDbTextStyleTableRecord
  2
SLDTEXTSTYLE5
 70
     0
 40
0.0
 41
0.6853448276
 50
0.0
 71
     0
 42
0.2
  3
TXT
  4

  0
STYLE
  5
6D
330
3
100
AcDbSymbolTableRecord
100
AcDbTextStyleTableRecord
  2
SLDTEXTSTYLE6
 70
     0
 40
0.0
 41
0.689516129
 50
0.0
 71
     0
 42
0.2
  3
TXT
  4

  0
STYLE
  5
6F
330
3
100
AcDbSymbolTableRecord
100
AcDbTextStyleTableRecord
  2
SLDTEXTSTYLE7
 70
     0
 40
0.0
 41
0.6666666667
 50
0.0
 71
     0
 42
0.2
  3
TXT
  4

  0
STYLE
  5
71
330
3
100
AcDbSymbolTableRecord
100
AcDbTextStyleTableRecord
  2
SLDTEXTSTYLE8
 70
     0
 40
0.0
 41
0.7010869565
 50
0.0
 71
     0
 42
0.2
  3
TXT
  4

  0
STYLE
  5
73
330
3
100
AcDbSymbolTableRecord
100
AcDbTextStyleTableRecord
  2
SLDTEXTSTYLE9
 70
     0
 40
0.0
 41
0.7083333333
 50
0.0
 71
     0
 42
0.2
  3
TXT
  4

  0
STYLE
  5
82
330
3
100
AcDbSymbolTableRecord
100
AcDbTextStyleTableRecord
  2
SLDTEXTSTYLE10
 70
     0
 40
0.0
 41
0.65625
 50
0.0
 71
     0
 42
0.2
  3
TXT
  4

  0
STYLE
  5
89
330
3
100
AcDbSymbolTableRecord
100
AcDbTextStyleTableRecord
  2
SLDTEXTSTYLE11
 70
     0
 40
0.0
 41
0.7105263158
 50
0.0
 71
     0
 42
0.2
  3
TXT
  4

  0
STYLE
  5
92
330
3
100
AcDbSymbolTableRecord
100
AcDbTextStyleTableRecord
  2
SLDTEXTSTYLE12
 70
     0
 40
0.0
 41
0.69375
 50
0.0
 71
     0
 42
0.2
  3
TXT
  4

  0
STYLE
  5
94
330
3
100
AcDbSymbolTableRecord
100
AcDbTextStyleTableRecord
  2
SLDTEXTSTYLE13
 70
     0
 40
0.0
 41
0.6988636364
 50
0.0
 71
     0
 42
0.2
  3
TXT
  4

  0
STYLE
  5
96
330
3
100
AcDbSymbolTableRecord
100
AcDbTextStyleTableRecord
  2
SLDTEXTSTYLE14
 70
     0
 40
0.0
 41
0.7115384615
 50
0.0
 71
     0
 42
0.2
  3
TXT
  4

  0
STYLE
  5
99
330
3
100
AcDbSymbolTableRecord
100
AcDbTextStyleTableRecord
  2
SLDTEXTSTYLE15
 70
     0
 40
0.0
 41
0.6796875
 50
0.0
 71
     0
 42
0.2
  3
TXT
  4

  0
STYLE
  5
A3
330
3
100
AcDbSymbolTableRecord
100
AcDbTextStyleTableRecord
  2
SLDTEXTSTYLE16
 70
     0
 40
0.0
 41
0.6995192308
 50
0.0
 71
     0
 42
0.2
  3
TXT
  4

  0
STYLE
  5
420
330
3
100
AcDbSymbolTableRecord
100
AcDbTextStyleTableRecord
  2
SLDTEXTSTYLE17
 70
     0
 40
0.0
 41
0.675
 50
0.0
 71
     0
 42
0.2
  3
TXT
  4

  0
STYLE
  5
422
330
3
100
AcDbSymbolTableRecord
100
AcDbTextStyleTableRecord
  2
SLDTEXTSTYLE18
 70
     0
 40
0.0
 41
0.625
 50
0.0
 71
     0
 42
0.2
  3
TXT
  4

  0
STYLE
  5
428
330
3
100
AcDbSymbolTableRecord
100
AcDbTextStyleTableRecord
  2
SLDTEXTSTYLE19
 70
     0
 40
0.0
 41
0.6875
 50
0.0
 71
     0
 42
0.2
  3
TXT
  4

  0
ENDTAB
  0
TABLE
  2
VIEW
  5
6
330
0
100
AcDbSymbolTable
 70
     0
  0
ENDTAB
  0
TABLE
  2
UCS
  5
7
330
0
100
AcDbSymbolTable
 70
     0
  0
ENDTAB
  0
TABLE
  2
APPID
  5
9
330
0
100
AcDbSymbolTable
 70
     1
  0
APPID
  5
12
330
9
100
AcDbSymbolTableRecord
100
AcDbRegAppTableRecord
  2
ACAD
 70
     0
  0
ENDTAB
  0
TABLE
  2
DIMSTYLE
  5
A
330
0
100
AcDbSymbolTable
 70
     7
100
AcDbDimStyleTable
  0
DIMSTYLE
105
27
330
A
100
AcDbSymbolTableRecord
100
AcDbDimStyleTableRecord
  2
Standard
 70
     0
340
11
  0
DIMSTYLE
105
D6
102
{ACAD_REACTORS
330
D5
102
}
330
A
100
AcDbSymbolTableRecord
100
AcDbDimStyleTableRecord
  2
SLDDIMSTYLE0
 70
     0
 41
0.156
 44
0.0
 78
     4
140
0.1041666667
147
0.0260416667
170
     1
172
     1
173
     1
271
     2
272
     2
284
    12
340
4D
  0
DIMSTYLE
105
39C
102
{ACAD_REACTORS
330
39B
330
3D3
102
}
330
A
100
AcDbSymbolTableRecord
100
AcDbDimStyleTableRecord
  2
SLDDIMSTYLE1
 70
     0
 41
0.156
 44
0.0
 78
     4
140
0.1041666667
147
0.0260416667
170
     1
173
     1
271
     2
272
     2
284
    12
340
4D
  0
DIMSTYLE
105
3AF
102
{ACAD_REACTORS
330
3AE
330
3C1
330
3F8
102
}
330
A
100
AcDbSymbolTableRecord
100
AcDbDimStyleTableRecord
  2
SLDDIMSTYLE2
 70
     0
 41
0.156
 44
0.0
 78
     8
140
0.1041666667
147
0.0260416667
170
     1
173
     1
271
     2
272
     2
284
    12
340
4D
  0
DIMSTYLE
105
3E6
102
{ACAD_REACTORS
330
3E5
102
}
330
A
100
AcDbSymbolTableRecord
100
AcDbDimStyleTableRecord
  2
SLDDIMSTYLE3
 70
     0
 41
0.156
 44
0.0
 78
     4
140
0.1041666667
147
0.0260416667
170
     1
173
     1
271
     3
272
     3
284
    12
340
4D
  0
DIMSTYLE
105
40B
102
{ACAD_REACTORS
330
40A
102
}
330
A
100
AcDbSymbolTableRecord
100
AcDbDimStyleTableRecord
  2
SLDDIMSTYLE4
 70
     0
 41
0.156
 44
0.0
 78
    12
140
0.1041666667
147
0.0260416667
170
     1
173
     1
271
     2
272
     2
284
    12
340
4D
  0
DIMSTYLE
105
42C
330
A
100
AcDbSymbolTableRecord
100
AcDbDimStyleTableRecord
  2
SLDDIMSTYLE5
 70
     0
 41
0.156
 44
0.0
140
0.156
147
0.039
173
     1
271
     0
272
     0
340
11
  0
ENDTAB
  0
TABLE
  2
BLOCK_RECORD
  5
1
330
0
100
AcDbSymbolTable
 70
    22
  0
BLOCK_RECORD
  5
1F
330
1
100
AcDbSymbolTableRecord
100
AcDbBlockTableRecord
  2
*Model_Space
340
22
  0
BLOCK_RECORD
  5
1B
330
1
100
AcDbSymbolTableRecord
100
AcDbBlockTableRecord
  2
*Paper_Space
340
1E
  0
BLOCK_RECORD
  5
23
330
1
100
AcDbSymbolTableRecord
100
AcDbBlockTableRecord
  2
*Paper_Space0
340
26
  0
BLOCK_RECORD
  5
66
330
1
100
AcDbSymbolTableRecord
100
AcDbBlockTableRecord
  2
SW_NOTE_0
340
0
102
{BLKREFS
331
75
102
}
1001
ACAD
1000
DesignCenter Data
1002
{
1070
     1
1070
     0
1002
}
  0
BLOCK_RECORD
  5
7F
330
1
100
AcDbSymbolTableRecord
100
AcDbBlockTableRecord
  2
SW_NOTE_1
340
0
102
{BLKREFS
331
85
102
}
1001
ACAD
1000
DesignCenter Data
1002
{
1070
     1
1070
     0
1002
}
  0
BLOCK_RECORD
  5
86
330
1
100
AcDbSymbolTableRecord
100
AcDbBlockTableRecord
  2
SW_NOTE_2
340
0
102
{BLKREFS
331
8C
102
}
1001
ACAD
1000
DesignCenter Data
1002
{
1070
     1
1070
     0
1002
}
  0
BLOCK_RECORD
  5
8E
330
1
100
AcDbSymbolTableRecord
100
AcDbBlockTableRecord
  2
SW_NOTE_3
340
0
102
{BLKREFS
331
9D
102
}
1001
ACAD
1000
DesignCenter Data
1002
{
1070
     1
1070
     0
1002
}
  0
BLOCK_RECORD
  5
9F
330
1
100
AcDbSymbolTableRecord
100
AcDbBlockTableRecord
  2
SW_NOTE_4
340
0
102
{BLKREFS
331
A5
102
}
1001
ACAD
1000
DesignCenter Data
1002
{
1070
     1
1070
     0
1002
}
  0
BLOCK_RECORD
  5
A6
330
1
100
AcDbSymbolTableRecord
100
AcDbBlockTableRecord
  2
SW_TABLEANNOTATION_0
340
0
102
{BLKREFS
331
C2
102
}
1001
ACAD
1000
DesignCenter Data
1002
{
1070
     1
1070
     0
1002
}
  0
BLOCK_RECORD
  5
D7
330
1
100
AcDbSymbolTableRecord
100
AcDbBlockTableRecord
  2
*D7
340
0
  0
BLOCK_RECORD
  5
39D
330
1
100
AcDbSymbolTableRecord
100
AcDbBlockTableRecord
  2
*D8
340
0
  0
BLOCK_RECORD
  5
3B0
330
1
100
AcDbSymbolTableRecord
100
AcDbBlockTableRecord
  2
*D9
340
0
  0
BLOCK_RECORD
  5
3C2
330
1
100
AcDbSymbolTableRecord
100
AcDbBlockTableRecord
  2
*D10
340
0
  0
BLOCK_RECORD
  5
3D4
330
1
100
AcDbSymbolTableRecord
100
AcDbBlockTableRecord
  2
*D11
340
0
  0
BLOCK_RECORD
  5
3E7
330
1
100
AcDbSymbolTableRecord
100
AcDbBlockTableRecord
  2
*D12
340
0
  0
BLOCK_RECORD
  5
3F9
330
1
100
AcDbSymbolTableRecord
100
AcDbBlockTableRecord
  2
*D13
340
0
  0
BLOCK_RECORD
  5
40C
330
1
100
AcDbSymbolTableRecord
100
AcDbBlockTableRecord
  2
*D14
340
0
  0
BLOCK_RECORD
  5
41D
330
1
100
AcDbSymbolTableRecord
100
AcDbBlockTableRecord
  2
SW_NOTE_5
340
0
102
{BLKREFS
331
424
102
}
1001
ACAD
1000
DesignCenter Data
1002
{
1070
     1
1070
     0
1002
}
  0
BLOCK_RECORD
  5
425
330
1
100
AcDbSymbolTableRecord
100
AcDbBlockTableRecord
  2
SW_NOTE_6
340
0
102
{BLKREFS
331
42B
102
}
1001
ACAD
1000
DesignCenter Data
1002
{
1070
     1
1070
     0
1002
}
  0
BLOCK_RECORD
  5
42F
330
1
100
AcDbSymbolTableRecord
100
AcDbBlockTableRecord
  2
SW_NOTE_7
340
0
102
{BLKREFS
331
434
102
}
1001
ACAD
1000
DesignCenter Data
1002
{
1070
     1
1070
     0
1002
}
  0
BLOCK_RECORD
  5
436
330
1
100
AcDbSymbolTableRecord
100
AcDbBlockTableRecord
  2
SW_NOTE_8
340
0
102
{BLKREFS
331
43B
102
}
1001
ACAD
1000
DesignCenter Data
1002
{
1070
     1
1070
     0
1002
}
  0
BLOCK_RECORD
  5
43D
330
1
100
AcDbSymbolTableRecord
100
AcDbBlockTableRecord
  2
SW_NOTE_9
340
0
102
{BLKREFS
331
442
102
}
1001
ACAD
1000
DesignCenter Data
1002
{
1070
     1
1070
     0
1002
}
  0
BLOCK_RECORD
  5
445
330
1
100
AcDbSymbolTableRecord
100
AcDbBlockTableRecord
  2
SW_NOTE_10
340
0
102
{BLKREFS
331
44A
102
}
1001
ACAD
1000
DesignCenter Data
1002
{
1070
     1
1070
     0
1002
}
  0
BLOCK_RECORD
  5
44C
330
1
100
AcDbSymbolTableRecord
100
AcDbBlockTableRecord
  2
SW_NOTE_11
340
0
102
{BLKREFS
331
451
102
}
1001
ACAD
1000
DesignCenter Data
1002
{
1070
     1
1070
     0
1002
}
  0
ENDTAB
  0
ENDSEC
  0
SECTION
  2
BLOCKS
  0
BLOCK
  5
20
330
1F
100
AcDbEntity
  8
0
100
AcDbBlockBegin
  2
*Model_Space
 70
     0
 71
     0
 10
0.0
 20
0.0
 30
0.0
  3
*Model_Space
  1

  0
ENDBLK
  5
21
330
1F
100
AcDbEntity
  8
0
100
AcDbBlockEnd
  0
BLOCK
  5
1C
330
1B
100
AcDbEntity
 67
     1
  8
0
100
AcDbBlockBegin
  2
*Paper_Space
 70
     0
 71
     0
 10
0.0
 20
0.0
 30
0.0
  3
*Paper_Space
  1

  0
ENDBLK
  5
1D
330
1B
100
AcDbEntity
 67
     1
  8
0
100
AcDbBlockEnd
  0
BLOCK
  5
24
330
23
100
AcDbEntity
  8
0
100
AcDbBlockBegin
  2
*Paper_Space0
 70
     0
 71
     0
 10
0.0
 20
0.0
 30
0.0
  3
*Paper_Space0
  1

  0
ENDBLK
  5
25
330
23
100
AcDbEntity
  8
0
100
AcDbBlockEnd
  0
BLOCK
  5
67
330
66
100
AcDbEntity
  8
0
100
AcDbBlockBegin
  2
SW_NOTE_0
 70
     0
 71
     0
 10
0.0
 20
0.0
 30
0.0
  3
SW_NOTE_0
  1

  0
MTEXT
  5
6A
330
66
100
AcDbEntity
  8
0
  6
Continuous
 62
     0
370
     0
100
AcDbMText
 10
0.0
 20
0.076640625
 30
0.0
 40
0.06
 41
0.0
 71
     1
 72
     1
  1
THE INFORMATION CONTAINED IN THIS
  7
SLDTEXTSTYLE4
 73
     1
 44
1.0
  0
MTEXT
  5
6C
330
66
100
AcDbEntity
  8
0
  6
Continuous
 62
     0
370
     0
100
AcDbMText
 10
0.0
 20
-0.0227294496
 30
0.0
 40
0.06
 41
0.0
 71
     1
 72
     1
  1
DRAWING IS THE SOLE PROPERTY OF
  7
SLDTEXTSTYLE5
 73
     1
 44
1.0
  0
MTEXT
  5
6E
330
66
100
AcDbEntity
  8
0
  6
Continuous
 62
     0
370
     0
100
AcDbMText
 10
0.0
 20
-0.1220995241
 30
0.0
 40
0.06
 41
0.0
 71
     1
 72
     1
  1
THORLABS, INC.  ANY REPRODUCTION 
  7
SLDTEXTSTYLE6
 73
     1
 44
1.0
  0
MTEXT
  5
70
330
66
100
AcDbEntity
  8
0
  6
Continuous
 62
     0
370
     0
100
AcDbMText
 10
0.0
 20
-0.2214695987
 30
0.0
 40
0.06
 41
0.0
 71
     1
 72
     1
  1
IN PART OR AS A WHOLE WITHOUT
  7
SLDTEXTSTYLE7
 73
     1
 44
1.0
  0
MTEXT
  5
72
330
66
100
AcDbEntity
  8
0
  6
Continuous
 62
     0
370
     0
100
AcDbMText
 10
0.0
 20
-0.3208396733
 30
0.0
 40
0.06
 41
0.0
 71
     1
 72
     1
  1
THE WRITTEN PERMISSION OF
  7
SLDTEXTSTYLE8
 73
     1
 44
1.0
  0
MTEXT
  5
74
330
66
100
AcDbEntity
  8
0
  6
Continuous
 62
     0
370
     0
100
AcDbMText
 10
0.0
 20
-0.4202097478
 30
0.0
 40
0.06
 41
0.0
 71
     1
 72
     1
  1
THORLABS, INC. IS PROHIBITED.
  7
SLDTEXTSTYLE9
 73
     1
 44
1.0
  0
ENDBLK
  5
68
330
66
100
AcDbEntity
  8
0
100
AcDbBlockEnd
  0
BLOCK
  5
80
330
7F
100
AcDbEntity
  8
0
100
AcDbBlockBegin
  2
SW_NOTE_1
 70
     0
 71
     0
 10
0.0
 20
0.0
 30
0.0
  3
SW_NOTE_1
  1

  0
MTEXT
  5
83
330
7F
100
AcDbEntity
  8
0
  6
Continuous
 62
     0
370
     0
100
AcDbMText
 10
0.0
 20
0.1330566406
 30
0.0
 40
0.1041666667
 41
0.0
 71
     1
 72
     1
  1
PO BOX 366
  7
SLDTEXTSTYLE10
 73
     1
 44
1.0
  0
MTEXT
  5
84
330
7F
100
AcDbEntity
  8
0
  6
Continuous
 62
     0
370
     0
100
AcDbMText
 10
0.0
 20
-0.0058322466
 30
0.0
 40
0.1041666667
 41
0.0
 71
     1
 72
     1
  1
NEWTON NJ
  7
SLDTEXTSTYLE0
 73
     1
 44
1.0
  0
ENDBLK
  5
81
330
7F
100
AcDbEntity
  8
0
100
AcDbBlockEnd
  0
BLOCK
  5
87
330
86
100
AcDbEntity
  8
0
100
AcDbBlockBegin
  2
SW_NOTE_2
 70
     0
 71
     0
 10
0.0
 20
0.0
 30
0.0
  3
SW_NOTE_2
  1

  0
MTEXT
  5
8A
330
86
100
AcDbEntity
  8
0
  6
Continuous
 62
     0
370
     0
100
AcDbMText
 10
0.0
 20
0.1330566406
 30
0.0
 40
0.1041666667
 41
0.0
 71
     1
 72
     1
  1
MATCHED ACHROMAT PAIR
  7
SLDTEXTSTYLE11
 73
     1
 44
1.0
  0
MTEXT
  5
8B
330
86
100
AcDbEntity
  8
0
  6
Continuous
 62
     0
370
     0
100
AcDbMText
 10
0.0
 20
-0.0058322466
 30
0.0
 40
0.1041666667
 41
0.0
 71
     1
 72
     1
  1
F1=30mm, F2=75mm
  7
SLDTEXTSTYLE0
 73
     1
 44
1.0
  0
ENDBLK
  5
88
330
86
100
AcDbEntity
  8
0
100
AcDbBlockEnd
  0
BLOCK
  5
8F
330
8E
100
AcDbEntity
  8
0
100
AcDbBlockBegin
  2
SW_NOTE_3
 70
     0
 71
     0
 10
0.0
 20
0.0
 30
0.0
  3
SW_NOTE_3
  1

  0
LINE
  5
91
330
8E
100
AcDbEntity
  8
0
  6
Continuous
 62
     0
370
     0
100
AcDbLine
 10
1.0817708433
 20
-0.6526041506
 30
0.0
 11
1.4039930543
 21
-0.6526041506
 31
0.0
  0
MTEXT
  5
93
330
8E
100
AcDbEntity
  8
0
  6
Continuous
 62
     0
370
     0
100
AcDbMText
 10
0.0
 20
0.1197509766
 30
0.0
 40
0.09375
 41
0.0
 71
     1
 72
     1
  1
DESIGN WAVELENGTH:  486.1, 587.6 & 656.3nm
  7
SLDTEXTSTYLE12
 73
     1
 44
1.0
  0
MTEXT
  5
95
330
8E
100
AcDbEntity
  8
0
  6
Continuous
 62
     0
370
     0
100
AcDbMText
 10
0.0
 20
-0.0052490219
 30
0.0
 40
0.09375
 41
0.0
 71
     1
 72
     1
  1
COATING:  BBAR 400-700nm
  7
SLDTEXTSTYLE13
 73
     1
 44
1.0
  0
MTEXT
  5
97
330
8E
100
AcDbEntity
  8
0
  6
Continuous
 62
     0
370
     0
100
AcDbMText
 10
0.0
 20
-0.1302490204
 30
0.0
 40
0.09375
 41
0.0
 71
     1
 72
     1
  1
COATING RANGE: R(AVG)<0.5% FROM 400-700nm
  7
SLDTEXTSTYLE14
 73
     1
 44
1.0
  0
MTEXT
  5
98
330
8E
100
AcDbEntity
  8
0
  6
Continuous
 62
     0
370
     0
100
AcDbMText
 10
0.0
 20
-0.2552490189
 30
0.0
 40
0.09375
 41
0.0
 71
     1
 72
     1
  1
MAGNIFICATION: 1:2.5
  7
SLDTEXTSTYLE0
 73
     1
 44
1.0
  0
MTEXT
  5
9A
330
8E
100
AcDbEntity
  8
0
  6
Continuous
 62
     0
370
     0
100
AcDbMText
 10
0.0
 20
-0.6091552547
 30
0.0
 40
0.09375
 41
0.0
 71
     1
 72
     1
  1
Dimensions are in 
  7
SLDTEXTSTYLE15
 73
     1
 44
1.0
  0
MTEXT
  5
9B
330
8E
100
AcDbEntity
  8
0
  6
Continuous
 62
     0
370
     0
100
AcDbMText
 10
1.0817708433
 20
-0.5052490159
 30
0.0
 40
0.09375
 41
0.0
 71
     1
 72
     1
  1
[mm]
  7
SLDTEXTSTYLE0
 73
     1
 44
1.0
  0
MTEXT
  5
9C
330
8E
100
AcDbEntity
  8
0
  6
Continuous
 62
     0
370
     0
100
AcDbMText
 10
1.1922743109
 20
-0.6854573399
 30
0.0
 40
0.09375
 41
0.0
 71
     1
 72
     1
  1
in
  7
SLDTEXTSTYLE0
 73
     1
 44
1.0
  0
ENDBLK
  5
90
330
8E
100
AcDbEntity
  8
0
100
AcDbBlockEnd
  0
BLOCK
  5
A0
330
9F
100
AcDbEntity
  8
0
100
AcDbBlockBegin
  2
SW_NOTE_4
 70
     0
 71
     0
 10
0.0
 20
0.0
 30
0.0
  3
SW_NOTE_4
  1

  0
MTEXT
  5
A2
330
9F
100
AcDbEntity
  8
0
  6
Continuous
 62
     0
370
     0
100
AcDbMText
 10
0.0
 20
0.1149609375
 30
0.0
 40
0.09
 41
0.0
 71
     1
 72
     1
  1
NOTE:
  7
SLDTEXTSTYLE0
 73
     1
 44
1.0
  0
MTEXT
  5
A4
330
9F
100
AcDbEntity
  8
0
  6
Continuous
 62
     0
370
     0
100
AcDbMText
 10
0.0
 20
-0.0144091455
 30
0.0
 40
0.09
 41
0.0
 71
     1
 72
     1
  1
FOR INFORMATION ONLY.  NOT INTENDED FOR MANUFACTURING.
  7
SLDTEXTSTYLE16
 73
     1
 44
1.0
  0
ENDBLK
  5
A1
330
9F
100
AcDbEntity
  8
0
100
AcDbBlockEnd
  0
BLOCK
  5
A7
330
A6
100
AcDbEntity
  8
0
100
AcDbBlockBegin
  2
SW_TABLEANNOTATION_0
 70
     0
 71
     0
 10
0.0
 20
0.0
 30
0.0
  3
SW_TABLEANNOTATION_0
  1

  0
LINE
  5
A9
330
A6
100
AcDbEntity
  8
0
  6
Continuous
 62
     0
370
     0
100
AcDbLine
 10
0.0
 20
0.0
 30
0.0
 11
0.0
 21
-1.0877351438
 31
0.0
  0
LINE
  5
AA
330
A6
100
AcDbEntity
  8
0
  6
Continuous
 62
     0
370
     0
100
AcDbLine
 10
0.0
 20
-1.0877351438
 30
0.0
 11
5.3007222216
 21
-1.0877351438
 31
0.0
  0
LINE
  5
AB
330
A6
100
AcDbEntity
  8
0
  6
Continuous
 62
     0
370
     0
100
AcDbLine
 10
5.3007222216
 20
-1.0877351438
 30
0.0
 11
5.3007222216
 21
0.0
 31
0.0
  0
LINE
  5
AC
330
A6
100
AcDbEntity
  8
0
  6
Continuous
 62
     0
370
     0
100
AcDbLine
 10
5.3007222216
 20
0.0
 30
0.0
 11
0.0
 21
0.0
 31
0.0
  0
LINE
  5
AD
330
A6
100
AcDbEntity
  8
0
  6
Continuous
 62
     0
370
     0
100
AcDbLine
 10
1.7669074072
 20
0.0
 30
0.0
 11
1.7669074072
 21
-1.0877351438
 31
0.0
  0
LINE
  5
AE
330
A6
100
AcDbEntity
  8
0
  6
Continuous
 62
     0
370
     0
100
AcDbLine
 10
3.5338148144
 20
0.0
 30
0.0
 11
3.5338148144
 21
-1.0877351438
 31
0.0
  0
LINE
  5
AF
330
A6
100
AcDbEntity
  8
0
  6
Continuous
 62
     0
370
     0
100
AcDbLine
 10
0.0
 20
-0.2175470288
 30
0.0
 11
5.3007222216
 21
-0.2175470288
 31
0.0
  0
LINE
  5
B0
330
A6
100
AcDbEntity
  8
0
  6
Continuous
 62
     0
370
     0
100
AcDbLine
 10
0.0
 20
-0.4350940575
 30
0.0
 11
5.3007222216
 21
-0.4350940575
 31
0.0
  0
LINE
  5
B1
330
A6
100
AcDbEntity
  8
0
  6
Continuous
 62
     0
370
     0
100
AcDbLine
 10
0.0
 20
-0.6526410863
 30
0.0
 11
5.3007222216
 21
-0.6526410863
 31
0.0
  0
LINE
  5
B2
330
A6
100
AcDbEntity
  8
0
  6
Continuous
 62
     0
370
     0
100
AcDbLine
 10
0.0
 20
-0.870188115
 30
0.0
 11
5.3007222216
 21
-0.870188115
 31
0.0
  0
MTEXT
  5
B3
330
A6
100
AcDbEntity
  8
0
  6
Continuous
 62
     0
370
     0
100
AcDbMText
 10
0.6662347763
 20
-0.0391846857
 30
0.0
 40
0.1377952756
 41
0.0
 71
     1
 72
     1
  1
PART
  7
SLDTEXTSTYLE0
 73
     1
 44
1.0
  0
MTEXT
  5
B4
330
A6
100
AcDbEntity
  8
0
  6
Continuous
 62
     0
370
     0
100
AcDbMText
 10
2.2344873384
 20
-0.0391846857
 30
0.0
 40
0.1377952756
 41
0.0
 71
     1
 72
     1
  1
PART NO.
  7
SLDTEXTSTYLE0
 73
     1
 44
1.0
  0
MTEXT
  5
B5
330
A6
100
AcDbEntity
  8
0
  6
Continuous
 62
     0
370
     0
100
AcDbMText
 10
3.9896246982
 20
-0.0391846857
 30
0.0
 40
0.1377952756
 41
0.0
 71
     1
 72
     1
  1
MATERIAL
  7
SLDTEXTSTYLE0
 73
     1
 44
1.0
  0
MTEXT
  5
B6
330
A6
100
AcDbEntity
  8
0
  6
Continuous
 62
     0
370
     0
100
AcDbMText
 10
0.8155129793
 20
-0.2567317144
 30
0.0
 40
0.1377952756
 41
0.0
 71
     1
 72
     1
  1
A
  7
SLDTEXTSTYLE0
 73
     1
 44
1.0
  0
MTEXT
  5
B7
330
A6
100
AcDbEntity
  8
0
  6
Continuous
 62
     0
370
     0
100
AcDbMText
 10
2.0224357113
 20
-0.2567317144
 30
0.0
 40
0.1377952756
 41
0.0
 71
     1
 72
     1
  1
AC254-030-A1
  7
SLDTEXTSTYLE0
 73
     1
 44
1.0
  0
MTEXT
  5
B8
330
A6
100
AcDbEntity
  8
0
  6
Continuous
 62
     0
370
     0
100
AcDbMText
 10
3.8682882899
 20
-0.2567317144
 30
0.0
 40
0.1377952756
 41
0.0
 71
     1
 72
     1
  1
BAFN10-SFL6
  7
SLDTEXTSTYLE0
 73
     1
 44
1.0
  0
MTEXT
  5
B9
330
A6
100
AcDbEntity
  8
0
  6
Continuous
 62
     0
370
     0
100
AcDbMText
 10
0.8307278706
 20
-0.4742787432
 30
0.0
 40
0.1377952756
 41
0.0
 71
     1
 72
     1
  1
B
  7
SLDTEXTSTYLE0
 73
     1
 44
1.0
  0
MTEXT
  5
BA
330
A6
100
AcDbEntity
  8
0
  6
Continuous
 62
     0
370
     0
100
AcDbMText
 10
2.0224357113
 20
-0.4742787432
 30
0.0
 40
0.1377952756
 41
0.0
 71
     1
 72
     1
  1
AC254-075-A1
  7
SLDTEXTSTYLE0
 73
     1
 44
1.0
  0
MTEXT
  5
BB
330
A6
100
AcDbEntity
  8
0
  6
Continuous
 62
     0
370
     0
100
AcDbMText
 10
4.0877081451
 20
-0.4742787432
 30
0.0
 40
0.1377952756
 41
0.0
 71
     1
 72
     1
  1
BK7-SF5
  7
SLDTEXTSTYLE0
 73
     1
 44
1.0
  0
MTEXT
  5
BC
330
A6
100
AcDbEntity
  8
0
  6
Continuous
 62
     0
370
     0
100
AcDbMText
 10
0.8088145975
 20
-0.691825772
 30
0.0
 40
0.1377952756
 41
0.0
 71
     1
 72
     1
  1
C
  7
SLDTEXTSTYLE0
 73
     1
 44
1.0
  0
MTEXT
  5
BD
330
A6
100
AcDbEntity
  8
0
  6
Continuous
 62
     0
370
     0
100
AcDbMText
 10
2.088079873
 20
-0.691825772
 30
0.0
 40
0.1377952756
 41
0.0
 71
     1
 72
     1
  1
LENS MOUNT
  7
SLDTEXTSTYLE0
 73
     1
 44
1.0
  0
MTEXT
  5
BE
330
A6
100
AcDbEntity
  8
0
  6
Continuous
 62
     0
370
     0
100
AcDbMText
 10
3.5937345782
 20
-0.6960533749
 30
0.0
 40
0.1354166667
 41
0.0
 71
     1
 72
     1
  1
6061-T6 ALUMINUM
  7
SLDTEXTSTYLE0
 73
     1
 44
1.0
  0
MTEXT
  5
BF
330
A6
100
AcDbEntity
  8
0
  6
Continuous
 62
     0
370
     0
100
AcDbMText
 10
0.8151302112
 20
-0.9093728007
 30
0.0
 40
0.1377952756
 41
0.0
 71
     1
 72
     1
  1
D
  7
SLDTEXTSTYLE0
 73
     1
 44
1.0
  0
MTEXT
  5
C0
330
A6
100
AcDbEntity
  8
0
  6
Continuous
 62
     0
370
     0
100
AcDbMText
 10
2.3577375412
 20
-0.9093728007
 30
0.0
 40
0.1377952756
 41
0.0
 71
     1
 72
     1
  1
SM1RR
  7
SLDTEXTSTYLE0
 73
     1
 44
1.0
  0
MTEXT
  5
C1
330
A6
100
AcDbEntity
  8
0
  6
Continuous
 62
     0
370
     0
100
AcDbMText
 10
3.5937345782
 20
-0.9136004036
 30
0.0
 40
0.1354166667
 41
0.0
 71
     1
 72
     1
  1
6061-T6 ALUMINUM
  7
SLDTEXTSTYLE0
 73
     1
 44
1.0
  0
ENDBLK
  5
A8
330
A6
100
AcDbEntity
  8
0
100
AcDbBlockEnd
  0
BLOCK
  5
D8
330
D7
100
AcDbEntity
  8
0
100
AcDbBlockBegin
  2
*D7
 70
     1
 71
     0
 10
0.0
 20
0.0
 30
0.0
  3
*D7
  1

  0
SOLID
  5
DA
330
D7
100
AcDbEntity
  8
0
  6
Continuous
 62
     7
370
     0
100
AcDbTrace
 10
2.1864298612
 20
4.6430042811
 30
0.0
 11
2.2466043823
 21
4.7892609972
 31
0.0
 12
2.1959170949
 22
4.8008712897
 32
0.0
 13
2.1959170949
 23
4.8008712897
 33
0.0
  0
LINE
  5
DB
330
D7
100
AcDbEntity
  8
0
  6
Continuous
 62
     7
370
     0
100
AcDbLine
 10
2.6768539153
 20
5.3523665169
 30
0.0
 11
2.6768539153
 21
5.2117235986
 31
0.0
  0
LINE
  5
DC
330
D7
100
AcDbEntity
  8
0
  6
Continuous
 62
     7
370
     0
100
AcDbLine
 10
2.6768539153
 20
5.2117235986
 30
0.0
 11
2.6979550826
 21
5.2117235986
 31
0.0
  0
LINE
  5
DD
330
D7
100
AcDbEntity
  8
0
  6
Continuous
 62
     7
370
     0
100
AcDbLine
 10
2.6768539153
 20
5.3523665169
 30
0.0
 11
2.6979550826
 21
5.3523665169
 31
0.0
  0
LINE
  5
DE
330
D7
100
AcDbEntity
  8
0
  6
Continuous
 62
     7
370
     0
100
AcDbLine
 10
3.1074632538
 20
5.3523665169
 30
0.0
 11
3.1074632538
 21
5.2117235986
 31
0.0
  0
LINE
  5
DF
330
D7
100
AcDbEntity
  8
0
  6
Continuous
 62
     7
370
     0
100
AcDbLine
 10
3.1074632538
 20
5.2117235986
 30
0.0
 11
3.0863620865
 21
5.2117235986
 31
0.0
  0
LINE
  5
E0
330
D7
100
AcDbEntity
  8
0
  6
Continuous
 62
     7
370
     0
100
AcDbLine
 10
3.1074632538
 20
5.3523665169
 30
0.0
 11
3.0863620865
 21
5.3523665169
 31
0.0
  0
LINE
  5
E1
330
D7
100
AcDbEntity
  8
0
  6
Continuous
 62
     7
370
     0
100
AcDbLine
 10
2.1864298612
 20
4.6430042811
 30
0.0
 11
2.3138566391
 21
5.1993139293
 31
0.0
  0
LINE
  5
E2
330
D7
100
AcDbEntity
  8
0
  6
Continuous
 62
     7
370
     0
100
AcDbLine
 10
2.3138566391
 20
5.1993139293
 30
0.0
 11
2.5638566391
 21
5.1993139293
 31
0.0
  0
MTEXT
  5
E3
330
D7
100
AcDbEntity
  8
0
  6
Continuous
 62
     7
370
     0
100
AcDbMText
 10
2.6830896741
 20
5.1669083108
 30
0.0
 40
0.1041666667
 41
0.0
 71
     1
 72
     1
  1
%%c
  7
SLDTEXTSTYLE0
 73
     1
 44
1.0
  0
MTEXT
  5
E4
330
D7
100
AcDbEntity
  8
0
  6
Continuous
 62
     7
370
     0
100
AcDbMText
 10
2.8320057052
 20
5.1669083108
 30
0.0
 40
0.1041666667
 41
0.0
 71
     1
 72
     1
  1
1.20
  7
SLDTEXTSTYLE0
 73
     1
 44
1.0
  0
MTEXT
  5
E5
330
D7
100
AcDbEntity
  8
0
  6
Continuous
 62
     7
370
     0
100
AcDbMText
 10
2.71905625
 20
5.3323705676
 30
0.0
 40
0.1041666667
 41
0.0
 71
     1
 72
     1
  1
30.48
  7
SLDTEXTSTYLE0
 73
     1
 44
1.0
  0
ENDBLK
  5
D9
330
D7
100
AcDbEntity
  8
0
100
AcDbBlockEnd
  0
BLOCK
  5
39E
330
39D
100
AcDbEntity
  8
0
100
AcDbBlockBegin
  2
*D8
 70
     1
 71
     0
 10
0.0
 20
0.0
 30
0.0
  3
*D8
  1

  0
SOLID
  5
3A0
330
39D
100
AcDbEntity
  8
0
  6
Continuous
 62
     7
370
     0
100
AcDbTrace
 10
4.3609632438
 20
2.8217293296
 30
0.0
 11
4.5169632438
 21
2.7957293296
 31
0.0
 12
4.5169632438
 22
2.8477293296
 32
0.0
 13
4.5169632438
 23
2.8477293296
 33
0.0
  0
SOLID
  5
3A1
330
39D
100
AcDbEntity
  8
0
  6
Continuous
 62
     7
370
     0
100
AcDbTrace
 10
7.0594259997
 20
2.8217293296
 30
0.0
 11
6.9034259997
 21
2.8477293296
 31
0.0
 12
6.9034259997
 22
2.7957293296
 32
0.0
 13
6.9034259997
 23
2.7957293296
 33
0.0
  0
LINE
  5
3A2
330
39D
100
AcDbEntity
  8
0
  6
Continuous
 62
     7
370
     0
100
AcDbLine
 10
5.5288596715
 20
2.9747819171
 30
0.0
 11
5.5288596715
 21
2.8341389988
 31
0.0
  0
LINE
  5
3A3
330
39D
100
AcDbEntity
  8
0
  6
Continuous
 62
     7
370
     0
100
AcDbLine
 10
5.5288596715
 20
2.8341389988
 30
0.0
 11
5.5499608388
 21
2.8341389988
 31
0.0
  0
LINE
  5
3A4
330
39D
100
AcDbEntity
  8
0
  6
Continuous
 62
     7
370
     0
100
AcDbLine
 10
5.5288596715
 20
2.9747819171
 30
0.0
 11
5.5499608388
 21
2.9747819171
 31
0.0
  0
LINE
  5
3A5
330
39D
100
AcDbEntity
  8
0
  6
Continuous
 62
     7
370
     0
100
AcDbLine
 10
5.95946901
 20
2.9747819171
 30
0.0
 11
5.95946901
 21
2.8341389988
 31
0.0
  0
LINE
  5
3A6
330
39D
100
AcDbEntity
  8
0
  6
Continuous
 62
     7
370
     0
100
AcDbLine
 10
5.95946901
 20
2.8341389988
 30
0.0
 11
5.9383678427
 21
2.8341389988
 31
0.0
  0
LINE
  5
3A7
330
39D
100
AcDbEntity
  8
0
  6
Continuous
 62
     7
370
     0
100
AcDbLine
 10
5.95946901
 20
2.9747819171
 30
0.0
 11
5.9383678427
 21
2.9747819171
 31
0.0
  0
LINE
  5
3A8
330
39D
100
AcDbEntity
  8
0
  6
Continuous
 62
     7
370
     0
100
AcDbLine
 10
4.3609632438
 20
4.0081509644
 30
0.0
 11
4.3609632438
 21
2.6967293296
 31
0.0
  0
LINE
  5
3A9
330
39D
100
AcDbEntity
  8
0
  6
Continuous
 62
     7
370
     0
100
AcDbLine
 10
7.0594259997
 20
3.4181509644
 30
0.0
 11
7.0594259997
 21
2.6967293296
 31
0.0
  0
LINE
  5
3AA
330
39D
100
AcDbEntity
  8
0
  6
Continuous
 62
     7
370
     0
100
AcDbLine
 10
4.3609632438
 20
2.8217293296
 30
0.0
 11
5.4030197882
 21
2.8217293296
 31
0.0
  0
LINE
  5
3AB
330
39D
100
AcDbEntity
  8
0
  6
Continuous
 62
     7
370
     0
100
AcDbLine
 10
7.0594259997
 20
2.8217293296
 30
0.0
 11
6.0853088933
 21
2.8217293296
 31
0.0
  0
MTEXT
  5
3AC
330
39D
100
AcDbEntity
  8
0
  6
Continuous
 62
     7
370
     0
100
AcDbMText
 10
5.6095534458
 20
2.7893237111
 30
0.0
 40
0.1041666667
 41
0.0
 71
     1
 72
     1
  1
2.70
  7
SLDTEXTSTYLE0
 73
     1
 44
1.0
  0
MTEXT
  5
3AD
330
39D
100
AcDbEntity
  8
0
  6
Continuous
 62
     7
370
     0
100
AcDbMText
 10
5.5710620061
 20
2.9547859679
 30
0.0
 40
0.1041666667
 41
0.0
 71
     1
 72
     1
  1
68.54
  7
SLDTEXTSTYLE0
 73
     1
 44
1.0
  0
ENDBLK
  5
39F
330
39D
100
AcDbEntity
  8
0
100
AcDbBlockEnd
  0
BLOCK
  5
3B1
330
3B0
100
AcDbEntity
  8
0
100
AcDbBlockBegin
  2
*D9
 70
     1
 71
     0
 10
0.0
 20
0.0
 30
0.0
  3
*D9
  1

  0
SOLID
  5
3B3
330
3B0
100
AcDbEntity
  8
0
  6
Continuous
 62
     7
370
     0
100
AcDbTrace
 10
9.2053045964
 20
2.8217293296
 30
0.0
 11
9.0493045964
 21
2.8477293296
 31
0.0
 12
9.0493045964
 22
2.7957293296
 32
0.0
 13
9.0493045964
 23
2.7957293296
 33
0.0
  0
SOLID
  5
3B4
330
3B0
100
AcDbEntity
  8
0
  6
Continuous
 62
     7
370
     0
100
AcDbTrace
 10
8.5497431397
 20
2.8217293296
 30
0.0
 11
8.7057431397
 21
2.7957293296
 31
0.0
 12
8.7057431397
 22
2.8477293296
 32
0.0
 13
8.7057431397
 23
2.8477293296
 33
0.0
  0
LINE
  5
3B5
330
3B0
100
AcDbEntity
  8
0
  6
Continuous
 62
     7
370
     0
100
AcDbLine
 10
9.4368006752
 20
2.9747819171
 30
0.0
 11
9.4368006752
 21
2.8341389988
 31
0.0
  0
LINE
  5
3B6
330
3B0
100
AcDbEntity
  8
0
  6
Continuous
 62
     7
370
     0
100
AcDbLine
 10
9.4368006752
 20
2.8341389988
 30
0.0
 11
9.4579018425
 21
2.8341389988
 31
0.0
  0
LINE
  5
3B7
330
3B0
100
AcDbEntity
  8
0
  6
Continuous
 62
     7
370
     0
100
AcDbLine
 10
9.4368006752
 20
2.9747819171
 30
0.0
 11
9.4579018425
 21
2.9747819171
 31
0.0
  0
LINE
  5
3B8
330
3B0
100
AcDbEntity
  8
0
  6
Continuous
 62
     7
370
     0
100
AcDbLine
 10
9.8674100137
 20
2.9747819171
 30
0.0
 11
9.8674100137
 21
2.8341389988
 31
0.0
  0
LINE
  5
3B9
330
3B0
100
AcDbEntity
  8
0
  6
Continuous
 62
     7
370
     0
100
AcDbLine
 10
9.8674100137
 20
2.8341389988
 30
0.0
 11
9.8463088464
 21
2.8341389988
 31
0.0
  0
LINE
  5
3BA
330
3B0
100
AcDbEntity
  8
0
  6
Continuous
 62
     7
370
     0
100
AcDbLine
 10
9.8674100137
 20
2.9747819171
 30
0.0
 11
9.8463088464
 21
2.9747819171
 31
0.0
  0
LINE
  5
3BB
330
3B0
100
AcDbEntity
  8
0
  6
Continuous
 62
     7
370
     0
100
AcDbLine
 10
9.2053045964
 20
4.0081509644
 30
0.0
 11
9.2053045964
 21
2.6967293296
 31
0.0
  0
LINE
  5
3BC
330
3B0
100
AcDbEntity
  8
0
  6
Continuous
 62
     7
370
     0
100
AcDbLine
 10
8.5497431397
 20
3.4181509644
 30
0.0
 11
8.5497431397
 21
2.6967293296
 31
0.0
  0
LINE
  5
3BD
330
3B0
100
AcDbEntity
  8
0
  6
Continuous
 62
     7
370
     0
100
AcDbLine
 10
9.2053045964
 20
2.8217293296
 30
0.0
 11
9.3109607919
 21
2.8217293296
 31
0.0
  0
LINE
  5
3BE
330
3B0
100
AcDbEntity
  8
0
  6
Continuous
 62
     7
370
     0
100
AcDbLine
 10
8.5497431397
 20
2.8217293296
 30
0.0
 11
9.2053045964
 21
2.8217293296
 31
0.0
  0
MTEXT
  5
3BF
330
3B0
100
AcDbEntity
  8
0
  6
Continuous
 62
     7
370
     0
100
AcDbMText
 10
9.5174944495
 20
2.7893237111
 30
0.0
 40
0.1041666667
 41
0.0
 71
     1
 72
     1
  1
0.66
  7
SLDTEXTSTYLE0
 73
     1
 44
1.0
  0
MTEXT
  5
3C0
330
3B0
100
AcDbEntity
  8
0
  6
Continuous
 62
     7
370
     0
100
AcDbMText
 10
9.4790030098
 20
2.9547859679
 30
0.0
 40
0.1041666667
 41
0.0
 71
     1
 72
     1
  1
16.65
  7
SLDTEXTSTYLE0
 73
     1
 44
1.0
  0
ENDBLK
  5
3B2
330
3B0
100
AcDbEntity
  8
0
100
AcDbBlockEnd
  0
BLOCK
  5
3C3
330
3C2
100
AcDbEntity
  8
0
100
AcDbBlockBegin
  2
*D10
 70
     1
 71
     0
 10
0.0
 20
0.0
 30
0.0
  3
*D10
  1

  0
SOLID
  5
3C5
330
3C2
100
AcDbEntity
  8
0
  6
Continuous
 62
     7
370
     0
100
AcDbTrace
 10
9.2053045964
 20
4.8841154967
 30
0.0
 11
9.0493045964
 21
4.9101154967
 31
0.0
 12
9.0493045964
 22
4.8581154967
 32
0.0
 13
9.0493045964
 23
4.8581154967
 33
0.0
  0
SOLID
  5
3C6
330
3C2
100
AcDbEntity
  8
0
  6
Continuous
 62
     7
370
     0
100
AcDbTrace
 10
8.3482869567
 20
4.8841154967
 30
0.0
 11
8.5042869567
 21
4.8581154967
 31
0.0
 12
8.5042869567
 22
4.9101154967
 32
0.0
 13
8.5042869567
 23
4.9101154967
 33
0.0
  0
LINE
  5
3C7
330
3C2
100
AcDbEntity
  8
0
  6
Continuous
 62
     7
370
     0
100
AcDbLine
 10
9.4368006752
 20
5.0371680842
 30
0.0
 11
9.4368006752
 21
4.896525166
 31
0.0
  0
LINE
  5
3C8
330
3C2
100
AcDbEntity
  8
0
  6
Continuous
 62
     7
370
     0
100
AcDbLine
 10
9.4368006752
 20
4.896525166
 30
0.0
 11
9.4579018425
 21
4.896525166
 31
0.0
  0
LINE
  5
3C9
330
3C2
100
AcDbEntity
  8
0
  6
Continuous
 62
     7
370
     0
100
AcDbLine
 10
9.4368006752
 20
5.0371680842
 30
0.0
 11
9.4579018425
 21
5.0371680842
 31
0.0
  0
LINE
  5
3CA
330
3C2
100
AcDbEntity
  8
0
  6
Continuous
 62
     7
370
     0
100
AcDbLine
 10
9.8674100137
 20
5.0371680842
 30
0.0
 11
9.8674100137
 21
4.896525166
 31
0.0
  0
LINE
  5
3CB
330
3C2
100
AcDbEntity
  8
0
  6
Continuous
 62
     7
370
     0
100
AcDbLine
 10
9.8674100137
 20
4.896525166
 30
0.0
 11
9.8463088464
 21
4.896525166
 31
0.0
  0
LINE
  5
3CC
330
3C2
100
AcDbEntity
  8
0
  6
Continuous
 62
     7
370
     0
100
AcDbLine
 10
9.8674100137
 20
5.0371680842
 30
0.0
 11
9.8463088464
 21
5.0371680842
 31
0.0
  0
LINE
  5
3CD
330
3C2
100
AcDbEntity
  8
0
  6
Continuous
 62
     7
370
     0
100
AcDbLine
 10
9.2053045964
 20
4.1081509644
 30
0.0
 11
9.2053045964
 21
5.0091154967
 31
0.0
  0
LINE
  5
3CE
330
3C2
100
AcDbEntity
  8
0
  6
Continuous
 62
     7
370
     0
100
AcDbLine
 10
8.3482869567
 20
4.1081509644
 30
0.0
 11
8.3482869567
 21
5.0091154967
 31
0.0
  0
LINE
  5
3CF
330
3C2
100
AcDbEntity
  8
0
  6
Continuous
 62
     7
370
     0
100
AcDbLine
 10
9.2053045964
 20
4.8841154967
 30
0.0
 11
9.3109607919
 21
4.8841154967
 31
0.0
  0
LINE
  5
3D0
330
3C2
100
AcDbEntity
  8
0
  6
Continuous
 62
     7
370
     0
100
AcDbLine
 10
8.3482869567
 20
4.8841154967
 30
0.0
 11
9.2053045964
 21
4.8841154967
 31
0.0
  0
MTEXT
  5
3D1
330
3C2
100
AcDbEntity
  8
0
  6
Continuous
 62
     7
370
     0
100
AcDbMText
 10
9.5174944495
 20
4.8517098782
 30
0.0
 40
0.1041666667
 41
0.0
 71
     1
 72
     1
  1
0.86
  7
SLDTEXTSTYLE0
 73
     1
 44
1.0
  0
MTEXT
  5
3D2
330
3C2
100
AcDbEntity
  8
0
  6
Continuous
 62
     7
370
     0
100
AcDbMText
 10
9.4790030098
 20
5.017172135
 30
0.0
 40
0.1041666667
 41
0.0
 71
     1
 72
     1
  1
21.77
  7
SLDTEXTSTYLE0
 73
     1
 44
1.0
  0
ENDBLK
  5
3C4
330
3C2
100
AcDbEntity
  8
0
100
AcDbBlockEnd
  0
BLOCK
  5
3D5
330
3D4
100
AcDbEntity
  8
0
100
AcDbBlockBegin
  2
*D11
 70
     1
 71
     0
 10
0.0
 20
0.0
 30
0.0
  3
*D11
  1

  0
SOLID
  5
3D7
330
3D4
100
AcDbEntity
  8
0
  6
Continuous
 62
     7
370
     0
100
AcDbTrace
 10
4.3609632438
 20
4.8841154967
 30
0.0
 11
4.5169632438
 21
4.8581154967
 31
0.0
 12
4.5169632438
 22
4.9101154967
 32
0.0
 13
4.5169632438
 23
4.9101154967
 33
0.0
  0
SOLID
  5
3D8
330
3D4
100
AcDbEntity
  8
0
  6
Continuous
 62
     7
370
     0
100
AcDbTrace
 10
7.2658724729
 20
4.8841154967
 30
0.0
 11
7.1098724729
 21
4.9101154967
 31
0.0
 12
7.1098724729
 22
4.8581154967
 32
0.0
 13
7.1098724729
 23
4.8581154967
 33
0.0
  0
LINE
  5
3D9
330
3D4
100
AcDbEntity
  8
0
  6
Continuous
 62
     7
370
     0
100
AcDbLine
 10
5.5305744207
 20
5.0371680842
 30
0.0
 11
5.5305744207
 21
4.896525166
 31
0.0
  0
LINE
  5
3DA
330
3D4
100
AcDbEntity
  8
0
  6
Continuous
 62
     7
370
     0
100
AcDbLine
 10
5.5305744207
 20
4.896525166
 30
0.0
 11
5.551675588
 21
4.896525166
 31
0.0
  0
LINE
  5
3DB
330
3D4
100
AcDbEntity
  8
0
  6
Continuous
 62
     7
370
     0
100
AcDbLine
 10
5.5305744207
 20
5.0371680842
 30
0.0
 11
5.551675588
 21
5.0371680842
 31
0.0
  0
LINE
  5
3DC
330
3D4
100
AcDbEntity
  8
0
  6
Continuous
 62
     7
370
     0
100
AcDbLine
 10
5.9611837592
 20
5.0371680842
 30
0.0
 11
5.9611837592
 21
4.896525166
 31
0.0
  0
LINE
  5
3DD
330
3D4
100
AcDbEntity
  8
0
  6
Continuous
 62
     7
370
     0
100
AcDbLine
 10
5.9611837592
 20
4.896525166
 30
0.0
 11
5.9400825919
 21
4.896525166
 31
0.0
  0
LINE
  5
3DE
330
3D4
100
AcDbEntity
  8
0
  6
Continuous
 62
     7
370
     0
100
AcDbLine
 10
5.9611837592
 20
5.0371680842
 30
0.0
 11
5.9400825919
 21
5.0371680842
 31
0.0
  0
LINE
  5
3DF
330
3D4
100
AcDbEntity
  8
0
  6
Continuous
 62
     7
370
     0
100
AcDbLine
 10
4.3609632438
 20
4.1081509644
 30
0.0
 11
4.3609632438
 21
5.0091154967
 31
0.0
  0
LINE
  5
3E0
330
3D4
100
AcDbEntity
  8
0
  6
Continuous
 62
     7
370
     0
100
AcDbLine
 10
7.2658724729
 20
4.1081509644
 30
0.0
 11
7.2658724729
 21
5.0091154967
 31
0.0
  0
LINE
  5
3E1
330
3D4
100
AcDbEntity
  8
0
  6
Continuous
 62
     7
370
     0
100
AcDbLine
 10
4.3609632438
 20
4.8841154967
 30
0.0
 11
5.4047345374
 21
4.8841154967
 31
0.0
  0
LINE
  5
3E2
330
3D4
100
AcDbEntity
  8
0
  6
Continuous
 62
     7
370
     0
100
AcDbLine
 10
7.2658724729
 20
4.8841154967
 30
0.0
 11
6.0870236424
 21
4.8841154967
 31
0.0
  0
MTEXT
  5
3E3
330
3D4
100
AcDbEntity
  8
0
  6
Continuous
 62
     7
370
     0
100
AcDbMText
 10
5.611268195
 20
4.8517098782
 30
0.0
 40
0.1041666667
 41
0.0
 71
     1
 72
     1
  1
2.90
  7
SLDTEXTSTYLE0
 73
     1
 44
1.0
  0
MTEXT
  5
3E4
330
3D4
100
AcDbEntity
  8
0
  6
Continuous
 62
     7
370
     0
100
AcDbMText
 10
5.5727767553
 20
5.017172135
 30
0.0
 40
0.1041666667
 41
0.0
 71
     1
 72
     1
  1
73.78
  7
SLDTEXTSTYLE0
 73
     1
 44
1.0
  0
ENDBLK
  5
3D6
330
3D4
100
AcDbEntity
  8
0
100
AcDbBlockEnd
  0
BLOCK
  5
3E8
330
3E7
100
AcDbEntity
  8
0
100
AcDbBlockBegin
  2
*D12
 70
     1
 71
     0
 10
0.0
 20
0.0
 30
0.0
  3
*D12
  1

  0
SOLID
  5
3EA
330
3E7
100
AcDbEntity
  8
0
  6
Continuous
 62
     7
370
     0
100
AcDbTrace
 10
7.0594259997
 20
2.3319610914
 30
0.0
 11
7.2154259997
 21
2.3059610914
 31
0.0
 12
7.2154259997
 22
2.3579610914
 32
0.0
 13
7.2154259997
 23
2.3579610914
 33
0.0
  0
SOLID
  5
3EB
330
3E7
100
AcDbEntity
  8
0
  6
Continuous
 62
     7
370
     0
100
AcDbTrace
 10
8.5497431397
 20
2.3319610914
 30
0.0
 11
8.3937431397
 21
2.3579610914
 31
0.0
 12
8.3937431397
 22
2.3059610914
 32
0.0
 13
8.3937431397
 23
2.3059610914
 33
0.0
  0
LINE
  5
3EC
330
3E7
100
AcDbEntity
  8
0
  6
Continuous
 62
     7
370
     0
100
AcDbLine
 10
7.6006354235
 20
2.485013679
 30
0.0
 11
7.6006354235
 21
2.3443707607
 31
0.0
  0
LINE
  5
3ED
330
3E7
100
AcDbEntity
  8
0
  6
Continuous
 62
     7
370
     0
100
AcDbLine
 10
7.6006354235
 20
2.3443707607
 30
0.0
 11
7.6217365909
 21
2.3443707607
 31
0.0
  0
LINE
  5
3EE
330
3E7
100
AcDbEntity
  8
0
  6
Continuous
 62
     7
370
     0
100
AcDbLine
 10
7.6006354235
 20
2.485013679
 30
0.0
 11
7.6217365909
 21
2.485013679
 31
0.0
  0
LINE
  5
3EF
330
3E7
100
AcDbEntity
  8
0
  6
Continuous
 62
     7
370
     0
100
AcDbLine
 10
8.0312447621
 20
2.485013679
 30
0.0
 11
8.0312447621
 21
2.3443707607
 31
0.0
  0
LINE
  5
3F0
330
3E7
100
AcDbEntity
  8
0
  6
Continuous
 62
     7
370
     0
100
AcDbLine
 10
8.0312447621
 20
2.3443707607
 30
0.0
 11
8.0101435947
 21
2.3443707607
 31
0.0
  0
LINE
  5
3F1
330
3E7
100
AcDbEntity
  8
0
  6
Continuous
 62
     7
370
     0
100
AcDbLine
 10
8.0312447621
 20
2.485013679
 30
0.0
 11
8.0101435947
 21
2.485013679
 31
0.0
  0
LINE
  5
3F2
330
3E7
100
AcDbEntity
  8
0
  6
Continuous
 62
     7
370
     0
100
AcDbLine
 10
7.0594259997
 20
3.4181509644
 30
0.0
 11
7.0594259997
 21
2.2069610914
 31
0.0
  0
LINE
  5
3F3
330
3E7
100
AcDbEntity
  8
0
  6
Continuous
 62
     7
370
     0
100
AcDbLine
 10
8.5497431397
 20
3.4181509644
 30
0.0
 11
8.5497431397
 21
2.2069610914
 31
0.0
  0
LINE
  5
3F4
330
3E7
100
AcDbEntity
  8
0
  6
Continuous
 62
     7
370
     0
100
AcDbLine
 10
7.0594259997
 20
2.3319610914
 30
0.0
 11
7.4747955403
 21
2.3319610914
 31
0.0
  0
LINE
  5
3F5
330
3E7
100
AcDbEntity
  8
0
  6
Continuous
 62
     7
370
     0
100
AcDbLine
 10
8.5497431397
 20
2.3319610914
 30
0.0
 11
8.1570846453
 21
2.3319610914
 31
0.0
  0
MTEXT
  5
3F6
330
3E7
100
AcDbEntity
  8
0
  6
Continuous
 62
     7
370
     0
100
AcDbMText
 10
7.6428377582
 20
2.2995554729
 30
0.0
 40
0.1041666667
 41
0.0
 71
     1
 72
     1
  1
1.490
  7
SLDTEXTSTYLE0
 73
     1
 44
1.0
  0
MTEXT
  5
3F7
330
3E7
100
AcDbEntity
  8
0
  6
Continuous
 62
     7
370
     0
100
AcDbMText
 10
7.6428377582
 20
2.4650177297
 30
0.0
 40
0.1041666667
 41
0.0
 71
     1
 72
     1
  1
37.85
  7
SLDTEXTSTYLE0
 73
     1
 44
1.0
  0
ENDBLK
  5
3E9
330
3E7
100
AcDbEntity
  8
0
100
AcDbBlockEnd
  0
BLOCK
  5
3FA
330
3F9
100
AcDbEntity
  8
0
100
AcDbBlockBegin
  2
*D13
 70
     1
 71
     0
 10
0.0
 20
0.0
 30
0.0
  3
*D13
  1

  0
SOLID
  5
3FC
330
3F9
100
AcDbEntity
  8
0
  6
Continuous
 62
     7
370
     0
100
AcDbTrace
 10
7.6398882209
 20
3.0985621718
 30
0.0
 11
7.4838882209
 21
3.1245621718
 31
0.0
 12
7.4838882209
 22
3.0725621718
 32
0.0
 13
7.4838882209
 23
3.0725621718
 33
0.0
  0
SOLID
  5
3FD
330
3F9
100
AcDbEntity
  8
0
  6
Continuous
 62
     7
370
     0
100
AcDbTrace
 10
7.7971058543
 20
3.0985621718
 30
0.0
 11
7.9531058543
 21
3.0725621718
 31
0.0
 12
7.9531058543
 22
3.1245621718
 32
0.0
 13
7.9531058543
 23
3.1245621718
 33
0.0
  0
LINE
  5
3FE
330
3F9
100
AcDbEntity
  8
0
  6
Continuous
 62
     7
370
     0
100
AcDbLine
 10
8.1430740832
 20
3.2516147594
 30
0.0
 11
8.1430740832
 21
3.1109718411
 31
0.0
  0
LINE
  5
3FF
330
3F9
100
AcDbEntity
  8
0
  6
Continuous
 62
     7
370
     0
100
AcDbLine
 10
8.1430740832
 20
3.1109718411
 30
0.0
 11
8.1641752505
 21
3.1109718411
 31
0.0
  0
LINE
  5
400
330
3F9
100
AcDbEntity
  8
0
  6
Continuous
 62
     7
370
     0
100
AcDbLine
 10
8.1430740832
 20
3.2516147594
 30
0.0
 11
8.1641752505
 21
3.2516147594
 31
0.0
  0
LINE
  5
401
330
3F9
100
AcDbEntity
  8
0
  6
Continuous
 62
     7
370
     0
100
AcDbLine
 10
8.4967005424
 20
3.2516147594
 30
0.0
 11
8.4967005424
 21
3.1109718411
 31
0.0
  0
LINE
  5
402
330
3F9
100
AcDbEntity
  8
0
  6
Continuous
 62
     7
370
     0
100
AcDbLine
 10
8.4967005424
 20
3.1109718411
 30
0.0
 11
8.4755993751
 21
3.1109718411
 31
0.0
  0
LINE
  5
403
330
3F9
100
AcDbEntity
  8
0
  6
Continuous
 62
     7
370
     0
100
AcDbLine
 10
8.4967005424
 20
3.2516147594
 30
0.0
 11
8.4755993751
 21
3.2516147594
 31
0.0
  0
LINE
  5
404
330
3F9
100
AcDbEntity
  8
0
  6
Continuous
 62
     7
370
     0
100
AcDbLine
 10
7.6398882209
 20
4.0081509644
 30
0.0
 11
7.6398882209
 21
2.9735621718
 31
0.0
  0
LINE
  5
405
330
3F9
100
AcDbEntity
  8
0
  6
Continuous
 62
     7
370
     0
100
AcDbLine
 10
7.7971058543
 20
4.0081509644
 30
0.0
 11
7.7971058543
 21
2.9735621718
 31
0.0
  0
LINE
  5
406
330
3F9
100
AcDbEntity
  8
0
  6
Continuous
 62
     7
370
     0
100
AcDbLine
 10
7.6398882209
 20
3.0985621718
 30
0.0
 11
7.1398882209
 21
3.0985621718
 31
0.0
  0
LINE
  5
407
330
3F9
100
AcDbEntity
  8
0
  6
Continuous
 62
     7
370
     0
100
AcDbLine
 10
7.7971058543
 20
3.0985621718
 30
0.0
 11
8.0172342
 21
3.0985621718
 31
0.0
  0
MTEXT
  5
408
330
3F9
100
AcDbEntity
  8
0
  6
Continuous
 62
     7
370
     0
100
AcDbMText
 10
8.1852764179
 20
3.0661565534
 30
0.0
 40
0.1041666667
 41
0.0
 71
     1
 72
     1
  1
0.16
  7
SLDTEXTSTYLE0
 73
     1
 44
1.0
  0
MTEXT
  5
409
330
3F9
100
AcDbEntity
  8
0
  6
Continuous
 62
     7
370
     0
100
AcDbMText
 10
8.1852764179
 20
3.2316188102
 30
0.0
 40
0.1041666667
 41
0.0
 71
     1
 72
     1
  1
3.99
  7
SLDTEXTSTYLE0
 73
     1
 44
1.0
  0
ENDBLK
  5
3FB
330
3F9
100
AcDbEntity
  8
0
100
AcDbBlockEnd
  0
BLOCK
  5
40D
330
40C
100
AcDbEntity
  8
0
100
AcDbBlockBegin
  2
*D14
 70
     1
 71
     0
 10
0.0
 20
0.0
 30
0.0
  3
*D14
  1

  0
SOLID
  5
40F
330
40C
100
AcDbEntity
  8
0
  6
Continuous
 62
     7
370
     0
100
AcDbTrace
 10
7.2658724729
 20
5.2487078494
 30
0.0
 11
7.1098724729
 21
5.2747078494
 31
0.0
 12
7.1098724729
 22
5.2227078494
 32
0.0
 13
7.1098724729
 23
5.2227078494
 33
0.0
  0
SOLID
  5
410
330
40C
100
AcDbEntity
  8
0
  6
Continuous
 62
     7
370
     0
100
AcDbTrace
 10
8.3482869567
 20
5.2487078494
 30
0.0
 11
8.5042869567
 21
5.2227078494
 31
0.0
 12
8.5042869567
 22
5.2747078494
 32
0.0
 13
8.5042869567
 23
5.2747078494
 33
0.0
  0
LINE
  5
411
330
40C
100
AcDbEntity
  8
0
  6
Continuous
 62
     7
370
     0
100
AcDbLine
 10
7.5940172937
 20
5.401760437
 30
0.0
 11
7.5940172937
 21
5.2611175187
 31
0.0
  0
LINE
  5
412
330
40C
100
AcDbEntity
  8
0
  6
Continuous
 62
     7
370
     0
100
AcDbLine
 10
7.5940172937
 20
5.2611175187
 30
0.0
 11
7.6151184611
 21
5.2611175187
 31
0.0
  0
LINE
  5
413
330
40C
100
AcDbEntity
  8
0
  6
Continuous
 62
     7
370
     0
100
AcDbLine
 10
7.5940172937
 20
5.401760437
 30
0.0
 11
7.6151184611
 21
5.401760437
 31
0.0
  0
LINE
  5
414
330
40C
100
AcDbEntity
  8
0
  6
Continuous
 62
     7
370
     0
100
AcDbLine
 10
8.0246266323
 20
5.401760437
 30
0.0
 11
8.0246266323
 21
5.2611175187
 31
0.0
  0
LINE
  5
415
330
40C
100
AcDbEntity
  8
0
  6
Continuous
 62
     7
370
     0
100
AcDbLine
 10
8.0246266323
 20
5.2611175187
 30
0.0
 11
8.003525465
 21
5.2611175187
 31
0.0
  0
LINE
  5
416
330
40C
100
AcDbEntity
  8
0
  6
Continuous
 62
     7
370
     0
100
AcDbLine
 10
8.0246266323
 20
5.401760437
 30
0.0
 11
8.003525465
 21
5.401760437
 31
0.0
  0
LINE
  5
417
330
40C
100
AcDbEntity
  8
0
  6
Continuous
 62
     7
370
     0
100
AcDbLine
 10
7.2658724729
 20
4.1081509644
 30
0.0
 11
7.2658724729
 21
5.3737078494
 31
0.0
  0
LINE
  5
418
330
40C
100
AcDbEntity
  8
0
  6
Continuous
 62
     7
370
     0
100
AcDbLine
 10
8.3482869567
 20
4.1081509644
 30
0.0
 11
8.3482869567
 21
5.3737078494
 31
0.0
  0
LINE
  5
419
330
40C
100
AcDbEntity
  8
0
  6
Continuous
 62
     7
370
     0
100
AcDbLine
 10
7.2658724729
 20
5.2487078494
 30
0.0
 11
6.7658724729
 21
5.2487078494
 31
0.0
  0
LINE
  5
41A
330
40C
100
AcDbEntity
  8
0
  6
Continuous
 62
     7
370
     0
100
AcDbLine
 10
8.3482869567
 20
5.2487078494
 30
0.0
 11
8.8482869567
 21
5.2487078494
 31
0.0
  0
MTEXT
  5
41B
330
40C
100
AcDbEntity
  8
0
  6
Continuous
 62
     7
370
     0
100
AcDbMText
 10
7.6747110681
 20
5.2163022309
 30
0.0
 40
0.1041666667
 41
0.0
 71
     1
 72
     1
  1
1.08
  7
SLDTEXTSTYLE0
 73
     1
 44
1.0
  0
MTEXT
  5
41C
330
40C
100
AcDbEntity
  8
0
  6
Continuous
 62
     7
370
     0
100
AcDbMText
 10
7.6362196284
 20
5.3817644878
 30
0.0
 40
0.1041666667
 41
0.0
 71
     1
 72
     1
  1
27.49
  7
SLDTEXTSTYLE0
 73
     1
 44
1.0
  0
ENDBLK
  5
40E
330
40C
100
AcDbEntity
  8
0
100
AcDbBlockEnd
  0
BLOCK
  5
41E
330
41D
100
AcDbEntity
  8
0
100
AcDbBlockBegin
  2
SW_NOTE_5
 70
     0
 71
     0
 10
0.0
 20
0.0
 30
0.0
  3
SW_NOTE_5
  1

  0
MTEXT
  5
421
330
41D
100
AcDbEntity
  8
0
  6
Continuous
 62
     0
370
     0
100
AcDbMText
 10
0.0
 20
0.1463623047
 30
0.0
 40
0.1145833333
 41
0.0
 71
     1
 72
     1
  1
SECTION A-A 
  7
SLDTEXTSTYLE17
 73
     1
 44
1.0
  0
MTEXT
  5
423
330
41D
100
AcDbEntity
  8
0
  6
Continuous
 62
     0
370
     0
100
AcDbMText
 10
0.0925154213
 20
-0.0064154712
 30
0.0
 40
0.1145833333
 41
0.0
 71
     1
 72
     1
  1
SCALE 1 : 1
  7
SLDTEXTSTYLE18
 73
     1
 44
1.0
  0
ENDBLK
  5
41F
330
41D
100
AcDbEntity
  8
0
100
AcDbBlockEnd
  0
BLOCK
  5
426
330
425
100
AcDbEntity
  8
0
100
AcDbBlockBegin
  2
SW_NOTE_6
 70
     0
 71
     0
 10
0.0
 20
0.0
 30
0.0
  3
SW_NOTE_6
  1

  0
MTEXT
  5
429
330
425
100
AcDbEntity
  8
0
  6
Continuous
 62
     0
370
     0
100
AcDbMText
 10
-1.3413089402
 20
0.1665802543
 30
0.0
 40
0.09
 41
0.0
 71
     1
 72
     1
  1
INTERNAL  SM1 THREAD
  7
SLDTEXTSTYLE19
 73
     1
 44
1.0
  0
MTEXT
  5
42A
330
425
100
AcDbEntity
  8
0
  6
Continuous
 62
     0
370
     0
100
AcDbMText
 10
-0.9607464282
 20
0.0372101713
 30
0.0
 40
0.09
 41
0.0
 71
     1
 72
     1
  1
(1.035-40)
  7
SLDTEXTSTYLE0
 73
     1
 44
1.0
  0
ENDBLK
  5
427
330
425
100
AcDbEntity
  8
0
100
AcDbBlockEnd
  0
BLOCK
  5
430
330
42F
100
AcDbEntity
  8
0
100
AcDbBlockBegin
  2
SW_NOTE_7
 70
     0
 71
     0
 10
0.0
 20
0.0
 30
0.0
  3
SW_NOTE_7
  1

  0
CIRCLE
  5
432
330
42F
100
AcDbEntity
  8
0
  6
Continuous
 62
     0
370
     0
100
AcDbCircle
 10
0.1871005046
 20
0.0614552111
 30
0.0
 40
0.1969348668812025
  0
MTEXT
  5
433
330
42F
100
AcDbEntity
  8
0
  6
Continuous
 62
     0
370
     0
100
AcDbMText
 10
0.1191597803
 20
0.1323151213
 30
0.0
 40
0.1377952756
 41
0.0
 71
     1
 72
     1
  1
A
  7
SLDTEXTSTYLE0
 73
     1
 44
1.0
  0
ENDBLK
  5
431
330
42F
100
AcDbEntity
  8
0
100
AcDbBlockEnd
  0
BLOCK
  5
437
330
436
100
AcDbEntity
  8
0
100
AcDbBlockBegin
  2
SW_NOTE_8
 70
     0
 71
     0
 10
0.0
 20
0.0
 30
0.0
  3
SW_NOTE_8
  1

  0
CIRCLE
  5
439
330
436
100
AcDbEntity
  8
0
  6
Continuous
 62
     0
370
     0
100
AcDbCircle
 10
-0.195878545
 20
0.0203700125
 30
0.0
 40
0.1969348668812025
  0
MTEXT
  5
43A
330
436
100
AcDbEntity
  8
0
  6
Continuous
 62
     0
370
     0
100
AcDbMText
 10
-0.248604378
 20
0.0912299227
 30
0.0
 40
0.1377952756
 41
0.0
 71
     1
 72
     1
  1
B
  7
SLDTEXTSTYLE0
 73
     1
 44
1.0
  0
ENDBLK
  5
438
330
436
100
AcDbEntity
  8
0
100
AcDbBlockEnd
  0
BLOCK
  5
43E
330
43D
100
AcDbEntity
  8
0
100
AcDbBlockBegin
  2
SW_NOTE_9
 70
     0
 71
     0
 10
0.0
 20
0.0
 30
0.0
  3
SW_NOTE_9
  1

  0
CIRCLE
  5
440
330
43D
100
AcDbEntity
  8
0
  6
Continuous
 62
     0
370
     0
100
AcDbCircle
 10
0.1567511244
 20
-0.1192158831
 30
0.0
 40
0.1969348668812025
  0
MTEXT
  5
441
330
43D
100
AcDbEntity
  8
0
  6
Continuous
 62
     0
370
     0
100
AcDbMText
 10
0.0821120183
 20
-0.0483559729
 30
0.0
 40
0.1377952756
 41
0.0
 71
     1
 72
     1
  1
C
  7
SLDTEXTSTYLE0
 73
     1
 44
1.0
  0
ENDBLK
  5
43F
330
43D
100
AcDbEntity
  8
0
100
AcDbBlockEnd
  0
BLOCK
  5
446
330
445
100
AcDbEntity
  8
0
100
AcDbBlockBegin
  2
SW_NOTE_10
 70
     0
 71
     0
 10
0.0
 20
0.0
 30
0.0
  3
SW_NOTE_10
  1

  0
CIRCLE
  5
448
330
445
100
AcDbEntity
  8
0
  6
Continuous
 62
     0
370
     0
100
AcDbCircle
 10
0.1956440069
 20
0.022511427
 30
0.0
 40
0.1969348668812025
  0
MTEXT
  5
449
330
445
100
AcDbEntity
  8
0
  6
Continuous
 62
     0
370
     0
100
AcDbMText
 10
0.1273205145
 20
0.0933713371
 30
0.0
 40
0.1377952756
 41
0.0
 71
     1
 72
     1
  1
D
  7
SLDTEXTSTYLE0
 73
     1
 44
1.0
  0
ENDBLK
  5
447
330
445
100
AcDbEntity
  8
0
100
AcDbBlockEnd
  0
BLOCK
  5
44D
330
44C
100
AcDbEntity
  8
0
100
AcDbBlockBegin
  2
SW_NOTE_11
 70
     0
 71
     0
 10
0.0
 20
0.0
 30
0.0
  3
SW_NOTE_11
  1

  0
CIRCLE
  5
44F
330
44C
100
AcDbEntity
  8
0
  6
Continuous
 62
     0
370
     0
100
AcDbCircle
 10
-0.1969187551
 20
-0.0025190618
 30
0.0
 40
0.1969348668812023
  0
MTEXT
  5
450
330
44C
100
AcDbEntity
  8
0
  6
Continuous
 62
     0
370
     0
100
AcDbMText
 10
-0.2652422475
 20
0.0683408484
 30
0.0
 40
0.1377952756
 41
0.0
 71
     1
 72
     1
  1
D
  7
SLDTEXTSTYLE0
 73
     1
 44
1.0
  0
ENDBLK
  5
44E
330
44C
100
AcDbEntity
  8
0
100
AcDbBlockEnd
  0
ENDSEC
  0
SECTION
  2
ENTITIES
  0
LINE
  5
30
330
1F
100
AcDbEntity
  8
0
  6
Continuous
 62
     7
370
     0
100
AcDbLine
 10
0.329927
 20
8.1920731707
 30
0.0
 11
10.629927
 21
8.1920731707
 31
0.0
  0
LINE
  5
31
330
1F
100
AcDbEntity
  8
0
  6
Continuous
 62
     7
370
     0
100
AcDbLine
 10
0.329927
 20
8.1920731707
 30
0.0
 11
0.329927
 21
0.3920731707
 31
0.0
  0
LINE
  5
32
330
1F
100
AcDbEntity
  8
0
  6
Continuous
 62
     7
370
     0
100
AcDbLine
 10
10.629927
 20
0.3920731707
 30
0.0
 11
0.329927
 21
0.3920731707
 31
0.0
  0
LINE
  5
33
330
1F
100
AcDbEntity
  8
0
  6
Continuous
 62
     7
370
     0
100
AcDbLine
 10
10.629927
 20
0.3920731707
 30
0.0
 11
10.629927
 21
8.1920731707
 31
0.0
  0
LINE
  5
34
330
1F
100
AcDbEntity
  8
0
  6
Continuous
 62
     7
370
     0
100
AcDbLine
 10
7.8832069922
 20
1.2010186622
 30
0.0
 11
6.3491817542
 21
1.2010186622
 31
0.0
  0
LINE
  5
35
330
1F
100
AcDbEntity
  8
0
  6
Continuous
 62
     7
370
     0
100
AcDbLine
 10
6.3491817542
 20
0.3920731707
 30
0.0
 11
6.3491817542
 21
1.6988536355
 31
0.0
  0
LINE
  5
36
330
1F
100
AcDbEntity
  8
0
  6
Continuous
 62
     7
370
     0
100
AcDbLine
 10
7.8832069922
 20
1.270166923
 30
0.0
 11
10.629927
 21
1.270166923
 31
0.0
  0
LINE
  5
37
330
1F
100
AcDbEntity
  8
0
  6
Continuous
 62
     7
370
     0
100
AcDbLine
 10
7.8832069922
 20
1.9437769943
 30
0.0
 11
7.8832069922
 21
0.3920731707
 31
0.0
  0
LINE
  5
38
330
1F
100
AcDbEntity
  8
0
  6
Continuous
 62
     7
370
     0
100
AcDbLine
 10
7.8832069922
 20
1.323339557
 30
0.0
 11
6.3491817542
 21
1.323339557
 31
0.0
  0
LINE
  5
39
330
1F
100
AcDbEntity
  8
0
  6
Continuous
 62
     7
370
     0
100
AcDbLine
 10
7.8832069922
 20
1.6988536355
 30
0.0
 11
6.3491817542
 21
1.6988536355
 31
0.0
  0
LINE
  5
3A
330
1F
100
AcDbEntity
  8
0
  6
Continuous
 62
     7
370
     0
100
AcDbLine
 10
7.8832069922
 20
0.7890359178
 30
0.0
 11
10.629927
 21
0.7890359178
 31
0.0
  0
LINE
  5
3B
330
1F
100
AcDbEntity
  8
0
  6
Continuous
 62
     7
370
     0
100
AcDbLine
 10
7.8832069922
 20
1.4456604517
 30
0.0
 11
6.3491817542
 21
1.4456604517
 31
0.0
  0
LINE
  5
3C
330
1F
100
AcDbEntity
  8
0
  6
Continuous
 62
     7
370
     0
100
AcDbLine
 10
7.8832069922
 20
1.5679813464
 30
0.0
 11
6.3491817542
 21
1.5679813464
 31
0.0
  0
LINE
  5
3D
330
1F
100
AcDbEntity
  8
0
  6
Continuous
 62
     7
370
     0
100
AcDbLine
 10
6.9294188505
 20
1.6988536355
 30
0.0
 11
6.9294188505
 21
1.2010186622
 31
0.0
  0
LINE
  5
3E
330
1F
100
AcDbEntity
  8
0
  6
Continuous
 62
     7
370
     0
100
AcDbLine
 10
7.2989435727
 20
1.6988536355
 30
0.0
 11
7.2989435727
 21
1.2010186622
 31
0.0
  0
LINE
  5
3F
330
1F
100
AcDbEntity
  8
0
  6
Continuous
 62
     7
370
     0
100
AcDbLine
 10
8.9000563418
 20
0.7890359178
 30
0.0
 11
8.9000563418
 21
0.3920731707
 31
0.0
  0
LINE
  5
40
330
1F
100
AcDbEntity
  8
0
  6
Continuous
 62
     7
370
     0
100
AcDbLine
 10
9.3113942988
 20
0.96139916
 30
0.0
 11
9.3113942988
 21
0.7890359178
 31
0.0
  0
LINE
  5
41
330
1F
100
AcDbEntity
  8
0
  6
Continuous
 62
     7
370
     0
100
AcDbLine
 10
10.0324602448
 20
1.270166923
 30
0.0
 11
10.0324602448
 21
0.96139916
 31
0.0
  0
LINE
  5
42
330
1F
100
AcDbEntity
  8
0
  6
Continuous
 62
     7
370
     0
100
AcDbLine
 10
6.3491817542
 20
1.0381709011
 30
0.0
 11
7.8832069922
 21
1.0381709011
 31
0.0
  0
LINE
  5
43
330
1F
100
AcDbEntity
  8
0
  6
Continuous
 62
     7
370
     0
100
AcDbLine
 10
7.8832069922
 20
1.9437769943
 30
0.0
 11
10.629927
 21
1.9437769943
 31
0.0
  0
LINE
  5
44
330
1F
100
AcDbEntity
  8
0
  6
Continuous
 62
     7
370
     0
100
AcDbLine
 10
10.315241862
 20
1.2693980507
 30
0.0
 11
10.315241862
 21
0.96139916
 31
0.0
  0
LINE
  5
45
330
1F
100
AcDbEntity
  8
0
  6
Continuous
 62
     7
370
     0
100
AcDbLine
 10
7.8832069922
 20
0.96139916
 30
0.0
 11
10.629927
 21
0.96139916
 31
0.0
  0
LINE
  5
46
330
1F
100
AcDbEntity
  8
0
  6
Continuous
 62
     7
370
     0
100
AcDbLine
 10
10.629927
 20
1.9437769943
 30
0.0
 11
10.629927
 21
1.9698084888
 31
0.0
  0
LINE
  5
47
330
1F
100
AcDbEntity
  8
0
  6
Continuous
 62
     7
370
     0
100
AcDbLine
 10
7.8832069922
 20
1.6268095213
 30
0.0
 11
10.629927
 21
1.6268095213
 31
0.0
  0
LINE
  5
48
330
1F
100
AcDbEntity
  8
0
  6
Continuous
 62
     7
370
     0
100
AcDbLine
 10
6.692177
 20
0.3920731707
 30
0.0
 11
6.692177
 21
0.3072739649
 31
0.0
  0
LINE
  5
49
330
1F
100
AcDbEntity
  8
0
  6
Continuous
 62
     7
370
     0
100
AcDbLine
 10
2.754677
 20
0.3920731707
 30
0.0
 11
2.754677
 21
0.3072739649
 31
0.0
  0
LINE
  5
4A
330
1F
100
AcDbEntity
  8
0
  6
Continuous
 62
     7
370
     0
100
AcDbLine
 10
2.754677
 20
0.3920731707
 30
0.0
 11
2.7672319738
 21
0.3575
 31
0.0
  0
LINE
  5
4B
330
1F
100
AcDbEntity
  8
0
  6
Continuous
 62
     7
370
     0
100
AcDbLine
 10
2.7672319738
 20
0.3575
 30
0.0
 11
2.7414258825
 21
0.3575
 31
0.0
  0
LINE
  5
4C
330
1F
100
AcDbEntity
  8
0
  6
Continuous
 62
     7
370
     0
100
AcDbLine
 10
2.7414258825
 20
0.3575
 30
0.0
 11
2.754677
 21
0.3920731707
 31
0.0
  0
MTEXT
  5
4E
330
1F
100
AcDbEntity
  8
0
  6
Continuous
 62
     7
370
     0
100
AcDbMText
 10
10.4043270877
 20
1.1203120088
 30
0.0
 40
0.1041666667
 41
0.0
 71
     1
 72
     1
  1
C
  7
SLDTEXTSTYLE0
 73
     1
 44
1.0
  0
MTEXT
  5
4F
330
1F
100
AcDbEntity
  8
0
  6
Continuous
 62
     7
370
     0
100
AcDbMText
 10
1.7387909509
 20
0.3094873007
 30
0.0
 40
0.09375
 41
0.0
 71
     1
 72
     1
  1
5
  7
SLDTEXTSTYLE0
 73
     1
 44
1.0
  0
MTEXT
  5
50
330
1F
100
AcDbEntity
  8
0
  6
Continuous
 62
     7
370
     0
100
AcDbMText
 10
3.723800327
 20
0.3126246278
 30
0.0
 40
0.09375
 41
0.0
 71
     1
 72
     1
  1
4
  7
SLDTEXTSTYLE0
 73
     1
 44
1.0
  0
MTEXT
  5
51
330
1F
100
AcDbEntity
  8
0
  6
Continuous
 62
     7
370
     0
100
AcDbMText
 10
5.6324457277
 20
0.3105200602
 30
0.0
 40
0.09375
 41
0.0
 71
     1
 72
     1
  1
3
  7
SLDTEXTSTYLE0
 73
     1
 44
1.0
  0
MTEXT
  5
52
330
1F
100
AcDbEntity
  8
0
  6
Continuous
 62
     7
370
     0
100
AcDbMText
 10
7.6059721724
 20
0.3113400111
 30
0.0
 40
0.09375
 41
0.0
 71
     1
 72
     1
  1
2
  7
SLDTEXTSTYLE0
 73
     1
 44
1.0
  0
MTEXT
  5
53
330
1F
100
AcDbEntity
  8
0
  6
Continuous
 62
     7
370
     0
100
AcDbMText
 10
9.6619921328
 20
0.300272888
 30
0.0
 40
0.09375
 41
0.0
 71
     1
 72
     1
  1
1
  7
SLDTEXTSTYLE0
 73
     1
 44
1.0
  0
MTEXT
  5
54
330
1F
100
AcDbEntity
  8
0
  6
Continuous
 62
     7
370
     0
100
AcDbMText
 10
9.3418313903
 20
0.5941666803
 30
0.0
 40
0.09375
 41
0.0
 71
     1
 72
     1
  1
MAP103075-A1
  7
SLDTEXTSTYLE0
 73
     1
 44
1.0
  0
MTEXT
  5
55
330
1F
100
AcDbEntity
  8
0
  6
Continuous
 62
     7
370
     0
100
AcDbMText
 10
7.9301743649
 20
1.2499730493
 30
0.0
 40
0.0833333333
 41
0.0
 71
     1
 72
     1
  1
MATERIAL:
  7
SLDTEXTSTYLE0
 73
     1
 44
1.0
  0
MTEXT
  5
57
330
1F
100
AcDbEntity
  8
0
  6
Continuous
 62
     7
370
     0
100
AcDbMText
 10
8.9438302275
 20
0.7457341193
 30
0.0
 40
0.0833333333
 41
0.0
 71
     1
 72
     1
  1
PART  NO.
  7
SLDTEXTSTYLE1
 73
     1
 44
1.0
  0
MTEXT
  5
59
330
1F
100
AcDbEntity
  8
0
  6
Continuous
 62
     7
370
     0
100
AcDbMText
 10
6.3927073562
 20
1.1440291591
 30
0.0
 40
0.06
 41
0.0
 71
     1
 72
     1
  1
PROPRIETARY AND CONFIDENTIAL
  7
SLDTEXTSTYLE2
 73
     1
 44
1.0
  0
MTEXT
  5
5A
330
1F
100
AcDbEntity
  8
0
  6
Continuous
 62
     7
370
     0
100
AcDbMText
 10
6.4985660702
 20
1.5406501707
 30
0.0
 40
0.065
 41
0.0
 71
     1
 72
     1
  1
DRAWN
  7
SLDTEXTSTYLE0
 73
     1
 44
1.0
  0
MTEXT
  5
5B
330
1F
100
AcDbEntity
  8
0
  6
Continuous
 62
     7
370
     0
100
AcDbMText
 10
6.4369653776
 20
1.4183941661
 30
0.0
 40
0.065
 41
0.0
 71
     1
 72
     1
  1
ENG APPR.
  7
SLDTEXTSTYLE0
 73
     1
 44
1.0
  0
MTEXT
  5
5C
330
1F
100
AcDbEntity
  8
0
  6
Continuous
 62
     7
370
     0
100
AcDbMText
 10
6.4273055419
 20
1.298296273
 30
0.0
 40
0.065
 41
0.0
 71
     1
 72
     1
  1
MFG APPR.
  7
SLDTEXTSTYLE0
 73
     1
 44
1.0
  0
MTEXT
  5
5D
330
1F
100
AcDbEntity
  8
0
  6
Continuous
 62
     7
370
     0
100
AcDbMText
 10
6.9752663896
 20
1.6608078346
 30
0.0
 40
0.065
 41
0.0
 71
     1
 72
     1
  1
NAME
  7
SLDTEXTSTYLE0
 73
     1
 44
1.0
  0
MTEXT
  5
5E
330
1F
100
AcDbEntity
  8
0
  6
Continuous
 62
     7
370
     0
100
AcDbMText
 10
7.9386050459
 20
1.5661804433
 30
0.0
 40
0.1
 41
0.0
 71
     1
 72
     1
  1
TITLE:
  7
SLDTEXTSTYLE0
 73
     1
 44
1.0
  0
MTEXT
  5
5F
330
1F
100
AcDbEntity
  8
0
  6
Continuous
 62
     7
370
     0
100
AcDbMText
 10
10.0657693915
 20
1.2262994671
 30
0.0
 40
0.0833333333
 41
0.0
 71
     1
 72
     1
  1
SIZE
  7
SLDTEXTSTYLE0
 73
     1
 44
1.0
  0
MTEXT
  5
60
330
1F
100
AcDbEntity
  8
0
  6
Continuous
 62
     7
370
     0
100
AcDbMText
 10
10.1162261111
 20
1.1164461388
 30
0.0
 40
0.1041666667
 41
0.0
 71
     1
 72
     1
  1
A
  7
SLDTEXTSTYLE0
 73
     1
 44
1.0
  0
MTEXT
  5
61
330
1F
100
AcDbEntity
  8
0
  6
Continuous
 62
     7
370
     0
100
AcDbMText
 10
10.335100974
 20
1.2278993505
 30
0.0
 40
0.0833333333
 41
0.0
 71
     1
 72
     1
  1
REV.
  7
SLDTEXTSTYLE0
 73
     1
 44
1.0
  0
MTEXT
  5
62
330
1F
100
AcDbEntity
  8
0
  6
Continuous
 62
     7
370
     0
100
AcDbMText
 10
8.3227727705
 20
0.9309786574
 30
0.0
 40
0.0833333333
 41
0.0
 71
     1
 72
     1
  1
SCALE: 1:1
  7
SLDTEXTSTYLE0
 73
     1
 44
1.0
  0
MTEXT
  5
64
330
1F
100
AcDbEntity
  8
0
  6
Continuous
 62
     7
370
     0
100
AcDbMText
 10
9.6378279873
 20
0.926579063
 30
0.0
 40
0.0833333333
 41
0.0
 71
     1
 72
     1
  1
SHEET 1 OF 1
  7
SLDTEXTSTYLE3
 73
     1
 44
1.0
  0
MTEXT
  5
65
330
1F
100
AcDbEntity
  8
0
  6
Continuous
 62
     7
370
     0
100
AcDbMText
 10
8.0601703453
 20
0.6044052155
 30
0.0
 40
0.1041666667
 41
0.0
 71
     1
 72
     1
  1
13320-E01
  7
SLDTEXTSTYLE0
 73
     1
 44
1.0
  0
INSERT
  5
75
330
1F
100
AcDbEntity
  8
0
  6
Continuous
 62
     7
370
     0
100
AcDbBlockReference
  2
SW_NOTE_0
 10
6.3891646717
 20
0.9312082413
 30
0.0
  0
MTEXT
  5
76
330
1F
100
AcDbEntity
  8
0
  6
Continuous
 62
     7
370
     0
100
AcDbMText
 10
7.9076399399
 20
0.7468305835
 30
0.0
 40
0.0833333333
 41
0.0
 71
     1
 72
     1
  1
DWG.  NO.
  7
SLDTEXTSTYLE1
 73
     1
 44
1.0
  0
MTEXT
  5
77
330
1F
100
AcDbEntity
  8
0
  6
Continuous
 62
     7
370
     0
100
AcDbMText
 10
7.0592138229
 20
1.5434434118
 30
0.0
 40
0.065
 41
0.0
 71
     1
 72
     1
  1
AP
  7
SLDTEXTSTYLE0
 73
     1
 44
1.0
  0
MTEXT
  5
78
330
1F
100
AcDbEntity
  8
0
  6
Continuous
 62
     7
370
     0
100
AcDbMText
 10
7.0628716471
 20
1.4267005168
 30
0.0
 40
0.065
 41
0.0
 71
     1
 72
     1
  1
TO
  7
SLDTEXTSTYLE0
 73
     1
 44
1.0
  0
MTEXT
  5
79
330
1F
100
AcDbEntity
  8
0
  6
Continuous
 62
     7
370
     0
100
AcDbMText
 10
7.0636219211
 20
1.3041261123
 30
0.0
 40
0.065
 41
0.0
 71
     1
 72
     1
  1
TO
  7
SLDTEXTSTYLE0
 73
     1
 44
1.0
  0
MTEXT
  5
7A
330
1F
100
AcDbEntity
  8
0
  6
Continuous
 62
     7
370
     0
100
AcDbMText
 10
7.3775562039
 20
1.5451308061
 30
0.0
 40
0.065
 41
0.0
 71
     1
 72
     1
  1
04/14/06
  7
SLDTEXTSTYLE0
 73
     1
 44
1.0
  0
MTEXT
  5
7B
330
1F
100
AcDbEntity
  8
0
  6
Continuous
 62
     7
370
     0
100
AcDbMText
 10
7.4731545031
 20
1.6582684693
 30
0.0
 40
0.065
 41
0.0
 71
     1
 72
     1
  1
DATE
  7
SLDTEXTSTYLE0
 73
     1
 44
1.0
  0
MTEXT
  5
7C
330
1F
100
AcDbEntity
  8
0
  6
Continuous
 62
     7
370
     0
100
AcDbMText
 10
7.3821011998
 20
1.4184142209
 30
0.0
 40
0.065
 41
0.0
 71
     1
 72
     1
  1
04/14/06
  7
SLDTEXTSTYLE0
 73
     1
 44
1.0
  0
MTEXT
  5
7D
330
1F
100
AcDbEntity
  8
0
  6
Continuous
 62
     7
370
     0
100
AcDbMText
 10
7.3821011998
 20
1.2979456571
 30
0.0
 40
0.065
 41
0.0
 71
     1
 72
     1
  1
04/14/06
  7
SLDTEXTSTYLE0
 73
     1
 44
1.0
  0
MTEXT
  5
7E
330
1F
100
AcDbEntity
  8
0
  6
Continuous
 62
     7
370
     0
100
AcDbMText
 10
7.9182509893
 20
1.8945248266
 30
0.0
 40
0.1875
 41
0.0
 71
     1
 72
     1
  1
THORLABS INC.
  7
SLDTEXTSTYLE0
 73
     1
 44
1.0
  0
INSERT
  5
85
330
1F
100
AcDbEntity
  8
0
  6
Continuous
 62
     7
370
     0
100
AcDbBlockReference
  2
SW_NOTE_1
 10
9.7899715108
 20
1.7786954532
 30
0.0
  0
INSERT
  5
8C
330
1F
100
AcDbEntity
  8
0
  6
Continuous
 62
     7
370
     0
100
AcDbBlockReference
  2
SW_NOTE_2
 10
8.3599807527
 20
1.4119135047
 30
0.0
  0
MTEXT
  5
8D
330
1F
100
AcDbEntity
  8
0
  6
Continuous
 62
     7
370
     0
100
AcDbMText
 10
8.3691642187
 20
1.131481397
 30
0.0
 40
0.1041666667
 41
0.0
 71
     1
 72
     1
  1
SEE TABLE
  7
SLDTEXTSTYLE0
 73
     1
 44
1.0
  0
INSERT
  5
9D
330
1F
100
AcDbEntity
  8
0
  6
Continuous
 62
     7
370
     0
100
AcDbBlockReference
  2
SW_NOTE_3
 10
0.8949463909
 20
2.0091877886
 30
0.0
  0
MTEXT
  5
9E
330
1F
100
AcDbEntity
  8
0
  6
Continuous
 62
     7
370
     0
100
AcDbMText
 10
0.9139544462
 20
2.3155064847
 30
0.0
 40
0.09
 41
0.0
 71
     1
 72
     1
  1
SPECIFICATIONS:
  7
SLDTEXTSTYLE0
 73
     1
 44
1.0
  0
INSERT
  5
A5
330
1F
100
AcDbEntity
  8
0
  6
Continuous
 62
     7
370
     0
100
AcDbBlockReference
  2
SW_NOTE_4
 10
0.5883605893
 20
0.7491982603
 30
0.0
  0
INSERT
  5
C2
330
1F
100
AcDbEntity
  8
0
  6
Continuous
 62
     7
370
     0
100
AcDbBlockReference
  2
SW_TABLEANNOTATION_0
 10
0.3153176366
 20
8.2039576042
 30
0.0
  0
CIRCLE
  5
C3
330
1F
100
AcDbEntity
  8
0
  6
Continuous
 62
     7
370
     0
100
AcDbCircle
 10
2.0524649481
 20
4.0581509644
 30
0.0
 40
0.5899999999999997
  0
CIRCLE
  5
C4
330
1F
100
AcDbEntity
  8
0
  6
Continuous
 62
     7
370
     0
100
AcDbCircle
 10
2.0524649481
 20
4.0581509644
 30
0.0
 40
0.5999999999999989
  0
CIRCLE
  5
C5
330
1F
100
AcDbEntity
  8
0
  6
Continuous
 62
     7
370
     0
100
AcDbCircle
 10
2.0524649481
 20
4.0581509644
 30
0.0
 40
0.515999999999999
  0
CIRCLE
  5
C6
330
1F
100
AcDbEntity
  8
0
  6
Continuous
 62
     7
370
     0
100
AcDbCircle
 10
2.0524649481
 20
4.0581509644
 30
0.0
 40
0.5059999999999989
  0
ARC
  5
C7
330
1F
100
AcDbEntity
  8
0
  6
Continuous
 62
     7
370
     0
100
AcDbCircle
 10
2.0524649481
 20
4.0581509644
 30
0.0
 40
0.5001794919243122
100
AcDbArc
 50
258.5188386027
 51
76.8005176488
  0
SPLINE
  5
C8
330
1F
100
AcDbEntity
  8
0
  6
Continuous
 62
     7
370
     0
100
AcDbSpline
210
0.0
220
0.0
230
1.0
 70
    24
 71
     1
 72
     4
 73
     2
 74
     0
 42
0.00000001
 43
0.00000001
 40
0.0
 40
0.0
 40
1.0
 40
1.0
 10
2.166676966219432
 20
4.545116206583096
 30
0.0
 10
2.167743807228527
 20
4.549992670249772
 30
0.0
  0
SPLINE
  5
C9
330
1F
100
AcDbEntity
  8
0
  6
Continuous
 62
     7
370
     0
100
AcDbSpline
210
0.0
220
0.0
230
1.0
 70
    24
 71
     1
 72
     4
 73
     2
 74
     0
 42
0.00000001
 43
0.00000001
 40
0.0
 40
0.0
 40
1.0
 40
1.0
 10
1.951864678165981
 20
3.563218489549312
 30
0.0
 10
1.952906356965752
 20
3.567979967877641
 30
0.0
  0
ARC
  5
CA
330
1F
100
AcDbEntity
  8
0
  6
Continuous
 62
     7
370
     0
100
AcDbCircle
 10
2.0524649481
 20
4.0581509644
 30
0.0
 40
0.4500000000000002
100
AcDbArc
 50
258.6146519996
 51
76.704704252
  0
LINE
  5
CB
330
1F
100
AcDbEntity
  8
0
  6
Continuous
 62
     7
370
     0
100
AcDbLine
 10
2.1666769662
 20
4.5451162066
 30
0.0
 11
2.1559513751
 21
4.4960899196
 31
0.0
  0
LINE
  5
CC
330
1F
100
AcDbEntity
  8
0
  6
Continuous
 62
     7
370
     0
100
AcDbLine
 10
1.952906357
 20
3.5679799679
 30
0.0
 11
1.9636319526
 21
3.6170061999
 31
0.0
  0
ARC
  5
CD
330
1F
100
AcDbEntity
  8
0
  6
Continuous
 62
     7
370
     0
100
AcDbCircle
 10
2.0524649481
 20
4.0581509644
 30
0.0
 40
0.4500000000000008
100
AcDbArc
 50
78.6146519996
 51
256.704704252
  0
LINE
  5
CE
330
1F
100
AcDbEntity
  8
0
  6
Continuous
 62
     7
370
     0
100
AcDbLine
 10
1.9382529267
 20
3.5711857342
 30
0.0
 11
1.9489785223
 21
3.6202119662
 31
0.0
  0
ARC
  5
CF
330
1F
100
AcDbEntity
  8
0
  6
Continuous
 62
     7
370
     0
100
AcDbCircle
 10
2.0524649481
 20
4.0581509644
 30
0.0
 40
0.5001794919243122
100
AcDbArc
 50
78.5188386027
 51
256.8005176488
  0
LINE
  5
D0
330
1F
100
AcDbEntity
  8
0
  6
Continuous
 62
     7
370
     0
100
AcDbLine
 10
2.1520235405
 20
4.5483219362
 30
0.0
 11
2.1412979494
 21
4.4992957226
 31
0.0
  0
SPLINE
  5
D1
330
1F
100
AcDbEntity
  8
0
  6
Continuous
 62
     7
370
     0
100
AcDbSpline
210
0.0
220
0.0
230
1.0
 70
    24
 71
     1
 72
     4
 73
     2
 74
     0
 42
0.00000001
 43
0.00000001
 40
0.0
 40
0.0
 40
1.0
 40
1.0
 10
2.153262107855688
 20
4.553983424148242
 30
0.0
 10
2.152023540497057
 20
4.5483219362169
 30
0.0
  0
SPLINE
  5
D2
330
1F
100
AcDbEntity
  8
0
  6
Continuous
 62
     7
370
     0
100
AcDbSpline
210
0.0
220
0.0
230
1.0
 70
    24
 71
     1
 72
     4
 73
     2
 74
     0
 42
0.00000001
 43
0.00000001
 40
0.0
 40
0.0
 40
1.0
 40
1.0
 10
1.938252926660096
 20
3.571185734177689
 30
0.0
 10
1.937266517638511
 20
3.566676904597406
 30
0.0
  0
ARC
  5
D3
330
1F
100
AcDbEntity
  8
0
  6
Continuous
 62
     7
370
     0
100
AcDbCircle
 10
2.0524649481
 20
4.0581509644
 30
0.0
 40
0.4500000000000008
100
AcDbArc
 50
256.704704252
 51
258.6146519996
  0
ARC
  5
D4
330
1F
100
AcDbEntity
  8
0
  6
Continuous
 62
     7
370
     0
100
AcDbCircle
 10
2.0524649481
 20
4.0581509644
 30
0.0
 40
0.4499999999999976
100
AcDbArc
 50
76.704704252
 51
78.6146519996
  0
DIMENSION
  5
D5
330
1F
100
AcDbEntity
  8
0
  6
Continuous
 62
     7
370
     0
100
AcDbDimension
  2
*D7
 10
1.918500035
 20
3.4732976477
 30
0.0
 11
2.883863643
 21
5.1993139293
 31
0.0
 70
   163
  1
<>
 71
     1
 42
-1.0
  3
SLDDIMSTYLE0
100
AcDbDiametricDimension
 15
2.1864298612
 25
4.6430042811
 35
0.0
 40
0.0
  0
LINE
  5
E6
330
1F
100
AcDbEntity
  8
0
  6
PHANTOM
 62
     7
370
    30
100
AcDbLine
 10
2.0524649481
 20
4.9200055638
 30
0.0
 11
2.0524649481
 21
3.2863408754
 31
0.0
  0
LINE
  5
E7
330
1F
100
AcDbEntity
  8
0
  6
Continuous
 62
     7
370
    30
100
AcDbLine
 10
2.0524649481
 20
4.9200055638
 30
0.0
 11
1.5824649481
 21
4.9200055638
 31
0.0
  0
SOLID
  5
E8
330
1F
100
AcDbEntity
  8
0
  6
Continuous
 62
     7
370
    30
100
AcDbTrace
 10
1.5824649481
 20
4.9200055638
 30
0.0
 11
1.8224649481
 21
4.8600055638
 31
0.0
 12
1.8224649481
 22
4.9800055638
 32
0.0
 13
1.8224649481
 23
4.9800055638
 33
0.0
  0
LINE
  5
E9
330
1F
100
AcDbEntity
  8
0
  6
Continuous
 62
     7
370
    30
100
AcDbLine
 10
2.0524649481
 20
3.2863408754
 30
0.0
 11
1.5824649481
 21
3.2863408754
 31
0.0
  0
SOLID
  5
EA
330
1F
100
AcDbEntity
  8
0
  6
Continuous
 62
     7
370
    30
100
AcDbTrace
 10
1.5824649481
 20
3.2863408754
 30
0.0
 11
1.8224649481
 21
3.2263408754
 31
0.0
 12
1.8224649481
 22
3.3463408754
 32
0.0
 13
1.8224649481
 23
3.3463408754
 33
0.0
  0
MTEXT
  5
EB
330
1F
100
AcDbEntity
  8
0
  6
Continuous
 62
     7
100
AcDbMText
 10
1.3947373216
 20
5.0358436961
 30
0.0
 40
0.1458333333
 41
0.0
 71
     1
 72
     1
  1
A
  7
SLDTEXTSTYLE0
 73
     1
 44
1.0
  0
MTEXT
  5
EC
330
1F
100
AcDbEntity
  8
0
  6
Continuous
 62
     7
100
AcDbMText
 10
1.3947373216
 20
3.4021790077
 30
0.0
 40
0.1458333333
 41
0.0
 71
     1
 72
     1
  1
A
  7
SLDTEXTSTYLE0
 73
     1
 44
1.0
  0
LINE
  5
ED
330
1F
100
AcDbEntity
  8
0
  6
Continuous
 62
     7
370
     0
100
AcDbLine
 10
6.8416781036
 20
6.9025947858
 30
0.0
 11
6.8416781036
 21
6.8944307047
 31
0.0
  0
LINE
  5
EE
330
1F
100
AcDbEntity
  8
0
  6
Continuous
 62
     7
370
     0
100
AcDbLine
 10
7.2588032989
 20
6.1718703824
 30
0.0
 11
7.2658732175
 21
6.1677876784
 31
0.0
  0
LINE
  5
EF
330
1F
100
AcDbEntity
  8
0
  6
Continuous
 62
     7
370
     0
100
AcDbLine
 10
7.132488387
 20
7.2734326786
 30
0.0
 11
6.9659665525
 21
7.1773016697
 31
0.0
  0
LINE
  5
F0
330
1F
100
AcDbEntity
  8
0
  6
Continuous
 62
     7
370
     0
100
AcDbLine
 10
7.2643022739
 20
7.3495272157
 30
0.0
 11
7.1635424792
 21
7.2913598244
 31
0.0
  0
LINE
  5
F1
330
1F
100
AcDbEntity
  8
0
  6
Continuous
 62
     7
370
     0
100
AcDbLine
 10
8.0056377727
 20
7.7774910898
 30
0.0
 11
7.3059747158
 21
7.3735842044
 31
0.0
  0
LINE
  5
F2
330
1F
100
AcDbEntity
  8
0
  6
Continuous
 62
     7
370
     0
100
AcDbLine
 10
7.6525265176
 20
6.1880411879
 30
0.0
 11
8.6055890123
 21
6.7382324549
 31
0.0
  0
LINE
  5
F3
330
1F
100
AcDbEntity
  8
0
  6
Continuous
 62
     7
370
     0
100
AcDbLine
 10
7.5659177921
 20
6.1380430349
 30
0.0
 11
7.6272622139
 21
6.1734564157
 31
0.0
  0
LINE
  5
F4
330
1F
100
AcDbEntity
  8
0
  6
Continuous
 62
     7
370
     0
100
AcDbLine
 10
7.6272622139
 20
6.1734564157
 30
0.0
 11
7.6525265176
 21
6.1880411879
 31
0.0
  0
LINE
  5
F5
330
1F
100
AcDbEntity
  8
0
  6
Continuous
 62
     7
370
     0
100
AcDbLine
 10
7.1635424792
 20
7.2913598244
 30
0.0
 11
7.132488387
 21
7.2734326786
 31
0.0
  0
LINE
  5
F6
330
1F
100
AcDbEntity
  8
0
  6
Continuous
 62
     7
370
     0
100
AcDbLine
 10
8.7298774612
 20
7.0129393388
 30
0.0
 11
8.7298774612
 21
7.0211034199
 31
0.0
  0
LINE
  5
F7
330
1F
100
AcDbEntity
  8
0
  6
Continuous
 62
     7
370
     0
100
AcDbLine
 10
8.3127522659
 20
7.7436637422
 30
0.0
 11
8.3056823474
 21
7.7477464462
 31
0.0
  0
LINE
  5
F8
330
1F
100
AcDbEntity
  8
0
  6
Continuous
 62
     7
370
     0
100
AcDbLine
 10
7.3059747158
 20
7.3735842044
 30
0.0
 11
7.2639041581
 21
7.3492973884
 31
0.0
  0
LWPOLYLINE
  5
F9
330
1F
100
AcDbEntity
  8
0
  6
Continuous
 62
     7
370
     0
100
AcDbPolyline
 90
       78
 70
   128
 43
0.0
 10
7.6726794317
 20
6.4759462427
 10
7.6669797068
 20
6.5179821036
 10
7.6585640864
 20
6.5609204146
 10
7.6474885752
 20
6.6044754286
 10
7.6338268788
 20
6.6483572939
 10
7.6176699136
 20
6.6922739842
 10
7.5991252016
 20
6.735933241
 10
7.5783161546
 20
6.7790445192
 10
7.5553812536
 20
6.8213209203
 10
7.5304731264
 20
6.8624811019
 10
7.5037575326
 20
6.9022511498
 10
7.47541226
 20
6.9403664008
 10
7.4456259417
 20
6.9765732043
 10
7.4145968009
 20
7.0106306099
 10
7.3825313312
 20
7.0423119712
 10
7.3496429231
 20
7.071406454
 10
7.3161504435
 20
7.0977204393
 10
7.2822767794
 20
7.1210788119
 10
7.2482473543
 20
7.1413261257
 10
7.2142886286
 20
7.1583276381
 10
7.1806265919
 20
7.1719702068
 10
7.1474852595
 20
7.1821630429
 10
7.1150851815
 20
7.1888383146
 10
7.0836419752
 20
7.1919515993
 10
7.0533648898
 20
7.1914821783
 10
7.0244554143
 20
7.1874331758
 10
6.9971059366
 20
7.179831537
 10
6.9714984628
 20
7.1687278498
 10
6.9478034066
 20
7.1541960072
 10
6.9261784546
 20
7.1363327163
 10
6.9067675173
 20
7.1152568543
 10
6.8896997713
 20
7.0911086777
 10
6.8750887996
 20
7.0640488885
 10
6.8630318358
 20
7.0342575652
 10
6.853609117
 20
7.0019329642
 10
6.8468833499
 20
6.9672902003
 10
6.8428992934
 20
6.9305598153
 10
6.8416834606
 20
6.8919862441
 10
6.8432439427
 20
6.8518261872
 10
6.847570355
 20
6.8103469033
 10
6.854633906
 20
6.7678244301
 10
6.8643875888
 20
6.7245417477
 10
6.8767664943
 20
6.6807868952
 10
6.891688243
 20
6.636851054
 10
6.909053533
 20
6.5930266097
 10
6.9287468013
 20
6.5496052069
 10
6.9506369923
 20
6.5068758078
 10
6.9745784305
 20
6.4651227695
 10
7.0004117895
 20
6.4246239517
 10
7.0279651527
 20
6.3856488671
 10
7.0570551568
 20
6.3484568887
 10
7.0874882128
 20
6.3132955229
 10
7.1190617936
 20
6.2803987627
 10
7.1515657824
 20
6.2499855307
 10
7.1847838703
 20
6.222258222
 10
7.2184949966
 20
6.1974013571
 10
7.2524748192
 20
6.1755803545
 10
7.286497208
 20
6.1569404293
 10
7.3203357497
 20
6.1416056271
 10
7.3537652543
 20
6.1296779985
 10
7.386563254
 20
6.1212369199
 10
7.4185114835
 20
6.1163385653
 10
7.4493973326
 20
6.1150155324
 10
7.4790152611
 20
6.1172766258
 10
7.5071681666
 20
6.1231067984
 10
7.5336686961
 20
6.1324672511
 10
7.5583404929
 20
6.1452956919
 10
7.5810193704
 20
6.1615067495
 10
7.6015544043
 20
6.180992542
 10
7.6198089374
 20
6.2036233947
 10
7.6356614888
 20
6.229248703
 10
7.6490065623
 20
6.2576979347
 10
7.6597553488
 20
6.2887817649
 10
7.6678363167
 20
6.3222933357
 10
7.6731956886
 20
6.3580096333
 10
7.6757977987
 20
6.3956929715
 10
7.6756253305
 20
6.4350925739
 10
7.6726794317
 20
6.4759462427
  0
LWPOLYLINE
  5
FA
330
1F
100
AcDbEntity
  8
0
  6
Continuous
 62
     7
370
     0
100
AcDbPolyline
 90
       23
 70
   128
 43
0.0
 10
7.6867642
 20
6.4770173669
 10
7.6897394465
 20
6.4359951289
 10
7.689966205
 20
6.3964105529
 10
7.687443005
 20
6.3585203598
 10
7.6821862103
 20
6.3225702822
 10
7.6742299133
 20
6.2887934701
 10
7.6636257136
 20
6.2574089791
 10
7.6504423836
 20
6.2286203497
 10
7.6347654221
 20
6.2026142872
 10
7.6166965004
 20
6.1795594508
 10
7.5963528022
 20
6.1596053601
 10
7.5738662643
 20
6.142881425
 10
7.5493827205
 20
6.1294961065
 10
7.523060956
 20
6.1195362137
 10
7.4950716775
 20
6.1130663402
 10
7.4655964063
 20
6.1101284457
 10
7.4348263007
 20
6.1107415836
 10
7.4029609168
 20
6.1149017774
 10
7.3702069137
 20
6.1225820466
 10
7.3367767137
 20
6.1337325818
 10
7.3028871246
 20
6.1482810674
 10
7.2687579333
 20
6.166133151
 10
7.2658732175
 20
6.1677876784
  0
LWPOLYLINE
  5
FB
330
1F
100
AcDbEntity
  8
0
  6
Continuous
 62
     7
370
     0
100
AcDbPolyline
 90
       39
 70
   128
 43
0.0
 10
6.8416781036
 20
6.9025947858
 10
6.8419181397
 20
6.9189341517
 10
6.8444413397
 20
6.9568243448
 10
6.8496981344
 20
6.9927744224
 10
6.8576544314
 20
7.0265512345
 10
6.868258631
 20
7.0579357255
 10
6.8814419611
 20
7.0867243549
 10
6.8971189225
 20
7.1127304174
 10
6.9151878443
 20
7.1357852538
 10
6.9355315424
 20
7.1557393445
 10
6.9580180803
 20
7.1724632796
 10
6.9825016241
 20
7.1858485981
 10
7.0088233886
 20
7.1958084909
 10
7.0368126671
 20
7.2022783644
 10
7.0662879384
 20
7.2052162589
 10
7.0970580439
 20
7.204603121
 10
7.1289234279
 20
7.2004429272
 10
7.161677431
 20
7.192762658
 10
7.1951076309
 20
7.1816121228
 10
7.22899722
 20
7.1670636372
 10
7.2631264114
 20
7.1492115536
 10
7.297273864
 20
7.1281716497
 10
7.3312181185
 20
7.1040803772
 10
7.3647390335
 20
7.0770939775
 10
7.397619213
 20
7.0473874675
 10
7.4296454163
 20
7.0151535055
 10
7.4606099413
 20
6.980601141
 10
7.490311971
 20
6.9439544594
 10
7.5185588766
 20
6.9054511285
 10
7.5451674658
 20
6.8653408572
 10
7.5699651719
 20
6.8238837759
 10
7.5927911722
 20
6.7813487497
 10
7.6134974313
 20
6.7380116346
 10
7.6319496612
 20
6.6941534885
 10
7.648028192
 20
6.6500587482
 10
7.6616287484
 20
6.6060133851
 10
7.6726631255
 20
6.5623030501
 10
7.6810597612
 20
6.5192112217
 10
7.6867642
 20
6.4770173669
  0
SPLINE
  5
FC
330
1F
100
AcDbEntity
  8
0
  6
Continuous
 62
     7
370
     0
100
AcDbSpline
210
0.0
220
0.0
230
1.0
 70
     8
 71
     3
 72
     9
 73
     5
 74
     0
 42
0.00000001
 43
0.00000001
 40
0.0
 40
0.0
 40
0.0
 40
0.0
 40
0.4985717529877788
 40
1.0
 40
1.0
 40
1.0
 40
1.0
 10
7.641030942503527
 20
6.182024234639967
 30
0.0
 10
7.642279818594337
 20
6.182693973186755
 30
0.0
 10
7.644784726029075
 20
6.184037287449495
 30
0.0
 10
7.648661966454236
 20
6.186275182729001
 30
0.0
 10
7.65060612432387
 20
6.187397326636
 30
0.0
  0
SPLINE
  5
FD
330
1F
100
AcDbEntity
  8
0
  6
Continuous
 62
     7
370
     0
100
AcDbSpline
210
0.0
220
0.0
230
1.0
 70
     8
 71
     3
 72
    12
 73
     8
 74
     0
 42
0.00000001
 43
0.00000001
 40
0.0
 40
0.0
 40
0.0
 40
0.0
 40
0.2501259521012197
 40
0.4999305869277603
 40
0.7496061849753778
 40
0.8747720361794423
 40
1.0
 40
1.0
 40
1.0
 40
1.0
 10
7.642342475987705
 20
6.183572586319305
 30
0.0
 10
7.641793074666742
 20
6.183164361326019
 30
0.0
 10
7.640694977797784
 20
6.182348435754212
 30
0.0
 10
7.639903042216306
 20
6.18166503689715
 30
0.0
 10
7.639982191626398
 20
6.181564481715522
 30
0.0
 10
7.640453694362133
 20
6.181745333281498
 30
0.0
 10
7.640838494638581
 20
6.181931252147484
 30
0.0
 10
7.641030942503527
 20
6.182024234639967
 30
0.0
  0
ARC
  5
FE
330
1F
100
AcDbEntity
  8
0
  6
Continuous
 62
     7
370
     0
100
AcDbCircle
 10
7.7595458087
 20
6.0219793192
 30
0.0
 40
0.1996221559860695
100
AcDbArc
 50
122.6028697804
 51
125.9533156237
  0
SPLINE
  5
FF
330
1F
100
AcDbEntity
  8
0
  6
Continuous
 62
     7
370
     0
100
AcDbSpline
210
0.0
220
0.0
230
1.0
 70
    24
 71
     1
 72
     4
 73
     2
 74
     0
 42
0.00000001
 43
0.00000001
 40
0.0
 40
0.0
 40
1.0
 40
1.0
 10
7.656888093661149
 20
6.193214232046289
 30
0.0
 10
7.651986799857582
 20
6.190146095923946
 30
0.0
  0
SPLINE
  5
100
330
1F
100
AcDbEntity
  8
0
  6
Continuous
 62
     7
370
     0
100
AcDbSpline
210
0.0
220
0.0
230
1.0
 70
    24
 71
     1
 72
     4
 73
     2
 74
     0
 42
0.00000001
 43
0.00000001
 40
0.0
 40
0.0
 40
1.0
 40
1.0
 10
7.663183684454375
 20
6.19952178409683
 30
0.0
 10
7.656888093661149
 20
6.193214232046289
 30
0.0
  0
ARC
  5
101
330
1F
100
AcDbEntity
  8
0
  6
Continuous
 62
     7
370
     0
100
AcDbCircle
 10
7.9513072056
 20
5.7471417827
 30
0.0
 40
0.5363420821311803
100
AcDbArc
 50
122.4933036087
 51
126.9463449003
  0
SPLINE
  5
102
330
1F
100
AcDbEntity
  8
0
  6
Continuous
 62
     7
370
     0
100
AcDbSpline
210
0.0
220
0.0
230
1.0
 70
     8
 71
     3
 72
    11
 73
     7
 74
     0
 42
0.00000001
 43
0.00000001
 40
0.0
 40
0.0
 40
0.0
 40
0.0
 40
0.250337041321556
 40
0.4998834125503158
 40
0.7493767782609282
 40
1.0
 40
1.0
 40
1.0
 40
1.0
 10
7.685049399906593
 20
6.212254203574752
 30
0.0
 10
7.687351452623608
 20
6.213405520063933
 30
0.0
 10
7.691948287203012
 20
6.215704516698628
 30
0.0
 10
7.695147364458498
 20
6.216443047859249
 30
0.0
 10
7.693707750945868
 20
6.214293415425958
 30
0.0
 10
7.69006579583215
 20
6.211506576934425
 30
0.0
 10
7.688240704349615
 20
6.21011000969642
 30
0.0
  0
SPLINE
  5
103
330
1F
100
AcDbEntity
  8
0
  6
Continuous
 62
     7
370
     0
100
AcDbSpline
210
0.0
220
0.0
230
1.0
 70
    24
 71
     1
 72
     4
 73
     2
 74
     0
 42
0.00000001
 43
0.00000001
 40
0.0
 40
0.0
 40
1.0
 40
1.0
 10
7.670750085858707
 20
6.201310863042933
 30
0.0
 10
7.685049399906593
 20
6.212254203574752
 30
0.0
  0
SPLINE
  5
104
330
1F
100
AcDbEntity
  8
0
  6
Continuous
 62
     7
370
     0
100
AcDbSpline
210
0.0
220
0.0
230
1.0
 70
     8
 71
     3
 72
    12
 73
     8
 74
     0
 42
0.00000001
 43
0.00000001
 40
0.0
 40
0.0
 40
0.0
 40
0.0
 40
0.2496110608187249
 40
0.374988038346721
 40
0.4996476958276724
 40
0.7495041648102213
 40
1.0
 40
1.0
 40
1.0
 40
1.0
 10
7.674395263747004
 20
6.202012446832165
 30
0.0
 10
7.675262876197237
 20
6.202669598974368
 30
0.0
 10
7.676566281141278
 20
6.203656831639026
 30
0.0
 10
7.676972353385338
 20
6.204217269793264
 30
0.0
 10
7.676373667017523
 20
6.204150205433996
 30
0.0
 10
7.674278270860619
 20
6.203189704823092
 30
0.0
 10
7.671927148972307
 20
6.201937676930107
 30
0.0
 10
7.670750085858707
 20
6.201310863042933
 30
0.0
  0
ARC
  5
105
330
1F
100
AcDbEntity
  8
0
  6
Continuous
 62
     7
370
     0
100
AcDbCircle
 10
7.5026931519
 20
6.454824807
 30
0.0
 40
0.3056071083146676
100
AcDbArc
 50
298.9467899124
 51
304.1830996159
  0
SPLINE
  5
106
330
1F
100
AcDbEntity
  8
0
  6
Continuous
 62
     7
370
     0
100
AcDbSpline
210
0.0
220
0.0
230
1.0
 70
    24
 71
     1
 72
     4
 73
     2
 74
     0
 42
0.00000001
 43
0.00000001
 40
0.0
 40
0.0
 40
1.0
 40
1.0
 10
8.304178529593068
 20
7.660784563915646
 30
0.0
 10
8.322228491678526
 20
7.657624909009958
 30
0.0
  0
ARC
  5
107
330
1F
100
AcDbEntity
  8
0
  6
Continuous
 62
     7
370
     0
100
AcDbCircle
 10
8.2886722131
 20
7.6167696452
 30
0.0
 40
0.0466664646075859
100
AcDbArc
 50
70.5928005188
 51
113.6820230126
  0
SPLINE
  5
108
330
1F
100
AcDbEntity
  8
0
  6
Continuous
 62
     7
370
     0
100
AcDbSpline
210
0.0
220
0.0
230
1.0
 70
     8
 71
     3
 72
    13
 73
     9
 74
     0
 42
0.00000001
 43
0.00000001
 40
0.0
 40
0.0
 40
0.0
 40
0.0
 40
0.2505394783769643
 40
0.4996876272641233
 40
0.6251017812202111
 40
0.7498743002533134
 40
0.8749192415307023
 40
1.0
 40
1.0
 40
1.0
 40
1.0
 10
8.276002853020387
 20
7.63276516638398
 30
0.0
 10
8.273442727070613
 20
7.634860940204958
 30
0.0
 10
8.268336692406425
 20
7.639040849314176
 30
0.0
 10
8.263876930204429
 20
7.645090894237091
 30
0.0
 10
8.263063492732474
 20
7.650121207878041
 30
0.0
 10
8.263978182329206
 20
7.65372420413849
 30
0.0
 10
8.266180579371108
 20
7.657008908344629
 30
0.0
 10
8.26867883348306
 20
7.65867373293489
 30
0.0
 10
8.269928139409995
 20
7.659506264428772
 30
0.0
  0
ARC
  5
109
330
1F
100
AcDbEntity
  8
0
  6
Continuous
 62
     7
370
     0
100
AcDbCircle
 10
8.3022440364
 20
7.6591256899
 30
0.0
 40
0.0371951193054692
100
AcDbArc
 50
225.1299895943
 51
292.5480904863
  0
SPLINE
  5
10A
330
1F
100
AcDbEntity
  8
0
  6
Continuous
 62
     7
370
     0
100
AcDbSpline
210
0.0
220
0.0
230
1.0
 70
    24
 71
     1
 72
     4
 73
     2
 74
     0
 42
0.00000001
 43
0.00000001
 40
0.0
 40
0.0
 40
1.0
 40
1.0
 10
8.302365625028221
 20
7.638393814621558
 30
0.0
 10
8.31650683008468
 20
7.624773839610834
 30
0.0
  0
ARC
  5
10B
330
1F
100
AcDbEntity
  8
0
  6
Continuous
 62
     7
370
     0
100
AcDbCircle
 10
8.29512189
 20
7.6515679473
 30
0.0
 40
0.0150342764387604
100
AcDbArc
 50
234.4792530669
 51
298.8039886594
  0
SPLINE
  5
10C
330
1F
100
AcDbEntity
  8
0
  6
Continuous
 62
     7
370
     0
100
AcDbSpline
210
0.0
220
0.0
230
1.0
 70
     8
 71
     3
 72
    12
 73
     8
 74
     0
 42
0.00000001
 43
0.00000001
 40
0.0
 40
0.0
 40
0.0
 40
0.0
 40
0.2494023648056269
 40
0.4991486310883251
 40
0.7488658669771285
 40
0.8743546734024641
 40
1.0
 40
1.0
 40
1.0
 40
1.0
 10
8.286019652302201
 20
7.648150959699644
 30
0.0
 10
8.285258685786165
 20
7.647579718929107
 30
0.0
 10
8.283735703455664
 20
7.646436449702858
 30
0.0
 10
8.2832531287871
 20
7.643972245582672
 30
0.0
 10
8.28394851424982
 20
7.641893075727949
 30
0.0
 10
8.285178699655305
 20
7.640362254975278
 30
0.0
 10
8.285984072424736
 20
7.639675208802253
 30
0.0
 10
8.286387009785063
 20
7.639331471613852
 30
0.0
  0
ARC
  5
10D
330
1F
100
AcDbEntity
  8
0
  6
Continuous
 62
     7
370
     0
100
AcDbCircle
 10
8.2966322012
 20
7.6182882241
 30
0.0
 40
0.0316924150600381
100
AcDbArc
 50
65.9251125673
 51
109.5640761926
  0
ARC
  5
10E
330
1F
100
AcDbEntity
  8
0
  6
Continuous
 62
     7
370
     0
100
AcDbCircle
 10
8.3342178336
 20
7.7166995112
 30
0.0
 40
0.0737214814737425
100
AcDbArc
 50
250.4599260094
 51
288.2308303321
  0
ARC
  5
10F
330
1F
100
AcDbEntity
  8
0
  6
Continuous
 62
     7
370
     0
100
AcDbCircle
 10
7.8835894793
 20
7.0973702225
 30
0.0
 40
0.7253437822712308
100
AcDbArc
 50
49.2274112621
 51
53.9192720269
  0
LINE
  5
110
330
1F
100
AcDbEntity
  8
0
  6
Continuous
 62
     7
370
     0
100
AcDbLine
 10
8.2978942726
 20
7.6761558595
 30
0.0
 11
8.3107622386
 21
7.6835843781
 31
0.0
  0
ARC
  5
111
330
1F
100
AcDbEntity
  8
0
  6
Continuous
 62
     7
370
     0
100
AcDbCircle
 10
7.884541615
 20
7.1081121803
 30
0.0
 40
0.7025197798199252
100
AcDbArc
 50
51.4626790151
 51
53.9574573549
  0
LINE
  5
112
330
1F
100
AcDbEntity
  8
0
  6
Continuous
 62
     7
370
     0
100
AcDbLine
 10
8.2160633815
 20
7.6912715783
 30
0.0
 11
8.2286558513
 21
7.6985410564
 31
0.0
  0
ARC
  5
113
330
1F
100
AcDbEntity
  8
0
  6
Continuous
 62
     7
370
     0
100
AcDbCircle
 10
7.902761381
 20
7.1601695034
 30
0.0
 40
0.6166259461762045
100
AcDbArc
 50
54.7911606229
 51
59.4632543764
  0
LINE
  5
114
330
1F
100
AcDbEntity
  8
0
  6
Continuous
 62
     7
370
     0
100
AcDbLine
 10
8.2708747045
 20
7.6712568852
 30
0.0
 11
8.2582822347
 21
7.6639874071
 31
0.0
  0
ARC
  5
115
330
1F
100
AcDbEntity
  8
0
  6
Continuous
 62
     7
370
     0
100
AcDbCircle
 10
7.9153538508
 20
7.1674389815
 30
0.0
 40
0.6166259461758651
100
AcDbArc
 50
54.7911606229
 51
59.4632543764
  0
ARC
  5
116
330
1F
100
AcDbEntity
  8
0
  6
Continuous
 62
     7
370
     0
100
AcDbCircle
 10
8.1612701159
 20
7.6983246225
 30
0.0
 40
0.0608979967785366
100
AcDbArc
 50
74.622726554
 51
126.6365431157
  0
SPLINE
  5
117
330
1F
100
AcDbEntity
  8
0
  6
Continuous
 62
     7
370
     0
100
AcDbSpline
210
0.0
220
0.0
230
1.0
 70
    24
 71
     1
 72
     4
 73
     2
 74
     0
 42
0.00000001
 43
0.00000001
 40
0.0
 40
0.0
 40
1.0
 40
1.0
 10
8.113232433251966
 20
7.739091098036861
 30
0.0
 10
8.12493004082936
 20
7.747191430886613
 30
0.0
  0
SPLINE
  5
118
330
1F
100
AcDbEntity
  8
0
  6
Continuous
 62
     7
370
     0
100
AcDbSpline
210
0.0
220
0.0
230
1.0
 70
     8
 71
     3
 72
    12
 73
     8
 74
     0
 42
0.00000001
 43
0.00000001
 40
0.0
 40
0.0
 40
0.0
 40
0.0
 40
0.2503262674180358
 40
0.499734504600646
 40
0.6249000363599372
 40
0.7501600021982568
 40
1.0
 40
1.0
 40
1.0
 40
1.0
 10
8.118274937239432
 20
7.723288842049383
 30
0.0
 10
8.115996765054291
 20
7.724169926159821
 30
0.0
 10
8.111448775504172
 20
7.725928863150263
 30
0.0
 10
8.10836931928812
 20
7.72916306228669
 30
0.0
 10
8.108181164935267
 20
7.732128407032135
 30
0.0
 10
8.109132704243434
 20
7.735228402917667
 30
0.0
 10
8.111593433748531
 20
7.737546860510649
 30
0.0
 10
8.113232433251968
 20
7.739091098036861
 30
0.0
  0
ARC
  5
119
330
1F
100
AcDbEntity
  8
0
  6
Continuous
 62
     7
370
     0
100
AcDbCircle
 10
8.1366685395
 20
7.7798275586
 30
0.0
 40
0.0594554545528662
100
AcDbArc
 50
251.9788656402
 51
304.9001077535
  0
SPLINE
  5
11A
330
1F
100
AcDbEntity
  8
0
  6
Continuous
 62
     7
370
     0
100
AcDbSpline
210
0.0
220
0.0
230
1.0
 70
     8
 71
     3
 72
     9
 73
     5
 74
     0
 42
0.00000001
 43
0.00000001
 40
0.0
 40
0.0
 40
0.0
 40
0.0
 40
0.4987092906772007
 40
1.0
 40
1.0
 40
1.0
 40
1.0
 10
8.18699368503946
 20
7.744744397337982
 30
0.0
 10
8.18506536764942
 20
7.742283914204505
 30
0.0
 10
8.181198751514355
 20
7.737350211986652
 30
0.0
 10
8.174196158808147
 20
7.733163753016066
 30
0.0
 10
8.170685824143352
 20
7.731065120029149
 30
0.0
  0
SPLINE
  5
11B
330
1F
100
AcDbEntity
  8
0
  6
Continuous
 62
     7
370
     0
100
AcDbSpline
210
0.0
220
0.0
230
1.0
 70
     8
 71
     3
 72
    11
 73
     7
 74
     0
 42
0.00000001
 43
0.00000001
 40
0.0
 40
0.0
 40
0.0
 40
0.0
 40
0.2504031889031627
 40
0.5003824607867515
 40
0.7500984159891415
 40
1.0
 40
1.0
 40
1.0
 40
1.0
 10
8.177418662090874
 20
7.757042511356459
 30
0.0
 10
8.179151867387652
 20
7.756359142710218
 30
0.0
 10
8.182615343772477
 20
7.754993562318336
 30
0.0
 10
8.186458829721495
 20
7.752170200178028
 30
0.0
 10
8.188140458732333
 20
7.748609764257855
 30
0.0
 10
8.187376037608555
 20
7.746033172081852
 30
0.0
 10
8.18699368503946
 20
7.744744397337982
 30
0.0
  0
LINE
  5
11C
330
1F
100
AcDbEntity
  8
0
  6
Continuous
 62
     7
370
     0
100
AcDbLine
 10
8.0365581114
 20
7.7647509438
 30
0.0
 11
8.0575532137
 21
7.7768711584
 31
0.0
  0
ARC
  5
11D
330
1F
100
AcDbEntity
  8
0
  6
Continuous
 62
     7
370
     0
100
AcDbCircle
 10
8.0176132131
 20
7.7937365101
 30
0.0
 40
0.0346276222829437
100
AcDbArc
 50
277.7932851048
 51
303.1685367462
  0
SPLINE
  5
11E
330
1F
100
AcDbEntity
  8
0
  6
Continuous
 62
     7
370
     0
100
AcDbSpline
210
0.0
220
0.0
230
1.0
 70
     8
 71
     3
 72
    11
 73
     7
 74
     0
 42
0.00000001
 43
0.00000001
 40
0.0
 40
0.0
 40
0.0
 40
0.0
 40
0.2494767937914359
 40
0.5035301869255457
 40
0.7522417858423499
 40
1.0
 40
1.0
 40
1.0
 40
1.0
 10
8.021688548522594
 20
7.761155411212269
 30
0.0
 10
8.021381982712509
 20
7.760891396598895
 30
0.0
 10
8.02076322720699
 20
7.760358524079559
 30
0.0
 10
8.020603220392932
 20
7.75977310938106
 30
0.0
 10
8.021080084869363
 20
7.759421912989795
 30
0.0
 10
8.021899686213622
 20
7.759426452303486
 30
0.0
 10
8.022308699934149
 20
7.759428717601845
 30
0.0
  0
SPLINE
  5
11F
330
1F
100
AcDbEntity
  8
0
  6
Continuous
 62
     7
370
     0
100
AcDbSpline
210
0.0
220
0.0
230
1.0
 70
    24
 71
     1
 72
     4
 73
     2
 74
     0
 42
0.00000001
 43
0.00000001
 40
0.0
 40
0.0
 40
1.0
 40
1.0
 10
8.025103268930934
 20
7.763262821590127
 30
0.0
 10
8.021688548522594
 20
7.761155411212269
 30
0.0
  0
LINE
  5
120
330
1F
100
AcDbEntity
  8
0
  6
Continuous
 62
     7
370
     0
100
AcDbLine
 10
8.0477628271
 20
7.7763439061
 30
0.0
 11
8.0251032689
 21
7.7632628216
 31
0.0
  0
ARC
  5
121
330
1F
100
AcDbEntity
  8
0
  6
Continuous
 62
     7
370
     0
100
AcDbCircle
 10
8.0652715362
 20
7.5380836089
 30
0.0
 40
0.2389027503428278
100
AcDbArc
 50
94.2028622118
 51
97.4872056499
  0
LINE
  5
122
330
1F
100
AcDbEntity
  8
0
  6
Continuous
 62
     7
370
     0
100
AcDbLine
 10
8.0129052006
 20
7.7626900954
 30
0.0
 11
8.0341413621
 21
7.7749494705
 31
0.0
  0
ARC
  5
123
330
1F
100
AcDbEntity
  8
0
  6
Continuous
 62
     7
370
     0
100
AcDbCircle
 10
7.9901579796
 20
7.7984728367
 30
0.0
 40
0.0424009509276723
100
AcDbArc
 50
282.2624639916
 51
302.4442713019
  0
SPLINE
  5
124
330
1F
100
AcDbEntity
  8
0
  6
Continuous
 62
     7
370
     0
100
AcDbSpline
210
0.0
220
0.0
230
1.0
 70
     8
 71
     3
 72
    10
 73
     6
 74
     0
 42
0.00000001
 43
0.00000001
 40
0.0
 40
0.0
 40
0.0
 40
0.0
 40
0.4988594542991517
 40
0.7491987595266254
 40
0.9999999999999999
 40
0.9999999999999999
 40
0.9999999999999999
 40
0.9999999999999999
 10
7.997964230588245
 20
7.757729390199072
 30
0.0
 10
7.99782554857032
 20
7.757468209979454
 30
0.0
 10
7.997617272682387
 20
7.757075963436133
 30
0.0
 10
7.998259437412988
 20
7.756932180030732
 30
0.0
 10
7.998861979497955
 20
7.757003549141802
 30
0.0
 10
7.999163528242402
 20
7.757039266590213
 30
0.0
  0
SPLINE
  5
125
330
1F
100
AcDbEntity
  8
0
  6
Continuous
 62
     7
370
     0
100
AcDbSpline
210
0.0
220
0.0
230
1.0
 70
     8
 71
     3
 72
     9
 73
     5
 74
     0
 42
0.00000001
 43
0.00000001
 40
0.0
 40
0.0
 40
0.0
 40
0.0
 40
0.5015784057012799
 40
1.0
 40
1.0
 40
1.0
 40
1.0
 10
8.001203120942236
 20
7.759965605351078
 30
0.0
 10
8.000479638582682
 20
7.759543030430514
 30
0.0
 10
7.999037227284006
 20
7.75870054017224
 30
0.0
 10
7.998321142638774
 20
7.758052424864198
 30
0.0
 10
7.997964230588245
 20
7.757729390199072
 30
0.0
  0
LINE
  5
126
330
1F
100
AcDbEntity
  8
0
  6
Continuous
 62
     7
370
     0
100
AcDbLine
 10
8.0246432516
 20
7.7734973047
 30
0.0
 11
8.0012031209
 21
7.7599656054
 31
0.0
  0
ARC
  5
127
330
1F
100
AcDbEntity
  8
0
  6
Continuous
 62
     7
370
     0
100
AcDbCircle
 10
8.0627139906
 20
7.5550493619
 30
0.0
 40
0.2217405801602151
100
AcDbArc
 50
99.8861196972
 51
103.337830796
  0
LINE
  5
128
330
1F
100
AcDbEntity
  8
0
  6
Continuous
 62
     7
370
     0
100
AcDbLine
 10
7.9857209144
 20
7.7558922039
 30
0.0
 11
8.0115601573
 21
7.7708088814
 31
0.0
  0
SPLINE
  5
129
330
1F
100
AcDbEntity
  8
0
  6
Continuous
 62
     7
370
     0
100
AcDbSpline
210
0.0
220
0.0
230
1.0
 70
     8
 71
     3
 72
    13
 73
     9
 74
     0
 42
0.00000001
 43
0.00000001
 40
0.0
 40
0.0
 40
0.0
 40
0.0
 40
0.2493026324881247
 40
0.3767800005038267
 40
0.4994269650592707
 40
0.6183515801728661
 40
0.7497380290332015
 40
0.9999999999999999
 40
0.9999999999999999
 40
0.9999999999999999
 40
0.9999999999999999
 10
7.981112410247234
 20
7.748950753899801
 30
0.0
 10
7.979556825314835
 20
7.748720076265759
 30
0.0
 10
7.977205814072943
 20
7.748371444892703
 30
0.0
 10
7.97619621184098
 20
7.748883519170612
 30
0.0
 10
7.976474618264816
 20
7.749691504603259
 30
0.0
 10
7.977838132099355
 20
7.750925442846324
 30
0.0
 10
7.980730430215942
 20
7.752948172370482
 30
0.0
 10
7.983744481612067
 20
7.754726248833836
 30
0.0
 10
7.985720914380559
 20
7.755892203930546
 30
0.0
  0
ARC
  5
12A
330
1F
100
AcDbEntity
  8
0
  6
Continuous
 62
     7
370
     0
100
AcDbCircle
 10
7.9636682798
 20
7.8394836192
 30
0.0
 40
0.092198141948096
100
AcDbArc
 50
280.90625394
 51
293.315395257
  0
SPLINE
  5
12B
330
1F
100
AcDbEntity
  8
0
  6
Continuous
 62
     7
370
     0
100
AcDbSpline
210
0.0
220
0.0
230
1.0
 70
     8
 71
     3
 72
    12
 73
     8
 74
     0
 42
0.00000001
 43
0.00000001
 40
0.0
 40
0.0
 40
0.0
 40
0.0
 40
0.2503253654036774
 40
0.4999978777420909
 40
0.7494826629082508
 40
0.8746982187917918
 40
1.0
 40
1.0
 40
1.0
 40
1.0
 10
8.003974627303315
 20
7.751924378436639
 30
0.0
 10
8.002925390144847
 20
7.751858496117684
 30
0.0
 10
8.000829652257334
 20
7.751726903302051
 30
0.0
 10
7.998783435149149
 20
7.752054246498992
 30
0.0
 10
7.998664810136131
 20
7.752978822236482
 30
0.0
 10
7.999313142678377
 20
7.753963428651961
 30
0.0
 10
7.999877377478319
 20
7.754530658742446
 30
0.0
 10
8.000159591980012
 20
7.754814371404882
 30
0.0
  0
ARC
  5
12C
330
1F
100
AcDbEntity
  8
0
  6
Continuous
 62
     7
370
     0
100
AcDbCircle
 10
7.997237564
 20
7.8221883609
 30
0.0
 40
0.0705862256949985
100
AcDbArc
 50
275.476901035
 51
291.729340877
  0
LINE
  5
12D
330
1F
100
AcDbEntity
  8
0
  6
Continuous
 62
     7
370
     0
100
AcDbLine
 10
8.0173666536
 20
7.7531520148
 30
0.0
 11
8.0233701738
 21
7.7566177733
 31
0.0
  0
ARC
  5
12E
330
1F
100
AcDbEntity
  8
0
  6
Continuous
 62
     7
370
     0
100
AcDbCircle
 10
8.0252880417
 20
7.4917295239
 30
0.0
 40
0.2615424767993185
100
AcDbArc
 50
88.8547270084
 51
91.7355938894
  0
LINE
  5
12F
330
1F
100
AcDbEntity
  8
0
  6
Continuous
 62
     7
370
     0
100
AcDbLine
 10
8.071656368
 20
7.7769698067
 30
0.0
 11
8.0305156098
 21
7.7532197526
 31
0.0
  0
ARC
  5
130
330
1F
100
AcDbEntity
  8
0
  6
Continuous
 62
     7
370
     0
100
AcDbCircle
 10
8.0664300722
 20
7.5159710779
 30
0.0
 40
0.261051049893077
100
AcDbArc
 50
88.8528500583
 51
91.948678603
  0
SPLINE
  5
131
330
1F
100
AcDbEntity
  8
0
  6
Continuous
 62
     7
370
     0
100
AcDbSpline
210
0.0
220
0.0
230
1.0
 70
    24
 71
     1
 72
     4
 73
     2
 74
     0
 42
0.00000001
 43
0.00000001
 40
0.0
 40
0.0
 40
1.0
 40
1.0
 10
7.810974216794426
 20
7.163118485290046
 30
0.0
 10
7.818595085512484
 20
7.155142357506256
 30
0.0
  0
SPLINE
  5
132
330
1F
100
AcDbEntity
  8
0
  6
Continuous
 62
     7
370
     0
100
AcDbSpline
210
0.0
220
0.0
230
1.0
 70
    24
 71
     1
 72
     4
 73
     2
 74
     0
 42
0.00000001
 43
0.00000001
 40
0.0
 40
0.0
 40
1.0
 40
1.0
 10
7.803257348158292
 20
7.169109075805429
 30
0.0
 10
7.810974216794426
 20
7.163118485290046
 30
0.0
  0
ARC
  5
133
330
1F
100
AcDbEntity
  8
0
  6
Continuous
 62
     7
370
     0
100
AcDbCircle
 10
7.7928892542
 20
7.1498560034
 30
0.0
 40
0.021867285334847
100
AcDbArc
 50
61.6968103692
 51
117.0308041014
  0
SPLINE
  5
134
330
1F
100
AcDbEntity
  8
0
  6
Continuous
 62
     7
370
     0
100
AcDbSpline
210
0.0
220
0.0
230
1.0
 70
     8
 71
     3
 72
    12
 73
     8
 74
     0
 42
0.00000001
 43
0.00000001
 40
0.0
 40
0.0
 40
0.0
 40
0.0
 40
0.2503069612221178
 40
0.4997018012107229
 40
0.6227631426875163
 40
0.750132306114313
 40
1.0
 40
1.0
 40
1.0
 40
1.0
 10
7.779389064601427
 20
7.148719772796928
 30
0.0
 10
7.778441772793105
 20
7.150702659775418
 30
0.0
 10
7.776550641117905
 20
7.154661208071125
 30
0.0
 10
7.776025863103942
 20
7.159774390834265
 30
0.0
 10
7.777088064609273
 20
7.163374465275246
 30
0.0
 10
7.778976164695954
 20
7.166586662026201
 30
0.0
 10
7.781367385036718
 20
7.168239667605877
 30
0.0
 10
7.782951240645037
 20
7.16933455715383
 30
0.0
  0
ARC
  5
135
330
1F
100
AcDbEntity
  8
0
  6
Continuous
 62
     7
370
     0
100
AcDbCircle
 10
7.7642657541
 20
7.1282175616
 30
0.0
 40
0.0254765614843262
100
AcDbArc
 50
53.5859226386
 51
76.500949836
  0
SPLINE
  5
136
330
1F
100
AcDbEntity
  8
0
  6
Continuous
 62
     7
370
     0
100
AcDbSpline
210
0.0
220
0.0
230
1.0
 70
     8
 71
     3
 72
     9
 73
     5
 74
     0
 42
0.00000001
 43
0.00000001
 40
0.0
 40
0.0
 40
0.0
 40
0.0
 40
0.5001654445837102
 40
1.0
 40
1.0
 40
1.0
 40
1.0
 10
7.75879315499256
 20
7.151282240959741
 30
0.0
 10
7.76048536005793
 20
7.152077429255886
 30
0.0
 10
7.76386865069445
 20
7.153667279783859
 30
0.0
 10
7.768098502479907
 20
7.153215911647931
 30
0.0
 10
7.770212728566569
 20
7.152990302256379
 30
0.0
  0
SPLINE
  5
137
330
1F
100
AcDbEntity
  8
0
  6
Continuous
 62
     7
370
     0
100
AcDbSpline
210
0.0
220
0.0
230
1.0
 70
     8
 71
     3
 72
    14
 73
    10
 74
     0
 42
0.00000001
 43
0.00000001
 40
0.0
 40
0.0
 40
0.0
 40
0.0
 40
0.2499004290087898
 40
0.380097603165906
 40
0.4999571058491917
 40
0.625721676830813
 40
0.7499966555366329
 40
0.8749516763669944
 40
1.0
 40
1.0
 40
1.0
 40
1.0
 10
7.759578026978824
 20
7.125108302283907
 30
0.0
 10
7.757873065374754
 20
7.127397690683111
 30
0.0
 10
7.755279825252007
 20
7.130879841741052
 30
0.0
 10
7.753219755006458
 20
7.135859796114744
 30
0.0
 10
7.752477896589128
 20
7.139626139251661
 30
0.0
 10
7.752678907224167
 20
7.143201166789555
 30
0.0
 10
7.753809296706089
 20
7.146492618517222
 30
0.0
 10
7.755830823344487
 20
7.149306445804249
 30
0.0
 10
7.757805465460298
 20
7.150623478732951
 30
0.0
 10
7.75879315499256
 20
7.151282240959741
 30
0.0
  0
ARC
  5
138
330
1F
100
AcDbEntity
  8
0
  6
Continuous
 62
     7
370
     0
100
AcDbCircle
 10
6.9924713631
 20
6.5050872845
 30
0.0
 40
0.9863461341300578
100
AcDbArc
 50
36.2950261269
 51
38.9471950933
  0
LINE
  5
139
330
1F
100
AcDbEntity
  8
0
  6
Continuous
 62
     7
370
     0
100
AcDbLine
 10
7.8442444195
 20
7.1217370431
 30
0.0
 11
7.7874462969
 21
7.0889481848
 31
0.0
  0
ARC
  5
13A
330
1F
100
AcDbEntity
  8
0
  6
Continuous
 62
     7
370
     0
100
AcDbCircle
 10
7.0481615548
 20
6.537036856
 30
0.0
 40
0.9877359142516935
100
AcDbArc
 50
36.2962219937
 51
38.739469311
  0
ARC
  5
13B
330
1F
100
AcDbEntity
  8
0
  6
Continuous
 62
     7
370
     0
100
AcDbCircle
 10
7.1683397164
 20
6.6591211554
 30
0.0
 40
0.7903655435988007
100
AcDbArc
 50
48.3690622803
 51
48.5140821572
  0
ARC
  5
13C
330
1F
100
AcDbEntity
  8
0
  6
Continuous
 62
     7
370
     0
100
AcDbCircle
 10
7.6974615697
 20
7.2579013148
 30
0.0
 40
0.0087055788357659
100
AcDbArc
 50
195.2037101946
 51
230.3473727191
  0
SPLINE
  5
13D
330
1F
100
AcDbEntity
  8
0
  6
Continuous
 62
     7
370
     0
100
AcDbSpline
210
0.0
220
0.0
230
1.0
 70
    24
 71
     1
 72
     4
 73
     2
 74
     0
 42
0.00000001
 43
0.00000001
 40
0.0
 40
0.0
 40
1.0
 40
1.0
 10
7.690350202066303
 20
7.260817375280474
 30
0.0
 10
7.689060690340137
 20
7.255618262255521
 30
0.0
  0
SPLINE
  5
13E
330
1F
100
AcDbEntity
  8
0
  6
Continuous
 62
     7
370
     0
100
AcDbSpline
210
0.0
220
0.0
230
1.0
 70
    24
 71
     1
 72
     4
 73
     2
 74
     0
 42
0.00000001
 43
0.00000001
 40
0.0
 40
0.0
 40
1.0
 40
1.0
 10
7.698588929957126
 20
7.278578492034601
 30
0.0
 10
7.690350202066303
 20
7.260817375280474
 30
0.0
  0
ARC
  5
13F
330
1F
100
AcDbEntity
  8
0
  6
Continuous
 62
     7
370
     0
100
AcDbCircle
 10
7.2267052081
 20
6.714073192
 30
0.0
 40
0.7357584390743682
100
AcDbArc
 50
50.1069283404
 51
52.0539049773
  0
SPLINE
  5
140
330
1F
100
AcDbEntity
  8
0
  6
Continuous
 62
     7
370
     0
100
AcDbSpline
210
0.0
220
0.0
230
1.0
 70
    24
 71
     1
 72
     4
 73
     2
 74
     0
 42
0.00000001
 43
0.00000001
 40
0.0
 40
0.0
 40
1.0
 40
1.0
 10
7.671017395014624
 20
7.278180881643666
 30
0.0
 10
7.679137660367997
 20
7.294284667975825
 30
0.0
  0
SPLINE
  5
141
330
1F
100
AcDbEntity
  8
0
  6
Continuous
 62
     7
370
     0
100
AcDbSpline
210
0.0
220
0.0
230
1.0
 70
    24
 71
     1
 72
     4
 73
     2
 74
     0
 42
0.00000001
 43
0.00000001
 40
0.0
 40
0.0
 40
1.0
 40
1.0
 10
7.66967304666092
 20
7.270236069878905
 30
0.0
 10
7.671017395014624
 20
7.278180881643666
 30
0.0
  0
SPLINE
  5
142
330
1F
100
AcDbEntity
  8
0
  6
Continuous
 62
     7
370
     0
100
AcDbSpline
210
0.0
220
0.0
230
1.0
 70
    24
 71
     1
 72
     4
 73
     2
 74
     0
 42
0.00000001
 43
0.00000001
 40
0.0
 40
0.0
 40
1.0
 40
1.0
 10
7.672039526068671
 20
7.265338764038641
 30
0.0
 10
7.66967304666092
 20
7.270236069878905
 30
0.0
  0
SPLINE
  5
143
330
1F
100
AcDbEntity
  8
0
  6
Continuous
 62
     7
370
     0
100
AcDbSpline
210
0.0
220
0.0
230
1.0
 70
    24
 71
     1
 72
     4
 73
     2
 74
     0
 42
0.00000001
 43
0.00000001
 40
0.0
 40
0.0
 40
1.0
 40
1.0
 10
7.663771456375512
 20
7.269006307921114
 30
0.0
 10
7.672039526068671
 20
7.265338764038641
 30
0.0
  0
ARC
  5
144
330
1F
100
AcDbEntity
  8
0
  6
Continuous
 62
     7
370
     0
100
AcDbCircle
 10
7.6555668117
 20
7.2426503714
 30
0.0
 40
0.0276034705371509
100
AcDbArc
 50
72.708552088
 51
117.9210304323
  0
SPLINE
  5
145
330
1F
100
AcDbEntity
  8
0
  6
Continuous
 62
     7
370
     0
100
AcDbSpline
210
0.0
220
0.0
230
1.0
 70
     8
 71
     3
 72
    14
 73
    10
 74
     0
 42
0.00000001
 43
0.00000001
 40
0.0
 40
0.0
 40
0.0
 40
0.0
 40
0.2503817225610947
 40
0.3755492991302688
 40
0.5004182237809749
 40
0.6251583274697446
 40
0.7499167264449771
 40
0.873641721102324
 40
1.0
 40
1.0
 40
1.0
 40
1.0
 10
7.648387915748131
 20
7.240212688244237
 30
0.0
 10
7.645913467053875
 20
7.242385740675338
 30
0.0
 10
7.642202024128421
 20
7.245645117234962
 30
0.0
 10
7.638084812849602
 20
7.250290388741379
 30
0.0
 10
7.635927128953644
 20
7.254036636089764
 30
0.0
 10
7.635434141007123
 20
7.25788690129063
 30
0.0
 10
7.636490148660798
 20
7.261476325618852
 30
0.0
 10
7.63892200508904
 20
7.264638490217964
 30
0.0
 10
7.641392910117404
 20
7.266234313778619
 30
0.0
 10
7.64264137148895
 20
7.267040627274448
 30
0.0
  0
ARC
  5
146
330
1F
100
AcDbEntity
  8
0
  6
Continuous
 62
     7
370
     0
100
AcDbCircle
 10
7.1299425582
 20
6.6342597996
 30
0.0
 40
0.7974738190377818
100
AcDbArc
 50
46.7294017331
 51
49.4501368857
  0
LINE
  5
147
330
1F
100
AcDbEntity
  8
0
  6
Continuous
 62
     7
370
     0
100
AcDbLine
 10
7.7333649639
 20
7.2477089589
 30
0.0
 11
7.6765668413
 21
7.2149201006
 31
0.0
  0
ARC
  5
148
330
1F
100
AcDbEntity
  8
0
  6
Continuous
 62
     7
370
     0
100
AcDbCircle
 10
7.1791577537
 20
6.6587849548
 30
0.0
 40
0.8086885150726201
100
AcDbArc
 50
46.7395330782
 51
48.3634400679
  0
LINE
  5
149
330
1F
100
AcDbEntity
  8
0
  6
Continuous
 62
     7
370
     0
100
AcDbLine
 10
7.6934031795
 20
7.2498715699
 30
0.0
 11
7.7164530239
 21
7.2631779619
 31
0.0
  0
ARC
  5
14A
330
1F
100
AcDbEntity
  8
0
  6
Continuous
 62
     7
370
     0
100
AcDbCircle
 10
7.5541871891
 20
7.312446149
 30
0.0
 40
0.053264987326829
100
AcDbArc
 50
67.0837491364
 51
127.1496385625
  0
SPLINE
  5
14B
330
1F
100
AcDbEntity
  8
0
  6
Continuous
 62
     7
370
     0
100
AcDbSpline
210
0.0
220
0.0
230
1.0
 70
    24
 71
     1
 72
     4
 73
     2
 74
     0
 42
0.00000001
 43
0.00000001
 40
0.0
 40
0.0
 40
1.0
 40
1.0
 10
7.51035620804007
 20
7.346576747591927
 30
0.0
 10
7.522020529655033
 20
7.354901594993476
 30
0.0
  0
SPLINE
  5
14C
330
1F
100
AcDbEntity
  8
0
  6
Continuous
 62
     7
370
     0
100
AcDbSpline
210
0.0
220
0.0
230
1.0
 70
     8
 71
     3
 72
    12
 73
     8
 74
     0
 42
0.00000001
 43
0.00000001
 40
0.0
 40
0.0
 40
0.0
 40
0.0
 40
0.2503262674180351
 40
0.4997345046006488
 40
0.624900036359941
 40
0.7501600021982577
 40
1.0
 40
1.0
 40
1.0
 40
1.0
 10
7.515777693470707
 20
7.327812313634663
 30
0.0
 10
7.51346182624784
 20
7.329028354825835
 30
0.0
 10
7.508838584862601
 20
7.331455977577985
 30
0.0
 10
7.505655928761355
 20
7.335486708888523
 30
0.0
 10
7.505400107818947
 20
7.338948769557818
 30
0.0
 10
7.506292896070769
 20
7.342465797086056
 30
0.0
 10
7.50873176742799
 20
7.344933261931351
 30
0.0
 10
7.51035620804007
 20
7.346576747591927
 30
0.0
  0
ARC
  5
14D
330
1F
100
AcDbEntity
  8
0
  6
Continuous
 62
     7
370
     0
100
AcDbCircle
 10
7.5382512823
 20
7.3749936824
 30
0.0
 40
0.0522603459279454
100
AcDbArc
 50
244.5304481535
 51
305.3261775099
  0
SPLINE
  5
14E
330
1F
100
AcDbEntity
  8
0
  6
Continuous
 62
     7
370
     0
100
AcDbSpline
210
0.0
220
0.0
230
1.0
 70
     8
 71
     3
 72
     9
 73
     5
 74
     0
 42
0.00000001
 43
0.00000001
 40
0.0
 40
0.0
 40
0.0
 40
0.0
 40
0.4987092906772075
 40
1.0
 40
1.0
 40
1.0
 40
1.0
 10
7.5847370402288
 20
7.346624634829569
 30
0.0
 10
7.582821779029798
 20
7.343977511547267
 30
0.0
 10
7.578981342858251
 20
7.33866956294517
 30
0.0
 10
7.571979675946881
 20
7.334464040740261
 30
0.0
 10
7.568469805374439
 20
7.33235585153109
 30
0.0
  0
SPLINE
  5
14F
330
1F
100
AcDbEntity
  8
0
  6
Continuous
 62
     7
370
     0
100
AcDbSpline
210
0.0
220
0.0
230
1.0
 70
     8
 71
     3
 72
    11
 73
     7
 74
     0
 42
0.00000001
 43
0.00000001
 40
0.0
 40
0.0
 40
0.0
 40
0.0
 40
0.2504031889031611
 40
0.5003824607867561
 40
0.750098415989143
 40
1.0
 40
1.0
 40
1.0
 40
1.0
 10
7.574927787434944
 20
7.361507197234174
 30
0.0
 10
7.576687504293819
 20
7.360571479949817
 30
0.0
 10
7.58020395892041
 20
7.358701629492246
 30
0.0
 10
7.584115065065586
 20
7.355144674962941
 30
0.0
 10
7.585850509423182
 20
7.350937994423665
 30
0.0
 10
7.585108288548959
 20
7.348062777448715
 30
0.0
 10
7.5847370402288
 20
7.346624634829569
 30
0.0
  0
LINE
  5
150
330
1F
100
AcDbEntity
  8
0
  6
Continuous
 62
     7
370
     0
100
AcDbLine
 10
7.4453928925
 20
7.3806280094
 30
0.0
 11
7.4576065551
 21
7.3876788067
 31
0.0
  0
ARC
  5
151
330
1F
100
AcDbEntity
  8
0
  6
Continuous
 62
     7
370
     0
100
AcDbCircle
 10
7.379098931
 20
7.0393231538
 30
0.0
 40
0.3476836116194425
100
AcDbArc
 50
75.2971137062
 51
79.0079235578
  0
LINE
  5
152
330
1F
100
AcDbEntity
  8
0
  6
Continuous
 62
     7
370
     0
100
AcDbLine
 10
7.4795570135
 20
7.3826726519
 30
0.0
 11
7.4673433509
 21
7.3756218546
 31
0.0
  0
ARC
  5
153
330
1F
100
AcDbEntity
  8
0
  6
Continuous
 62
     7
370
     0
100
AcDbCircle
 10
7.3913125936
 20
7.0463739511
 30
0.0
 40
0.3476836116209837
100
AcDbArc
 50
75.2971137062
 51
79.0079235578
  0
ARC
  5
154
330
1F
100
AcDbEntity
  8
0
  6
Continuous
 62
     7
370
     0
100
AcDbCircle
 10
7.4181159342
 20
7.279808332
 30
0.0
 40
0.1232724067583056
100
AcDbArc
 50
98.8636466146
 51
123.8842622435
  0
SPLINE
  5
155
330
1F
100
AcDbEntity
  8
0
  6
Continuous
 62
     7
370
     0
100
AcDbSpline
210
0.0
220
0.0
230
1.0
 70
    24
 71
     1
 72
     4
 73
     2
 74
     0
 42
0.00000001
 43
0.00000001
 40
0.0
 40
0.0
 40
1.0
 40
1.0
 10
7.337490519642917
 20
7.374705642694771
 30
0.0
 10
7.349389459009289
 20
7.382144825408078
 30
0.0
  0
SPLINE
  5
156
330
1F
100
AcDbEntity
  8
0
  6
Continuous
 62
     7
370
     0
100
AcDbSpline
210
0.0
220
0.0
230
1.0
 70
     8
 71
     3
 72
    12
 73
     8
 74
     0
 42
0.00000001
 43
0.00000001
 40
0.0
 40
0.0
 40
0.0
 40
0.0
 40
0.250326267418037
 40
0.4997345046006489
 40
0.624900036359943
 40
0.7501600021982614
 40
0.9999999999999999
 40
0.9999999999999999
 40
0.9999999999999999
 40
0.9999999999999999
 10
7.340024902764996
 20
7.367679737936919
 30
0.0
 10
7.338017639726701
 20
7.367563837851117
 30
0.0
 10
7.334010474955734
 20
7.367332462723931
 30
0.0
 10
7.331608634528985
 20
7.368207838018339
 30
0.0
 10
7.331851193616966
 20
7.369705159231053
 30
0.0
 10
7.3331691264741
 20
7.371574354130595
 30
0.0
 10
7.335762902709433
 20
7.373453808636686
 30
0.0
 10
7.337490519642917
 20
7.374705642694771
 30
0.0
  0
ARC
  5
157
330
1F
100
AcDbEntity
  8
0
  6
Continuous
 62
     7
370
     0
100
AcDbCircle
 10
7.3283044984
 20
7.4815004037
 30
0.0
 40
0.1144225145550013
100
AcDbArc
 50
275.8791713916
 51
302.6431117819
  0
SPLINE
  5
158
330
1F
100
AcDbEntity
  8
0
  6
Continuous
 62
     7
370
     0
100
AcDbSpline
210
0.0
220
0.0
230
1.0
 70
     8
 71
     3
 72
     9
 73
     5
 74
     0
 42
0.00000001
 43
0.00000001
 40
0.0
 40
0.0
 40
0.0
 40
0.0
 40
0.4987092906772078
 40
1.0
 40
1.0
 40
1.0
 40
1.0
 10
7.406745848464479
 20
7.397053147325373
 30
0.0
 10
7.404686148563791
 20
7.395155233061274
 30
0.0
 10
7.40055608734538
 20
7.391349580550728
 30
0.0
 10
7.393541079373126
 20
7.387220943132622
 30
0.0
 10
7.390024521050811
 20
7.385151295552762
 30
0.0
  0
SPLINE
  5
159
330
1F
100
AcDbEntity
  8
0
  6
Continuous
 62
     7
370
     0
100
AcDbSpline
210
0.0
220
0.0
230
1.0
 70
     8
 71
     3
 72
    11
 73
     7
 74
     0
 42
0.00000001
 43
0.00000001
 40
0.0
 40
0.0
 40
0.0
 40
0.0
 40
0.2504031889031639
 40
0.5003824607867549
 40
0.7500984159891427
 40
0.9999999999999999
 40
0.9999999999999999
 40
0.9999999999999999
 40
0.9999999999999999
 10
7.39912168929784
 20
7.401608598572212
 30
0.0
 10
7.400655444453641
 20
7.40167800613558
 30
0.0
 10
7.403720358213188
 20
7.401816703759628
 30
0.0
 10
7.407007300831459
 20
7.401190081360291
 30
0.0
 10
7.408212819988694
 20
7.399569921179374
 30
0.0
 10
7.407234960077833
 20
7.397892279714693
 30
0.0
 10
7.406745848464479
 20
7.397053147325373
 30
0.0
  0
LINE
  5
15A
330
1F
100
AcDbEntity
  8
0
  6
Continuous
 62
     7
370
     0
100
AcDbLine
 10
7.2978394693
 20
7.3683872286
 30
0.0
 11
7.317594839
 21
7.3797917607
 31
0.0
  0
ARC
  5
15B
330
1F
100
AcDbEntity
  8
0
  6
Continuous
 62
     7
370
     0
100
AcDbCircle
 10
7.0921624722
 20
7.7214099456
 30
0.0
 40
0.4085683123453139
100
AcDbArc
 50
297.8761870709
 51
300.2258001973
  0
SPLINE
  5
15C
330
1F
100
AcDbEntity
  8
0
  6
Continuous
 62
     7
370
     0
100
AcDbSpline
210
0.0
220
0.0
230
1.0
 70
     8
 71
     3
 72
    13
 73
     9
 74
     0
 42
0.00000001
 43
0.00000001
 40
0.0
 40
0.0
 40
0.0
 40
0.0
 40
0.2556326815351675
 40
0.3827690308550099
 40
0.5009930149488564
 40
0.6250249962946817
 40
0.75096634521821
 40
1.0
 40
1.0
 40
1.0
 40
1.0
 10
7.286360847239548
 20
7.362226809317179
 30
0.0
 10
7.285510777001714
 20
7.361735560525053
 30
0.0
 10
7.284237932860111
 20
7.360999994075015
 30
0.0
 10
7.282844431192453
 20
7.360188805747688
 30
0.0
 10
7.282067511159076
 20
7.359730348835231
 30
0.0
 10
7.281711674694452
 20
7.359506884053117
 30
0.0
 10
7.281817604249955
 20
7.359531899713125
 30
0.0
 10
7.282644506798668
 20
7.359964549627787
 30
0.0
 10
7.283193680908461
 20
7.360251887152755
 30
0.0
  0
LINE
  5
15D
330
1F
100
AcDbEntity
  8
0
  6
Continuous
 62
     7
370
     0
100
AcDbLine
 10
7.3089859684
 20
7.3752880138
 30
0.0
 11
7.2863608472
 21
7.3622268093
 31
0.0
  0
ARC
  5
15E
330
1F
100
AcDbEntity
  8
0
  6
Continuous
 62
     7
370
     0
100
AcDbCircle
 10
8.0849542358
 20
5.873689559
 30
0.0
 40
1.688673007452987
100
AcDbArc
 50
118.3160159721
 51
119.0273003379
  0
LINE
  5
15F
330
1F
100
AcDbEntity
  8
0
  6
Continuous
 62
     7
370
     0
100
AcDbLine
 10
7.2772549476
 20
7.3564340677
 30
0.0
 11
7.2839586872
 21
7.3603040542
 31
0.0
  0
ARC
  5
160
330
1F
100
AcDbEntity
  8
0
  6
Continuous
 62
     7
370
     0
100
AcDbCircle
 10
7.3657433295
 20
7.1747716937
 30
0.0
 40
0.2020678396910415
100
AcDbArc
 50
112.5599732448
 51
115.9708761731
  0
LINE
  5
161
330
1F
100
AcDbEntity
  8
0
  6
Continuous
 62
     7
370
     0
100
AcDbLine
 10
7.3293607053
 20
7.3851270453
 30
0.0
 11
7.2882199471
 21
7.3613769911
 31
0.0
  0
ARC
  5
162
330
1F
100
AcDbEntity
  8
0
  6
Continuous
 62
     7
370
     0
100
AcDbCircle
 10
7.4068506425
 20
7.1985977867
 30
0.0
 40
0.2019847882754725
100
AcDbArc
 50
112.5594871643
 51
116.2247685996
  0
LINE
  5
163
330
1F
100
AcDbEntity
  8
0
  6
Continuous
 62
     7
370
     0
100
AcDbLine
 10
7.7290566342
 20
7.0167792538
 30
0.0
 11
7.7448632257
 21
7.0259042048
 31
0.0
  0
ARC
  5
164
330
1F
100
AcDbEntity
  8
0
  6
Continuous
 62
     7
370
     0
100
AcDbCircle
 10
6.8826379827
 20
6.4370529447
 30
0.0
 40
1.025917699967372
100
AcDbArc
 50
33.0826733404
 51
34.4078966003
  0
LINE
  5
165
330
1F
100
AcDbEntity
  8
0
  6
Continuous
 62
     7
370
     0
100
AcDbLine
 10
7.7580444192
 20
7.00617364
 30
0.0
 11
7.7422378277
 21
6.9970486889
 31
0.0
  0
ARC
  5
166
330
1F
100
AcDbEntity
  8
0
  6
Continuous
 62
     7
370
     0
100
AcDbCircle
 10
6.8984445742
 20
6.4461778958
 30
0.0
 40
1.025917699958309
100
AcDbArc
 50
33.0826733404
 51
34.4078966004
  0
SPLINE
  5
167
330
1F
100
AcDbEntity
  8
0
  6
Continuous
 62
     7
370
     0
100
AcDbSpline
210
0.0
220
0.0
230
1.0
 70
    24
 71
     1
 72
     4
 73
     2
 74
     0
 42
0.00000001
 43
0.00000001
 40
0.0
 40
0.0
 40
1.0
 40
1.0
 10
7.691290535934349
 20
7.058785068981823
 30
0.0
 10
7.707886456275659
 20
7.052175620069084
 30
0.0
  0
ARC
  5
168
330
1F
100
AcDbEntity
  8
0
  6
Continuous
 62
     7
370
     0
100
AcDbCircle
 10
7.6717270358
 20
7.0308269562
 30
0.0
 40
0.0341231095960037
100
AcDbArc
 50
55.0178546656
 51
112.0563214573
  0
SPLINE
  5
169
330
1F
100
AcDbEntity
  8
0
  6
Continuous
 62
     7
370
     0
100
AcDbSpline
210
0.0
220
0.0
230
1.0
 70
     8
 71
     3
 72
    13
 73
     9
 74
     0
 42
0.00000001
 43
0.00000001
 40
0.0
 40
0.0
 40
0.0
 40
0.0
 40
0.2505394783768407
 40
0.4996876272638697
 40
0.6251017812232176
 40
0.7498743002534404
 40
0.8749192415307626
 40
1.0
 40
1.0
 40
1.0
 40
1.0
 10
7.6618600411397
 20
7.027771067774631
 30
0.0
 10
7.659684997840679
 20
7.030769094325661
 30
0.0
 10
7.655346989985291
 20
7.036748498383909
 30
0.0
 10
7.65177388774569
 20
7.045074650615628
 30
0.0
 10
7.651513500771277
 20
7.051585029060771
 30
0.0
 10
7.652733043765689
 20
7.056025581781479
 30
0.0
 10
7.655133037637744
 20
7.059863292124438
 30
0.0
 10
7.657653025411056
 20
7.061589529539099
 30
0.0
 10
7.658913199724766
 20
7.06245277184224
 30
0.0
  0
ARC
  5
16A
330
1F
100
AcDbEntity
  8
0
  6
Continuous
 62
     7
370
     0
100
AcDbCircle
 10
7.6890601413
 20
7.0409105859
 30
0.0
 40
0.030207488888008
100
AcDbArc
 50
205.7837359748
 51
288.784526119
  0
SPLINE
  5
16B
330
1F
100
AcDbEntity
  8
0
  6
Continuous
 62
     7
370
     0
100
AcDbSpline
210
0.0
220
0.0
230
1.0
 70
    24
 71
     1
 72
     4
 73
     2
 74
     0
 42
0.00000001
 43
0.00000001
 40
0.0
 40
0.0
 40
1.0
 40
1.0
 10
7.687163717076312
 20
7.031037873132452
 30
0.0
 10
7.698787255466207
 20
7.012312060808101
 30
0.0
  0
ARC
  5
16C
330
1F
100
AcDbEntity
  8
0
  6
Continuous
 62
     7
370
     0
100
AcDbCircle
 10
7.6817158584
 20
7.0413079861
 30
0.0
 40
0.0116255918007949
100
AcDbArc
 50
215.9646391179
 51
297.9440513506
  0
SPLINE
  5
16D
330
1F
100
AcDbEntity
  8
0
  6
Continuous
 62
     7
370
     0
100
AcDbSpline
210
0.0
220
0.0
230
1.0
 70
     8
 71
     3
 72
    12
 73
     8
 74
     0
 42
0.00000001
 43
0.00000001
 40
0.0
 40
0.0
 40
0.0
 40
0.0
 40
0.2494023648056333
 40
0.4991486310883131
 40
0.7488658669771224
 40
0.8743546734024665
 40
1.0
 40
1.0
 40
1.0
 40
1.0
 10
7.67290569699039
 20
7.045595100156701
 30
0.0
 10
7.672130837230131
 20
7.044989797786605
 30
0.0
 10
7.670580049253761
 20
7.043778358393626
 30
0.0
 10
7.669866191949204
 20
7.040752578919712
 30
0.0
 10
7.670296564704866
 20
7.038041851113433
 30
0.0
 10
7.671285443884557
 20
7.035944852575408
 30
0.0
 10
7.671965900947544
 20
7.034968780702845
 30
0.0
 10
7.672306341527586
 20
7.034480440596566
 30
0.0
  0
SPLINE
  5
16E
330
1F
100
AcDbEntity
  8
0
  6
Continuous
 62
     7
370
     0
100
AcDbSpline
210
0.0
220
0.0
230
1.0
 70
     8
 71
     3
 72
    12
 73
     8
 74
     0
 42
0.00000001
 43
0.00000001
 40
0.0
 40
0.0
 40
0.0
 40
0.0
 40
0.5004590000213479
 40
0.7499685526056977
 40
0.8749070349480831
 40
0.9374264460328692
 40
1.0
 40
1.0
 40
1.0
 40
1.0
 10
7.69487891667346
 20
7.041010605486869
 30
0.0
 10
7.691206293778549
 20
7.042600310962915
 30
0.0
 10
7.685702642776879
 20
7.044982582267635
 30
0.0
 10
7.679007311481841
 20
7.046645344425775
 30
0.0
 10
7.675763398416901
 20
7.04656279606801
 30
0.0
 10
7.674051448816897
 20
7.046143404675301
 30
0.0
 10
7.673287724451249
 20
7.045777921059248
 30
0.0
 10
7.67290569699039
 20
7.045595100156701
 30
0.0
  0
ARC
  5
16F
330
1F
100
AcDbEntity
  8
0
  6
Continuous
 62
     7
370
     0
100
AcDbCircle
 10
7.72481034
 20
7.0851757176
 30
0.0
 40
0.053352106198518
100
AcDbArc
 50
235.8738604232
 51
285.8332425632
  0
ARC
  5
170
330
1F
100
AcDbEntity
  8
0
  6
Continuous
 62
     7
370
     0
100
AcDbCircle
 10
6.922979613
 20
6.463509532
 30
0.0
 40
0.9958784333045303
100
AcDbArc
 50
34.9386282598
 51
38.7364959831
  0
LINE
  5
171
330
1F
100
AcDbEntity
  8
0
  6
Continuous
 62
     7
370
     0
100
AcDbLine
 10
7.6869286782
 20
7.0792416299
 30
0.0
 11
7.6997966442
 21
7.0866701485
 31
0.0
  0
ARC
  5
172
330
1F
100
AcDbEntity
  8
0
  6
Continuous
 62
     7
370
     0
100
AcDbCircle
 10
6.9189081884
 20
6.4629002568
 30
0.0
 40
0.9847497960670399
100
AcDbArc
 50
36.7554706403
 51
38.7472666434
  0
SPLINE
  5
173
330
1F
100
AcDbEntity
  8
0
  6
Continuous
 62
     7
370
     0
100
AcDbSpline
210
0.0
220
0.0
230
1.0
 70
    24
 71
     1
 72
     4
 73
     2
 74
     0
 42
0.00000001
 43
0.00000001
 40
0.0
 40
0.0
 40
1.0
 40
1.0
 10
7.626514438393666
 20
7.124083211421441
 30
0.0
 10
7.632656788672629
 20
7.122332791895015
 30
0.0
  0
ARC
  5
174
330
1F
100
AcDbEntity
  8
0
  6
Continuous
 62
     7
370
     0
100
AcDbCircle
 10
7.6338310939
 20
7.1399259333
 30
0.0
 40
0.0174506528795019
100
AcDbArc
 50
224.1786415804
 51
245.2110567567
  0
ARC
  5
175
330
1F
100
AcDbEntity
  8
0
  6
Continuous
 62
     7
370
     0
100
AcDbCircle
 10
7.6262437014
 20
7.1337598249
 30
0.0
 40
0.0077604644530648
100
AcDbArc
 50
108.7176513564
 51
230.581879357
  0
ARC
  5
176
330
1F
100
AcDbEntity
  8
0
  6
Continuous
 62
     7
370
     0
100
AcDbCircle
 10
7.6312921916
 20
7.1301270024
 30
0.0
 40
0.0133213118734521
100
AcDbArc
 50
44.7474505016
 51
124.466533757
  0
ARC
  5
177
330
1F
100
AcDbEntity
  8
0
  6
Continuous
 62
     7
370
     0
100
AcDbCircle
 10
7.6355915883
 20
7.1336847092
 30
0.0
 40
0.0077793252477028
100
AcDbArc
 50
305.4177656478
 51
48.4322625808
  0
SPLINE
  5
178
330
1F
100
AcDbEntity
  8
0
  6
Continuous
 62
     7
370
     0
100
AcDbSpline
210
0.0
220
0.0
230
1.0
 70
    24
 71
     1
 72
     4
 73
     2
 74
     0
 42
0.00000001
 43
0.00000001
 40
0.0
 40
0.0
 40
1.0
 40
1.0
 10
7.656350039091715
 20
7.112289008948577
 30
0.0
 10
7.640099970939172
 20
7.127344962558727
 30
0.0
  0
SPLINE
  5
179
330
1F
100
AcDbEntity
  8
0
  6
Continuous
 62
     7
370
     0
100
AcDbSpline
210
0.0
220
0.0
230
1.0
 70
     8
 71
     3
 72
    12
 73
     8
 74
     0
 42
0.00000001
 43
0.00000001
 40
0.0
 40
0.0
 40
0.0
 40
0.0
 40
0.2504240434344139
 40
0.4999145453400122
 40
0.6247093935862121
 40
0.7503037755852394
 40
1.0
 40
1.0
 40
1.0
 40
1.0
 10
7.650212626044636
 20
7.145208163178072
 30
0.0
 10
7.652527474678348
 20
7.14261220369719
 30
0.0
 10
7.657148542553394
 20
7.137429962064921
 30
0.0
 10
7.660762132212465
 20
7.129891086773355
 30
0.0
 10
7.66136994329534
 20
7.123888115744133
 30
0.0
 10
7.660581861212004
 20
7.118090520009353
 30
0.0
 10
7.658040746725395
 20
7.114606842439334
 30
0.0
 10
7.656350039091715
 20
7.112289008948577
 30
0.0
  0
ARC
  5
17A
330
1F
100
AcDbEntity
  8
0
  6
Continuous
 62
     7
370
     0
100
AcDbCircle
 10
7.6225255616
 20
7.1234112631
 30
0.0
 40
0.0352374572398939
100
AcDbArc
 50
38.2119203243
 51
115.3526993005
  0
SPLINE
  5
17B
330
1F
100
AcDbEntity
  8
0
  6
Continuous
 62
     7
370
     0
100
AcDbSpline
210
0.0
220
0.0
230
1.0
 70
     8
 71
     3
 72
    13
 73
     9
 74
     0
 42
0.00000001
 43
0.00000001
 40
0.0
 40
0.0
 40
0.0
 40
0.0
 40
0.2497868956771171
 40
0.3752957420334102
 40
0.500265726424473
 40
0.6270469575881471
 40
0.7507135917215431
 40
1.0
 40
1.0
 40
1.0
 40
1.0
 10
7.607222765806767
 20
7.126678971100326
 30
0.0
 10
7.605101840444857
 20
7.129164283624926
 30
0.0
 10
7.601915227090551
 20
7.132898375461797
 30
0.0
 10
7.599816627917225
 20
7.138381811171095
 30
0.0
 10
7.599270998269246
 20
7.14247966464192
 30
0.0
 10
7.599766871273818
 20
7.146373529792179
 30
0.0
 10
7.601802712260215
 20
7.151152323215816
 30
0.0
 10
7.605179904677176
 20
7.153611335047553
 30
0.0
 10
7.60743726169522
 20
7.155254968850575
 30
0.0
  0
SPLINE
  5
17C
330
1F
100
AcDbEntity
  8
0
  6
Continuous
 62
     7
370
     0
100
AcDbSpline
210
0.0
220
0.0
230
1.0
 70
    24
 71
     1
 72
     4
 73
     2
 74
     0
 42
0.00000001
 43
0.00000001
 40
0.0
 40
0.0
 40
1.0
 40
1.0
 10
7.619219640492143
 20
7.118044649187677
 30
0.0
 10
7.607222765806767
 20
7.126678971100326
 30
0.0
  0
SPLINE
  5
17D
330
1F
100
AcDbEntity
  8
0
  6
Continuous
 62
     7
370
     0
100
AcDbSpline
210
0.0
220
0.0
230
1.0
 70
    24
 71
     1
 72
     4
 73
     2
 74
     0
 42
0.00000001
 43
0.00000001
 40
0.0
 40
0.0
 40
1.0
 40
1.0
 10
7.609445650077656
 20
7.114455710156664
 30
0.0
 10
7.619219640492143
 20
7.118044649187677
 30
0.0
  0
ARC
  5
17E
330
1F
100
AcDbEntity
  8
0
  6
Continuous
 62
     7
370
     0
100
AcDbCircle
 10
6.9688567646
 20
6.5158404067
 30
0.0
 40
0.8767521894635575
100
AcDbArc
 50
43.0600533295
 51
45.2763928959
  0
LINE
  5
17F
330
1F
100
AcDbEntity
  8
0
  6
Continuous
 62
     7
370
     0
100
AcDbLine
 10
7.573223858
 20
7.1315117758
 30
0.0
 11
7.5858163278
 21
7.1387812539
 31
0.0
  0
ARC
  5
180
330
1F
100
AcDbEntity
  8
0
  6
Continuous
 62
     7
370
     0
100
AcDbCircle
 10
6.9491309253
 20
6.5015945609
 30
0.0
 40
0.8867286429845606
100
AcDbArc
 50
42.0189400148
 51
45.2661097989
  0
SPLINE
  5
181
330
1F
100
AcDbEntity
  8
0
  6
Continuous
 62
     7
370
     0
100
AcDbSpline
210
0.0
220
0.0
230
1.0
 70
    24
 71
     1
 72
     4
 73
     2
 74
     0
 42
0.00000001
 43
0.00000001
 40
0.0
 40
0.0
 40
1.0
 40
1.0
 10
7.642959728637301
 20
7.10772253329641
 30
0.0
 10
7.607902555063939
 20
7.095149635125967
 30
0.0
  0
SPLINE
  5
182
330
1F
100
AcDbEntity
  8
0
  6
Continuous
 62
     7
370
     0
100
AcDbSpline
210
0.0
220
0.0
230
1.0
 70
    24
 71
     1
 72
     4
 73
     2
 74
     0
 42
0.00000001
 43
0.00000001
 40
0.0
 40
0.0
 40
1.0
 40
1.0
 10
7.63265678867263
 20
7.122332791895015
 30
0.0
 10
7.642959728637301
 20
7.10772253329641
 30
0.0
  0
SPLINE
  5
183
330
1F
100
AcDbEntity
  8
0
  6
Continuous
 62
     7
370
     0
100
AcDbSpline
210
0.0
220
0.0
230
1.0
 70
     8
 71
     3
 72
    13
 73
     9
 74
     0
 42
0.00000001
 43
0.00000001
 40
0.0
 40
0.0
 40
0.0
 40
0.0
 40
0.2501705057671532
 40
0.3840880187015154
 40
0.4999102936418675
 40
0.6140227116298321
 40
0.7498213084069772
 40
1.0
 40
1.0
 40
1.0
 40
1.0
 10
7.465410476833085
 20
7.256159300149999
 30
0.0
 10
7.464700790538522
 20
7.25571511947797
 30
0.0
 10
7.463611205649438
 20
7.255033166688444
 30
0.0
 10
7.462685755649709
 20
7.25393525109343
 30
0.0
 10
7.462449427385192
 20
7.253042183808869
 30
0.0
 10
7.462807179511195
 20
7.252154702149535
 30
0.0
 10
7.463785657123696
 20
7.25105253448407
 30
0.0
 10
7.46488922438617
 20
7.250341032912392
 30
0.0
 10
7.465604522985672
 20
7.249879859321011
 30
0.0
  0
SPLINE
  5
184
330
1F
100
AcDbEntity
  8
0
  6
Continuous
 62
     7
370
     0
100
AcDbSpline
210
0.0
220
0.0
230
1.0
 70
    24
 71
     1
 72
     4
 73
     2
 74
     0
 42
0.00000001
 43
0.00000001
 40
0.0
 40
0.0
 40
1.0
 40
1.0
 10
7.486865470934884
 20
7.248162017034575
 30
0.0
 10
7.465410476833085
 20
7.256159300149999
 30
0.0
  0
ARC
  5
185
330
1F
100
AcDbEntity
  8
0
  6
Continuous
 62
     7
370
     0
100
AcDbCircle
 10
7.5044337565
 20
7.2835045347
 30
0.0
 40
0.0394681923740551
100
AcDbArc
 50
243.5686530985
 51
265.7234807703
  0
SPLINE
  5
186
330
1F
100
AcDbEntity
  8
0
  6
Continuous
 62
     7
370
     0
100
AcDbSpline
210
0.0
220
0.0
230
1.0
 70
     8
 71
     3
 72
     9
 73
     5
 74
     0
 42
0.00000001
 43
0.00000001
 40
0.0
 40
0.0
 40
0.0
 40
0.0
 40
0.5006506955429229
 40
1.0
 40
1.0
 40
1.0
 40
1.0
 10
7.511950469102776
 20
7.246757344466778
 30
0.0
 10
7.510441854253923
 20
7.245998254891419
 30
0.0
 10
7.507428546048652
 20
7.244482048917641
 30
0.0
 10
7.503468204770704
 20
7.244258072829563
 30
0.0
 10
7.501490611108149
 20
7.244146230525766
 30
0.0
  0
SPLINE
  5
187
330
1F
100
AcDbEntity
  8
0
  6
Continuous
 62
     7
370
     0
100
AcDbSpline
210
0.0
220
0.0
230
1.0
 70
     8
 71
     3
 72
    14
 73
    10
 74
     0
 42
0.00000001
 43
0.00000001
 40
0.0
 40
0.0
 40
0.0
 40
0.0
 40
0.2500047170986097
 40
0.3799563988542857
 40
0.5001514804936551
 40
0.624878092783255
 40
0.7508658106774481
 40
0.8742378331960698
 40
1.0
 40
1.0
 40
1.0
 40
1.0
 10
7.508793124631018
 20
7.263366849222102
 30
0.0
 10
7.510501270343203
 20
7.262176195610063
 30
0.0
 10
7.513097304934279
 20
7.260366643918545
 30
0.0
 10
7.515458403897452
 20
7.257508862660186
 30
0.0
 10
7.516507257463337
 20
7.255202234485804
 30
0.0
 10
7.516684275361027
 20
7.252852133981548
 30
0.0
 10
7.516055035812517
 20
7.250539791341697
 30
0.0
 10
7.514468812001757
 20
7.248421091609143
 30
0.0
 10
7.51279526861751
 20
7.247315462576538
 30
0.0
 10
7.511950469102776
 20
7.246757344466778
 30
0.0
  0
SPLINE
  5
188
330
1F
100
AcDbEntity
  8
0
  6
Continuous
 62
     7
370
     0
100
AcDbSpline
210
0.0
220
0.0
230
1.0
 70
    24
 71
     1
 72
     4
 73
     2
 74
     0
 42
0.00000001
 43
0.00000001
 40
0.0
 40
0.0
 40
1.0
 40
1.0
 10
7.497366987294412
 20
7.268406243090104
 30
0.0
 10
7.508793124631018
 20
7.263366849222102
 30
0.0
  0
SPLINE
  5
189
330
1F
100
AcDbEntity
  8
0
  6
Continuous
 62
     7
370
     0
100
AcDbSpline
210
0.0
220
0.0
230
1.0
 70
    24
 71
     1
 72
     4
 73
     2
 74
     0
 42
0.00000001
 43
0.00000001
 40
0.0
 40
0.0
 40
1.0
 40
1.0
 10
7.486956638674207
 20
7.269630640439094
 30
0.0
 10
7.497366987294412
 20
7.268406243090104
 30
0.0
  0
SPLINE
  5
18A
330
1F
100
AcDbEntity
  8
0
  6
Continuous
 62
     7
370
     0
100
AcDbSpline
210
0.0
220
0.0
230
1.0
 70
     8
 71
     3
 72
     9
 73
     5
 74
     0
 42
0.00000001
 43
0.00000001
 40
0.0
 40
0.0
 40
0.0
 40
0.0
 40
0.4998463205888645
 40
1.0
 40
1.0
 40
1.0
 40
1.0
 10
7.490285624981062
 20
7.273545382658096
 30
0.0
 10
7.489933543760915
 20
7.272834272509433
 30
0.0
 10
7.489229164823543
 20
7.271411614945754
 30
0.0
 10
7.487714302592743
 20
7.27022442023957
 30
0.0
 10
7.486956638674207
 20
7.269630640439094
 30
0.0
  0
ARC
  5
18B
330
1F
100
AcDbEntity
  8
0
  6
Continuous
 62
     7
370
     0
100
AcDbCircle
 10
7.2087514535
 20
6.7929755393
 30
0.0
 40
0.5569639701870215
100
AcDbArc
 50
59.6367761422
 51
61.385337366
  0
SPLINE
  5
18C
330
1F
100
AcDbEntity
  8
0
  6
Continuous
 62
     7
370
     0
100
AcDbSpline
210
0.0
220
0.0
230
1.0
 70
     8
 71
     3
 72
     9
 73
     5
 74
     0
 42
0.00000001
 43
0.00000001
 40
0.0
 40
0.0
 40
0.0
 40
0.0
 40
0.5000572978128671
 40
1.0
 40
1.0
 40
1.0
 40
1.0
 10
7.468705977871884
 20
7.275774271968007
 30
0.0
 10
7.470220118285306
 20
7.276667101119644
 30
0.0
 10
7.473248052124178
 20
7.278452554817736
 30
0.0
 10
7.474743210695515
 20
7.280759058015775
 30
0.0
 10
7.475490704311867
 20
7.281912177457206
 30
0.0
  0
LINE
  5
18D
330
1F
100
AcDbEntity
  8
0
  6
Continuous
 62
     7
370
     0
100
AcDbLine
 10
7.4505347111
 20
7.2652842229
 30
0.0
 11
7.4687059779
 21
7.275774272
 31
0.0
  0
ARC
  5
18E
330
1F
100
AcDbEntity
  8
0
  6
Continuous
 62
     7
370
     0
100
AcDbCircle
 10
7.4542465571
 20
7.2555011842
 30
0.0
 40
0.0104635389982171
100
AcDbArc
 50
110.7775703781
 51
174.553381067
  0
ARC
  5
18F
330
1F
100
AcDbEntity
  8
0
  6
Continuous
 62
     7
370
     0
100
AcDbCircle
 10
7.4661881251
 20
7.2663352365
 30
0.0
 40
0.0244277884912104
100
AcDbArc
 50
203.7568158962
 51
251.1397019933
  0
SPLINE
  5
190
330
1F
100
AcDbEntity
  8
0
  6
Continuous
 62
     7
370
     0
100
AcDbSpline
210
0.0
220
0.0
230
1.0
 70
     8
 71
     3
 72
     9
 73
     5
 74
     0
 42
0.00000001
 43
0.00000001
 40
0.0
 40
0.0
 40
0.0
 40
0.0
 40
0.4989850375674064
 40
1.0
 40
1.0
 40
1.0
 40
1.0
 10
7.474965240562286
 20
7.235715278494956
 30
0.0
 10
7.471880825475711
 20
7.236734710433975
 30
0.0
 10
7.465699447569852
 20
7.238777721470913
 30
0.0
 10
7.460764191880028
 20
7.241736562500171
 30
0.0
 10
7.458291554935996
 20
7.24321898612729
 30
0.0
  0
ARC
  5
191
330
1F
100
AcDbEntity
  8
0
  6
Continuous
 62
     7
370
     0
100
AcDbCircle
 10
7.4816709039
 20
7.2641664358
 30
0.0
 40
0.0292307076774248
100
AcDbArc
 50
256.7379702877
 51
291.0873569786
  0
SPLINE
  5
192
330
1F
100
AcDbEntity
  8
0
  6
Continuous
 62
     7
370
     0
100
AcDbSpline
210
0.0
220
0.0
230
1.0
 70
    24
 71
     1
 72
     4
 73
     2
 74
     0
 42
0.00000001
 43
0.00000001
 40
0.0
 40
0.0
 40
1.0
 40
1.0
 10
7.478742541514156
 20
7.247599451208051
 30
0.0
 10
7.492187847434881
 20
7.236893222366579
 30
0.0
  0
SPLINE
  5
193
330
1F
100
AcDbEntity
  8
0
  6
Continuous
 62
     7
370
     0
100
AcDbSpline
210
0.0
220
0.0
230
1.0
 70
     8
 71
     3
 72
     9
 73
     5
 74
     0
 42
0.00000001
 43
0.00000001
 40
0.0
 40
0.0
 40
0.0
 40
0.0
 40
0.4984185104768012
 40
1.0
 40
1.0
 40
1.0
 40
1.0
 10
7.47264942441716
 20
7.24702296717429
 30
0.0
 10
7.473709351302589
 20
7.246972941111903
 30
0.0
 10
7.475835931401744
 20
7.24687257152021
 30
0.0
 10
7.477771630617998
 20
7.2473566476046
 30
0.0
 10
7.478742541514156
 20
7.247599451208051
 30
0.0
  0
SPLINE
  5
194
330
1F
100
AcDbEntity
  8
0
  6
Continuous
 62
     7
370
     0
100
AcDbSpline
210
0.0
220
0.0
230
1.0
 70
     8
 71
     3
 72
     9
 73
     5
 74
     0
 42
0.00000001
 43
0.00000001
 40
0.0
 40
0.0
 40
0.0
 40
0.0
 40
0.50119842803617
 40
1.0
 40
1.0
 40
1.0
 40
1.0
 10
7.465604522985672
 20
7.249879859321011
 30
0.0
 10
7.466629213493758
 20
7.249270812961872
 30
0.0
 10
7.468673694183971
 20
7.248055632855413
 30
0.0
 10
7.471326300311131
 20
7.247366638594639
 30
0.0
 10
7.47264942441716
 20
7.24702296717429
 30
0.0
  0
ARC
  5
195
330
1F
100
AcDbEntity
  8
0
  6
Continuous
 62
     7
370
     0
100
AcDbCircle
 10
7.3858247734
 20
7.3165294577
 30
0.0
 40
0.0239751735482416
100
AcDbArc
 50
254.4163124176
 51
304.2592598488
  0
SPLINE
  5
196
330
1F
100
AcDbEntity
  8
0
  6
Continuous
 62
     7
370
     0
100
AcDbSpline
210
0.0
220
0.0
230
1.0
 70
     8
 71
     3
 72
    12
 73
     8
 74
     0
 42
0.00000001
 43
0.00000001
 40
0.0
 40
0.0
 40
0.0
 40
0.0
 40
0.2499205863329391
 40
0.3770821375838637
 40
0.5003335730963557
 40
0.7497132612426203
 40
1.0
 40
1.0
 40
1.0
 40
1.0
 10
7.377349572497665
 20
7.29911190711251
 30
0.0
 10
7.376817318819633
 20
7.298561198239213
 30
0.0
 10
7.376014250302572
 20
7.29773028437903
 30
0.0
 10
7.37571343520605
 20
7.296610641316321
 30
0.0
 10
7.37587822177334
 20
7.295545720417614
 30
0.0
 10
7.377039878645865
 20
7.294397756271572
 30
0.0
 10
7.378601646963952
 20
7.293756728868077
 30
0.0
 10
7.379383948671616
 20
7.293435633333865
 30
0.0
  0
SPLINE
  5
197
330
1F
100
AcDbEntity
  8
0
  6
Continuous
 62
     7
370
     0
100
AcDbSpline
210
0.0
220
0.0
230
1.0
 70
    24
 71
     1
 72
     4
 73
     2
 74
     0
 42
0.00000001
 43
0.00000001
 40
0.0
 40
0.0
 40
1.0
 40
1.0
 10
7.360891470511612
 20
7.302653595183309
 30
0.0
 10
7.377349572497665
 20
7.29911190711251
 30
0.0
  0
SPLINE
  5
198
330
1F
100
AcDbEntity
  8
0
  6
Continuous
 62
     7
370
     0
100
AcDbSpline
210
0.0
220
0.0
230
1.0
 70
     8
 71
     3
 72
    12
 73
     8
 74
     0
 42
0.00000001
 43
0.00000001
 40
0.0
 40
0.0
 40
0.0
 40
0.0
 40
0.2504931653223373
 40
0.5001218721704451
 40
0.6252456824059324
 40
0.7504040889272335
 40
1.0
 40
1.0
 40
1.0
 40
1.0
 10
7.369033871285491
 20
7.287034573280549
 30
0.0
 10
7.366733559905324
 20
7.287944137123325
 30
0.0
 10
7.362140875579811
 20
7.289760125880231
 30
0.0
 10
7.358099327084565
 20
7.292732207752628
 30
0.0
 10
7.357049319822039
 20
7.295612578639828
 30
0.0
 10
7.357375336098658
 20
7.298704158334199
 30
0.0
 10
7.359485828722821
 20
7.301074732482029
 30
0.0
 10
7.360891470511612
 20
7.302653595183309
 30
0.0
  0
SPLINE
  5
199
330
1F
100
AcDbEntity
  8
0
  6
Continuous
 62
     7
370
     0
100
AcDbSpline
210
0.0
220
0.0
230
1.0
 70
    24
 71
     1
 72
     4
 73
     2
 74
     0
 42
0.00000001
 43
0.00000001
 40
0.0
 40
0.0
 40
1.0
 40
1.0
 10
7.382576193857958
 20
7.283663281956573
 30
0.0
 10
7.369033871285491
 20
7.287034573280549
 30
0.0
  0
SPLINE
  5
19A
330
1F
100
AcDbEntity
  8
0
  6
Continuous
 62
     7
370
     0
100
AcDbSpline
210
0.0
220
0.0
230
1.0
 70
     8
 71
     3
 72
     9
 73
     5
 74
     0
 42
0.00000001
 43
0.00000001
 40
0.0
 40
0.0
 40
0.0
 40
0.0
 40
0.4972076014244926
 40
1.0
 40
1.0
 40
1.0
 40
1.0
 10
7.401692965607387
 20
7.284889376578743
 30
0.0
 10
7.398486796707457
 20
7.284302911973193
 30
0.0
 10
7.392038446177928
 20
7.283123395401303
 30
0.0
 10
7.385741999423914
 20
7.283482650981635
 30
0.0
 10
7.382576193857958
 20
7.283663281956573
 30
0.0
  0
SPLINE
  5
19B
330
1F
100
AcDbEntity
  8
0
  6
Continuous
 62
     7
370
     0
100
AcDbSpline
210
0.0
220
0.0
230
1.0
 70
     8
 71
     3
 72
     9
 73
     5
 74
     0
 42
0.00000001
 43
0.00000001
 40
0.0
 40
0.0
 40
0.0
 40
0.0
 40
0.5005315226334648
 40
0.9999999999999999
 40
0.9999999999999999
 40
0.9999999999999999
 40
0.9999999999999999
 10
7.414428831311983
 20
7.290072555773769
 30
0.0
 10
7.412548843134243
 20
7.289038515406162
 30
0.0
 10
7.408792859559326
 20
7.286972630799801
 30
0.0
 10
7.404057919106021
 20
7.285583302346084
 30
0.0
 10
7.401692965607387
 20
7.284889376578744
 30
0.0
  0
SPLINE
  5
19C
330
1F
100
AcDbEntity
  8
0
  6
Continuous
 62
     7
370
     0
100
AcDbSpline
210
0.0
220
0.0
230
1.0
 70
     8
 71
     3
 72
    14
 73
    10
 74
     0
 42
0.00000001
 43
0.00000001
 40
0.0
 40
0.0
 40
0.0
 40
0.0
 40
0.250079695316716
 40
0.3795939076702829
 40
0.5000103126990071
 40
0.6249779831585164
 40
0.7499325412132333
 40
0.8625387534408174
 40
1.0
 40
1.0
 40
1.0
 40
1.0
 10
7.410962239682901
 20
7.312282033095558
 30
0.0
 10
7.413968334877785
 20
7.311076043648987
 30
0.0
 10
7.418531261989519
 20
7.309245482211153
 30
0.0
 10
7.422625928987602
 20
7.305784951971781
 30
0.0
 10
7.424157354805899
 20
7.30271478725727
 30
0.0
 10
7.424010587883519
 20
7.299419774304864
 30
0.0
 10
7.422499964563557
 20
7.296136888541223
 30
0.0
 10
7.419123435680272
 20
7.292955268336542
 30
0.0
 10
7.416094065808589
 20
7.291095089735472
 30
0.0
 10
7.414428831311983
 20
7.290072555773769
 30
0.0
  0
ARC
  5
19D
330
1F
100
AcDbEntity
  8
0
  6
Continuous
 62
     7
370
     0
100
AcDbCircle
 10
7.3943204076
 20
7.2635157629
 30
0.0
 40
0.0515276593669352
100
AcDbArc
 50
71.1574325669
 51
113.6434358532
  0
SPLINE
  5
19E
330
1F
100
AcDbEntity
  8
0
  6
Continuous
 62
     7
370
     0
100
AcDbSpline
210
0.0
220
0.0
230
1.0
 70
    24
 71
     1
 72
     4
 73
     2
 74
     0
 42
0.00000001
 43
0.00000001
 40
0.0
 40
0.0
 40
1.0
 40
1.0
 10
7.386580238377446
 20
7.30503106125856
 30
0.0
 10
7.373655569051901
 20
7.310718137098957
 30
0.0
  0
ARC
  5
19F
330
1F
100
AcDbEntity
  8
0
  6
Continuous
 62
     7
370
     0
100
AcDbCircle
 10
7.3950684687
 20
7.2851289354
 30
0.0
 40
0.0216366510229179
100
AcDbArc
 50
73.3423839578
 51
113.0981836142
  0
SPLINE
  5
1A0
330
1F
100
AcDbEntity
  8
0
  6
Continuous
 62
     7
370
     0
100
AcDbSpline
210
0.0
220
0.0
230
1.0
 70
     8
 71
     3
 72
    14
 73
    10
 74
     0
 42
0.00000001
 43
0.00000001
 40
0.0
 40
0.0
 40
0.0
 40
0.0
 40
0.2499126333277819
 40
0.3788826257046974
 40
0.5000564188330826
 40
0.6248407341142992
 40
0.7500055571873343
 40
0.8749218735120687
 40
1.0
 40
1.0
 40
1.0
 40
1.0
 10
7.39932132182892
 20
7.296714005996827
 30
0.0
 10
7.400531039223291
 20
7.297465669490748
 30
0.0
 10
7.402365043757743
 20
7.298605236684415
 30
0.0
 10
7.403970218582597
 20
7.300305255299301
 30
0.0
 10
7.404661498388522
 20
7.301618176140642
 30
0.0
 10
7.404743459110906
 20
7.302898560159365
 30
0.0
 10
7.404198384411923
 20
7.304090795842319
 30
0.0
 10
7.403042336228923
 20
7.305119973210766
 30
0.0
 10
7.40186147077748
 20
7.305611618431643
 30
0.0
 10
7.401270655891202
 20
7.305857600152005
 30
0.0
  0
ARC
  5
1A1
330
1F
100
AcDbEntity
  8
0
  6
Continuous
 62
     7
370
     0
100
AcDbCircle
 10
7.2719251124
 20
7.3898659342
 30
0.0
 40
0.081408701061287
100
AcDbArc
 50
268.0320869877
 51
299.5818542834
  0
SPLINE
  5
1A2
330
1F
100
AcDbEntity
  8
0
  6
Continuous
 62
     7
370
     0
100
AcDbSpline
210
0.0
220
0.0
230
1.0
 70
     8
 71
     3
 72
    13
 73
     9
 74
     0
 42
0.00000001
 43
0.00000001
 40
0.0
 40
0.0
 40
0.0
 40
0.0
 40
0.2502092620005199
 40
0.3753081960891674
 40
0.5003750810855447
 40
0.6255355602286989
 40
0.7507183164374085
 40
0.9999999999999999
 40
0.9999999999999999
 40
0.9999999999999999
 40
0.9999999999999999
 10
7.311701791631964
 20
7.333350229756213
 30
0.0
 10
7.314359527758275
 20
7.333124643508348
 30
0.0
 10
7.318346071434845
 20
7.332786269272831
 30
0.0
 10
7.321621550394109
 20
7.331149670039781
 30
0.0
 10
7.322399729954629
 20
7.329265393351212
 30
0.0
 10
7.321656771341651
 20
7.326958860574957
 30
0.0
 10
7.319126702280227
 20
7.32355110350229
 30
0.0
 10
7.314916558916774
 20
7.320860133694045
 30
0.0
 10
7.312113858542014
 20
7.319068750019201
 30
0.0
  0
ARC
  5
1A3
330
1F
100
AcDbEntity
  8
0
  6
Continuous
 62
     7
370
     0
100
AcDbCircle
 10
7.3096519902
 20
7.25976995
 30
0.0
 40
0.0736088259491249
100
AcDbArc
 50
88.404265323
 51
114.2426643625
  0
SPLINE
  5
1A4
330
1F
100
AcDbEntity
  8
0
  6
Continuous
 62
     7
370
     0
100
AcDbSpline
210
0.0
220
0.0
230
1.0
 70
    24
 71
     1
 72
     4
 73
     2
 74
     0
 42
0.00000001
 43
0.00000001
 40
0.0
 40
0.0
 40
1.0
 40
1.0
 10
7.291885290729328
 20
7.326085916308624
 30
0.0
 10
7.279428050538392
 20
7.32688755370688
 30
0.0
  0
SPLINE
  5
1A5
330
1F
100
AcDbEntity
  8
0
  6
Continuous
 62
     7
370
     0
100
AcDbSpline
210
0.0
220
0.0
230
1.0
 70
    24
 71
     1
 72
     4
 73
     2
 74
     0
 42
0.00000001
 43
0.00000001
 40
0.0
 40
0.0
 40
1.0
 40
1.0
 10
7.296957768363631
 20
7.327511937007525
 30
0.0
 10
7.291885290729328
 20
7.326085916308624
 30
0.0
  0
SPLINE
  5
1A6
330
1F
100
AcDbEntity
  8
0
  6
Continuous
 62
     7
370
     0
100
AcDbSpline
210
0.0
220
0.0
230
1.0
 70
     8
 71
     3
 72
     9
 73
     5
 74
     0
 42
0.00000001
 43
0.00000001
 40
0.0
 40
0.0
 40
0.0
 40
0.0
 40
0.499813390079263
 40
1.0
 40
1.0
 40
1.0
 40
1.0
 10
7.302125113557384
 20
7.328017727071464
 30
0.0
 10
7.30137211939292
 20
7.328021211483
 30
0.0
 10
7.299865568789417
 20
7.328028182907943
 30
0.0
 10
7.297927276308631
 20
7.327684061785275
 30
0.0
 10
7.296957768363631
 20
7.327511937007525
 30
0.0
  0
SPLINE
  5
1A7
330
1F
100
AcDbEntity
  8
0
  6
Continuous
 62
     7
370
     0
100
AcDbSpline
210
0.0
220
0.0
230
1.0
 70
     8
 71
     3
 72
    10
 73
     6
 74
     0
 42
0.00000001
 43
0.00000001
 40
0.0
 40
0.0
 40
0.0
 40
0.0
 40
0.2506462839715389
 40
0.5011586610055214
 40
1.0
 40
1.0
 40
1.0
 40
1.0
 10
7.304894225470135
 20
7.326158582090237
 30
0.0
 10
7.304944525569667
 20
7.326417314707165
 30
0.0
 10
7.305045098896073
 20
7.32693464171399
 30
0.0
 10
7.304432586952795
 20
7.327727504689736
 30
0.0
 10
7.30304729564233
 20
7.327901739653533
 30
0.0
 10
7.302125113557384
 20
7.328017727071465
 30
0.0
  0
SPLINE
  5
1A8
330
1F
100
AcDbEntity
  8
0
  6
Continuous
 62
     7
370
     0
100
AcDbSpline
210
0.0
220
0.0
230
1.0
 70
     8
 71
     3
 72
     9
 73
     5
 74
     0
 42
0.00000001
 43
0.00000001
 40
0.0
 40
0.0
 40
0.0
 40
0.0
 40
0.5011623542816231
 40
1.0
 40
1.0
 40
1.0
 40
1.0
 10
7.30112835045751
 20
7.322764715684583
 30
0.0
 10
7.302025278739728
 20
7.32336276433667
 30
0.0
 10
7.303814974782449
 20
7.32455608751224
 30
0.0
 10
7.304535033216243
 20
7.325625245724654
 30
0.0
 10
7.304894225470135
 20
7.326158582090237
 30
0.0
  0
ARC
  5
1A9
330
1F
100
AcDbEntity
  8
0
  6
Continuous
 62
     7
370
     0
100
AcDbCircle
 10
7.2809069154
 20
7.0542439208
 30
0.0
 40
0.2692811239615941
100
AcDbArc
 50
85.6933684767
 51
91.7587680478
  0
LINE
  5
1AA
330
1F
100
AcDbEntity
  8
0
  6
Continuous
 62
     7
370
     0
100
AcDbLine
 10
7.2708515561
 20
7.3223644245
 30
0.0
 11
7.2726422811
 21
7.323398188
 31
0.0
  0
SPLINE
  5
1AB
330
1F
100
AcDbEntity
  8
0
  6
Continuous
 62
     7
370
     0
100
AcDbSpline
210
0.0
220
0.0
230
1.0
 70
     8
 71
     3
 72
    13
 73
     9
 74
     0
 42
0.00000001
 43
0.00000001
 40
0.0
 40
0.0
 40
0.0
 40
0.0
 40
0.2500649107444021
 40
0.3783596976377533
 40
0.5001025157053901
 40
0.6229520872473612
 40
0.7501470080801231
 40
1.0
 40
1.0
 40
1.0
 40
1.0
 10
7.269129553181696
 20
7.308505246818623
 30
0.0
 10
7.266288033881023
 20
7.308702776450158
 30
0.0
 10
7.261988684643121
 20
7.309001647856943
 30
0.0
 10
7.258795415377272
 20
7.310393496597627
 30
0.0
 10
7.25812353726915
 20
7.31203697361204
 30
0.0
 10
7.259244429665511
 20
7.314199003906324
 30
0.0
 10
7.2629933673509
 20
7.317632768454877
 30
0.0
 10
7.26771965447826
 20
7.320478610610625
 30
0.0
 10
7.270851556126575
 20
7.322364424463707
 30
0.0
  0
LINE
  5
1AC
330
1F
100
AcDbEntity
  8
0
  6
Continuous
 62
     7
370
     0
100
AcDbLine
 10
7.222265934
 20
7.3087986201
 30
0.0
 11
7.2025794384
 21
7.2974338481
 31
0.0
  0
SPLINE
  5
1AD
330
1F
100
AcDbEntity
  8
0
  6
Continuous
 62
     7
370
     0
100
AcDbSpline
210
0.0
220
0.0
230
1.0
 70
     8
 71
     3
 72
    11
 73
     7
 74
     0
 42
0.00000001
 43
0.00000001
 40
0.0
 40
0.0
 40
0.0
 40
0.0
 40
0.4988199337615919
 40
0.7491888849042947
 40
0.8745696102450752
 40
1.0
 40
1.0
 40
1.0
 40
1.0
 10
7.227525737512119
 20
7.307316042567687
 30
0.0
 10
7.225798918362351
 20
7.307197526268067
 30
0.0
 10
7.223205369817707
 20
7.307019523970353
 30
0.0
 10
7.222198120930852
 20
7.307704150232819
 30
0.0
 10
7.222077831694169
 20
7.308270306959802
 30
0.0
 10
7.222203224986311
 20
7.308622492481022
 30
0.0
 10
7.22226593404727
 20
7.308798620110674
 30
0.0
  0
ARC
  5
1AE
330
1F
100
AcDbEntity
  8
0
  6
Continuous
 62
     7
370
     0
100
AcDbCircle
 10
7.2121323309
 20
7.4043891643
 30
0.0
 40
0.0982860515860487
100
AcDbArc
 50
279.0106717067
 51
301.6311284877
  0
SPLINE
  5
1AF
330
1F
100
AcDbEntity
  8
0
  6
Continuous
 62
     7
370
     0
100
AcDbSpline
210
0.0
220
0.0
230
1.0
 70
     8
 71
     3
 72
    13
 73
     9
 74
     0
 42
0.00000001
 43
0.00000001
 40
0.0
 40
0.0
 40
0.0
 40
0.0
 40
0.1251722017704573
 40
0.2501710903368912
 40
0.3751630043242056
 40
0.5002554073255693
 40
0.7499099807477184
 40
0.9999999999999999
 40
0.9999999999999999
 40
0.9999999999999999
 40
0.9999999999999999
 10
7.270595076383975
 20
7.332147384118293
 30
0.0
 10
7.27165126898224
 20
7.332229398569573
 30
0.0
 10
7.273762191776409
 20
7.332393313915071
 30
0.0
 10
7.275700388765924
 20
7.331929058345096
 30
0.0
 10
7.276193977407192
 20
7.330813026877724
 30
0.0
 10
7.274891287876248
 20
7.328619625282162
 30
0.0
 10
7.271111907854211
 20
7.325215179639965
 30
0.0
 10
7.266157614762959
 20
7.322208785899854
 30
0.0
 10
7.263678309788506
 20
7.320704279239121
 30
0.0
  0
ARC
  5
1B0
330
1F
100
AcDbEntity
  8
0
  6
Continuous
 62
     7
370
     0
100
AcDbCircle
 10
7.2761972472
 20
7.287663238
 30
0.0
 40
0.0448355168957491
100
AcDbArc
 50
97.1778336165
 51
108.0205628307
  0
SPLINE
  5
1B1
330
1F
100
AcDbEntity
  8
0
  6
Continuous
 62
     7
370
     0
100
AcDbSpline
210
0.0
220
0.0
230
1.0
 70
    24
 71
     1
 72
     4
 73
     2
 74
     0
 42
0.00000001
 43
0.00000001
 40
0.0
 40
0.0
 40
1.0
 40
1.0
 10
7.252306848342572
 20
7.326552606726845
 30
0.0
 10
7.262327008040053
 20
7.330299373361862
 30
0.0
  0
LINE
  5
1B2
330
1F
100
AcDbEntity
  8
0
  6
Continuous
 62
     7
370
     0
100
AcDbLine
 10
7.2583907216
 20
7.330064752
 30
0.0
 11
7.2523068483
 21
7.3265526067
 31
0.0
  0
ARC
  5
1B3
330
1F
100
AcDbEntity
  8
0
  6
Continuous
 62
     7
370
     0
100
AcDbCircle
 10
7.2942032775
 20
7.1091705515
 30
0.0
 40
0.2237784327879977
100
AcDbArc
 50
99.2089729894
 51
102.4104646603
  0
LINE
  5
1B4
330
1F
100
AcDbEntity
  8
0
  6
Continuous
 62
     7
370
     0
100
AcDbLine
 10
7.1893121027
 20
7.2949311048
 30
0.0
 11
7.2461102253
 21
7.3277199631
 31
0.0
  0
ARC
  5
1B5
330
1F
100
AcDbEntity
  8
0
  6
Continuous
 62
     7
370
     0
100
AcDbCircle
 10
7.2374713897
 20
7.0760502962
 30
0.0
 40
0.2241163209655224
100
AcDbArc
 50
98.9566301449
 51
102.4087940467
  0
LINE
  5
1B6
330
1F
100
AcDbEntity
  8
0
  6
Continuous
 62
     7
370
     0
100
AcDbLine
 10
7.476677799
 20
7.0934271863
 30
0.0
 11
7.4998883496
 21
7.1068263519
 31
0.0
  0
ARC
  5
1B7
330
1F
100
AcDbEntity
  8
0
  6
Continuous
 62
     7
370
     0
100
AcDbCircle
 10
6.9159366302
 20
6.5055002499
 30
0.0
 40
0.8124584549255706
100
AcDbArc
 50
46.3557780531
 51
48.3775171375
  0
LINE
  5
1B8
330
1F
100
AcDbEntity
  8
0
  6
Continuous
 62
     7
370
     0
100
AcDbLine
 10
7.4441199309
 20
7.1062233564
 30
0.0
 11
7.4555874581
 21
7.1128434189
 31
0.0
  0
ARC
  5
1B9
330
1F
100
AcDbEntity
  8
0
  6
Continuous
 62
     7
370
     0
100
AcDbCircle
 10
6.904469103
 20
6.4988801874
 30
0.0
 40
0.8124584549215967
100
AcDbArc
 50
46.3557780531
 51
48.3775171375
  0
LINE
  5
1BA
330
1F
100
AcDbEntity
  8
0
  6
Continuous
 62
     7
370
     0
100
AcDbLine
 10
7.4552924105
 20
7.0810816642
 30
0.0
 11
7.4652102719
 21
7.0868071237
 31
0.0
  0
ARC
  5
1BB
330
1F
100
AcDbEntity
  8
0
  6
Continuous
 62
     7
370
     0
100
AcDbCircle
 10
6.8969959922
 20
6.4957844619
 30
0.0
 40
0.8088681633749385
100
AcDbArc
 50
46.3525290516
 51
48.7261153923
  0
LINE
  5
1BC
330
1F
100
AcDbEntity
  8
0
  6
Continuous
 62
     7
370
     0
100
AcDbLine
 10
7.4183711128
 20
7.0966571986
 30
0.0
 11
7.4305732963
 21
7.1037013693
 31
0.0
  0
ARC
  5
1BD
330
1F
100
AcDbEntity
  8
0
  6
Continuous
 62
     7
370
     0
100
AcDbCircle
 10
6.8738105288
 20
6.4766844499
 30
0.0
 40
0.8251741869757404
100
AcDbArc
 50
44.7599253761
 51
48.7051529635
  0
LINE
  5
1BE
330
1F
100
AcDbEntity
  8
0
  6
Continuous
 62
     7
370
     0
100
AcDbLine
 10
7.5165346469
 20
7.090509595
 30
0.0
 11
7.4597365243
 21
7.0577207367
 31
0.0
  0
ARC
  5
1BF
330
1F
100
AcDbEntity
  8
0
  6
Continuous
 62
     7
370
     0
100
AcDbCircle
 10
6.9139501091
 20
6.4924046173
 30
0.0
 40
0.8490216072616817
100
AcDbArc
 50
44.7862405734
 51
46.3593237245
  0
ARC
  5
1C0
330
1F
100
AcDbEntity
  8
0
  6
Continuous
 62
     7
370
     0
100
AcDbCircle
 10
7.3955400734
 20
7.0659524888
 30
0.0
 40
0.0546835085003669
100
AcDbArc
 50
60.0590265913
 51
97.3425777882
  0
LINE
  5
1C1
330
1F
100
AcDbEntity
  8
0
  6
Continuous
 62
     7
370
     0
100
AcDbLine
 10
7.4357698652
 20
7.1208062177
 30
0.0
 11
7.4228330252
 21
7.1133379389
 31
0.0
  0
SPLINE
  5
1C2
330
1F
100
AcDbEntity
  8
0
  6
Continuous
 62
     7
370
     0
100
AcDbSpline
210
0.0
220
0.0
230
1.0
 70
    24
 71
     1
 72
     4
 73
     2
 74
     0
 42
0.00000001
 43
0.00000001
 40
0.0
 40
0.0
 40
1.0
 40
1.0
 10
7.411320548310153
 20
7.129411273870167
 30
0.0
 10
7.435769865184948
 20
7.120806217680865
 30
0.0
  0
LINE
  5
1C3
330
1F
100
AcDbEntity
  8
0
  6
Continuous
 62
     7
370
     0
100
AcDbLine
 10
7.4491668317
 20
7.1512594682
 30
0.0
 11
7.4113205483
 21
7.1294112739
 31
0.0
  0
ARC
  5
1C4
330
1F
100
AcDbEntity
  8
0
  6
Continuous
 62
     7
370
     0
100
AcDbCircle
 10
7.0021218246
 20
6.5932739234
 30
0.0
 40
0.714980493931188
100
AcDbArc
 50
51.2991062614
 51
52.8966044793
  0
LINE
  5
1C5
330
1F
100
AcDbEntity
  8
0
  6
Continuous
 62
     7
370
     0
100
AcDbLine
 10
7.3756752048
 20
7.1301598145
 30
0.0
 11
7.433437564
 21
7.1635053147
 31
0.0
  0
ARC
  5
1C6
330
1F
100
AcDbEntity
  8
0
  6
Continuous
 62
     7
370
     0
100
AcDbCircle
 10
6.9461542574
 20
6.5622601402
 30
0.0
 40
0.7120381200367795
100
AcDbArc
 50
51.5880603122
 51
52.8986010793
  0
LINE
  5
1C7
330
1F
100
AcDbEntity
  8
0
  6
Continuous
 62
     7
370
     0
100
AcDbLine
 10
7.3284201193
 20
7.1788460303
 30
0.0
 11
7.3410125891
 21
7.1861155084
 31
0.0
  0
ARC
  5
1C8
330
1F
100
AcDbEntity
  8
0
  6
Continuous
 62
     7
370
     0
100
AcDbCircle
 10
7.0151181188
 20
6.6477439554
 30
0.0
 40
0.6166259461764573
100
AcDbArc
 50
54.7911606229
 51
59.4632543764
  0
LINE
  5
1C9
330
1F
100
AcDbEntity
  8
0
  6
Continuous
 62
     7
370
     0
100
AcDbLine
 10
7.3832314423
 20
7.1588313372
 30
0.0
 11
7.3706389725
 21
7.1515618591
 31
0.0
  0
ARC
  5
1CA
330
1F
100
AcDbEntity
  8
0
  6
Continuous
 62
     7
370
     0
100
AcDbCircle
 10
7.0277105886
 20
6.6550134335
 30
0.0
 40
0.6166259461756272
100
AcDbArc
 50
54.7911606229
 51
59.4632543764
  0
SPLINE
  5
1CB
330
1F
100
AcDbEntity
  8
0
  6
Continuous
 62
     7
370
     0
100
AcDbSpline
210
0.0
220
0.0
230
1.0
 70
    24
 71
     1
 72
     4
 73
     2
 74
     0
 42
0.00000001
 43
0.00000001
 40
0.0
 40
0.0
 40
1.0
 40
1.0
 10
7.266300117353157
 20
7.226584575969174
 30
0.0
 10
7.272676047514805
 20
7.226991763822938
 30
0.0
  0
ARC
  5
1CC
330
1F
100
AcDbEntity
  8
0
  6
Continuous
 62
     7
370
     0
100
AcDbCircle
 10
7.2668026928
 20
7.2460511233
 30
0.0
 40
0.019473033887923
100
AcDbArc
 50
252.1364324572
 51
268.5211010231
  0
SPLINE
  5
1CD
330
1F
100
AcDbEntity
  8
0
  6
Continuous
 62
     7
370
     0
100
AcDbSpline
210
0.0
220
0.0
230
1.0
 70
     8
 71
     3
 72
    14
 73
    10
 74
     0
 42
0.00000001
 43
0.00000001
 40
0.0
 40
0.0
 40
0.0
 40
0.0
 40
0.2500538291744447
 40
0.3811582947751959
 40
0.5001174285988204
 40
0.6244839575499993
 40
0.7452085715103629
 40
0.8651112779985026
 40
1.0
 40
1.0
 40
1.0
 40
1.0
 10
7.262843046992211
 20
7.235875207876065
 30
0.0
 10
7.261695187576572
 20
7.235166654834647
 30
0.0
 10
7.259945499763548
 20
7.234086603911549
 30
0.0
 10
7.258284859557034
 20
7.232532406211797
 30
0.0
 10
7.257539295424904
 20
7.231331580819124
 30
0.0
 10
7.2574406584847
 20
7.230188881598482
 30
0.0
 10
7.257955710304389
 20
7.229140686099199
 30
0.0
 10
7.25910877050196
 20
7.22823190126778
 30
0.0
 10
7.260233741801572
 20
7.227764393689375
 30
0.0
 10
7.260829311055188
 20
7.227516891251201
 30
0.0
  0
ARC
  5
1CE
330
1F
100
AcDbEntity
  8
0
  6
Continuous
 62
     7
370
     0
100
AcDbCircle
 10
7.2750748644
 20
7.2180602603
 30
0.0
 40
0.0216099448468052
100
AcDbArc
 50
76.1540256861
 51
124.4736551782
  0
SPLINE
  5
1CF
330
1F
100
AcDbEntity
  8
0
  6
Continuous
 62
     7
370
     0
100
AcDbSpline
210
0.0
220
0.0
230
1.0
 70
     8
 71
     3
 72
    12
 73
     8
 74
     0
 42
0.00000001
 43
0.00000001
 40
0.0
 40
0.0
 40
0.0
 40
0.0
 40
0.2504185685208891
 40
0.5000021284471712
 40
0.6269887454558083
 40
0.7506566053525929
 40
1.0
 40
1.0
 40
1.0
 40
1.0
 10
7.280086774741867
 20
7.231713621777067
 30
0.0
 10
7.280886721899765
 20
7.232361289583566
 30
0.0
 10
7.282483948830491
 20
7.233654465579616
 30
0.0
 10
7.283349036960907
 20
7.235440559110164
 30
0.0
 10
7.28317751617193
 20
7.236763069049008
 30
0.0
 10
7.282487927452394
 20
7.238000561762234
 30
0.0
 10
7.281144455389622
 20
7.238624917965977
 30
0.0
 10
7.280246397004882
 20
7.239042275601742
 30
0.0
  0
SPLINE
  5
1D0
330
1F
100
AcDbEntity
  8
0
  6
Continuous
 62
     7
370
     0
100
AcDbSpline
210
0.0
220
0.0
230
1.0
 70
    24
 71
     1
 72
     4
 73
     2
 74
     0
 42
0.00000001
 43
0.00000001
 40
0.0
 40
0.0
 40
1.0
 40
1.0
 10
7.297603496551471
 20
7.226385898332285
 30
0.0
 10
7.280086774741867
 20
7.231713621777067
 30
0.0
  0
SPLINE
  5
1D1
330
1F
100
AcDbEntity
  8
0
  6
Continuous
 62
     7
370
     0
100
AcDbSpline
210
0.0
220
0.0
230
1.0
 70
     8
 71
     3
 72
    12
 73
     8
 74
     0
 42
0.00000001
 43
0.00000001
 40
0.0
 40
0.0
 40
0.0
 40
0.0
 40
0.2504240434343987
 40
0.499914545339976
 40
0.6247093935789376
 40
0.7503037755852647
 40
1.0
 40
1.0
 40
1.0
 40
1.0
 10
7.289696477387484
 20
7.244645093317867
 30
0.0
 10
7.292169978838998
 20
7.243668799152921
 30
0.0
 10
7.297107760916843
 20
7.241719850294445
 30
0.0
 10
7.301191930325537
 20
7.238046626531375
 30
0.0
 10
7.302133573041722
 20
7.234567707320458
 30
0.0
 10
7.301639701009178
 20
7.230876246173387
 30
0.0
 10
7.29921605055154
 20
7.228179892776508
 30
0.0
 10
7.297603496551471
 20
7.226385898332285
 30
0.0
  0
ARC
  5
1D2
330
1F
100
AcDbEntity
  8
0
  6
Continuous
 62
     7
370
     0
100
AcDbCircle
 10
7.2731584742
 20
7.1931570497
 30
0.0
 40
0.0540788700189563
100
AcDbArc
 50
72.1929377144
 51
120.2255489295
  0
SPLINE
  5
1D3
330
1F
100
AcDbEntity
  8
0
  6
Continuous
 62
     7
370
     0
100
AcDbSpline
210
0.0
220
0.0
230
1.0
 70
     8
 71
     3
 72
    13
 73
     9
 74
     0
 42
0.00000001
 43
0.00000001
 40
0.0
 40
0.0
 40
0.0
 40
0.0
 40
0.2497868956771527
 40
0.3752957420398146
 40
0.5002657264246021
 40
0.627046957592077
 40
0.7507135917215126
 40
1.0
 40
1.0
 40
1.0
 40
1.0
 10
7.24647606364486
 20
7.223498010934907
 30
0.0
 10
7.244232602671318
 20
7.224422761387592
 30
0.0
 10
7.240861884009234
 20
7.225812165368938
 30
0.0
 10
7.2385847516221
 20
7.228428079004861
 30
0.0
 10
7.237932313556408
 20
7.230622809574343
 30
0.0
 10
7.238349976364094
 20
7.232949889120188
 30
0.0
 10
7.240314949973986
 20
7.236154957119584
 30
0.0
 10
7.243683382946183
 20
7.238389993710189
 30
0.0
 10
7.245934885043456
 20
7.23988391970271
 30
0.0
  0
SPLINE
  5
1D4
330
1F
100
AcDbEntity
  8
0
  6
Continuous
 62
     7
370
     0
100
AcDbSpline
210
0.0
220
0.0
230
1.0
 70
    24
 71
     1
 72
     4
 73
     2
 74
     0
 42
0.00000001
 43
0.00000001
 40
0.0
 40
0.0
 40
1.0
 40
1.0
 10
7.259084150695207
 20
7.221292555553695
 30
0.0
 10
7.24647606364486
 20
7.223498010934907
 30
0.0
  0
SPLINE
  5
1D5
330
1F
100
AcDbEntity
  8
0
  6
Continuous
 62
     7
370
     0
100
AcDbSpline
210
0.0
220
0.0
230
1.0
 70
    24
 71
     1
 72
     4
 73
     2
 74
     0
 42
0.00000001
 43
0.00000001
 40
0.0
 40
0.0
 40
1.0
 40
1.0
 10
7.249221704548334
 20
7.216864549555584
 30
0.0
 10
7.259084150695207
 20
7.221292555553695
 30
0.0
  0
ARC
  5
1D6
330
1F
100
AcDbEntity
  8
0
  6
Continuous
 62
     7
370
     0
100
AcDbCircle
 10
7.1091297222
 20
6.8386279632
 30
0.0
 40
0.4033468467094981
100
AcDbArc
 50
69.6762826812
 51
73.3955930361
  0
LINE
  5
1D7
330
1F
100
AcDbEntity
  8
0
  6
Continuous
 62
     7
370
     0
100
AcDbLine
 10
7.2117984851
 20
7.2178860094
 30
0.0
 11
7.2243909549
 21
7.2251554875
 31
0.0
  0
ARC
  5
1D8
330
1F
100
AcDbEntity
  8
0
  6
Continuous
 62
     7
370
     0
100
AcDbCircle
 10
7.0934341475
 20
6.82188623
 30
0.0
 40
0.4133109503394613
100
AcDbArc
 50
67.9563768579
 51
73.3585942257
  0
SPLINE
  5
1D9
330
1F
100
AcDbEntity
  8
0
  6
Continuous
 62
     7
370
     0
100
AcDbSpline
210
0.0
220
0.0
230
1.0
 70
    24
 71
     1
 72
     4
 73
     2
 74
     0
 42
0.00000001
 43
0.00000001
 40
0.0
 40
0.0
 40
1.0
 40
1.0
 10
7.284031088760773
 20
7.22058176570288
 30
0.0
 10
7.248554877381776
 20
7.204983477259374
 30
0.0
  0
SPLINE
  5
1DA
330
1F
100
AcDbEntity
  8
0
  6
Continuous
 62
     7
370
     0
100
AcDbSpline
210
0.0
220
0.0
230
1.0
 70
    24
 71
     1
 72
     4
 73
     2
 74
     0
 42
0.00000001
 43
0.00000001
 40
0.0
 40
0.0
 40
1.0
 40
1.0
 10
7.272676047514805
 20
7.226991763822938
 30
0.0
 10
7.284031088760773
 20
7.22058176570288
 30
0.0
  0
LINE
  5
1DB
330
1F
100
AcDbEntity
  8
0
  6
Continuous
 62
     7
370
     0
100
AcDbLine
 10
7.1489148491
 20
7.2523253958
 30
0.0
 11
7.1699099515
 21
7.2644456104
 31
0.0
  0
ARC
  5
1DC
330
1F
100
AcDbEntity
  8
0
  6
Continuous
 62
     7
370
     0
100
AcDbCircle
 10
7.1299699509
 20
7.2813109621
 30
0.0
 40
0.0346276222825798
100
AcDbArc
 50
277.7932851046
 51
303.1685367464
  0
SPLINE
  5
1DD
330
1F
100
AcDbEntity
  8
0
  6
Continuous
 62
     7
370
     0
100
AcDbSpline
210
0.0
220
0.0
230
1.0
 70
     8
 71
     3
 72
    11
 73
     7
 74
     0
 42
0.00000001
 43
0.00000001
 40
0.0
 40
0.0
 40
0.0
 40
0.0
 40
0.2494767937937491
 40
0.5035301868754385
 40
0.7522417857671594
 40
1.0
 40
1.0
 40
1.0
 40
1.0
 10
7.134045286288889
 20
7.248729863209228
 30
0.0
 10
7.13373872047878
 20
7.248465848595845
 30
0.0
 10
7.133119964973281
 20
7.247932976076548
 30
0.0
 10
7.132959958159418
 20
7.247347561378178
 30
0.0
 10
7.13343682263535
 20
7.24699636498671
 30
0.0
 10
7.134256423979759
 20
7.24700090430043
 30
0.0
 10
7.134665437700444
 20
7.247003169598806
 30
0.0
  0
SPLINE
  5
1DE
330
1F
100
AcDbEntity
  8
0
  6
Continuous
 62
     7
370
     0
100
AcDbSpline
210
0.0
220
0.0
230
1.0
 70
    24
 71
     1
 72
     4
 73
     2
 74
     0
 42
0.00000001
 43
0.00000001
 40
0.0
 40
0.0
 40
1.0
 40
1.0
 10
7.137460006697229
 20
7.250837273587085
 30
0.0
 10
7.13404528628889
 20
7.248729863209228
 30
0.0
  0
LINE
  5
1DF
330
1F
100
AcDbEntity
  8
0
  6
Continuous
 62
     7
370
     0
100
AcDbLine
 10
7.1601195649
 20
7.2639183581
 30
0.0
 11
7.1374600067
 21
7.2508372736
 31
0.0
  0
ARC
  5
1E0
330
1F
100
AcDbEntity
  8
0
  6
Continuous
 62
     7
370
     0
100
AcDbCircle
 10
7.177628274
 20
7.0256580609
 30
0.0
 40
0.2389027503414479
100
AcDbArc
 50
94.2028622118
 51
97.4872056499
  0
LINE
  5
1E1
330
1F
100
AcDbEntity
  8
0
  6
Continuous
 62
     7
370
     0
100
AcDbLine
 10
7.1252619384
 20
7.2502645474
 30
0.0
 11
7.1464980999
 21
7.2625239225
 31
0.0
  0
ARC
  5
1E2
330
1F
100
AcDbEntity
  8
0
  6
Continuous
 62
     7
370
     0
100
AcDbCircle
 10
7.1025147174
 20
7.2860472887
 30
0.0
 40
0.0424009509273408
100
AcDbArc
 50
282.2624639916
 51
302.444271302
  0
SPLINE
  5
1E3
330
1F
100
AcDbEntity
  8
0
  6
Continuous
 62
     7
370
     0
100
AcDbSpline
210
0.0
220
0.0
230
1.0
 70
     8
 71
     3
 72
    10
 73
     6
 74
     0
 42
0.00000001
 43
0.00000001
 40
0.0
 40
0.0
 40
0.0
 40
0.0
 40
0.4988594542991794
 40
0.7491987595266262
 40
1.0
 40
1.0
 40
1.0
 40
1.0
 10
7.11032096835454
 20
7.245303842196033
 30
0.0
 10
7.110182286336615
 20
7.245042661976413
 30
0.0
 10
7.109974010448682
 20
7.244650415433092
 30
0.0
 10
7.110616175179283
 20
7.244506632027691
 30
0.0
 10
7.111218717264252
 20
7.244578001138761
 30
0.0
 10
7.111520266008698
 20
7.244613718587171
 30
0.0
  0
SPLINE
  5
1E4
330
1F
100
AcDbEntity
  8
0
  6
Continuous
 62
     7
370
     0
100
AcDbSpline
210
0.0
220
0.0
230
1.0
 70
     8
 71
     3
 72
     9
 73
     5
 74
     0
 42
0.00000001
 43
0.00000001
 40
0.0
 40
0.0
 40
0.0
 40
0.0
 40
0.5015784057012799
 40
1.0
 40
1.0
 40
1.0
 40
1.0
 10
7.113559858708531
 20
7.247540057348036
 30
0.0
 10
7.112836376348977
 20
7.247117482427473
 30
0.0
 10
7.111393965050302
 20
7.2462749921692
 30
0.0
 10
7.11067788040507
 20
7.245626876861157
 30
0.0
 10
7.11032096835454
 20
7.245303842196033
 30
0.0
  0
LINE
  5
1E5
330
1F
100
AcDbEntity
  8
0
  6
Continuous
 62
     7
370
     0
100
AcDbLine
 10
7.1369999893
 20
7.2610717567
 30
0.0
 11
7.1135598587
 21
7.2475400573
 31
0.0
  0
ARC
  5
1E6
330
1F
100
AcDbEntity
  8
0
  6
Continuous
 62
     7
370
     0
100
AcDbCircle
 10
7.1750707284
 20
7.0426238139
 30
0.0
 40
0.2217405801592947
100
AcDbArc
 50
99.8861196972
 51
103.337830796
  0
LINE
  5
1E7
330
1F
100
AcDbEntity
  8
0
  6
Continuous
 62
     7
370
     0
100
AcDbLine
 10
7.0980776521
 20
7.2434666559
 30
0.0
 11
7.1239168951
 21
7.2583833334
 31
0.0
  0
SPLINE
  5
1E8
330
1F
100
AcDbEntity
  8
0
  6
Continuous
 62
     7
370
     0
100
AcDbSpline
210
0.0
220
0.0
230
1.0
 70
     8
 71
     3
 72
    13
 73
     9
 74
     0
 42
0.00000001
 43
0.00000001
 40
0.0
 40
0.0
 40
0.0
 40
0.0
 40
0.2493026324882743
 40
0.3767800005167096
 40
0.4994269650591289
 40
0.6183515801773081
 40
0.7497380290330592
 40
0.9999999999999999
 40
0.9999999999999999
 40
0.9999999999999999
 40
0.9999999999999999
 10
7.093469148013528
 20
7.23652520589676
 30
0.0
 10
7.091913563081111
 20
7.236294528262708
 30
0.0
 10
7.08956255183911
 20
7.235945896889629
 30
0.0
 10
7.088552949607355
 20
7.236457971167631
 30
0.0
 10
7.088831356031132
 20
7.237265956600258
 30
0.0
 10
7.090194869865711
 20
7.238499894843315
 30
0.0
 10
7.093087167982254
 20
7.240522624367456
 30
0.0
 10
7.096101219378355
 20
7.242300700830793
 30
0.0
 10
7.098077652146856
 20
7.243466655927505
 30
0.0
  0
ARC
  5
1E9
330
1F
100
AcDbEntity
  8
0
  6
Continuous
 62
     7
370
     0
100
AcDbCircle
 10
7.0760250176
 20
7.3270580712
 30
0.0
 40
0.0921981419479817
100
AcDbArc
 50
280.90625394
 51
293.315395257
  0
SPLINE
  5
1EA
330
1F
100
AcDbEntity
  8
0
  6
Continuous
 62
     7
370
     0
100
AcDbSpline
210
0.0
220
0.0
230
1.0
 70
     8
 71
     3
 72
    12
 73
     8
 74
     0
 42
0.00000001
 43
0.00000001
 40
0.0
 40
0.0
 40
0.0
 40
0.0
 40
0.2503253654036821
 40
0.4999978777421017
 40
0.7494826629082506
 40
0.874698218791789
 40
1.0
 40
1.0
 40
1.0
 40
1.0
 10
7.116331365069611
 20
7.239498830433598
 30
0.0
 10
7.115282127911143
 20
7.239432948114644
 30
0.0
 10
7.113186390023628
 20
7.23930135529901
 30
0.0
 10
7.111140172915446
 20
7.239628698495951
 30
0.0
 10
7.111021547902427
 20
7.240553274233441
 30
0.0
 10
7.111669880444672
 20
7.24153788064892
 30
0.0
 10
7.112234115244615
 20
7.242105110739405
 30
0.0
 10
7.112516329746306
 20
7.242388823401841
 30
0.0
  0
ARC
  5
1EB
330
1F
100
AcDbEntity
  8
0
  6
Continuous
 62
     7
370
     0
100
AcDbCircle
 10
7.1095943017
 20
7.3097628129
 30
0.0
 40
0.0705862256951117
100
AcDbArc
 50
275.476901035
 51
291.729340877
  0
LINE
  5
1EC
330
1F
100
AcDbEntity
  8
0
  6
Continuous
 62
     7
370
     0
100
AcDbLine
 10
7.1297233913
 20
7.2407264668
 30
0.0
 11
7.1357269116
 21
7.2441922253
 31
0.0
  0
ARC
  5
1ED
330
1F
100
AcDbEntity
  8
0
  6
Continuous
 62
     7
370
     0
100
AcDbCircle
 10
7.1376447795
 20
6.9793039759
 30
0.0
 40
0.2615424768022628
100
AcDbArc
 50
88.8547270084
 51
91.7355938894
  0
LINE
  5
1EE
330
1F
100
AcDbEntity
  8
0
  6
Continuous
 62
     7
370
     0
100
AcDbLine
 10
7.1840131057
 20
7.2645442587
 30
0.0
 11
7.1428723475
 21
7.2407942046
 31
0.0
  0
ARC
  5
1EF
330
1F
100
AcDbEntity
  8
0
  6
Continuous
 62
     7
370
     0
100
AcDbCircle
 10
7.17878681
 20
7.0035455299
 30
0.0
 40
0.2610510498909521
100
AcDbArc
 50
88.8528500583
 51
91.948678603
  0
LWPOLYLINE
  5
1F0
330
1F
100
AcDbEntity
  8
0
  6
Continuous
 62
     7
370
     0
100
AcDbPolyline
 90
       41
 70
   128
 43
0.0
 10
8.6055890123
 20
6.7382324549
 10
8.6135374845
 20
6.743070845
 10
8.6360240224
 20
6.7597947801
 10
8.6563677206
 20
6.7797488709
 10
8.6744366423
 20
6.8028037072
 10
8.6901136038
 20
6.8288097698
 10
8.7032969338
 20
6.8575983992
 10
8.7139011335
 20
6.8889828902
 10
8.7218574305
 20
6.9227597022
 10
8.7271142252
 20
6.9587097798
 10
8.7296374252
 20
6.9965999729
 10
8.7294106667
 20
7.036184549
 10
8.7264354202
 20
7.0772067869
 10
8.7207309814
 20
7.1194006417
 10
8.7123343457
 20
7.1624924702
 10
8.7012999686
 20
7.2062028051
 10
8.6876994122
 20
7.2502481682
 10
8.6716208814
 20
7.2943429085
 10
8.6531686515
 20
7.3382010547
 10
8.6324623924
 20
7.3815381697
 10
8.6096363921
 20
7.4240731959
 10
8.584838686
 20
7.4655302772
 10
8.5582300968
 20
7.5056405485
 10
8.5299831912
 20
7.5441438794
 10
8.5002811615
 20
7.580790561
 10
8.4693166365
 20
7.6153429255
 10
8.4372904332
 20
7.6475768875
 10
8.4044102537
 20
7.6772833975
 10
8.3708893387
 20
7.7042697973
 10
8.3369450842
 20
7.7283610697
 10
8.3027976316
 20
7.7494009736
 10
8.2686684402
 20
7.7672530572
 10
8.2347788511
 20
7.7818015429
 10
8.2013486512
 20
7.7929520781
 10
8.1685946481
 20
7.8006323473
 10
8.1367292641
 20
7.804792541
 10
8.1059591586
 20
7.8054056789
 10
8.0764838873
 20
7.8024677844
 10
8.0484946088
 20
7.7959979109
 10
8.0221728443
 20
7.7860380181
 10
8.0056377727
 20
7.7774910898
  0
LINE
  5
1F1
330
1F
100
AcDbEntity
  8
0
  6
Continuous
 62
     7
370
     0
100
AcDbLine
 10
7.2220858634
 20
7.2451668728
 30
0.0
 11
7.2430809657
 21
7.2572870874
 31
0.0
  0
ARC
  5
1F2
330
1F
100
AcDbEntity
  8
0
  6
Continuous
 62
     7
370
     0
100
AcDbCircle
 10
7.2095178954
 20
7.263274069
 30
0.0
 40
0.0220414240252865
100
AcDbArc
 50
264.4463830341
 51
304.7640089845
  0
SPLINE
  5
1F3
330
1F
100
AcDbEntity
  8
0
  6
Continuous
 62
     7
370
     0
100
AcDbSpline
210
0.0
220
0.0
230
1.0
 70
     8
 71
     3
 72
    11
 73
     7
 74
     0
 42
0.00000001
 43
0.00000001
 40
0.0
 40
0.0
 40
0.0
 40
0.0
 40
0.2494767938027595
 40
0.5035301869086323
 40
0.7522417857741881
 40
1.0
 40
1.0
 40
1.0
 40
1.0
 10
7.206415696915721
 20
7.244182205238854
 30
0.0
 10
7.206124154266424
 20
7.24387055830285
 30
0.0
 10
7.205535720679254
 20
7.243241547333359
 30
0.0
 10
7.205459686800831
 20
7.242388534737976
 30
0.0
 10
7.206041533686655
 20
7.241700701947417
 30
0.0
 10
7.206937610320177
 20
7.241457482223055
 30
0.0
 10
7.207384788256634
 20
7.241336105891638
 30
0.0
  0
SPLINE
  5
1F4
330
1F
100
AcDbEntity
  8
0
  6
Continuous
 62
     7
370
     0
100
AcDbSpline
210
0.0
220
0.0
230
1.0
 70
    24
 71
     1
 72
     4
 73
     2
 74
     0
 42
0.00000001
 43
0.00000001
 40
0.0
 40
0.0
 40
1.0
 40
1.0
 10
7.209806845226956
 20
7.246364263568024
 30
0.0
 10
7.206415696915721
 20
7.244182205238852
 30
0.0
  0
LINE
  5
1F5
330
1F
100
AcDbEntity
  8
0
  6
Continuous
 62
     7
370
     0
100
AcDbLine
 10
7.2324664034
 20
7.2594453481
 30
0.0
 11
7.2098068452
 21
7.2463642636
 31
0.0
  0
ARC
  5
1F6
330
1F
100
AcDbEntity
  8
0
  6
Continuous
 62
     7
370
     0
100
AcDbCircle
 10
7.1740157468
 20
6.9464356542
 30
0.0
 40
0.3184203946063354
100
AcDbArc
 50
79.4225532523
 51
82.1343403971
  0
LINE
  5
1F7
330
1F
100
AcDbEntity
  8
0
  6
Continuous
 62
     7
370
     0
100
AcDbLine
 10
7.1963556891
 20
7.2496008675
 30
0.0
 11
7.2175918506
 21
7.2618602425
 31
0.0
  0
ARC
  5
1F8
330
1F
100
AcDbEntity
  8
0
  6
Continuous
 62
     7
370
     0
100
AcDbCircle
 10
7.1827950472
 20
7.2695850653
 30
0.0
 40
0.0241507592681529
100
AcDbArc
 50
268.3403245858
 51
304.1595692322
  0
SPLINE
  5
1F9
330
1F
100
AcDbEntity
  8
0
  6
Continuous
 62
     7
370
     0
100
AcDbSpline
210
0.0
220
0.0
230
1.0
 70
     8
 71
     3
 72
    10
 73
     6
 74
     0
 42
0.00000001
 43
0.00000001
 40
0.0
 40
0.0
 40
0.0
 40
0.0
 40
0.4988594542991702
 40
0.7491987595266324
 40
1.0
 40
1.0
 40
1.0
 40
1.0
 10
7.180557156283225
 20
7.247089243243504
 30
0.0
 10
7.180464032966611
 20
7.246700760756257
 30
0.0
 10
7.180324178198521
 20
7.246117328699321
 30
0.0
 10
7.181092233268894
 20
7.245618875558395
 30
0.0
 10
7.18176092218516
 20
7.245502619253745
 30
0.0
 10
7.182095574831266
 20
7.245444437520758
 30
0.0
  0
SPLINE
  5
1FA
330
1F
100
AcDbEntity
  8
0
  6
Continuous
 62
     7
370
     0
100
AcDbSpline
210
0.0
220
0.0
230
1.0
 70
     8
 71
     3
 72
     9
 73
     5
 74
     0
 42
0.00000001
 43
0.00000001
 40
0.0
 40
0.0
 40
0.0
 40
0.0
 40
0.5015784057012934
 40
1.0
 40
1.0
 40
1.0
 40
1.0
 10
7.18370258637019
 20
7.249585551211378
 30
0.0
 10
7.182980420157695
 20
7.249159363849791
 30
0.0
 10
7.181540632869634
 20
7.248309671445285
 30
0.0
 10
7.180884291163034
 20
7.247495195595214
 30
0.0
 10
7.180557156283225
 20
7.247089243243504
 30
0.0
  0
LINE
  5
1FB
330
1F
100
AcDbEntity
  8
0
  6
Continuous
 62
     7
370
     0
100
AcDbLine
 10
7.207142717
 20
7.2631172506
 30
0.0
 11
7.1837025864
 21
7.2495855512
 31
0.0
  0
ARC
  5
1FC
330
1F
100
AcDbEntity
  8
0
  6
Continuous
 62
     7
370
     0
100
AcDbCircle
 10
7.1778578446
 20
6.9781658116
 30
0.0
 40
0.2864523107922112
100
AcDbArc
 50
84.1322302419
 51
87.0422115923
  0
LINE
  5
1FD
330
1F
100
AcDbEntity
  8
0
  6
Continuous
 62
     7
370
     0
100
AcDbLine
 10
7.1667996041
 20
7.2493198392
 30
0.0
 11
7.192638847
 21
7.2642365167
 31
0.0
  0
SPLINE
  5
1FE
330
1F
100
AcDbEntity
  8
0
  6
Continuous
 62
     7
370
     0
100
AcDbSpline
210
0.0
220
0.0
230
1.0
 70
     8
 71
     3
 72
    13
 73
     9
 74
     0
 42
0.00000001
 43
0.00000001
 40
0.0
 40
0.0
 40
0.0
 40
0.0
 40
0.2493026324883196
 40
0.3767800005113625
 40
0.4994269650591024
 40
0.6183515801689198
 40
0.749738029033014
 40
1.0
 40
1.0
 40
1.0
 40
1.0
 10
7.163459788708061
 20
7.238991246650003
 30
0.0
 10
7.161722663358806
 20
7.239256580735371
 30
0.0
 10
7.159097283580631
 20
7.239657589644996
 30
0.0
 10
7.157758649606773
 20
7.241044931013685
 30
0.0
 10
7.157835234274472
 20
7.242384752209249
 30
0.0
 10
7.159054588981931
 20
7.243995359029279
 30
0.0
 10
7.161830454274478
 20
7.246320692418672
 30
0.0
 10
7.164831620600356
 20
7.248132056282531
 30
0.0
 10
7.166799604118398
 20
7.249319839244944
 30
0.0
  0
ARC
  5
1FF
330
1F
100
AcDbEntity
  8
0
  6
Continuous
 62
     7
370
     0
100
AcDbCircle
 10
7.16759545
 20
7.2906530971
 30
0.0
 40
0.0518271211050215
100
AcDbArc
 50
265.4230887253
 51
288.1284254573
  0
SPLINE
  5
200
330
1F
100
AcDbEntity
  8
0
  6
Continuous
 62
     7
370
     0
100
AcDbSpline
210
0.0
220
0.0
230
1.0
 70
     8
 71
     3
 72
    12
 73
     8
 74
     0
 42
0.00000001
 43
0.00000001
 40
0.0
 40
0.0
 40
0.0
 40
0.0
 40
0.2503253654036833
 40
0.4999978777421004
 40
0.7494826629082604
 40
0.8746982187918024
 40
1.0
 40
1.0
 40
1.0
 40
1.0
 10
7.188527134767464
 20
7.235501409876175
 30
0.0
 10
7.187380180880228
 20
7.235739903087378
 30
0.0
 10
7.185089264382171
 20
7.23621626751519
 30
0.0
 10
7.182750625178892
 20
7.237432347264983
 30
0.0
 10
7.182430506856865
 20
7.238959692486376
 30
0.0
 10
7.182951715319141
 20
7.240321239128466
 30
0.0
 10
7.183464748228218
 20
7.241039395588316
 30
0.0
 10
7.183721352972912
 20
7.241398597409036
 30
0.0
  0
ARC
  5
201
330
1F
100
AcDbEntity
  8
0
  6
Continuous
 62
     7
370
     0
100
AcDbCircle
 10
7.1959504439
 20
7.2811295711
 30
0.0
 40
0.0462280717116997
100
AcDbArc
 50
260.7594301397
 51
286.3643579752
  0
LINE
  5
202
330
1F
100
AcDbEntity
  8
0
  6
Continuous
 62
     7
370
     0
100
AcDbLine
 10
7.2029714352
 20
7.2333084667
 30
0.0
 11
7.2089749554
 21
7.2367742251
 31
0.0
  0
ARC
  5
203
330
1F
100
AcDbEntity
  8
0
  6
Continuous
 62
     7
370
     0
100
AcDbCircle
 10
7.1253515041
 20
6.8859668512
 30
0.0
 40
0.3559087685814137
100
AcDbArc
 50
75.0572045207
 51
77.4031607833
  0
LINE
  5
204
330
1F
100
AcDbEntity
  8
0
  6
Continuous
 62
     7
370
     0
100
AcDbLine
 10
7.2582649501
 20
7.2535901746
 30
0.0
 11
7.217124192
 21
7.2298401204
 31
0.0
  0
ARC
  5
205
330
1F
100
AcDbEntity
  8
0
  6
Continuous
 62
     7
370
     0
100
AcDbCircle
 10
7.1666830287
 20
6.9104746468
 30
0.0
 40
0.3551274612838258
100
AcDbArc
 50
75.0554182295
 51
77.5769504571
  0
SPLINE
  5
206
330
1F
100
AcDbEntity
  8
0
  6
Continuous
 62
     7
370
     0
100
AcDbSpline
210
0.0
220
0.0
230
1.0
 70
     8
 71
     3
 72
     9
 73
     5
 74
     0
 42
0.00000001
 43
0.00000001
 40
0.0
 40
0.0
 40
0.0
 40
0.0
 40
0.500088347908854
 40
1.0
 40
1.0
 40
1.0
 40
1.0
 10
7.354560377200134
 20
7.214554339576147
 30
0.0
 10
7.345221979532995
 20
7.210698635222228
 30
0.0
 10
7.326548483727326
 20
7.202988588847336
 30
0.0
 10
7.303939601742754
 20
7.200294179802961
 30
0.0
 10
7.292637158197913
 20
7.198947213326179
 30
0.0
  0
ARC
  5
207
330
1F
100
AcDbEntity
  8
0
  6
Continuous
 62
     7
370
     0
100
AcDbCircle
 10
7.1063487318
 20
6.7545719594
 30
0.0
 40
0.5226784967450094
100
AcDbArc
 50
61.6482036806
 51
63.5870545353
  0
SPLINE
  5
208
330
1F
100
AcDbEntity
  8
0
  6
Continuous
 62
     7
370
     0
100
AcDbSpline
210
0.0
220
0.0
230
1.0
 70
    24
 71
     1
 72
     4
 73
     2
 74
     0
 42
0.00000001
 43
0.00000001
 40
0.0
 40
0.0
 40
1.0
 40
1.0
 10
7.318523092744351
 20
7.21417142568255
 30
0.0
 10
7.338855751576162
 20
7.22268871485629
 30
0.0
  0
SPLINE
  5
209
330
1F
100
AcDbEntity
  8
0
  6
Continuous
 62
     7
370
     0
100
AcDbSpline
210
0.0
220
0.0
230
1.0
 70
    24
 71
     1
 72
     4
 73
     2
 74
     0
 42
0.00000001
 43
0.00000001
 40
0.0
 40
0.0
 40
1.0
 40
1.0
 10
7.293757100856281
 20
7.207981759844608
 30
0.0
 10
7.318523092744351
 20
7.21417142568255
 30
0.0
  0
SPLINE
  5
20A
330
1F
100
AcDbEntity
  8
0
  6
Continuous
 62
     7
370
     0
100
AcDbSpline
210
0.0
220
0.0
230
1.0
 70
    24
 71
     1
 72
     4
 73
     2
 74
     0
 42
0.00000001
 43
0.00000001
 40
0.0
 40
0.0
 40
1.0
 40
1.0
 10
7.272039020403271
 20
7.205724060860609
 30
0.0
 10
7.293757100856281
 20
7.207981759844608
 30
0.0
  0
LINE
  5
20B
330
1F
100
AcDbEntity
  8
0
  6
Continuous
 62
     7
370
     0
100
AcDbLine
 10
7.2613865027
 20
7.1995744933
 30
0.0
 11
7.2720390204
 21
7.2057240609
 31
0.0
  0
ARC
  5
20C
330
1F
100
AcDbEntity
  8
0
  6
Continuous
 62
     7
370
     0
100
AcDbCircle
 10
7.0548063537
 20
6.7313648205
 30
0.0
 40
0.5117574187477382
100
AcDbArc
 50
60.4323711732
 51
66.1923091737
  0
LINE
  5
20D
330
1F
100
AcDbEntity
  8
0
  6
Continuous
 62
     7
370
     0
100
AcDbLine
 10
7.3206604532
 20
7.184171632
 30
0.0
 11
7.307333327
 21
7.1764780458
 31
0.0
  0
ARC
  5
20E
330
1F
100
AcDbEntity
  8
0
  6
Continuous
 62
     7
370
     0
100
AcDbCircle
 10
7.0599125263
 20
6.723600606
 30
0.0
 40
0.5292590588858577
100
AcDbArc
 50
60.4840409109
 51
63.9141225898
  0
LINE
  5
20F
330
1F
100
AcDbEntity
  8
0
  6
Continuous
 62
     7
370
     0
100
AcDbLine
 10
7.3474867486
 20
7.1898529611
 30
0.0
 11
7.3600333023
 21
7.1970959324
 31
0.0
  0
ARC
  5
210
330
1F
100
AcDbEntity
  8
0
  6
Continuous
 62
     7
370
     0
100
AcDbCircle
 10
7.0341847481
 20
6.6587508862
 30
0.0
 40
0.6166259461766943
100
AcDbArc
 50
54.7911606229
 51
59.4632543764
  0
LINE
  5
211
330
1F
100
AcDbEntity
  8
0
  6
Continuous
 62
     7
370
     0
100
AcDbLine
 10
7.4022521556
 20
7.1698117612
 30
0.0
 11
7.3897056018
 21
7.1625687899
 31
0.0
  0
ARC
  5
212
330
1F
100
AcDbEntity
  8
0
  6
Continuous
 62
     7
370
     0
100
AcDbCircle
 10
7.0467313018
 20
6.6659938575
 30
0.0
 40
0.6166259461767194
100
AcDbArc
 50
54.7911606229
 51
59.4632543764
  0
LINE
  5
213
330
1F
100
AcDbEntity
  8
0
  6
Continuous
 62
     7
370
     0
100
AcDbLine
 10
7.1822044795
 20
7.3011916386
 30
0.0
 11
7.2032799349
 21
7.3133582401
 31
0.0
  0
ARC
  5
214
330
1F
100
AcDbEntity
  8
0
  6
Continuous
 62
     7
370
     0
100
AcDbCircle
 10
7.2666297544
 20
7.1187416427
 30
0.0
 40
0.2010363849290875
100
AcDbArc
 50
114.8314449689
 51
117.0711758113
  0
ARC
  5
215
330
1F
100
AcDbEntity
  8
0
  6
Continuous
 62
     7
370
     0
100
AcDbCircle
 10
7.231445618
 20
7.0970110149
 30
0.0
 40
0.2022681331352325
100
AcDbArc
 50
110.7403547961
 51
117.5131670909
  0
LINE
  5
216
330
1F
100
AcDbEntity
  8
0
  6
Continuous
 62
     7
370
     0
100
AcDbLine
 10
7.2166137961
 20
7.3189599872
 30
0.0
 11
7.1598156734
 21
7.2861711289
 31
0.0
  0
ARC
  5
217
330
1F
100
AcDbEntity
  8
0
  6
Continuous
 62
     7
370
     0
100
AcDbCircle
 10
7.2886251346
 20
7.1288809133
 30
0.0
 40
0.2032626065549795
100
AcDbArc
 50
110.7491616296
 51
114.8267931276
  0
LINE
  5
218
330
1F
100
AcDbEntity
  8
0
  6
Continuous
 62
     7
370
     0
100
AcDbLine
 10
7.3460731499
 20
7.3135219568
 30
0.0
 11
7.3658285196
 21
7.324926489
 31
0.0
  0
ARC
  5
219
330
1F
100
AcDbEntity
  8
0
  6
Continuous
 62
     7
370
     0
100
AcDbCircle
 10
7.3322273372
 20
7.3326213542
 30
0.0
 40
0.0235901146257868
100
AcDbArc
 50
264.4943370133
 51
305.9396532189
  0
SPLINE
  5
21A
330
1F
100
AcDbEntity
  8
0
  6
Continuous
 62
     7
370
     0
100
AcDbSpline
210
0.0
220
0.0
230
1.0
 70
     8
 71
     3
 72
    13
 73
     9
 74
     0
 42
0.00000001
 43
0.00000001
 40
0.0
 40
0.0
 40
0.0
 40
0.0
 40
0.2556326815345954
 40
0.3827690308577055
 40
0.5009930149486281
 40
0.625024996307227
 40
0.7509663452183765
 40
1.0
 40
1.0
 40
1.0
 40
1.0
 10
7.331857429595185
 20
7.314302310626003
 30
0.0
 10
7.331015090462093
 20
7.31379194398597
 30
0.0
 10
7.329753822412594
 20
7.313027751618178
 30
0.0
 10
7.328451911757044
 20
7.311989677691714
 30
0.0
 10
7.327799863689154
 20
7.311221428615664
 30
0.0
 10
7.327640383074817
 20
7.310509374566918
 30
0.0
 10
7.32808747996939
 20
7.309682567767749
 30
0.0
 10
7.329215107960849
 20
7.309356572133988
 30
0.0
 10
7.329964004066407
 20
7.309140067344819
 30
0.0
  0
LINE
  5
21B
330
1F
100
AcDbEntity
  8
0
  6
Continuous
 62
     7
370
     0
100
AcDbLine
 10
7.3544825508
 20
7.3273635151
 30
0.0
 11
7.3318574296
 21
7.3143023106
 31
0.0
  0
ARC
  5
21C
330
1F
100
AcDbEntity
  8
0
  6
Continuous
 62
     7
370
     0
100
AcDbCircle
 10
7.2920247653
 20
7.0106261798
 30
0.0
 40
0.3228366684860053
100
AcDbArc
 50
78.8448986282
 51
81.5377508282
  0
LINE
  5
21D
330
1F
100
AcDbEntity
  8
0
  6
Continuous
 62
     7
370
     0
100
AcDbLine
 10
7.3133835037
 20
7.3148525393
 30
0.0
 11
7.3395326798
 21
7.3299481374
 31
0.0
  0
SPLINE
  5
21E
330
1F
100
AcDbEntity
  8
0
  6
Continuous
 62
     7
370
     0
100
AcDbSpline
210
0.0
220
0.0
230
1.0
 70
     8
 71
     3
 72
    13
 73
     9
 74
     0
 42
0.00000001
 43
0.00000001
 40
0.0
 40
0.0
 40
0.0
 40
0.0
 40
0.2492945499287202
 40
0.3757665645079015
 40
0.4994575090414923
 40
0.6241755381079795
 40
0.7497536491745156
 40
1.0
 40
1.0
 40
1.0
 40
1.0
 10
7.310505496694016
 20
7.303446370140816
 30
0.0
 10
7.308757418170774
 20
7.303894280814307
 30
0.0
 10
7.306122505127724
 20
7.304569425357308
 30
0.0
 10
7.304740925918625
 20
7.306265487069318
 30
0.0
 10
7.304776081199717
 20
7.307805289066125
 30
0.0
 10
7.305914103290564
 20
7.309527630242638
 30
0.0
 10
7.308560494111759
 20
7.31191807312516
 30
0.0
 10
7.311455701725315
 20
7.313679605783409
 30
0.0
 10
7.313383503701076
 20
7.314852539331607
 30
0.0
  0
ARC
  5
21F
330
1F
100
AcDbEntity
  8
0
  6
Continuous
 62
     7
370
     0
100
AcDbCircle
 10
7.3184017701
 20
7.3499396249
 30
0.0
 40
0.0471590274967408
100
AcDbArc
 50
260.3610336477
 51
284.1829533094
  0
LINE
  5
220
330
1F
100
AcDbEntity
  8
0
  6
Continuous
 62
     7
370
     0
100
AcDbLine
 10
7.309030397
 20
7.2921376307
 30
0.0
 11
7.3299566252
 21
7.3042180852
 31
0.0
  0
ARC
  5
221
330
1F
100
AcDbEntity
  8
0
  6
Continuous
 62
     7
370
     0
100
AcDbCircle
 10
7.2271473046
 20
6.9403176513
 30
0.0
 40
0.3612231148994092
100
AcDbArc
 50
74.4104923176
 51
76.8981432733
  0
LINE
  5
222
330
1F
100
AcDbEntity
  8
0
  6
Continuous
 62
     7
370
     0
100
AcDbLine
 10
7.3810217684
 20
7.3210408751
 30
0.0
 11
7.3242236458
 21
7.2882520168
 31
0.0
  0
ARC
  5
223
330
1F
100
AcDbEntity
  8
0
  6
Continuous
 62
     7
370
     0
100
AcDbCircle
 10
7.2839454272
 20
6.9731065096
 30
0.0
 40
0.3612231148934193
100
AcDbArc
 50
74.4104923175
 51
76.8981432733
  0
ARC
  5
224
330
1F
100
AcDbEntity
  8
0
  6
Continuous
 62
     7
370
     0
100
AcDbCircle
 10
7.1818467463
 20
6.7954184478
 30
0.0
 40
0.5271517295528595
100
AcDbArc
 50
61.9793715846
 51
62.6914142743
  0
LINE
  5
225
330
1F
100
AcDbEntity
  8
0
  6
Continuous
 62
     7
370
     0
100
AcDbLine
 10
7.4409990176
 20
7.2674166088
 30
0.0
 11
7.4294970534
 21
7.2607766662
 31
0.0
  0
ARC
  5
226
330
1F
100
AcDbEntity
  8
0
  6
Continuous
 62
     7
370
     0
100
AcDbCircle
 10
7.1933487105
 20
6.8020583904
 30
0.0
 40
0.5271517295671398
100
AcDbArc
 50
61.9793715846
 51
62.6914142742
  0
LINE
  5
227
330
1F
100
AcDbEntity
  8
0
  6
Continuous
 62
     7
370
     0
100
AcDbLine
 10
7.4496833143
 20
7.2788211478
 30
0.0
 11
7.4351968085
 21
7.270458266
 31
0.0
  0
SPLINE
  5
228
330
1F
100
AcDbEntity
  8
0
  6
Continuous
 62
     7
370
     0
100
AcDbSpline
210
0.0
220
0.0
230
1.0
 70
     8
 71
     3
 72
    13
 73
     9
 74
     0
 42
0.00000001
 43
0.00000001
 40
0.0
 40
0.0
 40
0.0
 40
0.0
 40
0.2500979381483229
 40
0.3777541129302869
 40
0.4995112558106167
 40
0.6243482411510474
 40
0.7495213959044345
 40
0.9999999999999999
 40
0.9999999999999999
 40
0.9999999999999999
 40
0.9999999999999999
 10
7.451657993662129
 20
7.295116260903134
 30
0.0
 10
7.453717967528678
 20
7.294067231388628
 30
0.0
 10
7.456829403018225
 20
7.29248275125807
 30
0.0
 10
7.459295519036101
 20
7.289604571999816
 30
0.0
 10
7.459477281070409
 20
7.287145669036557
 30
0.0
 10
7.458138129297029
 20
7.284763316439142
 30
0.0
 10
7.454856213510933
 20
7.281920686502816
 30
0.0
 10
7.451752692582368
 20
7.280061094279586
 30
0.0
 10
7.449683314304065
 20
7.278821147831076
 30
0.0
  0
SPLINE
  5
229
330
1F
100
AcDbEntity
  8
0
  6
Continuous
 62
     7
370
     0
100
AcDbSpline
210
0.0
220
0.0
230
1.0
 70
    24
 71
     1
 72
     4
 73
     2
 74
     0
 42
0.00000001
 43
0.00000001
 40
0.0
 40
0.0
 40
1.0
 40
1.0
 10
7.439509594958202
 20
7.29941131168096
 30
0.0
 10
7.451657993662129
 20
7.295116260903134
 30
0.0
  0
SPLINE
  5
22A
330
1F
100
AcDbEntity
  8
0
  6
Continuous
 62
     7
370
     0
100
AcDbSpline
210
0.0
220
0.0
230
1.0
 70
    24
 71
     1
 72
     4
 73
     2
 74
     0
 42
0.00000001
 43
0.00000001
 40
0.0
 40
0.0
 40
1.0
 40
1.0
 10
7.42976832773192
 20
7.292604992935042
 30
0.0
 10
7.439509594958202
 20
7.29941131168096
 30
0.0
  0
SPLINE
  5
22B
330
1F
100
AcDbEntity
  8
0
  6
Continuous
 62
     7
370
     0
100
AcDbSpline
210
0.0
220
0.0
230
1.0
 70
    24
 71
     1
 72
     4
 73
     2
 74
     0
 42
0.00000001
 43
0.00000001
 40
0.0
 40
0.0
 40
1.0
 40
1.0
 10
7.435642412186594
 20
7.290962871839716
 30
0.0
 10
7.42976832773192
 20
7.292604992935042
 30
0.0
  0
ARC
  5
22C
330
1F
100
AcDbEntity
  8
0
  6
Continuous
 62
     7
370
     0
100
AcDbCircle
 10
7.4353976622
 20
7.2893160133
 30
0.0
 40
0.0016649461423358
100
AcDbArc
 50
346.9037676605
 51
81.5467858232
  0
SPLINE
  5
22D
330
1F
100
AcDbEntity
  8
0
  6
Continuous
 62
     7
370
     0
100
AcDbSpline
210
0.0
220
0.0
230
1.0
 70
     8
 71
     3
 72
     9
 73
     5
 74
     0
 42
0.00000001
 43
0.00000001
 40
0.0
 40
0.0
 40
0.0
 40
0.0
 40
0.5014428105295392
 40
1.0
 40
1.0
 40
1.0
 40
1.0
 10
7.4340326905982
 20
7.28668664545975
 30
0.0
 10
7.434632469589563
 20
7.287029016129185
 30
0.0
 10
7.435828576062263
 20
7.287711787249329
 30
0.0
 10
7.436623159313693
 20
7.288530555104279
 30
0.0
 10
7.437019304506326
 20
7.288938757704871
 30
0.0
  0
LINE
  5
22E
330
1F
100
AcDbEntity
  8
0
  6
Continuous
 62
     7
370
     0
100
AcDbLine
 10
7.4194313947
 20
7.2782574968
 30
0.0
 11
7.4340326906
 21
7.2866866455
 31
0.0
  0
ARC
  5
22F
330
1F
100
AcDbEntity
  8
0
  6
Continuous
 62
     7
370
     0
100
AcDbCircle
 10
7.2127552536
 20
6.841420156
 30
0.0
 40
0.4832617195575762
100
AcDbArc
 50
64.6802691475
 51
65.8075878191
  0
LINE
  5
230
330
1F
100
AcDbEntity
  8
0
  6
Continuous
 62
     7
370
     0
100
AcDbLine
 10
7.3992950226
 20
7.2755991802
 30
0.0
 11
7.4107969868
 21
7.2822391228
 31
0.0
  0
ARC
  5
231
330
1F
100
AcDbEntity
  8
0
  6
Continuous
 62
     7
370
     0
100
AcDbCircle
 10
7.2012532894
 20
6.8347802134
 30
0.0
 40
0.4832617195506911
100
AcDbArc
 50
64.6802691475
 51
65.8075878191
  0
LINE
  5
232
330
1F
100
AcDbEntity
  8
0
  6
Continuous
 62
     7
370
     0
100
AcDbLine
 10
7.3922720661
 20
7.2625787501
 30
0.0
 11
7.4079294305
 21
7.2716175542
 31
0.0
  0
SPLINE
  5
233
330
1F
100
AcDbEntity
  8
0
  6
Continuous
 62
     7
370
     0
100
AcDbSpline
210
0.0
220
0.0
230
1.0
 70
    24
 71
     1
 72
     4
 73
     2
 74
     0
 42
0.00000001
 43
0.00000001
 40
0.0
 40
0.0
 40
1.0
 40
1.0
 10
7.416141658222457
 20
7.259457961932164
 30
0.0
 10
7.392272066085917
 20
7.262578750079791
 30
0.0
  0
LINE
  5
234
330
1F
100
AcDbEntity
  8
0
  6
Continuous
 62
     7
370
     0
100
AcDbLine
 10
7.4236948443
 20
7.2638183234
 30
0.0
 11
7.4161416582
 21
7.2594579619
 31
0.0
  0
LINE
  5
235
330
1F
100
AcDbEntity
  8
0
  6
Continuous
 62
     7
370
     0
100
AcDbLine
 10
7.5365734054
 20
7.1850014355
 30
0.0
 11
7.5798836957
 21
7.2100039339
 31
0.0
  0
SPLINE
  5
236
330
1F
100
AcDbEntity
  8
0
  6
Continuous
 62
     7
370
     0
100
AcDbSpline
210
0.0
220
0.0
230
1.0
 70
    24
 71
     1
 72
     4
 73
     2
 74
     0
 42
0.00000001
 43
0.00000001
 40
0.0
 40
0.0
 40
1.0
 40
1.0
 10
7.569043585033124
 20
7.218892603826515
 30
0.0
 10
7.536573405356206
 20
7.185001435473196
 30
0.0
  0
ARC
  5
237
330
1F
100
AcDbEntity
  8
0
  6
Continuous
 62
     7
370
     0
100
AcDbCircle
 10
7.1175135463
 20
6.6575624958
 30
0.0
 40
0.7203963256359164
100
AcDbArc
 50
51.1870426582
 51
52.4782851877
  0
SPLINE
  5
238
330
1F
100
AcDbEntity
  8
0
  6
Continuous
 62
     7
370
     0
100
AcDbSpline
210
0.0
220
0.0
230
1.0
 70
    24
 71
     1
 72
     4
 73
     2
 74
     0
 42
0.00000001
 43
0.00000001
 40
0.0
 40
0.0
 40
1.0
 40
1.0
 10
7.501972076045901
 20
7.212195837052864
 30
0.0
 10
7.556279618013387
 20
7.228925078027031
 30
0.0
  0
LINE
  5
239
330
1F
100
AcDbEntity
  8
0
  6
Continuous
 62
     7
370
     0
100
AcDbLine
 10
7.5452823664
 20
7.2371983355
 30
0.0
 11
7.501972076
 21
7.2121958371
 31
0.0
  0
ARC
  5
23A
330
1F
100
AcDbEntity
  8
0
  6
Continuous
 62
     7
370
     0
100
AcDbCircle
 10
7.1479572072
 20
6.6980820612
 30
0.0
 40
0.6697116090619226
100
AcDbArc
 50
53.6100287757
 51
55.108383092
  0
LINE
  5
23B
330
1F
100
AcDbEntity
  8
0
  6
Continuous
 62
     7
370
     0
100
AcDbLine
 10
7.4742514496
 20
7.2146144925
 30
0.0
 11
7.5310495722
 21
7.2474033508
 31
0.0
  0
ARC
  5
23C
330
1F
100
AcDbEntity
  8
0
  6
Continuous
 62
     7
370
     0
100
AcDbCircle
 10
7.0860068361
 20
6.6580812095
 30
0.0
 40
0.6785743695077309
100
AcDbArc
 50
52.7156104355
 51
55.0998879761
  0
SPLINE
  5
23D
330
1F
100
AcDbEntity
  8
0
  6
Continuous
 62
     7
370
     0
100
AcDbSpline
210
0.0
220
0.0
230
1.0
 70
    24
 71
     1
 72
     4
 73
     2
 74
     0
 42
0.00000001
 43
0.00000001
 40
0.0
 40
0.0
 40
1.0
 40
1.0
 10
7.540379102597482
 20
7.211168573830758
 30
0.0
 10
7.497067950423566
 20
7.197981140332874
 30
0.0
  0
SPLINE
  5
23E
330
1F
100
AcDbEntity
  8
0
  6
Continuous
 62
     7
370
     0
100
AcDbSpline
210
0.0
220
0.0
230
1.0
 70
    24
 71
     1
 72
     4
 73
     2
 74
     0
 42
0.00000001
 43
0.00000001
 40
0.0
 40
0.0
 40
1.0
 40
1.0
 10
7.514564451547472
 20
7.184230871518756
 30
0.0
 10
7.540379102597483
 20
7.211168573830758
 30
0.0
  0
ARC
  5
23F
330
1F
100
AcDbEntity
  8
0
  6
Continuous
 62
     7
370
     0
100
AcDbCircle
 10
7.0349086228
 20
6.5930120039
 30
0.0
 40
0.761320867632119
100
AcDbArc
 50
48.7316631986
 51
50.9475824341
  0
LINE
  5
240
330
1F
100
AcDbEntity
  8
0
  6
Continuous
 62
     7
370
     0
100
AcDbLine
 10
7.5938636345
 20
7.1980315169
 30
0.0
 11
7.5370655118
 21
7.1652426587
 31
0.0
  0
ARC
  5
241
330
1F
100
AcDbEntity
  8
0
  6
Continuous
 62
     7
370
     0
100
AcDbCircle
 10
7.0860518111
 20
6.6192186102
 30
0.0
 40
0.7699982005509414
100
AcDbArc
 50
48.7384458908
 51
50.1080672274
  0
LINE
  5
242
330
1F
100
AcDbEntity
  8
0
  6
Continuous
 62
     7
370
     0
100
AcDbLine
 10
7.6618947065
 20
7.1040818926
 30
0.0
 11
7.6777012981
 21
7.1132068436
 31
0.0
  0
ARC
  5
243
330
1F
100
AcDbEntity
  8
0
  6
Continuous
 62
     7
370
     0
100
AcDbCircle
 10
6.9432070796
 20
6.4832676538
 30
0.0
 40
0.9496958587291172
100
AcDbArc
 50
39.4257780413
 51
40.8209954304
  0
LINE
  5
244
330
1F
100
AcDbEntity
  8
0
  6
Continuous
 62
     7
370
     0
100
AcDbLine
 10
7.6926042644
 20
7.0955236567
 30
0.0
 11
7.6767976728
 21
7.0863987056
 31
0.0
  0
ARC
  5
245
330
1F
100
AcDbEntity
  8
0
  6
Continuous
 62
     7
370
     0
100
AcDbCircle
 10
6.9590136712
 20
6.4923926049
 30
0.0
 40
0.9496958587423833
100
AcDbArc
 50
39.4257780413
 51
40.8209954304
  0
LINE
  5
246
330
1F
100
AcDbEntity
  8
0
  6
Continuous
 62
     7
370
     0
100
AcDbLine
 10
7.7037224676
 20
7.0021541507
 30
0.0
 11
7.7195290591
 21
7.0112791017
 31
0.0
  0
ARC
  5
247
330
1F
100
AcDbEntity
  8
0
  6
Continuous
 62
     7
370
     0
100
AcDbCircle
 10
6.857303816
 20
6.4224278416
 30
0.0
 40
1.025917699964064
100
AcDbArc
 50
33.0826733404
 51
34.4078966003
  0
LINE
  5
248
330
1F
100
AcDbEntity
  8
0
  6
Continuous
 62
     7
370
     0
100
AcDbLine
 10
7.7327102526
 20
6.9915485368
 30
0.0
 11
7.7169036611
 21
6.9824235858
 31
0.0
  0
ARC
  5
249
330
1F
100
AcDbEntity
  8
0
  6
Continuous
 62
     7
370
     0
100
AcDbCircle
 10
6.8731104075
 20
6.4315527927
 30
0.0
 40
1.025917699949907
100
AcDbArc
 50
33.0826733404
 51
34.4078966004
  0
ARC
  5
24A
330
1F
100
AcDbEntity
  8
0
  6
Continuous
 62
     7
370
     0
100
AcDbCircle
 10
7.7224869226
 20
6.896694181
 30
0.0
 40
0.0380646433280468
100
AcDbArc
 50
37.0425895817
 51
87.8106091203
  0
LINE
  5
24B
330
1F
100
AcDbEntity
  8
0
  6
Continuous
 62
     7
370
     0
100
AcDbLine
 10
7.7658065019
 20
6.9270929246
 30
0.0
 11
7.7528696619
 21
6.9196246459
 31
0.0
  0
SPLINE
  5
24C
330
1F
100
AcDbEntity
  8
0
  6
Continuous
 62
     7
370
     0
100
AcDbSpline
210
0.0
220
0.0
230
1.0
 70
    24
 71
     1
 72
     4
 73
     2
 74
     0
 42
0.00000001
 43
0.00000001
 40
0.0
 40
0.0
 40
1.0
 40
1.0
 10
7.745940853071095
 20
6.942689366632846
 30
0.0
 10
7.765806501909108
 20
6.927092924626706
 30
0.0
  0
LINE
  5
24D
330
1F
100
AcDbEntity
  8
0
  6
Continuous
 62
     7
370
     0
100
AcDbLine
 10
7.7837871365
 20
6.964537561
 30
0.0
 11
7.7459408531
 21
6.9426893666
 31
0.0
  0
ARC
  5
24E
330
1F
100
AcDbEntity
  8
0
  6
Continuous
 62
     7
370
     0
100
AcDbCircle
 10
6.8881400888
 20
6.4395835984
 30
0.0
 40
1.038152347623084
100
AcDbArc
 50
30.3752925619
 51
31.6211215416
  0
LINE
  5
24F
330
1F
100
AcDbEntity
  8
0
  6
Continuous
 62
     7
370
     0
100
AcDbLine
 10
7.7143994538
 20
6.9505412198
 30
0.0
 11
7.7721618129
 21
6.9838867199
 31
0.0
  0
ARC
  5
250
330
1F
100
AcDbEntity
  8
0
  6
Continuous
 62
     7
370
     0
100
AcDbCircle
 10
6.8305516852
 20
6.4063436279
 30
0.0
 40
1.0379488893973
100
AcDbArc
 50
30.601823758
 51
31.6211956672
  0
ARC
  5
251
330
1F
100
AcDbEntity
  8
0
  6
Continuous
 62
     7
370
     0
100
AcDbCircle
 10
7.4306215677
 20
7.1750410092
 30
0.0
 40
0.2318087403122243
100
AcDbArc
 50
109.1084769517
 51
122.332235867
  0
SPLINE
  5
252
330
1F
100
AcDbEntity
  8
0
  6
Continuous
 62
     7
370
     0
100
AcDbSpline
210
0.0
220
0.0
230
1.0
 70
    24
 71
     1
 72
     4
 73
     2
 74
     0
 42
0.00000001
 43
0.00000001
 40
0.0
 40
0.0
 40
1.0
 40
1.0
 10
7.294628211228102
 20
7.363724419344649
 30
0.0
 10
7.306643802660033
 20
7.370910368373623
 30
0.0
  0
SPLINE
  5
253
330
1F
100
AcDbEntity
  8
0
  6
Continuous
 62
     7
370
     0
100
AcDbSpline
210
0.0
220
0.0
230
1.0
 70
     8
 71
     3
 72
    12
 73
     8
 74
     0
 42
0.00000001
 43
0.00000001
 40
0.0
 40
0.0
 40
0.0
 40
0.0
 40
0.2503262674180354
 40
0.4997345046006498
 40
0.624900036359944
 40
0.7501600021982606
 40
1.0
 40
1.0
 40
1.0
 40
1.0
 10
7.295669168768323
 20
7.360080443278317
 30
0.0
 10
7.293826866049924
 20
7.359578620503101
 30
0.0
 10
7.290149016954027
 20
7.358576815304801
 30
0.0
 10
7.288149739453016
 20
7.358543663446243
 30
0.0
 10
7.288645847527418
 20
7.359476675874106
 30
0.0
 10
7.290178125656703
 20
7.360873405894057
 30
0.0
 10
7.292849145337018
 20
7.362584634344206
 30
0.0
 10
7.294628211228102
 20
7.363724419344649
 30
0.0
  0
ARC
  5
254
330
1F
100
AcDbEntity
  8
0
  6
Continuous
 62
     7
370
     0
100
AcDbCircle
 10
7.2410000034
 20
7.5506644666
 30
0.0
 40
0.1982699865918222
100
AcDbArc
 50
286.0055768077
 51
301.3454320002
  0
SPLINE
  5
255
330
1F
100
AcDbEntity
  8
0
  6
Continuous
 62
     7
370
     0
100
AcDbSpline
210
0.0
220
0.0
230
1.0
 70
     8
 71
     3
 72
     9
 73
     5
 74
     0
 42
0.00000001
 43
0.00000001
 40
0.0
 40
0.0
 40
0.0
 40
0.0
 40
0.4987092906772062
 40
0.9999999999999999
 40
0.9999999999999999
 40
0.9999999999999999
 40
0.9999999999999999
 10
7.361131497343131
 20
7.392537855149111
 30
0.0
 10
7.358985908572238
 20
7.390860372502396
 30
0.0
 10
7.354683625035509
 20
7.387496724224585
 30
0.0
 10
7.34766015372526
 20
7.383390878156465
 30
0.0
 10
7.344139352810237
 20
7.381332655668608
 30
0.0
  0
SPLINE
  5
256
330
1F
100
AcDbEntity
  8
0
  6
Continuous
 62
     7
370
     0
100
AcDbSpline
210
0.0
220
0.0
230
1.0
 70
     8
 71
     3
 72
    11
 73
     7
 74
     0
 42
0.00000001
 43
0.00000001
 40
0.0
 40
0.0
 40
0.0
 40
0.0
 40
0.250403188903165
 40
0.5003824607867589
 40
0.75009841598914
 40
0.9999999999999999
 40
0.9999999999999999
 40
0.9999999999999999
 40
0.9999999999999999
 10
7.35473719132315
 20
7.39407720143248
 30
0.0
 10
7.356148100525415
 20
7.394438634356066
 30
0.0
 10
7.358967530348447
 20
7.395160888319785
 30
0.0
 10
7.361904520351953
 20
7.395389613737638
 30
0.0
 10
7.362806118980023
 20
7.394526860482214
 30
0.0
 10
7.361689842803189
 20
7.3932010211284
 30
0.0
 10
7.361131497343131
 20
7.392537855149111
 30
0.0
  0
SPLINE
  5
257
330
1F
100
AcDbEntity
  8
0
  6
Continuous
 62
     7
370
     0
100
AcDbSpline
210
0.0
220
0.0
230
1.0
 70
     8
 71
     3
 72
     9
 73
     5
 74
     0
 42
0.00000001
 43
0.00000001
 40
0.0
 40
0.0
 40
0.0
 40
0.0
 40
0.500088347908852
 40
0.9999999999999999
 40
0.9999999999999999
 40
0.9999999999999999
 40
0.9999999999999999
 10
7.458185434028975
 20
7.398507384030297
 30
0.0
 10
7.448927184878612
 20
7.39410862302477
 30
0.0
 10
7.430413957787685
 20
7.385312655224438
 30
0.0
 10
7.408494042367159
 20
7.378745701056987
 30
0.0
 10
7.397536021235585
 20
7.375462804149929
 30
0.0
  0
ARC
  5
258
330
1F
100
AcDbEntity
  8
0
  6
Continuous
 62
     7
370
     0
100
AcDbCircle
 10
7.4136650524
 20
7.098691452
 30
0.0
 40
0.3031033775282299
100
AcDbArc
 50
81.5537324359
 51
84.3418850455
  0
SPLINE
  5
259
330
1F
100
AcDbEntity
  8
0
  6
Continuous
 62
     7
370
     0
100
AcDbSpline
210
0.0
220
0.0
230
1.0
 70
    24
 71
     1
 72
     4
 73
     2
 74
     0
 42
0.00000001
 43
0.00000001
 40
0.0
 40
0.0
 40
1.0
 40
1.0
 10
7.423441981664773
 20
7.390580191523576
 30
0.0
 10
7.443548713325626
 20
7.400318082602563
 30
0.0
  0
SPLINE
  5
25A
330
1F
100
AcDbEntity
  8
0
  6
Continuous
 62
     7
370
     0
100
AcDbSpline
210
0.0
220
0.0
230
1.0
 70
    24
 71
     1
 72
     4
 73
     2
 74
     0
 42
0.00000001
 43
0.00000001
 40
0.0
 40
0.0
 40
1.0
 40
1.0
 10
7.399283721443943
 20
7.381262829414489
 30
0.0
 10
7.423441981664773
 20
7.390580191523576
 30
0.0
  0
SPLINE
  5
25B
330
1F
100
AcDbEntity
  8
0
  6
Continuous
 62
     7
370
     0
100
AcDbSpline
210
0.0
220
0.0
230
1.0
 70
    24
 71
     1
 72
     4
 73
     2
 74
     0
 42
0.00000001
 43
0.00000001
 40
0.0
 40
0.0
 40
1.0
 40
1.0
 10
7.37842127912567
 20
7.374919522002635
 30
0.0
 10
7.399283721443943
 20
7.381262829414489
 30
0.0
  0
LINE
  5
25C
330
1F
100
AcDbEntity
  8
0
  6
Continuous
 62
     7
370
     0
100
AcDbLine
 10
7.3677687614
 20
7.3687699544
 30
0.0
 11
7.3784212791
 21
7.374919522
 31
0.0
  0
ARC
  5
25D
330
1F
100
AcDbEntity
  8
0
  6
Continuous
 62
     7
370
     0
100
AcDbCircle
 10
7.3578821925
 20
7.0722564814
 30
0.0
 40
0.2966782498328375
100
AcDbArc
 50
79.8041470536
 51
88.0903097309
  0
LINE
  5
25E
330
1F
100
AcDbEntity
  8
0
  6
Continuous
 62
     7
370
     0
100
AcDbLine
 10
7.4237253752
 20
7.3719432999
 30
0.0
 11
7.4103982491
 21
7.3642497137
 31
0.0
  0
ARC
  5
25F
330
1F
100
AcDbEntity
  8
0
  6
Continuous
 62
     7
370
     0
100
AcDbCircle
 10
7.3697487316
 20
7.0694919408
 30
0.0
 40
0.3072300484415112
100
AcDbArc
 50
79.8813
 51
84.8108166083
  0
ARC
  5
260
330
1F
100
AcDbEntity
  8
0
  6
Continuous
 62
     7
370
     0
100
AcDbCircle
 10
7.506981086
 20
7.3235117338
 30
0.0
 40
0.0618338011754571
100
AcDbArc
 50
75.3996192604
 51
126.573909731
  0
SPLINE
  5
261
330
1F
100
AcDbEntity
  8
0
  6
Continuous
 62
     7
370
     0
100
AcDbSpline
210
0.0
220
0.0
230
1.0
 70
    24
 71
     1
 72
     4
 73
     2
 74
     0
 42
0.00000001
 43
0.00000001
 40
0.0
 40
0.0
 40
1.0
 40
1.0
 10
7.458434838381159
 20
7.365092085304314
 30
0.0
 10
7.470136844158315
 20
7.373169772476101
 30
0.0
  0
SPLINE
  5
262
330
1F
100
AcDbEntity
  8
0
  6
Continuous
 62
     7
370
     0
100
AcDbSpline
210
0.0
220
0.0
230
1.0
 70
     8
 71
     3
 72
    12
 73
     8
 74
     0
 42
0.00000001
 43
0.00000001
 40
0.0
 40
0.0
 40
0.0
 40
0.0
 40
0.2503262674180372
 40
0.4997345046006485
 40
0.6249000363599437
 40
0.7501600021982587
 40
1.0
 40
1.0
 40
1.0
 40
1.0
 10
7.463425091715957
 20
7.349589146940932
 30
0.0
 10
7.461152332602892
 20
7.350436338758685
 30
0.0
 10
7.456615149345384
 20
7.352127615458144
 30
0.0
 10
7.453549867359218
 20
7.355281339360899
 30
0.0
 10
7.453370869931487
 20
7.358196529469334
 30
0.0
 10
7.454330283409066
 20
7.361254433954337
 30
0.0
 10
7.456793909542428
 20
7.363557859836271
 30
0.0
 10
7.458434838381159
 20
7.365092085304314
 30
0.0
  0
ARC
  5
263
330
1F
100
AcDbEntity
  8
0
  6
Continuous
 62
     7
370
     0
100
AcDbCircle
 10
7.4813193934
 20
7.4072023409
 30
0.0
 40
0.0603281538831262
100
AcDbArc
 50
252.7455289285
 51
304.8487930901
  0
SPLINE
  5
264
330
1F
100
AcDbEntity
  8
0
  6
Continuous
 62
     7
370
     0
100
AcDbSpline
210
0.0
220
0.0
230
1.0
 70
     8
 71
     3
 72
     9
 73
     5
 74
     0
 42
0.00000001
 43
0.00000001
 40
0.0
 40
0.0
 40
0.0
 40
0.0
 40
0.4987092906772054
 40
0.9999999999999999
 40
0.9999999999999999
 40
0.9999999999999999
 40
0.9999999999999999
 10
7.532106582583629
 20
7.371312662851
 30
0.0
 10
7.530176012010986
 20
7.36887113566774
 30
0.0
 10
7.526304877847794
 20
7.363975443470096
 30
0.0
 10
7.519302094149658
 20
7.359790924281256
 30
0.0
 10
7.515791663742387
 20
7.357693263688909
 30
0.0
  0
SPLINE
  5
265
330
1F
100
AcDbEntity
  8
0
  6
Continuous
 62
     7
370
     0
100
AcDbSpline
210
0.0
220
0.0
230
1.0
 70
     8
 71
     3
 72
    11
 73
     7
 74
     0
 42
0.00000001
 43
0.00000001
 40
0.0
 40
0.0
 40
0.0
 40
0.0
 40
0.2504031889031618
 40
0.5003824607867516
 40
0.7500984159891427
 40
0.9999999999999999
 40
0.9999999999999999
 40
0.9999999999999999
 40
0.9999999999999999
 10
7.522567890221496
 20
7.383348766620502
 30
0.0
 10
7.524297198597197
 20
7.382690948462037
 30
0.0
 10
7.527752887737113
 20
7.381376425790322
 30
0.0
 10
7.531585952392707
 20
7.378627424798794
 30
0.0
 10
7.533258953310215
 20
7.375132547320019
 30
0.0
 10
7.532490801292689
 20
7.372586273023134
 30
0.0
 10
7.532106582583629
 20
7.371312662851
 30
0.0
  0
LINE
  5
266
330
1F
100
AcDbEntity
  8
0
  6
Continuous
 62
     7
370
     0
100
AcDbLine
 10
7.5985096925
 20
7.3359016509
 30
0.0
 11
7.6091277732
 21
7.3420313384
 31
0.0
  0
ARC
  5
267
330
1F
100
AcDbEntity
  8
0
  6
Continuous
 62
     7
370
     0
100
AcDbCircle
 10
7.3129471293
 20
6.8485746228
 30
0.0
 40
0.564830602763059
100
AcDbArc
 50
59.63066662
 51
60.4652285981
  0
LINE
  5
268
330
1F
100
AcDbEntity
  8
0
  6
Continuous
 62
     7
370
     0
100
AcDbLine
 10
7.5791446959
 20
7.3329452201
 30
0.0
 11
7.5913813165
 21
7.3400092708
 31
0.0
  0
ARC
  5
269
330
1F
100
AcDbEntity
  8
0
  6
Continuous
 62
     7
370
     0
100
AcDbCircle
 10
7.3007105087
 20
6.8415105721
 30
0.0
 40
0.5648306027712081
100
AcDbArc
 50
59.63066662
 51
60.4652285981
  0
LINE
  5
26A
330
1F
100
AcDbEntity
  8
0
  6
Continuous
 62
     7
370
     0
100
AcDbLine
 10
7.5513654141
 20
7.3086858383
 30
0.0
 11
7.5862730719
 21
7.3288376002
 31
0.0
  0
ARC
  5
26B
330
1F
100
AcDbEntity
  8
0
  6
Continuous
 62
     7
370
     0
100
AcDbCircle
 10
7.2551596528
 20
6.8032869893
 30
0.0
 40
0.585803592938471
100
AcDbArc
 50
58.0548195014
 51
59.6261501035
  0
SPLINE
  5
26C
330
1F
100
AcDbEntity
  8
0
  6
Continuous
 62
     7
370
     0
100
AcDbSpline
210
0.0
220
0.0
230
1.0
 70
    24
 71
     1
 72
     4
 73
     2
 74
     0
 42
0.00000001
 43
0.00000001
 40
0.0
 40
0.0
 40
1.0
 40
1.0
 10
7.627945561175898
 20
7.301110008375758
 30
0.0
 10
7.565112801012203
 20
7.300373395746887
 30
0.0
  0
LINE
  5
26D
330
1F
100
AcDbEntity
  8
0
  6
Continuous
 62
     7
370
     0
100
AcDbLine
 10
7.6409168382
 20
7.3085981672
 30
0.0
 11
7.6279455612
 21
7.3011100084
 31
0.0
  0
ARC
  5
26E
330
1F
100
AcDbEntity
  8
0
  6
Continuous
 62
     7
370
     0
100
AcDbCircle
 10
7.2792722668
 20
6.793954164
 30
0.0
 40
0.6290033752138245
100
AcDbArc
 50
54.9039715998
 51
58.0361037764
  0
LINE
  5
26F
330
1F
100
AcDbEntity
  8
0
  6
Continuous
 62
     7
370
     0
100
AcDbLine
 10
7.6228751602
 20
7.3337188959
 30
0.0
 11
7.6122570794
 21
7.3275892084
 31
0.0
  0
ARC
  5
270
330
1F
100
AcDbEntity
  8
0
  6
Continuous
 62
     7
370
     0
100
AcDbCircle
 10
7.312922012
 20
6.8366324895
 30
0.0
 40
0.5858035929405011
100
AcDbArc
 50
58.0548195014
 51
59.6261501035
  0
SPLINE
  5
271
330
1F
100
AcDbEntity
  8
0
  6
Continuous
 62
     7
370
     0
100
AcDbSpline
210
0.0
220
0.0
230
1.0
 70
    24
 71
     1
 72
     4
 73
     2
 74
     0
 42
0.00000001
 43
0.00000001
 40
0.0
 40
0.0
 40
1.0
 40
1.0
 10
7.702225910702278
 20
7.189723558759932
 30
0.0
 10
7.738936708549377
 20
7.242417781372788
 30
0.0
  0
ARC
  5
272
330
1F
100
AcDbEntity
  8
0
  6
Continuous
 62
     7
370
     0
100
AcDbCircle
 10
7.0654763886
 20
6.568014094
 30
0.0
 40
0.8899284311064323
100
AcDbArc
 50
42.6597761605
 51
44.3152809946
  0
SPLINE
  5
273
330
1F
100
AcDbEntity
  8
0
  6
Continuous
 62
     7
370
     0
100
AcDbSpline
210
0.0
220
0.0
230
1.0
 70
    24
 71
     1
 72
     4
 73
     2
 74
     0
 42
0.00000001
 43
0.00000001
 40
0.0
 40
0.0
 40
1.0
 40
1.0
 10
7.796029749742388
 20
7.182228036041944
 30
0.0
 10
7.719921309768632
 20
7.171068368195974
 30
0.0
  0
ARC
  5
274
330
1F
100
AcDbEntity
  8
0
  6
Continuous
 62
     7
370
     0
100
AcDbCircle
 10
7.0968785473
 20
6.5774886971
 30
0.0
 40
0.9244036303901451
100
AcDbArc
 50
40.8585654729
 51
42.370077301
  0
SPLINE
  5
275
330
1F
100
AcDbEntity
  8
0
  6
Continuous
 62
     7
370
     0
100
AcDbSpline
210
0.0
220
0.0
230
1.0
 70
    24
 71
     1
 72
     4
 73
     2
 74
     0
 42
0.00000001
 43
0.00000001
 40
0.0
 40
0.0
 40
1.0
 40
1.0
 10
7.767939841476091
 20
7.197792912939208
 30
0.0
 10
7.779834784561859
 20
7.200459683523721
 30
0.0
  0
ARC
  5
276
330
1F
100
AcDbEntity
  8
0
  6
Continuous
 62
     7
370
     0
100
AcDbCircle
 10
7.1126296456
 20
6.5951315085
 30
0.0
 40
0.8902989504597381
100
AcDbArc
 50
42.6034481791
 51
44.3319160234
  0
SPLINE
  5
277
330
1F
100
AcDbEntity
  8
0
  6
Continuous
 62
     7
370
     0
100
AcDbSpline
210
0.0
220
0.0
230
1.0
 70
    24
 71
     1
 72
     4
 73
     2
 74
     0
 42
0.00000001
 43
0.00000001
 40
0.0
 40
0.0
 40
1.0
 40
1.0
 10
7.756236754198802
 20
7.225353631772488
 30
0.0
 10
7.749463670048736
 20
7.21728474245826
 30
0.0
  0
ARC
  5
278
330
1F
100
AcDbEntity
  8
0
  6
Continuous
 62
     7
370
     0
100
AcDbCircle
 10
7.1489093707
 20
6.6269321864
 30
0.0
 40
0.8526164301753475
100
AcDbArc
 50
44.5768078933
 51
46.2098036148
  0
SPLINE
  5
279
330
1F
100
AcDbEntity
  8
0
  6
Continuous
 62
     7
370
     0
100
AcDbSpline
210
0.0
220
0.0
230
1.0
 70
    24
 71
     1
 72
     4
 73
     2
 74
     0
 42
0.00000001
 43
0.00000001
 40
0.0
 40
0.0
 40
1.0
 40
1.0
 10
7.862575189039358
 20
7.094359496867084
 30
0.0
 10
7.869561770351557
 20
7.085651934711385
 30
0.0
  0
SPLINE
  5
27A
330
1F
100
AcDbEntity
  8
0
  6
Continuous
 62
     7
370
     0
100
AcDbSpline
210
0.0
220
0.0
230
1.0
 70
    24
 71
     1
 72
     4
 73
     2
 74
     0
 42
0.00000001
 43
0.00000001
 40
0.0
 40
0.0
 40
1.0
 40
1.0
 10
7.855382423818794
 20
7.100988993191
 30
0.0
 10
7.862575189039358
 20
7.094359496867084
 30
0.0
  0
ARC
  5
27B
330
1F
100
AcDbEntity
  8
0
  6
Continuous
 62
     7
370
     0
100
AcDbCircle
 10
7.8446751145
 20
7.0844392046
 30
0.0
 40
0.0197114681192313
100
AcDbArc
 50
57.0981185094
 51
117.2067618819
  0
ARC
  5
27C
330
1F
100
AcDbEntity
  8
0
  6
Continuous
 62
     7
370
     0
100
AcDbCircle
 10
7.8438271667
 20
7.0889414598
 30
0.0
 40
0.0153750714612884
100
AcDbArc
 50
122.0731753472
 51
214.680501185
  0
ARC
  5
27D
330
1F
100
AcDbEntity
  8
0
  6
Continuous
 62
     7
370
     0
100
AcDbCircle
 10
7.8155290132
 20
7.0623951256
 30
0.0
 40
0.0237030420611471
100
AcDbArc
 50
48.665869306
 51
72.9363139229
  0
SPLINE
  5
27E
330
1F
100
AcDbEntity
  8
0
  6
Continuous
 62
     7
370
     0
100
AcDbSpline
210
0.0
220
0.0
230
1.0
 70
     8
 71
     3
 72
     9
 73
     5
 74
     0
 42
0.00000001
 43
0.00000001
 40
0.0
 40
0.0
 40
0.0
 40
0.0
 40
0.5001654445837066
 40
1.0
 40
1.0
 40
1.0
 40
1.0
 10
7.811304829634249
 20
7.083654948757425
 30
0.0
 10
7.81298820827935
 20
7.084438467235021
 30
0.0
 10
7.816353851914531
 20
7.086004985846174
 30
0.0
 10
7.82044127024903
 20
7.085371419037733
 30
0.0
 10
7.822484303175054
 20
7.085054740453709
 30
0.0
  0
SPLINE
  5
27F
330
1F
100
AcDbEntity
  8
0
  6
Continuous
 62
     7
370
     0
100
AcDbSpline
210
0.0
220
0.0
230
1.0
 70
     8
 71
     3
 72
    14
 73
    10
 74
     0
 42
0.00000001
 43
0.00000001
 40
0.0
 40
0.0
 40
0.0
 40
0.0
 40
0.2499004290088017
 40
0.3800976031722836
 40
0.499957105849595
 40
0.6257216768387543
 40
0.7499966555366268
 40
0.8749516763669908
 40
1.0
 40
1.0
 40
1.0
 40
1.0
 10
7.810753135036113
 20
7.055853387714287
 30
0.0
 10
7.809215768840805
 20
7.058336620808929
 30
0.0
 10
7.80687744069806
 20
7.062113608912292
 30
0.0
 10
7.805127446106896
 20
7.067469887474761
 30
0.0
 10
7.804594838836006
 20
7.071495122544237
 30
0.0
 10
7.804967069188107
 20
7.075286192943437
 30
0.0
 10
7.806227307057538
 20
7.078743952047237
 30
0.0
 10
7.808329508482675
 20
7.081662250687033
 30
0.0
 10
7.810312809190339
 20
7.082990550824005
 30
0.0
 10
7.811304829634249
 20
7.083654948757425
 30
0.0
  0
ARC
  5
280
330
1F
100
AcDbEntity
  8
0
  6
Continuous
 62
     7
370
     0
100
AcDbCircle
 10
6.9554339312
 20
6.4786648766
 30
0.0
 40
1.031851499863844
100
AcDbArc
 50
31.438758276
 51
34.0123566369
  0
LINE
  5
281
330
1F
100
AcDbEntity
  8
0
  6
Continuous
 62
     7
370
     0
100
AcDbLine
 10
7.892605855
 20
7.0496539652
 30
0.0
 11
7.8358077324
 21
7.016865107
 31
0.0
  0
ARC
  5
282
330
1F
100
AcDbEntity
  8
0
  6
Continuous
 62
     7
370
     0
100
AcDbCircle
 10
7.0117683116
 20
6.5111610061
 30
0.0
 40
1.032399847444678
100
AcDbArc
 50
31.439195249
 51
33.8114491292
  0
LINE
  5
283
330
1F
100
AcDbEntity
  8
0
  6
Continuous
 62
     7
370
     0
100
AcDbLine
 10
8.1097291257
 20
7.7575924208
 30
0.0
 11
8.130724228
 21
7.7697126354
 31
0.0
  0
ARC
  5
284
330
1F
100
AcDbEntity
  8
0
  6
Continuous
 62
     7
370
     0
100
AcDbCircle
 10
8.0971611577
 20
7.775699617
 30
0.0
 40
0.0220414240253259
100
AcDbArc
 50
264.4463830341
 51
304.7640089845
  0
SPLINE
  5
285
330
1F
100
AcDbEntity
  8
0
  6
Continuous
 62
     7
370
     0
100
AcDbSpline
210
0.0
220
0.0
230
1.0
 70
     8
 71
     3
 72
    11
 73
     7
 74
     0
 42
0.00000001
 43
0.00000001
 40
0.0
 40
0.0
 40
0.0
 40
0.0
 40
0.2494767938531765
 40
0.5035301869807601
 40
0.7522417858413323
 40
1.0
 40
1.0
 40
1.0
 40
1.0
 10
8.094058959149425
 20
7.756607753241894
 30
0.0
 10
8.093767416500077
 20
7.756296106305826
 30
0.0
 10
8.09317898291284
 20
7.755667095336246
 30
0.0
 10
8.093102949034655
 20
7.754814082740832
 30
0.0
 10
8.093684795920609
 20
7.754126249950382
 30
0.0
 10
8.094580872554003
 20
7.753883030226061
 30
0.0
 10
8.095028050490338
 20
7.753761653894679
 30
0.0
  0
SPLINE
  5
286
330
1F
100
AcDbEntity
  8
0
  6
Continuous
 62
     7
370
     0
100
AcDbSpline
210
0.0
220
0.0
230
1.0
 70
    24
 71
     1
 72
     4
 73
     2
 74
     0
 42
0.00000001
 43
0.00000001
 40
0.0
 40
0.0
 40
1.0
 40
1.0
 10
8.097450107460661
 20
7.758789811571065
 30
0.0
 10
8.094058959149427
 20
7.756607753241894
 30
0.0
  0
LINE
  5
287
330
1F
100
AcDbEntity
  8
0
  6
Continuous
 62
     7
370
     0
100
AcDbLine
 10
8.1201096657
 20
7.7718708961
 30
0.0
 11
8.0974501075
 21
7.7587898116
 31
0.0
  0
ARC
  5
288
330
1F
100
AcDbEntity
  8
0
  6
Continuous
 62
     7
370
     0
100
AcDbCircle
 10
8.061659009
 20
7.4588612023
 30
0.0
 40
0.3184203946039321
100
AcDbArc
 50
79.4225532523
 51
82.1343403971
  0
LINE
  5
289
330
1F
100
AcDbEntity
  8
0
  6
Continuous
 62
     7
370
     0
100
AcDbLine
 10
8.0839989513
 20
7.7620264155
 30
0.0
 11
8.1052351128
 21
7.7742857905
 31
0.0
  0
ARC
  5
28A
330
1F
100
AcDbEntity
  8
0
  6
Continuous
 62
     7
370
     0
100
AcDbCircle
 10
8.0704383095
 20
7.7820106133
 30
0.0
 40
0.0241507592683037
100
AcDbArc
 50
268.3403245859
 51
304.1595692321
  0
SPLINE
  5
28B
330
1F
100
AcDbEntity
  8
0
  6
Continuous
 62
     7
370
     0
100
AcDbSpline
210
0.0
220
0.0
230
1.0
 70
     8
 71
     3
 72
    10
 73
     6
 74
     0
 42
0.00000001
 43
0.00000001
 40
0.0
 40
0.0
 40
0.0
 40
0.0
 40
0.4988594542991542
 40
0.7491987595266334
 40
1.0
 40
1.0
 40
1.0
 40
1.0
 10
8.068200418516929
 20
7.759514791246546
 30
0.0
 10
8.068107295200315
 20
7.759126308759298
 30
0.0
 10
8.067967440432227
 20
7.758542876702361
 30
0.0
 10
8.0687354955026
 20
7.758044423561436
 30
0.0
 10
8.069404184418865
 20
7.757928167256787
 30
0.0
 10
8.069738837064971
 20
7.7578699855238
 30
0.0
  0
SPLINE
  5
28C
330
1F
100
AcDbEntity
  8
0
  6
Continuous
 62
     7
370
     0
100
AcDbSpline
210
0.0
220
0.0
230
1.0
 70
     8
 71
     3
 72
     9
 73
     5
 74
     0
 42
0.00000001
 43
0.00000001
 40
0.0
 40
0.0
 40
0.0
 40
0.0
 40
0.5015784057012879
 40
1.0
 40
1.0
 40
1.0
 40
1.0
 10
8.071345848603896
 20
7.762011099214419
 30
0.0
 10
8.0706236823914
 20
7.761584911852831
 30
0.0
 10
8.069183895103338
 20
7.760735219448326
 30
0.0
 10
8.068527553396738
 20
7.759920743598256
 30
0.0
 10
8.068200418516929
 20
7.759514791246546
 30
0.0
  0
LINE
  5
28D
330
1F
100
AcDbEntity
  8
0
  6
Continuous
 62
     7
370
     0
100
AcDbLine
 10
8.0947859792
 20
7.7755427986
 30
0.0
 11
8.0713458486
 21
7.7620110992
 31
0.0
  0
ARC
  5
28E
330
1F
100
AcDbEntity
  8
0
  6
Continuous
 62
     7
370
     0
100
AcDbCircle
 10
8.0655011069
 20
7.4905913596
 30
0.0
 40
0.2864523107971801
100
AcDbArc
 50
84.132230242
 51
87.0422115923
  0
LINE
  5
28F
330
1F
100
AcDbEntity
  8
0
  6
Continuous
 62
     7
370
     0
100
AcDbLine
 10
8.0544428664
 20
7.7617453872
 30
0.0
 11
8.0802821093
 21
7.7766620647
 31
0.0
  0
SPLINE
  5
290
330
1F
100
AcDbEntity
  8
0
  6
Continuous
 62
     7
370
     0
100
AcDbSpline
210
0.0
220
0.0
230
1.0
 70
     8
 71
     3
 72
    13
 73
     9
 74
     0
 42
0.00000001
 43
0.00000001
 40
0.0
 40
0.0
 40
0.0
 40
0.0
 40
0.2493026324882722
 40
0.3767800005190436
 40
0.4994269650592864
 40
0.6183515801791543
 40
0.7497380290330551
 40
0.9999999999999999
 40
0.9999999999999999
 40
0.9999999999999999
 40
0.9999999999999999
 10
8.051103050941766
 20
7.751416794653045
 30
0.0
 10
8.049365925592523
 20
7.751682128738417
 30
0.0
 10
8.046740545814313
 20
7.752083137648056
 30
0.0
 10
8.045401911840411
 20
7.753470479016733
 30
0.0
 10
8.045478496508212
 20
7.754810300212362
 30
0.0
 10
8.0466978512157
 20
7.75642090703237
 30
0.0
 10
8.049473716508254
 20
7.75874624042176
 30
0.0
 10
8.052474882834057
 20
7.760557604285571
 30
0.0
 10
8.054442866352103
 20
7.761745387247986
 30
0.0
  0
ARC
  5
291
330
1F
100
AcDbEntity
  8
0
  6
Continuous
 62
     7
370
     0
100
AcDbCircle
 10
8.0552387122
 20
7.8030786451
 30
0.0
 40
0.0518271211049374
100
AcDbArc
 50
265.4230887252
 51
288.1284254573
  0
SPLINE
  5
292
330
1F
100
AcDbEntity
  8
0
  6
Continuous
 62
     7
370
     0
100
AcDbSpline
210
0.0
220
0.0
230
1.0
 70
     8
 71
     3
 72
    12
 73
     8
 74
     0
 42
0.00000001
 43
0.00000001
 40
0.0
 40
0.0
 40
0.0
 40
0.0
 40
0.2503253654036841
 40
0.4999978777421035
 40
0.7494826629082554
 40
0.8746982187918004
 40
1.0
 40
1.0
 40
1.0
 40
1.0
 10
8.076170397001167
 20
7.747926957879215
 30
0.0
 10
8.075023443113933
 20
7.748165451090419
 30
0.0
 10
8.072732526615875
 20
7.748641815518232
 30
0.0
 10
8.070393887412596
 20
7.749857895268025
 30
0.0
 10
8.07007376909057
 20
7.751385240489418
 30
0.0
 10
8.070594977552846
 20
7.752746787131508
 30
0.0
 10
8.071108010461922
 20
7.753464943591357
 30
0.0
 10
8.071364615206617
 20
7.753824145412077
 30
0.0
  0
ARC
  5
293
330
1F
100
AcDbEntity
  8
0
  6
Continuous
 62
     7
370
     0
100
AcDbCircle
 10
8.0835937062
 20
7.7935551191
 30
0.0
 40
0.0462280717117187
100
AcDbArc
 50
260.7594301397
 51
286.3643579752
  0
LINE
  5
294
330
1F
100
AcDbEntity
  8
0
  6
Continuous
 62
     7
370
     0
100
AcDbLine
 10
8.0906146974
 20
7.7457340147
 30
0.0
 11
8.0966182176
 21
7.7491997731
 31
0.0
  0
ARC
  5
295
330
1F
100
AcDbEntity
  8
0
  6
Continuous
 62
     7
370
     0
100
AcDbCircle
 10
8.0129947663
 20
7.3983923992
 30
0.0
 40
0.3559087685765716
100
AcDbArc
 50
75.0572045207
 51
77.4031607833
  0
LINE
  5
296
330
1F
100
AcDbEntity
  8
0
  6
Continuous
 62
     7
370
     0
100
AcDbLine
 10
8.1459082124
 20
7.7660157226
 30
0.0
 11
8.1047674542
 21
7.7422656684
 31
0.0
  0
ARC
  5
297
330
1F
100
AcDbEntity
  8
0
  6
Continuous
 62
     7
370
     0
100
AcDbCircle
 10
8.0543262909
 20
7.4229001948
 30
0.0
 40
0.355127461284792
100
AcDbArc
 50
75.0554182295
 51
77.5769504571
  0
ARC
  5
298
330
1F
100
AcDbEntity
  8
0
  6
Continuous
 62
     7
370
     0
100
AcDbCircle
 10
8.1889672968
 20
7.6982707869
 30
0.0
 40
0.0154166639409229
100
AcDbArc
 50
64.1903427053
 51
117.7261473658
  0
SPLINE
  5
299
330
1F
100
AcDbEntity
  8
0
  6
Continuous
 62
     7
370
     0
100
AcDbSpline
210
0.0
220
0.0
230
1.0
 70
    24
 71
     1
 72
     4
 73
     2
 74
     0
 42
0.00000001
 43
0.00000001
 40
0.0
 40
0.0
 40
1.0
 40
1.0
 10
8.19753580842784
 20
7.710985726172025
 30
0.0
 10
8.195679447792473
 20
7.712149567698259
 30
0.0
  0
SPLINE
  5
29A
330
1F
100
AcDbEntity
  8
0
  6
Continuous
 62
     7
370
     0
100
AcDbSpline
210
0.0
220
0.0
230
1.0
 70
    24
 71
     1
 72
     4
 73
     2
 74
     0
 42
0.00000001
 43
0.00000001
 40
0.0
 40
0.0
 40
1.0
 40
1.0
 10
8.209633547118687
 20
7.717079544894751
 30
0.0
 10
8.19753580842784
 20
7.710985726172025
 30
0.0
  0
SPLINE
  5
29B
330
1F
100
AcDbEntity
  8
0
  6
Continuous
 62
     7
370
     0
100
AcDbSpline
210
0.0
220
0.0
230
1.0
 70
    24
 71
     1
 72
     4
 73
     2
 74
     0
 42
0.00000001
 43
0.00000001
 40
0.0
 40
0.0
 40
1.0
 40
1.0
 10
8.203604154294732
 20
7.719145897386103
 30
0.0
 10
8.209633547118687
 20
7.717079544894751
 30
0.0
  0
SPLINE
  5
29C
330
1F
100
AcDbEntity
  8
0
  6
Continuous
 62
     7
370
     0
100
AcDbSpline
210
0.0
220
0.0
230
1.0
 70
     8
 71
     3
 72
    14
 73
    10
 74
     0
 42
0.00000001
 43
0.00000001
 40
0.0
 40
0.0
 40
0.0
 40
0.0
 40
0.2498127395191845
 40
0.377364875365135
 40
0.4998828473802403
 40
0.6245002249594772
 40
0.7497696394634655
 40
0.8747912564029396
 40
1.0
 40
1.0
 40
1.0
 40
1.0
 10
8.204358879608929
 20
7.727645327431646
 30
0.0
 10
8.203350680113502
 20
7.727003724787637
 30
0.0
 10
8.201827703032082
 20
7.72603452560966
 30
0.0
 10
8.200633390683539
 20
7.724506266898762
 30
0.0
 10
8.200198686211557
 20
7.723309816519188
 30
0.0
 10
8.200290451525339
 20
7.722115875220802
 30
0.0
 10
8.200953190240556
 20
7.720987995459089
 30
0.0
 10
8.202087739694843
 20
7.719982918200494
 30
0.0
 10
8.20309843082391
 20
7.719425043387093
 30
0.0
 10
8.203604154294732
 20
7.719145897386103
 30
0.0
  0
ARC
  5
29D
330
1F
100
AcDbEntity
  8
0
  6
Continuous
 62
     7
370
     0
100
AcDbCircle
 10
8.2135703374
 20
7.7125994201
 30
0.0
 40
0.0176417199406325
100
AcDbArc
 50
67.7545887735
 51
121.4759466967
  0
SPLINE
  5
29E
330
1F
100
AcDbEntity
  8
0
  6
Continuous
 62
     7
370
     0
100
AcDbSpline
210
0.0
220
0.0
230
1.0
 70
     8
 71
     3
 72
    12
 73
     8
 74
     0
 42
0.00000001
 43
0.00000001
 40
0.0
 40
0.0
 40
0.0
 40
0.0
 40
0.2507186227518589
 40
0.5005671360412818
 40
0.6250149800054772
 40
0.7508411148633124
 40
1.0
 40
1.0
 40
1.0
 40
1.0
 10
8.21966311447098
 20
7.720023723769366
 30
0.0
 10
8.220465594587957
 20
7.720742830047207
 30
0.0
 10
8.222067769845125
 20
7.72217854697185
 30
0.0
 10
8.223384412049231
 20
7.724191981153287
 30
0.0
 10
8.223396629891035
 20
7.725843842993151
 30
0.0
 10
8.222670882358608
 20
7.727432424194631
 30
0.0
 10
8.22121584344295
 20
7.728331013496486
 30
0.0
 10
8.220249042491647
 20
7.728928081370422
 30
0.0
  0
SPLINE
  5
29F
330
1F
100
AcDbEntity
  8
0
  6
Continuous
 62
     7
370
     0
100
AcDbSpline
210
0.0
220
0.0
230
1.0
 70
    24
 71
     1
 72
     4
 73
     2
 74
     0
 42
0.00000001
 43
0.00000001
 40
0.0
 40
0.0
 40
1.0
 40
1.0
 10
8.237517753860843
 20
7.712621852678788
 30
0.0
 10
8.21966311447098
 20
7.720023723769366
 30
0.0
  0
SPLINE
  5
2A0
330
1F
100
AcDbEntity
  8
0
  6
Continuous
 62
     7
370
     0
100
AcDbSpline
210
0.0
220
0.0
230
1.0
 70
     8
 71
     3
 72
    12
 73
     8
 74
     0
 42
0.00000001
 43
0.00000001
 40
0.0
 40
0.0
 40
0.0
 40
0.0
 40
0.2505093998122246
 40
0.4997729473066732
 40
0.6235673607819607
 40
0.750089174679862
 40
1.0
 40
1.0
 40
1.0
 40
1.0
 10
8.229467500312408
 20
7.73467033113381
 30
0.0
 10
8.232023983367892
 20
7.733297279608533
 30
0.0
 10
8.237124235383732
 20
7.730558005121807
 30
0.0
 10
8.241305971086925
 20
7.725888243242275
 30
0.0
 10
8.24218468503067
 20
7.721736978194881
 30
0.0
 10
8.241508283943007
 20
7.717497511657839
 30
0.0
 10
8.239109973980892
 20
7.714567238921992
 30
0.0
 10
8.237517753860843
 20
7.712621852678788
 30
0.0
  0
ARC
  5
2A1
330
1F
100
AcDbEntity
  8
0
  6
Continuous
 62
     7
370
     0
100
AcDbCircle
 10
8.2088015207
 20
7.6950827167
 30
0.0
 40
0.0446571598938644
100
AcDbArc
 50
62.4340251134
 51
118.1933002579
  0
SPLINE
  5
2A2
330
1F
100
AcDbEntity
  8
0
  6
Continuous
 62
     7
370
     0
100
AcDbSpline
210
0.0
220
0.0
230
1.0
 70
     8
 71
     3
 72
    11
 73
     7
 74
     0
 42
0.00000001
 43
0.00000001
 40
0.0
 40
0.0
 40
0.0
 40
0.0
 40
0.2499209240103377
 40
0.4997139303396051
 40
0.7496624164477702
 40
1.0
 40
1.0
 40
1.0
 40
1.0
 10
8.18223629977272
 20
7.725207841046013
 30
0.0
 10
8.181988155863653
 20
7.726001125322808
 30
0.0
 10
8.181491995053667
 20
7.727587287847631
 30
0.0
 10
8.18237539493208
 20
7.730072349522833
 30
0.0
 10
8.184481243070366
 20
7.732423485711083
 30
0.0
 10
8.186628756147611
 20
7.733768608665145
 30
0.0
 10
8.18770334780028
 20
7.734441693226803
 30
0.0
  0
SPLINE
  5
2A3
330
1F
100
AcDbEntity
  8
0
  6
Continuous
 62
     7
370
     0
100
AcDbSpline
210
0.0
220
0.0
230
1.0
 70
    24
 71
     1
 72
     4
 73
     2
 74
     0
 42
0.00000001
 43
0.00000001
 40
0.0
 40
0.0
 40
1.0
 40
1.0
 10
8.185345378132327
 20
7.72180053835692
 30
0.0
 10
8.18223629977272
 20
7.725207841046013
 30
0.0
  0
ARC
  5
2A4
330
1F
100
AcDbEntity
  8
0
  6
Continuous
 62
     7
370
     0
100
AcDbCircle
 10
8.1807377307
 20
7.6865367281
 30
0.0
 40
0.0355635589599443
100
AcDbArc
 50
82.5557796596
 51
115.5429096337
  0
SPLINE
  5
2A5
330
1F
100
AcDbEntity
  8
0
  6
Continuous
 62
     7
370
     0
100
AcDbSpline
210
0.0
220
0.0
230
1.0
 70
     8
 71
     3
 72
    13
 73
     9
 74
     0
 42
0.00000001
 43
0.00000001
 40
0.0
 40
0.0
 40
0.0
 40
0.0
 40
0.2504706134920072
 40
0.5000297978665267
 40
0.6250199073750458
 40
0.7500281686611538
 40
0.8749635130634397
 40
1.0
 40
1.0
 40
1.0
 40
1.0
 10
8.171794818614936
 20
7.700237632955031
 30
0.0
 10
8.16948320538955
 20
7.70148174932096
 30
0.0
 10
8.16486839059064
 20
7.703965454879485
 30
0.0
 10
8.160594282457279
 20
7.707712036427104
 30
0.0
 10
8.159617726646628
 20
7.711171126909615
 30
0.0
 10
8.160142325346348
 20
7.713831395201129
 30
0.0
 10
8.162027464994328
 20
7.716432430073233
 30
0.0
 10
8.164277643982231
 20
7.717893544865843
 30
0.0
 10
8.165403188705087
 20
7.718624397857161
 30
0.0
  0
ARC
  5
2A6
330
1F
100
AcDbEntity
  8
0
  6
Continuous
 62
     7
370
     0
100
AcDbCircle
 10
8.1939787706
 20
7.7403016459
 30
0.0
 40
0.0457957733442984
100
AcDbArc
 50
241.0261449083
 51
288.636828392
  0
SPLINE
  5
2A7
330
1F
100
AcDbEntity
  8
0
  6
Continuous
 62
     7
370
     0
100
AcDbSpline
210
0.0
220
0.0
230
1.0
 70
    24
 71
     1
 72
     4
 73
     2
 74
     0
 42
0.00000001
 43
0.00000001
 40
0.0
 40
0.0
 40
1.0
 40
1.0
 10
8.19637221091534
 20
7.706578171343325
 30
0.0
 10
8.208613654768058
 20
7.696907256570288
 30
0.0
  0
ARC
  5
2A8
330
1F
100
AcDbEntity
  8
0
  6
Continuous
 62
     7
370
     0
100
AcDbCircle
 10
8.1882726824
 20
7.7211318358
 30
0.0
 40
0.0166556750349902
100
AcDbArc
 50
247.5312389532
 51
299.0971829475
  0
SPLINE
  5
2A9
330
1F
100
AcDbEntity
  8
0
  6
Continuous
 62
     7
370
     0
100
AcDbSpline
210
0.0
220
0.0
230
1.0
 70
     8
 71
     3
 72
    14
 73
    10
 74
     0
 42
0.00000001
 43
0.00000001
 40
0.0
 40
0.0
 40
0.0
 40
0.0
 40
0.2493767508765604
 40
0.3764892637068915
 40
0.4994689653022664
 40
0.6214935465785038
 40
0.7495690295590004
 40
0.8747074165036499
 40
1.0
 40
1.0
 40
1.0
 40
1.0
 10
8.181794754755224
 20
7.711917331066997
 30
0.0
 10
8.181081476095635
 20
7.711443736239167
 30
0.0
 10
8.180004624478864
 20
7.710728740284659
 30
0.0
 10
8.179307319566906
 20
7.709589099775648
 30
0.0
 10
8.179132454649631
 20
7.708719130089696
 30
0.0
 10
8.179349374128629
 20
7.707862142178389
 30
0.0
 10
8.179927296120145
 20
7.707064044598885
 30
0.0
 10
8.18079033899496
 20
7.706340289663797
 30
0.0
 10
8.18153477505012
 20
7.70594052903243
 30
0.0
 10
8.18190722226156
 20
7.705740525645486
 30
0.0
  0
LINE
  5
2AA
330
1F
100
AcDbEntity
  8
0
  6
Continuous
 62
     7
370
     0
100
AcDbLine
 10
8.2351300108
 20
7.7022785091
 30
0.0
 11
8.2476765646
 21
7.7095214804
 31
0.0
  0
ARC
  5
2AB
330
1F
100
AcDbEntity
  8
0
  6
Continuous
 62
     7
370
     0
100
AcDbCircle
 10
7.9218280103
 20
7.1711764342
 30
0.0
 40
0.616625946175407
100
AcDbArc
 50
54.7911606229
 51
59.4632543764
  0
LINE
  5
2AC
330
1F
100
AcDbEntity
  8
0
  6
Continuous
 62
     7
370
     0
100
AcDbLine
 10
8.2898954178
 20
7.6822373092
 30
0.0
 11
8.277348864
 21
7.6749943379
 31
0.0
  0
ARC
  5
2AD
330
1F
100
AcDbEntity
  8
0
  6
Continuous
 62
     7
370
     0
100
AcDbCircle
 10
7.9343745641
 20
7.1784194055
 30
0.0
 40
0.6166259461753274
100
AcDbArc
 50
54.7911606229
 51
59.4632543764
  0
LINE
  5
2AE
330
1F
100
AcDbEntity
  8
0
  6
Continuous
 62
     7
370
     0
100
AcDbLine
 10
8.3643210613
 20
7.6058527343
 30
0.0
 11
8.3875316118
 21
7.6192518999
 31
0.0
  0
ARC
  5
2AF
330
1F
100
AcDbEntity
  8
0
  6
Continuous
 62
     7
370
     0
100
AcDbCircle
 10
7.8035798924
 20
7.0179257979
 30
0.0
 40
0.8124584549226705
100
AcDbArc
 50
46.3557780531
 51
48.3775171375
  0
LINE
  5
2B0
330
1F
100
AcDbEntity
  8
0
  6
Continuous
 62
     7
370
     0
100
AcDbLine
 10
8.3317631931
 20
7.6186489044
 30
0.0
 11
8.3432307203
 21
7.6252689669
 31
0.0
  0
ARC
  5
2B1
330
1F
100
AcDbEntity
  8
0
  6
Continuous
 62
     7
370
     0
100
AcDbCircle
 10
7.7921123652
 20
7.0113057354
 30
0.0
 40
0.8124584549249879
100
AcDbArc
 50
46.3557780531
 51
48.3775171375
  0
LINE
  5
2B2
330
1F
100
AcDbEntity
  8
0
  6
Continuous
 62
     7
370
     0
100
AcDbLine
 10
8.3429356727
 20
7.5935072122
 30
0.0
 11
8.3528535341
 21
7.5992326717
 31
0.0
  0
ARC
  5
2B3
330
1F
100
AcDbEntity
  8
0
  6
Continuous
 62
     7
370
     0
100
AcDbCircle
 10
7.7846392544
 20
7.0082100099
 30
0.0
 40
0.808868163373272
100
AcDbArc
 50
46.3525290516
 51
48.7261153923
  0
LINE
  5
2B4
330
1F
100
AcDbEntity
  8
0
  6
Continuous
 62
     7
370
     0
100
AcDbLine
 10
8.306014375
 20
7.6090827466
 30
0.0
 11
8.3182165586
 21
7.6161269173
 31
0.0
  0
ARC
  5
2B5
330
1F
100
AcDbEntity
  8
0
  6
Continuous
 62
     7
370
     0
100
AcDbCircle
 10
7.761453791
 20
6.9891099979
 30
0.0
 40
0.8251741869763084
100
AcDbArc
 50
44.7599253761
 51
48.7051529635
  0
LINE
  5
2B6
330
1F
100
AcDbEntity
  8
0
  6
Continuous
 62
     7
370
     0
100
AcDbLine
 10
8.4041779092
 20
7.602935143
 30
0.0
 11
8.3473797865
 21
7.5701462847
 31
0.0
  0
ARC
  5
2B7
330
1F
100
AcDbEntity
  8
0
  6
Continuous
 62
     7
370
     0
100
AcDbCircle
 10
7.8015933713
 20
7.0048301653
 30
0.0
 40
0.8490216072494687
100
AcDbArc
 50
44.7862405734
 51
46.3593237245
  0
SPLINE
  5
2B8
330
1F
100
AcDbEntity
  8
0
  6
Continuous
 62
     7
370
     0
100
AcDbSpline
210
0.0
220
0.0
230
1.0
 70
     8
 71
     3
 72
    10
 73
     6
 74
     0
 42
0.00000001
 43
0.00000001
 40
0.0
 40
0.0
 40
0.0
 40
0.0
 40
0.4996292117501748
 40
0.7497996261421181
 40
1.0
 40
1.0
 40
1.0
 40
1.0
 10
7.745115398429276
 20
6.241492460566167
 30
0.0
 10
7.746439109947201
 20
6.242323427059556
 30
0.0
 10
7.74842561989882
 20
6.243570468568394
 30
0.0
 10
7.746826090470817
 20
6.243029790140315
 30
0.0
 10
7.744493178850587
 20
6.241836467210298
 30
0.0
 10
7.743326653199479
 20
6.241239770020464
 30
0.0
  0
LINE
  5
2B9
330
1F
100
AcDbEntity
  8
0
  6
Continuous
 62
     7
370
     0
100
AcDbLine
 10
7.7580522384
 20
6.2489607393
 30
0.0
 11
7.7451153984
 21
6.2414924606
 31
0.0
  0
SPLINE
  5
2BA
330
1F
100
AcDbEntity
  8
0
  6
Continuous
 62
     7
370
     0
100
AcDbSpline
210
0.0
220
0.0
230
1.0
 70
    24
 71
     1
 72
     4
 73
     2
 74
     0
 42
0.00000001
 43
0.00000001
 40
0.0
 40
0.0
 40
1.0
 40
1.0
 10
7.761281426854069
 20
6.251395968330969
 30
0.0
 10
7.758052238403257
 20
6.248960739316363
 30
0.0
  0
LINE
  5
2BB
330
1F
100
AcDbEntity
  8
0
  6
Continuous
 62
     7
370
     0
100
AcDbLine
 10
7.7991277103
 20
6.2732441627
 30
0.0
 11
7.7612814269
 21
6.2513959683
 31
0.0
  0
ARC
  5
2BC
330
1F
100
AcDbEntity
  8
0
  6
Continuous
 62
     7
370
     0
100
AcDbCircle
 10
7.685982524
 20
6.4408050038
 30
0.0
 40
0.202184244324355
100
AcDbArc
 50
304.0291254473
 51
307.7373194296
  0
LINE
  5
2BD
330
1F
100
AcDbEntity
  8
0
  6
Continuous
 62
     7
370
     0
100
AcDbLine
 10
7.751965469
 20
6.2475671388
 30
0.0
 11
7.8097278281
 21
6.2809126389
 31
0.0
  0
ARC
  5
2BE
330
1F
100
AcDbEntity
  8
0
  6
Continuous
 62
     7
370
     0
100
AcDbCircle
 10
7.6280781903
 20
6.4076505883
 30
0.0
 40
0.202422253288409
100
AcDbArc
 50
304.7046889226
 51
307.7359962028
  0
LWPOLYLINE
  5
2BF
330
1F
100
AcDbEntity
  8
0
  6
Continuous
 62
     7
370
     0
100
AcDbPolyline
 90
       73
 70
   128
 43
0.0
 10
7.6207780483
 20
6.4982270243
 10
7.6234434104
 20
6.4600606797
 10
7.6233341571
 20
6.4233672125
 10
7.6204511199
 20
6.3884258821
 10
7.6148162405
 20
6.3555026131
 10
7.6064724037
 20
6.3248479715
 10
7.5954831111
 20
6.2966952576
 10
7.5819319978
 20
6.2712587306
 10
7.5659221961
 20
6.2487319778
 10
7.5475755502
 20
6.2292864413
 10
7.5270316891
 20
6.2130701135
 10
7.5044469641
 20
6.2002064104
 10
7.4799932585
 20
6.1907932325
 10
7.4538566798
 20
6.1849022199
 10
7.4262361431
 20
6.1825782066
 10
7.3973418574
 20
6.1838388799
 10
7.3673937257
 20
6.1886746452
 10
7.3366196713
 20
6.1970486995
 10
7.3052539033
 20
6.2088973111
 10
7.2735351343
 20
6.2241303049
 10
7.2417047631
 20
6.2426317487
 10
7.2100050382
 20
6.2642608353
 10
7.1786772135
 20
6.2888529543
 10
7.1479597128
 20
6.3162209449
 10
7.1180863147
 20
6.34615652
 10
7.0892843739
 20
6.3784318519
 10
7.0617730905
 20
6.4128013059
 10
7.035761842
 20
6.4490033095
 10
7.0114485897
 20
6.4867623438
 10
6.9890183721
 20
6.5257910397
 10
6.9686418968
 20
6.5657923652
 10
6.950474241
 20
6.606461886
 10
6.9346536715
 20
6.6474900827
 10
6.9213005925
 20
6.6885647058
 10
6.9105166289
 20
6.7293731526
 10
6.9023838532
 20
6.7696048462
 10
6.8969641607
 20
6.8089535992
 10
6.8942987986
 20
6.8471199438
 10
6.8944080519
 20
6.883813411
 10
6.8972910891
 20
6.9187547414
 10
6.9029259685
 20
6.9516780103
 10
6.9112698054
 20
6.9823326519
 10
6.922259098
 20
7.0104853658
 10
6.9358102112
 20
7.0359218929
 10
6.9518200129
 20
7.0584486457
 10
6.9701666588
 20
7.0778941822
 10
6.9907105199
 20
7.09411051
 10
7.0132952449
 20
7.1069742131
 10
7.0377489505
 20
7.1163873909
 10
7.0638855293
 20
7.1222784036
 10
7.0915060659
 20
7.1246024168
 10
7.1204003516
 20
7.1233417436
 10
7.1503484834
 20
7.1185059783
 10
7.1811225378
 20
7.110131924
 10
7.2124883057
 20
7.0982833124
 10
7.2442070747
 20
7.0830503186
 10
7.2760374459
 20
7.0645488748
 10
7.3077371708
 20
7.0429197882
 10
7.3390649955
 20
7.0183276691
 10
7.3697824963
 20
6.9909596786
 10
7.3996558943
 20
6.9610241035
 10
7.4284578352
 20
6.9287487716
 10
7.4559691186
 20
6.8943793176
 10
7.4819803671
 20
6.858177314
 10
7.5062936194
 20
6.8204182797
 10
7.5287238369
 20
6.7813895838
 10
7.5491003122
 20
6.7413882583
 10
7.5672679681
 20
6.7007187374
 10
7.5830885375
 20
6.6596905408
 10
7.5964416165
 20
6.6186159177
 10
7.6072255802
 20
6.5778074709
 10
7.6153583559
 20
6.5375757773
 10
7.6207780483
 20
6.4982270243
  0
LWPOLYLINE
  5
2C0
330
1F
100
AcDbEntity
  8
0
  6
Continuous
 62
     7
370
     0
100
AcDbPolyline
 90
       47
 70
   128
 43
0.0
 10
7.1361704265
 20
7.1212199678
 10
7.1268332763
 20
7.1220400361
 10
7.0984610295
 20
7.1222139918
 10
7.0714400618
 20
7.1187756665
 10
7.0459818491
 20
7.1117519697
 10
7.0222856364
 20
7.1011978715
 10
7.0005368786
 20
7.087195972
 10
6.9809057893
 20
7.0698558549
 10
6.9635460083
 20
7.0493132303
 10
6.9485933995
 20
7.025728872
 10
6.9361649874
 20
6.9992873596
 10
6.926358041
 20
6.9701956338
 10
6.9192493131
 20
6.9386813768
 10
6.9148944391
 20
6.9049912303
 10
6.9133275018
 20
6.8693888655
 10
6.9145607645
 20
6.8321529191
 10
6.9185845754
 20
6.7935748129
 10
6.9253674427
 20
6.7539564728
 10
6.9348562812
 20
6.7136079662
 10
6.9469768278
 20
6.6728450748
 10
6.961634223
 20
6.6319868234
 10
6.9787137527
 20
6.5913529833
 10
6.9980817463
 20
6.5512615694
 10
7.0195866232
 20
6.5120263513
 10
7.0430600785
 20
6.4739543979
 10
7.0683184006
 20
6.4373436737
 10
7.0951639088
 20
6.4024807074
 10
7.1233865007
 20
6.3696383489
 10
7.1527652962
 20
6.3390736342
 10
7.1830703664
 20
6.3110257736
 10
7.2140645331
 20
6.2857142797
 10
7.2455052248
 20
6.2633372493
 10
7.2771463755
 20
6.2440698128
 10
7.3087403504
 20
6.2280627643
 10
7.3400398837
 20
6.2154413804
 10
7.3708000141
 20
6.2063044407
 10
7.4007800019
 20
6.200723454
 10
7.4297452131
 20
6.1987420993
 10
7.4574689556
 20
6.2003758832
 10
7.4837342536
 20
6.2056120192
 10
7.5083355454
 20
6.2144095274
 10
7.5310802926
 20
6.2266995555
 10
7.5517904868
 20
6.2423859171
 10
7.5703040425
 20
6.2613458455
 10
7.5864760661
 20
6.2834309532
 10
7.6001799896
 20
6.3084683946
 10
7.6024680135
 20
6.3134813355
  0
ARC
  5
2C1
330
1F
100
AcDbEntity
  8
0
  6
Continuous
 62
     7
370
     0
100
AcDbCircle
 10
6.9792977561
 20
6.4925814396
 30
0.0
 40
1.02994979372129
100
AcDbArc
 50
32.8252102448
 51
33.423973495
  0
SPLINE
  5
2C2
330
1F
100
AcDbEntity
  8
0
  6
Continuous
 62
     7
370
     0
100
AcDbSpline
210
0.0
220
0.0
230
1.0
 70
     8
 71
     3
 72
    12
 73
     8
 74
     0
 42
0.00000001
 43
0.00000001
 40
0.0
 40
0.0
 40
0.0
 40
0.0
 40
0.2508758277599115
 40
0.500608900925116
 40
0.6255741322529778
 40
0.7506852523715076
 40
0.9999999999999999
 40
0.9999999999999999
 40
0.9999999999999999
 40
0.9999999999999999
 10
7.838911836889308
 20
7.059908690643067
 30
0.0
 10
7.838207410866901
 20
7.060922290854013
 30
0.0
 10
7.836801767525297
 20
7.062944874265536
 30
0.0
 10
7.834514035840068
 20
7.065168686872497
 30
0.0
 10
7.832311812413875
 20
7.06611355912854
 30
0.0
 10
7.830050415102552
 20
7.066381635678093
 30
0.0
 10
7.828632906589098
 20
7.065740711103246
 30
0.0
 10
7.827689046114342
 20
7.065313945854391
 30
0.0
  0
SPLINE
  5
2C3
330
1F
100
AcDbEntity
  8
0
  6
Continuous
 62
     7
370
     0
100
AcDbSpline
210
0.0
220
0.0
230
1.0
 70
     8
 71
     3
 72
    13
 73
     9
 74
     0
 42
0.00000001
 43
0.00000001
 40
0.0
 40
0.0
 40
0.0
 40
0.0
 40
0.1252642250000523
 40
0.2502628772395418
 40
0.376730719545124
 40
0.5001238771615484
 40
0.7494666677386246
 40
1.0
 40
1.0
 40
1.0
 40
1.0
 10
7.827689046114342
 20
7.065313945854391
 30
0.0
 10
7.827279030582939
 20
7.065043307814367
 30
0.0
 10
7.826459868794312
 20
7.064502605514194
 30
0.0
 10
7.825557050544802
 20
7.063308762711715
 30
0.0
 10
7.825051008863317
 20
7.061849326703173
 30
0.0
 10
7.825058477369221
 20
7.059648406386958
 30
0.0
 10
7.826157104284475
 20
7.056862540343857
 30
0.0
 10
7.827421641637442
 20
7.05484102233146
 30
0.0
 10
7.828055416171438
 20
7.053827856027383
 30
0.0
  0
ARC
  5
2C4
330
1F
100
AcDbEntity
  8
0
  6
Continuous
 62
     7
370
     0
100
AcDbCircle
 10
6.9685529165
 20
6.4863802108
 30
0.0
 40
1.029922995630238
100
AcDbArc
 50
32.8252050155
 51
33.4329826987
  0
LINE
  5
2C5
330
1F
100
AcDbEntity
  8
0
  6
Continuous
 62
     7
370
     0
100
AcDbLine
 10
7.8340262732
 20
7.0446787383
 30
0.0
 11
7.844793581
 21
7.0508945728
 31
0.0
  0
ARC
  5
2C6
330
1F
100
AcDbEntity
  8
0
  6
Continuous
 62
     7
370
     0
100
AcDbCircle
 10
7.0018735235
 20
6.5056332172
 30
0.0
 40
1.029638942744433
100
AcDbArc
 50
32.8251448032
 51
33.5275939478
  0
SPLINE
  5
2C7
330
1F
100
AcDbEntity
  8
0
  6
Continuous
 62
     7
370
     0
100
AcDbSpline
210
0.0
220
0.0
230
1.0
 70
     8
 71
     3
 72
    13
 73
     9
 74
     0
 42
0.00000001
 43
0.00000001
 40
0.0
 40
0.0
 40
0.0
 40
0.0
 40
0.2576868080748287
 40
0.4999433752800868
 40
0.6237499127150842
 40
0.7488287378881943
 40
0.8752064661116455
 40
1.0
 40
1.0
 40
1.0
 40
1.0
 10
7.860201045878788
 20
7.07434247220482
 30
0.0
 10
7.859393374309842
 20
7.075484439869706
 30
0.0
 10
7.857826394403834
 20
7.077699994376006
 30
0.0
 10
7.855319531117304
 20
7.080119552153931
 30
0.0
 10
7.852949856649134
 20
7.081222088986136
 30
0.0
 10
7.851089162689848
 20
7.081521668870205
 30
0.0
 10
7.84930350152864
 20
7.081321230415411
 30
0.0
 10
7.848294856400011
 20
7.080816813415979
 30
0.0
 10
7.847793714712932
 20
7.080566195652691
 30
0.0
  0
SPLINE
  5
2C8
330
1F
100
AcDbEntity
  8
0
  6
Continuous
 62
     7
370
     0
100
AcDbSpline
210
0.0
220
0.0
230
1.0
 70
     8
 71
     3
 72
    13
 73
     9
 74
     0
 42
0.00000001
 43
0.00000001
 40
0.0
 40
0.0
 40
0.0
 40
0.0
 40
0.1296897594765396
 40
0.2496082834068751
 40
0.3753937891407315
 40
0.4998958881045428
 40
0.7495309619036394
 40
1.0
 40
1.0
 40
1.0
 40
1.0
 10
7.847793714712932
 20
7.080566195652691
 30
0.0
 10
7.847325144671931
 20
7.080247423897752
 30
0.0
 10
7.846423308134781
 20
7.079633897657361
 30
0.0
 10
7.845535823013988
 20
7.078214511776391
 30
0.0
 10
7.845116522407323
 20
7.076548284752956
 30
0.0
 10
7.845308107969151
 20
7.074074890080271
 30
0.0
 10
7.846601268031904
 20
7.071013080676954
 30
0.0
 10
7.848015191572662
 20
7.068766925210328
 30
0.0
 10
7.848723332259316
 20
7.067641974653515
 30
0.0
  0
ARC
  5
2C9
330
1F
100
AcDbEntity
  8
0
  6
Continuous
 62
     7
370
     0
100
AcDbCircle
 10
6.9903509359
 20
6.4989806962
 30
0.0
 40
1.029649853285638
100
AcDbArc
 50
32.8251472765
 51
33.5239892172
  0
LINE
  5
2CA
330
1F
100
AcDbEntity
  8
0
  6
Continuous
 62
     7
370
     0
100
AcDbLine
 10
7.8555953258
 20
7.0571302874
 30
0.0
 11
7.867108769
 21
7.0637768567
 31
0.0
  0
ARC
  5
2CB
330
1F
100
AcDbEntity
  8
0
  6
Continuous
 62
     7
370
     0
100
AcDbCircle
 10
7.0188591784
 20
6.5212202159
 30
0.0
 40
0.9810965884196301
100
AcDbArc
 50
37.7235657423
 51
38.3420444763
  0
SPLINE
  5
2CC
330
1F
100
AcDbEntity
  8
0
  6
Continuous
 62
     7
370
     0
100
AcDbSpline
210
0.0
220
0.0
230
1.0
 70
     8
 71
     3
 72
    12
 73
     8
 74
     0
 42
0.00000001
 43
0.00000001
 40
0.0
 40
0.0
 40
0.0
 40
0.0
 40
0.25087582776008
 40
0.5006089009254115
 40
0.6255741322401548
 40
0.7506852523713844
 40
0.9999999999999999
 40
0.9999999999999999
 40
0.9999999999999999
 40
0.9999999999999999
 10
7.788354185387087
 20
7.129848140025214
 30
0.0
 10
7.787577190496338
 20
7.130783140147813
 30
0.0
 10
7.786026739973642
 20
7.132648881410807
 30
0.0
 10
7.783559870065916
 20
7.134673431076866
 30
0.0
 10
7.781246185324206
 20
7.13549285647888
 30
0.0
 10
7.778905892785002
 20
7.135671475969969
 30
0.0
 10
7.7774795224908
 20
7.135020416502051
 30
0.0
 10
7.776529761321648
 20
7.134586902845779
 30
0.0
  0
SPLINE
  5
2CD
330
1F
100
AcDbEntity
  8
0
  6
Continuous
 62
     7
370
     0
100
AcDbSpline
210
0.0
220
0.0
230
1.0
 70
     8
 71
     3
 72
    13
 73
     9
 74
     0
 42
0.00000001
 43
0.00000001
 40
0.0
 40
0.0
 40
0.0
 40
0.0
 40
0.1252642249996763
 40
0.2502628772387678
 40
0.3767307195412286
 40
0.5001238771630699
 40
0.7494666677393602
 40
1.0
 40
1.0
 40
1.0
 40
1.0
 10
7.776529761321648
 20
7.134586902845779
 30
0.0
 10
7.776121443644033
 20
7.134318200504963
 30
0.0
 10
7.775305673963365
 20
7.13378136549933
 30
0.0
 10
7.77443653101657
 20
7.132625843101569
 30
0.0
 10
7.773989032847487
 20
7.131232742119073
 30
0.0
 10
7.774107427400208
 20
7.129156623543085
 30
0.0
 10
7.775378917694901
 20
7.126563007270587
 30
0.0
 10
7.776784002411818
 20
7.124693832391165
 30
0.0
 10
7.777488217996751
 20
7.123757019069375
 30
0.0
  0
ARC
  5
2CE
330
1F
100
AcDbEntity
  8
0
  6
Continuous
 62
     7
370
     0
100
AcDbCircle
 10
7.008142437
 20
6.5150437907
 30
0.0
 40
0.9810324791587851
100
AcDbArc
 50
37.7235521688
 51
38.3513586188
  0
LINE
  5
2CF
330
1F
100
AcDbEntity
  8
0
  6
Continuous
 62
     7
370
     0
100
AcDbLine
 10
7.7841117475
 20
7.1152907019
 30
0.0
 11
7.7948790553
 21
7.1215065363
 31
0.0
  0
ARC
  5
2D0
330
1F
100
AcDbEntity
  8
0
  6
Continuous
 62
     7
370
     0
100
AcDbCircle
 10
7.0417575856
 20
6.5345573013
 30
0.0
 40
0.9803570069347574
100
AcDbArc
 50
37.723396769
 51
38.449194333
  0
SPLINE
  5
2D1
330
1F
100
AcDbEntity
  8
0
  6
Continuous
 62
     7
370
     0
100
AcDbSpline
210
0.0
220
0.0
230
1.0
 70
     8
 71
     3
 72
    13
 73
     9
 74
     0
 42
0.00000001
 43
0.00000001
 40
0.0
 40
0.0
 40
0.0
 40
0.0
 40
0.2576868080744018
 40
0.4999433752794348
 40
0.6237499127083131
 40
0.7488287379045612
 40
0.8752064661326442
 40
1.0
 40
1.0
 40
1.0
 40
1.0
 10
7.809533831268752
 20
7.144163319753124
 30
0.0
 10
7.808644353506894
 20
7.145215706337886
 30
0.0
 10
7.806918659755546
 20
7.147257462783302
 30
0.0
 10
7.804217465550473
 20
7.149457918754353
 30
0.0
 10
7.801724296237802
 20
7.150419418377818
 30
0.0
 10
7.799795166389215
 20
7.150640206450954
 30
0.0
 10
7.79796822877195
 20
7.150391994682039
 30
0.0
 10
7.796955717407777
 20
7.149883091996501
 30
0.0
 10
7.796452654795591
 20
7.149630245536309
 30
0.0
  0
SPLINE
  5
2D2
330
1F
100
AcDbEntity
  8
0
  6
Continuous
 62
     7
370
     0
100
AcDbSpline
210
0.0
220
0.0
230
1.0
 70
     8
 71
     3
 72
    13
 73
     9
 74
     0
 42
0.00000001
 43
0.00000001
 40
0.0
 40
0.0
 40
0.0
 40
0.0
 40
0.129689759476919
 40
0.2496082834091595
 40
0.3753937891474436
 40
0.499895888104619
 40
0.7495309619036623
 40
1.0
 40
1.0
 40
1.0
 40
1.0
 10
7.796452654795591
 20
7.149630245536309
 30
0.0
 10
7.795986481553899
 20
7.149314255046641
 30
0.0
 10
7.795089258032944
 20
7.148706081787493
 30
0.0
 10
7.794246866225892
 20
7.147338868114613
 30
0.0
 10
7.793898529961894
 20
7.1457543004782
 30
0.0
 10
7.794219334221368
 20
7.143428339739358
 30
0.0
 10
7.795704003883904
 20
7.140582143313942
 30
0.0
 10
7.797273742280482
 20
7.138506507426206
 30
0.0
 10
7.798059920312022
 20
7.137466958836474
 30
0.0
  0
ARC
  5
2D3
330
1F
100
AcDbEntity
  8
0
  6
Continuous
 62
     7
370
     0
100
AcDbCircle
 10
7.0302237939
 20
6.5278948542
 30
0.0
 40
0.9803828169797881
100
AcDbArc
 50
37.7234031221
 51
38.4454660089
  0
LINE
  5
2D4
330
1F
100
AcDbEntity
  8
0
  6
Continuous
 62
     7
370
     0
100
AcDbLine
 10
7.8056808001
 20
7.1277422509
 30
0.0
 11
7.8171942433
 21
7.1343888202
 31
0.0
  0
SPLINE
  5
2D5
330
1F
100
AcDbEntity
  8
0
  6
Continuous
 62
     7
370
     0
100
AcDbSpline
210
0.0
220
0.0
230
1.0
 70
    24
 71
     1
 72
     4
 73
     2
 74
     0
 42
0.00000001
 43
0.00000001
 40
0.0
 40
0.0
 40
1.0
 40
1.0
 10
7.726022754149369
 20
7.188799295859449
 30
0.0
 10
7.752174668029519
 20
7.19446706522834
 30
0.0
  0
ARC
  5
2D6
330
1F
100
AcDbEntity
  8
0
  6
Continuous
 62
     7
370
     0
100
AcDbCircle
 10
7.1003576729
 20
6.5880856655
 30
0.0
 40
0.8902605220675377
100
AcDbArc
 50
42.9318546618
 51
44.0134317249
  0
SPLINE
  5
2D7
330
1F
100
AcDbEntity
  8
0
  6
Continuous
 62
     7
370
     0
100
AcDbSpline
210
0.0
220
0.0
230
1.0
 70
    24
 71
     1
 72
     4
 73
     2
 74
     0
 42
0.00000001
 43
0.00000001
 40
0.0
 40
0.0
 40
1.0
 40
1.0
 10
7.740612504978993
 20
7.206662699567845
 30
0.0
 10
7.726022754149369
 20
7.188799295859449
 30
0.0
  0
SPLINE
  5
2D8
330
1F
100
AcDbEntity
  8
0
  6
Continuous
 62
     7
370
     0
100
AcDbSpline
210
0.0
220
0.0
230
1.0
 70
     8
 71
     3
 72
     9
 73
     5
 74
     0
 42
0.00000001
 43
0.00000001
 40
0.0
 40
0.0
 40
0.0
 40
0.0
 40
0.4999994477952475
 40
1.0
 40
1.0
 40
1.0
 40
1.0
 10
7.473353949115246
 20
7.260744969089783
 30
0.0
 10
7.474853227996301
 20
7.260298571632367
 30
0.0
 10
7.477851789070053
 20
7.259405775731524
 30
0.0
 10
7.480744705080126
 20
7.25836753986767
 30
0.0
 10
7.482191164682645
 20
7.257848421362425
 30
0.0
  0
ARC
  5
2D9
330
1F
100
AcDbEntity
  8
0
  6
Continuous
 62
     7
370
     0
100
AcDbCircle
 10
7.4972905764
 20
7.2967911279
 30
0.0
 40
0.04176753078931
100
AcDbArc
 50
248.8069940696
 51
261.039075821
  0
ARC
  5
2DA
330
1F
100
AcDbEntity
  8
0
  6
Continuous
 62
     7
370
     0
100
AcDbCircle
 10
7.4914734004
 20
7.2630564591
 30
0.0
 40
0.0075545266619798
100
AcDbArc
 50
264.7704297092
 51
297.8945546871
  0
SPLINE
  5
2DB
330
1F
100
AcDbEntity
  8
0
  6
Continuous
 62
     7
370
     0
100
AcDbSpline
210
0.0
220
0.0
230
1.0
 70
     8
 71
     3
 72
    13
 73
     9
 74
     0
 42
0.00000001
 43
0.00000001
 40
0.0
 40
0.0
 40
0.0
 40
0.0
 40
0.2485845284665437
 40
0.3735388535831929
 40
0.4967972082190548
 40
0.6212572301422092
 40
0.7502093099099882
 40
1.0
 40
1.0
 40
1.0
 40
1.0
 10
7.49500775416042
 20
7.256379692131659
 30
0.0
 10
7.495573817753879
 20
7.256782884401471
 30
0.0
 10
7.496424420754236
 20
7.25738874663742
 30
0.0
 10
7.496775108719852
 20
7.258434764137199
 30
0.0
 10
7.496749152653393
 20
7.259231173315865
 30
0.0
 10
7.496408893487762
 20
7.260017607396474
 30
0.0
 10
7.495623136230149
 20
7.260999268771225
 30
0.0
 10
7.494715371288566
 20
7.261609701516033
 30
0.0
 10
7.494116676741123
 20
7.262012297760012
 30
0.0
  0
ARC
  5
2DC
330
1F
100
AcDbEntity
  8
0
  6
Continuous
 62
     7
370
     0
100
AcDbCircle
 10
7.4848390407
 20
7.2469008881
 30
0.0
 40
0.0177321524726878
100
AcDbArc
 50
58.4521938801
 51
120.3929625528
  0
LINE
  5
2DD
330
1F
100
AcDbEntity
  8
0
  6
Continuous
 62
     7
370
     0
100
AcDbLine
 10
7.4758678515
 20
7.262196214
 30
0.0
 11
7.4733539491
 21
7.2607449691
 31
0.0
  0
ARC
  5
2DE
330
1F
100
AcDbEntity
  8
0
  6
Continuous
 62
     7
370
     0
100
AcDbCircle
 10
7.1613793957
 20
6.6571906259
 30
0.0
 40
0.7846711789594054
100
AcDbArc
 50
48.3680475799
 51
49.0642670268
  0
SPLINE
  5
2DF
330
1F
100
AcDbEntity
  8
0
  6
Continuous
 62
     7
370
     0
100
AcDbSpline
210
0.0
220
0.0
230
1.0
 70
    24
 71
     1
 72
     4
 73
     2
 74
     0
 42
0.00000001
 43
0.00000001
 40
0.0
 40
0.0
 40
1.0
 40
1.0
 10
7.675505431304322
 20
7.24996653509581
 30
0.0
 10
7.670209759472627
 20
7.253401479086689
 30
0.0
  0
ARC
  5
2E0
330
1F
100
AcDbEntity
  8
0
  6
Continuous
 62
     7
370
     0
100
AcDbCircle
 10
7.6654582725
 20
7.2457072942
 30
0.0
 40
0.0090430697061084
100
AcDbArc
 50
58.3029026323
 51
117.4357129342
  0
SPLINE
  5
2E1
330
1F
100
AcDbEntity
  8
0
  6
Continuous
 62
     7
370
     0
100
AcDbSpline
210
0.0
220
0.0
230
1.0
 70
     8
 71
     3
 72
    13
 73
     9
 74
     0
 42
0.00000001
 43
0.00000001
 40
0.0
 40
0.0
 40
0.0
 40
0.0
 40
0.1252323796025109
 40
0.2501692759916101
 40
0.3766784429509089
 40
0.4998070571083552
 40
0.7494738685100367
 40
1.0
 40
1.0
 40
1.0
 40
1.0
 10
7.661291650286475
 20
7.253733275077964
 30
0.0
 10
7.660833313401727
 20
7.253435159317586
 30
0.0
 10
7.659917721068645
 20
7.252839631194813
 30
0.0
 10
7.658996456000253
 20
7.251646698786287
 30
0.0
 10
7.658623198021258
 20
7.250260338818851
 30
0.0
 10
7.659114117039452
 20
7.248293603755694
 30
0.0
 10
7.660944726472888
 20
7.2460171970865
 30
0.0
 10
7.662751823632739
 20
7.244380456572758
 30
0.0
 10
7.663656924488555
 20
7.243560680374417
 30
0.0
  0
ARC
  5
2E2
330
1F
100
AcDbEntity
  8
0
  6
Continuous
 62
     7
370
     0
100
AcDbCircle
 10
7.1500316619
 20
6.6507512386
 30
0.0
 40
0.7843685005250152
100
AcDbArc
 50
48.3679561148
 51
49.0935060988
  0
LINE
  5
2E3
330
1F
100
AcDbEntity
  8
0
  6
Continuous
 62
     7
370
     0
100
AcDbLine
 10
7.6711224285
 20
7.2370091661
 30
0.0
 11
7.6826703087
 21
7.2436756155
 31
0.0
  0
SPLINE
  5
2E4
330
1F
100
AcDbEntity
  8
0
  6
Continuous
 62
     7
370
     0
100
AcDbSpline
210
0.0
220
0.0
230
1.0
 70
    24
 71
     1
 72
     4
 73
     2
 74
     0
 42
0.00000001
 43
0.00000001
 40
0.0
 40
0.0
 40
1.0
 40
1.0
 10
7.582159125201522
 20
7.310214029237606
 30
0.0
 10
7.615181012998837
 20
7.310760122878111
 30
0.0
  0
ARC
  5
2E5
330
1F
100
AcDbEntity
  8
0
  6
Continuous
 62
     7
370
     0
100
AcDbCircle
 10
7.2744995489
 20
6.7984915292
 30
0.0
 40
0.6152096976084067
100
AcDbArc
 50
56.3743218887
 51
58.0538572306
  0
LINE
  5
2E6
330
1F
100
AcDbEntity
  8
0
  6
Continuous
 62
     7
370
     0
100
AcDbLine
 10
7.6000204588
 20
7.3205251577
 30
0.0
 11
7.5821591252
 21
7.3102140292
 31
0.0
  0
SPLINE
  5
2E7
330
1F
100
AcDbEntity
  8
0
  6
Continuous
 62
     7
370
     0
100
AcDbSpline
210
0.0
220
0.0
230
1.0
 70
     8
 71
     3
 72
    14
 73
    10
 74
     0
 42
0.00000001
 43
0.00000001
 40
0.0
 40
0.0
 40
0.0
 40
0.0
 40
0.5001598129721243
 40
0.6334839770285937
 40
0.7547008492879113
 40
0.8160823888832975
 40
0.8744466572133938
 40
0.9383930382658788
 40
1.0
 40
1.0
 40
1.0
 40
1.0
 10
7.552871326485367
 20
7.340690519631988
 30
0.0
 10
7.556557932454498
 20
7.342864772621827
 30
0.0
 10
7.561227251641069
 20
7.345618601288879
 30
0.0
 10
7.565363673635614
 20
7.349447752668109
 30
0.0
 10
7.566410120848279
 20
7.351211428234032
 30
0.0
 10
7.5666041438827
 20
7.352587611705109
 30
0.0
 10
7.566283878919031
 20
7.353604349977067
 30
0.0
 10
7.565513634991005
 20
7.354539424103175
 30
0.0
 10
7.564636607925291
 20
7.355028798176163
 30
0.0
 10
7.564206265158798
 20
7.355268925990518
 30
0.0
  0
ARC
  5
2E8
330
1F
100
AcDbEntity
  8
0
  6
Continuous
 62
     7
370
     0
100
AcDbCircle
 10
7.5575885277
 20
7.3281486157
 30
0.0
 40
0.0279160469923546
100
AcDbArc
 50
76.2870019939
 51
133.7965263851
  0
SPLINE
  5
2E9
330
1F
100
AcDbEntity
  8
0
  6
Continuous
 62
     7
370
     0
100
AcDbSpline
210
0.0
220
0.0
230
1.0
 70
     8
 71
     3
 72
    14
 73
    10
 74
     0
 42
0.00000001
 43
0.00000001
 40
0.0
 40
0.0
 40
0.0
 40
0.0
 40
0.5003034315361699
 40
0.6254176539425591
 40
0.7501401738688106
 40
0.8143424488231972
 40
0.8750383566947347
 40
0.9374874297319854
 40
0.9999999999999999
 40
0.9999999999999999
 40
0.9999999999999999
 40
0.9999999999999999
 10
7.538267847917274
 20
7.348298479507811
 30
0.0
 10
7.534497826715587
 20
7.346078354801881
 30
0.0
 10
7.529785011118793
 20
7.343303028674737
 30
0.0
 10
7.525476818717242
 20
7.339495458318725
 30
0.0
 10
7.524371052807645
 20
7.337735263350729
 30
0.0
 10
7.524237857389701
 20
7.336308385148203
 30
0.0
 10
7.524616597600173
 20
7.335276441705527
 30
0.0
 10
7.525452131452525
 20
7.334340906754936
 30
0.0
 10
7.526355536103765
 20
7.333850882658261
 30
0.0
 10
7.52680746795459
 20
7.333605746111028
 30
0.0
  0
ARC
  5
2EA
330
1F
100
AcDbEntity
  8
0
  6
Continuous
 62
     7
370
     0
100
AcDbCircle
 10
7.5334428373
 20
7.360680153
 30
0.0
 40
0.027875645877191
100
AcDbArc
 50
256.2294277688
 51
314.1844101683
  0
SPLINE
  5
2EB
330
1F
100
AcDbEntity
  8
0
  6
Continuous
 62
     7
370
     0
100
AcDbSpline
210
0.0
220
0.0
230
1.0
 70
     8
 71
     3
 72
    14
 73
    10
 74
     0
 42
0.00000001
 43
0.00000001
 40
0.0
 40
0.0
 40
0.0
 40
0.0
 40
0.5001598129720296
 40
0.6334839770261576
 40
0.7547008492914042
 40
0.8160823888862339
 40
0.8744466572139679
 40
0.938393038263392
 40
0.9999999999999999
 40
0.9999999999999999
 40
0.9999999999999999
 40
0.9999999999999999
 10
7.500390973083304
 20
7.363674409327982
 30
0.0
 10
7.504078165938797
 20
7.365842316955418
 30
0.0
 10
7.508748228453975
 20
7.368588108820409
 30
0.0
 10
7.512904847660492
 20
7.372215638531789
 30
0.0
 10
7.513967896126891
 20
7.37381653569783
 30
0.0
 10
7.51418051904534
 20
7.375014457006526
 30
0.0
 10
7.513878318682423
 20
7.375861138990714
 30
0.0
 10
7.513129294698725
 20
7.376600188418321
 30
0.0
 10
7.51226813788481
 20
7.376947213203558
 30
0.0
 10
7.511845582390015
 20
7.377117492562048
 30
0.0
  0
ARC
  5
2EC
330
1F
100
AcDbEntity
  8
0
  6
Continuous
 62
     7
370
     0
100
AcDbCircle
 10
7.5079367265
 20
7.3445252537
 30
0.0
 40
0.0328258006157977
100
AcDbArc
 50
83.1610613557
 51
131.8275146554
  0
SPLINE
  5
2ED
330
1F
100
AcDbEntity
  8
0
  6
Continuous
 62
     7
370
     0
100
AcDbSpline
210
0.0
220
0.0
230
1.0
 70
     8
 71
     3
 72
    14
 73
    10
 74
     0
 42
0.00000001
 43
0.00000001
 40
0.0
 40
0.0
 40
0.0
 40
0.0
 40
0.5003034315361818
 40
0.6254176539425749
 40
0.7501401738688295
 40
0.8143424488247872
 40
0.8750383566947328
 40
0.9374874297319894
 40
1.0
 40
1.0
 40
1.0
 40
1.0
 10
7.486045515630188
 20
7.368985590459619
 30
0.0
 10
7.482274639068894
 20
7.366771971456839
 30
0.0
 10
7.477560754207
 20
7.364004777957508
 30
0.0
 10
7.473228467041225
 20
7.360390862147662
 30
0.0
 10
7.472102556237235
 20
7.35879466969197
 30
0.0
 10
7.471945736565021
 20
7.357564159633323
 30
0.0
 10
7.472303051342092
 20
7.356713392221614
 30
0.0
 10
7.473114824050498
 20
7.355982422708364
 30
0.0
 10
7.47400186310714
 20
7.355637404661572
 30
0.0
 10
7.474445608002712
 20
7.355464807980515
 30
0.0
  0
ARC
  5
2EE
330
1F
100
AcDbEntity
  8
0
  6
Continuous
 62
     7
370
     0
100
AcDbCircle
 10
7.4784409036
 20
7.387941459
 30
0.0
 40
0.0327214799285228
100
AcDbArc
 50
262.9866797417
 51
312.1300214479
  0
ARC
  5
2EF
330
1F
100
AcDbEntity
  8
0
  6
Continuous
 62
     7
370
     0
100
AcDbCircle
 10
7.2780551166
 20
7.339003635
 30
0.0
 40
0.0250820208255236
100
AcDbArc
 50
269.5699421834
 51
289.2575740192
  0
ARC
  5
2F0
330
1F
100
AcDbEntity
  8
0
  6
Continuous
 62
     7
370
     0
100
AcDbCircle
 10
7.2716813491
 20
7.3595254776
 30
0.0
 40
0.0465638008123986
100
AcDbArc
 50
288.3330818684
 51
297.9879322291
  0
ARC
  5
2F1
330
1F
100
AcDbEntity
  8
0
  6
Continuous
 62
     7
370
     0
100
AcDbCircle
 10
7.2729670055
 20
7.0419438061
 30
0.0
 40
0.2772275691480267
100
AcDbArc
 50
85.7456173152
 51
88.6679632461
  0
SPLINE
  5
2F2
330
1F
100
AcDbEntity
  8
0
  6
Continuous
 62
     7
370
     0
100
AcDbSpline
210
0.0
220
0.0
230
1.0
 70
     8
 71
     3
 72
    13
 73
     9
 74
     0
 42
0.00000001
 43
0.00000001
 40
0.0
 40
0.0
 40
0.0
 40
0.0
 40
0.250383120648851
 40
0.4995031561261934
 40
0.623233893951636
 40
0.7495671229801367
 40
0.8746833959388659
 40
1.0
 40
1.0
 40
1.0
 40
1.0
 10
7.279411529882578
 20
7.31909645929665
 30
0.0
 10
7.278479976975313
 20
7.318479276107952
 30
0.0
 10
7.27662157048181
 20
7.317248023178986
 30
0.0
 10
7.275117281740028
 20
7.315769230437137
 30
0.0
 10
7.275013353602843
 20
7.314854814911476
 30
0.0
 10
7.275501520586166
 20
7.314350639562721
 30
0.0
 10
7.276473104817145
 20
7.314033092574598
 30
0.0
 10
7.277402023663945
 20
7.313959264388028
 30
0.0
 10
7.277866854626694
 20
7.313922320765707
 30
0.0
  0
SPLINE
  5
2F3
330
1F
100
AcDbEntity
  8
0
  6
Continuous
 62
     7
370
     0
100
AcDbSpline
210
0.0
220
0.0
230
1.0
 70
     8
 71
     3
 72
    13
 73
     9
 74
     0
 42
0.00000001
 43
0.00000001
 40
0.0
 40
0.0
 40
0.0
 40
0.0
 40
0.2502837930805519
 40
0.4996335298260856
 40
0.6262055894834555
 40
0.7498197801868697
 40
0.8748231480904678
 40
0.9999999999999999
 40
0.9999999999999999
 40
0.9999999999999999
 40
0.9999999999999999
 10
7.238595566096257
 20
7.318266110104664
 30
0.0
 10
7.237503244531009
 20
7.317619456572003
 30
0.0
 10
7.235322677932459
 20
7.316328562810479
 30
0.0
 10
7.233386269772371
 20
7.314870149666417
 30
0.0
 10
7.232863104997689
 20
7.314043037288632
 30
0.0
 10
7.233059444709916
 20
7.313646516813348
 30
0.0
 10
7.233779085013004
 20
7.313471354748523
 30
0.0
 10
7.234679313532251
 20
7.313561738565761
 30
0.0
 10
7.235129739917369
 20
7.313606961812083
 30
0.0
  0
ARC
  5
2F4
330
1F
100
AcDbEntity
  8
0
  6
Continuous
 62
     7
370
     0
100
AcDbCircle
 10
7.2252953667
 20
7.3593256542
 30
0.0
 40
0.0467644494296584
100
AcDbArc
 50
282.1396948272
 51
302.7836836072
  0
SPLINE
  5
2F5
330
1F
100
AcDbEntity
  8
0
  6
Continuous
 62
     7
370
     0
100
AcDbSpline
210
0.0
220
0.0
230
1.0
 70
     8
 71
     3
 72
    13
 73
     9
 74
     0
 42
0.00000001
 43
0.00000001
 40
0.0
 40
0.0
 40
0.0
 40
0.0
 40
0.2503895108603306
 40
0.4999174635821386
 40
0.6260458464133766
 40
0.7500378636042649
 40
0.8749142295199501
 40
1.0
 40
1.0
 40
1.0
 40
1.0
 10
7.25061685778774
 20
7.32000980726857
 30
0.0
 10
7.2516911161592
 20
7.320643604044625
 30
0.0
 10
7.253835936517076
 20
7.321909016783454
 30
0.0
 10
7.25584564649292
 20
7.323395425965664
 30
0.0
 10
7.256554039525533
 20
7.324317855096641
 30
0.0
 10
7.256517141877237
 20
7.32480240219864
 30
0.0
 10
7.255937049298423
 20
7.325059354166979
 30
0.0
 10
7.25507154113842
 20
7.324981995207135
 30
0.0
 10
7.254638424520793
 20
7.324943283323667
 30
0.0
  0
ARC
  5
2F6
330
1F
100
AcDbEntity
  8
0
  6
Continuous
 62
     7
370
     0
100
AcDbCircle
 10
7.2651132882
 20
7.2771647221
 30
0.0
 40
0.0489133282840568
100
AcDbArc
 50
102.3657537313
 51
122.8292284273
  0
SPLINE
  5
2F7
330
1F
100
AcDbEntity
  8
0
  6
Continuous
 62
     7
370
     0
100
AcDbSpline
210
0.0
220
0.0
230
1.0
 70
     8
 71
     3
 72
    14
 73
    10
 74
     0
 42
0.00000001
 43
0.00000001
 40
0.0
 40
0.0
 40
0.0
 40
0.0
 40
0.5001598129720497
 40
0.6334839770234487
 40
0.7547008492853853
 40
0.8160823888811518
 40
0.8744466572121021
 40
0.9383930382628334
 40
1.0
 40
1.0
 40
1.0
 40
1.0
 10
7.376150757880076
 20
7.384927078010803
 30
0.0
 10
7.379842183490801
 20
7.387078297021516
 30
0.0
 10
7.384517607057665
 20
7.389802951699901
 30
0.0
 10
7.388812071028172
 20
7.392901412284964
 30
0.0
 10
7.389987046177537
 20
7.394075397454226
 30
0.0
 10
7.390323149725596
 20
7.394806124691862
 30
0.0
 10
7.390139439948021
 20
7.395207368576432
 30
0.0
 10
7.389527858825691
 20
7.395433268234042
 30
0.0
 10
7.388767506833809
 20
7.395408012375106
 30
0.0
 10
7.388394414608381
 20
7.395395619740226
 30
0.0
  0
ARC
  5
2F8
330
1F
100
AcDbEntity
  8
0
  6
Continuous
 62
     7
370
     0
100
AcDbCircle
 10
7.4024374104
 20
7.3305130189
 30
0.0
 40
0.0663849201046879
100
AcDbArc
 50
102.2125534502
 51
125.9800872192
  0
SPLINE
  5
2F9
330
1F
100
AcDbEntity
  8
0
  6
Continuous
 62
     7
370
     0
100
AcDbSpline
210
0.0
220
0.0
230
1.0
 70
     8
 71
     3
 72
    14
 73
    10
 74
     0
 42
0.00000001
 43
0.00000001
 40
0.0
 40
0.0
 40
0.0
 40
0.0
 40
0.50030343153622
 40
0.6254176539426229
 40
0.7501401738688869
 40
0.8143424488284944
 40
0.8750383566947242
 40
0.937487429731982
 40
1.0
 40
1.0
 40
1.0
 40
1.0
 10
7.363436001093283
 20
7.384233105407226
 30
0.0
 10
7.35966023623147
 20
7.382036399288837
 30
0.0
 10
7.354940240619083
 20
7.379290348191915
 30
0.0
 10
7.350465399746626
 20
7.376180940129446
 30
0.0
 10
7.34921932626973
 20
7.375012208899065
 30
0.0
 10
7.348919703218188
 20
7.374293905094991
 30
0.0
 10
7.349146065335328
 20
7.373916005742566
 30
0.0
 10
7.349810910286291
 20
7.373719285378766
 30
0.0
 10
7.350594832413178
 20
7.373753341089246
 30
0.0
 10
7.350986992645273
 20
7.373770377596914
 30
0.0
  0
ARC
  5
2FA
330
1F
100
AcDbEntity
  8
0
  6
Continuous
 62
     7
370
     0
100
AcDbCircle
 10
7.3377653525
 20
7.4375481743
 30
0.0
 40
0.0651338553605847
100
AcDbArc
 50
281.7119675454
 51
306.109553997
  0
ARC
  5
2FB
330
1F
100
AcDbEntity
  8
0
  6
Continuous
 62
     7
370
     0
100
AcDbCircle
 10
7.2552639846
 20
7.1118144481
 30
0.0
 40
0.201354274551909
100
AcDbArc
 50
114.8322904627
 51
115.8346834968
  0
ARC
  5
2FC
330
1F
100
AcDbEntity
  8
0
  6
Continuous
 62
     7
370
     0
100
AcDbCircle
 10
7.2665204268
 20
7.0946404261
 30
0.0
 40
0.2217329338465205
100
AcDbArc
 50
116.5187856403
 51
120.3309951014
  0
SPLINE
  5
2FD
330
1F
100
AcDbEntity
  8
0
  6
Continuous
 62
     7
370
     0
100
AcDbSpline
210
0.0
220
0.0
230
1.0
 70
     8
 71
     3
 72
    13
 73
     9
 74
     0
 42
0.00000001
 43
0.00000001
 40
0.0
 40
0.0
 40
0.0
 40
0.0
 40
0.1297148784722826
 40
0.2501166036227185
 40
0.3795473458378792
 40
0.5003189319525687
 40
0.7495371040293036
 40
1.0
 40
1.0
 40
1.0
 40
1.0
 10
7.154546488545027
 20
7.286023108448787
 30
0.0
 10
7.154044254189854
 20
7.285732164110944
 30
0.0
 10
7.153075844454452
 20
7.285171164397712
 30
0.0
 10
7.152000489322942
 20
7.284532366170819
 30
0.0
 10
7.151305664849009
 20
7.284101740370158
 30
0.0
 10
7.151092569618535
 20
7.283915690405791
 30
0.0
 10
7.152216648903667
 20
7.284446636352927
 30
0.0
 10
7.153624827204415
 20
7.285133786647874
 30
0.0
 10
7.154330670266724
 20
7.285478217653661
 30
0.0
  0
ARC
  5
2FE
330
1F
100
AcDbEntity
  8
0
  6
Continuous
 62
     7
370
     0
100
AcDbCircle
 10
7.2425719274
 20
7.1045394698
 30
0.0
 40
0.2013090905036734
100
AcDbArc
 50
114.8322093161
 51
115.9978341223
  0
LINE
  5
2FF
330
1F
100
AcDbEntity
  8
0
  6
Continuous
 62
     7
370
     0
100
AcDbLine
 10
7.1580296925
 20
7.2872358312
 30
0.0
 11
7.1707025153
 21
7.2945516961
 31
0.0
  0
SPLINE
  5
300
330
1F
100
AcDbEntity
  8
0
  6
Continuous
 62
     7
370
     0
100
AcDbSpline
210
0.0
220
0.0
230
1.0
 70
     8
 71
     3
 72
    14
 73
    10
 74
     0
 42
0.00000001
 43
0.00000001
 40
0.0
 40
0.0
 40
0.0
 40
0.0
 40
0.5001598129721607
 40
0.6334839770294387
 40
0.7547008492887776
 40
0.8160823888840394
 40
0.8744466572112987
 40
0.9383930382628964
 40
1.0
 40
1.0
 40
1.0
 40
1.0
 10
7.331264449627532
 20
7.378598837192371
 30
0.0
 10
7.334958605548623
 20
7.380743322749608
 30
0.0
 10
7.339637487225969
 20
7.383459449084126
 30
0.0
 10
7.344019782488228
 20
7.386344901544916
 30
0.0
 10
7.345265872969106
 20
7.38734709553945
 30
0.0
 10
7.345680148010078
 20
7.387889946431363
 30
0.0
 10
7.345571234326641
 20
7.38811215818115
 30
0.0
 10
7.345046146793568
 20
7.388131928693974
 30
0.0
 10
7.344348924968423
 20
7.387957266965542
 30
0.0
 10
7.344006809678222
 20
7.387871563326105
 30
0.0
  0
ARC
  5
301
330
1F
100
AcDbEntity
  8
0
  6
Continuous
 62
     7
370
     0
100
AcDbCircle
 10
7.3864887094
 20
7.2736752946
 30
0.0
 40
0.1218421093126498
100
AcDbArc
 50
110.4055922971
 51
123.3140467983
  0
SPLINE
  5
302
330
1F
100
AcDbEntity
  8
0
  6
Continuous
 62
     7
370
     0
100
AcDbSpline
210
0.0
220
0.0
230
1.0
 70
     8
 71
     3
 72
    14
 73
    10
 74
     0
 42
0.00000001
 43
0.00000001
 40
0.0
 40
0.0
 40
0.0
 40
0.0
 40
0.5003034315361519
 40
0.625417653942541
 40
0.750140173868784
 40
0.8143424488249206
 40
0.8750383566947362
 40
0.9374874297319898
 40
1.0
 40
1.0
 40
1.0
 40
1.0
 10
7.319569646653427
 20
7.375495423443034
 30
0.0
 10
7.315790906205652
 20
7.373305466195221
 30
0.0
 10
7.311067190882635
 20
7.37056785170404
 30
0.0
 10
7.306504725887685
 20
7.367660170213021
 30
0.0
 10
7.305184626200513
 20
7.366662436473603
 30
0.0
 10
7.304796712848803
 20
7.366149178938855
 30
0.0
 10
7.304941873216127
 20
7.365960688750132
 30
0.0
 10
7.305515332494662
 20
7.36597809230886
 30
0.0
 10
7.306234807806138
 20
7.366164220867834
 30
0.0
 10
7.306594728256727
 20
7.366257332436424
 30
0.0
  0
ARC
  5
303
330
1F
100
AcDbEntity
  8
0
  6
Continuous
 62
     7
370
     0
100
AcDbCircle
 10
7.2672354622
 20
7.475760679
 30
0.0
 40
0.1163620845902038
100
AcDbArc
 50
289.7701810305
 51
303.3846081815
  0
ARC
  5
304
330
1F
100
AcDbEntity
  8
0
  6
Continuous
 62
     7
370
     0
100
AcDbCircle
 10
7.8286920674
 20
6.9825409517
 30
0.0
 40
0.9020100764813407
100
AcDbArc
 50
2.4502390068
 51
57.5443844605
  0
SPLINE
  5
305
330
1F
100
AcDbEntity
  8
0
  6
Continuous
 62
     7
370
     0
100
AcDbSpline
210
0.0
220
0.0
230
1.0
 70
     8
 71
     3
 72
    14
 73
    10
 74
     0
 42
0.00000001
 43
0.00000001
 40
0.0
 40
0.0
 40
0.0
 40
0.0
 40
0.5001598129720407
 40
0.6334839770255235
 40
0.7547008492894229
 40
0.8160823888845569
 40
0.8744466572097204
 40
0.9383930382622233
 40
1.0
 40
1.0
 40
1.0
 40
1.0
 10
8.155257365658894
 20
7.737263093768092
 30
0.0
 10
8.158944478949822
 20
7.739431585592259
 30
0.0
 10
8.163614440691454
 20
7.742178117379284
 30
0.0
 10
8.16776839601222
 20
7.745824198288857
 30
0.0
 10
8.168829267940158
 20
7.747440070505188
 30
0.0
 10
8.169039470523689
 20
7.748654388216661
 30
0.0
 10
8.168734933117895
 20
7.749516709462563
 30
0.0
 10
8.167983180442423
 20
7.750273783409774
 30
0.0
 10
8.167120001730554
 20
7.75063389384225
 30
0.0
 10
8.166696454123672
 20
7.750810594112763
 30
0.0
  0
ARC
  5
306
330
1F
100
AcDbEntity
  8
0
  6
Continuous
 62
     7
370
     0
100
AcDbCircle
 10
8.1624933952
 20
7.7187917452
 30
0.0
 40
0.0322935347735424
100
AcDbArc
 50
82.521640634
 51
132.0135836359
  0
SPLINE
  5
307
330
1F
100
AcDbEntity
  8
0
  6
Continuous
 62
     7
370
     0
100
AcDbSpline
210
0.0
220
0.0
230
1.0
 70
     8
 71
     3
 72
    14
 73
    10
 74
     0
 42
0.00000001
 43
0.00000001
 40
0.0
 40
0.0
 40
0.0
 40
0.0
 40
0.5003034315359912
 40
0.6254176539423386
 40
0.7501401738685449
 40
0.8143424488213781
 40
0.8750383566947796
 40
0.9374874297320128
 40
1.0
 40
1.0
 40
1.0
 40
1.0
 10
8.140879113719189
 20
7.742785394867198
 30
0.0
 10
8.137108340959973
 20
7.740571178780137
 30
0.0
 10
8.132394585858638
 20
7.737803238879665
 30
0.0
 10
8.128065268798483
 20
7.734171539628208
 30
0.0
 10
8.12694185049315
 20
7.732560284774006
 30
0.0
 10
8.126787971727268
 20
7.731311736109646
 30
0.0
 10
8.127147967364795
 20
7.730444322914714
 30
0.0
 10
8.127962729322048
 20
7.729694555506339
 30
0.0
 10
8.128851845463965
 20
7.729336209057672
 30
0.0
 10
8.129296629429891
 20
7.729156944789373
 30
0.0
  0
ARC
  5
308
330
1F
100
AcDbEntity
  8
0
  6
Continuous
 62
     7
370
     0
100
AcDbCircle
 10
8.1335782565
 20
7.7610685896
 30
0.0
 40
0.0321975993525373
100
AcDbArc
 50
262.3581881085
 51
312.3233945353
  0
ARC
  5
309
330
1F
100
AcDbEntity
  8
0
  6
Continuous
 62
     7
370
     0
100
AcDbCircle
 10
7.5290636827
 20
6.5923000889
 30
0.0
 40
0.3295469858422506
100
AcDbArc
 50
225.4982736278
 51
277.8330944054
  0
SPLINE
  5
30A
330
1F
100
AcDbEntity
  8
0
  6
Continuous
 62
     7
370
     0
100
AcDbSpline
210
0.0
220
0.0
230
1.0
 70
    24
 71
     1
 72
     4
 73
     2
 74
     0
 42
0.00000001
 43
0.00000001
 40
0.0
 40
0.0
 40
1.0
 40
1.0
 10
7.299570576527776
 20
6.354493722282173
 30
0.0
 10
7.298074065129293
 20
6.357257513055281
 30
0.0
  0
LWPOLYLINE
  5
30B
330
1F
100
AcDbEntity
  8
0
  6
Continuous
 62
     7
370
     0
100
AcDbPolyline
 90
       13
 70
   128
 43
0.0
 10
7.3056582078
 20
6.3929112081
 10
7.3352743913
 20
6.3705887961
 10
7.3651848815
 20
6.3513361401
 10
7.3951245179
 20
6.3353239174
 10
7.4248278818
 20
6.3226940785
 10
7.454031649
 20
6.3135585885
 10
7.4824769243
 20
6.3079984347
 10
7.5099115368
 20
6.3060629086
 10
7.5360922749
 20
6.3077691689
 10
7.5607870431
 20
6.3131020893
 10
7.5837769191
 20
6.3220143928
 10
7.6048580946
 20
6.3344270708
 10
7.6106638734
 20
6.3387259416
  0
LINE
  5
30C
330
1F
100
AcDbEntity
  8
0
  6
Continuous
 62
     7
370
     0
100
AcDbLine
 10
7.2980740651
 20
6.3572575131
 30
0.0
 11
7.3056582078
 21
6.3929112081
 31
0.0
  0
LINE
  5
30D
330
1F
100
AcDbEntity
  8
0
  6
Continuous
 62
     7
370
     0
100
AcDbLine
 10
7.3056582078
 20
6.3929112081
 30
0.0
 11
7.3233358773
 21
6.4031163095
 31
0.0
  0
ARC
  5
30E
330
1F
100
AcDbEntity
  8
0
  6
Continuous
 62
     7
370
     0
100
AcDbCircle
 10
7.6781542807
 20
6.8411926138
 30
0.0
 40
0.5637436897741945
100
AcDbArc
 50
229.6258275167
 51
230.9943757423
  0
LINE
  5
30F
330
1F
100
AcDbEntity
  8
0
  6
Continuous
 62
     7
370
     0
100
AcDbLine
 10
7.2952966672
 20
6.4015104393
 30
0.0
 11
7.3129743367
 21
6.4117155407
 31
0.0
  0
LWPOLYLINE
  5
310
330
1F
100
AcDbEntity
  8
0
  6
Continuous
 62
     7
370
     0
100
AcDbPolyline
 90
       25
 70
   128
 43
0.0
 10
7.1621303082
 20
7.1156930516
 10
7.1531683214
 20
7.1117094472
 10
7.1320871459
 20
7.0992967692
 10
7.1131015582
 20
7.0834937568
 10
7.096379868
 20
7.0644405058
 10
7.0820703152
 20
7.0423059256
 10
7.0702997559
 20
7.0172862423
 10
7.0611725377
 20
6.9896032584
 10
7.0547695744
 20
6.9595023873
 10
7.0511476292
 20
6.9272504771
 10
7.0503388111
 20
6.8931334451
 10
7.0523502903
 20
6.8574537432
 10
7.057164235
 20
6.8205276766
 10
7.0647379687
 20
6.7826825997
 10
7.0750043494
 20
6.7442540139
 10
7.0878723643
 20
6.7055825937
 10
7.1032279368
 20
6.6670111662
 10
7.1209349376
 20
6.628881672
 10
7.1408363921
 20
6.5915321342
 10
7.1627558712
 20
6.5552936611
 10
7.1864990559
 20
6.5204875115
 10
7.2118554597
 20
6.4874222464
 10
7.238600295
 20
6.4563909937
 10
7.2664964652
 20
6.4276688495
 10
7.2952966672
 20
6.4015104393
  0
LWPOLYLINE
  5
311
330
1F
100
AcDbEntity
  8
0
  6
Continuous
 62
     7
370
     0
100
AcDbPolyline
 90
       32
 70
   128
 43
0.0
 10
7.1676988428
 20
7.1141921232
 10
7.152711528
 20
7.0967816834
 10
7.1384966348
 20
7.0747046588
 10
7.1267999052
 20
7.0497698843
 10
7.1177241305
 20
7.0221964876
 10
7.1113490689
 20
6.9922267847
 10
7.1077307447
 20
6.9601241504
 10
7.1069009559
 20
6.9261707038
 10
7.1088669946
 20
6.8906648291
 10
7.1136115833
 20
6.8539185531
 10
7.1210930264
 20
6.8162548034
 10
7.1312455766
 20
6.7780045705
 10
7.1439800129
 20
6.7395039987
 10
7.1591844248
 20
6.7010914324
 10
7.1767251952
 20
6.6631044428
 10
7.1964481753
 20
6.6258768607
 10
7.2181800388
 20
6.5897358435
 10
7.2417298053
 20
6.5549989998
 10
7.2668905186
 20
6.5219715983
 10
7.2934410654
 20
6.4909438848
 10
7.3211481186
 20
6.4621885322
 10
7.3497681876
 20
6.4359582433
 10
7.3790497582
 20
6.4124835311
 10
7.408735503
 20
6.391970692
 10
7.4385645425
 20
6.3745999936
 10
7.468274738
 20
6.3605240904
 10
7.4976049953
 20
6.3498666817
 10
7.526297559
 20
6.3427214253
 10
7.5541002779
 20
6.3391511141
 10
7.5807688207
 20
6.3391871239
 10
7.6060688232
 20
6.3428291383
 10
7.6121488216
 20
6.344298759
  0
LWPOLYLINE
  5
312
330
1F
100
AcDbEntity
  8
0
  6
Continuous
 62
     7
370
     0
100
AcDbPolyline
 90
       24
 70
   128
 43
0.0
 10
7.080655812
 20
7.1203778284
 10
7.0796862378
 20
7.1193619551
 10
7.0626978442
 20
7.0986296651
 10
7.0481246205
 20
7.074881973
 10
7.0360816735
 20
7.0483064504
 10
7.0266641249
 20
7.0191130049
 10
7.0199463593
 20
6.9875322214
 10
7.0159814372
 20
6.9538135418
 10
7.0148006756
 20
6.9182232938
 10
7.0164134008
 20
6.8810425879
 10
7.0208068746
 20
6.8425650968
 10
7.0279463952
 20
6.803094736
 10
7.0377755707
 20
6.7629432631
 10
7.0502167653
 20
6.7224278156
 10
7.0651717118
 20
6.6818684057
 10
7.0825222882
 20
6.6415853929
 10
7.1021314505
 20
6.6018969537
 10
7.1238443152
 20
6.5631165682
 10
7.1474893829
 20
6.5255505443
 10
7.1728798922
 20
6.4894955981
 10
7.1998152956
 20
6.4552365105
 10
7.2280828432
 20
6.4230438779
 10
7.257459263
 20
6.3931719745
 10
7.2877125246
 20
6.3658567443
  0
SPLINE
  5
313
330
1F
100
AcDbEntity
  8
0
  6
Continuous
 62
     7
370
     0
100
AcDbSpline
210
0.0
220
0.0
230
1.0
 70
    24
 71
     1
 72
     4
 73
     2
 74
     0
 42
0.00000001
 43
0.00000001
 40
0.0
 40
0.0
 40
1.0
 40
1.0
 10
7.287712524569176
 20
6.36585674426495
 30
0.0
 10
7.28920903596766
 20
6.363092953491844
 30
0.0
  0
LINE
  5
314
330
1F
100
AcDbEntity
  8
0
  6
Continuous
 62
     7
370
     0
100
AcDbLine
 10
7.2877125246
 20
6.3658567443
 30
0.0
 11
7.2952966672
 21
6.4015104393
 31
0.0
  0
LINE
  5
315
330
1F
100
AcDbEntity
  8
0
  6
Continuous
 62
     7
370
     0
100
AcDbLine
 10
7.3094385608
 20
6.3950935594
 30
0.0
 11
7.3129743367
 21
6.4117155407
 31
0.0
  0
SPLINE
  5
316
330
1F
100
AcDbEntity
  8
0
  6
Continuous
 62
     7
370
     0
100
AcDbSpline
210
0.0
220
0.0
230
1.0
 70
     8
 71
     3
 72
    12
 73
     8
 74
     0
 42
0.00000001
 43
0.00000001
 40
0.0
 40
0.0
 40
0.0
 40
0.0
 40
0.1393127337658728
 40
0.3088486430949506
 40
0.4791687398083203
 40
0.654748353177871
 40
1.0
 40
1.0
 40
1.0
 40
1.0
 10
7.627261446896077
 20
6.173457741470168
 30
0.0
 10
7.626185935470561
 20
6.172836785335537
 30
0.0
 10
7.623801585989904
 20
6.171460159851147
 30
0.0
 10
7.621865102349191
 20
6.170380870541997
 30
0.0
 10
7.62136926318329
 20
6.170221437546006
 30
0.0
 10
7.6230204332623
 20
6.171495588261093
 30
0.0
 10
7.626574084048206
 20
6.174075505476
 30
0.0
 10
7.628929748694014
 20
6.175785695964152
 30
0.0
  0
ARC
  5
317
330
1F
100
AcDbEntity
  8
0
  6
Continuous
 62
     7
370
     0
100
AcDbCircle
 10
7.4173500018
 20
6.6085916673
 30
0.0
 40
0.4818396041885676
100
AcDbArc
 50
299.2144046808
 51
304.2081479458
  0
ARC
  5
318
330
1F
100
AcDbEntity
  8
0
  6
Continuous
 62
     7
370
     0
100
AcDbCircle
 10
7.405984585
 20
7.2003431823
 30
0.0
 40
0.2000360609107643
100
AcDbArc
 50
119.0062911744
 51
119.9973007887
  0
SPLINE
  5
319
330
1F
100
AcDbEntity
  8
0
  6
Continuous
 62
     7
370
     0
100
AcDbSpline
210
0.0
220
0.0
230
1.0
 70
    24
 71
     1
 72
     4
 73
     2
 74
     0
 42
0.00000001
 43
0.00000001
 40
0.0
 40
0.0
 40
1.0
 40
1.0
 10
7.265565672587975
 20
7.350245994971557
 30
0.0
 10
7.264309276415665
 20
7.34951510921326
 30
0.0
  0
ARC
  5
31A
330
1F
100
AcDbEntity
  8
0
  6
Continuous
 62
     7
370
     0
100
AcDbCircle
 10
7.3021263074
 20
7.0538268713
 30
0.0
 40
0.2750013440137608
100
AcDbArc
 50
117.5014375757
 51
120.2605674367
  0
SPLINE
  5
31B
330
1F
100
AcDbEntity
  8
0
  6
Continuous
 62
     7
370
     0
100
AcDbSpline
210
0.0
220
0.0
230
1.0
 70
     8
 71
     3
 72
     9
 73
     5
 74
     0
 42
0.00000001
 43
0.00000001
 40
0.0
 40
0.0
 40
0.0
 40
0.0
 40
0.6786097878236141
 40
1.0
 40
1.0
 40
1.0
 40
1.0
 10
7.138007359491929
 20
7.276403571989261
 30
0.0
 10
7.136304278436794
 20
7.275502883794942
 30
0.0
 10
7.133794616646332
 20
7.274175628853325
 30
0.0
 10
7.13280678327737
 20
7.27361217314342
 30
0.0
 10
7.132489303301325
 20
7.273431083993263
 30
0.0
  0
LINE
  5
31C
330
1F
100
AcDbEntity
  8
0
  6
Continuous
 62
     7
370
     0
100
AcDbLine
 10
7.2658724729
 20
4.0581509644
 30
0.0
 11
4.3609632438
 21
4.0581509644
 31
0.0
  0
LINE
  5
31D
330
1F
100
AcDbEntity
  8
0
  6
Continuous
 62
     7
370
     0
100
AcDbLine
 10
4.3609632438
 20
4.0581509644
 30
0.0
 11
7.2800265552
 21
4.3841547726
 31
0.0
  0
LINE
  5
31E
330
1F
100
AcDbEntity
  8
0
  6
Continuous
 62
     7
370
     0
100
AcDbLine
 10
4.3609632438
 20
4.0581509644
 30
0.0
 11
7.2863811698
 21
3.66589731
 31
0.0
  0
LINE
  5
31F
330
1F
100
AcDbEntity
  8
0
  6
Continuous
 62
     7
370
     0
100
AcDbLine
 10
8.3482869567
 20
4.0581509644
 30
0.0
 11
9.2053045964
 21
4.0581509644
 31
0.0
  0
LINE
  5
320
330
1F
100
AcDbEntity
  8
0
  6
Continuous
 62
     7
370
     0
100
AcDbLine
 10
9.2053045964
 20
4.0581509644
 30
0.0
 11
8.3237038213
 21
3.66589731
 31
0.0
  0
LINE
  5
321
330
1F
100
AcDbEntity
  8
0
  6
Continuous
 62
     7
370
     0
100
AcDbLine
 10
9.2053045964
 20
4.0581509644
 30
0.0
 11
8.3313271862
 21
4.3841547726
 31
0.0
  0
LINE
  5
322
330
1F
100
AcDbEntity
  8
0
  6
Continuous
 62
     7
370
     0
100
AcDbLine
 10
8.3482869567
 20
4.0581509644
 30
0.0
 11
7.2658724729
 21
4.0581509644
 31
0.0
  0
LINE
  5
323
330
1F
100
AcDbEntity
  8
0
  6
Continuous
 62
     7
370
     0
100
AcDbLine
 10
7.2144259997
 20
3.4581509644
 30
0.0
 11
7.3007183299
 21
3.4581509644
 31
0.0
  0
LINE
  5
324
330
1F
100
AcDbEntity
  8
0
  6
Continuous
 62
     7
370
     0
100
AcDbLine
 10
7.3836831522
 20
3.4581509644
 30
0.0
 11
8.5397431397
 21
3.4581509644
 31
0.0
  0
LINE
  5
325
330
1F
100
AcDbEntity
  8
0
  6
Continuous
 62
     7
370
     0
100
AcDbLine
 10
8.5397431397
 20
4.6581509644
 30
0.0
 11
7.5352539218
 21
4.6581509644
 31
0.0
  0
LINE
  5
326
330
1F
100
AcDbEntity
  8
0
  6
Continuous
 62
     7
370
     0
100
AcDbLine
 10
7.517948727
 20
4.6581509644
 30
0.0
 11
7.3823480777
 21
4.6581509644
 31
0.0
  0
LINE
  5
327
330
1F
100
AcDbEntity
  8
0
  6
Continuous
 62
     7
370
     0
100
AcDbLine
 10
7.3245580936
 20
4.6581509644
 30
0.0
 11
7.0694259997
 21
4.6581509644
 31
0.0
  0
LINE
  5
328
330
1F
100
AcDbEntity
  8
0
  6
Continuous
 62
     7
370
     0
100
AcDbLine
 10
7.0694259997
 20
3.4581509644
 30
0.0
 11
7.1946532725
 21
3.4581509644
 31
0.0
  0
LINE
  5
329
330
1F
100
AcDbEntity
  8
0
  6
Continuous
 62
     7
370
     0
100
AcDbLine
 10
8.5497431397
 20
3.4681509644
 30
0.0
 11
8.5397431397
 21
3.4581509644
 31
0.0
  0
LINE
  5
32A
330
1F
100
AcDbEntity
  8
0
  6
Continuous
 62
     7
370
     0
100
AcDbLine
 10
8.5397431397
 20
4.6581509644
 30
0.0
 11
8.5497431397
 21
4.6481509644
 31
0.0
  0
LINE
  5
32B
330
1F
100
AcDbEntity
  8
0
  6
Continuous
 62
     7
370
     0
100
AcDbLine
 10
7.0594259997
 20
4.6481509644
 30
0.0
 11
7.0694259997
 21
4.6581509644
 31
0.0
  0
LINE
  5
32C
330
1F
100
AcDbEntity
  8
0
  6
Continuous
 62
     7
370
     0
100
AcDbLine
 10
7.0694259997
 20
3.4581509644
 30
0.0
 11
7.0594259997
 21
3.4681509644
 31
0.0
  0
LINE
  5
32D
330
1F
100
AcDbEntity
  8
0
  6
Continuous
 62
     7
370
     0
100
AcDbLine
 10
7.9347431397
 20
3.5331509644
 30
0.0
 11
7.9547431397
 21
3.5331509644
 31
0.0
  0
LINE
  5
32E
330
1F
100
AcDbEntity
  8
0
  6
Continuous
 62
     7
370
     0
100
AcDbLine
 10
7.9547431397
 20
4.5831509644
 30
0.0
 11
7.9347431397
 21
4.5831509644
 31
0.0
  0
LINE
  5
32F
330
1F
100
AcDbEntity
  8
0
  6
Continuous
 62
     7
370
     0
100
AcDbLine
 10
7.5652267497
 20
4.5831509644
 30
0.0
 11
7.5852267497
 21
4.5831509644
 31
0.0
  0
LINE
  5
330
330
1F
100
AcDbEntity
  8
0
  6
Continuous
 62
     7
370
     0
100
AcDbLine
 10
7.5852267497
 20
3.5331509644
 30
0.0
 11
7.5652267497
 21
3.5331509644
 31
0.0
  0
LINE
  5
331
330
1F
100
AcDbEntity
  8
0
  6
Continuous
 62
     7
370
     0
100
AcDbLine
 10
8.5497431397
 20
4.5741509644
 30
0.0
 11
8.5324226317
 21
4.5641509644
 31
0.0
  0
LINE
  5
332
330
1F
100
AcDbEntity
  8
0
  6
Continuous
 62
     7
370
     0
100
AcDbLine
 10
8.5324226317
 20
3.5521509644
 30
0.0
 11
8.5497431397
 21
3.5421509644
 31
0.0
  0
LINE
  5
333
330
1F
100
AcDbEntity
  8
0
  6
Continuous
 62
     7
370
     0
100
AcDbLine
 10
8.5324226317
 20
3.5521509644
 30
0.0
 11
8.5324226317
 21
4.5641509644
 31
0.0
  0
LINE
  5
334
330
1F
100
AcDbEntity
  8
0
  6
Continuous
 62
     7
370
     0
100
AcDbLine
 10
8.5497431397
 20
4.5741509644
 30
0.0
 11
8.5497431397
 21
3.5421509644
 31
0.0
  0
LINE
  5
335
330
1F
100
AcDbEntity
  8
0
  6
Continuous
 62
     7
370
     0
100
AcDbLine
 10
7.0594259997
 20
3.5421509644
 30
0.0
 11
7.0767465078
 21
3.5521509644
 31
0.0
  0
LINE
  5
336
330
1F
100
AcDbEntity
  8
0
  6
Continuous
 62
     7
370
     0
100
AcDbLine
 10
7.0767465078
 20
4.5641509644
 30
0.0
 11
7.0594259997
 21
4.5741509644
 31
0.0
  0
LINE
  5
337
330
1F
100
AcDbEntity
  8
0
  6
Continuous
 62
     7
370
     0
100
AcDbLine
 10
7.0767465078
 20
4.5641509644
 30
0.0
 11
7.0767465078
 21
3.5521509644
 31
0.0
  0
LINE
  5
338
330
1F
100
AcDbEntity
  8
0
  6
Continuous
 62
     7
370
     0
100
AcDbLine
 10
7.0594259997
 20
3.5421509644
 30
0.0
 11
7.0594259997
 21
4.5741509644
 31
0.0
  0
LINE
  5
339
330
1F
100
AcDbEntity
  8
0
  6
Continuous
 62
     7
370
     0
100
AcDbLine
 10
8.2497431397
 20
3.5521509644
 30
0.0
 11
8.2497431397
 21
3.5581509644
 31
0.0
  0
LINE
  5
33A
330
1F
100
AcDbEntity
  8
0
  6
Continuous
 62
     7
370
     0
100
AcDbLine
 10
8.2497431397
 20
4.5581509644
 30
0.0
 11
8.2497431397
 21
4.5641509644
 31
0.0
  0
LINE
  5
33B
330
1F
100
AcDbEntity
  8
0
  6
Continuous
 62
     7
370
     0
100
AcDbLine
 10
8.2497431397
 20
4.5641509644
 30
0.0
 11
8.5324226317
 21
4.5641509644
 31
0.0
  0
LINE
  5
33C
330
1F
100
AcDbEntity
  8
0
  6
Continuous
 62
     7
370
     0
100
AcDbLine
 10
8.5324226317
 20
3.5521509644
 30
0.0
 11
8.2497431397
 21
3.5521509644
 31
0.0
  0
LINE
  5
33D
330
1F
100
AcDbEntity
  8
0
  6
Continuous
 62
     7
370
     0
100
AcDbLine
 10
8.2485884392
 20
4.5621509644
 30
0.0
 11
8.2485884392
 21
4.5581509644
 31
0.0
  0
LINE
  5
33E
330
1F
100
AcDbEntity
  8
0
  6
Continuous
 62
     7
370
     0
100
AcDbLine
 10
8.2485884392
 20
3.5581509644
 30
0.0
 11
8.2485884392
 21
3.5541509644
 31
0.0
  0
LINE
  5
33F
330
1F
100
AcDbEntity
  8
0
  6
Continuous
 62
     7
370
     0
100
AcDbLine
 10
8.2485884392
 20
4.5621509644
 30
0.0
 11
8.2497431397
 21
4.5641509644
 31
0.0
  0
LINE
  5
340
330
1F
100
AcDbEntity
  8
0
  6
Continuous
 62
     7
370
     0
100
AcDbLine
 10
8.2497431397
 20
3.5521509644
 30
0.0
 11
8.2485884392
 21
3.5541509644
 31
0.0
  0
LINE
  5
341
330
1F
100
AcDbEntity
  8
0
  6
Continuous
 62
     7
370
     0
100
AcDbLine
 10
7.3594259997
 20
4.5641509644
 30
0.0
 11
7.3594259997
 21
4.5581509644
 31
0.0
  0
LINE
  5
342
330
1F
100
AcDbEntity
  8
0
  6
Continuous
 62
     7
370
     0
100
AcDbLine
 10
7.3594259997
 20
3.5581509644
 30
0.0
 11
7.3594259997
 21
3.5521509644
 31
0.0
  0
LINE
  5
343
330
1F
100
AcDbEntity
  8
0
  6
Continuous
 62
     7
370
     0
100
AcDbLine
 10
7.3594259997
 20
3.5521509644
 30
0.0
 11
7.0767465078
 21
3.5521509644
 31
0.0
  0
LINE
  5
344
330
1F
100
AcDbEntity
  8
0
  6
Continuous
 62
     7
370
     0
100
AcDbLine
 10
7.0767465078
 20
4.5641509644
 30
0.0
 11
7.3594259997
 21
4.5641509644
 31
0.0
  0
LINE
  5
345
330
1F
100
AcDbEntity
  8
0
  6
Continuous
 62
     7
370
     0
100
AcDbLine
 10
7.3605807003
 20
3.5541509644
 30
0.0
 11
7.3605807003
 21
3.5581509644
 31
0.0
  0
LINE
  5
346
330
1F
100
AcDbEntity
  8
0
  6
Continuous
 62
     7
370
     0
100
AcDbLine
 10
7.3605807003
 20
4.5581509644
 30
0.0
 11
7.3605807003
 21
4.5621509644
 31
0.0
  0
LINE
  5
347
330
1F
100
AcDbEntity
  8
0
  6
Continuous
 62
     7
370
     0
100
AcDbLine
 10
7.3605807003
 20
3.5541509644
 30
0.0
 11
7.3594259997
 21
3.5521509644
 31
0.0
  0
LINE
  5
348
330
1F
100
AcDbEntity
  8
0
  6
Continuous
 62
     7
370
     0
100
AcDbLine
 10
7.3594259997
 20
4.5641509644
 30
0.0
 11
7.3605807003
 21
4.5621509644
 31
0.0
  0
LINE
  5
349
330
1F
100
AcDbEntity
  8
0
  6
Continuous
 62
     7
370
     0
100
AcDbLine
 10
7.9547431397
 20
3.5541509644
 30
0.0
 11
8.2485884392
 21
3.5541509644
 31
0.0
  0
LINE
  5
34A
330
1F
100
AcDbEntity
  8
0
  6
Continuous
 62
     7
370
     0
100
AcDbLine
 10
8.2485884392
 20
4.5621509644
 30
0.0
 11
7.9547431397
 21
4.5621509644
 31
0.0
  0
LINE
  5
34B
330
1F
100
AcDbEntity
  8
0
  6
Continuous
 62
     7
370
     0
100
AcDbLine
 10
7.9547431397
 20
3.5541509644
 30
0.0
 11
7.9547431397
 21
3.5739555471
 31
0.0
  0
LINE
  5
34C
330
1F
100
AcDbEntity
  8
0
  6
Continuous
 62
     7
370
     0
100
AcDbLine
 10
7.9547431397
 20
4.5423463817
 30
0.0
 11
7.9547431397
 21
4.5621509644
 31
0.0
  0
LINE
  5
34D
330
1F
100
AcDbEntity
  8
0
  6
Continuous
 62
     7
370
     0
100
AcDbLine
 10
7.5652267497
 20
4.5621509644
 30
0.0
 11
7.3605807003
 21
4.5621509644
 31
0.0
  0
LINE
  5
34E
330
1F
100
AcDbEntity
  8
0
  6
Continuous
 62
     7
370
     0
100
AcDbLine
 10
7.3605807003
 20
3.5541509644
 30
0.0
 11
7.5652267497
 21
3.5541509644
 31
0.0
  0
LINE
  5
34F
330
1F
100
AcDbEntity
  8
0
  6
Continuous
 62
     7
370
     0
100
AcDbLine
 10
7.5652267497
 20
4.5621509644
 30
0.0
 11
7.5652267497
 21
4.5581509644
 31
0.0
  0
LINE
  5
350
330
1F
100
AcDbEntity
  8
0
  6
Continuous
 62
     7
370
     0
100
AcDbLine
 10
7.5652267497
 20
3.5581509644
 30
0.0
 11
7.5652267497
 21
3.5541509644
 31
0.0
  0
LINE
  5
351
330
1F
100
AcDbEntity
  8
0
  6
Continuous
 62
     7
370
     0
100
AcDbLine
 10
7.9347431397
 20
4.5091509644
 30
0.0
 11
7.5852267497
 21
4.5091509644
 31
0.0
  0
LINE
  5
352
330
1F
100
AcDbEntity
  8
0
  6
Continuous
 62
     7
370
     0
100
AcDbLine
 10
7.5852267497
 20
3.6071509644
 30
0.0
 11
7.9347431397
 21
3.6071509644
 31
0.0
  0
LINE
  5
353
330
1F
100
AcDbEntity
  8
0
  6
Continuous
 62
     7
370
     0
100
AcDbLine
 10
7.5852267497
 20
4.5091509644
 30
0.0
 11
7.5852267497
 21
4.5023612109
 31
0.0
  0
LINE
  5
354
330
1F
100
AcDbEntity
  8
0
  6
Continuous
 62
     7
370
     0
100
AcDbLine
 10
7.5852267497
 20
3.6139407179
 30
0.0
 11
7.5852267497
 21
3.6071509644
 31
0.0
  0
LINE
  5
355
330
1F
100
AcDbEntity
  8
0
  6
Continuous
 62
     7
370
     0
100
AcDbLine
 10
7.3683477337
 20
3.4581509644
 30
0.0
 11
7.3836831522
 21
3.4581509644
 31
0.0
  0
LINE
  5
356
330
1F
100
AcDbEntity
  8
0
  6
Continuous
 62
     7
370
     0
100
AcDbLine
 10
7.3156053839
 20
3.4581509644
 30
0.0
 11
7.3683477337
 21
3.4581509644
 31
0.0
  0
LINE
  5
357
330
1F
100
AcDbEntity
  8
0
  6
Continuous
 62
     7
370
     0
100
AcDbLine
 10
7.3007183299
 20
3.4581509644
 30
0.0
 11
7.3156053839
 21
3.4581509644
 31
0.0
  0
LINE
  5
358
330
1F
100
AcDbEntity
  8
0
  6
Continuous
 62
     7
370
     0
100
AcDbLine
 10
7.1946532725
 20
3.4581509644
 30
0.0
 11
7.2144259997
 21
3.4581509644
 31
0.0
  0
LINE
  5
359
330
1F
100
AcDbEntity
  8
0
  6
Continuous
 62
     7
370
     0
100
AcDbLine
 10
7.5652267497
 20
3.5331509644
 30
0.0
 11
7.5652267497
 21
3.5541509644
 31
0.0
  0
LINE
  5
35A
330
1F
100
AcDbEntity
  8
0
  6
Continuous
 62
     7
370
     0
100
AcDbLine
 10
7.5852267497
 20
3.5331509644
 30
0.0
 11
7.5852267497
 21
3.6071509644
 31
0.0
  0
LINE
  5
35B
330
1F
100
AcDbEntity
  8
0
  6
Continuous
 62
     7
370
     0
100
AcDbLine
 10
7.9347431397
 20
3.5331509644
 30
0.0
 11
7.9347431397
 21
3.6071509644
 31
0.0
  0
LINE
  5
35C
330
1F
100
AcDbEntity
  8
0
  6
Continuous
 62
     7
370
     0
100
AcDbLine
 10
7.9547431397
 20
3.5541509644
 30
0.0
 11
7.9547431397
 21
3.5331509644
 31
0.0
  0
LINE
  5
35D
330
1F
100
AcDbEntity
  8
0
  6
Continuous
 62
     7
370
     0
100
AcDbLine
 10
7.0594259997
 20
3.4681509644
 30
0.0
 11
7.0594259997
 21
3.5421509644
 31
0.0
  0
LINE
  5
35E
330
1F
100
AcDbEntity
  8
0
  6
Continuous
 62
     7
370
     0
100
AcDbLine
 10
8.5497431397
 20
3.5421509644
 30
0.0
 11
8.5497431397
 21
3.4681509644
 31
0.0
  0
LINE
  5
35F
330
1F
100
AcDbEntity
  8
0
  6
Continuous
 62
     7
370
     0
100
AcDbLine
 10
7.3823480777
 20
4.6581509644
 30
0.0
 11
7.3245580936
 21
4.6581509644
 31
0.0
  0
LINE
  5
360
330
1F
100
AcDbEntity
  8
0
  6
Continuous
 62
     7
370
     0
100
AcDbLine
 10
7.5352539218
 20
4.6581509644
 30
0.0
 11
7.517948727
 21
4.6581509644
 31
0.0
  0
LINE
  5
361
330
1F
100
AcDbEntity
  8
0
  6
Continuous
 62
     7
370
     0
100
AcDbLine
 10
7.5652267497
 20
4.5621509644
 30
0.0
 11
7.5652267497
 21
4.5831509644
 31
0.0
  0
LINE
  5
362
330
1F
100
AcDbEntity
  8
0
  6
Continuous
 62
     7
370
     0
100
AcDbLine
 10
7.5852267497
 20
4.5091509644
 30
0.0
 11
7.5852267497
 21
4.5831509644
 31
0.0
  0
LINE
  5
363
330
1F
100
AcDbEntity
  8
0
  6
Continuous
 62
     7
370
     0
100
AcDbLine
 10
7.9347431397
 20
4.5091509644
 30
0.0
 11
7.9347431397
 21
4.5831509644
 31
0.0
  0
LINE
  5
364
330
1F
100
AcDbEntity
  8
0
  6
Continuous
 62
     7
370
     0
100
AcDbLine
 10
7.9547431397
 20
4.5831509644
 30
0.0
 11
7.9547431397
 21
4.5621509644
 31
0.0
  0
LINE
  5
365
330
1F
100
AcDbEntity
  8
0
  6
Continuous
 62
     7
370
     0
100
AcDbLine
 10
7.0594259997
 20
4.5741509644
 30
0.0
 11
7.0594259997
 21
4.6481509644
 31
0.0
  0
LINE
  5
366
330
1F
100
AcDbEntity
  8
0
  6
Continuous
 62
     7
370
     0
100
AcDbLine
 10
8.5497431397
 20
4.6481509644
 30
0.0
 11
8.5497431397
 21
4.5741509644
 31
0.0
  0
LINE
  5
367
330
1F
100
AcDbEntity
  8
0
  6
Continuous
 62
     7
370
     0
100
AcDbLine
 10
7.2944259498
 20
3.5506509644
 30
0.0
 11
7.2771054417
 21
3.5406509644
 31
0.0
  0
LINE
  5
368
330
1F
100
AcDbEntity
  8
0
  6
Continuous
 62
     7
370
     0
100
AcDbLine
 10
7.2771054417
 20
4.5756509644
 30
0.0
 11
7.2944259498
 21
4.5656509644
 31
0.0
  0
LINE
  5
369
330
1F
100
AcDbEntity
  8
0
  6
Continuous
 62
     7
370
     0
100
AcDbLine
 10
7.2771054417
 20
4.5756509644
 30
0.0
 11
7.2244259498
 21
4.5756509644
 31
0.0
  0
LINE
  5
36A
330
1F
100
AcDbEntity
  8
0
  6
Continuous
 62
     7
370
     0
100
AcDbLine
 10
7.2244259498
 20
3.5406509644
 30
0.0
 11
7.2771054417
 21
3.5406509644
 31
0.0
  0
LINE
  5
36B
330
1F
100
AcDbEntity
  8
0
  6
Continuous
 62
     7
370
     0
100
AcDbLine
 10
7.2144259498
 20
3.6170062045
 30
0.0
 11
7.2394259498
 21
3.6170062045
 31
0.0
  0
LINE
  5
36C
330
1F
100
AcDbEntity
  8
0
  6
Continuous
 62
     7
370
     0
100
AcDbLine
 10
7.2394259498
 20
3.6202119734
 30
0.0
 11
7.2394259498
 21
3.6170062045
 31
0.0
  0
LINE
  5
36D
330
1F
100
AcDbEntity
  8
0
  6
Continuous
 62
     7
370
     0
100
AcDbLine
 10
7.2144259498
 20
3.6202119734
 30
0.0
 11
7.2394259498
 21
3.6202119734
 31
0.0
  0
LINE
  5
36E
330
1F
100
AcDbEntity
  8
0
  6
Continuous
 62
     7
370
     0
100
AcDbLine
 10
7.2144259498
 20
4.5081509644
 30
0.0
 11
7.2144259498
 21
3.6202119734
 31
0.0
  0
LINE
  5
36F
330
1F
100
AcDbEntity
  8
0
  6
Continuous
 62
     7
370
     0
100
AcDbLine
 10
7.2944259498
 20
4.5081509644
 30
0.0
 11
7.2144259498
 21
4.5081509644
 31
0.0
  0
LINE
  5
370
330
1F
100
AcDbEntity
  8
0
  6
Continuous
 62
     7
370
     0
100
AcDbLine
 10
7.2144259498
 20
3.6081509644
 30
0.0
 11
7.2944259498
 21
3.6081509644
 31
0.0
  0
LINE
  5
371
330
1F
100
AcDbEntity
  8
0
  6
Continuous
 62
     7
370
     0
100
AcDbLine
 10
7.2144259498
 20
3.6170062045
 30
0.0
 11
7.2144259498
 21
3.6081509644
 31
0.0
  0
LINE
  5
372
330
1F
100
AcDbEntity
  8
0
  6
Continuous
 62
     7
370
     0
100
AcDbLine
 10
7.2144259498
 20
4.5583304563
 30
0.0
 11
7.2244259498
 21
4.5756509644
 31
0.0
  0
LINE
  5
373
330
1F
100
AcDbEntity
  8
0
  6
Continuous
 62
     7
370
     0
100
AcDbLine
 10
7.2244259498
 20
3.5406509644
 30
0.0
 11
7.2144259498
 21
3.5579714725
 31
0.0
  0
LINE
  5
374
330
1F
100
AcDbEntity
  8
0
  6
Continuous
 62
     7
370
     0
100
AcDbLine
 10
7.2144259498
 20
3.5579714725
 30
0.0
 11
7.2144259498
 21
3.6081509644
 31
0.0
  0
LINE
  5
375
330
1F
100
AcDbEntity
  8
0
  6
Continuous
 62
     7
370
     0
100
AcDbLine
 10
7.2944259498
 20
3.5506509644
 30
0.0
 11
7.2944259498
 21
3.6081509644
 31
0.0
  0
LINE
  5
376
330
1F
100
AcDbEntity
  8
0
  6
Continuous
 62
     7
370
     0
100
AcDbLine
 10
7.2144259498
 20
4.5081509644
 30
0.0
 11
7.2144259498
 21
4.5583304563
 31
0.0
  0
LINE
  5
377
330
1F
100
AcDbEntity
  8
0
  6
Continuous
 62
     7
370
     0
100
AcDbLine
 10
7.2944259498
 20
4.5081509644
 30
0.0
 11
7.2944259498
 21
4.5656509644
 31
0.0
  0
LINE
  5
378
330
1F
100
AcDbEntity
  8
0
  6
Continuous
 62
     7
370
     0
100
AcDbLine
 10
7.2144259498
 20
3.6170062045
 30
0.0
 11
7.2144259498
 21
3.6202119734
 31
0.0
  0
LINE
  5
379
330
1F
100
AcDbEntity
  8
0
  6
Continuous
 62
     7
370
     0
100
AcDbLine
 10
8.3320636493
 20
3.5406509045
 30
0.0
 11
8.3847431412
 21
3.5406509045
 31
0.0
  0
LINE
  5
37A
330
1F
100
AcDbEntity
  8
0
  6
Continuous
 62
     7
370
     0
100
AcDbLine
 10
8.3847431412
 20
4.5756509045
 30
0.0
 11
8.3320636493
 21
4.5756509045
 31
0.0
  0
LINE
  5
37B
330
1F
100
AcDbEntity
  8
0
  6
Continuous
 62
     7
370
     0
100
AcDbLine
 10
8.3147431412
 20
4.5656509045
 30
0.0
 11
8.3320636493
 21
4.5756509045
 31
0.0
  0
LINE
  5
37C
330
1F
100
AcDbEntity
  8
0
  6
Continuous
 62
     7
370
     0
100
AcDbLine
 10
8.3320636493
 20
3.5406509045
 30
0.0
 11
8.3147431412
 21
3.5506509045
 31
0.0
  0
LINE
  5
37D
330
1F
100
AcDbEntity
  8
0
  6
Continuous
 62
     7
370
     0
100
AcDbLine
 10
8.3947431412
 20
3.6157524839
 30
0.0
 11
8.3697431412
 21
3.6157524839
 31
0.0
  0
LINE
  5
37E
330
1F
100
AcDbEntity
  8
0
  6
Continuous
 62
     7
370
     0
100
AcDbLine
 10
8.3697431412
 20
3.6132532142
 30
0.0
 11
8.3697431412
 21
3.6157524839
 31
0.0
  0
LINE
  5
37F
330
1F
100
AcDbEntity
  8
0
  6
Continuous
 62
     7
370
     0
100
AcDbLine
 10
8.3947431412
 20
3.6132532142
 30
0.0
 11
8.3697431412
 21
3.6132532142
 31
0.0
  0
LINE
  5
380
330
1F
100
AcDbEntity
  8
0
  6
Continuous
 62
     7
370
     0
100
AcDbLine
 10
8.3947431412
 20
3.6081509045
 30
0.0
 11
8.3947431412
 21
3.6132532142
 31
0.0
  0
LINE
  5
381
330
1F
100
AcDbEntity
  8
0
  6
Continuous
 62
     7
370
     0
100
AcDbLine
 10
8.3147431412
 20
3.6081509045
 30
0.0
 11
8.3947431412
 21
3.6081509045
 31
0.0
  0
LINE
  5
382
330
1F
100
AcDbEntity
  8
0
  6
Continuous
 62
     7
370
     0
100
AcDbLine
 10
8.3947431412
 20
4.5081509045
 30
0.0
 11
8.3147431412
 21
4.5081509045
 31
0.0
  0
LINE
  5
383
330
1F
100
AcDbEntity
  8
0
  6
Continuous
 62
     7
370
     0
100
AcDbLine
 10
8.3947431412
 20
3.6157524839
 30
0.0
 11
8.3947431412
 21
4.5081509045
 31
0.0
  0
LINE
  5
384
330
1F
100
AcDbEntity
  8
0
  6
Continuous
 62
     7
370
     0
100
AcDbLine
 10
8.3847431412
 20
4.5756509045
 30
0.0
 11
8.3947431412
 21
4.5583303965
 31
0.0
  0
LINE
  5
385
330
1F
100
AcDbEntity
  8
0
  6
Continuous
 62
     7
370
     0
100
AcDbLine
 10
8.3947431412
 20
4.5583303965
 30
0.0
 11
8.3947431412
 21
4.5081509045
 31
0.0
  0
LINE
  5
386
330
1F
100
AcDbEntity
  8
0
  6
Continuous
 62
     7
370
     0
100
AcDbLine
 10
8.3147431412
 20
4.5656509045
 30
0.0
 11
8.3147431412
 21
4.5081509045
 31
0.0
  0
LINE
  5
387
330
1F
100
AcDbEntity
  8
0
  6
Continuous
 62
     7
370
     0
100
AcDbLine
 10
8.3947431412
 20
3.6081509045
 30
0.0
 11
8.3947431412
 21
3.5579714126
 31
0.0
  0
LINE
  5
388
330
1F
100
AcDbEntity
  8
0
  6
Continuous
 62
     7
370
     0
100
AcDbLine
 10
8.3947431412
 20
3.5579714126
 30
0.0
 11
8.3847431412
 21
3.5406509045
 31
0.0
  0
LINE
  5
389
330
1F
100
AcDbEntity
  8
0
  6
Continuous
 62
     7
370
     0
100
AcDbLine
 10
8.3147431412
 20
3.6081509045
 30
0.0
 11
8.3147431412
 21
3.5506509045
 31
0.0
  0
LINE
  5
38A
330
1F
100
AcDbEntity
  8
0
  6
Continuous
 62
     7
370
     0
100
AcDbLine
 10
8.3947431412
 20
3.6132532142
 30
0.0
 11
8.3947431412
 21
3.6157524839
 31
0.0
  0
ARC
  5
38B
330
1F
100
AcDbEntity
  8
0
  6
Continuous
 62
     7
370
     0
100
AcDbCircle
 10
5.8076047563
 20
4.0581509644
 30
0.0
 40
1.832283464566929
100
AcDbArc
 50
344.16407335
 51
15.83592665
  0
LINE
  5
38C
330
1F
100
AcDbEntity
  8
0
  6
Continuous
 62
     7
370
     0
100
AcDbLine
 10
7.4614638154
 20
3.5581509644
 30
0.0
 11
7.5703477026
 21
3.5581509644
 31
0.0
  0
ARC
  5
38D
330
1F
100
AcDbEntity
  8
0
  6
Continuous
 62
     7
370
     0
100
AcDbCircle
 10
8.6993370398
 20
4.0581509644
 30
0.0
 40
1.335039370078742
100
AcDbArc
 50
158.0053021447
 51
201.9946978553
  0
LINE
  5
38E
330
1F
100
AcDbEntity
  8
0
  6
Continuous
 62
     7
370
     0
100
AcDbLine
 10
7.5703477026
 20
4.5581509644
 30
0.0
 11
7.4614638154
 21
4.5581509644
 31
0.0
  0
ARC
  5
38F
330
1F
100
AcDbEntity
  8
0
  6
Continuous
 62
     7
370
     0
100
AcDbCircle
 10
7.6108853819
 20
4.0581509644
 30
0.0
 40
0.6586614173228338
100
AcDbArc
 50
310.6137279292
 51
49.3862720708
  0
LINE
  5
390
330
1F
100
AcDbEntity
  8
0
  6
Continuous
 62
     7
370
     0
100
AcDbLine
 10
7.9665467167
 20
3.5581509644
 30
0.0
 11
8.0396450613
 21
3.5581509644
 31
0.0
  0
ARC
  5
391
330
1F
100
AcDbEntity
  8
0
  6
Continuous
 62
     7
370
     0
100
AcDbCircle
 10
8.6195467992
 20
4.0581509644
 30
0.0
 40
0.8224409448818898
100
AcDbArc
 50
142.5588390421
 51
217.4411609579
  0
LINE
  5
392
330
1F
100
AcDbEntity
  8
0
  6
Continuous
 62
     7
370
     0
100
AcDbLine
 10
8.0396450613
 20
4.5581509644
 30
0.0
 11
7.9665467167
 21
4.5581509644
 31
0.0
  0
ARC
  5
393
330
1F
100
AcDbEntity
  8
0
  6
Continuous
 62
     7
370
     0
100
AcDbCircle
 10
5.2065546732
 20
4.0581509644
 30
0.0
 40
3.141732283464568
100
AcDbArc
 50
350.8425609973
 51
9.1574390027
  0
LINE
  5
394
330
1F
100
AcDbEntity
  8
0
  6
Continuous
 62
     7
370
     0
100
AcDbLine
 10
8.0396450613
 20
3.5581509644
 30
0.0
 11
8.3082448159
 21
3.5581509644
 31
0.0
  0
ARC
  5
395
330
1F
100
AcDbEntity
  8
0
  6
Continuous
 62
     7
370
     0
100
AcDbCircle
 10
7.6108853819
 20
4.0581509644
 30
0.0
 40
0.6586614173228338
100
AcDbArc
 50
310.6137279292
 51
49.3862720708
  0
LINE
  5
396
330
1F
100
AcDbEntity
  8
0
  6
Continuous
 62
     7
370
     0
100
AcDbLine
 10
8.3082448159
 20
4.5581509644
 30
0.0
 11
8.0396450613
 21
4.5581509644
 31
0.0
  0
LINE
  5
397
330
1F
100
AcDbEntity
  8
0
  6
Continuous
 62
     7
370
     0
100
AcDbLine
 10
7.2992527416
 20
3.5581509644
 30
0.0
 11
7.4614638154
 21
3.5581509644
 31
0.0
  0
LINE
  5
398
330
1F
100
AcDbEntity
  8
0
  6
Continuous
 62
     7
370
     0
100
AcDbLine
 10
7.4614638154
 20
4.5581509644
 30
0.0
 11
7.2992527416
 21
4.5581509644
 31
0.0
  0
ARC
  5
399
330
1F
100
AcDbEntity
  8
0
  6
Continuous
 62
     7
370
     0
100
AcDbCircle
 10
8.6993370398
 20
4.0581509644
 30
0.0
 40
1.335039370078741
100
AcDbArc
 50
158.0053021447
 51
201.9946978553
  0
ARC
  5
39A
330
1F
100
AcDbEntity
  8
0
  6
Continuous
 62
     7
370
     0
100
AcDbCircle
 10
11.0272897957
 20
4.0581509644
 30
0.0
 40
3.761417322834656
100
AcDbArc
 50
172.3611411862
 51
187.6388588138
  0
DIMENSION
  5
39B
330
1F
100
AcDbEntity
  8
0
  6
Continuous
 62
     7
370
     0
100
AcDbDimension
  2
*D8
 10
7.0594259997
 20
2.8217293296
 30
0.0
 11
5.7441643408
 21
2.8217293296
 31
0.0
 70
   160
 71
     1
 42
-1.0
  3
SLDDIMSTYLE1
100
AcDbAlignedDimension
 13
4.3609632438
 23
4.0581509644
 33
0.0
 14
7.0594259997
 24
3.4681509644
 34
0.0
100
AcDbRotatedDimension
  0
DIMENSION
  5
3AE
330
1F
100
AcDbEntity
  8
0
  6
Continuous
 62
     7
370
     0
100
AcDbDimension
  2
*D9
 10
8.5497431397
 20
2.8217293296
 30
0.0
 11
9.6521053445
 21
2.8217293296
 31
0.0
 70
   160
 71
     1
 42
-1.0
  3
SLDDIMSTYLE2
100
AcDbAlignedDimension
 13
9.2053045964
 23
4.0581509644
 33
0.0
 14
8.5497431397
 24
3.4681509644
 34
0.0
100
AcDbRotatedDimension
  0
DIMENSION
  5
3C1
330
1F
100
AcDbEntity
  8
0
  6
Continuous
 62
     7
370
     0
100
AcDbDimension
  2
*D10
 10
8.3482869567
 20
4.8841154967
 30
0.0
 11
9.6521053445
 21
4.8841154967
 31
0.0
 70
   160
 71
     1
 42
-1.0
  3
SLDDIMSTYLE2
100
AcDbAlignedDimension
 13
9.2053045964
 23
4.0581509644
 33
0.0
 14
8.3482869567
 24
4.0581509644
 34
0.0
100
AcDbRotatedDimension
  0
DIMENSION
  5
3D3
330
1F
100
AcDbEntity
  8
0
  6
Continuous
 62
     7
370
     0
100
AcDbDimension
  2
*D11
 10
7.2658724729
 20
4.8841154967
 30
0.0
 11
5.7458790899
 21
4.8841154967
 31
0.0
 70
   160
 71
     1
 42
-1.0
  3
SLDDIMSTYLE1
100
AcDbAlignedDimension
 13
4.3609632438
 23
4.0581509644
 33
0.0
 14
7.2658724729
 24
4.0581509644
 34
0.0
 50
0.0
100
AcDbRotatedDimension
  0
DIMENSION
  5
3E5
330
1F
100
AcDbEntity
  8
0
  6
Continuous
 62
     7
370
     0
100
AcDbDimension
  2
*D12
 10
8.5497431397
 20
2.3319610914
 30
0.0
 11
7.8159400928
 21
2.3319610914
 31
0.0
 70
   160
 71
     1
 42
-1.0
  3
SLDDIMSTYLE3
100
AcDbAlignedDimension
 13
7.0594259997
 23
3.4681509644
 33
0.0
 14
8.5497431397
 24
3.4681509644
 34
0.0
100
AcDbRotatedDimension
  0
DIMENSION
  5
3F8
330
1F
100
AcDbEntity
  8
0
  6
Continuous
 62
     7
370
     0
100
AcDbDimension
  2
*D13
 10
7.7971058543
 20
3.0985621718
 30
0.0
 11
8.3198873128
 21
3.0985621718
 31
0.0
 70
   160
 71
     1
 42
-1.0
  3
SLDDIMSTYLE2
100
AcDbAlignedDimension
 13
7.6398882209
 23
4.0581509644
 33
0.0
 14
7.7971058543
 24
4.0581509644
 34
0.0
100
AcDbRotatedDimension
  0
DIMENSION
  5
40A
330
1F
100
AcDbEntity
  8
0
  6
Continuous
 62
     7
370
     0
100
AcDbDimension
  2
*D14
 10
8.3482869567
 20
5.2487078494
 30
0.0
 11
7.809321963
 21
5.2487078494
 31
0.0
 70
   160
 71
     1
 42
-1.0
  3
SLDDIMSTYLE4
100
AcDbAlignedDimension
 13
7.2658724729
 23
4.0581509644
 33
0.0
 14
8.3482869567
 24
4.0581509644
 34
0.0
100
AcDbRotatedDimension
  0
INSERT
  5
424
330
1F
100
AcDbEntity
  8
0
  6
Continuous
 62
     7
370
     0
100
AcDbBlockReference
  2
SW_NOTE_5
 10
7.3213220433
 20
2.7205943381
 30
0.0
  0
INSERT
  5
42B
102
{ACAD_REACTORS
330
42D
330
42E
102
}
330
1F
100
AcDbEntity
  8
0
  6
Continuous
 62
     7
370
     0
100
AcDbBlockReference
  2
SW_NOTE_6
 10
6.4012772573
 20
3.1499379377
 30
0.0
  0
LEADER
  5
42D
330
1F
100
AcDbEntity
  8
0
  6
Continuous
 62
     7
370
     0
100
AcDbLeader
  3
SLDDIMSTYLE5
 73
     2
 76
     3
 10
7.1543595212
 20
3.5521509644
 30
0.0
 10
6.6512772573
 20
3.1499379377
 30
0.0
 10
6.4012772573
 20
3.1499379377
 30
0.0
340
42B
  0
LEADER
  5
42E
330
1F
100
AcDbEntity
  8
0
  6
Continuous
 62
     7
370
     0
100
AcDbLeader
  3
SLDDIMSTYLE5
 73
     2
 76
     3
 10
8.448630435
 20
3.5521509644
 30
0.0
 10
6.6512772573
 20
3.1499379377
 30
0.0
 10
6.4012772573
 20
3.1499379377
 30
0.0
340
42B
  0
INSERT
  5
434
330
1F
100
AcDbEntity
  8
0
  6
Continuous
 62
     7
370
     0
100
AcDbBlockReference
  2
SW_NOTE_7
 10
8.7569010518
 20
4.5110212246
 30
0.0
  0
LEADER
  5
435
330
1F
100
AcDbEntity
  8
0
  6
Continuous
 62
     7
370
     0
100
AcDbLeader
  3
SLDDIMSTYLE5
 76
     2
 10
8.2101737273
 20
4.3314426433
 30
0.0
 10
8.7569010518
 20
4.5110212246
 30
0.0
  0
INSERT
  5
43B
102
{ACAD_REACTORS
330
43C
102
}
330
1F
100
AcDbEntity
  8
0
  6
Continuous
 62
     7
370
     0
100
AcDbBlockReference
  2
SW_NOTE_8
 10
6.2992264049
 20
4.5521064232
 30
0.0
  0
LEADER
  5
43C
330
1F
100
AcDbEntity
  8
0
  6
Continuous
 62
     7
370
     0
100
AcDbLeader
  3
SLDDIMSTYLE5
 73
     2
 76
     2
 10
7.41878941
 20
4.4356796221
 30
0.0
 10
6.2992264049
 20
4.5521064232
 30
0.0
340
43B
  0
INSERT
  5
442
330
1F
100
AcDbEntity
  8
0
  6
Continuous
 62
     7
370
     0
100
AcDbBlockReference
  2
SW_NOTE_9
 10
8.7939445954
 20
3.2824253927
 30
0.0
  0
LINE
  5
443
330
1F
100
AcDbEntity
  8
0
  6
Continuous
 62
     7
370
     0
100
AcDbLine
 10
8.7939445954
 20
3.2824253927
 30
0.0
 11
8.5497431397
 21
3.4681509644
 31
0.0
  0
SOLID
  5
444
330
1F
100
AcDbEntity
  8
0
  6
Continuous
 62
     7
370
     0
100
AcDbTrace
 10
8.5497431397
 20
3.4681509644
 30
0.0
 11
8.6581727073
 21
3.3530204781
 31
0.0
 12
8.6896512668
 22
3.3944100938
 32
0.0
 13
8.6896512668
 23
3.3944100938
 33
0.0
  0
INSERT
  5
44A
330
1F
100
AcDbEntity
  8
0
  6
Continuous
 62
     7
370
     0
100
AcDbBlockReference
  2
SW_NOTE_10
 10
8.7486486001
 20
3.6488724018
 30
0.0
  0
LEADER
  5
44B
330
1F
100
AcDbEntity
  8
0
  6
Continuous
 62
     7
370
     0
100
AcDbLeader
  3
SLDDIMSTYLE5
 76
     2
 10
8.3947431412
 20
3.6081509045
 30
0.0
 10
8.7486486001
 20
3.6488724018
 30
0.0
  0
INSERT
  5
451
102
{ACAD_REACTORS
330
452
102
}
330
1F
100
AcDbEntity
  8
0
  6
Continuous
 62
     7
370
     0
100
AcDbBlockReference
  2
SW_NOTE_11
 10
6.2113506617
 20
3.5953192329
 30
0.0
  0
LEADER
  5
452
330
1F
100
AcDbEntity
  8
0
  6
Continuous
 62
     7
370
     0
100
AcDbLeader
  3
SLDDIMSTYLE5
 73
     2
 76
     2
 10
7.2144259498
 20
3.6081509644
 30
0.0
 10
6.2113506617
 20
3.5953192329
 30
0.0
340
451
  0
HATCH
  5
453
330
1F
100
AcDbEntity
  8
0
  6
Continuous
 62
     7
370
     0
100
AcDbHatch
 10
0.0
 20
0.0
 30
0.0
210
0.0
220
0.0
230
1.0
  2
ANSI31
 70
     0
 71
     0
 91
        1
 92
        0
 93
       24
 72
     1
 10
7.95474313973294
 20
4.562150964391692
 11
8.24858843919456
 21
4.562150964391692
 72
     1
 10
8.24858843919456
 20
4.562150964391692
 11
8.24974313973294
 21
4.564150964391692
 72
     1
 10
8.24974313973294
 20
4.564150964391692
 11
8.532422631657251
 21
4.564150964391692
 72
     1
 10
8.532422631657251
 20
4.564150964391692
 11
8.54974313973294
 21
4.574150964391691
 72
     1
 10
8.54974313973294
 20
4.574150964391691
 11
8.54974313973294
 21
4.648150964391692
 72
     1
 10
8.54974313973294
 20
4.648150964391692
 11
8.53974313973294
 21
4.658150964391692
 72
     1
 10
8.53974313973294
 20
4.658150964391692
 11
7.535253921810861
 21
4.658150964391692
 72
     1
 10
7.535253921810861
 20
4.658150964391692
 11
7.517948727005667
 21
4.658150964391692
 72
     1
 10
7.517948727005667
 20
4.658150964391692
 11
7.382348077655017
 21
4.658150964391692
 72
     1
 10
7.382348077655017
 20
4.658150964391692
 11
7.324558093568366
 21
4.658150964391692
 72
     1
 10
7.324558093568366
 20
4.658150964391692
 11
7.069425999732939
 21
4.658150964391692
 72
     1
 10
7.069425999732939
 20
4.658150964391692
 11
7.059425999732939
 21
4.648150964391692
 72
     1
 10
7.059425999732939
 20
4.648150964391692
 11
7.059425999732939
 21
4.574150964391691
 72
     1
 10
7.059425999732939
 20
4.574150964391691
 11
7.076746507808628
 21
4.564150964391692
 72
     1
 10
7.076746507808628
 20
4.564150964391692
 11
7.35942599973294
 21
4.564150964391692
 72
     1
 10
7.35942599973294
 20
4.564150964391692
 11
7.360580700271318
 21
4.562150964391692
 72
     1
 10
7.360580700271318
 20
4.562150964391692
 11
7.56522674973294
 21
4.562150964391692
 72
     1
 10
7.56522674973294
 20
4.562150964391692
 11
7.56522674973294
 21
4.583150964391692
 72
     1
 10
7.56522674973294
 20
4.583150964391692
 11
7.585226749732939
 21
4.583150964391692
 72
     1
 10
7.585226749732939
 20
4.583150964391692
 11
7.585226749732939
 21
4.509150964391692
 72
     1
 10
7.585226749732939
 20
4.509150964391692
 11
7.93474313973294
 21
4.509150964391692
 72
     1
 10
7.93474313973294
 20
4.509150964391692
 11
7.93474313973294
 21
4.583150964391692
 72
     1
 10
7.93474313973294
 20
4.583150964391692
 11
7.95474313973294
 21
4.583150964391692
 72
     1
 10
7.95474313973294
 20
4.583150964391692
 11
7.95474313973294
 21
4.562150964391692
 97
        0
 75
     0
 76
     1
 52
0.0
 41
1.0
 77
     0
 78
     1
 53
45.0
 43
0.0
 44
0.0
 45
-0.0883883476483184
 46
0.0883883476483184
 79
     0
 98
        1
 10
0.0
 20
0.0
  0
HATCH
  5
454
330
1F
100
AcDbEntity
  8
0
  6
Continuous
 62
     7
370
     0
100
AcDbHatch
 10
0.0
 20
0.0
 30
0.0
210
0.0
220
0.0
230
1.0
  2
ANSI31
 70
     0
 71
     0
 91
        1
 92
        0
 93
       26
 72
     1
 10
8.54974313973294
 20
3.542150964391692
 11
8.532422631657251
 21
3.552150964391692
 72
     1
 10
8.532422631657251
 20
3.552150964391692
 11
8.24974313973294
 21
3.552150964391692
 72
     1
 10
8.24974313973294
 20
3.552150964391692
 11
8.24858843919456
 21
3.554150964391692
 72
     1
 10
8.24858843919456
 20
3.554150964391692
 11
7.95474313973294
 21
3.554150964391692
 72
     1
 10
7.95474313973294
 20
3.554150964391692
 11
7.95474313973294
 21
3.533150964391692
 72
     1
 10
7.95474313973294
 20
3.533150964391692
 11
7.93474313973294
 21
3.533150964391693
 72
     1
 10
7.93474313973294
 20
3.533150964391693
 11
7.93474313973294
 21
3.607150964391693
 72
     1
 10
7.93474313973294
 20
3.607150964391693
 11
7.585226749732939
 21
3.607150964391693
 72
     1
 10
7.585226749732939
 20
3.607150964391693
 11
7.585226749732939
 21
3.533150964391692
 72
     1
 10
7.585226749732939
 20
3.533150964391692
 11
7.56522674973294
 21
3.533150964391693
 72
     1
 10
7.56522674973294
 20
3.533150964391693
 11
7.56522674973294
 21
3.554150964391692
 72
     1
 10
7.56522674973294
 20
3.554150964391692
 11
7.360580700271318
 21
3.554150964391693
 72
     1
 10
7.360580700271318
 20
3.554150964391693
 11
7.35942599973294
 21
3.552150964391692
 72
     1
 10
7.35942599973294
 20
3.552150964391692
 11
7.076746507808628
 21
3.552150964391692
 72
     1
 10
7.076746507808628
 20
3.552150964391692
 11
7.059425999732939
 21
3.542150964391692
 72
     1
 10
7.059425999732939
 20
3.542150964391692
 11
7.059425999732939
 21
3.468150964391692
 72
     1
 10
7.059425999732939
 20
3.468150964391692
 11
7.069425999732939
 21
3.458150964391693
 72
     1
 10
7.069425999732939
 20
3.458150964391693
 11
7.194653272460212
 21
3.458150964391692
 72
     1
 10
7.194653272460212
 20
3.458150964391692
 11
7.214425999732939
 21
3.458150964391692
 72
     1
 10
7.214425999732939
 20
3.458150964391692
 11
7.300718329914914
 21
3.458150964391692
 72
     1
 10
7.300718329914914
 20
3.458150964391692
 11
7.315605383910721
 21
3.458150964391692
 72
     1
 10
7.315605383910721
 20
3.458150964391692
 11
7.368347733736316
 21
3.458150964391692
 72
     1
 10
7.368347733736316
 20
3.458150964391692
 11
7.383683152176531
 21
3.458150964391692
 72
     1
 10
7.383683152176531
 20
3.458150964391692
 11
8.53974313973294
 21
3.458150964391692
 72
     1
 10
8.53974313973294
 20
3.458150964391692
 11
8.54974313973294
 21
3.468150964391692
 72
     1
 10
8.54974313973294
 20
3.468150964391692
 11
8.54974313973294
 21
3.542150964391692
 97
        0
 75
     0
 76
     1
 52
0.0
 41
1.0
 77
     0
 78
     1
 53
45.0
 43
0.0
 44
0.0
 45
-0.0883883476483184
 46
0.0883883476483184
 79
     0
 98
        1
 10
0.0
 20
0.0
  0
HATCH
  5
455
330
1F
100
AcDbEntity
  8
0
  6
Continuous
 62
     7
370
     0
100
AcDbHatch
 10
0.0
 20
0.0
 30
0.0
210
0.0
220
0.0
230
1.0
  2
ANSI31
 70
     0
 71
     0
 91
        1
 92
        0
 93
        6
 72
     1
 10
7.214425949755229
 20
4.508150964391691
 11
7.294425949755228
 21
4.508150964391691
 72
     1
 10
7.294425949755228
 20
4.508150964391691
 11
7.294425949755228
 21
4.565650964391692
 72
     1
 10
7.294425949755228
 20
4.565650964391692
 11
7.27710544167954
 21
4.575650964391692
 72
     1
 10
7.27710544167954
 20
4.575650964391692
 11
7.224425949755229
 21
4.575650964391691
 72
     1
 10
7.224425949755229
 20
4.575650964391691
 11
7.214425949755228
 21
4.558330456316002
 72
     1
 10
7.214425949755228
 20
4.558330456316002
 11
7.214425949755229
 21
4.508150964391691
 97
        0
 75
     0
 76
     1
 52
0.0
 41
1.0
 77
     0
 78
     1
 53
45.0
 43
0.0
 44
0.0
 45
-0.0883883476483184
 46
0.0883883476483184
 79
     0
 98
        1
 10
0.0
 20
0.0
  0
HATCH
  5
456
330
1F
100
AcDbEntity
  8
0
  6
Continuous
 62
     7
370
     0
100
AcDbHatch
 10
0.0
 20
0.0
 30
0.0
210
0.0
220
0.0
230
1.0
  2
ANSI31
 70
     0
 71
     0
 91
        1
 92
        0
 93
        6
 72
     1
 10
7.214425949755228
 20
3.608150964391692
 11
7.214425949755227
 21
3.557971472467383
 72
     1
 10
7.214425949755227
 20
3.557971472467383
 11
7.224425949755227
 21
3.540650964391692
 72
     1
 10
7.224425949755227
 20
3.540650964391692
 11
7.27710544167954
 21
3.540650964391692
 72
     1
 10
7.27710544167954
 20
3.540650964391692
 11
7.294425949755228
 21
3.550650964391692
 72
     1
 10
7.294425949755228
 20
3.550650964391692
 11
7.294425949755228
 21
3.608150964391692
 72
     1
 10
7.294425949755228
 20
3.608150964391692
 11
7.214425949755228
 21
3.608150964391692
 97
        0
 75
     0
 76
     1
 52
0.0
 41
1.0
 77
     0
 78
     1
 53
45.0
 43
0.0
 44
0.0
 45
-0.0883883476483184
 46
0.0883883476483184
 79
     0
 98
        1
 10
0.0
 20
0.0
  0
HATCH
  5
457
330
1F
100
AcDbEntity
  8
0
  6
Continuous
 62
     7
370
     0
100
AcDbHatch
 10
0.0
 20
0.0
 30
0.0
210
0.0
220
0.0
230
1.0
  2
ANSI31
 70
     0
 71
     0
 91
        1
 92
        0
 93
        6
 72
     1
 10
8.394743141233429
 20
3.608150904545902
 11
8.31474314123343
 21
3.608150904545902
 72
     1
 10
8.31474314123343
 20
3.608150904545902
 11
8.31474314123343
 21
3.55065090454589
 72
     1
 10
8.31474314123343
 20
3.55065090454589
 11
8.332063649309118
 21
3.540650904545901
 72
     1
 10
8.332063649309118
 20
3.540650904545901
 11
8.384743141233429
 21
3.54065090454589
 72
     1
 10
8.384743141233429
 20
3.54065090454589
 11
8.39474314123343
 21
3.55797141262158
 72
     1
 10
8.39474314123343
 20
3.55797141262158
 11
8.394743141233429
 21
3.608150904545902
 97
        0
 75
     0
 76
     1
 52
0.0
 41
1.0
 77
     0
 78
     1
 53
45.0
 43
0.0
 44
0.0
 45
-0.0883883476483184
 46
0.0883883476483184
 79
     0
 98
        1
 10
0.0
 20
0.0
  0
HATCH
  5
458
330
1F
100
AcDbEntity
  8
0
  6
Continuous
 62
     7
370
     0
100
AcDbHatch
 10
0.0
 20
0.0
 30
0.0
210
0.0
220
0.0
230
1.0
  2
ANSI31
 70
     0
 71
     0
 91
        1
 92
        0
 93
        6
 72
     1
 10
8.39474314123343
 20
4.508150904545878
 11
8.39474314123343
 21
4.5583303964702
 72
     1
 10
8.39474314123343
 20
4.5583303964702
 11
8.38474314123343
 21
4.57565090454588
 72
     1
 10
8.38474314123343
 20
4.57565090454588
 11
8.332063649309118
 21
4.57565090454589
 72
     1
 10
8.332063649309118
 20
4.57565090454589
 11
8.31474314123343
 21
4.56565090454589
 72
     1
 10
8.31474314123343
 20
4.56565090454589
 11
8.31474314123343
 21
4.508150904545878
 72
     1
 10
8.31474314123343
 20
4.508150904545878
 11
8.39474314123343
 21
4.508150904545878
 97
        0
 75
     0
 76
     1
 52
0.0
 41
1.0
 77
     0
 78
     1
 53
45.0
 43
0.0
 44
0.0
 45
-0.0883883476483184
 46
0.0883883476483184
 79
     0
 98
        1
 10
0.0
 20
0.0
  0
HATCH
  5
459
330
1F
100
AcDbEntity
  8
0
  6
Continuous
 62
     7
370
     0
100
AcDbHatch
 10
0.0
 20
0.0
 30
0.0
210
0.0
220
0.0
230
1.0
  2
ANSI31
 70
     0
 71
     0
 91
        1
 92
        0
 93
        4
 72
     1
 10
7.461463815409301
 20
4.55815096439169
 11
7.299252741634007
 21
4.558150964391692
 72
     2
 10
11.02728979570423
 20
4.058150964391689
 40
3.761417322834654
 50
172.3611411862246
 51
187.6388588137761
 73
     1
 72
     1
 10
7.299252741634007
 20
3.558150964391692
 11
7.461463815409301
 21
3.558150964391694
 72
     2
 10
8.699337039798715
 20
4.058150964391692
 40
1.33503937007874
 50
158.0053021446882
 51
201.9946978553126
 73
     0
 97
        0
 75
     0
 76
     1
 52
0.0
 41
1.0
 77
     0
 78
     1
 53
45.0
 43
0.0
 44
0.0
 45
-0.0883883476483184
 46
0.0883883476483184
 79
     0
 98
        1
 10
0.0
 20
0.0
  0
HATCH
  5
45A
330
1F
100
AcDbEntity
  8
0
  6
Continuous
 62
     7
370
     0
100
AcDbHatch
 10
0.0
 20
0.0
 30
0.0
210
0.0
220
0.0
230
1.0
  2
ANSI31
 70
     0
 71
     0
 91
        1
 92
        0
 93
        4
 72
     1
 10
8.30824481588283
 20
4.558150964391693
 11
8.03964506129106
 21
4.558150964391692
 72
     2
 10
7.610885381902097
 20
4.058150964391692
 40
0.6586614173228348
 50
310.6137279291679
 51
409.3862720708338
 73
     0
 72
     1
 10
8.03964506129106
 20
3.558150964391692
 11
8.30824481588283
 21
3.558150964391691
 72
     2
 10
5.206554673240679
 20
4.058150964391692
 40
3.141732283464567
 50
350.8425609973378
 51
369.1574390026639
 73
     1
 97
        0
 75
     0
 76
     1
 52
0.0
 41
1.0
 77
     0
 78
     1
 53
45.0
 43
0.0
 44
0.0
 45
-0.0883883476483184
 46
0.0883883476483184
 79
     0
 98
        1
 10
0.0
 20
0.0
  0
HATCH
  5
45B
330
1F
100
AcDbEntity
  8
0
  6
Continuous
 62
     7
370
     0
100
AcDbHatch
 10
0.0
 20
0.0
 30
0.0
210
0.0
220
0.0
230
1.0
  2
ANSI31
 70
     0
 71
     0
 91
        1
 92
        0
 93
        4
 72
     1
 10
8.03964506129106
 20
4.558150964391692
 11
7.966546716668875
 21
4.558150964391692
 72
     2
 10
8.619546799224931
 20
4.058150964391692
 40
0.8224409448818898
 50
142.5588390420823
 51
217.4411609579185
 73
     1
 72
     1
 10
7.966546716668875
 20
3.558150964391692
 11
8.03964506129106
 21
3.558150964391692
 72
     2
 10
7.610885381902097
 20
4.058150964391692
 40
0.6586614173228348
 50
310.6137279291679
 51
409.3862720708337
 73
     1
 97
        0
 75
     0
 76
     1
 52
0.0
 41
1.0
 77
     0
 78
     1
 53
45.0
 43
0.0
 44
0.0
 45
-0.0883883476483184
 46
0.0883883476483184
 79
     0
 98
        1
 10
0.0
 20
0.0
  0
HATCH
  5
45C
330
1F
100
AcDbEntity
  8
0
  6
Continuous
 62
     7
370
     0
100
AcDbHatch
 10
0.0
 20
0.0
 30
0.0
210
0.0
220
0.0
230
1.0
  2
ANSI31
 70
     0
 71
     0
 91
        1
 92
        0
 93
        4
 72
     1
 10
7.570347702575994
 20
4.558150964391692
 11
7.461463815409304
 21
4.558150964391692
 72
     2
 10
8.699337039798715
 20
4.058150964391692
 40
1.33503937007874
 50
158.005302144688
 51
201.9946978553128
 73
     1
 72
     1
 10
7.461463815409304
 20
3.558150964391692
 11
7.570347702575994
 21
3.558150964391692
 72
     2
 10
5.807604756334146
 20
4.058150964391692
 40
1.832283464566929
 50
344.1640733499593
 51
375.8359266500423
 73
     1
 97
        0
 75
     0
 76
     1
 52
0.0
 41
1.0
 77
     0
 78
     1
 53
45.0
 43
0.0
 44
0.0
 45
-0.0883883476483184
 46
0.0883883476483184
 79
     0
 98
        1
 10
0.0
 20
0.0
  0
ENDSEC
  0
SECTION
  2
OBJECTS
  0
DICTIONARY
  5
C
330
0
100
AcDbDictionary
281
     1
  3
ACAD_GROUP
350
D
  3
ACAD_LAYOUT
350
1A
  3
ACAD_MLINESTYLE
350
17
  3
ACAD_PLOTSETTINGS
350
19
  3
ACAD_PLOTSTYLENAME
350
E
  0
DICTIONARY
  5
D
102
{ACAD_REACTORS
330
C
102
}
330
C
100
AcDbDictionary
281
     1
  0
DICTIONARY
  5
1A
102
{ACAD_REACTORS
330
C
102
}
330
C
100
AcDbDictionary
281
     1
  3
Layout1
350
1E
  3
Layout2
350
26
  3
Model
350
22
  0
DICTIONARY
  5
17
102
{ACAD_REACTORS
330
C
102
}
330
C
100
AcDbDictionary
281
     1
  3
Standard
350
18
  0
DICTIONARY
  5
19
102
{ACAD_REACTORS
330
C
102
}
330
C
100
AcDbDictionary
281
     1
  0
ACDBDICTIONARYWDFLT
  5
E
102
{ACAD_REACTORS
330
C
102
}
330
C
100
AcDbDictionary
281
     1
  3
Normal
350
F
100
AcDbDictionaryWithDefault
340
F
  0
LAYOUT
  5
1E
102
{ACAD_REACTORS
330
1A
102
}
330
1A
100
AcDbPlotSettings
  1

  2
none_device
  4

  6

 40
0.0
 41
0.0
 42
0.0
 43
0.0
 44
0.0
 45
0.0
 46
0.0
 47
0.0
 48
0.0
 49
0.0
140
0.0
141
0.0
142
1.0
143
1.0
 70
   688
 72
     0
 73
     0
 74
     5
  7

 75
    16
147
1.0
148
0.0
149
0.0
100
AcDbLayout
  1
Layout1
 70
     1
 71
     1
 10
0.0
 20
0.0
 11
12.0
 21
9.0
 12
0.0
 22
0.0
 32
0.0
 14
1.0000000000E+20
 24
1.0000000000E+20
 34
1.0000000000E+20
 15
-1.0000000000E+20
 25
-1.0000000000E+20
 35
-1.0000000000E+20
146
0.0
 13
0.0
 23
0.0
 33
0.0
 16
1.0
 26
0.0
 36
0.0
 17
0.0
 27
1.0
 37
0.0
 76
     0
330
1B
  0
LAYOUT
  5
26
102
{ACAD_REACTORS
330
1A
102
}
330
1A
100
AcDbPlotSettings
  1

  2
none_device
  4

  6

 40
0.0
 41
0.0
 42
0.0
 43
0.0
 44
0.0
 45
0.0
 46
0.0
 47
0.0
 48
0.0
 49
0.0
140
0.0
141
0.0
142
1.0
143
1.0
 70
   688
 72
     0
 73
     0
 74
     5
  7

 75
    16
147
1.0
148
0.0
149
0.0
100
AcDbLayout
  1
Layout2
 70
     1
 71
     2
 10
0.0
 20
0.0
 11
0.0
 21
0.0
 12
0.0
 22
0.0
 32
0.0
 14
0.0
 24
0.0
 34
0.0
 15
0.0
 25
0.0
 35
0.0
146
0.0
 13
0.0
 23
0.0
 33
0.0
 16
1.0
 26
0.0
 36
0.0
 17
0.0
 27
1.0
 37
0.0
 76
     0
330
23
  0
LAYOUT
  5
22
102
{ACAD_REACTORS
330
1A
102
}
330
1A
100
AcDbPlotSettings
  1

  2
none_device
  4

  6

 40
0.0
 41
0.0
 42
0.0
 43
0.0
 44
0.0
 45
0.0
 46
0.0
 47
0.0
 48
0.0
 49
0.0
140
0.0
141
0.0
142
1.0
143
1.0
 70
  1712
 72
     0
 73
     0
 74
     0
  7

 75
     0
147
1.0
148
0.0
149
0.0
100
AcDbLayout
  1
Model
 70
     1
 71
     0
 10
0.0
 20
0.0
 11
0.0
 21
0.0
 12
0.0
 22
0.0
 32
0.0
 14
0.0
 24
0.0
 34
0.0
 15
11.0
 25
8.5
 35
0.0
146
0.0
 13
0.0
 23
0.0
 33
0.0
 16
1.0
 26
0.0
 36
0.0
 17
0.0
 27
1.0
 37
0.0
 76
     0
330
1F
  0
MLINESTYLE
  5
18
102
{ACAD_REACTORS
330
17
102
}
330
17
100
AcDbMlineStyle
  2
Standard
 70
     0
  3

 62
   256
 51
90.0
 52
90.0
 71
     2
 49
0.5
 62
   256
  6
BYLAYER
 49
-0.5
 62
   256
  6
BYLAYER
  0
ACDBPLACEHOLDER
  5
F
102
{ACAD_REACTORS
330
E
102
}
330
E
  0
ENDSEC
  0
EOF
